  0
SECTION
  2
HEADER
  9
$ACADVER
  1
AC1015
  9
$ACADMAINTVER
 70
    20
  9
$DWGCODEPAGE
  3
ANSI_932
  9
$INSBASE
 10
0.4999999440410648
 20
246.5008351249344
 30
0.0
  9
$EXTMIN
 10
-63.4909048577432
 20
-65.1092370551886
 30
-0.0015258207003583
  9
$EXTMAX
 10
61.5426641348082
 20
47.9153598986046
 30
0.0000000349246037
  9
$LIMMIN
 10
0.0
 20
0.0
  9
$LIMMAX
 10
420.0
 20
297.0
  9
$ORTHOMODE
 70
     1
  9
$REGENMODE
 70
     0
  9
$FILLMODE
 70
     1
  9
$QTEXTMODE
 70
     0
  9
$MIRRTEXT
 70
     0
  9
$LTSCALE
 40
1.0
  9
$ATTMODE
 70
     1
  9
$TEXTSIZE
 40
2.5
  9
$TRACEWID
 40
1.0
  9
$TEXTSTYLE
  7
Standard
  9
$CLAYER
  8
GAIKEI
  9
$CELTYPE
  6
ByLayer
  9
$CECOLOR
 62
   256
  9
$CELTSCALE
 40
1.0
  9
$DISPSILH
 70
     0
  9
$DIMSCALE
 40
1.0
  9
$DIMASZ
 40
2.0
  9
$DIMEXO
 40
2.0
  9
$DIMDLI
 40
8.0
  9
$DIMRND
 40
0.0
  9
$DIMDLE
 40
0.0
  9
$DIMEXE
 40
2.0
  9
$DIMTP
 40
0.0
  9
$DIMTM
 40
0.0
  9
$DIMTXT
 40
2.5
  9
$DIMCEN
 40
0.0
  9
$DIMTSZ
 40
0.0
  9
$DIMTOL
 70
     0
  9
$DIMLIM
 70
     0
  9
$DIMTIH
 70
     0
  9
$DIMTOH
 70
     0
  9
$DIMSE1
 70
     0
  9
$DIMSE2
 70
     0
  9
$DIMTAD
 70
     3
  9
$DIMZIN
 70
     0
  9
$DIMBLK
  1

  9
$DIMASO
 70
     1
  9
$DIMSHO
 70
     1
  9
$DIMPOST
  1

  9
$DIMAPOST
  1

  9
$DIMALT
 70
     0
  9
$DIMALTD
 70
     2
  9
$DIMALTF
 40
25.4
  9
$DIMLFAC
 40
1.0
  9
$DIMTOFL
 70
     1
  9
$DIMTVP
 40
0.0
  9
$DIMTIX
 70
     0
  9
$DIMSOXD
 70
     0
  9
$DIMSAH
 70
     1
  9
$DIMBLK1
  1
OPEN30
  9
$DIMBLK2
  1
OPEN30
  9
$DIMSTYLE
  2
STANDARD
  9
$DIMCLRD
 70
     0
  9
$DIMCLRE
 70
     0
  9
$DIMCLRT
 70
     0
  9
$DIMTFAC
 40
1.0
  9
$DIMGAP
 40
0.5
  9
$DIMJUST
 70
     0
  9
$DIMSD1
 70
     0
  9
$DIMSD2
 70
     0
  9
$DIMTOLJ
 70
     1
  9
$DIMTZIN
 70
     0
  9
$DIMALTZ
 70
     0
  9
$DIMALTTZ
 70
     0
  9
$DIMUPT
 70
     0
  9
$DIMDEC
 70
     4
  9
$DIMTDEC
 70
     4
  9
$DIMALTU
 70
     2
  9
$DIMALTTD
 70
     2
  9
$DIMTXSTY
  7
Standard
  9
$DIMAUNIT
 70
     0
  9
$DIMADEC
 70
     0
  9
$DIMALTRND
 40
0.0
  9
$DIMAZIN
 70
     0
  9
$DIMDSEP
 70
    46
  9
$DIMATFIT
 70
     3
  9
$DIMFRAC
 70
     0
  9
$DIMLDRBLK
  1
OPEN30
  9
$DIMLUNIT
 70
     2
  9
$DIMLWD
 70
    -2
  9
$DIMLWE
 70
    -2
  9
$DIMTMOVE
 70
     0
  9
$LUNITS
 70
     2
  9
$LUPREC
 70
     4
  9
$SKETCHINC
 40
1.0
  9
$FILLETRAD
 40
0.0
  9
$AUNITS
 70
     0
  9
$AUPREC
 70
     0
  9
$MENU
  1
.
  9
$ELEVATION
 40
0.0
  9
$PELEVATION
 40
0.0
  9
$THICKNESS
 40
0.0
  9
$LIMCHECK
 70
     0
  9
$CHAMFERA
 40
0.0
  9
$CHAMFERB
 40
0.0
  9
$CHAMFERC
 40
0.0
  9
$CHAMFERD
 40
0.0
  9
$SKPOLY
 70
     0
  9
$TDCREATE
 40
2454349.434269746
  9
$TDUCREATE
 40
2454349.059269746
  9
$TDUPDATE
 40
2455456.636226123
  9
$TDUUPDATE
 40
2455456.261226123
  9
$TDINDWG
 40
0.1936468750
  9
$TDUSRTIMER
 40
0.1936468750
  9
$USRTIMER
 70
     1
  9
$ANGBASE
 50
0.0
  9
$ANGDIR
 70
     0
  9
$PDMODE
 70
     0
  9
$PDSIZE
 40
0.0
  9
$PLINEWID
 40
0.0
  9
$SPLFRAME
 70
     0
  9
$SPLINETYPE
 70
     6
  9
$SPLINESEGS
 70
     8
  9
$HANDSEED
  5
3FF
  9
$SURFTAB1
 70
     6
  9
$SURFTAB2
 70
     6
  9
$SURFTYPE
 70
     6
  9
$SURFU
 70
     6
  9
$SURFV
 70
     6
  9
$UCSBASE
  2

  9
$UCSNAME
  2

  9
$UCSORG
 10
0.0
 20
0.0
 30
0.0
  9
$UCSXDIR
 10
1.0
 20
0.0
 30
0.0
  9
$UCSYDIR
 10
0.0
 20
1.0
 30
0.0
  9
$UCSORTHOREF
  2

  9
$UCSORTHOVIEW
 70
     0
  9
$UCSORGTOP
 10
0.0
 20
0.0
 30
0.0
  9
$UCSORGBOTTOM
 10
0.0
 20
0.0
 30
0.0
  9
$UCSORGLEFT
 10
0.0
 20
0.0
 30
0.0
  9
$UCSORGRIGHT
 10
0.0
 20
0.0
 30
0.0
  9
$UCSORGFRONT
 10
0.0
 20
0.0
 30
0.0
  9
$UCSORGBACK
 10
0.0
 20
0.0
 30
0.0
  9
$PUCSBASE
  2

  9
$PUCSNAME
  2

  9
$PUCSORG
 10
0.0
 20
0.0
 30
0.0
  9
$PUCSXDIR
 10
1.0
 20
0.0
 30
0.0
  9
$PUCSYDIR
 10
0.0
 20
1.0
 30
0.0
  9
$PUCSORTHOREF
  2

  9
$PUCSORTHOVIEW
 70
     0
  9
$PUCSORGTOP
 10
0.0
 20
0.0
 30
0.0
  9
$PUCSORGBOTTOM
 10
0.0
 20
0.0
 30
0.0
  9
$PUCSORGLEFT
 10
0.0
 20
0.0
 30
0.0
  9
$PUCSORGRIGHT
 10
0.0
 20
0.0
 30
0.0
  9
$PUCSORGFRONT
 10
0.0
 20
0.0
 30
0.0
  9
$PUCSORGBACK
 10
0.0
 20
0.0
 30
0.0
  9
$USERI1
 70
     0
  9
$USERI2
 70
     0
  9
$USERI3
 70
     0
  9
$USERI4
 70
     0
  9
$USERI5
 70
     0
  9
$USERR1
 40
0.0
  9
$USERR2
 40
0.0
  9
$USERR3
 40
0.0
  9
$USERR4
 40
0.0
  9
$USERR5
 40
0.0
  9
$WORLDVIEW
 70
     1
  9
$SHADEDGE
 70
     3
  9
$SHADEDIF
 70
    70
  9
$TILEMODE
 70
     1
  9
$MAXACTVP
 70
    64
  9
$PINSBASE
 10
0.0
 20
0.0
 30
0.0
  9
$PLIMCHECK
 70
     0
  9
$PEXTMIN
 10
0.0
 20
0.0
 30
0.0
  9
$PEXTMAX
 10
0.0
 20
0.0
 30
0.0
  9
$PLIMMIN
 10
0.0
 20
0.0
  9
$PLIMMAX
 10
12.0
 20
9.0
  9
$UNITMODE
 70
     0
  9
$VISRETAIN
 70
     1
  9
$PLINEGEN
 70
     0
  9
$PSLTSCALE
 70
     1
  9
$TREEDEPTH
 70
  3020
  9
$CMLSTYLE
  2
Standard
  9
$CMLJUST
 70
     0
  9
$CMLSCALE
 40
20.0
  9
$PROXYGRAPHICS
 70
     1
  9
$MEASUREMENT
 70
     1
  9
$CELWEIGHT
370
    -1
  9
$ENDCAPS
280
     0
  9
$JOINSTYLE
280
     0
  9
$LWDISPLAY
290
     0
  9
$INSUNITS
 70
     4
  9
$HYPERLINKBASE
  1

  9
$STYLESHEET
  1

  9
$XEDIT
290
     1
  9
$CEPSNTYPE
380
     0
  9
$PSTYLEMODE
290
     1
  9
$FINGERPRINTGUID
  2
{FDEAD578-A652-11D2-9A35-0060089B3A3F}
  9
$VERSIONGUID
  2
{398743A1-0A07-4FD4-AF57-24B5EAE8DA94}
  9
$EXTNAMES
290
     1
  9
$PSVPSCALE
 40
0.0
  9
$OLESTARTUP
290
     0
  0
ENDSEC
  0
SECTION
  2
CLASSES
  0
CLASS
  1
ACDBDICTIONARYWDFLT
  2
AcDbDictionaryWithDefault
  3
ObjectDBX Classes
 90
        0
280
     0
281
     0
  0
CLASS
  1
ACDBPLACEHOLDER
  2
AcDbPlaceHolder
  3
ObjectDBX Classes
 90
        0
280
     0
281
     0
  0
CLASS
  1
LAYOUT
  2
AcDbLayout
  3
ObjectDBX Classes
 90
        0
280
     0
281
     0
  0
CLASS
  1
DICTIONARYVAR
  2
AcDbDictionaryVar
  3
ObjectDBX Classes
 90
        0
280
     0
281
     0
  0
ENDSEC
  0
SECTION
  2
TABLES
  0
TABLE
  2
VPORT
  5
1B
330
0
100
AcDbSymbolTable
 70
     2
  0
VPORT
  5
3F7
330
1B
100
AcDbSymbolTableRecord
100
AcDbViewportTableRecord
  2
*Active
 70
     0
 10
0.0
 20
0.0
 11
1.0
 21
1.0
 12
-0.9741203614675022
 22
-8.596938578291997
 13
0.0
 23
0.0
 14
10.0
 24
10.0
 15
10.0
 25
10.0
 16
0.0
 26
0.0
 36
1.0
 17
0.0
 27
0.0
 37
0.0
 40
113.9216175645376
 41
1.451655629139072
 42
50.0
 43
0.0
 44
0.0
 50
0.0
 51
0.0
 71
     0
 72
  1000
 73
     1
 74
     2
 75
     0
 76
     0
 77
     0
 78
     0
281
     0
 65
     1
110
0.0
120
0.0
130
0.0
111
1.0
121
0.0
131
0.0
112
0.0
122
1.0
132
0.0
 79
     0
146
0.0
  0
ENDTAB
  0
TABLE
  2
LTYPE
  5
16
330
0
100
AcDbSymbolTable
 70
     1
  0
LTYPE
  5
17
330
16
100
AcDbSymbolTableRecord
100
AcDbLinetypeTableRecord
  2
ByBlock
 70
     0
  3

 72
    65
 73
     0
 40
0.0
  0
LTYPE
  5
18
330
16
100
AcDbSymbolTableRecord
100
AcDbLinetypeTableRecord
  2
ByLayer
 70
     0
  3

 72
    65
 73
     0
 40
0.0
  0
LTYPE
  5
8
330
16
100
AcDbSymbolTableRecord
100
AcDbLinetypeTableRecord
  2
Continuous
 70
     0
  3
Solid line
 72
    65
 73
     0
 40
0.0
  0
ENDTAB
  0
TABLE
  2
LAYER
  5
10
102
{ACAD_XDICTIONARY
360
11
102
}
330
0
100
AcDbSymbolTable
 70
     7
  0
LAYER
  5
4
330
10
100
AcDbSymbolTableRecord
100
AcDbLayerTableRecord
  2
0
 70
     0
 62
     7
  6
Continuous
370
    -3
390
5
  0
LAYER
  5
37
330
10
100
AcDbSymbolTableRecord
100
AcDbLayerTableRecord
  2
WAKU
 70
     0
 62
     4
  6
Continuous
370
    -3
390
5
  0
LAYER
  5
30
330
10
100
AcDbSymbolTableRecord
100
AcDbLayerTableRecord
  2
MOJI1
 70
     0
 62
     2
  6
Continuous
370
    -3
390
5
  0
LAYER
  5
33
330
10
100
AcDbSymbolTableRecord
100
AcDbLayerTableRecord
  2
TOUROKU
 70
     0
 62
     1
  6
Continuous
370
    -3
390
5
  0
LAYER
  5
38A
330
10
100
AcDbSymbolTableRecord
100
AcDbLayerTableRecord
  2
Defpoints
 70
     0
 62
     7
  6
Continuous
290
     0
370
    -3
390
5
  0
LAYER
  5
2D
330
10
100
AcDbSymbolTableRecord
100
AcDbLayerTableRecord
  2
GAIKEI
 70
     0
 62
     7
  6
Continuous
370
    -3
390
5
  0
LAYER
  5
380
330
10
100
AcDbSymbolTableRecord
100
AcDbLayerTableRecord
  2
SUNPO
 70
     0
 62
     3
  6
Continuous
370
    -3
390
5
  0
ENDTAB
  0
TABLE
  2
STYLE
  5
13
330
0
100
AcDbSymbolTable
 70
     2
  0
STYLE
  5
14
330
13
100
AcDbSymbolTableRecord
100
AcDbTextStyleTableRecord
  2
Standard
 70
     0
 40
0.0
 41
1.0
 50
0.0
 71
     0
 42
2.5
  3
MONOTXT.shx
  4
BIGFONT.shx
  0
STYLE
  5
31
330
13
100
AcDbSymbolTableRecord
100
AcDbTextStyleTableRecord
  2
KANJI
 70
     0
 40
0.0
 41
1.0
 50
0.0
 71
     0
 42
3.5
  3
MONOTXT
  4
BIGFONT
  0
ENDTAB
  0
TABLE
  2
VIEW
  5
19
330
0
100
AcDbSymbolTable
 70
     0
  0
ENDTAB
  0
TABLE
  2
UCS
  5
1A
330
0
100
AcDbSymbolTable
 70
     0
  0
ENDTAB
  0
TABLE
  2
APPID
  5
1D
330
0
100
AcDbSymbolTable
 70
     1
  0
APPID
  5
1E
330
1D
100
AcDbSymbolTableRecord
100
AcDbRegAppTableRecord
  2
ACAD
 70
     0
  0
ENDTAB
  0
TABLE
  2
DIMSTYLE
  5
1F
330
0
100
AcDbSymbolTable
 70
     1
100
AcDbDimStyleTable
 71
     1
340
20
  0
DIMSTYLE
105
20
102
{ACAD_REACTORS
330
37F
330
38E
330
39B
102
}
330
1F
100
AcDbSymbolTableRecord
100
AcDbDimStyleTableRecord
  2
STANDARD
 70
     0
 40
0.0
 41
2.0
 42
2.0
 43
8.0
 44
2.0
 73
     0
 74
     0
 77
     3
140
3.0
141
0.0
173
     1
279
     2
288
     1
340
14
341
21
343
21
344
21
  0
ENDTAB
  0
TABLE
  2
BLOCK_RECORD
  5
1
330
0
100
AcDbSymbolTable
 70
     7
  0
BLOCK_RECORD
  5
2
330
1
100
AcDbSymbolTableRecord
100
AcDbBlockTableRecord
  2
*Model_Space
340
A
  0
BLOCK_RECORD
  5
C
330
1
100
AcDbSymbolTableRecord
100
AcDbBlockTableRecord
  2
*Paper_Space
340
F
  0
BLOCK_RECORD
  5
21
330
1
100
AcDbSymbolTableRecord
100
AcDbBlockTableRecord
  2
_OPEN30
340
0
102
{BLKREFS
331
386
331
387
331
394
331
395
331
3A1
331
3A2
331
3D3
331
3D4
331
3DF
331
3E0
331
3EB
331
3EC
102
}
  0
BLOCK_RECORD
  5
381
330
1
100
AcDbSymbolTableRecord
100
AcDbBlockTableRecord
  2
*D1
340
0
  0
BLOCK_RECORD
  5
38F
330
1
100
AcDbSymbolTableRecord
100
AcDbBlockTableRecord
  2
*D2
340
0
  0
BLOCK_RECORD
  5
39C
330
1
100
AcDbSymbolTableRecord
100
AcDbBlockTableRecord
  2
*D3
340
0
  0
BLOCK_RECORD
  5
3CF
330
1
100
AcDbSymbolTableRecord
100
AcDbBlockTableRecord
  2
*D4
340
0
  0
BLOCK_RECORD
  5
3DB
330
1
100
AcDbSymbolTableRecord
100
AcDbBlockTableRecord
  2
*D5
340
0
  0
BLOCK_RECORD
  5
3E7
330
1
100
AcDbSymbolTableRecord
100
AcDbBlockTableRecord
  2
*D6
340
0
  0
ENDTAB
  0
ENDSEC
  0
SECTION
  2
BLOCKS
  0
BLOCK
  5
3
330
2
100
AcDbEntity
  8
0
100
AcDbBlockBegin
  2
*Model_Space
 70
     0
 10
0.0
 20
0.0
 30
0.0
  3
*Model_Space
  1

  0
ENDBLK
  5
9
330
2
100
AcDbEntity
  8
0
100
AcDbBlockEnd
  0
BLOCK
  5
D
330
C
100
AcDbEntity
 67
     1
  8
0
100
AcDbBlockBegin
  2
*Paper_Space
 70
     0
 10
0.0
 20
0.0
 30
0.0
  3
*Paper_Space
  1

  0
ENDBLK
  5
E
330
C
100
AcDbEntity
 67
     1
  8
0
100
AcDbBlockEnd
  0
BLOCK
  5
22
330
21
100
AcDbEntity
  8
0
100
AcDbBlockBegin
  2
_OPEN30
 70
     0
 10
0.0
 20
0.0
 30
0.0
  3
_OPEN30
  1

  0
LINE
  5
23
330
21
100
AcDbEntity
  8
0
  6
ByBlock
 62
     0
100
AcDbLine
 10
-1.0
 20
0.26794919
 30
0.0
 11
0.0
 21
0.0
 31
0.0
  0
LINE
  5
24
330
21
100
AcDbEntity
  8
0
  6
ByBlock
 62
     0
100
AcDbLine
 10
0.0
 20
0.0
 30
0.0
 11
-1.0
 21
-0.26794919
 31
0.0
  0
LINE
  5
25
330
21
100
AcDbEntity
  8
0
  6
ByBlock
 62
     0
100
AcDbLine
 10
0.0
 20
0.0
 30
0.0
 11
-1.0
 21
0.0
 31
0.0
  0
ENDBLK
  5
26
330
21
100
AcDbEntity
  8
0
100
AcDbBlockEnd
  0
BLOCK
  5
382
330
381
100
AcDbEntity
  8
0
100
AcDbBlockBegin
  2
*D1
 70
     1
 10
0.0
 20
0.0
 30
0.0
  3
*D1
  1

  0
LINE
  5
383
330
381
100
AcDbEntity
  8
SUNPO
 62
     0
370
    -2
100
AcDbLine
 10
19.12358382616948
 20
211.9588745998884
 30
0.0
 11
19.12358382616948
 21
219.9588745998884
 31
0.0
  0
LINE
  5
384
330
381
100
AcDbEntity
  8
SUNPO
 62
     0
370
    -2
100
AcDbLine
 10
61.12358382616953
 20
211.9588745998884
 30
0.0
 11
61.12358382616953
 21
219.9588745998884
 31
0.0
  0
LINE
  5
385
330
381
100
AcDbEntity
  8
SUNPO
 62
     0
370
    -2
100
AcDbLine
 10
21.12358382616948
 20
217.9588745998884
 30
0.0
 11
59.12358382616954
 21
217.9588745998884
 31
0.0
  0
INSERT
  5
386
330
381
100
AcDbEntity
  8
SUNPO
 62
     0
370
    -2
100
AcDbBlockReference
  2
_OPEN30
 10
19.12358382616948
 20
217.9588745998884
 30
0.0
 41
2.0
 42
2.0
 43
2.0
 50
180.0
  0
INSERT
  5
387
330
381
100
AcDbEntity
  8
SUNPO
 62
     0
370
    -2
100
AcDbBlockReference
  2
_OPEN30
 10
61.12358382616953
 20
217.9588745998884
 30
0.0
 41
2.0
 42
2.0
 43
2.0
  0
MTEXT
  5
388
330
381
100
AcDbEntity
  8
SUNPO
 62
     0
100
AcDbMText
 10
40.12358382616951
 20
219.7088745998884
 30
0.0
 40
2.5
 41
0.0
 71
     5
 72
     1
  1
\A1;420
 73
     1
 44
1.0
1001
ACAD
1000
MTEXTBEGIN
1070
    73
1070
     1
1070
    44
1040
1.0
1070
    74
1070
     0
1000
MTEXTEND
  0
POINT
  5
389
330
381
100
AcDbEntity
  8
Defpoints
 62
     0
100
AcDbPoint
 10
19.12358382616948
 20
209.9588745998884
 30
0.0
  0
POINT
  5
38B
330
381
100
AcDbEntity
  8
Defpoints
 62
     0
100
AcDbPoint
 10
61.12358382616953
 20
209.9588745998884
 30
0.0
  0
POINT
  5
38C
330
381
100
AcDbEntity
  8
Defpoints
 62
     0
100
AcDbPoint
 10
61.12358382616953
 20
217.9588745998884
 30
0.0
  0
ENDBLK
  5
38D
330
381
100
AcDbEntity
  8
0
100
AcDbBlockEnd
  0
BLOCK
  5
390
330
38F
100
AcDbEntity
  8
0
100
AcDbBlockBegin
  2
*D2
 70
     1
 10
0.0
 20
0.0
 30
0.0
  3
*D2
  1

  0
LINE
  5
391
330
38F
100
AcDbEntity
  8
SUNPO
 62
     0
370
    -2
100
AcDbLine
 10
63.12260458605073
 20
209.9890761481563
 30
0.0
 11
71.12260458605073
 21
209.9890761481563
 31
0.0
  0
LINE
  5
392
330
38F
100
AcDbEntity
  8
SUNPO
 62
     0
370
    -2
100
AcDbLine
 10
63.12260458605073
 20
201.1890761481562
 30
0.0
 11
71.12260458605073
 21
201.1890761481562
 31
0.0
  0
LINE
  5
393
330
38F
100
AcDbEntity
  8
SUNPO
 62
     0
370
    -2
100
AcDbLine
 10
69.12260458605072
 20
207.9890761481563
 30
0.0
 11
69.12260458605072
 21
203.1890761481562
 31
0.0
  0
INSERT
  5
394
330
38F
100
AcDbEntity
  8
SUNPO
 62
     0
370
    -2
100
AcDbBlockReference
  2
_OPEN30
 10
69.12260458605072
 20
209.9890761481563
 30
0.0
 41
2.0
 42
2.0
 43
2.0
 50
90.0
  0
INSERT
  5
395
330
38F
100
AcDbEntity
  8
SUNPO
 62
     0
370
    -2
100
AcDbBlockReference
  2
_OPEN30
 10
69.12260458605072
 20
201.1890761481562
 30
0.0
 41
2.0
 42
2.0
 43
2.0
 50
270.0
  0
MTEXT
  5
396
330
38F
100
AcDbEntity
  8
SUNPO
 62
     0
100
AcDbMText
 10
67.3726045860507
 20
205.5890761481563
 30
0.0
 40
2.5
 41
0.0
 71
     5
 72
     1
  1
\A1;88
 11
0.0000000000000001
 21
1.0
 31
0.0
 73
     1
 44
1.0
1001
ACAD
1000
MTEXTBEGIN
1070
    73
1070
     1
1070
    44
1040
1.0
1070
    74
1070
     0
1000
MTEXTEND
  0
POINT
  5
397
330
38F
100
AcDbEntity
  8
Defpoints
 62
     0
100
AcDbPoint
 10
61.12260458605073
 20
209.9890761481563
 30
0.0
  0
POINT
  5
398
330
38F
100
AcDbEntity
  8
Defpoints
 62
     0
100
AcDbPoint
 10
61.12260458605073
 20
201.1890761481562
 30
0.0
  0
POINT
  5
399
330
38F
100
AcDbEntity
  8
Defpoints
 62
     0
100
AcDbPoint
 10
69.12260458605072
 20
201.1890761481562
 30
0.0
  0
ENDBLK
  5
39A
330
38F
100
AcDbEntity
  8
0
100
AcDbBlockEnd
  0
BLOCK
  5
39D
330
39C
100
AcDbEntity
  8
0
100
AcDbBlockBegin
  2
*D3
 70
     1
 10
0.0
 20
0.0
 30
0.0
  3
*D3
  1

  0
LINE
  5
39E
330
39C
100
AcDbEntity
  8
SUNPO
 62
     0
370
    -2
100
AcDbLine
 10
83.4554620787834
 20
211.9588745998883
 30
0.0
 11
83.4554620787834
 21
219.9588745998883
 31
0.0
  0
LINE
  5
39F
330
39C
100
AcDbEntity
  8
SUNPO
 62
     0
370
    -2
100
AcDbLine
 10
113.4554620787833
 20
211.9588745998883
 30
0.0
 11
113.4554620787833
 21
219.9588745998883
 31
0.0
  0
LINE
  5
3A0
330
39C
100
AcDbEntity
  8
SUNPO
 62
     0
370
    -2
100
AcDbLine
 10
85.4554620787834
 20
217.9588745998883
 30
0.0
 11
111.4554620787833
 21
217.9588745998883
 31
0.0
  0
INSERT
  5
3A1
330
39C
100
AcDbEntity
  8
SUNPO
 62
     0
370
    -2
100
AcDbBlockReference
  2
_OPEN30
 10
83.4554620787834
 20
217.9588745998883
 30
0.0
 41
2.0
 42
2.0
 43
2.0
 50
180.0
  0
INSERT
  5
3A2
330
39C
100
AcDbEntity
  8
SUNPO
 62
     0
370
    -2
100
AcDbBlockReference
  2
_OPEN30
 10
113.4554620787833
 20
217.9588745998883
 30
0.0
 41
2.0
 42
2.0
 43
2.0
  0
MTEXT
  5
3A3
330
39C
100
AcDbEntity
  8
SUNPO
 62
     0
100
AcDbMText
 10
98.45546207878337
 20
219.7088745998883
 30
0.0
 40
2.5
 41
0.0
 71
     5
 72
     1
  1
\A1;300
 73
     1
 44
1.0
1001
ACAD
1000
MTEXTBEGIN
1070
    73
1070
     1
1070
    44
1040
1.0
1070
    74
1070
     0
1000
MTEXTEND
  0
POINT
  5
3A4
330
39C
100
AcDbEntity
  8
Defpoints
 62
     0
100
AcDbPoint
 10
83.4554620787834
 20
209.9588745998883
 30
0.0
  0
POINT
  5
3A5
330
39C
100
AcDbEntity
  8
Defpoints
 62
     0
100
AcDbPoint
 10
113.4554620787833
 20
209.9588745998883
 30
0.0
  0
POINT
  5
3A6
330
39C
100
AcDbEntity
  8
Defpoints
 62
     0
100
AcDbPoint
 10
113.4554620787833
 20
217.9588745998883
 30
0.0
  0
ENDBLK
  5
3A7
330
39C
100
AcDbEntity
  8
0
100
AcDbBlockEnd
  0
BLOCK
  5
3D9
330
3CF
100
AcDbEntity
  8
0
100
AcDbBlockBegin
  2
*D4
 70
     1
 10
0.0
 20
0.0
 30
0.0
  3
*D4
  1

  0
LINE
  5
3D0
330
3CF
100
AcDbEntity
  8
SUNPO
 62
     0
370
    -2
100
AcDbLine
 10
17.49040666559404
 20
15.36149339706279
 30
0.0
 11
17.49040666559404
 21
23.36149339706279
 31
0.0
  0
LINE
  5
3D1
330
3CF
100
AcDbEntity
  8
SUNPO
 62
     0
370
    -2
100
AcDbLine
 10
47.49040666559397
 20
15.36149339706279
 30
0.0
 11
47.49040666559397
 21
23.36149339706279
 31
0.0
  0
LINE
  5
3D2
330
3CF
100
AcDbEntity
  8
SUNPO
 62
     0
370
    -2
100
AcDbLine
 10
19.49040666559404
 20
21.36149339706279
 30
0.0
 11
45.49040666559398
 21
21.36149339706279
 31
0.0
  0
INSERT
  5
3D3
330
3CF
100
AcDbEntity
  8
SUNPO
 62
     0
370
    -2
100
AcDbBlockReference
  2
_OPEN30
 10
17.49040666559404
 20
21.36149339706279
 30
0.0
 41
2.0
 42
2.0
 43
2.0
 50
180.0
  0
INSERT
  5
3D4
330
3CF
100
AcDbEntity
  8
SUNPO
 62
     0
370
    -2
100
AcDbBlockReference
  2
_OPEN30
 10
47.49040666559397
 20
21.36149339706279
 30
0.0
 41
2.0
 42
2.0
 43
2.0
  0
MTEXT
  5
3D5
330
3CF
100
AcDbEntity
  8
SUNPO
 62
     0
100
AcDbMText
 10
32.49040666559401
 20
23.11149339706279
 30
0.0
 40
2.5
 41
0.0
 71
     5
 72
     1
  1
\A1;300
 73
     1
 44
1.0
1001
ACAD
1000
MTEXTBEGIN
1070
    73
1070
     1
1070
    44
1040
1.0
1070
    74
1070
     0
1000
MTEXTEND
  0
POINT
  5
3D6
330
3CF
100
AcDbEntity
  8
Defpoints
 62
     0
100
AcDbPoint
 10
17.49040666559404
 20
13.36149339706279
 30
0.0
  0
POINT
  5
3D7
330
3CF
100
AcDbEntity
  8
Defpoints
 62
     0
100
AcDbPoint
 10
47.49040666559397
 20
13.36149339706279
 30
0.0
  0
POINT
  5
3D8
330
3CF
100
AcDbEntity
  8
Defpoints
 62
     0
100
AcDbPoint
 10
47.49040666559397
 20
21.36149339706279
 30
0.0
  0
ENDBLK
  5
3DA
330
3CF
100
AcDbEntity
  8
0
100
AcDbBlockEnd
  0
BLOCK
  5
3E5
330
3DB
100
AcDbEntity
  8
0
100
AcDbBlockBegin
  2
*D5
 70
     1
 10
0.0
 20
0.0
 30
0.0
  3
*D5
  1

  0
LINE
  5
3DC
330
3DB
100
AcDbEntity
  8
SUNPO
 62
     0
370
    -2
100
AcDbLine
 10
-2.842450827138634
 20
13.39169494533078
 30
0.0
 11
5.157549172861367
 21
13.39169494533078
 31
0.0
  0
LINE
  5
3DD
330
3DB
100
AcDbEntity
  8
SUNPO
 62
     0
370
    -2
100
AcDbLine
 10
-2.842450827138634
 20
4.591694945330715
 30
0.0
 11
5.157549172861365
 21
4.591694945330712
 31
0.0
  0
LINE
  5
3DE
330
3DB
100
AcDbEntity
  8
SUNPO
 62
     0
370
    -2
100
AcDbLine
 10
3.157549172861367
 20
11.39169494533078
 30
0.0
 11
3.157549172861366
 21
6.591694945330712
 31
0.0
  0
INSERT
  5
3DF
330
3DB
100
AcDbEntity
  8
SUNPO
 62
     0
370
    -2
100
AcDbBlockReference
  2
_OPEN30
 10
3.157549172861367
 20
13.39169494533078
 30
0.0
 41
2.0
 42
2.0
 43
2.0
 50
90.0
  0
INSERT
  5
3E0
330
3DB
100
AcDbEntity
  8
SUNPO
 62
     0
370
    -2
100
AcDbBlockReference
  2
_OPEN30
 10
3.157549172861365
 20
4.591694945330712
 30
0.0
 41
2.0
 42
2.0
 43
2.0
 50
270.0
  0
MTEXT
  5
3E1
330
3DB
100
AcDbEntity
  8
SUNPO
 62
     0
100
AcDbMText
 10
1.407549172861365
 20
8.991694945330747
 30
0.0
 40
2.5
 41
0.0
 71
     5
 72
     1
  1
\A1;88
 11
0.0000000000000001
 21
1.0
 31
0.0
 73
     1
 44
1.0
1001
ACAD
1000
MTEXTBEGIN
1070
    73
1070
     1
1070
    44
1040
1.0
1070
    74
1070
     0
1000
MTEXTEND
  0
POINT
  5
3E2
330
3DB
100
AcDbEntity
  8
Defpoints
 62
     0
100
AcDbPoint
 10
-4.842450827138634
 20
13.39169494533078
 30
0.0
  0
POINT
  5
3E3
330
3DB
100
AcDbEntity
  8
Defpoints
 62
     0
100
AcDbPoint
 10
-4.842450827138634
 20
4.591694945330715
 30
0.0
  0
POINT
  5
3E4
330
3DB
100
AcDbEntity
  8
Defpoints
 62
     0
100
AcDbPoint
 10
3.157549172861365
 20
4.591694945330712
 30
0.0
  0
ENDBLK
  5
3E6
330
3DB
100
AcDbEntity
  8
0
100
AcDbBlockEnd
  0
BLOCK
  5
3F1
330
3E7
100
AcDbEntity
  8
0
100
AcDbBlockBegin
  2
*D6
 70
     1
 10
0.0
 20
0.0
 30
0.0
  3
*D6
  1

  0
LINE
  5
3E8
330
3E7
100
AcDbEntity
  8
SUNPO
 62
     0
370
    -2
100
AcDbLine
 10
-46.84147158701988
 20
15.36149339706284
 30
0.0
 11
-46.84147158701988
 21
23.36149339706285
 31
0.0
  0
LINE
  5
3E9
330
3E7
100
AcDbEntity
  8
SUNPO
 62
     0
370
    -2
100
AcDbLine
 10
-4.841471587019825
 20
15.36149339706284
 30
0.0
 11
-4.841471587019824
 21
23.36149339706285
 31
0.0
  0
LINE
  5
3EA
330
3E7
100
AcDbEntity
  8
SUNPO
 62
     0
370
    -2
100
AcDbLine
 10
-44.84147158701988
 20
21.36149339706284
 30
0.0
 11
-6.841471587019824
 21
21.36149339706284
 31
0.0
  0
INSERT
  5
3EB
330
3E7
100
AcDbEntity
  8
SUNPO
 62
     0
370
    -2
100
AcDbBlockReference
  2
_OPEN30
 10
-46.84147158701988
 20
21.36149339706284
 30
0.0
 41
2.0
 42
2.0
 43
2.0
 50
180.0
  0
INSERT
  5
3EC
330
3E7
100
AcDbEntity
  8
SUNPO
 62
     0
370
    -2
100
AcDbBlockReference
  2
_OPEN30
 10
-4.841471587019824
 20
21.36149339706284
 30
0.0
 41
2.0
 42
2.0
 43
2.0
  0
MTEXT
  5
3ED
330
3E7
100
AcDbEntity
  8
SUNPO
 62
     0
100
AcDbMText
 10
-25.84147158701985
 20
23.11149339706284
 30
0.0
 40
2.5
 41
0.0
 71
     5
 72
     1
  1
\A1;420
 73
     1
 44
1.0
1001
ACAD
1000
MTEXTBEGIN
1070
    73
1070
     1
1070
    44
1040
1.0
1070
    74
1070
     0
1000
MTEXTEND
  0
POINT
  5
3EE
330
3E7
100
AcDbEntity
  8
Defpoints
 62
     0
100
AcDbPoint
 10
-46.84147158701988
 20
13.36149339706284
 30
0.0
  0
POINT
  5
3EF
330
3E7
100
AcDbEntity
  8
Defpoints
 62
     0
100
AcDbPoint
 10
-4.841471587019825
 20
13.36149339706284
 30
0.0
  0
POINT
  5
3F0
330
3E7
100
AcDbEntity
  8
Defpoints
 62
     0
100
AcDbPoint
 10
-4.841471587019824
 20
21.36149339706284
 30
0.0
  0
ENDBLK
  5
3F2
330
3E7
100
AcDbEntity
  8
0
100
AcDbBlockEnd
  0
ENDSEC
  0
SECTION
  2
ENTITIES
  0
TEXT
  5
2F
330
2
100
AcDbEntity
  8
MOJI1
100
AcDbText
 10
-36.46505546914807
 20
43.90345392210926
 30
0.0
 40
4.0
  1
ネットワークレコーダー
  7
KANJI
100
AcDbText
  0
TEXT
  5
32
330
2
100
AcDbEntity
  8
TOUROKU
100
AcDbText
 10
38.06822789711244
 20
37.90345392210892
 30
0.0
 40
2.0
  1
ＤＧＮＶ２００Ｖ１Ｍ
 72
     2
 11
61.53489456377911
 21
37.90345392210892
 31
0.0
100
AcDbText
  0
TEXT
  5
34
330
2
100
AcDbEntity
  8
MOJI1
100
AcDbText
 10
-20.96505546914818
 20
-39.09654607789085
 30
0.0
 40
3.0
  1
ＤＶＤ－Ｒ、＋Ｒ
 41
0.9
100
AcDbText
  0
TEXT
  5
35
330
2
100
AcDbEntity
  8
MOJI1
100
AcDbText
 10
-60.96505546914818
 20
-39.09654607789085
 30
0.0
 40
3.0
  1
ＤＶＤ
100
AcDbText
  0
LINE
  5
36
330
2
100
AcDbEntity
  8
WAKU
 62
     1
100
AcDbLine
 10
-63.46505546914818
 20
-40.09654607789085
 30
0.0
 11
61.5349445308517
 21
-40.09654607789085
 31
0.0
  0
SPLINE
  5
38
330
2
100
AcDbEntity
  8
GAIKEI
  6
Continuous
 62
     1
100
AcDbSpline
210
0.0
220
0.0
230
1.0
 70
     8
 71
     3
 72
    83
 73
    79
 74
    77
 42
0.0000000001
 43
0.0000000001
 44
0.00000001
 40
0.0
 40
0.0
 40
0.0
 40
0.0
 40
0.014117707536125
 40
0.0282351724034193
 40
0.0385998034044421
 40
0.048964422100538
 40
0.0602077243111177
 40
0.0714510675231737
 40
0.0836729015594701
 40
0.0958947822263556
 40
0.1092365355683987
 40
0.1225783578907552
 40
0.1371961919455009
 40
0.1518141227856986
 40
0.1678412071298961
 40
0.1838684107659479
 40
0.2013952794541614
 40
0.2189222804778579
 40
0.2380375641369205
 40
0.2571530115615094
 40
0.2779974594383417
 40
0.2988421260095812
 40
0.3215903324407128
 40
0.3443388264697305
 40
0.3691450938463986
 40
0.3939517348685114
 40
0.4209698656796283
 40
0.4479884950829231
 40
0.4774250650544411
 40
0.5068623284424242
 40
0.539025076471912
 40
0.5711888302144013
 40
0.6066365205552506
 40
0.6420859415042949
 40
0.6807920690743592
 40
0.7194999048612197
 40
0.7588848321734128
 40
0.7982687231584072
 40
0.8345115741692548
 40
0.8707521074888541
 40
0.902646639892686
 40
0.9345398712838109
 40
0.9629200786742206
 40
0.9912994994804918
 40
1.016809146558396
 40
1.042318281431125
 40
1.065401093233965
 40
1.088483560789159
 40
1.109450716084816
 40
1.13041761995705
 40
1.149457035330644
 40
1.168496260836231
 40
1.185786926555965
 40
1.203077452512243
 40
1.218801643023754
 40
1.23452572919808
 40
1.248844707973182
 40
1.263163608449722
 40
1.276235435599593
 40
1.289307199731533
 40
1.301286008914151
 40
1.313264769019349
 40
1.324258481847504
 40
1.335252157033309
 40
1.345223650726823
 40
1.355195109488854
 40
1.364037306848158
 40
1.372879475034516
 40
1.380689193069722
 40
1.38849889375609
 40
1.395595597696802
 40
1.402692294024759
 40
1.409401758978832
 40
1.416111219473308
 40
1.422618851517358
 40
1.429126493304061
 40
1.438670034642838
 40
1.448213664855497
 40
1.448213664855497
 40
1.448213664855497
 40
1.448213664855497
 10
-39.54684848324007
 20
6.611246772030796
 30
0.0
 10
-39.54289153294663
 20
6.608699499967627
 30
0.0
 10
-39.53497769246192
 20
6.603605011989202
 30
0.0
 10
-39.524052769393
 20
6.596807351391106
 30
0.0
 10
-39.51413285301502
 20
6.590764281330791
 30
0.0
 10
-39.50498297089115
 20
6.585299353811052
 30
0.0
 10
-39.49553240697168
 20
6.579767457106925
 30
0.0
 10
-39.48549432191732
 20
6.574014742378722
 30
0.0
 10
-39.47511724962494
 20
6.568198520928774
 30
0.0
 10
-39.46406961067318
 20
6.562149331840515
 30
0.0
 10
-39.4526306799332
 20
6.556038756492824
 30
0.0
 10
-39.4404181557785
 20
6.549683014263735
 30
0.0
 10
-39.42775502126666
 20
6.543273452281198
 30
0.0
 10
-39.41421372666963
 20
6.536619142786634
 30
0.0
 10
-39.40016679284138
 20
6.529931060446926
 30
0.0
 10
-39.38515332830561
 20
6.523020614040092
 30
0.0
 10
-39.36959078695614
 20
6.516110729582294
 30
0.0
 10
-39.35298586142415
 20
6.50901633625375
 30
0.0
 10
-39.33578898268212
 20
6.50196434466477
 30
0.0
 10
-39.31745782333187
 20
6.494769793395249
 30
0.0
 10
-39.29847549457941
 20
6.487662877521245
 30
0.0
 10
-39.2782385207949
 20
6.480461693970653
 30
0.0
 10
-39.25728003112367
 20
6.473403803170953
 30
0.0
 10
-39.23494103403143
 20
6.466319122072263
 30
0.0
 10
-39.21181695924437
 20
6.459452727620742
 30
0.0
 10
-39.18719337463237
 20
6.452652943410384
 30
0.0
 10
-39.16172340001247
 20
6.446165967972547
 30
0.0
 10
-39.13462039115464
 20
6.439862269952868
 30
0.0
 10
-39.10659647436001
 20
6.43398616792885
 30
0.0
 10
-39.07676017566937
 20
6.428436166761741
 30
0.0
 10
-39.04590141892649
 20
6.423456751559683
 30
0.0
 10
-39.01294226973322
 20
6.418982302828538
 30
0.0
 10
-38.97878574728371
 20
6.415265286773205
 30
0.0
 10
-38.94236478916923
 20
6.412329294220597
 30
0.0
 10
-38.90478601098275
 20
6.410417914626947
 30
0.0
 10
-38.86585402944993
 20
6.409662891531638
 30
0.0
 10
-38.82669135741432
 20
6.410139097786725
 30
0.0
 10
-38.78838509402445
 20
6.41183588051183
 30
0.0
 10
-38.75119451793755
 20
6.414612889525443
 30
0.0
 10
-38.71658199458371
 20
6.418196041674008
 30
0.0
 10
-38.68351696389526
 20
6.422516604582853
 30
0.0
 10
-38.65315844152944
 20
6.427253810876152
 30
0.0
 10
-38.62407331646941
 20
6.432493199163786
 30
0.0
 10
-38.59719570606966
 20
6.4379470076978
 30
0.0
 10
-38.57137193507559
 20
6.443749926757277
 30
0.0
 10
-38.54738214647031
 20
6.449639512744141
 30
0.0
 10
-38.52428957307139
 20
6.455770950619239
 30
0.0
 10
-38.50276629782838
 20
6.461899142386414
 30
0.0
 10
-38.48202601602054
 20
6.468189160805422
 30
0.0
 10
-38.46267409605966
 20
6.474404114790559
 30
0.0
 10
-38.44403033788744
 20
6.480713888761385
 30
0.0
 10
-38.42663735058852
 20
6.486890445493401
 30
0.0
 10
-38.40988084977992
 20
6.493111370089025
 30
0.0
 10
-38.39424127611818
 20
6.49916140258955
 30
0.0
 10
-38.37916669933898
 20
6.505220420417941
 30
0.0
 10
-38.36508341729439
 20
6.511086559281409
 30
0.0
 10
-38.35150184079907
 20
6.516935921382128
 30
0.0
 10
-38.33879638095469
 20
6.522582158144615
 30
0.0
 10
-38.32653209069011
 20
6.528195212989828
 30
0.0
 10
-38.31503377289018
 20
6.533605810870483
 30
0.0
 10
-38.30391898414177
 20
6.538974098745171
 30
0.0
 10
-38.29347750220936
 20
6.544142487798069
 30
0.0
 10
-38.28337739906725
 20
6.549259128064733
 30
0.0
 10
-38.27391725886419
 20
6.554157532479393
 30
0.0
 10
-38.26480021813362
 20
6.558976605701701
 30
0.0
 10
-38.25635360787588
 20
6.563528726894247
 30
0.0
 10
-38.24827192339827
 20
6.567963872557498
 30
0.0
 10
-38.24085141138788
 20
6.572105581409516
 30
0.0
 10
-38.23375846506583
 20
6.576127576919589
 30
0.0
 10
-38.22719549625395
 20
6.579904352852651
 30
0.0
 10
-38.2208609166202
 20
6.583601193438454
 30
0.0
 10
-38.21486360287703
 20
6.587148098663647
 30
0.0
 10
-38.20899727831271
 20
6.590662689989471
 30
0.0
 10
-38.20331846070434
 20
6.594107991415455
 30
0.0
 10
-38.19771592828817
 20
6.597549151405218
 30
0.0
 10
-38.19133049869947
 20
6.601520429423487
 30
0.0
 10
-38.18411393082672
 20
6.606071478744496
 30
0.0
 10
-38.17876817300455
 20
6.609521599915126
 30
0.0
 10
-38.17609528562002
 20
6.611246674710827
 30
0.0
 11
-39.54684848324007
 21
6.611246772030796
 31
0.0
 11
-39.53495823504261
 21
6.60363548547545
 31
0.0
 11
-39.52297723667874
 21
6.596168323266596
 31
0.0
 11
-39.51412504689506
 21
6.590777189722444
 31
0.0
 11
-39.50522698773182
 21
6.585462128878845
 31
0.0
 11
-39.4955237983333
 21
6.579782342956349
 31
0.0
 11
-39.48576886601973
 21
6.574191809085647
 31
0.0
 11
-39.4751074987978
 21
6.568216151550217
 31
0.0
 11
-39.46438745212186
 21
6.562346315774306
 31
0.0
 11
-39.45261953529291
 21
6.556059939908521
 31
0.0
 11
-39.44078451157583
 21
6.549900683346066
 31
0.0
 11
-39.42774220986553
 21
6.543299210509843
 31
0.0
 11
-39.41462275555063
 21
6.536852209275224
 31
0.0
 11
-39.40015211783032
 21
6.529962500921811
 31
0.0
 11
-39.38559321541902
 21
6.523261036819206
 31
0.0
 11
-39.36957439839029
 21
6.516148468267175
 31
0.0
 11
-39.35345694550836
 21
6.509261997375432
 31
0.0
 11
-39.33577105810838
 21
6.502009173084132
 31
0.0
 11
-39.3179771118767
 21
6.495025204936183
 31
0.0
 11
-39.29845606588595
 21
6.487716321708859
 31
0.0
 11
-39.27881778050653
 21
6.48072791169406
 31
0.0
 11
-39.25725925819654
 21
6.473467676556737
 31
0.0
 11
-39.2355751978443
 21
6.466590503497371
 31
0.0
 11
-39.21179521446749
 21
6.459529108898294
 31
0.0
 11
-39.18788357882795
 21
6.45292584293881
 31
0.0
 11
-39.16170133209931
 21
6.446257308604884
 31
0.0
 11
-39.13538508465695
 21
6.440136732120066
 31
0.0
 11
-39.10657503314167
 21
6.434095822872762
 31
0.0
 11
-39.07763412383599
 21
6.428712864075549
 31
0.0
 11
-39.04588204014095
 21
6.423589628460462
 31
0.0
 11
-39.01401049948737
 21
6.419263897005379
 31
0.0
 11
-38.97877077219289
 21
6.415429790496574
 31
0.0
 11
-38.94343580417496
 21
6.412583480069628
 31
0.0
 11
-38.90477948100374
 21
6.410620575755586
 31
0.0
 11
-38.86607894130106
 21
6.409869056547819
 31
0.0
 11
-38.82669694803684
 21
6.410349794488155
 31
0.0
 11
-38.78735146732458
 21
6.412088765213951
 31
0.0
 11
-38.75120905995033
 21
6.414785177677657
 31
0.0
 11
-38.71516108550589
 21
6.418516101800122
 31
0.0
 11
-38.68353525973907
 21
6.422647486826548
 31
0.0
 11
-38.65202331490059
 21
6.427564349766697
 31
0.0
 11
-38.62409258322776
 21
6.432595293975083
 31
0.0
 11
-38.59627994991035
 21
6.438238781642127
 31
0.0
 11
-38.57139092528342
 21
6.443831504322503
 31
0.0
 11
-38.54661746451325
 21
6.449913576611521
 31
0.0
 11
-38.52430767403689
 21
6.455837211447914
 31
0.0
 11
-38.50210757142185
 21
6.462158267734565
 31
0.0
 11
-38.48204289372262
 21
6.468243521259324
 31
0.0
 11
-38.46208026102261
 21
6.474654789028676
 31
0.0
 11
-38.44404575028278
 21
6.480758538781032
 31
0.0
 11
-38.42610429120765
 21
6.487130050010165
 31
0.0
 11
-38.40989472162312
 21
6.493148104201083
 31
0.0
 11
-38.39376879822635
 21
6.499386444053783
 31
0.0
 11
-38.37917907249016
 21
6.505250748946053
 31
0.0
 11
-38.36466389585183
 21
6.511296949007117
 31
0.0
 11
-38.35151282246318
 21
6.51696108387577
 31
0.0
 11
-38.33842783221786
 21
6.522776059654546
 31
0.0
 11
-38.32654178948076
 21
6.528216156629781
 31
0.0
 11
-38.3147140380874
 21
6.53378170392537
 31
0.0
 11
-38.30392746083305
 21
6.538991466167743
 31
0.0
 11
-38.29319188167711
 21
6.544305413491912
 31
0.0
 11
-38.28338479781712
 21
6.549273595267408
 31
0.0
 11
-38.27362222957692
 21
6.554328608429358
 31
0.0
 11
-38.26480650949736
 21
6.558988411912338
 31
0.0
 11
-38.25602864979766
 21
6.563719074863541
 31
0.0
 11
-38.24827702245079
 21
6.567973100068883
 31
0.0
 11
-38.24055608645779
 21
6.572282518707964
 31
0.0
 11
-38.23376255936296
 21
6.576134750338241
 31
0.0
 11
-38.22699366386388
 21
6.580030065760553
 31
0.0
 11
-38.22086439437408
 21
6.583607112858402
 31
0.0
 11
-38.21475603386642
 21
6.587219734465833
 31
0.0
 11
-38.20900048416559
 21
6.590668005329831
 31
0.0
 11
-38.20326417959615
 21
6.594148188512264
 31
0.0
 11
-38.19771911260136
 21
6.597554287765007
 31
0.0
 11
-38.19219273629142
 21
6.600990648101372
 31
0.0
 11
-38.18412293912752
 21
6.606085505195522
 31
0.0
 11
-38.17609528562002
 21
6.611246674710827
 31
0.0
  0
SPLINE
  5
39
330
2
100
AcDbEntity
  8
GAIKEI
  6
Continuous
 62
     7
100
AcDbSpline
210
0.0
220
0.0
230
1.0
 70
     8
 71
     3
 72
    11
 73
     7
 74
     5
 42
0.0000000001
 43
0.0000000001
 44
0.00000001
 40
0.0
 40
0.0
 40
0.0
 40
0.0
 40
0.0196440508789127
 40
0.0389149682855603
 40
0.0539677134570739
 40
0.068966795492477
 40
0.068966795492477
 40
0.068966795492477
 40
0.068966795492477
 10
-46.79154563398003
 20
4.591694945330772
 30
0.0
 10
-46.7981517688306
 20
4.592439078930425
 30
0.0
 10
-46.8112385535173
 20
4.593913225682456
 30
0.0
 10
-46.82636095358372
 20
4.60478224641767
 30
0.0
 10
-46.83665828180957
 20
4.617971992963816
 30
0.0
 10
-46.83930916292275
 20
4.62773307974146
 30
0.0
 10
-46.84063222988004
 20
4.632604910450794
 30
0.0
 11
-46.79154563398003
 21
4.591694945330772
 31
0.0
 11
-46.81080793968931
 21
4.595548822275276
 31
0.0
 11
-46.82677001686466
 21
4.606346066871168
 31
0.0
 11
-46.83576046301721
 21
4.618419057923887
 31
0.0
 11
-46.84063222988004
 21
4.632604910450794
 31
0.0
  0
SPLINE
  5
3A
330
2
100
AcDbEntity
  8
GAIKEI
  6
Continuous
 62
     7
100
AcDbSpline
210
0.0
220
0.0
230
1.0
 70
    24
 71
     3
 72
     9
 73
     5
 74
     3
 42
0.0000000001
 43
0.0000000001
 44
0.00000001
 40
0.0
 40
0.0
 40
0.0
 40
0.0
 40
0.0045274871126831
 40
0.0090549742252609
 40
0.0090549742252609
 40
0.0090549742252609
 40
0.0090549742252609
 10
-46.84063222988004
 20
4.632604910450794
 30
0.0
 10
-46.84077212273666
 20
4.634107575100784
 30
0.0
 10
-46.84105190844991
 20
4.637112904400794
 30
0.0
 10
-46.84133169416322
 20
4.640118233700803
 30
0.0
 10
-46.84147158701989
 20
4.641620898350737
 30
0.0
 11
-46.84063222988004
 21
4.632604910450794
 31
0.0
 11
-46.84105190844991
 21
4.637112904400822
 31
0.0
 11
-46.84147158701989
 21
4.641620898350737
 31
0.0
  0
SPLINE
  5
3B
330
2
100
AcDbEntity
  8
GAIKEI
  6
Continuous
 62
     7
100
AcDbSpline
210
0.0
220
0.0
230
1.0
 70
     8
 71
     3
 72
     9
 73
     5
 74
     3
 42
0.0000000001
 43
0.0000000001
 44
0.00000001
 40
0.0
 40
0.0
 40
0.0
 40
0.0
 40
0.0258597097346221
 40
0.0517313154234812
 40
0.0517313154234812
 40
0.0517313154234812
 40
0.0517313154234812
 10
-46.84147158701989
 20
13.34176173095076
 30
0.0
 10
-46.84020611893503
 20
13.35064601725693
 30
0.0
 10
-46.83767458321822
 20
13.36841866964175
 30
0.0
 10
-46.82354121270248
 20
13.37948833292793
 30
0.0
 10
-46.81647289496004
 20
13.38502443159083
 30
0.0
 11
-46.84147158701989
 21
13.34176173095076
 31
0.0
 11
-46.83477604912593
 21
13.36673961104154
 31
0.0
 11
-46.81647289496004
 21
13.38502443159083
 31
0.0
  0
SPLINE
  5
3C
330
2
100
AcDbEntity
  8
GAIKEI
  6
Continuous
 62
     7
100
AcDbSpline
210
0.0
220
0.0
230
1.0
 70
    24
 71
     3
 72
     9
 73
     5
 74
     3
 42
0.0000000001
 43
0.0000000001
 44
0.00000001
 40
0.0
 40
0.0
 40
0.0
 40
0.0
 40
0.004179445729635
 40
0.0083588914592911
 40
0.0083588914592911
 40
0.0083588914592911
 40
0.0083588914592911
 10
-46.81647289496004
 20
13.38502443159083
 30
0.0
 10
-46.81521037049338
 20
13.3856134094575
 30
0.0
 10
-46.81268532156008
 20
13.38679136519084
 30
0.0
 10
-46.81016027262673
 20
13.38796932092418
 30
0.0
 10
-46.80889774816006
 20
13.3885582987908
 30
0.0
 11
-46.81647289496004
 21
13.38502443159083
 31
0.0
 11
-46.81268532156008
 21
13.38679136519081
 31
0.0
 11
-46.80889774816006
 21
13.3885582987908
 31
0.0
  0
SPLINE
  5
3D
330
2
100
AcDbEntity
  8
GAIKEI
  6
Continuous
 62
     7
100
AcDbSpline
210
0.0
220
0.0
230
1.0
 70
    24
 71
     3
 72
     9
 73
     5
 74
     3
 42
0.0000000001
 43
0.0000000001
 44
0.00000001
 40
0.0
 40
0.0
 40
0.0
 40
0.0
 40
0.0088202390835569
 40
0.0176404781672155
 40
0.0176404781672155
 40
0.0176404781672155
 40
0.0176404781672155
 10
-46.80889774816006
 20
13.3885582987908
 30
0.0
 10
-46.80600451890671
 20
13.38908107321418
 30
0.0
 10
-46.8002180604
 20
13.39012662206096
 30
0.0
 10
-46.79443160189326
 20
13.39117217090748
 30
0.0
 10
-46.79153837263988
 20
13.39169494533084
 30
0.0
 11
-46.80889774816006
 21
13.3885582987908
 31
0.0
 11
-46.80021806040002
 21
13.39012662206082
 31
0.0
 11
-46.79153837263988
 21
13.39169494533084
 31
0.0
  0
SPLINE
  5
3E
330
2
100
AcDbEntity
  8
GAIKEI
  6
Continuous
 62
     1
100
AcDbSpline
210
0.0
220
0.0
230
1.0
 70
     8
 71
     3
 72
    21
 73
    17
 74
    15
 42
0.0000000001
 43
0.0000000001
 44
0.00000001
 40
0.0
 40
0.0
 40
0.0
 40
0.0
 40
0.5949914731516339
 40
1.189982893289387
 40
1.587224733100145
 40
1.984466567058542
 40
2.38181350329975
 40
2.779160440532404
 40
3.176243593550726
 40
3.573326746709405
 40
3.969764396359883
 40
4.366202045229131
 40
4.76162454138767
 40
5.157047043884198
 40
5.747720306538141
 40
6.338393623559555
 40
6.338393623559555
 40
6.338393623559555
 40
6.338393623559555
 10
-46.75556986724006
 20
6.791694945330817
 30
0.0
 10
-46.75502838772115
 20
6.99002470759612
 30
0.0
 10
-46.7539454434438
 20
7.386684214493101
 30
0.0
 10
-46.75304110346472
 20
7.915758443862273
 30
0.0
 10
-46.7525321802853
 20
8.378916540451854
 30
0.0
 10
-46.75231232811369
 20
8.776193371398676
 30
0.0
 10
-46.75230310594265
 20
9.17350529166211
 30
0.0
 10
-46.75250598593464
 20
9.570764267811682
 30
0.0
 10
-46.75292070615993
 20
9.96793515120612
 30
0.0
 10
-46.75354697478307
 20
10.36480266118624
 30
0.0
 10
-46.75438500086925
 20
10.76145461234463
 30
0.0
 10
-46.75543432405881
 20
11.1575525053976
 30
0.0
 10
-46.75669401973943
 20
11.55331140514781
 30
0.0
 10
-46.75841317702896
 20
12.01381429492988
 30
0.0
 10
-46.76070000590999
 20
12.53939910717454
 30
0.0
 10
-46.76282148850028
 20
12.93317560695686
 30
0.0
 10
-46.76388223720005
 20
13.13006386587082
 30
0.0
 11
-46.75556986724006
 21
6.791694945330817
 31
0.0
 11
-46.75404666778297
 21
7.386684468759966
 31
0.0
 11
-46.75300102626403
 21
7.981674970096122
 31
0.0
 11
-46.75256828038965
 21
8.378916574200133
 31
0.0
 11
-46.75234743489812
 21
8.776158346774394
 31
0.0
 11
-46.75233845392273
 21
9.173505282919308
 31
0.0
 11
-46.75254136239624
 21
9.570852168348807
 31
0.0
 11
-46.75295602611851
 21
9.96793510486114
 31
0.0
 11
-46.75358272096275
 21
10.36501776348572
 31
0.0
 11
-46.75442043222432
 21
10.76145452805812
 31
0.0
 11
-46.75547052740319
 21
11.1578907861697
 31
0.0
 11
-46.75673027126442
 21
11.5533112756718
 31
0.0
 11
-46.75820285036542
 21
11.94873103617422
 31
0.0
 11
-46.76080203211353
 21
12.53939858012663
 31
0.0
 11
-46.76388223720005
 21
13.13006386587082
 31
0.0
  0
SPLINE
  5
3F
330
2
100
AcDbEntity
  8
GAIKEI
  6
Continuous
 62
     1
100
AcDbSpline
210
0.0
220
0.0
230
1.0
 70
     8
 71
     3
 72
    13
 73
     9
 74
     7
 42
0.0000000001
 43
0.0000000001
 44
0.00000001
 40
0.0
 40
0.0
 40
0.0
 40
0.0
 40
0.3431457057118634
 40
0.6862913128763902
 40
0.9235796815295435
 40
1.160868027675225
 40
1.524276344621877
 40
1.887684698164938
 40
1.887684698164938
 40
1.887684698164938
 40
1.887684698164938
 10
-39.99397161394006
 20
6.735645662490782
 30
0.0
 10
-39.99307916124632
 20
6.621267221623071
 30
0.0
 10
-39.99129427084323
 20
6.392510372625508
 30
0.0
 10
-39.98946743242517
 20
6.084655729127746
 30
0.0
 10
-39.98814379923318
 20
5.812084809046268
 30
0.0
 10
-39.98706751374818
 20
5.532758505867064
 30
0.0
 10
-39.98612406974593
 20
5.211391455401582
 30
0.0
 10
-39.98572983787427
 20
4.969119532629775
 30
0.0
 10
-39.98553272929985
 20
4.847983565130761
 30
0.0
 11
-39.99397161394006
 21
6.735645662490782
 31
0.0
 11
-39.99140111257157
 21
6.392509584701514
 31
0.0
 11
-39.98933092891343
 21
6.049370222244562
 31
0.0
 11
-39.98818345311247
 21
5.812084628072142
 31
0.0
 11
-39.98725815306085
 21
5.574798086017352
 31
0.0
 11
-39.98620331200721
 21
5.211391299972291
 31
0.0
 11
-39.98553272929985
 21
4.847983565130761
 31
0.0
  0
CIRCLE
  5
40
330
2
100
AcDbEntity
  8
GAIKEI
  6
Continuous
 62
   251
100
AcDbCircle
 10
-31.14147158701985
 20
6.401694945330831
 30
0.0
 40
0.0900000000000091
  0
CIRCLE
  5
41
330
2
100
AcDbEntity
  8
GAIKEI
  6
Continuous
 62
   251
100
AcDbCircle
 10
-31.14147158701985
 20
5.981694945330815
 30
0.0
 40
0.0900000000000091
  0
CIRCLE
  5
42
330
2
100
AcDbEntity
  8
GAIKEI
  6
Continuous
 62
   251
100
AcDbCircle
 10
-31.14147158701985
 20
5.561694945330799
 30
0.0
 40
0.0899999999999978
  0
CIRCLE
  5
43
330
2
100
AcDbEntity
  8
GAIKEI
  6
Continuous
 62
   251
100
AcDbCircle
 10
-31.14147158701985
 20
5.14169494533084
 30
0.0
 40
0.0900000000000091
  0
CIRCLE
  5
44
330
2
100
AcDbEntity
  8
GAIKEI
  6
Continuous
 62
   251
100
AcDbCircle
 10
-30.68147158702004
 20
6.401694945330831
 30
0.0
 40
0.090000000000191
  0
CIRCLE
  5
45
330
2
100
AcDbEntity
  8
GAIKEI
  6
Continuous
 62
   251
100
AcDbCircle
 10
-30.68147158702004
 20
5.981694945330815
 30
0.0
 40
0.090000000000191
  0
CIRCLE
  5
46
330
2
100
AcDbEntity
  8
GAIKEI
  6
Continuous
 62
   251
100
AcDbCircle
 10
-30.68147158702004
 20
5.561694945330799
 30
0.0
 40
0.0900000000002024
  0
CIRCLE
  5
47
330
2
100
AcDbEntity
  8
GAIKEI
  6
Continuous
 62
   251
100
AcDbCircle
 10
-30.68147158702004
 20
5.14169494533084
 30
0.0
 40
0.090000000000191
  0
CIRCLE
  5
48
330
2
100
AcDbEntity
  8
GAIKEI
  6
Continuous
 62
   251
100
AcDbCircle
 10
-30.22147158702007
 20
6.401694945330831
 30
0.0
 40
0.0900000000000091
  0
CIRCLE
  5
49
330
2
100
AcDbEntity
  8
GAIKEI
  6
Continuous
 62
   251
100
AcDbCircle
 10
-30.22147158702007
 20
5.981694945330815
 30
0.0
 40
0.0900000000000091
  0
CIRCLE
  5
4A
330
2
100
AcDbEntity
  8
GAIKEI
  6
Continuous
 62
   251
100
AcDbCircle
 10
-30.22147158702007
 20
5.561694945330799
 30
0.0
 40
0.0899999999999978
  0
CIRCLE
  5
4B
330
2
100
AcDbEntity
  8
GAIKEI
  6
Continuous
 62
   251
100
AcDbCircle
 10
-30.22147158702007
 20
5.14169494533084
 30
0.0
 40
0.0900000000000091
  0
CIRCLE
  5
4C
330
2
100
AcDbEntity
  8
GAIKEI
  6
Continuous
 62
   251
100
AcDbCircle
 10
-29.76147158702003
 20
6.401694945330831
 30
0.0
 40
0.0899999999999409
  0
CIRCLE
  5
4D
330
2
100
AcDbEntity
  8
GAIKEI
  6
Continuous
 62
   251
100
AcDbCircle
 10
-29.76147158702003
 20
5.981694945330815
 30
0.0
 40
0.0899999999999409
  0
CIRCLE
  5
4E
330
2
100
AcDbEntity
  8
GAIKEI
  6
Continuous
 62
   251
100
AcDbCircle
 10
-29.76147158702003
 20
5.561694945330799
 30
0.0
 40
0.0899999999999523
  0
CIRCLE
  5
4F
330
2
100
AcDbEntity
  8
GAIKEI
  6
Continuous
 62
   251
100
AcDbCircle
 10
-29.76147158702003
 20
5.14169494533084
 30
0.0
 40
0.0899999999999409
  0
CIRCLE
  5
50
330
2
100
AcDbEntity
  8
GAIKEI
  6
Continuous
 62
   251
100
AcDbCircle
 10
-29.30147158701988
 20
6.401694945330831
 30
0.0
 40
0.08999999999985
  0
CIRCLE
  5
51
330
2
100
AcDbEntity
  8
GAIKEI
  6
Continuous
 62
   251
100
AcDbCircle
 10
-29.30147158701988
 20
5.981694945330815
 30
0.0
 40
0.08999999999985
  0
CIRCLE
  5
52
330
2
100
AcDbEntity
  8
GAIKEI
  6
Continuous
 62
   251
100
AcDbCircle
 10
-29.30147158701988
 20
5.561694945330799
 30
0.0
 40
0.08999999999985
  0
CIRCLE
  5
53
330
2
100
AcDbEntity
  8
GAIKEI
  6
Continuous
 62
   251
100
AcDbCircle
 10
-29.30147158701988
 20
5.14169494533084
 30
0.0
 40
0.08999999999985
  0
CIRCLE
  5
54
330
2
100
AcDbEntity
  8
GAIKEI
  6
Continuous
 62
   251
100
AcDbCircle
 10
-28.8414715870199
 20
6.401694945330831
 30
0.0
 40
0.0900000000000091
  0
CIRCLE
  5
55
330
2
100
AcDbEntity
  8
GAIKEI
  6
Continuous
 62
   251
100
AcDbCircle
 10
-28.8414715870199
 20
5.981694945330815
 30
0.0
 40
0.0900000000000091
  0
CIRCLE
  5
56
330
2
100
AcDbEntity
  8
GAIKEI
  6
Continuous
 62
   251
100
AcDbCircle
 10
-28.84147158701984
 20
5.561694945330799
 30
0.0
 40
0.0899999999999978
  0
CIRCLE
  5
57
330
2
100
AcDbEntity
  8
GAIKEI
  6
Continuous
 62
   251
100
AcDbCircle
 10
-28.8414715870199
 20
5.14169494533084
 30
0.0
 40
0.0900000000000091
  0
CIRCLE
  5
58
330
2
100
AcDbEntity
  8
GAIKEI
  6
Continuous
 62
   251
100
AcDbCircle
 10
-28.38147158702009
 20
6.401694945330831
 30
0.0
 40
0.090000000000191
  0
CIRCLE
  5
59
330
2
100
AcDbEntity
  8
GAIKEI
  6
Continuous
 62
   251
100
AcDbCircle
 10
-28.38147158702009
 20
5.981694945330815
 30
0.0
 40
0.090000000000191
  0
CIRCLE
  5
5A
330
2
100
AcDbEntity
  8
GAIKEI
  6
Continuous
 62
   251
100
AcDbCircle
 10
-28.38147158702009
 20
5.561694945330799
 30
0.0
 40
0.0900000000002024
  0
CIRCLE
  5
5B
330
2
100
AcDbEntity
  8
GAIKEI
  6
Continuous
 62
   251
100
AcDbCircle
 10
-28.38147158702009
 20
5.14169494533084
 30
0.0
 40
0.090000000000191
  0
CIRCLE
  5
5C
330
2
100
AcDbEntity
  8
GAIKEI
  6
Continuous
 62
   251
100
AcDbCircle
 10
-27.92147158702005
 20
6.401694945330831
 30
0.0
 40
0.0900000000000091
  0
CIRCLE
  5
5D
330
2
100
AcDbEntity
  8
GAIKEI
  6
Continuous
 62
   251
100
AcDbCircle
 10
-27.92147158702005
 20
5.981694945330815
 30
0.0
 40
0.0900000000000091
  0
CIRCLE
  5
5E
330
2
100
AcDbEntity
  8
GAIKEI
  6
Continuous
 62
   251
100
AcDbCircle
 10
-27.92147158702005
 20
5.561694945330799
 30
0.0
 40
0.0899999999999978
  0
CIRCLE
  5
5F
330
2
100
AcDbEntity
  8
GAIKEI
  6
Continuous
 62
   251
100
AcDbCircle
 10
-27.92147158702005
 20
5.14169494533084
 30
0.0
 40
0.0900000000000091
  0
CIRCLE
  5
60
330
2
100
AcDbEntity
  8
GAIKEI
  6
Continuous
 62
   251
100
AcDbCircle
 10
-27.46147158702001
 20
6.401694945330831
 30
0.0
 40
0.0899999999999409
  0
CIRCLE
  5
61
330
2
100
AcDbEntity
  8
GAIKEI
  6
Continuous
 62
   251
100
AcDbCircle
 10
-27.46147158702001
 20
5.981694945330815
 30
0.0
 40
0.0899999999999409
  0
CIRCLE
  5
62
330
2
100
AcDbEntity
  8
GAIKEI
  6
Continuous
 62
   251
100
AcDbCircle
 10
-27.46147158702001
 20
5.561694945330799
 30
0.0
 40
0.0899999999999409
  0
CIRCLE
  5
63
330
2
100
AcDbEntity
  8
GAIKEI
  6
Continuous
 62
   251
100
AcDbCircle
 10
-27.46147158702001
 20
5.14169494533084
 30
0.0
 40
0.0899999999999523
  0
CIRCLE
  5
64
330
2
100
AcDbEntity
  8
GAIKEI
  6
Continuous
 62
   251
100
AcDbCircle
 10
-27.00147158701986
 20
6.401694945330831
 30
0.0
 40
0.08999999999985
  0
CIRCLE
  5
65
330
2
100
AcDbEntity
  8
GAIKEI
  6
Continuous
 62
   251
100
AcDbCircle
 10
-27.00147158701986
 20
5.981694945330815
 30
0.0
 40
0.08999999999985
  0
CIRCLE
  5
66
330
2
100
AcDbEntity
  8
GAIKEI
  6
Continuous
 62
   251
100
AcDbCircle
 10
-27.00147158701986
 20
5.561694945330799
 30
0.0
 40
0.08999999999985
  0
CIRCLE
  5
67
330
2
100
AcDbEntity
  8
GAIKEI
  6
Continuous
 62
   251
100
AcDbCircle
 10
-27.00147158701986
 20
5.14169494533084
 30
0.0
 40
0.08999999999985
  0
CIRCLE
  5
68
330
2
100
AcDbEntity
  8
GAIKEI
  6
Continuous
 62
   251
100
AcDbCircle
 10
-26.54147158701983
 20
6.401694945330831
 30
0.0
 40
0.0899999999999978
  0
CIRCLE
  5
69
330
2
100
AcDbEntity
  8
GAIKEI
  6
Continuous
 62
   251
100
AcDbCircle
 10
-26.54147158701988
 20
5.981694945330815
 30
0.0
 40
0.0900000000000091
  0
CIRCLE
  5
6A
330
2
100
AcDbEntity
  8
GAIKEI
  6
Continuous
 62
   251
100
AcDbCircle
 10
-26.54147158701988
 20
5.561694945330799
 30
0.0
 40
0.0900000000000091
  0
CIRCLE
  5
6B
330
2
100
AcDbEntity
  8
GAIKEI
  6
Continuous
 62
   251
100
AcDbCircle
 10
-26.54147158701983
 20
5.14169494533084
 30
0.0
 40
0.0899999999999978
  0
CIRCLE
  5
6C
330
2
100
AcDbEntity
  8
GAIKEI
  6
Continuous
 62
   251
100
AcDbCircle
 10
-26.08147158702002
 20
6.401694945330831
 30
0.0
 40
0.090000000000191
  0
CIRCLE
  5
6D
330
2
100
AcDbEntity
  8
GAIKEI
  6
Continuous
 62
   251
100
AcDbCircle
 10
-26.08147158702002
 20
5.981694945330815
 30
0.0
 40
0.090000000000191
  0
CIRCLE
  5
6E
330
2
100
AcDbEntity
  8
GAIKEI
  6
Continuous
 62
   251
100
AcDbCircle
 10
-26.08147158702002
 20
5.561694945330799
 30
0.0
 40
0.090000000000191
  0
CIRCLE
  5
6F
330
2
100
AcDbEntity
  8
GAIKEI
  6
Continuous
 62
   251
100
AcDbCircle
 10
-26.08147158702002
 20
5.14169494533084
 30
0.0
 40
0.090000000000191
  0
CIRCLE
  5
70
330
2
100
AcDbEntity
  8
GAIKEI
  6
Continuous
 62
   251
100
AcDbCircle
 10
-25.62147158702004
 20
6.401694945330831
 30
0.0
 40
0.0900000000000091
  0
CIRCLE
  5
71
330
2
100
AcDbEntity
  8
GAIKEI
  6
Continuous
 62
   251
100
AcDbCircle
 10
-25.62147158702004
 20
5.981694945330815
 30
0.0
 40
0.0900000000000091
  0
CIRCLE
  5
72
330
2
100
AcDbEntity
  8
GAIKEI
  6
Continuous
 62
   251
100
AcDbCircle
 10
-25.62147158702004
 20
5.561694945330799
 30
0.0
 40
0.0900000000000091
  0
CIRCLE
  5
73
330
2
100
AcDbEntity
  8
GAIKEI
  6
Continuous
 62
   251
100
AcDbCircle
 10
-25.62147158702004
 20
5.14169494533084
 30
0.0
 40
0.0900000000000091
  0
CIRCLE
  5
74
330
2
100
AcDbEntity
  8
GAIKEI
  6
Continuous
 62
   251
100
AcDbCircle
 10
-25.16147158702006
 20
6.401694945330831
 30
0.0
 40
0.0899999999999978
  0
CIRCLE
  5
75
330
2
100
AcDbEntity
  8
GAIKEI
  6
Continuous
 62
   251
100
AcDbCircle
 10
-25.16147158702006
 20
5.981694945330815
 30
0.0
 40
0.0899999999999978
  0
CIRCLE
  5
76
330
2
100
AcDbEntity
  8
GAIKEI
  6
Continuous
 62
   251
100
AcDbCircle
 10
-25.16147158702006
 20
5.561694945330799
 30
0.0
 40
0.0899999999999978
  0
CIRCLE
  5
77
330
2
100
AcDbEntity
  8
GAIKEI
  6
Continuous
 62
   251
100
AcDbCircle
 10
-25.16147158702006
 20
5.14169494533084
 30
0.0
 40
0.0899999999999978
  0
CIRCLE
  5
78
330
2
100
AcDbEntity
  8
GAIKEI
  6
Continuous
 62
   251
100
AcDbCircle
 10
-24.70147158701986
 20
6.401694945330831
 30
0.0
 40
0.0899999999997931
  0
CIRCLE
  5
79
330
2
100
AcDbEntity
  8
GAIKEI
  6
Continuous
 62
   251
100
AcDbCircle
 10
-24.70147158701986
 20
5.981694945330815
 30
0.0
 40
0.0899999999997931
  0
CIRCLE
  5
7A
330
2
100
AcDbEntity
  8
GAIKEI
  6
Continuous
 62
   251
100
AcDbCircle
 10
-24.70147158701986
 20
5.561694945330799
 30
0.0
 40
0.0899999999997931
  0
CIRCLE
  5
7B
330
2
100
AcDbEntity
  8
GAIKEI
  6
Continuous
 62
   251
100
AcDbCircle
 10
-24.70147158701986
 20
5.14169494533084
 30
0.0
 40
0.0899999999997931
  0
CIRCLE
  5
7C
330
2
100
AcDbEntity
  8
GAIKEI
  6
Continuous
 62
   251
100
AcDbCircle
 10
-24.24147158701982
 20
6.401694945330831
 30
0.0
 40
0.0900000000000091
  0
CIRCLE
  5
7D
330
2
100
AcDbEntity
  8
GAIKEI
  6
Continuous
 62
   251
100
AcDbCircle
 10
-24.24147158701982
 20
5.981694945330815
 30
0.0
 40
0.0900000000000091
  0
CIRCLE
  5
7E
330
2
100
AcDbEntity
  8
GAIKEI
  6
Continuous
 62
   251
100
AcDbCircle
 10
-24.24147158701982
 20
5.561694945330799
 30
0.0
 40
0.0900000000000091
  0
CIRCLE
  5
7F
330
2
100
AcDbEntity
  8
GAIKEI
  6
Continuous
 62
   251
100
AcDbCircle
 10
-24.24147158701982
 20
5.14169494533084
 30
0.0
 40
0.0900000000000091
  0
CIRCLE
  5
80
330
2
100
AcDbEntity
  8
GAIKEI
  6
Continuous
 62
   251
100
AcDbCircle
 10
-23.78147158702006
 20
6.401694945330831
 30
0.0
 40
0.090000000000191
  0
CIRCLE
  5
81
330
2
100
AcDbEntity
  8
GAIKEI
  6
Continuous
 62
   251
100
AcDbCircle
 10
-23.78147158702006
 20
5.981694945330815
 30
0.0
 40
0.090000000000191
  0
CIRCLE
  5
82
330
2
100
AcDbEntity
  8
GAIKEI
  6
Continuous
 62
   251
100
AcDbCircle
 10
-23.78147158702006
 20
5.561694945330799
 30
0.0
 40
0.090000000000191
  0
CIRCLE
  5
83
330
2
100
AcDbEntity
  8
GAIKEI
  6
Continuous
 62
   251
100
AcDbCircle
 10
-23.78147158702006
 20
5.14169494533084
 30
0.0
 40
0.090000000000191
  0
CIRCLE
  5
84
330
2
100
AcDbEntity
  8
GAIKEI
  6
Continuous
 62
   251
100
AcDbCircle
 10
-23.32147158702003
 20
6.401694945330831
 30
0.0
 40
0.0900000000000091
  0
CIRCLE
  5
85
330
2
100
AcDbEntity
  8
GAIKEI
  6
Continuous
 62
   251
100
AcDbCircle
 10
-23.32147158702003
 20
5.981694945330815
 30
0.0
 40
0.0900000000000091
  0
CIRCLE
  5
86
330
2
100
AcDbEntity
  8
GAIKEI
  6
Continuous
 62
   251
100
AcDbCircle
 10
-23.32147158702003
 20
5.561694945330799
 30
0.0
 40
0.0900000000000091
  0
CIRCLE
  5
87
330
2
100
AcDbEntity
  8
GAIKEI
  6
Continuous
 62
   251
100
AcDbCircle
 10
-23.32147158702003
 20
5.14169494533084
 30
0.0
 40
0.0900000000000091
  0
CIRCLE
  5
88
330
2
100
AcDbEntity
  8
GAIKEI
  6
Continuous
 62
   251
100
AcDbCircle
 10
-22.86147158702005
 20
6.401694945330831
 30
0.0
 40
0.0899999999999864
  0
CIRCLE
  5
89
330
2
100
AcDbEntity
  8
GAIKEI
  6
Continuous
 62
   251
100
AcDbCircle
 10
-22.86147158702005
 20
5.981694945330815
 30
0.0
 40
0.0899999999999864
  0
CIRCLE
  5
8A
330
2
100
AcDbEntity
  8
GAIKEI
  6
Continuous
 62
   251
100
AcDbCircle
 10
-22.86147158702005
 20
5.561694945330799
 30
0.0
 40
0.0899999999999864
  0
CIRCLE
  5
8B
330
2
100
AcDbEntity
  8
GAIKEI
  6
Continuous
 62
   251
100
AcDbCircle
 10
-22.86147158702005
 20
5.14169494533084
 30
0.0
 40
0.0899999999999864
  0
CIRCLE
  5
8C
330
2
100
AcDbEntity
  8
GAIKEI
  6
Continuous
 62
   251
100
AcDbCircle
 10
-22.40147158701984
 20
6.401694945330831
 30
0.0
 40
0.0899999999998045
  0
CIRCLE
  5
8D
330
2
100
AcDbEntity
  8
GAIKEI
  6
Continuous
 62
   251
100
AcDbCircle
 10
-22.40147158701984
 20
5.981694945330815
 30
0.0
 40
0.0899999999998045
  0
CIRCLE
  5
8E
330
2
100
AcDbEntity
  8
GAIKEI
  6
Continuous
 62
   251
100
AcDbCircle
 10
-22.40147158701984
 20
5.561694945330799
 30
0.0
 40
0.0899999999998045
  0
CIRCLE
  5
8F
330
2
100
AcDbEntity
  8
GAIKEI
  6
Continuous
 62
   251
100
AcDbCircle
 10
-22.40147158701984
 20
5.14169494533084
 30
0.0
 40
0.0899999999998045
  0
CIRCLE
  5
90
330
2
100
AcDbEntity
  8
GAIKEI
  6
Continuous
 62
   251
100
AcDbCircle
 10
-21.94147158701986
 20
6.401694945330831
 30
0.0
 40
0.0900000000000091
  0
CIRCLE
  5
91
330
2
100
AcDbEntity
  8
GAIKEI
  6
Continuous
 62
   251
100
AcDbCircle
 10
-21.94147158701986
 20
5.981694945330815
 30
0.0
 40
0.0900000000000091
  0
CIRCLE
  5
92
330
2
100
AcDbEntity
  8
GAIKEI
  6
Continuous
 62
   251
100
AcDbCircle
 10
-21.94147158701986
 20
5.561694945330799
 30
0.0
 40
0.0900000000000091
  0
CIRCLE
  5
93
330
2
100
AcDbEntity
  8
GAIKEI
  6
Continuous
 62
   251
100
AcDbCircle
 10
-21.94147158701986
 20
5.14169494533084
 30
0.0
 40
0.0900000000000091
  0
CIRCLE
  5
94
330
2
100
AcDbEntity
  8
GAIKEI
  6
Continuous
 62
   251
100
AcDbCircle
 10
-21.48147158702006
 20
6.401694945330831
 30
0.0
 40
0.090000000000191
  0
CIRCLE
  5
95
330
2
100
AcDbEntity
  8
GAIKEI
  6
Continuous
 62
   251
100
AcDbCircle
 10
-21.48147158702006
 20
5.981694945330815
 30
0.0
 40
0.090000000000191
  0
CIRCLE
  5
96
330
2
100
AcDbEntity
  8
GAIKEI
  6
Continuous
 62
   251
100
AcDbCircle
 10
-21.48147158702006
 20
5.561694945330799
 30
0.0
 40
0.090000000000191
  0
CIRCLE
  5
97
330
2
100
AcDbEntity
  8
GAIKEI
  6
Continuous
 62
   251
100
AcDbCircle
 10
-21.48147158702006
 20
5.14169494533084
 30
0.0
 40
0.090000000000191
  0
CIRCLE
  5
98
330
2
100
AcDbEntity
  8
GAIKEI
  6
Continuous
 62
   251
100
AcDbCircle
 10
-21.02147158702007
 20
6.401694945330831
 30
0.0
 40
0.0900000000000091
  0
CIRCLE
  5
99
330
2
100
AcDbEntity
  8
GAIKEI
  6
Continuous
 62
   251
100
AcDbCircle
 10
-21.02147158702007
 20
5.981694945330815
 30
0.0
 40
0.0900000000000091
  0
CIRCLE
  5
9A
330
2
100
AcDbEntity
  8
GAIKEI
  6
Continuous
 62
   251
100
AcDbCircle
 10
-21.02147158702007
 20
5.561694945330799
 30
0.0
 40
0.0900000000000091
  0
CIRCLE
  5
9B
330
2
100
AcDbEntity
  8
GAIKEI
  6
Continuous
 62
   251
100
AcDbCircle
 10
-21.02147158702007
 20
5.14169494533084
 30
0.0
 40
0.0900000000000091
  0
CIRCLE
  5
9C
330
2
100
AcDbEntity
  8
GAIKEI
  6
Continuous
 62
   251
100
AcDbCircle
 10
-20.56147158702004
 20
6.401694945330831
 30
0.0
 40
0.0899999999999864
  0
CIRCLE
  5
9D
330
2
100
AcDbEntity
  8
GAIKEI
  6
Continuous
 62
   251
100
AcDbCircle
 10
-20.56147158702004
 20
5.981694945330815
 30
0.0
 40
0.0899999999999864
  0
CIRCLE
  5
9E
330
2
100
AcDbEntity
  8
GAIKEI
  6
Continuous
 62
   251
100
AcDbCircle
 10
-20.56147158702004
 20
5.561694945330799
 30
0.0
 40
0.0899999999999864
  0
CIRCLE
  5
9F
330
2
100
AcDbEntity
  8
GAIKEI
  6
Continuous
 62
   251
100
AcDbCircle
 10
-20.56147158702004
 20
5.14169494533084
 30
0.0
 40
0.0899999999999864
  0
CIRCLE
  5
A0
330
2
100
AcDbEntity
  8
GAIKEI
  6
Continuous
 62
   251
100
AcDbCircle
 10
-20.10147158701983
 20
6.401694945330831
 30
0.0
 40
0.0899999999998045
  0
CIRCLE
  5
A1
330
2
100
AcDbEntity
  8
GAIKEI
  6
Continuous
 62
   251
100
AcDbCircle
 10
-20.10147158701983
 20
5.981694945330815
 30
0.0
 40
0.0899999999998045
  0
CIRCLE
  5
A2
330
2
100
AcDbEntity
  8
GAIKEI
  6
Continuous
 62
   251
100
AcDbCircle
 10
-20.10147158701983
 20
5.561694945330799
 30
0.0
 40
0.0899999999998045
  0
CIRCLE
  5
A3
330
2
100
AcDbEntity
  8
GAIKEI
  6
Continuous
 62
   251
100
AcDbCircle
 10
-20.10147158701983
 20
5.14169494533084
 30
0.0
 40
0.0899999999998045
  0
CIRCLE
  5
A4
330
2
100
AcDbEntity
  8
GAIKEI
  6
Continuous
 62
   251
100
AcDbCircle
 10
-19.64147158701985
 20
6.401694945330831
 30
0.0
 40
0.0900000000000091
  0
CIRCLE
  5
A5
330
2
100
AcDbEntity
  8
GAIKEI
  6
Continuous
 62
   251
100
AcDbCircle
 10
-19.64147158701985
 20
5.981694945330815
 30
0.0
 40
0.0900000000000091
  0
CIRCLE
  5
A6
330
2
100
AcDbEntity
  8
GAIKEI
  6
Continuous
 62
   251
100
AcDbCircle
 10
-19.64147158701985
 20
5.561694945330799
 30
0.0
 40
0.0900000000000091
  0
CIRCLE
  5
A7
330
2
100
AcDbEntity
  8
GAIKEI
  6
Continuous
 62
   251
100
AcDbCircle
 10
-19.64147158701985
 20
5.14169494533084
 30
0.0
 40
0.0900000000000091
  0
CIRCLE
  5
A8
330
2
100
AcDbEntity
  8
GAIKEI
  6
Continuous
 62
   251
100
AcDbCircle
 10
-19.18147158702004
 20
6.401694945330831
 30
0.0
 40
0.090000000000191
  0
CIRCLE
  5
A9
330
2
100
AcDbEntity
  8
GAIKEI
  6
Continuous
 62
   251
100
AcDbCircle
 10
-19.18147158702004
 20
5.981694945330815
 30
0.0
 40
0.090000000000191
  0
CIRCLE
  5
AA
330
2
100
AcDbEntity
  8
GAIKEI
  6
Continuous
 62
   251
100
AcDbCircle
 10
-19.18147158702004
 20
5.561694945330799
 30
0.0
 40
0.090000000000191
  0
CIRCLE
  5
AB
330
2
100
AcDbEntity
  8
GAIKEI
  6
Continuous
 62
   251
100
AcDbCircle
 10
-19.18147158702004
 20
5.14169494533084
 30
0.0
 40
0.090000000000191
  0
CIRCLE
  5
AC
330
2
100
AcDbEntity
  8
GAIKEI
  6
Continuous
 62
   251
100
AcDbCircle
 10
-18.72147158702006
 20
6.401694945330831
 30
0.0
 40
0.0900000000000091
  0
CIRCLE
  5
AD
330
2
100
AcDbEntity
  8
GAIKEI
  6
Continuous
 62
   251
100
AcDbCircle
 10
-18.72147158702006
 20
5.981694945330815
 30
0.0
 40
0.0900000000000091
  0
CIRCLE
  5
AE
330
2
100
AcDbEntity
  8
GAIKEI
  6
Continuous
 62
   251
100
AcDbCircle
 10
-18.72147158702006
 20
5.561694945330799
 30
0.0
 40
0.0900000000000091
  0
CIRCLE
  5
AF
330
2
100
AcDbEntity
  8
GAIKEI
  6
Continuous
 62
   251
100
AcDbCircle
 10
-18.72147158702006
 20
5.14169494533084
 30
0.0
 40
0.0900000000000091
  0
CIRCLE
  5
B0
330
2
100
AcDbEntity
  8
GAIKEI
  6
Continuous
 62
   251
100
AcDbCircle
 10
-18.26147158702002
 20
6.401694945330831
 30
0.0
 40
0.0899999999999864
  0
CIRCLE
  5
B1
330
2
100
AcDbEntity
  8
GAIKEI
  6
Continuous
 62
   251
100
AcDbCircle
 10
-18.26147158702002
 20
5.981694945330815
 30
0.0
 40
0.0899999999999864
  0
CIRCLE
  5
B2
330
2
100
AcDbEntity
  8
GAIKEI
  6
Continuous
 62
   251
100
AcDbCircle
 10
-18.26147158702002
 20
5.561694945330799
 30
0.0
 40
0.0899999999999864
  0
CIRCLE
  5
B3
330
2
100
AcDbEntity
  8
GAIKEI
  6
Continuous
 62
   251
100
AcDbCircle
 10
-18.26147158702002
 20
5.14169494533084
 30
0.0
 40
0.0899999999999864
  0
CIRCLE
  5
B4
330
2
100
AcDbEntity
  8
GAIKEI
  6
Continuous
 62
   251
100
AcDbCircle
 10
-17.80147158701982
 20
6.401694945330831
 30
0.0
 40
0.0899999999998045
  0
CIRCLE
  5
B5
330
2
100
AcDbEntity
  8
GAIKEI
  6
Continuous
 62
   251
100
AcDbCircle
 10
-17.80147158701982
 20
5.981694945330815
 30
0.0
 40
0.0899999999998045
  0
CIRCLE
  5
B6
330
2
100
AcDbEntity
  8
GAIKEI
  6
Continuous
 62
   251
100
AcDbCircle
 10
-17.80147158701982
 20
5.561694945330799
 30
0.0
 40
0.0899999999998045
  0
CIRCLE
  5
B7
330
2
100
AcDbEntity
  8
GAIKEI
  6
Continuous
 62
   251
100
AcDbCircle
 10
-17.80147158701982
 20
5.14169494533084
 30
0.0
 40
0.0899999999998045
  0
CIRCLE
  5
B8
330
2
100
AcDbEntity
  8
GAIKEI
  6
Continuous
 62
   251
100
AcDbCircle
 10
-17.34147158701984
 20
6.401694945330831
 30
0.0
 40
0.0900000000000091
  0
CIRCLE
  5
B9
330
2
100
AcDbEntity
  8
GAIKEI
  6
Continuous
 62
   251
100
AcDbCircle
 10
-17.34147158701984
 20
5.981694945330815
 30
0.0
 40
0.0900000000000091
  0
CIRCLE
  5
BA
330
2
100
AcDbEntity
  8
GAIKEI
  6
Continuous
 62
   251
100
AcDbCircle
 10
-17.34147158701984
 20
5.561694945330799
 30
0.0
 40
0.0900000000000091
  0
CIRCLE
  5
BB
330
2
100
AcDbEntity
  8
GAIKEI
  6
Continuous
 62
   251
100
AcDbCircle
 10
-17.34147158701984
 20
5.14169494533084
 30
0.0
 40
0.0900000000000091
  0
CIRCLE
  5
BC
330
2
100
AcDbEntity
  8
GAIKEI
  6
Continuous
 62
   251
100
AcDbCircle
 10
-16.88147158702003
 20
6.401694945330831
 30
0.0
 40
0.090000000000191
  0
CIRCLE
  5
BD
330
2
100
AcDbEntity
  8
GAIKEI
  6
Continuous
 62
   251
100
AcDbCircle
 10
-16.88147158702003
 20
5.981694945330815
 30
0.0
 40
0.090000000000191
  0
CIRCLE
  5
BE
330
2
100
AcDbEntity
  8
GAIKEI
  6
Continuous
 62
   251
100
AcDbCircle
 10
-16.88147158702003
 20
5.561694945330799
 30
0.0
 40
0.090000000000191
  0
CIRCLE
  5
BF
330
2
100
AcDbEntity
  8
GAIKEI
  6
Continuous
 62
   251
100
AcDbCircle
 10
-16.88147158702003
 20
5.14169494533084
 30
0.0
 40
0.090000000000191
  0
CIRCLE
  5
C0
330
2
100
AcDbEntity
  8
GAIKEI
  6
Continuous
 62
   251
100
AcDbCircle
 10
-16.42147158702005
 20
6.401694945330831
 30
0.0
 40
0.0900000000000091
  0
CIRCLE
  5
C1
330
2
100
AcDbEntity
  8
GAIKEI
  6
Continuous
 62
   251
100
AcDbCircle
 10
-16.42147158702005
 20
5.981694945330815
 30
0.0
 40
0.0900000000000091
  0
CIRCLE
  5
C2
330
2
100
AcDbEntity
  8
GAIKEI
  6
Continuous
 62
   251
100
AcDbCircle
 10
-16.42147158702005
 20
5.561694945330799
 30
0.0
 40
0.0900000000000091
  0
CIRCLE
  5
C3
330
2
100
AcDbEntity
  8
GAIKEI
  6
Continuous
 62
   251
100
AcDbCircle
 10
-16.42147158702005
 20
5.14169494533084
 30
0.0
 40
0.0900000000000091
  0
CIRCLE
  5
C4
330
2
100
AcDbEntity
  8
GAIKEI
  6
Continuous
 62
   251
100
AcDbCircle
 10
-15.96147158702001
 20
6.401694945330831
 30
0.0
 40
0.0899999999999864
  0
CIRCLE
  5
C5
330
2
100
AcDbEntity
  8
GAIKEI
  6
Continuous
 62
   251
100
AcDbCircle
 10
-15.96147158702001
 20
5.981694945330815
 30
0.0
 40
0.0899999999999864
  0
CIRCLE
  5
C6
330
2
100
AcDbEntity
  8
GAIKEI
  6
Continuous
 62
   251
100
AcDbCircle
 10
-15.96147158702001
 20
5.561694945330799
 30
0.0
 40
0.0899999999999864
  0
CIRCLE
  5
C7
330
2
100
AcDbEntity
  8
GAIKEI
  6
Continuous
 62
   251
100
AcDbCircle
 10
-15.96147158702001
 20
5.14169494533084
 30
0.0
 40
0.0899999999999864
  0
CIRCLE
  5
C8
330
2
100
AcDbEntity
  8
GAIKEI
  6
Continuous
 62
   251
100
AcDbCircle
 10
-15.50147158701986
 20
6.401694945330831
 30
0.0
 40
0.0899999999998045
  0
CIRCLE
  5
C9
330
2
100
AcDbEntity
  8
GAIKEI
  6
Continuous
 62
   251
100
AcDbCircle
 10
-15.50147158701986
 20
5.981694945330815
 30
0.0
 40
0.0899999999998045
  0
CIRCLE
  5
CA
330
2
100
AcDbEntity
  8
GAIKEI
  6
Continuous
 62
   251
100
AcDbCircle
 10
-15.50147158701986
 20
5.561694945330799
 30
0.0
 40
0.0899999999998045
  0
CIRCLE
  5
CB
330
2
100
AcDbEntity
  8
GAIKEI
  6
Continuous
 62
   251
100
AcDbCircle
 10
-15.50147158701986
 20
5.14169494533084
 30
0.0
 40
0.0899999999998045
  0
CIRCLE
  5
CC
330
2
100
AcDbEntity
  8
GAIKEI
  6
Continuous
 62
   251
100
AcDbCircle
 10
-15.04147158701982
 20
6.401694945330831
 30
0.0
 40
0.0900000000000091
  0
CIRCLE
  5
CD
330
2
100
AcDbEntity
  8
GAIKEI
  6
Continuous
 62
   251
100
AcDbCircle
 10
-15.04147158701982
 20
5.981694945330815
 30
0.0
 40
0.0900000000000091
  0
CIRCLE
  5
CE
330
2
100
AcDbEntity
  8
GAIKEI
  6
Continuous
 62
   251
100
AcDbCircle
 10
-15.04147158701982
 20
5.561694945330799
 30
0.0
 40
0.0900000000000091
  0
CIRCLE
  5
CF
330
2
100
AcDbEntity
  8
GAIKEI
  6
Continuous
 62
   251
100
AcDbCircle
 10
-15.04147158701982
 20
5.14169494533084
 30
0.0
 40
0.0900000000000091
  0
CIRCLE
  5
D0
330
2
100
AcDbEntity
  8
GAIKEI
  6
Continuous
 62
   251
100
AcDbCircle
 10
-14.58147158702002
 20
6.401694945330831
 30
0.0
 40
0.090000000000191
  0
CIRCLE
  5
D1
330
2
100
AcDbEntity
  8
GAIKEI
  6
Continuous
 62
   251
100
AcDbCircle
 10
-14.58147158702002
 20
5.981694945330815
 30
0.0
 40
0.090000000000191
  0
CIRCLE
  5
D2
330
2
100
AcDbEntity
  8
GAIKEI
  6
Continuous
 62
   251
100
AcDbCircle
 10
-14.58147158702002
 20
5.561694945330799
 30
0.0
 40
0.090000000000191
  0
CIRCLE
  5
D3
330
2
100
AcDbEntity
  8
GAIKEI
  6
Continuous
 62
   251
100
AcDbCircle
 10
-14.58147158702002
 20
5.14169494533084
 30
0.0
 40
0.090000000000191
  0
CIRCLE
  5
D4
330
2
100
AcDbEntity
  8
GAIKEI
  6
Continuous
 62
   251
100
AcDbCircle
 10
-14.12147158702004
 20
6.401694945330831
 30
0.0
 40
0.0900000000000091
  0
CIRCLE
  5
D5
330
2
100
AcDbEntity
  8
GAIKEI
  6
Continuous
 62
   251
100
AcDbCircle
 10
-14.12147158702004
 20
5.981694945330815
 30
0.0
 40
0.0900000000000091
  0
CIRCLE
  5
D6
330
2
100
AcDbEntity
  8
GAIKEI
  6
Continuous
 62
   251
100
AcDbCircle
 10
-14.12147158702004
 20
5.561694945330799
 30
0.0
 40
0.0900000000000091
  0
CIRCLE
  5
D7
330
2
100
AcDbEntity
  8
GAIKEI
  6
Continuous
 62
   251
100
AcDbCircle
 10
-14.12147158702004
 20
5.14169494533084
 30
0.0
 40
0.0900000000000091
  0
CIRCLE
  5
D8
330
2
100
AcDbEntity
  8
GAIKEI
  6
Continuous
 62
   251
100
AcDbCircle
 10
-13.66147158702006
 20
6.401694945330831
 30
0.0
 40
0.0899999999999864
  0
CIRCLE
  5
D9
330
2
100
AcDbEntity
  8
GAIKEI
  6
Continuous
 62
   251
100
AcDbCircle
 10
-13.66147158702006
 20
5.981694945330815
 30
0.0
 40
0.0899999999999864
  0
CIRCLE
  5
DA
330
2
100
AcDbEntity
  8
GAIKEI
  6
Continuous
 62
   251
100
AcDbCircle
 10
-13.66147158702006
 20
5.561694945330799
 30
0.0
 40
0.0899999999999864
  0
CIRCLE
  5
DB
330
2
100
AcDbEntity
  8
GAIKEI
  6
Continuous
 62
   251
100
AcDbCircle
 10
-13.66147158702006
 20
5.14169494533084
 30
0.0
 40
0.0899999999999864
  0
CIRCLE
  5
DC
330
2
100
AcDbEntity
  8
GAIKEI
  6
Continuous
 62
   251
100
AcDbCircle
 10
-13.20147158701985
 20
6.401694945330831
 30
0.0
 40
0.0899999999998045
  0
CIRCLE
  5
DD
330
2
100
AcDbEntity
  8
GAIKEI
  6
Continuous
 62
   251
100
AcDbCircle
 10
-13.20147158701985
 20
5.981694945330815
 30
0.0
 40
0.0899999999998045
  0
CIRCLE
  5
DE
330
2
100
AcDbEntity
  8
GAIKEI
  6
Continuous
 62
   251
100
AcDbCircle
 10
-13.20147158701985
 20
5.561694945330799
 30
0.0
 40
0.0899999999998045
  0
CIRCLE
  5
DF
330
2
100
AcDbEntity
  8
GAIKEI
  6
Continuous
 62
   251
100
AcDbCircle
 10
-13.20147158701985
 20
5.14169494533084
 30
0.0
 40
0.0899999999998045
  0
CIRCLE
  5
E0
330
2
100
AcDbEntity
  8
GAIKEI
  6
Continuous
 62
   251
100
AcDbCircle
 10
-12.74147158701987
 20
6.401694945330831
 30
0.0
 40
0.0900000000000091
  0
CIRCLE
  5
E1
330
2
100
AcDbEntity
  8
GAIKEI
  6
Continuous
 62
   251
100
AcDbCircle
 10
-12.74147158701987
 20
5.981694945330815
 30
0.0
 40
0.0900000000000091
  0
CIRCLE
  5
E2
330
2
100
AcDbEntity
  8
GAIKEI
  6
Continuous
 62
   251
100
AcDbCircle
 10
-12.74147158701987
 20
5.561694945330799
 30
0.0
 40
0.0900000000000091
  0
CIRCLE
  5
E3
330
2
100
AcDbEntity
  8
GAIKEI
  6
Continuous
 62
   251
100
AcDbCircle
 10
-12.74147158701987
 20
5.14169494533084
 30
0.0
 40
0.0900000000000091
  0
CIRCLE
  5
E4
330
2
100
AcDbEntity
  8
GAIKEI
  6
Continuous
 62
   251
100
AcDbCircle
 10
-12.28147158702006
 20
6.401694945330831
 30
0.0
 40
0.090000000000191
  0
CIRCLE
  5
E5
330
2
100
AcDbEntity
  8
GAIKEI
  6
Continuous
 62
   251
100
AcDbCircle
 10
-12.28147158702006
 20
5.981694945330815
 30
0.0
 40
0.090000000000191
  0
CIRCLE
  5
E6
330
2
100
AcDbEntity
  8
GAIKEI
  6
Continuous
 62
   251
100
AcDbCircle
 10
-12.28147158702006
 20
5.561694945330799
 30
0.0
 40
0.090000000000191
  0
CIRCLE
  5
E7
330
2
100
AcDbEntity
  8
GAIKEI
  6
Continuous
 62
   251
100
AcDbCircle
 10
-12.28147158702006
 20
5.14169494533084
 30
0.0
 40
0.090000000000191
  0
CIRCLE
  5
E8
330
2
100
AcDbEntity
  8
GAIKEI
  6
Continuous
 62
   251
100
AcDbCircle
 10
-11.82147158702003
 20
6.401694945330831
 30
0.0
 40
0.0900000000000091
  0
CIRCLE
  5
E9
330
2
100
AcDbEntity
  8
GAIKEI
  6
Continuous
 62
   251
100
AcDbCircle
 10
-11.82147158702003
 20
5.981694945330815
 30
0.0
 40
0.0900000000000091
  0
CIRCLE
  5
EA
330
2
100
AcDbEntity
  8
GAIKEI
  6
Continuous
 62
   251
100
AcDbCircle
 10
-11.82147158702003
 20
5.561694945330799
 30
0.0
 40
0.0900000000000091
  0
CIRCLE
  5
EB
330
2
100
AcDbEntity
  8
GAIKEI
  6
Continuous
 62
   251
100
AcDbCircle
 10
-11.82147158702003
 20
5.14169494533084
 30
0.0
 40
0.0900000000000091
  0
CIRCLE
  5
EC
330
2
100
AcDbEntity
  8
GAIKEI
  6
Continuous
 62
   251
100
AcDbCircle
 10
-11.36147158702005
 20
6.401694945330831
 30
0.0
 40
0.0899999999999864
  0
CIRCLE
  5
ED
330
2
100
AcDbEntity
  8
GAIKEI
  6
Continuous
 62
   251
100
AcDbCircle
 10
-11.36147158702005
 20
5.981694945330815
 30
0.0
 40
0.0899999999999864
  0
CIRCLE
  5
EE
330
2
100
AcDbEntity
  8
GAIKEI
  6
Continuous
 62
   251
100
AcDbCircle
 10
-11.36147158702005
 20
5.561694945330799
 30
0.0
 40
0.0899999999999864
  0
CIRCLE
  5
EF
330
2
100
AcDbEntity
  8
GAIKEI
  6
Continuous
 62
   251
100
AcDbCircle
 10
-11.36147158702005
 20
5.14169494533084
 30
0.0
 40
0.0899999999999864
  0
CIRCLE
  5
F0
330
2
100
AcDbEntity
  8
GAIKEI
  6
Continuous
 62
   251
100
AcDbCircle
 10
-10.90147158701984
 20
6.401694945330831
 30
0.0
 40
0.0899999999998045
  0
CIRCLE
  5
F1
330
2
100
AcDbEntity
  8
GAIKEI
  6
Continuous
 62
   251
100
AcDbCircle
 10
-10.90147158701984
 20
5.981694945330815
 30
0.0
 40
0.0899999999998045
  0
CIRCLE
  5
F2
330
2
100
AcDbEntity
  8
GAIKEI
  6
Continuous
 62
   251
100
AcDbCircle
 10
-10.90147158701984
 20
5.561694945330799
 30
0.0
 40
0.0899999999998045
  0
CIRCLE
  5
F3
330
2
100
AcDbEntity
  8
GAIKEI
  6
Continuous
 62
   251
100
AcDbCircle
 10
-10.90147158701984
 20
5.14169494533084
 30
0.0
 40
0.0899999999998045
  0
CIRCLE
  5
F4
330
2
100
AcDbEntity
  8
GAIKEI
  6
Continuous
 62
   251
100
AcDbCircle
 10
-10.44147158701986
 20
6.401694945330831
 30
0.0
 40
0.0900000000000091
  0
CIRCLE
  5
F5
330
2
100
AcDbEntity
  8
GAIKEI
  6
Continuous
 62
   251
100
AcDbCircle
 10
-10.44147158701986
 20
5.981694945330815
 30
0.0
 40
0.0900000000000091
  0
CIRCLE
  5
F6
330
2
100
AcDbEntity
  8
GAIKEI
  6
Continuous
 62
   251
100
AcDbCircle
 10
-10.44147158701986
 20
5.561694945330799
 30
0.0
 40
0.0900000000000091
  0
CIRCLE
  5
F7
330
2
100
AcDbEntity
  8
GAIKEI
  6
Continuous
 62
   251
100
AcDbCircle
 10
-10.44147158701986
 20
5.14169494533084
 30
0.0
 40
0.0900000000000091
  0
CIRCLE
  5
F8
330
2
100
AcDbEntity
  8
GAIKEI
  6
Continuous
 62
   251
100
AcDbCircle
 10
-9.981471587020052
 20
6.401694945330831
 30
0.0
 40
0.090000000000191
  0
CIRCLE
  5
F9
330
2
100
AcDbEntity
  8
GAIKEI
  6
Continuous
 62
   251
100
AcDbCircle
 10
-9.981471587020052
 20
5.981694945330815
 30
0.0
 40
0.090000000000191
  0
CIRCLE
  5
FA
330
2
100
AcDbEntity
  8
GAIKEI
  6
Continuous
 62
   251
100
AcDbCircle
 10
-9.981471587020052
 20
5.561694945330799
 30
0.0
 40
0.090000000000191
  0
CIRCLE
  5
FB
330
2
100
AcDbEntity
  8
GAIKEI
  6
Continuous
 62
   251
100
AcDbCircle
 10
-9.981471587020052
 20
5.14169494533084
 30
0.0
 40
0.090000000000191
  0
CIRCLE
  5
FC
330
2
100
AcDbEntity
  8
GAIKEI
  6
Continuous
 62
   251
100
AcDbCircle
 10
-9.521471587020073
 20
6.401694945330831
 30
0.0
 40
0.0900000000000091
  0
CIRCLE
  5
FD
330
2
100
AcDbEntity
  8
GAIKEI
  6
Continuous
 62
   251
100
AcDbCircle
 10
-9.521471587020073
 20
5.981694945330815
 30
0.0
 40
0.0900000000000091
  0
CIRCLE
  5
FE
330
2
100
AcDbEntity
  8
GAIKEI
  6
Continuous
 62
   251
100
AcDbCircle
 10
-9.521471587020073
 20
5.561694945330799
 30
0.0
 40
0.0900000000000091
  0
CIRCLE
  5
FF
330
2
100
AcDbEntity
  8
GAIKEI
  6
Continuous
 62
   251
100
AcDbCircle
 10
-9.521471587020073
 20
5.14169494533084
 30
0.0
 40
0.0900000000000091
  0
CIRCLE
  5
100
330
2
100
AcDbEntity
  8
GAIKEI
  6
Continuous
 62
   251
100
AcDbCircle
 10
-9.061471587020037
 20
6.401694945330831
 30
0.0
 40
0.0899999999999864
  0
CIRCLE
  5
101
330
2
100
AcDbEntity
  8
GAIKEI
  6
Continuous
 62
   251
100
AcDbCircle
 10
-9.061471587020037
 20
5.981694945330815
 30
0.0
 40
0.0899999999999864
  0
CIRCLE
  5
102
330
2
100
AcDbEntity
  8
GAIKEI
  6
Continuous
 62
   251
100
AcDbCircle
 10
-9.061471587020037
 20
5.561694945330799
 30
0.0
 40
0.0899999999999864
  0
CIRCLE
  5
103
330
2
100
AcDbEntity
  8
GAIKEI
  6
Continuous
 62
   251
100
AcDbCircle
 10
-9.061471587020037
 20
5.14169494533084
 30
0.0
 40
0.0899999999999864
  0
CIRCLE
  5
104
330
2
100
AcDbEntity
  8
GAIKEI
  6
Continuous
 62
   251
100
AcDbCircle
 10
-8.60147158701983
 20
6.401694945330831
 30
0.0
 40
0.0899999999998045
  0
CIRCLE
  5
105
330
2
100
AcDbEntity
  8
GAIKEI
  6
Continuous
 62
   251
100
AcDbCircle
 10
-8.60147158701983
 20
5.981694945330815
 30
0.0
 40
0.0899999999998045
  0
CIRCLE
  5
106
330
2
100
AcDbEntity
  8
GAIKEI
  6
Continuous
 62
   251
100
AcDbCircle
 10
-8.60147158701983
 20
5.561694945330799
 30
0.0
 40
0.0899999999998045
  0
CIRCLE
  5
107
330
2
100
AcDbEntity
  8
GAIKEI
  6
Continuous
 62
   251
100
AcDbCircle
 10
-8.60147158701983
 20
5.14169494533084
 30
0.0
 40
0.0899999999998045
  0
CIRCLE
  5
108
330
2
100
AcDbEntity
  8
GAIKEI
  6
Continuous
 62
   251
100
AcDbCircle
 10
-8.14147158701985
 20
6.401694945330831
 30
0.0
 40
0.0900000000000091
  0
CIRCLE
  5
109
330
2
100
AcDbEntity
  8
GAIKEI
  6
Continuous
 62
   251
100
AcDbCircle
 10
-8.14147158701985
 20
5.981694945330815
 30
0.0
 40
0.0900000000000091
  0
CIRCLE
  5
10A
330
2
100
AcDbEntity
  8
GAIKEI
  6
Continuous
 62
   251
100
AcDbCircle
 10
-8.14147158701985
 20
5.561694945330799
 30
0.0
 40
0.0900000000000091
  0
CIRCLE
  5
10B
330
2
100
AcDbEntity
  8
GAIKEI
  6
Continuous
 62
   251
100
AcDbCircle
 10
-8.14147158701985
 20
5.14169494533084
 30
0.0
 40
0.0900000000000091
  0
CIRCLE
  5
10C
330
2
100
AcDbEntity
  8
GAIKEI
  6
Continuous
 62
   251
100
AcDbCircle
 10
-7.681471587020041
 20
6.401694945330831
 30
0.0
 40
0.090000000000191
  0
CIRCLE
  5
10D
330
2
100
AcDbEntity
  8
GAIKEI
  6
Continuous
 62
   251
100
AcDbCircle
 10
-7.681471587020041
 20
5.981694945330815
 30
0.0
 40
0.090000000000191
  0
CIRCLE
  5
10E
330
2
100
AcDbEntity
  8
GAIKEI
  6
Continuous
 62
   251
100
AcDbCircle
 10
-7.681471587020041
 20
5.561694945330799
 30
0.0
 40
0.090000000000191
  0
CIRCLE
  5
10F
330
2
100
AcDbEntity
  8
GAIKEI
  6
Continuous
 62
   251
100
AcDbCircle
 10
-7.681471587020041
 20
5.14169494533084
 30
0.0
 40
0.090000000000191
  0
CIRCLE
  5
110
330
2
100
AcDbEntity
  8
GAIKEI
  6
Continuous
 62
   251
100
AcDbCircle
 10
-7.221471587020062
 20
6.401694945330831
 30
0.0
 40
0.0900000000000091
  0
CIRCLE
  5
111
330
2
100
AcDbEntity
  8
GAIKEI
  6
Continuous
 62
   251
100
AcDbCircle
 10
-7.221471587020062
 20
5.981694945330815
 30
0.0
 40
0.0900000000000091
  0
CIRCLE
  5
112
330
2
100
AcDbEntity
  8
GAIKEI
  6
Continuous
 62
   251
100
AcDbCircle
 10
-7.221471587020062
 20
5.561694945330799
 30
0.0
 40
0.0900000000000091
  0
CIRCLE
  5
113
330
2
100
AcDbEntity
  8
GAIKEI
  6
Continuous
 62
   251
100
AcDbCircle
 10
-7.221471587020062
 20
5.14169494533084
 30
0.0
 40
0.0900000000000091
  0
CIRCLE
  5
114
330
2
100
AcDbEntity
  8
GAIKEI
  6
Continuous
 62
   251
100
AcDbCircle
 10
-6.761471587020025
 20
6.401694945330831
 30
0.0
 40
0.0899999999999864
  0
CIRCLE
  5
115
330
2
100
AcDbEntity
  8
GAIKEI
  6
Continuous
 62
   251
100
AcDbCircle
 10
-6.761471587020025
 20
5.981694945330815
 30
0.0
 40
0.0899999999999864
  0
CIRCLE
  5
116
330
2
100
AcDbEntity
  8
GAIKEI
  6
Continuous
 62
   251
100
AcDbCircle
 10
-6.761471587020025
 20
5.561694945330799
 30
0.0
 40
0.0899999999999864
  0
CIRCLE
  5
117
330
2
100
AcDbEntity
  8
GAIKEI
  6
Continuous
 62
   251
100
AcDbCircle
 10
-6.761471587020025
 20
5.14169494533084
 30
0.0
 40
0.0899999999999864
  0
CIRCLE
  5
118
330
2
100
AcDbEntity
  8
GAIKEI
  6
Continuous
 62
   251
100
AcDbCircle
 10
-6.301471587019818
 20
6.401694945330831
 30
0.0
 40
0.0899999999998045
  0
CIRCLE
  5
119
330
2
100
AcDbEntity
  8
GAIKEI
  6
Continuous
 62
   251
100
AcDbCircle
 10
-6.301471587019818
 20
5.981694945330815
 30
0.0
 40
0.0899999999998045
  0
CIRCLE
  5
11A
330
2
100
AcDbEntity
  8
GAIKEI
  6
Continuous
 62
   251
100
AcDbCircle
 10
-6.301471587019818
 20
5.561694945330799
 30
0.0
 40
0.0899999999998045
  0
CIRCLE
  5
11B
330
2
100
AcDbEntity
  8
GAIKEI
  6
Continuous
 62
   251
100
AcDbCircle
 10
-6.301471587019818
 20
5.14169494533084
 30
0.0
 40
0.0899999999998045
  0
CIRCLE
  5
11C
330
2
100
AcDbEntity
  8
GAIKEI
  6
Continuous
 62
   251
100
AcDbCircle
 10
-5.841471587019839
 20
5.14169494533084
 30
0.0
 40
0.0900000000000091
  0
CIRCLE
  5
11D
330
2
100
AcDbEntity
  8
GAIKEI
  6
Continuous
 62
   251
100
AcDbCircle
 10
-5.841471587019839
 20
5.561694945330799
 30
0.0
 40
0.0900000000000091
  0
CIRCLE
  5
11E
330
2
100
AcDbEntity
  8
GAIKEI
  6
Continuous
 62
   251
100
AcDbCircle
 10
-5.841471587019839
 20
5.981694945330815
 30
0.0
 40
0.0900000000000091
  0
CIRCLE
  5
11F
330
2
100
AcDbEntity
  8
GAIKEI
  6
Continuous
 62
   251
100
AcDbCircle
 10
-5.841471587019839
 20
6.401694945330831
 30
0.0
 40
0.0900000000000091
  0
ARC
  5
120
330
2
100
AcDbEntity
  8
GAIKEI
  6
Continuous
 62
     1
100
AcDbCircle
 10
-42.54978987935987
 20
3.64169494533084
 30
0.0
 40
0.1000000000000341
100
AcDbArc
 50
184.9697407280656
 51
270.0
  0
ARC
  5
121
330
2
100
AcDbEntity
  8
GAIKEI
  6
Continuous
 62
     1
100
AcDbCircle
 10
-40.73315329468004
 20
3.64169494533084
 30
0.0
 40
0.1
100
AcDbArc
 50
270.0
 51
355.0302592719344
  0
ARC
  5
122
330
2
100
AcDbEntity
  8
GAIKEI
  6
Continuous
 62
     7
100
AcDbCircle
 10
-10.94978987935985
 20
3.64169494533084
 30
0.0
 40
0.1000000000000114
100
AcDbArc
 50
184.9697407280688
 51
270.0
  0
ARC
  5
123
330
2
100
AcDbEntity
  8
GAIKEI
  6
Continuous
 62
     7
100
AcDbCircle
 10
-9.133153294680028
 20
3.64169494533084
 30
0.0
 40
0.1
100
AcDbArc
 50
270.0
 51
355.0302592719344
  0
ARC
  5
124
330
2
100
AcDbEntity
  8
GAIKEI
  6
Continuous
 62
   251
100
AcDbCircle
 10
-15.14147158701985
 20
5.031694945330826
 30
0.0
 40
0.0871779788798001
100
AcDbArc
 50
14.47004851974715
 51
80.99007775520218
  0
ARC
  5
125
330
2
100
AcDbEntity
  8
GAIKEI
  6
Continuous
 62
   251
100
AcDbCircle
 10
-18.14147158701985
 20
5.031694945330826
 30
0.0
 40
0.0871779788801676
100
AcDbArc
 50
114.2837254804129
 51
160.6908756631838
  0
ARC
  5
126
330
2
100
AcDbEntity
  8
GAIKEI
  6
Continuous
 62
   251
100
AcDbCircle
 10
-21.14147158701985
 20
5.031694945330826
 30
0.0
 40
0.0871779788800211
100
AcDbArc
 50
19.29015321190804
 51
65.70602076585572
  0
LINE
  5
127
330
2
100
AcDbEntity
  8
GAIKEI
  6
Continuous
 62
     7
100
AcDbLine
 10
-46.84147158701989
 20
13.34176173095076
 30
0.0
 11
-46.84147158701989
 21
4.641620898350737
 31
0.0
  0
LINE
  5
128
330
2
100
AcDbEntity
  8
GAIKEI
  6
Continuous
 62
     7
100
AcDbLine
 10
-46.38147158702003
 20
4.57169494533079
 30
0.0
 11
-46.38147158702003
 21
4.591694945330772
 31
0.0
  0
LINE
  5
129
330
2
100
AcDbEntity
  8
GAIKEI
  6
Continuous
 62
     1
100
AcDbLine
 10
-45.86244107084809
 20
11.53160260119077
 30
0.0
 11
-45.86694710137408
 21
8.772596839650844
 31
0.0
  0
LINE
  5
12A
330
2
100
AcDbEntity
  8
GAIKEI
  6
Continuous
 62
     1
100
AcDbLine
 10
-44.17408984675989
 20
6.524313205070797
 30
0.0
 11
-44.17408984675989
 21
5.599076685590802
 31
0.0
  0
LINE
  5
12B
330
2
100
AcDbEntity
  8
GAIKEI
  6
Continuous
 62
     1
100
AcDbLine
 10
-43.96647158701989
 20
5.808694945330813
 30
0.0
 11
-43.96647158701989
 21
6.320694945330814
 31
0.0
  0
LINE
  5
12C
330
2
100
AcDbEntity
  8
GAIKEI
  6
Continuous
 62
     1
100
AcDbLine
 10
-43.89647158702007
 20
6.22469494533081
 30
0.0
 11
-43.89647158702007
 21
6.064694945330842
 31
0.0
  0
LINE
  5
12D
330
2
100
AcDbEntity
  8
GAIKEI
  6
Continuous
 62
     1
100
AcDbLine
 10
-42.73277593484005
 20
4.591694945330772
 30
0.0
 11
-42.64941393817986
 21
3.633031983690813
 31
0.0
  0
LINE
  5
12E
330
2
100
AcDbEntity
  8
GAIKEI
  6
Continuous
 62
     1
100
AcDbLine
 10
-42.78647158702
 20
6.22469494533081
 30
0.0
 11
-42.78647158702
 21
6.064694945330842
 31
0.0
  0
LINE
  5
12F
330
2
100
AcDbEntity
  8
GAIKEI
  6
Continuous
 62
     1
100
AcDbLine
 10
-42.71647158701989
 20
5.808694945330813
 30
0.0
 11
-42.71647158701989
 21
6.320694945330814
 31
0.0
  0
LINE
  5
130
330
2
100
AcDbEntity
  8
GAIKEI
  6
Continuous
 62
     1
100
AcDbLine
 10
-42.50885332727989
 20
5.599076685590802
 30
0.0
 11
-42.50885332727989
 21
6.524313205070797
 31
0.0
  0
LINE
  5
131
330
2
100
AcDbEntity
  8
GAIKEI
  6
Continuous
 62
     1
100
AcDbLine
 10
-39.98137178237289
 20
4.591694945330772
 30
0.0
 11
-39.98567183015985
 21
4.834744171530786
 31
0.0
  0
LINE
  5
132
330
2
100
AcDbEntity
  8
GAIKEI
  6
Continuous
 62
     1
100
AcDbLine
 10
-39.98567186470007
 20
4.847983565110752
 30
0.0
 11
-39.98567183015985
 21
4.834744171530786
 31
0.0
  0
LINE
  5
133
330
2
100
AcDbEntity
  8
GAIKEI
  6
Continuous
 62
     1
100
AcDbLine
 10
-39.90647158702007
 20
4.636209730830813
 30
0.0
 11
-39.90647158702007
 21
4.633334413510823
 31
0.0
  0
LINE
  5
134
330
2
100
AcDbEntity
  8
GAIKEI
  6
Continuous
 62
     1
100
AcDbLine
 10
-39.90647158702007
 20
4.633334413510823
 30
0.0
 11
-39.90647158702007
 21
4.632557050350811
 31
0.0
  0
LINE
  5
135
330
2
100
AcDbEntity
  8
GAIKEI
  6
Continuous
 62
     1
100
AcDbLine
 10
-39.90647158702007
 20
4.636209730830813
 30
0.0
 11
-39.90647158702007
 21
6.660447976210804
 31
0.0
  0
LINE
  5
136
330
2
100
AcDbEntity
  8
GAIKEI
  6
Continuous
 62
     1
100
AcDbLine
 10
-40.55016723917998
 20
4.591694945330772
 30
0.0
 11
-40.63352923585983
 21
3.633031983690813
 31
0.0
  0
LINE
  5
137
330
2
100
AcDbEntity
  8
GAIKEI
  6
Continuous
 62
     1
100
AcDbLine
 10
-38.86147158701999
 20
5.981694945330815
 30
0.0
 11
-39.0914715870199
 21
6.211694945330776
 31
0.0
  0
LINE
  5
138
330
2
100
AcDbEntity
  8
GAIKEI
  6
Continuous
 62
     1
100
AcDbLine
 10
-31.97647158701989
 20
4.632557050350811
 30
0.0
 11
-31.97647158701989
 21
6.660447976210804
 31
0.0
  0
LINE
  5
139
330
2
100
AcDbEntity
  8
GAIKEI
  6
Continuous
 62
     1
100
AcDbLine
 10
-42.54978987935987
 20
3.541694945330817
 30
0.0
 11
-40.73315329468004
 21
3.541694945330817
 31
0.0
  0
LINE
  5
13A
330
2
100
AcDbEntity
  8
GAIKEI
  6
Continuous
 62
     7
100
AcDbLine
 10
-10.94978987935985
 20
3.541694945330817
 30
0.0
 11
-9.133153294680028
 21
3.541694945330817
 31
0.0
  0
LINE
  5
13B
330
2
100
AcDbEntity
  8
GAIKEI
  6
Continuous
 62
     7
100
AcDbLine
 10
-46.79154563398003
 20
4.591694945330772
 30
0.0
 11
-4.891397540040031
 21
4.591694945330772
 31
0.0
  0
LINE
  5
13C
330
2
100
AcDbEntity
  8
GAIKEI
  6
Continuous
 62
     1
100
AcDbLine
 10
-39.90647158702007
 20
4.632557050350811
 30
0.0
 11
-31.97647158701989
 21
4.632557050350811
 31
0.0
  0
LINE
  5
13D
330
2
100
AcDbEntity
  8
GAIKEI
  6
Continuous
 62
     1
100
AcDbLine
 10
-31.88897155713988
 20
4.633470528750791
 30
0.0
 11
-4.842230358104274
 21
4.633470528750791
 31
0.0
  0
LINE
  5
13E
330
2
100
AcDbEntity
  8
GAIKEI
  6
Continuous
 62
     1
100
AcDbLine
 10
-38.86147158701999
 20
5.981694945330815
 30
0.0
 11
-38.63147158702003
 21
6.211694945330776
 31
0.0
  0
LINE
  5
13F
330
2
100
AcDbEntity
  8
GAIKEI
  6
Continuous
 62
     1
100
AcDbLine
 10
-46.84147158701989
 20
4.834744171530786
 30
0.0
 11
-39.98567183015985
 21
4.834744171530786
 31
0.0
  0
LINE
  5
140
330
2
100
AcDbEntity
  8
GAIKEI
  6
Continuous
 62
     1
100
AcDbLine
 10
-39.90647158702007
 20
4.83747865249083
 30
0.0
 11
-31.97647158701989
 21
4.83747865249083
 31
0.0
  0
LINE
  5
141
330
2
100
AcDbEntity
  8
GAIKEI
  6
Continuous
 62
     1
100
AcDbLine
 10
-31.88897155713988
 20
4.847983607093198
 30
0.0
 11
-4.84147158701981
 21
4.847982845845109
 31
0.0
  0
LINE
  5
142
330
2
100
AcDbEntity
  8
GAIKEI
  6
Continuous
 62
     1
100
AcDbLine
 10
-44.57600972907989
 20
5.381369416930823
 30
0.0
 11
-42.10693344482002
 21
5.381369416930823
 31
0.0
  0
LINE
  5
143
330
2
100
AcDbEntity
  8
GAIKEI
  6
Continuous
 62
   251
100
AcDbLine
 10
-23.37795469804007
 20
5.491694945330806
 30
0.0
 11
-23.26501380350004
 21
5.491694945330806
 31
0.0
  0
LINE
  5
144
330
2
100
AcDbEntity
  8
GAIKEI
  6
Continuous
 62
   251
100
AcDbLine
 10
-23.25467402171984
 20
5.501694945330797
 30
0.0
 11
-23.38829095262003
 21
5.501694945330797
 31
0.0
  0
LINE
  5
145
330
2
100
AcDbEntity
  8
GAIKEI
  6
Continuous
 62
     1
100
AcDbLine
 10
-44.17408984675989
 20
5.599076685590802
 30
0.0
 11
-42.50885332727989
 21
5.599076685590802
 31
0.0
  0
LINE
  5
146
330
2
100
AcDbEntity
  8
GAIKEI
  6
Continuous
 62
   251
100
AcDbLine
 10
-23.24089353094007
 20
5.601694945330763
 30
0.0
 11
-23.40200598790005
 21
5.601694945330763
 31
0.0
  0
LINE
  5
147
330
2
100
AcDbEntity
  8
GAIKEI
  6
Continuous
 62
     1
100
AcDbLine
 10
-43.96647158701989
 20
5.808694945330813
 30
0.0
 11
-42.71647158701989
 21
5.808694945330813
 31
0.0
  0
LINE
  5
148
330
2
100
AcDbEntity
  8
GAIKEI
  6
Continuous
 62
     1
100
AcDbLine
 10
-43.89647158702007
 20
6.064694945330842
 30
0.0
 11
-42.78647158702
 21
6.064694945330842
 31
0.0
  0
LINE
  5
149
330
2
100
AcDbEntity
  8
GAIKEI
  6
Continuous
 62
     1
100
AcDbLine
 10
-39.0914715870199
 20
6.211694945330776
 30
0.0
 11
-38.63147158702003
 21
6.211694945330776
 31
0.0
  0
LINE
  5
14A
330
2
100
AcDbEntity
  8
GAIKEI
  6
Continuous
 62
     1
100
AcDbLine
 10
-43.89647158702007
 20
6.22469494533081
 30
0.0
 11
-42.78647158702
 21
6.22469494533081
 31
0.0
  0
LINE
  5
14B
330
2
100
AcDbEntity
  8
GAIKEI
  6
Continuous
 62
     1
100
AcDbLine
 10
-43.96647158701989
 20
6.320694945330814
 30
0.0
 11
-42.71647158701989
 21
6.320694945330814
 31
0.0
  0
LINE
  5
14C
330
2
100
AcDbEntity
  8
GAIKEI
  6
Continuous
 62
     1
100
AcDbLine
 10
-42.50885332727989
 20
6.524313205070797
 30
0.0
 11
-44.17408984675989
 21
6.524313205070797
 31
0.0
  0
LINE
  5
14D
330
2
100
AcDbEntity
  8
GAIKEI
  6
Continuous
 62
     1
100
AcDbLine
 10
-31.97647158701989
 20
6.660447976210804
 30
0.0
 11
-39.90647158702007
 21
6.660447976210804
 31
0.0
  0
LINE
  5
14E
330
2
100
AcDbEntity
  8
GAIKEI
  6
Continuous
 62
     1
100
AcDbLine
 10
-31.88897155713988
 20
6.735645662490782
 30
0.0
 11
-39.99397161394006
 21
6.735645662490782
 31
0.0
  0
LINE
  5
14F
330
2
100
AcDbEntity
  8
GAIKEI
  6
Continuous
 62
     1
100
AcDbLine
 10
-42.10693344482002
 20
6.737675656790742
 30
0.0
 11
-44.57600972907989
 21
6.737675656790742
 31
0.0
  0
LINE
  5
150
330
2
100
AcDbEntity
  8
GAIKEI
  6
Continuous
 62
     1
100
AcDbLine
 10
-46.75550221966005
 20
6.791694945330817
 30
0.0
 11
-4.927440954359838
 21
6.791694945330817
 31
0.0
  0
LINE
  5
151
330
2
100
AcDbEntity
  8
GAIKEI
  6
Continuous
 62
     1
100
AcDbLine
 10
-45.86694710137408
 20
8.772596839650844
 30
0.0
 11
-5.816253436580041
 21
8.772596839650844
 31
0.0
  0
LINE
  5
152
330
2
100
AcDbEntity
  8
GAIKEI
  6
Continuous
 62
     1
100
AcDbLine
 10
-5.841471587019839
 20
8.929202169130775
 30
0.0
 11
-45.86669133228326
 21
8.929202169130775
 31
0.0
  0
LINE
  5
153
330
2
100
AcDbEntity
  8
GAIKEI
  6
Continuous
 62
     1
100
AcDbLine
 10
-5.820561143599832
 20
11.53160260119077
 30
0.0
 11
-45.86244107084809
 21
11.53160260119077
 31
0.0
  0
LINE
  5
154
330
2
100
AcDbEntity
  8
GAIKEI
  6
Continuous
 62
     1
100
AcDbLine
 10
-46.76388223720005
 20
13.13006386587082
 30
0.0
 11
-4.919060936819846
 21
13.13006386587082
 31
0.0
  0
LINE
  5
155
330
2
100
AcDbEntity
  8
GAIKEI
  6
Continuous
 62
     7
100
AcDbLine
 10
-46.79153837263988
 20
13.39169494533084
 30
0.0
 11
-4.891404801400028
 21
13.39169494533084
 31
0.0
  0
LINE
  5
156
330
2
100
AcDbEntity
  8
GAIKEI
  6
Continuous
 62
     1
100
AcDbLine
 10
-21.19147158701986
 20
4.57169494533079
 30
0.0
 11
-21.19147158701986
 21
4.591694945330772
 31
0.0
  0
LINE
  5
157
330
2
100
AcDbEntity
  8
GAIKEI
  6
Continuous
 62
     1
100
AcDbLine
 10
-21.09147158701984
 20
4.57169494533079
 30
0.0
 11
-21.09147158701984
 21
4.591694945330772
 31
0.0
  0
LINE
  5
158
330
2
100
AcDbEntity
  8
GAIKEI
  6
Continuous
 62
     1
100
AcDbLine
 10
-20.99147158701987
 20
4.591694945330772
 30
0.0
 11
-20.99147158701987
 21
4.57169494533079
 31
0.0
  0
LINE
  5
159
330
2
100
AcDbEntity
  8
GAIKEI
  6
Continuous
 62
     1
100
AcDbLine
 10
-20.89147158701985
 20
4.591694945330772
 30
0.0
 11
-20.89147158701985
 21
4.57169494533079
 31
0.0
  0
LINE
  5
15A
330
2
100
AcDbEntity
  8
GAIKEI
  6
Continuous
 62
     1
100
AcDbLine
 10
-20.79147158701983
 20
4.591694945330772
 30
0.0
 11
-20.79147158701983
 21
4.57169494533079
 31
0.0
  0
LINE
  5
15B
330
2
100
AcDbEntity
  8
GAIKEI
  6
Continuous
 62
   251
100
AcDbLine
 10
-17.88147158702003
 20
6.022629099430758
 30
0.0
 11
-17.88147158702003
 21
5.940689480830855
 31
0.0
  0
LINE
  5
15C
330
2
100
AcDbEntity
  8
GAIKEI
  6
Continuous
 62
   251
100
AcDbLine
 10
-15.88147158702003
 20
5.940774065810813
 30
0.0
 11
-15.88147158702003
 21
6.022708987290769
 31
0.0
  0
LINE
  5
15D
330
2
100
AcDbEntity
  8
GAIKEI
  6
Continuous
 62
     7
100
AcDbLine
 10
-11.13277593484002
 20
4.591694945330772
 30
0.0
 11
-11.04941393817984
 21
3.633031983690813
 31
0.0
  0
LINE
  5
15E
330
2
100
AcDbEntity
  8
GAIKEI
  6
Continuous
 62
   251
100
AcDbLine
 10
-10.98147158702005
 20
6.022629099430758
 30
0.0
 11
-10.98147158702005
 21
5.940689480830855
 31
0.0
  0
LINE
  5
15F
330
2
100
AcDbEntity
  8
GAIKEI
  6
Continuous
 62
     7
100
AcDbLine
 10
-8.950167239180018
 20
4.591694945330772
 30
0.0
 11
-9.033529235859873
 21
3.633031983690813
 31
0.0
  0
SPLINE
  5
160
330
2
100
AcDbEntity
  8
GAIKEI
  6
Continuous
 62
     1
100
AcDbSpline
210
0.0
220
0.0
230
1.0
 70
    24
 71
     3
 72
     9
 73
     5
 74
     3
 42
0.0000000001
 43
0.0000000001
 44
0.00000001
 40
0.0
 40
0.0
 40
0.0
 40
0.0
 40
0.0013648297198784
 40
0.002729659439531
 40
0.002729659439531
 40
0.002729659439531
 40
0.002729659439531
 10
47.54824784527397
 20
6.981694945330588
 30
0.0
 10
47.54822766680065
 20
6.982149440854016
 30
0.0
 10
47.548187309854
 20
6.983058431900758
 30
0.0
 10
47.54814695290732
 20
6.983967422947472
 30
0.0
 10
47.54812677443396
 20
6.984421918470815
 30
0.0
 11
47.54824784527397
 21
6.981694945330588
 31
0.0
 11
47.54818730985397
 21
6.983058431900843
 31
0.0
 11
47.54812677443396
 21
6.984421918470815
 31
0.0
  0
SPLINE
  5
161
330
2
100
AcDbEntity
  8
GAIKEI
  6
Continuous
 62
     1
100
AcDbSpline
210
0.0
220
0.0
230
1.0
 70
     8
 71
     3
 72
    21
 73
    17
 74
    15
 42
0.0000000001
 43
0.0000000001
 44
0.00000001
 40
0.0
 40
0.0
 40
0.0
 40
0.0
 40
0.0051770951648143
 40
0.0103541932389724
 40
0.0152110967251456
 40
0.0200680016675262
 40
0.0252883078927885
 40
0.0305086179705282
 40
0.03609355261577
 40
0.0416784918169423
 40
0.0476643761669724
 40
0.0536502651023862
 40
0.0600427148042716
 40
0.0664351770427649
 40
0.0745034623109772
 40
0.0825717606988789
 40
0.0825717606988789
 40
0.0825717606988789
 40
0.0825717606988789
 10
47.54812677443396
 20
6.984421918470815
 30
0.0
 10
47.54804597719905
 20
6.986145727222009
 30
0.0
 10
47.54788436804825
 20
6.989593344993295
 30
0.0
 10
47.54761825965596
 20
6.994656748572111
 30
0.0
 10
47.54733786477642
 20
6.99961246889751
 30
0.0
 10
47.54703540255515
 20
7.004581325689741
 30
0.0
 10
47.54670355098447
 20
7.009669706711434
 30
0.0
 10
47.5463318469541
 20
7.01499862710736
 30
0.0
 10
47.54592627290683
 20
7.020446968658006
 30
0.0
 10
47.54547425021164
 20
7.026147683542717
 30
0.0
 10
47.54498253705571
 20
7.031979254178622
 30
0.0
 10
47.54443663442285
 20
7.038076297387192
 30
0.0
 10
47.54384554359311
 20
7.044305284593292
 30
0.0
 10
47.54314987084899
 20
7.051221473567295
 30
0.0
 10
47.54235537378301
 20
7.058689105896178
 30
0.0
 10
47.54173902787343
 20
7.064032559438118
 30
0.0
 10
47.54143084737399
 20
7.066704287550834
 30
0.0
 11
47.54812677443396
 21
6.984421918470815
 31
0.0
 11
47.54787949537609
 21
6.989593104783438
 31
0.0
 11
47.54760910049992
 21
6.994763136865714
 31
0.0
 11
47.54733441869217
 21
6.999612266881825
 31
0.0
 11
47.54703940154797
 21
7.004460203660329
 31
0.0
 11
47.54669964241304
 21
7.009669441739589
 31
0.0
 11
47.54633640378187
 21
7.014877099132519
 31
0.0
 11
47.54592180602879
 21
7.020446623731032
 31
0.0
 11
47.54548035224423
 21
7.026014088590528
 31
0.0
 11
47.54497740140658
 21
7.031978805891043
 31
0.0
 11
47.54444362530228
 21
7.037940848322108
 31
0.0
 11
47.54383957516688
 21
7.044304694423004
 31
0.0
 11
47.54320040393719
 21
7.050665121620937
 31
0.0
 11
47.54234356371807
 21
7.058687780334111
 31
0.0
 11
47.54143084737399
 21
7.066704287550834
 31
0.0
  0
SPLINE
  5
162
330
2
100
AcDbEntity
  8
GAIKEI
  6
Continuous
 62
     1
100
AcDbSpline
210
0.0
220
0.0
230
1.0
 70
    24
 71
     3
 72
     9
 73
     5
 74
     3
 42
0.0000000001
 43
0.0000000001
 44
0.00000001
 40
0.0
 40
0.0
 40
0.0
 40
0.0
 40
0.0062545519850942
 40
0.0125091039701874
 40
0.0125091039701874
 40
0.0125091039701874
 40
0.0125091039701874
 10
47.53240580555399
 20
6.969195028810844
 30
0.0
 10
47.53232591515399
 20
6.971278348230782
 30
0.0
 10
47.532166134354
 20
6.975444987070716
 30
0.0
 10
47.53200635355402
 20
6.979611625910649
 30
0.0
 10
47.53192646315404
 20
6.981694945330588
 30
0.0
 11
47.53240580555399
 21
6.969195028810844
 31
0.0
 11
47.53216613435398
 21
6.975444987070744
 31
0.0
 11
47.53192646315404
 21
6.981694945330588
 31
0.0
  0
SPLINE
  5
163
330
2
100
AcDbEntity
  8
GAIKEI
  6
Continuous
 62
     1
100
AcDbSpline
210
0.0
220
0.0
230
1.0
 70
    24
 71
     3
 72
     9
 73
     5
 74
     3
 42
0.0000000001
 43
0.0000000001
 44
0.00000001
 40
0.0
 40
0.0
 40
0.0
 40
0.0
 40
0.0013648297195951
 40
0.0027296594394742
 40
0.0027296594394742
 40
0.0027296594394742
 40
0.0027296594394742
 10
47.54824784527397
 20
7.251694945330626
 30
0.0
 10
47.54822766680064
 20
7.252149440853941
 30
0.0
 10
47.54818730985394
 20
7.253058431900683
 30
0.0
 10
47.5481469529073
 20
7.253967422947397
 30
0.0
 10
47.54812677443396
 20
7.254421918470796
 30
0.0
 11
47.54824784527397
 21
7.251694945330626
 31
0.0
 11
47.54818730985397
 21
7.253058431900598
 31
0.0
 11
47.54812677443396
 21
7.254421918470796
 31
0.0
  0
SPLINE
  5
164
330
2
100
AcDbEntity
  8
GAIKEI
  6
Continuous
 62
     1
100
AcDbSpline
210
0.0
220
0.0
230
1.0
 70
     8
 71
     3
 72
    29
 73
    25
 74
    23
 42
0.0000000001
 43
0.0000000001
 44
0.00000001
 40
0.0
 40
0.0
 40
0.0
 40
0.0
 40
0.0051770951547934
 40
0.0103541932196107
 40
0.015211096695466
 40
0.0200680016236358
 40
0.0252883078438486
 40
0.030508617940606
 40
0.0360935525412083
 40
0.0416784915412106
 40
0.0476643760984633
 40
0.0536502662540908
 40
0.060042714546396
 40
0.0664351688667838
 40
0.0732061613390991
 40
0.0799771599597148
 40
0.0870945530875312
 40
0.0942119527244624
 40
0.1016401048383739
 40
0.1090682613430724
 40
0.1167613502310441
 40
0.1244544541548909
 40
0.1335801741722619
 40
0.1427058970024728
 40
0.1427058970024728
 40
0.1427058970024728
 40
0.1427058970024728
 10
47.54812677443396
 20
7.254421918470796
 30
0.0
 10
47.54804597719915
 20
7.256145727218665
 30
0.0
 10
47.54788436804867
 20
7.259593344983386
 30
0.0
 10
47.54761825965775
 20
7.264656748552511
 30
0.0
 10
47.54733786477624
 20
7.26961246886637
 30
0.0
 10
47.54703540256677
 20
7.274581325649961
 30
0.0
 10
47.54670355095392
 20
7.279669706666567
 30
0.0
 10
47.5463318470876
 20
7.284998627071843
 30
0.0
 10
47.54592627238873
 20
7.290446968468586
 30
0.0
 10
47.54547425225505
 20
7.296147683645756
 30
0.0
 10
47.54498252889071
 20
7.301979253474456
 30
0.0
 10
47.54443666557743
 20
7.308076301384517
 30
0.0
 10
47.54384541845463
 20
7.314305267210926
 30
0.0
 10
47.54319362833506
 20
7.320791263969255
 30
0.0
 10
47.54249165588325
 20
7.327398934741438
 30
0.0
 10
47.54172412711935
 20
7.334242529082388
 30
0.0
 10
47.54090201902286
 20
7.341196074503613
 30
0.0
 10
47.54001012798854
 20
7.348361809124185
 30
0.0
 10
47.5390598319471
 20
7.355624522592648
 30
0.0
 10
47.53803677913595
 20
7.363071089561884
 30
0.0
 10
47.53695281820273
 20
7.370598287358376
 30
0.0
 10
47.53573338517045
 20
7.378677456346366
 30
0.0
 10
47.53438542841573
 20
7.387220083733041
 30
0.0
 10
47.53337712742387
 20
7.393219792345803
 30
0.0
 10
47.532872969614
 20
7.396219645910804
 30
0.0
 11
47.54812677443396
 21
7.254421918470796
 31
0.0
 11
47.54787949537615
 21
7.259593104783306
 31
0.0
 11
47.54760910049992
 21
7.264763136866321
 31
0.0
 11
47.54733441869222
 21
7.269612266881694
 31
0.0
 11
47.54703940154854
 21
7.274460203655593
 31
0.0
 11
47.54669964241304
 21
7.279669441740139
 31
0.0
 11
47.54633640377841
 21
7.28487709916223
 31
0.0
 11
47.54592180602935
 21
7.290446623727319
 31
0.0
 11
47.54548035226679
 21
7.296014088397697
 31
0.0
 11
47.54497740140368
 21
7.301978805915638
 31
0.0
 11
47.54444362515608
 21
7.307940849570599
 31
0.0
 11
47.54383957518325
 21
7.314304694283322
 31
0.0
 11
47.54320040487295
 21
7.320665113628223
 31
0.0
 11
47.54248510650597
 21
7.327398217521903
 31
0.0
 11
47.5417304514479
 21
7.334127030103815
 31
0.0
 11
47.54089479057785
 21
7.341195195111907
 31
0.0
 11
47.54001570303836
 21
7.348258097021727
 31
0.0
 11
47.53905195909419
 21
7.355623464776414
 31
0.0
 11
47.53804098962717
 21
7.362982503469226
 31
0.0
 11
47.53694422661294
 21
7.37059701121629
 31
0.0
 11
47.53579690045159
 21
7.378204079726828
 31
0.0
 11
47.53437042798918
 21
7.387217621930716
 31
0.0
 11
47.532872969614
 21
7.396219645910804
 31
0.0
  0
SPLINE
  5
165
330
2
100
AcDbEntity
  8
GAIKEI
  6
Continuous
 62
     1
100
AcDbSpline
210
0.0
220
0.0
230
1.0
 70
    24
 71
     3
 72
     9
 73
     5
 74
     3
 42
0.0000000001
 43
0.0000000001
 44
0.00000001
 40
0.0
 40
0.0
 40
0.0
 40
0.0
 40
0.0027782538677211
 40
0.0055565077355494
 40
0.0055565077355494
 40
0.0055565077355494
 40
0.0055565077355494
 10
47.532872969614
 20
7.396219645910804
 30
0.0
 10
47.53271521853733
 20
7.397132195814066
 30
0.0
 10
47.53239971638399
 20
7.398957295620732
 30
0.0
 10
47.53208421423069
 20
7.400782395427228
 30
0.0
 10
47.53192646315404
 20
7.401694945330604
 30
0.0
 11
47.532872969614
 21
7.396219645910804
 31
0.0
 11
47.53239971638402
 21
7.398957295620704
 31
0.0
 11
47.53192646315404
 21
7.401694945330604
 31
0.0
  0
SPLINE
  5
166
330
2
100
AcDbEntity
  8
GAIKEI
  6
Continuous
 62
     1
100
AcDbSpline
210
0.0
220
0.0
230
1.0
 70
     8
 71
     3
 72
    11
 73
     7
 74
     5
 42
0.0000000001
 43
0.0000000001
 44
0.00000001
 40
0.0
 40
0.0
 40
0.0
 40
0.0
 40
0.0125039595402044
 40
0.0250077523913983
 40
0.0375116655553276
 40
0.0500157454207328
 40
0.0500157454207328
 40
0.0500157454207328
 40
0.0500157454207328
 10
47.53302181409401
 20
7.201694945330615
 30
0.0
 10
47.53300877212851
 20
7.205862958627733
 30
0.0
 10
47.53298267337213
 20
7.214198929564702
 30
0.0
 10
47.53276749447318
 20
7.22670129164436
 30
0.0
 10
47.53243495172958
 20
7.239201122769344
 30
0.0
 10
47.53209596509543
 20
7.247530319490607
 30
0.0
 10
47.53192646315404
 20
7.251694945330626
 30
0.0
 11
47.53302181409401
 21
7.201694945330615
 31
0.0
 11
47.53295334438109
 21
7.214198717457207
 31
0.0
 11
47.53274794494172
 21
7.226700823261097
 31
0.0
 11
47.53240564102583
 21
7.239200050246637
 31
0.0
 11
47.53192646315404
 21
7.251694945330626
 31
0.0
  0
SPLINE
  5
167
330
2
100
AcDbEntity
  8
GAIKEI
  6
Continuous
 62
     1
100
AcDbSpline
210
0.0
220
0.0
230
1.0
 70
     8
 71
     3
 72
    11
 73
     7
 74
     5
 42
0.0000000001
 43
0.0000000001
 44
0.00000001
 40
0.0
 40
0.0
 40
0.0
 40
0.0
 40
0.0125040894476195
 40
0.0250080121930716
 40
0.0375117954630048
 40
0.0500157454203612
 40
0.0500157454203612
 40
0.0500157454203612
 40
0.0500157454203612
 10
47.53192646315404
 20
7.151694945330604
 30
0.0
 10
47.53209596521332
 20
7.155859574362608
 30
0.0
 10
47.53243495208328
 20
7.164188777467728
 30
0.0
 10
47.53276749473845
 20
7.176688611791007
 30
0.0
 10
47.53298267341493
 20
7.189190970679163
 30
0.0
 10
47.53300877214274
 20
7.197526935227841
 30
0.0
 10
47.53302181409401
 20
7.201694945330615
 30
0.0
 11
47.53192646315404
 21
7.151694945330604
 31
0.0
 11
47.53240564133415
 21
7.164189849992027
 31
0.0
 11
47.53274794534786
 21
7.176689086560003
 31
0.0
 11
47.53295334447216
 21
7.189191182786515
 31
0.0
 11
47.53302181409401
 21
7.201694945330615
 31
0.0
  0
SPLINE
  5
168
330
2
100
AcDbEntity
  8
GAIKEI
  6
Continuous
 62
     1
100
AcDbSpline
210
0.0
220
0.0
230
1.0
 70
    24
 71
     3
 72
     9
 73
     5
 74
     3
 42
0.0000000001
 43
0.0000000001
 44
0.00000001
 40
0.0
 40
0.0
 40
0.0
 40
0.0
 40
0.0027782538628911
 40
0.0055565077257165
 40
0.0055565077257165
 40
0.0055565077257165
 40
0.0055565077257165
 10
47.53192646315404
 20
7.001694945330626
 30
0.0
 10
47.5320842142207
 20
7.002607495234059
 30
0.0
 10
47.53239971635402
 20
7.004432595040668
 30
0.0
 10
47.53271521848735
 20
7.006257694847505
 30
0.0
 10
47.53287296955398
 20
7.007170244750824
 30
0.0
 11
47.53192646315404
 21
7.001694945330626
 31
0.0
 11
47.53239971635401
 21
7.004432595040697
 31
0.0
 11
47.53287296955398
 21
7.007170244750824
 31
0.0
  0
SPLINE
  5
169
330
2
100
AcDbEntity
  8
GAIKEI
  6
Continuous
 62
     1
100
AcDbSpline
210
0.0
220
0.0
230
1.0
 70
     8
 71
     3
 72
    27
 73
    23
 74
    21
 42
0.0000000001
 43
0.0000000001
 44
0.00000001
 40
0.0
 40
0.0
 40
0.0
 40
0.0
 40
0.0102611001427249
 40
0.0205221864271033
 40
0.0289969710967742
 40
0.0374717346343573
 40
0.0456088749445047
 40
0.0537460076086515
 40
0.0614514450611258
 40
0.0691568718944603
 40
0.0763749996304589
 40
0.0835931174936006
 40
0.0902810294891711
 40
0.0969689322925009
 40
0.1031300863165347
 40
0.1092912332979573
 40
0.114992674793881
 40
0.1206941107585038
 40
0.1259767356224721
 40
0.1312593586558483
 40
0.1369826049942615
 40
0.1427058489769374
 40
0.1427058489769374
 40
0.1427058489769374
 40
0.1427058489769374
 10
47.53287296955398
 20
7.007170244750824
 30
0.0
 10
47.53343890003208
 20
7.01054348980071
 30
0.0
 10
47.53457074574669
 20
7.017289977745463
 30
0.0
 10
47.53606269974807
 20
7.026839994628886
 30
0.0
 10
47.53739588515322
 20
7.035811746763101
 30
0.0
 10
47.53856316873617
 20
7.044092189624137
 30
0.0
 10
47.53965645753443
 20
7.052269168526038
 30
0.0
 10
47.54065997759973
 20
7.060199229080524
 30
0.0
 10
47.54159216463446
 20
7.067993068805947
 30
0.0
 10
47.54243810943231
 20
7.075488536771416
 30
0.0
 10
47.54321856517229
 20
7.082827760888051
 30
0.0
 10
47.5439194960257
 20
7.089834219662463
 30
0.0
 10
47.54456180992053
 20
7.096668785249335
 30
0.0
 10
47.54513370144297
 20
7.103155985785292
 30
0.0
 10
47.54565514697651
 20
7.109471258645641
 30
0.0
 10
47.54611766782367
 20
7.115461371603487
 30
0.0
 10
47.54653849868799
 20
7.121300925755718
 30
0.0
 10
47.54691092545596
 20
7.126850299053785
 30
0.0
 10
47.54724847471414
 20
7.132262030453347
 30
0.0
 10
47.54756126114222
 20
7.137682525356325
 30
0.0
 10
47.54785801987833
 20
7.14325102946799
 30
0.0
 10
47.54803719447376
 20
7.147062324643485
 30
0.0
 10
47.54812677443396
 20
7.148967972190774
 30
0.0
 11
47.53287296955398
 21
7.007170244750824
 31
0.0
 11
47.53455177213374
 21
7.017293080233713
 31
0.0
 11
47.53614081065444
 21
7.027430380143613
 31
0.0
 11
47.53738545082336
 21
7.035813270268789
 31
0.0
 11
47.53856870641044
 21
7.04420502360719
 31
0.0
 11
47.53964700309353
 21
7.052270402056393
 31
0.0
 11
47.54066859937916
 21
7.060343150653608
 31
0.0
 11
47.54158368568385
 21
7.067994058066034
 31
0.0
 11
47.54244784221316
 21
7.075650874445813
 31
0.0
 11
47.54321111625768
 21
7.082828532948298
 31
0.0
 11
47.54392963558603
 21
7.090010799745385
 31
0.0
 11
47.54455540912016
 21
7.096669371299896
 31
0.0
 11
47.54514271670098
 21
7.103331436637546
 31
0.0
 11
47.54564971060903
 21
7.109471695333098
 31
0.0
 11
47.54612402852319
 21
7.115614557487816
 31
0.0
 11
47.54653383520104
 21
7.121301251989024
 31
0.0
 11
47.54691563887706
 21
7.126989889680629
 31
0.0
 11
47.54724439584163
 21
7.132262274815701
 31
0.0
 11
47.54754909819479
 21
7.137536102963139
 31
0.0
 11
47.54785206105879
 21
7.143251325013096
 31
0.0
 11
47.54812677443396
 21
7.148967972190774
 31
0.0
  0
SPLINE
  5
16A
330
2
100
AcDbEntity
  8
GAIKEI
  6
Continuous
 62
     1
100
AcDbSpline
210
0.0
220
0.0
230
1.0
 70
    24
 71
     3
 72
     9
 73
     5
 74
     3
 42
0.0000000001
 43
0.0000000001
 44
0.00000001
 40
0.0
 40
0.0
 40
0.0
 40
0.0
 40
0.0013648297196803
 40
0.0027296594391335
 40
0.0027296594391335
 40
0.0027296594391335
 40
0.0027296594391335
 10
47.54812677443396
 20
7.148967972190774
 30
0.0
 10
47.5481469529073
 20
7.149422467714117
 30
0.0
 10
47.54818730985397
 20
7.150331458760717
 30
0.0
 10
47.54822766680063
 20
7.151240449807318
 30
0.0
 10
47.54824784527397
 20
7.151694945330604
 30
0.0
 11
47.54812677443396
 21
7.148967972190774
 31
0.0
 11
47.54818730985397
 21
7.150331458760803
 31
0.0
 11
47.54824784527397
 21
7.151694945330604
 31
0.0
  0
SPLINE
  5
16B
330
2
100
AcDbEntity
  8
GAIKEI
  6
Continuous
 62
     1
100
AcDbSpline
210
0.0
220
0.0
230
1.0
 70
    24
 71
     3
 72
     9
 73
     5
 74
     3
 42
0.0000000001
 43
0.0000000001
 44
0.00000001
 40
0.0
 40
0.0
 40
0.0
 40
0.0
 40
0.0013648297195951
 40
0.0027296594394742
 40
0.0027296594394742
 40
0.0027296594394742
 40
0.0027296594394742
 10
47.54824784527397
 20
7.751694945330626
 30
0.0
 10
47.54822766680064
 20
7.752149440853941
 30
0.0
 10
47.54818730985394
 20
7.753058431900626
 30
0.0
 10
47.5481469529073
 20
7.753967422947397
 30
0.0
 10
47.54812677443396
 20
7.754421918470796
 30
0.0
 11
47.54824784527397
 21
7.751694945330626
 31
0.0
 11
47.54818730985397
 21
7.753058431900598
 31
0.0
 11
47.54812677443396
 21
7.754421918470796
 31
0.0
  0
SPLINE
  5
16C
330
2
100
AcDbEntity
  8
GAIKEI
  6
Continuous
 62
     1
100
AcDbSpline
210
0.0
220
0.0
230
1.0
 70
     8
 71
     3
 72
    27
 73
    23
 74
    21
 42
0.0000000001
 43
0.0000000001
 44
0.00000001
 40
0.0
 40
0.0
 40
0.0
 40
0.0
 40
0.0051770951938669
 40
0.0103541932928282
 40
0.0152110967965827
 40
0.0200680017493096
 40
0.0252883079921884
 40
0.0305086181080125
 40
0.0360935527251345
 40
0.04167849173808
 40
0.0476643763056496
 40
0.0536502664691223
 40
0.0600427147626492
 40
0.0664351690731898
 40
0.0732061615503166
 40
0.0799771602188482
 40
0.0870945532708048
 40
0.0942119525345463
 40
0.101640105009757
 40
0.1090682636872155
 40
0.1134714099511725
 40
0.1178745099405254
 40
0.1178745099405254
 40
0.1178745099405254
 40
0.1178745099405254
 10
47.54812677443396
 20
7.754421918470796
 30
0.0
 10
47.54804597719855
 20
7.756145727231654
 30
0.0
 10
47.54788436804685
 20
7.759593345020789
 30
0.0
 10
47.54761825965377
 20
7.764656748623536
 30
0.0
 10
47.5473378647701
 20
7.769612468966158
 30
0.0
 10
47.54703540255843
 20
7.774581325774818
 30
0.0
 10
47.54670355094335
 20
7.779669706813251
 30
0.0
 10
47.54633184707475
 20
7.784998627237996
 30
0.0
 10
47.54592627237388
 20
7.790446968650797
 30
0.0
 10
47.54547425223745
 20
7.796147683841013
 30
0.0
 10
47.54498252887333
 20
7.801979253680173
 30
0.0
 10
47.54443666554897
 20
7.808076301595292
 30
0.0
 10
47.54384541846181
 20
7.814305267426419
 30
0.0
 10
47.54319362819974
 20
7.820791264163972
 30
0.0
 10
47.54249165630842
 20
7.827398935027218
 30
0.0
 10
47.54172412537505
 20
7.834242529063971
 30
0.0
 10
47.54090202576054
 20
7.841196075510254
 30
0.0
 10
47.54001010237788
 20
7.848361805676461
 30
0.0
 10
47.53905993218324
 20
7.855624537084224
 30
0.0
 10
47.53818573207317
 20
7.861984599483264
 30
0.0
 10
47.53742292371106
 20
7.867342052656653
 30
0.0
 10
47.53699520697594
 20
7.870246143535695
 30
0.0
 10
47.53678134253402
 20
7.871698180290792
 30
0.0
 11
47.54812677443396
 21
7.754421918470796
 31
0.0
 11
47.54787949537615
 21
7.759593104783533
 31
0.0
 11
47.54760910049992
 21
7.764763136866548
 31
0.0
 11
47.54733441869222
 21
7.769612266881694
 31
0.0
 11
47.54703940154854
 21
7.774460203655593
 31
0.0
 11
47.54669964241304
 21
7.779669441740139
 31
0.0
 11
47.54633640377841
 21
7.78487709916223
 31
0.0
 11
47.54592180602935
 21
7.790446623727206
 31
0.0
 11
47.54548035226679
 21
7.796014088397527
 31
0.0
 11
47.54497740140357
 21
7.801978805915695
 31
0.0
 11
47.54444362515573
 21
7.80794084957202
 31
0.0
 11
47.54383957518314
 21
7.814304694283094
 31
0.0
 11
47.54320040487454
 21
7.820665113619128
 31
0.0
 11
47.54248510650575
 21
7.827398217522471
 31
0.0
 11
47.54173045143676
 21
7.834127030160317
 31
0.0
 11
47.54089479057859
 21
7.841195195107133
 31
0.0
 11
47.54001570310697
 21
7.848258096667308
 31
0.0
 11
47.53905195908942
 21
7.8556234648008
 31
0.0
 11
47.53804098920233
 21
7.862982505660312
 31
0.0
 11
47.53741944730996
 21
7.867341563251301
 31
0.0
 11
47.53678134253402
 21
7.871698180290792
 31
0.0
  0
SPLINE
  5
16D
330
2
100
AcDbEntity
  8
GAIKEI
  6
Continuous
 62
     1
100
AcDbSpline
210
0.0
220
0.0
230
1.0
 70
     8
 71
     3
 72
    11
 73
     7
 74
     5
 42
0.0000000001
 43
0.0000000001
 44
0.00000001
 40
0.0
 40
0.0
 40
0.0
 40
0.0
 40
0.0125039595402044
 40
0.0250077523913983
 40
0.0375116655553276
 40
0.0500157454207328
 40
0.0500157454207328
 40
0.0500157454207328
 40
0.0500157454207328
 10
47.53302181409401
 20
7.701694945330615
 30
0.0
 10
47.53300877212851
 20
7.705862958627733
 30
0.0
 10
47.53298267337213
 20
7.714198929564645
 30
0.0
 10
47.53276749447318
 20
7.72670129164436
 30
0.0
 10
47.53243495172958
 20
7.739201122769372
 30
0.0
 10
47.53209596509543
 20
7.747530319490579
 30
0.0
 10
47.53192646315404
 20
7.751694945330626
 30
0.0
 11
47.53302181409401
 21
7.701694945330615
 31
0.0
 11
47.53295334438109
 21
7.714198717457207
 31
0.0
 11
47.53274794494172
 21
7.726700823261097
 31
0.0
 11
47.53240564102583
 21
7.739200050246637
 31
0.0
 11
47.53192646315404
 21
7.751694945330626
 31
0.0
  0
SPLINE
  5
16E
330
2
100
AcDbEntity
  8
GAIKEI
  6
Continuous
 62
     1
100
AcDbSpline
210
0.0
220
0.0
230
1.0
 70
     8
 71
     3
 72
    11
 73
     7
 74
     5
 42
0.0000000001
 43
0.0000000001
 44
0.00000001
 40
0.0
 40
0.0
 40
0.0
 40
0.0
 40
0.0125040894476195
 40
0.0250080121930716
 40
0.0375117954630048
 40
0.0500157454203612
 40
0.0500157454203612
 40
0.0500157454203612
 40
0.0500157454203612
 10
47.53192646315404
 20
7.651694945330604
 30
0.0
 10
47.53209596521332
 20
7.655859574362608
 30
0.0
 10
47.53243495208328
 20
7.6641887774677
 30
0.0
 10
47.53276749473845
 20
7.676688611790979
 30
0.0
 10
47.53298267341493
 20
7.689190970679163
 30
0.0
 10
47.53300877214274
 20
7.69752693522787
 30
0.0
 10
47.53302181409401
 20
7.701694945330615
 30
0.0
 11
47.53192646315404
 21
7.651694945330604
 31
0.0
 11
47.53240564133415
 21
7.664189849992027
 31
0.0
 11
47.53274794534786
 21
7.676689086560003
 31
0.0
 11
47.53295334447216
 21
7.689191182786515
 31
0.0
 11
47.53302181409401
 21
7.701694945330615
 31
0.0
  0
SPLINE
  5
16F
330
2
100
AcDbEntity
  8
GAIKEI
  6
Continuous
 62
     1
100
AcDbSpline
210
0.0
220
0.0
230
1.0
 70
    24
 71
     3
 72
     9
 73
     5
 74
     3
 42
0.0000000001
 43
0.0000000001
 44
0.00000001
 40
0.0
 40
0.0
 40
0.0
 40
0.0
 40
0.0027782538628351
 40
0.0055565077257165
 40
0.0055565077257165
 40
0.0055565077257165
 40
0.0055565077257165
 10
47.53192646315404
 20
7.501694945330626
 30
0.0
 10
47.5320842142207
 20
7.502607495234002
 30
0.0
 10
47.53239971635403
 20
7.504432595040725
 30
0.0
 10
47.53271521848735
 20
7.506257694847448
 30
0.0
 10
47.53287296955398
 20
7.507170244750824
 30
0.0
 11
47.53192646315404
 21
7.501694945330626
 31
0.0
 11
47.53239971635401
 21
7.504432595040697
 31
0.0
 11
47.53287296955398
 21
7.507170244750824
 31
0.0
  0
SPLINE
  5
170
330
2
100
AcDbEntity
  8
GAIKEI
  6
Continuous
 62
     1
100
AcDbSpline
210
0.0
220
0.0
230
1.0
 70
     8
 71
     3
 72
    27
 73
    23
 74
    21
 42
0.0000000001
 43
0.0000000001
 44
0.00000001
 40
0.0
 40
0.0
 40
0.0
 40
0.0
 40
0.0102611001427249
 40
0.0205221864268787
 40
0.0289969710967182
 40
0.0374717346343014
 40
0.0456088749444487
 40
0.053746007608652
 40
0.0614514450611262
 40
0.0691568718944607
 40
0.0763749996304593
 40
0.083593117493601
 40
0.0902810294892847
 40
0.0969689322925012
 40
0.103130086316535
 40
0.1092912332979577
 40
0.1149926747938814
 40
0.1206941107585041
 40
0.1259767356224725
 40
0.1312593586558487
 40
0.1369826049942618
 40
0.1427058489769378
 40
0.1427058489769378
 40
0.1427058489769378
 40
0.1427058489769378
 10
47.53287296955398
 20
7.507170244750824
 30
0.0
 10
47.53343890003207
 20
7.510543489800681
 30
0.0
 10
47.53457074574664
 20
7.517289977745406
 30
0.0
 10
47.53606269974811
 20
7.526839994628801
 30
0.0
 10
47.53739588515317
 20
7.535811746762959
 30
0.0
 10
47.53856316873618
 20
7.544092189624052
 30
0.0
 10
47.53965645753439
 20
7.552269168525981
 30
0.0
 10
47.54065997759974
 20
7.560199229080524
 30
0.0
 10
47.54159216463446
 20
7.56799306880589
 30
0.0
 10
47.54243810943234
 20
7.575488536771501
 30
0.0
 10
47.54321856517228
 20
7.582827760887994
 30
0.0
 10
47.54391949602575
 20
7.589834219662577
 30
0.0
 10
47.54456180992045
 20
7.596668785249249
 30
0.0
 10
47.54513370144303
 20
7.603155985785377
 30
0.0
 10
47.5456551469765
 20
7.609471258645612
 30
0.0
 10
47.54611766782369
 20
7.615461371603487
 30
0.0
 10
47.54653849868797
 20
7.621300925755747
 30
0.0
 10
47.54691092545596
 20
7.626850299053756
 30
0.0
 10
47.54724847471415
 20
7.632262030453375
 30
0.0
 10
47.5475612611422
 20
7.637682525356268
 30
0.0
 10
47.54785801987831
 20
7.643251029467961
 30
0.0
 10
47.54803719447376
 20
7.647062324643485
 30
0.0
 10
47.54812677443396
 20
7.648967972190774
 30
0.0
 11
47.53287296955398
 21
7.507170244750824
 31
0.0
 11
47.53455177213374
 21
7.517293080233713
 31
0.0
 11
47.53614081065444
 21
7.527430380143385
 31
0.0
 11
47.53738545082336
 21
7.535813270268732
 31
0.0
 11
47.53856870641044
 21
7.544205023607133
 31
0.0
 11
47.53964700309353
 21
7.552270402056336
 31
0.0
 11
47.54066859937916
 21
7.560343150653608
 31
0.0
 11
47.54158368568385
 21
7.567994058066034
 31
0.0
 11
47.54244784221316
 21
7.575650874445813
 31
0.0
 11
47.54321111625768
 21
7.582828532948298
 31
0.0
 11
47.54392963558603
 21
7.590010799745385
 31
0.0
 11
47.54455540912016
 21
7.596669371300009
 31
0.0
 11
47.54514271670098
 21
7.603331436637546
 31
0.0
 11
47.54564971060903
 21
7.609471695333098
 31
0.0
 11
47.54612402852319
 21
7.615614557487816
 31
0.0
 11
47.54653383520104
 21
7.621301251989024
 31
0.0
 11
47.54691563887706
 21
7.626989889680629
 31
0.0
 11
47.54724439584163
 21
7.632262274815701
 31
0.0
 11
47.54754909819479
 21
7.637536102963139
 31
0.0
 11
47.54785206105879
 21
7.643251325013096
 31
0.0
 11
47.54812677443396
 21
7.648967972190774
 31
0.0
  0
SPLINE
  5
171
330
2
100
AcDbEntity
  8
GAIKEI
  6
Continuous
 62
     1
100
AcDbSpline
210
0.0
220
0.0
230
1.0
 70
    24
 71
     3
 72
     9
 73
     5
 74
     3
 42
0.0000000001
 43
0.0000000001
 44
0.00000001
 40
0.0
 40
0.0
 40
0.0
 40
0.0
 40
0.0013648297196803
 40
0.0027296594391335
 40
0.0027296594391335
 40
0.0027296594391335
 40
0.0027296594391335
 10
47.54812677443396
 20
7.648967972190774
 30
0.0
 10
47.5481469529073
 20
7.649422467714117
 30
0.0
 10
47.54818730985397
 20
7.650331458760717
 30
0.0
 10
47.54822766680063
 20
7.651240449807318
 30
0.0
 10
47.54824784527397
 20
7.651694945330604
 30
0.0
 11
47.54812677443396
 21
7.648967972190774
 31
0.0
 11
47.54818730985397
 21
7.650331458760803
 31
0.0
 11
47.54824784527397
 21
7.651694945330604
 31
0.0
  0
SPLINE
  5
172
330
2
100
AcDbEntity
  8
GAIKEI
  6
Continuous
 62
     1
100
AcDbSpline
210
0.0
220
0.0
230
1.0
 70
    24
 71
     3
 72
     9
 73
     5
 74
     3
 42
0.0000000001
 43
0.0000000001
 44
0.00000001
 40
0.0
 40
0.0
 40
0.0
 40
0.0
 40
0.0013648297195964
 40
0.0027296594393063
 40
0.0027296594393063
 40
0.0027296594393063
 40
0.0027296594393063
 10
47.67824784527403
 20
12.8116949453308
 30
0.0
 10
47.67822766680069
 20
12.81214944085411
 30
0.0
 10
47.67818730985402
 20
12.81305843190085
 30
0.0
 10
47.6781469529073
 20
12.81396742294745
 30
0.0
 10
47.67812677443396
 20
12.8144219184708
 30
0.0
 11
47.67824784527403
 21
12.8116949453308
 31
0.0
 11
47.67818730985402
 21
12.81305843190071
 31
0.0
 11
47.67812677443396
 21
12.8144219184708
 31
0.0
  0
SPLINE
  5
173
330
2
100
AcDbEntity
  8
GAIKEI
  6
Continuous
 62
     1
100
AcDbSpline
210
0.0
220
0.0
230
1.0
 70
     8
 71
     3
 72
    29
 73
    25
 74
    23
 42
0.0000000001
 43
0.0000000001
 44
0.00000001
 40
0.0
 40
0.0
 40
0.0
 40
0.0
 40
0.0051770951549043
 40
0.0103541932196678
 40
0.015211096695523
 40
0.0200680016235794
 40
0.025288307843622
 40
0.0305086179404362
 40
0.0360935525410994
 40
0.041678491541206
 40
0.047664376098572
 40
0.0536502662543178
 40
0.0600427145465664
 40
0.0664351688667845
 40
0.0732061613390433
 40
0.0799771599596151
 40
0.0870945530875444
 40
0.0942119527244756
 40
0.1016401048383724
 40
0.1090682613429506
 40
0.1167613502308659
 40
0.124454454154648
 40
0.1335801741721492
 40
0.1427058970024722
 40
0.1427058970024722
 40
0.1427058970024722
 40
0.1427058970024722
 10
47.67812677443396
 20
12.8144219184708
 30
0.0
 10
47.67804597719918
 20
12.81614572721867
 30
0.0
 10
47.67788436804872
 20
12.81959334498341
 30
0.0
 10
47.67761825965775
 20
12.82465674855262
 30
0.0
 10
47.67733786477625
 20
12.82961246886646
 30
0.0
 10
47.67703540256678
 20
12.83458132564988
 30
0.0
 10
47.67670355095389
 20
12.83966970666643
 30
0.0
 10
47.67633184708768
 20
12.8449986270717
 30
0.0
 10
47.67592627238864
 20
12.85044696846853
 30
0.0
 10
47.67547425225515
 20
12.85614768364573
 30
0.0
 10
47.67498252889076
 20
12.86197925347457
 30
0.0
 10
47.67443666557747
 20
12.86807630138472
 30
0.0
 10
47.67384541845461
 20
12.87430526721101
 30
0.0
 10
47.67319362833505
 20
12.88079126396931
 30
0.0
 10
47.67249165588327
 20
12.88739893474132
 30
0.0
 10
47.67172412711923
 20
12.89424252908236
 30
0.0
 10
47.67090201902274
 20
12.90119607450356
 30
0.0
 10
47.67001012798838
 20
12.90836180912416
 30
0.0
 10
47.66905983194715
 20
12.91562452259262
 30
0.0
 10
47.66803677913595
 20
12.92307108956174
 30
0.0
 10
47.66695281820275
 20
12.93059828735823
 30
0.0
 10
47.66573338517061
 20
12.93867745634617
 30
0.0
 10
47.66438542841565
 20
12.94722008373293
 30
0.0
 10
47.66337712742386
 20
12.9532197923458
 30
0.0
 10
47.662872969614
 20
12.9562196459108
 30
0.0
 11
47.67812677443396
 21
12.8144219184708
 31
0.0
 11
47.6778794953762
 21
12.81959310478342
 31
0.0
 11
47.67760910049992
 21
12.82476313686638
 31
0.0
 11
47.67733441869222
 21
12.82961226688175
 31
0.0
 11
47.67703940154854
 21
12.83446020365554
 31
0.0
 11
47.67669964241304
 21
12.83966944173991
 31
0.0
 11
47.6763364037784
 21
12.84487709916206
 31
0.0
 11
47.67592180602929
 21
12.85044662372721
 31
0.0
 11
47.67548035226684
 21
12.8560140883977
 31
0.0
 11
47.67497740140373
 21
12.86197880591575
 31
0.0
 11
47.67444362515607
 21
12.86794084957083
 31
0.0
 11
47.67383957518325
 21
12.87430469428349
 31
0.0
 11
47.67320040487294
 21
12.88066511362822
 31
0.0
 11
47.67248510650597
 21
12.88739821752185
 31
0.0
 11
47.67173045144779
 21
12.8941270301037
 31
0.0
 11
47.67089479057773
 21
12.90119519511191
 31
0.0
 11
47.67001570303825
 21
12.90825809702173
 31
0.0
 11
47.66905195909418
 21
12.91562346477642
 31
0.0
 11
47.66804098962722
 21
12.92298250346911
 31
0.0
 11
47.66694422661299
 21
12.93059701121612
 31
0.0
 11
47.66579690045171
 21
12.9382040797266
 31
0.0
 11
47.66437042798918
 21
12.9472176219306
 31
0.0
 11
47.662872969614
 21
12.9562196459108
 31
0.0
  0
SPLINE
  5
174
330
2
100
AcDbEntity
  8
GAIKEI
  6
Continuous
 62
     1
100
AcDbSpline
210
0.0
220
0.0
230
1.0
 70
    24
 71
     3
 72
     9
 73
     5
 74
     3
 42
0.0000000001
 43
0.0000000001
 44
0.00000001
 40
0.0
 40
0.0
 40
0.0
 40
0.0
 40
0.0027782538678636
 40
0.0055565077357832
 40
0.0055565077357832
 40
0.0055565077357832
 40
0.0055565077357832
 10
47.662872969614
 20
12.9562196459108
 30
0.0
 10
47.66271521853733
 20
12.95713219581412
 30
0.0
 10
47.66239971638401
 20
12.95895729562085
 30
0.0
 10
47.66208421423065
 20
12.96078239542749
 30
0.0
 10
47.66192646315397
 20
12.96169494533083
 30
0.0
 11
47.662872969614
 21
12.9562196459108
 31
0.0
 11
47.66239971638401
 21
12.95895729562082
 31
0.0
 11
47.66192646315397
 21
12.96169494533083
 31
0.0
  0
SPLINE
  5
175
330
2
100
AcDbEntity
  8
GAIKEI
  6
Continuous
 62
     1
100
AcDbSpline
210
0.0
220
0.0
230
1.0
 70
     8
 71
     3
 72
    11
 73
     7
 74
     5
 42
0.0000000001
 43
0.0000000001
 44
0.00000001
 40
0.0
 40
0.0
 40
0.0
 40
0.0
 40
0.0125039595399768
 40
0.0250077523912852
 40
0.0375116655552713
 40
0.0500157454206787
 40
0.0500157454206787
 40
0.0500157454206787
 40
0.0500157454206787
 10
47.663021814094
 20
12.76169494533084
 30
0.0
 10
47.66300877212851
 20
12.76586295862788
 30
0.0
 10
47.66298267337222
 20
12.77419892956473
 30
0.0
 10
47.66276749447314
 20
12.78670129164456
 30
0.0
 10
47.66243495172964
 20
12.79920112276952
 30
0.0
 10
47.6620959650954
 20
12.80753031949078
 30
0.0
 10
47.66192646315397
 20
12.8116949453308
 30
0.0
 11
47.663021814094
 21
12.76169494533084
 31
0.0
 11
47.66295334438114
 21
12.77419871745721
 31
0.0
 11
47.66274794494171
 21
12.78670082326121
 31
0.0
 11
47.66240564102583
 21
12.79920005024681
 31
0.0
 11
47.66192646315397
 21
12.8116949453308
 31
0.0
  0
SPLINE
  5
176
330
2
100
AcDbEntity
  8
GAIKEI
  6
Continuous
 62
     1
100
AcDbSpline
210
0.0
220
0.0
230
1.0
 70
     8
 71
     3
 72
    11
 73
     7
 74
     5
 42
0.0000000001
 43
0.0000000001
 44
0.00000001
 40
0.0
 40
0.0
 40
0.0
 40
0.0
 40
0.0125040894474512
 40
0.0250080121928466
 40
0.0375117954628934
 40
0.0500157454203635
 40
0.0500157454203635
 40
0.0500157454203635
 40
0.0500157454203635
 10
47.66192646315397
 20
12.71169494533083
 30
0.0
 10
47.6620959652133
 20
12.71585957436284
 30
0.0
 10
47.66243495208331
 20
12.72418877746779
 30
0.0
 10
47.66276749473846
 20
12.73668861179112
 30
0.0
 10
47.6629826734149
 20
12.74919097067916
 30
0.0
 10
47.66300877214276
 20
12.7575269352281
 30
0.0
 10
47.663021814094
 20
12.76169494533084
 30
0.0
 11
47.66192646315397
 21
12.71169494533083
 31
0.0
 11
47.66240564133414
 21
12.72418984999208
 31
0.0
 11
47.66274794534786
 21
12.73668908656
 31
0.0
 11
47.66295334447216
 21
12.74919118278663
 31
0.0
 11
47.663021814094
 21
12.76169494533084
 31
0.0
  0
SPLINE
  5
177
330
2
100
AcDbEntity
  8
GAIKEI
  6
Continuous
 62
     1
100
AcDbSpline
210
0.0
220
0.0
230
1.0
 70
    24
 71
     3
 72
     9
 73
     5
 74
     3
 42
0.0000000001
 43
0.0000000001
 44
0.00000001
 40
0.0
 40
0.0
 40
0.0
 40
0.0
 40
0.002778253862583
 40
0.0055565077253341
 40
0.0055565077253341
 40
0.0055565077253341
 40
0.0055565077253341
 10
47.66192646315397
 20
12.5616949453308
 30
0.0
 10
47.66208421422064
 20
12.56260749523406
 30
0.0
 10
47.66239971635406
 20
12.56443259504073
 30
0.0
 10
47.66271521848731
 20
12.56625769484725
 30
0.0
 10
47.66287296955397
 20
12.5671702447506
 30
0.0
 11
47.66192646315397
 21
12.5616949453308
 31
0.0
 11
47.662399716354
 21
12.56443259504064
 31
0.0
 11
47.66287296955397
 21
12.5671702447506
 31
0.0
  0
SPLINE
  5
178
330
2
100
AcDbEntity
  8
GAIKEI
  6
Continuous
 62
     1
100
AcDbSpline
210
0.0
220
0.0
230
1.0
 70
     8
 71
     3
 72
    27
 73
    23
 74
    21
 42
0.0000000001
 43
0.0000000001
 44
0.00000001
 40
0.0
 40
0.0
 40
0.0
 40
0.0
 40
0.0102611001427717
 40
0.0205221864272151
 40
0.0289969710970067
 40
0.0374717346346866
 40
0.0456088749448339
 40
0.0537460076088751
 40
0.0614514450614059
 40
0.0691568718946775
 40
0.0763749996306821
 40
0.0835931174938237
 40
0.090281029489389
 40
0.0969689322927237
 40
0.1031300863167575
 40
0.1092912332981889
 40
0.1149926747941167
 40
0.1206941107588491
 40
0.1259767356228139
 40
0.1312593586560198
 40
0.1369826049943164
 40
0.1427058489769924
 40
0.1427058489769924
 40
0.1427058489769924
 40
0.1427058489769924
 10
47.66287296955397
 20
12.5671702447506
 30
0.0
 10
47.66343890003206
 20
12.57054348980048
 30
0.0
 10
47.6645707457466
 20
12.57728997774535
 30
0.0
 10
47.66606269974805
 20
12.58683999462874
 30
0.0
 10
47.66739588515335
 20
12.59581174676316
 30
0.0
 10
47.66856316873602
 20
12.60409218962405
 30
0.0
 10
47.66965645753434
 20
12.61226916852624
 30
0.0
 10
47.6706599775998
 20
12.62019922908058
 30
0.0
 10
47.67159216463442
 20
12.62799306880595
 30
0.0
 10
47.67243810943222
 20
12.63548853677142
 30
0.0
 10
47.6732185651723
 20
12.642827760888
 30
0.0
 10
47.67391949602577
 20
12.64983421966261
 30
0.0
 10
47.67456180992041
 20
12.65666878524925
 30
0.0
 10
47.67513370144301
 20
12.66315598578535
 30
0.0
 10
47.6756551469765
 20
12.66947125864561
 30
0.0
 10
47.67611766782377
 20
12.67546137160352
 30
0.0
 10
47.6765384986882
 20
12.68130092575578
 30
0.0
 10
47.67691092545606
 20
12.68685029905387
 30
0.0
 10
47.67724847471416
 20
12.6922620304534
 30
0.0
 10
47.67756126114226
 20
12.69768252535618
 30
0.0
 10
47.67785801987829
 20
12.70325102946785
 30
0.0
 10
47.67803719447376
 20
12.70706232464334
 30
0.0
 10
47.67812677443396
 20
12.70896797219061
 30
0.0
 11
47.66287296955397
 21
12.5671702447506
 31
0.0
 11
47.66455177213368
 21
12.57729308023354
 31
0.0
 11
47.66614081065443
 21
12.5874303801435
 31
0.0
 11
47.66738545082342
 21
12.59581327026879
 31
0.0
 11
47.66856870641038
 21
12.6042050236073
 31
0.0
 11
47.66964700309347
 21
12.61227040205651
 31
0.0
 11
47.67066859937915
 21
12.62034315065361
 31
0.0
 11
47.67158368568385
 21
12.62799405806609
 31
0.0
 11
47.6724478422131
 21
12.63565087444581
 31
0.0
 11
47.67321111625768
 21
12.6428285329483
 31
0.0
 11
47.67392963558603
 21
12.65001079974539
 31
0.0
 11
47.6745554091201
 21
12.6566693712999
 31
0.0
 11
47.67514271670097
 21
12.66333143663755
 31
0.0
 11
47.67564971060903
 21
12.6694716953331
 31
0.0
 11
47.6761240285233
 21
12.67561455748782
 31
0.0
 11
47.67653383520121
 21
12.68130125198903
 31
0.0
 11
47.67691563887717
 21
12.68698988968074
 31
0.0
 11
47.67724439584168
 21
12.69226227481581
 31
0.0
 11
47.67754909819484
 21
12.69753610296308
 31
0.0
 11
47.67785206105878
 21
12.70325132501293
 31
0.0
 11
47.67812677443396
 21
12.70896797219061
 31
0.0
  0
SPLINE
  5
179
330
2
100
AcDbEntity
  8
GAIKEI
  6
Continuous
 62
     1
100
AcDbSpline
210
0.0
220
0.0
230
1.0
 70
    24
 71
     3
 72
     9
 73
     5
 74
     3
 42
0.0000000001
 43
0.0000000001
 44
0.00000001
 40
0.0
 40
0.0
 40
0.0
 40
0.0
 40
0.0013648297197112
 40
0.0027296594395335
 40
0.0027296594395335
 40
0.0027296594395335
 40
0.0027296594395335
 10
47.67812677443396
 20
12.70896797219061
 30
0.0
 10
47.67814695290732
 20
12.70942246771397
 30
0.0
 10
47.67818730985408
 20
12.71033145876077
 30
0.0
 10
47.67822766680071
 20
12.71124044980743
 30
0.0
 10
47.67824784527403
 20
12.71169494533083
 30
0.0
 11
47.67812677443396
 21
12.70896797219061
 31
0.0
 11
47.67818730985402
 21
12.71033145876069
 31
0.0
 11
47.67824784527403
 21
12.71169494533083
 31
0.0
  0
SPLINE
  5
17A
330
2
100
AcDbEntity
  8
GAIKEI
  6
Continuous
 62
     1
100
AcDbSpline
210
0.0
220
0.0
230
1.0
 70
    24
 71
     3
 72
     9
 73
     5
 74
     3
 42
0.0000000001
 43
0.0000000001
 44
0.00000001
 40
0.0
 40
0.0
 40
0.0
 40
0.0
 40
0.0013648297195377
 40
0.0027296594391335
 40
0.0027296594391335
 40
0.0027296594391335
 40
0.0027296594391335
 10
47.54824784527397
 20
5.291694945330817
 30
0.0
 10
47.54822766680064
 20
5.292149440854075
 30
0.0
 10
47.54818730985397
 20
5.293058431900703
 30
0.0
 10
47.54814695290732
 20
5.293967422947361
 30
0.0
 10
47.54812677443396
 20
5.294421918470646
 30
0.0
 11
47.54824784527397
 21
5.291694945330817
 31
0.0
 11
47.54818730985397
 21
5.293058431900675
 31
0.0
 11
47.54812677443396
 21
5.294421918470646
 31
0.0
  0
SPLINE
  5
17B
330
2
100
AcDbEntity
  8
GAIKEI
  6
Continuous
 62
     1
100
AcDbSpline
210
0.0
220
0.0
230
1.0
 70
     8
 71
     3
 72
    29
 73
    25
 74
    23
 42
0.0000000001
 43
0.0000000001
 44
0.00000001
 40
0.0
 40
0.0
 40
0.0
 40
0.0
 40
0.0051770951550773
 40
0.0103541932199514
 40
0.0152110966957499
 40
0.0200680016238062
 40
0.0252883078439055
 40
0.0305086179407197
 40
0.0360935525412696
 40
0.0416784915413807
 40
0.0476643760986334
 40
0.0536502662542609
 40
0.0600427145465095
 40
0.0664351688668973
 40
0.0732061613392691
 40
0.0799771599600168
 40
0.087094553087946
 40
0.0942119527247574
 40
0.1016401048385488
 40
0.109068261343127
 40
0.1167613502311549
 40
0.1244544541549455
 40
0.1335801741723166
 40
0.1427058970024714
 40
0.1427058970024714
 40
0.1427058970024714
 40
0.1427058970024714
 10
47.54812677443396
 20
5.294421918470646
 30
0.0
 10
47.54804597719915
 20
5.296145727218572
 30
0.0
 10
47.54788436804864
 20
5.299593344983463
 30
0.0
 10
47.54761825965775
 20
5.304656748552673
 30
0.0
 10
47.54733786477625
 20
5.309612468866532
 30
0.0
 10
47.54703540256679
 20
5.31458132565001
 30
0.0
 10
47.54670355095389
 20
5.319669706666473
 30
0.0
 10
47.54633184708767
 20
5.324998627071806
 30
0.0
 10
47.54592627238866
 20
5.33044696846855
 30
0.0
 10
47.54547425225512
 20
5.336147683645776
 30
0.0
 10
47.54498252889066
 20
5.341979253474391
 30
0.0
 10
47.54443666557746
 20
5.348076301384537
 30
0.0
 10
47.54384541845459
 20
5.354305267210861
 30
0.0
 10
47.54319362833512
 20
5.360791263969304
 30
0.0
 10
47.54249165588326
 20
5.367398934741402
 30
0.0
 10
47.54172412711918
 20
5.374242529082522
 30
0.0
 10
47.54090201902264
 20
5.381196074503748
 30
0.0
 10
47.54001012798847
 20
5.388361809124319
 30
0.0
 10
47.53905983194704
 20
5.39562452259264
 30
0.0
 10
47.53803677913596
 20
5.403071089561876
 30
0.0
 10
47.53695281820273
 20
5.410598287358254
 30
0.0
 10
47.53573338517044
 20
5.418677456346244
 30
0.0
 10
47.53438542841573
 20
5.427220083732976
 30
0.0
 10
47.53337712742387
 20
5.433219792345681
 30
0.0
 10
47.532872969614
 20
5.436219645910654
 30
0.0
 11
47.54812677443396
 21
5.294421918470646
 31
0.0
 11
47.54787949537615
 21
5.29959310478344
 31
0.0
 11
47.54760910049992
 21
5.304763136866512
 31
0.0
 11
47.54733441869222
 21
5.309612266881828
 31
0.0
 11
47.54703940154854
 21
5.314460203655613
 31
0.0
 11
47.54669964241304
 21
5.319669441740046
 31
0.0
 11
47.54633640377841
 21
5.324877099162193
 31
0.0
 11
47.54592180602929
 21
5.330446623727226
 31
0.0
 11
47.54548035226679
 21
5.336014088397718
 31
0.0
 11
47.54497740140368
 21
5.341978805915658
 31
0.0
 11
47.54444362515608
 21
5.347940849570619
 31
0.0
 11
47.54383957518325
 21
5.354304694283285
 31
0.0
 11
47.54320040487295
 21
5.360665113628186
 31
0.0
 11
47.54248510650597
 21
5.367398217521923
 31
0.0
 11
47.54173045144773
 21
5.374127030103949
 31
0.0
 11
47.54089479057768
 21
5.381195195112155
 31
0.0
 11
47.54001570303825
 21
5.388258097021861
 31
0.0
 11
47.53905195909413
 21
5.395623464776434
 31
0.0
 11
47.53804098962717
 21
5.402982503469132
 31
0.0
 11
47.53694422661294
 21
5.410597011216253
 31
0.0
 11
47.53579690045159
 21
5.418204079726734
 31
0.0
 11
47.53437042798918
 21
5.427217621930623
 31
0.0
 11
47.532872969614
 21
5.436219645910654
 31
0.0
  0
SPLINE
  5
17C
330
2
100
AcDbEntity
  8
GAIKEI
  6
Continuous
 62
     1
100
AcDbSpline
210
0.0
220
0.0
230
1.0
 70
    24
 71
     3
 72
     9
 73
     5
 74
     3
 42
0.0000000001
 43
0.0000000001
 44
0.00000001
 40
0.0
 40
0.0
 40
0.0
 40
0.0
 40
0.0027782538680876
 40
0.0055565077358855
 40
0.0055565077358855
 40
0.0055565077358855
 40
0.0055565077358855
 10
47.532872969614
 20
5.436219645910654
 30
0.0
 10
47.53271521853733
 20
5.437132195814058
 30
0.0
 10
47.53239971638399
 20
5.438957295620781
 30
0.0
 10
47.53208421423069
 20
5.440782395427476
 30
0.0
 10
47.53192646315404
 20
5.441694945330795
 30
0.0
 11
47.532872969614
 21
5.436219645910654
 31
0.0
 11
47.53239971638402
 21
5.438957295620838
 31
0.0
 11
47.53192646315404
 21
5.441694945330795
 31
0.0
  0
SPLINE
  5
17D
330
2
100
AcDbEntity
  8
GAIKEI
  6
Continuous
 62
     1
100
AcDbSpline
210
0.0
220
0.0
230
1.0
 70
     8
 71
     3
 72
    11
 73
     7
 74
     5
 42
0.0000000001
 43
0.0000000001
 44
0.00000001
 40
0.0
 40
0.0
 40
0.0
 40
0.0
 40
0.0125039595399202
 40
0.0250077523912278
 40
0.0375116655552138
 40
0.0500157454207326
 40
0.0500157454207326
 40
0.0500157454207326
 40
0.0500157454207326
 10
47.53302181409401
 20
5.241694945330806
 30
0.0
 10
47.53300877212848
 20
5.24586295862781
 30
0.0
 10
47.53298267337213
 20
5.254198929564694
 30
0.0
 10
47.53276749447322
 20
5.266701291644466
 30
0.0
 10
47.53243495172958
 20
5.279201122769393
 30
0.0
 10
47.53209596509544
 20
5.28753031949077
 30
0.0
 10
47.53192646315404
 20
5.291694945330817
 30
0.0
 11
47.53302181409401
 21
5.241694945330806
 31
0.0
 11
47.53295334438109
 21
5.254198717457114
 31
0.0
 11
47.53274794494172
 21
5.266700823261118
 31
0.0
 11
47.53240564102583
 21
5.279200050246714
 31
0.0
 11
47.53192646315404
 21
5.291694945330817
 31
0.0
  0
SPLINE
  5
17E
330
2
100
AcDbEntity
  8
GAIKEI
  6
Continuous
 62
     1
100
AcDbSpline
210
0.0
220
0.0
230
1.0
 70
     8
 71
     3
 72
    11
 73
     7
 74
     5
 42
0.0000000001
 43
0.0000000001
 44
0.00000001
 40
0.0
 40
0.0
 40
0.0
 40
0.0
 40
0.0125040894476195
 40
0.0250080121930716
 40
0.0375117954630048
 40
0.0500157454203612
 40
0.0500157454203612
 40
0.0500157454203612
 40
0.0500157454203612
 10
47.53192646315404
 20
5.191694945330795
 30
0.0
 10
47.53209596521332
 20
5.195859574362799
 30
0.0
 10
47.53243495208328
 20
5.204188777467948
 30
0.0
 10
47.53276749473845
 20
5.216688611791141
 30
0.0
 10
47.53298267341493
 20
5.229190970679354
 30
0.0
 10
47.53300877214274
 20
5.237526935228061
 30
0.0
 10
47.53302181409401
 20
5.241694945330806
 30
0.0
 11
47.53192646315404
 21
5.191694945330795
 31
0.0
 11
47.53240564133415
 21
5.204189849992218
 31
0.0
 11
47.53274794534786
 21
5.216689086560194
 31
0.0
 11
47.53295334447216
 21
5.229191182786706
 31
0.0
 11
47.53302181409401
 21
5.241694945330806
 31
0.0
  0
SPLINE
  5
17F
330
2
100
AcDbEntity
  8
GAIKEI
  6
Continuous
 62
     1
100
AcDbSpline
210
0.0
220
0.0
230
1.0
 70
    24
 71
     3
 72
     9
 73
     5
 74
     3
 42
0.0000000001
 43
0.0000000001
 44
0.00000001
 40
0.0
 40
0.0
 40
0.0
 40
0.0
 40
0.0027782538627742
 40
0.0055565077253244
 40
0.0055565077253244
 40
0.0055565077253244
 40
0.0055565077253244
 10
47.53192646315404
 20
5.041694945330817
 30
0.0
 10
47.53208421422068
 20
5.042607495234136
 30
0.0
 10
47.53239971635399
 20
5.044432595040802
 30
0.0
 10
47.53271521848731
 20
5.046257694847355
 30
0.0
 10
47.53287296955398
 20
5.047170244750617
 30
0.0
 11
47.53192646315404
 21
5.041694945330817
 31
0.0
 11
47.53239971635401
 21
5.044432595040831
 31
0.0
 11
47.53287296955398
 21
5.047170244750617
 31
0.0
  0
SPLINE
  5
180
330
2
100
AcDbEntity
  8
GAIKEI
  6
Continuous
 62
     1
100
AcDbSpline
210
0.0
220
0.0
230
1.0
 70
     8
 71
     3
 72
    27
 73
    23
 74
    21
 42
0.0000000001
 43
0.0000000001
 44
0.00000001
 40
0.0
 40
0.0
 40
0.0
 40
0.0
 40
0.0102611001428371
 40
0.0205221864273278
 40
0.028996971097007
 40
0.0374717346345822
 40
0.0456088749447296
 40
0.0537460076087636
 40
0.0614514450613575
 40
0.0691568718946856
 40
0.0763749996306842
 40
0.0835931174937127
 40
0.0902810294892833
 40
0.0969689322926697
 40
0.1031300863169914
 40
0.1092912332983662
 40
0.1149926747942899
 40
0.1206941107589088
 40
0.1259767356229303
 40
0.1312593586560195
 40
0.1369826049943192
 40
0.1427058489769951
 40
0.1427058489769951
 40
0.1427058489769951
 40
0.1427058489769951
 10
47.53287296955398
 20
5.047170244750617
 30
0.0
 10
47.53343890003208
 20
5.050543489800531
 30
0.0
 10
47.53457074574669
 20
5.057289977745369
 30
0.0
 10
47.53606269974804
 20
5.066839994628878
 30
0.0
 10
47.53739588515331
 20
5.07581174676315
 30
0.0
 10
47.53856316873616
 20
5.084092189624129
 30
0.0
 10
47.5396564575344
 20
5.092269168526058
 30
0.0
 10
47.54065997759977
 20
5.100199229080601
 30
0.0
 10
47.54159216463452
 20
5.107993068805825
 30
0.0
 10
47.54243810943228
 20
5.115488536771465
 30
0.0
 10
47.54321856517228
 20
5.122827760887929
 30
0.0
 10
47.54391949602577
 20
5.129834219662541
 30
0.0
 10
47.5445618099205
 20
5.136668785249185
 30
0.0
 10
47.54513370144296
 20
5.143155985785313
 30
0.0
 10
47.54565514697655
 20
5.149471258645775
 30
0.0
 10
47.54611766782388
 20
5.155461371603735
 30
0.0
 10
47.54653849868813
 20
5.161300925755853
 30
0.0
 10
47.54691092545608
 20
5.166850299054033
 30
0.0
 10
47.54724847471417
 20
5.172262030453481
 30
0.0
 10
47.5475612611422
 20
5.177682525356317
 30
0.0
 10
47.54785801987831
 20
5.183251029467839
 30
0.0
 10
47.54803719447376
 20
5.187062324643392
 30
0.0
 10
47.54812677443396
 20
5.188967972190624
 30
0.0
 11
47.53287296955398
 21
5.047170244750617
 31
0.0
 11
47.53455177213374
 21
5.05729308023362
 31
0.0
 11
47.53614081065444
 21
5.067430380143633
 31
0.0
 11
47.53738545082342
 21
5.07581327026881
 31
0.0
 11
47.53856870641044
 21
5.084205023607211
 31
0.0
 11
47.53964700309353
 21
5.092270402056414
 31
0.0
 11
47.54066859937916
 21
5.100343150653515
 31
0.0
 11
47.54158368568392
 21
5.107994058066054
 31
0.0
 11
47.54244784221316
 21
5.115650874445833
 31
0.0
 11
47.54321111625768
 21
5.122828532948318
 31
0.0
 11
47.54392963558603
 21
5.130010799745292
 31
0.0
 11
47.54455540912016
 21
5.136669371299802
 31
0.0
 11
47.54514271670098
 21
5.14333143663751
 31
0.0
 11
47.5456497106091
 21
5.149471695333346
 31
0.0
 11
47.54612402852337
 21
5.155614557488007
 31
0.0
 11
47.54653383520121
 21
5.161301251989215
 31
0.0
 11
47.54691563887718
 21
5.16698988968082
 31
0.0
 11
47.54724439584168
 21
5.172262274815949
 31
0.0
 11
47.54754909819479
 21
5.177536102963102
 31
0.0
 11
47.54785206105879
 21
5.183251325012946
 31
0.0
 11
47.54812677443396
 21
5.188967972190624
 31
0.0
  0
SPLINE
  5
181
330
2
100
AcDbEntity
  8
GAIKEI
  6
Continuous
 62
     1
100
AcDbSpline
210
0.0
220
0.0
230
1.0
 70
    24
 71
     3
 72
     9
 73
     5
 74
     3
 42
0.0000000001
 43
0.0000000001
 44
0.00000001
 40
0.0
 40
0.0
 40
0.0
 40
0.0
 40
0.0013648297197093
 40
0.0027296594394742
 40
0.0027296594394742
 40
0.0027296594394742
 40
0.0027296594394742
 10
47.54812677443396
 20
5.188967972190624
 30
0.0
 10
47.54814695290732
 20
5.189422467713995
 30
0.0
 10
47.54818730985403
 20
5.190331458760795
 30
0.0
 10
47.54822766680064
 20
5.191240449807395
 30
0.0
 10
47.54824784527397
 20
5.191694945330795
 30
0.0
 11
47.54812677443396
 21
5.188967972190624
 31
0.0
 11
47.54818730985397
 21
5.190331458760653
 31
0.0
 11
47.54824784527397
 21
5.191694945330795
 31
0.0
  0
SPLINE
  5
182
330
2
100
AcDbEntity
  8
GAIKEI
  6
Continuous
 62
     1
100
AcDbSpline
210
0.0
220
0.0
230
1.0
 70
     8
 71
     3
 72
    15
 73
    11
 74
     9
 42
0.0000000001
 43
0.0000000001
 44
0.00000001
 40
0.0
 40
0.0
 40
0.0
 40
0.0
 40
0.0396433116570494
 40
0.0792083089135554
 40
0.1028467620773674
 40
0.1265037554125875
 40
0.1501459465714409
 40
0.1737694152747866
 40
0.2133300176483475
 40
0.2529694585176521
 40
0.2529694585176521
 40
0.2529694585176521
 40
0.2529694585176521
 10
47.95193323693399
 20
6.08769494533081
 30
0.0
 10
47.95832185924831
 20
6.099285011471977
 30
0.0
 10
47.97108647033124
 20
6.122442254510673
 30
0.0
 10
47.98212045973722
 20
6.155109554621503
 30
0.0
 10
47.98790797325914
 20
6.183534829640279
 30
0.0
 10
47.98935431236803
 20
6.20720915749257
 30
0.0
 10
47.98790415988131
 20
6.230878105026761
 30
0.0
 10
47.98211702075529
 20
6.259291709158958
 30
0.0
 10
47.9710848067925
 20
6.291951357579222
 30
0.0
 10
47.9583213329531
 20
6.315106068629319
 30
0.0
 10
47.95193323693399
 20
6.326694945330615
 30
0.0
 11
47.95193323693399
 21
6.08769494533081
 31
0.0
 11
47.97003031752149
 21
6.12296657641869
 31
0.0
 11
47.98282222196116
 21
6.160406612597427
 31
0.0
 11
47.9873604275927
 21
6.18360534521625
 31
0.0
 11
47.98887144641492
 21
6.207214034177098
 31
0.0
 11
47.9873573771232
 21
6.230807695096729
 31
0.0
 11
47.98282031516544
 21
6.253991382892621
 31
0.0
 11
47.97002892574454
 21
6.291426950701492
 31
0.0
 11
47.95193323693399
 21
6.326694945330615
 31
0.0
  0
SPLINE
  5
183
330
2
100
AcDbEntity
  8
GAIKEI
  6
Continuous
 62
     1
100
AcDbSpline
210
0.0
220
0.0
230
1.0
 70
     8
 71
     3
 72
    15
 73
    11
 74
     9
 42
0.0000000001
 43
0.0000000001
 44
0.00000001
 40
0.0
 40
0.0
 40
0.0
 40
0.0
 40
0.0396089899724218
 40
0.0791401562391784
 40
0.1027751387767395
 40
0.1264288113206313
 40
0.1500771737311964
 40
0.1737069280787165
 40
0.2132985681173887
 40
0.2529694542287509
 40
0.2529694542287509
 40
0.2529694542287509
 40
0.2529694542287509
 10
47.95193323693399
 20
6.326694945330615
 30
0.0
 10
47.95831633557471
 20
6.338274912654469
 30
0.0
 10
47.97106997837302
 20
6.361412101644646
 30
0.0
 10
47.98210384580508
 20
6.394053558390169
 30
0.0
 10
47.98789826338484
 20
6.422463555313584
 30
0.0
 10
47.98935433999886
 20
6.446136995365122
 30
0.0
 10
47.98791360439676
 20
6.469809675278867
 30
0.0
 10
47.98213258192222
 20
6.498239393155643
 30
0.0
 10
47.9710998974443
 20
6.530923705655453
 30
0.0
 10
47.95832638505454
 20
6.554096811559503
 30
0.0
 10
47.95193323693399
 20
6.565694945330818
 30
0.0
 11
47.95193323693399
 21
6.326694945330615
 31
0.0
 11
47.97001613248636
 21
6.361935278774211
 31
0.0
 11
47.98280556637627
 21
6.399340406862705
 31
0.0
 11
47.98735110363901
 21
6.42253416740354
 31
0.0
 11
47.98887142168934
 21
6.446138931678916
 31
0.0
 11
47.98736631134119
 21
6.469739349602804
 31
0.0
 11
47.98283556684225
 21
6.492930677341433
 31
0.0
 11
47.97004190441225
 21
6.530398267110598
 31
0.0
 11
47.95193323693399
 21
6.565694945330818
 31
0.0
  0
SPLINE
  5
184
330
2
100
AcDbEntity
  8
GAIKEI
  6
Continuous
 62
     1
100
AcDbSpline
210
0.0
220
0.0
230
1.0
 70
    24
 71
     3
 72
     9
 73
     5
 74
     3
 42
0.0000000001
 43
0.0000000001
 44
0.00000001
 40
0.0
 40
0.0
 40
0.0
 40
0.0
 40
0.0013648297195087
 40
0.0027296594390767
 40
0.0027296594390767
 40
0.0027296594390767
 40
0.0027296594390767
 10
47.54824784527397
 20
8.091694945330829
 30
0.0
 10
47.54822766680066
 20
8.092149440854115
 30
0.0
 10
47.54818730985405
 20
8.0930584319008
 30
0.0
 10
47.5481469529073
 20
8.093967422947315
 30
0.0
 10
47.54812677443396
 20
8.094421918470601
 30
0.0
 11
47.54824784527397
 21
8.091694945330829
 31
0.0
 11
47.54818730985397
 21
8.093058431900686
 31
0.0
 11
47.54812677443396
 21
8.094421918470601
 31
0.0
  0
SPLINE
  5
185
330
2
100
AcDbEntity
  8
GAIKEI
  6
Continuous
 62
     1
100
AcDbSpline
210
0.0
220
0.0
230
1.0
 70
     8
 71
     3
 72
    29
 73
    25
 74
    23
 42
0.0000000001
 43
0.0000000001
 44
0.00000001
 40
0.0
 40
0.0
 40
0.0
 40
0.0
 40
0.0051770951551341
 40
0.0103541932200082
 40
0.0152110966958067
 40
0.020068001623863
 40
0.0252883078439056
 40
0.0305086179407765
 40
0.0360935525413263
 40
0.0416784915414374
 40
0.0476643760986335
 40
0.0536502662543176
 40
0.0600427145465662
 40
0.0664351688668974
 40
0.0732061613392128
 40
0.0799771599599604
 40
0.0870945530878332
 40
0.0942119527247575
 40
0.1016401048385489
 40
0.1090682613431833
 40
0.1167613502311549
 40
0.1244544541550018
 40
0.1335801741723728
 40
0.1427058970024716
 40
0.1427058970024716
 40
0.1427058970024716
 40
0.1427058970024716
 10
47.54812677443396
 20
8.094421918470601
 30
0.0
 10
47.54804597719915
 20
8.096145727218555
 30
0.0
 10
47.54788436804861
 20
8.099593344983446
 30
0.0
 10
47.54761825965779
 20
8.104656748552741
 30
0.0
 10
47.54733786477622
 20
8.10961246886643
 30
0.0
 10
47.54703540256683
 20
8.114581325650078
 30
0.0
 10
47.54670355095387
 20
8.119669706666456
 30
0.0
 10
47.54633184708767
 20
8.124998627071846
 30
0.0
 10
47.54592627238864
 20
8.130446968468561
 30
0.0
 10
47.54547425225512
 20
8.136147683645788
 30
0.0
 10
47.54498252889066
 20
8.141979253474374
 30
0.0
 10
47.54443666557747
 20
8.148076301384548
 30
0.0
 10
47.54384541845465
 20
8.154305267210872
 30
0.0
 10
47.54319362833507
 20
8.16079126396923
 30
0.0
 10
47.54249165588328
 20
8.167398934741328
 30
0.0
 10
47.54172412711916
 20
8.17424252908242
 30
0.0
 10
47.54090201902264
 20
8.181196074503617
 30
0.0
 10
47.5400101279884
 20
8.188361809124216
 30
0.0
 10
47.5390598319471
 20
8.195624522592709
 30
0.0
 10
47.53803677913589
 20
8.203071089561746
 30
0.0
 10
47.53695281820276
 20
8.210598287358322
 30
0.0
 10
47.53573338517038
 20
8.218677456346199
 30
0.0
 10
47.53438542841576
 20
8.227220083733016
 30
0.0
 10
47.53337712742387
 20
8.233219792345636
 30
0.0
 10
47.532872969614
 20
8.236219645910608
 30
0.0
 11
47.54812677443396
 21
8.094421918470601
 31
0.0
 11
47.54787949537615
 21
8.099593104783451
 31
0.0
 11
47.54760910049992
 21
8.104763136866523
 31
0.0
 11
47.54733441869222
 21
8.109612266881839
 31
0.0
 11
47.54703940154854
 21
8.114460203655625
 31
0.0
 11
47.54669964241304
 21
8.119669441740001
 31
0.0
 11
47.54633640377841
 21
8.124877099162205
 31
0.0
 11
47.54592180602929
 21
8.130446623727237
 31
0.0
 11
47.54548035226679
 21
8.136014088397729
 31
0.0
 11
47.54497740140368
 21
8.141978805915613
 31
0.0
 11
47.54444362515608
 21
8.14794084957063
 31
0.0
 11
47.54383957518325
 21
8.154304694283297
 31
0.0
 11
47.54320040487295
 21
8.160665113628141
 31
0.0
 11
47.54248510650597
 21
8.167398217521821
 31
0.0
 11
47.54173045144773
 21
8.174127030103846
 31
0.0
 11
47.54089479057768
 21
8.181195195111996
 31
0.0
 11
47.54001570303825
 21
8.188258097021815
 31
0.0
 11
47.53905195909413
 21
8.195623464776389
 31
0.0
 11
47.53804098962717
 21
8.202982503469144
 31
0.0
 11
47.53694422661294
 21
8.210597011216208
 31
0.0
 11
47.53579690045159
 21
8.218204079726746
 31
0.0
 11
47.53437042798918
 21
8.227217621930634
 31
0.0
 11
47.532872969614
 21
8.236219645910608
 31
0.0
  0
SPLINE
  5
186
330
2
100
AcDbEntity
  8
GAIKEI
  6
Continuous
 62
     1
100
AcDbSpline
210
0.0
220
0.0
230
1.0
 70
    24
 71
     3
 72
     9
 73
     5
 74
     3
 42
0.0000000001
 43
0.0000000001
 44
0.00000001
 40
0.0
 40
0.0
 40
0.0
 40
0.0
 40
0.0027782538680876
 40
0.0055565077359415
 40
0.0055565077359415
 40
0.0055565077359415
 40
0.0055565077359415
 10
47.532872969614
 20
8.236219645910608
 30
0.0
 10
47.53271521853733
 20
8.237132195814012
 30
0.0
 10
47.53239971638399
 20
8.238957295620735
 30
0.0
 10
47.53208421423067
 20
8.240782395427487
 30
0.0
 10
47.53192646315404
 20
8.241694945330806
 30
0.0
 11
47.532872969614
 21
8.236219645910608
 31
0.0
 11
47.53239971638402
 21
8.238957295620849
 31
0.0
 11
47.53192646315404
 21
8.241694945330806
 31
0.0
  0
SPLINE
  5
187
330
2
100
AcDbEntity
  8
GAIKEI
  6
Continuous
 62
     1
100
AcDbSpline
210
0.0
220
0.0
230
1.0
 70
     8
 71
     3
 72
    11
 73
     7
 74
     5
 42
0.0000000001
 43
0.0000000001
 44
0.00000001
 40
0.0
 40
0.0
 40
0.0
 40
0.0
 40
0.0125039595399202
 40
0.0250077523912278
 40
0.0375116655552138
 40
0.0500157454207326
 40
0.0500157454207326
 40
0.0500157454207326
 40
0.0500157454207326
 10
47.53302181409401
 20
8.041694945330817
 30
0.0
 10
47.53300877212848
 20
8.045862958627793
 30
0.0
 10
47.53298267337213
 20
8.054198929564734
 30
0.0
 10
47.53276749447322
 20
8.066701291644477
 30
0.0
 10
47.53243495172958
 20
8.079201122769376
 30
0.0
 10
47.53209596509544
 20
8.087530319490809
 30
0.0
 10
47.53192646315404
 20
8.091694945330829
 30
0.0
 11
47.53302181409401
 21
8.041694945330817
 31
0.0
 11
47.53295334438109
 21
8.054198717457126
 31
0.0
 11
47.53274794494172
 21
8.066700823261129
 31
0.0
 11
47.53240564102583
 21
8.079200050246726
 31
0.0
 11
47.53192646315404
 21
8.091694945330829
 31
0.0
  0
SPLINE
  5
188
330
2
100
AcDbEntity
  8
GAIKEI
  6
Continuous
 62
     1
100
AcDbSpline
210
0.0
220
0.0
230
1.0
 70
     8
 71
     3
 72
    11
 73
     7
 74
     5
 42
0.0000000001
 43
0.0000000001
 44
0.00000001
 40
0.0
 40
0.0
 40
0.0
 40
0.0
 40
0.0125040894476195
 40
0.0250080121930716
 40
0.0375117954630048
 40
0.0500157454203612
 40
0.0500157454203612
 40
0.0500157454203612
 40
0.0500157454203612
 10
47.53192646315404
 20
7.991694945330806
 30
0.0
 10
47.53209596521332
 20
7.99585957436281
 30
0.0
 10
47.53243495208328
 20
8.004188777467902
 30
0.0
 10
47.53276749473845
 20
8.016688611791209
 30
0.0
 10
47.53298267341493
 20
8.029190970679366
 30
0.0
 10
47.53300877214274
 20
8.037526935228044
 30
0.0
 10
47.53302181409401
 20
8.041694945330817
 30
0.0
 11
47.53192646315404
 21
7.991694945330806
 31
0.0
 11
47.53240564133415
 21
8.004189849992229
 31
0.0
 11
47.53274794534786
 21
8.016689086560205
 31
0.0
 11
47.53295334447216
 21
8.029191182786718
 31
0.0
 11
47.53302181409401
 21
8.041694945330817
 31
0.0
  0
SPLINE
  5
189
330
2
100
AcDbEntity
  8
GAIKEI
  6
Continuous
 62
     1
100
AcDbSpline
210
0.0
220
0.0
230
1.0
 70
    24
 71
     3
 72
     9
 73
     5
 74
     3
 42
0.0000000001
 43
0.0000000001
 44
0.00000001
 40
0.0
 40
0.0
 40
0.0
 40
0.0
 40
0.0027782538627462
 40
0.0055565077253244
 40
0.0055565077253244
 40
0.0055565077253244
 40
0.0055565077253244
 10
47.53192646315404
 20
7.841694945330829
 30
0.0
 10
47.53208421422068
 20
7.842607495234176
 30
0.0
 10
47.53239971635397
 20
7.844432595040757
 30
0.0
 10
47.53271521848731
 20
7.846257694847338
 30
0.0
 10
47.53287296955398
 20
7.847170244750628
 30
0.0
 11
47.53192646315404
 21
7.841694945330829
 31
0.0
 11
47.53239971635401
 21
7.844432595040842
 31
0.0
 11
47.53287296955398
 21
7.847170244750628
 31
0.0
  0
SPLINE
  5
18A
330
2
100
AcDbEntity
  8
GAIKEI
  6
Continuous
 62
     1
100
AcDbSpline
210
0.0
220
0.0
230
1.0
 70
     8
 71
     3
 72
    27
 73
    23
 74
    21
 42
0.0000000001
 43
0.0000000001
 44
0.00000001
 40
0.0
 40
0.0
 40
0.0
 40
0.0
 40
0.0102611001428371
 40
0.0205221864273278
 40
0.028996971097007
 40
0.0374717346345822
 40
0.0456088749447296
 40
0.0537460076087636
 40
0.0614514450613011
 40
0.0691568718946857
 40
0.0763749996306843
 40
0.0835931174937128
 40
0.0902810294892834
 40
0.0969689322926697
 40
0.1031300863169915
 40
0.1092912332983662
 40
0.1149926747942899
 40
0.1206941107589088
 40
0.1259767356229304
 40
0.1312593586560196
 40
0.1369826049942624
 40
0.1427058489769952
 40
0.1427058489769952
 40
0.1427058489769952
 40
0.1427058489769952
 10
47.53287296955398
 20
7.847170244750628
 30
0.0
 10
47.53343890003208
 20
7.850543489800571
 30
0.0
 10
47.53457074574669
 20
7.857289977745438
 30
0.0
 10
47.53606269974804
 20
7.86683999462889
 30
0.0
 10
47.53739588515331
 20
7.875811746763133
 30
0.0
 10
47.53856316873616
 20
7.884092189624112
 30
0.0
 10
47.5396564575344
 20
7.892269168526013
 30
0.0
 10
47.54065997759974
 20
7.900199229080499
 30
0.0
 10
47.54159216463452
 20
7.907993068805865
 30
0.0
 10
47.54243810943228
 20
7.915488536771448
 30
0.0
 10
47.54321856517228
 20
7.922827760888026
 30
0.0
 10
47.54391949602573
 20
7.929834219662524
 30
0.0
 10
47.5445618099205
 20
7.936668785249167
 30
0.0
 10
47.54513370144297
 20
7.943155985785324
 30
0.0
 10
47.54565514697654
 20
7.949471258645786
 30
0.0
 10
47.54611766782389
 20
7.955461371603746
 30
0.0
 10
47.54653849868811
 20
7.961300925755892
 30
0.0
 10
47.54691092545612
 20
7.966850299053987
 30
0.0
 10
47.54724847471417
 20
7.972262030453521
 30
0.0
 10
47.54756126114219
 20
7.9776825253563
 30
0.0
 10
47.54785801987831
 20
7.983251029467822
 30
0.0
 10
47.54803719447378
 20
7.987062324643346
 30
0.0
 10
47.54812677443396
 20
7.988967972190636
 30
0.0
 11
47.53287296955398
 21
7.847170244750628
 31
0.0
 11
47.53455177213374
 21
7.857293080233631
 31
0.0
 11
47.53614081065444
 21
7.867430380143645
 31
0.0
 11
47.53738545082342
 21
7.875813270268821
 31
0.0
 11
47.53856870641044
 21
7.884205023607222
 31
0.0
 11
47.53964700309353
 21
7.892270402056425
 31
0.0
 11
47.54066859937916
 21
7.900343150653526
 31
0.0
 11
47.54158368568392
 21
7.907994058066009
 31
0.0
 11
47.54244784221316
 21
7.915650874445844
 31
0.0
 11
47.54321111625768
 21
7.922828532948329
 31
0.0
 11
47.54392963558603
 21
7.930010799745303
 31
0.0
 11
47.54455540912016
 21
7.936669371299814
 31
0.0
 11
47.54514271670098
 21
7.943331436637521
 31
0.0
 11
47.5456497106091
 21
7.949471695333357
 31
0.0
 11
47.54612402852337
 21
7.955614557488019
 31
0.0
 11
47.54653383520121
 21
7.961301251989226
 31
0.0
 11
47.54691563887718
 21
7.966989889680831
 31
0.0
 11
47.54724439584168
 21
7.97226227481596
 31
0.0
 11
47.54754909819479
 21
7.977536102963114
 31
0.0
 11
47.54785206105879
 21
7.983251325012901
 31
0.0
 11
47.54812677443396
 21
7.988967972190636
 31
0.0
  0
SPLINE
  5
18B
330
2
100
AcDbEntity
  8
GAIKEI
  6
Continuous
 62
     1
100
AcDbSpline
210
0.0
220
0.0
230
1.0
 70
    24
 71
     3
 72
     9
 73
     5
 74
     3
 42
0.0000000001
 43
0.0000000001
 44
0.00000001
 40
0.0
 40
0.0
 40
0.0
 40
0.0
 40
0.0013648297197093
 40
0.0027296594394742
 40
0.0027296594394742
 40
0.0027296594394742
 40
0.0027296594394742
 10
47.54812677443396
 20
7.988967972190636
 30
0.0
 10
47.54814695290732
 20
7.989422467714007
 30
0.0
 10
47.54818730985403
 20
7.990331458760806
 30
0.0
 10
47.54822766680064
 20
7.991240449807406
 30
0.0
 10
47.54824784527397
 20
7.991694945330806
 30
0.0
 11
47.54812677443396
 21
7.988967972190636
 31
0.0
 11
47.54818730985397
 21
7.990331458760664
 31
0.0
 11
47.54824784527397
 21
7.991694945330806
 31
0.0
  0
SPLINE
  5
18C
330
2
100
AcDbEntity
  8
GAIKEI
  6
Continuous
 62
     1
100
AcDbSpline
210
0.0
220
0.0
230
1.0
 70
    24
 71
     3
 72
     9
 73
     5
 74
     3
 42
0.0000000001
 43
0.0000000001
 44
0.00000001
 40
0.0
 40
0.0
 40
0.0
 40
0.0
 40
0.0016671424278263
 40
0.0033342848557646
 40
0.0033342848557646
 40
0.0033342848557646
 40
0.0033342848557646
 10
47.53342832183398
 20
6.252931935550833
 30
0.0
 10
47.53333576313062
 20
6.253479887277478
 30
0.0
 10
47.533150645724
 20
6.254575790730797
 30
0.0
 10
47.53296552831734
 20
6.255671694184144
 30
0.0
 10
47.532872969614
 20
6.256219645910817
 30
0.0
 11
47.53342832183398
 21
6.252931935550833
 31
0.0
 11
47.53315064572399
 21
6.254575790730797
 31
0.0
 11
47.532872969614
 21
6.256219645910817
 31
0.0
  0
SPLINE
  5
18D
330
2
100
AcDbEntity
  8
GAIKEI
  6
Continuous
 62
     1
100
AcDbSpline
210
0.0
220
0.0
230
1.0
 70
    24
 71
     3
 72
     9
 73
     5
 74
     3
 42
0.0000000001
 43
0.0000000001
 44
0.00000001
 40
0.0
 40
0.0
 40
0.0
 40
0.0
 40
0.0027782538678587
 40
0.0055565077357735
 40
0.0055565077357735
 40
0.0055565077357735
 40
0.0055565077357735
 10
47.532872969614
 20
6.256219645910817
 30
0.0
 10
47.53271521853733
 20
6.257132195814165
 30
0.0
 10
47.53239971638407
 20
6.258957295620888
 30
0.0
 10
47.53208421423069
 20
6.260782395427497
 30
0.0
 10
47.53192646315404
 20
6.261694945330845
 30
0.0
 11
47.532872969614
 21
6.256219645910817
 31
0.0
 11
47.53239971638402
 21
6.258957295620831
 31
0.0
 11
47.53192646315404
 21
6.261694945330845
 31
0.0
  0
SPLINE
  5
18E
330
2
100
AcDbEntity
  8
GAIKEI
  6
Continuous
 62
     1
100
AcDbSpline
210
0.0
220
0.0
230
1.0
 70
    24
 71
     3
 72
     9
 73
     5
 74
     3
 42
0.0000000001
 43
0.0000000001
 44
0.00000001
 40
0.0
 40
0.0
 40
0.0
 40
0.0
 40
0.0013648297195945
 40
0.0027296594393038
 40
0.0027296594393038
 40
0.0027296594393038
 40
0.0027296594393038
 10
47.54824784527397
 20
12.36169494533081
 30
0.0
 10
47.54822766680064
 20
12.36214944085412
 30
0.0
 10
47.54818730985403
 20
12.36305843190087
 30
0.0
 10
47.54814695290732
 20
12.36396742294747
 30
0.0
 10
47.54812677443396
 20
12.36442191847081
 30
0.0
 11
47.54824784527397
 21
12.36169494533081
 31
0.0
 11
47.54818730985397
 21
12.36305843190072
 31
0.0
 11
47.54812677443396
 21
12.36442191847081
 31
0.0
  0
SPLINE
  5
18F
330
2
100
AcDbEntity
  8
GAIKEI
  6
Continuous
 62
     1
100
AcDbSpline
210
0.0
220
0.0
230
1.0
 70
     8
 71
     3
 72
    29
 73
    25
 74
    23
 42
0.0000000001
 43
0.0000000001
 44
0.00000001
 40
0.0
 40
0.0
 40
0.0
 40
0.0
 40
0.005177095154907
 40
0.0103541932196675
 40
0.015211096695466
 40
0.0200680016235791
 40
0.0252883078436217
 40
0.0305086179403792
 40
0.0360935525409815
 40
0.0416784915412104
 40
0.0476643760985198
 40
0.0536502662540906
 40
0.0600427145462827
 40
0.0664351688665573
 40
0.0732061613388727
 40
0.0799771599597333
 40
0.0870945530875497
 40
0.0942119527244175
 40
0.1016401048383706
 40
0.1090682613429565
 40
0.1167613502308074
 40
0.1244544541546627
 40
0.1335801741721461
 40
0.1427058970024691
 40
0.1427058970024691
 40
0.1427058970024691
 40
0.1427058970024691
 10
47.54812677443396
 20
12.36442191847081
 30
0.0
 10
47.54804597719913
 20
12.36614572721868
 30
0.0
 10
47.54788436804864
 20
12.36959334498346
 30
0.0
 10
47.54761825965776
 20
12.37465674855264
 30
0.0
 10
47.54733786477622
 20
12.37961246886635
 30
0.0
 10
47.54703540256682
 20
12.38458132564992
 30
0.0
 10
47.54670355095387
 20
12.38966970666638
 30
0.0
 10
47.54633184708764
 20
12.3949986270716
 30
0.0
 10
47.54592627238873
 20
12.40044696846849
 30
0.0
 10
47.54547425225505
 20
12.40614768364577
 30
0.0
 10
47.54498252889071
 20
12.41197925347444
 30
0.0
 10
47.54443666557745
 20
12.41807630138453
 30
0.0
 10
47.5438454184546
 20
12.4243052672108
 30
0.0
 10
47.54319362833506
 20
12.43079126396907
 30
0.0
 10
47.54249165588324
 20
12.43739893474122
 30
0.0
 10
47.54172412711919
 20
12.44424252908234
 30
0.0
 10
47.54090201902265
 20
12.45119607450357
 30
0.0
 10
47.54001012798842
 20
12.45836180912414
 30
0.0
 10
47.53905983194715
 20
12.46562452259263
 30
0.0
 10
47.53803677913589
 20
12.4730710895617
 30
0.0
 10
47.53695281820289
 20
12.48059828735833
 30
0.0
 10
47.53573338517037
 20
12.48867745634604
 30
0.0
 10
47.53438542841576
 20
12.49722008373305
 30
0.0
 10
47.53337712742387
 20
12.50321979234579
 30
0.0
 10
47.532872969614
 20
12.50621964591082
 30
0.0
 11
47.54812677443396
 21
12.36442191847081
 31
0.0
 11
47.54787949537615
 21
12.36959310478343
 31
0.0
 11
47.54760910049992
 21
12.37476313686639
 31
0.0
 11
47.54733441869222
 21
12.3796122668817
 31
0.0
 11
47.54703940154854
 21
12.38446020365555
 31
0.0
 11
47.54669964241304
 21
12.38966944173993
 31
0.0
 11
47.54633640377841
 21
12.39487709916202
 31
0.0
 11
47.54592180602935
 21
12.4004466237271
 31
0.0
 11
47.54548035226679
 21
12.40601408839771
 31
0.0
 11
47.54497740140368
 21
12.41197880591571
 31
0.0
 11
47.54444362515608
 21
12.41794084957061
 31
0.0
 11
47.54383957518325
 21
12.42430469428322
 31
0.0
 11
47.54320040487295
 21
12.43066511362801
 31
0.0
 11
47.54248510650597
 21
12.43739821752169
 31
0.0
 11
47.54173045144773
 21
12.44412703010383
 31
0.0
 11
47.54089479057768
 21
12.45119519511192
 31
0.0
 11
47.54001570303825
 21
12.45825809702168
 31
0.0
 11
47.53905195909419
 21
12.46562346477643
 31
0.0
 11
47.53804098962717
 21
12.47298250346912
 31
0.0
 11
47.536944226613
 21
12.48059701121607
 31
0.0
 11
47.53579690045159
 21
12.48820407972661
 31
0.0
 11
47.53437042798918
 21
12.49721762193061
 31
0.0
 11
47.532872969614
 21
12.50621964591082
 31
0.0
  0
SPLINE
  5
190
330
2
100
AcDbEntity
  8
GAIKEI
  6
Continuous
 62
     1
100
AcDbSpline
210
0.0
220
0.0
230
1.0
 70
    24
 71
     3
 72
     9
 73
     5
 74
     3
 42
0.0000000001
 43
0.0000000001
 44
0.00000001
 40
0.0
 40
0.0
 40
0.0
 40
0.0
 40
0.0027782538678587
 40
0.0055565077357735
 40
0.0055565077357735
 40
0.0055565077357735
 40
0.0055565077357735
 10
47.532872969614
 20
12.50621964591082
 30
0.0
 10
47.53271521853733
 20
12.50713219581416
 30
0.0
 10
47.53239971638407
 20
12.50895729562086
 30
0.0
 10
47.53208421423069
 20
12.51078239542749
 30
0.0
 10
47.53192646315404
 20
12.51169494533084
 30
0.0
 11
47.532872969614
 21
12.50621964591082
 31
0.0
 11
47.53239971638402
 21
12.50895729562083
 31
0.0
 11
47.53192646315404
 21
12.51169494533084
 31
0.0
  0
SPLINE
  5
191
330
2
100
AcDbEntity
  8
GAIKEI
  6
Continuous
 62
     1
100
AcDbSpline
210
0.0
220
0.0
230
1.0
 70
     8
 71
     3
 72
    11
 73
     7
 74
     5
 42
0.0000000001
 43
0.0000000001
 44
0.00000001
 40
0.0
 40
0.0
 40
0.0
 40
0.0
 40
0.0125039595400339
 40
0.0250077523913414
 40
0.0375116655553275
 40
0.0500157454207327
 40
0.0500157454207327
 40
0.0500157454207327
 40
0.0500157454207327
 10
47.53302181409401
 20
12.3116949453308
 30
0.0
 10
47.53300877212848
 20
12.31586295862783
 30
0.0
 10
47.53298267337214
 20
12.32419892956477
 30
0.0
 10
47.53276749447318
 20
12.33670129164454
 30
0.0
 10
47.53243495172958
 20
12.34920112276947
 30
0.0
 10
47.53209596509544
 20
12.35753031949079
 30
0.0
 10
47.53192646315404
 20
12.36169494533081
 30
0.0
 11
47.53302181409401
 21
12.3116949453308
 31
0.0
 11
47.53295334438109
 21
12.32419871745722
 31
0.0
 11
47.53274794494172
 21
12.33670082326122
 31
0.0
 11
47.53240564102583
 21
12.34920005024682
 31
0.0
 11
47.53192646315404
 21
12.36169494533081
 31
0.0
  0
SPLINE
  5
192
330
2
100
AcDbEntity
  8
GAIKEI
  6
Continuous
 62
     1
100
AcDbSpline
210
0.0
220
0.0
230
1.0
 70
     8
 71
     3
 72
    11
 73
     7
 74
     5
 42
0.0000000001
 43
0.0000000001
 44
0.00000001
 40
0.0
 40
0.0
 40
0.0
 40
0.0
 40
0.012504089447449
 40
0.0250080121928444
 40
0.0375117954628912
 40
0.0500157454203045
 40
0.0500157454203045
 40
0.0500157454203045
 40
0.0500157454203045
 10
47.53192646315404
 20
12.26169494533084
 30
0.0
 10
47.53209596521334
 20
12.26585957436282
 30
0.0
 10
47.53243495208329
 20
12.27418877746777
 30
0.0
 10
47.53276749473847
 20
12.28668861179108
 30
0.0
 10
47.53298267341492
 20
12.29919097067923
 30
0.0
 10
47.53300877214273
 20
12.30752693522802
 30
0.0
 10
47.53302181409401
 20
12.3116949453308
 30
0.0
 11
47.53192646315404
 21
12.26169494533084
 31
0.0
 11
47.53240564133415
 21
12.2741898499921
 31
0.0
 11
47.53274794534786
 21
12.28668908656002
 31
0.0
 11
47.53295334447216
 21
12.29919118278664
 31
0.0
 11
47.53302181409401
 21
12.3116949453308
 31
0.0
  0
SPLINE
  5
193
330
2
100
AcDbEntity
  8
GAIKEI
  6
Continuous
 62
     1
100
AcDbSpline
210
0.0
220
0.0
230
1.0
 70
    24
 71
     3
 72
     9
 73
     5
 74
     3
 42
0.0000000001
 43
0.0000000001
 44
0.00000001
 40
0.0
 40
0.0
 40
0.0
 40
0.0
 40
0.0027782538625782
 40
0.0055565077253244
 40
0.0055565077253244
 40
0.0055565077253244
 40
0.0055565077253244
 10
47.53192646315404
 20
12.11169494533081
 30
0.0
 10
47.5320842142207
 20
12.1126074952341
 30
0.0
 10
47.53239971635406
 20
12.11443259504074
 30
0.0
 10
47.53271521848731
 20
12.11625769484726
 30
0.0
 10
47.53287296955398
 20
12.11717024475061
 30
0.0
 11
47.53192646315404
 21
12.11169494533081
 31
0.0
 11
47.53239971635401
 21
12.1144325950406
 31
0.0
 11
47.53287296955398
 21
12.11717024475061
 31
0.0
  0
SPLINE
  5
194
330
2
100
AcDbEntity
  8
GAIKEI
  6
Continuous
 62
     1
100
AcDbSpline
210
0.0
220
0.0
230
1.0
 70
     8
 71
     3
 72
    27
 73
    23
 74
    21
 42
0.0000000001
 43
0.0000000001
 44
0.00000001
 40
0.0
 40
0.0
 40
0.0
 40
0.0
 40
0.0102611001428371
 40
0.0205221864273278
 40
0.0289969710971111
 40
0.0374717346348068
 40
0.0456088749449542
 40
0.0537460076088754
 40
0.0614514450614062
 40
0.0691568718946841
 40
0.0763749996306828
 40
0.0835931174938244
 40
0.090281029489395
 40
0.0969689322926681
 40
0.1031300863167632
 40
0.109291233298138
 40
0.1149926747941184
 40
0.1206941107587373
 40
0.1259767356228156
 40
0.1312593586560182
 40
0.1369826049943179
 40
0.1427058489769939
 40
0.1427058489769939
 40
0.1427058489769939
 40
0.1427058489769939
 10
47.53287296955398
 20
12.11717024475061
 30
0.0
 10
47.53343890003208
 20
12.12054348980049
 30
0.0
 10
47.5345707457467
 20
12.12728997774542
 30
0.0
 10
47.53606269974807
 20
12.13683999462887
 30
0.0
 10
47.5373958851532
 20
12.14581174676323
 30
0.0
 10
47.53856316873616
 20
12.15409218962423
 30
0.0
 10
47.53965645753436
 20
12.16226916852625
 30
0.0
 10
47.5406599775998
 20
12.17019922908062
 30
0.0
 10
47.54159216463441
 20
12.17799306880599
 30
0.0
 10
47.54243810943231
 20
12.1854885367714
 30
0.0
 10
47.54321856517231
 20
12.19282776088806
 30
0.0
 10
47.54391949602572
 20
12.1998342196625
 30
0.0
 10
47.5445618099205
 20
12.20666878524923
 30
0.0
 10
47.54513370144297
 20
12.21315598578533
 30
0.0
 10
47.54565514697659
 20
12.21947125864568
 30
0.0
 10
47.54611766782388
 20
12.2254613716035
 30
0.0
 10
47.54653849868812
 20
12.23130092575567
 30
0.0
 10
47.5469109254561
 20
12.2368502990538
 30
0.0
 10
47.54724847471417
 20
12.24226203045342
 30
0.0
 10
47.54756126114218
 20
12.2476825253562
 30
0.0
 10
47.54785801987833
 20
12.25325102946789
 30
0.0
 10
47.54803719447376
 20
12.25706232464333
 30
0.0
 10
47.54812677443396
 20
12.25896797219062
 30
0.0
 11
47.53287296955398
 21
12.11717024475061
 31
0.0
 11
47.53455177213374
 21
12.12729308023361
 31
0.0
 11
47.53614081065444
 21
12.13743038014363
 31
0.0
 11
47.53738545082336
 21
12.14581327026891
 31
0.0
 11
47.53856870641044
 21
12.15420502360743
 31
0.0
 11
47.53964700309353
 21
12.16227040205663
 31
0.0
 11
47.54066859937916
 21
12.17034315065362
 31
0.0
 11
47.54158368568385
 21
12.1779940580661
 31
0.0
 11
47.54244784221316
 21
12.18565087444583
 31
0.0
 11
47.54321111625768
 21
12.19282853294831
 31
0.0
 11
47.54392963558603
 21
12.2000107997454
 31
0.0
 11
47.54455540912016
 21
12.20666937129991
 31
0.0
 11
47.54514271670098
 21
12.2133314366375
 31
0.0
 11
47.5456497106091
 21
12.21947169533311
 31
0.0
 11
47.54612402852337
 21
12.22561455748777
 31
0.0
 11
47.54653383520121
 21
12.23130125198904
 31
0.0
 11
47.54691563887718
 21
12.23698988968064
 31
0.0
 11
47.54724439584168
 21
12.24226227481583
 31
0.0
 11
47.54754909819479
 21
12.24753610296309
 31
0.0
 11
47.54785206105879
 21
12.25325132501294
 31
0.0
 11
47.54812677443396
 21
12.25896797219062
 31
0.0
  0
SPLINE
  5
195
330
2
100
AcDbEntity
  8
GAIKEI
  6
Continuous
 62
     1
100
AcDbSpline
210
0.0
220
0.0
230
1.0
 70
    24
 71
     3
 72
     9
 73
     5
 74
     3
 42
0.0000000001
 43
0.0000000001
 44
0.00000001
 40
0.0
 40
0.0
 40
0.0
 40
0.0
 40
0.0013648297197655
 40
0.002729659439531
 40
0.002729659439531
 40
0.002729659439531
 40
0.002729659439531
 10
47.54812677443396
 20
12.25896797219062
 30
0.0
 10
47.54814695290733
 20
12.25942246771399
 30
0.0
 10
47.54818730985395
 20
12.26033145876073
 30
0.0
 10
47.54822766680063
 20
12.26124044980747
 30
0.0
 10
47.54824784527397
 20
12.26169494533084
 30
0.0
 11
47.54812677443396
 21
12.25896797219062
 31
0.0
 11
47.54818730985397
 21
12.2603314587607
 31
0.0
 11
47.54824784527397
 21
12.26169494533084
 31
0.0
  0
SPLINE
  5
196
330
2
100
AcDbEntity
  8
GAIKEI
  6
Continuous
 62
     1
100
AcDbSpline
210
0.0
220
0.0
230
1.0
 70
    24
 71
     3
 72
     9
 73
     5
 74
     3
 42
0.0000000001
 43
0.0000000001
 44
0.00000001
 40
0.0
 40
0.0
 40
0.0
 40
0.0
 40
0.0013648297195661
 40
0.002729659439136
 40
0.002729659439136
 40
0.002729659439136
 40
0.002729659439136
 10
47.67824784527403
 20
5.991694945330806
 30
0.0
 10
47.67822766680069
 20
5.992149440854092
 30
0.0
 10
47.67818730985405
 20
5.993058431900749
 30
0.0
 10
47.67814695290735
 20
5.993967422947349
 30
0.0
 10
47.67812677443396
 20
5.994421918470635
 30
0.0
 11
47.67824784527403
 21
5.991694945330806
 31
0.0
 11
47.67818730985402
 21
5.99305843190072
 31
0.0
 11
47.67812677443396
 21
5.994421918470635
 31
0.0
  0
SPLINE
  5
197
330
2
100
AcDbEntity
  8
GAIKEI
  6
Continuous
 62
     1
100
AcDbSpline
210
0.0
220
0.0
230
1.0
 70
     8
 71
     3
 72
    29
 73
    25
 74
    23
 42
0.0000000001
 43
0.0000000001
 44
0.00000001
 40
0.0
 40
0.0
 40
0.0
 40
0.0
 40
0.0051770951550773
 40
0.0103541932200082
 40
0.0152110966957499
 40
0.0200680016238062
 40
0.0252883078437921
 40
0.0305086179407725
 40
0.0360935525413832
 40
0.0416784915413765
 40
0.0476643760986292
 40
0.0536502662542618
 40
0.060042714546567
 40
0.0664351688669547
 40
0.0732061613392701
 40
0.0799771599600114
 40
0.0870945530878345
 40
0.0942119527247587
 40
0.1016401048385427
 40
0.1090682613431208
 40
0.1167613502310362
 40
0.1244544541549392
 40
0.1335801741723191
 40
0.142705897002474
 40
0.142705897002474
 40
0.142705897002474
 40
0.142705897002474
 10
47.67812677443396
 20
5.994421918470635
 30
0.0
 10
47.67804597719916
 20
5.996145727218561
 30
0.0
 10
47.67788436804865
 20
5.999593344983509
 30
0.0
 10
47.67761825965776
 20
6.004656748552633
 30
0.0
 10
47.67733786477626
 20
6.009612468866521
 30
0.0
 10
47.67703540256678
 20
6.014581325649942
 30
0.0
 10
47.67670355095385
 20
6.019669706666491
 30
0.0
 10
47.67633184708777
 20
6.024998627071795
 30
0.0
 10
47.67592627238861
 20
6.030446968468595
 30
0.0
 10
47.67547425225515
 20
6.036147683645822
 30
0.0
 10
47.67498252889076
 20
6.04197925347438
 30
0.0
 10
47.67443666557745
 20
6.048076301384583
 30
0.0
 10
47.67384541845463
 20
6.054305267210935
 30
0.0
 10
47.6731936283351
 20
6.060791263969292
 30
0.0
 10
47.67249165588324
 20
6.067398934741419
 30
0.0
 10
47.67172412711929
 20
6.074242529082511
 30
0.0
 10
47.67090201902258
 20
6.081196074503679
 30
0.0
 10
47.67001012798843
 20
6.088361809124222
 30
0.0
 10
47.6690598319471
 20
6.095624522592686
 30
0.0
 10
47.66803677913597
 20
6.103071089561751
 30
0.0
 10
47.66695281820278
 20
6.1105982873583
 30
0.0
 10
47.66573338517048
 20
6.118677456346176
 30
0.0
 10
47.66438542841571
 20
6.127220083732936
 30
0.0
 10
47.66337712742386
 20
6.13321979234567
 30
0.0
 10
47.662872969614
 20
6.136219645910642
 30
0.0
 11
47.67812677443396
 21
5.994421918470635
 31
0.0
 11
47.67787949537614
 21
5.999593104783428
 31
0.0
 11
47.67760910049992
 21
6.004763136866557
 31
0.0
 11
47.67733441869222
 21
6.009612266881816
 31
0.0
 11
47.67703940154854
 21
6.014460203655602
 31
0.0
 11
47.67669964241304
 21
6.019669441739921
 31
0.0
 11
47.67633640377846
 21
6.024877099162239
 31
0.0
 11
47.67592180602929
 21
6.030446623727328
 31
0.0
 11
47.67548035226684
 21
6.036014088397706
 31
0.0
 11
47.67497740140373
 21
6.041978805915647
 31
0.0
 11
47.67444362515607
 21
6.047940849570608
 31
0.0
 11
47.67383957518325
 21
6.054304694283331
 31
0.0
 11
47.67320040487294
 21
6.060665113628232
 31
0.0
 11
47.67248510650597
 21
6.067398217521912
 31
0.0
 11
47.67173045144779
 21
6.074127030103937
 31
0.0
 11
47.67089479057768
 21
6.08119519511203
 31
0.0
 11
47.67001570303825
 21
6.088258097021849
 31
0.0
 11
47.66905195909418
 21
6.095623464776423
 31
0.0
 11
47.66804098962722
 21
6.102982503469121
 31
0.0
 11
47.66694422661299
 21
6.110597011216128
 31
0.0
 11
47.66579690045165
 21
6.118204079726723
 31
0.0
 11
47.66437042798918
 21
6.127217621930611
 31
0.0
 11
47.662872969614
 21
6.136219645910642
 31
0.0
  0
SPLINE
  5
198
330
2
100
AcDbEntity
  8
GAIKEI
  6
Continuous
 62
     1
100
AcDbSpline
210
0.0
220
0.0
230
1.0
 70
    24
 71
     3
 72
     9
 73
     5
 74
     3
 42
0.0000000001
 43
0.0000000001
 44
0.00000001
 40
0.0
 40
0.0
 40
0.0
 40
0.0
 40
0.0027782538680524
 40
0.0055565077359512
 40
0.0055565077359512
 40
0.0055565077359512
 40
0.0055565077359512
 10
47.662872969614
 20
6.136219645910642
 30
0.0
 10
47.66271521853735
 20
6.137132195814018
 30
0.0
 10
47.66239971638404
 20
6.13895729562077
 30
0.0
 10
47.66208421423067
 20
6.140782395427521
 30
0.0
 10
47.66192646315397
 20
6.14169494533084
 30
0.0
 11
47.662872969614
 21
6.136219645910642
 31
0.0
 11
47.66239971638401
 21
6.138957295620826
 31
0.0
 11
47.66192646315397
 21
6.14169494533084
 31
0.0
  0
SPLINE
  5
199
330
2
100
AcDbEntity
  8
GAIKEI
  6
Continuous
 62
     1
100
AcDbSpline
210
0.0
220
0.0
230
1.0
 70
     8
 71
     3
 72
    11
 73
     7
 74
     5
 42
0.0000000001
 43
0.0000000001
 44
0.00000001
 40
0.0
 40
0.0
 40
0.0
 40
0.0
 40
0.0125039595399199
 40
0.0250077523912275
 40
0.0375116655552151
 40
0.0500157454207361
 40
0.0500157454207361
 40
0.0500157454207361
 40
0.0500157454207361
 10
47.663021814094
 20
5.941694945330795
 30
0.0
 10
47.66300877212851
 20
5.94586295862777
 30
0.0
 10
47.66298267337221
 20
5.954198929564768
 30
0.0
 10
47.66276749447324
 20
5.966701291644369
 30
0.0
 10
47.66243495172962
 20
5.979201122769467
 30
0.0
 10
47.6620959650954
 20
5.987530319490758
 30
0.0
 10
47.66192646315397
 20
5.991694945330806
 30
0.0
 11
47.663021814094
 21
5.941694945330795
 31
0.0
 11
47.66295334438114
 21
5.954198717457103
 31
0.0
 11
47.66274794494177
 21
5.966700823261106
 31
0.0
 11
47.66240564102583
 21
5.979200050246703
 31
0.0
 11
47.66192646315397
 21
5.991694945330806
 31
0.0
  0
SPLINE
  5
19A
330
2
100
AcDbEntity
  8
GAIKEI
  6
Continuous
 62
     1
100
AcDbSpline
210
0.0
220
0.0
230
1.0
 70
     8
 71
     3
 72
    11
 73
     7
 74
     5
 42
0.0000000001
 43
0.0000000001
 44
0.00000001
 40
0.0
 40
0.0
 40
0.0
 40
0.0
 40
0.0125040894474512
 40
0.0250080121929602
 40
0.0375117954630071
 40
0.0500157454203066
 40
0.0500157454203066
 40
0.0500157454203066
 40
0.0500157454203066
 10
47.66192646315397
 20
5.89169494533084
 30
0.0
 10
47.6620959652133
 20
5.895859574362788
 30
0.0
 10
47.66243495208331
 20
5.904188777467879
 30
0.0
 10
47.66276749473843
 20
5.916688611791187
 30
0.0
 10
47.66298267341492
 20
5.929190970679286
 30
0.0
 10
47.66300877214274
 20
5.937526935228049
 30
0.0
 10
47.663021814094
 20
5.941694945330795
 30
0.0
 11
47.66192646315397
 21
5.89169494533084
 31
0.0
 11
47.66240564133414
 21
5.904189849992093
 31
0.0
 11
47.66274794534786
 21
5.916689086560126
 31
0.0
 11
47.66295334447216
 21
5.929191182786752
 31
0.0
 11
47.663021814094
 21
5.941694945330795
 31
0.0
  0
SPLINE
  5
19B
330
2
100
AcDbEntity
  8
GAIKEI
  6
Continuous
 62
     1
100
AcDbSpline
210
0.0
220
0.0
230
1.0
 70
    24
 71
     3
 72
     9
 73
     5
 74
     3
 42
0.0000000001
 43
0.0000000001
 44
0.00000001
 40
0.0
 40
0.0
 40
0.0
 40
0.0
 40
0.0027782538628071
 40
0.0055565077253341
 40
0.0055565077253341
 40
0.0055565077253341
 40
0.0055565077253341
 10
47.66192646315397
 20
5.741694945330806
 30
0.0
 10
47.66208421422064
 20
5.742607495234153
 30
0.0
 10
47.66239971635394
 20
5.744432595040791
 30
0.0
 10
47.66271521848731
 20
5.746257694847344
 30
0.0
 10
47.66287296955397
 20
5.747170244750606
 30
0.0
 11
47.66192646315397
 21
5.741694945330806
 31
0.0
 11
47.662399716354
 21
5.744432595040819
 31
0.0
 11
47.66287296955397
 21
5.747170244750606
 31
0.0
  0
SPLINE
  5
19C
330
2
100
AcDbEntity
  8
GAIKEI
  6
Continuous
 62
     1
100
AcDbSpline
210
0.0
220
0.0
230
1.0
 70
     8
 71
     3
 72
    27
 73
    23
 74
    21
 42
0.0000000001
 43
0.0000000001
 44
0.00000001
 40
0.0
 40
0.0
 40
0.0
 40
0.0
 40
0.0102611001428278
 40
0.0205221864273273
 40
0.0289969710970065
 40
0.0374717346345738
 40
0.0456088749447211
 40
0.0537460076088751
 40
0.0614514450613494
 40
0.0691568718946775
 40
0.0763749996306821
 40
0.083593117493705
 40
0.0902810294893374
 40
0.0969689322926672
 40
0.1031300863169843
 40
0.1092912332983546
 40
0.1149926747942783
 40
0.1206941107588973
 40
0.1259767356229259
 40
0.1312593586560751
 40
0.1369826049943149
 40
0.1427058489769909
 40
0.1427058489769909
 40
0.1427058489769909
 40
0.1427058489769909
 10
47.66287296955397
 20
5.747170244750606
 30
0.0
 10
47.66343890003206
 20
5.750543489800492
 30
0.0
 10
47.6645707457466
 20
5.757289977745386
 30
0.0
 10
47.66606269974803
 20
5.766839994628838
 30
0.0
 10
47.66739588515332
 20
5.77581174676311
 30
0.0
 10
47.66856316873608
 20
5.784092189624089
 30
0.0
 10
47.66965645753434
 20
5.792269168526104
 30
0.0
 10
47.67065997759975
 20
5.800199229080533
 30
0.0
 10
47.67159216463447
 20
5.807993068805956
 30
0.0
 10
47.67243810943222
 20
5.815488536771454
 30
0.0
 10
47.6732185651723
 20
5.822827760887918
 30
0.0
 10
47.67391949602566
 20
5.829834219662501
 30
0.0
 10
47.6745618099205
 20
5.836668785249145
 30
0.0
 10
47.67513370144302
 20
5.843155985785415
 30
0.0
 10
47.67565514697643
 20
5.849471258645621
 30
0.0
 10
47.67611766782375
 20
5.855461371603809
 30
0.0
 10
47.67653849868807
 20
5.861300925755841
 30
0.0
 10
47.67691092545589
 20
5.866850299054021
 30
0.0
 10
47.67724847471416
 20
5.87226203045347
 30
0.0
 10
47.6775612611423
 20
5.877682525356334
 30
0.0
 10
47.67785801987828
 20
5.883251029467857
 30
0.0
 10
47.67803719447377
 20
5.887062324643352
 30
0.0
 10
47.67812677443396
 20
5.888967972190613
 30
0.0
 11
47.66287296955397
 21
5.747170244750606
 31
0.0
 11
47.66455177213368
 21
5.757293080233608
 31
0.0
 11
47.66614081065443
 21
5.767430380143622
 31
0.0
 11
47.66738545082342
 21
5.775813270268798
 31
0.0
 11
47.66856870641038
 21
5.784205023607199
 31
0.0
 11
47.66964700309347
 21
5.792270402056402
 31
0.0
 11
47.67066859937915
 21
5.800343150653617
 31
0.0
 11
47.67158368568385
 21
5.807994058066043
 31
0.0
 11
47.6724478422131
 21
5.815650874445822
 31
0.0
 11
47.67321111625768
 21
5.822828532948307
 31
0.0
 11
47.67392963558598
 21
5.830010799745281
 31
0.0
 11
47.67455540912016
 21
5.836669371299848
 31
0.0
 11
47.67514271670097
 21
5.843331436637498
 31
0.0
 11
47.67564971060903
 21
5.849471695333335
 31
0.0
 11
47.67612402852324
 21
5.855614557487996
 31
0.0
 11
47.6765338352011
 21
5.861301251989203
 31
0.0
 11
47.67691563887706
 21
5.866989889680809
 31
0.0
 11
47.67724439584168
 21
5.872262274815938
 31
0.0
 11
47.67754909819484
 21
5.877536102963148
 31
0.0
 11
47.67785206105878
 21
5.883251325012935
 31
0.0
 11
47.67812677443396
 21
5.888967972190613
 31
0.0
  0
SPLINE
  5
19D
330
2
100
AcDbEntity
  8
GAIKEI
  6
Continuous
 62
     1
100
AcDbSpline
210
0.0
220
0.0
230
1.0
 70
    24
 71
     3
 72
     9
 73
     5
 74
     3
 42
0.0000000001
 43
0.0000000001
 44
0.00000001
 40
0.0
 40
0.0
 40
0.0
 40
0.0
 40
0.0013648297197106
 40
0.0027296594395335
 40
0.0027296594395335
 40
0.0027296594395335
 40
0.0027296594395335
 10
47.67812677443396
 20
5.888967972190613
 30
0.0
 10
47.67814695290731
 20
5.889422467713927
 30
0.0
 10
47.67818730985408
 20
5.89033145876084
 30
0.0
 10
47.67822766680069
 20
5.891240449807469
 30
0.0
 10
47.67824784527403
 20
5.89169494533084
 30
0.0
 11
47.67812677443396
 21
5.888967972190613
 31
0.0
 11
47.67818730985402
 21
5.890331458760641
 31
0.0
 11
47.67824784527403
 21
5.89169494533084
 31
0.0
  0
SPLINE
  5
19E
330
2
100
AcDbEntity
  8
GAIKEI
  6
Continuous
 62
     1
100
AcDbSpline
210
0.0
220
0.0
230
1.0
 70
     8
 71
     3
 72
    13
 73
     9
 74
     7
 42
0.0000000001
 43
0.0000000001
 44
0.00000001
 40
0.0
 40
0.0
 40
0.0
 40
0.0
 40
0.0062823373817884
 40
0.0125541792999917
 40
0.0160885138707425
 40
0.0196361519319883
 40
0.0240418902803985
 40
0.0284832001941509
 40
0.0284832001941509
 40
0.0284832001941509
 40
0.0284832001941509
 10
47.97096394649395
 20
11.60753086669061
 30
0.0
 10
47.96976569108188
 20
11.60581059329226
 30
0.0
 10
47.96737117112866
 20
11.60237292857476
 30
0.0
 10
47.96363430081294
 20
11.59849050882863
 30
0.0
 10
47.9601778374992
 20
11.59567100779554
 30
0.0
 10
47.95691148130797
 20
11.59366190732265
 30
0.0
 10
47.95304130803105
 20
11.59206102885582
 30
0.0
 10
47.95008657454736
 20
11.59181729511712
 30
0.0
 10
47.94860326673398
 20
11.59169494533083
 30
0.0
 11
47.97096394649395
 21
11.60753086669061
 31
0.0
 11
47.96723860280638
 21
11.60247225714911
 31
0.0
 11
47.96289189863637
 21
11.59795095513581
 31
0.0
 11
47.96013631564403
 21
11.5957377458823
 31
0.0
 11
47.95711131086664
 21
11.59388434410684
 31
0.0
 11
47.95300473237455
 21
11.5922885449315
 31
0.0
 11
47.94860326673398
 21
11.59169494533083
 31
0.0
  0
SPLINE
  5
19F
330
2
100
AcDbEntity
  8
GAIKEI
  6
Continuous
 62
     1
100
AcDbSpline
210
0.0
220
0.0
230
1.0
 70
     8
 71
     3
 72
    11
 73
     7
 74
     5
 42
0.0000000001
 43
0.0000000001
 44
0.00000001
 40
0.0
 40
0.0
 40
0.0
 40
0.0
 40
0.0056561975233595
 40
0.0113060256999748
 40
0.0172321552604093
 40
0.0231702521816372
 40
0.0231702521816372
 40
0.0231702521816372
 40
0.0231702521816372
 10
48.27221006447399
 20
11.7416949453308
 30
0.0
 10
48.27032352970161
 20
11.74175862539746
 30
0.0
 10
48.26655258551994
 20
11.741885928702
 30
0.0
 10
48.26088262705003
 20
11.74289396720473
 30
0.0
 10
48.2552458740208
 20
11.74448560381967
 30
0.0
 10
48.25164942177645
 20
11.74614369635944
 30
0.0
 10
48.24984938469396
 20
11.74697358579081
 30
0.0
 11
48.27221006447399
 21
11.7416949453308
 31
0.0
 11
48.26656319474619
 21
11.74201965877634
 31
0.0
 11
48.26099336890644
 21
11.74296708236503
 31
0.0
 11
48.25530509795396
 21
11.74462918932661
 31
0.0
 11
48.24984938469396
 21
11.74697358579081
 31
0.0
  0
SPLINE
  5
1A0
330
2
100
AcDbEntity
  8
GAIKEI
  6
Continuous
 62
     1
100
AcDbSpline
210
0.0
220
0.0
230
1.0
 70
     8
 71
     3
 72
    13
 73
     9
 74
     7
 42
0.0000000001
 43
0.0000000001
 44
0.00000001
 40
0.0
 40
0.0
 40
0.0
 40
0.0
 40
0.0062126085907533
 40
0.0124134010238831
 40
0.0159710748827727
 40
0.0195431190481681
 40
0.0239930750002024
 40
0.0284819722205895
 40
0.0284819722205895
 40
0.0284819722205895
 40
0.0284819722205895
 10
47.97096394649395
 20
10.67585902399079
 30
0.0
 10
47.96978099486253
 20
10.67756165756282
 30
0.0
 10
47.96741733057089
 20
10.68096367823909
 30
0.0
 10
47.96370927352938
 20
10.68481915441549
 30
0.0
 10
47.96026424297155
 20
10.68763949430851
 30
0.0
 10
47.95698793521144
 20
10.68968884135569
 30
0.0
 10
47.95308977794554
 20
10.69133171226059
 30
0.0
 10
47.95010310817454
 20
10.6915735212217
 30
0.0
 10
47.94860326673398
 20
10.69169494533079
 30
0.0
 11
47.97096394649395
 21
10.67585902399079
 31
0.0
 11
47.96728524452612
 21
10.68086538090537
 31
0.0
 11
47.96299215829918
 21
10.68533966771181
 31
0.0
 11
47.96022446467032
 21
10.68757504849591
 31
0.0
 11
47.95719077403936
 21
10.6894608475869
 31
0.0
 11
47.95305198010981
 21
10.69109563383571
 31
0.0
 11
47.94860326673398
 21
10.69169494533079
 31
0.0
  0
SPLINE
  5
1A1
330
2
100
AcDbEntity
  8
GAIKEI
  6
Continuous
 62
     1
100
AcDbSpline
210
0.0
220
0.0
230
1.0
 70
     8
 71
     3
 72
    11
 73
     7
 74
     5
 42
0.0000000001
 43
0.0000000001
 44
0.00000001
 40
0.0
 40
0.0
 40
0.0
 40
0.0
 40
0.005650295005584
 40
0.0113093372158273
 40
0.0172350355574941
 40
0.0231955720827035
 40
0.0231955720827035
 40
0.0231955720827035
 40
0.0231955720827035
 10
48.27221006447399
 20
10.54169494533081
 30
0.0
 10
48.27032835648001
 20
10.5415931176534
 30
0.0
 10
48.26656202856887
 20
10.54138928979256
 30
0.0
 10
48.26087273508138
 20
10.54056616154716
 30
0.0
 10
48.25516623477676
 20
10.53912272513324
 30
0.0
 10
48.25162512563274
 20
10.53732021054517
 30
0.0
 10
48.24984938469396
 20
10.53641630489082
 30
0.0
 11
48.27221006447399
 21
10.54169494533081
 31
0.0
 11
48.26657320606239
 21
10.54130551371693
 31
0.0
 11
48.26097418144883
 21
10.54048350691263
 31
0.0
 11
48.25525829234203
 21
10.53892064667818
 31
0.0
 11
48.24984938469396
 21
10.53641630489082
 31
0.0
  0
SPLINE
  5
1A2
330
2
100
AcDbEntity
  8
GAIKEI
  6
Continuous
 62
     1
100
AcDbSpline
210
0.0
220
0.0
230
1.0
 70
     8
 71
     3
 72
    51
 73
    47
 74
    45
 42
0.0000000001
 43
0.0000000001
 44
0.00000001
 40
0.0
 40
0.0
 40
0.0
 40
0.0
 40
0.0069608826480094
 40
0.0139217641794322
 40
0.0185557801185624
 40
0.0231897960836817
 40
0.0282532146943515
 40
0.0333166333337426
 40
0.0386057920486251
 40
0.043894950799951
 40
0.0492655157861927
 40
0.0546360808220368
 40
0.0600063154431948
 40
0.0653765501360512
 40
0.0707050931617317
 40
0.0760336362983757
 40
0.081281667147544
 40
0.0865296981873216
 40
0.0916511473958132
 40
0.096772597103868
 40
0.1017323390655668
 40
0.1066920841179074
 40
0.111475821459054
 40
0.1162595594425805
 40
0.1208649603405581
 40
0.1254703620265924
 40
0.1298836007184098
 40
0.1342968397320752
 40
0.1384819571440019
 40
0.1426670747951561
 40
0.1466089754056401
 40
0.1505508762168647
 40
0.154299520182704
 40
0.1580481643493135
 40
0.1616965396091655
 40
0.1653449151029733
 40
0.1689903096386719
 40
0.1726357043258918
 40
0.1763716601444539
 40
0.1801076161795318
 40
0.1840333228406752
 40
0.1879590283416712
 40
0.1921765960746491
 40
0.1963941641122918
 40
0.2033855849630912
 40
0.2103770132980141
 40
0.2103770132980141
 40
0.2103770132980141
 40
0.2103770132980141
 10
17.441283699714
 20
6.672128591290601
 30
0.0
 10
17.44360357964064
 20
6.67217243645976
 30
0.0
 10
17.44824333884564
 20
6.672260141430541
 30
0.0
 10
17.45442751982492
 20
6.672375675086755
 30
0.0
 10
17.45983622878111
 20
6.672475918835544
 30
0.0
 10
17.46461257210168
 20
6.672563716588115
 30
0.0
 10
17.46953204050418
 20
6.672653324174717
 30
0.0
 10
17.47466987093753
 20
6.672745952801449
 30
0.0
 10
17.47988295559383
 20
6.672838837306272
 30
0.0
 10
17.48519842793091
 20
6.672932313986819
 30
0.0
 10
17.49054105565699
 20
6.673024885423899
 30
0.0
 10
17.49591073054657
 20
6.673116417119246
 30
0.0
 10
17.50128032363301
 20
6.673206273566563
 30
0.0
 10
17.50663594124361
 20
6.673294091888749
 30
0.0
 10
17.51197769582951
 20
6.67337969299939
 30
0.0
 10
17.517278754741
 20
6.673462512798607
 30
0.0
 10
17.52255301559396
 20
6.673542577818381
 30
0.0
 10
17.52775829022972
 20
6.673619111922505
 30
0.0
 10
17.53292141469089
 20
6.673692328469115
 30
0.0
 10
17.53798849195117
 20
6.673761344611733
 30
0.0
 10
17.54300171364187
 20
6.673826563230079
 30
0.0
 10
17.5479024147663
 20
6.673887113984591
 30
0.0
 10
17.55274449393538
 20
6.673943478582089
 30
0.0
 10
17.55746850677582
 20
6.673994889350069
 30
0.0
 10
17.56213311852012
 20
6.674041780131574
 30
0.0
 10
17.5666742759015
 20
6.674083362148735
 30
0.0
 10
17.57115141874584
 20
6.674120128896731
 30
0.0
 10
17.57548850495132
 20
6.674151429699548
 30
0.0
 10
17.57974958255265
 20
6.674177735689738
 30
0.0
 10
17.58385357561769
 20
6.674198600905214
 30
0.0
 10
17.58787651810539
 20
6.674214494737952
 30
0.0
 10
17.59175398596957
 20
6.674225241675145
 30
0.0
 10
17.59556704528363
 20
6.674231171653246
 30
0.0
 10
17.59928226729052
 20
6.674232261203798
 30
0.0
 10
17.60296406479668
 20
6.674228555965299
 30
0.0
 10
17.60661143755578
 20
6.674219955685032
 30
0.0
 10
17.61025780149259
 20
6.674206309688685
 30
0.0
 10
17.61393333493872
 20
6.674187235839042
 30
0.0
 10
17.61763902361596
 20
6.674162650664897
 30
0.0
 10
17.62143810557529
 20
6.674131771435156
 30
0.0
 10
17.62530038640017
 20
6.674094814133269
 30
0.0
 10
17.62932313189621
 20
6.674050049120864
 30
0.0
 10
17.63344310404291
 20
6.673999605100448
 30
0.0
 10
17.63858486846702
 20
6.673933822349169
 30
0.0
 10
17.64465107689592
 20
6.6738481524863
 30
0.0
 10
17.64931135737083
 20
6.67376905253198
 30
0.0
 10
17.65164149873396
 20
6.67372949517059
 30
0.0
 11
17.441283699714
 21
6.672128591290601
 31
0.0
 11
17.44824334328075
 21
6.672259875456433
 31
0.0
 11
17.45520300960254
 21
6.672389946289428
 31
0.0
 11
17.45983623034459
 21
6.672475791538232
 31
0.0
 11
17.4644694637206
 21
6.672560952853217
 31
0.0
 11
17.46953204273677
 21
6.6726531571787
 31
0.0
 11
17.47459463897428
 21
6.672744412198511
 31
0.0
 11
17.47988295855214
 21
6.672838623085539
 31
0.0
 11
17.48517129998828
 21
6.672931600573548
 31
0.0
 11
17.49054105924335
 21
6.673024624121438
 31
0.0
 11
17.4959108446132
 21
6.673116130110742
 31
0.0
 11
17.50128032777371
 21
6.673205962194998
 31
0.0
 11
17.50664984111438
 21
6.673293975193843
 31
0.0
 11
17.51197770042643
 21
6.673379326483285
 31
0.0
 11
17.51730559385305
 21
6.673462525890187
 31
0.0
 11
17.52255302043403
 21
6.67354215069983
 31
0.0
 11
17.52780048468435
 21
6.673619259907496
 31
0.0
 11
17.5329214191268
 21
6.673691840676809
 31
0.0
 11
17.53804239373573
 21
6.673761539226717
 31
0.0
 11
17.54300171479019
 21
6.673826014072432
 31
0.0
 11
17.54796107725269
 21
6.673887234157717
 31
0.0
 11
17.55274449434608
 21
6.673942882425734
 31
0.0
 11
17.55752795283814
 21
6.673994871187431
 31
0.0
 11
17.562133122803
 21
6.674041102457834
 31
0.0
 11
17.56673833248629
 21
6.674083218128288
 31
0.0
 11
17.57115142313449
 21
6.674119406965104
 31
0.0
 11
17.57556454785128
 21
6.674151200611305
 31
0.0
 11
17.57974958598737
 21
6.674176985797231
 31
0.0
 11
17.58393464994827
 21
6.674198208908791
 31
0.0
 11
17.58787652009397
 21
6.674213730046034
 31
0.0
 11
17.59181840596403
 21
6.674224610935397
 31
0.0
 11
17.59556704553142
 21
6.674230393236626
 31
0.0
 11
17.59931568959922
 21
6.674231458014702
 31
0.0
 11
17.60296406301302
 21
6.674227744123044
 31
0.0
 11
17.60661242835522
 21
6.674219121191896
 31
0.0
 11
17.61025779725361
 21
6.674205440531949
 31
0.0
 11
17.61390314294789
 21
6.674186535352276
 31
0.0
 11
17.61763901644639
 21
6.674161730713336
 31
0.0
 11
17.62137484954701
 21
6.674131420773136
 31
0.0
 11
17.62530037599538
 21
6.674093804132809
 31
0.0
 11
17.62922584196633
 21
6.674050437924307
 31
0.0
 11
17.63344309879989
 21
6.67399922856012
 31
0.0
 11
17.63766031768682
 21
6.673944958109501
 31
0.0
 11
17.64465102179542
 21
6.673844841950113
 31
0.0
 11
17.65164149873396
 21
6.67372949517059
 31
0.0
  0
CIRCLE
  5
1A3
330
2
100
AcDbEntity
  8
GAIKEI
  6
Continuous
 62
     1
100
AcDbCircle
 10
21.090406665594
 20
11.04169494533081
 30
0.0
 40
0.25
  0
CIRCLE
  5
1A4
330
2
100
AcDbEntity
  8
GAIKEI
  6
Continuous
 62
     1
100
AcDbCircle
 10
21.090406665594
 20
7.041694945330817
 30
0.0
 40
0.25
  0
CIRCLE
  5
1A5
330
2
100
AcDbEntity
  8
GAIKEI
  6
Continuous
 62
     1
100
AcDbCircle
 10
23.69040666559403
 20
6.261694945330845
 30
0.0
 40
0.3150000000000092
  0
CIRCLE
  5
1A6
330
2
100
AcDbEntity
  8
GAIKEI
  6
Continuous
 62
     1
100
AcDbCircle
 10
44.96040666559395
 20
6.261694945330845
 30
0.0
 40
0.3150000000000092
  0
CIRCLE
  5
1A7
330
2
100
AcDbEntity
  8
GAIKEI
  6
Continuous
 62
     1
100
AcDbCircle
 10
21.090406665594
 20
11.04169494533081
 30
0.0
 40
0.415000000000191
  0
CIRCLE
  5
1A8
330
2
100
AcDbEntity
  8
GAIKEI
  6
Continuous
 62
     1
100
AcDbCircle
 10
21.090406665594
 20
7.041694945330817
 30
0.0
 40
0.415000000000191
  0
CIRCLE
  5
1A9
330
2
100
AcDbEntity
  8
GAIKEI
  6
Continuous
 62
     1
100
AcDbCircle
 10
48.11640666559395
 20
6.501694945330626
 30
0.0
 40
0.0990000000000009
  0
CIRCLE
  5
1AA
330
2
100
AcDbEntity
  8
GAIKEI
  6
Continuous
 62
     1
100
AcDbCircle
 10
21.79040666559399
 20
7.041694945330817
 30
0.0
 40
0.2100000000001955
  0
CIRCLE
  5
1AB
330
2
100
AcDbEntity
  8
GAIKEI
  6
Continuous
 62
     1
100
AcDbCircle
 10
44.96040666559395
 20
6.261694945330845
 30
0.0
 40
0.6000000000000001
  0
CIRCLE
  5
1AC
330
2
100
AcDbEntity
  8
GAIKEI
  6
Continuous
 62
     1
100
AcDbCircle
 10
23.69040666559403
 20
6.261694945330845
 30
0.0
 40
0.6000000000000001
  0
CIRCLE
  5
1AD
330
2
100
AcDbEntity
  8
GAIKEI
  6
Continuous
 62
     1
100
AcDbCircle
 10
44.96040666559395
 20
6.261694945330845
 30
0.0
 40
0.9143194516202131
  0
CIRCLE
  5
1AE
330
2
100
AcDbEntity
  8
GAIKEI
  6
Continuous
 62
     1
100
AcDbCircle
 10
23.69040666559403
 20
6.261694945330845
 30
0.0
 40
0.9143194516202131
  0
ARC
  5
1AF
330
2
100
AcDbEntity
  8
GAIKEI
  6
Continuous
 62
     7
100
AcDbCircle
 10
43.49040666559398
 20
9.041694945330817
 30
0.0
 40
26.00000000000009
100
AcDbArc
 50
170.8413906680007
 51
180.0
  0
ARC
  5
1B0
330
2
100
AcDbEntity
  8
GAIKEI
  6
Continuous
 62
     1
100
AcDbCircle
 10
46.39128738701401
 20
7.201694945330558
 30
0.0
 40
1.159119278599914
100
AcDbArc
 50
9.935811988603447
 51
12.45591011541195
  0
ARC
  5
1B1
330
2
100
AcDbEntity
  8
GAIKEI
  6
Continuous
 62
     1
100
AcDbCircle
 10
46.39128738701401
 20
7.201694945330558
 30
0.0
 40
1.159119278599918
100
AcDbArc
 50
348.4282321968086
 51
350.0641880114032
  0
ARC
  5
1B2
330
2
100
AcDbEntity
  8
GAIKEI
  6
Continuous
 62
     1
100
AcDbCircle
 10
46.39128738701401
 20
7.701694945330558
 30
0.0
 40
1.159119278599985
100
AcDbArc
 50
345.252170705508
 51
350.0641880114032
  0
ARC
  5
1B3
330
2
100
AcDbEntity
  8
GAIKEI
  6
Continuous
 62
     1
100
AcDbCircle
 10
47.50254960211401
 20
7.409169039250599
 30
0.0
 40
0.0100000000000279
100
AcDbArc
 50
275.0000000351124
 51
345.2521710239707
  0
ARC
  5
1B4
330
2
100
AcDbEntity
  8
GAIKEI
  6
Continuous
 62
     1
100
AcDbCircle
 10
46.52128738701401
 20
12.76169494533084
 30
0.0
 40
1.159119278599924
100
AcDbArc
 50
9.935811988596741
 51
14.74782929449193
  0
ARC
  5
1B5
330
2
100
AcDbEntity
  8
GAIKEI
  6
Continuous
 62
     1
100
AcDbCircle
 10
46.52128738701401
 20
12.76169494533084
 30
0.0
 40
1.159119278600084
100
AcDbArc
 50
345.2521707054875
 51
350.0641880113834
  0
ARC
  5
1B6
330
2
100
AcDbEntity
  8
GAIKEI
  6
Continuous
 62
     1
100
AcDbCircle
 10
47.63254960211395
 20
12.4691690392506
 30
0.0
 40
0.0099999999998438
100
AcDbArc
 50
275.0000000365116
 51
345.2521710230279
  0
ARC
  5
1B7
330
2
100
AcDbEntity
  8
GAIKEI
  6
Continuous
 62
     1
100
AcDbCircle
 10
47.63254960211395
 20
13.05422085141058
 30
0.0
 40
0.0099999999999119
100
AcDbArc
 50
14.74782897697205
 51
84.99999996368122
  0
ARC
  5
1B8
330
2
100
AcDbEntity
  8
GAIKEI
  6
Continuous
 62
     1
100
AcDbCircle
 10
46.39128738701401
 20
5.241694945330806
 30
0.0
 40
1.159119278599914
100
AcDbArc
 50
9.935811988603447
 51
14.74782929449905
  0
ARC
  5
1B9
330
2
100
AcDbEntity
  8
GAIKEI
  6
Continuous
 62
     1
100
AcDbCircle
 10
46.39128738701401
 20
5.241694945330806
 30
0.0
 40
1.159119278600031
100
AcDbArc
 50
345.2521707055009
 51
350.0641880113834
  0
ARC
  5
1BA
330
2
100
AcDbEntity
  8
GAIKEI
  6
Continuous
 62
     1
100
AcDbCircle
 10
47.50254960211401
 20
4.94916903925079
 30
0.0
 40
0.0100000000002091
100
AcDbArc
 50
275.0000000350207
 51
345.2521710229603
  0
ARC
  5
1BB
330
2
100
AcDbEntity
  8
GAIKEI
  6
Continuous
 62
     1
100
AcDbCircle
 10
47.50254960211401
 20
5.534220851410822
 30
0.0
 40
0.0099999999998679
100
AcDbArc
 50
14.74782897703959
 51
84.99999996487781
  0
ARC
  5
1BC
330
2
100
AcDbEntity
  8
GAIKEI
  6
Continuous
 62
     1
100
AcDbCircle
 10
46.39128738701401
 20
8.041694945330817
 30
0.0
 40
1.159119278599914
100
AcDbArc
 50
9.935811988603447
 51
14.74782929449905
  0
ARC
  5
1BD
330
2
100
AcDbEntity
  8
GAIKEI
  6
Continuous
 62
     1
100
AcDbCircle
 10
46.39128738701401
 20
8.041694945330817
 30
0.0
 40
1.159119278600031
100
AcDbArc
 50
345.2521707055009
 51
350.0641880113834
  0
ARC
  5
1BE
330
2
100
AcDbEntity
  8
GAIKEI
  6
Continuous
 62
     1
100
AcDbCircle
 10
47.50254960211401
 20
7.749169039250801
 30
0.0
 40
0.0100000000002091
100
AcDbArc
 50
275.0000000350207
 51
345.2521710229603
  0
ARC
  5
1BF
330
2
100
AcDbEntity
  8
GAIKEI
  6
Continuous
 62
     1
100
AcDbCircle
 10
47.50254960211401
 20
8.334220851410776
 30
0.0
 40
0.0099999999998679
100
AcDbArc
 50
14.74782897703959
 51
84.99999996487781
  0
ARC
  5
1C0
330
2
100
AcDbEntity
  8
GAIKEI
  6
Continuous
 62
     1
100
AcDbCircle
 10
46.39128738701401
 20
6.061694945330799
 30
0.0
 40
1.159119278599878
100
AcDbArc
 50
9.935811988596741
 51
14.74782929449193
  0
ARC
  5
1C1
330
2
100
AcDbEntity
  8
GAIKEI
  6
Continuous
 62
     1
100
AcDbCircle
 10
47.50254960211401
 20
6.354220851410644
 30
0.0
 40
0.0099999999998679
100
AcDbArc
 50
14.74782897703959
 51
84.99999996497924
  0
ARC
  5
1C2
330
2
100
AcDbEntity
  8
GAIKEI
  6
Continuous
 62
     1
100
AcDbCircle
 10
46.39128738701401
 20
12.3116949453308
 30
0.0
 40
1.159119278599878
100
AcDbArc
 50
9.935811988596741
 51
14.74782929449193
  0
ARC
  5
1C3
330
2
100
AcDbEntity
  8
GAIKEI
  6
Continuous
 62
     1
100
AcDbCircle
 10
46.39128738701401
 20
12.3116949453308
 30
0.0
 40
1.159119278600084
100
AcDbArc
 50
345.2521707054875
 51
350.0641880113834
  0
ARC
  5
1C4
330
2
100
AcDbEntity
  8
GAIKEI
  6
Continuous
 62
     1
100
AcDbCircle
 10
47.50254960211401
 20
12.01916903925061
 30
0.0
 40
0.009999999999824
100
AcDbArc
 50
275.0000000352139
 51
345.2521710229603
  0
ARC
  5
1C5
330
2
100
AcDbEntity
  8
GAIKEI
  6
Continuous
 62
     1
100
AcDbCircle
 10
47.50254960211401
 20
12.60422085141064
 30
0.0
 40
0.0099999999998679
100
AcDbArc
 50
14.74782897703959
 51
84.99999996497924
  0
ARC
  5
1C6
330
2
100
AcDbEntity
  8
GAIKEI
  6
Continuous
 62
     1
100
AcDbCircle
 10
46.52128738701401
 20
5.941694945330795
 30
0.0
 40
1.159119278599958
100
AcDbArc
 50
9.935811988603447
 51
14.74782929449905
  0
ARC
  5
1C7
330
2
100
AcDbEntity
  8
GAIKEI
  6
Continuous
 62
     1
100
AcDbCircle
 10
46.52128738701401
 20
5.941694945330795
 30
0.0
 40
1.159119278600031
100
AcDbArc
 50
345.2521707055009
 51
350.0641880113834
  0
ARC
  5
1C8
330
2
100
AcDbEntity
  8
GAIKEI
  6
Continuous
 62
     1
100
AcDbCircle
 10
47.63254960211395
 20
5.649169039250836
 30
0.0
 40
0.0100000000002289
100
AcDbArc
 50
275.0000000363187
 51
345.2521710230279
  0
ARC
  5
1C9
330
2
100
AcDbEntity
  8
GAIKEI
  6
Continuous
 62
     1
100
AcDbCircle
 10
47.63254960211395
 20
6.234220851410753
 30
0.0
 40
0.0099999999999119
100
AcDbArc
 50
14.74782897697205
 51
84.99999996357981
  0
ARC
  5
1CA
330
2
100
AcDbEntity
  8
GAIKEI
  6
Continuous
 62
     1
100
AcDbCircle
 10
17.455733462534
 20
7.952993268430844
 30
0.0
 40
0.0500000000000411
100
AcDbArc
 50
92.0000000001046
 51
155.7103161491433
  0
ARC
  5
1CB
330
2
100
AcDbEntity
  8
GAIKEI
  6
Continuous
 62
     1
100
AcDbCircle
 10
17.455733462534
 20
7.470396622230822
 30
0.0
 40
0.0500000000001697
100
AcDbArc
 50
204.289683851071
 51
267.9999999999018
  0
ARC
  5
1CC
330
2
100
AcDbEntity
  8
GAIKEI
  6
Continuous
 62
     1
100
AcDbCircle
 10
17.99040666559404
 20
7.711694945330833
 30
0.0
 40
0.6366006433799503
100
AcDbArc
 50
155.7103161491003
 51
204.2896838509142
  0
ARC
  5
1CD
330
2
100
AcDbEntity
  8
GAIKEI
  6
Continuous
 62
     1
100
AcDbCircle
 10
48.61040666559398
 20
11.79169494533081
 30
0.0
 40
0.05
100
AcDbArc
 50
0.0
 51
89.99999999999998
  0
ARC
  5
1CE
330
2
100
AcDbEntity
  8
GAIKEI
  6
Continuous
 62
     1
100
AcDbCircle
 10
47.94860326673398
 20
11.7416949453308
 30
0.0
 40
0.05
100
AcDbArc
 50
270.0
 51
296.5650511770896
  0
ARC
  5
1CF
330
2
100
AcDbEntity
  8
GAIKEI
  6
Continuous
 62
     1
100
AcDbCircle
 10
48.27221006447399
 20
11.79169494533081
 30
0.0
 40
0.05
100
AcDbArc
 50
89.99999999999998
 51
116.5650511770896
  0
ARC
  5
1D0
330
2
100
AcDbEntity
  8
GAIKEI
  6
Continuous
 62
     1
100
AcDbCircle
 10
48.61040666559398
 20
10.4916949453308
 30
0.0
 40
0.05
100
AcDbArc
 50
270.0
 51
0.0
  0
ARC
  5
1D1
330
2
100
AcDbEntity
  8
GAIKEI
  6
Continuous
 62
     1
100
AcDbCircle
 10
47.94860326673398
 20
10.54169494533081
 30
0.0
 40
0.0500000000000085
100
AcDbArc
 50
63.43494882291034
 51
89.99999999999998
  0
ARC
  5
1D2
330
2
100
AcDbEntity
  8
GAIKEI
  6
Continuous
 62
     1
100
AcDbCircle
 10
48.27221006447399
 20
10.4916949453308
 30
0.0
 40
0.0500000000000085
100
AcDbArc
 50
243.4349488229103
 51
270.0
  0
ARC
  5
1D3
330
2
100
AcDbEntity
  8
GAIKEI
  6
Continuous
 62
     1
100
AcDbCircle
 10
17.452560679974
 20
6.68654599237081
 30
0.0
 40
0.0200000000000782
100
AcDbArc
 50
91.00000000010275
 51
226.3254724459296
  0
ARC
  5
1D4
330
2
100
AcDbEntity
  8
GAIKEI
  6
Continuous
 62
     1
100
AcDbCircle
 10
13.09041108399401
 20
4.648342045150826
 30
0.0
 40
4.970000000000045
100
AcDbArc
 50
16.16119288820211
 51
18.94245080060006
  0
ARC
  5
1D5
330
2
100
AcDbEntity
  8
GAIKEI
  6
Continuous
 62
     7
100
AcDbCircle
 10
22.19872495795403
 20
3.691694945330795
 30
0.0
 40
0.1
100
AcDbArc
 50
270.0
 51
355.0302592677989
  0
ARC
  5
1D6
330
2
100
AcDbEntity
  8
GAIKEI
  6
Continuous
 62
     7
100
AcDbCircle
 10
20.38208837325397
 20
3.691694945330795
 30
0.0
 40
0.1000000000000232
100
AcDbArc
 50
184.9697407322075
 51
270.0
  0
ARC
  5
1D7
330
2
100
AcDbEntity
  8
GAIKEI
  6
Continuous
 62
     7
100
AcDbCircle
 10
43.19872495795396
 20
3.691694945330795
 30
0.0
 40
0.1
100
AcDbArc
 50
270.0
 51
355.0302592677989
  0
ARC
  5
1D8
330
2
100
AcDbEntity
  8
GAIKEI
  6
Continuous
 62
     7
100
AcDbCircle
 10
41.38208837325396
 20
3.691694945330795
 30
0.0
 40
0.1000000000000232
100
AcDbArc
 50
184.9697407322075
 51
270.0
  0
ARC
  5
1D9
330
2
100
AcDbEntity
  8
GAIKEI
  6
Continuous
 62
     1
100
AcDbCircle
 10
50.39783990893397
 20
9.914272287630836
 30
0.0
 40
0.0900000000000542
100
AcDbArc
 50
337.9999999998934
 51
158.0000000000198
  0
ARC
  5
1DA
330
2
100
AcDbEntity
  8
GAIKEI
  6
Continuous
 62
     1
100
AcDbCircle
 10
49.85840641441399
 20
8.579127537050823
 30
0.0
 40
0.089999999999964
100
AcDbArc
 50
235.2811572347372
 51
55.28115723473716
  0
ARC
  5
1DB
330
2
100
AcDbEntity
  8
GAIKEI
  6
Continuous
 62
     1
100
AcDbCircle
 10
47.26040666559396
 20
4.721694945330767
 30
0.0
 40
0.1
100
AcDbArc
 50
270.0
 51
0.0
  0
ARC
  5
1DC
330
2
100
AcDbEntity
  8
GAIKEI
  6
Continuous
 62
     7
100
AcDbCircle
 10
13.09041108399401
 20
4.648342045150826
 30
0.0
 40
5.000000000000009
100
AcDbArc
 50
2.861862736396442
 51
26.01908964109675
  0
ARC
  5
1DD
330
2
100
AcDbEntity
  8
GAIKEI
  6
Continuous
 62
     1
100
AcDbCircle
 10
18.06263276199399
 20
13.37182379107079
 30
0.0
 40
0.0200000000000178
100
AcDbArc
 50
91.99999999984401
 51
131.4127974889813
  0
ARC
  5
1DE
330
2
100
AcDbEntity
  8
GAIKEI
  6
Continuous
 62
     7
100
AcDbCircle
 10
17.841612532434
 20
13.17688049309063
 30
0.0
 40
0.020000000000183
100
AcDbArc
 50
131.4127974882475
 51
170.8413555678423
  0
ARC
  5
1DF
330
2
100
AcDbEntity
  8
GAIKEI
  6
Continuous
 62
     1
100
AcDbCircle
 10
18.10415020137401
 20
4.898981353430798
 30
0.0
 40
0.0200000000000306
100
AcDbArc
 50
182.8616976508214
 51
225.3863783494586
  0
ARC
  5
1E0
330
2
100
AcDbEntity
  8
GAIKEI
  6
Continuous
 62
     1
100
AcDbCircle
 10
13.09041108399401
 20
4.648342045150826
 30
0.0
 40
4.970000000000043
100
AcDbArc
 50
3.84212692430041
 51
7.317623211101511
  0
ARC
  5
1E1
330
2
100
AcDbEntity
  8
GAIKEI
  6
Continuous
 62
     7
100
AcDbCircle
 10
43.49040666559398
 20
9.041694945330817
 30
0.0
 40
26.00000000000009
100
AcDbArc
 50
180.0
 51
184.8539083529
  0
ARC
  5
1E2
330
2
100
AcDbEntity
  8
GAIKEI
  6
Continuous
 62
     7
100
AcDbCircle
 10
22.29040666559399
 20
4.841694945330772
 30
0.0
 40
0.2
100
AcDbArc
 50
270.0
 51
0.0
  0
ARC
  5
1E3
330
2
100
AcDbEntity
  8
GAIKEI
  6
Continuous
 62
     1
100
AcDbCircle
 10
22.29040666559399
 20
13.2416949453308
 30
0.0
 40
0.2
100
AcDbArc
 50
0.0
 51
89.99999999999998
  0
ARC
  5
1E4
330
2
100
AcDbEntity
  8
GAIKEI
  6
Continuous
 62
     1
100
AcDbCircle
 10
21.79040666559399
 20
10.9916949453308
 30
0.0
 40
0.2099999999999909
100
AcDbArc
 50
180.0
 51
0.0
  0
ARC
  5
1E5
330
2
100
AcDbEntity
  8
GAIKEI
  6
Continuous
 62
     1
100
AcDbCircle
 10
21.79040666559399
 20
11.09169494533083
 30
0.0
 40
0.2099999999999909
100
AcDbArc
 50
0.0
 51
180.0
  0
ARC
  5
1E6
330
2
100
AcDbEntity
  8
GAIKEI
  6
Continuous
 62
     7
100
AcDbCircle
 10
47.41040666559399
 20
13.3116949453308
 30
0.0
 40
0.0800000000000182
100
AcDbArc
 50
0.0
 51
89.99999999999998
  0
LINE
  5
1E7
330
2
100
AcDbEntity
  8
GAIKEI
  6
Continuous
 62
     1
100
AcDbLine
 10
17.50365294977399
 20
8.211914459330813
 30
0.0
 11
17.50363207835397
 21
8.212661667890841
 31
0.0
  0
LINE
  5
1E8
330
2
100
AcDbEntity
  8
GAIKEI
  6
Continuous
 62
     1
100
AcDbLine
 10
17.49824941463396
 20
8.405364006830808
 30
0.0
 11
17.49529240421395
 21
8.511226616490802
 31
0.0
  0
LINE
  5
1E9
330
2
100
AcDbEntity
  8
GAIKEI
  6
Continuous
 62
     7
100
AcDbLine
 10
20.19040666560051
 20
4.741694945330806
 30
0.0
 11
20.28246431443398
 21
3.683031983690597
 31
0.0
  0
LINE
  5
1EA
330
2
100
AcDbEntity
  8
GAIKEI
  6
Continuous
 62
     1
100
AcDbLine
 10
19.49040666559398
 20
4.64169494533084
 30
0.0
 11
19.49040666559398
 21
13.44169494533079
 31
0.0
  0
LINE
  5
1EB
330
2
100
AcDbEntity
  8
GAIKEI
  6
Continuous
 62
     1
100
AcDbLine
 10
19.720406665594
 20
13.44169494533079
 30
0.0
 11
19.720406665594
 21
4.64169494533084
 31
0.0
  0
LINE
  5
1EC
330
2
100
AcDbEntity
  8
GAIKEI
  6
Continuous
 62
     1
100
AcDbLine
 10
20.89040666559402
 20
6.991694945330806
 30
0.0
 11
20.89040666559402
 21
7.091694945330829
 31
0.0
  0
LINE
  5
1ED
330
2
100
AcDbEntity
  8
GAIKEI
  6
Continuous
 62
     1
100
AcDbLine
 10
20.89040666559402
 20
10.9916949453308
 30
0.0
 11
20.89040666559402
 21
11.09169494533083
 31
0.0
  0
LINE
  5
1EE
330
2
100
AcDbEntity
  8
GAIKEI
  6
Continuous
 62
     1
100
AcDbLine
 10
21.04040666559399
 20
6.841694945330829
 30
0.0
 11
21.04040666559399
 21
6.991694945330806
 31
0.0
  0
LINE
  5
1EF
330
2
100
AcDbEntity
  8
GAIKEI
  6
Continuous
 62
     1
100
AcDbLine
 10
21.04040666559399
 20
7.091694945330829
 30
0.0
 11
21.04040666559399
 21
7.241694945330806
 31
0.0
  0
LINE
  5
1F0
330
2
100
AcDbEntity
  8
GAIKEI
  6
Continuous
 62
     1
100
AcDbLine
 10
21.04040666559399
 20
10.84169494533083
 30
0.0
 11
21.04040666559399
 21
10.9916949453308
 31
0.0
  0
LINE
  5
1F1
330
2
100
AcDbEntity
  8
GAIKEI
  6
Continuous
 62
     1
100
AcDbLine
 10
21.04040666559399
 20
11.09169494533083
 30
0.0
 11
21.04040666559399
 21
11.2416949453308
 31
0.0
  0
LINE
  5
1F2
330
2
100
AcDbEntity
  8
GAIKEI
  6
Continuous
 62
     1
100
AcDbLine
 10
21.14040666559402
 20
11.2416949453308
 30
0.0
 11
21.14040666559402
 21
11.09169494533083
 31
0.0
  0
LINE
  5
1F3
330
2
100
AcDbEntity
  8
GAIKEI
  6
Continuous
 62
     1
100
AcDbLine
 10
21.14040666559402
 20
10.9916949453308
 30
0.0
 11
21.14040666559402
 21
10.84169494533083
 31
0.0
  0
LINE
  5
1F4
330
2
100
AcDbEntity
  8
GAIKEI
  6
Continuous
 62
     1
100
AcDbLine
 10
21.14040666559402
 20
7.241694945330806
 30
0.0
 11
21.14040666559402
 21
7.091694945330829
 31
0.0
  0
LINE
  5
1F5
330
2
100
AcDbEntity
  8
GAIKEI
  6
Continuous
 62
     1
100
AcDbLine
 10
21.14040666559402
 20
6.991694945330806
 30
0.0
 11
21.14040666559402
 21
6.841694945330829
 31
0.0
  0
LINE
  5
1F6
330
2
100
AcDbEntity
  8
GAIKEI
  6
Continuous
 62
     1
100
AcDbLine
 10
21.29040666559399
 20
11.09169494533083
 30
0.0
 11
21.29040666559399
 21
10.9916949453308
 31
0.0
  0
LINE
  5
1F7
330
2
100
AcDbEntity
  8
GAIKEI
  6
Continuous
 62
     1
100
AcDbLine
 10
21.29040666559399
 20
7.091694945330829
 30
0.0
 11
21.29040666559399
 21
6.991694945330806
 31
0.0
  0
LINE
  5
1F8
330
2
100
AcDbEntity
  8
GAIKEI
  6
Continuous
 62
     1
100
AcDbLine
 10
21.58040666559401
 20
11.09169494533083
 30
0.0
 11
21.58040666559401
 21
10.9916949453308
 31
0.0
  0
LINE
  5
1F9
330
2
100
AcDbEntity
  8
GAIKEI
  6
Continuous
 62
     1
100
AcDbLine
 10
22.00040666559397
 20
10.9916949453308
 30
0.0
 11
22.00040666559397
 21
11.09169494533083
 31
0.0
  0
LINE
  5
1FA
330
2
100
AcDbEntity
  8
GAIKEI
  6
Continuous
 62
     1
100
AcDbLine
 10
22.49040666559398
 20
4.841694945330829
 30
0.0
 11
22.49040666559398
 21
13.2416949453308
 31
0.0
  0
LINE
  5
1FB
330
2
100
AcDbEntity
  8
GAIKEI
  6
Continuous
 62
     7
100
AcDbLine
 10
22.39040666561323
 20
4.741694945330806
 30
0.0
 11
22.29834901677401
 21
3.683031983690597
 31
0.0
  0
LINE
  5
1FC
330
2
100
AcDbEntity
  8
GAIKEI
  6
Continuous
 62
     7
100
AcDbLine
 10
17.82838297415395
 20
13.19187978599061
 30
0.0
 11
18.049403174134
 21
13.38682305789083
 31
0.0
  0
LINE
  5
1FD
330
2
100
AcDbEntity
  8
GAIKEI
  6
Continuous
 62
     1
100
AcDbLine
 10
23.49040666559398
 20
6.211694945330833
 30
0.0
 11
23.49040666559398
 21
6.311694945330799
 31
0.0
  0
LINE
  5
1FE
330
2
100
AcDbEntity
  8
GAIKEI
  6
Continuous
 62
     1
100
AcDbLine
 10
23.64040666559402
 20
6.061694945330799
 30
0.0
 11
23.64040666559402
 21
6.211694945330833
 31
0.0
  0
LINE
  5
1FF
330
2
100
AcDbEntity
  8
GAIKEI
  6
Continuous
 62
     1
100
AcDbLine
 10
23.64040666559402
 20
6.311694945330799
 30
0.0
 11
23.64040666559402
 21
6.461694945330833
 31
0.0
  0
LINE
  5
200
330
2
100
AcDbEntity
  8
GAIKEI
  6
Continuous
 62
     1
100
AcDbLine
 10
23.74040666559398
 20
6.461694945330833
 30
0.0
 11
23.74040666559398
 21
6.311694945330799
 31
0.0
  0
LINE
  5
201
330
2
100
AcDbEntity
  8
GAIKEI
  6
Continuous
 62
     1
100
AcDbLine
 10
23.74040666559398
 20
6.211694945330833
 30
0.0
 11
23.74040666559398
 21
6.061694945330799
 31
0.0
  0
LINE
  5
202
330
2
100
AcDbEntity
  8
GAIKEI
  6
Continuous
 62
     1
100
AcDbLine
 10
23.89040666559401
 20
6.311694945330799
 30
0.0
 11
23.89040666559401
 21
6.211694945330833
 31
0.0
  0
LINE
  5
203
330
2
100
AcDbEntity
  8
GAIKEI
  6
Continuous
 62
     1
100
AcDbLine
 10
49.90966590269398
 20
8.653103647110611
 30
0.0
 11
47.49040666559397
 21
10.32945551775063
 31
0.0
  0
LINE
  5
204
330
2
100
AcDbEntity
  8
GAIKEI
  6
Continuous
 62
     1
100
AcDbLine
 10
49.80714692613401
 20
8.505151426970797
 30
0.0
 11
47.49040666559397
 21
10.11046590091084
 31
0.0
  0
LINE
  5
205
330
2
100
AcDbEntity
  8
GAIKEI
  6
Continuous
 62
     1
100
AcDbLine
 10
47.99040666559398
 20
6.564194945330626
 30
0.0
 11
47.98743720473396
 21
6.567164406210594
 31
0.0
  0
LINE
  5
206
330
2
100
AcDbEntity
  8
GAIKEI
  6
Continuous
 62
     1
100
AcDbLine
 10
18.06198344443396
 20
13.39181330729079
 30
0.0
 11
18.04936664939402
 21
13.38679084249085
 31
0.0
  0
LINE
  5
207
330
2
100
AcDbEntity
  8
GAIKEI
  6
Continuous
 62
     1
100
AcDbLine
 10
48.24984938469396
 20
10.53641630489082
 30
0.0
 11
47.97096394649395
 21
10.67585902399079
 31
0.0
  0
LINE
  5
208
330
2
100
AcDbEntity
  8
GAIKEI
  6
Continuous
 62
     1
100
AcDbLine
 10
48.24984938469396
 20
10.4469735857908
 30
0.0
 11
47.97096394649395
 21
10.58641630489083
 31
0.0
  0
LINE
  5
209
330
2
100
AcDbEntity
  8
GAIKEI
  6
Continuous
 62
     7
100
AcDbLine
 10
19.49040666559398
 20
13.44169494533079
 30
0.0
 11
18.06193477205397
 21
13.39181160761083
 31
0.0
  0
LINE
  5
20A
330
2
100
AcDbEntity
  8
GAIKEI
  6
Continuous
 62
     1
100
AcDbLine
 10
19.49040666559398
 20
13.44169494533079
 30
0.0
 11
22.29040666559399
 21
13.44169494533079
 31
0.0
  0
LINE
  5
20B
330
2
100
AcDbEntity
  8
GAIKEI
  6
Continuous
 62
     7
100
AcDbLine
 10
19.49040666559398
 20
13.39169494533084
 30
0.0
 11
47.41040666559399
 21
13.39169494533084
 31
0.0
  0
LINE
  5
20C
330
2
100
AcDbEntity
  8
GAIKEI
  6
Continuous
 62
     1
100
AcDbLine
 10
47.49040666559397
 20
13.07669494533061
 30
0.0
 11
47.63342115953401
 21
13.06418279839059
 31
0.0
  0
LINE
  5
20D
330
2
100
AcDbEntity
  8
GAIKEI
  6
Continuous
 62
     1
100
AcDbLine
 10
47.49040666559397
 20
12.61532141907079
 30
0.0
 11
47.50342115953401
 21
12.6141827983906
 31
0.0
  0
LINE
  5
20E
330
2
100
AcDbEntity
  8
GAIKEI
  6
Continuous
 62
     1
100
AcDbLine
 10
47.41040666559399
 20
13.3116949453308
 30
0.0
 11
47.31040666559397
 21
13.3116949453308
 31
0.0
  0
LINE
  5
20F
330
2
100
AcDbEntity
  8
GAIKEI
  6
Continuous
 62
     1
100
AcDbLine
 10
47.41040666559399
 20
13.30512079993084
 30
0.0
 11
47.49040666559397
 21
13.30512079993084
 31
0.0
  0
LINE
  5
210
330
2
100
AcDbEntity
  8
GAIKEI
  6
Continuous
 62
     1
100
AcDbLine
 10
47.31040666559397
 20
13.21169494533083
 30
0.0
 11
47.49040666559397
 21
13.21169494533083
 31
0.0
  0
LINE
  5
211
330
2
100
AcDbEntity
  8
GAIKEI
  6
Continuous
 62
     1
100
AcDbLine
 10
47.66192646315397
 20
12.96169494533083
 30
0.0
 11
47.663021814094
 21
12.96169494533083
 31
0.0
  0
LINE
  5
212
330
2
100
AcDbEntity
  8
GAIKEI
  6
Continuous
 62
     1
100
AcDbLine
 10
47.66192646315397
 20
12.8116949453308
 30
0.0
 11
47.67824784527403
 21
12.8116949453308
 31
0.0
  0
LINE
  5
213
330
2
100
AcDbEntity
  8
GAIKEI
  6
Continuous
 62
     1
100
AcDbLine
 10
47.67824784527403
 20
12.71169494533083
 30
0.0
 11
47.66192646315397
 21
12.71169494533083
 31
0.0
  0
LINE
  5
214
330
2
100
AcDbEntity
  8
GAIKEI
  6
Continuous
 62
     1
100
AcDbLine
 10
47.663021814094
 20
12.5616949453308
 30
0.0
 11
47.66192646315397
 21
12.5616949453308
 31
0.0
  0
LINE
  5
215
330
2
100
AcDbEntity
  8
GAIKEI
  6
Continuous
 62
     1
100
AcDbLine
 10
47.53192646315404
 20
12.51169494533084
 30
0.0
 11
47.53302181409401
 21
12.51169494533084
 31
0.0
  0
LINE
  5
216
330
2
100
AcDbEntity
  8
GAIKEI
  6
Continuous
 62
     1
100
AcDbLine
 10
47.53192646315404
 20
12.36169494533081
 30
0.0
 11
47.54824784527397
 21
12.36169494533081
 31
0.0
  0
LINE
  5
217
330
2
100
AcDbEntity
  8
GAIKEI
  6
Continuous
 62
     1
100
AcDbLine
 10
47.54824784527397
 20
12.26169494533084
 30
0.0
 11
47.53192646315404
 21
12.26169494533084
 31
0.0
  0
LINE
  5
218
330
2
100
AcDbEntity
  8
GAIKEI
  6
Continuous
 62
     1
100
AcDbLine
 10
47.53302181409401
 20
12.11169494533081
 30
0.0
 11
47.53192646315404
 21
12.11169494533081
 31
0.0
  0
LINE
  5
219
330
2
100
AcDbEntity
  8
GAIKEI
  6
Continuous
 62
     1
100
AcDbLine
 10
47.51851567621395
 20
12.04169494533082
 30
0.0
 11
47.66040666559399
 21
12.04169494533082
 31
0.0
  0
LINE
  5
21A
330
2
100
AcDbEntity
  8
GAIKEI
  6
Continuous
 62
     1
100
AcDbLine
 10
47.49040666559397
 20
11.94169494533079
 30
0.0
 11
47.66040666559399
 21
11.94169494533079
 31
0.0
  0
LINE
  5
21B
330
2
100
AcDbEntity
  8
GAIKEI
  6
Continuous
 62
     1
100
AcDbLine
 10
48.61040666559398
 20
11.84169494533083
 30
0.0
 11
48.27221006447399
 21
11.84169494533083
 31
0.0
  0
LINE
  5
21C
330
2
100
AcDbEntity
  8
GAIKEI
  6
Continuous
 62
     1
100
AcDbLine
 10
48.27221006447399
 20
11.7416949453308
 30
0.0
 11
48.66040666559399
 21
11.7416949453308
 31
0.0
  0
LINE
  5
21D
330
2
100
AcDbEntity
  8
GAIKEI
  6
Continuous
 62
     1
100
AcDbLine
 10
47.94860326673398
 20
11.69169494533079
 30
0.0
 11
47.66040666559399
 21
11.69169494533079
 31
0.0
  0
LINE
  5
21E
330
2
100
AcDbEntity
  8
GAIKEI
  6
Continuous
 62
     1
100
AcDbLine
 10
47.54090282039396
 20
12.4511127864308
 30
0.0
 11
47.63342115953401
 21
12.45920709227059
 31
0.0
  0
LINE
  5
21F
330
2
100
AcDbEntity
  8
GAIKEI
  6
Continuous
 62
     1
100
AcDbLine
 10
47.49040666559397
 20
12.00806847159063
 30
0.0
 11
47.50342115953401
 21
12.0092070922706
 31
0.0
  0
LINE
  5
220
330
2
100
AcDbEntity
  8
GAIKEI
  6
Continuous
 62
     1
100
AcDbLine
 10
47.94860326673398
 20
11.59169494533083
 30
0.0
 11
47.66040666559399
 21
11.59169494533083
 31
0.0
  0
LINE
  5
221
330
2
100
AcDbEntity
  8
GAIKEI
  6
Continuous
 62
     1
100
AcDbLine
 10
21.04040666559399
 20
11.2416949453308
 30
0.0
 11
21.14040666559402
 21
11.2416949453308
 31
0.0
  0
LINE
  5
222
330
2
100
AcDbEntity
  8
GAIKEI
  6
Continuous
 62
     1
100
AcDbLine
 10
20.89040666559402
 20
11.09169494533083
 30
0.0
 11
21.04040666559399
 21
11.09169494533083
 31
0.0
  0
LINE
  5
223
330
2
100
AcDbEntity
  8
GAIKEI
  6
Continuous
 62
     1
100
AcDbLine
 10
21.14040666559402
 20
11.09169494533083
 30
0.0
 11
21.29040666559399
 21
11.09169494533083
 31
0.0
  0
LINE
  5
224
330
2
100
AcDbEntity
  8
GAIKEI
  6
Continuous
 62
     1
100
AcDbLine
 10
21.29040666559399
 20
10.9916949453308
 30
0.0
 11
21.14040666559402
 21
10.9916949453308
 31
0.0
  0
LINE
  5
225
330
2
100
AcDbEntity
  8
GAIKEI
  6
Continuous
 62
     1
100
AcDbLine
 10
21.04040666559399
 20
10.9916949453308
 30
0.0
 11
20.89040666559402
 21
10.9916949453308
 31
0.0
  0
LINE
  5
226
330
2
100
AcDbEntity
  8
GAIKEI
  6
Continuous
 62
     1
100
AcDbLine
 10
21.14040666559402
 20
10.84169494533083
 30
0.0
 11
21.04040666559399
 21
10.84169494533083
 31
0.0
  0
LINE
  5
227
330
2
100
AcDbEntity
  8
GAIKEI
  6
Continuous
 62
     1
100
AcDbLine
 10
47.94860326673398
 20
10.69169494533079
 30
0.0
 11
47.66040666559399
 21
10.69169494533079
 31
0.0
  0
LINE
  5
228
330
2
100
AcDbEntity
  8
GAIKEI
  6
Continuous
 62
     1
100
AcDbLine
 10
47.94860326673398
 20
10.59169494533083
 30
0.0
 11
47.66040666559399
 21
10.59169494533083
 31
0.0
  0
LINE
  5
229
330
2
100
AcDbEntity
  8
GAIKEI
  6
Continuous
 62
     1
100
AcDbLine
 10
48.27221006447399
 20
10.54169494533081
 30
0.0
 11
48.66040666559399
 21
10.54169494533081
 31
0.0
  0
LINE
  5
22A
330
2
100
AcDbEntity
  8
GAIKEI
  6
Continuous
 62
     1
100
AcDbLine
 10
48.61040666559398
 20
10.44169494533079
 30
0.0
 11
48.27221006447399
 21
10.44169494533079
 31
0.0
  0
LINE
  5
22B
330
2
100
AcDbEntity
  8
GAIKEI
  6
Continuous
 62
     1
100
AcDbLine
 10
17.51140827805398
 20
8.004967953050794
 30
0.0
 11
17.45398848771396
 21
8.00296280979083
 31
0.0
  0
LINE
  5
22C
330
2
100
AcDbEntity
  8
GAIKEI
  6
Continuous
 62
     1
100
AcDbLine
 10
47.49040666559397
 20
8.941694945330795
 30
0.0
 11
47.66040666559399
 21
8.941694945330795
 31
0.0
  0
LINE
  5
22D
330
2
100
AcDbEntity
  8
GAIKEI
  6
Continuous
 62
     1
100
AcDbLine
 10
47.49040666559397
 20
8.841694945330829
 30
0.0
 11
47.66040666559399
 21
8.841694945330829
 31
0.0
  0
LINE
  5
22E
330
2
100
AcDbEntity
  8
GAIKEI
  6
Continuous
 62
     1
100
AcDbLine
 10
47.49040666559397
 20
8.345321419070643
 30
0.0
 11
47.50342115953401
 21
8.344182798390619
 31
0.0
  0
LINE
  5
22F
330
2
100
AcDbEntity
  8
GAIKEI
  6
Continuous
 62
     1
100
AcDbLine
 10
17.45221408847396
 20
6.706542989150847
 30
0.0
 11
17.64558565045399
 21
6.709918302330805
 31
0.0
  0
LINE
  5
230
330
2
100
AcDbEntity
  8
GAIKEI
  6
Continuous
 62
     1
100
AcDbLine
 10
47.53192646315404
 20
8.241694945330806
 30
0.0
 11
47.53302181409401
 21
8.241694945330806
 31
0.0
  0
LINE
  5
231
330
2
100
AcDbEntity
  8
GAIKEI
  6
Continuous
 62
     1
100
AcDbLine
 10
47.53192646315404
 20
8.091694945330829
 30
0.0
 11
47.54824784527397
 21
8.091694945330829
 31
0.0
  0
LINE
  5
232
330
2
100
AcDbEntity
  8
GAIKEI
  6
Continuous
 62
     1
100
AcDbLine
 10
47.54824784527397
 20
7.991694945330806
 30
0.0
 11
47.53192646315404
 21
7.991694945330806
 31
0.0
  0
LINE
  5
233
330
2
100
AcDbEntity
  8
GAIKEI
  6
Continuous
 62
     1
100
AcDbLine
 10
47.53302181409401
 20
7.841694945330829
 30
0.0
 11
47.53192646315404
 21
7.841694945330829
 31
0.0
  0
LINE
  5
234
330
2
100
AcDbEntity
  8
GAIKEI
  6
Continuous
 62
     1
100
AcDbLine
 10
47.53192646315404
 20
7.751694945330626
 30
0.0
 11
47.54824784527397
 21
7.751694945330626
 31
0.0
  0
LINE
  5
235
330
2
100
AcDbEntity
  8
GAIKEI
  6
Continuous
 62
     1
100
AcDbLine
 10
47.54824784527397
 20
7.651694945330604
 30
0.0
 11
47.53192646315404
 21
7.651694945330604
 31
0.0
  0
LINE
  5
236
330
2
100
AcDbEntity
  8
GAIKEI
  6
Continuous
 62
     1
100
AcDbLine
 10
47.53302181409401
 20
7.501694945330626
 30
0.0
 11
47.53192646315404
 21
7.501694945330626
 31
0.0
  0
LINE
  5
237
330
2
100
AcDbEntity
  8
GAIKEI
  6
Continuous
 62
     1
100
AcDbLine
 10
47.53192646315404
 20
7.401694945330604
 30
0.0
 11
47.53302181409401
 21
7.401694945330604
 31
0.0
  0
LINE
  5
238
330
2
100
AcDbEntity
  8
GAIKEI
  6
Continuous
 62
     1
100
AcDbLine
 10
47.53192646315404
 20
7.251694945330626
 30
0.0
 11
47.54824784527397
 21
7.251694945330626
 31
0.0
  0
LINE
  5
239
330
2
100
AcDbEntity
  8
GAIKEI
  6
Continuous
 62
     1
100
AcDbLine
 10
21.04040666559399
 20
7.241694945330806
 30
0.0
 11
21.14040666559402
 21
7.241694945330806
 31
0.0
  0
LINE
  5
23A
330
2
100
AcDbEntity
  8
GAIKEI
  6
Continuous
 62
     1
100
AcDbLine
 10
47.54824784527397
 20
7.151694945330604
 30
0.0
 11
47.53192646315404
 21
7.151694945330604
 31
0.0
  0
LINE
  5
23B
330
2
100
AcDbEntity
  8
GAIKEI
  6
Continuous
 62
     1
100
AcDbLine
 10
20.89040666559402
 20
7.091694945330829
 30
0.0
 11
21.04040666559399
 21
7.091694945330829
 31
0.0
  0
LINE
  5
23C
330
2
100
AcDbEntity
  8
GAIKEI
  6
Continuous
 62
     1
100
AcDbLine
 10
21.14040666559402
 20
7.091694945330829
 30
0.0
 11
21.29040666559399
 21
7.091694945330829
 31
0.0
  0
LINE
  5
23D
330
2
100
AcDbEntity
  8
GAIKEI
  6
Continuous
 62
     1
100
AcDbLine
 10
47.53302181409401
 20
7.001694945330626
 30
0.0
 11
47.53192646315404
 21
7.001694945330626
 31
0.0
  0
LINE
  5
23E
330
2
100
AcDbEntity
  8
GAIKEI
  6
Continuous
 62
     1
100
AcDbLine
 10
21.29040666559399
 20
6.991694945330806
 30
0.0
 11
21.14040666559402
 21
6.991694945330806
 31
0.0
  0
LINE
  5
23F
330
2
100
AcDbEntity
  8
GAIKEI
  6
Continuous
 62
     1
100
AcDbLine
 10
21.04040666559399
 20
6.991694945330806
 30
0.0
 11
20.89040666559402
 21
6.991694945330806
 31
0.0
  0
LINE
  5
240
330
2
100
AcDbEntity
  8
GAIKEI
  6
Continuous
 62
     1
100
AcDbLine
 10
47.53192646315404
 20
6.981694945330588
 30
0.0
 11
47.54824784527397
 21
6.981694945330588
 31
0.0
  0
LINE
  5
241
330
2
100
AcDbEntity
  8
GAIKEI
  6
Continuous
 62
     1
100
AcDbLine
 10
48.54040666559399
 20
6.969194945330599
 30
0.0
 11
47.49040666559397
 21
6.969194945330599
 31
0.0
  0
LINE
  5
242
330
2
100
AcDbEntity
  8
GAIKEI
  6
Continuous
 62
     1
100
AcDbLine
 10
21.14040666559402
 20
6.841694945330829
 30
0.0
 11
21.04040666559399
 21
6.841694945330829
 31
0.0
  0
LINE
  5
243
330
2
100
AcDbEntity
  8
GAIKEI
  6
Continuous
 62
     1
100
AcDbLine
 10
17.45398848771396
 20
7.420427080870609
 30
0.0
 11
17.54139358975396
 21
7.417374827450629
 31
0.0
  0
LINE
  5
244
330
2
100
AcDbEntity
  8
GAIKEI
  6
Continuous
 62
     1
100
AcDbLine
 10
47.49040666559397
 20
6.365321419070795
 30
0.0
 11
47.50342115953401
 21
6.364182798390601
 31
0.0
  0
LINE
  5
245
330
2
100
AcDbEntity
  8
GAIKEI
  6
Continuous
 62
     1
100
AcDbLine
 10
47.49040666559397
 20
6.256694945330622
 30
0.0
 11
47.63342115953401
 21
6.244182798390596
 31
0.0
  0
LINE
  5
246
330
2
100
AcDbEntity
  8
GAIKEI
  6
Continuous
 62
     1
100
AcDbLine
 10
47.49040666559397
 20
5.545321419070631
 30
0.0
 11
47.50342115953401
 21
5.544182798390608
 31
0.0
  0
LINE
  5
247
330
2
100
AcDbEntity
  8
GAIKEI
  6
Continuous
 62
     1
100
AcDbLine
 10
47.49040666559397
 20
7.738068471590594
 30
0.0
 11
47.50342115953401
 21
7.739207092270845
 31
0.0
  0
LINE
  5
248
330
2
100
AcDbEntity
  8
GAIKEI
  6
Continuous
 62
     1
100
AcDbLine
 10
47.49040666559397
 20
7.398068471590846
 30
0.0
 11
47.50342115953401
 21
7.399207092270643
 31
0.0
  0
LINE
  5
249
330
2
100
AcDbEntity
  8
GAIKEI
  6
Continuous
 62
     1
100
AcDbLine
 10
47.49040666559397
 20
6.721694945330824
 30
0.0
 11
47.87240666559398
 21
6.721694945330824
 31
0.0
  0
LINE
  5
24A
330
2
100
AcDbEntity
  8
GAIKEI
  6
Continuous
 62
     1
100
AcDbLine
 10
47.49040666559397
 20
6.565694945330818
 30
0.0
 11
47.98891459045399
 21
6.565694945330818
 31
0.0
  0
LINE
  5
24B
330
2
100
AcDbEntity
  8
GAIKEI
  6
Continuous
 62
     1
100
AcDbLine
 10
23.64040666559402
 20
6.461694945330833
 30
0.0
 11
23.74040666559398
 21
6.461694945330833
 31
0.0
  0
LINE
  5
24C
330
2
100
AcDbEntity
  8
GAIKEI
  6
Continuous
 62
     1
100
AcDbLine
 10
44.91040666559399
 20
6.461694945330833
 30
0.0
 11
45.01040666559396
 21
6.461694945330833
 31
0.0
  0
LINE
  5
24D
330
2
100
AcDbEntity
  8
GAIKEI
  6
Continuous
 62
     1
100
AcDbLine
 10
47.95193323693399
 20
6.326694945330615
 30
0.0
 11
47.51965832785401
 21
6.326694945330615
 31
0.0
  0
LINE
  5
24E
330
2
100
AcDbEntity
  8
GAIKEI
  6
Continuous
 62
     1
100
AcDbLine
 10
23.49040666559398
 20
6.311694945330799
 30
0.0
 11
23.64040666559402
 21
6.311694945330799
 31
0.0
  0
LINE
  5
24F
330
2
100
AcDbEntity
  8
GAIKEI
  6
Continuous
 62
     1
100
AcDbLine
 10
23.74040666559398
 20
6.311694945330799
 30
0.0
 11
23.89040666559401
 21
6.311694945330799
 31
0.0
  0
LINE
  5
250
330
2
100
AcDbEntity
  8
GAIKEI
  6
Continuous
 62
     1
100
AcDbLine
 10
44.76040666559396
 20
6.311694945330799
 30
0.0
 11
44.91040666559399
 21
6.311694945330799
 31
0.0
  0
LINE
  5
251
330
2
100
AcDbEntity
  8
GAIKEI
  6
Continuous
 62
     1
100
AcDbLine
 10
45.01040666559396
 20
6.311694945330799
 30
0.0
 11
45.16040666559399
 21
6.311694945330799
 31
0.0
  0
LINE
  5
252
330
2
100
AcDbEntity
  8
GAIKEI
  6
Continuous
 62
     1
100
AcDbLine
 10
17.79126126449398
 20
6.261694945330845
 30
0.0
 11
17.82296773125404
 21
6.261694945330845
 31
0.0
  0
LINE
  5
253
330
2
100
AcDbEntity
  8
GAIKEI
  6
Continuous
 62
     1
100
AcDbLine
 10
47.53192646315404
 20
6.261694945330845
 30
0.0
 11
47.53302181409401
 21
6.261694945330845
 31
0.0
  0
LINE
  5
254
330
2
100
AcDbEntity
  8
GAIKEI
  6
Continuous
 62
     1
100
AcDbLine
 10
45.16040666559399
 20
6.211694945330833
 30
0.0
 11
45.01040666559396
 21
6.211694945330833
 31
0.0
  0
LINE
  5
255
330
2
100
AcDbEntity
  8
GAIKEI
  6
Continuous
 62
     1
100
AcDbLine
 10
44.91040666559399
 20
6.211694945330833
 30
0.0
 11
44.76040666559396
 21
6.211694945330833
 31
0.0
  0
LINE
  5
256
330
2
100
AcDbEntity
  8
GAIKEI
  6
Continuous
 62
     1
100
AcDbLine
 10
23.89040666559401
 20
6.211694945330833
 30
0.0
 11
23.74040666559398
 21
6.211694945330833
 31
0.0
  0
LINE
  5
257
330
2
100
AcDbEntity
  8
GAIKEI
  6
Continuous
 62
     1
100
AcDbLine
 10
23.64040666559402
 20
6.211694945330833
 30
0.0
 11
23.49040666559398
 21
6.211694945330833
 31
0.0
  0
LINE
  5
258
330
2
100
AcDbEntity
  8
GAIKEI
  6
Continuous
 62
     1
100
AcDbLine
 10
47.66192646315397
 20
6.14169494533084
 30
0.0
 11
47.663021814094
 21
6.14169494533084
 31
0.0
  0
LINE
  5
259
330
2
100
AcDbEntity
  8
GAIKEI
  6
Continuous
 62
     1
100
AcDbLine
 10
47.98891459045399
 20
6.08769494533081
 30
0.0
 11
47.670084599414
 21
6.08769494533081
 31
0.0
  0
LINE
  5
25A
330
2
100
AcDbEntity
  8
GAIKEI
  6
Continuous
 62
     1
100
AcDbLine
 10
45.01040666559396
 20
6.061694945330799
 30
0.0
 11
44.91040666559399
 21
6.061694945330799
 31
0.0
  0
LINE
  5
25B
330
2
100
AcDbEntity
  8
GAIKEI
  6
Continuous
 62
     1
100
AcDbLine
 10
23.74040666559398
 20
6.061694945330799
 30
0.0
 11
23.64040666559402
 21
6.061694945330799
 31
0.0
  0
LINE
  5
25C
330
2
100
AcDbEntity
  8
GAIKEI
  6
Continuous
 62
     1
100
AcDbLine
 10
48.54040666559399
 20
6.034194945330824
 30
0.0
 11
47.87240666559398
 21
6.034194945330824
 31
0.0
  0
LINE
  5
25D
330
2
100
AcDbEntity
  8
GAIKEI
  6
Continuous
 62
     1
100
AcDbLine
 10
17.86400875803394
 20
6.031694945330599
 30
0.0
 11
17.89523519665403
 21
6.031694945330599
 31
0.0
  0
LINE
  5
25E
330
2
100
AcDbEntity
  8
GAIKEI
  6
Continuous
 62
     1
100
AcDbLine
 10
47.67715178031397
 20
6.012628213750616
 30
0.0
 11
47.87240666559398
 21
6.012628213750616
 31
0.0
  0
LINE
  5
25F
330
2
100
AcDbEntity
  8
GAIKEI
  6
Continuous
 62
     1
100
AcDbLine
 10
47.66192646315397
 20
5.991694945330806
 30
0.0
 11
47.67824784527403
 21
5.991694945330806
 31
0.0
  0
LINE
  5
260
330
2
100
AcDbEntity
  8
GAIKEI
  6
Continuous
 62
     1
100
AcDbLine
 10
47.87240666559398
 20
5.931694945330576
 30
0.0
 11
47.66297585243399
 21
5.931694945330576
 31
0.0
  0
LINE
  5
261
330
2
100
AcDbEntity
  8
GAIKEI
  6
Continuous
 62
     1
100
AcDbLine
 10
47.67824784527403
 20
5.89169494533084
 30
0.0
 11
47.66192646315397
 21
5.89169494533084
 31
0.0
  0
LINE
  5
262
330
2
100
AcDbEntity
  8
GAIKEI
  6
Continuous
 62
     1
100
AcDbLine
 10
47.663021814094
 20
5.741694945330806
 30
0.0
 11
47.66192646315397
 21
5.741694945330806
 31
0.0
  0
LINE
  5
263
330
2
100
AcDbEntity
  8
GAIKEI
  6
Continuous
 62
     1
100
AcDbLine
 10
47.53192646315404
 20
5.441694945330795
 30
0.0
 11
47.53302181409401
 21
5.441694945330795
 31
0.0
  0
LINE
  5
264
330
2
100
AcDbEntity
  8
GAIKEI
  6
Continuous
 62
     1
100
AcDbLine
 10
47.53192646315404
 20
5.291694945330817
 30
0.0
 11
47.54824784527397
 21
5.291694945330817
 31
0.0
  0
LINE
  5
265
330
2
100
AcDbEntity
  8
GAIKEI
  6
Continuous
 62
     1
100
AcDbLine
 10
18.01993198835396
 20
5.28136941693063
 30
0.0
 11
18.05017683921403
 21
5.28136941693063
 31
0.0
  0
LINE
  5
266
330
2
100
AcDbEntity
  8
GAIKEI
  6
Continuous
 62
     1
100
AcDbLine
 10
47.49040666559397
 20
5.626694945330626
 30
0.0
 11
47.63342115953401
 21
5.639207092270822
 31
0.0
  0
LINE
  5
267
330
2
100
AcDbEntity
  8
GAIKEI
  6
Continuous
 62
     1
100
AcDbLine
 10
47.49040666559397
 20
4.938068471590639
 30
0.0
 11
47.50342115953401
 21
4.939207092270834
 31
0.0
  0
LINE
  5
268
330
2
100
AcDbEntity
  8
GAIKEI
  6
Continuous
 62
     1
100
AcDbLine
 10
47.54824784527397
 20
5.191694945330795
 30
0.0
 11
47.53192646315404
 21
5.191694945330795
 31
0.0
  0
LINE
  5
269
330
2
100
AcDbEntity
  8
GAIKEI
  6
Continuous
 62
     1
100
AcDbLine
 10
47.53302181409401
 20
5.041694945330817
 30
0.0
 11
47.53192646315404
 21
5.041694945330817
 31
0.0
  0
LINE
  5
26A
330
2
100
AcDbEntity
  8
GAIKEI
  6
Continuous
 62
     1
100
AcDbLine
 10
18.04924086225395
 20
4.981369416930618
 30
0.0
 11
18.07930803319402
 21
4.981369416930618
 31
0.0
  0
LINE
  5
26B
330
2
100
AcDbEntity
  8
GAIKEI
  6
Continuous
 62
     7
100
AcDbLine
 10
47.49040666559397
 20
4.841694945330829
 30
0.0
 11
47.160406665594
 21
4.841694945330829
 31
0.0
  0
LINE
  5
26C
330
2
100
AcDbEntity
  8
GAIKEI
  6
Continuous
 62
     1
100
AcDbLine
 10
19.720406665594
 20
4.841694945330829
 30
0.0
 11
19.49040666559398
 21
4.841694945330829
 31
0.0
  0
LINE
  5
26D
330
2
100
AcDbEntity
  8
GAIKEI
  6
Continuous
 62
     1
100
AcDbLine
 10
47.38040666559402
 20
4.741694945330806
 30
0.0
 11
47.36040666559398
 21
4.741694945330806
 31
0.0
  0
LINE
  5
26E
330
2
100
AcDbEntity
  8
GAIKEI
  6
Continuous
 62
     7
100
AcDbLine
 10
19.49040666559398
 20
4.741694945330806
 30
0.0
 11
47.26040666559396
 21
4.741694945330806
 31
0.0
  0
LINE
  5
26F
330
2
100
AcDbEntity
  8
GAIKEI
  6
Continuous
 62
     1
100
AcDbLine
 10
45.76040666559396
 20
4.721694945330824
 30
0.0
 11
47.26040666559396
 21
4.721694945330824
 31
0.0
  0
LINE
  5
270
330
2
100
AcDbEntity
  8
GAIKEI
  6
Continuous
 62
     7
100
AcDbLine
 10
19.49040666559398
 20
4.64169494533084
 30
0.0
 11
22.29040666559399
 21
4.64169494533084
 31
0.0
  0
LINE
  5
271
330
2
100
AcDbEntity
  8
GAIKEI
  6
Continuous
 62
     1
100
AcDbLine
 10
47.26040666559396
 20
4.621694945330801
 30
0.0
 11
45.76040666559396
 21
4.621694945330801
 31
0.0
  0
LINE
  5
272
330
2
100
AcDbEntity
  8
GAIKEI
  6
Continuous
 62
     7
100
AcDbLine
 10
20.382095922134
 20
3.591694945330829
 30
0.0
 11
22.19872495795403
 21
3.591694945330829
 31
0.0
  0
LINE
  5
273
330
2
100
AcDbEntity
  8
GAIKEI
  6
Continuous
 62
     7
100
AcDbLine
 10
41.38209592213399
 20
3.591694945330829
 30
0.0
 11
43.19872495795396
 21
3.591694945330829
 31
0.0
  0
LINE
  5
274
330
2
100
AcDbEntity
  8
GAIKEI
  6
Continuous
 62
     7
100
AcDbLine
 10
18.29411047763403
 20
4.683470528750802
 30
0.0
 11
19.49040666559398
 21
4.64169494533084
 31
0.0
  0
LINE
  5
275
330
2
100
AcDbEntity
  8
GAIKEI
  6
Continuous
 62
     7
100
AcDbLine
 10
41.19040666559397
 20
4.741694945330806
 30
0.0
 11
41.28246431443398
 21
3.683031983690597
 31
0.0
  0
LINE
  5
276
330
2
100
AcDbEntity
  8
GAIKEI
  6
Continuous
 62
     1
100
AcDbLine
 10
48.24984938469396
 20
11.83641630489083
 30
0.0
 11
47.97096394649395
 21
11.6969735857908
 31
0.0
  0
LINE
  5
277
330
2
100
AcDbEntity
  8
GAIKEI
  6
Continuous
 62
     1
100
AcDbLine
 10
48.24984938469396
 20
11.74697358579081
 30
0.0
 11
47.97096394649395
 21
11.60753086669061
 31
0.0
  0
LINE
  5
278
330
2
100
AcDbEntity
  8
GAIKEI
  6
Continuous
 62
     7
100
AcDbLine
 10
43.39040666559401
 20
4.741694945330806
 30
0.0
 11
43.29834901677401
 21
3.683031983690597
 31
0.0
  0
LINE
  5
279
330
2
100
AcDbEntity
  8
GAIKEI
  6
Continuous
 62
     1
100
AcDbLine
 10
44.76040666559396
 20
6.211694945330833
 30
0.0
 11
44.76040666559396
 21
6.311694945330799
 31
0.0
  0
LINE
  5
27A
330
2
100
AcDbEntity
  8
GAIKEI
  6
Continuous
 62
     1
100
AcDbLine
 10
44.91040666559399
 20
6.061694945330799
 30
0.0
 11
44.91040666559399
 21
6.211694945330833
 31
0.0
  0
LINE
  5
27B
330
2
100
AcDbEntity
  8
GAIKEI
  6
Continuous
 62
     1
100
AcDbLine
 10
44.91040666559399
 20
6.311694945330799
 30
0.0
 11
44.91040666559399
 21
6.461694945330833
 31
0.0
  0
LINE
  5
27C
330
2
100
AcDbEntity
  8
GAIKEI
  6
Continuous
 62
     1
100
AcDbLine
 10
45.01040666559396
 20
6.461694945330833
 30
0.0
 11
45.01040666559396
 21
6.311694945330799
 31
0.0
  0
LINE
  5
27D
330
2
100
AcDbEntity
  8
GAIKEI
  6
Continuous
 62
     1
100
AcDbLine
 10
45.01040666559396
 20
6.211694945330833
 30
0.0
 11
45.01040666559396
 21
6.061694945330799
 31
0.0
  0
LINE
  5
27E
330
2
100
AcDbEntity
  8
GAIKEI
  6
Continuous
 62
     1
100
AcDbLine
 10
45.16040666559399
 20
6.311694945330799
 30
0.0
 11
45.16040666559399
 21
6.211694945330833
 31
0.0
  0
LINE
  5
27F
330
2
100
AcDbEntity
  8
GAIKEI
  6
Continuous
 62
     1
100
AcDbLine
 10
45.76040666559396
 20
4.721694945330824
 30
0.0
 11
45.76040666559396
 21
4.621694945330801
 31
0.0
  0
LINE
  5
280
330
2
100
AcDbEntity
  8
GAIKEI
  6
Continuous
 62
     1
100
AcDbLine
 10
47.160406665594
 20
4.841694945330829
 30
0.0
 11
47.160406665594
 21
4.741694945330806
 31
0.0
  0
LINE
  5
281
330
2
100
AcDbEntity
  8
GAIKEI
  6
Continuous
 62
     7
100
AcDbLine
 10
47.26040666559396
 20
4.721694945330824
 30
0.0
 11
47.26040666559396
 21
4.841694945330829
 31
0.0
  0
LINE
  5
282
330
2
100
AcDbEntity
  8
GAIKEI
  6
Continuous
 62
     1
100
AcDbLine
 10
47.31040666559397
 20
13.39169494533084
 30
0.0
 11
47.31040666559397
 21
13.21169494533083
 31
0.0
  0
LINE
  5
283
330
2
100
AcDbEntity
  8
GAIKEI
  6
Continuous
 62
     1
100
AcDbLine
 10
47.36040666559398
 20
4.841694945330829
 30
0.0
 11
47.36040666559398
 21
4.721694945330824
 31
0.0
  0
LINE
  5
284
330
2
100
AcDbEntity
  8
GAIKEI
  6
Continuous
 62
     1
100
AcDbLine
 10
47.38040666559402
 20
4.841694945330829
 30
0.0
 11
47.38040666559402
 21
4.741694945330806
 31
0.0
  0
LINE
  5
285
330
2
100
AcDbEntity
  8
GAIKEI
  6
Continuous
 62
     1
100
AcDbLine
 10
47.41040666559399
 20
13.3116949453308
 30
0.0
 11
47.41040666559399
 21
13.21169494533083
 31
0.0
  0
LINE
  5
286
330
2
100
AcDbEntity
  8
GAIKEI
  6
Continuous
 62
     1
100
AcDbLine
 10
47.41040666559399
 20
13.21169494533083
 30
0.0
 11
47.41040666559399
 21
4.841694945330829
 31
0.0
  0
LINE
  5
287
330
2
100
AcDbEntity
  8
GAIKEI
  6
Continuous
 62
     7
100
AcDbLine
 10
47.49040666559397
 20
13.3116949453308
 30
0.0
 11
47.49040666559397
 21
4.841694945330829
 31
0.0
  0
LINE
  5
288
330
2
100
AcDbEntity
  8
GAIKEI
  6
Continuous
 62
     1
100
AcDbLine
 10
47.63342115953401
 20
12.45920709227059
 30
0.0
 11
47.63342115953401
 21
13.06418279839059
 31
0.0
  0
LINE
  5
289
330
2
100
AcDbEntity
  8
GAIKEI
  6
Continuous
 62
     1
100
AcDbLine
 10
47.66040666559399
 20
12.04169494533082
 30
0.0
 11
47.66040666559399
 21
10.21165920489059
 31
0.0
  0
LINE
  5
28A
330
2
100
AcDbEntity
  8
GAIKEI
  6
Continuous
 62
     1
100
AcDbLine
 10
47.66040666559399
 20
9.992669588050631
 30
0.0
 11
47.66040666559399
 21
8.841694945330829
 31
0.0
  0
LINE
  5
28B
330
2
100
AcDbEntity
  8
GAIKEI
  6
Continuous
 62
     1
100
AcDbLine
 10
47.99040666559398
 20
6.089194945330604
 30
0.0
 11
47.98743720473396
 21
6.086225484450807
 31
0.0
  0
LINE
  5
28C
330
2
100
AcDbEntity
  8
GAIKEI
  6
Continuous
 62
     7
100
AcDbLine
 10
18.29411047763403
 20
4.683470528750802
 30
0.0
 11
18.09010375513401
 21
4.884744171550636
 31
0.0
  0
LINE
  5
28D
330
2
100
AcDbEntity
  8
GAIKEI
  6
Continuous
 62
     1
100
AcDbLine
 10
47.87240666559398
 20
5.931694945330576
 30
0.0
 11
47.87240666559398
 21
6.08769494533081
 31
0.0
  0
LINE
  5
28E
330
2
100
AcDbEntity
  8
GAIKEI
  6
Continuous
 62
     1
100
AcDbLine
 10
47.87240666559398
 20
6.565694945330818
 30
0.0
 11
47.87240666559398
 21
6.721694945330824
 31
0.0
  0
LINE
  5
28F
330
2
100
AcDbEntity
  8
GAIKEI
  6
Continuous
 62
     1
100
AcDbLine
 10
47.94860326673398
 20
11.69169494533079
 30
0.0
 11
47.94860326673398
 21
10.59169494533083
 31
0.0
  0
LINE
  5
290
330
2
100
AcDbEntity
  8
GAIKEI
  6
Continuous
 62
     1
100
AcDbLine
 10
47.99040666559398
 20
6.564113137670602
 30
0.0
 11
47.99040666559398
 21
6.089276752990798
 31
0.0
  0
LINE
  5
291
330
2
100
AcDbEntity
  8
GAIKEI
  6
Continuous
 62
     1
100
AcDbLine
 10
48.24984938469396
 20
11.74697358579081
 30
0.0
 11
48.24984938469396
 21
10.53641630489082
 31
0.0
  0
LINE
  5
292
330
2
100
AcDbEntity
  8
GAIKEI
  6
Continuous
 62
     1
100
AcDbLine
 10
48.54040666559399
 20
6.969194945330599
 30
0.0
 11
48.54040666559399
 21
6.034194945330824
 31
0.0
  0
LINE
  5
293
330
2
100
AcDbEntity
  8
GAIKEI
  6
Continuous
 62
     1
100
AcDbLine
 10
48.66040666559399
 20
10.4916949453308
 30
0.0
 11
48.66040666559399
 21
11.79169494533081
 31
0.0
  0
LINE
  5
294
330
2
100
AcDbEntity
  8
GAIKEI
  6
Continuous
 62
     1
100
AcDbLine
 10
50.31439336201401
 20
9.94798688103063
 30
0.0
 11
49.81713211691396
 21
8.717222110530627
 31
0.0
  0
LINE
  5
295
330
2
100
AcDbEntity
  8
GAIKEI
  6
Continuous
 62
     1
100
AcDbLine
 10
50.48128645583403
 20
9.880557694210807
 30
0.0
 11
49.941852961314
 21
8.545412943630793
 31
0.0
  0
LINE
  5
296
330
2
100
AcDbEntity
  8
GAIKEI
  6
Continuous
 62
   251
100
AcDbLine
 10
-8.637693687020032
 20
12.3402166453308
 30
0.0
 11
-8.839576387020031
 21
12.3402166453308
 31
0.0
  0
LINE
  5
297
330
2
100
AcDbEntity
  8
GAIKEI
  6
Continuous
 62
   251
100
AcDbLine
 10
-7.587492787019868
 20
12.30259934533083
 30
0.0
 11
-7.593794587020056
 21
12.30292344533083
 31
0.0
  0
LINE
  5
298
330
2
100
AcDbEntity
  8
GAIKEI
  6
Continuous
 62
   251
100
AcDbLine
 10
-7.581532287020024
 20
12.3016486453308
 30
0.0
 11
-7.587492787019868
 21
12.30259934533083
 31
0.0
  0
LINE
  5
299
330
2
100
AcDbEntity
  8
GAIKEI
  6
Continuous
 62
   251
100
AcDbLine
 10
-7.575973487020064
 20
12.30010994533083
 30
0.0
 11
-7.581532287020024
 21
12.3016486453308
 31
0.0
  0
LINE
  5
29A
330
2
100
AcDbEntity
  8
GAIKEI
  6
Continuous
 62
   251
100
AcDbLine
 10
-7.570880987020018
 20
12.29803084533083
 30
0.0
 11
-7.575973487020064
 21
12.30010994533083
 31
0.0
  0
LINE
  5
29B
330
2
100
AcDbEntity
  8
GAIKEI
  6
Continuous
 62
   251
100
AcDbLine
 10
-7.568437187019867
 20
12.29675414533082
 30
0.0
 11
-7.570880987020018
 21
12.29803084533083
 31
0.0
  0
LINE
  5
29C
330
2
100
AcDbEntity
  8
GAIKEI
  6
Continuous
 62
   251
100
AcDbLine
 10
-7.564199787020015
 20
12.2939868453308
 30
0.0
 11
-7.568437187019867
 21
12.29675414533082
 31
0.0
  0
LINE
  5
29D
330
2
100
AcDbEntity
  8
GAIKEI
  6
Continuous
 62
   251
100
AcDbLine
 10
-7.560590587019873
 20
12.29086814533079
 30
0.0
 11
-7.564199787020015
 21
12.2939868453308
 31
0.0
  0
LINE
  5
29E
330
2
100
AcDbEntity
  8
GAIKEI
  6
Continuous
 62
   251
100
AcDbLine
 10
-7.557638787020039
 20
12.2874785453308
 30
0.0
 11
-7.560590587019873
 21
12.29086814533079
 31
0.0
  0
LINE
  5
29F
330
2
100
AcDbEntity
  8
GAIKEI
  6
Continuous
 62
   251
100
AcDbLine
 10
-7.555356987020047
 20
12.28389324533086
 30
0.0
 11
-7.557638787020039
 21
12.2874785453308
 31
0.0
  0
LINE
  5
2A0
330
2
100
AcDbEntity
  8
GAIKEI
  6
Continuous
 62
   251
100
AcDbLine
 10
-7.553744587020048
 20
12.28017644533079
 30
0.0
 11
-7.555356987020047
 21
12.28389324533086
 31
0.0
  0
LINE
  5
2A1
330
2
100
AcDbEntity
  8
GAIKEI
  6
Continuous
 62
   251
100
AcDbLine
 10
-7.552794787020047
 20
12.27637844533078
 30
0.0
 11
-7.553744587020048
 21
12.28017644533079
 31
0.0
  0
LINE
  5
2A2
330
2
100
AcDbEntity
  8
GAIKEI
  6
Continuous
 62
   251
100
AcDbLine
 10
-7.552501887019843
 20
12.27253574533083
 30
0.0
 11
-7.552794787020047
 21
12.27637844533078
 31
0.0
  0
LINE
  5
2A3
330
2
100
AcDbEntity
  8
GAIKEI
  6
Continuous
 62
   251
100
AcDbLine
 10
-7.552867587020045
 20
12.26867464533072
 30
0.0
 11
-7.552501887019843
 21
12.27253574533083
 31
0.0
  0
LINE
  5
2A4
330
2
100
AcDbEntity
  8
GAIKEI
  6
Continuous
 62
   251
100
AcDbLine
 10
-7.553905787020028
 20
12.26481524533082
 30
0.0
 11
-7.552867587020045
 21
12.26867464533072
 31
0.0
  0
LINE
  5
2A5
330
2
100
AcDbEntity
  8
GAIKEI
  6
Continuous
 62
   251
100
AcDbLine
 10
-7.554685487020037
 20
12.26289124533079
 30
0.0
 11
-7.553905787020028
 21
12.26481524533082
 31
0.0
  0
LINE
  5
2A6
330
2
100
AcDbEntity
  8
GAIKEI
  6
Continuous
 62
   251
100
AcDbLine
 10
-7.555643487020006
 20
12.26097714533077
 30
0.0
 11
-7.554685487020037
 21
12.26289124533079
 31
0.0
  0
LINE
  5
2A7
330
2
100
AcDbEntity
  8
GAIKEI
  6
Continuous
 62
   251
100
AcDbLine
 10
-7.558108187019854
 20
12.2571983453308
 30
0.0
 11
-7.555643487020006
 21
12.26097714533077
 31
0.0
  0
LINE
  5
2A8
330
2
100
AcDbEntity
  8
GAIKEI
  6
Continuous
 62
   251
100
AcDbLine
 10
-7.561341787020069
 20
12.2535035453308
 30
0.0
 11
-7.558108187019854
 21
12.2571983453308
 31
0.0
  0
LINE
  5
2A9
330
2
100
AcDbEntity
  8
GAIKEI
  6
Continuous
 62
   251
100
AcDbLine
 10
-7.564302987019857
 20
12.25025734533082
 30
0.0
 11
-7.561341787020069
 21
12.2535035453308
 31
0.0
  0
LINE
  5
2AA
330
2
100
AcDbEntity
  8
GAIKEI
  6
Continuous
 62
   251
100
AcDbLine
 10
-7.609715687019843
 20
12.20068554533085
 30
0.0
 11
-7.564302987019857
 21
12.25025734533082
 31
0.0
  0
LINE
  5
2AB
330
2
100
AcDbEntity
  8
GAIKEI
  6
Continuous
 62
   251
100
AcDbLine
 10
-7.638562987019838
 20
12.16955644533081
 30
0.0
 11
-7.609715687019843
 21
12.20068554533085
 31
0.0
  0
LINE
  5
2AC
330
2
100
AcDbEntity
  8
GAIKEI
  6
Continuous
 62
   251
100
AcDbLine
 10
-7.648502787020049
 20
12.15914234533076
 30
0.0
 11
-7.638562987019838
 21
12.16955644533081
 31
0.0
  0
LINE
  5
2AD
330
2
100
AcDbEntity
  8
GAIKEI
  6
Continuous
 62
   251
100
AcDbLine
 10
-7.653014987020014
 20
12.1551107453308
 30
0.0
 11
-7.648502787020049
 21
12.15914234533076
 31
0.0
  0
LINE
  5
2AE
330
2
100
AcDbEntity
  8
GAIKEI
  6
Continuous
 62
   251
100
AcDbLine
 10
-7.657671787019808
 20
12.15180074533086
 30
0.0
 11
-7.653014987020014
 21
12.1551107453308
 31
0.0
  0
LINE
  5
2AF
330
2
100
AcDbEntity
  8
GAIKEI
  6
Continuous
 62
   251
100
AcDbLine
 10
-7.662512887020056
 20
12.14913744533086
 30
0.0
 11
-7.657671787019808
 21
12.15180074533086
 31
0.0
  0
LINE
  5
2B0
330
2
100
AcDbEntity
  8
GAIKEI
  6
Continuous
 62
   251
100
AcDbLine
 10
-7.667596887020067
 20
12.14706204533078
 30
0.0
 11
-7.662512887020056
 21
12.14913744533086
 31
0.0
  0
LINE
  5
2B1
330
2
100
AcDbEntity
  8
GAIKEI
  6
Continuous
 62
   251
100
AcDbLine
 10
-7.673009887020043
 20
12.14553124533083
 30
0.0
 11
-7.667596887020067
 21
12.14706204533078
 31
0.0
  0
LINE
  5
2B2
330
2
100
AcDbEntity
  8
GAIKEI
  6
Continuous
 62
   251
100
AcDbLine
 10
-7.678886587020031
 20
12.14451494533082
 30
0.0
 11
-7.673009887020043
 21
12.14553124533083
 31
0.0
  0
LINE
  5
2B3
330
2
100
AcDbEntity
  8
GAIKEI
  6
Continuous
 62
   251
100
AcDbLine
 10
-7.685472087019832
 20
12.14398984533076
 30
0.0
 11
-7.678886587020031
 21
12.14451494533082
 31
0.0
  0
LINE
  5
2B4
330
2
100
AcDbEntity
  8
GAIKEI
  6
Continuous
 62
   251
100
AcDbLine
 10
-7.690395187019817
 20
12.1438977453308
 30
0.0
 11
-7.685472087019832
 21
12.14398984533076
 31
0.0
  0
LINE
  5
2B5
330
2
100
AcDbEntity
  8
GAIKEI
  6
Continuous
 62
   251
100
AcDbLine
 10
-7.926556587020058
 20
12.1438977453308
 30
0.0
 11
-7.690395187019817
 21
12.1438977453308
 31
0.0
  0
LINE
  5
2B6
330
2
100
AcDbEntity
  8
GAIKEI
  6
Continuous
 62
   251
100
AcDbLine
 10
-7.926418787019827
 20
12.14400114533075
 30
0.0
 11
-7.926556587020058
 21
12.1438977453308
 31
0.0
  0
LINE
  5
2B7
330
2
100
AcDbEntity
  8
GAIKEI
  6
Continuous
 62
   251
100
AcDbLine
 10
-8.033113487020045
 20
12.14400114533075
 30
0.0
 11
-7.926418787019827
 21
12.14400114533075
 31
0.0
  0
LINE
  5
2B8
330
2
100
AcDbEntity
  8
GAIKEI
  6
Continuous
 62
   251
100
AcDbLine
 10
-8.063258087020017
 20
12.17166524533078
 30
0.0
 11
-8.033113487020045
 21
12.14400114533075
 31
0.0
  0
LINE
  5
2B9
330
2
100
AcDbEntity
  8
GAIKEI
  6
Continuous
 62
   251
100
AcDbLine
 10
-7.883940787020037
 20
12.17166524533078
 30
0.0
 11
-8.063258087020017
 21
12.17166524533078
 31
0.0
  0
LINE
  5
2BA
330
2
100
AcDbEntity
  8
GAIKEI
  6
Continuous
 62
   251
100
AcDbLine
 10
-7.791198687020028
 20
12.27320954533078
 30
0.0
 11
-7.883940787020037
 21
12.17166524533078
 31
0.0
  0
LINE
  5
2BB
330
2
100
AcDbEntity
  8
GAIKEI
  6
Continuous
 62
   251
100
AcDbLine
 10
-8.123891787020056
 20
12.27310614533084
 30
0.0
 11
-7.791198687020028
 21
12.27320954533078
 31
0.0
  0
LINE
  5
2BC
330
2
100
AcDbEntity
  8
GAIKEI
  6
Continuous
 62
   251
100
AcDbLine
 10
-8.207848787019827
 20
12.09904254533077
 30
0.0
 11
-8.123891787020056
 21
12.27310614533084
 31
0.0
  0
LINE
  5
2BD
330
2
100
AcDbEntity
  8
GAIKEI
  6
Continuous
 62
   251
100
AcDbLine
 10
-8.363222787020049
 20
12.09933544533086
 30
0.0
 11
-8.207848787019827
 21
12.09904254533077
 31
0.0
  0
LINE
  5
2BE
330
2
100
AcDbEntity
  8
GAIKEI
  6
Continuous
 62
   251
100
AcDbLine
 10
-8.275648387020055
 20
12.2819600453308
 30
0.0
 11
-8.363222787020049
 21
12.09933544533086
 31
0.0
  0
LINE
  5
2BF
330
2
100
AcDbEntity
  8
GAIKEI
  6
Continuous
 62
   251
100
AcDbLine
 10
-8.275442387019836
 20
12.2823468453308
 30
0.0
 11
-8.275648387020055
 21
12.2819600453308
 31
0.0
  0
LINE
  5
2C0
330
2
100
AcDbEntity
  8
GAIKEI
  6
Continuous
 62
   251
100
AcDbLine
 10
-8.27295348702006
 20
12.28625784533082
 30
0.0
 11
-8.275442387019836
 21
12.2823468453308
 31
0.0
  0
LINE
  5
2C1
330
2
100
AcDbEntity
  8
GAIKEI
  6
Continuous
 62
   251
100
AcDbLine
 10
-8.269898887020019
 20
12.28982634533085
 30
0.0
 11
-8.27295348702006
 21
12.28625784533082
 31
0.0
  0
LINE
  5
2C2
330
2
100
AcDbEntity
  8
GAIKEI
  6
Continuous
 62
   251
100
AcDbLine
 10
-8.266269787020064
 20
12.29303524533074
 30
0.0
 11
-8.269898887020019
 21
12.28982634533085
 31
0.0
  0
LINE
  5
2C3
330
2
100
AcDbEntity
  8
GAIKEI
  6
Continuous
 62
   251
100
AcDbLine
 10
-8.262047987020025
 20
12.29586194533081
 30
0.0
 11
-8.266269787020064
 21
12.29303524533074
 31
0.0
  0
LINE
  5
2C4
330
2
100
AcDbEntity
  8
GAIKEI
  6
Continuous
 62
   251
100
AcDbLine
 10
-8.257218687019872
 20
12.29827134533079
 30
0.0
 11
-8.262047987020025
 21
12.29586194533081
 31
0.0
  0
LINE
  5
2C5
330
2
100
AcDbEntity
  8
GAIKEI
  6
Continuous
 62
   251
100
AcDbLine
 10
-8.251760687019839
 20
12.30022654533079
 30
0.0
 11
-8.257218687019872
 21
12.29827134533079
 31
0.0
  0
LINE
  5
2C6
330
2
100
AcDbEntity
  8
GAIKEI
  6
Continuous
 62
   251
100
AcDbLine
 10
-8.245641187020055
 20
12.30168694533083
 30
0.0
 11
-8.251760687019839
 21
12.30022654533079
 31
0.0
  0
LINE
  5
2C7
330
2
100
AcDbEntity
  8
GAIKEI
  6
Continuous
 62
   251
100
AcDbLine
 10
-8.23882488702003
 20
12.30260434533076
 30
0.0
 11
-8.245641187020055
 21
12.30168694533083
 31
0.0
  0
LINE
  5
2C8
330
2
100
AcDbEntity
  8
GAIKEI
  6
Continuous
 62
   251
100
AcDbLine
 10
-8.23127548702007
 20
12.30292344533083
 30
0.0
 11
-8.23882488702003
 21
12.30260434533076
 31
0.0
  0
LINE
  5
2C9
330
2
100
AcDbEntity
  8
GAIKEI
  6
Continuous
 62
   251
100
AcDbLine
 10
-7.593794587020056
 20
12.30292344533083
 30
0.0
 11
-8.23127548702007
 21
12.30292344533083
 31
0.0
  0
LINE
  5
2CA
330
2
100
AcDbEntity
  8
GAIKEI
  6
Continuous
 62
   251
100
AcDbLine
 10
-8.857525387020018
 20
12.30195884533086
 30
0.0
 11
-8.655780487020024
 21
12.30195884533086
 31
0.0
  0
LINE
  5
2CB
330
2
100
AcDbEntity
  8
GAIKEI
  6
Continuous
 62
   251
100
AcDbLine
 10
-8.433433787019851
 20
12.21166284533078
 30
0.0
 11
-8.581676387019854
 21
12.21166284533078
 31
0.0
  0
LINE
  5
2CC
330
2
100
AcDbEntity
  8
GAIKEI
  6
Continuous
 62
   251
100
AcDbLine
 10
-8.595353387019827
 20
12.18339584533086
 30
0.0
 11
-8.447041987019815
 21
12.18339584533086
 31
0.0
  0
LINE
  5
2CD
330
2
100
AcDbEntity
  8
GAIKEI
  6
Continuous
 62
   251
100
AcDbLine
 10
-8.913934087020038
 20
12.18598384533075
 30
0.0
 11
-8.936555887020062
 21
12.13904014533082
 31
0.0
  0
LINE
  5
2CE
330
2
100
AcDbEntity
  8
GAIKEI
  6
Continuous
 62
   251
100
AcDbLine
 10
-8.871895606285022
 20
12.27293383958161
 30
0.0
 11
-8.913934087020038
 21
12.18598384533075
 31
0.0
  0
LINE
  5
2CF
330
2
100
AcDbEntity
  8
GAIKEI
  6
Continuous
 62
   251
100
AcDbLine
 10
-8.669560787020031
 20
12.27320954533078
 30
0.0
 11
-8.871895606285022
 21
12.27293383958161
 31
0.0
  0
LINE
  5
2D0
330
2
100
AcDbEntity
  8
GAIKEI
  6
Continuous
 62
   251
100
AcDbLine
 10
-6.790018887020039
 20
12.30263064533082
 30
0.0
 11
-7.418955887020047
 21
12.30263064533082
 31
0.0
  0
LINE
  5
2D1
330
2
100
AcDbEntity
  8
GAIKEI
  6
Continuous
 62
   251
100
AcDbLine
 10
-6.783447787019838
 20
12.30229734533085
 30
0.0
 11
-6.790018887020039
 21
12.30263064533082
 31
0.0
  0
LINE
  5
2D2
330
2
100
AcDbEntity
  8
GAIKEI
  6
Continuous
 62
   251
100
AcDbLine
 10
-6.777351987019869
 20
12.30132814533081
 30
0.0
 11
-6.783447787019838
 21
12.30229734533085
 31
0.0
  0
LINE
  5
2D3
330
2
100
AcDbEntity
  8
GAIKEI
  6
Continuous
 62
   251
100
AcDbLine
 10
-6.771766387019852
 20
12.29977184533081
 30
0.0
 11
-6.777351987019869
 21
12.30132814533081
 31
0.0
  0
LINE
  5
2D4
330
2
100
AcDbEntity
  8
GAIKEI
  6
Continuous
 62
   251
100
AcDbLine
 10
-6.766728087020055
 20
12.29768194533082
 30
0.0
 11
-6.771766387019852
 21
12.29977184533081
 31
0.0
  0
LINE
  5
2D5
330
2
100
AcDbEntity
  8
GAIKEI
  6
Continuous
 62
   251
100
AcDbLine
 10
-6.763502787019831
 20
12.29590554533078
 30
0.0
 11
-6.766728087020055
 21
12.29768194533082
 31
0.0
  0
LINE
  5
2D6
330
2
100
AcDbEntity
  8
GAIKEI
  6
Continuous
 62
   251
100
AcDbLine
 10
-6.759494787020059
 20
12.29304934533078
 30
0.0
 11
-6.763502787019831
 21
12.29590554533078
 31
0.0
  0
LINE
  5
2D7
330
2
100
AcDbEntity
  8
GAIKEI
  6
Continuous
 62
   251
100
AcDbLine
 10
-6.756136387019864
 20
12.28984474533078
 30
0.0
 11
-6.759494787020059
 21
12.29304934533078
 31
0.0
  0
LINE
  5
2D8
330
2
100
AcDbEntity
  8
GAIKEI
  6
Continuous
 62
   251
100
AcDbLine
 10
-6.753446987020026
 20
12.28636574533081
 30
0.0
 11
-6.756136387019864
 21
12.28984474533078
 31
0.0
  0
LINE
  5
2D9
330
2
100
AcDbEntity
  8
GAIKEI
  6
Continuous
 62
   251
100
AcDbLine
 10
-6.751436787019827
 20
12.28268454533085
 30
0.0
 11
-6.753446987020026
 21
12.28636574533081
 31
0.0
  0
LINE
  5
2DA
330
2
100
AcDbEntity
  8
GAIKEI
  6
Continuous
 62
   251
100
AcDbLine
 10
-6.750107987020044
 20
12.27886664533079
 30
0.0
 11
-6.751436787019827
 21
12.28268454533085
 31
0.0
  0
LINE
  5
2DB
330
2
100
AcDbEntity
  8
GAIKEI
  6
Continuous
 62
   251
100
AcDbLine
 10
-6.749459287020044
 20
12.27496944533081
 30
0.0
 11
-6.750107987020044
 21
12.27886664533079
 31
0.0
  0
LINE
  5
2DC
330
2
100
AcDbEntity
  8
GAIKEI
  6
Continuous
 62
   251
100
AcDbLine
 10
-6.749489787020024
 20
12.27104114533082
 30
0.0
 11
-6.749459287020044
 21
12.27496944533081
 31
0.0
  0
LINE
  5
2DD
330
2
100
AcDbEntity
  8
GAIKEI
  6
Continuous
 62
   251
100
AcDbLine
 10
-6.750203787020041
 20
12.26712334533081
 30
0.0
 11
-6.749489787020024
 21
12.27104114533082
 31
0.0
  0
LINE
  5
2DE
330
2
100
AcDbEntity
  8
GAIKEI
  6
Continuous
 62
   251
100
AcDbLine
 10
-6.751612987020052
 20
12.26325384533081
 30
0.0
 11
-6.750203787020041
 21
12.26712334533081
 31
0.0
  0
LINE
  5
2DF
330
2
100
AcDbEntity
  8
GAIKEI
  6
Continuous
 62
   251
100
AcDbLine
 10
-6.75258458702001
 20
12.26134814533074
 30
0.0
 11
-6.751612987020052
 21
12.26325384533081
 31
0.0
  0
LINE
  5
2E0
330
2
100
AcDbEntity
  8
GAIKEI
  6
Continuous
 62
   251
100
AcDbLine
 10
-6.753737387020009
 20
12.25947014533082
 30
0.0
 11
-6.75258458702001
 21
12.26134814533074
 31
0.0
  0
LINE
  5
2E1
330
2
100
AcDbEntity
  8
GAIKEI
  6
Continuous
 62
   251
100
AcDbLine
 10
-6.756596387020067
 20
12.2558215453308
 30
0.0
 11
-6.753737387020009
 21
12.25947014533082
 31
0.0
  0
LINE
  5
2E2
330
2
100
AcDbEntity
  8
GAIKEI
  6
Continuous
 62
   251
100
AcDbLine
 10
-6.76021878702005
 20
12.25234944533085
 30
0.0
 11
-6.756596387020067
 21
12.2558215453308
 31
0.0
  0
LINE
  5
2E3
330
2
100
AcDbEntity
  8
GAIKEI
  6
Continuous
 62
   251
100
AcDbLine
 10
-6.787055687019858
 20
12.23012624533081
 30
0.0
 11
-6.76021878702005
 21
12.25234944533085
 31
0.0
  0
LINE
  5
2E4
330
2
100
AcDbEntity
  8
GAIKEI
  6
Continuous
 62
   251
100
AcDbLine
 10
-6.791380687020023
 20
12.22657914533076
 30
0.0
 11
-6.787055687019858
 21
12.23012624533081
 31
0.0
  0
LINE
  5
2E5
330
2
100
AcDbEntity
  8
GAIKEI
  6
Continuous
 62
   251
100
AcDbLine
 10
-6.820611287019858
 20
12.20234384533083
 30
0.0
 11
-6.791380687020023
 21
12.22657914533076
 31
0.0
  0
LINE
  5
2E6
330
2
100
AcDbEntity
  8
GAIKEI
  6
Continuous
 62
   251
100
AcDbLine
 10
-6.822700387020063
 20
12.20056044533081
 30
0.0
 11
-6.820611287019858
 21
12.20234384533083
 31
0.0
  0
LINE
  5
2E7
330
2
100
AcDbEntity
  8
GAIKEI
  6
Continuous
 62
   251
100
AcDbLine
 10
-6.824910287019861
 20
12.19831894533078
 30
0.0
 11
-6.822700387020063
 21
12.20056044533081
 31
0.0
  0
LINE
  5
2E8
330
2
100
AcDbEntity
  8
GAIKEI
  6
Continuous
 62
   251
100
AcDbLine
 10
-6.825906187020052
 20
12.1966947453308
 30
0.0
 11
-6.824910287019861
 21
12.19831894533078
 31
0.0
  0
LINE
  5
2E9
330
2
100
AcDbEntity
  8
GAIKEI
  6
Continuous
 62
   251
100
AcDbLine
 10
-6.826153487019837
 20
12.19521464533076
 30
0.0
 11
-6.825906187020052
 21
12.1966947453308
 31
0.0
  0
LINE
  5
2EA
330
2
100
AcDbEntity
  8
GAIKEI
  6
Continuous
 62
   251
100
AcDbLine
 10
-6.825710787019829
 20
12.19367434533078
 30
0.0
 11
-6.826153487019837
 21
12.19521464533076
 31
0.0
  0
LINE
  5
2EB
330
2
100
AcDbEntity
  8
GAIKEI
  6
Continuous
 62
   251
100
AcDbLine
 10
-6.824463287019852
 20
12.19185734533082
 30
0.0
 11
-6.825710787019829
 21
12.19367434533078
 31
0.0
  0
LINE
  5
2EC
330
2
100
AcDbEntity
  8
GAIKEI
  6
Continuous
 62
   251
100
AcDbLine
 10
-6.822058287019842
 20
12.18942474533079
 30
0.0
 11
-6.824463287019852
 21
12.19185734533082
 31
0.0
  0
LINE
  5
2ED
330
2
100
AcDbEntity
  8
GAIKEI
  6
Continuous
 62
   251
100
AcDbLine
 10
-6.790797687020017
 20
12.1603193453308
 30
0.0
 11
-6.822058287019842
 21
12.18942474533079
 31
0.0
  0
LINE
  5
2EE
330
2
100
AcDbEntity
  8
GAIKEI
  6
Continuous
 62
   251
100
AcDbLine
 10
-6.725526587019828
 20
12.09933544533086
 30
0.0
 11
-6.790797687020017
 21
12.1603193453308
 31
0.0
  0
LINE
  5
2EF
330
2
100
AcDbEntity
  8
GAIKEI
  6
Continuous
 62
   251
100
AcDbLine
 10
-6.986389387020039
 20
12.09933544533086
 30
0.0
 11
-6.725526587019828
 21
12.09933544533086
 31
0.0
  0
LINE
  5
2F0
330
2
100
AcDbEntity
  8
GAIKEI
  6
Continuous
 62
   251
100
AcDbLine
 10
-7.049779187019851
 20
12.15855664533078
 30
0.0
 11
-6.986389387020039
 21
12.09933544533086
 31
0.0
  0
LINE
  5
2F1
330
2
100
AcDbEntity
  8
GAIKEI
  6
Continuous
 62
   251
100
AcDbLine
 10
-7.053778287019838
 20
12.16235634533083
 30
0.0
 11
-7.049779187019851
 21
12.15855664533078
 31
0.0
  0
LINE
  5
2F2
330
2
100
AcDbEntity
  8
GAIKEI
  6
Continuous
 62
   251
100
AcDbLine
 10
-7.059349787019868
 20
12.16811004533079
 30
0.0
 11
-7.053778287019838
 21
12.16235634533083
 31
0.0
  0
LINE
  5
2F3
330
2
100
AcDbEntity
  8
GAIKEI
  6
Continuous
 62
   251
100
AcDbLine
 10
-7.063098387020033
 20
12.17268434533079
 30
0.0
 11
-7.059349787019868
 21
12.16811004533079
 31
0.0
  0
LINE
  5
2F4
330
2
100
AcDbEntity
  8
GAIKEI
  6
Continuous
 62
   251
100
AcDbLine
 10
-7.06559888702003
 20
12.17657164533077
 30
0.0
 11
-7.063098387020033
 21
12.17268434533079
 31
0.0
  0
LINE
  5
2F5
330
2
100
AcDbEntity
  8
GAIKEI
  6
Continuous
 62
   251
100
AcDbLine
 10
-7.067158687020025
 20
12.1800352453308
 30
0.0
 11
-7.06559888702003
 21
12.17657164533077
 31
0.0
  0
LINE
  5
2F6
330
2
100
AcDbEntity
  8
GAIKEI
  6
Continuous
 62
   251
100
AcDbLine
 10
-7.067953587019815
 20
12.18325424533086
 30
0.0
 11
-7.067158687020025
 21
12.1800352453308
 31
0.0
  0
LINE
  5
2F7
330
2
100
AcDbEntity
  8
GAIKEI
  6
Continuous
 62
   251
100
AcDbLine
 10
-7.068064687019841
 20
12.18637454533083
 30
0.0
 11
-7.067953587019815
 21
12.18325424533086
 31
0.0
  0
LINE
  5
2F8
330
2
100
AcDbEntity
  8
GAIKEI
  6
Continuous
 62
   251
100
AcDbLine
 10
-7.067864187020063
 20
12.18794504533079
 30
0.0
 11
-7.068064687019841
 21
12.18637454533083
 31
0.0
  0
LINE
  5
2F9
330
2
100
AcDbEntity
  8
GAIKEI
  6
Continuous
 62
   251
100
AcDbLine
 10
-7.06748588701987
 20
12.18952704533078
 30
0.0
 11
-7.067864187020063
 21
12.18794504533079
 31
0.0
  0
LINE
  5
2FA
330
2
100
AcDbEntity
  8
GAIKEI
  6
Continuous
 62
   251
100
AcDbLine
 10
-7.066175387019825
 20
12.19273764533082
 30
0.0
 11
-7.06748588701987
 21
12.18952704533078
 31
0.0
  0
LINE
  5
2FB
330
2
100
AcDbEntity
  8
GAIKEI
  6
Continuous
 62
   251
100
AcDbLine
 10
-7.06402288702003
 20
12.19612494533081
 30
0.0
 11
-7.066175387019825
 21
12.19273764533082
 31
0.0
  0
LINE
  5
2FC
330
2
100
AcDbEntity
  8
GAIKEI
  6
Continuous
 62
   251
100
AcDbLine
 10
-7.060839987020017
 20
12.19980374533079
 30
0.0
 11
-7.06402288702003
 21
12.19612494533081
 31
0.0
  0
LINE
  5
2FD
330
2
100
AcDbEntity
  8
GAIKEI
  6
Continuous
 62
   251
100
AcDbLine
 10
-7.056359387019824
 20
12.20389414533079
 30
0.0
 11
-7.060839987020017
 21
12.19980374533079
 31
0.0
  0
LINE
  5
2FE
330
2
100
AcDbEntity
  8
GAIKEI
  6
Continuous
 62
   251
100
AcDbLine
 10
-7.011155787020015
 20
12.24156284533078
 30
0.0
 11
-7.056359387019824
 21
12.20389414533079
 31
0.0
  0
LINE
  5
2FF
330
2
100
AcDbEntity
  8
GAIKEI
  6
Continuous
 62
   251
100
AcDbLine
 10
-6.980908687020018
 20
12.26738024533083
 30
0.0
 11
-7.011155787020015
 21
12.24156284533078
 31
0.0
  0
LINE
  5
300
330
2
100
AcDbEntity
  8
GAIKEI
  6
Continuous
 62
   251
100
AcDbLine
 10
-6.968647187020053
 20
12.2781704453308
 30
0.0
 11
-6.980908687020018
 21
12.26738024533083
 31
0.0
  0
LINE
  5
301
330
2
100
AcDbEntity
  8
GAIKEI
  6
Continuous
 62
   251
100
AcDbLine
 10
-7.304199687020059
 20
12.2781704453308
 30
0.0
 11
-6.968647187020053
 21
12.2781704453308
 31
0.0
  0
LINE
  5
302
330
2
100
AcDbEntity
  8
GAIKEI
  6
Continuous
 62
   251
100
AcDbLine
 10
-7.390499387020042
 20
12.09933544533086
 30
0.0
 11
-7.304199687020059
 21
12.2781704453308
 31
0.0
  0
LINE
  5
303
330
2
100
AcDbEntity
  8
GAIKEI
  6
Continuous
 62
   251
100
AcDbLine
 10
-7.545976687020015
 20
12.09923204533081
 30
0.0
 11
-7.390499387020042
 21
12.09933544533086
 31
0.0
  0
LINE
  5
304
330
2
100
AcDbEntity
  8
GAIKEI
  6
Continuous
 62
   251
100
AcDbLine
 10
-7.459229087020048
 20
12.27913504533077
 30
0.0
 11
-7.545976687020015
 21
12.09923204533081
 31
0.0
  0
LINE
  5
305
330
2
100
AcDbEntity
  8
GAIKEI
  6
Continuous
 62
   251
100
AcDbLine
 10
-7.458987687020055
 20
12.2796157453308
 30
0.0
 11
-7.459229087020048
 21
12.27913504533077
 31
0.0
  0
LINE
  5
306
330
2
100
AcDbEntity
  8
GAIKEI
  6
Continuous
 62
   251
100
AcDbLine
 10
-7.455879887020046
 20
12.28509774533083
 30
0.0
 11
-7.458987687020055
 21
12.2796157453308
 31
0.0
  0
LINE
  5
307
330
2
100
AcDbEntity
  8
GAIKEI
  6
Continuous
 62
   251
100
AcDbLine
 10
-7.452705287019853
 20
12.28949454533082
 30
0.0
 11
-7.455879887020046
 21
12.28509774533083
 31
0.0
  0
LINE
  5
308
330
2
100
AcDbEntity
  8
GAIKEI
  6
Continuous
 62
   251
100
AcDbLine
 10
-7.449360187020033
 20
12.29306564533081
 30
0.0
 11
-7.452705287019853
 21
12.28949454533082
 31
0.0
  0
LINE
  5
309
330
2
100
AcDbEntity
  8
GAIKEI
  6
Continuous
 62
   251
100
AcDbLine
 10
-7.445735287019829
 20
12.29598044533085
 30
0.0
 11
-7.449360187020033
 21
12.29306564533081
 31
0.0
  0
LINE
  5
30A
330
2
100
AcDbEntity
  8
GAIKEI
  6
Continuous
 62
   251
100
AcDbLine
 10
-7.443774987020049
 20
12.29722854533079
 30
0.0
 11
-7.445735287019829
 21
12.29598044533085
 31
0.0
  0
LINE
  5
30B
330
2
100
AcDbEntity
  8
GAIKEI
  6
Continuous
 62
   251
100
AcDbLine
 10
-7.44170698702004
 20
12.29834034533084
 30
0.0
 11
-7.443774987020049
 21
12.29722854533079
 31
0.0
  0
LINE
  5
30C
330
2
100
AcDbEntity
  8
GAIKEI
  6
Continuous
 62
   251
100
AcDbLine
 10
-7.437212187019838
 20
12.30016714533084
 30
0.0
 11
-7.44170698702004
 21
12.29834034533084
 31
0.0
  0
LINE
  5
30D
330
2
100
AcDbEntity
  8
GAIKEI
  6
Continuous
 62
   251
100
AcDbLine
 10
-7.432079887020051
 20
12.30150024533086
 30
0.0
 11
-7.437212187019838
 21
12.30016714533084
 31
0.0
  0
LINE
  5
30E
330
2
100
AcDbEntity
  8
GAIKEI
  6
Continuous
 62
   251
100
AcDbLine
 10
-7.426090887020052
 20
12.30233584533081
 30
0.0
 11
-7.432079887020051
 21
12.30150024533086
 31
0.0
  0
LINE
  5
30F
330
2
100
AcDbEntity
  8
GAIKEI
  6
Continuous
 62
   251
100
AcDbLine
 10
-7.418955887020047
 20
12.30263064533082
 30
0.0
 11
-7.426090887020052
 21
12.30233584533081
 31
0.0
  0
LINE
  5
310
330
2
100
AcDbEntity
  8
GAIKEI
  6
Continuous
 62
   251
100
AcDbLine
 10
-5.91056838701985
 20
12.11829174533082
 30
0.0
 11
-5.908142687020017
 21
12.12253814533082
 31
0.0
  0
LINE
  5
311
330
2
100
AcDbEntity
  8
GAIKEI
  6
Continuous
 62
   251
100
AcDbLine
 10
-5.913530287020023
 20
12.11444454533077
 30
0.0
 11
-5.91056838701985
 21
12.11829174533082
 31
0.0
  0
LINE
  5
312
330
2
100
AcDbEntity
  8
GAIKEI
  6
Continuous
 62
   251
100
AcDbLine
 10
-6.36899348702002
 20
12.09904254533077
 30
0.0
 11
-5.955995087019857
 21
12.09904254533077
 31
0.0
  0
LINE
  5
313
330
2
100
AcDbEntity
  8
GAIKEI
  6
Continuous
 62
   251
100
AcDbLine
 10
-6.399964887020018
 20
12.12701674533079
 30
0.0
 11
-6.36899348702002
 21
12.09904254533077
 31
0.0
  0
LINE
  5
314
330
2
100
AcDbEntity
  8
GAIKEI
  6
Continuous
 62
   251
100
AcDbLine
 10
-6.142030387019872
 20
12.12701674533079
 30
0.0
 11
-6.399964887020018
 21
12.12701674533079
 31
0.0
  0
LINE
  5
315
330
2
100
AcDbEntity
  8
GAIKEI
  6
Continuous
 62
   251
100
AcDbLine
 10
-6.072198287020057
 20
12.27205534533081
 30
0.0
 11
-6.142030387019872
 21
12.12701674533079
 31
0.0
  0
LINE
  5
316
330
2
100
AcDbEntity
  8
GAIKEI
  6
Continuous
 62
   251
100
AcDbLine
 10
-6.42559638702005
 20
12.27205534533081
 30
0.0
 11
-6.072198287020057
 21
12.27205534533081
 31
0.0
  0
LINE
  5
317
330
2
100
AcDbEntity
  8
GAIKEI
  6
Continuous
 62
   251
100
AcDbLine
 10
-6.508382087019867
 20
12.09933544533086
 30
0.0
 11
-6.42559638702005
 21
12.27205534533081
 31
0.0
  0
LINE
  5
318
330
2
100
AcDbEntity
  8
GAIKEI
  6
Continuous
 62
   251
100
AcDbLine
 10
-6.524545387020054
 20
12.09929954533081
 30
0.0
 11
-6.508382087019867
 21
12.09933544533086
 31
0.0
  0
LINE
  5
319
330
2
100
AcDbEntity
  8
GAIKEI
  6
Continuous
 62
   251
100
AcDbLine
 10
-6.620106587020018
 20
12.09912874533077
 30
0.0
 11
-6.524545387020054
 21
12.09929954533081
 31
0.0
  0
LINE
  5
31A
330
2
100
AcDbEntity
  8
GAIKEI
  6
Continuous
 62
   251
100
AcDbLine
 10
-6.623627787020041
 20
12.09926024533078
 30
0.0
 11
-6.620106587020018
 21
12.09912874533077
 31
0.0
  0
LINE
  5
31B
330
2
100
AcDbEntity
  8
GAIKEI
  6
Continuous
 62
   251
100
AcDbLine
 10
-6.628915387020015
 20
12.09998694533087
 30
0.0
 11
-6.623627787020041
 21
12.09926024533078
 31
0.0
  0
LINE
  5
31C
330
2
100
AcDbEntity
  8
GAIKEI
  6
Continuous
 62
   251
100
AcDbLine
 10
-6.633731987020041
 20
12.10129234533079
 30
0.0
 11
-6.628915387020015
 21
12.09998694533087
 31
0.0
  0
LINE
  5
31D
330
2
100
AcDbEntity
  8
GAIKEI
  6
Continuous
 62
   251
100
AcDbLine
 10
-6.637988787020049
 20
12.10309754533082
 30
0.0
 11
-6.633731987020041
 21
12.10129234533079
 31
0.0
  0
LINE
  5
31E
330
2
100
AcDbEntity
  8
GAIKEI
  6
Continuous
 62
   251
100
AcDbLine
 10
-6.641629987020053
 20
12.10531874533077
 30
0.0
 11
-6.637988787020049
 21
12.10309754533082
 31
0.0
  0
LINE
  5
31F
330
2
100
AcDbEntity
  8
GAIKEI
  6
Continuous
 62
   251
100
AcDbLine
 10
-6.644631787019818
 20
12.10787824533085
 30
0.0
 11
-6.641629987020053
 21
12.10531874533077
 31
0.0
  0
LINE
  5
320
330
2
100
AcDbEntity
  8
GAIKEI
  6
Continuous
 62
   251
100
AcDbLine
 10
-6.646993887020016
 20
12.11071434533082
 30
0.0
 11
-6.644631787019818
 21
12.10787824533085
 31
0.0
  0
LINE
  5
321
330
2
100
AcDbEntity
  8
GAIKEI
  6
Continuous
 62
   251
100
AcDbLine
 10
-6.648726487019871
 20
12.11378614533086
 30
0.0
 11
-6.646993887020016
 21
12.11071434533082
 31
0.0
  0
LINE
  5
322
330
2
100
AcDbEntity
  8
GAIKEI
  6
Continuous
 62
   251
100
AcDbLine
 10
-6.649835987020026
 20
12.11707374533077
 30
0.0
 11
-6.648726487019871
 21
12.11378614533086
 31
0.0
  0
LINE
  5
323
330
2
100
AcDbEntity
  8
GAIKEI
  6
Continuous
 62
   251
100
AcDbLine
 10
-6.650314387019818
 20
12.12057394533085
 30
0.0
 11
-6.649835987020026
 21
12.11707374533077
 31
0.0
  0
LINE
  5
324
330
2
100
AcDbEntity
  8
GAIKEI
  6
Continuous
 62
   251
100
AcDbLine
 10
-6.650308587019821
 20
12.12240724533077
 30
0.0
 11
-6.650314387019818
 21
12.12057394533085
 31
0.0
  0
LINE
  5
325
330
2
100
AcDbEntity
  8
GAIKEI
  6
Continuous
 62
   251
100
AcDbLine
 10
-6.650132287020028
 20
12.12429344533083
 30
0.0
 11
-6.650308587019821
 21
12.12240724533077
 31
0.0
  0
LINE
  5
326
330
2
100
AcDbEntity
  8
GAIKEI
  6
Continuous
 62
   251
100
AcDbLine
 10
-6.649246287020048
 20
12.12821304533085
 30
0.0
 11
-6.650132287020028
 21
12.12429344533083
 31
0.0
  0
LINE
  5
327
330
2
100
AcDbEntity
  8
GAIKEI
  6
Continuous
 62
   251
100
AcDbLine
 10
-6.647598487020047
 20
12.13233944533081
 30
0.0
 11
-6.649246287020048
 21
12.12821304533085
 31
0.0
  0
LINE
  5
328
330
2
100
AcDbEntity
  8
GAIKEI
  6
Continuous
 62
   251
100
AcDbLine
 10
-6.625732887020035
 20
12.17787964533076
 30
0.0
 11
-6.647598487020047
 21
12.13233944533081
 31
0.0
  0
LINE
  5
329
330
2
100
AcDbEntity
  8
GAIKEI
  6
Continuous
 62
   251
100
AcDbLine
 10
-6.577521487019851
 20
12.27913914533079
 30
0.0
 11
-6.625732887020035
 21
12.17787964533076
 31
0.0
  0
LINE
  5
32A
330
2
100
AcDbEntity
  8
GAIKEI
  6
Continuous
 62
   251
100
AcDbLine
 10
-6.576181587019846
 20
12.2819600453308
 30
0.0
 11
-6.577521487019851
 21
12.27913914533079
 31
0.0
  0
LINE
  5
32B
330
2
100
AcDbEntity
  8
GAIKEI
  6
Continuous
 62
   251
100
AcDbLine
 10
-6.573625587019819
 20
12.28627084533079
 30
0.0
 11
-6.576181587019846
 21
12.2819600453308
 31
0.0
  0
LINE
  5
32C
330
2
100
AcDbEntity
  8
GAIKEI
  6
Continuous
 62
   251
100
AcDbLine
 10
-6.570611487020016
 20
12.2900809453308
 30
0.0
 11
-6.573625587019819
 21
12.28627084533079
 31
0.0
  0
LINE
  5
32D
330
2
100
AcDbEntity
  8
GAIKEI
  6
Continuous
 62
   251
100
AcDbLine
 10
-6.567144987020014
 20
12.29341344533085
 30
0.0
 11
-6.570611487020016
 21
12.2900809453308
 31
0.0
  0
LINE
  5
32E
330
2
100
AcDbEntity
  8
GAIKEI
  6
Continuous
 62
   251
100
AcDbLine
 10
-6.563223887020058
 20
12.29627764533083
 30
0.0
 11
-6.567144987020014
 21
12.29341344533085
 31
0.0
  0
LINE
  5
32F
330
2
100
AcDbEntity
  8
GAIKEI
  6
Continuous
 62
   251
100
AcDbLine
 10
-6.558842987019829
 20
12.29866774533079
 30
0.0
 11
-6.563223887020058
 21
12.29627764533083
 31
0.0
  0
LINE
  5
330
330
2
100
AcDbEntity
  8
GAIKEI
  6
Continuous
 62
   251
100
AcDbLine
 10
-6.554001387019866
 20
12.30056314533081
 30
0.0
 11
-6.558842987019829
 21
12.29866774533079
 31
0.0
  0
LINE
  5
331
330
2
100
AcDbEntity
  8
GAIKEI
  6
Continuous
 62
   251
100
AcDbLine
 10
-6.548711887020033
 20
12.30193034533082
 30
0.0
 11
-6.554001387019866
 21
12.30056314533081
 31
0.0
  0
LINE
  5
332
330
2
100
AcDbEntity
  8
GAIKEI
  6
Continuous
 62
   251
100
AcDbLine
 10
-6.543011587020032
 20
12.30272674533083
 30
0.0
 11
-6.548711887020033
 21
12.30193034533082
 31
0.0
  0
LINE
  5
333
330
2
100
AcDbEntity
  8
GAIKEI
  6
Continuous
 62
   251
100
AcDbLine
 10
-6.538285587019856
 20
12.30292344533083
 30
0.0
 11
-6.543011587020032
 21
12.30272674533083
 31
0.0
  0
LINE
  5
334
330
2
100
AcDbEntity
  8
GAIKEI
  6
Continuous
 62
   251
100
AcDbLine
 10
-8.581676387019854
 20
12.21166284533078
 30
0.0
 11
-8.595353387019827
 21
12.18339584533086
 31
0.0
  0
LINE
  5
335
330
2
100
AcDbEntity
  8
GAIKEI
  6
Continuous
 62
   251
100
AcDbLine
 10
-5.883992587019861
 20
12.30292344533083
 30
0.0
 11
-6.538285587019856
 21
12.30292344533083
 31
0.0
  0
LINE
  5
336
330
2
100
AcDbEntity
  8
GAIKEI
  6
Continuous
 62
   251
100
AcDbLine
 10
-5.883029687020041
 20
12.3029172453308
 30
0.0
 11
-5.883992587019861
 21
12.30292344533083
 31
0.0
  0
LINE
  5
337
330
2
100
AcDbEntity
  8
GAIKEI
  6
Continuous
 62
   251
100
AcDbLine
 10
-5.876049287019839
 20
12.30249894533082
 30
0.0
 11
-5.883029687020041
 21
12.3029172453308
 31
0.0
  0
LINE
  5
338
330
2
100
AcDbEntity
  8
GAIKEI
  6
Continuous
 62
   251
100
AcDbLine
 10
-5.869384587019851
 20
12.30146274533078
 30
0.0
 11
-5.876049287019839
 21
12.30249894533082
 31
0.0
  0
LINE
  5
339
330
2
100
AcDbEntity
  8
GAIKEI
  6
Continuous
 62
   251
100
AcDbLine
 10
-5.863263287019833
 20
12.29988604533079
 30
0.0
 11
-5.869384587019851
 21
12.30146274533078
 31
0.0
  0
LINE
  5
33A
330
2
100
AcDbEntity
  8
GAIKEI
  6
Continuous
 62
   251
100
AcDbLine
 10
-5.857821387019839
 20
12.29785854533079
 30
0.0
 11
-5.863263287019833
 21
12.29988604533079
 31
0.0
  0
LINE
  5
33B
330
2
100
AcDbEntity
  8
GAIKEI
  6
Continuous
 62
   251
100
AcDbLine
 10
-5.853116587019826
 20
12.29546554533081
 30
0.0
 11
-5.857821387019839
 21
12.29785854533079
 31
0.0
  0
LINE
  5
33C
330
2
100
AcDbEntity
  8
GAIKEI
  6
Continuous
 62
   251
100
AcDbLine
 10
-5.849151987020036
 20
12.29277634533079
 30
0.0
 11
-5.853116587019826
 21
12.29546554533081
 31
0.0
  0
LINE
  5
33D
330
2
100
AcDbEntity
  8
GAIKEI
  6
Continuous
 62
   251
100
AcDbLine
 10
-5.845898787020018
 20
12.28983974533079
 30
0.0
 11
-5.849151987020036
 21
12.29277634533079
 31
0.0
  0
LINE
  5
33E
330
2
100
AcDbEntity
  8
GAIKEI
  6
Continuous
 62
   251
100
AcDbLine
 10
-5.843315887019855
 20
12.28668134533083
 30
0.0
 11
-5.845898787020018
 21
12.28983974533079
 31
0.0
  0
LINE
  5
33F
330
2
100
AcDbEntity
  8
GAIKEI
  6
Continuous
 62
   251
100
AcDbLine
 10
-5.841366187020071
 20
12.28330504533082
 30
0.0
 11
-5.843315887019855
 21
12.28668134533083
 31
0.0
  0
LINE
  5
340
330
2
100
AcDbEntity
  8
GAIKEI
  6
Continuous
 62
   251
100
AcDbLine
 10
-5.840027587020017
 20
12.27969474533077
 30
0.0
 11
-5.841366187020071
 21
12.28330504533082
 31
0.0
  0
LINE
  5
341
330
2
100
AcDbEntity
  8
GAIKEI
  6
Continuous
 62
   251
100
AcDbLine
 10
-5.83930128702002
 20
12.27581894533082
 30
0.0
 11
-5.840027587020017
 21
12.27969474533077
 31
0.0
  0
LINE
  5
342
330
2
100
AcDbEntity
  8
GAIKEI
  6
Continuous
 62
   251
100
AcDbLine
 10
-5.839175587020008
 20
12.27376674533079
 30
0.0
 11
-5.83930128702002
 21
12.27581894533082
 31
0.0
  0
LINE
  5
343
330
2
100
AcDbEntity
  8
GAIKEI
  6
Continuous
 62
   251
100
AcDbLine
 10
-5.839215987020054
 20
12.27163594533081
 30
0.0
 11
-5.839175587020008
 21
12.27376674533079
 31
0.0
  0
LINE
  5
344
330
2
100
AcDbEntity
  8
GAIKEI
  6
Continuous
 62
   251
100
AcDbLine
 10
-5.839819987020064
 20
12.26713754533077
 30
0.0
 11
-5.839215987020054
 21
12.27163594533081
 31
0.0
  0
LINE
  5
345
330
2
100
AcDbEntity
  8
GAIKEI
  6
Continuous
 62
   251
100
AcDbLine
 10
-5.841176987019821
 20
12.26228094533084
 30
0.0
 11
-5.839819987020064
 21
12.26713754533077
 31
0.0
  0
LINE
  5
346
330
2
100
AcDbEntity
  8
GAIKEI
  6
Continuous
 62
   251
100
AcDbLine
 10
-5.843374887020047
 20
12.25701754533079
 30
0.0
 11
-5.841176987019821
 21
12.26228094533084
 31
0.0
  0
LINE
  5
347
330
2
100
AcDbEntity
  8
GAIKEI
  6
Continuous
 62
   251
100
AcDbLine
 10
-5.908142687020017
 20
12.12253814533082
 30
0.0
 11
-5.843374887020047
 21
12.25701754533079
 31
0.0
  0
LINE
  5
348
330
2
100
AcDbEntity
  8
GAIKEI
  6
Continuous
 62
   251
100
AcDbLine
 10
-8.447041987019815
 20
12.18339584533086
 30
0.0
 11
-8.433433787019851
 21
12.21166284533078
 31
0.0
  0
LINE
  5
349
330
2
100
AcDbEntity
  8
GAIKEI
  6
Continuous
 62
   251
100
AcDbLine
 10
-8.75279438702006
 20
12.09942154533078
 30
0.0
 11
-8.669560787020031
 21
12.27320954533078
 31
0.0
  0
LINE
  5
34A
330
2
100
AcDbEntity
  8
GAIKEI
  6
Continuous
 62
   251
100
AcDbLine
 10
-8.655780487020024
 20
12.30195884533086
 30
0.0
 11
-8.637693687020032
 21
12.3402166453308
 31
0.0
  0
LINE
  5
34B
330
2
100
AcDbEntity
  8
GAIKEI
  6
Continuous
 62
   251
100
AcDbLine
 10
-8.839576387020031
 20
12.3402166453308
 30
0.0
 11
-8.857525387020018
 21
12.30195884533086
 31
0.0
  0
LINE
  5
34C
330
2
100
AcDbEntity
  8
GAIKEI
  6
Continuous
 62
   251
100
AcDbLine
 10
-8.84290088702005
 20
12.09921694533082
 30
0.0
 11
-8.75279438702006
 21
12.09942154533078
 31
0.0
  0
LINE
  5
34D
330
2
100
AcDbEntity
  8
GAIKEI
  6
Continuous
 62
   251
100
AcDbLine
 10
-8.898280887020064
 20
12.09923204533081
 30
0.0
 11
-8.84290088702005
 21
12.09921694533082
 31
0.0
  0
LINE
  5
34E
330
2
100
AcDbEntity
  8
GAIKEI
  6
Continuous
 62
   251
100
AcDbLine
 10
-8.902254587019854
 20
12.09935984533078
 30
0.0
 11
-8.898280887020064
 21
12.09923204533081
 31
0.0
  0
LINE
  5
34F
330
2
100
AcDbEntity
  8
GAIKEI
  6
Continuous
 62
   251
100
AcDbLine
 10
-8.906139187020016
 20
12.09973974533082
 30
0.0
 11
-8.902254587019854
 21
12.09935984533078
 31
0.0
  0
LINE
  5
350
330
2
100
AcDbEntity
  8
GAIKEI
  6
Continuous
 62
   251
100
AcDbLine
 10
-8.909908087020028
 20
12.10036444533077
 30
0.0
 11
-8.906139187020016
 21
12.09973974533082
 31
0.0
  0
LINE
  5
351
330
2
100
AcDbEntity
  8
GAIKEI
  6
Continuous
 62
   251
100
AcDbLine
 10
-8.911864687019829
 20
12.10079524533083
 30
0.0
 11
-8.909908087020028
 21
12.10036444533077
 31
0.0
  0
LINE
  5
352
330
2
100
AcDbEntity
  8
GAIKEI
  6
Continuous
 62
   251
100
AcDbLine
 10
-8.915394687019841
 20
12.10177294533079
 30
0.0
 11
-8.911864687019829
 21
12.10079524533083
 31
0.0
  0
LINE
  5
353
330
2
100
AcDbEntity
  8
GAIKEI
  6
Continuous
 62
   251
100
AcDbLine
 10
-8.918729987020014
 20
12.10295944533081
 30
0.0
 11
-8.915394687019841
 21
12.10177294533079
 31
0.0
  0
LINE
  5
354
330
2
100
AcDbEntity
  8
GAIKEI
  6
Continuous
 62
   251
100
AcDbLine
 10
-8.92184758702001
 20
12.10433604533082
 30
0.0
 11
-8.918729987020014
 21
12.10295944533081
 31
0.0
  0
LINE
  5
355
330
2
100
AcDbEntity
  8
GAIKEI
  6
Continuous
 62
   251
100
AcDbLine
 10
-8.924728287019831
 20
12.10588204533084
 30
0.0
 11
-8.92184758702001
 21
12.10433604533082
 31
0.0
  0
LINE
  5
356
330
2
100
AcDbEntity
  8
GAIKEI
  6
Continuous
 62
   251
100
AcDbLine
 10
-8.927357387020038
 20
12.10757654533083
 30
0.0
 11
-8.924728287019831
 21
12.10588204533084
 31
0.0
  0
LINE
  5
357
330
2
100
AcDbEntity
  8
GAIKEI
  6
Continuous
 62
   251
100
AcDbLine
 10
-8.929724887019858
 20
12.10939844533081
 30
0.0
 11
-8.927357387020038
 21
12.10757654533083
 31
0.0
  0
LINE
  5
358
330
2
100
AcDbEntity
  8
GAIKEI
  6
Continuous
 62
   251
100
AcDbLine
 10
-8.931825187020024
 20
12.11132814533081
 30
0.0
 11
-8.929724887019858
 21
12.10939844533081
 31
0.0
  0
LINE
  5
359
330
2
100
AcDbEntity
  8
GAIKEI
  6
Continuous
 62
   251
100
AcDbLine
 10
-8.933656387019823
 20
12.11334784533082
 30
0.0
 11
-8.931825187020024
 21
12.11132814533081
 31
0.0
  0
LINE
  5
35A
330
2
100
AcDbEntity
  8
GAIKEI
  6
Continuous
 62
   251
100
AcDbLine
 10
-8.935219987020047
 20
12.11544234533082
 30
0.0
 11
-8.933656387019823
 21
12.11334784533082
 31
0.0
  0
LINE
  5
35B
330
2
100
AcDbEntity
  8
GAIKEI
  6
Continuous
 62
   251
100
AcDbLine
 10
-8.936519187019825
 20
12.1175994453308
 30
0.0
 11
-8.935219987020047
 21
12.11544234533082
 31
0.0
  0
LINE
  5
35C
330
2
100
AcDbEntity
  8
GAIKEI
  6
Continuous
 62
   251
100
AcDbLine
 10
-8.937558187019817
 20
12.1198097453308
 30
0.0
 11
-8.936519187019825
 21
12.1175994453308
 31
0.0
  0
LINE
  5
35D
330
2
100
AcDbEntity
  8
GAIKEI
  6
Continuous
 62
   251
100
AcDbLine
 10
-8.938340787019853
 20
12.12206714533081
 30
0.0
 11
-8.937558187019817
 21
12.1198097453308
 31
0.0
  0
LINE
  5
35E
330
2
100
AcDbEntity
  8
GAIKEI
  6
Continuous
 62
   251
100
AcDbLine
 10
-8.938869787019825
 20
12.1243676453308
 30
0.0
 11
-8.938340787019853
 21
12.12206714533081
 31
0.0
  0
LINE
  5
35F
330
2
100
AcDbEntity
  8
GAIKEI
  6
Continuous
 62
   251
100
AcDbLine
 10
-8.93914558702005
 20
12.12670974533077
 30
0.0
 11
-8.938869787019825
 21
12.1243676453308
 31
0.0
  0
LINE
  5
360
330
2
100
AcDbEntity
  8
GAIKEI
  6
Continuous
 62
   251
100
AcDbLine
 10
-8.939166087019827
 20
12.12909324533083
 30
0.0
 11
-8.93914558702005
 21
12.12670974533077
 31
0.0
  0
LINE
  5
361
330
2
100
AcDbEntity
  8
GAIKEI
  6
Continuous
 62
   251
100
AcDbLine
 10
-8.938926187019831
 20
12.13151884533076
 30
0.0
 11
-8.939166087019827
 21
12.12909324533083
 31
0.0
  0
LINE
  5
362
330
2
100
AcDbEntity
  8
GAIKEI
  6
Continuous
 62
   251
100
AcDbLine
 10
-8.938706187019874
 20
12.13274804533077
 30
0.0
 11
-8.938926187019831
 21
12.13151884533076
 31
0.0
  0
LINE
  5
363
330
2
100
AcDbEntity
  8
GAIKEI
  6
Continuous
 62
   251
100
AcDbLine
 10
-8.93841778701983
 20
12.13398764533085
 30
0.0
 11
-8.938706187019874
 21
12.13274804533077
 31
0.0
  0
LINE
  5
364
330
2
100
AcDbEntity
  8
GAIKEI
  6
Continuous
 62
   251
100
AcDbLine
 10
-8.937631587020064
 20
12.13649484533081
 30
0.0
 11
-8.93841778701983
 21
12.13398764533085
 31
0.0
  0
LINE
  5
365
330
2
100
AcDbEntity
  8
GAIKEI
  6
Continuous
 62
   251
100
AcDbLine
 10
-8.936555887020062
 20
12.13904014533082
 30
0.0
 11
-8.937631587020064
 21
12.13649484533081
 31
0.0
  0
LINE
  5
366
330
2
100
AcDbEntity
  8
GAIKEI
  6
Continuous
 62
     1
100
AcDbLine
 10
-7.927561538619841
 20
9.393851515135878
 30
0.0
 11
-7.927561538619841
 21
10.99385151513584
 31
0.0
  0
LINE
  5
367
330
2
100
AcDbEntity
  8
GAIKEI
  6
Continuous
 62
     1
100
AcDbLine
 10
-6.327561538619875
 20
9.393851515135878
 30
0.0
 11
-7.927561538619841
 21
9.393851515135878
 31
0.0
  0
LINE
  5
368
330
2
100
AcDbEntity
  8
GAIKEI
  6
Continuous
 62
     1
100
AcDbLine
 10
-6.327561538619875
 20
10.99385151513584
 30
0.0
 11
-6.327561538619875
 21
9.393851515135878
 31
0.0
  0
LINE
  5
369
330
2
100
AcDbEntity
  8
GAIKEI
  6
Continuous
 62
     1
100
AcDbLine
 10
-7.927561538619841
 20
10.99385151513584
 30
0.0
 11
-6.327561538619875
 21
10.99385151513584
 31
0.0
  0
ELLIPSE
  5
36A
330
2
100
AcDbEntity
  8
GAIKEI
 62
     1
100
AcDbEllipse
 10
-43.33645353701996
 20
9.531193093370831
 30
0.0
 11
0.3149938999998994
 21
0.0
 31
0.0
210
0.0
220
0.0
230
1.0
 40
0.3650569226601744
 41
0.0
 42
6.283185307179586
  0
ELLIPSE
  5
36B
330
2
100
AcDbEntity
  8
GAIKEI
 62
     1
100
AcDbEllipse
 10
-43.33645353701996
 20
10.48987805497873
 30
0.0
 11
0.3149938999998994
 21
0.0
 31
0.0
210
0.0
220
0.0
230
1.0
 40
0.3650569226601744
 41
0.0
 42
6.283185307179586
  0
ELLIPSE
  5
36C
330
2
100
AcDbEntity
  8
GAIKEI
 62
     1
100
AcDbEllipse
 10
-41.09398262511127
 20
9.531193093370831
 30
0.0
 11
0.3149938999998994
 21
0.0
 31
0.0
210
0.0
220
0.0
230
1.0
 40
0.3650569226601744
 41
0.0
 42
6.283185307179586
  0
ELLIPSE
  5
36D
330
2
100
AcDbEntity
  8
GAIKEI
 62
     1
100
AcDbEllipse
 10
-41.09398262511127
 20
10.48987805497873
 30
0.0
 11
0.3149938999998994
 21
0.0
 31
0.0
210
0.0
220
0.0
230
1.0
 40
0.3650569226601744
 41
0.0
 42
6.283185307179586
  0
ELLIPSE
  5
36E
330
2
100
AcDbEntity
  8
GAIKEI
 62
     1
100
AcDbEllipse
 10
-38.85331930088881
 20
10.48987805497873
 30
0.0
 11
0.3149938999998994
 21
0.0
 31
0.0
210
0.0
220
0.0
230
1.0
 40
0.3650569226601744
 41
0.0
 42
6.283185307179586
  0
ELLIPSE
  5
36F
330
2
100
AcDbEntity
  8
GAIKEI
 62
     1
100
AcDbEllipse
 10
-38.85331930088881
 20
9.531193093370831
 30
0.0
 11
0.3149938999998994
 21
0.0
 31
0.0
210
0.0
220
0.0
230
1.0
 40
0.3650569226601744
 41
0.0
 42
6.283185307179586
  0
CIRCLE
  5
370
330
2
100
AcDbEntity
  8
GAIKEI
 62
     1
100
AcDbCircle
 10
-38.86147158701999
 20
7.661694945330822
 30
0.0
 40
0.3698958003777232
  0
LINE
  5
371
330
2
100
AcDbEntity
  8
GAIKEI
  6
Continuous
 62
     1
100
AcDbLine
 10
-31.88897155713988
 20
4.633470528750791
 30
0.0
 11
-31.88897155713988
 21
6.735645662490782
 31
0.0
  0
LINE
  5
372
330
2
100
AcDbEntity
  8
GAIKEI
  6
Continuous
 62
     7
100
AcDbLine
 10
-4.841471587019839
 20
13.34176173095076
 30
0.0
 11
-4.841471587019839
 21
4.641620898350737
 31
0.0
  0
SPLINE
  5
373
330
2
100
AcDbEntity
  8
GAIKEI
  6
Continuous
 62
     1
100
AcDbSpline
210
0.0
220
0.0
230
1.0
 70
     8
 71
     3
 72
    21
 73
    17
 74
    15
 42
0.0000000001
 43
0.0000000001
 44
0.00000001
 40
0.0
 40
0.0
 40
0.0
 40
0.0
 40
0.5949914731516339
 40
1.189982893289387
 40
1.587224733100145
 40
1.984466567058542
 40
2.38181350329975
 40
2.779160440532404
 40
3.176243593550726
 40
3.573326746709405
 40
3.969764396359883
 40
4.366202045229131
 40
4.76162454138767
 40
5.157047043884198
 40
5.747720306538141
 40
6.338393623559555
 40
6.338393623559555
 40
6.338393623559555
 40
6.338393623559555
 10
-4.927373306799665
 20
6.791694945330817
 30
0.0
 10
-4.927914786318574
 20
6.99002470759612
 30
0.0
 10
-4.928997730595938
 20
7.386684214493101
 30
0.0
 10
-4.92990207057501
 20
7.915758443862273
 30
0.0
 10
-4.930410993754435
 20
8.378916540451854
 30
0.0
 10
-4.93063084592606
 20
8.776193371398676
 30
0.0
 10
-4.93064006809709
 20
9.17350529166211
 30
0.0
 10
-4.930437188105074
 20
9.570764267811682
 30
0.0
 10
-4.930022467879787
 20
9.96793515120612
 30
0.0
 10
-4.929396199256657
 20
10.36480266118624
 30
0.0
 10
-4.9285581731705
 20
10.76145461234463
 30
0.0
 10
-4.927508849980917
 20
11.1575525053976
 30
0.0
 10
-4.926249154300272
 20
11.55331140514781
 30
0.0
 10
-4.924529997010793
 20
12.01381429492988
 30
0.0
 10
-4.922243168129718
 20
12.53939910717454
 30
0.0
 10
-4.920121685539456
 20
12.93317560695686
 30
0.0
 10
-4.919060936839684
 20
13.13006386587082
 30
0.0
 11
-4.927373306799665
 21
6.791694945330817
 31
0.0
 11
-4.928896506256762
 21
7.386684468759966
 31
0.0
 11
-4.929942147775705
 21
7.981674970096122
 31
0.0
 11
-4.930374893650082
 21
8.378916574200133
 31
0.0
 11
-4.930595739141608
 21
8.776158346774394
 31
0.0
 11
-4.930604720117003
 21
9.173505282919308
 31
0.0
 11
-4.930401811643491
 21
9.570852168348807
 31
0.0
 11
-4.929987147921224
 21
9.96793510486114
 31
0.0
 11
-4.929360453076981
 21
10.36501776348572
 31
0.0
 11
-4.928522741815413
 21
10.76145452805812
 31
0.0
 11
-4.927472646636545
 21
11.1578907861697
 31
0.0
 11
-4.926212902775318
 21
11.5533112756718
 31
0.0
 11
-4.924740323674313
 21
11.94873103617422
 31
0.0
 11
-4.922141141926203
 21
12.53939858012663
 31
0.0
 11
-4.919060936839684
 21
13.13006386587082
 31
0.0
  0
SPLINE
  5
374
330
2
100
AcDbEntity
  8
GAIKEI
  6
Continuous
 62
     7
100
AcDbSpline
210
0.0
220
0.0
230
1.0
 70
    24
 71
     3
 72
     9
 73
     5
 74
     3
 42
0.0000000001
 43
0.0000000001
 44
0.00000001
 40
0.0
 40
0.0
 40
0.0
 40
0.0
 40
0.0088202390835499
 40
0.0176404781672155
 40
0.0176404781672155
 40
0.0176404781672155
 40
0.0176404781672155
 10
-4.874045425879671
 20
13.3885582987908
 30
0.0
 10
-4.87693865513301
 20
13.38908107321418
 30
0.0
 10
-4.882725113639736
 20
13.39012662206085
 30
0.0
 10
-4.888511572146477
 20
13.39117217090748
 30
0.0
 10
-4.891404801399858
 20
13.39169494533084
 30
0.0
 11
-4.874045425879671
 21
13.3885582987908
 31
0.0
 11
-4.882725113639708
 21
13.39012662206082
 31
0.0
 11
-4.891404801399858
 21
13.39169494533084
 31
0.0
  0
SPLINE
  5
375
330
2
100
AcDbEntity
  8
GAIKEI
  6
Continuous
 62
     7
100
AcDbSpline
210
0.0
220
0.0
230
1.0
 70
    24
 71
     3
 72
     9
 73
     5
 74
     3
 42
0.0000000001
 43
0.0000000001
 44
0.00000001
 40
0.0
 40
0.0
 40
0.0
 40
0.0
 40
0.0041794457296253
 40
0.0083588914592911
 40
0.0083588914592911
 40
0.0083588914592911
 40
0.0083588914592911
 10
-4.866470279079692
 20
13.38502443159083
 30
0.0
 10
-4.867732803546346
 20
13.3856134094575
 30
0.0
 10
-4.870257852479653
 20
13.38679136519084
 30
0.0
 10
-4.872782901412989
 20
13.38796932092418
 30
0.0
 10
-4.874045425879671
 20
13.3885582987908
 30
0.0
 11
-4.866470279079692
 21
13.38502443159083
 31
0.0
 11
-4.870257852479653
 21
13.38679136519081
 31
0.0
 11
-4.874045425879671
 21
13.3885582987908
 31
0.0
  0
SPLINE
  5
376
330
2
100
AcDbEntity
  8
GAIKEI
  6
Continuous
 62
     7
100
AcDbSpline
210
0.0
220
0.0
230
1.0
 70
     8
 71
     3
 72
     9
 73
     5
 74
     3
 42
0.0000000001
 43
0.0000000001
 44
0.00000001
 40
0.0
 40
0.0
 40
0.0
 40
0.0
 40
0.0258597097346221
 40
0.0517313154234812
 40
0.0517313154234812
 40
0.0517313154234812
 40
0.0517313154234812
 10
-4.841471587019839
 20
13.34176173095076
 30
0.0
 10
-4.842737055104706
 20
13.35064601725693
 30
0.0
 10
-4.845268590821497
 20
13.36841866964175
 30
0.0
 10
-4.859401961337262
 20
13.37948833292793
 30
0.0
 10
-4.866470279079692
 20
13.38502443159083
 30
0.0
 11
-4.841471587019839
 21
13.34176173095076
 31
0.0
 11
-4.8481671249138
 21
13.36673961104154
 31
0.0
 11
-4.866470279079692
 21
13.38502443159083
 31
0.0
  0
SPLINE
  5
377
330
2
100
AcDbEntity
  8
GAIKEI
  6
Continuous
 62
     7
100
AcDbSpline
210
0.0
220
0.0
230
1.0
 70
    24
 71
     3
 72
     9
 73
     5
 74
     3
 42
0.0000000001
 43
0.0000000001
 44
0.00000001
 40
0.0
 40
0.0
 40
0.0
 40
0.0
 40
0.0045274871126838
 40
0.0090549742252609
 40
0.0090549742252609
 40
0.0090549742252609
 40
0.0090549742252609
 10
-4.842310944159692
 20
4.632604910450794
 30
0.0
 10
-4.842171051303083
 20
4.634107575100784
 30
0.0
 10
-4.841891265589808
 20
4.637112904400794
 30
0.0
 10
-4.841611479876497
 20
4.640118233700803
 30
0.0
 10
-4.841471587019839
 20
4.641620898350737
 30
0.0
 11
-4.842310944159692
 21
4.632604910450794
 31
0.0
 11
-4.841891265589822
 21
4.637112904400822
 31
0.0
 11
-4.841471587019839
 21
4.641620898350737
 31
0.0
  0
SPLINE
  5
378
330
2
100
AcDbEntity
  8
GAIKEI
  6
Continuous
 62
     7
100
AcDbSpline
210
0.0
220
0.0
230
1.0
 70
     8
 71
     3
 72
    11
 73
     7
 74
     5
 42
0.0000000001
 43
0.0000000001
 44
0.00000001
 40
0.0
 40
0.0
 40
0.0
 40
0.0
 40
0.0196440508789127
 40
0.0389149682855632
 40
0.0539677134570747
 40
0.0689667954924778
 40
0.0689667954924778
 40
0.0689667954924778
 40
0.0689667954924778
 10
-4.891397540059699
 20
4.591694945330772
 30
0.0
 10
-4.884791405209128
 20
4.592439078930425
 30
0.0
 10
-4.87170462052245
 20
4.593913225682399
 30
0.0
 10
-4.856582220456004
 20
4.604782246417698
 30
0.0
 10
-4.846284892230173
 20
4.617971992963788
 30
0.0
 10
-4.843634011116975
 20
4.62773307974146
 30
0.0
 10
-4.842310944159692
 20
4.632604910450794
 30
0.0
 11
-4.891397540059699
 21
4.591694945330772
 31
0.0
 11
-4.872135234350423
 21
4.595548822275276
 31
0.0
 11
-4.856173157175078
 21
4.606346066871168
 31
0.0
 11
-4.847182711022526
 21
4.618419057923887
 31
0.0
 11
-4.842310944159692
 21
4.632604910450794
 31
0.0
  0
LINE
  5
379
330
2
100
AcDbEntity
  8
GAIKEI
  6
Continuous
 62
   251
100
AcDbLine
 10
-7.454641007285147
 20
12.28681358556835
 30
0.0
 11
-7.445016511737065
 21
12.29643808111646
 31
0.0
  0
LINE
  5
37A
330
2
100
AcDbEntity
  8
GAIKEI
  6
Continuous
 62
   251
100
AcDbLine
 10
-7.060979592416742
 20
12.19964238922992
 30
0.0
 11
-7.060590227396801
 21
12.20003175424986
 31
0.0
  0
LINE
  5
37B
330
2
100
AcDbEntity
  8
GAIKEI
  6
Continuous
 62
     1
100
AcDbLine
 10
-5.820561143599832
 20
11.53160260119077
 30
0.0
 11
-5.816055113073844
 21
8.772596839650844
 31
0.0
  0
ARC
  5
37C
330
2
100
AcDbEntity
  8
GAIKEI
 62
     1
100
AcDbCircle
 10
18.12956671605354
 20
7.395737247510311
 30
0.0
 40
1.000453675170747
100
AcDbArc
 50
226.3299826965488
 51
247.4618688776137
  0
LINE
  5
37D
330
2
100
AcDbEntity
  8
GAIKEI
  6
Continuous
 62
     1
100
AcDbLine
 10
-44.57600972907989
 20
6.737675656790742
 30
0.0
 11
-44.57600972907989
 21
5.381369416930823
 31
0.0
  0
LINE
  5
37E
330
2
100
AcDbEntity
  8
GAIKEI
  6
Continuous
 62
     1
100
AcDbLine
 10
-42.10693344482002
 20
5.381369416930823
 30
0.0
 11
-42.10693344482002
 21
6.737675656790742
 31
0.0
  0
DIMENSION
  5
37F
330
2
100
AcDbEntity
  8
SUNPO
 62
     3
100
AcDbDimension
  2
*D6
 10
-4.841471587019824
 20
21.36149339706284
 30
0.0
 11
-25.84147158701985
 21
23.11149339706284
 31
0.0
 70
    33
  1
420
 71
     5
 42
42.00000000000005
  3
STANDARD
100
AcDbAlignedDimension
 13
-46.84147158701988
 23
13.36149339706284
 33
0.0
 14
-4.841471587019825
 24
13.36149339706284
 34
0.0
1001
ACAD
1000
DSTYLE
1002
{
1070
    40
1040
1.0
1070
   140
1040
2.5
1070
   147
1040
0.5
1070
   172
1070
     1
1070
   279
1070
     0
1070
   288
1070
     0
1002
}
  0
DIMENSION
  5
38E
330
2
100
AcDbEntity
  8
SUNPO
100
AcDbDimension
  2
*D5
 10
3.157549172861365
 20
4.591694945330712
 30
0.0
 11
1.407549172861365
 21
8.991694945330747
 31
0.0
 70
    33
  1
88
 71
     5
 42
8.800000000000068
  3
STANDARD
100
AcDbAlignedDimension
 13
-4.842450827138634
 23
13.39169494533078
 33
0.0
 14
-4.842450827138634
 24
4.591694945330715
 34
0.0
1001
ACAD
1000
DSTYLE
1002
{
1070
    40
1040
1.0
1070
   140
1040
2.5
1070
   147
1040
0.5
1070
   172
1070
     1
1070
   279
1070
     0
1070
   288
1070
     0
1002
}
  0
DIMENSION
  5
39B
330
2
100
AcDbEntity
  8
SUNPO
 62
     3
100
AcDbDimension
  2
*D4
 10
47.49040666559397
 20
21.36149339706279
 30
0.0
 11
32.49040666559401
 21
23.11149339706279
 31
0.0
 70
    33
  1
300
 71
     5
 42
29.99999999999995
  3
STANDARD
100
AcDbAlignedDimension
 13
17.49040666559404
 23
13.36149339706279
 33
0.0
 14
47.49040666559397
 24
13.36149339706279
 34
0.0
1001
ACAD
1000
DSTYLE
1002
{
1070
    40
1040
1.0
1070
   140
1040
2.5
1070
   147
1040
0.5
1070
   172
1070
     1
1070
   279
1070
     0
1070
   288
1070
     0
1002
}
  0
TEXT
  5
3A8
330
2
100
AcDbEntity
  8
MOJI1
100
AcDbText
 10
-20.96505546914818
 20
-54.09654607789085
 30
0.0
 40
3.0
  1
ＢＮＣ×１（ライブ画）
100
AcDbText
  0
TEXT
  5
3A9
330
2
100
AcDbEntity
  8
MOJI1
100
AcDbText
 10
-60.96505546914818
 20
-14.09654607789085
 30
0.0
 40
3.0
  1
電　源
100
AcDbText
  0
TEXT
  5
3AA
330
2
100
AcDbEntity
  8
MOJI1
100
AcDbText
 10
-20.96505546914818
 20
-14.09654607789085
 30
0.0
 40
3.0
  1
ＡＣ１００Ｖ、５０ Ｈｚ／６０ Ｈｚ
 41
0.95
100
AcDbText
  0
LINE
  5
3AB
330
2
100
AcDbEntity
  8
WAKU
 62
     1
100
AcDbLine
 10
-63.46505546914818
 20
-25.09654607789085
 30
0.0
 11
61.5349445308517
 21
-25.09654607789085
 31
0.0
  0
LINE
  5
3AC
330
2
100
AcDbEntity
  8
WAKU
 62
     1
100
AcDbLine
 10
-63.46505546914818
 20
-30.09654607789085
 30
0.0
 11
61.5349445308517
 21
-30.09654607789085
 31
0.0
  0
LINE
  5
3AD
330
2
100
AcDbEntity
  8
WAKU
 62
     1
100
AcDbLine
 10
-63.46505546914818
 20
-35.09654607789085
 30
0.0
 11
61.5349445308517
 21
-35.09654607789085
 31
0.0
  0
LINE
  5
3AE
330
2
100
AcDbEntity
  8
WAKU
 62
     1
100
AcDbLine
 10
-63.46505546914818
 20
-45.09654607789085
 30
0.0
 11
61.5349445308517
 21
-45.09654607789085
 31
0.0
  0
LINE
  5
3AF
330
2
100
AcDbEntity
  8
WAKU
 62
     4
100
AcDbLine
 10
-63.46505546914818
 20
-10.09654607789085
 30
0.0
 11
61.5349445308517
 21
-10.09654607789085
 31
0.0
  0
LINE
  5
3B0
330
2
100
AcDbEntity
  8
WAKU
 62
     1
100
AcDbLine
 10
-63.46505546914818
 20
-15.09654607789085
 30
0.0
 11
61.5349445308517
 21
-15.09654607789085
 31
0.0
  0
LINE
  5
3B1
330
2
100
AcDbEntity
  8
WAKU
 62
     1
100
AcDbLine
 10
-63.46505546914818
 20
-20.09654607789085
 30
0.0
 11
61.5349445308517
 21
-20.09654607789085
 31
0.0
  0
TEXT
  5
3B2
330
2
100
AcDbEntity
  8
MOJI1
100
AcDbText
 10
-20.96505546914818
 20
-19.09654607789085
 30
0.0
 40
3.0
  1
４台／最大１６台（ネットワーク経由)
 41
0.9
100
AcDbText
  0
TEXT
  5
3B3
330
2
100
AcDbEntity
  8
MOJI1
100
AcDbText
 10
-60.96505546914818
 20
-19.09654607789085
 30
0.0
 40
3.0
  1
カメラ入力
100
AcDbText
  0
TEXT
  5
3B4
330
2
100
AcDbEntity
  8
MOJI1
100
AcDbText
 10
-60.96505546914818
 20
-34.09654607789085
 30
0.0
 40
3.0
  1
ＨＤＤ
100
AcDbText
  0
TEXT
  5
3B5
330
2
100
AcDbEntity
  8
MOJI1
100
AcDbText
 10
-20.96505546914818
 20
-24.09654607789085
 30
0.0
 40
3.0
  1
カメラ拡張キット（ＤＧ－ＮＶＥ２０）により、
 41
0.9
100
AcDbText
  0
TEXT
  5
3B6
330
2
100
AcDbEntity
  8
MOJI1
100
AcDbText
 10
-20.96505546914818
 20
-44.09654607789085
 30
0.0
 40
3.0
  1
１０ＢＡＳＥ－Ｔ／１００ＢＡＳＥ－ＴＸ／１０００ＢＡＳＥ－Ｔ（ＲＪ－４５）
 41
0.6200000000000001
100
AcDbText
  0
TEXT
  5
3B7
330
2
100
AcDbEntity
  8
MOJI1
100
AcDbText
 10
-60.96505546914818
 20
-49.09654607789085
 30
0.0
 40
3.0
  1
モニター出力
100
AcDbText
  0
TEXT
  5
3B8
330
2
100
AcDbEntity
  8
MOJI1
100
AcDbText
 10
-60.96505546914818
 20
-44.09654607789085
 30
0.0
 40
3.0
  1
ネットワークポート
100
AcDbText
  0
TEXT
  5
3B9
330
2
100
AcDbEntity
  8
MOJI1
100
AcDbText
 10
-20.96505546914818
 20
-49.09654607789085
 30
0.0
 40
3.0
  1
ＨＤＭＩ端子×１（ライブ画、再生画）
 41
0.85
100
AcDbText
  0
LINE
  5
3BA
330
2
100
AcDbEntity
  8
WAKU
 62
     4
100
AcDbLine
 10
61.5349445308517
 20
-10.09654607789085
 30
0.0
 11
61.5349445308517
 21
-65.09654607789085
 31
0.0
  0
LINE
  5
3BB
330
2
100
AcDbEntity
  8
WAKU
 62
     4
100
AcDbLine
 10
-23.46505546914818
 20
-10.09654607789085
 30
0.0
 11
-23.46505546914818
 21
-65.09654607789085
 31
0.0
  0
LINE
  5
3BC
330
2
100
AcDbEntity
  8
WAKU
 62
     4
100
AcDbLine
 10
-63.46505546914818
 20
-10.09654607789085
 30
0.0
 11
-63.46505546914818
 21
-65.09654607789085
 31
0.0
  0
LINE
  5
3BD
330
2
100
AcDbEntity
  8
WAKU
 62
     4
100
AcDbLine
 10
61.5349445308517
 20
-65.09654607789085
 30
0.0
 11
-63.46505546914818
 21
-65.09654607789085
 31
0.0
  0
LINE
  5
3BE
330
2
100
AcDbEntity
  8
WAKU
 62
     1
100
AcDbLine
 10
-63.46505546914818
 20
-50.09654607789085
 30
0.0
 11
61.5349445308517
 21
-50.09654607789085
 31
0.0
  0
LINE
  5
3BF
330
2
100
AcDbEntity
  8
WAKU
 62
     1
100
AcDbLine
 10
-63.46505546914818
 20
-55.09654607789085
 30
0.0
 11
61.5349445308517
 21
-55.09654607789085
 31
0.0
  0
LINE
  5
3C0
330
2
100
AcDbEntity
  8
WAKU
 62
     1
100
AcDbLine
 10
-63.46505546914818
 20
-60.09654607789085
 30
0.0
 11
61.5349445308517
 21
-60.09654607789085
 31
0.0
  0
TEXT
  5
3C1
330
2
100
AcDbEntity
  8
MOJI1
100
AcDbText
 10
-20.96505546914818
 20
-29.09654607789085
 30
0.0
 40
3.0
  1
入力数を９、１２、１６に増設可能
 41
0.9
100
AcDbText
  0
TEXT
  5
3C2
330
2
100
AcDbEntity
  8
MOJI1
100
AcDbText
 10
-20.96505546914818
 20
-34.09654607789085
 30
0.0
 40
3.0
  1
３．５インチ　ＨＤＤ×１（１ＴＢ）
 41
0.9
100
AcDbText
  0
TEXT
  5
3C3
330
2
100
AcDbEntity
  8
MOJI1
100
AcDbText
 10
-20.96505546914818
 20
-64.09654607789085
 30
0.0
 40
3.0
  1
高精細画像監視、かんたん操作・簡単設定、リアルタイム顔照合
 41
0.7800000000000001
100
AcDbText
  0
TEXT
  5
3C4
330
2
100
AcDbEntity
  8
MOJI1
100
AcDbText
 10
-20.96505546914818
 20
-59.09654607789085
 30
0.0
 40
3.0
  1
ＳＤＨＣ／ＳＤメモリーカード
 41
0.85
100
AcDbText
  0
TEXT
  5
3C5
330
2
100
AcDbEntity
  8
MOJI1
100
AcDbText
 10
-60.96505546914818
 20
-54.09654607789085
 30
0.0
 40
3.0
  1
スポット出力
100
AcDbText
  0
TEXT
  5
3C6
330
2
100
AcDbEntity
  8
MOJI1
100
AcDbText
 10
-60.96505546914818
 20
-59.09654607789085
 30
0.0
 40
3.0
  1
コピー出力
100
AcDbText
  0
TEXT
  5
3C7
330
2
100
AcDbEntity
  8
MOJI1
100
AcDbText
 10
-60.96505546914818
 20
-64.09654607789085
 30
0.0
 40
3.0
  1
機　能
100
AcDbText
  0
ENDSEC
  0
SECTION
  2
OBJECTS
  0
DICTIONARY
  5
7
330
0
100
AcDbDictionary
281
     1
  3
ACAD_COLOR
350
2C
  3
ACAD_GROUP
350
28
  3
ACAD_LAYOUT
350
B
  3
ACAD_MATERIAL
350
2B
  3
ACAD_MLINESTYLE
350
29
  3
ACAD_PLOTSETTINGS
350
2A
  3
ACAD_PLOTSTYLENAME
350
6
  3
ACDBHEADERROUNDTRIPXREC
350
3F8
  3
AcDbVariableDictionary
350
3F3
  0
DICTIONARY
  5
11
330
10
100
AcDbDictionary
280
     1
281
     1
  3
ACAD_LAYERSTATES
360
12
  0
DICTIONARY
  5
2C
102
{ACAD_REACTORS
330
7
102
}
330
7
100
AcDbDictionary
281
     1
  0
DICTIONARY
  5
28
102
{ACAD_REACTORS
330
7
102
}
330
7
100
AcDbDictionary
281
     1
  0
DICTIONARY
  5
B
102
{ACAD_REACTORS
330
7
102
}
330
7
100
AcDbDictionary
281
     1
  3
Model
350
A
  3
レイアウト1
350
F
  0
DICTIONARY
  5
2B
102
{ACAD_REACTORS
330
7
102
}
330
7
100
AcDbDictionary
281
     1
  0
DICTIONARY
  5
29
102
{ACAD_REACTORS
330
7
102
}
330
7
100
AcDbDictionary
281
     1
  3
Standard
350
2E
  0
DICTIONARY
  5
2A
102
{ACAD_REACTORS
330
7
102
}
330
7
100
AcDbDictionary
281
     1
  0
ACDBDICTIONARYWDFLT
  5
6
102
{ACAD_REACTORS
330
7
102
}
330
7
100
AcDbDictionary
281
     1
  3
Normal
350
5
100
AcDbDictionaryWithDefault
340
5
  0
DICTIONARY
  5
3F8
102
{ACAD_REACTORS
330
7
102
}
330
7
100
AcDbDictionary
281
     1
  3
COLORDICT
350
3FA
  3
MATERIALDICT
350
3F9
  0
DICTIONARY
  5
3F3
102
{ACAD_REACTORS
330
7
102
}
330
7
100
AcDbDictionary
281
     1
  3
DIMASSOC
350
3F5
  3
HIDETEXT
350
3F4
  3
PROJECTNAME
350
3F6
  0
DICTIONARY
  5
12
102
{ACAD_REACTORS
330
11
102
}
330
11
100
AcDbDictionary
281
     1
  0
LAYOUT
  5
A
102
{ACAD_XDICTIONARY
360
3FB
102
}
102
{ACAD_REACTORS
330
B
102
}
330
B
100
AcDbPlotSettings
  1

  2
いきなりPDF Professional
  4
A4
  6

 40
3.174999952316284
 41
3.174999952316284
 42
3.175003051757812
 43
3.17498779296875
 44
209.9733276367187
 45
297.0106506347656
 46
6.32
 47
0.0
 48
0.0
 49
0.0
140
0.0
141
0.0
142
1.0
143
1.35643967871148
 70
 11956
 72
     1
 73
     0
 74
     1
  7
tmsacad.ctb
 75
     0
147
0.7372240842658981
148
0.0256332569354072
149
0.0240599051811614
100
AcDbLayout
  1
Model
 70
     1
 71
     0
 10
0.0
 20
0.0
 11
12.0
 21
9.0
 12
0.0
 22
0.0
 32
0.0
 14
0.0
 24
0.0
 34
0.0
 15
0.0
 25
0.0
 35
0.0
146
0.0
 13
0.0
 23
0.0
 33
0.0
 16
1.0
 26
0.0
 36
0.0
 17
0.0
 27
1.0
 37
0.0
 76
     0
330
2
  0
LAYOUT
  5
F
102
{ACAD_XDICTIONARY
360
3FD
102
}
102
{ACAD_REACTORS
330
B
102
}
330
B
100
AcDbPlotSettings
  1

  2
None
  4

  6

 40
0.0
 41
0.0
 42
0.0
 43
0.0
 44
0.0
 45
0.0
 46
0.0
 47
0.0
 48
0.0
 49
0.0
140
0.0
141
0.0
142
1.0
143
1.0
 70
   688
 72
     0
 73
     0
 74
     5
  7
tmsacad.ctb
 75
    16
147
1.0
148
0.0
149
0.0
100
AcDbLayout
  1
レイアウト1
 70
     1
 71
     1
 10
0.0
 20
0.0
 11
12.0
 21
9.0
 12
0.0
 22
0.0
 32
0.0
 14
0.0
 24
0.0
 34
0.0
 15
0.0
 25
0.0
 35
0.0
146
0.0
 13
0.0
 23
0.0
 33
0.0
 16
1.0
 26
0.0
 36
0.0
 17
0.0
 27
1.0
 37
0.0
 76
     0
330
C
  0
MLINESTYLE
  5
2E
102
{ACAD_REACTORS
330
29
102
}
330
29
100
AcDbMlineStyle
  2
STANDARD
 70
     0
  3

 62
   256
 51
90.0
 52
90.0
 71
     2
 49
0.5
 62
   256
  6
BYLAYER
 49
-0.5
 62
   256
  6
BYLAYER
  0
ACDBPLACEHOLDER
  5
5
102
{ACAD_REACTORS
330
6
102
}
330
6
  0
XRECORD
  5
3FA
102
{ACAD_REACTORS
330
3F8
102
}
330
3F8
100
AcDbXrecord
280
     1
340
2C
  0
XRECORD
  5
3F9
102
{ACAD_REACTORS
330
3F8
102
}
330
3F8
100
AcDbXrecord
280
     1
340
2B
  0
DICTIONARYVAR
  5
3F5
102
{ACAD_REACTORS
330
3F3
102
}
330
3F3
100
DictionaryVariables
280
     0
  1
1
  0
DICTIONARYVAR
  5
3F4
102
{ACAD_REACTORS
330
3F3
102
}
330
3F3
100
DictionaryVariables
280
     0
  1
1
  0
DICTIONARYVAR
  5
3F6
102
{ACAD_REACTORS
330
3F3
102
}
330
3F3
100
DictionaryVariables
280
     0
  1

  0
DICTIONARY
  5
3FB
330
A
100
AcDbDictionary
280
     1
281
     1
  3
ACAD_XREC_ROUNDTRIP
360
3FC
  0
DICTIONARY
  5
3FD
330
F
100
AcDbDictionary
280
     1
281
     1
  3
ACAD_XREC_ROUNDTRIP
360
3FE
  0
XRECORD
  5
3FC
102
{ACAD_REACTORS
330
3FB
102
}
330
3FB
100
AcDbXrecord
280
     1
102
SHADEPLOT
 70
     0
102
SHADEPLOTRESLEVEL
 70
     2
102
SHADEPLOTCUSTOMDPI
 70
   150
  0
XRECORD
  5
3FE
102
{ACAD_REACTORS
330
3FD
102
}
330
3FD
100
AcDbXrecord
280
     1
102
SHADEPLOT
 70
     0
102
SHADEPLOTRESLEVEL
 70
     2
102
SHADEPLOTCUSTOMDPI
 70
   300
  0
ENDSEC
  0
EOF
