  0
SECTION
  2
HEADER
  9
$ACADVER
  1
AC1015
  9
$ACADMAINTVER
 70
    20
  9
$DWGCODEPAGE
  3
ANSI_932
  9
$INSBASE
 10
129.0
 20
246.4992141396418
 30
0.0
  9
$EXTMIN
 10
-62.92692489877208
 20
-60.19199602212393
 30
-0.0015258207003583
  9
$EXTMAX
 10
62.15358407119265
 20
52.93908589350213
 30
0.0000000349246037
  9
$LIMMIN
 10
-1101.784450318844
 20
-1579.160531687244
  9
$LIMMAX
 10
-508.2420711400536
 20
-1161.440814074914
  9
$ORTHOMODE
 70
     1
  9
$REGENMODE
 70
     1
  9
$FILLMODE
 70
     1
  9
$QTEXTMODE
 70
     0
  9
$MIRRTEXT
 70
     1
  9
$LTSCALE
 40
1.0
  9
$ATTMODE
 70
     1
  9
$TEXTSIZE
 40
3.0
  9
$TRACEWID
 40
0.5
  9
$TEXTSTYLE
  7
STANDARD
  9
$CLAYER
  8
SUNPO
  9
$CELTYPE
  6
BYLAYER
  9
$CECOLOR
 62
   256
  9
$CELTSCALE
 40
1.0
  9
$DISPSILH
 70
     0
  9
$DIMSCALE
 40
1.0
  9
$DIMASZ
 40
2.0
  9
$DIMEXO
 40
2.0
  9
$DIMDLI
 40
8.0
  9
$DIMRND
 40
0.0
  9
$DIMDLE
 40
0.0
  9
$DIMEXE
 40
2.0
  9
$DIMTP
 40
0.0
  9
$DIMTM
 40
0.0
  9
$DIMTXT
 40
2.5
  9
$DIMCEN
 40
0.0
  9
$DIMTSZ
 40
0.0
  9
$DIMTOL
 70
     0
  9
$DIMLIM
 70
     0
  9
$DIMTIH
 70
     0
  9
$DIMTOH
 70
     0
  9
$DIMSE1
 70
     0
  9
$DIMSE2
 70
     0
  9
$DIMTAD
 70
     3
  9
$DIMZIN
 70
     0
  9
$DIMBLK
  1

  9
$DIMASO
 70
     1
  9
$DIMSHO
 70
     1
  9
$DIMPOST
  1

  9
$DIMAPOST
  1

  9
$DIMALT
 70
     0
  9
$DIMALTD
 70
     2
  9
$DIMALTF
 40
25.4
  9
$DIMLFAC
 40
1.0
  9
$DIMTOFL
 70
     1
  9
$DIMTVP
 40
0.0
  9
$DIMTIX
 70
     0
  9
$DIMSOXD
 70
     0
  9
$DIMSAH
 70
     1
  9
$DIMBLK1
  1
OPEN30
  9
$DIMBLK2
  1
OPEN30
  9
$DIMSTYLE
  2
STANDARD
  9
$DIMCLRD
 70
     0
  9
$DIMCLRE
 70
     0
  9
$DIMCLRT
 70
     0
  9
$DIMTFAC
 40
1.0
  9
$DIMGAP
 40
0.5
  9
$DIMJUST
 70
     0
  9
$DIMSD1
 70
     0
  9
$DIMSD2
 70
     0
  9
$DIMTOLJ
 70
     1
  9
$DIMTZIN
 70
     0
  9
$DIMALTZ
 70
     0
  9
$DIMALTTZ
 70
     0
  9
$DIMUPT
 70
     0
  9
$DIMDEC
 70
     4
  9
$DIMTDEC
 70
     4
  9
$DIMALTU
 70
     2
  9
$DIMALTTD
 70
     2
  9
$DIMTXSTY
  7
STANDARD
  9
$DIMAUNIT
 70
     0
  9
$DIMADEC
 70
     0
  9
$DIMALTRND
 40
0.0
  9
$DIMAZIN
 70
     0
  9
$DIMDSEP
 70
    46
  9
$DIMATFIT
 70
     3
  9
$DIMFRAC
 70
     0
  9
$DIMLDRBLK
  1
OPEN30
  9
$DIMLUNIT
 70
     2
  9
$DIMLWD
 70
    -2
  9
$DIMLWE
 70
    -2
  9
$DIMTMOVE
 70
     0
  9
$LUNITS
 70
     2
  9
$LUPREC
 70
     4
  9
$SKETCHINC
 40
0.1
  9
$FILLETRAD
 40
0.0
  9
$AUNITS
 70
     0
  9
$AUPREC
 70
     0
  9
$MENU
  1
ACAD
  9
$ELEVATION
 40
0.0
  9
$PELEVATION
 40
0.0
  9
$THICKNESS
 40
0.0
  9
$LIMCHECK
 70
     0
  9
$CHAMFERA
 40
0.0
  9
$CHAMFERB
 40
0.0
  9
$CHAMFERC
 40
0.0
  9
$CHAMFERD
 40
0.0
  9
$SKPOLY
 70
     0
  9
$TDCREATE
 40
2451815.565532581
  9
$TDUCREATE
 40
2451815.190532581
  9
$TDUPDATE
 40
2454322.547747396
  9
$TDUUPDATE
 40
2454322.172747396
  9
$TDINDWG
 40
0.8356372454
  9
$TDUSRTIMER
 40
0.8356372454
  9
$USRTIMER
 70
     1
  9
$ANGBASE
 50
0.0
  9
$ANGDIR
 70
     0
  9
$PDMODE
 70
     0
  9
$PDSIZE
 40
0.0
  9
$PLINEWID
 40
0.0
  9
$SPLFRAME
 70
     0
  9
$SPLINETYPE
 70
     6
  9
$SPLINESEGS
 70
     8
  9
$HANDSEED
  5
335
  9
$SURFTAB1
 70
     6
  9
$SURFTAB2
 70
     6
  9
$SURFTYPE
 70
     6
  9
$SURFU
 70
     6
  9
$SURFV
 70
     6
  9
$UCSBASE
  2

  9
$UCSNAME
  2

  9
$UCSORG
 10
0.0
 20
0.0
 30
0.0
  9
$UCSXDIR
 10
1.0
 20
0.0
 30
0.0
  9
$UCSYDIR
 10
0.0
 20
1.0
 30
0.0
  9
$UCSORTHOREF
  2

  9
$UCSORTHOVIEW
 70
     0
  9
$UCSORGTOP
 10
0.0
 20
0.0
 30
0.0
  9
$UCSORGBOTTOM
 10
0.0
 20
0.0
 30
0.0
  9
$UCSORGLEFT
 10
0.0
 20
0.0
 30
0.0
  9
$UCSORGRIGHT
 10
0.0
 20
0.0
 30
0.0
  9
$UCSORGFRONT
 10
0.0
 20
0.0
 30
0.0
  9
$UCSORGBACK
 10
0.0
 20
0.0
 30
0.0
  9
$PUCSBASE
  2

  9
$PUCSNAME
  2

  9
$PUCSORG
 10
0.0
 20
0.0
 30
0.0
  9
$PUCSXDIR
 10
1.0
 20
0.0
 30
0.0
  9
$PUCSYDIR
 10
0.0
 20
1.0
 30
0.0
  9
$PUCSORTHOREF
  2

  9
$PUCSORTHOVIEW
 70
     0
  9
$PUCSORGTOP
 10
0.0
 20
0.0
 30
0.0
  9
$PUCSORGBOTTOM
 10
0.0
 20
0.0
 30
0.0
  9
$PUCSORGLEFT
 10
0.0
 20
0.0
 30
0.0
  9
$PUCSORGRIGHT
 10
0.0
 20
0.0
 30
0.0
  9
$PUCSORGFRONT
 10
0.0
 20
0.0
 30
0.0
  9
$PUCSORGBACK
 10
0.0
 20
0.0
 30
0.0
  9
$USERI1
 70
     0
  9
$USERI2
 70
     0
  9
$USERI3
 70
     0
  9
$USERI4
 70
     0
  9
$USERI5
 70
     0
  9
$USERR1
 40
0.0
  9
$USERR2
 40
0.0
  9
$USERR3
 40
0.0
  9
$USERR4
 40
0.0
  9
$USERR5
 40
0.0
  9
$WORLDVIEW
 70
     1
  9
$SHADEDGE
 70
     3
  9
$SHADEDIF
 70
    70
  9
$TILEMODE
 70
     1
  9
$MAXACTVP
 70
    48
  9
$PINSBASE
 10
0.0
 20
0.0
 30
0.0
  9
$PLIMCHECK
 70
     0
  9
$PEXTMIN
 10
1.000000000000000E+20
 20
1.000000000000000E+20
 30
1.000000000000000E+20
  9
$PEXTMAX
 10
-1.000000000000000E+20
 20
-1.000000000000000E+20
 30
-1.000000000000000E+20
  9
$PLIMMIN
 10
0.0
 20
0.0
  9
$PLIMMAX
 10
12.0
 20
9.0
  9
$UNITMODE
 70
     0
  9
$VISRETAIN
 70
     1
  9
$PLINEGEN
 70
     0
  9
$PSLTSCALE
 70
     1
  9
$TREEDEPTH
 70
  3020
  9
$CMLSTYLE
  2
STANDARD
  9
$CMLJUST
 70
     0
  9
$CMLSCALE
 40
1.0
  9
$PROXYGRAPHICS
 70
     1
  9
$MEASUREMENT
 70
     0
  9
$CELWEIGHT
370
    -1
  9
$ENDCAPS
280
     0
  9
$JOINSTYLE
280
     0
  9
$LWDISPLAY
290
     0
  9
$INSUNITS
 70
     0
  9
$HYPERLINKBASE
  1

  9
$STYLESHEET
  1

  9
$XEDIT
290
     1
  9
$CEPSNTYPE
380
     0
  9
$PSTYLEMODE
290
     1
  9
$FINGERPRINTGUID
  2
{1754B7AB-9B3C-11D4-AD9E-00104B1004F2}
  9
$VERSIONGUID
  2
{2B6099BF-0542-4587-81AB-A7653A57F4AA}
  9
$EXTNAMES
290
     1
  9
$PSVPSCALE
 40
0.0
  9
$OLESTARTUP
290
     0
  0
ENDSEC
  0
SECTION
  2
CLASSES
  0
CLASS
  1
ACDBDICTIONARYWDFLT
  2
AcDbDictionaryWithDefault
  3
ObjectDBX Classes
 90
        0
280
     0
281
     0
  0
CLASS
  1
ACDBPLACEHOLDER
  2
AcDbPlaceHolder
  3
ObjectDBX Classes
 90
        0
280
     0
281
     0
  0
CLASS
  1
LAYOUT
  2
AcDbLayout
  3
ObjectDBX Classes
 90
        0
280
     0
281
     0
  0
CLASS
  1
DICTIONARYVAR
  2
AcDbDictionaryVar
  3
ObjectDBX Classes
 90
        0
280
     0
281
     0
  0
CLASS
  1
SORTENTSTABLE
  2
AcDbSortentsTable
  3
ObjectDBX Classes
 90
    32768
280
     0
281
     0
  0
ENDSEC
  0
SECTION
  2
TABLES
  0
TABLE
  2
VPORT
  5
20
330
0
100
AcDbSymbolTable
 70
     2
  0
VPORT
  5
32D
330
20
100
AcDbSymbolTableRecord
100
AcDbViewportTableRecord
  2
*Active
 70
     0
 10
0.0
 20
0.0
 11
1.0
 21
1.0
 12
-0.3866704137897194
 22
-3.626455064310903
 13
0.0
 23
0.0
 14
1.0
 24
1.0
 15
0.0
 25
0.0
 16
0.0
 26
0.0
 36
1.0
 17
0.0
 27
0.0
 37
0.0
 40
114.0035581257722
 41
1.504504504504504
 42
50.0
 43
0.0
 44
0.0
 50
0.0
 51
0.0
 71
     0
 72
 10000
 73
     1
 74
     0
 75
     0
 76
     1
 77
     0
 78
     0
281
     0
 65
     1
110
0.0
120
0.0
130
0.0
111
1.0
121
0.0
131
0.0
112
0.0
122
1.0
132
0.0
 79
     0
146
0.0
  0
ENDTAB
  0
TABLE
  2
LTYPE
  5
1B
330
0
100
AcDbSymbolTable
 70
     2
  0
LTYPE
  5
1C
330
1B
100
AcDbSymbolTableRecord
100
AcDbLinetypeTableRecord
  2
BYBLOCK
 70
     0
  3

 72
    65
 73
     0
 40
0.0
  0
LTYPE
  5
1D
330
1B
100
AcDbSymbolTableRecord
100
AcDbLinetypeTableRecord
  2
BYLAYER
 70
     0
  3

 72
    65
 73
     0
 40
0.0
  0
LTYPE
  5
A
330
1B
100
AcDbSymbolTableRecord
100
AcDbLinetypeTableRecord
  2
CONTINUOUS
 70
     0
  3
Solid line
 72
    65
 73
     0
 40
0.0
  0
LTYPE
  5
2A4
330
1B
100
AcDbSymbolTableRecord
100
AcDbLinetypeTableRecord
  2
HIDDEN2
 70
     0
  3
Hidden (.5x) _ _ _ _ _ _ _ _ _ _ _ _ _ _ _ _ _
 72
    65
 73
     2
 40
1.399999999999999
 49
0.7
 74
     0
 49
-0.7
 74
     0
  0
ENDTAB
  0
TABLE
  2
LAYER
  5
14
102
{ACAD_XDICTIONARY
360
15
102
}
330
0
100
AcDbSymbolTable
 70
     7
  0
LAYER
  5
6
330
14
100
AcDbSymbolTableRecord
100
AcDbLayerTableRecord
  2
0
 70
     0
 62
     7
  6
CONTINUOUS
370
    -3
390
7
  0
LAYER
  5
2D5
330
14
100
AcDbSymbolTableRecord
100
AcDbLayerTableRecord
  2
DEFPOINTS
 70
     0
 62
     7
  6
CONTINUOUS
290
     0
370
    -3
390
7
  0
LAYER
  5
2E7
330
14
100
AcDbSymbolTableRecord
100
AcDbLayerTableRecord
  2
WAKU
 70
     0
 62
     4
  6
CONTINUOUS
370
    -3
390
7
  0
LAYER
  5
35
330
14
100
AcDbSymbolTableRecord
100
AcDbLayerTableRecord
  2
MOJI1
 70
     0
 62
     2
  6
CONTINUOUS
370
    -3
390
7
  0
LAYER
  5
39
330
14
100
AcDbSymbolTableRecord
100
AcDbLayerTableRecord
  2
GAIKEI
 70
     0
 62
     7
  6
CONTINUOUS
370
    -3
390
7
  0
LAYER
  5
37
330
14
100
AcDbSymbolTableRecord
100
AcDbLayerTableRecord
  2
TOUROKU
 70
     0
 62
     1
  6
CONTINUOUS
370
    -3
390
7
  0
LAYER
  5
32
330
14
100
AcDbSymbolTableRecord
100
AcDbLayerTableRecord
  2
SUNPO
 70
     0
 62
     3
  6
CONTINUOUS
370
    -3
390
7
  0
ENDTAB
  0
TABLE
  2
STYLE
  5
18
330
0
100
AcDbSymbolTable
 70
     1
  0
STYLE
  5
19
330
18
100
AcDbSymbolTableRecord
100
AcDbTextStyleTableRecord
  2
STANDARD
 70
     0
 40
0.0
 41
1.0
 50
0.0
 71
     0
 42
3.0
  3
MONOTXT.shx
  4
BIGFONT.shx
  0
ENDTAB
  0
TABLE
  2
VIEW
  5
1E
330
0
100
AcDbSymbolTable
 70
     0
  0
ENDTAB
  0
TABLE
  2
UCS
  5
1F
330
0
100
AcDbSymbolTable
 70
     0
  0
ENDTAB
  0
TABLE
  2
APPID
  5
22
330
0
100
AcDbSymbolTable
 70
     1
  0
APPID
  5
23
330
22
100
AcDbSymbolTableRecord
100
AcDbRegAppTableRecord
  2
ACAD
 70
     0
  0
ENDTAB
  0
TABLE
  2
DIMSTYLE
  5
24
330
0
100
AcDbSymbolTable
 70
     1
100
AcDbDimStyleTable
 71
     1
340
25
  0
DIMSTYLE
105
25
102
{ACAD_REACTORS
330
2D9
330
2CB
102
}
330
24
100
AcDbSymbolTableRecord
100
AcDbDimStyleTableRecord
  2
STANDARD
 70
     0
 40
0.0
 41
2.0
 42
2.0
 43
8.0
 44
2.0
 73
     0
 74
     0
 77
     3
140
3.0
141
0.0
173
     1
279
     2
288
     1
340
19
341
26
343
26
344
26
  0
ENDTAB
  0
TABLE
  2
BLOCK_RECORD
  5
1
330
0
100
AcDbSymbolTable
 70
     5
  0
BLOCK_RECORD
  5
2
102
{ACAD_XDICTIONARY
360
3
102
}
330
1
100
AcDbSymbolTableRecord
100
AcDbBlockTableRecord
  2
*MODEL_SPACE
340
C
  0
BLOCK_RECORD
  5
E
102
{ACAD_XDICTIONARY
360
F
102
}
330
1
100
AcDbSymbolTableRecord
100
AcDbBlockTableRecord
  2
*PAPER_SPACE
340
13
  0
BLOCK_RECORD
  5
26
330
1
100
AcDbSymbolTableRecord
100
AcDbBlockTableRecord
  2
_OPEN30
340
0
102
{BLKREFS
331
2DF
331
2E0
331
2D1
331
2D2
331
315
331
316
331
321
331
322
102
}
  0
BLOCK_RECORD
  5
2DA
330
1
100
AcDbSymbolTableRecord
100
AcDbBlockTableRecord
  2
*D1
340
0
  0
BLOCK_RECORD
  5
2CC
330
1
100
AcDbSymbolTableRecord
100
AcDbBlockTableRecord
  2
*D2
340
0
  0
BLOCK_RECORD
  5
311
330
1
100
AcDbSymbolTableRecord
100
AcDbBlockTableRecord
  2
*D3
340
0
  0
BLOCK_RECORD
  5
31D
330
1
100
AcDbSymbolTableRecord
100
AcDbBlockTableRecord
  2
*D4
340
0
  0
ENDTAB
  0
ENDSEC
  0
SECTION
  2
BLOCKS
  0
BLOCK
  5
5
330
2
100
AcDbEntity
  8
0
100
AcDbBlockBegin
  2
*MODEL_SPACE
 70
     0
 10
0.0
 20
0.0
 30
0.0
  3
*MODEL_SPACE
  1

  0
ENDBLK
  5
B
330
2
100
AcDbEntity
  8
0
100
AcDbBlockEnd
  0
BLOCK
  5
11
330
E
100
AcDbEntity
 67
     1
  8
0
100
AcDbBlockBegin
  2
*PAPER_SPACE
 70
     0
 10
0.0
 20
0.0
 30
0.0
  3
*PAPER_SPACE
  1

  0
ENDBLK
  5
12
330
E
100
AcDbEntity
 67
     1
  8
0
100
AcDbBlockEnd
  0
BLOCK
  5
27
330
26
100
AcDbEntity
  8
0
100
AcDbBlockBegin
  2
_OPEN30
 70
     0
 10
0.0
 20
0.0
 30
0.0
  3
_OPEN30
  1

  0
LINE
  5
28
330
26
100
AcDbEntity
  8
0
  6
ByBlock
 62
     0
100
AcDbLine
 10
-1.0
 20
0.26794919
 30
0.0
 11
0.0
 21
0.0
 31
0.0
  0
LINE
  5
29
330
26
100
AcDbEntity
  8
0
  6
ByBlock
 62
     0
100
AcDbLine
 10
0.0
 20
0.0
 30
0.0
 11
-1.0
 21
-0.26794919
 31
0.0
  0
LINE
  5
2A
330
26
100
AcDbEntity
  8
0
  6
ByBlock
 62
     0
100
AcDbLine
 10
0.0
 20
0.0
 30
0.0
 11
-1.0
 21
0.0
 31
0.0
  0
ENDBLK
  5
2B
330
26
100
AcDbEntity
  8
0
100
AcDbBlockEnd
  0
BLOCK
  5
2DB
330
2DA
100
AcDbEntity
  8
0
100
AcDbBlockBegin
  2
*D1
 70
     1
 10
0.0
 20
0.0
 30
0.0
  3
*D1
  1

  0
LINE
  5
2DC
330
2DA
100
AcDbEntity
  8
SUNPO
 62
     0
370
    -2
100
AcDbLine
 10
223.4318425989279
 20
226.7053693636958
 30
0.0
 11
223.4318425989279
 21
234.7053693636958
 31
0.0
  0
LINE
  5
2DD
330
2DA
100
AcDbEntity
  8
SUNPO
 62
     0
370
    -2
100
AcDbLine
 10
192.9318425989279
 20
226.7053693636958
 30
0.0
 11
192.9318425989279
 21
234.7053693636958
 31
0.0
  0
LINE
  5
2DE
330
2DA
100
AcDbEntity
  8
SUNPO
 62
     0
370
    -2
100
AcDbLine
 10
221.4318425989279
 20
232.7053693636958
 30
0.0
 11
194.9318425989279
 21
232.7053693636958
 31
0.0
  0
INSERT
  5
2DF
330
2DA
100
AcDbEntity
  8
SUNPO
 62
     0
370
    -2
100
AcDbBlockReference
  2
_OPEN30
 10
223.4318425989279
 20
232.7053693636958
 30
0.0
 41
2.0
 42
2.0
 43
2.0
 50
0.0000000000000799
  0
INSERT
  5
2E0
330
2DA
100
AcDbEntity
  8
SUNPO
 62
     0
370
    -2
100
AcDbBlockReference
  2
_OPEN30
 10
192.9318425989279
 20
232.7053693636958
 30
0.0
 41
2.0
 42
2.0
 43
2.0
 50
180.0
  0
MTEXT
  5
2E1
330
2DA
100
AcDbEntity
  8
SUNPO
 62
     0
100
AcDbMText
 10
208.1818425989279
 20
234.4553693636958
 30
0.0
 40
2.5
 41
0.0
 71
     5
 72
     1
  1
\A1;153
 73
     1
 44
1.0
1001
ACAD
1000
MTEXTBEGIN
1070
    73
1070
     1
1070
    44
1040
1.0
1070
    74
1070
     0
1000
MTEXTEND
  0
POINT
  5
2E2
330
2DA
100
AcDbEntity
  8
DEFPOINTS
 62
     0
100
AcDbPoint
 10
223.4318425989279
 20
224.7053693636958
 30
0.0
  0
POINT
  5
2E3
330
2DA
100
AcDbEntity
  8
DEFPOINTS
 62
     0
100
AcDbPoint
 10
192.9318425989279
 20
224.7053693636958
 30
0.0
  0
POINT
  5
2E4
330
2DA
100
AcDbEntity
  8
DEFPOINTS
 62
     0
100
AcDbPoint
 10
192.9318425989279
 20
232.7053693636958
 30
0.0
  0
ENDBLK
  5
2E5
330
2DA
100
AcDbEntity
  8
0
100
AcDbBlockEnd
  0
BLOCK
  5
2CD
330
2CC
100
AcDbEntity
  8
0
100
AcDbBlockBegin
  2
*D2
 70
     1
 10
0.0
 20
0.0
 30
0.0
  3
*D2
  1

  0
LINE
  5
2CE
330
2CC
100
AcDbEntity
  8
SUNPO
 62
     0
370
    -2
100
AcDbLine
 10
225.4898244506239
 20
192.9417042349099
 30
0.0
 11
233.489824450624
 21
192.9417042349099
 31
0.0
  0
LINE
  5
2CF
330
2CC
100
AcDbEntity
  8
SUNPO
 62
     0
370
    -2
100
AcDbLine
 10
225.4898244506239
 20
224.7417042349097
 30
0.0
 11
233.489824450624
 21
224.7417042349097
 31
0.0
  0
LINE
  5
2D0
330
2CC
100
AcDbEntity
  8
SUNPO
 62
     0
370
    -2
100
AcDbLine
 10
231.489824450624
 20
194.9417042349099
 30
0.0
 11
231.489824450624
 21
222.7417042349097
 31
0.0
  0
INSERT
  5
2D1
330
2CC
100
AcDbEntity
  8
SUNPO
 62
     0
370
    -2
100
AcDbBlockReference
  2
_OPEN30
 10
231.489824450624
 20
192.9417042349099
 30
0.0
 41
2.0
 42
2.0
 43
2.0
 50
270.0
  0
INSERT
  5
2D2
330
2CC
100
AcDbEntity
  8
SUNPO
 62
     0
370
    -2
100
AcDbBlockReference
  2
_OPEN30
 10
231.489824450624
 20
224.7417042349097
 30
0.0
 41
2.0
 42
2.0
 43
2.0
 50
90.0
  0
MTEXT
  5
2D3
330
2CC
100
AcDbEntity
  8
SUNPO
 62
     0
100
AcDbMText
 10
229.7398244506239
 20
208.8417042349099
 30
0.0
 40
2.5
 41
0.0
 71
     5
 72
     1
  1
\A1;φ159
 11
0.0000000000000001
 21
1.0
 31
0.0
 73
     1
 44
1.0
1001
ACAD
1000
MTEXTBEGIN
1070
    73
1070
     1
1070
    44
1040
1.0
1070
    74
1070
     0
1000
MTEXTEND
  0
POINT
  5
2D4
330
2CC
100
AcDbEntity
  8
DEFPOINTS
 62
     0
100
AcDbPoint
 10
223.4898244506239
 20
192.9417042349099
 30
0.0
  0
POINT
  5
2D6
330
2CC
100
AcDbEntity
  8
DEFPOINTS
 62
     0
100
AcDbPoint
 10
223.4898244506239
 20
224.7417042349097
 30
0.0
  0
POINT
  5
2D7
330
2CC
100
AcDbEntity
  8
DEFPOINTS
 62
     0
100
AcDbPoint
 10
231.489824450624
 20
224.7417042349097
 30
0.0
  0
ENDBLK
  5
2D8
330
2CC
100
AcDbEntity
  8
0
100
AcDbBlockEnd
  0
BLOCK
  5
31B
330
311
100
AcDbEntity
  8
0
100
AcDbBlockBegin
  2
*D3
 70
     1
 10
0.0
 20
0.0
 30
0.0
  3
*D3
  1

  0
LINE
  5
312
330
311
100
AcDbEntity
  8
SUNPO
 62
     0
370
    -2
100
AcDbLine
 10
29.52718304246105
 20
35.12150492217055
 30
0.0
 11
29.52718304246104
 21
43.12150492217054
 31
0.0
  0
LINE
  5
313
330
311
100
AcDbEntity
  8
SUNPO
 62
     0
370
    -2
100
AcDbLine
 10
-0.9728169575389829
 20
35.12150492217052
 30
0.0
 11
-0.9728169575389895
 21
43.12150492217051
 31
0.0
  0
LINE
  5
314
330
311
100
AcDbEntity
  8
SUNPO
 62
     0
370
    -2
100
AcDbLine
 10
27.52718304246104
 20
41.12150492217053
 30
0.0
 11
1.027183042461011
 21
41.12150492217051
 31
0.0
  0
INSERT
  5
315
330
311
100
AcDbEntity
  8
SUNPO
 62
     0
370
    -2
100
AcDbBlockReference
  2
_OPEN30
 10
29.52718304246104
 20
41.12150492217054
 30
0.0
 41
2.0
 42
2.0
 43
2.0
 50
0.0000000000000799
  0
INSERT
  5
316
330
311
100
AcDbEntity
  8
SUNPO
 62
     0
370
    -2
100
AcDbBlockReference
  2
_OPEN30
 10
-0.972816957538988
 20
41.12150492217051
 30
0.0
 41
2.0
 42
2.0
 43
2.0
 50
180.0
  0
MTEXT
  5
317
330
311
100
AcDbEntity
  8
SUNPO
 62
     0
100
AcDbMText
 10
14.27718304246102
 20
42.87150492217053
 30
0.0
 40
2.5
 41
0.0
 71
     5
 72
     1
  1
\A1;153
 73
     1
 44
1.0
1001
ACAD
1000
MTEXTBEGIN
1070
    73
1070
     1
1070
    44
1040
1.0
1070
    74
1070
     0
1000
MTEXTEND
  0
POINT
  5
318
330
311
100
AcDbEntity
  8
DEFPOINTS
 62
     0
100
AcDbPoint
 10
29.52718304246105
 20
33.12150492217055
 30
0.0
  0
POINT
  5
319
330
311
100
AcDbEntity
  8
DEFPOINTS
 62
     0
100
AcDbPoint
 10
-0.9728169575389813
 20
33.12150492217052
 30
0.0
  0
POINT
  5
31A
330
311
100
AcDbEntity
  8
DEFPOINTS
 62
     0
100
AcDbPoint
 10
-0.972816957538988
 20
41.12150492217051
 30
0.0
  0
ENDBLK
  5
31C
330
311
100
AcDbEntity
  8
0
100
AcDbBlockEnd
  0
BLOCK
  5
327
330
31D
100
AcDbEntity
  8
0
100
AcDbBlockBegin
  2
*D4
 70
     1
 10
0.0
 20
0.0
 30
0.0
  3
*D4
  1

  0
LINE
  5
31E
330
31D
100
AcDbEntity
  8
SUNPO
 62
     0
370
    -2
100
AcDbLine
 10
31.58516489415709
 20
1.357839793384669
 30
0.0
 11
39.58516489415708
 21
1.357839793384667
 31
0.0
  0
LINE
  5
31F
330
31D
100
AcDbEntity
  8
SUNPO
 62
     0
370
    -2
100
AcDbLine
 10
31.58516489415709
 20
33.15783979338437
 30
0.0
 11
39.58516489415709
 21
33.15783979338437
 31
0.0
  0
LINE
  5
320
330
31D
100
AcDbEntity
  8
SUNPO
 62
     0
370
    -2
100
AcDbLine
 10
37.58516489415708
 20
3.357839793384667
 30
0.0
 11
37.58516489415709
 21
31.15783979338437
 31
0.0
  0
INSERT
  5
321
330
31D
100
AcDbEntity
  8
SUNPO
 62
     0
370
    -2
100
AcDbBlockReference
  2
_OPEN30
 10
37.58516489415708
 20
1.357839793384667
 30
0.0
 41
2.0
 42
2.0
 43
2.0
 50
270.0
  0
INSERT
  5
322
330
31D
100
AcDbEntity
  8
SUNPO
 62
     0
370
    -2
100
AcDbBlockReference
  2
_OPEN30
 10
37.58516489415709
 20
33.15783979338437
 30
0.0
 41
2.0
 42
2.0
 43
2.0
 50
90.0
  0
MTEXT
  5
323
330
31D
100
AcDbEntity
  8
SUNPO
 62
     0
100
AcDbMText
 10
35.83516489415708
 20
17.25783979338452
 30
0.0
 40
2.5
 41
0.0
 71
     5
 72
     1
  1
\A1;φ159
 11
0.0000000000000001
 21
1.0
 31
0.0
 73
     1
 44
1.0
1001
ACAD
1000
MTEXTBEGIN
1070
    73
1070
     1
1070
    44
1040
1.0
1070
    74
1070
     0
1000
MTEXTEND
  0
POINT
  5
324
330
31D
100
AcDbEntity
  8
DEFPOINTS
 62
     0
100
AcDbPoint
 10
29.58516489415709
 20
1.35783979338467
 30
0.0
  0
POINT
  5
325
330
31D
100
AcDbEntity
  8
DEFPOINTS
 62
     0
100
AcDbPoint
 10
29.58516489415709
 20
33.15783979338437
 30
0.0
  0
POINT
  5
326
330
31D
100
AcDbEntity
  8
DEFPOINTS
 62
     0
100
AcDbPoint
 10
37.58516489415709
 20
33.15783979338437
 30
0.0
  0
ENDBLK
  5
328
330
31D
100
AcDbEntity
  8
0
100
AcDbBlockEnd
  0
ENDSEC
  0
SECTION
  2
ENTITIES
  0
TEXT
  5
34
330
2
100
AcDbEntity
  8
MOJI1
100
AcDbText
 10
-35.90465955646698
 20
48.91534969811679
 30
0.0
 40
4.0
  1
カラーテレビカメラ取付け金具付
100
AcDbText
  0
TEXT
  5
36
330
2
100
AcDbEntity
  8
TOUROKU
100
AcDbText
 10
43.6952904764606
 20
42.91534969811656
 30
0.0
 40
2.0
  1
ＤＧＮＷ４８４Ｓ
 72
     2
 11
62.09529047646061
 21
42.91534969811656
 31
0.0
100
AcDbText
  0
LINE
  5
38
330
2
100
AcDbEntity
  8
GAIKEI
  6
Continuous
 62
     1
100
AcDbLine
 10
-42.78435712183278
 20
17.75777617232373
 30
0.0
 11
-42.47401102162723
 21
17.75777036473573
 31
0.0
  0
LINE
  5
3A
330
2
100
AcDbEntity
  8
GAIKEI
  6
Continuous
 62
     1
100
AcDbLine
 10
-42.47371880831281
 20
17.75776752380614
 30
0.0
 11
-42.47401086153525
 21
17.75777507944292
 31
0.0
  0
LINE
  5
3B
330
2
100
AcDbEntity
  8
GAIKEI
  6
Continuous
 62
     1
100
AcDbLine
 10
-42.47401102163189
 20
16.75776939739273
 30
0.0
 11
-42.78435716378092
 21
16.75776358982858
 31
0.0
  0
LINE
  5
3C
330
2
100
AcDbEntity
  8
GAIKEI
  6
Continuous
 62
     1
100
AcDbLine
 10
-27.24700506906061
 20
2.246262966278663
 30
0.0
 11
-27.24699856895791
 21
2.246171622916676
 31
0.0
  0
LINE
  5
3D
330
2
100
AcDbEntity
  8
GAIKEI
  6
Continuous
 62
     1
100
AcDbLine
 10
-28.24700486001834
 20
2.22041062182717
 30
0.0
 11
-28.24699905241687
 21
2.530757428178276
 31
0.0
  0
LINE
  5
3E
330
2
100
AcDbEntity
  8
GAIKEI
  6
Continuous
 62
     1
100
AcDbLine
 10
-28.24699621148727
 20
2.531049641492927
 30
0.0
 11
-28.24700376712428
 21
2.530757588270716
 31
0.0
  0
LINE
  5
3F
330
2
100
AcDbEntity
  8
GAIKEI
  6
Continuous
 62
     1
100
AcDbLine
 10
-27.24699808509342
 20
2.530757428177366
 30
0.0
 11
-27.24699227748656
 21
2.220410142374959
 31
0.0
  0
LINE
  5
40
330
2
100
AcDbEntity
  8
GAIKEI
  6
Continuous
 62
     1
100
AcDbLine
 10
-28.24699207664764
 20
2.246262843369549
 30
0.0
 11
-28.24699856849327
 21
2.246172873867749
 31
0.0
  0
LINE
  5
41
330
2
100
AcDbEntity
  8
GAIKEI
  6
Continuous
 62
     1
100
AcDbLine
 10
-37.29047419068911
 20
9.513382667734504
 30
0.0
 11
-39.52539035002906
 21
8.787205007654506
 31
0.0
  0
LINE
  5
42
330
2
100
AcDbEntity
  8
GAIKEI
  6
Continuous
 62
     1
100
AcDbLine
 10
-14.22619953232902
 20
23.48928442763452
 30
0.0
 11
-16.26842479932907
 21
21.65046854273453
 31
0.0
  0
LINE
  5
43
330
2
100
AcDbEntity
  8
GAIKEI
  6
Continuous
 62
     1
100
AcDbLine
 10
-36.08798689664889
 20
6.501019269349285
 30
0.0
 11
-35.24148080741964
 21
7.347524510716766
 31
0.0
  0
LINE
  5
44
330
2
100
AcDbEntity
  8
GAIKEI
  6
Continuous
 62
     1
100
AcDbLine
 10
-42.16345014410888
 20
14.20804602255453
 30
0.0
 11
-42.46908069154375
 21
14.15414921375282
 31
0.0
  0
LINE
  5
45
330
2
100
AcDbEntity
  8
GAIKEI
  6
Continuous
 62
     1
100
AcDbLine
 10
-41.41485296572909
 20
11.75098757551427
 30
0.0
 11
-41.70648121576983
 21
11.644837392731
 31
0.0
  0
LINE
  5
46
330
2
100
AcDbEntity
  8
GAIKEI
  6
Continuous
 62
     1
100
AcDbLine
 10
-14.47425525622839
 20
24.34343347100102
 30
0.0
 11
-14.74303112674909
 21
24.18826235597453
 31
0.0
  0
LINE
  5
47
330
2
100
AcDbEntity
  8
GAIKEI
  6
Continuous
 62
     1
100
AcDbLine
 10
-15.90631030777354
 20
26.54057429868939
 30
0.0
 11
-16.14405810560879
 21
26.34108779063445
 31
0.0
  0
LINE
  5
48
330
2
100
AcDbEntity
  8
GAIKEI
  6
Continuous
 62
     1
100
AcDbLine
 10
-16.56890644622888
 20
27.28999713987457
 30
0.0
 11
-16.56884065132885
 21
27.29006083361446
 31
0.0
  0
LINE
  5
49
330
2
100
AcDbEntity
  8
GAIKEI
  6
Continuous
 62
     1
100
AcDbLine
 10
-17.69813891872209
 20
28.45566178806891
 30
0.0
 11
-17.89763455014884
 21
28.21792118783447
 31
0.0
  0
LINE
  5
4A
330
2
100
AcDbEntity
  8
GAIKEI
  6
Continuous
 62
     1
100
AcDbLine
 10
-18.48080486910919
 20
29.07864033173451
 30
0.0
 11
-18.48075113406889
 21
29.07871448299454
 31
0.0
  0
LINE
  5
4B
330
2
100
AcDbEntity
  8
GAIKEI
  6
Continuous
 62
     1
100
AcDbLine
 10
-19.79529723240938
 20
30.03050687924432
 30
0.0
 11
-19.95047892742923
 21
29.76173591451447
 31
0.0
  0
LINE
  5
4C
330
2
100
AcDbEntity
  8
GAIKEI
  6
Continuous
 62
     1
100
AcDbLine
 10
-20.67425188958919
 20
30.50811233767456
 30
0.0
 11
-20.674211847229
 21
30.50819469315456
 31
0.0
  0
LINE
  5
4D
330
2
100
AcDbEntity
  8
GAIKEI
  6
Continuous
 62
     1
100
AcDbLine
 10
-22.13406407397628
 20
31.21725862860086
 30
0.0
 11
-22.24021659984908
 21
30.92562394141453
 31
0.0
  0
LINE
  5
4E
330
2
100
AcDbEntity
  8
GAIKEI
  6
Continuous
 62
     1
100
AcDbLine
 10
-23.08260073018903
 20
31.53497937343445
 30
0.0
 11
-23.08257559700883
 21
31.53506743127457
 31
0.0
  0
LINE
  5
4F
330
2
100
AcDbEntity
  8
GAIKEI
  6
Continuous
 62
     1
100
AcDbLine
 10
-24.64337709582443
 20
31.97985814431945
 30
0.0
 11
-24.69727504686864
 21
31.67422111977453
 31
0.0
  0
LINE
  5
50
330
2
100
AcDbEntity
  8
GAIKEI
  6
Continuous
 62
     1
100
AcDbLine
 10
-25.63267492978923
 20
32.12804060443455
 30
0.0
 11
-25.63266546950888
 21
32.12813168881451
 31
0.0
  0
LINE
  5
51
330
2
100
AcDbEntity
  8
GAIKEI
  6
Continuous
 62
     1
100
AcDbLine
 10
-27.24699198324518
 20
32.29513422241323
 30
0.0
 11
-27.24699779094908
 21
31.98478170317446
 31
0.0
  0
LINE
  5
52
330
2
100
AcDbEntity
  8
GAIKEI
  6
Continuous
 62
     1
100
AcDbLine
 10
-28.24699177430921
 20
32.26927616507453
 30
0.0
 11
-28.2469982743886
 21
32.26936750845448
 31
0.0
  0
LINE
  5
53
330
2
100
AcDbEntity
  8
GAIKEI
  6
Continuous
 62
     1
100
AcDbLine
 10
-25.63267491652926
 20
2.387497773694349
 30
0.0
 11
-25.63266568670906
 21
2.387408043734467
 31
0.0
  0
LINE
  5
54
330
2
100
AcDbEntity
  8
GAIKEI
  6
Continuous
 62
     1
100
AcDbLine
 10
-24.69727504688888
 20
2.841317380814302
 30
0.0
 11
-24.64337799018668
 21
2.535685427744681
 31
0.0
  0
LINE
  5
55
330
2
100
AcDbEntity
  8
GAIKEI
  6
Continuous
 62
     1
100
AcDbLine
 10
-23.08260069586891
 20
2.980559008874479
 30
0.0
 11
-23.08257602482911
 21
2.980472244854354
 31
0.0
  0
LINE
  5
56
330
2
100
AcDbEntity
  8
GAIKEI
  6
Continuous
 62
     1
100
AcDbLine
 10
-23.07377012651898
 20
2.956259842785584
 30
0.0
 11
-23.17991012960908
 21
3.247894085034545
 31
0.0
  0
LINE
  5
57
330
2
100
AcDbEntity
  8
GAIKEI
  6
Continuous
 62
     1
100
AcDbLine
 10
-20.66133536164244
 20
3.985028496888105
 30
0.0
 11
-20.81650516894911
 21
4.253802102434519
 31
0.0
  0
LINE
  5
58
330
2
100
AcDbEntity
  8
GAIKEI
  6
Continuous
 62
     1
100
AcDbLine
 10
-19.8082377446093
 20
4.507419662634333
 30
0.0
 11
-19.80818644384885
 21
4.50734380721451
 31
0.0
  0
LINE
  5
59
330
2
100
AcDbEntity
  8
GAIKEI
  6
Continuous
 62
     1
100
AcDbLine
 10
-18.46419460865923
 20
5.417082931031529
 30
0.0
 11
-18.66367973428907
 21
5.654829081294451
 31
0.0
  0
LINE
  5
5A
330
2
100
AcDbEntity
  8
GAIKEI
  6
Continuous
 62
     1
100
AcDbLine
 10
-17.71477038504883
 20
6.079677421914539
 30
0.0
 11
-17.71470669130929
 21
6.079611626994505
 31
0.0
  0
LINE
  5
5B
330
2
100
AcDbEntity
  8
GAIKEI
  6
Continuous
 62
     1
100
AcDbLine
 10
-16.54910697836928
 20
7.208910936201704
 30
0.0
 11
-16.78684633708883
 21
7.408405525834496
 31
0.0
  0
LINE
  5
5C
330
2
100
AcDbEntity
  8
GAIKEI
  6
Continuous
 62
     1
100
AcDbLine
 10
-15.92612719318924
 20
7.991575844774502
 30
0.0
 11
-15.92605304192909
 21
7.991522109754441
 31
0.0
  0
LINE
  5
5D
330
2
100
AcDbEntity
  8
GAIKEI
  6
Continuous
 62
     1
100
AcDbLine
 10
-40.49734796440907
 20
25.19652984871448
 30
0.0
 11
-40.49742263436906
 21
25.19658045555457
 31
0.0
  0
LINE
  5
5E
330
2
100
AcDbEntity
  8
GAIKEI
  6
Continuous
 62
     1
100
AcDbLine
 10
-40.75096542248888
 20
24.18826235597453
 30
0.0
 11
-41.01973620591403
 21
24.34343053411857
 31
0.0
  0
LINE
  5
5F
330
2
100
AcDbEntity
  8
GAIKEI
  6
Continuous
 62
     1
100
AcDbLine
 10
-14.97426154759304
 20
9.306068728837601
 30
0.0
 11
-15.24303161040904
 21
9.461249903114548
 31
0.0
  0
LINE
  5
60
330
2
100
AcDbEntity
  8
GAIKEI
  6
Continuous
 62
     1
100
AcDbLine
 10
-14.49665518748907
 20
10.18502286535454
 30
0.0
 11
-14.49657283176907
 21
10.18498282291455
 31
0.0
  0
LINE
  5
61
330
2
100
AcDbEntity
  8
GAIKEI
  6
Continuous
 62
     1
100
AcDbLine
 10
-41.6821928135688
 20
22.86184724867451
 30
0.0
 11
-41.68227513690886
 21
22.86188412039451
 31
0.0
  0
LINE
  5
62
330
2
100
AcDbEntity
  8
GAIKEI
  6
Continuous
 62
     1
100
AcDbLine
 10
-41.75687343988909
 20
21.82485739531455
 30
0.0
 11
-42.04850566255223
 21
21.93099666342485
 31
0.0
  0
LINE
  5
63
330
2
100
AcDbEntity
  8
GAIKEI
  6
Continuous
 62
     1
100
AcDbLine
 10
-42.33709848974922
 20
19.3226837723945
 30
0.0
 11
-42.6427310541336
 21
19.37656914250857
 31
0.0
  0
LINE
  5
64
330
2
100
AcDbEntity
  8
GAIKEI
  6
Continuous
 62
     1
100
AcDbLine
 10
-42.33681022248902
 20
15.19290267275448
 30
0.0
 11
-42.33709915078861
 21
15.19285939909434
 31
0.0
  0
LINE
  5
65
330
2
100
AcDbEntity
  8
GAIKEI
  6
Continuous
 62
     1
100
AcDbLine
 10
-42.64273105413849
 20
15.1389693581149
 30
0.0
 11
-42.33709848974922
 21
15.19285472821457
 31
0.0
  0
LINE
  5
66
330
2
100
AcDbEntity
  8
GAIKEI
  6
Continuous
 62
     1
100
AcDbLine
 10
-41.75659787754887
 20
12.69077837853456
 30
0.0
 11
-41.75687490198868
 21
12.69068559041454
 31
0.0
  0
LINE
  5
67
330
2
100
AcDbEntity
  8
GAIKEI
  6
Continuous
 62
     1
100
AcDbLine
 10
-42.04850566257164
 20
12.58454183722381
 30
0.0
 11
-41.75687343988909
 21
12.69068110529451
 31
0.0
  0
LINE
  5
68
330
2
100
AcDbEntity
  8
GAIKEI
  6
Continuous
 62
     1
100
AcDbLine
 10
-14.49665507694908
 20
24.33051568959456
 30
0.0
 11
-14.49657391514904
 21
24.33055505223456
 31
0.0
  0
LINE
  5
69
330
2
100
AcDbEntity
  8
GAIKEI
  6
Continuous
 62
     1
100
AcDbLine
 10
-14.74328561136906
 20
24.18811870965453
 30
0.0
 11
-14.74302890802903
 21
24.18825819289452
 31
0.0
  0
LINE
  5
6A
330
2
100
AcDbEntity
  8
GAIKEI
  6
Continuous
 62
     1
100
AcDbLine
 10
-15.24303161040904
 20
25.05428859749452
 30
0.0
 11
-14.9742613484606
 21
25.20946988673293
 31
0.0
  0
LINE
  5
6B
330
2
100
AcDbEntity
  8
GAIKEI
  6
Continuous
 62
     1
100
AcDbLine
 10
-15.92612709376908
 20
26.52396272853457
 30
0.0
 11
-15.92605400024922
 21
26.52401558677457
 31
0.0
  0
LINE
  5
6C
330
2
100
AcDbEntity
  8
GAIKEI
  6
Continuous
 62
     1
100
AcDbLine
 10
-16.14428378012883
 20
26.34090213583454
 30
0.0
 11
-16.144055197689
 21
26.34108407607448
 31
0.0
  0
LINE
  5
6D
330
2
100
AcDbEntity
  8
GAIKEI
  6
Continuous
 62
     1
100
AcDbLine
 10
-16.78684633708883
 20
27.10713297477446
 30
0.0
 11
-16.54910588499632
 21
27.30662848185116
 31
0.0
  0
LINE
  5
6E
330
2
100
AcDbEntity
  8
GAIKEI
  6
Continuous
 62
     1
100
AcDbLine
 10
-17.71477029974881
 20
28.43586116757445
 30
0.0
 11
-17.71470749542925
 21
28.43592591533457
 31
0.0
  0
LINE
  5
6F
330
2
100
AcDbEntity
  8
GAIKEI
  6
Continuous
 62
     1
100
AcDbLine
 10
-17.89782455752902
 20
28.21769916557446
 30
0.0
 11
-17.89763104136909
 21
28.21791803465453
 31
0.0
  0
LINE
  5
70
330
2
100
AcDbEntity
  8
GAIKEI
  6
Continuous
 62
     1
100
AcDbLine
 10
-18.66367973428907
 20
28.8607094193145
 30
0.0
 11
-18.46419294946264
 21
29.09845754697392
 31
0.0
  0
LINE
  5
71
330
2
100
AcDbEntity
  8
GAIKEI
  6
Continuous
 62
     1
100
AcDbLine
 10
-19.80823767620927
 20
30.00811894009451
 30
0.0
 11
-19.80818706936907
 21
30.00819361005449
 31
0.0
  0
LINE
  5
72
330
2
100
AcDbEntity
  8
GAIKEI
  6
Continuous
 62
     1
100
AcDbLine
 10
-19.9506274944091
 20
29.76148427083456
 30
0.0
 11
-19.95047492440903
 21
29.76173341853451
 31
0.0
  0
LINE
  5
73
330
2
100
AcDbEntity
  8
GAIKEI
  6
Continuous
 62
     1
100
AcDbLine
 10
-20.81650516894899
 20
30.26173639817455
 30
0.0
 11
-20.66133353318833
 21
30.53051317062594
 31
0.0
  0
LINE
  5
74
330
2
100
AcDbEntity
  8
GAIKEI
  6
Continuous
 62
     1
100
AcDbLine
 10
-22.1429202762489
 20
31.19296378925446
 30
0.0
 11
-22.14288340452924
 21
31.19304611259452
 31
0.0
  0
LINE
  5
75
330
2
100
AcDbEntity
  8
GAIKEI
  6
Continuous
 62
     1
100
AcDbLine
 10
-22.24031921228868
 20
30.92535032237447
 30
0.0
 11
-22.24021222422869
 21
30.92562217847444
 31
0.0
  0
LINE
  5
76
330
2
100
AcDbEntity
  8
GAIKEI
  6
Continuous
 62
     1
100
AcDbLine
 10
-23.17991012960908
 20
31.26764441557452
 30
0.0
 11
-23.07376854598368
 21
31.55928300043374
 31
0.0
  0
LINE
  5
77
330
2
100
AcDbEntity
  8
GAIKEI
  6
Continuous
 62
     1
100
AcDbLine
 10
-24.64787995044901
 20
31.95439480393452
 30
0.0
 11
-24.64785793418889
 21
31.95448227929456
 31
0.0
  0
LINE
  5
78
330
2
100
AcDbEntity
  8
GAIKEI
  6
Continuous
 62
     1
100
AcDbLine
 10
-24.6973285869691
 20
31.67393383917454
 30
0.0
 11
-24.69727043158901
 21
31.67422014343447
 31
0.0
  0
LINE
  5
79
330
2
100
AcDbEntity
  8
GAIKEI
  6
Continuous
 62
     1
100
AcDbLine
 10
-25.68208375252869
 20
31.84786946543454
 30
0.0
 11
-25.6281972677557
 21
32.153508352058
 31
0.0
  0
LINE
  5
7A
330
2
100
AcDbEntity
  8
GAIKEI
  6
Continuous
 62
     1
100
AcDbLine
 10
-27.24700476672899
 20
32.26927628799456
 30
0.0
 11
-27.24699827488905
 21
32.26936625749454
 31
0.0
  0
LINE
  5
7B
330
2
100
AcDbEntity
  8
GAIKEI
  6
Continuous
 62
     1
100
AcDbLine
 10
-27.24700063188902
 20
31.98448948985447
 30
0.0
 11
-27.24699307624883
 21
31.98478154309453
 31
0.0
  0
LINE
  5
7C
330
2
100
AcDbEntity
  8
GAIKEI
  6
Continuous
 62
     1
100
AcDbLine
 10
-28.24699875828901
 20
31.98478170317446
 30
0.0
 11
-28.24700456596472
 21
32.29513399246761
 31
0.0
  0
LINE
  5
7D
330
2
100
AcDbEntity
  8
GAIKEI
  6
Continuous
 62
     1
100
AcDbLine
 10
-25.68213169706905
 20
2.667957302434501
 30
0.0
 11
-25.68208842340903
 21
2.66766837413445
 31
0.0
  0
LINE
  5
7E
330
2
100
AcDbEntity
  8
GAIKEI
  6
Continuous
 62
     1
100
AcDbLine
 10
-25.62819821324107
 20
2.362035511164918
 30
0.0
 11
-25.68208375252869
 21
2.667669035174526
 31
0.0
  0
LINE
  5
7F
330
2
100
AcDbEntity
  8
GAIKEI
  6
Continuous
 62
     1
100
AcDbLine
 10
-24.64787997988902
 20
2.561143816294475
 30
0.0
 11
-24.64785771692926
 21
2.561054989374497
 31
0.0
  0
LINE
  5
80
330
2
100
AcDbEntity
  8
GAIKEI
  6
Continuous
 62
     1
100
AcDbLine
 10
-23.1800072388487
 20
3.248169706014323
 30
0.0
 11
-23.1799142836893
 21
3.247892730834564
 31
0.0
  0
LINE
  5
81
330
2
100
AcDbEntity
  8
GAIKEI
  6
Continuous
 62
     1
100
AcDbLine
 10
-22.24021659982907
 20
3.589914559194312
 30
0.0
 11
-22.13406553413713
 21
3.298283883524192
 31
0.0
  0
LINE
  5
82
330
2
100
AcDbEntity
  8
GAIKEI
  6
Continuous
 62
     1
100
AcDbLine
 10
-20.67425151382884
 20
4.007425655374504
 30
0.0
 11
-20.67421265790881
 21
4.00734521113452
 31
0.0
  0
LINE
  5
83
330
2
100
AcDbEntity
  8
GAIKEI
  6
Continuous
 62
     1
100
AcDbLine
 10
-20.8166487936287
 20
4.25405654863448
 30
0.0
 11
-20.81650933142908
 21
4.253799884034492
 31
0.0
  0
LINE
  5
84
330
2
100
AcDbEntity
  8
GAIKEI
  6
Continuous
 62
     1
100
AcDbLine
 10
-19.95047892742923
 20
4.753802586094479
 30
0.0
 11
-19.7952988617555
 21
4.48503444333113
 31
0.0
  0
LINE
  5
85
330
2
100
AcDbEntity
  8
GAIKEI
  6
Continuous
 62
     1
100
AcDbLine
 10
-18.48080479638906
 20
5.436898069434505
 30
0.0
 11
-18.48075193814907
 21
5.436824975934541
 31
0.0
  0
LINE
  5
86
330
2
100
AcDbEntity
  8
GAIKEI
  6
Continuous
 62
     1
100
AcDbLine
 10
-18.66386538908909
 20
5.655054755794481
 30
0.0
 11
-18.66368344884881
 21
5.654826173374544
 31
0.0
  0
LINE
  5
87
330
2
100
AcDbEntity
  8
GAIKEI
  6
Continuous
 62
     1
100
AcDbLine
 10
-17.89763455014884
 20
6.297617312774491
 30
0.0
 11
-17.69814030020967
 21
6.059878358822288
 31
0.0
  0
LINE
  5
88
330
2
100
AcDbEntity
  8
GAIKEI
  6
Continuous
 62
     1
100
AcDbLine
 10
-16.56890635734862
 20
7.225541275434466
 30
0.0
 11
-16.56884160958862
 21
7.225478471114456
 31
0.0
  0
LINE
  5
89
330
2
100
AcDbEntity
  8
GAIKEI
  6
Continuous
 62
     1
100
AcDbLine
 10
-16.78706824662924
 20
7.408595665994539
 30
0.0
 11
-16.7868492575293
 21
7.408402276034507
 31
0.0
  0
LINE
  5
8A
330
2
100
AcDbEntity
  8
GAIKEI
  6
Continuous
 62
     1
100
AcDbLine
 10
-16.1440581056089
 20
8.174450709974507
 30
0.0
 11
-15.90631105422449
 21
7.974964828215576
 31
0.0
  0
LINE
  5
8B
330
2
100
AcDbEntity
  8
GAIKEI
  6
Continuous
 62
     1
100
AcDbLine
 10
-14.99664858482901
 20
9.319008651894478
 30
0.0
 11
-14.9965739148688
 21
9.3189580450545
 31
0.0
  0
LINE
  5
8C
330
2
100
AcDbEntity
  8
GAIKEI
  6
Continuous
 62
     1
100
AcDbLine
 10
-15.24328325408908
 20
9.461398470094536
 30
0.0
 11
-15.24303410638924
 21
9.461245900094468
 31
0.0
  0
LINE
  5
8D
330
2
100
AcDbEntity
  8
GAIKEI
  6
Continuous
 62
     1
100
AcDbLine
 10
-40.25071338308907
 20
25.0541398801945
 30
0.0
 11
-40.25096262706904
 21
25.05429230505456
 31
0.0
  0
LINE
  5
8E
330
2
100
AcDbEntity
  8
GAIKEI
  6
Continuous
 62
     1
100
AcDbLine
 10
-14.74303112674909
 20
10.32727614463454
 30
0.0
 11
-14.47425505709046
 21
10.17210491461401
 31
0.0
  0
LINE
  5
8F
330
2
100
AcDbEntity
  8
GAIKEI
  6
Continuous
 62
     1
100
AcDbLine
 10
-40.51972991466022
 20
25.20946683467241
 30
0.0
 11
-40.25096493882904
 21
25.05428859749452
 31
0.0
  0
LINE
  5
90
330
2
100
AcDbEntity
  8
GAIKEI
  6
Continuous
 62
     1
100
AcDbLine
 10
-40.99734136174902
 20
24.33051563523452
 30
0.0
 11
-40.99742371746867
 21
24.33055567769452
 31
0.0
  0
LINE
  5
91
330
2
100
AcDbEntity
  8
GAIKEI
  6
Continuous
 62
     1
100
AcDbLine
 10
-41.41457934668847
 20
22.7644483126345
 30
0.0
 11
-41.41485120278878
 21
22.7645553006945
 31
0.0
  0
LINE
  5
92
330
2
100
AcDbEntity
  8
GAIKEI
  6
Continuous
 62
     1
100
AcDbLine
 10
-41.7064812157617
 20
22.87070110787841
 30
0.0
 11
-41.41485296572898
 21
22.76455092507445
 31
0.0
  0
LINE
  5
93
330
2
100
AcDbEntity
  8
GAIKEI
  6
Continuous
 62
     1
100
AcDbLine
 10
-42.02420839800868
 20
21.92216679479452
 30
0.0
 11
-42.02429645560903
 21
21.92219192791447
 31
0.0
  0
LINE
  5
94
330
2
100
AcDbEntity
  8
GAIKEI
  6
Continuous
 62
     1
100
AcDbLine
 10
-42.1631628634891
 20
20.30743893795454
 30
0.0
 11
-42.16344916774881
 21
20.30749709333452
 31
0.0
  0
LINE
  5
95
330
2
100
AcDbEntity
  8
GAIKEI
  6
Continuous
 62
     1
100
AcDbLine
 10
-42.46908069153318
 20
20.36138928688663
 30
0.0
 11
-42.16345014408864
 21
20.30749247805454
 31
0.0
  0
LINE
  5
96
330
2
100
AcDbEntity
  8
GAIKEI
  6
Continuous
 62
     1
100
AcDbLine
 10
-32.58228071042527
 20
5.812234618878733
 30
0.0
 11
-32.89212270928283
 21
4.655886220471757
 31
0.0
  0
LINE
  5
97
330
2
100
AcDbEntity
  8
GAIKEI
  6
Continuous
 62
     1
100
AcDbLine
 10
-29.68209583382884
 20
29.39485512531451
 30
0.0
 11
-29.19352605544907
 21
31.69343812467446
 31
0.0
  0
LINE
  5
98
330
2
100
AcDbEntity
  8
GAIKEI
  6
Continuous
 62
     1
100
AcDbLine
 10
-29.11074719812928
 20
2.432656471374571
 30
0.0
 11
-29.68209583382884
 21
5.120683375294333
 31
0.0
  0
LINE
  5
99
330
2
100
AcDbEntity
  8
GAIKEI
  6
Continuous
 62
     1
100
AcDbLine
 10
-16.26842479932907
 20
12.86506995787454
 30
0.0
 11
-14.22619953232902
 21
11.02625407297444
 31
0.0
  0
LINE
  5
9A
330
2
100
AcDbEntity
  8
GAIKEI
  6
Continuous
 62
     1
100
AcDbLine
 10
-39.90404809338861
 20
25.85136685193447
 30
0.0
 11
-37.290474190689
 21
25.00215583287456
 31
0.0
  0
LINE
  5
9B
330
2
100
AcDbEntity
  8
GAIKEI
  6
Continuous
 62
     1
100
AcDbLine
 10
-33.08312546732646
 20
6.291671936305533
 30
0.0
 11
-32.7520230899845
 21
6.374807326168479
 31
0.0
  0
LINE
  5
9C
330
2
100
AcDbEntity
  8
GAIKEI
  6
Continuous
 62
     1
100
AcDbLine
 10
-36.15906358450025
 20
6.008653994243559
 30
0.0
 11
-35.44698433894587
 21
6.005222204892334
 31
0.0
  0
LINE
  5
9D
330
2
100
AcDbEntity
  8
GAIKEI
  6
Continuous
 62
     1
100
AcDbLine
 10
-34.66940736166112
 20
7.481809651560752
 30
0.0
 11
-34.57585353256491
 21
7.153498886597958
 31
0.0
  0
LINE
  5
9E
330
2
100
AcDbEntity
  8
GAIKEI
  6
Continuous
 62
     1
100
AcDbLine
 10
-33.64199684106666
 20
4.963112187107867
 30
0.0
 11
-33.28298520153067
 21
4.348149365625545
 31
0.0
  0
LINE
  5
9F
330
2
100
AcDbEntity
  8
GAIKEI
  6
Continuous
 62
     1
100
AcDbLine
 10
-14.14421843647767
 20
18.29987926807177
 30
0.0
 11
-13.79115083045872
 21
18.91827387890544
 31
0.0
  0
LINE
  5
A0
330
2
100
AcDbEntity
  8
GAIKEI
  6
Continuous
 62
     1
100
AcDbLine
 10
-15.81176916484401
 20
16.15076692489515
 30
0.0
 11
-15.57422061659827
 21
16.39594229999511
 31
0.0
  0
LINE
  5
A1
330
2
100
AcDbEntity
  8
GAIKEI
  6
Continuous
 62
     1
100
AcDbLine
 10
-13.79115083045872
 20
15.5972646216693
 30
0.0
 11
-14.14421843647767
 21
16.21565923250307
 31
0.0
  0
LINE
  5
A2
330
2
100
AcDbEntity
  8
GAIKEI
  6
Continuous
 62
     1
100
AcDbLine
 10
-15.57422061659827
 20
18.11959620057973
 30
0.0
 11
-15.81176916484401
 21
18.36477157567969
 31
0.0
  0
LINE
  5
A3
330
2
100
AcDbEntity
  8
GAIKEI
  6
Continuous
 62
     1
100
AcDbLine
 10
-15.40943809863484
 20
18.79305914212216
 30
0.0
 11
-14.25309001056007
 21
19.10290229915552
 31
0.0
  0
LINE
  5
A4
330
2
100
AcDbEntity
  8
GAIKEI
  6
Continuous
 62
     1
100
AcDbLine
 10
-14.25309001056723
 20
15.41263620141228
 30
0.0
 11
-15.40943809864302
 21
15.72247935845996
 31
0.0
  0
LINE
  5
A5
330
2
100
AcDbEntity
  8
GAIKEI
  6
Continuous
 62
     1
100
AcDbLine
 10
-32.88822510557043
 20
29.8664031277417
 30
0.0
 11
-32.57838310672446
 21
28.71005472932666
 31
0.0
  0
LINE
  5
A6
330
2
100
AcDbEntity
  8
GAIKEI
  6
Continuous
 62
     1
100
AcDbLine
 10
-35.23758320372678
 20
27.1747648375025
 30
0.0
 11
-36.08408929294399
 21
28.02127007887611
 31
0.0
  0
LINE
  5
A7
330
2
100
AcDbEntity
  8
GAIKEI
  6
Continuous
 62
     1
100
AcDbLine
 10
-34.57195592886228
 20
27.36879046161812
 30
0.0
 11
-34.66550975795826
 21
27.04047969665533
 31
0.0
  0
LINE
  5
A8
330
2
100
AcDbEntity
  8
GAIKEI
  6
Continuous
 62
     1
100
AcDbLine
 10
-33.2790875978277
 20
30.17413998259053
 30
0.0
 11
-33.6380992373638
 21
29.5591771611081
 31
0.0
  0
LINE
  5
A9
330
2
100
AcDbEntity
  8
GAIKEI
  6
Continuous
 62
     1
100
AcDbLine
 10
-32.748125486282
 20
28.14748202204749
 30
0.0
 11
-33.07922786362383
 21
28.23061741191032
 31
0.0
  0
LINE
  5
AA
330
2
100
AcDbEntity
  8
GAIKEI
  6
Continuous
 62
     1
100
AcDbLine
 10
-35.44308673524302
 20
28.51706714332375
 30
0.0
 11
-36.15516598079762
 21
28.51363535397229
 31
0.0
  0
LINE
  5
AB
330
2
100
AcDbEntity
  8
GAIKEI
  6
Continuous
 62
     1
100
AcDbLine
 10
-40.25096493882904
 20
9.46124990309454
 30
0.0
 11
-40.51972991466004
 21
9.306071665916476
 31
0.0
  0
LINE
  5
AC
330
2
100
AcDbEntity
  8
GAIKEI
  6
Continuous
 62
     1
100
AcDbLine
 10
-40.25096262706904
 20
9.461246195534499
 30
0.0
 11
-40.25071338308907
 21
9.461398620394561
 31
0.0
  0
LINE
  5
AD
330
2
100
AcDbEntity
  8
GAIKEI
  6
Continuous
 62
     1
100
AcDbLine
 10
-41.01973620591397
 20
10.17210796647052
 30
0.0
 11
-40.75096542248888
 21
10.32727614461453
 31
0.0
  0
LINE
  5
AE
330
2
100
AcDbEntity
  8
GAIKEI
  6
Continuous
100
AcDbLine
 10
18.70718304215109
 20
1.981038423105133
 30
0.0
 11
20.81017092080913
 21
1.870106655242921
 31
0.0
  0
LINE
  5
AF
330
2
100
AcDbEntity
  8
GAIKEI
  6
Continuous
 62
     1
100
AcDbLine
 10
18.1184725125513
 20
10.46499510576507
 30
0.0
 11
18.1184725125513
 21
2.212165903785148
 31
0.0
  0
LINE
  5
B0
330
2
100
AcDbEntity
  8
GAIKEI
  6
Continuous
100
AcDbLine
 10
18.70718304215109
 20
32.53463681658514
 30
0.0
 11
20.81017092080913
 21
32.64413042431068
 31
0.0
  0
LINE
  5
B1
330
2
100
AcDbEntity
  8
GAIKEI
  6
Continuous
 62
     1
100
AcDbLine
 10
17.82718304215132
 20
32.28824350164507
 30
0.0
 11
18.1184725125513
 21
32.30350933590512
 31
0.0
  0
LINE
  5
B2
330
2
100
AcDbEntity
  8
GAIKEI
  6
Continuous
 62
     1
100
AcDbLine
 10
17.6271532478313
 20
32.26943560412508
 30
0.0
 11
12.19469744481125
 21
31.98455785940507
 31
0.0
  0
LINE
  5
B3
330
2
100
AcDbEntity
  8
GAIKEI
  6
Continuous
 62
     1
100
AcDbLine
 10
12.20000217821109
 20
31.84793783498515
 30
0.0
 11
17.62715519481128
 21
32.12820089800516
 31
0.0
  0
LINE
  5
B4
330
2
100
AcDbEntity
  8
GAIKEI
  6
Continuous
 62
     1
100
AcDbLine
 10
17.6271532478313
 20
31.95455060228517
 30
0.0
 11
12.19469744481125
 21
31.67400220872514
 31
0.0
  0
LINE
  5
B5
330
2
100
AcDbEntity
  8
GAIKEI
  6
Continuous
 62
     1
100
AcDbLine
 10
12.20000217821109
 20
31.26771278512513
 30
0.0
 11
17.62715519489131
 21
31.53513762634509
 31
0.0
  0
LINE
  5
B6
330
2
100
AcDbEntity
  8
GAIKEI
  6
Continuous
 62
     1
100
AcDbLine
 10
17.62715324787132
 20
31.19311341336516
 30
0.0
 11
12.19469744481125
 21
30.92541869192507
 31
0.0
  0
LINE
  5
B7
330
2
100
AcDbEntity
  8
GAIKEI
  6
Continuous
 62
     1
100
AcDbLine
 10
12.20000217821109
 20
30.26180476772515
 30
0.0
 11
17.6271551948513
 21
30.5082658186451
 31
0.0
  0
LINE
  5
B8
330
2
100
AcDbEntity
  8
GAIKEI
  6
Continuous
 62
     1
100
AcDbLine
 10
17.62715324787132
 20
30.00825992104513
 30
0.0
 11
12.19469744481125
 21
29.76155264038516
 31
0.0
  0
LINE
  5
B9
330
2
100
AcDbEntity
  8
GAIKEI
  6
Continuous
 62
     1
100
AcDbLine
 10
12.20000217821109
 20
28.86077778886511
 30
0.0
 11
17.62715519481128
 21
29.07878645516507
 31
0.0
  0
LINE
  5
BA
330
2
100
AcDbEntity
  8
GAIKEI
  6
Continuous
 62
     1
100
AcDbLine
 10
17.6271532478313
 20
28.43599129912514
 30
0.0
 11
12.19469744481125
 21
28.21776753512506
 31
0.0
  0
LINE
  5
BB
330
2
100
AcDbEntity
  8
GAIKEI
  6
Continuous
 62
     1
100
AcDbLine
 10
12.20000217821109
 20
27.10720134432506
 30
0.0
 11
17.62715519479127
 21
27.29013354300514
 31
0.0
  0
LINE
  5
BC
330
2
100
AcDbEntity
  8
GAIKEI
  6
Continuous
 62
     1
100
AcDbLine
 10
17.6271532478313
 20
26.52408013408513
 30
0.0
 11
12.19469744481125
 21
26.34097050538514
 31
0.0
  0
LINE
  5
BD
330
2
100
AcDbEntity
  8
GAIKEI
  6
Continuous
 62
     1
100
AcDbLine
 10
12.20000217821109
 20
25.05435696704513
 30
0.0
 11
17.62715519481128
 21
25.19665439582514
 31
0.0
  0
LINE
  5
BE
330
2
100
AcDbEntity
  8
GAIKEI
  6
Continuous
 62
     1
100
AcDbLine
 10
17.62715324787132
 20
24.33061887918518
 30
0.0
 11
12.19469744481125
 21
24.18818707920514
 31
0.0
  0
LINE
  5
BF
330
2
100
AcDbEntity
  8
GAIKEI
  6
Continuous
 62
     1
100
AcDbLine
 10
11.28283622133131
 20
23.48935279718512
 30
0.0
 11
11.13778153493115
 21
23.47315903212507
 31
0.0
  0
LINE
  5
C0
330
2
100
AcDbEntity
  8
GAIKEI
  6
Continuous
 62
     1
100
AcDbLine
 10
9.559008985951322
 20
14.27047992116513
 30
0.0
 11
9.559008985951322
 21
20.24519531852513
 31
0.0
  0
LINE
  5
C1
330
2
100
AcDbEntity
  8
GAIKEI
  6
Continuous
 62
     1
100
AcDbLine
 10
9.636225740891291
 20
17.97181509386507
 30
0.0
 11
9.636225740891291
 21
16.54386014584509
 31
0.0
  0
LINE
  5
C2
330
2
100
AcDbEntity
  8
GAIKEI
  6
Continuous
 62
     1
100
AcDbLine
 10
10.59213831435113
 20
18.57883988652509
 30
0.0
 11
10.59213863067111
 21
15.93570794660513
 31
0.0
  0
LINE
  5
C3
330
2
100
AcDbEntity
  8
GAIKEI
  6
Continuous
 62
     1
100
AcDbLine
 10
11.81305893345131
 20
31.89305650474512
 30
0.0
 11
11.81305893345131
 21
31.89162361186516
 31
0.0
  0
LINE
  5
C4
330
2
100
AcDbEntity
  8
GAIKEI
  6
Continuous
 62
     1
100
AcDbLine
 10
11.81305893345131
 20
31.70486509870511
 30
0.0
 11
11.81305893345131
 21
31.63374193900506
 31
0.0
  0
LINE
  5
C5
330
2
100
AcDbEntity
  8
GAIKEI
  6
Continuous
 62
     1
100
AcDbLine
 10
11.81305893345131
 20
31.0791409658251
 30
0.0
 11
11.81305893345131
 21
30.93905568796515
 31
0.0
  0
LINE
  5
C6
330
2
100
AcDbEntity
  8
GAIKEI
  6
Continuous
 62
     1
100
AcDbLine
 10
11.81305893345131
 20
30.03346352468509
 30
0.0
 11
11.81305893345131
 21
29.82867254896508
 31
0.0
  0
LINE
  5
C7
330
2
100
AcDbEntity
  8
GAIKEI
  6
Continuous
 62
     1
100
AcDbLine
 10
11.81305893345131
 20
28.59960515520516
 30
0.0
 11
11.81305893345131
 21
28.33633095176515
 31
0.0
  0
LINE
  5
C8
330
2
100
AcDbEntity
  8
GAIKEI
  6
Continuous
 62
     1
100
AcDbLine
 10
11.81305893345131
 20
26.82113291840506
 30
0.0
 11
11.81305893345131
 21
26.50737494070507
 31
0.0
  0
LINE
  5
C9
330
2
100
AcDbEntity
  8
GAIKEI
  6
Continuous
 62
     1
100
AcDbLine
 10
11.81305893345131
 20
24.75208479318508
 30
0.0
 11
11.81305893345131
 21
24.39737641862507
 31
0.0
  0
LINE
  5
CA
330
2
100
AcDbEntity
  8
GAIKEI
  6
Continuous
 62
     1
100
AcDbLine
 10
11.8130589334512
 20
10.11829880082507
 30
0.0
 11
11.8130589334512
 21
9.763590426585096
 31
0.0
  0
LINE
  5
CB
330
2
100
AcDbEntity
  8
GAIKEI
  6
Continuous
 62
     1
100
AcDbLine
 10
11.8130589334512
 20
8.008300281005062
 30
0.0
 11
11.8130589334512
 21
7.694542303725143
 31
0.0
  0
LINE
  5
CC
330
2
100
AcDbEntity
  8
GAIKEI
  6
Continuous
 62
     1
100
AcDbLine
 10
11.8130589334512
 20
6.179344272785101
 30
0.0
 11
11.8130589334512
 21
5.916070069825082
 31
0.0
  0
LINE
  5
CD
330
2
100
AcDbEntity
  8
GAIKEI
  6
Continuous
 62
     1
100
AcDbLine
 10
11.8130589334512
 20
4.687002678865155
 30
0.0
 11
11.8130589334512
 21
4.482210117845056
 31
0.0
  0
LINE
  5
CE
330
2
100
AcDbEntity
  8
GAIKEI
  6
Continuous
 62
     1
100
AcDbLine
 10
11.8130589334512
 20
3.576619543485094
 30
0.0
 11
11.8130589334512
 21
3.436534266245075
 31
0.0
  0
LINE
  5
CF
330
2
100
AcDbEntity
  8
GAIKEI
  6
Continuous
 62
     1
100
AcDbLine
 10
11.8130589334512
 20
2.881933296345096
 30
0.0
 11
11.8130589334512
 21
2.810810137285102
 31
0.0
  0
LINE
  5
D0
330
2
100
AcDbEntity
  8
GAIKEI
  6
Continuous
100
AcDbLine
 10
11.8130589334512
 20
2.624051627505082
 30
0.0
 11
11.8130589334512
 21
2.622618734965158
 31
0.0
  0
LINE
  5
D1
330
2
100
AcDbEntity
  8
GAIKEI
  6
Continuous
 62
     1
100
AcDbLine
 10
11.8130922540513
 20
31.89152000142508
 30
0.0
 11
11.81305893345131
 21
31.89162361186516
 31
0.0
  0
LINE
  5
D2
330
2
100
AcDbEntity
  8
GAIKEI
  6
Continuous
100
AcDbLine
 10
11.8130881926113
 20
2.624157224605141
 30
0.0
 11
11.8130589334512
 21
2.624051627505082
 31
0.0
  0
LINE
  5
D3
330
2
100
AcDbEntity
  8
GAIKEI
  6
Continuous
 62
     1
100
AcDbLine
 10
17.82718304215132
 20
2.406631663545113
 30
0.0
 11
17.82718304215132
 21
2.500412682165119
 31
0.0
  0
LINE
  5
D4
330
2
100
AcDbEntity
  8
GAIKEI
  6
Continuous
 62
     1
100
AcDbLine
 10
17.82718304215132
 20
3.034083737565083
 30
0.0
 11
17.82718304215132
 21
3.239295823565157
 31
0.0
  0
LINE
  5
D5
330
2
100
AcDbEntity
  8
GAIKEI
  6
Continuous
 62
     1
100
AcDbLine
 10
17.82718304215132
 20
4.093717375745086
 30
0.0
 11
17.82718304215132
 21
4.393717375725145
 31
0.0
  0
LINE
  5
D6
330
2
100
AcDbEntity
  8
GAIKEI
  6
Continuous
 62
     1
100
AcDbLine
 10
17.82718304215132
 20
5.553336146165065
 30
0.0
 11
17.82718304215132
 21
5.939008711965129
 31
0.0
  0
LINE
  5
D7
330
2
100
AcDbEntity
  8
GAIKEI
  6
Continuous
 62
     1
100
AcDbLine
 10
17.82718304215132
 20
7.368590271085167
 30
0.0
 11
17.82718304215132
 21
7.828216936965077
 31
0.0
  0
LINE
  5
D8
330
2
100
AcDbEntity
  8
GAIKEI
  6
Continuous
 62
     1
100
AcDbLine
 10
17.82718304215132
 20
9.484324172525134
 30
0.0
 11
17.82718304215132
 21
10.00394060452515
 31
0.0
  0
LINE
  5
D9
330
2
100
AcDbEntity
  8
GAIKEI
  6
Continuous
 62
     1
100
AcDbLine
 10
17.82718304215132
 20
24.51173463518512
 30
0.0
 11
17.82718304215132
 21
25.03135106718514
 31
0.0
  0
LINE
  5
DA
330
2
100
AcDbEntity
  8
GAIKEI
  6
Continuous
 62
     1
100
AcDbLine
 10
17.82718304215132
 20
26.68745830274509
 30
0.0
 11
17.82718304215132
 21
27.14708496862511
 31
0.0
  0
LINE
  5
DB
330
2
100
AcDbEntity
  8
GAIKEI
  6
Continuous
 62
     1
100
AcDbLine
 10
17.82718304215132
 20
28.57666652774515
 30
0.0
 11
17.82718304215132
 21
28.9623390935451
 31
0.0
  0
LINE
  5
DC
330
2
100
AcDbEntity
  8
GAIKEI
  6
Continuous
 62
     1
100
AcDbLine
 10
17.82718304215132
 20
30.12195786398513
 30
0.0
 11
17.82718304215132
 21
30.42195786396508
 31
0.0
  0
LINE
  5
DD
330
2
100
AcDbEntity
  8
GAIKEI
  6
Continuous
 62
     1
100
AcDbLine
 10
17.82718304215132
 20
31.27637941614512
 30
0.0
 11
17.82718304215132
 21
31.48159150214508
 31
0.0
  0
LINE
  5
DE
330
2
100
AcDbEntity
  8
GAIKEI
  6
Continuous
 62
     1
100
AcDbLine
 10
17.82718304215132
 20
32.00485466956513
 30
0.0
 11
17.82718304215132
 21
32.10904357616517
 31
0.0
  0
LINE
  5
DF
330
2
100
AcDbEntity
  8
GAIKEI
  6
Continuous
 62
     1
100
AcDbLine
 10
18.1184725125513
 20
32.30350933590512
 30
0.0
 11
18.1184725125513
 21
24.05068013392508
 31
0.0
  0
LINE
  5
E0
330
2
100
AcDbEntity
  8
GAIKEI
  6
Continuous
 62
     1
100
AcDbLine
 10
18.70718304214529
 20
23.84698098147532
 30
0.0
 11
18.70718304215109
 21
32.53463681658514
 31
0.0
  0
LINE
  5
E1
330
2
100
AcDbEntity
  8
GAIKEI
  6
Continuous
 62
     1
100
AcDbLine
 10
12.20000217821109
 20
10.32734451418514
 30
0.0
 11
17.6271551948513
 21
10.18505630946515
 31
0.0
  0
LINE
  5
E2
330
2
100
AcDbEntity
  8
GAIKEI
  6
Continuous
 62
     1
100
AcDbLine
 10
12.19469744481125
 20
9.46146683964514
 30
0.0
 11
17.62715324787132
 21
9.319020894925074
 31
0.0
  0
LINE
  5
E3
330
2
100
AcDbEntity
  8
GAIKEI
  6
Continuous
 62
     1
100
AcDbLine
 10
12.20000217821109
 20
8.174519079525111
 30
0.0
 11
17.62715519481128
 21
7.991595039985099
 31
0.0
  0
LINE
  5
E4
330
2
100
AcDbEntity
  8
GAIKEI
  6
Continuous
 62
     1
100
AcDbLine
 10
12.19469735977111
 20
7.408664035545143
 30
0.0
 11
17.6271532478313
 21
7.225541762305169
 31
0.0
  0
LINE
  5
E5
330
2
100
AcDbEntity
  8
GAIKEI
  6
Continuous
 62
     1
100
AcDbLine
 10
12.20000217821109
 20
6.297685682325095
 30
0.0
 11
17.62715519479127
 21
6.079683862365072
 31
0.0
  0
LINE
  5
E6
330
2
100
AcDbEntity
  8
GAIKEI
  6
Continuous
 62
     1
100
AcDbLine
 10
12.19469744481125
 20
5.655123125345085
 30
0.0
 11
17.6271532478313
 21
5.436888862745149
 31
0.0
  0
LINE
  5
E7
330
2
100
AcDbEntity
  8
GAIKEI
  6
Continuous
 62
     1
100
AcDbLine
 10
12.20000217821109
 20
4.753870955645083
 30
0.0
 11
17.62715519481128
 21
4.507415230245101
 31
0.0
  0
LINE
  5
E8
330
2
100
AcDbEntity
  8
GAIKEI
  6
Continuous
 62
     1
100
AcDbLine
 10
12.19469820833114
 20
4.254124918185084
 30
0.0
 11
17.62714682109106
 21
4.00740980128512
 31
0.0
  0
LINE
  5
E9
330
2
100
AcDbEntity
  8
GAIKEI
  6
Continuous
 62
     1
100
AcDbLine
 10
12.20000217821109
 20
3.589982928745143
 30
0.0
 11
17.62715519481128
 21
3.322561730405141
 31
0.0
  0
LINE
  5
EA
330
2
100
AcDbEntity
  8
GAIKEI
  6
Continuous
 62
     1
100
AcDbLine
 10
12.19469735977111
 20
3.248238075565154
 30
0.0
 11
17.6271532478313
 21
2.980537709305167
 31
0.0
  0
LINE
  5
EB
330
2
100
AcDbEntity
  8
GAIKEI
  6
Continuous
 62
     1
100
AcDbLine
 10
12.20000217821109
 20
2.841385750365134
 30
0.0
 11
17.6271551948513
 21
2.561124536885131
 31
0.0
  0
LINE
  5
EC
330
2
100
AcDbEntity
  8
GAIKEI
  6
Continuous
 62
     1
100
AcDbLine
 10
17.82718304215132
 20
2.227431738065092
 30
0.0
 11
18.1184725125513
 21
2.212165903805157
 31
0.0
  0
LINE
  5
ED
330
2
100
AcDbEntity
  8
GAIKEI
  6
Continuous
 62
     1
100
AcDbLine
 10
10.88711253969404
 20
11.33138944073516
 30
0.0
 11
10.88711253969404
 21
23.22294225158509
 31
0.0
  0
LINE
  5
EE
330
2
100
AcDbEntity
  8
GAIKEI
  6
Continuous
100
AcDbLine
 10
9.531864433811279
 20
6.092652764744912
 30
0.0
 11
9.531864433811279
 21
28.42302247494513
 31
0.0
  0
LINE
  5
EF
330
2
100
AcDbEntity
  8
GAIKEI
  6
Continuous
 62
     1
100
AcDbLine
 10
11.72715629137201
 20
10.72970459840269
 30
0.0
 11
11.72715629137201
 21
2.869979295207485
 31
0.0
  0
LINE
  5
F0
330
2
100
AcDbEntity
  8
GAIKEI
  6
Continuous
 62
     1
100
AcDbLine
 10
11.28081287019131
 20
23.50007233238512
 30
0.0
 11
11.13780030013117
 21
23.47305974078506
 31
0.0
  0
LINE
  5
F1
330
2
100
AcDbEntity
  8
GAIKEI
  6
Continuous
 62
     1
100
AcDbLine
 10
12.20000217821109
 20
2.530825166985096
 30
0.0
 11
17.62715519483106
 21
2.246239533485095
 31
0.0
  0
LINE
  5
F2
330
2
100
AcDbEntity
  8
GAIKEI
  6
Continuous
 62
     1
100
AcDbLine
 10
11.13780030013106
 20
11.04261549890509
 30
0.0
 11
11.28081287019131
 21
11.01560290730515
 31
0.0
  0
LINE
  5
F3
330
2
100
AcDbEntity
  8
GAIKEI
  6
Continuous
 62
     1
100
AcDbLine
 10
11.13778153493103
 20
11.04251620756508
 30
0.0
 11
11.28283622133131
 21
11.02632244250514
 31
0.0
  0
LINE
  5
F4
330
2
100
AcDbEntity
  8
GAIKEI
  6
Continuous
 62
     1
100
AcDbLine
 10
18.70718304215109
 20
1.981038423108884
 30
0.0
 11
18.70718304214529
 21
10.66869425821471
 31
0.0
  0
LINE
  5
F5
330
2
100
AcDbEntity
  8
GAIKEI
  6
Continuous
 62
     1
100
AcDbLine
 10
12.19469744481125
 20
2.668025671985105
 30
0.0
 11
17.62715324781129
 21
2.387474442245093
 31
0.0
  0
LINE
  5
F6
330
2
100
AcDbEntity
  8
GAIKEI
  6
Continuous
 62
     1
100
AcDbLine
 10
20.86718304214082
 20
32.58358978097067
 30
0.0
 11
20.86718304214082
 21
30.54750285864509
 31
0.0
  0
LINE
  5
F7
330
2
100
AcDbEntity
  8
GAIKEI
  6
Continuous
 62
     1
100
AcDbLine
 10
20.86718304214082
 20
30.3005021275851
 30
0.0
 11
20.86718304214082
 21
25.31375485742243
 31
0.0
  0
LINE
  5
F8
330
2
100
AcDbEntity
  8
GAIKEI
  6
Continuous
 62
     1
100
AcDbLine
 10
20.86718304214082
 20
24.52515779780515
 30
0.0
 11
20.86718304214079
 21
17.51999658954858
 31
0.0
  0
LINE
  5
F9
330
2
100
AcDbEntity
  8
GAIKEI
  6
Continuous
 62
     1
100
AcDbLine
 10
20.86718304214082
 20
16.99567865016425
 30
0.0
 11
20.86718304214082
 21
9.990517441905126
 31
0.0
  0
LINE
  5
FA
330
2
100
AcDbEntity
  8
GAIKEI
  6
Continuous
 62
     1
100
AcDbLine
 10
20.86718304214082
 20
9.201920382285493
 30
0.0
 11
20.86718304214082
 21
4.215173112125057
 31
0.0
  0
LINE
  5
FB
330
2
100
AcDbEntity
  8
GAIKEI
  6
Continuous
 62
     1
100
AcDbLine
 10
20.86718304214082
 20
3.968172381065073
 30
0.0
 11
20.86718304214082
 21
1.930647298602934
 31
0.0
  0
LINE
  5
FC
330
2
100
AcDbEntity
  8
GAIKEI
  6
Continuous
 62
     1
100
AcDbLine
 10
19.08718304214085
 20
30.55659339422516
 30
0.0
 11
19.08718304214085
 21
30.45316227170508
 31
0.0
  0
LINE
  5
FD
330
2
100
AcDbEntity
  8
GAIKEI
  6
Continuous
 62
     1
100
AcDbLine
 10
19.08718304214085
 20
24.99559383250505
 30
0.0
 11
19.08718304214085
 21
24.81644587322512
 31
0.0
  0
LINE
  5
FE
330
2
100
AcDbEntity
  8
GAIKEI
  6
Continuous
 62
     1
100
AcDbLine
 10
19.08718304214085
 20
17.45783761984376
 30
0.0
 11
19.08718304214082
 21
17.0578376198452
 31
0.0
  0
LINE
  5
FF
330
2
100
AcDbEntity
  8
GAIKEI
  6
Continuous
 62
     1
100
AcDbLine
 10
19.08718304214085
 20
9.699229366485155
 30
0.0
 11
19.08718304214085
 21
9.520081407205111
 31
0.0
  0
LINE
  5
100
330
2
100
AcDbEntity
  8
GAIKEI
  6
Continuous
 62
     1
100
AcDbLine
 10
19.08718304214085
 20
4.062512967985071
 30
0.0
 11
19.08718304214085
 21
3.959081845465107
 31
0.0
  0
LINE
  5
101
330
2
100
AcDbEntity
  8
GAIKEI
  6
Continuous
 62
     1
100
AcDbLine
 10
20.86718304214079
 20
17.51999658954858
 30
0.0
 11
19.08718304214085
 21
17.45783761984376
 31
0.0
  0
LINE
  5
102
330
2
100
AcDbEntity
  8
GAIKEI
  6
Continuous
 62
     1
100
AcDbLine
 10
19.08718304214082
 20
17.0578376198452
 30
0.0
 11
20.86718304214082
 21
16.99567865016425
 31
0.0
  0
ELLIPSE
  5
103
330
2
100
AcDbEntity
  8
GAIKEI
  6
Continuous
 62
     1
100
AcDbEllipse
 10
-27.74699481687321
 20
17.25777523926694
 30
0.0
 11
-10.63889486792794
 21
10.63889486792794
 31
0.0
210
0.0
220
0.0
230
1.0
 40
0.9999999999999996
 41
4.398371110066947
 42
5.551412363153914
  0
ELLIPSE
  5
104
330
2
100
AcDbEntity
  8
GAIKEI
  6
Continuous
 62
     1
100
AcDbEllipse
 10
-27.74699135914864
 20
17.25776925027651
 30
0.0
 11
-10.63889486792807
 21
10.63889486792807
 31
0.0
210
0.0
220
0.0
230
1.0
 40
0.9999999999999989
 41
2.303976007673699
 42
3.457017260760701
  0
ELLIPSE
  5
105
330
2
100
AcDbEntity
  8
GAIKEI
  6
Continuous
 62
     1
100
AcDbEllipse
 10
-27.74699827462905
 20
17.25776925029459
 30
0.0
 11
-10.63889486792808
 21
-10.63889486792808
 31
0.0
210
0.0
220
0.0
230
1.0
 40
0.9999999999999998
 41
-1.361215421514374
 42
-0.2081741684274077
  0
ELLIPSE
  5
106
330
2
100
AcDbEntity
  8
GAIKEI
  6
Continuous
 62
     1
100
AcDbEllipse
 10
-27.74699856875509
 20
17.25776988105417
 30
0.0
 11
-10.34866251764115
 21
10.34866251764116
 31
0.0
210
0.0
220
0.0
230
1.0
 40
0.9999999999999886
 41
0.7714046814793503
 42
0.799391643729054
  0
ELLIPSE
  5
107
330
2
100
AcDbEntity
  8
GAIKEI
  6
Continuous
 62
     1
100
AcDbEllipse
 10
-27.74699856875509
 20
17.25776988105417
 30
0.0
 11
-10.34866251764478
 21
-10.34866251764478
 31
0.0
210
0.0
220
0.0
230
1.0
 40
0.9999999999999989
 41
0.7714046814793445
 42
0.7993916437290656
  0
ELLIPSE
  5
108
330
2
100
AcDbEntity
  8
GAIKEI
  6
Continuous
 62
     1
100
AcDbEllipse
 10
-27.74699481688367
 20
17.25777124661272
 30
0.0
 11
-10.51253294652893
 21
-10.51253294652892
 31
0.0
210
0.0
220
0.0
230
1.0
 40
0.9999999999999994
 41
-0.1555150600815816
 42
0.6791138356809264
  0
ELLIPSE
  5
109
330
2
100
AcDbEntity
  8
GAIKEI
  6
Continuous
 62
     1
100
AcDbEllipse
 10
-27.74699481689424
 20
17.25776725395838
 30
0.0
 11
-10.51253294652878
 21
10.51253294652878
 31
0.0
210
0.0
220
0.0
230
1.0
 40
0.999999999999995
 41
5.604071471499704
 42
6.438700367262214
  0
ELLIPSE
  5
10A
330
2
100
AcDbEntity
  8
GAIKEI
  6
Continuous
 62
     1
100
AcDbEllipse
 10
-27.75089587830905
 20
17.25551896775448
 30
0.0
 11
-10.81641030730563
 21
-10.81641030730562
 31
0.0
210
0.0
220
0.0
230
1.0
 40
0.9999999999999996
 41
2.349432782440179
 42
2.362956197944508
  0
ELLIPSE
  5
10B
330
2
100
AcDbEntity
  8
GAIKEI
  6
Continuous
 62
     1
100
AcDbEllipse
 10
-15.33164532799605
 20
20.61006274586691
 30
0.0
 11
-0.9899291621060472
 21
-0.9899291621060472
 31
0.0
210
0.0
220
0.0
230
1.0
 40
0.9999999999999989
 41
4.660025856423961
 42
5.761510103971539
  0
ELLIPSE
  5
10C
330
2
100
AcDbEntity
  8
GAIKEI
  6
Continuous
 62
     1
100
AcDbEllipse
 10
-15.33164532799605
 20
13.90547575470998
 30
0.0
 11
-0.9899291621059077
 21
-0.9899291621059077
 31
0.0
210
0.0
220
0.0
230
1.0
 40
0.9999999999999914
 41
-1.049118209527477
 42
0.0523631239607128
  0
ELLIPSE
  5
10D
330
2
100
AcDbEntity
  8
GAIKEI
  6
Continuous
 62
     1
100
AcDbEllipse
 10
-27.74699827462905
 20
17.25776925029459
 30
0.0
 11
-10.51253294652893
 21
10.51253294652893
 31
0.0
210
0.0
220
0.0
230
1.0
 40
0.9999999999999992
 41
3.509676369106511
 42
4.344305264869017
  0
ELLIPSE
  5
10E
330
2
100
AcDbEntity
  8
GAIKEI
  6
Continuous
 62
     1
100
AcDbEllipse
 10
-27.74699827462905
 20
17.25776925029459
 30
0.0
 11
-10.11161693074427
 21
-10.11161693074427
 31
0.0
210
0.0
220
0.0
230
1.0
 40
0.999999999999982
 41
0.1692894679495971
 42
0.3543093076482382
  0
ELLIPSE
  5
10F
330
2
100
AcDbEntity
  8
GAIKEI
  6
Continuous
 62
     1
100
AcDbEllipse
 10
-27.74699827462905
 20
17.25776925029459
 30
0.0
 11
-8.315568766748191
 21
8.315568766748191
 31
0.0
210
0.0
220
0.0
230
1.0
 40
0.9999999999998893
 41
1.771845780317779
 42
1.893345648870799
  0
ELLIPSE
  5
110
330
2
100
AcDbEntity
  8
GAIKEI
  6
Continuous
 62
     1
100
AcDbEllipse
 10
-27.74699827462905
 20
17.25776925029459
 30
0.0
 11
-8.06822467487389
 21
8.068224674873892
 31
0.0
210
0.0
220
0.0
230
1.0
 40
0.9999999999999904
 41
1.568075326441556
 42
2.09711610274653
  0
ELLIPSE
  5
111
330
2
100
AcDbEntity
  8
GAIKEI
  6
Continuous
 62
     1
100
AcDbEllipse
 10
-27.74699827480879
 20
17.25776925001457
 30
0.0
 11
-8.103443712157503
 21
8.103443712157503
 31
0.0
210
0.0
220
0.0
230
1.0
 40
0.9999999999999904
 41
1.568872398408953
 42
2.096319030782608
  0
ELLIPSE
  5
112
330
2
100
AcDbEntity
  8
GAIKEI
  6
Continuous
 62
     1
100
AcDbEllipse
 10
-27.74699827462905
 20
17.25776925029459
 30
0.0
 11
-10.34866251763962
 21
-10.34866251763962
 31
0.0
210
0.0
220
0.0
230
1.0
 40
0.9999999999991533
 41
-0.6248587201165205
 42
-0.5968717578668088
  0
ELLIPSE
  5
113
330
2
100
AcDbEntity
  8
GAIKEI
  6
Continuous
 62
     1
100
AcDbEllipse
 10
-27.74699827462905
 20
17.25776925029459
 30
0.0
 11
-10.34866251767709
 21
10.3486625176771
 31
0.0
210
0.0
220
0.0
230
1.0
 40
0.9999999999977845
 41
1.120470531879078
 42
1.148457494126997
  0
ELLIPSE
  5
114
330
2
100
AcDbEntity
  8
GAIKEI
  6
Continuous
 62
     1
100
AcDbEllipse
 10
-27.75089587830905
 20
17.26001953283457
 30
0.0
 11
-10.34548021418192
 21
10.34548021418193
 31
0.0
210
0.0
220
0.0
230
1.0
 40
0.9999999999986833
 41
0.2478016014787989
 42
0.2757971725336718
  0
ELLIPSE
  5
115
330
2
100
AcDbEntity
  8
GAIKEI
  6
Continuous
 62
     1
100
AcDbEllipse
 10
-27.75122742240899
 20
17.25930853421459
 30
0.0
 11
-10.34548021419918
 21
-10.34548021419917
 31
0.0
210
0.0
220
0.0
230
1.0
 40
0.9999999999987814
 41
-1.148461800117433
 42
-1.120466229060887
  0
ELLIPSE
  5
116
330
2
100
AcDbEntity
  8
GAIKEI
  6
Continuous
 62
     1
100
AcDbEllipse
 10
-27.75143046600897
 20
17.25855076523453
 30
0.0
 11
-10.34548021418361
 21
-10.34548021418361
 31
0.0
210
0.0
220
0.0
230
1.0
 40
0.9999999999999895
 41
-0.97392887491755
 42
-0.9459333038627267
  0
ELLIPSE
  5
117
330
2
100
AcDbEntity
  8
GAIKEI
  6
Continuous
 62
     1
100
AcDbEllipse
 10
-27.74699827462905
 20
17.25776925029459
 30
0.0
 11
-8.068236843969581
 21
-8.068236843969581
 31
0.0
210
0.0
220
0.0
230
1.0
 40
0.9999999999999934
 41
4.186069204433053
 42
4.715109980736284
  0
ELLIPSE
  5
118
330
2
100
AcDbEntity
  8
GAIKEI
  6
Continuous
 62
     1
100
AcDbEllipse
 10
-27.7469982747092
 20
17.25776925043453
 30
0.0
 11
-8.103443712284725
 21
-8.103443712284725
 31
0.0
210
0.0
220
0.0
230
1.0
 40
0.9999999999999966
 41
4.186866276395194
 42
4.714312908767142
  0
ELLIPSE
  5
119
330
2
100
AcDbEntity
  8
GAIKEI
  6
Continuous
 62
     1
100
AcDbEllipse
 10
-27.74699827478878
 20
17.25776925029459
 30
0.0
 11
-8.103443712524979
 21
-8.103443712524979
 31
0.0
210
0.0
220
0.0
230
1.0
 40
0.9999999999999996
 41
2.092471174015994
 42
2.619917450381704
  0
ELLIPSE
  5
11A
330
2
100
AcDbEntity
  8
GAIKEI
  6
Continuous
 62
     1
100
AcDbEllipse
 10
-27.74699827462905
 20
17.25776925029459
 30
0.0
 11
-8.068224674873803
 21
8.068224674873803
 31
0.0
210
0.0
220
0.0
230
1.0
 40
1.0
 41
3.662470428834751
 42
4.191511205139731
  0
ELLIPSE
  5
11B
330
2
100
AcDbEntity
  8
GAIKEI
  6
Continuous
 62
     1
100
AcDbEllipse
 10
-27.74699827462905
 20
17.25776925029459
 30
0.0
 11
-10.34866251764567
 21
10.34866251764567
 31
0.0
210
0.0
220
0.0
230
1.0
 40
0.9999999999970022
 41
3.389398559473296
 42
3.417385521719581
  0
ELLIPSE
  5
11C
330
2
100
AcDbEntity
  8
GAIKEI
  6
Continuous
 62
     1
100
AcDbEllipse
 10
-27.74699827462905
 20
17.25776925029459
 30
0.0
 11
-10.34866251766007
 21
-10.34866251766006
 31
0.0
210
0.0
220
0.0
230
1.0
 40
0.9999999999989363
 41
1.295003234956848
 42
1.322990419325853
  0
ELLIPSE
  5
11D
330
2
100
AcDbEntity
  8
GAIKEI
  6
Continuous
 62
     1
100
AcDbEllipse
 10
-27.74699827462905
 20
17.25776925029459
 30
0.0
 11
-10.3486625176521
 21
-10.3486625176521
 31
0.0
210
0.0
220
0.0
230
1.0
 40
0.9999999999997854
 41
0.9459376066788959
 42
0.9739245689285978
  0
ELLIPSE
  5
11E
330
2
100
AcDbEntity
  8
GAIKEI
  6
Continuous
 62
     1
100
AcDbEllipse
 10
-27.74699827462905
 20
17.25776925029459
 30
0.0
 11
-10.34866251764539
 21
10.34866251764539
 31
0.0
210
0.0
220
0.0
230
1.0
 40
0.9999999999989947
 41
2.691266858672712
 42
2.719253820920688
  0
ELLIPSE
  5
11F
330
2
100
AcDbEntity
  8
GAIKEI
  6
Continuous
 62
     1
100
AcDbEllipse
 10
-27.74699827462905
 20
17.26226981537456
 30
0.0
 11
-10.34548021415752
 21
-10.34548021415752
 31
0.0
210
0.0
220
0.0
230
1.0
 40
0.9999999999999838
 41
3.912993030668331
 42
3.940988601719681
  0
ELLIPSE
  5
120
330
2
100
AcDbEntity
  8
GAIKEI
  6
Continuous
 62
     1
100
AcDbEllipse
 10
-27.74310067092904
 20
17.26001953283457
 30
0.0
 11
-10.34548021418155
 21
-10.34548021418155
 31
0.0
210
0.0
220
0.0
230
1.0
 40
0.9999999999983353
 41
2.865795479469543
 42
2.893791050524423
  0
ELLIPSE
  5
121
330
2
100
AcDbEntity
  8
GAIKEI
  6
Continuous
 62
     1
100
AcDbEllipse
 10
-27.74355064174847
 20
17.2606621577745
 30
0.0
 11
-10.34548021418252
 21
-10.34548021418252
 31
0.0
210
0.0
220
0.0
230
1.0
 40
0.9999999999984384
 41
3.040328404671035
 42
3.068323975725885
  0
ELLIPSE
  5
122
330
2
100
AcDbEntity
  8
GAIKEI
  6
Continuous
 62
     1
100
AcDbEllipse
 10
-27.74410536714924
 20
17.26121688317448
 30
0.0
 11
-10.34548021418296
 21
-10.34548021418296
 31
0.0
210
0.0
220
0.0
230
1.0
 40
0.9999999999985288
 41
3.21486132986719
 42
3.24285690092207
  0
ELLIPSE
  5
123
330
2
100
AcDbEntity
  8
GAIKEI
  6
Continuous
 62
     1
100
AcDbEllipse
 10
-27.74474799208906
 20
17.26166685399448
 30
0.0
 11
-10.34548021417797
 21
-10.34548021417796
 31
0.0
210
0.0
220
0.0
230
1.0
 40
0.9999999999938582
 41
3.389394255069738
 42
3.417389826124711
  0
ELLIPSE
  5
124
330
2
100
AcDbEntity
  8
GAIKEI
  6
Continuous
 62
     1
100
AcDbEllipse
 10
-27.74545899070882
 20
17.26199839809453
 30
0.0
 11
-10.34548021419188
 21
10.34548021419188
 31
0.0
210
0.0
220
0.0
230
1.0
 40
0.9999999999993207
 41
5.134723507062371
 42
5.16271907811891
  0
ELLIPSE
  5
125
330
2
100
AcDbEntity
  8
GAIKEI
  6
Continuous
 62
     1
100
AcDbEllipse
 10
-27.74621675968899
 20
17.2622014416745
 30
0.0
 11
-10.34548021418361
 21
10.34548021418361
 31
0.0
210
0.0
220
0.0
230
1.0
 40
0.9999999999999895
 41
5.309256432262035
 42
5.337252003316859
  0
ELLIPSE
  5
126
330
2
100
AcDbEntity
  8
GAIKEI
  6
Continuous
 62
     1
100
AcDbEllipse
 10
-27.74699827462905
 20
17.25776925029459
 30
0.0
 11
-10.34866251766795
 21
-10.34866251766795
 31
0.0
210
0.0
220
0.0
230
1.0
 40
0.9999999999980914
 41
1.46953638227903
 42
1.497523344528663
  0
ELLIPSE
  5
127
330
2
100
AcDbEntity
  8
GAIKEI
  6
Continuous
 62
     1
100
AcDbEllipse
 10
-27.74699827462905
 20
17.25776925029459
 30
0.0
 11
-10.34866251766161
 21
-10.34866251766161
 31
0.0
210
0.0
220
0.0
230
1.0
 40
0.9999999999987009
 41
1.644069307476431
 42
1.672056269724353
  0
ELLIPSE
  5
128
330
2
100
AcDbEntity
  8
GAIKEI
  6
Continuous
 62
     1
100
AcDbEllipse
 10
-27.74699827462905
 20
17.25776925029459
 30
0.0
 11
-10.39579164526298
 21
-10.39579164526298
 31
0.0
210
0.0
220
0.0
230
1.0
 40
0.9999999999998083
 41
-0.5768494085231275
 42
-0.4703481426732697
  0
ELLIPSE
  5
129
330
2
100
AcDbEntity
  8
GAIKEI
  6
Continuous
 62
     1
100
AcDbEllipse
 10
-27.74777976604287
 20
17.25783761984508
 30
0.0
 11
-10.39579164526582
 21
10.39579164526582
 31
0.0
210
0.0
220
0.0
230
1.0
 40
0.9999999999999465
 41
0.8194192976766572
 42
0.9259205635265027
  0
ELLIPSE
  5
12A
330
2
100
AcDbEntity
  8
GAIKEI
  6
Continuous
 62
     1
100
AcDbEllipse
 10
-27.74777976604287
 20
17.25770088074375
 30
0.0
 11
-10.39579164526348
 21
10.39579164526348
 31
0.0
210
0.0
220
0.0
230
1.0
 40
0.9999999999999726
 41
0.6448757632683978
 42
0.7513770291182622
  0
ELLIPSE
  5
12B
330
2
100
AcDbEntity
  8
GAIKEI
  6
Continuous
 62
     1
100
AcDbEllipse
 10
-27.74699827462905
 20
17.25776925029459
 30
0.0
 11
-10.39579164526301
 21
10.39579164526301
 31
0.0
210
0.0
220
0.0
230
1.0
 40
0.9999999999998255
 41
0.4703481426732627
 42
0.5768494085231179
  0
ELLIPSE
  5
12C
330
2
100
AcDbEntity
  8
GAIKEI
  6
Continuous
 62
     1
100
AcDbEllipse
 10
-27.73920306723358
 20
17.2577692502864
 30
0.0
 11
-8.315568766746967
 21
-8.315568766746963
 31
0.0
210
0.0
220
0.0
230
1.0
 40
0.9999999999999989
 41
2.295444555916099
 42
2.416944424469147
  0
ELLIPSE
  5
12D
330
2
100
AcDbEntity
  8
GAIKEI
  6
Continuous
 62
     1
100
AcDbEllipse
 10
-27.73920306723358
 20
17.2577692502864
 30
0.0
 11
-10.11161693074447
 21
10.11161693074447
 31
0.0
210
0.0
220
0.0
230
1.0
 40
0.9999999999999969
 41
3.83448089713767
 42
4.019500736836343
  0
ELLIPSE
  5
12E
330
2
100
AcDbEntity
  8
GAIKEI
  6
Continuous
 62
     1
100
AcDbEllipse
 10
-27.74310067092404
 20
17.26452009792251
 30
0.0
 11
-10.1116169307446
 21
-10.1116169307446
 31
0.0
210
0.0
220
0.0
230
1.0
 40
0.9999999999999729
 41
4.358079672735977
 42
4.543099512434663
  0
ELLIPSE
  5
12F
330
2
100
AcDbEntity
  8
GAIKEI
  6
Continuous
 62
     1
100
AcDbEllipse
 10
-27.74310067092404
 20
17.26452009792251
 30
0.0
 11
-8.315568766749803
 21
-8.315568766749803
 31
0.0
210
0.0
220
0.0
230
1.0
 40
0.9999999999997248
 41
4.389839658309394
 42
4.51133952686238
  0
ELLIPSE
  5
130
330
2
100
AcDbEntity
  8
GAIKEI
  6
Continuous
 62
     1
100
AcDbEllipse
 10
-27.75089587830905
 20
17.25551896775448
 30
0.0
 11
-10.3454802141817
 21
-10.34548021418169
 31
0.0
210
0.0
220
0.0
230
1.0
 40
0.9999999999983119
 41
-0.2757971725337858
 42
-0.2478016014789044
  0
ELLIPSE
  5
131
330
2
100
AcDbEntity
  8
GAIKEI
  6
Continuous
 62
     1
100
AcDbEllipse
 10
-27.74699827461768
 20
17.25776925030016
 30
0.0
 11
-10.39579164527438
 21
10.39579164527438
 31
0.0
210
0.0
220
0.0
230
1.0
 40
0.9999999999998756
 41
1.168479843471579
 42
1.274981109321102
  0
ELLIPSE
  5
132
330
2
100
AcDbEntity
  8
GAIKEI
  6
Continuous
 62
     1
100
AcDbEllipse
 10
-27.74699827462121
 20
17.25776925030016
 30
0.0
 11
-10.3957916452703
 21
-10.3957916452703
 31
0.0
210
0.0
220
0.0
230
1.0
 40
0.999999999998716
 41
-0.2277835581238983
 42
-0.1901697798367119
  0
ELLIPSE
  5
133
330
2
100
AcDbEntity
  8
GAIKEI
  6
Continuous
 62
     1
100
AcDbEllipse
 10
-27.74699827461768
 20
17.25776925028867
 30
0.0
 11
-10.39579164527251
 21
10.39579164527251
 31
0.0
210
0.0
220
0.0
230
1.0
 40
0.9999999999998717
 41
0.2958152174738478
 42
0.4023164833234076
  0
ELLIPSE
  5
134
330
2
100
AcDbEntity
  8
GAIKEI
  6
Continuous
 62
     1
100
AcDbEllipse
 10
-27.74699827462121
 20
17.2577692502889
 30
0.0
 11
-10.39579164528038
 21
-10.39579164528038
 31
0.0
210
0.0
220
0.0
230
1.0
 40
0.9999999999991203
 41
-1.380626546958603
 42
-1.343012768671475
  0
ELLIPSE
  5
135
330
2
100
AcDbEntity
  8
GAIKEI
  6
Continuous
 62
     1
100
AcDbEllipse
 10
-27.71686181049165
 20
17.24607644902858
 30
0.0
 11
-10.39579164526279
 21
-10.39579164526278
 31
0.0
210
0.0
220
0.0
230
1.0
 40
0.9999999999998177
 41
0.713768555434827
 42
0.7513823337220038
  0
ELLIPSE
  5
136
330
2
100
AcDbEntity
  8
GAIKEI
  6
Continuous
 62
     1
100
AcDbEllipse
 10
-27.71686181049358
 20
17.24607644903176
 30
0.0
 11
-10.39579164527306
 21
10.39579164527307
 31
0.0
210
0.0
220
0.0
230
1.0
 40
0.999999999999995
 41
2.390210319867056
 42
2.496711585716572
  0
ELLIPSE
  5
137
330
2
100
AcDbEntity
  8
GAIKEI
  6
Continuous
 62
     1
100
AcDbEllipse
 10
-27.71686181049279
 20
17.24607644901914
 30
0.0
 11
-10.39579164526763
 21
-10.39579164526763
 31
0.0
210
0.0
220
0.0
230
1.0
 40
0.9999999999997703
 41
0.9939469182716131
 42
1.100448184121447
  0
ELLIPSE
  5
138
330
2
100
AcDbEntity
  8
GAIKEI
  6
Continuous
 62
     1
100
AcDbEllipse
 10
-27.71641185501824
 20
17.24543384237733
 30
0.0
 11
-10.39579164526371
 21
10.39579164526371
 31
0.0
210
0.0
220
0.0
230
1.0
 40
0.9999999999998562
 41
2.739270865661545
 42
2.845772131511402
  0
ELLIPSE
  5
139
330
2
100
AcDbEntity
  8
GAIKEI
  6
Continuous
 62
     1
100
AcDbEllipse
 10
-27.71653027455386
 20
17.24536547282673
 30
0.0
 11
-10.39579164526393
 21
10.39579164526393
 31
0.0
210
0.0
220
0.0
230
1.0
 40
0.9999999999999177
 41
2.913814400069825
 42
3.020315665919679
  0
ELLIPSE
  5
13A
330
2
100
AcDbEntity
  8
GAIKEI
  6
Continuous
 62
     1
100
AcDbEllipse
 10
-27.71686181049279
 20
17.24607644901914
 30
0.0
 11
-10.39579164526496
 21
-10.39579164526496
 31
0.0
210
0.0
220
0.0
230
1.0
 40
0.9999999999999168
 41
1.51754569387016
 42
1.624046959719999
  0
ELLIPSE
  5
13B
330
2
100
AcDbEntity
  8
GAIKEI
  6
Continuous
 62
     1
100
AcDbEllipse
 10
-27.71686181050359
 20
17.24607644902607
 30
0.0
 11
-10.39579164527444
 21
-10.39579164527444
 31
0.0
210
0.0
220
0.0
230
1.0
 40
0.9999999999998653
 41
1.692078619069816
 42
1.798579884919353
  0
ELLIPSE
  5
13C
330
2
100
AcDbEntity
  8
GAIKEI
  6
Continuous
 62
     1
100
AcDbEllipse
 10
-27.71686181050166
 20
17.24607644902289
 30
0.0
 11
-10.39579164528984
 21
-10.39579164528984
 31
0.0
210
0.0
220
0.0
230
1.0
 40
0.9999999999983652
 41
1.866611544269124
 42
1.904225322556233
  0
ELLIPSE
  5
13D
330
2
100
AcDbEntity
  8
GAIKEI
  6
Continuous
 62
     1
100
AcDbEllipse
 10
-27.71686181050166
 20
17.26946205156593
 30
0.0
 11
-10.39579164527229
 21
10.39579164527229
 31
0.0
210
0.0
220
0.0
230
1.0
 40
0.9999999999998752
 41
4.378959984622883
 42
4.416573762910041
  0
ELLIPSE
  5
13E
330
2
100
AcDbEntity
  8
GAIKEI
  6
Continuous
 62
     1
100
AcDbEllipse
 10
-27.71686181050359
 20
17.26946205156298
 30
0.0
 11
-10.39579164527381
 21
10.39579164527381
 31
0.0
210
0.0
220
0.0
230
1.0
 40
0.9999999999999388
 41
4.484605422260215
 42
4.59110668810976
  0
ELLIPSE
  5
13F
330
2
100
AcDbEntity
  8
GAIKEI
  6
Continuous
 62
     1
100
AcDbEllipse
 10
-27.71686181049279
 20
17.26946205156991
 30
0.0
 11
-10.39579164526692
 21
10.39579164526692
 31
0.0
210
0.0
220
0.0
230
1.0
 40
0.9999999999997148
 41
4.659138347459597
 42
4.765639613309414
  0
ELLIPSE
  5
140
330
2
100
AcDbEntity
  8
GAIKEI
  6
Continuous
 62
     1
100
AcDbEllipse
 10
-27.71653027455386
 20
17.27017302776232
 30
0.0
 11
-10.39579164526467
 21
10.39579164526467
 31
0.0
210
0.0
220
0.0
230
1.0
 40
0.9999999999999339
 41
4.833665968054784
 42
4.940167233904642
  0
ELLIPSE
  5
141
330
2
100
AcDbEntity
  8
GAIKEI
  6
Continuous
 62
     1
100
AcDbEllipse
 10
-27.71641185501824
 20
17.27010465821149
 30
0.0
 11
-10.39579164526377
 21
-10.39579164526377
 31
0.0
210
0.0
220
0.0
230
1.0
 40
0.99999999999999
 41
3.437413175668145
 42
3.54391444151801
  0
ELLIPSE
  5
142
330
2
100
AcDbEntity
  8
GAIKEI
  6
Continuous
 62
     1
100
AcDbEllipse
 10
-27.71686181049279
 20
17.26946205156991
 30
0.0
 11
-10.39579164526455
 21
10.39579164526455
 31
0.0
210
0.0
220
0.0
230
1.0
 40
0.9999999999999616
 41
5.182737123058213
 42
5.289238388908076
  0
ELLIPSE
  5
143
330
2
100
AcDbEntity
  8
GAIKEI
  6
Continuous
 62
     1
100
AcDbEllipse
 10
-27.71686181049358
 20
17.26946205155718
 30
0.0
 11
-10.39579164527393
 21
10.39579164527393
 31
0.0
210
0.0
220
0.0
230
1.0
 40
0.9999999999999833
 41
5.357270048257899
 42
5.463771314107431
  0
ELLIPSE
  5
144
330
2
100
AcDbEntity
  8
GAIKEI
  6
Continuous
 62
     1
100
AcDbEllipse
 10
-27.71686181049165
 20
17.26946205156037
 30
0.0
 11
-10.39579164526991
 21
10.39579164526991
 31
0.0
210
0.0
220
0.0
230
1.0
 40
0.9999999999999714
 41
5.531802973457658
 42
5.569416751744816
  0
ELLIPSE
  5
145
330
2
100
AcDbEntity
  8
GAIKEI
  6
Continuous
 62
     1
100
AcDbEllipse
 10
-27.74699827462905
 20
17.25776925029459
 30
0.0
 11
-10.80232830684006
 21
-10.80232830684006
 31
0.0
210
0.0
220
0.0
230
1.0
 40
0.9999999999999992
 41
0.7114077398786263
 42
1.906586138112972
  0
ELLIPSE
  5
146
330
2
100
AcDbEntity
  8
GAIKEI
  6
Continuous
 62
     1
100
AcDbEllipse
 10
-27.74699827462905
 20
17.25776925029459
 30
0.0
 11
-10.80232830684005
 21
10.80232830684006
 31
0.0
210
0.0
220
0.0
230
1.0
 40
1.0
 41
4.37659916906478
 42
5.571777567301553
  0
ELLIPSE
  5
147
330
2
100
AcDbEntity
  8
GAIKEI
  6
Continuous
 62
     1
100
AcDbEllipse
 10
-27.74699827462905
 20
17.25776925029459
 30
0.0
 11
-10.8023283068402
 21
10.8023283068402
 31
0.0
210
0.0
220
0.0
230
1.0
 40
1.0
 41
0.1878089642789318
 42
1.382987362514673
  0
ELLIPSE
  5
148
330
2
100
AcDbEntity
  8
GAIKEI
  6
Continuous
 62
     1
100
AcDbEllipse
 10
18.0661365563111
 20
33.3021388706452
 30
0.0
 11
-0.7071067811865606
 21
-0.7071067811865604
 31
0.0
210
0.0
220
0.0
230
1.0
 40
0.9999999999999822
 41
0.837758040955574
 42
1.481259149744559
  0
ELLIPSE
  5
149
330
2
100
AcDbEntity
  8
GAIKEI
  6
Continuous
 62
     1
100
AcDbEllipse
 10
18.0661365563111
 20
1.213536369045186
 30
0.0
 11
-0.707106781186445
 21
0.707106781186445
 31
0.0
210
0.0
220
0.0
230
1.0
 40
0.9999999999999515
 41
4.801926157438205
 42
5.445427266223991
  0
ELLIPSE
  5
14A
330
2
100
AcDbEntity
  8
GAIKEI
  6
Continuous
 62
     1
100
AcDbEllipse
 10
12.25233813445129
 20
3.520969325525129
 30
0.0
 11
-0.7071067811867331
 21
0.7071067811867334
 31
0.0
210
0.0
220
0.0
230
1.0
 40
0.9999999999999287
 41
1.409255914508678
 42
1.901398332591233
  0
ELLIPSE
  5
14B
330
2
100
AcDbEntity
  8
GAIKEI
  6
Continuous
 62
     1
100
AcDbEllipse
 10
30.92990325043138
 20
16.96301735112513
 30
0.0
 11
-16.9788628903172
 21
-16.97886289031719
 31
0.0
210
0.0
220
0.0
230
1.0
 40
0.9999999999999985
 41
-0.3134498486557877
 42
-0.1615779809590723
  0
ELLIPSE
  5
14C
330
2
100
AcDbEntity
  8
GAIKEI
  6
Continuous
 62
     1
100
AcDbEllipse
 10
30.92990325043138
 20
17.55265788858514
 30
0.0
 11
-16.97886289031717
 21
16.97886289031717
 31
0.0
210
0.0
220
0.0
230
1.0
 40
0.999999999999996
 41
0.1615779809590722
 42
0.313492079314059
  0
ELLIPSE
  5
14D
330
2
100
AcDbEntity
  8
GAIKEI
  6
Continuous
 62
     1
100
AcDbEllipse
 10
12.25233813445129
 20
30.99470591416514
 30
0.0
 11
-0.7071067811866887
 21
0.7071067811866887
 31
0.0
210
0.0
220
0.0
230
1.0
 40
0.9999999999999465
 41
5.952583301383199
 42
6.444725719465855
  0
ELLIPSE
  5
14E
330
2
100
AcDbEntity
  8
GAIKEI
  6
Continuous
100
AcDbEllipse
 10
9.631864433811301
 20
28.42302247494513
 30
0.0
 11
-0.0707106781186275
 21
0.0707106781186275
 31
0.0
210
0.0
220
0.0
230
1.0
 40
0.99999999999962
 41
0.3185411342682225
 42
0.7853981633976382
  0
ELLIPSE
  5
14F
330
2
100
AcDbEntity
  8
GAIKEI
  6
Continuous
100
AcDbEllipse
 10
9.631864433811301
 20
6.092652764744912
 30
0.0
 11
-0.0707106781186762
 21
0.0707106781186762
 31
0.0
210
0.0
220
0.0
230
1.0
 40
0.9999999999997534
 41
0.7853981633975716
 42
1.262395550885454
  0
ELLIPSE
  5
150
330
2
100
AcDbEntity
  8
GAIKEI
  6
Continuous
 62
     1
100
AcDbEllipse
 10
-27.74699827462905
 20
17.25776925029459
 30
0.0
 11
-7.905453813665603
 21
7.905453813665606
 31
0.0
210
0.0
220
0.0
230
1.0
 40
0.9999999999999982
 41
5.497787143782137
 42
11.78097245096172
  0
ELLIPSE
  5
151
330
2
100
AcDbEntity
  8
GAIKEI
  6
Continuous
 62
     1
100
AcDbEllipse
 10
-27.74699827462905
 20
17.25776925029459
 30
0.0
 11
-7.537758287448601
 21
7.537758287448601
 31
0.0
210
0.0
220
0.0
230
1.0
 40
0.9999999999999976
 41
5.497787143782137
 42
11.78097245096172
  0
ELLIPSE
  5
152
330
2
100
AcDbEntity
  8
GAIKEI
  6
Continuous
 62
     1
100
AcDbEllipse
 10
-34.2466388212714
 20
6.000061943782498
 30
0.0
 11
-0.7778174593052029
 21
-0.7778174593052029
 31
0.0
210
0.0
220
0.0
230
1.0
 40
0.9999999999999998
 41
3.926990816987241
 42
10.21017612416683
  0
ELLIPSE
  5
153
330
2
100
AcDbEntity
  8
GAIKEI
  6
Continuous
 62
     1
100
AcDbEllipse
 10
-14.74699598980896
 20
17.25776925028856
 30
0.0
 11
-0.7778174593052029
 21
-0.7778174593052029
 31
0.0
210
0.0
220
0.0
230
1.0
 40
0.9999999999999998
 41
3.926990816987241
 42
10.21017612416683
  0
ELLIPSE
  5
154
330
2
100
AcDbEntity
  8
GAIKEI
  6
Continuous
 62
     1
100
AcDbEllipse
 10
-34.24310067092597
 20
28.52285034712156
 30
0.0
 11
-0.7778174593053601
 21
-0.7778174593053601
 31
0.0
210
0.0
220
0.0
230
1.0
 40
0.9999999999999669
 41
3.926990816987258
 42
10.21017612416684
  0
SPLINE
  5
155
330
2
100
AcDbEntity
  8
GAIKEI
  6
Continuous
 62
     1
100
AcDbSpline
210
0.0
220
0.0
230
1.0
 70
     8
 71
     3
 72
    15
 73
    11
 74
     0
 42
0.0000000001
 43
0.0000000001
 40
0.0
 40
0.0
 40
0.0
 40
0.0
 40
0.124828786400736
 40
0.2513164116355544
 40
0.402642095247604
 40
0.5516077072612191
 40
0.757725198541438
 40
0.9727050910989795
 40
1.270261395485123
 40
1.58059301852244
 40
1.58059301852244
 40
1.58059301852244
 40
1.58059301852244
 10
-42.47371880831292
 20
17.75776752380625
 30
0.0
 10
-42.46783945980474
 20
17.75184085137698
 30
0.0
 10
-42.45600263263987
 20
17.73990874748665
 30
0.0
 10
-42.44188328854716
 20
17.71687357767473
 30
0.0
 10
-42.42939674337321
 20
17.6913261203432
 30
0.0
 10
-42.41585949561522
 20
17.66037361930762
 30
0.0
 10
-42.4033182910581
 20
17.62444761519896
 30
0.0
 10
-42.39097096298678
 20
17.57813009539165
 30
0.0
 10
-42.38178902215667
 20
17.52384003202212
 30
0.0
 10
-42.38112403963259
 20
17.48327145132339
 30
0.0
 10
-42.3807845607638
 20
17.46256086813105
 30
0.0
  0
SPLINE
  5
156
330
2
100
AcDbEntity
  8
GAIKEI
  6
Continuous
 62
     1
100
AcDbSpline
210
0.0
220
0.0
230
1.0
 70
     8
 71
     3
 72
    15
 73
    11
 74
     0
 42
0.0000000001
 43
0.0000000001
 40
0.0
 40
0.0
 40
0.0
 40
0.0
 40
0.122708224423929
 40
0.2473672530512749
 40
0.3984378198984864
 40
0.5472594721392778
 40
0.7543838194175086
 40
0.970363209063719
 40
1.269635814487664
 40
1.581724289207456
 40
1.581724289207456
 40
1.581724289207456
 40
1.581724289207456
 10
-42.47401019827953
 20
16.75774514734633
 30
0.0
 10
-42.4681454249013
 20
16.76348967782042
 30
0.0
 10
-42.4563226405105
 20
16.77507006479209
 30
0.0
 10
-42.44230987717457
 20
16.79786049433301
 30
0.0
 10
-42.42990681792889
 20
16.82327746466126
 30
0.0
 10
-42.41625989117937
 20
16.85422604793734
 30
0.0
 10
-42.40356341576318
 20
16.89023032675982
 30
0.0
 10
-42.39108266836183
 20
16.93677080289023
 30
0.0
 10
-42.38180772064743
 20
16.9913504211213
 30
0.0
 10
-42.3811303475004
 20
17.03215098649775
 30
0.0
 10
-42.38078456109178
 20
17.05297891720784
 30
0.0
  0
SPLINE
  5
157
330
2
100
AcDbEntity
  8
GAIKEI
  6
Continuous
 62
     1
100
AcDbSpline
210
0.0
220
0.0
230
1.0
 70
     8
 71
     3
 72
    15
 73
    11
 74
     0
 42
0.0000000001
 43
0.0000000001
 40
0.0
 40
0.0
 40
0.0
 40
0.0
 40
0.122708224439523
 40
0.247367253075465
 40
0.3984378199079895
 40
0.5472594721364059
 40
0.7543838194078254
 40
0.970363209049786
 40
1.269635814474435
 40
1.581724289194994
 40
1.581724289194994
 40
1.581724289194994
 40
1.581724289194994
 10
-27.24697383502757
 20
2.530758251526208
 30
0.0
 10
-27.2527183655053
 20
2.536623024902155
 30
0.0
 10
-27.26429875248403
 20
2.548445809287841
 30
0.0
 10
-27.28708918202176
 20
2.562458572628202
 30
0.0
 10
-27.31250615234558
 20
2.574861631880821
 30
0.0
 10
-27.34345473561973
 20
2.588508558629087
 30
0.0
 10
-27.37945901444175
 20
2.601205034042209
 30
0.0
 10
-27.42599949057126
 20
2.61368578144345
 30
0.0
 10
-27.48057910880209
 20
2.622960729158307
 30
0.0
 10
-27.52137967417866
 20
2.623638102305335
 30
0.0
 10
-27.54220760488875
 20
2.623983888714064
 30
0.0
  0
SPLINE
  5
158
330
2
100
AcDbEntity
  8
GAIKEI
  6
Continuous
 62
     1
100
AcDbSpline
210
0.0
220
0.0
230
1.0
 70
     8
 71
     3
 72
    15
 73
    11
 74
     0
 42
0.0000000001
 43
0.0000000001
 40
0.0
 40
0.0
 40
0.0
 40
0.0
 40
0.1248287864012666
 40
0.2513164116374182
 40
0.4026420952441294
 40
0.5516077072480405
 40
0.7577251985176109
 40
0.9727050910658604
 40
1.27026139546569
 40
1.580593018527481
 40
1.580593018527481
 40
1.580593018527481
 40
1.580593018527481
 10
-28.24699621148716
 20
2.531049641493041
 30
0.0
 10
-28.24106953905801
 20
2.536928990001115
 30
0.0
 10
-28.22913743516756
 20
2.548765817165985
 30
0.0
 10
-28.20610226535587
 20
2.562885161258805
 30
0.0
 10
-28.18055480802513
 20
2.57537170643252
 30
0.0
 10
-28.1496023069908
 20
2.588908954188923
 30
0.0
 10
-28.11367630288419
 20
2.601450158745819
 30
0.0
 10
-28.06735878307904
 20
2.613797486822818
 30
0.0
 10
-28.01306871970769
 20
2.622979427657696
 30
0.0
 10
-27.97250013900623
 20
2.623644410176211
 30
0.0
 10
-27.95178955581218
 20
2.623983889042165
 30
0.0
  0
SPLINE
  5
159
330
2
100
AcDbEntity
  8
GAIKEI
  6
Continuous
 62
     1
100
AcDbSpline
210
0.0
220
0.0
230
1.0
 70
     8
 71
     3
 72
    11
 73
     7
 74
     0
 42
0.0000000001
 43
0.0000000001
 40
0.0
 40
0.0
 40
0.0
 40
0.0
 40
0.0506460344884859
 40
0.1085777856566819
 40
0.2022325051145151
 40
0.3027249031071431
 40
0.3027249031071431
 40
0.3027249031071431
 40
0.3027249031071431
 10
-12.37313268746891
 20
17.51093752701445
 30
0.0
 10
-12.37211532243998
 20
17.51416668021682
 30
0.0
 10
-12.36993423870513
 20
17.52108951845696
 30
0.0
 10
-12.3687286568105
 20
17.53458437305926
 30
0.0
 10
-12.36795207468333
 20
17.55134760546673
 30
0.0
 10
-12.3674023580279
 20
17.56428294923899
 30
0.0
 10
-12.36711781944882
 20
17.57097840643462
 30
0.0
  0
SPLINE
  5
15A
330
2
100
AcDbEntity
  8
GAIKEI
  6
Continuous
 62
     1
100
AcDbSpline
210
0.0
220
0.0
230
1.0
 70
     8
 71
     3
 72
    11
 73
     7
 74
     0
 42
0.0000000001
 43
0.0000000001
 40
0.0
 40
0.0
 40
0.0
 40
0.0
 40
0.1004944226460966
 40
0.1941506249562985
 40
0.2520809419420363
 40
0.302724925925848
 40
0.302724925925848
 40
0.302724925925848
 40
0.302724925925848
 10
-12.36711781944882
 20
16.94005952909435
 30
0.0
 10
-12.36740236531875
 20
16.94675512132426
 30
0.0
 10
-12.36795209491583
 20
16.95969069905754
 30
0.0
 10
-12.36872870735783
 20
16.97645406589072
 30
0.0
 10
-12.36993427898005
 20
16.98994879058477
 30
0.0
 10
-12.37211534107359
 20
16.99687139260084
 30
0.0
 10
-12.37313268746891
 20
17.0001004085143
 30
0.0
  0
SPLINE
  5
15B
330
2
100
AcDbEntity
  8
GAIKEI
  6
Continuous
 62
     1
100
AcDbSpline
210
0.0
220
0.0
230
1.0
 70
     8
 71
     3
 72
    13
 73
     9
 74
     0
 42
0.0000000001
 43
0.0000000001
 40
0.0
 40
0.0
 40
0.0
 40
0.0
 40
0.0489198982343626
 40
0.096813653324642
 40
0.1696087004267904
 40
0.2481323341543288
 40
0.3711024938886184
 40
0.501005207660707
 40
0.501005207660707
 40
0.501005207660707
 40
0.501005207660707
 10
-12.45047536688867
 20
17.05214876253433
 30
0.0
 10
-12.45123176146217
 20
17.0553267072795
 30
0.0
 10
-12.45272868448637
 20
17.06161593624233
 30
0.0
 10
-12.45353465024027
 20
17.07292652475007
 30
0.0
 10
-12.45374845041897
 20
17.08619805459784
 30
0.0
 10
-12.45432233674273
 20
17.1044780753831
 30
0.0
 10
-12.45468290839494
 20
17.12656903025299
 30
0.0
 10
-12.45458282558684
 20
17.14342751414619
 30
0.0
 10
-12.45453141228904
 20
17.15208784523429
 30
0.0
  0
SPLINE
  5
15C
330
2
100
AcDbEntity
  8
GAIKEI
  6
Continuous
 62
     1
100
AcDbSpline
210
0.0
220
0.0
230
1.0
 70
     8
 71
     3
 72
    13
 73
     9
 74
     0
 42
0.0000000001
 43
0.0000000001
 40
0.0
 40
0.0
 40
0.0
 40
0.0
 40
0.1301813732088923
 40
0.2533984006309387
 40
0.3319005325547367
 40
0.4046339391897948
 40
0.4523117381595015
 40
0.5010062589489064
 40
0.5010062589489064
 40
0.5010062589489064
 40
0.5010062589489064
 10
-12.45453141228904
 20
17.35895009027444
 30
0.0
 10
-12.45458298330743
 20
17.36762900008114
 30
0.0
 10
-12.4546833664366
 20
17.38452252186573
 30
0.0
 10
-12.45432099998607
 20
17.40664706322332
 30
0.0
 10
-12.45374459295703
 20
17.42493794002894
 30
0.0
 10
-12.45352951424388
 20
17.43818948297587
 30
0.0
 10
-12.4527234234331
 20
17.44946644575282
 30
0.0
 10
-12.45122997101271
 20
17.45572625038744
 30
0.0
 10
-12.45047536688867
 20
17.45888917297441
 30
0.0
  0
SPLINE
  5
15D
330
2
100
AcDbEntity
  8
GAIKEI
  6
Continuous
 62
     1
100
AcDbSpline
210
0.0
220
0.0
230
1.0
 70
     8
 71
     3
 72
    11
 73
     7
 74
     0
 42
0.0000000001
 43
0.0000000001
 40
0.0
 40
0.0
 40
0.0
 40
0.0
 40
0.1166258879043232
 40
0.233224776475274
 40
0.3496886725040312
 40
0.4661255708517059
 40
0.4661255708517059
 40
0.4661255708517059
 40
0.4661255708517059
 10
-12.37313268746891
 20
17.51093752701445
 30
0.0
 10
-12.37958125807188
 20
17.50659385536823
 30
0.0
 10
-12.39247690640923
 20
17.49790751765203
 30
0.0
 10
-12.41181639225397
 20
17.48488981420439
 30
0.0
 10
-12.4311482442065
 20
17.47188333388874
 30
0.0
 10
-12.44403349054391
 20
17.46322022520553
 30
0.0
 10
-12.45047536688867
 20
17.45888917297441
 30
0.0
  0
SPLINE
  5
15E
330
2
100
AcDbEntity
  8
GAIKEI
  6
Continuous
 62
     1
100
AcDbSpline
210
0.0
220
0.0
230
1.0
 70
     8
 71
     3
 72
    11
 73
     7
 74
     0
 42
0.0000000001
 43
0.0000000001
 40
0.0
 40
0.0
 40
0.0
 40
0.0
 40
0.1164367334661576
 40
0.2329005117185905
 40
0.3494995180382078
 40
0.466125570795836
 40
0.466125570795836
 40
0.466125570795836
 40
0.466125570795836
 10
-12.45047536688867
 20
17.05214876253433
 30
0.0
 10
-12.44403349965955
 20
17.04781771644593
 30
0.0
 10
-12.43114826894714
 20
17.03915461829592
 30
0.0
 10
-12.41181642611389
 20
17.02614814412072
 30
0.0
 10
-12.39247693115487
 20
17.01313043453501
 30
0.0
 10
-12.37958126718854
 20
17.00444408629812
 30
0.0
 10
-12.37313268746891
 20
17.0001004085143
 30
0.0
  0
SPLINE
  5
15F
330
2
100
AcDbEntity
  8
GAIKEI
  6
Continuous
 62
     1
100
AcDbSpline
210
0.0
220
0.0
230
1.0
 70
     8
 71
     3
 72
    15
 73
    11
 74
     0
 42
0.0000000001
 43
0.0000000001
 40
0.0
 40
0.0
 40
0.0
 40
0.0
 40
1.153274606784918
 40
2.253103975861586
 40
3.101550622645166
 40
3.900968798199698
 40
4.688797847430214
 40
5.523784838542544
 40
6.587985788220908
 40
7.703066601593108
 40
7.703066601593108
 40
7.703066601593108
 40
7.703066601593108
 10
-37.290474190689
 20
9.513382667734504
 30
0.0
 10
-37.21624485663438
 20
9.534128488593637
 30
0.0
 10
-37.07122613628781
 20
9.574658724137862
 30
0.0
 10
-36.86331862516591
 20
9.586754285599567
 30
0.0
 10
-36.68041066257865
 20
9.573441075091523
 30
0.0
 10
-36.52031670439396
 20
9.543807837673739
 30
0.0
 10
-36.36626610558301
 20
9.494126744980803
 30
0.0
 10
-36.20200504716831
 20
9.422238324148224
 30
0.0
 10
-36.02821622487068
 20
9.318739093939711
 30
0.0
 10
-35.92091871958371
 20
9.220299768918835
 30
0.0
 10
-35.86601742526887
 20
9.169930971054554
 30
0.0
  0
SPLINE
  5
160
330
2
100
AcDbEntity
  8
GAIKEI
  6
Continuous
 62
     1
100
AcDbSpline
210
0.0
220
0.0
230
1.0
 70
     8
 71
     3
 72
    15
 73
    11
 74
     0
 42
0.0000000001
 43
0.0000000001
 40
0.0
 40
0.0
 40
0.0
 40
0.0
 40
1.098597276503092
 40
2.153001765260084
 40
3.006924661911313
 40
3.819520304112845
 40
4.645931521500634
 40
5.515889482668927
 40
6.610005706216598
 40
7.751205099868215
 40
7.751205099868215
 40
7.751205099868215
 40
7.751205099868215
 10
-35.83714669666893
 20
9.211528058454632
 30
0.0
 10
-35.89101493229236
 20
9.261311982818369
 30
0.0
 10
-35.99658446980106
 20
9.358877195594004
 30
0.0
 10
-36.16531979524586
 20
9.468768861648641
 30
0.0
 10
-36.32712252356146
 20
9.551098541549208
 30
0.0
 10
-36.48175919305459
 20
9.61284683723386
 30
0.0
 10
-36.64364803016315
 20
9.656437231205586
 30
0.0
 10
-36.82758597687803
 20
9.685587234487911
 30
0.0
 10
-37.03589770126701
 20
9.692145255532864
 30
0.0
 10
-37.18291461352283
 20
9.665722461543509
 30
0.0
 10
-37.25797140184909
 20
9.6522327886546
 30
0.0
  0
SPLINE
  5
161
330
2
100
AcDbEntity
  8
GAIKEI
  6
Continuous
 62
     1
100
AcDbSpline
210
0.0
220
0.0
230
1.0
 70
     8
 71
     3
 72
    15
 73
    11
 74
     0
 42
0.0000000001
 43
0.0000000001
 40
0.0
 40
0.0
 40
0.0
 40
0.0
 40
1.101621606446646
 40
2.155503241750607
 40
2.995183387699412
 40
3.790298086235481
 40
4.599779073816174
 40
5.456015816372641
 40
6.553972547406955
 40
7.703028389744621
 40
7.703028389744621
 40
7.703028389744621
 40
7.703028389744621
 10
-30.6917621108089
 20
6.18257327239462
 30
0.0
 10
-30.62154467116625
 20
6.160507657682046
 30
0.0
 10
-30.4841527410415
 20
6.117332665682852
 30
0.0
 10
-30.30849639221458
 20
6.01971244844799
 30
0.0
 10
-30.16365034069406
 20
5.913821899695221
 30
0.0
 10
-30.04231825892589
 20
5.804466070405624
 30
0.0
 10
-29.93533639855639
 20
5.679502736910649
 30
0.0
 10
-29.83184868233662
 20
5.52679455149007
 30
0.0
 10
-29.73849216366534
 20
5.340520384645856
 30
0.0
 10
-29.70117746716267
 20
5.195064974554497
 30
0.0
 10
-29.68209583382884
 20
5.120683375294447
 30
0.0
  0
SPLINE
  5
162
330
2
100
AcDbEntity
  8
GAIKEI
  6
Continuous
 62
     1
100
AcDbSpline
210
0.0
220
0.0
230
1.0
 70
     8
 71
     3
 72
    11
 73
     7
 74
     0
 42
0.0000000001
 43
0.0000000001
 40
0.0
 40
0.0
 40
0.0
 40
0.0
 40
2.850951309937082
 40
5.692633883238158
 40
8.488016344217466
 40
11.2741469096941
 40
11.2741469096941
 40
11.2741469096941
 40
11.2741469096941
 10
-37.25797140184909
 20
9.6522327886546
 30
0.0
 10
-37.44330600288845
 20
9.610097609666809
 30
0.0
 10
-37.81337266307151
 20
9.52596423750208
 30
0.0
 10
-38.36431375972109
 20
9.39683647211018
 30
0.0
 10
-38.91047184340448
 20
9.266263305788129
 30
0.0
 10
-39.27178902160358
 20
9.177327049388395
 30
0.0
 10
-39.4521481516889
 20
9.132932631394623
 30
0.0
  0
SPLINE
  5
163
330
2
100
AcDbEntity
  8
GAIKEI
  6
Continuous
 62
     1
100
AcDbSpline
210
0.0
220
0.0
230
1.0
 70
    24
 71
     3
 72
    11
 73
     7
 74
     0
 42
0.0000000001
 43
0.0000000001
 40
0.0
 40
0.0
 40
0.0
 40
0.0
 40
0.4853756510436861
 40
0.9240656554000288
 40
1.129327426315717
 40
1.28790355054311
 40
1.28790355054311
 40
1.28790355054311
 40
1.28790355054311
 10
-39.90412152736894
 20
8.66419309411458
 30
0.0
 10
-39.93489564422862
 20
8.654192180330483
 30
0.0
 10
-39.9934838828517
 20
8.635152286321158
 30
0.0
 10
-40.06508626776008
 20
8.611883079888684
 30
0.0
 10
-40.11596868699609
 20
8.595347408369775
 30
0.0
 10
-40.13903698446734
 20
8.587850717072228
 30
0.0
 10
-40.14909113565477
 20
8.584583338202833
 30
0.0
  0
SPLINE
  5
164
330
2
100
AcDbEntity
  8
GAIKEI
  6
Continuous
 62
     1
100
AcDbSpline
210
0.0
220
0.0
230
1.0
 70
     8
 71
     3
 72
     9
 73
     5
 74
     0
 42
0.0000000001
 43
0.0000000001
 40
0.0
 40
0.0
 40
0.0
 40
0.0
 40
0.0247996565169685
 40
0.0496666906252791
 40
0.0496666906252791
 40
0.0496666906252791
 40
0.0496666906252791
 10
-39.90473736576905
 20
8.947954627314629
 30
0.0
 10
-39.90541776636303
 20
8.94642622224228
 30
0.0
 10
-39.906780416115
 20
8.943365259610459
 30
0.0
 10
-39.90925904983669
 20
8.941110589211575
 30
0.0
 10
-39.91050004794875
 20
8.939981724674566
 30
0.0
  0
SPLINE
  5
165
330
2
100
AcDbEntity
  8
GAIKEI
  6
Continuous
 62
     1
100
AcDbSpline
210
0.0
220
0.0
230
1.0
 70
     8
 71
     3
 72
    15
 73
    11
 74
     0
 42
0.0000000001
 43
0.0000000001
 40
0.0
 40
0.0
 40
0.0
 40
0.0
 40
0.1227082244250051
 40
0.2473672530523822
 40
0.3984378198983712
 40
0.5472594721392511
 40
0.7543838194175285
 40
0.970363209063773
 40
1.269635814487513
 40
1.58172428920717
 40
1.58172428920717
 40
1.58172428920717
 40
1.58172428920717
 10
-42.16344512228897
 20
14.20802228389459
 30
0.0
 10
-42.15866697524461
 20
14.21469794925247
 30
0.0
 10
-42.14903471860838
 20
14.22815540908937
 30
0.0
 10
-42.13919235719231
 20
14.25303289161331
 30
0.0
 10
-42.1313913388658
 20
14.28021748968603
 30
0.0
 10
-42.12332590468543
 20
14.3130656584018
 30
0.0
 10
-42.11707439466522
 20
14.35072767114673
 30
0.0
 10
-42.11286492672889
 20
14.3987283519109
 30
0.0
 10
-42.11320853755433
 20
14.45408936086983
 30
0.0
 10
-42.11962639905254
 20
14.49438769859239
 30
0.0
 10
-42.12290259812869
 20
14.51495925141466
 30
0.0
  0
SPLINE
  5
166
330
2
100
AcDbEntity
  8
GAIKEI
  6
Continuous
 62
     1
100
AcDbSpline
210
0.0
220
0.0
230
1.0
 70
     8
 71
     3
 72
    15
 73
    11
 74
     0
 42
0.0000000001
 43
0.0000000001
 40
0.0
 40
0.0
 40
0.0
 40
0.0
 40
0.1227082244353008
 40
0.2473672530684584
 40
0.3984378199015866
 40
0.5472594721259691
 40
0.7543838194063934
 40
0.9703632090605236
 40
1.269635814529058
 40
1.581724289305967
 40
1.581724289305967
 40
1.581724289305967
 40
1.581724289305967
 10
-41.41484389802895
 20
11.75096506953457
 30
0.0
 10
-41.41129755889823
 20
11.75836903306287
 30
0.0
 10
-41.40414850125966
 20
11.77329466765854
 30
0.0
 10
-41.39877559693127
 20
11.79950331344685
 30
0.0
 10
-41.39581364951823
 20
11.82762954900636
 30
0.0
 10
-41.39357477205931
 20
11.86137922817693
 30
0.0
 10
-41.3939581764198
 20
11.89955463364379
 30
0.0
 10
-41.39814789049137
 20
11.94755704265026
 30
0.0
 10
-41.40809961940226
 20
12.00201732610458
 30
0.0
 10
-41.42141771207661
 20
12.04058899157951
 30
0.0
 10
-41.42821635098903
 20
12.06027911029434
 30
0.0
  0
SPLINE
  5
167
330
2
100
AcDbEntity
  8
GAIKEI
  6
Continuous
 62
     1
100
AcDbSpline
210
0.0
220
0.0
230
1.0
 70
     8
 71
     3
 72
    15
 73
    11
 74
     0
 42
0.0000000001
 43
0.0000000001
 40
0.0
 40
0.0
 40
0.0
 40
0.0
 40
0.122708224449794
 40
0.2473672530940564
 40
0.3984378199059976
 40
0.5472594720987085
 40
0.7543838193489131
 40
0.9703632089824193
 40
1.26963581450462
 40
1.58172428935625
 40
1.58172428935625
 40
1.58172428935625
 40
1.58172428935625
 10
-40.75097683448894
 20
24.1882409431546
 30
0.0
 10
-40.7430255265175
 20
24.19028346579012
 30
0.0
 10
-40.7269965014035
 20
24.19440098290022
 30
0.0
 10
-40.70346587760423
 20
24.20713169217322
 30
0.0
 10
-40.68001602804963
 20
24.22294190453545
 30
0.0
 10
-40.6527231511734
 20
24.24292070049091
 30
0.0
 10
-40.62372554152284
 20
24.26775308288984
 30
0.0
 10
-40.58964665913686
 20
24.30181794381383
 30
0.0
 10
-40.55432450966032
 20
24.34444780587615
 30
0.0
 10
-40.53333760461874
 20
24.37944344542564
 30
0.0
 10
-40.52262417944894
 20
24.39730806933449
 30
0.0
  0
SPLINE
  5
168
330
2
100
AcDbEntity
  8
GAIKEI
  6
Continuous
 62
     1
100
AcDbSpline
210
0.0
220
0.0
230
1.0
 70
     8
 71
     3
 72
    15
 73
    11
 74
     0
 42
0.0000000001
 43
0.0000000001
 40
0.0
 40
0.0
 40
0.0
 40
0.0
 40
0.1227082244224632
 40
0.247367253036297
 40
0.3984378198139855
 40
0.5472594719783235
 40
0.7543838192135302
 40
0.9703632088299023
 40
1.269635814322868
 40
1.581724289141422
 40
1.581724289141422
 40
1.581724289141422
 40
1.581724289141422
 10
-41.75688096020917
 20
21.82483432611457
 30
0.0
 10
-41.7494051308098
 20
21.82822654838503
 30
0.0
 10
-41.73433462195544
 20
21.83506492216702
 30
0.0
 10
-41.71337214567074
 20
21.85168827329085
 30
0.0
 10
-41.69302396658326
 20
21.87133031663109
 30
0.0
 10
-41.66961501134915
 20
21.89574494811529
 30
0.0
 10
-41.64537003850489
 20
21.92523545290101
 30
0.0
 10
-41.6177241919396
 20
21.96470052786253
 30
0.0
 10
-41.59034126314054
 20
22.01281637341129
 30
0.0
 10
-41.57575012537313
 20
22.0509246883704
 30
0.0
 10
-41.56830162058883
 20
22.0703782752546
 30
0.0
  0
SPLINE
  5
169
330
2
100
AcDbEntity
  8
GAIKEI
  6
Continuous
 62
     1
100
AcDbSpline
210
0.0
220
0.0
230
1.0
 70
     8
 71
     3
 72
    15
 73
    11
 74
     0
 42
0.0000000001
 43
0.0000000001
 40
0.0
 40
0.0
 40
0.0
 40
0.0
 40
0.1227082244346635
 40
0.247367253067301
 40
0.3984378198955562
 40
0.5472594721111602
 40
0.7543838193704149
 40
0.9703632090058009
 40
1.269635814464668
 40
1.581724289232842
 40
1.581724289232842
 40
1.581724289232842
 40
1.581724289232842
 10
-42.33710188988903
 20
19.32265974779466
 30
0.0
 10
-42.33032868834493
 20
19.32729859873029
 30
0.0
 10
-42.31667460551432
 20
19.33665004863212
 30
0.0
 10
-42.29891721098124
 20
19.35666094952125
 30
0.0
 10
-42.28228897150143
 20
19.37953801032381
 30
0.0
 10
-42.26347520715819
 20
19.40764665112101
 30
0.0
 10
-42.24471954233729
 20
19.44089922422961
 30
0.0
 10
-42.22434673665702
 20
19.48456538690561
 30
0.0
 10
-42.20573504497963
 20
19.53670524032714
 30
0.0
 10
-42.19798301882099
 20
19.57676832882919
 30
0.0
 10
-42.19402575346919
 20
19.5972197912946
 30
0.0
  0
SPLINE
  5
16A
330
2
100
AcDbEntity
  8
GAIKEI
  6
Continuous
 62
     1
100
AcDbSpline
210
0.0
220
0.0
230
1.0
 70
     8
 71
     3
 72
    11
 73
     7
 74
     0
 42
0.0000000001
 43
0.0000000001
 40
0.0
 40
0.0
 40
0.0
 40
0.0
 40
0.379956360572033
 40
0.7110432648686711
 40
0.7978183496189509
 40
0.8357305117176954
 40
0.8357305117176954
 40
0.8357305117176954
 40
0.8357305117176954
 10
-28.86866268840913
 20
2.564973952814398
 30
0.0
 10
-28.86307610338645
 20
2.54026712266409
 30
0.0
 10
-28.85262147210199
 20
2.494031220340502
 30
0.0
 10
-28.84144591568418
 20
2.442029473816091
 30
0.0
 10
-28.83523419724998
 20
2.41228627097189
 30
0.0
 10
-28.8335283108205
 20
2.404150710633984
 30
0.0
 10
-28.83300962230601
 20
2.401677027959181
 30
0.0
  0
SPLINE
  5
16B
330
2
100
AcDbEntity
  8
GAIKEI
  6
Continuous
 62
     1
100
AcDbSpline
210
0.0
220
0.0
230
1.0
 70
     8
 71
     3
 72
    15
 73
    11
 74
     0
 42
0.0000000001
 43
0.0000000001
 40
0.0
 40
0.0
 40
0.0
 40
0.0
 40
1.10162160628967
 40
2.155503241454087
 40
2.995183387389264
 40
3.790298085923601
 40
4.599779073574851
 40
5.456015816197234
 40
6.553972547328628
 40
7.70302838977296
 40
7.70302838977296
 40
7.70302838977296
 40
7.70302838977296
 10
-35.86601742528888
 20
25.34560752955463
 30
0.0
 10
-35.92023552798719
 20
25.2958302503913
 30
0.0
 10
-36.02632213290144
 20
25.19843284462627
 30
0.0
 10
-36.19869189534961
 20
25.09512009283776
 30
0.0
 10
-36.36281882634444
 20
25.02262500697282
 30
0.0
 10
-36.51818979344694
 20
24.97222625650682
 30
0.0
 10
-36.67990214498627
 20
24.94205891441675
 30
0.0
 10
-36.86389517104999
 20
24.92879001587721
 30
0.0
 10
-37.07189159096197
 20
24.94107798250332
 30
0.0
 10
-37.21651701948236
 20
24.9814902124524
 30
0.0
 10
-37.290474190689
 20
25.00215583287456
 30
0.0
  0
SPLINE
  5
16C
330
2
100
AcDbEntity
  8
GAIKEI
  6
Continuous
 62
     1
100
AcDbSpline
210
0.0
220
0.0
230
1.0
 70
     8
 71
     3
 72
    15
 73
    11
 74
     0
 42
0.0000000001
 43
0.0000000001
 40
0.0
 40
0.0
 40
0.0
 40
0.0
 40
1.098595418845948
 40
2.152995441445282
 40
3.006917153625367
 40
3.819512184065913
 40
4.64592295575538
 40
5.515880751656972
 40
6.609997221174384
 40
7.751196603339189
 40
7.751196603339189
 40
7.751196603339189
 40
7.751196603339189
 10
-30.67017869892902
 20
28.28718411711463
 30
0.0
 10
-30.60012835059524
 20
28.30893667752673
 30
0.0
 10
-30.46284570946398
 20
28.35156671457549
 30
0.0
 10
-30.28330776836333
 20
28.44274806506519
 30
0.0
 10
-30.13110881562488
 20
28.54171063447143
 30
0.0
 10
-30.00031497195062
 20
28.64475555312674
 30
0.0
 10
-29.88161998218379
 20
28.76315992301954
 30
0.0
 10
-29.76440639501289
 20
28.9078798585632
 30
0.0
 10
-29.65457116270091
 20
29.08500412006129
 30
0.0
 10
-29.60394549791931
 20
29.22553590617429
 30
0.0
 10
-29.57809949618911
 20
29.2972818240346
 30
0.0
  0
SPLINE
  5
16D
330
2
100
AcDbEntity
  8
GAIKEI
  6
Continuous
 62
     1
100
AcDbSpline
210
0.0
220
0.0
230
1.0
 70
     8
 71
     3
 72
    15
 73
    11
 74
     0
 42
0.0000000001
 43
0.0000000001
 40
0.0
 40
0.0
 40
0.0
 40
0.0
 40
1.22683750716761
 40
2.32893660794501
 40
3.011522119126354
 40
3.621626839462262
 40
4.308651220006574
 40
5.101696238942225
 40
6.367422989577299
 40
7.703771882245435
 40
7.703771882245435
 40
7.703771882245435
 40
7.703771882245435
 10
-30.69176211074899
 20
28.33296522821456
 30
0.0
 10
-30.61353323286585
 20
28.35757175000913
 30
0.0
 10
-30.46502937931041
 20
28.40428293145464
 30
0.0
 10
-30.29027140560482
 20
28.50646032175325
 30
0.0
 10
-30.16420163737803
 20
28.60441018963275
 30
0.0
 10
-30.06381186304543
 20
28.69035289573333
 30
0.0
 10
-29.96968502528773
 20
28.79360425049071
 30
0.0
 10
-29.86014823925416
 20
28.9403500880162
 30
0.0
 10
-29.74878912958195
 20
29.13996205994181
 30
0.0
 10
-29.70473133651126
 20
29.30836845136809
 30
0.0
 10
-29.68210456040856
 20
29.39485698035458
 30
0.0
  0
SPLINE
  5
16E
330
2
100
AcDbEntity
  8
GAIKEI
  6
Continuous
 62
     1
100
AcDbSpline
210
0.0
220
0.0
230
1.0
 70
     8
 71
     3
 72
    11
 73
     7
 74
     0
 42
0.0000000001
 43
0.0000000001
 40
0.0
 40
0.0
 40
0.0
 40
0.0
 40
2.850951309881348
 40
5.6926338831313
 40
8.488016344085485
 40
11.27414690954344
 40
11.27414690954344
 40
11.27414690954344
 40
11.27414690954344
 10
-29.57809949618911
 20
29.2972818240346
 30
0.0
 10
-29.52192233107337
 20
29.47885388622717
 30
0.0
 10
-29.40975063859742
 20
29.8414077011189
 30
0.0
 10
-29.24610801543304
 20
30.38310056949217
 30
0.0
 10
-29.08610865267247
 20
30.92137392759673
 30
0.0
 10
-28.98247112093952
 20
31.27875191093961
 30
0.0
 10
-28.93073824966905
 20
31.4571447083946
 30
0.0
  0
SPLINE
  5
16F
330
2
100
AcDbEntity
  8
GAIKEI
  6
Continuous
 62
     1
100
AcDbSpline
210
0.0
220
0.0
230
1.0
 70
     8
 71
     3
 72
    13
 73
     9
 74
     0
 42
0.0000000001
 43
0.0000000001
 40
0.0
 40
0.0
 40
0.0
 40
0.0
 40
0.1814287061136211
 40
0.3571894319683193
 40
0.6378336195680943
 40
0.9447040738201257
 40
1.451766549874201
 40
1.990723562355113
 40
1.990723562355113
 40
1.990723562355113
 40
1.990723562355113
 10
-29.11074719812905
 20
32.08288202923461
 30
0.0
 10
-29.11331834060979
 20
32.07106318500769
 30
0.0
 10
-29.11838030099011
 20
32.04779472685493
 30
0.0
 10
-29.12714486636082
 20
32.00618538514925
 30
0.0
 10
-29.13758855944582
 20
31.95638364485467
 30
0.0
 10
-29.15282003680818
 20
31.88501907346222
 30
0.0
 10
-29.17164546364643
 20
31.79681297480033
 30
0.0
 10
-29.186085756882
 20
31.72858981326658
 30
0.0
 10
-29.19352605544896
 20
31.69343812467457
 30
0.0
  0
SPLINE
  5
170
330
2
100
AcDbEntity
  8
GAIKEI
  6
Continuous
 62
     1
100
AcDbSpline
210
0.0
220
0.0
230
1.0
 70
     8
 71
     3
 72
    11
 73
     7
 74
     0
 42
0.0000000001
 43
0.0000000001
 40
0.0
 40
0.0
 40
0.0
 40
0.0
 40
0.0963685014585639
 40
0.1926073466613365
 40
0.2882055288986878
 40
0.3836778987826567
 40
0.3836778987826567
 40
0.3836778987826567
 40
0.3836778987826567
 10
-28.93073824966905
 20
31.4571447083946
 30
0.0
 10
-28.92898147998619
 20
31.46332451204467
 30
0.0
 10
-28.92547030421633
 20
31.47567580490397
 30
0.0
 10
-28.92050492164447
 20
31.49423744284127
 30
0.0
 10
-28.91576775062004
 20
31.51279728884549
 30
0.0
 10
-28.91285118331814
 20
31.52519720070768
 30
0.0
 10
-28.91139385988891
 20
31.53139307421452
 30
0.0
  0
SPLINE
  5
171
330
2
100
AcDbEntity
  8
GAIKEI
  6
Continuous
 62
     1
100
AcDbSpline
210
0.0
220
0.0
230
1.0
 70
     8
 71
     3
 72
    23
 73
    19
 74
     0
 42
0.0000000001
 43
0.0000000001
 40
0.0
 40
0.0
 40
0.0
 40
0.0
 40
0.3503959919639598
 40
0.6829084161911241
 40
0.9043221781475352
 40
1.113837309433966
 40
1.254234396640189
 40
1.400284841287927
 40
1.512966771280362
 40
1.625257673199816
 40
1.708483898541573
 40
1.791641721118813
 40
1.852107117298369
 40
1.911599184190506
 40
1.957600290554217
 40
2.003753020411366
 40
2.046844920601649
 40
2.091104989852018
 40
2.091104989852018
 40
2.091104989852018
 40
2.091104989852018
 10
-28.91139385988891
 20
31.53139307421452
 30
0.0
 10
-28.90610956870319
 20
31.55414766500758
 30
0.0
 10
-28.8958106868464
 20
31.59849549408068
 30
0.0
 10
-28.88331179120826
 20
31.65747842839392
 30
0.0
 10
-28.87351478109633
 20
31.70742335409034
 30
0.0
 10
-28.86666851684174
 20
31.74489385173172
 30
0.0
 10
-28.86140022695713
 20
31.77753763266912
 30
0.0
 10
-28.85773497282503
 20
31.80389534505662
 30
0.0
 10
-28.8548768883536
 20
31.82846614690618
 30
0.0
 10
-28.85300995526995
 20
31.84893128693977
 30
0.0
 10
-28.85186184784823
 20
31.86747517425715
 30
0.0
 10
-28.85127698342262
 20
31.88259088220366
 30
0.0
 10
-28.85144165741258
 20
31.89613856098902
 30
0.0
 10
-28.85239951435017
 20
31.90717458379868
 30
0.0
 10
-28.85414403771188
 20
31.91714720506912
 30
0.0
 10
-28.8565813511932
 20
31.92584018378375
 30
0.0
 10
-28.8599431407132
 20
31.93412678312029
 30
0.0
 10
-28.86309036965201
 20
31.93903977802666
 30
0.0
 10
-28.86468502826892
 20
31.94152912653454
 30
0.0
  0
SPLINE
  5
172
330
2
100
AcDbEntity
  8
GAIKEI
  6
Continuous
 62
     1
100
AcDbSpline
210
0.0
220
0.0
230
1.0
 70
     8
 71
     3
 72
     9
 73
     5
 74
     0
 42
0.0000000001
 43
0.0000000001
 40
0.0
 40
0.0
 40
0.0
 40
0.0
 40
0.0247996565014673
 40
0.0496666905981499
 40
0.0496666905981499
 40
0.0496666905981499
 40
0.0496666905981499
 10
-28.86463929328897
 20
31.94158746731455
 30
0.0
 10
-28.86562273061429
 20
31.94294091404766
 30
0.0
 10
-28.86759227714254
 20
31.94565148466097
 30
0.0
 10
-28.86830556210725
 20
31.94892537963324
 30
0.0
 10
-28.86866268840913
 20
31.95056454779456
 30
0.0
  0
SPLINE
  5
173
330
2
100
AcDbEntity
  8
GAIKEI
  6
Continuous
 62
     1
100
AcDbSpline
210
0.0
220
0.0
230
1.0
 70
    24
 71
     3
 72
    11
 73
     7
 74
     0
 42
0.0000000001
 43
0.0000000001
 40
0.0
 40
0.0
 40
0.0
 40
0.0
 40
0.4853756510367777
 40
0.9240656553706118
 40
1.129327426193822
 40
1.287903550315316
 40
1.287903550315316
 40
1.287903550315316
 40
1.287903550315316
 10
-29.11069190886906
 20
32.08293490223457
 30
0.0
 10
-29.10396589583888
 20
32.114586526106
 30
0.0
 10
-29.09116080842773
 20
32.17484537611984
 30
0.0
 10
-29.07551133986874
 20
32.24848946362977
 30
0.0
 10
-29.0643904418539
 20
32.30082276703843
 30
0.0
 10
-29.05934861822903
 20
32.32454884430638
 30
0.0
 10
-29.05715117574141
 20
32.33488968407596
 30
0.0
  0
SPLINE
  5
174
330
2
100
AcDbEntity
  8
GAIKEI
  6
Continuous
 62
     1
100
AcDbSpline
210
0.0
220
0.0
230
1.0
 70
     8
 71
     3
 72
    23
 73
    19
 74
     0
 42
0.0000000001
 43
0.0000000001
 40
0.0
 40
0.0
 40
0.0
 40
0.0
 40
0.0441943797426291
 40
0.0872238566617586
 40
0.1333284600892554
 40
0.1792834030987709
 40
0.238737908690656
 40
0.2991651195040216
 40
0.3822834671107966
 40
0.465468514749513
 40
0.5777154330199808
 40
0.6903503739428667
 40
0.8363731379282059
 40
0.9767418390093027
 40
1.186307251196629
 40
1.40778833234723
 40
1.740496601022568
 40
2.091105236502207
 40
2.091105236502207
 40
2.091105236502207
 40
2.091105236502207
 10
-39.90466397370892
 20
25.56759431053456
 30
0.0
 10
-39.90330766483544
 20
25.56497243955425
 30
0.0
 10
-39.90063079751758
 20
25.55979780649205
 30
0.0
 10
-39.89514475271608
 20
25.55275083601964
 30
0.0
 10
-39.88884487383882
 20
25.54629860569389
 30
0.0
 10
-39.88108984182122
 20
25.53980416231434
 30
0.0
 10
-39.87202017716049
 20
25.53345806635446
 30
0.0
 10
-39.86037814314079
 20
25.52654270646951
 30
0.0
 10
-39.84700334938543
 20
25.51949272185209
 30
0.0
 10
-39.83037812266275
 20
25.51121701749173
 30
0.0
 10
-39.81172996912631
 20
25.50260355545459
 30
0.0
 10
-39.78903019254767
 20
25.49279429383478
 30
0.0
 10
-39.76437834622493
 20
25.48279008296868
 30
0.0
 10
-39.73347493362667
 20
25.47102891147392
 30
0.0
 10
-39.69759631175975
 20
25.45821924495908
 30
0.0
 10
-39.64942495382889
 20
25.44172303567996
 30
0.0
 10
-39.59206492377507
 20
25.42304515500837
 30
0.0
 10
-39.54848308048531
 20
25.40978240933021
 30
0.0
 10
-39.52612131756905
 20
25.40297731913461
 30
0.0
  0
SPLINE
  5
175
330
2
100
AcDbEntity
  8
GAIKEI
  6
Continuous
 62
     1
100
AcDbSpline
210
0.0
220
0.0
230
1.0
 70
     8
 71
     3
 72
     9
 73
     5
 74
     0
 42
0.0000000001
 43
0.0000000001
 40
0.0
 40
0.0
 40
0.0
 40
0.0
 40
0.0247966218030925
 40
0.0496606472658052
 40
0.0496606472658052
 40
0.0496606472658052
 40
0.0496606472658052
 10
-39.90473736576905
 20
25.56758387329455
 30
0.0
 10
-39.90541953709203
 20
25.56911099809463
 30
0.0
 10
-39.9067857340566
 20
25.57216939881664
 30
0.0
 10
-39.90926082351723
 20
25.57442662898029
 30
0.0
 10
-39.91050004794875
 20
25.57555677591461
 30
0.0
  0
SPLINE
  5
176
330
2
100
AcDbEntity
  8
GAIKEI
  6
Continuous
 62
     1
100
AcDbSpline
210
0.0
220
0.0
230
1.0
 70
     8
 71
     3
 72
    15
 73
    11
 74
     0
 42
0.0000000001
 43
0.0000000001
 40
0.0
 40
0.0
 40
0.0
 40
0.0
 40
0.1248284686291698
 40
0.2513158232246414
 40
0.4026414638243391
 40
0.5516070396453442
 40
0.7577245576842805
 40
0.9727044686829962
 40
1.270260783659506
 40
1.580592406189994
 40
1.580592406189994
 40
1.580592406189994
 40
1.580592406189994
 10
-40.25071338308896
 20
25.05413988019461
 30
0.0
 10
-40.24858501136134
 20
25.04606758882642
 30
0.0
 10
-40.24429998328469
 20
25.02981573079467
 30
0.0
 10
-40.24358986423385
 20
25.00280705012654
 30
0.0
 10
-40.24554996736583
 20
24.97443905888099
 30
0.0
 10
-40.24930261753661
 20
24.94086478630857
 30
0.0
 10
-40.25640461099192
 20
24.90348134998737
 30
0.0
 10
-40.26887027096063
 20
24.85719553307195
 30
0.0
 10
-40.28806350906473
 20
24.80558798670313
 30
0.0
 10
-40.30777190896947
 20
24.77012207388793
 30
0.0
 10
-40.31783320372892
 20
24.75201644357458
 30
0.0
  0
SPLINE
  5
177
330
2
100
AcDbEntity
  8
GAIKEI
  6
Continuous
 62
     1
100
AcDbSpline
210
0.0
220
0.0
230
1.0
 70
     8
 71
     3
 72
    15
 73
    11
 74
     0
 42
0.0000000001
 43
0.0000000001
 40
0.0
 40
0.0
 40
0.0
 40
0.0
 40
0.1248287863754173
 40
0.251316411592714
 40
0.4026420952017359
 40
0.5516077072022496
 40
0.7577251984743406
 40
0.972705091030853
 40
1.270261395483722
 40
1.580593018605741
 40
1.580593018605741
 40
1.580593018605741
 40
1.580593018605741
 10
-41.41457934668847
 20
22.76444831263461
 30
0.0
 10
-41.41108160763076
 20
22.75686820667079
 30
0.0
 10
-41.4040396483665
 20
22.74160726337709
 30
0.0
 10
-41.39865029700252
 20
22.71513218419579
 30
0.0
 10
-41.3956545276726
 20
22.68685477709312
 30
0.0
 10
-41.39352005467844
 20
22.65313892885922
 30
0.0
 10
-41.39402259436008
 20
22.61509018332504
 30
0.0
 10
-41.39826142604817
 20
22.56734291682801
 30
0.0
 10
-41.40820151927016
 20
22.51318653617023
 30
0.0
 10
-41.42145191189797
 20
22.47483710282756
 30
0.0
 10
-41.42821634274901
 20
22.45525941201458
 30
0.0
  0
SPLINE
  5
178
330
2
100
AcDbEntity
  8
GAIKEI
  6
Continuous
 62
     1
100
AcDbSpline
210
0.0
220
0.0
230
1.0
 70
     8
 71
     3
 72
    15
 73
    11
 74
     0
 42
0.0000000001
 43
0.0000000001
 40
0.0
 40
0.0
 40
0.0
 40
0.0
 40
0.1248287863276712
 40
0.2513164114995677
 40
0.4026420950983693
 40
0.551607707104933
 40
0.7577251984102862
 40
0.972705090987098
 40
1.270261395388723
 40
1.580593018442531
 40
1.580593018442531
 40
1.580593018442531
 40
1.580593018442531
 10
-42.16316286348899
 20
20.30743893795466
 30
0.0
 10
-42.15840199136311
 20
20.30058136684795
 30
0.0
 10
-42.14881698029739
 20
20.28677509497095
 30
0.0
 10
-42.13891215602529
 20
20.26163808278795
 30
0.0
 10
-42.1310515789371
 20
20.23431048292969
 30
0.0
 10
-42.12309483779392
 20
20.20147750152944
 30
0.0
 10
-42.11698264746269
 20
20.16391953682842
 30
0.0
 10
-42.11286585594893
 20
20.11616159320022
 30
0.0
 10
-42.11325077999231
 20
20.06110189058575
 30
0.0
 10
-42.1196405601595
 20
20.02103416477973
 30
0.0
 10
-42.12290259376914
 20
20.00057927199464
 30
0.0
  0
SPLINE
  5
179
330
2
100
AcDbEntity
  8
GAIKEI
  6
Continuous
 62
     1
100
AcDbSpline
210
0.0
220
0.0
230
1.0
 70
     8
 71
     3
 72
    15
 73
    11
 74
     0
 42
0.0000000001
 43
0.0000000001
 40
0.0
 40
0.0
 40
0.0
 40
0.0
 40
0.1248287864007143
 40
0.2513164116355191
 40
0.4026420952472855
 40
0.5516077072606305
 40
0.7577251985409909
 40
0.9727050910988443
 40
1.270261395485564
 40
1.580593018523202
 40
1.580593018523202
 40
1.580593018523202
 40
1.580593018523202
 10
-42.33681022248902
 20
15.1929026727546
 30
0.0
 10
-42.32999103862858
 20
15.18808697795111
 30
0.0
 10
-42.31626205136922
 20
15.1783915929966
 30
0.0
 10
-42.29835719657899
 20
15.1581581775456
 30
0.0
 10
-42.28162408067373
 20
15.1351671093106
 30
0.0
 10
-42.26291764872826
 20
15.10703556471935
 30
0.0
 10
-42.24432848810397
 20
15.07383311465548
 30
0.0
 10
-42.2241257907815
 20
15.03036335306763
 30
0.0
 10
-42.20565597369466
 20
14.97849250504237
 30
0.0
 10
-42.19795643364057
 20
14.93865572524498
 30
0.0
 10
-42.1940257571889
 20
14.91831873223464
 30
0.0
  0
SPLINE
  5
17A
330
2
100
AcDbEntity
  8
GAIKEI
  6
Continuous
 62
     1
100
AcDbSpline
210
0.0
220
0.0
230
1.0
 70
     8
 71
     3
 72
    15
 73
    11
 74
     0
 42
0.0000000001
 43
0.0000000001
 40
0.0
 40
0.0
 40
0.0
 40
0.0
 40
0.1248287863512674
 40
0.2513164115437205
 40
0.4026420951453624
 40
0.5516077071478276
 40
0.7577251984265257
 40
0.9727050909819727
 40
1.270261395380772
 40
1.580593018436023
 40
1.580593018436023
 40
1.580593018436023
 40
1.580593018436023
 10
-41.75659787754887
 20
12.69077837853456
 30
0.0
 10
-41.74904605578819
 20
12.68721998381147
 30
0.0
 10
-41.73384205676689
 20
12.68005590716837
 30
0.0
 10
-41.7126957212414
 20
12.66323902816532
 30
0.0
 10
-41.6922244618745
 20
12.6435029209972
 30
0.0
 10
-41.66891723120807
 20
12.6190470956019
 30
0.0
 10
-41.64484493674922
 20
12.58957703923329
 30
0.0
 10
-41.6174007189054
 20
12.55027584257698
 30
0.0
 10
-41.59020422160324
 20
12.50240027936547
 30
0.0
 10
-41.57570407064838
 20
12.46450572086269
 30
0.0
 10
-41.56830162822894
 20
12.44516024727454
 30
0.0
  0
SPLINE
  5
17B
330
2
100
AcDbEntity
  8
GAIKEI
  6
Continuous
 62
     1
100
AcDbSpline
210
0.0
220
0.0
230
1.0
 70
     8
 71
     3
 72
    13
 73
     9
 74
     0
 42
0.0000000001
 43
0.0000000001
 40
0.0
 40
0.0
 40
0.0
 40
0.0
 40
0.181428706195761
 40
0.3571894321398203
 40
0.6378336197928534
 40
0.9447040740804586
 40
1.451766550046957
 40
1.990723562415858
 40
1.990723562415858
 40
1.990723562415858
 40
1.990723562415858
 10
-39.90404809338873
 20
8.664171648674596
 30
0.0
 10
-39.89252710281017
 20
8.667854396118514
 30
0.0
 10
-39.8698450467632
 20
8.675104838982633
 30
0.0
 10
-39.82942801709999
 20
8.688319173539184
 30
0.0
 10
-39.78107659827299
 20
8.704175540091682
 30
0.0
 10
-39.71165732783573
 20
8.726666979455217
 30
0.0
 10
-39.62585589222408
 20
8.754466730925287
 30
0.0
 10
-39.5595527546094
 20
8.776072650923651
 30
0.0
 10
-39.52539035002906
 20
8.78720500765462
 30
0.0
  0
SPLINE
  5
17C
330
2
100
AcDbEntity
  8
GAIKEI
  6
Continuous
 62
     1
100
AcDbSpline
210
0.0
220
0.0
230
1.0
 70
     8
 71
     3
 72
    11
 73
     7
 74
     0
 42
0.0000000001
 43
0.0000000001
 40
0.0
 40
0.0
 40
0.0
 40
0.0
 40
0.0963685014480481
 40
0.1926073466352864
 40
0.2882055288409654
 40
0.3836778986904834
 40
0.3836778986904834
 40
0.3836778986904834
 40
0.3836778986904834
 10
-39.4521481516889
 20
9.132932631394623
 30
0.0
 10
-39.45837840348076
 20
9.131364136742604
 30
0.0
 10
-39.47083052474921
 20
9.128229257725024
 30
0.0
 10
-39.48938806602132
 20
9.123248586206045
 30
0.0
 10
-39.5078299496588
 20
9.118071173655948
 30
0.0
 10
-39.52002687198183
 20
9.114397039097866
 30
0.0
 10
-39.52612131754927
 20
9.112561181454566
 30
0.0
  0
SPLINE
  5
17D
330
2
100
AcDbEntity
  8
GAIKEI
  6
Continuous
 62
     1
100
AcDbSpline
210
0.0
220
0.0
230
1.0
 70
     8
 71
     3
 72
    23
 73
    19
 74
     0
 42
0.0000000001
 43
0.0000000001
 40
0.0
 40
0.0
 40
0.0
 40
0.0
 40
0.3503959918214283
 40
0.6829084159178204
 40
0.9043221778404847
 40
1.113837309106572
 40
1.254234396352448
 40
1.400284841041285
 40
1.512966771078924
 40
1.625257673040069
 40
1.708483898408581
 40
1.791641721009279
 40
1.852107117205586
 40
1.911599184115663
 40
1.957600290502073
 40
2.003753020383362
 40
2.046844920611265
 40
2.091104989900378
 40
2.091104989900378
 40
2.091104989900378
 40
2.091104989900378
 10
-39.52612131754927
 20
9.112561181454566
 30
0.0
 10
-39.54846951681316
 20
9.105760216471253
 30
0.0
 10
-39.59202530430571
 20
9.092505395263287
 30
0.0
 10
-39.64935547160644
 20
9.07383828924253
 30
0.0
 10
-39.69750755109021
 20
9.057350286025439
 30
0.0
 10
-39.73338108606663
 20
9.044544075971202
 30
0.0
 10
-39.76428557458371
 20
9.03278465838548
 30
0.0
 10
-39.7889446501805
 20
9.022780005402637
 30
0.0
 10
-39.81165263102457
 20
9.012969778249612
 30
0.0
 10
-39.83030942873075
 20
9.004354019699121
 30
0.0
 10
-39.84694295994155
 20
8.996076366216357
 30
0.0
 10
-39.86032597922918
 20
8.989025019678365
 30
0.0
 10
-39.87197627622231
 20
8.982108568415469
 30
0.0
 10
-39.88105482386436
 20
8.97576102856442
 30
0.0
 10
-39.88881910555006
 20
8.969263916378736
 30
0.0
 10
-39.89512878921733
 20
8.96280665162817
 30
0.0
 10
-39.90062430000751
 20
8.955751956836934
 30
0.0
 10
-39.90330546395899
 20
8.950569879177805
 30
0.0
 10
-39.90466397370892
 20
8.947944190054613
 30
0.0
  0
SPLINE
  5
17E
330
2
100
AcDbEntity
  8
GAIKEI
  6
Continuous
 62
     1
100
AcDbSpline
210
0.0
220
0.0
230
1.0
 70
     8
 71
     3
 72
    23
 73
    19
 74
     0
 42
0.0000000001
 43
0.0000000001
 40
0.0
 40
0.0
 40
0.0
 40
0.0
 40
0.0441943797793904
 40
0.0872238567306587
 40
0.1333284601611396
 40
0.1792834031653631
 40
0.2387379087125356
 40
0.2991651194827914
 40
0.3822834670372792
 40
0.4654685146255446
 40
0.5777154328472433
 40
0.6903503737188865
 40
0.8363731376732104
 40
0.9767418387225175
 40
1.186307250950964
 40
1.407788332158606
 40
1.740496601013287
 40
2.09110523668997
 40
2.09110523668997
 40
2.09110523668997
 40
2.09110523668997
 10
-28.86468502826904
 20
2.574009374054639
 30
0.0
 10
-28.86309257581638
 20
2.576494907478263
 30
0.0
 10
-28.85994964575878
 20
2.581400459096357
 30
0.0
 10
-28.85658981270069
 20
2.589674998500299
 30
0.0
 10
-28.85415195677092
 20
2.598356968814755
 30
0.0
 10
-28.85240511983307
 20
2.608320245236427
 30
0.0
 10
-28.85144407185328
 20
2.619347853210683
 30
0.0
 10
-28.85127621153379
 20
2.632887830356708
 30
0.0
 10
-28.85185814264242
 20
2.647995733817992
 30
0.0
 10
-28.85300378579291
 20
2.666531454673531
 30
0.0
 10
-28.85486838561894
 20
2.686987960378473
 30
0.0
 10
-28.85772320415026
 20
2.711551174357282
 30
0.0
 10
-28.86138522655301
 20
2.737902404948954
 30
0.0
 10
-28.86665145955294
 20
2.770546131069522
 30
0.0
 10
-28.87349727386573
 20
2.808022762321911
 30
0.0
 10
-28.88329681653238
 20
2.857988486682756
 30
0.0
 10
-28.89580131242178
 20
2.917002670233841
 30
0.0
 10
-28.90610635940504
 20
2.961377026526633
 30
0.0
 10
-28.91139385988902
 20
2.984145426394661
 30
0.0
  0
SPLINE
  5
17F
330
2
100
AcDbEntity
  8
GAIKEI
  6
Continuous
 62
     1
100
AcDbSpline
210
0.0
220
0.0
230
1.0
 70
     8
 71
     3
 72
     9
 73
     5
 74
     0
 42
0.0000000001
 43
0.0000000001
 40
0.0
 40
0.0
 40
0.0
 40
0.0
 40
0.0247966218338224
 40
0.0496606473285246
 40
0.0496606473285246
 40
0.0496606473285246
 40
0.0496606473285246
 10
-28.86463929328897
 20
2.573951033294633
 30
0.0
 10
-28.86562073650714
 20
2.572596693201376
 30
0.0
 10
-28.86758629076132
 20
2.569884331566527
 30
0.0
 10
-28.86830356467817
 20
2.56661222612513
 30
0.0
 10
-28.86866268840913
 20
2.564973952814398
 30
0.0
  0
SPLINE
  5
180
330
2
100
AcDbEntity
  8
GAIKEI
  6
Continuous
 62
     1
100
AcDbSpline
210
0.0
220
0.0
230
1.0
 70
     8
 71
     3
 72
    15
 73
    11
 74
     0
 42
0.0000000001
 43
0.0000000001
 40
0.0
 40
0.0
 40
0.0
 40
0.0
 40
0.1248287864019736
 40
0.2513164116391408
 40
0.4026420952459527
 40
0.5516077072497701
 40
0.7577251985189852
 40
0.9727050910670318
 40
1.270261395466625
 40
1.580593018528018
 40
1.580593018528018
 40
1.580593018528018
 40
1.580593018528018
 10
-25.68213169706905
 20
2.667957302434615
 30
0.0
 10
-25.67731600226546
 20
2.674776486295058
 30
0.0
 10
-25.66762061731083
 20
2.688505473554414
 30
0.0
 10
-25.64738720185983
 20
2.706410328344645
 30
0.0
 10
-25.62439613362551
 20
2.723143444249444
 30
0.0
 10
-25.59626458903529
 20
2.741849876193441
 30
0.0
 10
-25.56306213897347
 20
2.760439036816819
 30
0.0
 10
-25.51959237738868
 20
2.780641734144296
 30
0.0
 10
-25.46772152936262
 20
2.799111551236137
 30
0.0
 10
-25.4278847495616
 20
2.806811091285226
 30
0.0
 10
-25.40754775654909
 20
2.810741767734612
 30
0.0
  0
SPLINE
  5
181
330
2
100
AcDbEntity
  8
GAIKEI
  6
Continuous
 62
     1
100
AcDbSpline
210
0.0
220
0.0
230
1.0
 70
     8
 71
     3
 72
    15
 73
    11
 74
     0
 42
0.0000000001
 43
0.0000000001
 40
0.0
 40
0.0
 40
0.0
 40
0.0
 40
0.1248284685847934
 40
0.2513158231462944
 40
0.4026414637429579
 40
0.5516070395640951
 40
0.7577245576073686
 40
0.9727044686028481
 40
1.27026078355181
 40
1.580592406056235
 40
1.580592406056235
 40
1.580592406056235
 40
1.580592406056235
 10
-23.1800072388487
 20
3.248169706014323
 30
0.0
 10
-23.17644889730843
 20
3.255721530931282
 30
0.0
 10
-23.16928492627392
 20
3.270925539413838
 30
0.0
 10
-23.15246806374034
 20
3.292071844876204
 30
0.0
 10
-23.13273194434566
 20
3.3125430569238
 30
0.0
 10
-23.10827612112166
 20
3.335850284826733
 30
0.0
 10
-23.07880606882827
 20
3.359922585091226
 30
0.0
 10
-23.0395048696721
 20
3.387366806171257
 30
0.0
 10
-22.99162930491366
 20
3.414563304656894
 30
0.0
 10
-22.95373474536086
 20
3.429063454816287
 30
0.0
 10
-22.93438927158911
 20
3.436465896694585
 30
0.0
  0
SPLINE
  5
182
330
2
100
AcDbEntity
  8
GAIKEI
  6
Continuous
 62
     1
100
AcDbSpline
210
0.0
220
0.0
230
1.0
 70
     8
 71
     3
 72
    15
 73
    11
 74
     0
 42
0.0000000001
 43
0.0000000001
 40
0.0
 40
0.0
 40
0.0
 40
0.0
 40
1.124949736432018
 40
2.20152181954281
 40
3.054647090429201
 40
3.863124812791588
 40
4.675417304019724
 40
5.533162302177055
 40
6.618321507147577
 40
7.752181974188428
 40
7.752181974188428
 40
7.752181974188428
 40
7.752181974188428
 10
-35.83763510618906
 20
25.30449620095453
 30
0.0
 10
-35.89252663373532
 20
25.25321271224448
 30
0.0
 10
-35.99994911821409
 20
25.15285114432606
 30
0.0
 10
-36.17170316097827
 20
25.04158054815321
 30
0.0
 10
-36.33506085275735
 20
24.9597595882309
 30
0.0
 10
-36.48910692994446
 20
24.89993187579989
 30
0.0
 10
-36.64940194827068
 20
24.85838511156249
 30
0.0
 10
-36.83105762304206
 20
24.83009199459389
 30
0.0
 10
-37.03744856555841
 20
24.82370726994088
 30
0.0
 10
-37.18339607682106
 20
24.84991450615723
 30
0.0
 10
-37.25797140184909
 20
24.86330571195458
 30
0.0
  0
SPLINE
  5
183
330
2
100
AcDbEntity
  8
GAIKEI
  6
Continuous
 62
     1
100
AcDbSpline
210
0.0
220
0.0
230
1.0
 70
     8
 71
     3
 72
    11
 73
     7
 74
     0
 42
0.0000000001
 43
0.0000000001
 40
0.0
 40
0.0
 40
0.0
 40
0.0
 40
2.776688249501007
 40
5.565327049496215
 40
8.4137529548933
 40
11.27414643019106
 40
11.27414643019106
 40
11.27414643019106
 40
11.27414643019106
 10
-37.25797140184909
 20
24.86330571195458
 30
0.0
 10
-37.4384735356116
 20
24.90436406700815
 30
0.0
 10
-37.80025466379561
 20
24.98665748760675
 30
0.0
 10
-38.34641697205984
 20
25.11447618671321
 30
0.0
 10
-38.89743451989398
 20
25.24601716500752
 30
0.0
 10
-39.2669853742309
 20
25.33701271557493
 30
0.0
 10
-39.4521481516889
 20
25.38260586921456
 30
0.0
  0
SPLINE
  5
184
330
2
100
AcDbEntity
  8
GAIKEI
  6
Continuous
 62
     1
100
AcDbSpline
210
0.0
220
0.0
230
1.0
 70
     8
 71
     3
 72
    11
 73
     7
 74
     0
 42
0.0000000001
 43
0.0000000001
 40
0.0
 40
0.0
 40
0.0
 40
0.0
 40
0.0960046481621337
 40
0.1919832497571234
 40
0.2878405800972801
 40
0.3836754841910964
 40
0.3836754841910964
 40
0.3836754841910964
 40
0.3836754841910964
 10
-39.4521481516889
 20
25.38260586921456
 30
0.0
 10
-39.45835518173522
 20
25.38416729294977
 30
0.0
 10
-39.47076755782814
 20
25.3872897167978
 30
0.0
 10
-39.48929722675007
 20
25.39228072697643
 30
0.0
 10
-39.50775911584754
 20
25.39747532656429
 30
0.0
 10
-39.52000106104743
 20
25.40114346465737
 30
0.0
 10
-39.52612131754927
 20
25.40297731913461
 30
0.0
  0
SPLINE
  5
185
330
2
100
AcDbEntity
  8
GAIKEI
  6
Continuous
 62
     1
100
AcDbSpline
210
0.0
220
0.0
230
1.0
 70
     8
 71
     3
 72
    15
 73
    11
 74
     0
 42
0.0000000001
 43
0.0000000001
 40
0.0
 40
0.0
 40
0.0
 40
0.0
 40
1.124949736358397
 40
2.2015218194066
 40
3.054647090296921
 40
3.863124812672289
 40
4.675417303935062
 40
5.533162302121357
 40
6.618321507124438
 40
7.752181974195718
 40
7.752181974195718
 40
7.752181974195718
 40
7.752181974195718
 10
-30.67034981540894
 20
6.227708746034522
 30
0.0
 10
-30.59849124762275
 20
6.205813033083472
 30
0.0
 10
-30.45786433801107
 20
6.162963216549087
 30
0.0
 10
-30.27562415365821
 20
6.06985515040003
 30
0.0
 10
-30.12308627791731
 20
5.969293719378015
 30
0.0
 10
-29.99425092050024
 20
5.86579975940117
 30
0.0
 10
-29.87812285805251
 20
5.747753583551343
 30
0.0
 10
-29.76279246261777
 20
5.604581712934873
 30
0.0
 10
-29.65406765761327
 20
5.429034275925232
 30
0.0
 10
-29.60379003429967
 20
5.2895364054433
 30
0.0
 10
-29.57809949618911
 20
5.218256676574355
 30
0.0
  0
SPLINE
  5
186
330
2
100
AcDbEntity
  8
GAIKEI
  6
Continuous
 62
     1
100
AcDbSpline
210
0.0
220
0.0
230
1.0
 70
     8
 71
     3
 72
    11
 73
     7
 74
     0
 42
0.0000000001
 43
0.0000000001
 40
0.0
 40
0.0
 40
0.0
 40
0.0
 40
2.776688249471451
 40
5.565327049442445
 40
8.413752954836759
 40
11.27414643013499
 40
11.27414643013499
 40
11.27414643013499
 40
11.27414643013499
 10
-29.57809949618911
 20
5.218256676574355
 30
0.0
 10
-29.52340600782373
 20
5.041408065773566
 30
0.0
 10
-29.41378363653792
 20
4.686949707859753
 30
0.0
 10
-29.25139672292607
 20
4.150049924759287
 30
0.0
 10
-29.08980577786201
 20
3.607084241255279
 30
0.0
 10
-28.98383480911059
 20
3.241546038127466
 30
0.0
 10
-28.93073824966905
 20
3.058393792194578
 30
0.0
  0
SPLINE
  5
187
330
2
100
AcDbEntity
  8
GAIKEI
  6
Continuous
 62
     1
100
AcDbSpline
210
0.0
220
0.0
230
1.0
 70
     8
 71
     3
 72
    11
 73
     7
 74
     0
 42
0.0000000001
 43
0.0000000001
 40
0.0
 40
0.0
 40
0.0
 40
0.0
 40
0.0960046481412222
 40
0.1919832497219356
 40
0.2878405800875814
 40
0.3836754842158215
 40
0.3836754842158215
 40
0.3836754842158215
 40
0.3836754842158215
 10
-28.93073824966905
 20
3.058393792194578
 30
0.0
 10
-28.92898696725945
 20
3.052237634628227
 30
0.0
 10
-28.92548487757244
 20
3.039926989692844
 30
0.0
 10
-28.92054238472838
 20
3.021384320590982
 30
0.0
 10
-28.91581009540209
 20
3.002798555829485
 30
0.0
 10
-28.91286582357566
 20
2.990362651243913
 30
0.0
 10
-28.91139385988902
 20
2.984145426394661
 30
0.0
  0
SPLINE
  5
188
330
2
100
AcDbEntity
  8
GAIKEI
  6
Continuous
 62
     1
100
AcDbSpline
210
0.0
220
0.0
230
1.0
 70
     8
 71
     3
 72
    11
 73
     7
 74
     0
 42
0.0000000001
 43
0.0000000001
 40
0.0
 40
0.0
 40
0.0
 40
0.0
 40
2.850951309876973
 40
5.692633883134584
 40
8.488016344154853
 40
11.27414690968996
 40
11.27414690968996
 40
11.27414690968996
 40
11.27414690968996
 10
-16.40492392580893
 20
12.82379313823458
 30
0.0
 10
-16.27576648989714
 20
12.68435625502957
 30
0.0
 10
-16.01787152221288
 20
12.40593581230178
 30
0.0
 10
-15.63057304872529
 20
11.99337070931562
 30
0.0
 10
-15.2444143277894
 20
11.58567051752584
 30
0.0
 10
-14.98673468132415
 20
11.31722879057827
 30
0.0
 10
-14.85810842250919
 20
11.18323041111466
 30
0.0
  0
SPLINE
  5
189
330
2
100
AcDbEntity
  8
GAIKEI
  6
Continuous
 62
     1
100
AcDbSpline
210
0.0
220
0.0
230
1.0
 70
     8
 71
     3
 72
    15
 73
    11
 74
     0
 42
0.0000000001
 43
0.0000000001
 40
0.0
 40
0.0
 40
0.0
 40
0.0
 40
1.098597276158489
 40
2.153001764593839
 40
3.006924661136097
 40
3.819520303243217
 40
4.645931520750588
 40
5.5158894820517
 40
6.610005705939464
 40
7.751205099961861
 40
7.751205099961861
 40
7.751205099961861
 40
7.751205099961861
 10
-16.73367478646889
 20
14.27461579235432
 30
0.0
 10
-16.74985481186502
 20
14.2030725696909
 30
0.0
 10
-16.78156399591728
 20
14.06286406200388
 30
0.0
 10
-16.7923653076698
 20
13.86178915067671
 30
0.0
 10
-16.78276353779643
 20
13.68049903763858
 30
0.0
 10
-16.75892079576556
 20
13.51570560566256
 30
0.0
 10
-16.71572676576295
 20
13.35371056313772
 30
0.0
 10
-16.64900243577131
 20
13.1798406268781
 30
0.0
 10
-16.55052598638735
 20
12.99615837107058
 30
0.0
 10
-16.45413471939741
 20
12.88204938722731
 30
0.0
 10
-16.40492392580893
 20
12.82379313823458
 30
0.0
  0
SPLINE
  5
18A
330
2
100
AcDbEntity
  8
GAIKEI
  6
Continuous
 62
     1
100
AcDbSpline
210
0.0
220
0.0
230
1.0
 70
     8
 71
     3
 72
    15
 73
    11
 74
     0
 42
0.0000000001
 43
0.0000000001
 40
0.0
 40
0.0
 40
0.0
 40
0.0
 40
1.124948957603503
 40
2.201520429008584
 40
3.054645901316287
 40
3.8631239635029
 40
4.675416963894685
 40
5.533162361213257
 40
6.618321529745974
 40
7.752181828634899
 40
7.752181828634899
 40
7.752181828634899
 40
7.752181828634899
 10
-16.73300990226869
 20
20.2411028039146
 30
0.0
 10
-16.74997691798182
 20
20.31428195744809
 30
0.0
 10
-16.78318129713102
 20
20.45749325640747
 30
0.0
 10
-16.79366745740788
 20
20.66187183488296
 30
0.0
 10
-16.78284768172966
 20
20.84425422362802
 30
0.0
 10
-16.75763699047525
 20
21.00757597126039
 30
0.0
 10
-16.71347003982885
 20
21.16716900089671
 30
0.0
 10
-16.64714470332728
 20
21.33863403094574
 30
0.0
 10
-16.54947853452722
 20
21.52056618487074
 30
0.0
 10
-16.45380868854147
 20
21.63385683463252
 30
0.0
 10
-16.40492392580881
 20
21.69174536237461
 30
0.0
  0
SPLINE
  5
18B
330
2
100
AcDbEntity
  8
GAIKEI
  6
Continuous
 62
     1
100
AcDbSpline
210
0.0
220
0.0
230
1.0
 70
     8
 71
     3
 72
    11
 73
     7
 74
     0
 42
0.0000000001
 43
0.0000000001
 40
0.0
 40
0.0
 40
0.0
 40
0.0
 40
2.776688249504258
 40
5.565327049501993
 40
8.413752954894974
 40
11.27414643018568
 40
11.27414643018568
 40
11.27414643018568
 40
11.27414643018568
 10
-16.40492392580881
 20
21.69174536237461
 30
0.0
 10
-16.27911528041102
 20
21.82753561812138
 30
0.0
 10
-16.02695652351099
 20
22.09970055543499
 30
0.0
 10
-15.64318112887122
 20
22.50878163942559
 30
0.0
 10
-15.25375452611365
 20
22.92020634463392
 30
0.0
 10
-14.99017464052656
 20
23.19474899719899
 30
0.0
 10
-14.85810842250919
 20
23.33230808949452
 30
0.0
  0
SPLINE
  5
18C
330
2
100
AcDbEntity
  8
GAIKEI
  6
Continuous
 62
     1
100
AcDbSpline
210
0.0
220
0.0
230
1.0
 70
     8
 71
     3
 72
    11
 73
     7
 74
     0
 42
0.0000000001
 43
0.0000000001
 40
0.0
 40
0.0
 40
0.0
 40
0.0
 40
0.0960046481597018
 40
0.1919832497705827
 40
0.2878405802202035
 40
0.3836754844405541
 40
0.3836754844405541
 40
0.3836754844405541
 40
0.3836754844405541
 10
-14.85810842250919
 20
23.33230808949452
 30
0.0
 10
-14.85365267486941
 20
23.33690282333316
 30
0.0
 10
-14.84474238845678
 20
23.34609104443552
 30
0.0
 10
-14.83115521236664
 20
23.35964270334409
 30
0.0
 10
-14.81742561259921
 20
23.37303386852034
 30
0.0
 10
-14.80812793926498
 20
23.38180163507252
 30
0.0
 10
-14.80347964646898
 20
23.38618500547454
 30
0.0
  0
SPLINE
  5
18D
330
2
100
AcDbEntity
  8
GAIKEI
  6
Continuous
 62
     1
100
AcDbSpline
210
0.0
220
0.0
230
1.0
 70
     8
 71
     3
 72
     9
 73
     5
 74
     0
 42
0.0000000001
 43
0.0000000001
 40
0.0
 40
0.0
 40
0.0
 40
0.0
 40
0.0247966218107121
 40
0.0496606472847842
 40
0.0496606472847842
 40
0.0496606472847842
 40
0.0496606472847842
 10
-14.47161816478888
 20
23.63177284433459
 30
0.0
 10
-14.46995455025546
 20
23.63160005961788
 30
0.0
 10
-14.46662279905195
 20
23.63125402051071
 30
0.0
 10
-14.46343043565912
 20
23.63226889579494
 30
0.0
 10
-14.46183208748891
 20
23.63277702217465
 30
0.0
  0
SPLINE
  5
18E
330
2
100
AcDbEntity
  8
GAIKEI
  6
Continuous
 62
     1
100
AcDbSpline
210
0.0
220
0.0
230
1.0
 70
     8
 71
     3
 72
    15
 73
    11
 74
     0
 42
0.0000000001
 43
0.0000000001
 40
0.0
 40
0.0
 40
0.0
 40
0.0
 40
0.1248287863755878
 40
0.2513164115939538
 40
0.4026420952033014
 40
0.5516077072033358
 40
0.7577251984738913
 40
0.972705091027954
 40
1.270261395479701
 40
1.580593018604264
 40
1.580593018604264
 40
1.580593018604264
 40
1.580593018604264
 10
-14.74328561136895
 20
24.18811870965465
 30
0.0
 10
-14.75134061274957
 20
24.19031168427796
 30
0.0
 10
-14.76755765772054
 20
24.19472677577312
 30
0.0
 10
-14.79130295329014
 20
24.2076161459712
 30
0.0
 10
-14.81489034727269
 20
24.22349762044439
 30
0.0
 10
-14.8420901982463
 20
24.2435346487697
 30
0.0
 10
-14.87091420204422
 20
24.26837687869943
 30
0.0
 10
-14.90476606173138
 20
24.30231536345741
 30
0.0
 10
-14.93986288743781
 20
24.34474096710142
 30
0.0
 10
-14.96072306954738
 20
24.37954189733102
 30
0.0
 10
-14.97137235846912
 20
24.39730804907458
 30
0.0
  0
SPLINE
  5
18F
330
2
100
AcDbEntity
  8
GAIKEI
  6
Continuous
 62
     1
100
AcDbSpline
210
0.0
220
0.0
230
1.0
 70
     8
 71
     3
 72
    15
 73
    11
 74
     0
 42
0.0000000001
 43
0.0000000001
 40
0.0
 40
0.0
 40
0.0
 40
0.0
 40
0.124828786296645
 40
0.2513164114424332
 40
0.4026420950368486
 40
0.551607707032593
 40
0.7577251983487701
 40
0.9727050909459256
 40
1.270261395442225
 40
1.580593018602651
 40
1.580593018602651
 40
1.580593018602651
 40
1.580593018602651
 10
-16.14428378012894
 20
26.34090213583454
 30
0.0
 10
-16.1525972139807
 20
26.3416630579336
 30
0.0
 10
-16.16933455818162
 20
26.34319501395919
 30
0.0
 10
-16.19495732499308
 20
26.35176523835003
 30
0.0
 10
-16.220944162558
 20
26.36330952955211
 30
0.0
 10
-16.25121018013613
 20
26.37831894583565
 30
0.0
 10
-16.28391009051268
 20
26.3977785307394
 30
0.0
 10
-16.3231410204246
 20
26.42532309991498
 30
0.0
 10
-16.36507177525027
 20
26.46100966349104
 30
0.0
 10
-16.39165816243917
 20
26.49165955678882
 30
0.0
 10
-16.40523072460883
 20
26.50730657115457
 30
0.0
  0
SPLINE
  5
190
330
2
100
AcDbEntity
  8
GAIKEI
  6
Continuous
 62
     1
100
AcDbSpline
210
0.0
220
0.0
230
1.0
 70
     8
 71
     3
 72
    15
 73
    11
 74
     0
 42
0.0000000001
 43
0.0000000001
 40
0.0
 40
0.0
 40
0.0
 40
0.0
 40
0.1248287863750943
 40
0.2513164115854656
 40
0.4026420951856032
 40
0.5516077071933811
 40
0.7577251984730418
 40
0.9727050910231817
 40
1.270261395365125
 40
1.580593018352736
 40
1.580593018352736
 40
1.580593018352736
 40
1.580593018352736
 10
-17.89782455752902
 20
28.21769916557457
 30
0.0
 10
-17.90614382438184
 20
28.2170049149255
 30
0.0
 10
-17.92289291209795
 20
28.21560718779096
 30
0.0
 10
-17.94961461536491
 20
28.21959786444267
 30
0.0
 10
-17.97721129961405
 20
28.22645420492392
 30
0.0
 10
-18.00962386615833
 20
28.23597995566411
 30
0.0
 10
-18.04520611286512
 20
28.24946562591663
 30
0.0
 10
-18.0886241010287
 20
28.26977935169669
 30
0.0
 10
-18.13611474018592
 20
28.29764255700116
 30
0.0
 10
-18.16761951851436
 20
28.32321013184992
 30
0.0
 10
-18.18370295848888
 20
28.33626258221455
 30
0.0
  0
SPLINE
  5
191
330
2
100
AcDbEntity
  8
GAIKEI
  6
Continuous
 62
     1
100
AcDbSpline
210
0.0
220
0.0
230
1.0
 70
     8
 71
     3
 72
    15
 73
    11
 74
     0
 42
0.0000000001
 43
0.0000000001
 40
0.0
 40
0.0
 40
0.0
 40
0.0
 40
0.1248287863390806
 40
0.2513164115222815
 40
0.4026420951355196
 40
0.5516077071487536
 40
0.7577251984535733
 40
0.9727050910387124
 40
1.270261395488114
 40
1.580593018592009
 40
1.580593018592009
 40
1.580593018592009
 40
1.580593018592009
 10
-19.9506274944091
 20
29.76148427083456
 30
0.0
 10
-19.95869981754004
 20
29.75935594187252
 30
0.0
 10
-19.97495173619927
 20
29.75507100077073
 30
0.0
 10
-20.00196045047824
 20
29.75436087501419
 30
0.0
 10
-20.03032847011127
 20
29.75632093836919
 30
0.0
 10
-20.06390274619935
 20
29.76007358843162
 30
0.0
 10
-20.10128618069643
 20
29.76717558874339
 30
0.0
 10
-20.14757199353232
 20
29.77964124887353
 30
0.0
 10
-20.19917953800712
 20
29.79883448654959
 30
0.0
 10
-20.23464545075853
 20
29.81854288514183
 30
0.0
 10
-20.25275108136918
 20
29.82860417941458
 30
0.0
  0
SPLINE
  5
192
330
2
100
AcDbEntity
  8
GAIKEI
  6
Continuous
 62
     1
100
AcDbSpline
210
0.0
220
0.0
230
1.0
 70
     8
 71
     3
 72
    15
 73
    11
 74
     0
 42
0.0000000001
 43
0.0000000001
 40
0.0
 40
0.0
 40
0.0
 40
0.0
 40
0.1248287863764047
 40
0.251316411594957
 40
0.4026420952051213
 40
0.5516077072073644
 40
0.7577251984768578
 40
0.9727050910306102
 40
1.27026139547243
 40
1.580593018578035
 40
1.580593018578035
 40
1.580593018578035
 40
1.580593018578035
 10
-22.24031921228868
 20
30.92535032237459
 30
0.0
 10
-22.24789931825251
 20
30.92185258331677
 30
0.0
 10
-22.26316026154632
 20
30.91481062405228
 30
0.0
 10
-22.28963534072773
 20
30.90942127268807
 30
0.0
 10
-22.31791274783063
 20
30.90642550335827
 30
0.0
 10
-22.35162859606464
 20
30.90429103036399
 30
0.0
 10
-22.3896773415986
 20
30.90479357004563
 30
0.0
 10
-22.43742460809437
 20
30.90903240173588
 30
0.0
 10
-22.49158098875
 20
30.91897249495526
 30
0.0
 10
-22.52993042209482
 20
30.93222288757022
 30
0.0
 10
-22.54950811290882
 20
30.93898731841455
 30
0.0
  0
SPLINE
  5
193
330
2
100
AcDbEntity
  8
GAIKEI
  6
Continuous
 62
     1
100
AcDbSpline
210
0.0
220
0.0
230
1.0
 70
     8
 71
     3
 72
    15
 73
    11
 74
     0
 42
0.0000000001
 43
0.0000000001
 40
0.0
 40
0.0
 40
0.0
 40
0.0
 40
0.1248287863676979
 40
0.2513164115742788
 40
0.402642095173799
 40
0.5516077071670611
 40
0.7577251984288759
 40
0.9727050909740812
 40
1.270261395385632
 40
1.580593018457434
 40
1.580593018457434
 40
1.580593018457434
 40
1.580593018457434
 10
-24.69732858696898
 20
31.67393383917465
 30
0.0
 10
-24.70418615807364
 20
31.6691729670406
 30
0.0
 10
-24.71799242994644
 20
31.6595879559585
 30
0.0
 10
-24.74312944214171
 20
31.64968313169846
 30
0.0
 10
-24.77045704200668
 20
31.64182255463095
 30
0.0
 10
-24.80329002340238
 20
31.63386581348561
 30
0.0
 10
-24.84084798809624
 20
31.62775362314619
 30
0.0
 10
-24.88860593172035
 20
31.62363683163392
 30
0.0
 10
-24.94366563433437
 20
31.62402175567957
 30
0.0
 10
-24.98373336014243
 20
31.6304115358455
 30
0.0
 10
-25.00418825292888
 20
31.63367356945457
 30
0.0
  0
SPLINE
  5
194
330
2
100
AcDbEntity
  8
GAIKEI
  6
Continuous
 62
     1
100
AcDbSpline
210
0.0
220
0.0
230
1.0
 70
     8
 71
     3
 72
    15
 73
    11
 74
     0
 42
0.0000000001
 43
0.0000000001
 40
0.0
 40
0.0
 40
0.0
 40
0.0
 40
0.1248287863716503
 40
0.251316411586924
 40
0.402642095198451
 40
0.5516077072021841
 40
0.7577251984808607
 40
0.9727050910416139
 40
1.270261395497902
 40
1.580593018624984
 40
1.580593018624984
 40
1.580593018624984
 40
1.580593018624984
 10
-27.24700063188902
 20
31.98448948985458
 30
0.0
 10
-27.25292730431477
 20
31.97861014134549
 30
0.0
 10
-27.26485940819873
 20
31.96677331417834
 30
0.0
 10
-27.2878945780144
 20
31.95265397009621
 30
0.0
 10
-27.31344203534934
 20
31.94016742493455
 30
0.0
 10
-27.34439453638311
 20
31.92663017717473
 30
0.0
 10
-27.38032054048904
 20
31.91408897261147
 30
0.0
 10
-27.42663806030078
 20
31.9017416445372
 30
0.0
 10
-27.48092812368123
 20
31.89255970370573
 30
0.0
 10
-27.52149670439053
 20
31.8918947211829
 30
0.0
 10
-27.54220728758901
 20
31.89155524231455
 30
0.0
  0
SPLINE
  5
195
330
2
100
AcDbEntity
  8
GAIKEI
  6
Continuous
 62
     1
100
AcDbSpline
210
0.0
220
0.0
230
1.0
 70
    24
 71
     3
 72
     9
 73
     5
 74
     0
 42
0.0000000001
 43
0.0000000001
 40
0.0
 40
0.0
 40
0.0
 40
0.0
 40
0.0001617963891611
 40
0.0003235927774518
 40
0.0003235927774518
 40
0.0003235927774518
 40
0.0003235927774518
 10
-13.92375112754871
 20
23.76163925221454
 30
0.0
 10
-13.92375914380659
 20
23.76163203511021
 30
0.0
 10
-13.92377517632212
 20
23.76161760090167
 30
0.0
 10
-13.92379120883788
 20
23.76160316669302
 30
0.0
 10
-13.92379922509576
 20
23.76159594958881
 30
0.0
  0
SPLINE
  5
196
330
2
100
AcDbEntity
  8
GAIKEI
  6
Continuous
 62
     1
100
AcDbSpline
210
0.0
220
0.0
230
1.0
 70
    24
 71
     3
 72
    11
 73
     7
 74
     0
 42
0.0000000001
 43
0.0000000001
 40
0.0
 40
0.0
 40
0.0
 40
0.0
 40
0.4853756510086948
 40
0.9240656553312629
 40
1.129327426223108
 40
1.287903550428991
 40
1.287903550428991
 40
1.287903550428991
 40
1.287903550428991
 10
-14.22618138762902
 20
11.02617975457462
 30
0.0
 10
-14.2021332838051
 20
11.00452904448639
 30
0.0
 10
-14.15635013260384
 20
10.96331008847869
 30
0.0
 10
-14.10039721626072
 20
10.9129352073935
 30
0.0
 10
-14.06063569504397
 20
10.87713757549068
 30
0.0
 10
-14.04260922120238
 20
10.86090818950947
 30
0.0
 10
-14.03475251250495
 20
10.85383472860337
 30
0.0
  0
SPLINE
  5
197
330
2
100
AcDbEntity
  8
GAIKEI
  6
Continuous
 62
     1
100
AcDbSpline
210
0.0
220
0.0
230
1.0
 70
     8
 71
     3
 72
     9
 73
     5
 74
     0
 42
0.0000000001
 43
0.0000000001
 40
0.0
 40
0.0
 40
0.0
 40
0.0
 40
0.0247996564779938
 40
0.0496666905472692
 40
0.0496666905472692
 40
0.0496666905472692
 40
0.0496666905472692
 10
-14.47161816478888
 20
10.88376565627436
 30
0.0
 10
-14.46995432687458
 20
10.88394061461577
 30
0.0
 10
-14.4666221306046
 20
10.8842910066387
 30
0.0
 10
-14.46343021190796
 20
10.883271782061
 30
0.0
 10
-14.46183208748903
 20
10.88276147843453
 30
0.0
  0
SPLINE
  5
198
330
2
100
AcDbEntity
  8
GAIKEI
  6
Continuous
 62
     1
100
AcDbSpline
210
0.0
220
0.0
230
1.0
 70
     8
 71
     3
 72
    15
 73
    11
 74
     0
 42
0.0000000001
 43
0.0000000001
 40
0.0
 40
0.0
 40
0.0
 40
0.0
 40
0.1227082244486612
 40
0.2473672530839734
 40
0.3984378198726205
 40
0.5472594720415496
 40
0.7543838192846942
 40
0.9703632089185626
 40
1.269635814473442
 40
1.581724289359289
 40
1.581724289359289
 40
1.581724289359289
 40
1.581724289359289
 10
-14.74301971474847
 20
10.32729755745458
 30
0.0
 10
-14.75097102271991
 20
10.32525503481929
 30
0.0
 10
-14.76700004783333
 20
10.32113751770942
 30
0.0
 10
-14.79053067163067
 20
10.30840680843755
 30
0.0
 10
-14.8139805211822
 20
10.29259659607749
 30
0.0
 10
-14.8412733980565
 20
10.27261780012554
 30
0.0
 10
-14.87027100770672
 20
10.24778541772934
 30
0.0
 10
-14.90434989009395
 20
10.2137205568041
 30
0.0
 10
-14.93967203957334
 20
10.17109069473838
 30
0.0
 10
-14.96065894461765
 20
10.13609505518536
 30
0.0
 10
-14.97137236978892
 20
10.11823043127458
 30
0.0
  0
SPLINE
  5
199
330
2
100
AcDbEntity
  8
GAIKEI
  6
Continuous
 62
     1
100
AcDbSpline
210
0.0
220
0.0
230
1.0
 70
     8
 71
     3
 72
    11
 73
     7
 74
     0
 42
0.0000000001
 43
0.0000000001
 40
0.0
 40
0.0
 40
0.0
 40
0.0
 40
0.0855617988196539
 40
0.213633327783744
 40
0.554250684980421
 40
0.9373835979268646
 40
0.9373835979268646
 40
0.9373835979268646
 40
0.9373835979268646
 10
-14.32311301390587
 20
10.75665228991624
 30
0.0
 10
-14.32735608091832
 20
10.76046455981941
 30
0.0
 10
-14.33795030098372
 20
10.76998315242827
 30
0.0
 10
-14.36549963675361
 20
10.79460708843498
 30
0.0
 10
-14.40763323299097
 20
10.83268309542643
 30
0.0
 10
-14.44307187383731
 20
10.86542751126376
 30
0.0
 10
-14.46183208748903
 20
10.88276147843453
 30
0.0
  0
SPLINE
  5
19A
330
2
100
AcDbEntity
  8
GAIKEI
  6
Continuous
 62
     1
100
AcDbSpline
210
0.0
220
0.0
230
1.0
 70
     8
 71
     3
 72
    15
 73
    11
 74
     0
 42
0.0000000001
 43
0.0000000001
 40
0.0
 40
0.0
 40
0.0
 40
0.0
 40
0.1248284685789772
 40
0.2513158231339397
 40
0.4026414637236874
 40
0.5516070395378245
 40
0.757724557577093
 40
0.9727044685686609
 40
1.270260783513694
 40
1.580592406013868
 40
1.580592406013868
 40
1.580592406013868
 40
1.580592406013868
 10
-16.78706824662913
 20
7.408595665994539
 30
0.0
 10
-16.78776254492322
 20
7.416914908986882
 30
0.0
 10
-16.78916036826672
 20
7.433663952087954
 30
0.0
 10
-16.78516969084103
 20
7.460385621081854
 30
0.0
 10
-16.77831331610196
 20
7.487982270458473
 30
0.0
 10
-16.76878756586711
 20
7.520394833524051
 30
0.0
 10
-16.75530190205552
 20
7.555977083223524
 30
0.0
 10
-16.73498817572522
 20
7.599395075441975
 30
0.0
 10
-16.7071249696653
 20
7.646885716402152
 30
0.0
 10
-16.68155739350527
 20
7.67839049457325
 30
0.0
 10
-16.66850494270898
 20
7.694473934174538
 30
0.0
  0
SPLINE
  5
19B
330
2
100
AcDbEntity
  8
GAIKEI
  6
Continuous
 62
     1
100
AcDbSpline
210
0.0
220
0.0
230
1.0
 70
     8
 71
     3
 72
    15
 73
    11
 74
     0
 42
0.0000000001
 43
0.0000000001
 40
0.0
 40
0.0
 40
0.0
 40
0.0
 40
0.1248287863647766
 40
0.2513164115742888
 40
0.4026420951840287
 40
0.5516077071845151
 40
0.7577251984497265
 40
0.9727050909965253
 40
1.270261395419652
 40
1.580593018514312
 40
1.580593018514312
 40
1.580593018514312
 40
1.580593018514312
 10
-15.24328325408896
 20
9.461398470094536
 30
0.0
 10
-15.24541158305124
 20
9.469470793227173
 30
0.0
 10
-15.24969652415348
 20
9.48572271188982
 30
0.0
 10
-15.25040664991047
 20
9.512731426172081
 30
0.0
 10
-15.24844658655547
 20
9.541099445805912
 30
0.0
 10
-15.24469393649087
 20
9.574673721889894
 30
0.0
 10
-15.237591936179
 20
9.612057156380615
 30
0.0
 10
-15.22512627606181
 20
9.658342969212526
 30
0.0
 10
-15.20593303839337
 20
9.70995051368618
 30
0.0
 10
-15.1862246397884
 20
9.745416426428164
 30
0.0
 10
-15.17616334550894
 20
9.763522057034606
 30
0.0
  0
SPLINE
  5
19C
330
2
100
AcDbEntity
  8
GAIKEI
  6
Continuous
 62
     1
100
AcDbSpline
210
0.0
220
0.0
230
1.0
 70
     8
 71
     3
 72
    11
 73
     7
 74
     0
 42
0.0000000001
 43
0.0000000001
 40
0.0
 40
0.0
 40
0.0
 40
0.0
 40
0.1755636093251437
 40
0.3517662976294953
 40
0.531544182521087
 40
0.7121266406783019
 40
0.7121266406783019
 40
0.7121266406783019
 40
0.7121266406783019
 10
-20.72107073694894
 20
4.39689515897453
 30
0.0
 10
-20.71256334289762
 20
4.404940280692926
 30
0.0
 10
-20.69551758655075
 20
4.421059809630378
 30
0.0
 10
-20.66779458059534
 20
4.44318378662524
 30
0.0
 10
-20.63858626386855
 20
4.46389503346802
 30
0.0
 10
-20.61785239446954
 20
4.476050463579667
 30
0.0
 10
-20.60746231360895
 20
4.482141748294566
 30
0.0
  0
SPLINE
  5
19D
330
2
100
AcDbEntity
  8
GAIKEI
  6
Continuous
 62
     1
100
AcDbSpline
210
0.0
220
0.0
230
1.0
 70
     8
 71
     3
 72
    15
 73
    11
 74
     0
 42
0.0000000001
 43
0.0000000001
 40
0.0
 40
0.0
 40
0.0
 40
0.0
 40
0.1248287863448289
 40
0.2513164115336202
 40
0.4026420951496002
 40
0.5516077071680872
 40
0.7577251984814957
 40
0.9727050910717871
 40
1.270261395511883
 40
1.580593018607901
 40
1.580593018607901
 40
1.580593018607901
 40
1.580593018607901
 10
-18.66386538908898
 20
5.655054755794594
 30
0.0
 10
-18.66310446699094
 20
5.663368189649872
 30
0.0
 10
-18.6615725109674
 20
5.680105533857044
 30
0.0
 10
-18.65300228657634
 20
5.705728300676469
 30
0.0
 10
-18.64145799537118
 20
5.731715138246499
 30
0.0
 10
-18.62644857907719
 20
5.761981155822809
 30
0.0
 10
-18.60698899416366
 20
5.794681066194243
 30
0.0
 10
-18.57944442499172
 20
5.83391199610287
 30
0.0
 10
-18.54375786142407
 20
5.875842750924789
 30
0.0
 10
-18.51310796813163
 20
5.902429138107891
 30
0.0
 10
-18.49746095376884
 20
5.916001700274364
 30
0.0
  0
SPLINE
  5
19E
330
2
100
AcDbEntity
  8
GAIKEI
  6
Continuous
 62
     1
100
AcDbSpline
210
0.0
220
0.0
230
1.0
 70
     8
 71
     3
 72
    11
 73
     7
 74
     0
 42
0.0000000001
 43
0.0000000001
 40
0.0
 40
0.0
 40
0.0
 40
0.0
 40
0.0963685014508992
 40
0.1926073466421161
 40
0.2882055288552145
 40
0.383677898713151
 40
0.383677898713151
 40
0.383677898713151
 40
0.383677898713151
 10
-14.85810842250919
 20
11.18323041111466
 30
0.0
 10
-14.85363494039916
 20
11.1786191021165
 30
0.0
 10
-14.84469399489831
 20
11.16940268827466
 30
0.0
 10
-14.83110183619897
 20
11.15582172185941
 30
0.0
 10
-14.81739712358762
 20
11.14243928840721
 30
0.0
 10
-14.80811676856706
 20
11.13371351109958
 30
0.0
 10
-14.80347964642897
 20
11.12935349523445
 30
0.0
  0
SPLINE
  5
19F
330
2
100
AcDbEntity
  8
GAIKEI
  6
Continuous
 62
     1
100
AcDbSpline
210
0.0
220
0.0
230
1.0
 70
     8
 71
     3
 72
    23
 73
    19
 74
     0
 42
0.0000000001
 43
0.0000000001
 40
0.0
 40
0.0
 40
0.0
 40
0.0
 40
0.3503959918148683
 40
0.6829084159000577
 40
0.9043221777991249
 40
1.113837309039229
 40
1.254234396263011
 40
1.400284840930869
 40
1.512966770968677
 40
1.625257672931894
 40
1.708483898320508
 40
1.791641720944866
 40
1.852107117156431
 40
1.911599184074473
 40
1.95760029046387
 40
2.003753020348107
 40
2.04684492057698
 40
2.091104989876381
 40
2.091104989876381
 40
2.091104989876381
 40
2.091104989876381
 10
-14.80347964642897
 20
11.12935349523445
 30
0.0
 10
-14.78641573834807
 20
11.11339986943858
 30
0.0
 10
-14.75315883270752
 20
11.08230686160004
 30
0.0
 10
-14.70832756102641
 20
11.04199103333076
 30
0.0
 10
-14.6699724916441
 20
11.00853411086371
 30
0.0
 10
-14.64094522093478
 20
10.9838698232711
 30
0.0
 10
-14.61530902232016
 20
10.9629854599159
 30
0.0
 10
-14.5943152008731
 20
10.94663240052318
 30
0.0
 10
-14.57446530451079
 20
10.93187182583426
 30
0.0
 10
-14.55767543987849
 20
10.9200224443424
 30
0.0
 10
-14.54219001607521
 20
10.90975621049233
 30
0.0
 10
-14.5293918612042
 20
10.90169184906278
 30
0.0
 10
-14.51757689021497
 20
10.89506062152099
 30
0.0
 10
-14.50754048563226
 20
10.89037213855272
 30
0.0
 10
-14.49803168058634
 20
10.88689662945876
 30
0.0
 10
-14.48928468344365
 20
10.88466091547332
 30
0.0
 10
-14.48042738313984
 20
10.88342901091778
 30
0.0
 10
-14.47459899026705
 20
10.88369809368953
 30
0.0
 10
-14.47164582190874
 20
10.88383443431462
 30
0.0
  0
SPLINE
  5
1A0
330
2
100
AcDbEntity
  8
GAIKEI
  6
Continuous
 62
     1
100
AcDbSpline
210
0.0
220
0.0
230
1.0
 70
     8
 71
     3
 72
    23
 73
    19
 74
     0
 42
0.0000000001
 43
0.0000000001
 40
0.0
 40
0.0
 40
0.0
 40
0.0
 40
0.0441943797571314
 40
0.0872238566897463
 40
0.1333284601250367
 40
0.1792834031384887
 40
0.238737908732107
 40
0.299165119550276
 40
0.3822834671689037
 40
0.4654685148206693
 40
0.5777154330852672
 40
0.6903503739954963
 40
0.8363731379484974
 40
0.9767418389942431
 40
1.186307251176662
 40
1.407788332336669
 40
1.740496601102811
 40
2.091105236684326
 40
2.091105236684326
 40
2.091105236684326
 40
2.091105236684326
 10
-14.47164582190862
 20
23.63170406629456
 30
0.0
 10
-14.47459458322032
 20
23.63184040385954
 30
0.0
 10
-14.48041438056725
 20
23.63210948531957
 30
0.0
 10
-14.48926025842297
 20
23.63088191640725
 30
0.0
 10
-14.49799799323727
 20
23.628652176424
 30
0.0
 10
-14.50749986219455
 20
23.62518334337142
 30
0.0
 10
-14.51753057483529
 20
23.62050183133749
 30
0.0
 10
-14.52934046917517
 20
23.61387721405276
 30
0.0
 10
-14.54213333182292
 20
23.60581929518764
 30
0.0
 10
-14.5576129153992
 20
23.59555927868723
 30
0.0
 10
-14.57439646911189
 20
23.5837162350183
 30
0.0
 10
-14.59424142714829
 20
23.56896228264554
 30
0.0
 10
-14.61523125105304
 20
23.55261526290712
 30
0.0
 10
-14.6408684306466
 20
23.53173270829075
 30
0.0
 10
-14.66990123820323
 20
23.50706574357037
 30
0.0
 10
-14.70827305347518
 20
23.4735962285024
 30
0.0
 10
-14.7531285876571
 20
23.43325992563473
 30
0.0
 10
-14.7864053839852
 20
23.40214831502454
 30
0.0
 10
-14.80347964642897
 20
23.3861850053546
 30
0.0
  0
SPLINE
  5
1A1
330
2
100
AcDbEntity
  8
GAIKEI
  6
Continuous
 62
     1
100
AcDbSpline
210
0.0
220
0.0
230
1.0
 70
     8
 71
     3
 72
    13
 73
     9
 74
     0
 42
0.0000000001
 43
0.0000000001
 40
0.0
 40
0.0
 40
0.0
 40
0.0
 40
0.2242529579487172
 40
0.4352560711509016
 40
0.570258661446159
 40
0.6957908801580855
 40
0.7809748817007158
 40
0.8689577287122535
 40
0.8689577287122535
 40
0.8689577287122535
 40
0.8689577287122535
 10
-20.72107073694894
 20
4.39689515897453
 30
0.0
 10
-20.73150852600497
 20
4.38617582874167
 30
0.0
 10
-20.75176739392646
 20
4.365370513149969
 30
0.0
 10
-20.77483130680002
 20
4.335029806414354
 30
0.0
 10
-20.79197548095533
 20
4.308673797009078
 30
0.0
 10
-20.80424140448122
 20
4.289176734518377
 30
0.0
 10
-20.81301115422878
 20
4.271146705313526
 30
0.0
 10
-20.81542325181783
 20
4.259814321536509
 30
0.0
 10
-20.8166487936287
 20
4.254056548634594
 30
0.0
  0
SPLINE
  5
1A2
330
2
100
AcDbEntity
  8
GAIKEI
  6
Continuous
 62
     1
100
AcDbSpline
210
0.0
220
0.0
230
1.0
 70
     8
 71
     3
 72
    15
 73
    11
 74
     0
 42
0.0000000001
 43
0.0000000001
 40
0.0
 40
0.0
 40
0.0
 40
0.0
 40
0.122708224450819
 40
0.2473672530942237
 40
0.3984378198866186
 40
0.5472594720558253
 40
0.7543838192757534
 40
0.9703632088831206
 40
1.269635814401189
 40
1.581724289249824
 40
1.581724289249824
 40
1.581724289249824
 40
1.581724289249824
 10
-19.95045833792903
 20
4.753815424154595
 30
0.0
 10
-19.95836563394368
 20
4.756022201648988
 30
0.0
 10
-19.97430593544595
 20
4.760470839785739
 30
0.0
 10
-20.00104940805773
 20
4.761211034049665
 30
0.0
 10
-20.02926267966564
 20
4.759243913285899
 30
0.0
 10
-20.06288840235561
 20
4.755588206890365
 30
0.0
 10
-20.10041726015584
 20
4.748581537719928
 30
0.0
 10
-20.14696286849028
 20
4.736119943967651
 30
0.0
 10
-20.19886767827939
 20
4.716862475195966
 30
0.0
 10
-20.23454069097306
 20
4.69704881485768
 30
0.0
 10
-20.25275110128916
 20
4.686934309314665
 30
0.0
  0
SPLINE
  5
1A3
330
2
100
AcDbEntity
  8
GAIKEI
  6
Continuous
 62
     1
100
AcDbSpline
210
0.0
220
0.0
230
1.0
 70
     8
 71
     3
 72
    15
 73
    11
 74
     0
 42
0.0000000001
 43
0.0000000001
 40
0.0
 40
0.0
 40
0.0
 40
0.0
 40
0.1227082244395521
 40
0.2473672530751913
 40
0.398437819907939
 40
0.5472594721370286
 40
0.7543838194088238
 40
0.9703632090501896
 40
1.269635814474933
 40
1.581724289196587
 40
1.581724289196587
 40
1.581724289196587
 40
1.581724289196587
 10
-24.69725130820894
 20
2.841322402634659
 30
0.0
 10
-24.70392697356999
 20
2.846100549675838
 30
0.0
 10
-24.71738443341303
 20
2.855732806305695
 30
0.0
 10
-24.74226191593459
 20
2.865575167726547
 30
0.0
 10
-24.76944651400425
 20
2.873376186061022
 30
0.0
 10
-24.80229468271807
 20
2.881441620240707
 30
0.0
 10
-24.83995669546187
 20
2.887693130257957
 30
0.0
 10
-24.88795737622536
 20
2.891902598194405
 30
0.0
 10
-24.94331838518406
 20
2.891558987369421
 30
0.0
 10
-24.98361672290696
 20
2.885141125870859
 30
0.0
 10
-25.00418827572924
 20
2.881864926794605
 30
0.0
  0
SPLINE
  5
1A4
330
2
100
AcDbEntity
  8
GAIKEI
  6
Continuous
 62
     1
100
AcDbSpline
210
0.0
220
0.0
230
1.0
 70
     8
 71
     3
 72
    15
 73
    11
 74
     0
 42
0.0000000001
 43
0.0000000001
 40
0.0
 40
0.0
 40
0.0
 40
0.0
 40
0.1227082244156702
 40
0.2473672530328462
 40
0.3984378198592933
 40
0.5472594720713549
 40
0.7543838193444538
 40
0.9703632089961697
 40
1.269635814509253
 40
1.581724289342465
 40
1.581724289342465
 40
1.581724289342465
 40
1.581724289342465
 10
-22.24019409384891
 20
3.58992362689446
 30
0.0
 10
-22.24759805737472
 20
3.593469966027441
 30
0.0
 10
-22.26252369196584
 20
3.600619023670788
 30
0.0
 10
-22.28873233775312
 20
3.605991927993954
 30
0.0
 10
-22.31685857331058
 20
3.608953875401994
 30
0.0
 10
-22.35060825247831
 20
3.611192752872625
 30
0.0
 10
-22.38878365794403
 20
3.610809348526458
 30
0.0
 10
-22.43678606695323
 20
3.606619634455
 30
0.0
 10
-22.49124635041301
 20
3.596667905536264
 30
0.0
 10
-22.5298180158918
 20
3.583349812852134
 30
0.0
 10
-22.54950813460891
 20
3.576551173934603
 30
0.0
  0
SPLINE
  5
1A5
330
2
100
AcDbEntity
  8
GAIKEI
  6
Continuous
 62
     1
100
AcDbSpline
210
0.0
220
0.0
230
1.0
 70
     8
 71
     3
 72
    15
 73
    11
 74
     0
 42
0.0000000001
 43
0.0000000001
 40
0.0
 40
0.0
 40
0.0
 40
0.0
 40
0.1227082244042088
 40
0.247367253005155
 40
0.3984378197791825
 40
0.5472594719288528
 40
0.754383819161717
 40
0.9703632087843171
 40
1.269635814362826
 40
1.58172428928927
 40
1.58172428928927
 40
1.58172428928927
 40
1.58172428928927
 10
-28.24702300832905
 20
31.9847808798346
 30
0.0
 10
-28.24127847785371
 20
31.97891610645957
 30
0.0
 10
-28.22969809087977
 20
31.96709332207547
 30
0.0
 10
-28.20690766134783
 20
31.95308055874182
 30
0.0
 10
-28.18149069103288
 20
31.94067749949727
 30
0.0
 10
-28.15054210776827
 20
31.9270305727564
 30
0.0
 10
-28.11453782895581
 20
31.91433409734486
 30
0.0
 10
-28.06799735282675
 20
31.90185334991918
 30
0.0
 10
-28.01341773457455
 20
31.89257840218238
 30
0.0
 10
-27.97261716917319
 20
31.89190102905377
 30
0.0
 10
-27.95178923844878
 20
31.89155524265459
 30
0.0
  0
SPLINE
  5
1A6
330
2
100
AcDbEntity
  8
GAIKEI
  6
Continuous
 62
     1
100
AcDbSpline
210
0.0
220
0.0
230
1.0
 70
     8
 71
     3
 72
    15
 73
    11
 74
     0
 42
0.0000000001
 43
0.0000000001
 40
0.0
 40
0.0
 40
0.0
 40
0.0
 40
0.1227082244531848
 40
0.2473672531027047
 40
0.3984378199430267
 40
0.5472594721759592
 40
0.7543838194466656
 40
0.9703632090891257
 40
1.269635814524038
 40
1.581724289258343
 40
1.581724289258343
 40
1.581724289258343
 40
1.581724289258343
 10
-15.24304444846893
 20
25.0543091869946
 30
0.0
 10
-15.24525122596333
 20
25.04640189097973
 30
0.0
 10
-15.24969986410031
 20
25.030461589477
 30
0.0
 10
-15.25044005836344
 20
25.00371811686136
 30
0.0
 10
-15.24847293759876
 20
24.97550484524572
 30
0.0
 10
-15.24481723120618
 20
24.94187912254449
 30
0.0
 10
-15.23781056203734
 20
24.90435026473369
 30
0.0
 10
-15.22534896827756
 20
24.85780465640073
 30
0.0
 10
-15.20609149950132
 20
24.80589984662527
 30
0.0
 10
-15.18627783916861
 20
24.77022683394376
 30
0.0
 10
-15.17616333362889
 20
24.75201642363459
 30
0.0
  0
SPLINE
  5
1A7
330
2
100
AcDbEntity
  8
GAIKEI
  6
Continuous
 62
     1
100
AcDbSpline
210
0.0
220
0.0
230
1.0
 70
     8
 71
     3
 72
    15
 73
    11
 74
     0
 42
0.0000000001
 43
0.0000000001
 40
0.0
 40
0.0
 40
0.0
 40
0.0
 40
0.1227082244107098
 40
0.247367253025059
 40
0.3984378198634784
 40
0.5472594720977852
 40
0.7543838193701447
 40
0.9703632090080779
 40
1.269635814410757
 40
1.581724289110417
 40
1.581724289110417
 40
1.581724289110417
 40
1.581724289110417
 10
-16.78686255542868
 20
27.10715102215454
 30
0.0
 10
-16.78766271947665
 20
27.09898065284665
 30
0.0
 10
-16.7892757685081
 20
27.08251002244163
 30
0.0
 10
-16.78536076226976
 20
27.05604430988706
 30
0.0
 10
-16.77852434327963
 20
27.0286012482029
 30
0.0
 10
-16.76908512980844
 20
26.99612118254004
 30
0.0
 10
-16.75566808992005
 20
26.96037916773901
 30
0.0
 10
-16.7353132557148
 20
26.91670462482955
 30
0.0
 10
-16.70733517554129
 20
26.86893239010249
 30
0.0
 10
-16.68162797558671
 20
26.83724193665512
 30
0.0
 10
-16.66850492754884
 20
26.82106454885456
 30
0.0
  0
SPLINE
  5
1A8
330
2
100
AcDbEntity
  8
GAIKEI
  6
Continuous
 62
     1
100
AcDbSpline
210
0.0
220
0.0
230
1.0
 70
     8
 71
     3
 72
    15
 73
    11
 74
     0
 42
0.0000000001
 43
0.0000000001
 40
0.0
 40
0.0
 40
0.0
 40
0.0
 40
0.1227082244244142
 40
0.2473672530455544
 40
0.3984378198536859
 40
0.5472594720439334
 40
0.7543838192965873
 40
0.9703632089339532
 40
1.2696358144599
 40
1.581724289307288
 40
1.581724289307288
 40
1.581724289307288
 40
1.581724289307288
 10
-18.66369884012897
 20
28.86072437621465
 30
0.0
 10
-18.66306807814226
 20
28.85253918614569
 30
0.0
 10
-18.66179652637231
 20
28.83603867860029
 30
0.0
 10
-18.65334527511163
 20
28.81065487339015
 30
0.0
 10
-18.6418472790333
 20
28.78481586518296
 30
0.0
 10
-18.62691136421904
 20
28.75446834692127
 30
0.0
 10
-18.60749162358684
 20
28.72159917816293
 30
0.0
 10
-18.57986202026029
 20
28.68212272955668
 30
0.0
 10
-18.54401342847302
 20
28.63993460504355
 30
0.0
 10
-18.51319378914059
 20
28.61318960921062
 30
0.0
 10
-18.49746093576903
 20
28.59953678565466
 30
0.0
  0
SPLINE
  5
1A9
330
2
100
AcDbEntity
  8
GAIKEI
  6
Continuous
 62
     1
100
AcDbSpline
210
0.0
220
0.0
230
1.0
 70
     8
 71
     3
 72
    15
 73
    11
 74
     0
 42
0.0000000001
 43
0.0000000001
 40
0.0
 40
0.0
 40
0.0
 40
0.0
 40
0.1227082244372923
 40
0.2473672530701981
 40
0.3984378198860737
 40
0.5472594720906875
 40
0.7543838193651697
 40
0.9703632090169952
 40
1.269635814528206
 40
1.581724289358296
 40
1.581724289358296
 40
1.581724289358296
 40
1.581724289358296
 10
-20.81652658176893
 20
30.2617478101746
 30
0.0
 10
-20.81448405913318
 20
30.25379650220418
 30
0.0
 10
-20.81036654202251
 20
30.23776747709224
 30
0.0
 10
-20.79763583276122
 20
30.21423685328898
 30
0.0
 10
-20.78182562040763
 20
30.19078700372757
 30
0.0
 10
-20.76184682444421
 20
30.16349412685372
 30
0.0
 10
-20.73701444203232
 20
30.13449651720964
 30
0.0
 10
-20.70294958109969
 20
30.10041763482945
 30
0.0
 10
-20.66031971903624
 20
30.06509548535701
 30
0.0
 10
-20.62532407949402
 20
30.04410858030792
 30
0.0
 10
-20.60745945558892
 20
30.0333951551346
 30
0.0
  0
SPLINE
  5
1AA
330
2
100
AcDbEntity
  8
GAIKEI
  6
Continuous
 62
     1
100
AcDbSpline
210
0.0
220
0.0
230
1.0
 70
     8
 71
     3
 72
    15
 73
    11
 74
     0
 42
0.0000000001
 43
0.0000000001
 40
0.0
 40
0.0
 40
0.0
 40
0.0
 40
0.1227082244397624
 40
0.2473672530738194
 40
0.398437819880166
 40
0.5472594720742203
 40
0.7543838193087847
 40
0.9703632089198638
 40
1.26963581436512
 40
1.581724289121468
 40
1.581724289121468
 40
1.581724289121468
 40
1.581724289121468
 10
-23.17993319880895
 20
31.26765193589461
 30
0.0
 10
-23.17654097653826
 20
31.26017610649399
 30
0.0
 10
-23.16970260275571
 20
31.24510559763678
 30
0.0
 10
-23.15307925161983
 20
31.22414312135538
 30
0.0
 10
-23.13343720826924
 20
31.20379494227109
 30
0.0
 10
-23.10902257678959
 20
31.18038598702708
 30
0.0
 10
-23.07953207201035
 20
31.15614101417168
 30
0.0
 10
-23.0400669970436
 20
31.12849516761912
 30
0.0
 10
-22.99195115149576
 20
31.10111223883621
 30
0.0
 10
-22.95384283654744
 20
31.0865211010622
 30
0.0
 10
-22.93438924966927
 20
31.07907259627462
 30
0.0
  0
SPLINE
  5
1AB
330
2
100
AcDbEntity
  8
GAIKEI
  6
Continuous
 62
     1
100
AcDbSpline
210
0.0
220
0.0
230
1.0
 70
     8
 71
     3
 72
    15
 73
    11
 74
     0
 42
0.0000000001
 43
0.0000000001
 40
0.0
 40
0.0
 40
0.0
 40
0.0
 40
0.1227082244406543
 40
0.2473672530700977
 40
0.3984378198711424
 40
0.5472594720621226
 40
0.754383819316078
 40
0.9703632089517302
 40
1.269635814433625
 40
1.581724289221826
 40
1.581724289221826
 40
1.581724289221826
 40
1.581724289221826
 10
-25.68210777712898
 20
31.84787286557457
 30
0.0
 10
-25.67746892618777
 20
31.84109966403423
 30
0.0
 10
-25.66811747627514
 20
31.82744558121147
 30
0.0
 10
-25.64810657539386
 20
31.80968818667441
 30
0.0
 10
-25.6252295146021
 20
31.79305994718504
 30
0.0
 10
-25.59712087381149
 20
31.77424618283908
 30
0.0
 10
-25.56386830070528
 20
31.75549051801727
 30
0.0
 10
-25.52020213802575
 20
31.73511771234178
 30
0.0
 10
-25.46806228459957
 20
31.71650602066961
 30
0.0
 10
-25.42799919609536
 20
31.7087539945079
 30
0.0
 10
-25.40754773362892
 20
31.70479672915462
 30
0.0
  0
SPLINE
  5
1AC
330
2
100
AcDbEntity
  8
GAIKEI
  6
Continuous
 62
     1
100
AcDbSpline
210
0.0
220
0.0
230
1.0
 70
     8
 71
     3
 72
    15
 73
    11
 74
     0
 42
0.0000000001
 43
0.0000000001
 40
0.0
 40
0.0
 40
0.0
 40
0.0
 40
0.1227082244104679
 40
0.2473672530271767
 40
0.398437819873167
 40
0.5472594721166264
 40
0.7543838193930644
 40
0.9703632090310431
 40
1.269635814409576
 40
1.581724289080454
 40
1.581724289080454
 40
1.581724289080454
 40
1.581724289080454
 10
-17.8976165027691
 20
6.29763353111457
 30
0.0
 10
-17.90578687207698
 20
6.29843369516243
 30
0.0
 10
-17.92225750248212
 20
6.30004674419365
 30
0.0
 10
-17.94872321503749
 20
6.296131737956216
 30
0.0
 10
-17.97616627672289
 20
6.289295318965514
 30
0.0
 10
-18.00864634238428
 20
6.279856105483872
 30
0.0
 10
-18.04438835718201
 20
6.266439065584677
 30
0.0
 10
-18.08806290008942
 20
6.246084231378858
 30
0.0
 10
-18.13583513481603
 20
6.218106151212168
 30
0.0
 10
-18.1675255882667
 20
6.192398951267364
 30
0.0
 10
-18.18370297606861
 20
6.179275903234611
 30
0.0
  0
SPLINE
  5
1AD
330
2
100
AcDbEntity
  8
GAIKEI
  6
Continuous
 62
     1
100
AcDbSpline
210
0.0
220
0.0
230
1.0
 70
     8
 71
     3
 72
    15
 73
    11
 74
     0
 42
0.0000000001
 43
0.0000000001
 40
0.0
 40
0.0
 40
0.0
 40
0.0
 40
0.1227082244246102
 40
0.2473672530459701
 40
0.3984378198545939
 40
0.5472594720453241
 40
0.7543838192971853
 40
0.9703632089343882
 40
1.269635814459687
 40
1.581724289306718
 40
1.581724289306718
 40
1.581724289306718
 40
1.581724289306718
 10
-16.14404314870899
 20
8.174469815814518
 30
0.0
 10
-16.15222833877783
 20
8.173839053827919
 30
0.0
 10
-16.16872884632335
 20
8.172567502057972
 30
0.0
 10
-16.19411265153348
 20
8.164116250797064
 30
0.0
 10
-16.21995165974067
 20
8.152618254718845
 30
0.0
 10
-16.25029917800248
 20
8.137682339904472
 30
0.0
 10
-16.2831683467607
 20
8.11826259927227
 30
0.0
 10
-16.32264479536707
 20
8.090632995945838
 30
0.0
 10
-16.36483291987997
 20
8.054784404158681
 30
0.0
 10
-16.39157791571278
 20
8.023964764826132
 30
0.0
 10
-16.40523073926874
 20
8.008231911454572
 30
0.0
  0
SPLINE
  5
1AE
330
2
100
AcDbEntity
  8
GAIKEI
  6
Continuous
 62
     1
100
AcDbSpline
210
0.0
220
0.0
230
1.0
 70
     8
 71
     3
 72
    15
 73
    11
 74
     0
 42
0.0000000001
 43
0.0000000001
 40
0.0
 40
0.0
 40
0.0
 40
0.0
 40
0.1248284686289478
 40
0.2513158232244195
 40
0.4026414638240037
 40
0.5516070396452346
 40
0.7577245576842826
 40
0.9727044686829183
 40
1.270260783659069
 40
1.580592406188852
 40
1.580592406188852
 40
1.580592406188852
 40
1.580592406188852
 10
-40.25071338308896
 20
9.461398620394561
 30
0.0
 10
-40.24858501136145
 20
9.469470911762755
 30
0.0
 10
-40.24429998328469
 20
9.485722769794506
 30
0.0
 10
-40.24358986423385
 20
9.512731450462638
 30
0.0
 10
-40.24554996736583
 20
9.541099441708183
 30
0.0
 10
-40.24930261753673
 20
9.57467371428072
 30
0.0
 10
-40.25640461099181
 20
9.612057150601799
 30
0.0
 10
-40.26887027096063
 20
9.658342967517114
 30
0.0
 10
-40.28806350906473
 20
9.709950513886042
 30
0.0
 10
-40.30777190896947
 20
9.745416426701126
 30
0.0
 10
-40.31783320372892
 20
9.76352205701437
 30
0.0
  0
SPLINE
  5
1AF
330
2
100
AcDbEntity
  8
GAIKEI
  6
Continuous
 62
     1
100
AcDbSpline
210
0.0
220
0.0
230
1.0
 70
     8
 71
     3
 72
    15
 73
    11
 74
     0
 42
0.0000000001
 43
0.0000000001
 40
0.0
 40
0.0
 40
0.0
 40
0.0
 40
0.1227082244498267
 40
0.2473672530939348
 40
0.3984378199059385
 40
0.547259472098558
 40
0.7543838193486888
 40
0.9703632089826774
 40
1.26963581450539
 40
1.581724289357151
 40
1.581724289357151
 40
1.581724289357151
 40
1.581724289357151
 10
-40.75097683448894
 20
10.32729755743457
 30
0.0
 10
-40.7430255265175
 20
10.32525503479905
 30
0.0
 10
-40.7269965014035
 20
10.32113751768884
 30
0.0
 10
-40.70346587760423
 20
10.30840680841606
 30
0.0
 10
-40.68001602804963
 20
10.29259659605372
 30
0.0
 10
-40.6527231511734
 20
10.27261780009826
 30
0.0
 10
-40.62372554152296
 20
10.24778541769933
 30
0.0
 10
-40.58964665913697
 20
10.21372055677511
 30
0.0
 10
-40.55432450966043
 20
10.17109069471291
 30
0.0
 10
-40.53333760461874
 20
10.13609505516331
 30
0.0
 10
-40.52262417944894
 20
10.11823043125446
 30
0.0
  0
SPLINE
  5
1B0
330
2
100
AcDbEntity
  8
GAIKEI
  6
Continuous
 62
     1
100
AcDbSpline
210
0.0
220
0.0
230
1.0
 70
     8
 71
     3
 72
    11
 73
     7
 74
     0
 42
0.0000000001
 43
0.0000000001
 40
0.0
 40
0.0
 40
0.0
 40
0.0
 40
0.3831329129342986
 40
0.7237502701298946
 40
0.8518217991485531
 40
0.9373835980329959
 40
0.9373835980329959
 40
0.9373835980329959
 40
0.9373835980329959
 10
-14.46183208748891
 20
23.63277702217465
 30
0.0
 10
-14.44307187383344
 20
23.65011098933996
 30
0.0
 10
-14.40763323297938
 20
23.68285540516774
 30
0.0
 10
-14.36549963674224
 20
23.72093141216328
 30
0.0
 10
-14.33795030097212
 20
23.74555534818183
 30
0.0
 10
-14.32735608090229
 20
23.75507394079761
 30
0.0
 10
-14.32311301388722
 20
23.7588862107043
 30
0.0
  0
SPLINE
  5
1B1
330
2
100
AcDbEntity
  8
GAIKEI
  6
Continuous
 62
     1
100
AcDbSpline
210
0.0
220
0.0
230
1.0
 70
    24
 71
     3
 72
    11
 73
     7
 74
     0
 42
0.0000000001
 43
0.0000000001
 40
0.0
 40
0.0
 40
0.0
 40
0.0
 40
0.1585761240814427
 40
0.3638378948680098
 40
0.8025278991817971
 40
1.287903550200641
 40
1.287903550200641
 40
1.287903550200641
 40
1.287903550200641
 10
-14.03475251250006
 20
23.66170377195431
 30
0.0
 10
-14.04260922119192
 20
23.65463031105446
 30
0.0
 10
-14.06063569502328
 20
23.63840092508485
 30
0.0
 10
-14.10039721623343
 20
23.60260329319863
 30
0.0
 10
-14.15635013257793
 20
23.55222841212515
 30
0.0
 10
-14.2021332837827
 20
23.51100945612131
 30
0.0
 10
-14.2261813876089
 20
23.48935874603455
 30
0.0
  0
SPLINE
  5
1B2
330
2
100
AcDbEntity
  8
GAIKEI
  6
Continuous
 62
     1
100
AcDbSpline
210
0.0
220
0.0
230
1.0
 70
     8
 71
     3
 72
    15
 73
    11
 74
     0
 42
0.0000000001
 43
0.0000000001
 40
0.0
 40
0.0
 40
0.0
 40
0.0
 40
0.1424233484781329
 40
0.2854078159854545
 40
0.407066003405783
 40
0.5264962071067878
 40
0.6122841456304461
 40
0.6950671527260271
 40
0.7547351638645634
 40
0.8136137687527497
 40
0.8136137687527497
 40
0.8136137687527497
 40
0.8136137687527497
 10
-14.0658450795554
 20
23.8104636112896
 30
0.0
 10
-14.07487042697858
 20
23.81341264542346
 30
0.0
 10
-14.09295667985827
 20
23.81932233228588
 30
0.0
 10
-14.11881904449683
 20
23.82754441836619
 30
0.0
 10
-14.14332311058536
 20
23.83497933851231
 30
0.0
 10
-14.16430334773815
 20
23.84086486334616
 30
0.0
 10
-14.18290861888226
 20
23.84565266326285
 30
0.0
 10
-14.19755132804039
 20
23.84966913869175
 30
0.0
 10
-14.21089127921721
 20
23.85205981034335
 30
0.0
 10
-14.21877920952374
 20
23.85109613095881
 30
0.0
 10
-14.22269691166889
 20
23.85061749985459
 30
0.0
  0
SPLINE
  5
1B3
330
2
100
AcDbEntity
  8
GAIKEI
  6
Continuous
 62
     1
100
AcDbSpline
210
0.0
220
0.0
230
1.0
 70
     8
 71
     3
 72
    11
 73
     7
 74
     0
 42
0.0000000001
 43
0.0000000001
 40
0.0
 40
0.0
 40
0.0
 40
0.0
 40
0.0379121620484492
 40
0.1246872467553068
 40
0.4557741510420278
 40
0.8357305116115208
 40
0.8357305116115208
 40
0.8357305116115208
 40
0.8357305116115208
 10
-28.83300962231033
 20
32.11386147262897
 30
0.0
 10
-28.83352831082414
 20
32.11138778995746
 30
0.0
 10
-28.83523419725225
 20
32.10325222962558
 30
0.0
 10
-28.8414459156852
 20
32.07350902678832
 30
0.0
 10
-28.8526214721021
 20
32.02150728026743
 30
0.0
 10
-28.86307610338645
 20
31.97527137794475
 30
0.0
 10
-28.86866268840913
 20
31.95056454779456
 30
0.0
  0
SPLINE
  5
1B4
330
2
100
AcDbEntity
  8
GAIKEI
  6
Continuous
 62
     1
100
AcDbSpline
210
0.0
220
0.0
230
1.0
 70
     8
 71
     3
 72
     9
 73
     5
 74
     0
 42
0.0000000001
 43
0.0000000001
 40
0.0
 40
0.0
 40
0.0
 40
0.0
 40
0.392292888862603
 40
0.7845800355433746
 40
0.7845800355433746
 40
0.7845800355433746
 40
0.7845800355433746
 10
-39.91050004794875
 20
25.57555677591461
 30
0.0
 10
-39.93547183727537
 20
25.58332834594853
 30
0.0
 10
-39.98541505040476
 20
25.59887137226042
 30
0.0
 10
-40.0351555519428
 20
25.61505138184771
 30
0.0
 10
-40.0600256206917
 20
25.62314132743222
 30
0.0
  0
SPLINE
  5
1B5
330
2
100
AcDbEntity
  8
GAIKEI
  6
Continuous
 62
     1
100
AcDbSpline
210
0.0
220
0.0
230
1.0
 70
    24
 71
     3
 72
    11
 73
     7
 74
     0
 42
0.0000000001
 43
0.0000000001
 40
0.0
 40
0.0
 40
0.0
 40
0.0
 40
0.1585761241943165
 40
0.3638378950812532
 40
0.8025278994304898
 40
1.287903550472553
 40
1.287903550472553
 40
1.287903550472553
 40
1.287903550472553
 10
-40.14909113564158
 20
25.93095516240158
 30
0.0
 10
-40.13903698445619
 20
25.92768778353275
 30
0.0
 10
-40.11596868698882
 20
25.92019109223656
 30
0.0
 10
-40.06508626775712
 20
25.90365542071948
 30
0.0
 10
-39.99348388285091
 20
25.88038621428803
 30
0.0
 10
-39.93489564422839
 20
25.8613463202787
 30
0.0
 10
-39.90412152736894
 20
25.8513454064946
 30
0.0
  0
SPLINE
  5
1B6
330
2
100
AcDbEntity
  8
GAIKEI
  6
Continuous
 62
     1
100
AcDbSpline
210
0.0
220
0.0
230
1.0
 70
     8
 71
     3
 72
     9
 73
     5
 74
     0
 42
0.0000000001
 43
0.0000000001
 40
0.0
 40
0.0
 40
0.0
 40
0.0
 40
0.3843165142345518
 40
0.7686390949903681
 40
0.7686390949903681
 40
0.7686390949903681
 40
0.7686390949903681
 10
-40.05699571114803
 20
8.893389328497733
 30
0.0
 10
-40.03262857275444
 20
8.901307514667223
 30
0.0
 10
-39.98389391132673
 20
8.917144011996469
 30
0.0
 10
-39.93496479779981
 20
8.932369113726963
 30
0.0
 10
-39.91050004794875
 20
8.939981724674566
 30
0.0
  0
SPLINE
  5
1B7
330
2
100
AcDbEntity
  8
GAIKEI
  6
Continuous
 62
     1
100
AcDbSpline
210
0.0
220
0.0
230
1.0
 70
    24
 71
     3
 72
    11
 73
     7
 74
     0
 42
0.0000000001
 43
0.0000000001
 40
0.0
 40
0.0
 40
0.0
 40
0.0
 40
0.1585761241652799
 40
0.3638378950236841
 40
0.80252789934366
 40
1.287903550355927
 40
1.287903550355927
 40
1.287903550355927
 40
1.287903550355927
 10
-29.05715117573436
 20
2.180648816521966
 30
0.0
 10
-29.05934861822175
 20
2.190989656294732
 30
0.0
 10
-29.06439044184572
 20
2.214715733568255
 30
0.0
 10
-29.07551133985192
 20
2.267049036983053
 30
0.0
 10
-29.09116080840295
 20
2.340693124494578
 30
0.0
 10
-29.10396589581728
 20
2.400951974505119
 30
0.0
 10
-29.11069190884905
 20
2.432603598374498
 30
0.0
  0
SPLINE
  5
1B8
330
2
100
AcDbEntity
  8
GAIKEI
  6
Continuous
 62
     1
100
AcDbSpline
210
0.0
220
0.0
230
1.0
 70
     8
 71
     3
 72
    13
 73
     9
 74
     0
 42
0.0000000001
 43
0.0000000001
 40
0.0
 40
0.0
 40
0.0
 40
0.0
 40
0.3201335363354889
 40
0.6248483064895645
 40
0.9907256038900731
 40
1.374209828726064
 40
1.913698725005358
 40
2.48721270749008
 40
2.48721270749008
 40
2.48721270749008
 40
2.48721270749008
 10
10.46762261569131
 20
19.05220827108519
 30
0.0
 10
10.48001341816598
 20
19.03478046357713
 30
0.0
 10
10.50419823813479
 20
19.00076423356279
 30
0.0
 10
10.53207195534946
 20
18.94054045120663
 30
0.0
 10
10.55400230848715
 20
18.8737051090784
 30
0.0
 10
10.57481577652834
 20
18.79028087711686
 30
0.0
 10
10.58984854668722
 20
18.69134603902989
 30
0.0
 10
10.59133522964862
 20
18.61709853286072
 30
0.0
 10
10.59210129547125
 20
18.5788398870252
 30
0.0
  0
SPLINE
  5
1B9
330
2
100
AcDbEntity
  8
GAIKEI
  6
Continuous
 62
     1
100
AcDbSpline
210
0.0
220
0.0
230
1.0
 70
     8
 71
     3
 72
     9
 73
     5
 74
     0
 42
0.0000000001
 43
0.0000000001
 40
0.0
 40
0.0
 40
0.0
 40
0.0
 40
4.537355744261627
 40
9.087729449561578
 40
9.087729449561578
 40
9.087729449561578
 40
9.087729449561578
 10
10.69653556303137
 20
23.22294225158521
 30
0.0
 10
10.52439616890296
 20
22.97353604605587
 30
0.0
 10
10.17962350182063
 20
22.47400807279541
 30
0.0
 10
9.920141302152728
 20
21.925309609117
 30
0.0
 10
9.790214351211261
 20
21.65056737838518
 30
0.0
  0
SPLINE
  5
1BA
330
2
100
AcDbEntity
  8
GAIKEI
  6
Continuous
 62
     1
100
AcDbSpline
210
0.0
220
0.0
230
1.0
 70
     8
 71
     3
 72
    15
 73
    11
 74
     0
 42
0.0000000001
 43
0.0000000001
 40
0.0
 40
0.0
 40
0.0
 40
0.0
 40
0.4788429039206062
 40
0.9350594425382594
 40
1.258810421777175
 40
1.567504628608002
 40
1.7997504738104
 40
2.038909401876816
 40
2.258626016204788
 40
2.477899907592359
 40
2.477899907592359
 40
2.477899907592359
 40
2.477899907592359
 10
10.59211080649117
 20
15.93570797118514
 30
0.0
 10
10.59151013753569
 20
15.90377273237504
 30
0.0
 10
10.59033718253499
 20
15.84141126402164
 30
0.0
 10
10.57981468043533
 20
15.75798543867745
 30
0.0
 10
10.56555744063667
 20
15.68679779412559
 30
0.0
 10
10.55089260312525
 20
15.63099220586048
 30
0.0
 10
10.53379745114171
 20
15.58182215175589
 30
0.0
 10
10.51538568932244
 20
15.53955520454076
 30
0.0
 10
10.49406339110078
 20
15.49955178096229
 30
0.0
 10
10.47679104758822
 20
15.47588576292628
 30
0.0
 10
10.46816358543117
 20
15.46406468752525
 30
0.0
  0
SPLINE
  5
1BB
330
2
100
AcDbEntity
  8
GAIKEI
  6
Continuous
 62
     1
100
AcDbSpline
210
0.0
220
0.0
230
1.0
 70
     8
 71
     3
 72
    13
 73
     9
 74
     0
 42
0.0000000001
 43
0.0000000001
 40
0.0
 40
0.0
 40
0.0
 40
0.0
 40
0.2956623459598473
 40
0.5755467901604328
 40
0.7844376721868534
 40
0.9852828555573788
 40
1.149316248446884
 40
1.317244106504773
 40
1.317244106504773
 40
1.317244106504773
 40
1.317244106504773
 10
17.62557056421121
 20
10.18509123490526
 30
0.0
 10
17.64533401955645
 20
10.18341248210117
 30
0.0
 10
17.68380626142902
 20
10.18014456245885
 30
0.0
 10
17.73229737073859
 20
10.15809698242265
 30
0.0
 10
17.76924563643342
 20
10.13043246575068
 30
0.0
 10
17.79517453745302
 20
10.10199639141399
 30
0.0
 10
17.81373505995168
 20
10.07129560068949
 30
0.0
 10
17.81994088664134
 20
10.04996671236028
 30
0.0
 10
17.82308020239134
 20
10.03917715628517
 30
0.0
  0
SPLINE
  5
1BC
330
2
100
AcDbEntity
  8
GAIKEI
  6
Continuous
 62
     1
100
AcDbSpline
210
0.0
220
0.0
230
1.0
 70
    24
 71
     3
 72
     9
 73
     5
 74
     0
 42
0.0000000001
 43
0.0000000001
 40
0.0
 40
0.0
 40
0.0
 40
0.0
 40
0.0886894765498135
 40
0.1773789531000216
 40
0.1773789531000216
 40
0.1773789531000216
 40
0.1773789531000216
 10
17.82308020239134
 20
10.03917715628517
 30
0.0
 10
17.82376400901796
 20
10.03330419936856
 30
0.0
 10
17.82513162227121
 20
10.02155828553521
 30
0.0
 10
17.82649923552458
 20
10.00981237170185
 30
0.0
 10
17.82718304215132
 20
10.00393941478523
 30
0.0
  0
SPLINE
  5
1BD
330
2
100
AcDbEntity
  8
GAIKEI
  6
Continuous
 62
     1
100
AcDbSpline
210
0.0
220
0.0
230
1.0
 70
     8
 71
     3
 72
    11
 73
     7
 74
     0
 42
0.0000000001
 43
0.0000000001
 40
0.0
 40
0.0
 40
0.0
 40
0.0
 40
0.2855955058423672
 40
0.5631024204575811
 40
0.8017630726622794
 40
1.033629726072099
 40
1.033629726072099
 40
1.033629726072099
 40
1.033629726072099
 10
17.62557056877131
 20
4.507488032185165
 30
0.0
 10
17.64459667309177
 20
4.505965870270301
 30
0.0
 10
17.68211002738349
 20
4.502964656872336
 30
0.0
 10
17.7337071618964
 20
4.488098111702242
 30
0.0
 10
17.77925810101101
 20
4.466188947637988
 30
0.0
 10
17.80171619378052
 20
4.444002559665818
 30
0.0
 10
17.81278310265122
 20
4.43306954160505
 30
0.0
  0
SPLINE
  5
1BE
330
2
100
AcDbEntity
  8
GAIKEI
  6
Continuous
 62
     1
100
AcDbSpline
210
0.0
220
0.0
230
1.0
 70
    24
 71
     3
 72
     9
 73
     5
 74
     0
 42
0.0000000001
 43
0.0000000001
 40
0.0
 40
0.0
 40
0.0
 40
0.0
 40
0.1047601790116074
 40
0.2095203580231373
 40
0.2095203580231373
 40
0.2095203580231373
 40
0.2095203580231373
 10
17.81278310265122
 20
4.43306954160505
 30
0.0
 10
17.81518309256785
 20
4.426510847291751
 30
0.0
 10
17.81998307240121
 20
4.413393458665154
 30
0.0
 10
17.82478305223458
 20
4.400276070038444
 30
0.0
 10
17.82718304215132
 20
4.393717375725145
 30
0.0
  0
SPLINE
  5
1BF
330
2
100
AcDbEntity
  8
GAIKEI
  6
Continuous
 62
     1
100
AcDbSpline
210
0.0
220
0.0
230
1.0
 70
     8
 71
     3
 72
    11
 73
     7
 74
     0
 42
0.0000000001
 43
0.0000000001
 40
0.0
 40
0.0
 40
0.0
 40
0.0
 40
0.2908054036555268
 40
0.5746424199937856
 40
0.828717896292964
 40
1.078416424102843
 40
1.078416424102843
 40
1.078416424102843
 40
1.078416424102843
 10
17.62557056413141
 20
6.079745791465256
 30
0.0
 10
17.64496461269141
 20
6.078091127331617
 30
0.0
 10
17.68328798240168
 20
6.074821448742227
 30
0.0
 10
17.73573069807708
 20
6.056040926637933
 30
0.0
 10
17.78144364493028
 20
6.028503281170742
 30
0.0
 10
17.80239730074902
 20
6.001930168152853
 30
0.0
 10
17.81278310265122
 20
5.988759049465215
 30
0.0
  0
SPLINE
  5
1C0
330
2
100
AcDbEntity
  8
GAIKEI
  6
Continuous
 62
     1
100
AcDbSpline
210
0.0
220
0.0
230
1.0
 70
    24
 71
     3
 72
     9
 73
     5
 74
     0
 42
0.0000000001
 43
0.0000000001
 40
0.0
 40
0.0
 40
0.0
 40
0.0
 40
0.1294810396104372
 40
0.2589620792206798
 40
0.2589620792206798
 40
0.2589620792206798
 40
0.2589620792206798
 10
17.81278310265122
 20
5.988759049465215
 30
0.0
 10
17.81518309256785
 20
5.980467326548478
 30
0.0
 10
17.81998307240121
 20
5.963883880715229
 30
0.0
 10
17.82478305223458
 20
5.947300434881867
 30
0.0
 10
17.82718304215132
 20
5.939008711965129
 30
0.0
  0
SPLINE
  5
1C1
330
2
100
AcDbEntity
  8
GAIKEI
  6
Continuous
 62
     1
100
AcDbSpline
210
0.0
220
0.0
230
1.0
 70
     8
 71
     3
 72
    13
 73
     9
 74
     0
 42
0.0000000001
 43
0.0000000001
 40
0.0
 40
0.0
 40
0.0
 40
0.0
 40
0.2932762646721259
 40
0.5737176423942929
 40
0.7683441817265157
 40
0.9518817155804669
 40
1.075833609245531
 40
1.197938055603964
 40
1.197938055603964
 40
1.197938055603964
 40
1.197938055603964
 10
17.62557056425123
 20
7.991644214325219
 30
0.0
 10
17.64514913885307
 20
7.989974761261578
 30
0.0
 10
17.68344945502281
 20
7.986708916762268
 30
0.0
 10
17.7314931325518
 20
7.966800231245088
 30
0.0
 10
17.76820473912948
 20
7.942429252043098
 30
0.0
 10
17.79227486535751
 20
7.918870858061154
 30
0.0
 10
17.80912296012309
 20
7.895478186504305
 30
0.0
 10
17.81563257316338
 20
7.88037471351447
 30
0.0
 10
17.81886294185142
 20
7.87287967718521
 30
0.0
  0
SPLINE
  5
1C2
330
2
100
AcDbEntity
  8
GAIKEI
  6
Continuous
 62
     1
100
AcDbSpline
210
0.0
220
0.0
230
1.0
 70
    24
 71
     3
 72
     9
 73
     5
 74
     0
 42
0.0000000001
 43
0.0000000001
 40
0.0
 40
0.0
 40
0.0
 40
0.0
 40
0.1135777386020416
 40
0.2271554772045667
 40
0.2271554772045667
 40
0.2271554772045667
 40
0.2271554772045667
 10
17.81886294185142
 20
7.87287967718521
 30
0.0
 10
17.82024962523474
 20
7.865435887148578
 30
0.0
 10
17.82302299200137
 20
7.8505483070752
 30
0.0
 10
17.825796358768
 20
7.835660727001823
 30
0.0
 10
17.82718304215132
 20
7.828216936965191
 30
0.0
  0
SPLINE
  5
1C3
330
2
100
AcDbEntity
  8
GAIKEI
  6
Continuous
 62
     1
100
AcDbSpline
210
0.0
220
0.0
230
1.0
 70
     8
 71
     3
 72
    15
 73
    11
 74
     0
 42
0.0000000001
 43
0.0000000001
 40
0.0
 40
0.0
 40
0.0
 40
0.0
 40
0.4629449546465274
 40
0.902169214036397
 40
1.183628102364668
 40
1.448430223708485
 40
1.603989114509507
 40
1.761660870000199
 40
1.869949848543787
 40
1.974014436986273
 40
1.974014436986273
 40
1.974014436986273
 40
1.974014436986273
 10
12.19469744481125
 20
31.98455785940519
 30
0.0
 10
12.16391038259849
 20
31.9821120801164
 30
0.0
 10
12.10391374705841
 20
31.97734584007753
 30
0.0
 10
12.02631357393454
 20
31.96215127268704
 30
0.0
 10
11.96277444091708
 20
31.94542009406473
 30
0.0
 10
11.9180259298887
 20
31.93169254448685
 30
0.0
 10
11.88168456885285
 20
31.91884949987912
 30
0.0
 10
11.85556089583929
 20
31.9084835628928
 30
0.0
 10
11.83273531536952
 20
31.89912768615318
 30
0.0
 10
11.8195308389395
 20
31.8940216012536
 30
0.0
 10
11.81305994031117
 20
31.8915193469652
 30
0.0
  0
SPLINE
  5
1C4
330
2
100
AcDbEntity
  8
GAIKEI
  6
Continuous
 62
     1
100
AcDbSpline
210
0.0
220
0.0
230
1.0
 70
     8
 71
     3
 72
    11
 73
     7
 74
     0
 42
0.0000000001
 43
0.0000000001
 40
0.0
 40
0.0
 40
0.0
 40
0.0
 40
0.4629309929119411
 40
0.9089960773035999
 40
1.272167099669855
 40
1.618791011268803
 40
1.618791011268803
 40
1.618791011268803
 40
1.618791011268803
 10
12.19469744481125
 20
31.67400220872514
 30
0.0
 10
12.16390102593345
 20
31.67183753390441
 30
0.0
 10
12.10343019035861
 20
31.66758704959693
 30
0.0
 10
12.01945903552973
 20
31.65523233867361
 30
0.0
 10
11.94360815921482
 20
31.64167983398897
 30
0.0
 10
11.89708816189568
 20
31.63301269107683
 30
0.0
 10
11.87437041249131
 20
31.62878014610522
 30
0.0
  0
SPLINE
  5
1C5
330
2
100
AcDbEntity
  8
GAIKEI
  6
Continuous
 62
     1
100
AcDbSpline
210
0.0
220
0.0
230
1.0
 70
    24
 71
     3
 72
     9
 73
     5
 74
     0
 42
0.0000000001
 43
0.0000000001
 40
0.0
 40
0.0
 40
0.0
 40
0.0
 40
0.0878323413579823
 40
0.1756646827154801
 40
0.1756646827154801
 40
0.1756646827154801
 40
0.1756646827154801
 10
11.87437041249131
 20
31.62878014610522
 30
0.0
 10
11.86858576774466
 20
31.62787204834183
 30
0.0
 10
11.85701647825135
 20
31.62605585281517
 30
0.0
 10
11.84544718875804
 20
31.62423965728851
 30
0.0
 10
11.83966254401139
 20
31.62333155952524
 30
0.0
  0
SPLINE
  5
1C6
330
2
100
AcDbEntity
  8
GAIKEI
  6
Continuous
 62
     1
100
AcDbSpline
210
0.0
220
0.0
230
1.0
 70
     8
 71
     3
 72
    11
 73
     7
 74
     0
 42
0.0000000001
 43
0.0000000001
 40
0.0
 40
0.0
 40
0.0
 40
0.0
 40
0.4525187475208811
 40
0.8723906580508892
 40
1.128968467891085
 40
1.352863559911243
 40
1.352863559911243
 40
1.352863559911243
 40
1.352863559911243
 10
12.19469744481125
 20
30.92541869192519
 30
0.0
 10
12.16457919375034
 20
30.9236529729244
 30
0.0
 10
12.10651556432845
 20
30.92024892222037
 30
0.0
 10
12.03153971459403
 20
30.91363403962282
 30
0.0
 10
11.97176322799714
 20
30.90809805770437
 30
0.0
 10
11.93976687538065
 20
30.9065202684011
 30
0.0
 10
11.92485692669129
 20
30.90578503592519
 30
0.0
  0
SPLINE
  5
1C7
330
2
100
AcDbEntity
  8
GAIKEI
  6
Continuous
 62
     1
100
AcDbSpline
210
0.0
220
0.0
230
1.0
 70
     8
 71
     3
 72
    15
 73
    11
 74
     0
 42
0.0000000001
 43
0.0000000001
 40
0.0
 40
0.0
 40
0.0
 40
0.0
 40
1.092082401319921
 40
2.142238032343444
 40
2.969864302321843
 40
3.758463868145222
 40
4.505517220456394
 40
5.286382520827474
 40
6.208770536783325
 40
7.163006302364133
 40
7.163006302364133
 40
7.163006302364133
 40
7.163006302364133
 10
9.559008985951209
 20
20.24519531852525
 30
0.0
 10
9.559964972349007
 20
20.31800567697769
 30
0.0
 10
9.561840243315259
 20
20.46083108908669
 30
0.0
 10
9.575237235049598
 20
20.6584651311498
 30
0.0
 10
9.593520677163382
 20
20.83529505373463
 30
0.0
 10
9.614234225641666
 20
20.99151448341865
 30
0.0
 10
9.640812665784892
 20
21.14369020245704
 30
0.0
 10
9.674716440447809
 20
21.30349879651783
 30
0.0
 10
9.72132045412934
 20
21.47473323906115
 30
0.0
 10
9.767037906508562
 20
21.59127641210194
 30
0.0
 10
9.790284562871306
 20
21.65053691228513
 30
0.0
  0
SPLINE
  5
1C8
330
2
100
AcDbEntity
  8
GAIKEI
  6
Continuous
100
AcDbSpline
210
0.0
220
0.0
230
1.0
 70
     8
 71
     3
 72
     9
 73
     5
 74
     0
 42
0.0000000001
 43
0.0000000001
 40
0.0
 40
0.0
 40
0.0
 40
0.0
 40
1.823275714418712
 40
3.645520984239
 40
3.645520984239
 40
3.645520984239
 40
3.645520984239
 10
11.28283622133131
 20
2.432724840905166
 30
0.0
 10
11.15877376468791
 20
2.458035714635798
 30
0.0
 10
10.91071896668154
 20
2.508643157374649
 30
0.0
 10
10.76791657603871
 20
2.717679911589243
 30
0.0
 10
10.69653556301136
 20
2.822168745485214
 30
0.0
  0
SPLINE
  5
1C9
330
2
100
AcDbEntity
  8
GAIKEI
  6
Continuous
100
AcDbSpline
210
0.0
220
0.0
230
1.0
 70
     8
 71
     3
 72
    11
 73
     7
 74
     0
 42
0.0000000001
 43
0.0000000001
 40
0.0
 40
0.0
 40
0.0
 40
0.0
 40
9.280760154179692
 40
18.53401034254124
 40
27.64971070181272
 40
36.73790109527054
 40
36.73790109527054
 40
36.73790109527054
 40
36.73790109527054
 10
11.28286453131113
 20
32.08300327178517
 30
0.0
 10
11.90069452260411
 20
32.11612808341249
 30
0.0
 10
13.13452313775224
 20
32.18227951832683
 30
0.0
 10
14.97519359329988
 20
32.28096563263648
 30
0.0
 10
16.80304441439261
 20
32.37896559231649
 30
0.0
 10
18.01489645374693
 20
32.44394187338708
 30
0.0
 10
18.61990678983136
 20
32.47638091740521
 30
0.0
  0
SPLINE
  5
1CA
330
2
100
AcDbEntity
  8
GAIKEI
  6
Continuous
100
AcDbSpline
210
0.0
220
0.0
230
1.0
 70
     8
 71
     3
 72
    13
 73
     9
 74
     0
 42
0.0000000001
 43
0.0000000001
 40
0.0
 40
0.0
 40
0.0
 40
0.0
 40
0.6558383662471881
 40
1.265500578464282
 40
1.812321980442558
 40
2.361188261862806
 40
2.998438843222983
 40
3.68433324685094
 40
3.68433324685094
 40
3.68433324685094
 40
3.68433324685094
 10
11.28283622133131
 20
32.08295039878521
 30
0.0
 10
11.23919064455162
 20
32.07854831691907
 30
0.0
 10
11.15497248119811
 20
32.07005409420401
 30
0.0
 10
11.04031555110577
 20
32.02832532453295
 30
0.0
 10
10.94146565710889
 20
31.97162587949583
 30
0.0
 10
10.84864791852135
 20
31.90240361055362
 30
0.0
 10
10.76194358686371
 20
31.81089556957341
 30
0.0
 10
10.7188661344112
 20
31.73358361281464
 30
0.0
 10
10.69653556301136
 20
31.69350649422518
 30
0.0
  0
SPLINE
  5
1CB
330
2
100
AcDbEntity
  8
GAIKEI
  6
Continuous
100
AcDbSpline
210
0.0
220
0.0
230
1.0
 70
     8
 71
     3
 72
    15
 73
    11
 74
     0
 42
0.0000000001
 43
0.0000000001
 40
0.0
 40
0.0
 40
0.0
 40
0.0
 40
0.3571469281982953
 40
0.7130303148316868
 40
1.063773282522623
 40
1.382864323063452
 40
1.867172217634571
 40
2.404019821508069
 40
3.361022870134513
 40
4.401136935860468
 40
4.401136935860468
 40
4.401136935860468
 40
4.401136935860468
 10
9.582956742191186
 20
28.53995790990519
 30
0.0
 10
9.587055945543852
 20
28.56341274994475
 30
0.0
 10
9.59523984977568
 20
28.61023944970702
 30
0.0
 10
9.608874873914032
 20
28.67983866154089
 30
0.0
 10
9.622759333681642
 20
28.74679624868168
 30
0.0
 10
9.639263033442034
 20
28.82195028797525
 30
0.0
 10
9.65966186849937
 20
28.90894294711575
 30
0.0
 10
9.690749456242883
 20
29.03710363096673
 30
0.0
 10
9.733390636200965
 20
29.20059009812042
 30
0.0
 10
9.770748492054508
 20
29.32838872705975
 30
0.0
 10
9.790204752811291
 20
29.39494724312522
 30
0.0
  0
SPLINE
  5
1CC
330
2
100
AcDbEntity
  8
GAIKEI
  6
Continuous
100
AcDbSpline
210
0.0
220
0.0
230
1.0
 70
     8
 71
     3
 72
     9
 73
     5
 74
     0
 42
0.0000000001
 43
0.0000000001
 40
0.0
 40
0.0
 40
0.0
 40
0.0
 40
6.176975950152323
 40
12.36562962515099
 40
12.36562962515099
 40
12.36562962515099
 40
12.36562962515099
 10
9.790204737471185
 20
29.39494718956519
 30
0.0
 10
9.916146999154079
 20
29.78752329663485
 30
0.0
 10
10.16826961946083
 20
30.57341768555284
 30
0.0
 10
10.52033608820306
 20
31.31990857023209
 30
0.0
 10
10.69653556301136
 20
31.69350649422518
 30
0.0
  0
SPLINE
  5
1CD
330
2
100
AcDbEntity
  8
GAIKEI
  6
Continuous
 62
     1
100
AcDbSpline
210
0.0
220
0.0
230
1.0
 70
     8
 71
     3
 72
    11
 73
     7
 74
     0
 42
0.0000000001
 43
0.0000000001
 40
0.0
 40
0.0
 40
0.0
 40
0.0
 40
0.3513725367879269
 40
0.7838266299572063
 40
1.634263687890103
 40
2.589270990717575
 40
2.589270990717575
 40
2.589270990717575
 40
2.589270990717575
 10
11.13780030013117
 20
23.47305974078517
 30
0.0
 10
11.11493391283147
 20
23.46793622272139
 30
0.0
 10
11.06392456685296
 20
23.45650690062882
 30
0.0
 10
10.95939780865467
 20
23.42589144217356
 30
0.0
 10
10.82298078561518
 20
23.35852798986264
 30
0.0
 10
10.74028061842636
 20
23.26984956457534
 30
0.0
 10
10.69653556301136
 20
23.2229422515652
 30
0.0
  0
SPLINE
  5
1CE
330
2
100
AcDbEntity
  8
GAIKEI
  6
Continuous
 62
     1
100
AcDbSpline
210
0.0
220
0.0
230
1.0
 70
     8
 71
     3
 72
     9
 73
     5
 74
     0
 42
0.0000000001
 43
0.0000000001
 40
0.0
 40
0.0
 40
0.0
 40
0.0
 40
1.411109485557813
 40
2.822218971136154
 40
2.822218971136154
 40
2.822218971136154
 40
2.822218971136154
 10
11.89670830231125
 20
23.61634334332519
 30
0.0
 10
11.80426742798204
 20
23.59889067083111
 30
0.0
 10
11.61938567932225
 20
23.56398532584274
 30
0.0
 10
11.43450310700859
 20
23.52908434375115
 30
0.0
 10
11.34206182085108
 20
23.51163385270524
 30
0.0
  0
SPLINE
  5
1CF
330
2
100
AcDbEntity
  8
GAIKEI
  6
Continuous
 62
     1
100
AcDbSpline
210
0.0
220
0.0
230
1.0
 70
    24
 71
     3
 72
     9
 73
     5
 74
     0
 42
0.0000000001
 43
0.0000000001
 40
0.0
 40
0.0
 40
0.0
 40
0.0
 40
0.1558264801996041
 40
0.311652960400144
 40
0.311652960400144
 40
0.311652960400144
 40
0.311652960400144
 10
11.34206182085108
 20
23.51163385270524
 30
0.0
 10
11.33185366240786
 20
23.50970693265185
 30
0.0
 10
11.31143734552131
 20
23.50585309254518
 30
0.0
 10
11.29102102863464
 20
23.50199925243851
 30
0.0
 10
11.28081287019131
 20
23.50007233238523
 30
0.0
  0
SPLINE
  5
1D0
330
2
100
AcDbEntity
  8
GAIKEI
  6
Continuous
100
AcDbSpline
210
0.0
220
0.0
230
1.0
 70
     8
 71
     3
 72
     9
 73
     5
 74
     0
 42
0.0000000001
 43
0.0000000001
 40
0.0
 40
0.0
 40
0.0
 40
0.0
 40
6.176987196043395
 40
12.36559966203915
 40
12.36559966203915
 40
12.36559966203915
 40
12.36559966203915
 10
10.69653556303137
 20
2.822168745465091
 30
0.0
 10
10.52068503296959
 20
3.195067714327024
 30
0.0
 10
10.16865301702296
 20
3.941567458779786
 30
0.0
 10
9.916433203784208
 20
4.727428249281729
 30
0.0
 10
9.790204737471185
 20
5.120728050145203
 30
0.0
  0
SPLINE
  5
1D1
330
2
100
AcDbEntity
  8
GAIKEI
  6
Continuous
100
AcDbSpline
210
0.0
220
0.0
230
1.0
 70
     8
 71
     3
 72
    13
 73
     9
 74
     0
 42
0.0000000001
 43
0.0000000001
 40
0.0
 40
0.0
 40
0.0
 40
0.0
 40
0.455131326462402
 40
0.9075475102509312
 40
1.567874114318929
 40
2.272386660222515
 40
3.313030295356309
 40
4.400725235559969
 40
4.400725235559969
 40
4.400725235559969
 40
4.400725235559969
 10
9.583115628611153
 20
5.975670463625192
 30
0.0
 10
9.588335051685589
 20
5.945779486622313
 30
0.0
 10
9.59874276071514
 20
5.886175850966878
 30
0.0
 10
9.619415749037557
 20
5.783705529890312
 30
0.0
 10
9.645616935091652
 20
5.665416000263576
 30
0.0
 10
9.682831979088177
 20
5.509424038748079
 30
0.0
 10
9.730220785994106
 20
5.326579197001933
 30
0.0
 10
9.769970388319507
 20
5.190364663113655
 30
0.0
 10
9.790284562871306
 20
5.120751744845165
 30
0.0
  0
SPLINE
  5
1D2
330
2
100
AcDbEntity
  8
GAIKEI
  6
Continuous
100
AcDbSpline
210
0.0
220
0.0
230
1.0
 70
     8
 71
     3
 72
    11
 73
     7
 74
     0
 42
0.0000000001
 43
0.0000000001
 40
0.0
 40
0.0
 40
0.0
 40
0.0
 40
9.08819039331311
 40
18.20389075244541
 40
27.45714094069616
 40
36.73790109477109
 40
36.73790109477109
 40
36.73790109477109
 40
36.73790109477109
 10
18.61990678981135
 20
2.039294322305067
 30
0.0
 10
18.01489645373704
 20
2.071733366332523
 30
0.0
 10
16.80304441440262
 20
2.136709647421866
 30
0.0
 10
14.97519359333546
 20
2.234709607086188
 30
0.0
 10
13.13452313781044
 20
2.333395721374927
 30
0.0
 10
11.90069452267698
 20
2.399547156295056
 30
0.0
 10
11.28286453139117
 20
2.432671967925216
 30
0.0
  0
SPLINE
  5
1D3
330
2
100
AcDbEntity
  8
GAIKEI
  6
Continuous
 62
     1
100
AcDbSpline
210
0.0
220
0.0
230
1.0
 70
     8
 71
     3
 72
    13
 73
     9
 74
     0
 42
0.0000000001
 43
0.0000000001
 40
0.0
 40
0.0
 40
0.0
 40
0.0
 40
0.2736771776298843
 40
0.5325794361316376
 40
0.6907298108396953
 40
0.835472937812308
 40
0.9229169700978214
 40
1.011620488008223
 40
1.011620488008223
 40
1.011620488008223
 40
1.011620488008223
 10
17.62557056425123
 20
2.246330705085142
 30
0.0
 10
17.64378984740301
 20
2.245354838592675
 30
0.0
 10
17.67924481530235
 20
2.243455789388917
 30
0.0
 10
17.72518661364143
 20
2.240303065463763
 30
0.0
 10
17.76252828964698
 20
2.237397897051096
 30
0.0
 10
17.78848286684183
 20
2.23556865323394
 30
0.0
 10
17.80978940277396
 20
2.233501964480637
 30
0.0
 10
17.82135759083985
 20
2.231456175692187
 30
0.0
 10
17.82718304215132
 20
2.230425967425162
 30
0.0
  0
SPLINE
  5
1D4
330
2
100
AcDbEntity
  8
GAIKEI
  6
Continuous
 62
     1
100
AcDbSpline
210
0.0
220
0.0
230
1.0
 70
     8
 71
     3
 72
    11
 73
     7
 74
     0
 42
0.0000000001
 43
0.0000000001
 40
0.0
 40
0.0
 40
0.0
 40
0.0
 40
0.2772755101856778
 40
0.5437890353032519
 40
0.7558552310461733
 40
0.9571193851541481
 40
0.9571193851541481
 40
0.9571193851541481
 40
0.9571193851541481
 10
17.6255705641712
 20
2.561212185845192
 30
0.0
 10
17.64402239115861
 20
2.559997346476848
 30
0.0
 10
17.68020986833733
 20
2.557614819698073
 30
0.0
 10
17.73014252341249
 20
2.550707089807815
 30
0.0
 10
17.77461702337189
 20
2.541225379106549
 30
0.0
 10
17.80028467709735
 20
2.531081142416155
 30
0.0
 10
17.81278310267123
 20
2.526141579625118
 30
0.0
  0
SPLINE
  5
1D5
330
2
100
AcDbEntity
  8
GAIKEI
  6
Continuous
 62
     1
100
AcDbSpline
210
0.0
220
0.0
230
1.0
 70
    24
 71
     3
 72
     9
 73
     5
 74
     0
 42
0.0000000001
 43
0.0000000001
 40
0.0
 40
0.0
 40
0.0
 40
0.0
 40
0.0525649353486959
 40
0.1051298706975085
 40
0.1051298706975085
 40
0.1051298706975085
 40
0.1051298706975085
 10
17.81278310267123
 20
2.526141579625118
 30
0.0
 10
17.81518309258456
 20
2.523588078045122
 30
0.0
 10
17.81998307241122
 20
2.51848107488513
 30
0.0
 10
17.82478305223799
 20
2.513374071725138
 30
0.0
 10
17.82718304215132
 20
2.510820570145142
 30
0.0
  0
SPLINE
  5
1D6
330
2
100
AcDbEntity
  8
GAIKEI
  6
Continuous
 62
     1
100
AcDbSpline
210
0.0
220
0.0
230
1.0
 70
     8
 71
     3
 72
    11
 73
     7
 74
     0
 42
0.0000000001
 43
0.0000000001
 40
0.0
 40
0.0
 40
0.0
 40
0.0
 40
0.2808565941299182
 40
0.5523094028239142
 40
0.7762176466192864
 40
0.9910343585026243
 40
0.9910343585026243
 40
0.9910343585026243
 40
0.9910343585026243
 10
17.62557056431126
 20
3.322643193585122
 30
0.0
 10
17.64426622471728
 20
3.321262879367736
 30
0.0
 10
17.68103156777874
 20
3.318548467326081
 30
0.0
 10
17.73173126025006
 20
3.30773748492129
 30
0.0
 10
17.77682568445743
 20
3.291984288695402
 30
0.0
 10
17.80096403322136
 20
3.275248575059777
 30
0.0
 10
17.81278310265122
 20
3.267054122185072
 30
0.0
  0
SPLINE
  5
1D7
330
2
100
AcDbEntity
  8
GAIKEI
  6
Continuous
 62
     1
100
AcDbSpline
210
0.0
220
0.0
230
1.0
 70
    24
 71
     3
 72
     9
 73
     5
 74
     0
 42
0.0000000001
 43
0.0000000001
 40
0.0
 40
0.0
 40
0.0
 40
0.0
 40
0.0781777381505435
 40
0.1563554763009245
 40
0.1563554763009245
 40
0.1563554763009245
 40
0.1563554763009245
 10
17.81278310265122
 20
3.267054122185072
 30
0.0
 10
17.81518309256785
 20
3.262427739085069
 30
0.0
 10
17.81998307240121
 20
3.253174972885062
 30
0.0
 10
17.82478305223458
 20
3.243922206685056
 30
0.0
 10
17.82718304215132
 20
3.239295823585166
 30
0.0
  0
SPLINE
  5
1D8
330
2
100
AcDbEntity
  8
GAIKEI
  6
Continuous
 62
     1
100
AcDbSpline
210
0.0
220
0.0
230
1.0
 70
     8
 71
     3
 72
    15
 73
    11
 74
     0
 42
0.0000000001
 43
0.0000000001
 40
0.0
 40
0.0
 40
0.0
 40
0.0
 40
0.4693602649921184
 40
0.9146472607398631
 40
1.199931746886638
 40
1.468327203333704
 40
1.625915959622866
 40
1.785640122252589
 40
1.895251493558885
 40
2.000570883250055
 40
2.000570883250055
 40
2.000570883250055
 40
2.000570883250055
 10
12.20000217821109
 20
2.530825990325183
 30
0.0
 10
12.16877658370231
 20
2.533158983711473
 30
0.0
 10
12.10792694087411
 20
2.537705312340449
 30
0.0
 10
12.02920544073083
 20
2.552863645270008
 30
0.0
 10
11.96475936844376
 20
2.569680740071703
 30
0.0
 10
11.91938598487581
 20
2.58352195027794
 30
0.0
 10
11.8825493235073
 20
2.596499971657863
 30
0.0
 10
11.8560842410958
 20
2.606982891458756
 30
0.0
 10
11.83297082517253
 20
2.616450182698031
 30
0.0
 10
11.81960797126226
 20
2.621623027033592
 30
0.0
 10
11.81305996663127
 20
2.624157800585066
 30
0.0
  0
SPLINE
  5
1D9
330
2
100
AcDbEntity
  8
GAIKEI
  6
Continuous
 62
     1
100
AcDbSpline
210
0.0
220
0.0
230
1.0
 70
     8
 71
     3
 72
    11
 73
     7
 74
     0
 42
0.0000000001
 43
0.0000000001
 40
0.0
 40
0.0
 40
0.0
 40
0.0
 40
0.4694687845146229
 40
0.9218181834774663
 40
1.290070440338668
 40
1.641536315921322
 40
1.641536315921322
 40
1.641536315921322
 40
1.641536315921322
 10
12.20000217821109
 20
2.84139077218515
 30
0.0
 10
12.1687638030105
 20
2.843488295914994
 30
0.0
 10
12.10742617368987
 20
2.847606856249967
 30
0.0
 10
12.02224698720818
 20
2.859971790196254
 30
0.0
 10
11.94531879048531
 20
2.873639245367371
 30
0.0
 10
11.89815521910327
 20
2.882464327511797
 30
0.0
 10
11.87512344435117
 20
2.886773952465091
 30
0.0
  0
SPLINE
  5
1DA
330
2
100
AcDbEntity
  8
GAIKEI
  6
Continuous
 62
     1
100
AcDbSpline
210
0.0
220
0.0
230
1.0
 70
    24
 71
     3
 72
     9
 73
     5
 74
     0
 42
0.0000000001
 43
0.0000000001
 40
0.0
 40
0.0
 40
0.0
 40
0.0
 40
0.089752978095402
 40
0.1795059561912533
 40
0.1795059561912533
 40
0.1795059561912533
 40
0.1795059561912533
 10
11.87512344435117
 20
2.886773952465091
 30
0.0
 10
11.8692120747412
 20
2.887700431288408
 30
0.0
 10
11.85738933552125
 20
2.889553388935155
 30
0.0
 10
11.84556659630129
 20
2.891406346581788
 30
0.0
 10
11.83965522669132
 20
2.892332825405105
 30
0.0
  0
SPLINE
  5
1DB
330
2
100
AcDbEntity
  8
GAIKEI
  6
Continuous
 62
     1
100
AcDbSpline
210
0.0
220
0.0
230
1.0
 70
     8
 71
     3
 72
    11
 73
     7
 74
     0
 42
0.0000000001
 43
0.0000000001
 40
0.0
 40
0.0
 40
0.0
 40
0.0
 40
0.4592154197445201
 40
0.8857516553621902
 40
1.148867890643628
 40
1.379279092183439
 40
1.379279092183439
 40
1.379279092183439
 40
1.379279092183439
 10
12.20000217821109
 20
3.589991996445064
 30
0.0
 10
12.16943537580914
 20
3.591736688887067
 30
0.0
 10
12.11047699884136
 20
3.595101916081489
 30
0.0
 10
12.03417586354658
 20
3.601798819099371
 30
0.0
 10
11.97308998281517
 20
3.607450289465759
 30
0.0
 10
11.94022486253107
 20
3.609081591663311
 30
0.0
 10
11.92488125387137
 20
3.609843191265213
 30
0.0
  0
SPLINE
  5
1DC
330
2
100
AcDbEntity
  8
GAIKEI
  6
Continuous
 62
     1
100
AcDbSpline
210
0.0
220
0.0
230
1.0
 70
     8
 71
     3
 72
    13
 73
     9
 74
     0
 42
0.0000000001
 43
0.0000000001
 40
0.0
 40
0.0
 40
0.0
 40
0.0
 40
0.268040688101562
 40
0.5221315770922035
 40
0.6810359494658139
 40
0.8273517874409726
 40
0.9188519073011411
 40
1.011612246162668
 40
1.011612246162668
 40
1.011612246162668
 40
1.011612246162668
 10
17.62557158317122
 20
32.26934465754516
 30
0.0
 10
17.64341545017839
 20
32.27030353151452
 30
0.0
 10
17.67817452533177
 20
32.2721713762113
 30
0.0
 10
17.72347269504632
 20
32.27526153114013
 30
0.0
 10
17.76065144572487
 20
32.27812452199294
 30
0.0
 10
17.78703173182339
 20
32.27996666798663
 30
0.0
 10
17.80898340791054
 20
32.28207171118618
 30
0.0
 10
17.8210888995668
 20
32.28418526680048
 30
0.0
 10
17.82718304215132
 20
32.28524927226522
 30
0.0
  0
SPLINE
  5
1DD
330
2
100
AcDbEntity
  8
GAIKEI
  6
Continuous
 62
     1
100
AcDbSpline
210
0.0
220
0.0
230
1.0
 70
     8
 71
     3
 72
    13
 73
     9
 74
     0
 42
0.0000000001
 43
0.0000000001
 40
0.0
 40
0.0
 40
0.0
 40
0.0
 40
0.2856608298437801
 40
0.5501050969977606
 40
0.7733751403244524
 40
0.9946819374207775
 40
1.234297723706876
 40
1.494160004632016
 40
1.494160004632016
 40
1.494160004632016
 40
1.494160004632016
 10
17.6255715832309
 20
24.33058405914517
 30
0.0
 10
17.64466527402021
 20
24.33210142065616
 30
0.0
 10
17.68143453156756
 20
24.33502344640829
 30
0.0
 10
17.72958734669623
 20
24.35587959661371
 30
0.0
 10
17.76765486857664
 20
24.38426381368368
 30
0.0
 10
17.79916061826282
 20
24.41754405597783
 30
0.0
 10
17.82263558305988
 20
24.46084086938209
 30
0.0
 10
17.82562680574847
 20
24.49431849781035
 30
0.0
 10
17.82718304215132
 20
24.51173582492515
 30
0.0
  0
SPLINE
  5
1DE
330
2
100
AcDbEntity
  8
GAIKEI
  6
Continuous
 62
     1
100
AcDbSpline
210
0.0
220
0.0
230
1.0
 70
     8
 71
     3
 72
    13
 73
     9
 74
     0
 42
0.0000000001
 43
0.0000000001
 40
0.0
 40
0.0
 40
0.0
 40
0.0
 40
0.2862957495156497
 40
0.5605470803450463
 40
0.7554555673082497
 40
0.9402499484747753
 40
1.06995330848147
 40
1.198181669547454
 40
1.198181669547454
 40
1.198181669547454
 40
1.198181669547454
 10
17.6255715832309
 20
26.52403109808517
 30
0.0
 10
17.64468008846586
 20
26.52564424086188
 30
0.0
 10
17.68209320702351
 20
26.52880266174361
 30
0.0
 10
17.72947504715444
 20
26.54791423791824
 30
0.0
 10
17.76622082718586
 20
26.57167022752185
 30
0.0
 10
17.79095693676618
 20
26.59523119693586
 30
0.0
 10
17.80861574311609
 20
26.619146499453
 30
0.0
 10
17.81546544514504
 20
26.63497261936527
 30
0.0
 10
17.81887071093115
 20
26.64284042798522
 30
0.0
  0
SPLINE
  5
1DF
330
2
100
AcDbEntity
  8
GAIKEI
  6
Continuous
 62
     1
100
AcDbSpline
210
0.0
220
0.0
230
1.0
 70
    24
 71
     3
 72
     9
 73
     5
 74
     0
 42
0.0000000001
 43
0.0000000001
 40
0.0
 40
0.0
 40
0.0
 40
0.0
 40
0.1134639149247798
 40
0.2269278298496871
 40
0.2269278298496871
 40
0.2269278298496871
 40
0.2269278298496871
 10
17.81887071093115
 20
26.64284042798522
 30
0.0
 10
17.82025609946788
 20
26.65027674044518
 30
0.0
 10
17.82302687654123
 20
26.6651493653651
 30
0.0
 10
17.82579765361458
 20
26.68002199028513
 30
0.0
 10
17.82718304215132
 20
26.6874583027452
 30
0.0
  0
SPLINE
  5
1E0
330
2
100
AcDbEntity
  8
GAIKEI
  6
Continuous
 62
     1
100
AcDbSpline
210
0.0
220
0.0
230
1.0
 70
     8
 71
     3
 72
    11
 73
     7
 74
     0
 42
0.0000000001
 43
0.0000000001
 40
0.0
 40
0.0
 40
0.0
 40
0.0
 40
0.2844876673912516
 40
0.5634492718649529
 40
0.8192398103976403
 40
1.072110491076323
 40
1.072110491076323
 40
1.072110491076323
 40
1.072110491076323
 10
17.62557158311119
 20
28.43592953712516
 30
0.0
 10
17.64453970920454
 20
28.43754853643418
 30
0.0
 10
17.68210751287734
 20
28.44075508661683
 30
0.0
 10
17.73406742384975
 20
28.45889698979681
 30
0.0
 10
17.78005163023329
 20
28.48598675948665
 30
0.0
 10
17.80148066251422
 20
28.51260028345928
 30
0.0
 10
17.81213367433122
 20
28.52583066090517
 30
0.0
  0
SPLINE
  5
1E1
330
2
100
AcDbEntity
  8
GAIKEI
  6
Continuous
 62
     1
100
AcDbSpline
210
0.0
220
0.0
230
1.0
 70
    24
 71
     3
 72
     9
 73
     5
 74
     0
 42
0.0000000001
 43
0.0000000001
 40
0.0
 40
0.0
 40
0.0
 40
0.0
 40
0.132541711103458
 40
0.265083422206916
 40
0.265083422206916
 40
0.265083422206916
 40
0.265083422206916
 10
17.81213367433122
 20
28.52583066090517
 30
0.0
 10
17.81464190230122
 20
28.53430330537856
 30
0.0
 10
17.81965835824121
 20
28.55124859432521
 30
0.0
 10
17.82467481418132
 20
28.56819388327176
 30
0.0
 10
17.82718304215132
 20
28.57666652774515
 30
0.0
  0
SPLINE
  5
1E2
330
2
100
AcDbEntity
  8
GAIKEI
  6
Continuous
 62
     1
100
AcDbSpline
210
0.0
220
0.0
230
1.0
 70
     8
 71
     3
 72
    13
 73
     9
 74
     0
 42
0.0000000001
 43
0.0000000001
 40
0.0
 40
0.0
 40
0.0
 40
0.0
 40
0.2751320619290327
 40
0.5314052680702451
 40
0.721263751864536
 40
0.9044053155623856
 40
1.068358726561798
 40
1.245727062286905
 40
1.245727062286905
 40
1.245727062286905
 40
1.245727062286905
 10
17.6255715831312
 20
30.00818730964522
 30
0.0
 10
17.64389754225567
 20
30.00953624433021
 30
0.0
 10
17.6792933123919
 20
30.01214165132239
 30
0.0
 10
17.72596828308769
 20
30.02512091655751
 30
0.0
 10
17.76415301626912
 20
30.04273284873091
 30
0.0
 10
17.79489344496153
 20
30.06112136836873
 30
0.0
 10
17.81972850243289
 20
30.08755398191283
 30
0.0
 10
17.82463392978502
 20
30.11019330647366
 30
0.0
 10
17.82718304215132
 20
30.12195786398525
 30
0.0
  0
SPLINE
  5
1E3
330
2
100
AcDbEntity
  8
GAIKEI
  6
Continuous
 62
     1
100
AcDbSpline
210
0.0
220
0.0
230
1.0
 70
     8
 71
     3
 72
    11
 73
     7
 74
     0
 42
0.0000000001
 43
0.0000000001
 40
0.0
 40
0.0
 40
0.0
 40
0.0
 40
0.2751141510317865
 40
0.5420234870320881
 40
0.7674228683808067
 40
0.9849914688949748
 40
0.9849914688949748
 40
0.9849914688949748
 40
0.9849914688949748
 10
17.62557158331117
 20
31.19303215880518
 30
0.0
 10
17.64388333852764
 20
31.19438698688896
 30
0.0
 10
17.67996073178017
 20
31.1970562375966
 30
0.0
 10
17.73012504735459
 20
31.2075316042301
 30
0.0
 10
17.77528305213786
 20
31.22299799747384
 30
0.0
 10
17.79984032609764
 20
31.23961636640729
 30
0.0
 10
17.8119019015312
 20
31.24777866124509
 30
0.0
  0
SPLINE
  5
1E4
330
2
100
AcDbEntity
  8
GAIKEI
  6
Continuous
 62
     1
100
AcDbSpline
210
0.0
220
0.0
230
1.0
 70
    24
 71
     3
 72
     9
 73
     5
 74
     0
 42
0.0000000001
 43
0.0000000001
 40
0.0
 40
0.0
 40
0.0
 40
0.0
 40
0.0810677355037819
 40
0.1621354710078649
 40
0.1621354710078649
 40
0.1621354710078649
 40
0.1621354710078649
 10
17.8119019015312
 20
31.24777866124509
 30
0.0
 10
17.81444875830129
 20
31.25254545372513
 30
0.0
 10
17.81954247184126
 20
31.26207903868522
 30
0.0
 10
17.82463618538122
 20
31.27161262364519
 30
0.0
 10
17.82718304215132
 20
31.27637941612523
 30
0.0
  0
SPLINE
  5
1E5
330
2
100
AcDbEntity
  8
GAIKEI
  6
Continuous
 62
     1
100
AcDbSpline
210
0.0
220
0.0
230
1.0
 70
     8
 71
     3
 72
    13
 73
     9
 74
     0
 42
0.0000000001
 43
0.0000000001
 40
0.0
 40
0.0
 40
0.0
 40
0.0
 40
0.2695929533406324
 40
0.5226170684170363
 40
0.6885022803547079
 40
0.8443535344296499
 40
0.9518921788692523
 40
1.063370066910172
 40
1.063370066910172
 40
1.063370066910172
 40
1.063370066910172
 10
17.62557158325114
 20
31.95446317348524
 30
0.0
 10
17.64352040293897
 20
31.95552623000208
 30
0.0
 10
17.67831493080223
 20
31.95758700894123
 30
0.0
 10
17.7237796121858
 20
31.9642569697287
 30
0.0
 10
17.76129075304959
 20
31.97232053724281
 30
0.0
 10
17.78921827688657
 20
31.97790844994472
 30
0.0
 10
17.81306249915815
 20
31.98747395928945
 30
0.0
 10
17.82242009242168
 20
31.99899204448513
 30
0.0
 10
17.82718304215132
 20
32.00485466954524
 30
0.0
  0
SPLINE
  5
1E6
330
2
100
AcDbEntity
  8
GAIKEI
  6
Continuous
 62
     1
100
AcDbSpline
210
0.0
220
0.0
230
1.0
 70
     8
 71
     3
 72
    15
 73
    11
 74
     0
 42
0.0000000001
 43
0.0000000001
 40
0.0
 40
0.0
 40
0.0
 40
0.0
 40
0.4706257817859762
 40
0.917085334204328
 40
1.213718488178153
 40
1.491753950864021
 40
1.682180042691713
 40
1.879283482209777
 40
2.05219245838437
 40
2.226669788477745
 40
2.226669788477745
 40
2.226669788477745
 40
2.226669788477745
 10
12.19469735977111
 20
3.248238075565041
 30
0.0
 10
12.1633975521612
 20
3.251092258974949
 30
0.0
 10
12.10240515515841
 20
3.256654065929751
 30
0.0
 10
12.02409832753403
 20
3.278812049199814
 30
0.0
 10
11.96112766115482
 20
3.304780526488912
 30
0.0
 10
11.91575329108946
 20
3.328320246246221
 30
0.0
 10
11.878849701651
 20
3.353098895760695
 30
0.0
 10
11.84936724759654
 20
3.375929058762494
 30
0.0
 10
11.82427271100926
 20
3.403210766381562
 30
0.0
 10
11.81680809287195
 20
3.425393050646903
 30
0.0
 10
11.81305893345131
 20
3.436534266245189
 30
0.0
  0
SPLINE
  5
1E7
330
2
100
AcDbEntity
  8
GAIKEI
  6
Continuous
 62
     1
100
AcDbSpline
210
0.0
220
0.0
230
1.0
 70
     8
 71
     3
 72
    15
 73
    11
 74
     0
 42
0.0000000001
 43
0.0000000001
 40
0.0
 40
0.0
 40
0.0
 40
0.0
 40
0.4667234621338752
 40
0.9097783963539837
 40
1.198290001698098
 40
1.468932777468289
 40
1.640398476390651
 40
1.816445839163422
 40
1.952939087548222
 40
2.087270402393917
 40
2.087270402393917
 40
2.087270402393917
 40
2.087270402393917
 10
12.19469744481125
 20
2.668025671985105
 30
0.0
 10
12.16366340036734
 20
2.670721639817998
 30
0.0
 10
12.10316911311304
 20
2.675976857287423
 30
0.0
 10
12.02522421882986
 20
2.694815668249702
 30
0.0
 10
11.96198316812069
 20
2.716458738957726
 30
0.0
 10
11.91708063954206
 20
2.735484591131353
 30
0.0
 10
11.88049112889462
 20
2.754532866333534
 30
0.0
 10
11.85235594914843
 20
2.770170381631714
 30
0.0
 10
11.82797115740573
 20
2.78803709995941
 30
0.0
 10
11.81800315062662
 20
2.803259630893535
 30
0.0
 10
11.81305893345131
 20
2.810810137285216
 30
0.0
  0
SPLINE
  5
1E8
330
2
100
AcDbEntity
  8
GAIKEI
  6
Continuous
 62
     1
100
AcDbSpline
210
0.0
220
0.0
230
1.0
 70
     8
 71
     3
 72
    13
 73
     9
 74
     0
 42
0.0000000001
 43
0.0000000001
 40
0.0
 40
0.0
 40
0.0
 40
0.0
 40
0.1748427649881145
 40
0.3427474772528342
 40
0.5108023508975786
 40
0.6806384884964931
 40
0.8815890385969733
 40
1.096387825562858
 40
1.096387825562858
 40
1.096387825562858
 40
1.096387825562858
 10
10.46816358543117
 20
15.46406468752525
 30
0.0
 10
10.46063061241238
 20
15.45514414006379
 30
0.0
 10
10.44586358731658
 20
15.43765702735254
 30
0.0
 10
10.41926332860509
 20
15.41604580831358
 30
0.0
 10
10.38924546398721
 20
15.40007336614917
 30
0.0
 10
10.3542078494869
 20
15.39109783047002
 30
0.0
 10
10.31393441456964
 20
15.3923372415702
 30
0.0
 10
10.28928047169256
 20
15.4057405246217
 30
0.0
 10
10.27654289991119
 20
15.41266539180515
 30
0.0
  0
SPLINE
  5
1E9
330
2
100
AcDbEntity
  8
GAIKEI
  6
Continuous
 62
     1
100
AcDbSpline
210
0.0
220
0.0
230
1.0
 70
     8
 71
     3
 72
     9
 73
     5
 74
     0
 42
0.0000000001
 43
0.0000000001
 40
0.0
 40
0.0
 40
0.0
 40
0.0
 40
0.0726966834135228
 40
0.1467277296071642
 40
0.1467277296071642
 40
0.1467277296071642
 40
0.1467277296071642
 10
11.83966254401139
 20
31.62333155952524
 30
0.0
 10
11.83466459483804
 20
31.62349669178877
 30
0.0
 10
11.82457695809216
 20
31.62382998735302
 30
0.0
 10
11.8169214816611
 20
31.63041798439463
 30
0.0
 10
11.81305893345131
 20
31.63374193900518
 30
0.0
  0
SPLINE
  5
1EA
330
2
100
AcDbEntity
  8
GAIKEI
  6
Continuous
 62
     1
100
AcDbSpline
210
0.0
220
0.0
230
1.0
 70
     8
 71
     3
 72
    11
 73
     7
 74
     0
 42
0.0000000001
 43
0.0000000001
 40
0.0
 40
0.0
 40
0.0
 40
0.0
 40
0.1785961208167213
 40
0.3559264373517381
 40
0.4965810872033273
 40
0.6305369143794434
 40
0.6305369143794434
 40
0.6305369143794434
 40
0.6305369143794434
 10
11.92485692669129
 20
30.90578503592519
 30
0.0
 10
11.91291588686783
 20
30.90520039336662
 30
0.0
 10
11.8891184396266
 20
30.90403525191778
 30
0.0
 10
11.8566240532042
 20
30.90491201286318
 30
0.0
 10
11.82491646819528
 20
30.91301092853439
 30
0.0
 10
11.81694663994733
 20
30.93051644413311
 30
0.0
 10
11.81305893345131
 20
30.93905568796515
 30
0.0
  0
SPLINE
  5
1EB
330
2
100
AcDbEntity
  8
GAIKEI
  6
Continuous
 62
     1
100
AcDbSpline
210
0.0
220
0.0
230
1.0
 70
     8
 71
     3
 72
    11
 73
     7
 74
     0
 42
0.0000000001
 43
0.0000000001
 40
0.0
 40
0.0
 40
0.0
 40
0.0
 40
0.1776876197486291
 40
0.3544003445533679
 40
0.4957250065028799
 40
0.6306806847010814
 40
0.6306806847010814
 40
0.6306806847010814
 40
0.6306806847010814
 10
11.92488125387137
 20
3.609843191265213
 30
0.0
 10
11.91300172854971
 20
3.610429827838856
 30
0.0
 10
11.88930785571222
 20
3.611599882365567
 30
0.0
 10
11.85686615472514
 20
3.610838311639099
 30
0.0
 10
11.82505799237765
 20
3.602808411833734
 30
0.0
 10
11.8169966749499
 20
3.58521396695869
 30
0.0
 10
11.81305893345131
 20
3.576619543485207
 30
0.0
  0
SPLINE
  5
1EC
330
2
100
AcDbEntity
  8
GAIKEI
  6
Continuous
 62
     1
100
AcDbSpline
210
0.0
220
0.0
230
1.0
 70
     8
 71
     3
 72
     9
 73
     5
 74
     0
 42
0.0000000001
 43
0.0000000001
 40
0.0
 40
0.0
 40
0.0
 40
0.0
 40
0.0726105205835743
 40
0.1466180826160991
 40
0.1466180826160991
 40
0.1466180826160991
 40
0.1466180826160991
 10
11.83965522669132
 20
2.892332825405105
 30
0.0
 10
11.8346656421661
 20
2.892158367505203
 30
0.0
 10
11.82459047247619
 20
2.891806095099127
 30
0.0
 10
11.81692711972255
 20
2.885245068045037
 30
0.0
 10
11.81305893345131
 20
2.881933296345096
 30
0.0
  0
SPLINE
  5
1ED
330
2
100
AcDbEntity
  8
GAIKEI
  6
Continuous
 62
     1
100
AcDbSpline
210
0.0
220
0.0
230
1.0
 70
     8
 71
     3
 72
     9
 73
     5
 74
     0
 42
0.0000000001
 43
0.0000000001
 40
0.0
 40
0.0
 40
0.0
 40
0.0
 40
0.8430121944732883
 40
1.686398633797752
 40
1.686398633797752
 40
1.686398633797752
 40
1.686398633797752
 10
10.10468712207114
 20
15.52281009468515
 30
0.0
 10
10.05833767698629
 20
15.55462344353577
 30
0.0
 10
9.965618210552861
 20
15.61826426438029
 30
0.0
 10
9.877198270403368
 20
15.68775506676729
 30
0.0
 10
9.832978489271226
 20
15.72250817864517
 30
0.0
  0
SPLINE
  5
1EE
330
2
100
AcDbEntity
  8
GAIKEI
  6
Continuous
 62
     1
100
AcDbSpline
210
0.0
220
0.0
230
1.0
 70
     8
 71
     3
 72
     9
 73
     5
 74
     0
 42
0.0000000001
 43
0.0000000001
 40
0.0
 40
0.0
 40
0.0
 40
0.0
 40
0.5103082805620984
 40
1.020671565428749
 40
1.020671565428749
 40
1.020671565428749
 40
1.020671565428749
 10
10.27654538479112
 20
15.4126694940652
 30
0.0
 10
10.24761453692895
 20
15.43057378707203
 30
0.0
 10
10.18974972285195
 20
15.46638430292546
 30
0.0
 10
10.13304221171324
 20
15.50400062939354
 30
0.0
 10
10.10468692815129
 20
15.52280980620514
 30
0.0
  0
SPLINE
  5
1EF
330
2
100
AcDbEntity
  8
GAIKEI
  6
Continuous
 62
     1
100
AcDbSpline
210
0.0
220
0.0
230
1.0
 70
     8
 71
     3
 72
    15
 73
    11
 74
     0
 42
0.0000000001
 43
0.0000000001
 40
0.0
 40
0.0
 40
0.0
 40
0.0
 40
0.1740769890037913
 40
0.3378159452936838
 40
0.4705095549869001
 40
0.6012600109109057
 40
0.7229780154411101
 40
0.8485929994166671
 40
0.9724067327185332
 40
1.093513656193531
 40
1.093513656193531
 40
1.093513656193531
 40
1.093513656193531
 10
10.27653238109133
 20
19.10302705506524
 30
0.0
 10
10.2867463041423
 20
19.10870954442419
 30
0.0
 10
10.30656756880466
 20
19.11973705314563
 30
0.0
 10
10.33824072886477
 20
19.12437167230928
 30
0.0
 10
10.36674852867338
 20
19.12185153650068
 30
0.0
 10
10.39151786964999
 20
19.11442055288182
 30
0.0
 10
10.41402326597619
 20
19.10278625318665
 30
0.0
 10
10.43383299439824
 20
19.08782500272468
 30
0.0
 10
10.45183441560789
 20
19.0708336720221
 30
0.0
 10
10.46239880075916
 20
19.05837082584241
 30
0.0
 10
10.46762261569131
 20
19.05220827108519
 30
0.0
  0
SPLINE
  5
1F0
330
2
100
AcDbEntity
  8
GAIKEI
  6
Continuous
 62
     1
100
AcDbSpline
210
0.0
220
0.0
230
1.0
 70
     8
 71
     3
 72
     9
 73
     5
 74
     0
 42
0.0000000001
 43
0.0000000001
 40
0.0
 40
0.0
 40
0.0
 40
0.0
 40
0.3847315165060159
 40
0.7694877749271809
 40
0.7694877749271809
 40
0.7694877749271809
 40
0.7694877749271809
 10
10.14653854827122
 20
19.0206577989652
 30
0.0
 10
10.16804206788174
 20
19.03464028271753
 30
0.0
 10
10.2110504899847
 20
19.06260614942971
 30
0.0
 10
10.25471327568175
 20
19.08953894048329
 30
0.0
 10
10.27654537049136
 20
19.10300576900522
 30
0.0
  0
SPLINE
  5
1F1
330
2
100
AcDbEntity
  8
GAIKEI
  6
Continuous
 62
     1
100
AcDbSpline
210
0.0
220
0.0
230
1.0
 70
     8
 71
     3
 72
     9
 73
     5
 74
     0
 42
0.0000000001
 43
0.0000000001
 40
0.0
 40
0.0
 40
0.0
 40
0.0
 40
0.9687579130611853
 40
1.937553323779144
 40
1.937553323779144
 40
1.937553323779144
 40
1.937553323779144
 10
9.832978474451238
 20
18.79316707936516
 30
0.0
 10
9.883824944287539
 20
18.83302841388195
 30
0.0
 10
9.98551985207132
 20
18.91275262582599
 30
0.0
 10
10.09286508299704
 20
18.98468875189655
 30
0.0
 10
10.14653873719112
 20
19.0206575110252
 30
0.0
  0
SPLINE
  5
1F2
330
2
100
AcDbEntity
  8
GAIKEI
  6
Continuous
 62
     1
100
AcDbSpline
210
0.0
220
0.0
230
1.0
 70
     8
 71
     3
 72
    17
 73
    13
 74
     0
 42
0.0000000001
 43
0.0000000001
 40
0.0
 40
0.0
 40
0.0
 40
0.0
 40
0.9690712582898999
 40
1.882732173106721
 40
2.410236927350858
 40
2.88752341012465
 40
3.138115401647429
 40
3.395725853080938
 40
3.608343965049808
 40
3.830506407011359
 40
4.066942380154164
 40
4.311317098741623
 40
4.311317098741623
 40
4.311317098741623
 40
4.311317098741623
 10
9.636179712551211
 20
17.97181509378515
 30
0.0
 10
9.637147096972284
 20
18.03644259909379
 30
0.0
 10
9.639026551922142
 20
18.16200228572279
 30
0.0
 10
9.657185448116251
 20
18.32193800248478
 30
0.0
 10
9.679666162913235
 20
18.44786303919557
 30
0.0
 10
9.698585563082019
 20
18.5294658583723
 30
0.0
 10
9.717592218868617
 20
18.59237923197668
 30
0.0
 10
9.733751496611603
 20
18.63766575744875
 30
0.0
 10
9.752061303038544
 20
18.68007732783769
 30
0.0
 10
9.772300582519847
 20
18.71998852467459
 30
0.0
 10
9.798078253170388
 20
18.75950828002965
 30
0.0
 10
9.821213843230225
 20
18.7818294691624
 30
0.0
 10
9.832972636051295
 20
18.79317433816516
 30
0.0
  0
SPLINE
  5
1F3
330
2
100
AcDbEntity
  8
GAIKEI
  6
Continuous
 62
     1
100
AcDbSpline
210
0.0
220
0.0
230
1.0
 70
     8
 71
     3
 72
    13
 73
     9
 74
     0
 42
0.0000000001
 43
0.0000000001
 40
0.0
 40
0.0
 40
0.0
 40
0.0
 40
0.207485001914599
 40
0.4085487129317809
 40
0.578660653095266
 40
0.7453825243867298
 40
0.8990665017932478
 40
1.055720917832533
 40
1.055720917832533
 40
1.055720917832533
 40
1.055720917832533
 10
12.10690267763129
 20
23.63177243584516
 30
0.0
 10
12.09307027623549
 20
23.63193883685813
 30
0.0
 10
12.06583356160604
 20
23.63226648906925
 30
0.0
 10
12.02726036166996
 20
23.63120570652052
 30
0.0
 10
11.99145769057452
 20
23.62907923708895
 30
0.0
 10
11.95889872421844
 20
23.62596606456964
 30
0.0
 10
11.92735374946062
 20
23.62183106154271
 30
0.0
 10
11.90698753883509
 20
23.6181754396091
 30
0.0
 10
11.89670696479118
 20
23.61633013354515
 30
0.0
  0
SPLINE
  5
1F4
330
2
100
AcDbEntity
  8
GAIKEI
  6
Continuous
 62
     1
100
AcDbSpline
210
0.0
220
0.0
230
1.0
 70
     8
 71
     3
 72
    15
 73
    11
 74
     0
 42
0.0000000001
 43
0.0000000001
 40
0.0
 40
0.0
 40
0.0
 40
0.0
 40
0.4768157988427756
 40
0.9283650782667438
 40
1.240049973898946
 40
1.532502036548507
 40
1.758624961268357
 40
1.994958131872586
 40
2.238466056407365
 40
2.489768572265052
 40
2.489768572265052
 40
2.489768572265052
 40
2.489768572265052
 10
12.19469744481125
 20
5.655123125345198
 30
0.0
 10
12.16295255967986
 20
5.658044419777297
 30
0.0
 10
12.10114495422476
 20
5.66373220894161
 30
0.0
 10
12.02214380760279
 20
5.690563830088876
 30
0.0
 10
11.95948105411878
 20
5.722769507114207
 30
0.0
 10
11.91331552522433
 20
5.753673761664913
 30
0.0
 10
11.87606869230228
 20
5.78775770958407
 30
0.0
 10
11.84540861629932
 20
5.823503961256847
 30
0.0
 10
11.82054368057913
 20
5.8664833417738
 30
0.0
 10
11.81557991337536
 20
5.899368484082629
 30
0.0
 10
11.81305893345131
 20
5.916070069825195
 30
0.0
  0
SPLINE
  5
1F5
330
2
100
AcDbEntity
  8
GAIKEI
  6
Continuous
 62
     1
100
AcDbSpline
210
0.0
220
0.0
230
1.0
 70
     8
 71
     3
 72
    11
 73
     7
 74
     0
 42
0.0000000001
 43
0.0000000001
 40
0.0
 40
0.0
 40
0.0
 40
0.0
 40
0.1355101542876278
 40
0.2668677801694185
 40
0.3781140175187026
 40
0.4857029860840563
 40
0.4857029860840563
 40
0.4857029860840563
 40
0.4857029860840563
 10
11.85580320065128
 20
4.396963528525134
 30
0.0
 10
11.84987934847663
 20
4.40380439887599
 30
0.0
 10
11.83821317269633
 20
4.417276510206534
 30
0.0
 10
11.82502183043198
 20
4.438845643221611
 30
0.0
 10
11.8156938186637
 20
4.460504475358675
 30
0.0
 10
11.81392738807096
 20
4.475055967295816
 30
0.0
 10
11.81305893345131
 20
4.48221011784517
 30
0.0
  0
SPLINE
  5
1F6
330
2
100
AcDbEntity
  8
GAIKEI
  6
Continuous
 62
     1
100
AcDbSpline
210
0.0
220
0.0
230
1.0
 70
     8
 71
     3
 72
    15
 73
    11
 74
     0
 42
0.0000000001
 43
0.0000000001
 40
0.0
 40
0.0
 40
0.0
 40
0.0
 40
0.4787036910987445
 40
0.9315137711474378
 40
1.251166965216342
 40
1.550964919298996
 40
1.800442229268609
 40
2.062984101964998
 40
2.357141805048626
 40
2.66319921707292
 40
2.66319921707292
 40
2.66319921707292
 40
2.66319921707292
 10
12.19469744481125
 20
9.46146683964514
 30
0.0
 10
12.16277541390718
 20
9.464048349482141
 30
0.0
 10
12.1006580499868
 20
9.469071732439374
 30
0.0
 10
12.02116841081908
 20
9.49726142511497
 30
0.0
 10
11.9584937729096
 20
9.531875736313395
 30
0.0
 10
11.91179752813923
 20
9.566611831497993
 30
0.0
 10
11.87435306873101
 20
9.606006542207069
 30
0.0
 10
11.84327322691558
 20
9.649975472143978
 30
0.0
 10
11.81884438145448
 20
9.703061140323143
 30
0.0
 10
11.8150127378426
 20
9.743149073514814
 30
0.0
 10
11.81305893345131
 20
9.76359042658521
 30
0.0
  0
SPLINE
  5
1F7
330
2
100
AcDbEntity
  8
GAIKEI
  6
Continuous
 62
     1
100
AcDbSpline
210
0.0
220
0.0
230
1.0
 70
     8
 71
     3
 72
    15
 73
    11
 74
     0
 42
0.0000000001
 43
0.0000000001
 40
0.0
 40
0.0
 40
0.0
 40
0.0
 40
0.4784003557854472
 40
0.9311587490599507
 40
1.247976333868616
 40
1.545264224705262
 40
1.785095431334922
 40
2.036684569849583
 40
2.308817727987818
 40
2.591017002308847
 40
2.591017002308847
 40
2.591017002308847
 40
2.591017002308847
 10
12.19469735977111
 20
7.408664035545143
 30
0.0
 10
12.16282233212746
 20
7.411469010958057
 30
0.0
 10
12.10078075856245
 20
7.416928616840323
 30
0.0
 10
12.02150205029829
 20
7.444891839954721
 30
0.0
 10
11.95887901438823
 20
7.478812159464382
 30
0.0
 10
11.91243280843287
 20
7.512145384033829
 30
0.0
 10
11.87509185003796
 20
7.549443553279161
 30
0.0
 10
11.84418097192656
 20
7.589973808771787
 30
0.0
 10
11.81955722893474
 20
7.638754826749391
 30
0.0
 10
11.81525109694598
 20
7.675722711603157
 30
0.0
 10
11.81305893345131
 20
7.694542303725256
 30
0.0
  0
SPLINE
  5
1F8
330
2
100
AcDbEntity
  8
GAIKEI
  6
Continuous
 62
     1
100
AcDbSpline
210
0.0
220
0.0
230
1.0
 70
     8
 71
     3
 72
    15
 73
    11
 74
     0
 42
0.0000000001
 43
0.0000000001
 40
0.0
 40
0.0
 40
0.0
 40
0.0
 40
0.4668990423982987
 40
0.9081580449360107
 40
1.202508216586847
 40
1.474507621549176
 40
1.689110371723731
 40
1.916907762657574
 40
2.177851889118041
 40
2.45379195635749
 40
2.45379195635749
 40
2.45379195635749
 40
2.45379195635749
 10
12.20000217821109
 20
10.32736592700519
 30
0.0
 10
12.16884498723414
 20
10.32767624672181
 30
0.0
 10
12.10824162103745
 20
10.32827984476228
 30
0.0
 10
12.02851732942474
 20
10.31679940831509
 30
0.0
 10
11.9636400834662
 20
10.29908862709544
 30
0.0
 10
11.91520074323875
 20
10.27931278219523
 30
0.0
 10
11.87533160935186
 20
10.25259325876868
 30
0.0
 10
11.842775567334
 20
10.21853654484812
 30
0.0
 10
11.81687902343367
 20
10.17298420213944
 30
0.0
 10
11.81435578928744
 20
10.13686356819357
 30
0.0
 10
11.81305893345131
 20
10.11829880082518
 30
0.0
  0
SPLINE
  5
1F9
330
2
100
AcDbEntity
  8
GAIKEI
  6
Continuous
 62
     1
100
AcDbSpline
210
0.0
220
0.0
230
1.0
 70
     8
 71
     3
 72
    13
 73
     9
 74
     0
 42
0.0000000001
 43
0.0000000001
 40
0.0
 40
0.0
 40
0.0
 40
0.0
 40
0.2807300390598369
 40
0.540237357202553
 40
0.7564887689351991
 40
0.9703552761884287
 40
1.200247401375136
 40
1.450480684295895
 40
1.450480684295895
 40
1.450480684295895
 40
1.450480684295895
 10
17.6255715831312
 20
9.319077021445195
 30
0.0
 10
17.64438839668219
 20
9.319463902063603
 30
0.0
 10
17.68059950418524
 20
9.320208415773549
 30
0.0
 10
17.72885688832957
 20
9.337722808943226
 30
0.0
 10
17.76736873529228
 20
9.363270017855029
 30
0.0
 10
17.79911501591039
 20
9.394082138184899
 30
0.0
 10
17.82285929180727
 20
9.4353001325793
 30
0.0
 10
17.82570165190236
 20
9.467527704422082
 30
0.0
 10
17.82718304215132
 20
9.484324172525248
 30
0.0
  0
SPLINE
  5
1FA
330
2
100
AcDbEntity
  8
GAIKEI
  6
Continuous
 62
     1
100
AcDbSpline
210
0.0
220
0.0
230
1.0
 70
     8
 71
     3
 72
    13
 73
     9
 74
     0
 42
0.0000000001
 43
0.0000000001
 40
0.0
 40
0.0
 40
0.0
 40
0.0
 40
0.2882164561941171
 40
0.5583476968904142
 40
0.835693287696724
 40
1.120318974449666
 40
1.487769573022271
 40
1.881220687198169
 40
1.881220687198169
 40
1.881220687198169
 40
1.881220687198169
 10
11.85580320065128
 20
4.396963528525134
 30
0.0
 10
11.86953722345413
 20
4.383470680241885
 30
0.0
 10
11.89614347662313
 20
4.357331642718008
 30
0.0
 10
11.94283245446729
 20
4.326376465059183
 30
0.0
 10
11.99262776173327
 20
4.301783904097533
 30
0.0
 10
12.05021127568761
 20
4.278763826162162
 30
0.0
 10
12.11789218641968
 20
4.260638363689395
 30
0.0
 10
12.16851954424192
 20
4.256344969395627
 30
0.0
 10
12.19469820833114
 20
4.254124918185084
 30
0.0
  0
SPLINE
  5
1FB
330
2
100
AcDbEntity
  8
GAIKEI
  6
Continuous
 62
     1
100
AcDbSpline
210
0.0
220
0.0
230
1.0
 70
     8
 71
     3
 72
    15
 73
    11
 74
     0
 42
0.0000000001
 43
0.0000000001
 40
0.0
 40
0.0
 40
0.0
 40
0.0
 40
0.46237960843352
 40
0.9008998093191459
 40
1.176541024501575
 40
1.429286097450408
 40
1.595621315012172
 40
1.769839052272855
 40
1.930248840588542
 40
2.100785007611363
 40
2.100785007611363
 40
2.100785007611363
 40
2.100785007611363
 10
12.20000217821109
 20
4.753883793705085
 30
0.0
 10
12.16921432718538
 20
4.755384337575833
 30
0.0
 10
12.10922731951336
 20
4.758307995242034
 30
0.0
 10
12.03080061508626
 20
4.760587952129526
 30
0.0
 10
11.96634857465756
 20
4.760010855923837
 30
0.0
 10
11.92001611200987
 20
4.758303889782041
 30
0.0
 10
11.88085066734402
 20
4.751596592750729
 30
0.0
 10
11.84912446226565
 20
4.741711879453418
 30
0.0
 10
11.81956990955484
 20
4.721111693519787
 30
0.0
 10
11.81527308398381
 20
4.698601937065404
 30
0.0
 10
11.81305893345131
 20
4.687002678865155
 30
0.0
  0
SPLINE
  5
1FC
330
2
100
AcDbEntity
  8
GAIKEI
  6
Continuous
 62
     1
100
AcDbSpline
210
0.0
220
0.0
230
1.0
 70
     8
 71
     3
 72
    13
 73
     9
 74
     0
 42
0.0000000001
 43
0.0000000001
 40
0.0
 40
0.0
 40
0.0
 40
0.0
 40
0.2274603233811347
 40
0.4400675689159755
 40
0.600327690282345
 40
0.7554794935447404
 40
0.8994062175876219
 40
1.053538006974183
 40
1.053538006974183
 40
1.053538006974183
 40
1.053538006974183
 10
17.62556170825121
 20
4.007494024925108
 30
0.0
 10
17.64073672017093
 20
4.007092131930107
 30
0.0
 10
17.67009582115383
 20
4.006314589409271
 30
0.0
 10
17.70997828798249
 20
4.011293751772313
 30
0.0
 10
17.74418941746876
 20
4.019756981977252
 30
0.0
 10
17.77327202370452
 20
4.029401712817502
 30
0.0
 10
17.80004339105585
 20
4.044496604280539
 30
0.0
 10
17.812914046434
 20
4.059834270986243
 30
0.0
 10
17.81956970985129
 20
4.067765673405119
 30
0.0
  0
SPLINE
  5
1FD
330
2
100
AcDbEntity
  8
GAIKEI
  6
Continuous
 62
     1
100
AcDbSpline
210
0.0
220
0.0
230
1.0
 70
     8
 71
     3
 72
    11
 73
     7
 74
     0
 42
0.0000000001
 43
0.0000000001
 40
0.0
 40
0.0
 40
0.0
 40
0.0
 40
0.0348385232994513
 40
0.0694372353540098
 40
0.1031910940862327
 40
0.1368553551390506
 40
0.1368553551390506
 40
0.1368553551390506
 40
0.1368553551390506
 10
17.81956970985129
 20
4.067765673405119
 30
0.0
 10
17.8207177030805
 20
4.069789120028872
 30
0.0
 10
17.82300578731883
 20
4.073822084865923
 30
0.0
 10
17.82535076906572
 20
4.080316857995967
 30
0.0
 10
17.82689909457542
 20
4.086971060798077
 30
0.0
 10
17.82708847685478
 20
4.091470597355282
 30
0.0
 10
17.82718304215132
 20
4.093717375725191
 30
0.0
  0
SPLINE
  5
1FE
330
2
100
AcDbEntity
  8
GAIKEI
  6
Continuous
 62
     1
100
AcDbSpline
210
0.0
220
0.0
230
1.0
 70
     8
 71
     3
 72
    11
 73
     7
 74
     0
 42
0.0000000001
 43
0.0000000001
 40
0.0
 40
0.0
 40
0.0
 40
0.0
 40
8.788051173265715
 40
17.43665787898277
 40
25.38804224690029
 40
33.19998214728507
 40
33.19998214728507
 40
33.19998214728507
 40
33.19998214728507
 10
18.53606765290942
 20
23.75543171746722
 30
0.0
 10
17.95059118188715
 20
23.73395963255052
 30
0.0
 10
16.78892829211429
 20
23.69135617118468
 30
0.0
 10
15.09752912185206
 20
23.62932823244148
 30
0.0
 10
13.47116043974358
 20
23.56968191906185
 30
0.0
 10
12.42097850521236
 20
23.53115801731417
 30
0.0
 10
11.90053256263127
 20
23.51206646022513
 30
0.0
  0
SPLINE
  5
1FF
330
2
100
AcDbEntity
  8
GAIKEI
  6
Continuous
 62
     1
100
AcDbSpline
210
0.0
220
0.0
230
1.0
 70
    24
 71
     3
 72
     9
 73
     5
 74
     0
 42
0.0000000001
 43
0.0000000001
 40
0.0
 40
0.0
 40
0.0
 40
0.0
 40
1.545206978127539
 40
3.09041395625497
 40
3.09041395625497
 40
3.09041395625497
 40
3.09041395625497
 10
11.90053256263127
 20
23.51206646022513
 30
0.0
 10
11.79758789074458
 20
23.50829323611856
 30
0.0
 10
11.5916985469712
 20
23.5007467879052
 30
0.0
 10
11.38580920319782
 20
23.49320033969184
 30
0.0
 10
11.28286453131113
 20
23.48942711558516
 30
0.0
  0
SPLINE
  5
200
330
2
100
AcDbEntity
  8
GAIKEI
  6
Continuous
 62
     1
100
AcDbSpline
210
0.0
220
0.0
230
1.0
 70
     8
 71
     3
 72
    13
 73
     9
 74
     0
 42
0.0000000001
 43
0.0000000001
 40
0.0
 40
0.0
 40
0.0
 40
0.0
 40
0.2676025476753195
 40
0.5190344315702527
 40
0.6801266406219875
 40
0.8306133633515479
 40
0.9290087780896946
 40
1.030003077032166
 40
1.030003077032166
 40
1.030003077032166
 40
1.030003077032166
 10
17.62557158327115
 20
2.387566143245066
 30
0.0
 10
17.64339530146287
 20
2.38668354867309
 30
0.0
 10
17.67796568773337
 20
2.384971692877911
 30
0.0
 10
17.72331852037598
 20
2.385758633462614
 30
0.0
 10
17.76082625718163
 20
2.388248832467638
 30
0.0
 10
17.78800047089407
 20
2.389088609122609
 30
0.0
 10
17.8114780823031
 20
2.393708661241817
 30
0.0
 10
17.82190276309802
 20
2.402286726720831
 30
0.0
 10
17.82718304215132
 20
2.406631663545113
 30
0.0
  0
SPLINE
  5
201
330
2
100
AcDbEntity
  8
GAIKEI
  6
Continuous
 62
     1
100
AcDbSpline
210
0.0
220
0.0
230
1.0
 70
     8
 71
     3
 72
    13
 73
     9
 74
     0
 42
0.0000000001
 43
0.0000000001
 40
0.0
 40
0.0
 40
0.0
 40
0.0
 40
0.2681039770822204
 40
0.5179609057137591
 40
0.6875626681725936
 40
0.8485310657851602
 40
0.9696674731444058
 40
1.098847422694987
 40
1.098847422694987
 40
1.098847422694987
 40
1.098847422694987
 10
17.62557158307117
 20
2.980627378425083
 30
0.0
 10
17.64344567138221
 20
2.979975817999275
 30
0.0
 10
17.67797734476926
 20
2.978717042087282
 30
0.0
 10
17.72377825388594
 20
2.982700005610013
 30
0.0
 10
17.76180760706143
 20
2.990240015533231
 30
0.0
 10
17.79100581292209
 20
2.996925269329835
 30
0.0
 10
17.8163398311799
 20
3.010465082495556
 30
0.0
 10
17.82349203008505
 20
3.026043984296393
 30
0.0
 10
17.82718304215132
 20
3.034083737565197
 30
0.0
  0
SPLINE
  5
202
330
2
100
AcDbEntity
  8
GAIKEI
  6
Continuous
 62
     1
100
AcDbSpline
210
0.0
220
0.0
230
1.0
 70
     8
 71
     3
 72
    15
 73
    11
 74
     0
 42
0.0000000001
 43
0.0000000001
 40
0.0
 40
0.0
 40
0.0
 40
0.0
 40
0.4558254469457951
 40
0.8881196096934544
 40
1.159989926463778
 40
1.409287138155915
 40
1.573697220296565
 40
1.745916180911066
 40
1.905055110895996
 40
2.074316270337079
 40
2.074316270337079
 40
2.074316270337079
 40
2.074316270337079
 10
12.19469744481125
 20
29.76155264038516
 30
0.0
 10
12.16434570455772
 20
29.76008003136599
 30
0.0
 10
12.10520908573107
 20
29.75721083449207
 30
0.0
 10
12.0278832682776
 20
29.75501603305986
 30
0.0
 10
11.96432824029637
 20
29.75567886939166
 30
0.0
 10
11.91860861177588
 20
29.75751089981395
 30
0.0
 10
11.87995879195364
 20
29.76430469936565
 30
0.0
 10
11.84860904277286
 20
29.77425615052402
 30
0.0
 10
11.81944237438733
 20
29.79482020023965
 30
0.0
 10
11.81523002596964
 20
29.81715891834165
 30
0.0
 10
11.81305893345131
 20
29.82867254896519
 30
0.0
  0
SPLINE
  5
203
330
2
100
AcDbEntity
  8
GAIKEI
  6
Continuous
 62
     1
100
AcDbSpline
210
0.0
220
0.0
230
1.0
 70
     8
 71
     3
 72
    15
 73
    11
 74
     0
 42
0.0000000001
 43
0.0000000001
 40
0.0
 40
0.0
 40
0.0
 40
0.0
 40
0.4560462650218573
 40
0.8876135315760942
 40
1.163803185706382
 40
1.417666699797722
 40
1.596619238998066
 40
1.785087357083181
 40
1.979373448407642
 40
2.186690227515209
 40
2.186690227515209
 40
2.186690227515209
 40
2.186690227515209
 10
12.19469744481125
 20
28.21776753512518
 30
0.0
 10
12.16430986885257
 20
28.21670244549023
 30
0.0
 10
12.10516581772992
 20
28.21462943657684
 30
0.0
 10
12.02751456746876
 20
28.21704988122883
 30
0.0
 10
11.96373919907967
 20
28.22361801567558
 30
0.0
 10
11.9169984950604
 20
28.23144620574317
 30
0.0
 10
11.87768138375168
 20
28.24529397846118
 30
0.0
 10
11.84541903870956
 20
28.26445331907394
 30
0.0
 10
11.81758451369751
 20
28.29498373741831
 30
0.0
 10
11.81459974219501
 20
28.32225360788255
 30
0.0
 10
11.81305893345131
 20
28.33633095176515
 30
0.0
  0
SPLINE
  5
204
330
2
100
AcDbEntity
  8
GAIKEI
  6
Continuous
 62
     1
100
AcDbSpline
210
0.0
220
0.0
230
1.0
 70
     8
 71
     3
 72
    11
 73
     7
 74
     0
 42
0.0000000001
 43
0.0000000001
 40
0.0
 40
0.0
 40
0.0
 40
0.0
 40
7.403541117088587
 40
14.80695653031305
 40
22.2097436682441
 40
29.61240519992056
 40
29.61240519992056
 40
29.61240519992056
 40
29.61240519992056
 10
12.19999885371112
 20
23.63284539172514
 30
0.0
 10
12.69323156026973
 20
23.65107340625355
 30
0.0
 10
13.67968859884615
 20
23.68752912581874
 30
0.0
 10
15.15934435903057
 20
23.74176961743342
 30
0.0
 10
16.63894151955014
 20
23.79600796093314
 30
0.0
 10
17.62529810136345
 20
23.83246000301165
 30
0.0
 10
18.1184722082512
 20
23.85068586942521
 30
0.0
  0
SPLINE
  5
205
330
2
100
AcDbEntity
  8
GAIKEI
  6
Continuous
 62
     1
100
AcDbSpline
210
0.0
220
0.0
230
1.0
 70
     8
 71
     3
 72
    13
 73
     9
 74
     0
 42
0.0000000001
 43
0.0000000001
 40
0.0
 40
0.0
 40
0.0
 40
0.0
 40
0.2877103536231308
 40
0.5532519821095531
 40
0.7695550532053586
 40
0.9826314110005544
 40
1.206732113733386
 40
1.450553171361339
 40
1.450553171361339
 40
1.450553171361339
 40
1.450553171361339
 10
17.62557056421121
 20
25.1965981496852
 30
0.0
 10
17.64486135614402
 20
25.19618227678677
 30
0.0
 10
17.68195654141925
 20
25.19538257492536
 30
0.0
 10
17.73090975573382
 20
25.17704196579564
 30
0.0
 10
17.76935867314728
 20
25.15077350378999
 30
0.0
 10
17.80035090722163
 20
25.11980398818514
 30
0.0
 10
17.82311043337222
 20
25.07911407074948
 30
0.0
 10
17.82578789245008
 20
25.04771319371491
 30
0.0
 10
17.82718304215132
 20
25.03135106718514
 30
0.0
  0
SPLINE
  5
206
330
2
100
AcDbEntity
  8
GAIKEI
  6
Continuous
 62
     1
100
AcDbSpline
210
0.0
220
0.0
230
1.0
 70
     8
 71
     3
 72
    13
 73
     9
 74
     0
 42
0.0000000001
 43
0.0000000001
 40
0.0
 40
0.0
 40
0.0
 40
0.0
 40
0.2834522840097961
 40
0.5455677748894637
 40
0.7509479883227983
 40
0.9515690305422765
 40
1.152613214618789
 40
1.371891242517323
 40
1.371891242517323
 40
1.371891242517323
 40
1.371891242517323
 10
17.62557056413141
 20
27.29006550942518
 30
0.0
 10
17.64455146894693
 20
27.28996174420786
 30
0.0
 10
17.6810844961609
 20
27.28976202467152
 30
0.0
 10
17.72961532183444
 20
27.27461729326729
 30
0.0
 10
17.76831191567112
 20
27.25214398948981
 30
0.0
 10
17.79934019745042
 20
27.22583231419753
 30
0.0
 10
17.82264962846761
 20
27.19004231819713
 30
0.0
 10
17.8256288244537
 20
27.16181229720053
 30
0.0
 10
17.82718304215132
 20
27.14708496860521
 30
0.0
  0
SPLINE
  5
207
330
2
100
AcDbEntity
  8
GAIKEI
  6
Continuous
 62
     1
100
AcDbSpline
210
0.0
220
0.0
230
1.0
 70
     8
 71
     3
 72
    13
 73
     9
 74
     0
 42
0.0000000001
 43
0.0000000001
 40
0.0
 40
0.0
 40
0.0
 40
0.0
 40
0.2792835488595399
 40
0.5381008791178031
 40
0.7312275986436207
 40
0.9178803250787506
 40
1.091947155220911
 40
1.282122681943056
 40
1.282122681943056
 40
1.282122681943056
 40
1.282122681943056
 10
17.62557056425123
 20
29.07870870128522
 30
0.0
 10
17.64424205510488
 20
29.07888530819377
 30
0.0
 10
17.68021676855949
 20
29.07922558005441
 30
0.0
 10
17.72815297883301
 20
29.06769653589492
 30
0.0
 10
17.76692805781226
 20
29.04973941175786
 30
0.0
 10
17.7977756258374
 20
29.02919804818737
 30
0.0
 10
17.82176091192468
 20
28.99954994829284
 30
0.0
 10
17.82532315180083
 20
28.9751031008368
 30
0.0
 10
17.82718304215132
 20
28.96233909356522
 30
0.0
  0
SPLINE
  5
208
330
2
100
AcDbEntity
  8
GAIKEI
  6
Continuous
 62
     1
100
AcDbSpline
210
0.0
220
0.0
230
1.0
 70
     8
 71
     3
 72
    13
 73
     9
 74
     0
 42
0.0000000001
 43
0.0000000001
 40
0.0
 40
0.0
 40
0.0
 40
0.0
 40
0.2759039632393158
 40
0.5320424762468941
 40
0.7126005696283216
 40
0.885081241461463
 40
1.030153631820558
 40
1.188106506162224
 40
1.188106506162224
 40
1.188106506162224
 40
1.188106506162224
 10
17.62557056877131
 20
30.50818070722517
 30
0.0
 10
17.64398725316153
 20
30.50860342073725
 30
0.0
 10
17.67950127134463
 20
30.50941856503982
 30
0.0
 10
17.72671087384469
 20
30.50165022159069
 30
0.0
 10
17.76530255601346
 20
30.48867825734033
 30
0.0
 10
17.79548578165361
 20
30.47481293108751
 30
0.0
 10
17.82008349507191
 20
30.45259476285003
 30
0.0
 10
17.82475040213489
 20
30.43245551197924
 30
0.0
 10
17.82718304215132
 20
30.4219578639852
 30
0.0
  0
SPLINE
  5
209
330
2
100
AcDbEntity
  8
GAIKEI
  6
Continuous
 62
     1
100
AcDbSpline
210
0.0
220
0.0
230
1.0
 70
     8
 71
     3
 72
    15
 73
    11
 74
     0
 42
0.0000000001
 43
0.0000000001
 40
0.0
 40
0.0
 40
0.0
 40
0.0
 40
0.4576620272816301
 40
0.8903775878983182
 40
1.173206578152957
 40
1.433828787222848
 40
1.629558374845407
 40
1.836752820176769
 40
2.065387886899378
 40
2.308271120747326
 40
2.308271120747326
 40
2.308271120747326
 40
2.308271120747326
 10
12.19469744481125
 20
26.34097050538526
 30
0.0
 10
12.16417878564016
 20
26.34034924783896
 30
0.0
 10
12.10480499336824
 20
26.33914059655797
 30
0.0
 10
12.0266890694188
 20
26.34621582732382
 30
0.0
 10
11.96275057924117
 20
26.35854373508824
 30
0.0
 10
11.91530643338819
 20
26.37257441582506
 30
0.0
 10
11.87580551408564
 20
26.39321779461011
 30
0.0
 10
11.843457357244
 20
26.42045843537358
 30
0.0
 10
11.81693603580061
 20
26.45913159940164
 30
0.0
 10
11.814377076136
 20
26.49097310198715
 30
0.0
 10
11.81305893345131
 20
26.50737494070518
 30
0.0
  0
SPLINE
  5
20A
330
2
100
AcDbEntity
  8
GAIKEI
  6
Continuous
 62
     1
100
AcDbSpline
210
0.0
220
0.0
230
1.0
 70
     8
 71
     3
 72
    13
 73
     9
 74
     0
 42
0.0000000001
 43
0.0000000001
 40
0.0
 40
0.0
 40
0.0
 40
0.0
 40
0.2739083881383796
 40
0.5286952221421915
 40
0.6977164837515151
 40
0.8573608034878532
 40
0.9743107759425363
 40
1.099218341993793
 40
1.099218341993793
 40
1.099218341993793
 40
1.099218341993793
 10
17.62557056415142
 20
31.53504774298517
 30
0.0
 10
17.64383210425285
 20
31.53571100098953
 30
0.0
 10
17.67908034570394
 20
31.53699121493378
 30
0.0
 10
17.72555455794406
 20
31.53279853155732
 30
0.0
 10
17.76373274907359
 20
31.52497684993227
 30
0.0
 10
17.79248150775811
 20
31.51811449495279
 30
0.0
 10
17.8170380898822
 20
31.50457363480234
 30
0.0
 10
17.82372802072234
 20
31.48941842520083
 30
0.0
 10
17.82718304215132
 20
31.4815915021452
 30
0.0
  0
SPLINE
  5
20B
330
2
100
AcDbEntity
  8
GAIKEI
  6
Continuous
 62
     1
100
AcDbSpline
210
0.0
220
0.0
230
1.0
 70
     8
 71
     3
 72
    13
 73
     9
 74
     0
 42
0.0000000001
 43
0.0000000001
 40
0.0
 40
0.0
 40
0.0
 40
0.0
 40
0.273281826913559
 40
0.5294498515238977
 40
0.6898295985315393
 40
0.838889553230517
 40
0.9332925337158727
 40
1.030282883104646
 40
1.030282883104646
 40
1.030282883104646
 40
1.030282883104646
 10
17.62557056419121
 20
32.12810897398515
 30
0.0
 10
17.64377270955583
 20
32.1290120054058
 30
0.0
 10
17.67903712237671
 20
32.13076151746441
 30
0.0
 10
17.72503714002198
 20
32.12988966450826
 30
0.0
 10
17.76271170815562
 20
32.1272591008991
 30
0.0
 10
17.78947074848918
 20
32.12635903349474
 30
0.0
 10
17.81230616104176
 20
32.121711592883
 30
0.0
 10
17.82217959015179
 20
32.1133041340679
 30
0.0
 10
17.82718304215132
 20
32.10904357614515
 30
0.0
  0
SPLINE
  5
20C
330
2
100
AcDbEntity
  8
GAIKEI
  6
Continuous
 62
     1
100
AcDbSpline
210
0.0
220
0.0
230
1.0
 70
     8
 71
     3
 72
    15
 73
    11
 74
     0
 42
0.0000000001
 43
0.0000000001
 40
0.0
 40
0.0
 40
0.0
 40
0.0
 40
0.4605162863637485
 40
0.8958130142430784
 40
1.186601939994351
 40
1.455338213054621
 40
1.668076358953674
 40
1.893912087183983
 40
2.153194154907537
 40
2.427373675266705
 40
2.427373675266705
 40
2.427373675266705
 40
2.427373675266705
 10
12.19469744481125
 20
24.18818707920514
 30
0.0
 10
12.16396526593416
 20
24.1880377966512
 30
0.0
 10
12.104183914852
 20
24.18774740680272
 30
0.0
 10
12.02556916124558
 20
24.1994351755327
 30
0.0
 10
11.9615951578877
 20
24.21722375634443
 30
0.0
 10
11.91382163460014
 20
24.23709583407458
 30
0.0
 10
11.87452328624977
 20
24.26380324527304
 30
0.0
 10
11.84238287176708
 20
24.29774242602491
 30
0.0
 10
11.8168298331517
 20
24.34304693508409
 30
0.0
 10
11.81433908556391
 20
24.37893254351411
 30
0.0
 10
11.81305893345131
 20
24.39737641862519
 30
0.0
  0
SPLINE
  5
20D
330
2
100
AcDbEntity
  8
GAIKEI
  6
Continuous
 62
     1
100
AcDbSpline
210
0.0
220
0.0
230
1.0
 70
     8
 71
     3
 72
    11
 73
     7
 74
     0
 42
0.0000000001
 43
0.0000000001
 40
0.0
 40
0.0
 40
0.0
 40
0.0
 40
0.1161650822198574
 40
0.2323936828675603
 40
0.348951171789569
 40
0.4655766523213788
 40
0.4655766523213788
 40
0.4655766523213788
 40
0.4655766523213788
 10
12.10689902863123
 20
23.6318412138852
 30
0.0
 10
12.11464295050541
 20
23.63174930294599
 30
0.0
 10
12.13013502858757
 20
23.63156543081118
 30
0.0
 10
12.15339901497975
 20
23.63168593032367
 30
0.0
 10
12.17669082530938
 20
23.632069474025
 30
0.0
 10
12.19222800079797
 20
23.63258670222058
 30
0.0
 10
12.19999885371112
 20
23.63284539172514
 30
0.0
  0
SPLINE
  5
20E
330
2
100
AcDbEntity
  8
GAIKEI
  6
Continuous
 62
     1
100
AcDbSpline
210
0.0
220
0.0
230
1.0
 70
     8
 71
     3
 72
    15
 73
    11
 74
     0
 42
0.0000000001
 43
0.0000000001
 40
0.0
 40
0.0
 40
0.0
 40
0.0
 40
0.4846795225678424
 40
0.9429988147257832
 40
1.266080670431393
 40
1.569054869902942
 40
1.820583276583172
 40
2.085297441629819
 40
2.381464179206522
 40
2.689587478918312
 40
2.689587478918312
 40
2.689587478918312
 40
2.689587478918312
 10
12.20000217821109
 20
25.05437755654521
 30
0.0
 10
12.167654851983
 20
25.0520830307596
 30
0.0
 10
12.10471947123676
 20
25.04761877139765
 30
0.0
 10
12.02406374127804
 20
25.01965778489603
 30
0.0
 10
11.96047884560721
 20
24.98502325986499
 30
0.0
 10
11.91310848883677
 20
24.95022093915225
 30
0.0
 10
11.87512360191829
 20
24.91065202550146
 30
0.0
 10
11.84365395703855
 20
24.86644575836863
 30
0.0
 10
11.81892058621224
 20
24.81302485710751
 30
0.0
 10
11.81503842204188
 20
24.7726643406545
 30
0.0
 10
11.81305893345131
 20
24.75208479318519
 30
0.0
  0
SPLINE
  5
20F
330
2
100
AcDbEntity
  8
GAIKEI
  6
Continuous
 62
     1
100
AcDbSpline
210
0.0
220
0.0
230
1.0
 70
     8
 71
     3
 72
    15
 73
    11
 74
     0
 42
0.0000000001
 43
0.0000000001
 40
0.0
 40
0.0
 40
0.0
 40
0.0
 40
0.4843984616072922
 40
0.9427008571258289
 40
1.262992572014313
 40
1.563507688055421
 40
1.805410084975157
 40
2.059180196232126
 40
2.333250304315002
 40
2.617426744833936
 40
2.617426744833936
 40
2.617426744833936
 40
2.617426744833936
 10
12.20000217821109
 20
27.10721939170526
 30
0.0
 10
12.16769905576427
 20
27.10469108179655
 30
0.0
 10
12.10483308150515
 20
27.09977066997249
 30
0.0
 10
12.02439108495446
 20
27.07201365365631
 30
0.0
 10
11.96086037345549
 20
27.03805694700975
 30
0.0
 10
11.91374794571209
 20
27.00464354396354
 30
0.0
 10
11.87587442414315
 20
26.96716684691342
 30
0.0
 10
11.84457661642852
 20
26.92640984221816
 30
0.0
 10
11.81964544129926
 20
26.87731224317213
 30
0.0
 10
11.81528077494886
 20
26.84008401630876
 30
0.0
 10
11.81305893345131
 20
26.82113291840517
 30
0.0
  0
SPLINE
  5
210
330
2
100
AcDbEntity
  8
GAIKEI
  6
Continuous
 62
     1
100
AcDbSpline
210
0.0
220
0.0
230
1.0
 70
     8
 71
     3
 72
    15
 73
    11
 74
     0
 42
0.0000000001
 43
0.0000000001
 40
0.0
 40
0.0
 40
0.0
 40
0.0
 40
0.4828655719993846
 40
0.9400294828891286
 40
1.255249200888417
 40
1.55099195892142
 40
1.779196831877984
 40
2.017708563055173
 40
2.263049050097456
 40
2.516202823498914
 40
2.516202823498914
 40
2.516202823498914
 40
2.516202823498914
 10
12.20000217821109
 20
28.86079274576514
 30
0.0
 10
12.16782649308436
 20
28.85812884148868
 30
0.0
 10
12.10518774970489
 20
28.85294282553582
 30
0.0
 10
12.02502953144039
 20
28.8262902794944
 30
0.0
 10
11.9614611426349
 20
28.79403409125245
 30
0.0
 10
11.91463842324208
 20
28.76303894446846
 30
0.0
 10
11.87686702403471
 20
28.7287776266827
 30
0.0
 10
11.84582394026847
 20
28.6928231388913
 30
0.0
 10
11.82064810629538
 20
28.64955587201075
 30
0.0
 10
11.81561495389701
 20
28.61642847127075
 30
0.0
 10
11.81305893345131
 20
28.59960515520516
 30
0.0
  0
SPLINE
  5
211
330
2
100
AcDbEntity
  8
GAIKEI
  6
Continuous
 62
     1
100
AcDbSpline
210
0.0
220
0.0
230
1.0
 70
     8
 71
     3
 72
    15
 73
    11
 74
     0
 42
0.0000000001
 43
0.0000000001
 40
0.0
 40
0.0
 40
0.0
 40
0.0
 40
0.4802517750511698
 40
0.9353263119814545
 40
1.243647490034802
 40
1.532777691412157
 40
1.744093445787013
 40
1.963987954771545
 40
2.175417429806449
 40
2.391835579313486
 40
2.391835579313486
 40
2.391835579313486
 40
2.391835579313486
 10
12.20000217821109
 20
30.2618161797252
 30
0.0
 10
12.16802282824437
 20
30.25911222236812
 30
0.0
 10
12.10574064831758
 20
30.25384606283694
 30
0.0
 10
12.02592194108968
 20
30.22912976410146
 30
0.0
 10
11.96223593150659
 20
30.19953989062151
 30
0.0
 10
11.91577104218959
 20
30.1718660085204
 30
0.0
 10
11.87813819791995
 20
30.1418361244198
 30
0.0
 10
11.84752306873133
 20
30.11189544809997
 30
0.0
 10
11.82212327471688
 20
30.0758724163245
 30
0.0
 10
11.81610377618892
 20
30.04770928198116
 30
0.0
 10
11.81305893345131
 20
30.03346352468521
 30
0.0
  0
SPLINE
  5
212
330
2
100
AcDbEntity
  8
GAIKEI
  6
Continuous
 62
     1
100
AcDbSpline
210
0.0
220
0.0
230
1.0
 70
     8
 71
     3
 72
    15
 73
    11
 74
     0
 42
0.0000000001
 43
0.0000000001
 40
0.0
 40
0.0
 40
0.0
 40
0.0
 40
0.4768455925618538
 40
0.9291398484904574
 40
1.22945763681081
 40
1.510933215680008
 40
1.703434626159419
 40
1.902681830997525
 40
2.077156239857825
 40
2.253159052090301
 40
2.253159052090301
 40
2.253159052090301
 40
2.253159052090301
 10
12.20000217821109
 20
31.26772030544521
 30
0.0
 10
12.16826684128045
 20
31.2650618418395
 30
0.0
 10
12.10643012388686
 20
31.2598817908746
 30
0.0
 10
12.02698415924453
 20
31.23783711943759
 30
0.0
 10
11.96310894698808
 20
31.21179646416033
 30
0.0
 10
11.91709732900995
 20
31.18814901742235
 30
0.0
 10
11.8796861351235
 20
31.16320786780523
 30
0.0
 10
11.84983633444165
 20
31.14022373697981
 30
0.0
 10
11.82443101208446
 20
31.11274068624596
 30
0.0
 10
11.81686063093968
 20
31.09037338663882
 30
0.0
 10
11.81305893345131
 20
31.07914096582522
 30
0.0
  0
SPLINE
  5
213
330
2
100
AcDbEntity
  8
GAIKEI
  6
Continuous
 62
     1
100
AcDbSpline
210
0.0
220
0.0
230
1.0
 70
     8
 71
     3
 72
    15
 73
    11
 74
     0
 42
0.0000000001
 43
0.0000000001
 40
0.0
 40
0.0
 40
0.0
 40
0.0
 40
0.7552536864767811
 40
1.479807626753695
 40
2.018730637101077
 40
2.532023426933767
 40
2.956465754703663
 40
3.39524359016228
 40
3.846727896750659
 40
4.308883520640888
 40
4.308883520640888
 40
4.308883520640888
 40
4.308883520640888
 10
9.636225740891404
 20
16.5438601458452
 30
0.0
 10
9.636919636772745
 20
16.49350236428961
 30
0.0
 10
9.638279222877258
 20
16.39483375724182
 30
0.0
 10
9.64973160917907
 20
16.26061562942914
 30
0.0
 10
9.665912018596941
 20
16.14325135743968
 30
0.0
 10
9.683798658958153
 20
16.0463848596994
 30
0.0
 10
9.706722608439349
 20
15.95744064199061
 30
0.0
 10
9.73311276740219
 20
15.87392430423494
 30
0.0
 10
9.77151102728726
 20
15.79122845309393
 30
0.0
 10
9.812354177793849
 20
15.74562199048432
 30
0.0
 10
9.83301427711126
 20
15.72255241736525
 30
0.0
  0
SPLINE
  5
214
330
2
100
AcDbEntity
  8
GAIKEI
  6
Continuous
 62
     1
100
AcDbSpline
210
0.0
220
0.0
230
1.0
 70
     8
 71
     3
 72
    15
 73
    11
 74
     0
 42
0.0000000001
 43
0.0000000001
 40
0.0
 40
0.0
 40
0.0
 40
0.0
 40
0.4730427790073633
 40
0.9220537867855805
 40
1.214327377187478
 40
1.488491763833003
 40
1.662014356234084
 40
1.8401663597916
 40
1.978091102081384
 40
2.113790678864322
 40
2.113790678864322
 40
2.113790678864322
 40
2.113790678864322
 10
12.20000217821109
 20
31.84794123512518
 30
0.0
 10
12.16853081766135
 20
31.84540134069653
 30
0.0
 10
12.10718692138402
 20
31.8404505849087
 30
0.0
 10
12.02811234435842
 20
31.82168809631503
 30
0.0
 10
11.9639655592947
 20
31.79996525344916
 30
0.0
 10
11.91843375192275
 20
31.78082477689611
 30
0.0
 10
11.88134442188754
 20
31.76162604770912
 30
0.0
 10
11.85285481337109
 20
31.74586013063845
 30
0.0
 10
11.82817016791648
 20
31.72784219507412
 30
0.0
 10
11.81806862905512
 20
31.71248249481744
 30
0.0
 10
11.81305893345131
 20
31.70486509870523
 30
0.0
  0
SPLINE
  5
215
330
2
100
AcDbEntity
  8
GAIKEI
  6
Continuous
 62
     1
100
AcDbSpline
210
0.0
220
0.0
230
1.0
 70
     8
 71
     3
 72
    15
 73
    11
 74
     0
 42
0.0000000001
 43
0.0000000001
 40
0.0
 40
0.0
 40
0.0
 40
0.0
 40
0.4625777132456957
 40
0.9003095928482709
 40
1.180207367202802
 40
1.437468957633977
 40
1.618308588924837
 40
1.80872969493069
 40
2.004390871887303
 40
2.213156519535839
 40
2.213156519535839
 40
2.213156519535839
 40
2.213156519535839
 10
12.20000217821109
 20
6.297701900665174
 30
0.0
 10
12.16918151123889
 20
6.298841483789146
 30
0.0
 10
12.10919560759817
 20
6.30105944109448
 30
0.0
 10
12.03044571145733
 20
6.298765646356741
 30
0.0
 10
11.96577388389005
 20
6.292281494400413
 30
0.0
 10
11.91840587527917
 20
6.28458431460001
 30
0.0
 10
11.87855211833255
 20
6.270800977579256
 30
0.0
 10
11.84588478954117
 20
6.251646160357609
 30
0.0
 10
11.81766619712664
 20
6.220988887268617
 30
0.0
 10
11.81462750845605
 20
6.19352247181257
 30
0.0
 10
11.81305893345131
 20
6.179344272785215
 30
0.0
  0
SPLINE
  5
216
330
2
100
AcDbEntity
  8
GAIKEI
  6
Continuous
 62
     1
100
AcDbSpline
210
0.0
220
0.0
230
1.0
 70
     8
 71
     3
 72
    13
 73
     9
 74
     0
 42
0.0000000001
 43
0.0000000001
 40
0.0
 40
0.0
 40
0.0
 40
0.0
 40
0.2767809104360441
 40
0.5331137807713886
 40
0.7385689249882459
 40
0.9400792371874322
 40
1.146529291413165
 40
1.371771081747326
 40
1.371771081747326
 40
1.371771081747326
 40
1.371771081747326
 10
17.62557158311119
 20
7.225609644985183
 30
0.0
 10
17.64410091185482
 20
7.225700439540787
 30
0.0
 10
17.67979065825443
 20
7.225875320925183
 30
0.0
 10
17.72761530004754
 20
7.24031884253543
 30
0.0
 10
17.76631502088298
 20
7.262140194496168
 30
0.0
 10
17.79804883172096
 20
7.28825085022629
 30
0.0
 10
17.8223443058007
 20
7.324463831322759
 30
0.0
 10
17.82552399231633
 20
7.35346070889409
 30
0.0
 10
17.82718304215132
 20
7.368590271105176
 30
0.0
  0
SPLINE
  5
217
330
2
100
AcDbEntity
  8
GAIKEI
  6
Continuous
 62
     1
100
AcDbSpline
210
0.0
220
0.0
230
1.0
 70
     8
 71
     3
 72
    13
 73
     9
 74
     0
 42
0.0000000001
 43
0.0000000001
 40
0.0
 40
0.0
 40
0.0
 40
0.0
 40
0.272948544908664
 40
0.5262613527731741
 40
0.7196143093478291
 40
0.9072870515080369
 40
1.086330114206103
 40
1.281932668748455
 40
1.281932668748455
 40
1.281932668748455
 40
1.281932668748455
 10
17.6255715832309
 20
5.436966438985223
 30
0.0
 10
17.64381637606482
 20
5.436789260899445
 30
0.0
 10
17.67899344345323
 20
5.43644765080171
 30
0.0
 10
17.72622158705769
 20
5.447429411151802
 30
0.0
 10
17.76493516644189
 20
5.464834660689689
 30
0.0
 10
17.79641439877639
 20
5.485140527528301
 30
0.0
 10
17.82136747477568
 20
5.515076202356453
 30
0.0
 10
17.82518822675149
 20
5.540212486812265
 30
0.0
 10
17.82718304215132
 20
5.55333614614517
 30
0.0
  0
SPLINE
  5
218
330
2
100
AcDbEntity
  8
GAIKEI
  6
Continuous
 62
     1
100
AcDbSpline
210
0.0
220
0.0
230
1.0
 70
     8
 71
     3
 72
    15
 73
    11
 74
     0
 42
0.0000000001
 43
0.0000000001
 40
0.0
 40
0.0
 40
0.0
 40
0.0
 40
0.4641330336379868
 40
0.9029206538353669
 40
1.189384410786894
 40
1.453339845367695
 40
1.650935465755917
 40
1.86007338414599
 40
2.090223027620402
 40
2.334717335502135
 40
2.334717335502135
 40
2.334717335502135
 40
2.334717335502135
 10
12.20000217821109
 20
8.174538185365236
 30
0.0
 10
12.16905436842683
 20
8.175278399436592
 30
0.0
 10
12.1088487493048
 20
8.176718405910946
 30
0.0
 10
12.02963150741027
 20
8.169812671469685
 30
0.0
 10
11.96479449079152
 20
8.157567121037914
 30
0.0
 10
11.91670315687031
 20
8.143656595828815
 30
0.0
 10
11.87664439482182
 20
8.123043043420466
 30
0.0
 10
11.84388001267712
 20
8.095741356944927
 30
0.0
 10
11.81699438670864
 20
8.056871880173048
 30
0.0
 10
11.81439691805713
 20
8.024813766929128
 30
0.0
 10
11.81305893345131
 20
8.008300281005176
 30
0.0
  0
SPLINE
  5
219
330
2
100
AcDbEntity
  8
GAIKEI
  6
Continuous
 62
     1
100
AcDbSpline
210
0.0
220
0.0
230
1.0
 70
     8
 71
     3
 72
    27
 73
    23
 74
     0
 42
0.0000000001
 43
0.0000000001
 40
0.0
 40
0.0
 40
0.0
 40
0.0
 40
0.029444003214765
 40
0.0651039692750814
 40
0.1291608404245123
 40
0.1960731707698598
 40
0.2736838346867799
 40
0.3479288602866006
 40
0.4166251338570236
 40
0.4852892928299922
 40
0.5488829011736818
 40
0.6124226997788334
 40
0.6701068479232077
 40
0.7277050328435876
 40
0.7792523813254895
 40
0.830676694040385
 40
0.87714068608777
 40
0.9244368114750384
 40
0.9641883516479948
 40
1.003125803444819
 40
1.031997557156674
 40
1.058958993855287
 40
1.058958993855287
 40
1.058958993855287
 40
1.058958993855287
 10
18.53606765290976
 20
23.75543171747017
 30
0.0
 10
18.53803056061508
 20
23.755446753971
 30
0.0
 10
18.54237076809318
 20
23.75548000134836
 30
0.0
 10
18.55097906312903
 20
23.75570026003481
 30
0.0
 10
18.56207542069853
 20
23.756302141981
 30
0.0
 10
18.57590917008838
 20
23.75775933906175
 30
0.0
 10
18.59034116322687
 20
23.75989585880859
 30
0.0
 10
18.60477134633163
 20
23.76275485450219
 30
0.0
 10
18.61844134346324
 20
23.76626606484046
 30
0.0
 10
18.63122532503303
 20
23.77029749233611
 30
0.0
 10
18.64342137315043
 20
23.77497143206392
 30
0.0
 10
18.65463193524852
 20
23.78010794938587
 30
0.0
 10
18.66509354544053
 20
23.78584537375491
 30
0.0
 10
18.67441293019158
 20
23.79194109530567
 30
0.0
 10
18.6828246619965
 20
23.79858459037246
 30
0.0
 10
18.69001614264323
 20
23.80550762534233
 30
0.0
 10
18.6961826198459
 20
23.81299867465214
 30
0.0
 10
18.7009237872802
 20
23.82056049772382
 30
0.0
 10
18.70444422101548
 20
23.82822240152325
 30
0.0
 10
18.70627885066824
 20
23.83518393770692
 30
0.0
 10
18.70717640002147
 20
23.8414554097908
 30
0.0
 10
18.70718087918851
 20
23.84518162134293
 30
0.0
 10
18.7071830421454
 20
23.84698098147532
 30
0.0
  0
SPLINE
  5
21A
330
2
100
AcDbEntity
  8
GAIKEI
  6
Continuous
 62
     1
100
AcDbSpline
210
0.0
220
0.0
230
1.0
 70
     8
 71
     3
 72
    17
 73
    13
 74
     0
 42
0.0000000001
 43
0.0000000001
 40
0.0
 40
0.0
 40
0.0
 40
0.0
 40
0.1166084021628108
 40
0.2514235439691182
 40
0.4707775117503003
 40
0.698316553284835
 40
0.9579839591634913
 40
1.200388635222174
 40
1.465783739769182
 40
1.739417978524004
 40
2.086287967834881
 40
2.448834956569503
 40
2.448834956569503
 40
2.448834956569503
 40
2.448834956569503
 10
18.60328574238451
 20
23.79670067433995
 30
0.0
 10
18.59579610749483
 20
23.79878439350012
 30
0.0
 10
18.5796474379988
 20
23.80327717486204
 30
0.0
 10
18.54923045319265
 20
23.81102088970988
 30
0.0
 10
18.51142694165946
 20
23.81970875824084
 30
0.0
 10
18.4651286761582
 20
23.82843529121863
 30
0.0
 10
18.41708343753669
 20
23.83606786938708
 30
0.0
 10
18.36631137427218
 20
23.84247143680068
 30
0.0
 10
18.31441596719526
 20
23.84714578226749
 30
0.0
 10
18.25546556362997
 20
23.85081639171699
 30
0.0
 10
18.18992169998
 20
23.85258966388733
 30
0.0
 10
18.14263701124423
 20
23.85132974829685
 30
0.0
 10
18.1184722082512
 20
23.85068586942521
 30
0.0
  0
SPLINE
  5
21B
330
2
100
AcDbEntity
  8
GAIKEI
  6
Continuous
 62
     1
100
AcDbSpline
210
0.0
220
0.0
230
1.0
 70
     8
 71
     3
 72
    11
 73
     7
 74
     0
 42
0.0000000001
 43
0.0000000001
 40
0.0
 40
0.0
 40
0.0
 40
0.0
 40
0.1161650822198584
 40
0.2323936828675618
 40
0.3489511717895705
 40
0.4655766523213803
 40
0.4655766523213803
 40
0.4655766523213803
 40
0.4655766523213803
 10
12.10689902863123
 20
10.88383402580518
 30
0.0
 10
12.11464295050541
 20
10.88392593674439
 30
0.0
 10
12.13013502858757
 20
10.8841098088792
 30
0.0
 10
12.15339901497975
 20
10.88398930936671
 30
0.0
 10
12.17669082530938
 20
10.88360576566538
 30
0.0
 10
12.19222800079797
 20
10.8830885374698
 30
0.0
 10
12.19999885371112
 20
10.88282984796524
 30
0.0
  0
SPLINE
  5
21C
330
2
100
AcDbEntity
  8
GAIKEI
  6
Continuous
 62
     1
100
AcDbSpline
210
0.0
220
0.0
230
1.0
 70
    24
 71
     3
 72
     9
 73
     5
 74
     0
 42
0.0000000001
 43
0.0000000001
 40
0.0
 40
0.0
 40
0.0
 40
0.0
 40
1.545206978127543
 40
3.090413956254978
 40
3.090413956254978
 40
3.090413956254978
 40
3.090413956254978
 10
11.90053256263127
 20
11.00360877946514
 30
0.0
 10
11.79758789074458
 20
11.00738200357182
 30
0.0
 10
11.5916985469712
 20
11.01492845178518
 30
0.0
 10
11.38580920319782
 20
11.02247489999854
 30
0.0
 10
11.28286453131113
 20
11.02624812410522
 30
0.0
  0
SPLINE
  5
21D
330
2
100
AcDbEntity
  8
GAIKEI
  6
Continuous
 62
     1
100
AcDbSpline
210
0.0
220
0.0
230
1.0
 70
     8
 71
     3
 72
    13
 73
     9
 74
     0
 42
0.0000000001
 43
0.0000000001
 40
0.0
 40
0.0
 40
0.0
 40
0.0
 40
0.2074850019146002
 40
0.408548712931779
 40
0.5786606530953346
 40
0.7453825243867202
 40
0.8990665017932533
 40
1.055720917832539
 40
1.055720917832539
 40
1.055720917832539
 40
1.055720917832539
 10
12.10690267763129
 20
10.88390280384522
 30
0.0
 10
12.09307027623549
 20
10.88373640283225
 30
0.0
 10
12.06583356160604
 20
10.88340875062101
 30
0.0
 10
12.02726036166996
 20
10.88446953316975
 30
0.0
 10
11.99145769057452
 20
10.88659600260143
 30
0.0
 10
11.95889872421844
 20
10.88970917512063
 30
0.0
 10
11.92735374946062
 20
10.89384417814767
 30
0.0
 10
11.90698753883509
 20
10.89749980008128
 30
0.0
 10
11.89670696479118
 20
10.89934510614512
 30
0.0
  0
SPLINE
  5
21E
330
2
100
AcDbEntity
  8
GAIKEI
  6
Continuous
 62
     1
100
AcDbSpline
210
0.0
220
0.0
230
1.0
 70
    24
 71
     3
 72
     9
 73
     5
 74
     0
 42
0.0000000001
 43
0.0000000001
 40
0.0
 40
0.0
 40
0.0
 40
0.0
 40
0.1558264801996462
 40
0.3116529604001439
 40
0.3116529604001439
 40
0.3116529604001439
 40
0.3116529604001439
 10
11.34206182085108
 20
11.00404138698513
 30
0.0
 10
11.33185366240786
 20
11.00596830703853
 30
0.0
 10
11.3114373455212
 20
11.0098221471452
 30
0.0
 10
11.29102102863453
 20
11.01367598725187
 30
0.0
 10
11.28081287019131
 20
11.01560290730515
 30
0.0
  0
SPLINE
  5
21F
330
2
100
AcDbEntity
  8
GAIKEI
  6
Continuous
 62
     1
100
AcDbSpline
210
0.0
220
0.0
230
1.0
 70
     8
 71
     3
 72
     9
 73
     5
 74
     0
 42
0.0000000001
 43
0.0000000001
 40
0.0
 40
0.0
 40
0.0
 40
0.0
 40
1.411109485557813
 40
2.822218971136154
 40
2.822218971136154
 40
2.822218971136154
 40
2.822218971136154
 10
11.89670830231125
 20
10.8993318963652
 30
0.0
 10
11.80426742798204
 20
10.91678456885927
 30
0.0
 10
11.61938567932225
 20
10.95168991384764
 30
0.0
 10
11.43450310700859
 20
10.98659089593923
 30
0.0
 10
11.34206182085108
 20
11.00404138698513
 30
0.0
  0
SPLINE
  5
220
330
2
100
AcDbEntity
  8
GAIKEI
  6
Continuous
 62
     1
100
AcDbSpline
210
0.0
220
0.0
230
1.0
 70
     8
 71
     3
 72
    11
 73
     7
 74
     0
 42
0.0000000001
 43
0.0000000001
 40
0.0
 40
0.0
 40
0.0
 40
0.0
 40
0.3513725367879787
 40
0.7838266299572253
 40
1.634263687890174
 40
2.589270990717567
 40
2.589270990717567
 40
2.589270990717567
 40
2.589270990717567
 10
11.13780030013117
 20
11.0426154989052
 30
0.0
 10
11.11493391283147
 20
11.04773901696899
 30
0.0
 10
11.06392456685284
 20
11.05916833906167
 30
0.0
 10
10.95939780865467
 20
11.08978379751681
 30
0.0
 10
10.82298078561518
 20
11.15714724982774
 30
0.0
 10
10.74028061842636
 20
11.24582567511504
 30
0.0
 10
10.69653556301136
 20
11.29273298812518
 30
0.0
  0
SPLINE
  5
221
330
2
100
AcDbEntity
  8
GAIKEI
  6
Continuous
 62
     1
100
AcDbSpline
210
0.0
220
0.0
230
1.0
 70
     8
 71
     3
 72
    15
 73
    11
 74
     0
 42
0.0000000001
 43
0.0000000001
 40
0.0
 40
0.0
 40
0.0
 40
0.0
 40
1.092082401319921
 40
2.142238032343444
 40
2.96986430232173
 40
3.758463868145222
 40
4.505517220456506
 40
5.286382520827475
 40
6.208770536783326
 40
7.163006302364134
 40
7.163006302364134
 40
7.163006302364134
 40
7.163006302364134
 10
9.559008985951209
 20
14.27047992116513
 30
0.0
 10
9.559964972349007
 20
14.19766956271269
 30
0.0
 10
9.561840243315259
 20
14.05484415060368
 30
0.0
 10
9.575237235049598
 20
13.85721010854058
 30
0.0
 10
9.593520677163382
 20
13.68038018595575
 30
0.0
 10
9.614234225641666
 20
13.52416075627173
 30
0.0
 10
9.640812665784892
 20
13.37198503723334
 30
0.0
 10
9.674716440447809
 20
13.21217644317244
 30
0.0
 10
9.72132045412934
 20
13.04094200062934
 30
0.0
 10
9.767037906508562
 20
12.92439882758856
 30
0.0
 10
9.790284562871306
 20
12.86513832740524
 30
0.0
  0
SPLINE
  5
222
330
2
100
AcDbEntity
  8
GAIKEI
  6
Continuous
 62
     1
100
AcDbSpline
210
0.0
220
0.0
230
1.0
 70
     8
 71
     3
 72
     9
 73
     5
 74
     0
 42
0.0000000001
 43
0.0000000001
 40
0.0
 40
0.0
 40
0.0
 40
0.0
 40
4.537355744261627
 40
9.087729449561678
 40
9.087729449561678
 40
9.087729449561678
 40
9.087729449561678
 10
10.69653556303137
 20
11.29273298810517
 30
0.0
 10
10.52439616890296
 20
11.54213919363451
 30
0.0
 10
10.17962350182063
 20
12.04166716689497
 30
0.0
 10
9.920141302152728
 20
12.59036563057327
 30
0.0
 10
9.790214351211261
 20
12.8651078613052
 30
0.0
  0
SPLINE
  5
223
330
2
100
AcDbEntity
  8
GAIKEI
  6
Continuous
 62
     1
100
AcDbSpline
210
0.0
220
0.0
230
1.0
 70
     8
 71
     3
 72
    11
 73
     7
 74
     0
 42
0.0000000001
 43
0.0000000001
 40
0.0
 40
0.0
 40
0.0
 40
0.0
 40
7.403541117088587
 40
14.80695653031306
 40
22.2097436682441
 40
29.61240519992058
 40
29.61240519992058
 40
29.61240519992058
 40
29.61240519992058
 10
12.19999885371112
 20
10.88282984796524
 30
0.0
 10
12.69323156026973
 20
10.86460183343683
 30
0.0
 10
13.67968859884615
 20
10.82814611387164
 30
0.0
 10
15.15934435903057
 20
10.77390562225684
 30
0.0
 10
16.63894151955014
 20
10.71966727875735
 30
0.0
 10
17.62529810136345
 20
10.68321523667873
 30
0.0
 10
18.1184722082512
 20
10.66498937026517
 30
0.0
  0
SPLINE
  5
224
330
2
100
AcDbEntity
  8
GAIKEI
  6
Continuous
 62
     1
100
AcDbSpline
210
0.0
220
0.0
230
1.0
 70
     8
 71
     3
 72
    11
 73
     7
 74
     0
 42
0.0000000001
 43
0.0000000001
 40
0.0
 40
0.0
 40
0.0
 40
0.0
 40
8.788051173265678
 40
17.43665787898274
 40
25.38804224690028
 40
33.19998214728506
 40
33.19998214728506
 40
33.19998214728506
 40
33.19998214728506
 10
18.53606765290942
 20
10.76024352222316
 30
0.0
 10
17.95059118188715
 20
10.78171560713986
 30
0.0
 10
16.78892829211429
 20
10.82431906850547
 30
0.0
 10
15.09752912185206
 20
10.88634700724878
 30
0.0
 10
13.47116043974358
 20
10.94599332062841
 30
0.0
 10
12.42097850521236
 20
10.9845172223761
 30
0.0
 10
11.90053256263127
 20
11.00360877946514
 30
0.0
  0
SPLINE
  5
225
330
2
100
AcDbEntity
  8
GAIKEI
  6
Continuous
 62
     1
100
AcDbSpline
210
0.0
220
0.0
230
1.0
 70
     8
 71
     3
 72
    17
 73
    13
 74
     0
 42
0.0000000001
 43
0.0000000001
 40
0.0
 40
0.0
 40
0.0
 40
0.0
 40
0.1166084021627807
 40
0.2514235439690881
 40
0.4707775117502703
 40
0.6983165532848049
 40
0.9579839591634534
 40
1.200388635222123
 40
1.46578373976911
 40
1.739417978523946
 40
2.086287967834817
 40
2.448834956569433
 40
2.448834956569433
 40
2.448834956569433
 40
2.448834956569433
 10
18.60328574238451
 20
10.71897456535032
 30
0.0
 10
18.59579610749483
 20
10.71689084619015
 30
0.0
 10
18.5796474379988
 20
10.71239806482822
 30
0.0
 10
18.54923045319265
 20
10.7046543499805
 30
0.0
 10
18.51142694165946
 20
10.69596648144943
 30
0.0
 10
18.4651286761582
 20
10.68723994847175
 30
0.0
 10
18.41708343753669
 20
10.6796073703033
 30
0.0
 10
18.36631137427218
 20
10.67320380288959
 30
0.0
 10
18.31441596719526
 20
10.668529457423
 30
0.0
 10
18.25546556363008
 20
10.66485884797339
 30
0.0
 10
18.18992169998
 20
10.66308557580305
 30
0.0
 10
18.14263701124423
 20
10.66434549139353
 30
0.0
 10
18.1184722082512
 20
10.66498937026517
 30
0.0
  0
SPLINE
  5
226
330
2
100
AcDbEntity
  8
GAIKEI
  6
Continuous
 62
     1
100
AcDbSpline
210
0.0
220
0.0
230
1.0
 70
     8
 71
     3
 72
    27
 73
    23
 74
     0
 42
0.0000000001
 43
0.0000000001
 40
0.0
 40
0.0
 40
0.0
 40
0.0
 40
0.0294440032147674
 40
0.0651039692750779
 40
0.129160840424496
 40
0.1960731707698668
 40
0.2736838346867701
 40
0.3479288602865296
 40
0.4166251338570353
 40
0.485289292830161
 40
0.5488829011737996
 40
0.612422699778985
 40
0.6701068479233096
 40
0.7277050328434158
 40
0.7792523813255297
 40
0.8306766940403665
 40
0.8771406860873993
 40
0.9244368114746526
 40
0.9641883516480358
 40
1.003125803445204
 40
1.031997557157164
 40
1.058958993856232
 40
1.058958993856232
 40
1.058958993856232
 40
1.058958993856232
 10
18.53606765290976
 20
10.7602435222202
 30
0.0
 10
18.53803056061508
 20
10.76022848571938
 30
0.0
 10
18.54237076809318
 20
10.7601952383419
 30
0.0
 10
18.55097906312903
 20
10.75997497965556
 30
0.0
 10
18.56207542069853
 20
10.75937309770938
 30
0.0
 10
18.57590917008838
 20
10.75791590062863
 30
0.0
 10
18.59034116322687
 20
10.7557793808819
 30
0.0
 10
18.60477134633163
 20
10.75292038518819
 30
0.0
 10
18.61844134346324
 20
10.74940917484991
 30
0.0
 10
18.63122532503303
 20
10.74537774735427
 30
0.0
 10
18.64342137315043
 20
10.74070380762634
 30
0.0
 10
18.65463193524852
 20
10.73556729030451
 30
0.0
 10
18.66509354544053
 20
10.72982986593524
 30
0.0
 10
18.67441293019169
 20
10.7237341443847
 30
0.0
 10
18.6828246619965
 20
10.71709064931792
 30
0.0
 10
18.69001614264312
 20
10.71016761434805
 30
0.0
 10
18.6961826198459
 20
10.70267656503824
 30
0.0
 10
18.7009237872802
 20
10.69511474196668
 30
0.0
 10
18.70444422101548
 20
10.68745283816702
 30
0.0
 10
18.70627885066824
 20
10.68049130198335
 30
0.0
 10
18.70717640002147
 20
10.67421982989936
 30
0.0
 10
18.70718087918851
 20
10.67049361834722
 30
0.0
 10
18.7071830421454
 20
10.66869425821483
 30
0.0
  0
SPLINE
  5
227
330
2
100
AcDbEntity
  8
GAIKEI
  6
Continuous
100
AcDbSpline
210
0.0
220
0.0
230
1.0
 70
     8
 71
     3
 72
    11
 73
     7
 74
     0
 42
0.0000000001
 43
0.0000000001
 40
0.0
 40
0.0
 40
0.0
 40
0.0
 40
0.0653448077667303
 40
0.1417599961497361
 40
0.2733645349769681
 40
0.41594424290963
 40
0.41594424290963
 40
0.41594424290963
 40
0.41594424290963
 10
20.86718304214094
 20
32.58358978097078
 30
0.0
 10
20.86442534195476
 20
32.58696405276567
 30
0.0
 10
20.8584427462273
 20
32.59428424809551
 30
0.0
 10
20.84585081378907
 20
32.6074741963256
 30
0.0
 10
20.82951786152296
 20
32.62418732262245
 30
0.0
 10
20.81678973015801
 20
32.63730766149274
 30
0.0
 10
20.81017092082084
 20
32.64413042431079
 30
0.0
  0
SPLINE
  5
228
330
2
100
AcDbEntity
  8
GAIKEI
  6
Continuous
 62
     1
100
AcDbSpline
210
0.0
220
0.0
230
1.0
 70
     8
 71
     3
 72
    11
 73
     7
 74
     0
 42
0.0000000001
 43
0.0000000001
 40
0.0
 40
0.0
 40
0.0
 40
0.0
 40
0.1420723020735575
 40
0.292157664869377
 40
0.4832356466893346
 40
0.6823396173056129
 40
0.6823396173056129
 40
0.6823396173056129
 40
0.6823396173056129
 10
20.86718304214094
 20
30.30050212758522
 30
0.0
 10
20.86577247656032
 20
30.30990357208998
 30
0.0
 10
20.86287178768464
 20
30.32923671467188
 30
0.0
 10
20.85019031859213
 20
30.35911743817746
 30
0.0
 10
20.83267656840098
 20
30.3906131462519
 30
0.0
 10
20.81777497789937
 20
30.41195836314102
 30
0.0
 10
20.81017092082084
 20
30.42285050566523
 30
0.0
  0
SPLINE
  5
229
330
2
100
AcDbEntity
  8
GAIKEI
  6
Continuous
 62
     1
100
AcDbSpline
210
0.0
220
0.0
230
1.0
 70
     8
 71
     3
 72
    11
 73
     7
 74
     0
 42
0.0000000001
 43
0.0000000001
 40
0.0
 40
0.0
 40
0.0
 40
0.0
 40
0.1845868221903778
 40
0.3617782718279398
 40
0.5049606154022567
 40
0.6411553501612124
 40
0.6411553501612124
 40
0.6411553501612124
 40
0.6411553501612124
 10
20.86718304214094
 20
24.52515779780515
 30
0.0
 10
20.86633967246553
 20
24.53747017850208
 30
0.0
 10
20.86468672227102
 20
24.56160165093206
 30
0.0
 10
20.85491948315917
 20
24.5940578091363
 30
0.0
 10
20.84297090440202
 20
24.6220818330122
 30
0.0
 10
20.83403372915871
 20
24.63843527380447
 30
0.0
 10
20.82967690712087
 20
24.64640748306511
 30
0.0
  0
SPLINE
  5
22A
330
2
100
AcDbEntity
  8
GAIKEI
  6
Continuous
 62
     1
100
AcDbSpline
210
0.0
220
0.0
230
1.0
 70
    24
 71
     3
 72
     9
 73
     5
 74
     0
 42
0.0000000001
 43
0.0000000001
 40
0.0
 40
0.0
 40
0.0
 40
0.0
 40
0.0897181492205412
 40
0.1794362984408661
 40
0.1794362984408661
 40
0.1794362984408661
 40
0.1794362984408661
 10
20.82967690712087
 20
24.64640748306511
 30
0.0
 10
20.82642590940418
 20
24.65142802947844
 30
0.0
 10
20.8199239139708
 20
24.66146912230522
 30
0.0
 10
20.81342191853742
 20
24.67151021513178
 30
0.0
 10
20.81017092082084
 20
24.67653076154523
 30
0.0
  0
SPLINE
  5
22B
330
2
100
AcDbEntity
  8
GAIKEI
  6
Continuous
 62
     1
100
AcDbSpline
210
0.0
220
0.0
230
1.0
 70
     8
 71
     3
 72
    13
 73
     9
 74
     0
 42
0.0000000001
 43
0.0000000001
 40
0.0
 40
0.0
 40
0.0
 40
0.0
 40
0.1237508080926731
 40
0.2376287206772755
 40
0.3425374240988212
 40
0.4483908530884998
 40
0.5742561101021691
 40
0.7104036513387694
 40
0.7104036513387694
 40
0.7104036513387694
 40
0.7104036513387694
 10
19.08718304214096
 20
9.699229366485155
 30
0.0
 10
19.08787936881231
 20
9.707531124667184
 30
0.0
 10
19.08921646889803
 20
9.723472323004102
 30
0.0
 10
19.10045379847383
 20
9.744033389569153
 30
0.0
 10
19.11557782790646
 20
9.759671394277916
 30
0.0
 10
19.13391910010387
 20
9.772798476403977
 30
0.0
 10
19.15704458711252
 20
9.782191288880881
 30
0.0
 10
19.17458086273586
 20
9.783217754429756
 30
0.0
 10
19.18369309246088
 20
9.783751128225162
 30
0.0
  0
SPLINE
  5
22C
330
2
100
AcDbEntity
  8
GAIKEI
  6
Continuous
 62
     1
100
AcDbSpline
210
0.0
220
0.0
230
1.0
 70
     8
 71
     3
 72
    11
 73
     7
 74
     0
 42
0.0000000001
 43
0.0000000001
 40
0.0
 40
0.0
 40
0.0
 40
0.0
 40
0.1287550174476958
 40
0.2617752239420034
 40
0.4224112365652699
 40
0.5885755217168049
 40
0.5885755217168049
 40
0.5885755217168049
 40
0.5885755217168049
 10
20.86718304214094
 20
30.5475028586452
 30
0.0
 10
20.86543889434108
 20
30.53896623417882
 30
0.0
 10
20.86189282141948
 20
30.52161019768664
 30
0.0
 10
20.84312612381234
 20
30.49948989398388
 30
0.0
 10
20.81853035098891
 20
30.48095997294138
 30
0.0
 10
20.79848535600195
 20
30.47221871882039
 30
0.0
 10
20.78829331430086
 20
30.46777415664519
 30
0.0
  0
SPLINE
  5
22D
330
2
100
AcDbEntity
  8
GAIKEI
  6
Continuous
 62
     1
100
AcDbSpline
210
0.0
220
0.0
230
1.0
 70
    24
 71
     3
 72
     9
 73
     5
 74
     0
 42
0.0000000001
 43
0.0000000001
 40
0.0
 40
0.0
 40
0.0
 40
0.0
 40
0.1410049163177433
 40
0.282009832635031
 40
0.282009832635031
 40
0.282009832635031
 40
0.282009832635031
 10
20.78829331430086
 20
30.46777415664519
 30
0.0
 10
20.77930834226754
 20
30.46501074580851
 30
0.0
 10
20.76133839820079
 20
30.45948392413527
 30
0.0
 10
20.74336845413416
 20
30.45395710246192
 30
0.0
 10
20.73438348210084
 20
30.45119369162524
 30
0.0
  0
SPLINE
  5
22E
330
2
100
AcDbEntity
  8
GAIKEI
  6
Continuous
 62
     1
100
AcDbSpline
210
0.0
220
0.0
230
1.0
 70
     8
 71
     3
 72
    11
 73
     7
 74
     0
 42
0.0000000001
 43
0.0000000001
 40
0.0
 40
0.0
 40
0.0
 40
0.0
 40
0.165755635440252
 40
0.3337173576356149
 40
0.5140583233297655
 40
0.6970526210458581
 40
0.6970526210458581
 40
0.6970526210458581
 40
0.6970526210458581
 10
20.81017092082084
 20
30.42285050566523
 30
0.0
 10
20.79995007192201
 20
30.42709908573534
 30
0.0
 10
20.77937234207138
 20
30.43565279138102
 30
0.0
 10
20.74583262433225
 20
30.44329046390453
 30
0.0
 10
20.7106197760977
 20
30.44774570124435
 30
0.0
 10
20.6863742390608
 20
30.44768998064205
 30
0.0
 10
20.67416294148086
 20
30.44766191688518
 30
0.0
  0
SPLINE
  5
22F
330
2
100
AcDbEntity
  8
GAIKEI
  6
Continuous
 62
     1
100
AcDbSpline
210
0.0
220
0.0
230
1.0
 70
     8
 71
     3
 72
    11
 73
     7
 74
     0
 42
0.0000000001
 43
0.0000000001
 40
0.0
 40
0.0
 40
0.0
 40
0.0
 40
0.1816197284614013
 40
0.3634308692711116
 40
0.5495514742052913
 40
0.737137505033267
 40
0.737137505033267
 40
0.737137505033267
 40
0.737137505033267
 10
20.81017092082084
 20
24.67653076154523
 30
0.0
 10
20.80054810504305
 20
24.68394451131838
 30
0.0
 10
20.78129233182608
 20
24.69877982435105
 30
0.0
 10
20.74757085742056
 20
24.71377737063142
 30
0.0
 10
20.71163888840533
 20
24.72364910553256
 30
0.0
 10
20.68668753792315
 20
24.72489490968587
 30
0.0
 10
20.67416294148086
 20
24.72552025436517
 30
0.0
  0
SPLINE
  5
230
330
2
100
AcDbEntity
  8
GAIKEI
  6
Continuous
 62
     1
100
AcDbSpline
210
0.0
220
0.0
230
1.0
 70
     8
 71
     3
 72
    11
 73
     7
 74
     0
 42
0.0000000001
 43
0.0000000001
 40
0.0
 40
0.0
 40
0.0
 40
0.0
 40
0.2205829436298321
 40
0.4364219504725862
 40
0.6303060504816775
 40
0.8202995937198398
 40
0.8202995937198398
 40
0.8202995937198398
 40
0.8202995937198398
 10
20.81017092082084
 20
9.839144478165167
 30
0.0
 10
20.81841160781028
 20
9.851352462368481
 30
0.0
 10
20.834715754586
 20
9.875505881439153
 30
0.0
 10
20.85226186147929
 20
9.913844741260618
 30
0.0
 10
20.86424159191267
 20
9.952260113918214
 30
0.0
 10
20.86620920591372
 20
9.977851454362621
 30
0.0
 10
20.86718304214094
 20
9.99051744190524
 30
0.0
  0
SPLINE
  5
231
330
2
100
AcDbEntity
  8
GAIKEI
  6
Continuous
 62
     1
100
AcDbSpline
210
0.0
220
0.0
230
1.0
 70
     8
 71
     3
 72
    11
 73
     7
 74
     0
 42
0.0000000001
 43
0.0000000001
 40
0.0
 40
0.0
 40
0.0
 40
0.0
 40
0.1875910923954998
 40
0.373715242697445
 40
0.555522844466349
 40
0.7371375142774959
 40
0.7371375142774959
 40
0.7371375142774959
 40
0.7371375142774959
 10
20.67416294148086
 20
9.790154985345225
 30
0.0
 10
20.68668787807315
 20
9.790780349339911
 30
0.0
 10
20.71163980760548
 20
9.792026187050282
 30
0.0
 10
20.74757204632397
 20
9.801898293290264
 30
0.0
 10
20.78129307839958
 20
9.816895954225401
 30
0.0
 10
20.80054838073602
 20
9.831730928693104
 30
0.0
 10
20.81017092082084
 20
9.839144478165167
 30
0.0
  0
SPLINE
  5
232
330
2
100
AcDbEntity
  8
GAIKEI
  6
Continuous
 62
     1
100
AcDbSpline
210
0.0
220
0.0
230
1.0
 70
     8
 71
     3
 72
    11
 73
     7
 74
     0
 42
0.0000000001
 43
0.0000000001
 40
0.0
 40
0.0
 40
0.0
 40
0.0
 40
0.1984943419601865
 40
0.3891397565466825
 40
0.5396540192101843
 40
0.6823344276506949
 40
0.6823344276506949
 40
0.6823344276506949
 40
0.6823344276506949
 10
20.81017092082084
 20
4.092824734025157
 30
0.0
 10
20.81774997321042
 20
4.103684564247942
 30
0.0
 10
20.8326083846523
 20
4.124974801779785
 30
0.0
 10
20.85012439424327
 20
4.156421400598105
 30
0.0
 10
20.86284316153183
 20
4.186331228302037
 30
0.0
 10
20.86576241506918
 20
4.205731939740644
 30
0.0
 10
20.86718304214094
 20
4.215173112125171
 30
0.0
  0
SPLINE
  5
233
330
2
100
AcDbEntity
  8
GAIKEI
  6
Continuous
 62
     1
100
AcDbSpline
210
0.0
220
0.0
230
1.0
 70
     8
 71
     3
 72
    11
 73
     7
 74
     0
 42
0.0000000001
 43
0.0000000001
 40
0.0
 40
0.0
 40
0.0
 40
0.0
 40
0.1829990572578311
 40
0.3633434006909377
 40
0.5313017567180292
 40
0.6970526325990429
 40
0.6970526325990429
 40
0.6970526325990429
 40
0.6970526325990429
 10
20.67416294148086
 20
4.068013322825208
 30
0.0
 10
20.68637455753458
 20
4.067985256539373
 30
0.0
 10
20.7106206392981
 20
4.067929531117215
 30
0.0
 10
20.74583378900343
 20
4.072384981196023
 30
0.0
 10
20.77937315295003
 20
4.080022745713336
 30
0.0
 10
20.79995037083063
 20
4.088576265043116
 30
0.0
 10
20.81017092082084
 20
4.092824734025157
 30
0.0
  0
SPLINE
  5
234
330
2
100
AcDbEntity
  8
GAIKEI
  6
Continuous
 62
     1
100
AcDbSpline
210
0.0
220
0.0
230
1.0
 70
    24
 71
     3
 72
     9
 73
     5
 74
     0
 42
0.0000000001
 43
0.0000000001
 40
0.0
 40
0.0
 40
0.0
 40
0.0
 40
0.1410049163319259
 40
0.2820098326644076
 40
0.2820098326644076
 40
0.2820098326644076
 40
0.2820098326644076
 10
20.73438348210084
 20
4.064481548085154
 30
0.0
 10
20.74336845413416
 20
4.061718137245179
 30
0.0
 10
20.76133839820079
 20
4.056191315565115
 30
0.0
 10
20.77930834226754
 20
4.050664493885165
 30
0.0
 10
20.78829331430086
 20
4.047901083045189
 30
0.0
  0
SPLINE
  5
235
330
2
100
AcDbEntity
  8
GAIKEI
  6
Continuous
 62
     1
100
AcDbSpline
210
0.0
220
0.0
230
1.0
 70
     8
 71
     3
 72
    11
 73
     7
 74
     0
 42
0.0000000001
 43
0.0000000001
 40
0.0
 40
0.0
 40
0.0
 40
0.0
 40
0.1661642851331241
 40
0.3268002977373379
 40
0.4598205042264139
 40
0.5885755216716289
 40
0.5885755216716289
 40
0.5885755216716289
 40
0.5885755216716289
 10
20.78829331430086
 20
4.047901083045189
 30
0.0
 10
20.7984853560032
 20
4.043456520875565
 30
0.0
 10
20.81853035099243
 20
4.034715266765488
 30
0.0
 10
20.84312612381541
 20
4.016185345725489
 30
0.0
 10
20.86189282141959
 20
3.994065042022953
 30
0.0
 10
20.86543889434108
 20
3.976709005531233
 30
0.0
 10
20.86718304214094
 20
3.968172381065073
 30
0.0
  0
SPLINE
  5
236
330
2
100
AcDbEntity
  8
GAIKEI
  6
Continuous
100
AcDbSpline
210
0.0
220
0.0
230
1.0
 70
     8
 71
     3
 72
    11
 73
     7
 74
     0
 42
0.0000000001
 43
0.0000000001
 40
0.0
 40
0.0
 40
0.0
 40
0.0
 40
0.1425759892894644
 40
0.2741778639335701
 40
0.3505957066869589
 40
0.4159442394595155
 40
0.4159442394595155
 40
0.4159442394595155
 40
0.4159442394595155
 10
20.81017092082084
 20
1.870106655242921
 30
0.0
 10
20.8167895586821
 20
1.876929238933144
 30
0.0
 10
20.82951739595694
 20
1.890049270096938
 30
0.0
 10
20.84585018614234
 20
1.906762208117356
 30
0.0
 10
20.85844228721715
 20
1.91995233679188
 30
0.0
 10
20.86442517447085
 20
1.927272843001674
 30
0.0
 10
20.86718304214094
 20
1.930647298602934
 30
0.0
  0
SPLINE
  5
237
330
2
100
AcDbEntity
  8
GAIKEI
  6
Continuous
 62
     1
100
AcDbSpline
210
0.0
220
0.0
230
1.0
 70
     8
 71
     3
 72
    13
 73
     9
 74
     0
 42
0.0000000001
 43
0.0000000001
 40
0.0
 40
0.0
 40
0.0
 40
0.0
 40
0.1304565456397795
 40
0.2516877015057084
 40
0.3400280272243417
 40
0.4249890962055249
 40
0.4999313259071924
 40
0.5815227815911644
 40
0.5815227815911644
 40
0.5815227815911644
 40
0.5815227815911644
 10
19.18369309246088
 20
30.40670536872517
 30
0.0
 10
19.17498138281371
 20
30.40670556981024
 30
0.0
 10
19.15817402242794
 20
30.40670595776032
 30
0.0
 10
19.13576135397466
 20
30.41109708828765
 30
0.0
 10
19.11732854632555
 20
30.41801494226047
 30
0.0
 10
19.1025882745314
 20
30.425568166625
 30
0.0
 10
19.0905656969054
 20
30.43730256468439
 30
0.0
 10
19.08834207862514
 20
30.44772808455161
 30
0.0
 10
19.08718304214096
 20
30.4531622717052
 30
0.0
  0
SPLINE
  5
238
330
2
100
AcDbEntity
  8
GAIKEI
  6
Continuous
 62
     1
100
AcDbSpline
210
0.0
220
0.0
230
1.0
 70
     8
 71
     3
 72
    13
 73
     9
 74
     0
 42
0.0000000001
 43
0.0000000001
 40
0.0
 40
0.0
 40
0.0
 40
0.0
 40
0.1364932169711442
 40
0.2626702762070652
 40
0.3685400318772404
 40
0.4734160152229171
 40
0.5869907720652272
 40
0.710405890564871
 40
0.710405890564871
 40
0.710405890564871
 40
0.710405890564871
 10
19.18369309246088
 20
24.73192411146511
 30
0.0
 10
19.17455746681764
 20
24.73245984396533
 30
0.0
 10
19.15697668614393
 20
24.73349081830168
 30
0.0
 10
19.13381665886265
 20
24.74292658160005
 30
0.0
 10
19.11547746532846
 20
24.75609016683666
 30
0.0
 10
19.10039153750176
 20
24.77173605878636
 30
0.0
 10
19.08920463005597
 20
24.79226901737263
 30
0.0
 10
19.08787530366999
 20
24.80816688269795
 30
0.0
 10
19.08718304214096
 20
24.81644587322524
 30
0.0
  0
SPLINE
  5
239
330
2
100
AcDbEntity
  8
GAIKEI
  6
Continuous
 62
     1
100
AcDbSpline
210
0.0
220
0.0
230
1.0
 70
     8
 71
     3
 72
    13
 73
     9
 74
     0
 42
0.0000000001
 43
0.0000000001
 40
0.0
 40
0.0
 40
0.0
 40
0.0
 40
0.0818499289385697
 40
0.1570307188486527
 40
0.2420422873558668
 40
0.3303897516362327
 40
0.4513529699649652
 40
0.5815133224644783
 40
0.5815133224644783
 40
0.5815133224644783
 40
0.5815133224644783
 10
19.08718304214096
 20
4.062512967985185
 30
0.0
 10
19.08835028067563
 20
4.067963734017325
 30
0.0
 10
19.09058965105202
 20
4.078421137211194
 30
0.0
 10
19.10265984413445
 20
4.090164027819128
 30
0.0
 10
19.11742804846255
 20
4.09770395762905
 30
0.0
 10
19.1358542015671
 20
4.104599395673176
 30
0.0
 10
19.15823171670274
 20
4.108969821318851
 30
0.0
 10
19.17500124514958
 20
4.108969854030306
 30
0.0
 10
19.18369309246088
 20
4.108969870985106
 30
0.0
  0
SPLINE
  5
23A
330
2
100
AcDbEntity
  8
GAIKEI
  6
Continuous
 62
     1
100
AcDbSpline
210
0.0
220
0.0
230
1.0
 70
     8
 71
     3
 72
    11
 73
     7
 74
     0
 42
0.0000000001
 43
0.0000000001
 40
0.0
 40
0.0
 40
0.0
 40
0.0
 40
1.861733144844721
 40
3.724054128514202
 40
5.589314306934102
 40
7.455162324428821
 40
7.455162324428821
 40
7.455162324428821
 40
7.455162324428821
 10
19.18369309246088
 20
30.40670536872517
 30
0.0
 10
19.30776165907048
 20
30.41011986617013
 30
0.0
 10
19.55593796671201
 20
30.41694993918123
 30
0.0
 10
19.9284182111619
 20
30.42718921349388
 30
0.0
 10
20.3011728919912
 20
30.43742819718659
 30
0.0
 10
20.54981986680787
 20
30.44425031870878
 30
0.0
 10
20.67416294148086
 20
30.44766191688518
 30
0.0
  0
SPLINE
  5
23B
330
2
100
AcDbEntity
  8
GAIKEI
  6
Continuous
 62
     1
100
AcDbSpline
210
0.0
220
0.0
230
1.0
 70
     8
 71
     3
 72
    11
 73
     7
 74
     0
 42
0.0000000001
 43
0.0000000001
 40
0.0
 40
0.0
 40
0.0
 40
0.0
 40
1.861046765143899
 40
3.722681456762438
 40
5.58725578096226
 40
7.452418031719591
 40
7.452418031719591
 40
7.452418031719591
 40
7.452418031719591
 10
19.18369309246088
 20
24.73192411146511
 30
0.0
 10
19.30776174456446
 20
24.7313940617695
 30
0.0
 10
19.55593824351229
 20
24.73033379492915
 30
0.0
 10
19.92841853392815
 20
24.7287356762306
 30
0.0
 10
20.30117316809162
 20
24.72713185708483
 30
0.0
 10
20.54981995210505
 20
24.72605751172216
 30
0.0
 10
20.67416294148086
 20
24.72552025436517
 30
0.0
  0
SPLINE
  5
23C
330
2
100
AcDbEntity
  8
GAIKEI
  6
Continuous
 62
     1
100
AcDbSpline
210
0.0
220
0.0
230
1.0
 70
     8
 71
     3
 72
    11
 73
     7
 74
     0
 42
0.0000000001
 43
0.0000000001
 40
0.0
 40
0.0
 40
0.0
 40
0.0
 40
1.865159614774167
 40
3.729732056129111
 40
5.591368630593169
 40
7.45241803172002
 40
7.45241803172002
 40
7.45241803172002
 40
7.45241803172002
 10
20.67416294148086
 20
9.790154985345225
 30
0.0
 10
20.54982012783569
 20
9.789617728741859
 30
0.0
 10
20.30117364507464
 20
9.788543384669765
 30
0.0
 10
19.9284191866418
 20
9.786939566277624
 30
0.0
 10
19.5559387204953
 20
9.785341446820893
 30
0.0
 10
19.30776192029498
 20
9.784281178678952
 30
0.0
 10
19.18369309246088
 20
9.783751128225162
 30
0.0
  0
SPLINE
  5
23D
330
2
100
AcDbEntity
  8
GAIKEI
  6
Continuous
 62
     1
100
AcDbSpline
210
0.0
220
0.0
230
1.0
 70
     8
 71
     3
 72
    11
 73
     7
 74
     0
 42
0.0000000001
 43
0.0000000001
 40
0.0
 40
0.0
 40
0.0
 40
0.0
 40
1.865845380954999
 40
3.731103676133233
 40
5.593426543045493
 40
7.455162324428814
 40
7.455162324428814
 40
7.455162324428814
 40
7.455162324428814
 10
20.67416294148086
 20
4.068013322825208
 30
0.0
 10
20.54982004251099
 20
4.071424916177761
 30
0.0
 10
20.30117336889952
 20
4.078247029429576
 30
0.0
 10
19.92841886377243
 20
4.088486008268091
 30
0.0
 10
19.55593844361908
 20
4.098725287388788
 30
0.0
 10
19.30776183477303
 20
4.105555368699583
 30
0.0
 10
19.18369309246088
 20
4.108969870985106
 30
0.0
  0
SPLINE
  5
23E
330
2
100
AcDbEntity
  8
GAIKEI
  6
Continuous
 62
     1
100
AcDbSpline
210
0.0
220
0.0
230
1.0
 70
     8
 71
     3
 72
    11
 73
     7
 74
     0
 42
0.0000000001
 43
0.0000000001
 40
0.0
 40
0.0
 40
0.0
 40
0.0
 40
0.1412129652739148
 40
0.281104569870644
 40
0.4251524387212959
 40
0.5715917154808931
 40
0.5715917154808931
 40
0.5715917154808931
 40
0.5715917154808931
 10
20.81017092082084
 20
25.22292253702517
 30
0.0
 10
20.81879378470251
 20
25.22697635934446
 30
0.0
 10
20.83595882643806
 20
25.23504607147879
 30
0.0
 10
20.85422384961362
 20
25.25767848516682
 30
0.0
 10
20.86593158384574
 20
25.28441685328278
 30
0.0
 10
20.86676360619413
 20
25.30392199795915
 30
0.0
 10
20.86718304214094
 20
25.31375485742524
 30
0.0
  0
SPLINE
  5
23F
330
2
100
AcDbEntity
  8
GAIKEI
  6
Continuous
 62
     1
100
AcDbSpline
210
0.0
220
0.0
230
1.0
 70
     8
 71
     3
 72
    11
 73
     7
 74
     0
 42
0.0000000001
 43
0.0000000001
 40
0.0
 40
0.0
 40
0.0
 40
0.0
 40
0.1894310458230003
 40
0.3775894367649444
 40
0.5621774085453592
 40
0.7466499815405711
 40
0.7466499815405711
 40
0.7466499815405711
 40
0.7466499815405711
 10
20.67416294148086
 20
25.16791817618514
 30
0.0
 10
20.68675843201004
 20
25.1692026126259
 30
0.0
 10
20.71186479276525
 20
25.17176285627579
 30
0.0
 10
20.74774564204472
 20
25.18330883779879
 30
0.0
 10
20.78134264301604
 20
25.19971581619143
 30
0.0
 10
20.8005634982278
 20
25.21518857610113
 30
0.0
 10
20.81017092082084
 20
25.22292253702517
 30
0.0
  0
SPLINE
  5
240
330
2
100
AcDbEntity
  8
GAIKEI
  6
Continuous
 62
     1
100
AcDbSpline
210
0.0
220
0.0
230
1.0
 70
     8
 71
     3
 72
    11
 73
     7
 74
     0
 42
0.0000000001
 43
0.0000000001
 40
0.0
 40
0.0
 40
0.0
 40
0.0
 40
0.1844811066309113
 40
0.3690751441856859
 40
0.5572275602431326
 40
0.7466499721171119
 40
0.7466499721171119
 40
0.7466499721171119
 40
0.7466499721171119
 10
20.81017092082084
 20
9.29275270268522
 30
0.0
 10
20.80056304292839
 20
9.300487013597717
 30
0.0
 10
20.78134140563861
 20
9.315960370015091
 30
0.0
 10
20.74774365611313
 20
9.332367198644078
 30
0.0
 10
20.71186323865936
 20
9.343912559274372
 30
0.0
 10
20.68675785503342
 20
9.346472691707958
 30
0.0
 10
20.67416294148086
 20
9.347757063505127
 30
0.0
  0
SPLINE
  5
241
330
2
100
AcDbEntity
  8
GAIKEI
  6
Continuous
 62
     1
100
AcDbSpline
210
0.0
220
0.0
230
1.0
 70
     8
 71
     3
 72
    11
 73
     7
 74
     0
 42
0.0000000001
 43
0.0000000001
 40
0.0
 40
0.0
 40
0.0
 40
0.0
 40
0.1689139668454515
 40
0.3399046301298925
 40
0.5223680114805277
 40
0.707282880016934
 40
0.707282880016934
 40
0.707282880016934
 40
0.707282880016934
 10
20.81017092082084
 20
3.777365295365143
 30
0.0
 10
20.79999136022502
 20
3.782214553462381
 30
0.0
 10
20.7795070874098
 20
3.791972688391865
 30
0.0
 10
20.74607722670089
 20
3.802088591631218
 30
0.0
 10
20.71087469025417
 20
3.809410133457049
 30
0.0
 10
20.68645450907729
 20
3.811528508277547
 30
0.0
 10
20.67416294148086
 20
3.81259476356513
 30
0.0
  0
SPLINE
  5
242
330
2
100
AcDbEntity
  8
GAIKEI
  6
Continuous
 62
     1
100
AcDbSpline
210
0.0
220
0.0
230
1.0
 70
     8
 71
     3
 72
    13
 73
     9
 74
     0
 42
0.0000000001
 43
0.0000000001
 40
0.0
 40
0.0
 40
0.0
 40
0.0
 40
0.1246537135408725
 40
0.2396178853173598
 40
0.3460656677269169
 40
0.4535041053496932
 40
0.5811859548589479
 40
0.7190372090212949
 40
0.7190372090212949
 40
0.7190372090212949
 40
0.7190372090212949
 10
19.08718304214096
 20
24.99559383250517
 30
0.0
 10
19.08792095991453
 20
25.00394899842195
 30
0.0
 10
19.0893394358784
 20
25.02000986922622
 30
0.0
 10
19.10054858247849
 20
25.0408227777956
 30
0.0
 10
19.11559823630318
 20
25.05690011393892
 30
0.0
 10
19.13380975980249
 20
25.0707372472549
 30
0.0
 10
19.1568292096897
 20
25.08116373603355
 30
0.0
 10
19.17451271682216
 20
25.08314372849316
 30
0.0
 10
19.18369309246088
 20
25.08417163966522
 30
0.0
  0
SPLINE
  5
243
330
2
100
AcDbEntity
  8
GAIKEI
  6
Continuous
 62
     1
100
AcDbSpline
210
0.0
220
0.0
230
1.0
 70
     8
 71
     3
 72
    13
 73
     9
 74
     0
 42
0.0000000001
 43
0.0000000001
 40
0.0
 40
0.0
 40
0.0
 40
0.0
 40
0.1382025932501436
 40
0.2662021494896437
 40
0.3736568194981372
 40
0.480071088113524
 40
0.594726470791752
 40
0.7190395122453454
 40
0.7190395122453454
 40
0.7190395122453454
 40
0.7190395122453454
 10
19.18369309246088
 20
9.431503600045175
 30
0.0
 10
19.17448915331476
 20
9.432535222827254
 30
0.0
 10
19.15676077118496
 20
9.434522307118641
 30
0.0
 10
19.13370759036252
 20
9.444992292638517
 30
0.0
 10
19.11549822614256
 20
9.45886516482119
 30
0.0
 10
19.10048631490917
 20
9.474948691979648
 30
0.0
 10
19.08932681165243
 20
9.49573229052703
 30
0.0
 10
19.08791662899682
 20
9.51174926522242
 30
0.0
 10
19.08718304214096
 20
9.520081407205225
 30
0.0
  0
SPLINE
  5
244
330
2
100
AcDbEntity
  8
GAIKEI
  6
Continuous
 62
     1
100
AcDbSpline
210
0.0
220
0.0
230
1.0
 70
     8
 71
     3
 72
    13
 73
     9
 74
     0
 42
0.0000000001
 43
0.0000000001
 40
0.0
 40
0.0
 40
0.0
 40
0.0
 40
0.0829790487372589
 40
0.1596704251742946
 40
0.2465164340549804
 40
0.3367071828925035
 40
0.4596809643829679
 40
0.5917215863235377
 40
0.5917215863235377
 40
0.5917215863235377
 40
0.5917215863235377
 10
19.08718304214096
 20
30.55659339422516
 30
0.0
 10
19.0884186030139
 20
30.56209205503592
 30
0.0
 10
19.09079610110405
 20
30.57267271994954
 30
0.0
 10
19.10269298196203
 20
30.58490342948358
 30
0.0
 10
19.11735577014428
 20
30.59334278200231
 30
0.0
 10
19.13563550332662
 20
30.60156789169309
 30
0.0
 10
19.15795484662465
 20
30.60776151535174
 30
0.0
 10
19.17491270268397
 20
30.60928615198748
 30
0.0
 10
19.18369309246088
 20
30.61007557394521
 30
0.0
  0
SPLINE
  5
245
330
2
100
AcDbEntity
  8
GAIKEI
  6
Continuous
 62
     1
100
AcDbSpline
210
0.0
220
0.0
230
1.0
 70
     8
 71
     3
 72
    13
 73
     9
 74
     0
 42
0.0000000001
 43
0.0000000001
 40
0.0
 40
0.0
 40
0.0
 40
0.0
 40
0.1323441444342418
 40
0.2555921645821317
 40
0.3457759265227411
 40
0.432571189213712
 40
0.5090163346998173
 40
0.5917302152464299
 40
0.5917302152464299
 40
0.5917302152464299
 40
0.5917302152464299
 10
19.18369309246088
 20
3.90559966576518
 30
0.0
 10
19.17489247066044
 20
3.906391157903271
 30
0.0
 10
19.15789610119327
 20
3.907919742259537
 30
0.0
 10
19.13554237029609
 20
3.914136138439971
 30
0.0
 10
19.11725666336724
 20
3.922383268127418
 30
0.0
 10
19.10262216681383
 20
3.930832677556736
 30
0.0
 10
19.09077153717271
 20
3.943051825448492
 30
0.0
 10
19.08841020872853
 20
3.953600019577379
 30
0.0
 10
19.08718304214096
 20
3.959081845465107
 30
0.0
  0
SPLINE
  5
246
330
2
100
AcDbEntity
  8
GAIKEI
  6
Continuous
 62
     1
100
AcDbSpline
210
0.0
220
0.0
230
1.0
 70
     8
 71
     3
 72
    11
 73
     7
 74
     0
 42
0.0000000001
 43
0.0000000001
 40
0.0
 40
0.0
 40
0.0
 40
0.0
 40
0.0788149458443903
 40
0.1570603536290523
 40
0.2559432758079082
 40
0.3606312812504639
 40
0.3606312812504639
 40
0.3606312812504639
 40
0.3606312812504639
 10
20.86718304214094
 20
3.759876387465169
 30
0.0
 10
20.86655750508157
 20
3.765437163105843
 30
0.0
 10
20.86531095126225
 20
3.776518530722228
 30
0.0
 10
20.8483379036129
 20
3.784965484947292
 30
0.0
 10
20.82922731710005
 20
3.785837637380268
 30
0.0
 10
20.8166426752565
 20
3.780242592636568
 30
0.0
 10
20.81017092082084
 20
3.777365295365143
 30
0.0
  0
SPLINE
  5
247
330
2
100
AcDbEntity
  8
GAIKEI
  6
Continuous
 62
     1
100
AcDbSpline
210
0.0
220
0.0
230
1.0
 70
     8
 71
     3
 72
    11
 73
     7
 74
     0
 42
0.0000000001
 43
0.0000000001
 40
0.0
 40
0.0
 40
0.0
 40
0.0
 40
1.868767747107159
 40
3.736947841497674
 40
5.602189672923078
 40
7.46684385187969
 40
7.46684385187969
 40
7.46684385187969
 40
7.46684385187969
 10
20.67416294148086
 20
30.70308047614515
 30
0.0
 10
20.54981994361026
 20
30.69532672690309
 30
0.0
 10
20.30117304876899
 20
30.67982166666309
 30
0.0
 10
19.92841848968203
 20
30.6565658102943
 30
0.0
 10
19.55593812293114
 20
30.63331923161036
 30
0.0
 10
19.30776173572462
 20
30.61782264599435
 30
0.0
 10
19.18369309246088
 20
30.61007557394521
 30
0.0
  0
SPLINE
  5
248
330
2
100
AcDbEntity
  8
GAIKEI
  6
Continuous
 62
     1
100
AcDbSpline
210
0.0
220
0.0
230
1.0
 70
     8
 71
     3
 72
    11
 73
     7
 74
     0
 42
0.0000000001
 43
0.0000000001
 40
0.0
 40
0.0
 40
0.0
 40
0.0
 40
1.868083054128294
 40
3.735578368046383
 40
5.600134981120102
 40
7.464103854066419
 40
7.464103854066419
 40
7.464103854066419
 40
7.464103854066419
 10
20.67416294148086
 20
25.16791817618514
 30
0.0
 10
20.54982002856775
 20
25.1609346084515
 30
0.0
 10
20.30117332376972
 20
25.1469696701688
 30
0.0
 10
19.92841881116385
 20
25.12602760095672
 30
0.0
 10
19.55593839863059
 20
25.10509641116721
 30
0.0
 10
19.30776182087868
 20
25.09114583047335
 30
0.0
 10
19.18369309246088
 20
25.08417163966522
 30
0.0
  0
SPLINE
  5
249
330
2
100
AcDbEntity
  8
GAIKEI
  6
Continuous
 62
     1
100
AcDbSpline
210
0.0
220
0.0
230
1.0
 70
     8
 71
     3
 72
    11
 73
     7
 74
     0
 42
0.0000000001
 43
0.0000000001
 40
0.0
 40
0.0
 40
0.0
 40
0.0
 40
1.863966233618297
 40
3.728520961458193
 40
5.596018160613041
 40
7.464103854072037
 40
7.464103854072037
 40
7.464103854072037
 40
7.464103854072037
 10
19.18369309246088
 20
9.431503600045175
 30
0.0
 10
19.30776164520046
 20
9.424529419105624
 30
0.0
 10
19.55593792178956
 20
9.410578855327571
 30
0.0
 10
19.92841815864494
 20
9.389647675411083
 30
0.0
 10
20.30117284692938
 20
9.368705596328481
 30
0.0
 10
20.54981985288964
 20
9.354740641114176
 30
0.0
 10
20.67416294148086
 20
9.347757063505127
 30
0.0
  0
SPLINE
  5
24A
330
2
100
AcDbEntity
  8
GAIKEI
  6
Continuous
 62
     1
100
AcDbSpline
210
0.0
220
0.0
230
1.0
 70
     8
 71
     3
 72
    11
 73
     7
 74
     0
 42
0.0000000001
 43
0.0000000001
 40
0.0
 40
0.0
 40
0.0
 40
0.0
 40
1.864651538288487
 40
3.729891483522922
 40
5.598073464105128
 40
7.466843851879728
 40
7.466843851879728
 40
7.466843851879728
 40
7.466843851879728
 10
19.18369309246088
 20
3.90559966576518
 30
0.0
 10
19.30776156002207
 20
3.897852604683635
 30
0.0
 10
19.55593764602406
 20
3.882356037868362
 30
0.0
 10
19.92841783707092
 20
3.859109470126213
 30
0.0
 10
20.30117257185953
 20
3.835853602776523
 30
0.0
 10
20.54981976790691
 20
3.820348523760458
 30
0.0
 10
20.67416294148086
 20
3.81259476356513
 30
0.0
  0
SPLINE
  5
24B
330
2
100
AcDbEntity
  8
GAIKEI
  6
Continuous
 62
     1
100
AcDbSpline
210
0.0
220
0.0
230
1.0
 70
    24
 71
     3
 72
     9
 73
     5
 74
     0
 42
0.0000000001
 43
0.0000000001
 40
0.0
 40
0.0
 40
0.0
 40
0.0
 40
0.0994510208922323
 40
0.1989020417843523
 40
0.1989020417843523
 40
0.1989020417843523
 40
0.1989020417843523
 10
20.86718304214094
 20
9.201920382285152
 30
0.0
 10
20.8661331284909
 20
9.2084667922785
 30
0.0
 10
20.86403330119083
 20
9.221559612265195
 30
0.0
 10
20.86193347389087
 20
9.234652432251891
 30
0.0
 10
20.86088356024084
 20
9.241198842245239
 30
0.0
  0
SPLINE
  5
24C
330
2
100
AcDbEntity
  8
GAIKEI
  6
Continuous
 62
     1
100
AcDbSpline
210
0.0
220
0.0
230
1.0
 70
     8
 71
     3
 72
     9
 73
     5
 74
     0
 42
0.0000000001
 43
0.0000000001
 40
0.0
 40
0.0
 40
0.0
 40
0.0
 40
0.1853501731054468
 40
0.3709031064462991
 40
0.3709031064462991
 40
0.3709031064462991
 40
0.3709031064462991
 10
20.86088356024084
 20
9.241198842245239
 30
0.0
 10
20.85538115614566
 20
9.252682757374486
 30
0.0
 10
20.84437032870665
 20
9.275663150240006
 30
0.0
 10
20.82157487728455
 20
9.287054109518976
 30
0.0
 10
20.81017092082084
 20
9.29275270268522
 30
0.0
  0
SPLINE
  5
24D
330
2
100
AcDbEntity
  8
GAIKEI
  6
Continuous
 62
     1
100
AcDbSpline
210
0.0
220
0.0
230
1.0
 70
     8
 71
     3
 72
    11
 73
     7
 74
     0
 42
0.0000000001
 43
0.0000000001
 40
0.0
 40
0.0
 40
0.0
 40
0.0
 40
0.1046841507974843
 40
0.2035650711932327
 40
0.2818124279731933
 40
0.3606305979474297
 40
0.3606305979474297
 40
0.3606305979474297
 40
0.3606305979474297
 10
20.81017092082084
 20
30.73830994434525
 30
0.0
 10
20.81664246189257
 20
30.73543285263657
 30
0.0
 10
20.82922679016906
 20
30.72983816257079
 30
0.0
 10
20.84833700368244
 20
30.73070964887688
 30
0.0
 10
20.86531070809213
 20
30.73915605982234
 30
0.0
 10
20.86655742050891
 20
30.75023783016786
 30
0.0
 10
20.86718304214094
 20
30.75579885222521
 30
0.0
  0
SPLINE
  5
24E
330
2
100
AcDbEntity
  8
GAIKEI
  6
Continuous
 62
     1
100
AcDbSpline
210
0.0
220
0.0
230
1.0
 70
     8
 71
     3
 72
    11
 73
     7
 74
     0
 42
0.0000000001
 43
0.0000000001
 40
0.0
 40
0.0
 40
0.0
 40
0.0
 40
0.1849196962686716
 40
0.3673865066093334
 40
0.5383737486421211
 40
0.707282888412175
 40
0.707282888412175
 40
0.707282888412175
 40
0.707282888412175
 10
20.67416294148086
 20
30.70308047614515
 30
0.0
 10
20.68645483077694
 20
30.70414675851509
 30
0.0
 10
20.71087556236591
 20
30.70626517944516
 30
0.0
 10
20.74607838847748
 20
30.71358694348532
 30
0.0
 10
20.77950789055228
 20
30.72370289966409
 30
0.0
 10
20.79999165615914
 20
30.73346081585294
 30
0.0
 10
20.81017092082084
 20
30.73830994434525
 30
0.0
  0
ELLIPSE
  5
24F
330
2
100
AcDbEntity
  8
GAIKEI
  6
Continuous
 62
     1
100
AcDbEllipse
 10
-33.47167828282465
 20
4.81117735729731
 30
0.0
 11
-0.4242640687119314
 21
0.4242640687119314
 31
0.0
210
0.0
220
0.0
230
1.0
 40
0.9999999999999696
 41
1.925105634443028
 42
3.665191929978615
  0
ELLIPSE
  5
250
330
2
100
AcDbEntity
  8
GAIKEI
  6
Continuous
 62
     1
100
AcDbEllipse
 10
-35.66372304040942
 20
6.076754988165362
 30
0.0
 11
-0.4242640687117864
 21
0.4242640687117864
 31
0.0
210
0.0
220
0.0
230
1.0
 40
0.999999999999995
 41
6.28318480637767
 42
8.023271101924253
  0
ELLIPSE
  5
251
330
2
100
AcDbEntity
  8
GAIKEI
  6
Continuous
 62
     1
100
AcDbEllipse
 10
-33.35502147514763
 20
6.019289467979774
 30
0.0
 11
-0.5656854249492359
 21
-0.5656854249492355
 31
0.0
210
0.0
220
0.0
230
1.0
 40
0.9999999999999948
 41
2.09439560318345
 42
3.464141975665743
  0
ELLIPSE
  5
252
330
2
100
AcDbEntity
  8
GAIKEI
  6
Continuous
 62
     1
100
AcDbEllipse
 10
-34.67579566576637
 20
6.781838802471725
 30
0.0
 11
-0.5656854249492454
 21
0.5656854249492455
 31
0.0
210
0.0
220
0.0
230
1.0
 40
0.9999999999999754
 41
4.913438433907389
 42
6.283184806378433
  0
ELLIPSE
  5
253
330
2
100
AcDbEntity
  8
GAIKEI
  6
Continuous
 62
     1
100
AcDbEllipse
 10
-15.20238247557165
 20
16.49521991579752
 30
0.0
 11
-0.5656854249493856
 21
0.5656854249493856
 31
0.0
210
0.0
220
0.0
230
1.0
 40
0.9999999999999932
 41
0.7246482291212619
 42
2.094394601592008
  0
ELLIPSE
  5
254
330
2
100
AcDbEntity
  8
GAIKEI
  6
Continuous
 62
     1
100
AcDbEllipse
 10
-15.20238247557176
 20
18.0203185847821
 30
0.0
 11
-0.5656854249492471
 21
-0.5656854249492471
 31
0.0
210
0.0
220
0.0
230
1.0
 40
0.9999999999999866
 41
4.18879070557667
 42
5.55853707805882
  0
ELLIPSE
  5
255
330
2
100
AcDbEntity
  8
GAIKEI
  6
Continuous
 62
     1
100
AcDbEllipse
 10
-14.09779829326362
 20
15.99219161941573
 30
0.0
 11
-0.4242640687120716
 21
-0.4242640687120714
 31
0.0
210
0.0
220
0.0
230
1.0
 40
0.9999999999999822
 41
0.5235982747971209
 42
2.263684570342656
  0
ELLIPSE
  5
256
330
2
100
AcDbEntity
  8
GAIKEI
  6
Continuous
 62
     1
100
AcDbEllipse
 10
-14.09779829326282
 20
18.52334688115059
 30
0.0
 11
-0.424264068711791
 21
-0.424264068711791
 31
0.0
210
0.0
220
0.0
230
1.0
 40
0.9999999999999731
 41
2.448704410041388
 42
4.18879070557688
  0
ELLIPSE
  5
257
330
2
100
AcDbEntity
  8
GAIKEI
  6
Continuous
 62
     1
100
AcDbEllipse
 10
-35.65982543669918
 20
28.44553436005549
 30
0.0
 11
-0.4242640687119332
 21
0.4242640687119332
 31
0.0
210
0.0
220
0.0
230
1.0
 40
0.9999999999999886
 41
6.11389583923005
 42
7.853982134764701
  0
ELLIPSE
  5
258
330
2
100
AcDbEntity
  8
GAIKEI
  6
Continuous
 62
     1
100
AcDbEllipse
 10
-33.46778067911396
 20
29.71111199092229
 30
0.0
 11
-0.4242640687120723
 21
-0.4242640687120723
 31
0.0
210
0.0
220
0.0
230
1.0
 40
0.9999999999999902
 41
2.617993377190255
 42
4.358079672735579
  0
ELLIPSE
  5
259
330
2
100
AcDbEntity
  8
GAIKEI
  6
Continuous
 62
     1
100
AcDbEllipse
 10
-34.67189806206739
 20
27.74045054574163
 30
0.0
 11
-0.5656854249493818
 21
-0.5656854249493817
 31
0.0
210
0.0
220
0.0
230
1.0
 40
0.9999999999999969
 41
0.0000005007901789
 42
1.369746873272736
  0
ELLIPSE
  5
25A
330
2
100
AcDbEntity
  8
GAIKEI
  6
Continuous
 62
     1
100
AcDbEllipse
 10
-33.35112387144886
 20
28.50299988023414
 30
0.0
 11
-0.5656854249491127
 21
-0.5656854249491127
 31
0.0
210
0.0
220
0.0
230
1.0
 40
0.9999999999999683
 41
1.248247004719388
 42
2.617993377190371
  0
ELLIPSE
  5
25B
330
2
100
AcDbEntity
  8
GAIKEI
  6
Continuous
 62
     1
100
AcDbEllipse
 10
-14.16857078321982
 20
10.70519869521013
 30
0.0
 11
-0.1414213562371663
 21
-0.1414213562371662
 31
0.0
210
0.0
220
0.0
230
1.0
 40
0.9999999999999699
 41
1.906586138112258
 42
3.194005349725247
  0
ELLIPSE
  5
25C
330
2
100
AcDbEntity
  8
GAIKEI
  6
Continuous
 62
     1
100
AcDbEllipse
 10
-14.45691018137324
 20
10.60799725980416
 30
0.0
 11
-0.1414213562373127
 21
-0.1414213562373127
 31
0.0
210
0.0
220
0.0
230
1.0
 40
0.9999999999999317
 41
1.891534526972412
 42
3.194147320001584
  0
ELLIPSE
  5
25D
330
2
100
AcDbEntity
  8
GAIKEI
  6
Continuous
 62
     1
100
AcDbEllipse
 10
-14.45691018137859
 20
23.90754124079513
 30
0.0
 11
-0.1414213562373118
 21
-0.1414213562373118
 31
0.0
210
0.0
220
0.0
230
1.0
 40
0.9999999999999849
 41
1.518241660542659
 42
2.820854453412607
  0
ELLIPSE
  5
25E
330
2
100
AcDbEntity
  8
GAIKEI
  6
Continuous
 62
     1
100
AcDbEllipse
 10
-14.16857078320777
 20
23.81033980535415
 30
0.0
 11
-0.1414213562373181
 21
-0.1414213562373181
 31
0.0
210
0.0
220
0.0
230
1.0
 40
0.9999999999999415
 41
1.518383630610797
 42
2.805802842269621
  0
ELLIPSE
  5
25F
330
2
100
AcDbEntity
  8
GAIKEI
  6
Continuous
 62
     1
100
AcDbEllipse
 10
-28.63728074197138
 20
32.07274936490751
 30
0.0
 11
-0.1414213562373143
 21
0.1414213562373143
 31
0.0
210
0.0
220
0.0
230
1.0
 40
0.9999999999998999
 41
5.559036952715669
 42
6.861547027272484
  0
ELLIPSE
  5
260
330
2
100
AcDbEntity
  8
GAIKEI
  6
Continuous
 62
     1
100
AcDbEllipse
 10
-28.8615194595476
 20
32.29331767884151
 30
0.0
 11
-0.1414213562374581
 21
0.1414213562374581
 31
0.0
210
0.0
220
0.0
230
1.0
 40
0.9999999999998196
 41
5.571777567302971
 42
6.859196778906273
  0
ELLIPSE
  5
261
330
2
100
AcDbEntity
  8
GAIKEI
  6
Continuous
 62
     1
100
AcDbEllipse
 10
-40.12229741518877
 20
25.43308285324554
 30
0.0
 11
-0.1414213562373276
 21
-0.1414213562373276
 31
0.0
210
0.0
220
0.0
230
1.0
 40
0.9999999999998554
 41
3.610368061690539
 42
4.914830713590108
  0
ELLIPSE
  5
262
330
2
100
AcDbEntity
  8
GAIKEI
  6
Continuous
 62
     1
100
AcDbEllipse
 10
-40.21090458111598
 20
25.74074712377376
 30
0.0
 11
-0.1414213562374502
 21
0.1414213562374502
 31
0.0
210
0.0
220
0.0
230
1.0
 40
0.9999999999999161
 41
5.183575059871254
 42
6.47099427145778
  0
ELLIPSE
  5
263
330
2
100
AcDbEntity
  8
GAIKEI
  6
Continuous
 62
     1
100
AcDbEllipse
 10
-40.21090458112666
 20
8.774791376831331
 30
0.0
 11
-0.1414213562373098
 21
-0.1414213562373098
 31
0.0
210
0.0
220
0.0
230
1.0
 40
0.9999999999999237
 41
-0.1878089642802643
 42
1.099610247295017
  0
ELLIPSE
  5
264
330
2
100
AcDbEntity
  8
GAIKEI
  6
Continuous
 62
     1
100
AcDbEllipse
 10
-40.1192017032198
 20
9.083469349936876
 30
0.0
 11
-0.1414213562371707
 21
-0.1414213562371707
 31
0.0
210
0.0
220
0.0
230
1.0
 40
0.9999999999999655
 41
-0.2020630438940274
 42
1.101674716321026
  0
ELLIPSE
  5
265
330
2
100
AcDbEntity
  8
GAIKEI
  6
Continuous
 62
     1
100
AcDbEllipse
 10
-28.86151945953884
 20
2.222220821746759
 30
0.0
 11
-0.141421356237323
 21
0.141421356237323
 31
0.0
210
0.0
220
0.0
230
1.0
 40
0.9999999999998829
 41
0.9947848550196257
 42
2.282204066673175
  0
ELLIPSE
  5
266
330
2
100
AcDbEntity
  8
GAIKEI
  6
Continuous
 62
     1
100
AcDbEllipse
 10
-28.6372807419674
 20
2.442789135681096
 30
0.0
 11
-0.1414213562373155
 21
-0.1414213562373155
 31
0.0
210
0.0
220
0.0
230
1.0
 40
0.9999999999998864
 41
-0.5783617200897718
 42
0.7241483544641501
  0
LINE
  5
267
330
2
100
AcDbEntity
  8
GAIKEI
  6
Continuous
 62
     1
100
AcDbLine
 10
-14.74699598980908
 20
17.85776925028847
 30
0.0
 11
-14.91541638980868
 21
17.56605785028853
 31
0.0
  0
LINE
  5
268
330
2
100
AcDbEntity
  8
GAIKEI
  6
Continuous
 62
     1
100
AcDbLine
 10
-14.74699598980908
 20
17.85776925028847
 30
0.0
 11
-14.57379058980928
 21
17.55776925028851
 31
0.0
  0
LINE
  5
269
330
2
100
AcDbEntity
  8
GAIKEI
  6
Continuous
 62
     1
100
AcDbLine
 10
-14.22737938980901
 20
17.55776925028851
 30
0.0
 11
-14.57379058980928
 21
17.55776925028851
 31
0.0
  0
LINE
  5
26A
330
2
100
AcDbEntity
  8
GAIKEI
  6
Continuous
 62
     1
100
AcDbLine
 10
-14.22737938980901
 20
17.55776925028851
 30
0.0
 11
-14.40058498980863
 21
17.25776925028856
 31
0.0
  0
LINE
  5
26B
330
2
100
AcDbEntity
  8
GAIKEI
  6
Continuous
 62
     1
100
AcDbLine
 10
-14.40058498980863
 20
17.25776925028856
 30
0.0
 11
-14.22737938980901
 21
16.95776925028849
 31
0.0
  0
LINE
  5
26C
330
2
100
AcDbEntity
  8
GAIKEI
  6
Continuous
 62
     1
100
AcDbLine
 10
-14.22737938980901
 20
16.95776925028849
 30
0.0
 11
-14.57379058980928
 21
16.95776925028849
 31
0.0
  0
LINE
  5
26D
330
2
100
AcDbEntity
  8
GAIKEI
  6
Continuous
 62
     1
100
AcDbLine
 10
-14.57379058980928
 20
16.95776925028849
 30
0.0
 11
-14.57857558980947
 21
16.94948065028848
 31
0.0
  0
LINE
  5
26E
330
2
100
AcDbEntity
  8
GAIKEI
  6
Continuous
 62
     1
100
AcDbLine
 10
-14.57857558980947
 20
16.94948065028848
 30
0.0
 11
-14.74699598980908
 21
16.65776925028854
 31
0.0
  0
LINE
  5
26F
330
2
100
AcDbEntity
  8
GAIKEI
  6
Continuous
 62
     1
100
AcDbLine
 10
-14.92020158980881
 20
16.95776925028849
 30
0.0
 11
-14.74699598980908
 21
16.65776925028854
 31
0.0
  0
LINE
  5
270
330
2
100
AcDbEntity
  8
GAIKEI
  6
Continuous
 62
     1
100
AcDbLine
 10
-14.92020158980881
 20
16.95776925028849
 30
0.0
 11
-15.26661278980907
 21
16.95776925028849
 31
0.0
  0
LINE
  5
271
330
2
100
AcDbEntity
  8
GAIKEI
  6
Continuous
 62
     1
100
AcDbLine
 10
-15.09340718980911
 20
17.25776925028856
 30
0.0
 11
-15.26661278980907
 21
16.95776925028849
 31
0.0
  0
LINE
  5
272
330
2
100
AcDbEntity
  8
GAIKEI
  6
Continuous
 62
     1
100
AcDbLine
 10
-15.26661278980907
 20
17.55776925028851
 30
0.0
 11
-15.09340718980911
 21
17.25776925028856
 31
0.0
  0
LINE
  5
273
330
2
100
AcDbEntity
  8
GAIKEI
  6
Continuous
 62
     1
100
AcDbLine
 10
-14.92020158980881
 20
17.55776925028851
 30
0.0
 11
-15.26661278980907
 21
17.55776925028851
 31
0.0
  0
LINE
  5
274
330
2
100
AcDbEntity
  8
GAIKEI
  6
Continuous
 62
     1
100
AcDbLine
 10
-14.91541638980868
 20
17.56605785028853
 30
0.0
 11
-14.92020158980881
 21
17.55776925028851
 31
0.0
  0
LINE
  5
275
330
2
100
AcDbEntity
  8
GAIKEI
  6
Continuous
 62
     1
100
AcDbLine
 10
-34.41152107092648
 20
6.300976753455529
 30
0.0
 11
-34.4163062709265
 21
6.292688153455515
 31
0.0
  0
LINE
  5
276
330
2
100
AcDbEntity
  8
GAIKEI
  6
Continuous
 62
     1
100
AcDbLine
 10
-34.4163062709265
 20
6.292688153455515
 30
0.0
 11
-34.7627174709263
 21
6.292688153455515
 31
0.0
  0
LINE
  5
277
330
2
100
AcDbEntity
  8
GAIKEI
  6
Continuous
 62
     1
100
AcDbLine
 10
-34.7627174709263
 20
6.292688153455515
 30
0.0
 11
-34.58951187092623
 21
5.99268815345556
 31
0.0
  0
LINE
  5
278
330
2
100
AcDbEntity
  8
GAIKEI
  6
Continuous
 62
     1
100
AcDbLine
 10
-34.58951187092623
 20
5.99268815345556
 30
0.0
 11
-34.7627174709263
 21
5.692688153455492
 31
0.0
  0
LINE
  5
279
330
2
100
AcDbEntity
  8
GAIKEI
  6
Continuous
 62
     1
100
AcDbLine
 10
-34.4163062709265
 20
5.692688153455492
 30
0.0
 11
-34.7627174709263
 21
5.692688153455492
 31
0.0
  0
LINE
  5
27A
330
2
100
AcDbEntity
  8
GAIKEI
  6
Continuous
 62
     1
100
AcDbLine
 10
-34.4163062709265
 20
5.692688153455492
 30
0.0
 11
-34.24310067092608
 21
5.392688153455537
 31
0.0
  0
LINE
  5
27B
330
2
100
AcDbEntity
  8
GAIKEI
  6
Continuous
 62
     1
100
AcDbLine
 10
-34.07468027092648
 20
5.684399553455705
 30
0.0
 11
-34.24310067092608
 21
5.392688153455537
 31
0.0
  0
LINE
  5
27C
330
2
100
AcDbEntity
  8
GAIKEI
  6
Continuous
 62
     1
100
AcDbLine
 10
-34.06989527092605
 20
5.692688153455492
 30
0.0
 11
-34.07468027092648
 21
5.684399553455705
 31
0.0
  0
LINE
  5
27D
330
2
100
AcDbEntity
  8
GAIKEI
  6
Continuous
 62
     1
100
AcDbLine
 10
-33.72348407092625
 20
5.692688153455492
 30
0.0
 11
-34.06989527092605
 21
5.692688153455492
 31
0.0
  0
LINE
  5
27E
330
2
100
AcDbEntity
  8
GAIKEI
  6
Continuous
 62
     1
100
AcDbLine
 10
-33.89668967092621
 20
5.99268815345556
 30
0.0
 11
-33.72348407092625
 21
5.692688153455492
 31
0.0
  0
LINE
  5
27F
330
2
100
AcDbEntity
  8
GAIKEI
  6
Continuous
 62
     1
100
AcDbLine
 10
-33.72348407092625
 20
6.292688153455515
 30
0.0
 11
-33.89668967092621
 21
5.99268815345556
 31
0.0
  0
LINE
  5
280
330
2
100
AcDbEntity
  8
GAIKEI
  6
Continuous
 62
     1
100
AcDbLine
 10
-33.72348407092625
 20
6.292688153455515
 30
0.0
 11
-34.06989527092605
 21
6.292688153455515
 31
0.0
  0
LINE
  5
281
330
2
100
AcDbEntity
  8
GAIKEI
  6
Continuous
 62
     1
100
AcDbLine
 10
-34.24310067092608
 20
6.592688153455469
 30
0.0
 11
-34.06989527092605
 21
6.292688153455515
 31
0.0
  0
LINE
  5
282
330
2
100
AcDbEntity
  8
GAIKEI
  6
Continuous
 62
     1
100
AcDbLine
 10
-34.24310067092608
 20
6.592688153455469
 30
0.0
 11
-34.41152107092648
 21
6.300976753455529
 31
0.0
  0
LINE
  5
283
330
2
100
AcDbEntity
  8
GAIKEI
  6
Continuous
 62
     1
100
AcDbLine
 10
-34.2466388212714
 20
29.11547655679454
 30
0.0
 11
-34.41505922127124
 21
28.82376515679448
 31
0.0
  0
LINE
  5
284
330
2
100
AcDbEntity
  8
GAIKEI
  6
Continuous
 62
     1
100
AcDbLine
 10
-34.2466388212714
 20
29.11547655679454
 30
0.0
 11
-34.07343342127149
 21
28.81547655679447
 31
0.0
  0
LINE
  5
285
330
2
100
AcDbEntity
  8
GAIKEI
  6
Continuous
 62
     1
100
AcDbLine
 10
-33.72702222127123
 20
28.81547655679447
 30
0.0
 11
-34.07343342127149
 21
28.81547655679447
 31
0.0
  0
LINE
  5
286
330
2
100
AcDbEntity
  8
GAIKEI
  6
Continuous
 62
     1
100
AcDbLine
 10
-33.72702222127123
 20
28.81547655679447
 30
0.0
 11
-33.90022782127119
 21
28.51547655679451
 31
0.0
  0
LINE
  5
287
330
2
100
AcDbEntity
  8
GAIKEI
  6
Continuous
 62
     1
100
AcDbLine
 10
-33.90022782127119
 20
28.51547655679451
 30
0.0
 11
-33.72702222127123
 21
28.21547655679456
 31
0.0
  0
LINE
  5
288
330
2
100
AcDbEntity
  8
GAIKEI
  6
Continuous
 62
     1
100
AcDbLine
 10
-33.72702222127123
 20
28.21547655679456
 30
0.0
 11
-34.07343342127149
 21
28.21547655679456
 31
0.0
  0
LINE
  5
289
330
2
100
AcDbEntity
  8
GAIKEI
  6
Continuous
 62
     1
100
AcDbLine
 10
-34.07343342127149
 20
28.21547655679456
 30
0.0
 11
-34.07821842127146
 21
28.20718795679454
 31
0.0
  0
LINE
  5
28A
330
2
100
AcDbEntity
  8
GAIKEI
  6
Continuous
 62
     1
100
AcDbLine
 10
-34.07821842127146
 20
28.20718795679454
 30
0.0
 11
-34.2466388212714
 21
27.91547655679449
 31
0.0
  0
LINE
  5
28B
330
2
100
AcDbEntity
  8
GAIKEI
  6
Continuous
 62
     1
100
AcDbLine
 10
-34.41984442127148
 20
28.21547655679456
 30
0.0
 11
-34.2466388212714
 21
27.91547655679449
 31
0.0
  0
LINE
  5
28C
330
2
100
AcDbEntity
  8
GAIKEI
  6
Continuous
 62
     1
100
AcDbLine
 10
-34.41984442127148
 20
28.21547655679456
 30
0.0
 11
-34.76625562127129
 21
28.21547655679456
 31
0.0
  0
LINE
  5
28D
330
2
100
AcDbEntity
  8
GAIKEI
  6
Continuous
 62
     1
100
AcDbLine
 10
-34.59305002127121
 20
28.51547655679451
 30
0.0
 11
-34.76625562127129
 21
28.21547655679456
 31
0.0
  0
LINE
  5
28E
330
2
100
AcDbEntity
  8
GAIKEI
  6
Continuous
 62
     1
100
AcDbLine
 10
-34.76625562127129
 20
28.81547655679447
 30
0.0
 11
-34.59305002127121
 21
28.51547655679451
 31
0.0
  0
LINE
  5
28F
330
2
100
AcDbEntity
  8
GAIKEI
  6
Continuous
 62
     1
100
AcDbLine
 10
-34.41984442127148
 20
28.81547655679447
 30
0.0
 11
-34.76625562127129
 21
28.81547655679447
 31
0.0
  0
LINE
  5
290
330
2
100
AcDbEntity
  8
GAIKEI
  6
Continuous
 62
     1
100
AcDbLine
 10
-34.41505922127124
 20
28.82376515679448
 30
0.0
 11
-34.41984442127148
 21
28.81547655679447
 31
0.0
  0
ELLIPSE
  5
291
330
2
100
AcDbEntity
  8
GAIKEI
  6
Continuous
 62
     1
100
AcDbEllipse
 10
-14.74699598980896
 20
17.25776925028856
 30
0.0
 11
-0.0707106781186551
 21
0.0707106781186551
 31
0.0
210
0.0
220
0.0
230
1.0
 40
0.9999999999999918
 41
5.497787143782133
 42
11.78097245096172
  0
ELLIPSE
  5
292
330
2
100
AcDbEntity
  8
GAIKEI
  6
Continuous
 62
     1
100
AcDbEllipse
 10
-14.74699598980896
 20
17.25776925028856
 30
0.0
 11
-0.5868986283848363
 21
0.5868986283848363
 31
0.0
210
0.0
220
0.0
230
1.0
 40
0.9999999999999833
 41
5.497787143782129
 42
11.78097245096171
  0
ELLIPSE
  5
293
330
2
100
AcDbEntity
  8
GAIKEI
  6
Continuous
 62
     1
100
AcDbEllipse
 10
-34.24310067092597
 20
5.99268815345556
 30
0.0
 11
-0.5868986283848363
 21
0.5868986283848363
 31
0.0
210
0.0
220
0.0
230
1.0
 40
0.9999999999999833
 41
5.497787143782129
 42
11.78097245096171
  0
ELLIPSE
  5
294
330
2
100
AcDbEntity
  8
GAIKEI
  6
Continuous
 62
     1
100
AcDbEllipse
 10
-34.24310067092597
 20
5.99268815345556
 30
0.0
 11
-0.0707106781186551
 21
0.0707106781186551
 31
0.0
210
0.0
220
0.0
230
1.0
 40
0.9999999999999918
 41
5.497787143782133
 42
11.78097245096172
  0
ELLIPSE
  5
295
330
2
100
AcDbEntity
  8
GAIKEI
  6
Continuous
 62
     1
100
AcDbEllipse
 10
-34.2466388212714
 20
28.51547655679451
 30
0.0
 11
-0.0707106781186551
 21
0.0707106781186551
 31
0.0
210
0.0
220
0.0
230
1.0
 40
0.9999999999999918
 41
5.497787143782133
 42
11.78097245096172
  0
ELLIPSE
  5
296
330
2
100
AcDbEntity
  8
GAIKEI
  6
Continuous
 62
     1
100
AcDbEllipse
 10
-34.2466388212714
 20
28.51547655679451
 30
0.0
 11
-0.5868986283848363
 21
0.5868986283848363
 31
0.0
210
0.0
220
0.0
230
1.0
 40
0.9999999999999833
 41
5.497787143782129
 42
11.78097245096171
  0
ELLIPSE
  5
297
330
2
100
AcDbEntity
  8
GAIKEI
  6
Continuous
 62
     1
100
AcDbEllipse
 10
21.02718304257303
 20
16.19783761984558
 30
0.0
 11
-0.0424264068713338
 21
-0.0424264068713338
 31
0.0
210
0.0
220
0.0
230
1.0
 40
0.9999999999998754
 41
3.926990816987303
 42
5.49778714377677
  0
ELLIPSE
  5
298
330
2
100
AcDbEntity
  8
GAIKEI
  6
Continuous
 62
     1
100
AcDbEllipse
 10
21.02718304257303
 20
18.31783761984536
 30
0.0
 11
-0.042426406871482
 21
-0.042426406871482
 31
0.0
210
0.0
220
0.0
230
1.0
 40
0.9999999999997104
 41
-0.7853981633975931
 42
0.7853981633975931
  0
ELLIPSE
  5
299
330
2
100
AcDbEntity
  8
GAIKEI
  6
Continuous
 62
     1
100
AcDbEllipse
 10
25.62718304257249
 20
17.25783761984553
 30
0.0
 11
-1.873832970144355
 21
-1.873832970144355
 31
0.0
210
0.0
220
0.0
230
1.0
 40
0.999999999999995
 41
3.926990816987244
 42
10.21017612416683
  0
ELLIPSE
  5
29A
330
2
100
AcDbEntity
  8
GAIKEI
  6
Continuous
 62
     1
100
AcDbEllipse
 10
25.62718304257305
 20
17.25783761984553
 30
0.0
 11
-2.011011685694404
 21
-2.011011685694404
 31
0.0
210
0.0
220
0.0
230
1.0
 40
0.9999999999999957
 41
3.926990816987243
 42
10.21017612416683
  0
ELLIPSE
  5
29B
330
2
100
AcDbEntity
  8
GAIKEI
  6
Continuous
 62
     1
100
AcDbEllipse
 10
-27.8087140951169
 20
17.27365003364093
 30
0.0
 11
-10.89209141701302
 21
10.89209141701302
 31
0.0
210
0.0
220
0.0
230
1.0
 40
0.9999999999999994
 41
0.8545367650887214
 42
3.857852215295968
  0
ELLIPSE
  5
29C
330
2
100
AcDbEntity
  8
GAIKEI
  6
Continuous
 62
     1
100
AcDbEllipse
 10
-27.8087140951169
 20
17.27365003364093
 30
0.0
 11
-10.89209141701399
 21
-10.89209141701399
 31
0.0
210
0.0
220
0.0
230
1.0
 40
0.9999999999999985
 41
-0.850363135102391
 42
-0.7162595617061762
  0
ELLIPSE
  5
29D
330
2
100
AcDbEntity
  8
GAIKEI
  6
Continuous
 62
     7
100
AcDbEllipse
 10
-27.8087140951169
 20
17.27365003364093
 30
0.0
 11
-11.24299782087121
 21
11.24299782087122
 31
0.0
210
0.0
220
0.0
230
1.0
 40
0.9999999999999975
 41
4.185867702215608
 42
5.238903944599076
  0
ELLIPSE
  5
29E
330
2
100
AcDbEntity
  8
GAIKEI
  6
Continuous
 62
     1
100
AcDbEllipse
 10
-27.83853401570198
 20
17.21146086567574
 30
0.0
 11
15.37821594372384
 21
0.0623660935502048
 31
0.0
210
0.0
220
0.0
230
1.0
 40
0.9977501475736845
 41
0.0733462219102472
 42
3.068246431679723
  0
ELLIPSE
  5
29F
330
2
100
AcDbEntity
  8
GAIKEI
  6
Continuous
 62
     7
100
AcDbEllipse
 10
-27.80897562208816
 20
-65.56728957985979
 30
0.0
 11
-69.50535860256905
 21
-69.50535860256905
 31
0.0
210
0.0
220
0.0
230
1.0
 40
0.9999999999999985
 41
3.88556626382503
 42
3.968409056194724
  0
ELLIPSE
  5
2A0
330
2
100
AcDbEntity
  8
GAIKEI
  6
Continuous
 62
     7
100
AcDbEllipse
 10
-110.6496537086177
 20
17.27391156061162
 30
0.0
 11
-69.50535860257713
 21
69.50535860257713
 31
0.0
210
0.0
220
0.0
230
1.0
 40
0.9999999999999982
 41
3.885566263825031
 42
3.968409056194742
  0
ELLIPSE
  5
2A1
330
2
100
AcDbEntity
  8
GAIKEI
  6
Continuous
 62
     7
100
AcDbEllipse
 10
-27.8087140951169
 20
17.27365003364093
 30
0.0
 11
-11.24299782087134
 21
-11.24299782087134
 31
0.0
210
0.0
220
0.0
230
1.0
 40
0.9999999999999996
 41
4.185867702215642
 42
8.380496598188816
  0
ELLIPSE
  5
2A2
330
2
100
AcDbEntity
  8
GAIKEI
  6
Continuous
100
AcDbEllipse
 10
25.62718304257305
 20
17.25783761984553
 30
0.0
 11
-2.687005768508174
 21
2.687005768508174
 31
0.0
210
0.0
220
0.0
230
1.0
 40
0.9999999999999998
 41
5.537176791295697
 42
8.599990149858371
  0
ELLIPSE
  5
2A3
330
2
100
AcDbEntity
  8
GAIKEI
  6
HIDDEN2
 62
     1
100
AcDbEllipse
 10
84.19510122813642
 20
-965.3412757875319
 30
0.0
 11
-707.1067811881407
 21
-707.1067811881407
 31
0.0
210
0.0
220
0.0
230
1.0
 40
0.999999999999555
 41
3.981786151817825
 42
3.989399238786969
  0
ELLIPSE
  5
2A5
330
2
100
AcDbEntity
  8
GAIKEI
  6
Continuous
100
AcDbEllipse
 10
84.19510122813642
 20
-965.3412757875319
 30
0.0
 11
-707.1067812804054
 21
-707.1067812804052
 31
0.0
210
0.0
220
0.0
230
1.0
 40
0.9999999999704401
 41
3.989399238801413
 42
3.990200819419726
  0
ELLIPSE
  5
2A6
330
2
100
AcDbEntity
  8
GAIKEI
  6
Continuous
100
AcDbEllipse
 10
84.19510122813733
 20
999.8569510272291
 30
0.0
 11
-707.106781185644
 21
-707.106781185644
 31
0.0
210
0.0
220
0.0
230
1.0
 40
0.9999999999996783
 41
0.722128040800107
 42
0.7306028285672457
  0
LINE
  5
2A7
330
2
100
AcDbEntity
  8
GAIKEI
  6
Continuous
 62
     1
100
AcDbLine
 10
20.96718304257342
 20
16.19783761984547
 30
0.0
 11
20.96718304257342
 21
1.857837621268458
 31
0.0
  0
LINE
  5
2A8
330
2
100
AcDbEntity
  8
GAIKEI
  6
Continuous
 62
     1
100
AcDbLine
 10
21.26718304257258
 20
18.2578376198453
 30
0.0
 11
21.26718304257258
 21
18.31783761984536
 31
0.0
  0
LINE
  5
2A9
330
2
100
AcDbEntity
  8
GAIKEI
  6
Continuous
 62
     1
100
AcDbLine
 10
21.26718304257258
 20
16.25783761984576
 30
0.0
 11
21.26718304257258
 21
16.1978376198457
 31
0.0
  0
LINE
  5
2AA
330
2
100
AcDbEntity
  8
GAIKEI
  6
Continuous
 62
     1
100
AcDbLine
 10
21.26718304257258
 20
16.25783761984576
 30
0.0
 11
21.02718304257303
 21
16.25783761984576
 31
0.0
  0
LINE
  5
2AB
330
2
100
AcDbEntity
  8
GAIKEI
  6
Continuous
 62
     1
100
AcDbLine
 10
21.26718304257258
 20
18.2578376198453
 30
0.0
 11
21.02718304257303
 21
18.2578376198453
 31
0.0
  0
LINE
  5
2AC
330
2
100
AcDbEntity
  8
GAIKEI
  6
Continuous
 62
     1
100
AcDbLine
 10
21.26718304257258
 20
16.25783761984576
 30
0.0
 11
21.26718304257258
 21
18.2578376198453
 31
0.0
  0
LINE
  5
2AD
330
2
100
AcDbEntity
  8
GAIKEI
  6
Continuous
 62
     1
100
AcDbLine
 10
26.21608031714618
 20
17.25783761984553
 30
0.0
 11
25.92163167985859
 21
16.74783761984554
 31
0.0
  0
LINE
  5
2AE
330
2
100
AcDbEntity
  8
GAIKEI
  6
Continuous
 62
     1
100
AcDbLine
 10
25.92163167985859
 20
16.74783761984554
 30
0.0
 11
25.33273440528444
 21
16.74783761984554
 31
0.0
  0
LINE
  5
2AF
330
2
100
AcDbEntity
  8
GAIKEI
  6
Continuous
 62
     1
100
AcDbLine
 10
25.33273440528444
 20
16.74783761984554
 30
0.0
 11
25.03828576799845
 21
17.25783761984553
 31
0.0
  0
LINE
  5
2B0
330
2
100
AcDbEntity
  8
GAIKEI
  6
Continuous
 62
     1
100
AcDbLine
 10
25.03828576799845
 20
17.25783761984553
 30
0.0
 11
25.33273440528444
 21
17.76783761984529
 31
0.0
  0
LINE
  5
2B1
330
2
100
AcDbEntity
  8
GAIKEI
  6
Continuous
 62
     1
100
AcDbLine
 10
25.33273440528444
 20
17.76783761984529
 30
0.0
 11
25.92163167986041
 21
17.76783761984529
 31
0.0
  0
LINE
  5
2B2
330
2
100
AcDbEntity
  8
GAIKEI
  6
Continuous
 62
     1
100
AcDbLine
 10
25.92163167986041
 20
17.76783761984529
 30
0.0
 11
26.21608031714618
 21
17.25783761984553
 31
0.0
  0
LINE
  5
2B3
330
2
100
AcDbEntity
  8
GAIKEI
  6
Continuous
 62
     1
100
AcDbLine
 10
25.03828576799845
 20
17.25783761984553
 30
0.0
 11
26.21608031714618
 21
17.25783761984553
 31
0.0
  0
LINE
  5
2B4
330
2
100
AcDbEntity
  8
GAIKEI
  6
Continuous
100
AcDbLine
 10
29.42718304257301
 20
21.25783761984553
 30
0.0
 11
25.47754108504899
 21
21.05489006674975
 31
0.0
  0
LINE
  5
2B5
330
2
100
AcDbEntity
  8
GAIKEI
  6
Continuous
100
AcDbLine
 10
25.47754108504899
 20
13.46078517294108
 30
0.0
 11
29.42718304257301
 21
13.25783761984553
 31
0.0
  0
LINE
  5
2B6
330
2
100
AcDbEntity
  8
GAIKEI
  6
Continuous
 62
     1
100
AcDbLine
 10
20.96718304257342
 20
32.60163709003155
 30
0.0
 11
20.96718304257342
 21
18.31783761984536
 31
0.0
  0
LINE
  5
2B7
330
2
100
AcDbEntity
  8
GAIKEI
  6
Continuous
100
AcDbLine
 10
21.83336389804901
 20
32.71231879936465
 30
0.0
 11
29.42718304257301
 21
32.62803058052828
 31
0.0
  0
LINE
  5
2B8
330
2
100
AcDbEntity
  8
GAIKEI
  6
Continuous
 62
     1
100
AcDbLine
 10
29.42718304257301
 20
33.15783544773535
 30
0.0
 11
29.42718304257301
 21
32.62803058052828
 31
0.0
  0
LINE
  5
2B9
330
2
100
AcDbEntity
  8
GAIKEI
  6
Continuous
100
AcDbLine
 10
21.02718304257303
 20
32.66163709003127
 30
0.0
 11
20.96718304257342
 21
32.60163709003155
 31
0.0
  0
LINE
  5
2BA
330
2
100
AcDbEntity
  8
GAIKEI
  6
Continuous
100
AcDbLine
 10
29.42718304257301
 20
32.62803058052828
 30
0.0
 11
29.42718304257301
 21
1.357839793384641
 31
0.0
  0
LINE
  5
2BB
330
2
100
AcDbEntity
  8
GAIKEI
  6
Continuous
100
AcDbLine
 10
21.02718304257303
 20
32.66163686785433
 30
0.0
 11
20.9671830425732
 21
32.60163686785416
 31
0.0
  0
ELLIPSE
  5
2BC
330
2
100
AcDbEntity
  8
GAIKEI
  6
Continuous
100
AcDbEllipse
 10
9.527183042140677
 20
17.25783761984508
 30
0.0
 11
-7.424621202458749
 21
7.424621202458749
 31
0.0
210
0.0
220
0.0
230
1.0
 40
0.9999999999999992
 41
5.535891602167235
 42
7.068583470577034
  0
ELLIPSE
  5
2BD
330
2
100
AcDbEntity
  8
GAIKEI
  6
Continuous
100
AcDbEllipse
 10
9.527183042140677
 20
17.25783761984508
 30
0.0
 11
-7.424621202458752
 21
7.424621202458752
 31
0.0
210
0.0
220
0.0
230
1.0
 40
0.9999999999999996
 41
0.7853981633974484
 42
2.318090031807211
  0
LINE
  5
2BE
330
2
100
AcDbEntity
  8
GAIKEI
  6
Continuous
100
AcDbLine
 10
9.531864433811279
 20
27.8256208400569
 30
0.0
 11
9.1271830421407
 21
27.79021580594508
 31
0.0
  0
LINE
  5
2BF
330
2
100
AcDbEntity
  8
GAIKEI
  6
Continuous
100
AcDbLine
 10
9.531864433811279
 20
6.690054399636096
 30
0.0
 11
9.1271830421407
 21
6.725459433745072
 31
0.0
  0
LINE
  5
2C0
330
2
100
AcDbEntity
  8
GAIKEI
  6
Continuous
100
AcDbLine
 10
9.1271830421407
 20
6.725561884645117
 30
0.0
 11
9.1271830421407
 21
27.79011335506505
 31
0.0
  0
LINE
  5
2C1
330
2
100
AcDbEntity
  8
GAIKEI
  6
Continuous
 62
     1
100
AcDbLine
 10
29.42718304257301
 20
6.923480008441288
 30
0.0
 11
29.46718304257297
 21
6.923480008441288
 31
0.0
  0
LINE
  5
2C2
330
2
100
AcDbEntity
  8
GAIKEI
  6
Continuous
 62
     1
100
AcDbLine
 10
29.42718304257301
 20
10.12348000844133
 30
0.0
 11
29.46718304257297
 21
10.12348000844133
 31
0.0
  0
LINE
  5
2C3
330
2
100
AcDbEntity
  8
GAIKEI
  6
Continuous
 62
     1
100
AcDbLine
 10
29.52718304257303
 20
10.06336321200137
 30
0.0
 11
29.52718304257303
 21
6.983596804901367
 31
0.0
  0
LINE
  5
2C4
330
2
100
AcDbEntity
  8
GAIKEI
  6
Continuous
 62
     1
100
AcDbLine
 10
29.52718304257303
 20
23.95415369282114
 30
0.0
 11
29.52718304257303
 21
27.0339070483011
 31
0.0
  0
LINE
  5
2C5
330
2
100
AcDbEntity
  8
GAIKEI
  6
Continuous
 62
     1
100
AcDbLine
 10
29.46718304257297
 20
23.89403037056127
 30
0.0
 11
29.42718304257301
 21
23.89403037056127
 31
0.0
  0
LINE
  5
2C6
330
2
100
AcDbEntity
  8
GAIKEI
  6
Continuous
 62
     1
100
AcDbLine
 10
29.46718304257297
 20
27.09403037056131
 30
0.0
 11
29.42718304257301
 21
27.09403037056131
 31
0.0
  0
ELLIPSE
  5
2C7
330
2
100
AcDbEntity
  8
GAIKEI
  6
Continuous
 62
     1
100
AcDbEllipse
 10
29.46718304257308
 20
23.95403037056133
 30
0.0
 11
-0.0424264068711978
 21
0.0424264068711978
 31
0.0
210
0.0
220
0.0
230
-1.0
 40
0.9999999999998452
 41
2.356194490192267
 42
3.926990816987318
  0
ELLIPSE
  5
2C8
330
2
100
AcDbEntity
  8
GAIKEI
  6
Continuous
 62
     1
100
AcDbEllipse
 10
29.46718304257308
 20
27.03403037056114
 30
0.0
 11
0.0424264068711978
 21
0.0424264068711978
 31
0.0
210
0.0
220
0.0
230
-1.0
 40
0.9999999999994663
 41
-0.7853981633977151
 42
0.7853981633977148
  0
ELLIPSE
  5
2C9
330
2
100
AcDbEntity
  8
GAIKEI
  6
Continuous
 62
     1
100
AcDbEllipse
 10
29.46718304257308
 20
6.983480008441347
 30
0.0
 11
-0.0424264068711978
 21
0.0424264068711978
 31
0.0
210
0.0
220
0.0
230
-1.0
 40
0.9999999999998452
 41
2.356194490192267
 42
3.926990816987318
  0
ELLIPSE
  5
2CA
330
2
100
AcDbEntity
  8
GAIKEI
  6
Continuous
 62
     1
100
AcDbEllipse
 10
29.46718304257308
 20
10.06348000844139
 30
0.0
 11
0.0424264068712091
 21
0.0424264068712091
 31
0.0
210
0.0
220
0.0
230
-1.0
 40
0.9999999999993093
 41
-0.7853981633977936
 42
0.7853981633977934
  0
DIMENSION
  5
2CB
330
2
100
AcDbEntity
  8
SUNPO
100
AcDbDimension
  2
*D4
 10
37.58516489415709
 20
33.15783979338437
 30
0.0
 11
35.83516489415708
 21
17.25783979338452
 31
0.0
 70
    33
  1
φ159
 71
     5
 42
31.7999999999997
  3
STANDARD
100
AcDbAlignedDimension
 13
29.58516489415709
 23
1.35783979338467
 33
0.0
 14
29.58516489415709
 24
33.15783979338437
 34
0.0
1001
ACAD
1000
DSTYLE
1002
{
1070
    40
1040
1.0
1070
   140
1040
2.5
1070
   147
1040
0.5
1070
   172
1070
     1
1070
   279
1070
     0
1070
   288
1070
     0
1002
}
  0
DIMENSION
  5
2D9
330
2
100
AcDbEntity
  8
SUNPO
100
AcDbDimension
  2
*D3
 10
-0.972816957538988
 20
41.12150492217051
 30
0.0
 11
14.27718304246102
 21
42.87150492217053
 31
0.0
 70
    33
  1
153
 71
     5
 42
30.50000000000003
  3
STANDARD
100
AcDbAlignedDimension
 13
29.52718304246105
 23
33.12150492217055
 33
0.0
 14
-0.9728169575389813
 24
33.12150492217052
 34
0.0
1001
ACAD
1000
DSTYLE
1002
{
1070
    40
1040
1.0
1070
   140
1040
2.5
1070
   147
1040
0.5
1070
   172
1070
     1
1070
   279
1070
     0
1070
   288
1070
     0
1002
}
  0
LINE
  5
2E6
330
2
100
AcDbEntity
  8
WAKU
 62
     1
100
AcDbLine
 10
-62.90465955646701
 20
-40.08465030188335
 30
0.0
 11
62.09534044353287
 21
-40.08465030188335
 31
0.0
  0
LINE
  5
2E8
330
2
100
AcDbEntity
  8
WAKU
 62
     1
100
AcDbLine
 10
-62.90465955646701
 20
-55.08465030188336
 30
0.0
 11
62.09534044353287
 21
-55.08465030188336
 31
0.0
  0
TEXT
  5
2E9
330
2
100
AcDbEntity
  8
MOJI1
100
AcDbText
 10
-20.40465955646701
 20
-54.08465030188335
 30
0.0
 40
3.0
  1
５２ｄＢｔｙｐ（スーパーダイナミック３　ＯＮ、シャッター速度　ＯＦＦ時）
 41
0.6400000000000001
100
AcDbText
  0
TEXT
  5
2EA
330
2
100
AcDbEntity
  8
MOJI1
100
AcDbText
 10
-60.40465955646701
 20
-54.08465030188335
 30
0.0
 40
3.0
  1
ダイナミックレンジ
100
AcDbText
  0
TEXT
  5
2EB
330
2
100
AcDbEntity
  8
MOJI1
100
AcDbText
 10
-20.40465955646701
 20
-34.08465030188336
 30
0.0
 40
3.0
  1
水平：３５．６° ～７３．６°垂直：２６．６° ～５３．４°
 41
0.8
100
AcDbText
  0
TEXT
  5
2EC
330
2
100
AcDbEntity
  8
MOJI1
100
AcDbText
 10
-60.40465955646701
 20
-34.08465030188336
 30
0.0
 40
3.0
  1
画　角
100
AcDbText
  0
TEXT
  5
2ED
330
2
100
AcDbEntity
  8
MOJI1
100
AcDbText
 10
-60.40465955646701
 20
-44.08465030188335
 30
0.0
 40
3.0
  1
画像解像度
100
AcDbText
  0
TEXT
  5
2EE
330
2
100
AcDbEntity
  8
MOJI1
100
AcDbText
 10
-20.40465955646701
 20
-44.08465030188335
 30
0.0
 40
3.0
  1
ＶＧＡ（６４０×４８０)／ＱＶＧＡ（３２０×２４０）
 41
0.9
100
AcDbText
  0
TEXT
  5
2EF
330
2
100
AcDbEntity
  8
MOJI1
100
AcDbText
 10
-20.40465955646701
 20
-29.08465030188336
 30
0.0
 40
3.0
  1
１／３型　インターライン転送方式ＣＣＤ
100
AcDbText
  0
TEXT
  5
2F0
330
2
100
AcDbEntity
  8
MOJI1
100
AcDbText
 10
-60.40465955646701
 20
-29.08465030188336
 30
0.0
 40
3.0
  1
撮像素子
100
AcDbText
  0
TEXT
  5
2F1
330
2
100
AcDbEntity
  8
MOJI1
100
AcDbText
 10
-20.40465955646701
 20
-24.08465030188336
 30
0.0
 40
3.0
  1
ＤＣ１２Ｖ：約８５０ｍＡ、ＰｏＥ：約９．２Ｗ（クラス０)
 41
0.8299999999999998
100
AcDbText
  0
LINE
  5
2F2
330
2
100
AcDbEntity
  8
WAKU
 62
     1
100
AcDbLine
 10
-62.90465955646701
 20
-25.08465030188336
 30
0.0
 11
62.09534044353287
 21
-25.08465030188336
 31
0.0
  0
LINE
  5
2F3
330
2
100
AcDbEntity
  8
WAKU
 62
     1
100
AcDbLine
 10
-62.90465955646701
 20
-20.08465030188336
 30
0.0
 11
62.09534044353287
 21
-20.08465030188336
 31
0.0
  0
LINE
  5
2F4
330
2
100
AcDbEntity
  8
WAKU
 62
     1
100
AcDbLine
 10
-62.90465955646701
 20
-15.08465030188335
 30
0.0
 11
62.09534044353287
 21
-15.08465030188335
 31
0.0
  0
LINE
  5
2F5
330
2
100
AcDbEntity
  8
WAKU
 62
     4
100
AcDbLine
 10
62.09534044353287
 20
-60.08465030188336
 30
0.0
 11
-62.90465955646701
 21
-60.08465030188336
 31
0.0
  0
LINE
  5
2F6
330
2
100
AcDbEntity
  8
WAKU
 62
     1
100
AcDbLine
 10
-62.90465955646701
 20
-50.08465030188336
 30
0.0
 11
62.09534044353287
 21
-50.08465030188336
 31
0.0
  0
LINE
  5
2F7
330
2
100
AcDbEntity
  8
WAKU
 62
     1
100
AcDbLine
 10
-62.90465955646701
 20
-45.08465030188335
 30
0.0
 11
62.09534044353287
 21
-45.08465030188335
 31
0.0
  0
LINE
  5
2F8
330
2
100
AcDbEntity
  8
WAKU
 62
     1
100
AcDbLine
 10
-62.90465955646701
 20
-35.08465030188336
 30
0.0
 11
62.09534044353287
 21
-35.08465030188336
 31
0.0
  0
LINE
  5
2F9
330
2
100
AcDbEntity
  8
WAKU
 62
     1
100
AcDbLine
 10
-62.90465955646701
 20
-30.08465030188336
 30
0.0
 11
62.09534044353287
 21
-30.08465030188336
 31
0.0
  0
LINE
  5
2FA
330
2
100
AcDbEntity
  8
WAKU
 62
     4
100
AcDbLine
 10
-62.90465955646701
 20
-5.084650301883357
 30
0.0
 11
-62.90465955646701
 21
-60.08465030188336
 31
0.0
  0
TEXT
  5
2FB
330
2
100
AcDbEntity
  8
MOJI1
100
AcDbText
 10
-20.40465955646701
 20
-14.08465030188336
 30
0.0
 40
3.0
  1
ＤＣ１２Ｖ　ＰｏＥ（ＩＥＥＥ８０２．３ａｆ準拠)
 41
0.95
100
AcDbText
  0
LINE
  5
2FC
330
2
100
AcDbEntity
  8
WAKU
 62
     4
100
AcDbLine
 10
-22.90465955646701
 20
-5.084650301883357
 30
0.0
 11
-22.90465955646701
 21
-60.08465030188336
 31
0.0
  0
LINE
  5
2FD
330
2
100
AcDbEntity
  8
WAKU
 62
     4
100
AcDbLine
 10
62.09534044353287
 20
-5.084650301883357
 30
0.0
 11
62.09534044353287
 21
-60.08465030188336
 31
0.0
  0
TEXT
  5
2FE
330
2
100
AcDbEntity
  8
MOJI1
100
AcDbText
 10
-20.40465955646701
 20
-39.08465030188336
 30
0.0
 40
3.0
  1
カラー：１．５ｌｘ、白黒：０．１６ｌｘ
100
AcDbText
  0
TEXT
  5
2FF
330
2
100
AcDbEntity
  8
MOJI1
100
AcDbText
 10
-60.40465955646701
 20
-39.08465030188336
 30
0.0
 40
3.0
  1
最低照度
100
AcDbText
  0
TEXT
  5
300
330
2
100
AcDbEntity
  8
MOJI1
100
AcDbText
 10
-20.40465955646701
 20
-59.08465030188335
 30
0.0
 40
3.0
  1
１０ＢＡＳＥ－Ｔ／１００ＢＡＳＥ－ＴＸ、ＲＪ４５コネクター
 41
0.7800000000000001
100
AcDbText
  0
TEXT
  5
301
330
2
100
AcDbEntity
  8
MOJI1
100
AcDbText
 10
-60.40465955646701
 20
-59.08465030188335
 30
0.0
 40
3.0
  1
ネットワーク
100
AcDbText
  0
TEXT
  5
302
330
2
100
AcDbEntity
  8
MOJI1
100
AcDbText
 10
-60.40465955646701
 20
-49.08465030188335
 30
0.0
 40
3.0
  1
画像圧縮方式
100
AcDbText
  0
TEXT
  5
303
330
2
100
AcDbEntity
  8
MOJI1
100
AcDbText
 10
-20.40465955646701
 20
-49.08465030188335
 30
0.0
 40
3.0
  1
ＭＰＥＧ－４／ＪＰＥＧ　デュアルエンコーディング
 41
0.9
100
AcDbText
  0
LINE
  5
304
330
2
100
AcDbEntity
  8
WAKU
 62
     1
100
AcDbLine
 10
-62.90465955646701
 20
-10.08465030188335
 30
0.0
 11
62.09534044353287
 21
-10.08465030188335
 31
0.0
  0
LINE
  5
305
330
2
100
AcDbEntity
  8
WAKU
 62
     4
100
AcDbLine
 10
-62.90465955646701
 20
-5.084650301883357
 30
0.0
 11
62.09534044353287
 21
-5.084650301883357
 31
0.0
  0
TEXT
  5
306
330
2
100
AcDbEntity
  8
MOJI1
100
AcDbText
 10
-60.40465955646701
 20
-9.084650301883357
 30
0.0
 40
3.0
  1
電　源
100
AcDbText
  0
TEXT
  5
307
330
2
100
AcDbEntity
  8
MOJI1
100
AcDbText
 10
-20.40465955646701
 20
-9.084650301883357
 30
0.0
 40
3.0
  1
ＡＣ２４Ｖ　５０Ｈｚ／６０Ｈｚ
100
AcDbText
  0
TEXT
  5
308
330
2
100
AcDbEntity
  8
MOJI1
100
AcDbText
 10
-60.40465955646701
 20
-19.08465030188336
 30
0.0
 40
3.0
  1
消費電力
100
AcDbText
  0
TEXT
  5
309
330
2
100
AcDbEntity
  8
MOJI1
100
AcDbText
 10
-20.40465955646701
 20
-19.08465030188336
 30
0.0
 40
3.0
  1
ＡＣ２４Ｖ：約８．２Ｗ
100
AcDbText
  0
ENDSEC
  0
SECTION
  2
OBJECTS
  0
DICTIONARY
  5
9
330
0
100
AcDbDictionary
281
     1
  3
ACAD_COLOR
350
31
  3
ACAD_GROUP
350
2D
  3
ACAD_LAYOUT
350
D
  3
ACAD_MATERIAL
350
30
  3
ACAD_MLINESTYLE
350
2E
  3
ACAD_PLOTSETTINGS
350
2F
  3
ACAD_PLOTSTYLENAME
350
8
  3
ACDBHEADERROUNDTRIPXREC
350
32E
  3
AcDbVariableDictionary
350
329
  0
DICTIONARY
  5
15
330
14
100
AcDbDictionary
280
     1
281
     1
  3
ACAD_LAYERFILTERS
360
16
  3
ACAD_LAYERSTATES
360
17
  0
DICTIONARY
  5
3
330
2
100
AcDbDictionary
280
     1
281
     1
  3
ACAD_LAYOUTSELFREF
360
4
  0
DICTIONARY
  5
F
330
E
100
AcDbDictionary
280
     1
281
     1
  3
ACAD_LAYOUTSELFREF
360
10
  0
DICTIONARY
  5
31
102
{ACAD_REACTORS
330
9
102
}
330
9
100
AcDbDictionary
281
     1
  0
DICTIONARY
  5
2D
102
{ACAD_REACTORS
330
9
102
}
330
9
100
AcDbDictionary
281
     1
  0
DICTIONARY
  5
D
102
{ACAD_REACTORS
330
9
102
}
330
9
100
AcDbDictionary
281
     1
  3
Model
350
C
  3
ﾚｲｱｳﾄ1
350
13
  0
DICTIONARY
  5
30
102
{ACAD_REACTORS
330
9
102
}
330
9
100
AcDbDictionary
281
     1
  0
DICTIONARY
  5
2E
102
{ACAD_REACTORS
330
9
102
}
330
9
100
AcDbDictionary
281
     1
  3
STANDARD
350
33
  0
DICTIONARY
  5
2F
102
{ACAD_REACTORS
330
9
102
}
330
9
100
AcDbDictionary
281
     1
  0
ACDBDICTIONARYWDFLT
  5
8
102
{ACAD_REACTORS
330
9
102
}
330
9
100
AcDbDictionary
281
     1
  3
Normal
350
7
100
AcDbDictionaryWithDefault
340
7
  0
DICTIONARY
  5
32E
102
{ACAD_REACTORS
330
9
102
}
330
9
100
AcDbDictionary
281
     1
  3
COLORDICT
350
330
  3
MATERIALDICT
350
32F
  0
DICTIONARY
  5
329
102
{ACAD_REACTORS
330
9
102
}
330
9
100
AcDbDictionary
281
     1
  3
DIMASSOC
350
32B
  3
HIDETEXT
350
32A
  3
PROJECTNAME
350
32C
  0
DICTIONARY
  5
16
102
{ACAD_REACTORS
330
15
102
}
330
15
100
AcDbDictionary
280
     1
281
     1
  0
DICTIONARY
  5
17
102
{ACAD_REACTORS
330
15
102
}
330
15
100
AcDbDictionary
281
     1
  0
XRECORD
  5
4
102
{ACAD_REACTORS
330
3
102
}
330
3
100
AcDbXrecord
280
     1
340
2
  0
XRECORD
  5
10
102
{ACAD_REACTORS
330
F
102
}
330
F
100
AcDbXrecord
280
     1
340
E
  0
LAYOUT
  5
C
102
{ACAD_XDICTIONARY
360
331
102
}
102
{ACAD_REACTORS
330
D
102
}
330
D
100
AcDbPlotSettings
  1

  2
FX78BC34-A4縦.pc3
  4
A4
  6

 40
4.900083065032958
 41
4.900057315826416
 42
4.90008544921875
 43
4.90008544921875
 44
210.0156707763672
 45
297.0106506347656
 46
5.73
 47
0.0
 48
0.0
 49
0.0
140
0.0
141
0.0
142
1.0
143
1.372907815045798
 70
 11956
 72
     1
 73
     0
 74
     1
  7
tmsacad.ctb
 75
     0
147
0.7283810238684099
148
0.5839898734307099
149
0.009273483718971
100
AcDbLayout
  1
Model
 70
     1
 71
     0
 10
0.0
 20
0.0
 11
12.0
 21
9.0
 12
0.0
 22
0.0
 32
0.0
 14
0.0
 24
0.0
 34
0.0
 15
0.0
 25
0.0
 35
0.0
146
0.0
 13
0.0
 23
0.0
 33
0.0
 16
1.0
 26
0.0
 36
0.0
 17
0.0
 27
1.0
 37
0.0
 76
     0
330
2
  0
LAYOUT
  5
13
102
{ACAD_XDICTIONARY
360
333
102
}
102
{ACAD_REACTORS
330
D
102
}
330
D
100
AcDbPlotSettings
  1

  2
C:\Program Files\ACAD2000\plotters\DWF ePlot.pc3
  4

  6

 40
0.0
 41
0.0
 42
0.0
 43
0.0
 44
0.0
 45
0.0
 46
0.0
 47
0.0
 48
0.0
 49
0.0
140
0.0
141
0.0
142
1.0
143
1.0
 70
   688
 72
     0
 73
     0
 74
     5
  7
tmsacad.ctb
 75
    16
147
1.0
148
0.0
149
0.0
100
AcDbLayout
  1
ﾚｲｱｳﾄ1
 70
     1
 71
     1
 10
0.0
 20
0.0
 11
12.0
 21
9.0
 12
0.0
 22
0.0
 32
0.0
 14
1.000000000000000E+20
 24
1.000000000000000E+20
 34
1.000000000000000E+20
 15
-1.000000000000000E+20
 25
-1.000000000000000E+20
 35
-1.000000000000000E+20
146
0.0
 13
0.0
 23
0.0
 33
0.0
 16
1.0
 26
0.0
 36
0.0
 17
0.0
 27
1.0
 37
0.0
 76
     0
330
E
  0
MLINESTYLE
  5
33
102
{ACAD_REACTORS
330
2E
102
}
330
2E
100
AcDbMlineStyle
  2
STANDARD
 70
     0
  3

 62
   256
 51
90.0
 52
90.0
 71
     2
 49
0.5
 62
   256
  6
BYLAYER
 49
-0.5
 62
   256
  6
BYLAYER
  0
ACDBPLACEHOLDER
  5
7
102
{ACAD_REACTORS
330
8
102
}
330
8
  0
XRECORD
  5
330
102
{ACAD_REACTORS
330
32E
102
}
330
32E
100
AcDbXrecord
280
     1
340
31
  0
XRECORD
  5
32F
102
{ACAD_REACTORS
330
32E
102
}
330
32E
100
AcDbXrecord
280
     1
340
30
  0
DICTIONARYVAR
  5
32B
102
{ACAD_REACTORS
330
329
102
}
330
329
100
DictionaryVariables
280
     0
  1
1
  0
DICTIONARYVAR
  5
32A
102
{ACAD_REACTORS
330
329
102
}
330
329
100
DictionaryVariables
280
     0
  1
1
  0
DICTIONARYVAR
  5
32C
102
{ACAD_REACTORS
330
329
102
}
330
329
100
DictionaryVariables
280
     0
  1

  0
DICTIONARY
  5
331
330
C
100
AcDbDictionary
280
     1
281
     1
  3
ACAD_XREC_ROUNDTRIP
360
332
  0
DICTIONARY
  5
333
330
13
100
AcDbDictionary
280
     1
281
     1
  3
ACAD_XREC_ROUNDTRIP
360
334
  0
XRECORD
  5
332
102
{ACAD_REACTORS
330
331
102
}
330
331
100
AcDbXrecord
280
     1
102
SHADEPLOT
 70
     0
102
SHADEPLOTRESLEVEL
 70
     2
102
SHADEPLOTCUSTOMDPI
 70
   300
  0
XRECORD
  5
334
102
{ACAD_REACTORS
330
333
102
}
330
333
100
AcDbXrecord
280
     1
102
SHADEPLOT
 70
     0
102
SHADEPLOTRESLEVEL
 70
     2
102
SHADEPLOTCUSTOMDPI
 70
   300
  0
ENDSEC
  0
EOF
