  0
SECTION
  2
HEADER
  9
$ACADVER
  1
AC1015
  9
$ACADMAINTVER
 70
    20
  9
$DWGCODEPAGE
  3
ANSI_932
  9
$INSBASE
 10
129.499999944041
 20
246.5008351249345
 30
0.0
  9
$EXTMIN
 10
-68.52172761750603
 20
-108.9776453093831
 30
-0.0015258207003583
  9
$EXTMAX
 10
56.51184137504538
 20
124.0506138934877
 30
0.0000000349246037
  9
$LIMMIN
 10
0.0
 20
0.0
  9
$LIMMAX
 10
420.0
 20
297.0
  9
$ORTHOMODE
 70
     1
  9
$REGENMODE
 70
     0
  9
$FILLMODE
 70
     1
  9
$QTEXTMODE
 70
     0
  9
$MIRRTEXT
 70
     0
  9
$LTSCALE
 40
1.0
  9
$ATTMODE
 70
     1
  9
$TEXTSIZE
 40
2.5
  9
$TRACEWID
 40
1.0
  9
$TEXTSTYLE
  7
Standard
  9
$CLAYER
  8
WAKU
  9
$CELTYPE
  6
ByLayer
  9
$CECOLOR
 62
   256
  9
$CELTSCALE
 40
1.0
  9
$DISPSILH
 70
     0
  9
$DIMSCALE
 40
1.0
  9
$DIMASZ
 40
2.5
  9
$DIMEXO
 40
0.625
  9
$DIMDLI
 40
3.75
  9
$DIMRND
 40
0.0
  9
$DIMDLE
 40
0.0
  9
$DIMEXE
 40
1.25
  9
$DIMTP
 40
0.0
  9
$DIMTM
 40
0.0
  9
$DIMTXT
 40
2.5
  9
$DIMCEN
 40
2.5
  9
$DIMTSZ
 40
0.0
  9
$DIMTOL
 70
     0
  9
$DIMLIM
 70
     0
  9
$DIMTIH
 70
     0
  9
$DIMTOH
 70
     0
  9
$DIMSE1
 70
     0
  9
$DIMSE2
 70
     0
  9
$DIMTAD
 70
     1
  9
$DIMZIN
 70
     8
  9
$DIMBLK
  1

  9
$DIMASO
 70
     1
  9
$DIMSHO
 70
     1
  9
$DIMPOST
  1

  9
$DIMAPOST
  1

  9
$DIMALT
 70
     0
  9
$DIMALTD
 70
     3
  9
$DIMALTF
 40
0.03937007874016
  9
$DIMLFAC
 40
1.0
  9
$DIMTOFL
 70
     1
  9
$DIMTVP
 40
0.0
  9
$DIMTIX
 70
     0
  9
$DIMSOXD
 70
     0
  9
$DIMSAH
 70
     0
  9
$DIMBLK1
  1

  9
$DIMBLK2
  1

  9
$DIMSTYLE
  2
ISO-25
  9
$DIMCLRD
 70
     0
  9
$DIMCLRE
 70
     0
  9
$DIMCLRT
 70
     0
  9
$DIMTFAC
 40
1.0
  9
$DIMGAP
 40
0.625
  9
$DIMJUST
 70
     0
  9
$DIMSD1
 70
     0
  9
$DIMSD2
 70
     0
  9
$DIMTOLJ
 70
     0
  9
$DIMTZIN
 70
     8
  9
$DIMALTZ
 70
     0
  9
$DIMALTTZ
 70
     0
  9
$DIMUPT
 70
     0
  9
$DIMDEC
 70
     2
  9
$DIMTDEC
 70
     2
  9
$DIMALTU
 70
     2
  9
$DIMALTTD
 70
     3
  9
$DIMTXSTY
  7
Standard
  9
$DIMAUNIT
 70
     0
  9
$DIMADEC
 70
     0
  9
$DIMALTRND
 40
0.0
  9
$DIMAZIN
 70
     0
  9
$DIMDSEP
 70
    44
  9
$DIMATFIT
 70
     3
  9
$DIMFRAC
 70
     0
  9
$DIMLDRBLK
  1

  9
$DIMLUNIT
 70
     2
  9
$DIMLWD
 70
    -2
  9
$DIMLWE
 70
    -2
  9
$DIMTMOVE
 70
     0
  9
$LUNITS
 70
     2
  9
$LUPREC
 70
     4
  9
$SKETCHINC
 40
1.0
  9
$FILLETRAD
 40
0.0
  9
$AUNITS
 70
     0
  9
$AUPREC
 70
     0
  9
$MENU
  1
.
  9
$ELEVATION
 40
0.0
  9
$PELEVATION
 40
0.0
  9
$THICKNESS
 40
0.0
  9
$LIMCHECK
 70
     0
  9
$CHAMFERA
 40
0.0
  9
$CHAMFERB
 40
0.0
  9
$CHAMFERC
 40
0.0
  9
$CHAMFERD
 40
0.0
  9
$SKPOLY
 70
     0
  9
$TDCREATE
 40
2454349.434269746
  9
$TDUCREATE
 40
2454349.059269746
  9
$TDUPDATE
 40
2454867.735086678
  9
$TDUUPDATE
 40
2454867.360086678
  9
$TDINDWG
 40
0.0195592361
  9
$TDUSRTIMER
 40
0.0195592361
  9
$USRTIMER
 70
     1
  9
$ANGBASE
 50
0.0
  9
$ANGDIR
 70
     0
  9
$PDMODE
 70
     0
  9
$PDSIZE
 40
0.0
  9
$PLINEWID
 40
0.0
  9
$SPLFRAME
 70
     0
  9
$SPLINETYPE
 70
     6
  9
$SPLINESEGS
 70
     8
  9
$HANDSEED
  5
306
  9
$SURFTAB1
 70
     6
  9
$SURFTAB2
 70
     6
  9
$SURFTYPE
 70
     6
  9
$SURFU
 70
     6
  9
$SURFV
 70
     6
  9
$UCSBASE
  2

  9
$UCSNAME
  2

  9
$UCSORG
 10
0.0
 20
0.0
 30
0.0
  9
$UCSXDIR
 10
1.0
 20
0.0
 30
0.0
  9
$UCSYDIR
 10
0.0
 20
1.0
 30
0.0
  9
$UCSORTHOREF
  2

  9
$UCSORTHOVIEW
 70
     0
  9
$UCSORGTOP
 10
0.0
 20
0.0
 30
0.0
  9
$UCSORGBOTTOM
 10
0.0
 20
0.0
 30
0.0
  9
$UCSORGLEFT
 10
0.0
 20
0.0
 30
0.0
  9
$UCSORGRIGHT
 10
0.0
 20
0.0
 30
0.0
  9
$UCSORGFRONT
 10
0.0
 20
0.0
 30
0.0
  9
$UCSORGBACK
 10
0.0
 20
0.0
 30
0.0
  9
$PUCSBASE
  2

  9
$PUCSNAME
  2

  9
$PUCSORG
 10
0.0
 20
0.0
 30
0.0
  9
$PUCSXDIR
 10
1.0
 20
0.0
 30
0.0
  9
$PUCSYDIR
 10
0.0
 20
1.0
 30
0.0
  9
$PUCSORTHOREF
  2

  9
$PUCSORTHOVIEW
 70
     0
  9
$PUCSORGTOP
 10
0.0
 20
0.0
 30
0.0
  9
$PUCSORGBOTTOM
 10
0.0
 20
0.0
 30
0.0
  9
$PUCSORGLEFT
 10
0.0
 20
0.0
 30
0.0
  9
$PUCSORGRIGHT
 10
0.0
 20
0.0
 30
0.0
  9
$PUCSORGFRONT
 10
0.0
 20
0.0
 30
0.0
  9
$PUCSORGBACK
 10
0.0
 20
0.0
 30
0.0
  9
$USERI1
 70
     0
  9
$USERI2
 70
     0
  9
$USERI3
 70
     0
  9
$USERI4
 70
     0
  9
$USERI5
 70
     0
  9
$USERR1
 40
0.0
  9
$USERR2
 40
0.0
  9
$USERR3
 40
0.0
  9
$USERR4
 40
0.0
  9
$USERR5
 40
0.0
  9
$WORLDVIEW
 70
     1
  9
$SHADEDGE
 70
     3
  9
$SHADEDIF
 70
    70
  9
$TILEMODE
 70
     1
  9
$MAXACTVP
 70
    64
  9
$PINSBASE
 10
0.0
 20
0.0
 30
0.0
  9
$PLIMCHECK
 70
     0
  9
$PEXTMIN
 10
0.0
 20
0.0
 30
0.0
  9
$PEXTMAX
 10
0.0
 20
0.0
 30
0.0
  9
$PLIMMIN
 10
0.0
 20
0.0
  9
$PLIMMAX
 10
12.0
 20
9.0
  9
$UNITMODE
 70
     0
  9
$VISRETAIN
 70
     1
  9
$PLINEGEN
 70
     0
  9
$PSLTSCALE
 70
     1
  9
$TREEDEPTH
 70
  3020
  9
$CMLSTYLE
  2
Standard
  9
$CMLJUST
 70
     0
  9
$CMLSCALE
 40
20.0
  9
$PROXYGRAPHICS
 70
     1
  9
$MEASUREMENT
 70
     1
  9
$CELWEIGHT
370
    -1
  9
$ENDCAPS
280
     0
  9
$JOINSTYLE
280
     0
  9
$LWDISPLAY
290
     0
  9
$INSUNITS
 70
     4
  9
$HYPERLINKBASE
  1

  9
$STYLESHEET
  1

  9
$XEDIT
290
     1
  9
$CEPSNTYPE
380
     0
  9
$PSTYLEMODE
290
     1
  9
$FINGERPRINTGUID
  2
{FDEAD578-A652-11D2-9A35-0060089B3A3F}
  9
$VERSIONGUID
  2
{84494E9B-24BC-4F1D-8399-1AF14887A9AD}
  9
$EXTNAMES
290
     1
  9
$PSVPSCALE
 40
0.0
  9
$OLESTARTUP
290
     0
  0
ENDSEC
  0
SECTION
  2
CLASSES
  0
CLASS
  1
ACDBDICTIONARYWDFLT
  2
AcDbDictionaryWithDefault
  3
ObjectDBX Classes
 90
        0
280
     0
281
     0
  0
CLASS
  1
ACDBPLACEHOLDER
  2
AcDbPlaceHolder
  3
ObjectDBX Classes
 90
        0
280
     0
281
     0
  0
CLASS
  1
LAYOUT
  2
AcDbLayout
  3
ObjectDBX Classes
 90
        0
280
     0
281
     0
  0
CLASS
  1
DICTIONARYVAR
  2
AcDbDictionaryVar
  3
ObjectDBX Classes
 90
        0
280
     0
281
     0
  0
ENDSEC
  0
SECTION
  2
TABLES
  0
TABLE
  2
VPORT
  5
1B
330
0
100
AcDbSymbolTable
 70
     3
  0
VPORT
  5
2FE
330
1B
100
AcDbSymbolTableRecord
100
AcDbViewportTableRecord
  2
*Active
 70
     0
 10
0.0
 20
0.0
 11
1.0
 21
1.0
 12
-6.00494312123034
 22
7.536484292052307
 13
0.0
 23
0.0
 14
10.0
 24
10.0
 15
10.0
 25
10.0
 16
0.0
 26
0.0
 36
1.0
 17
0.0
 27
0.0
 37
0.0
 40
234.8487924778932
 41
1.365058670143415
 42
50.0
 43
0.0
 44
0.0
 50
0.0
 51
0.0
 71
     0
 72
  1000
 73
     1
 74
     2
 75
     0
 76
     0
 77
     0
 78
     0
281
     0
 65
     1
110
0.0
120
0.0
130
0.0
111
1.0
121
0.0
131
0.0
112
0.0
122
1.0
132
0.0
 79
     0
146
0.0
  0
ENDTAB
  0
TABLE
  2
LTYPE
  5
16
330
0
100
AcDbSymbolTable
 70
     3
  0
LTYPE
  5
17
330
16
100
AcDbSymbolTableRecord
100
AcDbLinetypeTableRecord
  2
ByBlock
 70
     0
  3

 72
    65
 73
     0
 40
0.0
  0
LTYPE
  5
18
330
16
100
AcDbSymbolTableRecord
100
AcDbLinetypeTableRecord
  2
ByLayer
 70
     0
  3

 72
    65
 73
     0
 40
0.0
  0
LTYPE
  5
8
330
16
100
AcDbSymbolTableRecord
100
AcDbLinetypeTableRecord
  2
Continuous
 70
     0
  3
Solid line
 72
    65
 73
     0
 40
0.0
  0
LTYPE
  5
2F
330
16
100
AcDbSymbolTableRecord
100
AcDbLinetypeTableRecord
  2
S10
 70
     0
  3
- - - - - - - - - 1,-1,1,-1
 72
    65
 73
     4
 40
4.0
 49
1.0
 74
     0
 49
-1.0
 74
     0
 49
1.0
 74
     0
 49
-1.0
 74
     0
  0
LTYPE
  5
6D
330
16
100
AcDbSymbolTableRecord
100
AcDbLinetypeTableRecord
  2
HIDDEN2
 70
     0
  3
Hidden (.5x) _ _ _ _ _ _ _ _ _ _ _ _ _ _ _ _ _
 72
    65
 73
     2
 40
1.399999999999999
 49
0.7
 74
     0
 49
-0.7
 74
     0
  0
ENDTAB
  0
TABLE
  2
LAYER
  5
10
102
{ACAD_XDICTIONARY
360
11
102
}
330
0
100
AcDbSymbolTable
 70
     7
  0
LAYER
  5
4
330
10
100
AcDbSymbolTableRecord
100
AcDbLayerTableRecord
  2
0
 70
     0
 62
     7
  6
Continuous
370
    -3
390
5
  0
LAYER
  5
26
330
10
100
AcDbSymbolTableRecord
100
AcDbLayerTableRecord
  2
WAKU
 70
     0
 62
     4
  6
Continuous
370
    -3
390
5
  0
LAYER
  5
2A
330
10
100
AcDbSymbolTableRecord
100
AcDbLayerTableRecord
  2
MOJI1
 70
     0
 62
     2
  6
Continuous
370
    -3
390
5
  0
LAYER
  5
2C
330
10
100
AcDbSymbolTableRecord
100
AcDbLayerTableRecord
  2
TOUROKU
 70
     0
 62
     1
  6
Continuous
370
    -3
390
5
  0
LAYER
  5
2E
330
10
100
AcDbSymbolTableRecord
100
AcDbLayerTableRecord
  2
GAIKEI
 70
     0
 62
     7
  6
Continuous
370
    -3
390
5
  0
LAYER
  5
16A
330
10
100
AcDbSymbolTableRecord
100
AcDbLayerTableRecord
  2
Defpoints
 70
     0
 62
     7
  6
Continuous
290
     0
370
    -3
390
5
  0
LAYER
  5
DB
330
10
100
AcDbSymbolTableRecord
100
AcDbLayerTableRecord
  2
SUNPO
 70
     0
 62
     3
  6
Continuous
370
    -3
390
5
  0
ENDTAB
  0
TABLE
  2
STYLE
  5
13
330
0
100
AcDbSymbolTable
 70
     1
  0
STYLE
  5
14
330
13
100
AcDbSymbolTableRecord
100
AcDbTextStyleTableRecord
  2
Standard
 70
     0
 40
0.0
 41
1.0
 50
0.0
 71
     0
 42
2.5
  3
MONOTXT.shx
  4
BIGFONT.shx
  0
ENDTAB
  0
TABLE
  2
VIEW
  5
19
330
0
100
AcDbSymbolTable
 70
     0
  0
ENDTAB
  0
TABLE
  2
UCS
  5
1A
330
0
100
AcDbSymbolTable
 70
     0
  0
ENDTAB
  0
TABLE
  2
APPID
  5
1D
330
0
100
AcDbSymbolTable
 70
     2
  0
APPID
  5
1E
330
1D
100
AcDbSymbolTableRecord
100
AcDbRegAppTableRecord
  2
ACAD
 70
     0
  0
APPID
  5
2BC
330
1D
100
AcDbSymbolTableRecord
100
AcDbRegAppTableRecord
  2
DCO15
 70
     0
  0
ENDTAB
  0
TABLE
  2
DIMSTYLE
  5
1F
330
0
100
AcDbSymbolTable
 70
     2
100
AcDbDimStyleTable
 71
     0
  0
DIMSTYLE
105
28
330
1F
100
AcDbSymbolTableRecord
100
AcDbDimStyleTableRecord
  2
ISO-25
 70
     0
 41
2.5
 42
0.625
 43
3.75
 44
1.25
 73
     0
 74
     0
 77
     1
 78
     8
140
2.5
141
2.5
143
0.03937007874016
147
0.625
171
     3
172
     1
271
     2
272
     2
274
     3
278
    44
283
     0
284
     8
340
14
  0
DIMSTYLE
105
160
102
{ACAD_REACTORS
330
16E
330
15F
330
281
330
225
102
}
330
1F
100
AcDbSymbolTableRecord
100
AcDbDimStyleTableRecord
  2
STANDARD
 70
     0
 40
0.0
 41
2.0
 42
2.0
 43
8.0
 44
2.0
 73
     0
 74
     0
 77
     3
140
3.0
141
0.0
173
     1
279
     2
288
     1
340
14
341
DD
343
DD
344
DD
  0
ENDTAB
  0
TABLE
  2
BLOCK_RECORD
  5
1
330
0
100
AcDbSymbolTable
 70
     9
  0
BLOCK_RECORD
  5
2
330
1
100
AcDbSymbolTableRecord
100
AcDbBlockTableRecord
  2
*Model_Space
340
A
  0
BLOCK_RECORD
  5
C
330
1
100
AcDbSymbolTableRecord
100
AcDbBlockTableRecord
  2
*Paper_Space
340
F
  0
BLOCK_RECORD
  5
DD
330
1
100
AcDbSymbolTableRecord
100
AcDbBlockTableRecord
  2
_OPEN30
340
0
102
{BLKREFS
331
E3
331
DC
331
174
331
175
331
166
331
167
331
287
331
288
331
22B
331
22C
331
2CE
331
2CF
331
2DA
331
2DB
331
2E6
331
2E7
331
2F2
331
2F3
102
}
  0
BLOCK_RECORD
  5
16F
330
1
100
AcDbSymbolTableRecord
100
AcDbBlockTableRecord
  2
*D1
340
0
  0
BLOCK_RECORD
  5
161
330
1
100
AcDbSymbolTableRecord
100
AcDbBlockTableRecord
  2
*D2
340
0
  0
BLOCK_RECORD
  5
282
330
1
100
AcDbSymbolTableRecord
100
AcDbBlockTableRecord
  2
*D3
340
0
  0
BLOCK_RECORD
  5
226
330
1
100
AcDbSymbolTableRecord
100
AcDbBlockTableRecord
  2
*D4
340
0
  0
BLOCK_RECORD
  5
2CA
330
1
100
AcDbSymbolTableRecord
100
AcDbBlockTableRecord
  2
*D5
340
0
  0
BLOCK_RECORD
  5
2D6
330
1
100
AcDbSymbolTableRecord
100
AcDbBlockTableRecord
  2
*D6
340
0
  0
BLOCK_RECORD
  5
2E2
330
1
100
AcDbSymbolTableRecord
100
AcDbBlockTableRecord
  2
*D7
340
0
  0
BLOCK_RECORD
  5
2EE
330
1
100
AcDbSymbolTableRecord
100
AcDbBlockTableRecord
  2
*D8
340
0
  0
ENDTAB
  0
ENDSEC
  0
SECTION
  2
BLOCKS
  0
BLOCK
  5
3
330
2
100
AcDbEntity
  8
0
100
AcDbBlockBegin
  2
*Model_Space
 70
     0
 10
0.0
 20
0.0
 30
0.0
  3
*Model_Space
  1

  0
ENDBLK
  5
9
330
2
100
AcDbEntity
  8
0
100
AcDbBlockEnd
  0
BLOCK
  5
D
330
C
100
AcDbEntity
 67
     1
  8
0
100
AcDbBlockBegin
  2
*Paper_Space
 70
     0
 10
0.0
 20
0.0
 30
0.0
  3
*Paper_Space
  1

  0
ENDBLK
  5
E
330
C
100
AcDbEntity
 67
     1
  8
0
100
AcDbBlockEnd
  0
BLOCK
  5
DE
330
DD
100
AcDbEntity
  8
0
100
AcDbBlockBegin
  2
_OPEN30
 70
     0
 10
0.0
 20
0.0
 30
0.0
  3
_OPEN30
  1

  0
LINE
  5
DF
330
DD
100
AcDbEntity
  8
0
  6
ByBlock
 62
     0
100
AcDbLine
 10
-1.0
 20
0.26794919
 30
0.0
 11
0.0
 21
0.0
 31
0.0
  0
LINE
  5
E0
330
DD
100
AcDbEntity
  8
0
  6
ByBlock
 62
     0
100
AcDbLine
 10
0.0
 20
0.0
 30
0.0
 11
-1.0
 21
-0.26794919
 31
0.0
  0
LINE
  5
E1
330
DD
100
AcDbEntity
  8
0
  6
ByBlock
 62
     0
100
AcDbLine
 10
0.0
 20
0.0
 30
0.0
 11
-1.0
 21
0.0
 31
0.0
  0
ENDBLK
  5
E2
330
DD
100
AcDbEntity
  8
0
100
AcDbBlockEnd
  0
BLOCK
  5
170
330
16F
100
AcDbEntity
  8
0
100
AcDbBlockBegin
  2
*D1
 70
     1
 10
0.0
 20
0.0
 30
0.0
  3
*D1
  1

  0
LINE
  5
171
330
16F
100
AcDbEntity
  8
SUNPO
 62
     0
370
    -2
100
AcDbLine
 10
189.0498025382139
 20
168.5943434442851
 30
0.0
 11
197.0498025382139
 21
168.5943434442851
 31
0.0
  0
LINE
  5
172
330
16F
100
AcDbEntity
  8
SUNPO
 62
     0
370
    -2
100
AcDbLine
 10
189.0498025382139
 20
144.781780637471
 30
0.0
 11
197.0498025382139
 21
144.7817806374709
 31
0.0
  0
LINE
  5
173
330
16F
100
AcDbEntity
  8
SUNPO
 62
     0
370
    -2
100
AcDbLine
 10
195.0498025382139
 20
166.5943434442851
 30
0.0
 11
195.0498025382139
 21
146.781780637471
 31
0.0
  0
INSERT
  5
174
330
16F
100
AcDbEntity
  8
SUNPO
 62
     0
370
    -2
100
AcDbBlockReference
  2
_OPEN30
 10
195.0498025382139
 20
168.5943434442851
 30
0.0
 41
2.0
 42
2.0
 43
2.0
 50
90.0
  0
INSERT
  5
175
330
16F
100
AcDbEntity
  8
SUNPO
 62
     0
370
    -2
100
AcDbBlockReference
  2
_OPEN30
 10
195.0498025382139
 20
144.7817806374709
 30
0.0
 41
2.0
 42
2.0
 43
2.0
 50
270.0
  0
MTEXT
  5
176
330
16F
100
AcDbEntity
  8
SUNPO
 62
     0
100
AcDbMText
 10
191.2164692048805
 20
156.6880620408781
 30
0.0
 40
2.5
 41
0.0
 71
     5
 72
     1
  1
\A1;\P238.5
 11
0.0000000000000001
 21
1.0
 31
0.0
 73
     1
 44
1.0
1001
ACAD
1000
MTEXTBEGIN
1070
    73
1070
     1
1070
    44
1040
1.0
1070
    74
1070
     0
1000
MTEXTEND
  0
POINT
  5
177
330
16F
100
AcDbEntity
  8
Defpoints
 62
     0
100
AcDbPoint
 10
187.0498025382139
 20
168.5943434442851
 30
0.0
  0
POINT
  5
178
330
16F
100
AcDbEntity
  8
Defpoints
 62
     0
100
AcDbPoint
 10
187.0498025382139
 20
144.781780637471
 30
0.0
  0
POINT
  5
179
330
16F
100
AcDbEntity
  8
Defpoints
 62
     0
100
AcDbPoint
 10
195.0498025382139
 20
144.7817806374709
 30
0.0
  0
ENDBLK
  5
17A
330
16F
100
AcDbEntity
  8
0
100
AcDbBlockEnd
  0
BLOCK
  5
162
330
161
100
AcDbEntity
  8
0
100
AcDbBlockBegin
  2
*D2
 70
     1
 10
0.0
 20
0.0
 30
0.0
  3
*D2
  1

  0
LINE
  5
163
330
161
100
AcDbEntity
  8
SUNPO
 62
     0
370
    -2
100
AcDbLine
 10
163.0917818111743
 20
135.0691373675892
 30
0.0
 11
163.0917818111743
 21
127.0691373675892
 31
0.0
  0
LINE
  5
164
330
161
100
AcDbEntity
  8
SUNPO
 62
     0
370
    -2
100
AcDbLine
 10
186.9918104824784
 20
135.0691373675892
 30
0.0
 11
186.9918104824784
 21
127.0691373675892
 31
0.0
  0
LINE
  5
165
330
161
100
AcDbEntity
  8
SUNPO
 62
     0
370
    -2
100
AcDbLine
 10
165.0917818111743
 20
129.0691373675892
 30
0.0
 11
184.9918104824784
 21
129.0691373675892
 31
0.0
  0
INSERT
  5
166
330
161
100
AcDbEntity
  8
SUNPO
 62
     0
370
    -2
100
AcDbBlockReference
  2
_OPEN30
 10
163.0917818111743
 20
129.0691373675892
 30
0.0
 41
2.0
 42
2.0
 43
2.0
 50
180.0
  0
INSERT
  5
167
330
161
100
AcDbEntity
  8
SUNPO
 62
     0
370
    -2
100
AcDbBlockReference
  2
_OPEN30
 10
186.9918104824784
 20
129.0691373675892
 30
0.0
 41
2.0
 42
2.0
 43
2.0
  0
MTEXT
  5
168
330
161
100
AcDbEntity
  8
SUNPO
 62
     0
100
AcDbMText
 10
175.0417961468263
 20
130.8191373675892
 30
0.0
 40
2.5
 41
0.0
 71
     5
 72
     1
  1
\A1;φ239
 73
     1
 44
1.0
1001
ACAD
1000
MTEXTBEGIN
1070
    73
1070
     1
1070
    44
1040
1.0
1070
    74
1070
     0
1000
MTEXTEND
  0
POINT
  5
169
330
161
100
AcDbEntity
  8
Defpoints
 62
     0
100
AcDbPoint
 10
163.0917818111743
 20
137.0691373675892
 30
0.0
  0
POINT
  5
16B
330
161
100
AcDbEntity
  8
Defpoints
 62
     0
100
AcDbPoint
 10
186.9918104824784
 20
137.0691373675892
 30
0.0
  0
POINT
  5
16C
330
161
100
AcDbEntity
  8
Defpoints
 62
     0
100
AcDbPoint
 10
186.9918104824784
 20
129.0691373675892
 30
0.0
  0
ENDBLK
  5
16D
330
161
100
AcDbEntity
  8
0
100
AcDbBlockEnd
  0
BLOCK
  5
283
330
282
100
AcDbEntity
  8
0
100
AcDbBlockBegin
  2
*D3
 70
     1
 10
0.0
 20
0.0
 30
0.0
  3
*D3
  1

  0
LINE
  5
284
330
282
100
AcDbEntity
  8
SUNPO
 62
     0
370
    -2
100
AcDbLine
 10
189.0498025382139
 20
177.0947826197835
 30
0.0
 11
197.0498025382139
 21
177.0947826197835
 31
0.0
  0
LINE
  5
285
330
282
100
AcDbEntity
  8
SUNPO
 62
     0
370
    -2
100
AcDbLine
 10
189.049802538214
 20
168.5943434442851
 30
0.0
 11
197.0498025382139
 21
168.5943434442851
 31
0.0
  0
LINE
  5
286
330
282
100
AcDbEntity
  8
SUNPO
 62
     0
370
    -2
100
AcDbLine
 10
195.0498025382139
 20
175.0947826197835
 30
0.0
 11
195.0498025382139
 21
170.5943434442851
 31
0.0
  0
INSERT
  5
287
330
282
100
AcDbEntity
  8
SUNPO
 62
     0
370
    -2
100
AcDbBlockReference
  2
_OPEN30
 10
195.0498025382139
 20
177.0947826197835
 30
0.0
 41
2.0
 42
2.0
 43
2.0
 50
90.0
  0
INSERT
  5
288
330
282
100
AcDbEntity
  8
SUNPO
 62
     0
370
    -2
100
AcDbBlockReference
  2
_OPEN30
 10
195.0498025382139
 20
168.5943434442851
 30
0.0
 41
2.0
 42
2.0
 43
2.0
 50
270.0
  0
MTEXT
  5
289
330
282
100
AcDbEntity
  8
SUNPO
 62
     0
100
AcDbMText
 10
193.2998025382139
 20
172.8445630320343
 30
0.0
 40
2.5
 41
0.0
 71
     5
 72
     1
  1
\A1;85
 11
0.0000000000000001
 21
1.0
 31
0.0
 73
     1
 44
1.0
1001
ACAD
1000
MTEXTBEGIN
1070
    73
1070
     1
1070
    44
1040
1.0
1070
    74
1070
     0
1000
MTEXTEND
  0
POINT
  5
28A
330
282
100
AcDbEntity
  8
Defpoints
 62
     0
100
AcDbPoint
 10
187.0498025382139
 20
177.0947826197835
 30
0.0
  0
POINT
  5
28B
330
282
100
AcDbEntity
  8
Defpoints
 62
     0
100
AcDbPoint
 10
187.049802538214
 20
168.5943434442851
 30
0.0
  0
POINT
  5
28C
330
282
100
AcDbEntity
  8
Defpoints
 62
     0
100
AcDbPoint
 10
195.0498025382139
 20
168.5943434442851
 30
0.0
  0
ENDBLK
  5
28D
330
282
100
AcDbEntity
  8
0
100
AcDbBlockEnd
  0
BLOCK
  5
227
330
226
100
AcDbEntity
  8
0
100
AcDbBlockBegin
  2
*D4
 70
     1
 10
0.0
 20
0.0
 30
0.0
  3
*D4
  1

  0
LINE
  5
228
330
226
100
AcDbEntity
  8
SUNPO
 62
     0
370
    -2
100
AcDbLine
 10
229.1669286056808
 20
134.7832196598461
 30
0.0
 11
229.1669286056808
 21
126.7832196598462
 31
0.0
  0
LINE
  5
229
330
226
100
AcDbEntity
  8
SUNPO
 62
     0
370
    -2
100
AcDbLine
 10
213.1428329953479
 20
134.7832196598461
 30
0.0
 11
213.1428329953479
 21
126.7832196598462
 31
0.0
  0
LINE
  5
22A
330
226
100
AcDbEntity
  8
SUNPO
 62
     0
370
    -2
100
AcDbLine
 10
227.1669286056808
 20
128.7832196598461
 30
0.0
 11
215.1428329953479
 21
128.7832196598461
 31
0.0
  0
INSERT
  5
22B
330
226
100
AcDbEntity
  8
SUNPO
 62
     0
370
    -2
100
AcDbBlockReference
  2
_OPEN30
 10
229.1669286056808
 20
128.7832196598461
 30
0.0
 41
2.0
 42
2.0
 43
2.0
  0
INSERT
  5
22C
330
226
100
AcDbEntity
  8
SUNPO
 62
     0
370
    -2
100
AcDbBlockReference
  2
_OPEN30
 10
213.1428329953479
 20
128.7832196598461
 30
0.0
 41
2.0
 42
2.0
 43
2.0
 50
180.0
  0
MTEXT
  5
22D
330
226
100
AcDbEntity
  8
SUNPO
 62
     0
100
AcDbMText
 10
221.1548808005143
 20
130.5332196598461
 30
0.0
 40
2.5
 41
0.0
 71
     5
 72
     1
  1
\A1;160
 73
     1
 44
1.0
1001
ACAD
1000
MTEXTBEGIN
1070
    73
1070
     1
1070
    44
1040
1.0
1070
    74
1070
     0
1000
MTEXTEND
  0
POINT
  5
22E
330
226
100
AcDbEntity
  8
Defpoints
 62
     0
100
AcDbPoint
 10
229.1669286056808
 20
136.7832196598461
 30
0.0
  0
POINT
  5
22F
330
226
100
AcDbEntity
  8
Defpoints
 62
     0
100
AcDbPoint
 10
213.1428329953479
 20
136.7832196598461
 30
0.0
  0
POINT
  5
230
330
226
100
AcDbEntity
  8
Defpoints
 62
     0
100
AcDbPoint
 10
213.1428329953479
 20
128.7832196598461
 30
0.0
  0
ENDBLK
  5
231
330
226
100
AcDbEntity
  8
0
100
AcDbBlockEnd
  0
BLOCK
  5
2D4
330
2CA
100
AcDbEntity
  8
0
100
AcDbBlockBegin
  2
*D5
 70
     1
 10
0.0
 20
0.0
 30
0.0
  3
*D5
  1

  0
LINE
  5
2CB
330
2CA
100
AcDbEntity
  8
SUNPO
 62
     0
370
    -2
100
AcDbLine
 10
-10.95835510714573
 20
56.63870422132942
 30
0.0
 11
-2.958355107145733
 21
56.63870422132942
 31
0.0
  0
LINE
  5
2CC
330
2CA
100
AcDbEntity
  8
SUNPO
 62
     0
370
    -2
100
AcDbLine
 10
-10.9583551071457
 20
48.13826504583102
 30
0.0
 11
-2.958355107145735
 21
48.13826504583102
 31
0.0
  0
LINE
  5
2CD
330
2CA
100
AcDbEntity
  8
SUNPO
 62
     0
370
    -2
100
AcDbLine
 10
-4.958355107145733
 20
54.63870422132941
 30
0.0
 11
-4.958355107145734
 21
50.13826504583102
 31
0.0
  0
INSERT
  5
2CE
330
2CA
100
AcDbEntity
  8
SUNPO
 62
     0
370
    -2
100
AcDbBlockReference
  2
_OPEN30
 10
-4.958355107145733
 20
56.63870422132942
 30
0.0
 41
2.0
 42
2.0
 43
2.0
 50
90.0
  0
INSERT
  5
2CF
330
2CA
100
AcDbEntity
  8
SUNPO
 62
     0
370
    -2
100
AcDbBlockReference
  2
_OPEN30
 10
-4.958355107145735
 20
48.13826504583102
 30
0.0
 41
2.0
 42
2.0
 43
2.0
 50
270.0
  0
MTEXT
  5
2D0
330
2CA
100
AcDbEntity
  8
SUNPO
 62
     0
100
AcDbMText
 10
-6.708355107145742
 20
52.38848463358022
 30
0.0
 40
2.5
 41
0.0
 71
     5
 72
     1
  1
\A1;85
 11
0.0000000000000001
 21
1.0
 31
0.0
 73
     1
 44
1.0
1001
ACAD
1000
MTEXTBEGIN
1070
    73
1070
     1
1070
    44
1040
1.0
1070
    74
1070
     0
1000
MTEXTEND
  0
POINT
  5
2D1
330
2CA
100
AcDbEntity
  8
Defpoints
 62
     0
100
AcDbPoint
 10
-12.95835510714573
 20
56.63870422132942
 30
0.0
  0
POINT
  5
2D2
330
2CA
100
AcDbEntity
  8
Defpoints
 62
     0
100
AcDbPoint
 10
-12.9583551071457
 20
48.13826504583102
 30
0.0
  0
POINT
  5
2D3
330
2CA
100
AcDbEntity
  8
Defpoints
 62
     0
100
AcDbPoint
 10
-4.958355107145735
 20
48.13826504583102
 30
0.0
  0
ENDBLK
  5
2D5
330
2CA
100
AcDbEntity
  8
0
100
AcDbBlockEnd
  0
BLOCK
  5
2E0
330
2D6
100
AcDbEntity
  8
0
100
AcDbBlockBegin
  2
*D6
 70
     1
 10
0.0
 20
0.0
 30
0.0
  3
*D6
  1

  0
LINE
  5
2D7
330
2D6
100
AcDbEntity
  8
SUNPO
 62
     0
370
    -2
100
AcDbLine
 10
29.15877096032108
 20
14.32714126139206
 30
0.0
 11
29.15877096032108
 21
6.327141261392057
 31
0.0
  0
LINE
  5
2D8
330
2D6
100
AcDbEntity
  8
SUNPO
 62
     0
370
    -2
100
AcDbLine
 10
13.13467534998818
 20
14.32714126139206
 30
0.0
 11
13.13467534998818
 21
6.327141261392057
 31
0.0
  0
LINE
  5
2D9
330
2D6
100
AcDbEntity
  8
SUNPO
 62
     0
370
    -2
100
AcDbLine
 10
27.15877096032108
 20
8.327141261392057
 30
0.0
 11
15.13467534998818
 21
8.327141261392057
 31
0.0
  0
INSERT
  5
2DA
330
2D6
100
AcDbEntity
  8
SUNPO
 62
     0
370
    -2
100
AcDbBlockReference
  2
_OPEN30
 10
29.15877096032108
 20
8.327141261392057
 30
0.0
 41
2.0
 42
2.0
 43
2.0
  0
INSERT
  5
2DB
330
2D6
100
AcDbEntity
  8
SUNPO
 62
     0
370
    -2
100
AcDbBlockReference
  2
_OPEN30
 10
13.13467534998818
 20
8.327141261392057
 30
0.0
 41
2.0
 42
2.0
 43
2.0
 50
180.0
  0
MTEXT
  5
2DC
330
2D6
100
AcDbEntity
  8
SUNPO
 62
     0
100
AcDbMText
 10
21.14672315515463
 20
10.07714126139205
 30
0.0
 40
2.5
 41
0.0
 71
     5
 72
     1
  1
\A1;160
 73
     1
 44
1.0
1001
ACAD
1000
MTEXTBEGIN
1070
    73
1070
     1
1070
    44
1040
1.0
1070
    74
1070
     0
1000
MTEXTEND
  0
POINT
  5
2DD
330
2D6
100
AcDbEntity
  8
Defpoints
 62
     0
100
AcDbPoint
 10
29.15877096032108
 20
16.32714126139205
 30
0.0
  0
POINT
  5
2DE
330
2D6
100
AcDbEntity
  8
Defpoints
 62
     0
100
AcDbPoint
 10
13.13467534998818
 20
16.32714126139205
 30
0.0
  0
POINT
  5
2DF
330
2D6
100
AcDbEntity
  8
Defpoints
 62
     0
100
AcDbPoint
 10
13.13467534998818
 20
8.327141261392057
 30
0.0
  0
ENDBLK
  5
2E1
330
2D6
100
AcDbEntity
  8
0
100
AcDbBlockEnd
  0
BLOCK
  5
2EC
330
2E2
100
AcDbEntity
  8
0
100
AcDbBlockBegin
  2
*D7
 70
     1
 10
0.0
 20
0.0
 30
0.0
  3
*D7
  1

  0
LINE
  5
2E3
330
2E2
100
AcDbEntity
  8
SUNPO
 62
     0
370
    -2
100
AcDbLine
 10
-10.95835510714579
 20
48.13826504583102
 30
0.0
 11
-2.958355107145786
 21
48.13826504583102
 31
0.0
  0
LINE
  5
2E4
330
2E2
100
AcDbEntity
  8
SUNPO
 62
     0
370
    -2
100
AcDbLine
 10
-10.95835510714579
 20
24.32570223901689
 30
0.0
 11
-2.958355107145791
 21
24.32570223901689
 31
0.0
  0
LINE
  5
2E5
330
2E2
100
AcDbEntity
  8
SUNPO
 62
     0
370
    -2
100
AcDbLine
 10
-4.958355107145786
 20
46.13826504583101
 30
0.0
 11
-4.95835510714579
 21
26.32570223901689
 31
0.0
  0
INSERT
  5
2E6
330
2E2
100
AcDbEntity
  8
SUNPO
 62
     0
370
    -2
100
AcDbBlockReference
  2
_OPEN30
 10
-4.958355107145786
 20
48.13826504583102
 30
0.0
 41
2.0
 42
2.0
 43
2.0
 50
90.0
  0
INSERT
  5
2E7
330
2E2
100
AcDbEntity
  8
SUNPO
 62
     0
370
    -2
100
AcDbBlockReference
  2
_OPEN30
 10
-4.958355107145791
 20
24.32570223901689
 30
0.0
 41
2.0
 42
2.0
 43
2.0
 50
270.0
  0
MTEXT
  5
2E8
330
2E2
100
AcDbEntity
  8
SUNPO
 62
     0
100
AcDbMText
 10
-8.791688440479129
 20
36.23198364242396
 30
0.0
 40
2.5
 41
0.0
 71
     5
 72
     1
  1
\A1;\P238.5
 11
0.0000000000000001
 21
1.0
 31
0.0
 73
     1
 44
1.0
1001
ACAD
1000
MTEXTBEGIN
1070
    73
1070
     1
1070
    44
1040
1.0
1070
    74
1070
     0
1000
MTEXTEND
  0
POINT
  5
2E9
330
2E2
100
AcDbEntity
  8
Defpoints
 62
     0
100
AcDbPoint
 10
-12.95835510714579
 20
48.13826504583102
 30
0.0
  0
POINT
  5
2EA
330
2E2
100
AcDbEntity
  8
Defpoints
 62
     0
100
AcDbPoint
 10
-12.95835510714579
 20
24.32570223901689
 30
0.0
  0
POINT
  5
2EB
330
2E2
100
AcDbEntity
  8
Defpoints
 62
     0
100
AcDbPoint
 10
-4.958355107145791
 20
24.32570223901689
 30
0.0
  0
ENDBLK
  5
2ED
330
2E2
100
AcDbEntity
  8
0
100
AcDbBlockEnd
  0
BLOCK
  5
2F8
330
2EE
100
AcDbEntity
  8
0
100
AcDbBlockBegin
  2
*D8
 70
     1
 10
0.0
 20
0.0
 30
0.0
  3
*D8
  1

  0
LINE
  5
2EF
330
2EE
100
AcDbEntity
  8
SUNPO
 62
     0
370
    -2
100
AcDbLine
 10
-36.91637583418537
 20
14.61305896913512
 30
0.0
 11
-36.91637583418537
 21
6.613058969135124
 31
0.0
  0
LINE
  5
2F0
330
2EE
100
AcDbEntity
  8
SUNPO
 62
     0
370
    -2
100
AcDbLine
 10
-13.01634716288129
 20
14.61305896913512
 30
0.0
 11
-13.01634716288129
 21
6.613058969135124
 31
0.0
  0
LINE
  5
2F1
330
2EE
100
AcDbEntity
  8
SUNPO
 62
     0
370
    -2
100
AcDbLine
 10
-34.91637583418537
 20
8.613058969135124
 30
0.0
 11
-15.01634716288129
 21
8.613058969135124
 31
0.0
  0
INSERT
  5
2F2
330
2EE
100
AcDbEntity
  8
SUNPO
 62
     0
370
    -2
100
AcDbBlockReference
  2
_OPEN30
 10
-36.91637583418537
 20
8.613058969135124
 30
0.0
 41
2.0
 42
2.0
 43
2.0
 50
180.0
  0
INSERT
  5
2F3
330
2EE
100
AcDbEntity
  8
SUNPO
 62
     0
370
    -2
100
AcDbBlockReference
  2
_OPEN30
 10
-13.01634716288129
 20
8.613058969135124
 30
0.0
 41
2.0
 42
2.0
 43
2.0
  0
MTEXT
  5
2F4
330
2EE
100
AcDbEntity
  8
SUNPO
 62
     0
100
AcDbMText
 10
-24.96636149853333
 20
10.36305896913512
 30
0.0
 40
2.5
 41
0.0
 71
     5
 72
     1
  1
\A1;φ239
 73
     1
 44
1.0
1001
ACAD
1000
MTEXTBEGIN
1070
    73
1070
     1
1070
    44
1040
1.0
1070
    74
1070
     0
1000
MTEXTEND
  0
POINT
  5
2F5
330
2EE
100
AcDbEntity
  8
Defpoints
 62
     0
100
AcDbPoint
 10
-36.91637583418537
 20
16.61305896913512
 30
0.0
  0
POINT
  5
2F6
330
2EE
100
AcDbEntity
  8
Defpoints
 62
     0
100
AcDbPoint
 10
-13.01634716288129
 20
16.61305896913512
 30
0.0
  0
POINT
  5
2F7
330
2EE
100
AcDbEntity
  8
Defpoints
 62
     0
100
AcDbPoint
 10
-13.01634716288129
 20
8.613058969135124
 30
0.0
  0
ENDBLK
  5
2F9
330
2EE
100
AcDbEntity
  8
0
100
AcDbBlockEnd
  0
ENDSEC
  0
SECTION
  2
ENTITIES
  0
TEXT
  5
29
330
2
100
AcDbEntity
  8
MOJI1
100
AcDbText
 10
-41.50815770131885
 20
120.0447567264768
 30
0.0
 40
4.0
  1
屋外ハウジング一体型カメラ（パイプ取付金具付）
 41
0.9
100
AcDbText
  0
TEXT
  5
2B
330
2
100
AcDbEntity
  8
TOUROKU
100
AcDbText
 10
23.69179233160882
 20
114.0447567264805
 30
0.0
 40
2.0
  1
ＤＧＮＷ９６０＋ＷＶＱ１２３
 72
     2
 11
56.49179233160879
 21
114.0447567264805
 31
0.0
100
AcDbText
  0
LINE
  5
2D
330
2
100
AcDbEntity
  8
GAIKEI
  6
S10
 62
     1
100
AcDbLine
 10
31.15118707301895
 20
79.57823178062773
 30
0.0
 11
31.15118707301895
 21
78.87823178062769
 31
0.0
  0
POLYLINE
  5
30
330
2
100
AcDbEntity
  8
GAIKEI
  6
S10
 62
     1
100
AcDb2dPolyline
 66
     1
 10
0.0
 20
0.0
 30
0.0
 70
   128
  0
VERTEX
  5
31
330
30
100
AcDbEntity
  8
GAIKEI
  6
S10
 62
     1
100
AcDbVertex
100
AcDb2dVertex
 10
24.08101163442257
 20
78.53175583159765
 30
0.0
1001
ACAD
1000
R13OBJECT
1002
{
1005
0
1002
}
  0
VERTEX
  5
32
330
30
100
AcDbEntity
  8
GAIKEI
  6
S10
 62
     1
100
AcDbVertex
100
AcDb2dVertex
 10
24.21281658205817
 20
78.61660227158887
 30
0.0
1001
ACAD
1000
R13OBJECT
1002
{
1005
0
1002
}
  0
VERTEX
  5
33
330
30
100
AcDbEntity
  8
GAIKEI
  6
S10
 62
     1
100
AcDbVertex
100
AcDb2dVertex
 10
24.29766302204939
 20
78.74840721922447
 30
0.0
1001
ACAD
1000
R13OBJECT
1002
{
1005
0
1002
}
  0
SEQEND
  5
34
330
30
100
AcDbEntity
  8
GAIKEI
  6
S10
 62
     1
  0
POLYLINE
  5
35
330
2
100
AcDbEntity
  8
GAIKEI
  6
S10
 62
     1
100
AcDb2dPolyline
 66
     1
 10
0.0
 20
0.0
 30
0.0
 70
   128
  0
VERTEX
  5
36
330
35
100
AcDbEntity
  8
GAIKEI
  6
S10
 62
     1
100
AcDbVertex
100
AcDb2dVertex
 10
18.0047111239885
 20
78.74840721922424
 30
0.0
1001
ACAD
1000
R13OBJECT
1002
{
1005
0
1002
}
  0
VERTEX
  5
37
330
35
100
AcDbEntity
  8
GAIKEI
  6
S10
 62
     1
100
AcDbVertex
100
AcDb2dVertex
 10
18.08955756397972
 20
78.61660227158864
 30
0.0
1001
ACAD
1000
R13OBJECT
1002
{
1005
0
1002
}
  0
VERTEX
  5
38
330
35
100
AcDbEntity
  8
GAIKEI
  6
S10
 62
     1
100
AcDbVertex
100
AcDb2dVertex
 10
18.22136251161532
 20
78.53175583159742
 30
0.0
1001
ACAD
1000
R13OBJECT
1002
{
1005
0
1002
}
  0
SEQEND
  5
39
330
35
100
AcDbEntity
  8
GAIKEI
  6
S10
 62
     1
  0
POLYLINE
  5
3A
330
2
100
AcDbEntity
  8
GAIKEI
  6
S10
 62
     1
100
AcDb2dPolyline
 66
     1
 10
0.0
 20
0.0
 30
0.0
 70
   128
  0
VERTEX
  5
3B
330
3A
100
AcDbEntity
  8
GAIKEI
  6
S10
 62
     1
100
AcDbVertex
100
AcDb2dVertex
 10
24.08101163442257
 20
78.53175583159765
 30
0.0
1001
ACAD
1000
R13OBJECT
1002
{
1005
0
1002
}
  0
VERTEX
  5
3C
330
3A
100
AcDbEntity
  8
GAIKEI
  6
S10
 62
     1
100
AcDbVertex
100
AcDb2dVertex
 10
23.98681693017147
 20
78.45841211644648
 30
0.0
1001
ACAD
1000
R13OBJECT
1002
{
1005
0
1002
}
  0
VERTEX
  5
3D
330
3A
100
AcDbEntity
  8
GAIKEI
  6
S10
 62
     1
100
AcDbVertex
100
AcDb2dVertex
 10
23.95118707301913
 20
78.34447153482443
 30
0.0
1001
ACAD
1000
R13OBJECT
1002
{
1005
0
1002
}
  0
SEQEND
  5
3E
330
3A
100
AcDbEntity
  8
GAIKEI
  6
S10
 62
     1
  0
POLYLINE
  5
3F
330
2
100
AcDbEntity
  8
GAIKEI
  6
S10
 62
     1
100
AcDb2dPolyline
 66
     1
 10
0.0
 20
0.0
 30
0.0
 70
   128
  0
VERTEX
  5
40
330
3F
100
AcDbEntity
  8
GAIKEI
  6
S10
 62
     1
100
AcDbVertex
100
AcDb2dVertex
 10
24.48494731882215
 20
78.87823178062769
 30
0.0
1001
ACAD
1000
R13OBJECT
1002
{
1005
0
1002
}
  0
VERTEX
  5
41
330
3F
100
AcDbEntity
  8
GAIKEI
  6
S10
 62
     1
100
AcDbVertex
100
AcDb2dVertex
 10
24.37100673720034
 20
78.84260192347511
 30
0.0
1001
ACAD
1000
R13OBJECT
1002
{
1005
0
1002
}
  0
VERTEX
  5
42
330
3F
100
AcDbEntity
  8
GAIKEI
  6
S10
 62
     1
100
AcDbVertex
100
AcDb2dVertex
 10
24.29766302204916
 20
78.74840721922447
 30
0.0
1001
ACAD
1000
R13OBJECT
1002
{
1005
0
1002
}
  0
SEQEND
  5
43
330
3F
100
AcDbEntity
  8
GAIKEI
  6
S10
 62
     1
  0
POLYLINE
  5
44
330
2
100
AcDbEntity
  8
GAIKEI
  6
S10
 62
     1
100
AcDb2dPolyline
 66
     1
 10
0.0
 20
0.0
 30
0.0
 70
   128
  0
VERTEX
  5
45
330
44
100
AcDbEntity
  8
GAIKEI
  6
S10
 62
     1
100
AcDbVertex
100
AcDb2dVertex
 10
18.00471112398873
 20
78.74840721922447
 30
0.0
1001
ACAD
1000
R13OBJECT
1002
{
1005
0
1002
}
  0
VERTEX
  5
46
330
44
100
AcDbEntity
  8
GAIKEI
  6
S10
 62
     1
100
AcDbVertex
100
AcDb2dVertex
 10
17.93136740883756
 20
78.84260192347511
 30
0.0
1001
ACAD
1000
R13OBJECT
1002
{
1005
0
1002
}
  0
VERTEX
  5
47
330
44
100
AcDbEntity
  8
GAIKEI
  6
S10
 62
     1
100
AcDbVertex
100
AcDb2dVertex
 10
17.81742682721574
 20
78.87823178062769
 30
0.0
1001
ACAD
1000
R13OBJECT
1002
{
1005
0
1002
}
  0
SEQEND
  5
48
330
44
100
AcDbEntity
  8
GAIKEI
  6
S10
 62
     1
  0
POLYLINE
  5
49
330
2
100
AcDbEntity
  8
GAIKEI
  6
S10
 62
     1
100
AcDb2dPolyline
 66
     1
 10
0.0
 20
0.0
 30
0.0
 70
   128
  0
VERTEX
  5
4A
330
49
100
AcDbEntity
  8
GAIKEI
  6
S10
 62
     1
100
AcDbVertex
100
AcDb2dVertex
 10
18.35118707301876
 20
78.34447153482443
 30
0.0
1001
ACAD
1000
R13OBJECT
1002
{
1005
0
1002
}
  0
VERTEX
  5
4B
330
49
100
AcDbEntity
  8
GAIKEI
  6
S10
 62
     1
100
AcDbVertex
100
AcDb2dVertex
 10
18.31555721586619
 20
78.45841211644625
 30
0.0
1001
ACAD
1000
R13OBJECT
1002
{
1005
0
1002
}
  0
VERTEX
  5
4C
330
49
100
AcDbEntity
  8
GAIKEI
  6
S10
 62
     1
100
AcDbVertex
100
AcDb2dVertex
 10
18.22136251161532
 20
78.53175583159765
 30
0.0
1001
ACAD
1000
R13OBJECT
1002
{
1005
0
1002
}
  0
SEQEND
  5
4D
330
49
100
AcDbEntity
  8
GAIKEI
  6
S10
 62
     1
  0
LINE
  5
4E
330
2
100
AcDbEntity
  8
GAIKEI
  6
S10
 62
     1
100
AcDbLine
 10
18.35118707301876
 20
78.34447153482443
 30
0.0
 11
23.9511870730189
 21
78.34447153482443
 31
0.0
  0
LINE
  5
4F
330
2
100
AcDbEntity
  8
GAIKEI
  6
S10
 62
     1
100
AcDbLine
 10
17.98118707301887
 20
78.87823178062769
 30
0.0
 11
17.81742682721551
 21
78.87823178062769
 31
0.0
  0
LINE
  5
50
330
2
100
AcDbEntity
  8
GAIKEI
  6
S10
 62
     1
100
AcDbLine
 10
24.48494731882215
 20
78.87823178062769
 30
0.0
 11
24.32118707301879
 21
78.87823178062769
 31
0.0
  0
LINE
  5
51
330
2
100
AcDbEntity
  8
GAIKEI
  6
S10
 62
     1
100
AcDbLine
 10
31.15118707301895
 20
78.87823178062769
 30
0.0
 11
17.98118707301887
 21
78.87823178062769
 31
0.0
  0
POLYLINE
  5
52
330
2
100
AcDbEntity
  8
GAIKEI
  6
S10
 62
     1
100
AcDb2dPolyline
 66
     1
 10
0.0
 20
0.0
 30
0.0
 70
   128
  0
VERTEX
  5
53
330
52
100
AcDbEntity
  8
GAIKEI
  6
S10
 62
     1
100
AcDbVertex
100
AcDb2dVertex
 10
23.95118707301913
 20
77.74823178062803
 30
0.0
1001
ACAD
1000
R13OBJECT
1002
{
1005
0
1002
}
  0
VERTEX
  5
54
330
52
100
AcDbEntity
  8
GAIKEI
  6
S10
 62
     1
100
AcDbVertex
100
AcDb2dVertex
 10
24.00075767361864
 20
77.56323178062809
 30
0.0
1001
ACAD
1000
R13OBJECT
1002
{
1005
0
1002
}
  0
VERTEX
  5
55
330
52
100
AcDbEntity
  8
GAIKEI
  6
S10
 62
     1
100
AcDbVertex
100
AcDb2dVertex
 10
24.13618707301907
 20
77.42780238122765
 30
0.0
1001
ACAD
1000
R13OBJECT
1002
{
1005
0
1002
}
  0
VERTEX
  5
56
330
52
100
AcDbEntity
  8
GAIKEI
  6
S10
 62
     1
100
AcDbVertex
100
AcDb2dVertex
 10
24.32118707301902
 20
77.37823178062814
 30
0.0
1001
ACAD
1000
R13OBJECT
1002
{
1005
0
1002
}
  0
SEQEND
  5
57
330
52
100
AcDbEntity
  8
GAIKEI
  6
S10
 62
     1
  0
LINE
  5
58
330
2
100
AcDbEntity
  8
GAIKEI
  6
S10
 62
     1
100
AcDbLine
 10
23.5811870730829
 20
73.04447153489269
 30
0.0
 11
18.72118707295499
 21
73.04447153489269
 31
0.0
  0
LINE
  5
59
330
2
100
AcDbEntity
  8
GAIKEI
  6
S10
 62
     1
100
AcDbLine
 10
18.35118707301876
 20
73.57823178062773
 30
0.0
 11
23.9511870730189
 21
73.57823178062773
 31
0.0
  0
LINE
  5
5A
330
2
100
AcDbEntity
  8
GAIKEI
  6
S10
 62
     1
100
AcDbLine
 10
24.32118707301879
 20
77.37823178062768
 30
0.0
 11
24.32118707301879
 21
74.33401821825447
 31
0.0
  0
LINE
  5
5B
330
2
100
AcDbEntity
  8
GAIKEI
  6
S10
 62
     1
100
AcDbLine
 10
24.32118707301879
 20
77.37823178062768
 30
0.0
 11
24.9511870730189
 21
77.37823178062768
 31
0.0
  0
LINE
  5
5C
330
2
100
AcDbEntity
  8
GAIKEI
  6
S10
 62
     1
100
AcDbLine
 10
25.54718280341968
 20
75.56001394865552
 30
0.0
 11
24.05955756397975
 21
74.07238870921566
 31
0.0
  0
LINE
  5
5D
330
2
100
AcDbEntity
  8
GAIKEI
  6
S10
 62
     1
100
AcDbLine
 10
18.35118707301876
 20
78.34447153482443
 30
0.0
 11
18.35118707301876
 21
73.57823178062773
 31
0.0
  0
LINE
  5
5E
330
2
100
AcDbEntity
  8
GAIKEI
  6
S10
 62
     1
100
AcDbLine
 10
23.9511870730189
 20
73.57823178062773
 30
0.0
 11
23.9511870730189
 21
78.34447153482443
 31
0.0
  0
LINE
  5
5F
330
2
100
AcDbEntity
  8
GAIKEI
  6
S10
 62
     1
100
AcDbLine
 10
23.58118707308336
 20
65.70823178035317
 30
0.0
 11
18.72118707295499
 21
65.70823178035317
 31
0.0
  0
LINE
  5
60
330
2
100
AcDbEntity
  8
GAIKEI
  6
S10
 62
     1
100
AcDbLine
 10
21.15118707301895
 20
65.46823178043888
 30
0.0
 11
23.40118707301895
 21
65.46823178043888
 31
0.0
  0
LINE
  5
61
330
2
100
AcDbEntity
  8
GAIKEI
  6
S10
 62
     1
100
AcDbLine
 10
18.90118707301917
 20
65.46823178043888
 30
0.0
 11
21.15118707301895
 21
65.46823178043888
 31
0.0
  0
LINE
  5
62
330
2
100
AcDbEntity
  8
GAIKEI
  6
S10
 62
     1
100
AcDbLine
 10
18.90118707301917
 20
65.46823178043888
 30
0.0
 11
18.72118707295499
 21
65.70823178052461
 31
0.0
  0
LINE
  5
63
330
2
100
AcDbEntity
  8
GAIKEI
  6
S10
 62
     1
100
AcDbLine
 10
23.58118707308336
 20
65.70823178052461
 30
0.0
 11
23.40118707301895
 21
65.46823178043888
 31
0.0
  0
LINE
  5
64
330
2
100
AcDbEntity
  8
GAIKEI
  6
Continuous
 62
     1
100
AcDbLine
 10
28.69827250203957
 20
53.54370767222286
 30
0.0
 11
32.81683473605563
 21
48.49704271925799
 31
0.0
  0
LINE
  5
65
330
2
100
AcDbEntity
  8
GAIKEI
  6
Continuous
 62
     1
100
AcDbLine
 10
28.79657074735405
 20
53.61253684458512
 30
0.0
 11
32.91513298136897
 21
48.5658718916223
 31
0.0
  0
LINE
  5
66
330
2
100
AcDbEntity
  8
GAIKEI
  6
Continuous
100
AcDbLine
 10
18.35118707301876
 20
56.63870422132896
 30
0.0
 11
23.95118707287702
 21
56.63870422132896
 31
0.0
  0
LINE
  5
67
330
2
100
AcDbEntity
  8
GAIKEI
  6
Continuous
100
AcDbLine
 10
24.0511870728767
 20
56.53870422132929
 30
0.0
 11
18.2511870730184
 21
56.53870422132929
 31
0.0
  0
LINE
  5
68
330
2
100
AcDbEntity
  8
GAIKEI
  6
Continuous
100
AcDbLine
 10
18.25118707301885
 20
56.53870422132929
 30
0.0
 11
18.25118707301885
 21
48.23870422170267
 31
0.0
  0
LINE
  5
69
330
2
100
AcDbEntity
  8
GAIKEI
  6
Continuous
100
AcDbLine
 10
18.25118707301885
 20
56.53870422132905
 30
0.0
 11
18.35118707301876
 21
56.63870422132896
 31
0.0
  0
LINE
  5
6A
330
2
100
AcDbEntity
  8
GAIKEI
  6
Continuous
100
AcDbLine
 10
24.05118707301881
 20
48.23870422170267
 30
0.0
 11
24.05118707301881
 21
56.53870422132929
 31
0.0
  0
LINE
  5
6B
330
2
100
AcDbEntity
  8
GAIKEI
  6
Continuous
100
AcDbLine
 10
23.95118707287702
 20
56.63870422132896
 30
0.0
 11
24.0511870728767
 21
56.53870422132929
 31
0.0
  0
LINE
  5
6C
330
2
100
AcDbEntity
  8
GAIKEI
  6
HIDDEN2
 62
     1
100
AcDbLine
 10
21.15118707301895
 20
52.50961249405719
 30
0.0
 11
23.40118707314741
 21
52.50961249405719
 31
0.0
  0
LINE
  5
6E
330
2
100
AcDbEntity
  8
GAIKEI
  6
HIDDEN2
 62
     1
100
AcDbLine
 10
23.55118707301881
 20
52.70961249405724
 30
0.0
 11
18.75118707301931
 21
52.70961249405724
 31
0.0
  0
LINE
  5
6F
330
2
100
AcDbEntity
  8
GAIKEI
  6
HIDDEN2
 62
     1
100
AcDbLine
 10
18.75118707301931
 20
56.63870422132942
 30
0.0
 11
18.75118707301931
 21
52.70961249405724
 31
0.0
  0
LINE
  5
70
330
2
100
AcDbEntity
  8
GAIKEI
  6
HIDDEN2
 62
     1
100
AcDbLine
 10
18.9011870730194
 20
56.63870422132942
 30
0.0
 11
18.90118707301917
 21
52.50961249405719
 31
0.0
  0
LINE
  5
71
330
2
100
AcDbEntity
  8
GAIKEI
  6
HIDDEN2
 62
     1
100
AcDbLine
 10
18.75118707301931
 20
52.70961249405724
 30
0.0
 11
18.90118707301917
 21
52.50961249405719
 31
0.0
  0
LINE
  5
72
330
2
100
AcDbEntity
  8
GAIKEI
  6
HIDDEN2
 62
     1
100
AcDbLine
 10
18.90118707289071
 20
52.50961249405719
 30
0.0
 11
21.15118707301895
 21
52.50961249405719
 31
0.0
  0
LINE
  5
73
330
2
100
AcDbEntity
  8
GAIKEI
  6
HIDDEN2
 62
     1
100
AcDbLine
 10
23.40118707301895
 20
52.50961249405719
 30
0.0
 11
23.40118707301917
 21
56.63870422132942
 31
0.0
  0
LINE
  5
74
330
2
100
AcDbEntity
  8
GAIKEI
  6
HIDDEN2
 62
     1
100
AcDbLine
 10
23.55118707301881
 20
52.70961249405724
 30
0.0
 11
23.55118707301881
 21
56.63870422132942
 31
0.0
  0
LINE
  5
75
330
2
100
AcDbEntity
  8
GAIKEI
  6
HIDDEN2
 62
     1
100
AcDbLine
 10
23.40118707301895
 20
52.50961249405719
 30
0.0
 11
23.55118707301881
 21
52.70961249405724
 31
0.0
  0
LINE
  5
76
330
2
100
AcDbEntity
  8
GAIKEI
  6
S10
 62
     1
100
AcDbLine
 10
18.90118707301917
 20
65.46823178043752
 30
0.0
 11
18.90118707301917
 21
56.63870422132965
 31
0.0
  0
LINE
  5
77
330
2
100
AcDbEntity
  8
GAIKEI
  6
S10
 62
     1
100
AcDbLine
 10
18.75118707301931
 20
65.66823178043733
 30
0.0
 11
18.75118707301931
 21
56.63870422132942
 31
0.0
  0
LINE
  5
78
330
2
100
AcDbEntity
  8
GAIKEI
  6
S10
 62
     1
100
AcDbLine
 10
23.55118707301881
 20
56.63870422132942
 30
0.0
 11
23.55118707301881
 21
65.66823178043733
 31
0.0
  0
LINE
  5
79
330
2
100
AcDbEntity
  8
GAIKEI
  6
S10
 62
     1
100
AcDbLine
 10
23.40118707301895
 20
56.63870422132965
 30
0.0
 11
23.40118707301895
 21
65.46823178043752
 31
0.0
  0
LINE
  5
7A
330
2
100
AcDbEntity
  8
GAIKEI
  6
Continuous
 62
     1
100
AcDbLine
 10
32.25660842054208
 20
42.30210864349493
 30
0.0
 11
29.66685964503583
 21
41.22153704880827
 31
0.0
  0
LINE
  5
7B
330
2
100
AcDbEntity
  8
GAIKEI
  6
Continuous
 62
     1
100
AcDbLine
 10
32.34146123428559
 20
42.2172558297571
 30
0.0
 11
29.79961598239993
 21
41.15667196028448
 31
0.0
  0
LINE
  5
7C
330
2
100
AcDbEntity
  8
GAIKEI
  6
S10
 62
     1
100
AcDbLine
 10
18.72118707295499
 20
73.04447153489269
 30
0.0
 11
18.72118707295499
 21
65.70823178035317
 31
0.0
  0
LINE
  5
7D
330
2
100
AcDbEntity
  8
GAIKEI
  6
S10
 62
     1
100
AcDbLine
 10
23.58118707308336
 20
65.70823178035317
 30
0.0
 11
23.58118707308336
 21
73.04447153489269
 31
0.0
  0
LINE
  5
7E
330
2
100
AcDbEntity
  8
GAIKEI
  6
Continuous
 62
     1
100
AcDbLine
 10
11.15118707301894
 20
78.87823178062769
 30
0.0
 11
11.15118707301894
 21
79.57823178062773
 31
0.0
  0
POLYLINE
  5
7F
330
2
100
AcDbEntity
  8
GAIKEI
  6
S10
 62
     1
100
AcDb2dPolyline
 66
     1
 10
0.0
 20
0.0
 30
0.0
 70
   128
  0
VERTEX
  5
80
330
7F
100
AcDbEntity
  8
GAIKEI
  6
S10
 62
     1
100
AcDbVertex
100
AcDb2dVertex
 10
-21.63327014989523
 20
78.87823178062632
 30
0.0
1001
ACAD
1000
R13OBJECT
1002
{
1005
0
1002
}
  0
VERTEX
  5
81
330
7F
100
AcDbEntity
  8
GAIKEI
  6
S10
 62
     1
100
AcDbVertex
100
AcDb2dVertex
 10
-21.74721073151705
 20
78.84260192347375
 30
0.0
1001
ACAD
1000
R13OBJECT
1002
{
1005
0
1002
}
  0
VERTEX
  5
82
330
7F
100
AcDbEntity
  8
GAIKEI
  6
S10
 62
     1
100
AcDbVertex
100
AcDb2dVertex
 10
-21.82055444666821
 20
78.74840721922311
 30
0.0
1001
ACAD
1000
R13OBJECT
1002
{
1005
0
1002
}
  0
SEQEND
  5
83
330
7F
100
AcDbEntity
  8
GAIKEI
  6
S10
 62
     1
  0
POLYLINE
  5
84
330
2
100
AcDbEntity
  8
GAIKEI
  6
S10
 62
     1
100
AcDb2dPolyline
 66
     1
 10
0.0
 20
0.0
 30
0.0
 70
   128
  0
VERTEX
  5
85
330
84
100
AcDbEntity
  8
GAIKEI
  6
S10
 62
     1
100
AcDbVertex
100
AcDb2dVertex
 10
-22.03720583429481
 20
78.53175583159629
 30
0.0
1001
ACAD
1000
R13OBJECT
1002
{
1005
0
1002
}
  0
VERTEX
  5
86
330
84
100
AcDbEntity
  8
GAIKEI
  6
S10
 62
     1
100
AcDbVertex
100
AcDb2dVertex
 10
-22.13140053854591
 20
78.45841211644511
 30
0.0
1001
ACAD
1000
R13OBJECT
1002
{
1005
0
1002
}
  0
VERTEX
  5
87
330
84
100
AcDbEntity
  8
GAIKEI
  6
S10
 62
     1
100
AcDbVertex
100
AcDb2dVertex
 10
-22.16703039569825
 20
78.34447153482307
 30
0.0
1001
ACAD
1000
R13OBJECT
1002
{
1005
0
1002
}
  0
SEQEND
  5
88
330
84
100
AcDbEntity
  8
GAIKEI
  6
S10
 62
     1
  0
POLYLINE
  5
89
330
2
100
AcDbEntity
  8
GAIKEI
  6
S10
 62
     1
100
AcDb2dPolyline
 66
     1
 10
0.0
 20
0.0
 30
0.0
 70
   128
  0
VERTEX
  5
8A
330
89
100
AcDbEntity
  8
GAIKEI
  6
S10
 62
     1
100
AcDbVertex
100
AcDb2dVertex
 10
-22.03720583429481
 20
78.53175583159629
 30
0.0
1001
ACAD
1000
R13OBJECT
1002
{
1005
0
1002
}
  0
VERTEX
  5
8B
330
89
100
AcDbEntity
  8
GAIKEI
  6
S10
 62
     1
100
AcDbVertex
100
AcDb2dVertex
 10
-21.90540088665921
 20
78.61660227158751
 30
0.0
1001
ACAD
1000
R13OBJECT
1002
{
1005
0
1002
}
  0
VERTEX
  5
8C
330
89
100
AcDbEntity
  8
GAIKEI
  6
S10
 62
     1
100
AcDbVertex
100
AcDb2dVertex
 10
-21.82055444666799
 20
78.74840721922311
 30
0.0
1001
ACAD
1000
R13OBJECT
1002
{
1005
0
1002
}
  0
SEQEND
  5
8D
330
89
100
AcDbEntity
  8
GAIKEI
  6
S10
 62
     1
  0
LINE
  5
8E
330
2
100
AcDbEntity
  8
GAIKEI
  6
S10
 62
     1
100
AcDbLine
 10
-21.63327014989523
 20
78.87823178062632
 30
0.0
 11
-21.79703039569858
 21
78.87823178062632
 31
0.0
  0
LINE
  5
8F
330
2
100
AcDbEntity
  8
GAIKEI
  6
S10
 62
     1
100
AcDbLine
 10
-14.96703039569843
 20
79.57823178062636
 30
0.0
 11
-14.96703039569843
 21
78.87823178062632
 31
0.0
  0
POLYLINE
  5
90
330
2
100
AcDbEntity
  8
GAIKEI
  6
S10
 62
     1
100
AcDb2dPolyline
 66
     1
 10
0.0
 20
0.0
 30
0.0
 70
   128
  0
VERTEX
  5
91
330
90
100
AcDbEntity
  8
GAIKEI
  6
S10
 62
     1
100
AcDbVertex
100
AcDb2dVertex
 10
-27.76703039569861
 20
78.34447153482307
 30
0.0
1001
ACAD
1000
R13OBJECT
1002
{
1005
0
1002
}
  0
VERTEX
  5
92
330
90
100
AcDbEntity
  8
GAIKEI
  6
S10
 62
     1
100
AcDbVertex
100
AcDb2dVertex
 10
-27.80266025285119
 20
78.45841211644489
 30
0.0
1001
ACAD
1000
R13OBJECT
1002
{
1005
0
1002
}
  0
VERTEX
  5
93
330
90
100
AcDbEntity
  8
GAIKEI
  6
S10
 62
     1
100
AcDbVertex
100
AcDb2dVertex
 10
-27.89685495710205
 20
78.53175583159629
 30
0.0
1001
ACAD
1000
R13OBJECT
1002
{
1005
0
1002
}
  0
SEQEND
  5
94
330
90
100
AcDbEntity
  8
GAIKEI
  6
S10
 62
     1
  0
POLYLINE
  5
95
330
2
100
AcDbEntity
  8
GAIKEI
  6
S10
 62
     1
100
AcDb2dPolyline
 66
     1
 10
0.0
 20
0.0
 30
0.0
 70
   128
  0
VERTEX
  5
96
330
95
100
AcDbEntity
  8
GAIKEI
  6
S10
 62
     1
100
AcDbVertex
100
AcDb2dVertex
 10
-28.11350634472865
 20
78.74840721922311
 30
0.0
1001
ACAD
1000
R13OBJECT
1002
{
1005
0
1002
}
  0
VERTEX
  5
97
330
95
100
AcDbEntity
  8
GAIKEI
  6
S10
 62
     1
100
AcDbVertex
100
AcDb2dVertex
 10
-28.18685005987982
 20
78.84260192347375
 30
0.0
1001
ACAD
1000
R13OBJECT
1002
{
1005
0
1002
}
  0
VERTEX
  5
98
330
95
100
AcDbEntity
  8
GAIKEI
  6
S10
 62
     1
100
AcDbVertex
100
AcDb2dVertex
 10
-28.30079064150164
 20
78.87823178062632
 30
0.0
1001
ACAD
1000
R13OBJECT
1002
{
1005
0
1002
}
  0
SEQEND
  5
99
330
95
100
AcDbEntity
  8
GAIKEI
  6
S10
 62
     1
  0
POLYLINE
  5
9A
330
2
100
AcDbEntity
  8
GAIKEI
  6
S10
 62
     1
100
AcDb2dPolyline
 66
     1
 10
0.0
 20
0.0
 30
0.0
 70
   128
  0
VERTEX
  5
9B
330
9A
100
AcDbEntity
  8
GAIKEI
  6
S10
 62
     1
100
AcDbVertex
100
AcDb2dVertex
 10
-28.11350634472887
 20
78.74840721922288
 30
0.0
1001
ACAD
1000
R13OBJECT
1002
{
1005
0
1002
}
  0
VERTEX
  5
9C
330
9A
100
AcDbEntity
  8
GAIKEI
  6
S10
 62
     1
100
AcDbVertex
100
AcDb2dVertex
 10
-28.02865990473765
 20
78.61660227158728
 30
0.0
1001
ACAD
1000
R13OBJECT
1002
{
1005
0
1002
}
  0
VERTEX
  5
9D
330
9A
100
AcDbEntity
  8
GAIKEI
  6
S10
 62
     1
100
AcDbVertex
100
AcDb2dVertex
 10
-27.89685495710205
 20
78.53175583159606
 30
0.0
1001
ACAD
1000
R13OBJECT
1002
{
1005
0
1002
}
  0
SEQEND
  5
9E
330
9A
100
AcDbEntity
  8
GAIKEI
  6
S10
 62
     1
  0
LINE
  5
9F
330
2
100
AcDbEntity
  8
GAIKEI
  6
S10
 62
     1
100
AcDbLine
 10
-28.1370303956985
 20
78.87823178062632
 30
0.0
 11
-28.30079064150186
 21
78.87823178062632
 31
0.0
  0
LINE
  5
A0
330
2
100
AcDbEntity
  8
GAIKEI
  6
S10
 62
     1
100
AcDbLine
 10
-14.96703039569843
 20
78.87823178062632
 30
0.0
 11
-28.1370303956985
 21
78.87823178062632
 31
0.0
  0
LINE
  5
A1
330
2
100
AcDbEntity
  8
GAIKEI
  6
S10
 62
     1
100
AcDbLine
 10
-27.76703039569861
 20
78.34447153482307
 30
0.0
 11
-22.16703039569848
 21
78.34447153482307
 31
0.0
  0
POLYLINE
  5
A2
330
2
100
AcDbEntity
  8
GAIKEI
  6
S10
 62
     1
100
AcDb2dPolyline
 66
     1
 10
0.0
 20
0.0
 30
0.0
 70
   128
  0
VERTEX
  5
A3
330
A2
100
AcDbEntity
  8
GAIKEI
  6
S10
 62
     1
100
AcDbVertex
100
AcDb2dVertex
 10
-27.39703039576239
 20
73.04447153489133
 30
0.0
1001
ACAD
1000
R13OBJECT
1002
{
1005
0
1002
}
  0
VERTEX
  5
A4
330
A2
100
AcDbEntity
  8
GAIKEI
  6
S10
 62
     1
100
AcDbVertex
100
AcDb2dVertex
 10
-27.43266025291246
 20
73.15841211650973
 30
0.0
1001
ACAD
1000
R13OBJECT
1002
{
1005
0
1002
}
  0
VERTEX
  5
A5
330
A2
100
AcDbEntity
  8
GAIKEI
  6
S10
 62
     1
100
AcDbVertex
100
AcDb2dVertex
 10
-27.52685495715787
 20
73.23175583166158
 30
0.0
1001
ACAD
1000
R13OBJECT
1002
{
1005
0
1002
}
  0
SEQEND
  5
A6
330
A2
100
AcDbEntity
  8
GAIKEI
  6
S10
 62
     1
  0
POLYLINE
  5
A7
330
2
100
AcDbEntity
  8
GAIKEI
  6
S10
 62
     1
100
AcDb2dPolyline
 66
     1
 10
0.0
 20
0.0
 30
0.0
 70
   128
  0
VERTEX
  5
A8
330
A7
100
AcDbEntity
  8
GAIKEI
  6
S10
 62
     1
100
AcDbVertex
100
AcDb2dVertex
 10
-22.40720583423854
 20
73.23175583166158
 30
0.0
1001
ACAD
1000
R13OBJECT
1002
{
1005
0
1002
}
  0
VERTEX
  5
A9
330
A7
100
AcDbEntity
  8
GAIKEI
  6
S10
 62
     1
100
AcDbVertex
100
AcDb2dVertex
 10
-22.50140053848395
 20
73.15841211650973
 30
0.0
1001
ACAD
1000
R13OBJECT
1002
{
1005
0
1002
}
  0
VERTEX
  5
AA
330
A7
100
AcDbEntity
  8
GAIKEI
  6
S10
 62
     1
100
AcDbVertex
100
AcDb2dVertex
 10
-22.53703039563402
 20
73.04447153489133
 30
0.0
1001
ACAD
1000
R13OBJECT
1002
{
1005
0
1002
}
  0
SEQEND
  5
AB
330
A7
100
AcDbEntity
  8
GAIKEI
  6
S10
 62
     1
  0
POLYLINE
  5
AC
330
2
100
AcDbEntity
  8
GAIKEI
  6
S10
 62
     1
100
AcDb2dPolyline
 66
     1
 10
0.0
 20
0.0
 30
0.0
 70
   128
  0
VERTEX
  5
AD
330
AC
100
AcDbEntity
  8
GAIKEI
  6
S10
 62
     1
100
AcDbVertex
100
AcDb2dVertex
 10
-27.76703039569861
 20
73.57823178062637
 30
0.0
1001
ACAD
1000
R13OBJECT
1002
{
1005
0
1002
}
  0
VERTEX
  5
AE
330
AC
100
AcDbEntity
  8
GAIKEI
  6
S10
 62
     1
100
AcDbVertex
100
AcDb2dVertex
 10
-27.70111515998178
 20
73.36744170466869
 30
0.0
1001
ACAD
1000
R13OBJECT
1002
{
1005
0
1002
}
  0
VERTEX
  5
AF
330
AC
100
AcDbEntity
  8
GAIKEI
  6
S10
 62
     1
100
AcDbVertex
100
AcDb2dVertex
 10
-27.52685495715809
 20
73.23175583166158
 30
0.0
1001
ACAD
1000
R13OBJECT
1002
{
1005
0
1002
}
  0
SEQEND
  5
B0
330
AC
100
AcDbEntity
  8
GAIKEI
  6
S10
 62
     1
  0
LINE
  5
B1
330
2
100
AcDbEntity
  8
GAIKEI
  6
S10
 62
     1
100
AcDbLine
 10
-22.53703039563447
 20
73.04447153489133
 30
0.0
 11
-27.39703039576239
 21
73.04447153489133
 31
0.0
  0
POLYLINE
  5
B2
330
2
100
AcDbEntity
  8
GAIKEI
  6
S10
 62
     1
100
AcDb2dPolyline
 66
     1
 10
0.0
 20
0.0
 30
0.0
 70
   128
  0
VERTEX
  5
B3
330
B2
100
AcDbEntity
  8
GAIKEI
  6
S10
 62
     1
100
AcDbVertex
100
AcDb2dVertex
 10
-22.40720583423877
 20
73.23175583166182
 30
0.0
1001
ACAD
1000
R13OBJECT
1002
{
1005
0
1002
}
  0
VERTEX
  5
B4
330
B2
100
AcDbEntity
  8
GAIKEI
  6
S10
 62
     1
100
AcDbVertex
100
AcDb2dVertex
 10
-22.23294563141508
 20
73.36744170466892
 30
0.0
1001
ACAD
1000
R13OBJECT
1002
{
1005
0
1002
}
  0
VERTEX
  5
B5
330
B2
100
AcDbEntity
  8
GAIKEI
  6
S10
 62
     1
100
AcDbVertex
100
AcDb2dVertex
 10
-22.16703039569825
 20
73.57823178062659
 30
0.0
1001
ACAD
1000
R13OBJECT
1002
{
1005
0
1002
}
  0
SEQEND
  5
B6
330
B2
100
AcDbEntity
  8
GAIKEI
  6
S10
 62
     1
  0
LINE
  5
B7
330
2
100
AcDbEntity
  8
GAIKEI
  6
S10
 62
     1
100
AcDbLine
 10
-27.76703039569861
 20
73.57823178062637
 30
0.0
 11
-22.16703039569848
 21
73.57823178062637
 31
0.0
  0
LINE
  5
B8
330
2
100
AcDbEntity
  8
GAIKEI
  6
S10
 62
     1
100
AcDbLine
 10
-27.76703039569861
 20
78.34447153482307
 30
0.0
 11
-27.76703039569861
 21
73.57823178062637
 31
0.0
  0
LINE
  5
B9
330
2
100
AcDbEntity
  8
GAIKEI
  6
S10
 62
     1
100
AcDbLine
 10
-22.16703039569848
 20
73.57823178062637
 30
0.0
 11
-22.16703039569848
 21
78.34447153482307
 31
0.0
  0
LINE
  5
BA
330
2
100
AcDbEntity
  8
GAIKEI
  6
S10
 62
     1
100
AcDbLine
 10
-34.96703039569843
 20
78.87823178062632
 30
0.0
 11
-34.96703039569843
 21
79.57823178062636
 31
0.0
  0
LINE
  5
BB
330
2
100
AcDbEntity
  8
GAIKEI
  6
S10
 62
     1
100
AcDbLine
 10
-34.96703039569843
 20
79.57823178062636
 30
0.0
 11
-14.96703039569843
 21
79.57823178062636
 31
0.0
  0
LINE
  5
BC
330
2
100
AcDbEntity
  8
GAIKEI
  6
S10
 62
     1
100
AcDbLine
 10
-28.30079064150186
 20
78.87823178062632
 30
0.0
 11
-34.96703039569843
 21
78.87823178062632
 31
0.0
  0
LINE
  5
BD
330
2
100
AcDbEntity
  8
GAIKEI
  6
S10
 62
     1
100
AcDbLine
 10
-27.2170303956982
 20
65.46823178043752
 30
0.0
 11
-24.96703039569843
 21
65.46823178043752
 31
0.0
  0
LINE
  5
BE
330
2
100
AcDbEntity
  8
GAIKEI
  6
S10
 62
     1
100
AcDbLine
 10
-22.53703039563402
 20
65.70823178035181
 30
0.0
 11
-27.39703039576239
 21
65.70823178035181
 31
0.0
  0
LINE
  5
BF
330
2
100
AcDbEntity
  8
GAIKEI
  6
S10
 62
     1
100
AcDbLine
 10
-27.2170303956982
 20
65.46823178043752
 30
0.0
 11
-27.39703039576239
 21
65.70823178052325
 31
0.0
  0
LINE
  5
C0
330
2
100
AcDbEntity
  8
GAIKEI
  6
S10
 62
     1
100
AcDbLine
 10
-22.53703039563402
 20
65.70823178052325
 30
0.0
 11
-22.71703039569843
 21
65.46823178043752
 31
0.0
  0
LINE
  5
C1
330
2
100
AcDbEntity
  8
GAIKEI
  6
S10
 62
     1
100
AcDbLine
 10
-24.96703039569843
 20
65.46823178043752
 30
0.0
 11
-22.71703039569843
 21
65.46823178043752
 31
0.0
  0
LINE
  5
C2
330
2
100
AcDbEntity
  8
GAIKEI
  6
Continuous
100
AcDbLine
 10
-22.06703039569834
 20
48.23826504583104
 30
0.0
 11
-22.06703039569857
 21
56.53870422132974
 31
0.0
  0
LINE
  5
C3
330
2
100
AcDbEntity
  8
GAIKEI
  6
Continuous
100
AcDbLine
 10
-22.16703039584013
 20
56.63870422132942
 30
0.0
 11
-22.06703039584045
 21
56.53870422132974
 31
0.0
  0
LINE
  5
C4
330
2
100
AcDbEntity
  8
GAIKEI
  6
Continuous
100
AcDbLine
 10
-27.86703039569807
 20
56.53870422132974
 30
0.0
 11
-27.86703039569807
 21
48.23826504583104
 31
0.0
  0
LINE
  5
C5
330
2
100
AcDbEntity
  8
GAIKEI
  6
Continuous
100
AcDbLine
 10
-27.86703039569829
 20
56.53870422132951
 30
0.0
 11
-27.76703039569838
 21
56.63870422132942
 31
0.0
  0
LINE
  5
C6
330
2
100
AcDbEntity
  8
GAIKEI
  6
HIDDEN2
 62
     1
100
AcDbLine
 10
-27.21703039582667
 20
52.50961249405719
 30
0.0
 11
-24.96703039569843
 21
52.50961249405719
 31
0.0
  0
LINE
  5
C7
330
2
100
AcDbEntity
  8
GAIKEI
  6
HIDDEN2
 62
     1
100
AcDbLine
 10
-22.56703039569857
 20
52.70961249405724
 30
0.0
 11
-27.36703039569807
 21
52.70961249405724
 31
0.0
  0
LINE
  5
C8
330
2
100
AcDbEntity
  8
GAIKEI
  6
HIDDEN2
 62
     1
100
AcDbLine
 10
-27.36703039569807
 20
52.70961249405724
 30
0.0
 11
-27.2170303956982
 21
52.50961249405719
 31
0.0
  0
LINE
  5
C9
330
2
100
AcDbEntity
  8
GAIKEI
  6
HIDDEN2
 62
     1
100
AcDbLine
 10
-22.56703039569857
 20
52.70961249405724
 30
0.0
 11
-22.56703039569857
 21
56.63870422132942
 31
0.0
  0
LINE
  5
CA
330
2
100
AcDbEntity
  8
GAIKEI
  6
HIDDEN2
 62
     1
100
AcDbLine
 10
-22.71703039569843
 20
52.50961249405719
 30
0.0
 11
-22.7170303956982
 21
56.63870422132942
 31
0.0
  0
LINE
  5
CB
330
2
100
AcDbEntity
  8
GAIKEI
  6
HIDDEN2
 62
     1
100
AcDbLine
 10
-22.71703039569843
 20
52.50961249405719
 30
0.0
 11
-22.56703039569857
 21
52.70961249405724
 31
0.0
  0
LINE
  5
CC
330
2
100
AcDbEntity
  8
GAIKEI
  6
HIDDEN2
 62
     1
100
AcDbLine
 10
-24.96703039569843
 20
52.50961249405719
 30
0.0
 11
-22.71703039556996
 21
52.50961249405719
 31
0.0
  0
LINE
  5
CD
330
2
100
AcDbEntity
  8
GAIKEI
  6
Continuous
100
AcDbLine
 10
-27.2170303956982
 20
57.05827765561145
 30
0.0
 11
-27.2170303956982
 21
56.95625774050114
 31
0.0
  0
LINE
  5
CE
330
2
100
AcDbEntity
  8
GAIKEI
  6
HIDDEN2
 62
     1
100
AcDbLine
 10
-27.21703039569798
 20
56.63870422132942
 30
0.0
 11
-27.2170303956982
 21
52.50961249405719
 31
0.0
  0
LINE
  5
CF
330
2
100
AcDbEntity
  8
GAIKEI
  6
HIDDEN2
 62
     1
100
AcDbLine
 10
-27.36703039569807
 20
56.63870422132942
 30
0.0
 11
-27.36703039569807
 21
52.70961249405724
 31
0.0
  0
LINE
  5
D0
330
2
100
AcDbEntity
  8
GAIKEI
  6
Continuous
 62
     1
100
AcDbLine
 10
-22.06703039584045
 20
56.53870422132974
 30
0.0
 11
-27.86703039569875
 21
56.53870422132974
 31
0.0
  0
LINE
  5
D1
330
2
100
AcDbEntity
  8
GAIKEI
  6
Continuous
100
AcDbLine
 10
-27.76703039569838
 20
56.63870422132942
 30
0.0
 11
-22.16703039584013
 21
56.63870422132942
 31
0.0
  0
LINE
  5
D2
330
2
100
AcDbEntity
  8
GAIKEI
  6
S10
 62
     1
100
AcDbLine
 10
-27.2170303956982
 20
65.46823178043752
 30
0.0
 11
-27.2170303956982
 21
56.63870422132965
 31
0.0
  0
LINE
  5
D3
330
2
100
AcDbEntity
  8
GAIKEI
  6
S10
 62
     1
100
AcDbLine
 10
-27.36703039569807
 20
65.66823178043733
 30
0.0
 11
-27.36703039569807
 21
56.63870422132942
 31
0.0
  0
LINE
  5
D4
330
2
100
AcDbEntity
  8
GAIKEI
  6
S10
 62
     1
100
AcDbLine
 10
-22.71703039569843
 20
56.63870422132965
 30
0.0
 11
-22.71703039569843
 21
65.46823178043752
 31
0.0
  0
LINE
  5
D5
330
2
100
AcDbEntity
  8
GAIKEI
  6
S10
 62
     1
100
AcDbLine
 10
-22.56703039569857
 20
56.63870422132942
 30
0.0
 11
-22.56703039569857
 21
65.66823178043733
 31
0.0
  0
LINE
  5
D6
330
2
100
AcDbEntity
  8
GAIKEI
  6
S10
 62
     1
100
AcDbLine
 10
-22.53703039563402
 20
65.70823178035181
 30
0.0
 11
-22.53703039563402
 21
73.04447153489133
 31
0.0
  0
LINE
  5
D7
330
2
100
AcDbEntity
  8
GAIKEI
  6
S10
 62
     1
100
AcDbLine
 10
-27.39703039576239
 20
73.04447153489133
 30
0.0
 11
-27.39703039576239
 21
65.70823178035181
 31
0.0
  0
LINE
  5
D8
330
2
100
AcDbEntity
  8
GAIKEI
  6
S10
 62
     1
100
AcDbLine
 10
11.15118707301894
 20
79.57823178062773
 30
0.0
 11
31.15118707301895
 21
79.57823178062773
 31
0.0
  0
LINE
  5
D9
330
2
100
AcDbEntity
  8
GAIKEI
  6
S10
 62
     1
100
AcDbLine
 10
17.81742682721551
 20
78.87823178062769
 30
0.0
 11
11.15118707301894
 21
78.87823178062769
 31
0.0
  0
MTEXT
  5
DA
330
2
100
AcDbEntity
  8
SUNPO
100
AcDbMText
 10
-6.70835510714582
 20
10.20272781769114
 30
0.0
 40
2.5
 41
0.0
 71
     5
 72
     1
  1
\A1;88.5
 11
0.0000000000000001
 21
1.0
 31
0.0
 73
     1
 44
1.0
1001
ACAD
1000
MTEXTBEGIN
1070
    73
1070
     1
1070
    44
1040
1.0
1070
    74
1070
     0
1000
MTEXTEND
  0
INSERT
  5
DC
330
2
100
AcDbEntity
  8
SUNPO
100
AcDbBlockReference
  2
_OPEN30
 10
-4.958355107145791
 20
15.47672585801712
 30
0.0
 41
2.0
 42
2.0
 43
2.0
 50
270.0
  0
INSERT
  5
E3
330
2
100
AcDbEntity
  8
SUNPO
100
AcDbBlockReference
  2
_OPEN30
 10
-4.958355107145791
 20
24.32570223901689
 30
0.0
 41
2.0
 42
2.0
 43
2.0
 50
90.0
  0
LINE
  5
E4
330
2
100
AcDbEntity
  8
SUNPO
100
AcDbLine
 10
-4.958355107145791
 20
15.47672585801712
 30
0.0
 11
-4.958355107145791
 21
5.487117687773832
 31
0.0
  0
LINE
  5
E5
330
2
100
AcDbEntity
  8
SUNPO
100
AcDbLine
 10
-4.958355107145791
 20
22.32570223901689
 30
0.0
 11
-4.958355107145791
 21
17.47672585801712
 31
0.0
  0
LINE
  5
E6
330
2
100
AcDbEntity
  8
SUNPO
100
AcDbLine
 10
-10.95835510714579
 20
15.47672585801712
 30
0.0
 11
-2.958355107145791
 21
15.47672585801712
 31
0.0
  0
LINE
  5
E7
330
2
100
AcDbEntity
  8
SUNPO
100
AcDbLine
 10
-10.95835510714579
 20
24.32570223901689
 30
0.0
 11
-2.958355107145791
 21
24.32570223901689
 31
0.0
  0
ELLIPSE
  5
E8
330
2
100
AcDbEntity
  8
GAIKEI
 62
     1
100
AcDbEllipse
 10
-22.96751913777081
 20
50.63846663829242
 30
0.0
 11
-0.0009010519229882
 21
0.746087649995662
 31
0.0
210
0.0
220
0.0
230
-1.0
 40
0.7358362973746085
 41
0.0
 42
6.283185307179586
  0
ELLIPSE
  5
E9
330
2
100
AcDbEntity
  8
GAIKEI
 62
     1
100
AcDbEllipse
 10
-22.96751913777081
 20
50.63846663829242
 30
0.0
 11
-0.0118064482089722
 21
0.5493014866635804
 31
0.0
210
0.0
220
0.0
230
-1.0
 40
0.8117086103676014
 41
0.0
 42
6.283185307179586
  0
ELLIPSE
  5
EA
330
2
100
AcDbEntity
  8
GAIKEI
 62
     1
100
AcDbEllipse
 10
-26.96654165362418
 20
50.63846663829242
 30
0.0
 11
0.0118064482089722
 21
0.5493014866635804
 31
0.0
210
0.0
220
0.0
230
1.0
 40
0.8117086103676014
 41
0.0
 42
6.283185307179586
  0
ELLIPSE
  5
EB
330
2
100
AcDbEntity
  8
GAIKEI
 62
     1
100
AcDbEllipse
 10
-26.96654165362418
 20
50.63846663829242
 30
0.0
 11
0.0009010519229882
 21
0.746087649995662
 31
0.0
210
0.0
220
0.0
230
1.0
 40
0.7358362973746085
 41
0.0
 42
6.283185307179586
  0
LINE
  5
EC
330
2
100
AcDbEntity
  8
GAIKEI
 62
     1
100
AcDbLine
 10
-27.45538910707279
 20
22.05805084083232
 30
0.0
 11
-27.45538910707279
 21
16.65061447030035
 31
0.0
  0
LINE
  5
ED
330
2
100
AcDbEntity
  8
GAIKEI
 62
     1
100
AcDbLine
 10
-27.50598938372537
 20
22.35760447861543
 30
0.0
 11
-27.50598938372537
 21
18.98350017751448
 31
0.0
  0
LINE
  5
EE
330
2
100
AcDbEntity
  8
GAIKEI
 62
     1
100
AcDbLine
 10
-31.49506219362996
 20
23.97048829691579
 30
0.0
 11
-31.49506219362996
 21
21.03468115845823
 31
0.0
  0
LINE
  5
EF
330
2
100
AcDbEntity
  8
GAIKEI
 62
     1
100
AcDbLine
 10
-22.41914357184339
 20
22.05805084083232
 30
0.0
 11
-22.41914357184339
 21
23.95075418902132
 31
0.0
  0
LINE
  5
F0
330
2
100
AcDbEntity
  8
GAIKEI
 62
     1
100
AcDbLine
 10
-22.61876166323776
 20
22.7538690984162
 30
0.0
 11
-22.61876166323776
 21
23.95075418902132
 31
0.0
  0
LINE
  5
F1
330
2
100
AcDbEntity
  8
GAIKEI
 62
     1
100
AcDbLine
 10
-22.83735485837684
 20
22.97726931983726
 30
0.0
 11
-22.83735485837684
 21
23.95075418902132
 31
0.0
  0
LINE
  5
F2
330
2
100
AcDbEntity
  8
GAIKEI
 62
     1
100
AcDbLine
 10
-23.06783911852926
 20
22.35937548829832
 30
0.0
 11
-23.06783911852926
 21
23.05310528120486
 31
0.0
  0
LINE
  5
F3
330
2
100
AcDbEntity
  8
GAIKEI
 62
     1
100
AcDbLine
 10
-23.46656929855141
 20
22.35937548829832
 30
0.0
 11
-23.46656929855141
 21
23.05310528120486
 31
0.0
  0
LINE
  5
F4
330
2
100
AcDbEntity
  8
GAIKEI
100
AcDbLine
 10
-27.50598938372537
 20
23.95075418902132
 30
0.0
 11
-22.41914357184339
 21
23.95075418902132
 31
0.0
  0
LINE
  5
F5
330
2
100
AcDbEntity
  8
GAIKEI
 62
     1
100
AcDbLine
 10
-26.45805765425087
 20
23.05310528120486
 30
0.0
 11
-26.85729383703949
 21
23.05310528120486
 31
0.0
  0
LINE
  5
F6
330
2
100
AcDbEntity
  8
GAIKEI
 62
     1
100
AcDbLine
 10
-23.06783911852926
 20
23.05310528120486
 30
0.0
 11
-23.46656929855141
 21
23.05310528120486
 31
0.0
  0
LINE
  5
F7
330
2
100
AcDbEntity
  8
GAIKEI
 62
     1
100
AcDbLine
 10
-27.21149577360745
 20
22.05805084083232
 30
0.0
 11
-26.60859347729218
 21
22.27664403597135
 31
0.0
  0
LINE
  5
F8
330
2
100
AcDbEntity
  8
GAIKEI
 62
     1
100
AcDbLine
 10
-23.31755148380967
 20
22.2774030401211
 30
0.0
 11
-22.71363718196131
 21
22.05805084083232
 31
0.0
  0
LINE
  5
F9
330
2
100
AcDbEntity
  8
GAIKEI
 62
     1
100
AcDbLine
 10
-23.06783911852926
 20
22.87726931983724
 30
0.0
 11
-22.93735485837681
 21
22.87726931983724
 31
0.0
  0
LINE
  5
FA
330
2
100
AcDbEntity
  8
GAIKEI
 62
     1
100
AcDbLine
 10
-26.98752509580868
 20
22.87726931983724
 30
0.0
 11
-26.85729383703949
 21
22.87726931983724
 31
0.0
  0
LINE
  5
FB
330
2
100
AcDbEntity
  8
GAIKEI
 62
     1
100
AcDbLine
 10
-26.45805765425087
 20
22.87726931983724
 30
0.0
 11
-23.46656929855141
 21
22.87726931983724
 31
0.0
  0
LINE
  5
FC
330
2
100
AcDbEntity
  8
GAIKEI
 62
     1
100
AcDbLine
 10
-26.85729383703949
 20
22.65386909841624
 30
0.0
 11
-27.20637129233097
 21
22.65386909841624
 31
0.0
  0
LINE
  5
FD
330
2
100
AcDbEntity
  8
GAIKEI
 62
     1
100
AcDbLine
 10
-23.46656929855141
 20
22.65386909841624
 30
0.0
 11
-26.45805765425087
 21
22.65386909841624
 31
0.0
  0
LINE
  5
FE
330
2
100
AcDbEntity
  8
GAIKEI
 62
     1
100
AcDbLine
 10
-22.71876166323773
 20
22.65386909841624
 30
0.0
 11
-23.06783911852926
 21
22.65386909841624
 31
0.0
  0
LINE
  5
FF
330
2
100
AcDbEntity
  8
GAIKEI
 62
     1
100
AcDbLine
 10
-23.46656929855141
 20
22.35937548829832
 30
0.0
 11
-23.06783911852926
 21
22.35937548829832
 31
0.0
  0
LINE
  5
100
330
2
100
AcDbEntity
  8
GAIKEI
 62
     1
100
AcDbLine
 10
-26.85729383703949
 20
22.35937548829832
 30
0.0
 11
-26.45805765425087
 21
22.35937548829832
 31
0.0
  0
LINE
  5
101
330
2
100
AcDbEntity
  8
GAIKEI
 62
     1
100
AcDbLine
 10
-26.61668952155662
 20
22.32471429879132
 30
0.0
 11
-23.30752161318276
 21
22.32471429879132
 31
0.0
  0
LINE
  5
102
330
2
100
AcDbEntity
  8
GAIKEI
 62
     1
100
AcDbLine
 10
-26.60859347729218
 20
22.27664403597135
 30
0.0
 11
-23.32084050179202
 21
22.27664403597135
 31
0.0
  0
LINE
  5
103
330
2
100
AcDbEntity
  8
GAIKEI
 62
     1
100
AcDbLine
 10
-27.22083929003878
 20
22.1056151008857
 30
0.0
 11
-27.50598938372537
 21
22.1056151008857
 31
0.0
  0
LINE
  5
104
330
2
100
AcDbEntity
  8
GAIKEI
 62
     1
100
AcDbLine
 10
-22.41914357184339
 20
22.1056151008857
 30
0.0
 11
-22.7060471404634
 21
22.1056151008857
 31
0.0
  0
LINE
  5
105
330
2
100
AcDbEntity
  8
GAIKEI
 62
     1
100
AcDbLine
 10
-22.41914357184339
 20
22.05805084083232
 30
0.0
 11
-22.71363718196131
 21
22.05805084083232
 31
0.0
  0
LINE
  5
106
330
2
100
AcDbEntity
  8
GAIKEI
 62
     1
100
AcDbLine
 10
-26.45805765425087
 20
22.35937548829832
 30
0.0
 11
-26.45805765425087
 21
23.05310528120486
 31
0.0
  0
LINE
  5
107
330
2
100
AcDbEntity
  8
GAIKEI
 62
     1
100
AcDbLine
 10
-26.85729383703949
 20
22.35937548829832
 30
0.0
 11
-26.85729383703949
 21
23.05310528120486
 31
0.0
  0
LINE
  5
108
330
2
100
AcDbEntity
  8
GAIKEI
 62
     1
100
AcDbLine
 10
-27.0875250958087
 20
23.95075418902132
 30
0.0
 11
-27.0875250958087
 21
22.97726931983726
 31
0.0
  0
LINE
  5
109
330
2
100
AcDbEntity
  8
GAIKEI
 62
     1
100
AcDbLine
 10
-27.30637129233099
 20
22.7538690984162
 30
0.0
 11
-27.30637129233099
 21
23.95075418902132
 31
0.0
  0
LINE
  5
10A
330
2
100
AcDbEntity
  8
GAIKEI
 62
     1
100
AcDbLine
 10
-27.50598938372537
 20
23.95075418902132
 30
0.0
 11
-27.50598938372537
 21
22.05805084083232
 31
0.0
  0
LINE
  5
10B
330
2
100
AcDbEntity
  8
GAIKEI
 62
     1
100
AcDbLine
 10
-27.21149577360745
 20
22.05805084083232
 30
0.0
 11
-27.50598938372537
 21
22.05805084083232
 31
0.0
  0
LINE
  5
10C
330
2
100
AcDbEntity
  8
GAIKEI
100
AcDbLine
 10
-14.7276086021709
 20
24.37200149215391
 30
0.0
 11
-35.19752435339785
 21
24.37200149215386
 31
0.0
  0
LINE
  5
10D
330
2
100
AcDbEntity
  8
GAIKEI
100
AcDbLine
 10
-16.20770661135833
 20
41.10685060219123
 30
0.0
 11
-33.71742634421043
 21
41.10685060219123
 31
0.0
  0
LINE
  5
10E
330
2
100
AcDbEntity
  8
GAIKEI
 62
     1
100
AcDbLine
 10
-22.41914357184339
 20
18.98350017751414
 30
0.0
 11
-22.41914357184339
 21
22.35760447861543
 31
0.0
  0
LINE
  5
10F
330
2
100
AcDbEntity
  8
GAIKEI
 62
     1
100
AcDbLine
 10
-22.46949084711275
 20
22.05805084083232
 30
0.0
 11
-22.46949084711269
 21
16.65086153343958
 31
0.0
  0
LINE
  5
110
330
2
100
AcDbEntity
  8
GAIKEI
100
AcDbLine
 10
-16.71826340278267
 20
41.35630996608836
 30
0.0
 11
-16.20770661135833
 21
41.10685060219123
 31
0.0
  0
ELLIPSE
  5
111
330
2
100
AcDbEntity
  8
GAIKEI
100
AcDbEllipse
 10
-24.96231347640111
 20
25.02069703883973
 30
0.0
 11
-0.0002530013832628
 21
-0.0092345504890923
 31
0.0
210
0.0
220
0.0
230
1.0
 40
0.9859314143474241
 41
0.0
 42
6.283185307179586
  0
LINE
  5
112
330
2
100
AcDbEntity
  8
GAIKEI
100
AcDbLine
 10
-20.90222006521191
 20
48.13826504583108
 30
0.0
 11
-29.0318407261833
 21
48.13826504583108
 31
0.0
  0
LINE
  5
113
330
2
100
AcDbEntity
  8
GAIKEI
100
AcDbLine
 10
-16.38740772378605
 20
41.35630996608836
 30
0.0
 11
-16.75064757984034
 21
41.35630996608836
 31
0.0
  0
LINE
  5
114
330
2
100
AcDbEntity
  8
GAIKEI
100
AcDbLine
 10
-16.75064757984034
 20
41.35630996608836
 30
0.0
 11
-33.2101585707685
 21
41.35630996608836
 31
0.0
  0
LINE
  5
115
330
2
100
AcDbEntity
  8
GAIKEI
100
AcDbLine
 10
-36.8594505229512
 20
25.41993322162847
 30
0.0
 11
-13.06618843538405
 21
25.41993322162847
 31
0.0
  0
LINE
  5
116
330
2
100
AcDbEntity
  8
GAIKEI
100
AcDbLine
 10
-36.5855128078702
 20
25.02069703883973
 30
0.0
 11
-13.33962014769855
 21
25.02069703883973
 31
0.0
  0
LINE
  5
117
330
2
100
AcDbEntity
  8
GAIKEI
100
AcDbLine
 10
-16.62781782550769
 20
23.97048829691579
 30
0.0
 11
-33.29731513006107
 21
23.97048829691579
 31
0.0
  0
ARC
  5
118
330
2
100
AcDbEntity
  8
GAIKEI
100
AcDbCircle
 10
-33.76301009176393
 20
34.65986528747663
 30
0.0
 40
18.69128479927947
100
AcDbArc
 50
21.22378437568578
 51
45.87146134481397
  0
ARC
  5
119
330
2
100
AcDbEntity
  8
GAIKEI
100
AcDbCircle
 10
-16.38740772378605
 20
41.40771665974836
 30
0.0
 40
0.05140669366
100
AcDbArc
 50
269.9999999999528
 51
21.22378437569303
  0
ARC
  5
11A
330
2
100
AcDbEntity
  8
GAIKEI
100
AcDbCircle
 10
-20.90222006521191
 20
47.91795064443107
 30
0.0
 40
0.2203144014
100
AcDbArc
 50
45.87146134481397
 51
89.99999999998861
  0
ARC
  5
11B
330
2
100
AcDbEntity
  8
GAIKEI
100
AcDbCircle
 10
-29.02291289035691
 20
47.91795064443107
 30
0.0
 40
0.2203144014
100
AcDbArc
 50
90.00000000001138
 51
134.128538655186
  0
ARC
  5
11C
330
2
100
AcDbEntity
  8
GAIKEI
100
AcDbCircle
 10
-33.53772523178282
 20
41.40771665974836
 30
0.0
 40
0.05140669366
100
AcDbArc
 50
158.776215624307
 51
270.0000000000472
  0
ARC
  5
11D
330
2
100
AcDbEntity
  8
GAIKEI
100
AcDbCircle
 10
-16.16212286380488
 20
34.65986528747663
 30
0.0
 40
18.69128479927947
100
AcDbArc
 50
134.128538655186
 51
158.7762156243142
  0
LINE
  5
11E
330
2
100
AcDbEntity
  8
GAIKEI
100
AcDbLine
 10
-33.53772523178276
 20
41.35630996608836
 30
0.0
 11
-33.17448537572847
 21
41.35630996608836
 31
0.0
  0
LINE
  5
11F
330
2
100
AcDbEntity
  8
GAIKEI
100
AcDbLine
 10
-33.20686955278615
 20
41.35630996608836
 30
0.0
 11
-33.71742634421048
 21
41.10685060219123
 31
0.0
  0
ARC
  5
120
330
2
100
AcDbEntity
  8
GAIKEI
100
AcDbCircle
 10
6.624466246538986
 20
25.60645117471557
 30
0.0
 40
43.21724979929718
100
AcDbArc
 50
158.9819322792473
 51
169.9944514485463
  0
ARC
  5
121
330
2
100
AcDbEntity
  8
GAIKEI
100
AcDbCircle
 10
17.91562329187104
 20
22.7266333893503
 30
0.0
 40
54.84399717788395
100
AcDbArc
 50
169.0810768121813
 51
174.4987849794049
  0
ARC
  5
122
330
2
100
AcDbEntity
  8
GAIKEI
100
AcDbCircle
 10
2.440773531402328
 20
23.89380887437647
 30
0.0
 40
39.32984447268598
100
AcDbArc
 50
174.030089386385
 51
177.7761813402002
  0
LINE
  5
123
330
2
100
AcDbEntity
  8
GAIKEI
100
AcDbLine
 10
-36.85945052295125
 20
25.41993322162841
 30
0.0
 11
-36.77595688379091
 21
25.15961468503184
 31
0.0
  0
ARC
  5
124
330
2
100
AcDbEntity
  8
GAIKEI
100
AcDbCircle
 10
-36.5855128078702
 20
25.22069703883972
 30
0.0
 40
0.2
100
AcDbArc
 50
197.7829386262099
 51
270.0
  0
ARC
  5
125
330
2
100
AcDbEntity
  8
GAIKEI
100
AcDbCircle
 10
-13.33962014769855
 20
25.22069703883972
 30
0.0
 40
0.2
100
AcDbArc
 50
270.0
 51
342.2170613737901
  0
LINE
  5
126
330
2
100
AcDbEntity
  8
GAIKEI
100
AcDbLine
 10
-13.06568243261756
 20
25.41993322162841
 30
0.0
 11
-13.1491760717779
 21
25.15961468503184
 31
0.0
  0
ARC
  5
127
330
2
100
AcDbEntity
  8
GAIKEI
100
AcDbCircle
 10
-52.36590648697114
 20
23.89380887437647
 30
0.0
 40
39.32984447268598
100
AcDbArc
 50
2.223818659799804
 51
5.969910613614938
  0
ARC
  5
128
330
2
100
AcDbEntity
  8
GAIKEI
100
AcDbCircle
 10
-67.84075624743985
 20
22.7266333893503
 30
0.0
 40
54.84399717788395
100
AcDbArc
 50
5.501215020595057
 51
10.91892318781866
  0
ARC
  5
129
330
2
100
AcDbEntity
  8
GAIKEI
100
AcDbCircle
 10
-56.5495992021078
 20
25.60645117471557
 30
0.0
 40
43.21724979929718
100
AcDbArc
 50
10.00554855145367
 51
21.01806772075265
  0
ARC
  5
12A
330
2
100
AcDbEntity
  8
GAIKEI
100
AcDbCircle
 10
-32.5212838233677
 20
25.62442615327842
 30
0.0
 40
3.01381982527136
100
AcDbArc
 50
191.5556864879122
 51
203.2973524006533
  0
ARC
  5
12B
330
2
100
AcDbEntity
  8
GAIKEI
100
AcDbCircle
 10
-35.19752435339785
 20
24.47200149215388
 30
0.0
 40
0.1
100
AcDbArc
 50
203.2973524006533
 51
270.0
  0
ARC
  5
12C
330
2
100
AcDbEntity
  8
GAIKEI
100
AcDbCircle
 10
-14.7276086021709
 20
24.47200149215388
 30
0.0
 40
0.1
100
AcDbArc
 50
270.0
 51
336.7026475993467
  0
ARC
  5
12D
330
2
100
AcDbEntity
  8
GAIKEI
100
AcDbCircle
 10
-17.40384913220111
 20
25.62442615327842
 30
0.0
 40
3.01381982527136
100
AcDbArc
 50
336.7026475993467
 51
348.4443135120878
  0
ARC
  5
12E
330
2
100
AcDbEntity
  8
GAIKEI
 62
     1
100
AcDbCircle
 10
-31.00666510294434
 20
25.84199000567588
 30
0.0
 40
1.79962810126059
100
AcDbArc
 50
234.7686177970859
 51
267.8696783105256
  0
ARC
  5
12F
330
2
100
AcDbEntity
  8
GAIKEI
 62
     1
100
AcDbCircle
 10
-30.8925071689282
 20
24.10599962448368
 30
0.0
 40
0.036588548234881
100
AcDbArc
 50
319.1378988560386
 51
10.10959864636765
  0
ARC
  5
130
330
2
100
AcDbEntity
  8
GAIKEI
 62
     1
100
AcDbCircle
 10
-31.04288411001403
 20
24.80442233240348
 30
0.0
 40
0.7614348818684209
100
AcDbArc
 50
267.6909605975897
 51
277.7188783424559
  0
ARC
  5
131
330
2
100
AcDbEntity
  8
GAIKEI
 62
     1
100
AcDbCircle
 10
-30.93419617126176
 20
24.15323648658324
 30
0.0
 40
0.0993815330630986
100
AcDbArc
 50
297.7411536814924
 51
314.260413957186
  0
ARC
  5
132
330
2
100
AcDbEntity
  8
GAIKEI
 62
     1
100
AcDbCircle
 10
-30.96888165780354
 20
24.24447869627414
 30
0.0
 40
0.1966343723822126
100
AcDbArc
 50
278.2654102171033
 51
294.3087998455157
  0
ARC
  5
133
330
2
100
AcDbEntity
  8
GAIKEI
 62
     1
100
AcDbCircle
 10
-30.94380832255501
 20
24.09301325252449
 30
0.0
 40
0.0894526001733724
100
AcDbArc
 50
12.53131869959005
 51
39.67218746992044
  0
ARC
  5
134
330
2
100
AcDbEntity
  8
GAIKEI
 62
     1
100
AcDbCircle
 10
-31.10813176050169
 20
23.95601596387729
 30
0.0
 40
0.3033926894193737
100
AcDbArc
 50
39.77510708122947
 51
54.24870289448658
  0
ARC
  5
135
330
2
100
AcDbEntity
  8
GAIKEI
 62
     1
100
AcDbCircle
 10
-31.74382638682505
 20
23.0353523739372
 30
0.0
 40
1.422153501699292
100
AcDbArc
 50
55.13545790331235
 51
70.0308811049904
  0
ARC
  5
136
330
2
100
AcDbEntity
  8
GAIKEI
 62
     1
100
AcDbCircle
 10
-18.18130656874371
 20
23.0353523739372
 30
0.0
 40
1.422153501699292
100
AcDbArc
 50
109.9691188950096
 51
124.8645420966876
  0
ARC
  5
137
330
2
100
AcDbEntity
  8
GAIKEI
 62
     1
100
AcDbCircle
 10
-18.81700119506712
 20
23.95601596387729
 30
0.0
 40
0.3033926894193737
100
AcDbArc
 50
125.7512971055134
 51
140.2248929187705
  0
ARC
  5
138
330
2
100
AcDbEntity
  8
GAIKEI
 62
     1
100
AcDbCircle
 10
-18.98132463301374
 20
24.09301325252449
 30
0.0
 40
0.0894526001733724
100
AcDbArc
 50
140.3278125300795
 51
167.4686813004099
  0
ARC
  5
139
330
2
100
AcDbEntity
  8
GAIKEI
 62
     1
100
AcDbCircle
 10
-18.95625129776522
 20
24.24447869627414
 30
0.0
 40
0.1966343723822126
100
AcDbArc
 50
245.6912001544821
 51
261.7345897828967
  0
ARC
  5
13A
330
2
100
AcDbEntity
  8
GAIKEI
 62
     1
100
AcDbCircle
 10
-18.99093678430699
 20
24.15323648658324
 30
0.0
 40
0.0993815330630986
100
AcDbArc
 50
225.739586042814
 51
242.2588463185054
  0
ARC
  5
13B
330
2
100
AcDbEntity
  8
GAIKEI
 62
     1
100
AcDbCircle
 10
-18.88224884555473
 20
24.80442233240348
 30
0.0
 40
0.7614348818684209
100
AcDbArc
 50
262.2811216575441
 51
272.3090394024104
  0
ARC
  5
13C
330
2
100
AcDbEntity
  8
GAIKEI
 62
     1
100
AcDbCircle
 10
-19.03262578664061
 20
24.10599962448368
 30
0.0
 40
0.036588548234881
100
AcDbArc
 50
169.8904013536323
 51
220.8621011439614
  0
ARC
  5
13D
330
2
100
AcDbEntity
  8
GAIKEI
 62
     1
100
AcDbCircle
 10
-18.91846785262447
 20
25.84199000567588
 30
0.0
 40
1.79962810126059
100
AcDbArc
 50
272.1303216894744
 51
305.2313822029141
  0
LINE
  5
13E
330
2
100
AcDbEntity
  8
GAIKEI
100
AcDbLine
 10
-34.43190225054457
 20
24.37023048247108
 30
0.0
 11
-33.88795059521005
 21
24.15761722403755
 31
0.0
  0
LINE
  5
13F
330
2
100
AcDbEntity
  8
GAIKEI
100
AcDbLine
 10
-33.88795059521005
 20
24.15761722403755
 30
0.0
 11
-33.32827307382627
 21
23.97540093856656
 31
0.0
  0
ARC
  5
140
330
2
100
AcDbEntity
  8
GAIKEI
100
AcDbCircle
 10
-33.29731513006107
 20
24.07048829691581
 30
0.0
 40
0.1
100
AcDbArc
 50
251.9661127135544
 51
270.0
  0
LINE
  5
141
330
2
100
AcDbEntity
  8
GAIKEI
100
AcDbLine
 10
-16.03718236035871
 20
24.15761722403755
 30
0.0
 11
-16.59685988174249
 21
23.97540093856662
 31
0.0
  0
LINE
  5
142
330
2
100
AcDbEntity
  8
GAIKEI
100
AcDbLine
 10
-15.49323070502419
 20
24.37023048247108
 30
0.0
 11
-16.03718236035871
 21
24.15761722403755
 31
0.0
  0
ARC
  5
143
330
2
100
AcDbEntity
  8
GAIKEI
 62
     1
100
AcDbCircle
 10
-24.96419976784841
 20
22.85454104300783
 30
0.0
 40
6.779679492710411
100
AcDbArc
 50
195.5707808595896
 51
246.61125203898
  0
ARC
  5
144
330
2
100
AcDbEntity
  8
GAIKEI
100
AcDbCircle
 10
32.3589699119072
 20
27.78356486053161
 30
0.0
 40
65.44476126189625
100
AcDbArc
 50
183.3401755542463
 51
184.6933718267825
  0
ARC
  5
145
330
2
100
AcDbEntity
  8
GAIKEI
100
AcDbCircle
 10
-24.99284014851668
 20
23.51032610174269
 30
0.0
 40
7.947457734105853
100
AcDbArc
 50
187.8223264203954
 51
225.8042096623955
  0
ARC
  5
146
330
2
100
AcDbEntity
  8
GAIKEI
100
AcDbCircle
 10
-24.97292108309841
 20
23.49826174450476
 30
0.0
 40
7.952726251192598
100
AcDbArc
 50
225.64072804772
 51
270.0746002480039
  0
LINE
  5
147
330
2
100
AcDbEntity
  8
GAIKEI
 62
     1
100
AcDbLine
 10
-27.6555132012337
 20
16.63193017399493
 30
0.0
 11
-27.50598938372537
 21
18.98350017751448
 31
0.0
  0
ARC
  5
148
330
2
100
AcDbEntity
  8
GAIKEI
 62
     1
100
AcDbCircle
 10
-24.96269297847607
 20
21.75647397094366
 30
0.0
 40
5.681842591081675
100
AcDbArc
 50
243.9782290675578
 51
296.0274492172343
  0
ARC
  5
149
330
2
100
AcDbEntity
  8
GAIKEI
 62
     1
100
AcDbCircle
 10
-24.96093318772035
 20
22.85454104300783
 30
0.0
 40
6.779679492710411
100
AcDbArc
 50
293.38874796102
 51
344.4292191404104
  0
LINE
  5
14A
330
2
100
AcDbEntity
  8
GAIKEI
 62
     1
100
AcDbLine
 10
-22.26961975433505
 20
16.63193017399493
 30
0.0
 11
-22.41914357184339
 21
18.98350017751414
 31
0.0
  0
ARC
  5
14B
330
2
100
AcDbEntity
  8
GAIKEI
100
AcDbCircle
 10
-24.9522118724704
 20
23.49826174450476
 30
0.0
 40
7.952726251192598
100
AcDbArc
 50
269.9253997519961
 51
314.35927195228
  0
ARC
  5
14C
330
2
100
AcDbEntity
  8
GAIKEI
100
AcDbCircle
 10
-24.93229280705208
 20
23.51032610174269
 30
0.0
 40
7.947457734105853
100
AcDbArc
 50
314.1957903376046
 51
352.1776735796046
  0
ARC
  5
14D
330
2
100
AcDbEntity
  8
GAIKEI
100
AcDbCircle
 10
-82.28410286747594
 20
27.78356486053161
 30
0.0
 40
65.44476126189625
100
AcDbArc
 50
355.3066281732142
 51
356.6598244457537
  0
LINE
  5
14E
330
2
100
AcDbEntity
  8
GAIKEI
 62
     1
100
AcDbLine
 10
-18.43007076193879
 20
23.97048829691579
 30
0.0
 11
-18.43007076193885
 21
21.03468115845823
 31
0.0
  0
ARC
  5
14F
330
2
100
AcDbEntity
  8
GAIKEI
 62
     1
100
AcDbCircle
 10
-24.96335350406412
 20
21.75847573905798
 30
0.0
 40
1.664689029568701
100
AcDbArc
 50
161.8641970863875
 51
251.9209586851499
  0
ARC
  5
150
330
2
100
AcDbEntity
  8
GAIKEI
 62
     1
100
AcDbCircle
 10
-24.96211435717498
 20
21.7586564391118
 30
0.0
 40
1.665245729110204
100
AcDbArc
 50
251.8823579343353
 51
0.0078406162318096
  0
ARC
  5
151
330
2
100
AcDbEntity
  8
GAIKEI
 62
     1
100
AcDbCircle
 10
-24.96588100654577
 20
21.75943126360215
 30
0.0
 40
1.669012452507345
100
AcDbArc
 50
359.9812238542484
 51
18.05269189884245
  0
ARC
  5
152
330
2
100
AcDbEntity
  8
GAIKEI
 62
     1
100
AcDbCircle
 10
-24.96211435717498
 20
21.7586564391118
 30
0.0
 40
1.825055729110204
100
AcDbArc
 50
251.8823579343353
 51
0.0078406162318096
  0
ARC
  5
153
330
2
100
AcDbEntity
  8
GAIKEI
 62
     1
100
AcDbCircle
 10
-24.96335350406412
 20
21.75847573905798
 30
0.0
 40
1.824499029568701
100
AcDbArc
 50
164.8738756380141
 51
251.9209586851499
  0
ARC
  5
154
330
2
100
AcDbEntity
  8
GAIKEI
 62
     1
100
AcDbCircle
 10
-24.96588100654577
 20
21.75943126360215
 30
0.0
 40
1.828822452507345
100
AcDbArc
 50
359.9812238542484
 51
15.06159663674308
  0
ARC
  5
155
330
2
100
AcDbEntity
  8
GAIKEI
 62
     1
100
AcDbCircle
 10
-24.96335350406412
 20
21.75847573905798
 30
0.0
 40
1.894249029568701
100
AcDbArc
 50
166.341142275557
 51
251.9209586851499
  0
ARC
  5
156
330
2
100
AcDbEntity
  8
GAIKEI
 62
     1
100
AcDbCircle
 10
-24.96211435717498
 20
21.7586564391118
 30
0.0
 40
1.894805729110204
100
AcDbArc
 50
251.8823579343353
 51
0.0078406162318096
  0
ARC
  5
157
330
2
100
AcDbEntity
  8
GAIKEI
 62
     1
100
AcDbCircle
 10
-24.96588100654577
 20
21.75943126360215
 30
0.0
 40
1.898572452507345
100
AcDbArc
 50
359.9812238542484
 51
13.59933239350484
  0
LINE
  5
158
330
2
100
AcDbEntity
  8
GAIKEI
 62
     1
100
AcDbLine
 10
-26.61668952155662
 20
22.32471429879132
 30
0.0
 11
-27.22083929003878
 21
22.1056151008857
 31
0.0
  0
LINE
  5
159
330
2
100
AcDbEntity
  8
GAIKEI
 62
     1
100
AcDbLine
 10
-23.30752161318276
 20
22.32471429879132
 30
0.0
 11
-22.70604714046346
 21
22.1056151008857
 31
0.0
  0
ARC
  5
15A
330
2
100
AcDbEntity
  8
GAIKEI
 62
     1
100
AcDbCircle
 10
-26.98752509580868
 20
22.97726931983726
 30
0.0
 40
0.1
100
AcDbArc
 50
180.0
 51
269.9999999999968
  0
ARC
  5
15B
330
2
100
AcDbEntity
  8
GAIKEI
 62
     1
100
AcDbCircle
 10
-27.20637129233097
 20
22.7538690984162
 30
0.0
 40
0.1
100
AcDbArc
 50
180.0
 51
270.0
  0
ARC
  5
15C
330
2
100
AcDbEntity
  8
GAIKEI
 62
     1
100
AcDbCircle
 10
-22.93735485837681
 20
22.97726931983726
 30
0.0
 40
0.1
100
AcDbArc
 50
270.0
 51
0.0
  0
ARC
  5
15D
330
2
100
AcDbEntity
  8
GAIKEI
 62
     1
100
AcDbCircle
 10
-22.71876166323773
 20
22.7538690984162
 30
0.0
 40
0.1
100
AcDbArc
 50
270.0
 51
0.0
  0
ELLIPSE
  5
15E
330
2
100
AcDbEntity
  8
GAIKEI
 62
     1
100
AcDbEllipse
 10
-24.96256647778438
 20
18.57566174578806
 30
0.0
 11
0.1579401784426798
 21
-0.0000000000000137
 31
0.0
210
0.0
220
0.0
230
1.0
 40
0.8275887111205866
 41
0.0
 42
6.283185307179586
  0
DIMENSION
  5
15F
330
2
100
AcDbEntity
  8
SUNPO
100
AcDbDimension
  2
*D8
 10
-13.01634716288129
 20
8.613058969135124
 30
0.0
 11
-24.96636149853333
 21
10.36305896913512
 31
0.0
 70
    33
  1
φ239
 71
     5
 42
23.90002867130409
  3
STANDARD
100
AcDbAlignedDimension
 13
-36.91637583418537
 23
16.61305896913512
 33
0.0
 14
-13.01634716288129
 24
16.61305896913512
 34
0.0
1001
ACAD
1000
DSTYLE
1002
{
1070
   287
1070
     3
1070
   287
1070
     3
1070
    40
1040
1.0
1070
   140
1040
2.5
1070
   147
1040
0.5
1070
   172
1070
     1
1070
   279
1070
     0
1070
   288
1070
     0
1002
}
  0
DIMENSION
  5
16E
330
2
100
AcDbEntity
  8
SUNPO
100
AcDbDimension
  2
*D7
 10
-4.958355107145791
 20
24.32570223901689
 30
0.0
 11
-8.791688440479129
 21
36.23198364242396
 31
0.0
 70
    33
  1
\P238.5
 71
     5
 42
23.81256280681413
  3
STANDARD
100
AcDbAlignedDimension
 13
-12.95835510714579
 23
48.13826504583102
 33
0.0
 14
-12.95835510714579
 24
24.32570223901689
 34
0.0
1001
ACAD
1000
DSTYLE
1002
{
1070
   287
1070
     3
1070
   287
1070
     3
1070
    40
1040
1.0
1070
   140
1040
2.5
1070
   147
1040
0.5
1070
   172
1070
     1
1070
   279
1070
     0
1070
   288
1070
     0
1002
}
  0
LINE
  5
17B
330
2
100
AcDbEntity
  8
GAIKEI
  6
Continuous
100
AcDbLine
 10
-27.76703039569816
 20
48.13826504583108
 30
0.0
 11
-22.16703039569825
 21
48.13826504583108
 31
0.0
  0
LINE
  5
17C
330
2
100
AcDbEntity
  8
GAIKEI
  6
Continuous
 62
     1
100
AcDbLine
 10
-27.8670303956003
 20
48.23826504583099
 30
0.0
 11
-22.06703039569834
 21
48.23826504583099
 31
0.0
  0
LINE
  5
17D
330
2
100
AcDbEntity
  8
GAIKEI
  6
Continuous
100
AcDbLine
 10
-27.76703039560039
 20
48.13826504583108
 30
0.0
 11
-27.8670303956003
 21
48.23826504583099
 31
0.0
  0
LINE
  5
17E
330
2
100
AcDbEntity
  8
GAIKEI
  6
Continuous
100
AcDbLine
 10
-22.06703039569834
 20
48.23826504583099
 30
0.0
 11
-22.16703039569825
 21
48.13826504583108
 31
0.0
  0
ARC
  5
17F
330
2
100
AcDbEntity
  8
GAIKEI
 62
     1
100
AcDbCircle
 10
28.21244644318756
 20
73.05559653989917
 30
0.0
 40
0.5364931358318317
100
AcDbArc
 50
352.4834657675218
 51
21.37384773234483
  0
ARC
  5
180
330
2
100
AcDbEntity
  8
GAIKEI
 62
     1
100
AcDbCircle
 10
28.21226694577581
 20
73.05575302596719
 30
0.0
 40
0.4166440838253731
100
AcDbArc
 50
339.9712669298984
 51
13.89423364001409
  0
ARC
  5
181
330
2
100
AcDbEntity
  8
GAIKEI
 62
     1
100
AcDbCircle
 10
28.22298688968863
 20
73.05341508510645
 30
0.0
 40
0.5252854940321458
100
AcDbArc
 50
341.3181540747223
 51
352.5689689835051
  0
ARC
  5
182
330
2
100
AcDbEntity
  8
GAIKEI
 62
     1
100
AcDbCircle
 10
28.88847208882578
 20
71.24217657777291
 30
0.0
 40
0.8
100
AcDbArc
 50
161.5085046575539
 51
180.0
  0
ARC
  5
183
330
2
100
AcDbEntity
  8
GAIKEI
 62
     1
100
AcDbCircle
 10
29.00839474449242
 20
71.2231188582702
 30
0.0
 40
0.8
100
AcDbArc
 50
161.511556854513
 51
180.0
  0
ARC
  5
184
330
2
100
AcDbEntity
  8
GAIKEI
 62
     1
100
AcDbCircle
 10
27.28847208882587
 20
71.10014467284566
 30
0.0
 40
0.8
100
AcDbArc
 50
0.0
 51
8.951222656084192
  0
ARC
  5
185
330
2
100
AcDbEntity
  8
GAIKEI
 62
     1
100
AcDbCircle
 10
27.17032044284213
 20
71.08209840493259
 30
0.0
 40
0.8
100
AcDbArc
 50
0.0
 51
8.954593975827814
  0
LINE
  5
186
330
2
100
AcDbEntity
  8
GAIKEI
 62
     1
100
AcDbLine
 10
28.7205960449079
 20
72.88515939015804
 30
0.0
 11
28.24968463417099
 21
71.47680955280998
 31
0.0
  0
LINE
  5
187
330
2
100
AcDbEntity
  8
GAIKEI
 62
     1
100
AcDbLine
 10
27.80055651467274
 20
72.99066096697862
 30
0.0
 11
28.07872901624467
 21
71.22461952438829
 31
0.0
  0
LINE
  5
188
330
2
100
AcDbEntity
  8
GAIKEI
 62
     1
100
AcDbLine
 10
27.68240486868899
 20
72.97193886461719
 30
0.0
 11
27.96057004471425
 21
71.20661975547495
 31
0.0
  0
LINE
  5
189
330
2
100
AcDbEntity
  8
GAIKEI
 62
     1
100
AcDbLine
 10
27.97032044284208
 20
71.08209840493259
 30
0.0
 11
27.97032044284208
 21
70.98360099355483
 31
0.0
  0
LINE
  5
18A
330
2
100
AcDbEntity
  8
GAIKEI
 62
     1
100
AcDbLine
 10
27.97032044284208
 20
69.85319081313656
 30
0.0
 11
28.08847208882582
 21
69.85319081313656
 31
0.0
  0
LINE
  5
18B
330
2
100
AcDbEntity
  8
GAIKEI
 62
     1
100
AcDbLine
 10
27.88923349950642
 20
70.98360099355483
 30
0.0
 11
28.08847208882582
 21
70.98360099355483
 31
0.0
  0
LINE
  5
18C
330
2
100
AcDbEntity
  8
GAIKEI
 62
     1
100
AcDbLine
 10
28.28783717883698
 20
70.98360099355483
 30
0.0
 11
28.28783717883698
 21
70.48506176783547
 31
0.0
  0
LINE
  5
18D
330
2
100
AcDbEntity
  8
GAIKEI
 62
     1
100
AcDbLine
 10
28.28783717883698
 20
70.48506176783547
 30
0.0
 11
28.02003521465326
 21
70.48506176783547
 31
0.0
  0
LINE
  5
18E
330
2
100
AcDbEntity
  8
GAIKEI
 62
     1
100
AcDbLine
 10
27.88923349950642
 20
70.48506176783547
 30
0.0
 11
27.88923349950642
 21
70.98360099355483
 31
0.0
  0
LINE
  5
18F
330
2
100
AcDbEntity
  8
GAIKEI
 62
     1
100
AcDbLine
 10
28.08847208882582
 20
70.98360099355483
 30
0.0
 11
28.28783717883698
 21
70.98360099355483
 31
0.0
  0
LINE
  5
190
330
2
100
AcDbEntity
  8
GAIKEI
 62
     1
100
AcDbLine
 10
28.02003521465326
 20
70.48506176783547
 30
0.0
 11
27.88923349950642
 21
70.48506176783547
 31
0.0
  0
LINE
  5
191
330
2
100
AcDbEntity
  8
GAIKEI
 62
     1
100
AcDbLine
 10
27.97032044284208
 20
70.48506176783547
 30
0.0
 11
27.97032044284208
 21
69.85319081313656
 31
0.0
  0
LINE
  5
192
330
2
100
AcDbEntity
  8
GAIKEI
 62
     1
100
AcDbLine
 10
28.08847208882582
 20
70.98360099355483
 30
0.0
 11
28.08847208882582
 21
71.24217657777291
 31
0.0
  0
LINE
  5
193
330
2
100
AcDbEntity
  8
GAIKEI
 62
     1
100
AcDbLine
 10
28.20839474449235
 20
70.98360099355483
 30
0.0
 11
28.20839474449235
 21
71.2231188582702
 31
0.0
  0
LINE
  5
194
330
2
100
AcDbEntity
  8
GAIKEI
 62
     1
100
AcDbLine
 10
28.60371280542608
 20
72.91305603388252
 30
0.0
 11
28.12977549390917
 21
71.49590768911281
 31
0.0
  0
LINE
  5
195
330
2
100
AcDbEntity
  8
GAIKEI
 62
     1
100
AcDbLine
 10
28.08847208882582
 20
70.48506176783547
 30
0.0
 11
28.08847208882582
 21
68.35297950315862
 31
0.0
  0
LINE
  5
196
330
2
100
AcDbEntity
  8
GAIKEI
 62
     1
100
AcDbLine
 10
28.20839474449235
 20
70.48506176783547
 30
0.0
 11
28.20839474449235
 21
68.35631792024372
 31
0.0
  0
ARC
  5
197
330
2
100
AcDbEntity
  8
GAIKEI
 62
     1
100
AcDbCircle
 10
28.22029717380502
 20
73.01561117923109
 30
0.0
 40
0.420481550154376
100
AcDbArc
 50
19.47558807048032
 51
105.1970521545522
  0
ARC
  5
198
330
2
100
AcDbEntity
  8
GAIKEI
 62
     1
100
AcDbCircle
 10
28.22672395743251
 20
73.00272975059158
 30
0.0
 40
0.5451892781682551
100
AcDbArc
 50
27.10406873248607
 51
111.9396074291578
  0
ARC
  5
199
330
2
100
AcDbEntity
  8
GAIKEI
 62
     1
100
AcDbCircle
 10
28.30739047517375
 20
73.01193831125761
 30
0.0
 40
0.1499999999998565
100
AcDbArc
 50
224.9999999999539
 51
45.00000000004606
  0
LINE
  5
19A
330
2
100
AcDbEntity
  8
GAIKEI
  6
Continuous
 62
     1
100
AcDbLine
 10
28.08839474449246
 20
68.35631792024372
 30
0.0
 11
27.8733737550183
 21
65.98251606531096
 31
0.0
  0
LINE
  5
19B
330
2
100
AcDbEntity
  8
GAIKEI
  6
Continuous
 62
     1
100
AcDbLine
 10
27.8733737550183
 20
65.98251606531096
 30
0.0
 11
28.23372712386527
 21
54.66873884042053
 31
0.0
  0
LINE
  5
19C
330
2
100
AcDbEntity
  8
GAIKEI
  6
Continuous
 62
     1
100
AcDbLine
 10
28.20839474449235
 20
68.35631792024372
 30
0.0
 11
27.99247929321519
 21
65.99714038651939
 31
0.0
  0
LINE
  5
19D
330
2
100
AcDbEntity
  8
GAIKEI
  6
Continuous
 62
     1
100
AcDbLine
 10
27.99247929321519
 20
65.99714038651939
 30
0.0
 11
28.35016261101873
 21
54.69776946789244
 31
0.0
  0
ARC
  5
19E
330
2
100
AcDbEntity
  8
GAIKEI
 62
     1
100
AcDbCircle
 10
28.22672395743251
 20
73.00272975059158
 30
0.0
 40
0.5451892781682551
100
AcDbArc
 50
144.1236970273068
 51
183.2376407693718
  0
ARC
  5
19F
330
2
100
AcDbEntity
  8
GAIKEI
 62
     1
100
AcDbCircle
 10
28.22029717380502
 20
73.01561117923109
 30
0.0
 40
0.420481550154376
100
AcDbArc
 50
147.5005556974819
 51
183.4017713075998
  0
LINE
  5
1A0
330
2
100
AcDbEntity
  8
GAIKEI
  6
Continuous
 62
     1
100
AcDbLine
 10
28.41345649235154
 20
73.11800432843563
 30
0.0
 11
25.09102740862
 21
76.44043341216718
 31
0.0
  0
LINE
  5
1A1
330
2
100
AcDbEntity
  8
GAIKEI
  6
Continuous
 62
     1
100
AcDbLine
 10
24.87889537426418
 20
76.22830137781114
 30
0.0
 11
28.20132445799572
 21
72.90587229407981
 31
0.0
  0
ARC
  5
1A2
330
2
100
AcDbEntity
  8
GAIKEI
 62
     1
100
AcDbCircle
 10
24.98111594940883
 20
76.33821283702241
 30
0.0
 40
0.1500985504554332
100
AcDbArc
 50
42.92364090636783
 51
227.076359093752
  0
LINE
  5
1A3
330
2
100
AcDbEntity
  8
GAIKEI
  6
Continuous
100
AcDbLine
 10
18.35118707301899
 20
48.13870433063311
 30
0.0
 11
23.9511870730189
 21
48.13870433063311
 31
0.0
  0
LINE
  5
1A4
330
2
100
AcDbEntity
  8
GAIKEI
  6
Continuous
100
AcDbLine
 10
18.35118707311676
 20
48.13870433063311
 30
0.0
 11
18.25118707311685
 21
48.23870433063302
 31
0.0
  0
LINE
  5
1A5
330
2
100
AcDbEntity
  8
GAIKEI
  6
Continuous
100
AcDbLine
 10
24.05118707301881
 20
48.23870433063302
 30
0.0
 11
23.9511870730189
 21
48.13870433063311
 31
0.0
  0
POLYLINE
  5
1A6
330
2
100
AcDbEntity
  8
GAIKEI
  6
Continuous
 62
     1
100
AcDb2dPolyline
 66
     1
 10
0.0
 20
0.0
 30
0.0
 70
   128
210
0.0
220
0.0
230
-1.0
  0
VERTEX
  5
1A7
330
1A6
100
AcDbEntity
  8
GAIKEI
  6
Continuous
 62
     1
100
AcDbVertex
100
AcDb2dVertex
 10
-16.18584309381435
 20
31.82106609066159
 30
0.0
1001
ACAD
1000
R13OBJECT
1002
{
1005
0
1002
}
  0
VERTEX
  5
1A8
330
1A6
100
AcDbEntity
  8
GAIKEI
  6
Continuous
 62
     1
100
AcDbVertex
100
AcDb2dVertex
 10
-16.19117128570474
 20
31.82088902208602
 30
0.0
1001
ACAD
1000
R13OBJECT
1002
{
1005
0
1002
}
  0
VERTEX
  5
1A9
330
1A6
100
AcDbEntity
  8
GAIKEI
  6
Continuous
 62
     1
100
AcDbVertex
100
AcDb2dVertex
 10
-16.19649947759535
 20
31.82035781636682
 30
0.0
1001
ACAD
1000
R13OBJECT
1002
{
1005
0
1002
}
  0
SEQEND
  5
1AA
330
1A6
100
AcDbEntity
  8
GAIKEI
  6
Continuous
 62
     1
  0
POLYLINE
  5
1AB
330
2
100
AcDbEntity
  8
GAIKEI
  6
Continuous
 62
     1
100
AcDb2dPolyline
 66
     1
 10
0.0
 20
0.0
 30
0.0
 70
   128
210
0.0
220
0.0
230
-1.0
  0
VERTEX
  5
1AC
330
1AB
100
AcDbEntity
  8
GAIKEI
  6
Continuous
 62
     1
100
AcDbVertex
100
AcDb2dVertex
 10
-16.18584309362336
 20
31.78465624220098
 30
0.0
1001
ACAD
1000
R13OBJECT
1002
{
1005
0
1002
}
  0
VERTEX
  5
1AD
330
1AB
100
AcDbEntity
  8
GAIKEI
  6
Continuous
 62
     1
100
AcDbVertex
100
AcDb2dVertex
 10
-16.19010570869591
 20
31.78451452275794
 30
0.0
1001
ACAD
1000
R13OBJECT
1002
{
1005
0
1002
}
  0
VERTEX
  5
1AE
330
1AB
100
AcDbEntity
  8
GAIKEI
  6
Continuous
 62
     1
100
AcDbVertex
100
AcDb2dVertex
 10
-16.19436832376846
 20
31.78408936440974
 30
0.0
1001
ACAD
1000
R13OBJECT
1002
{
1005
0
1002
}
  0
SEQEND
  5
1AF
330
1AB
100
AcDbEntity
  8
GAIKEI
  6
Continuous
 62
     1
  0
POLYLINE
  5
1B0
330
2
100
AcDbEntity
  8
GAIKEI
  6
Continuous
 62
     1
100
AcDb2dPolyline
 66
     1
 10
0.0
 20
0.0
 30
0.0
 70
   128
210
0.0
220
0.0
230
-1.0
  0
VERTEX
  5
1B1
330
1B0
100
AcDbEntity
  8
GAIKEI
  6
Continuous
 62
     1
100
AcDbVertex
100
AcDb2dVertex
 10
-16.18584309373273
 20
31.82106609066159
 30
0.0
1001
ACAD
1000
R13OBJECT
1002
{
1005
0
1002
}
  0
VERTEX
  5
1B2
330
1B0
100
AcDbEntity
  8
GAIKEI
  6
Continuous
 62
     1
100
AcDbVertex
100
AcDb2dVertex
 10
-16.19121301327891
 20
31.82088911319079
 30
0.0
1001
ACAD
1000
R13OBJECT
1002
{
1005
0
1002
}
  0
VERTEX
  5
1B3
330
1B0
100
AcDbEntity
  8
GAIKEI
  6
Continuous
 62
     1
100
AcDbVertex
100
AcDb2dVertex
 10
-16.19658293282509
 20
31.82035818077543
 30
0.0
1001
ACAD
1000
R13OBJECT
1002
{
1005
0
1002
}
  0
SEQEND
  5
1B4
330
1B0
100
AcDbEntity
  8
GAIKEI
  6
Continuous
 62
     1
  0
POLYLINE
  5
1B5
330
2
100
AcDbEntity
  8
GAIKEI
  6
Continuous
 62
     1
100
AcDb2dPolyline
 66
     1
 10
0.0
 20
0.0
 30
0.0
 70
   128
210
0.0
220
0.0
230
-1.0
  0
VERTEX
  5
1B6
330
1B5
100
AcDbEntity
  8
GAIKEI
  6
Continuous
 62
     1
100
AcDbVertex
100
AcDb2dVertex
 10
-16.18584309372591
 20
31.78465624220098
 30
0.0
1001
ACAD
1000
R13OBJECT
1002
{
1005
0
1002
}
  0
VERTEX
  5
1B7
330
1B5
100
AcDbEntity
  8
GAIKEI
  6
Continuous
 62
     1
100
AcDbVertex
100
AcDb2dVertex
 10
-16.19014149494592
 20
31.78451460091583
 30
0.0
1001
ACAD
1000
R13OBJECT
1002
{
1005
0
1002
}
  0
VERTEX
  5
1B8
330
1B5
100
AcDbEntity
  8
GAIKEI
  6
Continuous
 62
     1
100
AcDbVertex
100
AcDb2dVertex
 10
-16.19443989616548
 20
31.78408967705514
 30
0.0
1001
ACAD
1000
R13OBJECT
1002
{
1005
0
1002
}
  0
SEQEND
  5
1B9
330
1B5
100
AcDbEntity
  8
GAIKEI
  6
Continuous
 62
     1
  0
LINE
  5
1BA
330
2
100
AcDbEntity
  8
GAIKEI
100
AcDbLine
 10
10.8468259193109
 20
24.36086943129027
 30
0.0
 11
31.44662039099831
 21
24.36086943129027
 31
0.0
  0
LINE
  5
1BB
330
2
100
AcDbEntity
  8
GAIKEI
100
AcDbLine
 10
32.66638213787661
 20
25.00905897520954
 30
0.0
 11
32.66638213787655
 21
24.84954160306234
 31
0.0
  0
LINE
  5
1BC
330
2
100
AcDbEntity
  8
GAIKEI
 62
     1
100
AcDbLine
 10
27.87934296516108
 20
23.97048829691573
 30
0.0
 11
27.87934296516108
 21
22.87094428525563
 31
0.0
  0
LINE
  5
1BD
330
2
100
AcDbEntity
  8
GAIKEI
 62
     1
100
AcDbLine
 10
27.77915441738901
 20
22.31864226559287
 30
0.0
 11
27.77915441738901
 21
22.64779706521779
 31
0.0
  0
LINE
  5
1BE
330
2
100
AcDbEntity
  8
GAIKEI
 62
     1
100
AcDbLine
 10
27.71084404390803
 20
23.04703324800653
 30
0.0
 11
27.71084404390803
 21
22.87094428525563
 31
0.0
  0
LINE
  5
1BF
330
2
100
AcDbEntity
  8
GAIKEI
 62
     1
100
AcDbLine
 10
27.60837848368664
 20
22.35355645648315
 30
0.0
 11
27.60837848368664
 21
22.64779706521779
 31
0.0
  0
LINE
  5
1C0
330
2
100
AcDbEntity
  8
GAIKEI
 62
     1
100
AcDbLine
 10
27.60686047538701
 20
23.04703324800653
 30
0.0
 11
27.60686047538701
 21
22.87094428525563
 31
0.0
  0
LINE
  5
1C1
330
2
100
AcDbEntity
  8
GAIKEI
 62
     1
100
AcDbLine
 10
27.5350080825404
 20
22.87094428525563
 30
0.0
 11
27.5350080825404
 21
23.97048829691573
 31
0.0
  0
LINE
  5
1C2
330
2
100
AcDbEntity
  8
GAIKEI
 62
     1
100
AcDbLine
 10
27.50338290963254
 20
22.35355645648315
 30
0.0
 11
27.50338290963254
 21
22.64779706521779
 31
0.0
  0
LINE
  5
1C3
330
2
100
AcDbEntity
  8
GAIKEI
 62
     1
100
AcDbLine
 10
27.35158207967487
 20
22.64779706521779
 30
0.0
 11
27.35158207967487
 21
23.97048829691573
 31
0.0
  0
LINE
  5
1C4
330
2
100
AcDbEntity
  8
GAIKEI
 62
     1
100
AcDbLine
 10
27.60686047538701
 20
23.04703324800653
 30
0.0
 11
27.71084404390803
 21
23.04703324800653
 31
0.0
  0
LINE
  5
1C5
330
2
100
AcDbEntity
  8
GAIKEI
 62
     1
100
AcDbLine
 10
27.27213964533035
 20
22.02693683398456
 30
0.0
 11
27.27213964533035
 21
23.97048829691573
 31
0.0
  0
LINE
  5
1C6
330
2
100
AcDbEntity
  8
GAIKEI
 62
     1
100
AcDbLine
 10
27.87934296516108
 20
22.87094428525563
 30
0.0
 11
27.71084404390803
 21
22.87094428525563
 31
0.0
  0
LINE
  5
1C7
330
2
100
AcDbEntity
  8
GAIKEI
 62
     1
100
AcDbLine
 10
27.35158207967487
 20
22.64779706521779
 30
0.0
 11
27.50338290963254
 21
22.64779706521779
 31
0.0
  0
LINE
  5
1C8
330
2
100
AcDbEntity
  8
GAIKEI
 62
     1
100
AcDbLine
 10
27.60837848368664
 20
22.64779706521779
 30
0.0
 11
27.77915441738901
 21
22.64779706521779
 31
0.0
  0
LINE
  5
1C9
330
2
100
AcDbEntity
  8
GAIKEI
 62
     1
100
AcDbLine
 10
27.60837848368664
 20
22.35355645648315
 30
0.0
 11
27.50338290963254
 21
22.35355645648315
 31
0.0
  0
LINE
  5
1CA
330
2
100
AcDbEntity
  8
GAIKEI
 62
     1
100
AcDbLine
 10
27.77915441738901
 20
22.31864226559287
 30
0.0
 11
27.56992227343068
 21
22.31864226559287
 31
0.0
  0
LINE
  5
1CB
330
2
100
AcDbEntity
  8
GAIKEI
 62
     1
100
AcDbLine
 10
27.72956614626946
 20
22.27006600000647
 30
0.0
 11
27.52033400231119
 21
22.27006600000647
 31
0.0
  0
LINE
  5
1CC
330
2
100
AcDbEntity
  8
GAIKEI
 62
     1
100
AcDbLine
 10
27.77915441738901
 20
22.31864226559287
 30
0.0
 11
27.72956614626946
 21
22.27006600000647
 31
0.0
  0
LINE
  5
1CD
330
2
100
AcDbEntity
  8
GAIKEI
100
AcDbLine
 10
32.51685832036827
 20
25.00905897520954
 30
0.0
 11
32.51685832036827
 21
24.84954160306234
 31
0.0
  0
LINE
  5
1CE
330
2
100
AcDbEntity
  8
GAIKEI
100
AcDbLine
 10
32.41692277397948
 20
24.84954160306239
 30
0.0
 11
32.41692277397948
 21
24.94922414806791
 31
0.0
  0
LINE
  5
1CF
330
2
100
AcDbEntity
  8
GAIKEI
100
AcDbLine
 10
31.81844800187128
 20
24.84954160306234
 30
0.0
 11
31.81844800187128
 21
24.94922414806791
 31
0.0
  0
LINE
  5
1D0
330
2
100
AcDbEntity
  8
GAIKEI
100
AcDbLine
 10
32.66638213787655
 20
24.84954160306234
 30
0.0
 11
32.41844078227905
 21
24.84954160306234
 31
0.0
  0
LINE
  5
1D1
330
2
100
AcDbEntity
  8
GAIKEI
100
AcDbLine
 10
31.81844800187128
 20
24.84954160306234
 30
0.0
 11
31.62806446096607
 21
24.84954160306234
 31
0.0
  0
LINE
  5
1D2
330
2
100
AcDbEntity
  8
GAIKEI
100
AcDbLine
 10
32.41692277397948
 20
24.94922414806791
 30
0.0
 11
31.81844800187128
 21
24.94922414806791
 31
0.0
  0
LINE
  5
1D3
330
2
100
AcDbEntity
  8
GAIKEI
100
AcDbLine
 10
10.64134671793323
 20
25.00905897520954
 30
0.0
 11
32.79487140584456
 21
25.00905897520954
 31
0.0
  0
LINE
  5
1D4
330
2
100
AcDbEntity
  8
GAIKEI
100
AcDbLine
 10
33.04335419893817
 20
25.40829515799828
 30
0.0
 11
9.250092111371031
 21
25.40829515799828
 31
0.0
  0
LINE
  5
1D5
330
2
100
AcDbEntity
  8
GAIKEI
100
AcDbLine
 10
9.523333605294851
 20
25.00905897520954
 30
0.0
 11
10.64134671793317
 21
25.00905897520954
 31
0.0
  0
LINE
  5
1D6
330
2
100
AcDbEntity
  8
GAIKEI
 62
     1
100
AcDbLine
 10
21.14672315515457
 20
16.62079811313128
 30
0.0
 11
21.14672315515457
 21
16.06343606580333
 31
0.0
  0
ARC
  5
1D7
330
2
100
AcDbEntity
  8
GAIKEI
100
AcDbCircle
 10
9.523333605294851
 20
25.20905897520959
 30
0.0
 40
0.2
100
AcDbArc
 50
197.7829386262099
 51
270.0
  0
LINE
  5
1D8
330
2
100
AcDbEntity
  8
GAIKEI
100
AcDbLine
 10
9.24983910998776
 20
25.41993322162836
 30
0.0
 11
9.332889529374142
 21
25.14797662140165
 31
0.0
  0
ARC
  5
1D9
330
2
100
AcDbEntity
  8
GAIKEI
100
AcDbCircle
 10
48.55006316434134
 20
23.89380887437642
 30
0.0
 40
39.32984447268598
100
AcDbArc
 50
174.030089386385
 51
177.7761813402002
  0
ARC
  5
1DA
330
2
100
AcDbEntity
  8
GAIKEI
100
AcDbCircle
 10
64.02491292481006
 20
22.72663338935024
 30
0.0
 40
54.84399717788395
100
AcDbArc
 50
169.0810768121813
 51
174.4987849794049
  0
ARC
  5
1DB
330
2
100
AcDbEntity
  8
GAIKEI
100
AcDbCircle
 10
-21.73146661450084
 20
22.72663338935024
 30
0.0
 40
54.84399717788395
100
AcDbArc
 50
5.501215020595057
 51
10.91892318781866
  0
ARC
  5
1DC
330
2
100
AcDbEntity
  8
GAIKEI
100
AcDbCircle
 10
-6.256616854032131
 20
23.89380887437642
 30
0.0
 40
39.32984447268598
100
AcDbArc
 50
2.223818659799804
 51
5.969910613614938
  0
LINE
  5
1DD
330
2
100
AcDbEntity
  8
GAIKEI
100
AcDbLine
 10
33.04360720032145
 20
25.41993322162836
 30
0.0
 11
32.96011356116111
 21
25.15961468503178
 31
0.0
  0
ARC
  5
1DE
330
2
100
AcDbEntity
  8
GAIKEI
100
AcDbCircle
 10
32.7809291663246
 20
25.19031972956634
 30
0.0
 40
0.181796169136783
100
AcDbArc
 50
274.3984239779258
 51
350.2762361205055
  0
LINE
  5
1DF
330
2
100
AcDbEntity
  8
GAIKEI
100
AcDbLine
 10
30.22340078109096
 20
39.28326295945471
 30
0.0
 11
31.35052194352676
 21
35.16182409828179
 31
0.0
  0
LINE
  5
1E0
330
2
100
AcDbEntity
  8
GAIKEI
100
AcDbLine
 10
31.35052194352676
 20
35.16182409828184
 30
0.0
 11
31.8275647965192
 21
34.61519563891631
 31
0.0
  0
LINE
  5
1E1
330
2
100
AcDbEntity
  8
GAIKEI
 62
     1
100
AcDbLine
 10
29.93447320140484
 20
38.70207245427821
 30
0.0
 11
30.45464404539314
 21
36.80721859433146
 31
0.0
  0
LINE
  5
1E2
330
2
100
AcDbEntity
  8
GAIKEI
 62
     1
100
AcDbLine
 10
30.45464404539314
 20
36.80721859433146
 30
0.0
 11
26.10732127678841
 21
36.80721859433146
 31
0.0
  0
LINE
  5
1E3
330
2
100
AcDbEntity
  8
GAIKEI
 62
     1
100
AcDbLine
 10
26.10732127678841
 20
36.80721859433146
 30
0.0
 11
25.58993344801598
 21
38.70207245427821
 31
0.0
  0
LINE
  5
1E4
330
2
100
AcDbEntity
  8
GAIKEI
 62
     1
100
AcDbLine
 10
25.58993344801598
 20
38.70207245427821
 30
0.0
 11
29.93447320140484
 21
38.70207245427821
 31
0.0
  0
ARC
  5
1E5
330
2
100
AcDbEntity
  8
GAIKEI
100
AcDbCircle
 10
-10.44030956916879
 20
25.60645117471552
 30
0.0
 40
43.21724979929718
100
AcDbArc
 50
10.00554855145367
 51
12.03168114390723
  0
LINE
  5
1E6
330
2
100
AcDbEntity
  8
GAIKEI
100
AcDbLine
 10
30.59210953114183
 20
24.36086943129027
 30
0.0
 11
30.0721072725803
 21
24.15761722403749
 31
0.0
  0
LINE
  5
1E7
330
2
100
AcDbEntity
  8
GAIKEI
100
AcDbLine
 10
30.0721072725803
 20
24.15761722403749
 30
0.0
 11
29.51242975119646
 21
23.97540093856651
 31
0.0
  0
ARC
  5
1E8
330
2
100
AcDbEntity
  8
GAIKEI
100
AcDbCircle
 10
29.48147180743126
 20
24.07048829691575
 30
0.0
 40
0.1
100
AcDbArc
 50
270.0
 51
288.0338872864457
  0
LINE
  5
1E9
330
2
100
AcDbEntity
  8
GAIKEI
100
AcDbLine
 10
12.79610574335027
 20
23.97048829691573
 30
0.0
 11
29.48147180743126
 21
23.97048829691573
 31
0.0
  0
ARC
  5
1EA
330
2
100
AcDbEntity
  8
GAIKEI
 62
     1
100
AcDbCircle
 10
27.19082178031454
 20
25.84199000567583
 30
0.0
 40
1.79962810126059
100
AcDbArc
 50
272.1303216894744
 51
304.612263732898
  0
ARC
  5
1EB
330
2
100
AcDbEntity
  8
GAIKEI
 62
     1
100
AcDbCircle
 10
27.0766638462984
 20
24.10599962448362
 30
0.0
 40
0.036588548234881
100
AcDbArc
 50
169.8904013536323
 51
220.8621011439614
  0
ARC
  5
1EC
330
2
100
AcDbEntity
  8
GAIKEI
 62
     1
100
AcDbCircle
 10
27.22704078738428
 20
24.80442233240342
 30
0.0
 40
0.7614348818684209
100
AcDbArc
 50
262.2811216575441
 51
272.3090394024104
  0
ARC
  5
1ED
330
2
100
AcDbEntity
  8
GAIKEI
 62
     1
100
AcDbCircle
 10
27.11835284863196
 20
24.15323648658318
 30
0.0
 40
0.0993815330630986
100
AcDbArc
 50
225.739586042814
 51
242.2588463185054
  0
ARC
  5
1EE
330
2
100
AcDbEntity
  8
GAIKEI
 62
     1
100
AcDbCircle
 10
27.15303833517379
 20
24.24447869627409
 30
0.0
 40
0.1966343723822126
100
AcDbArc
 50
245.6912001544821
 51
261.7345897828967
  0
ARC
  5
1EF
330
2
100
AcDbEntity
  8
GAIKEI
 62
     1
100
AcDbCircle
 10
27.12796499992527
 20
24.09301325252443
 30
0.0
 40
0.0894526001733724
100
AcDbArc
 50
140.3278125300795
 51
167.4686813004099
  0
ARC
  5
1F0
330
2
100
AcDbEntity
  8
GAIKEI
 62
     1
100
AcDbCircle
 10
27.29228843787189
 20
23.95601596387724
 30
0.0
 40
0.3033926894193737
100
AcDbArc
 50
125.7512971055134
 51
140.2248929187705
  0
ARC
  5
1F1
330
2
100
AcDbEntity
  8
GAIKEI
 62
     1
100
AcDbCircle
 10
27.9279830641953
 20
23.03535237393715
 30
0.0
 40
1.422153501699292
100
AcDbArc
 50
111.243462654155
 51
124.8645420966876
  0
ARC
  5
1F2
330
2
100
AcDbEntity
  8
GAIKEI
 62
     1
100
AcDbCircle
 10
14.3654632461139
 20
23.03535237393715
 30
0.0
 40
1.422153501699292
100
AcDbArc
 50
55.13545790331235
 51
68.75653734584499
  0
ARC
  5
1F3
330
2
100
AcDbEntity
  8
GAIKEI
 62
     1
100
AcDbCircle
 10
15.00115787243732
 20
23.95601596387724
 30
0.0
 40
0.3033926894193737
100
AcDbArc
 50
39.77510708122947
 51
54.24870289448658
  0
ARC
  5
1F4
330
2
100
AcDbEntity
  8
GAIKEI
 62
     1
100
AcDbCircle
 10
15.16548131038394
 20
24.09301325252443
 30
0.0
 40
0.0894526001733724
100
AcDbArc
 50
12.53131869959005
 51
39.67218746992044
  0
ARC
  5
1F5
330
2
100
AcDbEntity
  8
GAIKEI
 62
     1
100
AcDbCircle
 10
15.14040797513542
 20
24.24447869627409
 30
0.0
 40
0.1966343723822126
100
AcDbArc
 50
278.2654102171033
 51
294.3087998455157
  0
ARC
  5
1F6
330
2
100
AcDbEntity
  8
GAIKEI
 62
     1
100
AcDbCircle
 10
15.17509346167725
 20
24.15323648658318
 30
0.0
 40
0.0993815330630986
100
AcDbArc
 50
297.7411536814924
 51
314.260413957186
  0
ARC
  5
1F7
330
2
100
AcDbEntity
  8
GAIKEI
 62
     1
100
AcDbCircle
 10
15.06640552292492
 20
24.80442233240342
 30
0.0
 40
0.7614348818684209
100
AcDbArc
 50
267.6909605975897
 51
277.7188783424559
  0
ARC
  5
1F8
330
2
100
AcDbEntity
  8
GAIKEI
 62
     1
100
AcDbCircle
 10
15.2167824640108
 20
24.10599962448362
 30
0.0
 40
0.036588548234881
100
AcDbArc
 50
319.1378988560386
 51
10.10959864636765
  0
ARC
  5
1F9
330
2
100
AcDbEntity
  8
GAIKEI
 62
     1
100
AcDbCircle
 10
15.10262452999467
 20
25.84199000567583
 30
0.0
 40
1.79962810126059
100
AcDbArc
 50
235.3877362671006
 51
267.8696783105256
  0
LINE
  5
1FA
330
2
100
AcDbEntity
  8
GAIKEI
100
AcDbLine
 10
12.22133903772897
 20
24.15761722403749
 30
0.0
 11
12.79610574335027
 21
23.97048829691573
 31
0.0
  0
LINE
  5
1FB
330
2
100
AcDbEntity
  8
GAIKEI
100
AcDbLine
 10
11.70133677916743
 20
24.36086943129027
 30
0.0
 11
12.22133903772897
 21
24.15761722403749
 31
0.0
  0
ARC
  5
1FC
330
2
100
AcDbEntity
  8
GAIKEI
100
AcDbCircle
 10
78.46825954484621
 20
27.78356486053155
 30
0.0
 40
65.44476126189625
100
AcDbArc
 50
183.3401755542463
 51
184.6933718267825
  0
ARC
  5
1FD
330
2
100
AcDbEntity
  8
GAIKEI
100
AcDbCircle
 10
21.11644948442233
 20
23.51032610174264
 30
0.0
 40
7.947457734105853
100
AcDbArc
 50
187.8223264203954
 51
225.8042096623955
  0
ARC
  5
1FE
330
2
100
AcDbEntity
  8
GAIKEI
100
AcDbCircle
 10
21.1363685498406
 20
23.4982617445047
 30
0.0
 40
7.952726251192598
100
AcDbArc
 50
225.64072804772
 51
270.0746002480039
  0
ARC
  5
1FF
330
2
100
AcDbEntity
  8
GAIKEI
100
AcDbCircle
 10
21.15707776046861
 20
23.4982617445047
 30
0.0
 40
7.952726251192598
100
AcDbArc
 50
269.9253997519961
 51
314.35927195228
  0
ARC
  5
200
330
2
100
AcDbEntity
  8
GAIKEI
100
AcDbCircle
 10
21.17699682588693
 20
23.51032610174264
 30
0.0
 40
7.947457734105853
100
AcDbArc
 50
314.1957903376046
 51
352.1776735796046
  0
ARC
  5
201
330
2
100
AcDbEntity
  8
GAIKEI
100
AcDbCircle
 10
-36.17481323453694
 20
27.78356486053155
 30
0.0
 40
65.44476126189625
100
AcDbArc
 50
355.3066281732142
 51
356.6598244457537
  0
ARC
  5
202
330
2
100
AcDbEntity
  8
GAIKEI
100
AcDbCircle
 10
28.71256400951035
 20
25.61484488195913
 30
0.0
 40
3.007909361672164
100
AcDbArc
 50
335.3614346032492
 51
345.2601696648342
  0
ARC
  5
203
330
2
100
AcDbEntity
  8
GAIKEI
100
AcDbCircle
 10
13.58088230079886
 20
25.61484488195913
 30
0.0
 40
3.007909361672164
100
AcDbArc
 50
194.7398303351626
 51
204.6385653967508
  0
LINE
  5
204
330
2
100
AcDbEntity
  8
GAIKEI
100
AcDbLine
 10
10.47499830843793
 20
24.84954160306234
 30
0.0
 11
10.66538184934319
 21
24.84954160306234
 31
0.0
  0
LINE
  5
205
330
2
100
AcDbEntity
  8
GAIKEI
100
AcDbLine
 10
10.47499830843793
 20
24.84954160306234
 30
0.0
 11
10.47499830843793
 21
25.00905897520954
 31
0.0
  0
LINE
  5
206
330
2
100
AcDbEntity
  8
GAIKEI
 62
     1
100
AcDbLine
 10
27.16417849302218
 20
23.97048829691573
 30
0.0
 11
27.15618419976062
 21
21.01294539898856
 31
0.0
  0
LINE
  5
207
330
2
100
AcDbEntity
  8
GAIKEI
 62
     1
100
AcDbLine
 10
27.56992227343068
 20
22.31864226559287
 30
0.0
 11
27.27213964533035
 21
22.02693683398456
 31
0.0
  0
LINE
  5
208
330
2
100
AcDbEntity
  8
GAIKEI
 62
     1
100
AcDbLine
 10
27.60686047538701
 20
22.87094428525563
 30
0.0
 11
27.5350080825404
 21
22.87094428525563
 31
0.0
  0
ARC
  5
209
330
2
100
AcDbEntity
  8
GAIKEI
 62
     1
100
AcDbCircle
 10
19.71110070160796
 20
22.99806583416978
 30
0.0
 40
7.705191200524453
100
AcDbArc
 50
316.950107251062
 51
345.0702724587854
  0
ARC
  5
20A
330
2
100
AcDbEntity
  8
GAIKEI
 62
     1
100
AcDbCircle
 10
21.17411515790167
 20
22.08605107952826
 30
0.0
 40
6.022677305431433
100
AcDbArc
 50
269.739409654361
 51
313.7877771019121
  0
ARC
  5
20B
330
2
100
AcDbEntity
  8
GAIKEI
 62
     1
100
AcDbCircle
 10
21.33850709862355
 20
22.75677065381285
 30
0.0
 40
6.073408711132298
100
AcDbArc
 50
300.2396937503251
 51
343.3141098693812
  0
ARC
  5
20C
330
2
100
AcDbEntity
  8
GAIKEI
 62
     1
100
AcDbCircle
 10
21.15121312221754
 20
22.99771871486803
 30
0.0
 40
6.376162993194777
100
AcDbArc
 50
269.9596534491985
 51
300.8040792401012
  0
ARC
  5
20D
330
2
100
AcDbEntity
  8
GAIKEI
 62
     1
100
AcDbCircle
 10
20.95493921168566
 20
22.75677065381285
 30
0.0
 40
6.073408711132298
100
AcDbArc
 50
196.6858901306188
 51
239.7603062496748
  0
ARC
  5
20E
330
2
100
AcDbEntity
  8
GAIKEI
 62
     1
100
AcDbCircle
 10
22.5823456087013
 20
22.99806583416978
 30
0.0
 40
7.705191200524453
100
AcDbArc
 50
194.9297275412146
 51
223.049892748938
  0
LINE
  5
20F
330
2
100
AcDbEntity
  8
GAIKEI
 62
     1
100
AcDbLine
 10
15.12933825563209
 20
23.94442915443972
 30
0.0
 11
15.13726211054859
 21
21.01294539898856
 31
0.0
  0
LINE
  5
210
330
2
100
AcDbEntity
  8
GAIKEI
 62
     1
100
AcDbLine
 10
14.6865858349222
 20
22.87094428525563
 30
0.0
 11
14.7584382277688
 21
22.87094428525563
 31
0.0
  0
LINE
  5
211
330
2
100
AcDbEntity
  8
GAIKEI
 62
     1
100
AcDbLine
 10
14.72352403687853
 20
22.31864226559287
 30
0.0
 11
15.02130666497885
 21
22.02693683398456
 31
0.0
  0
LINE
  5
212
330
2
100
AcDbEntity
  8
GAIKEI
 62
     1
100
AcDbLine
 10
14.5142918929202
 20
22.31864226559287
 30
0.0
 11
14.56388016403974
 21
22.27006600000647
 31
0.0
  0
LINE
  5
213
330
2
100
AcDbEntity
  8
GAIKEI
 62
     1
100
AcDbLine
 10
14.56388016403974
 20
22.27006600000647
 30
0.0
 11
14.77311230799807
 21
22.27006600000647
 31
0.0
  0
LINE
  5
214
330
2
100
AcDbEntity
  8
GAIKEI
 62
     1
100
AcDbLine
 10
14.5142918929202
 20
22.31864226559287
 30
0.0
 11
14.72352403687853
 21
22.31864226559287
 31
0.0
  0
LINE
  5
215
330
2
100
AcDbEntity
  8
GAIKEI
 62
     1
100
AcDbLine
 10
14.68506782662263
 20
22.35355645648315
 30
0.0
 11
14.79006340067667
 21
22.35355645648315
 31
0.0
  0
LINE
  5
216
330
2
100
AcDbEntity
  8
GAIKEI
 62
     1
100
AcDbLine
 10
14.68506782662263
 20
22.64779706521779
 30
0.0
 11
14.5142918929202
 21
22.64779706521779
 31
0.0
  0
LINE
  5
217
330
2
100
AcDbEntity
  8
GAIKEI
 62
     1
100
AcDbLine
 10
14.94186423063434
 20
22.64779706521779
 30
0.0
 11
14.79006340067667
 21
22.64779706521779
 31
0.0
  0
LINE
  5
218
330
2
100
AcDbEntity
  8
GAIKEI
 62
     1
100
AcDbLine
 10
14.41410334514813
 20
22.87094428525563
 30
0.0
 11
14.58260226640118
 21
22.87094428525563
 31
0.0
  0
LINE
  5
219
330
2
100
AcDbEntity
  8
GAIKEI
 62
     1
100
AcDbLine
 10
15.02130666497885
 20
22.02693683398456
 30
0.0
 11
15.02130666497885
 21
23.94442915443972
 31
0.0
  0
LINE
  5
21A
330
2
100
AcDbEntity
  8
GAIKEI
 62
     1
100
AcDbLine
 10
14.6865858349222
 20
23.04703324800653
 30
0.0
 11
14.58260226640118
 21
23.04703324800653
 31
0.0
  0
LINE
  5
21B
330
2
100
AcDbEntity
  8
GAIKEI
 62
     1
100
AcDbLine
 10
14.94186423063434
 20
22.64779706521779
 30
0.0
 11
14.94186423063434
 21
23.94442915443972
 31
0.0
  0
LINE
  5
21C
330
2
100
AcDbEntity
  8
GAIKEI
 62
     1
100
AcDbLine
 10
14.79006340067667
 20
22.35355645648315
 30
0.0
 11
14.79006340067667
 21
22.64779706521779
 31
0.0
  0
LINE
  5
21D
330
2
100
AcDbEntity
  8
GAIKEI
 62
     1
100
AcDbLine
 10
14.7584382277688
 20
22.87094428525563
 30
0.0
 11
14.7584382277688
 21
23.94442915443972
 31
0.0
  0
LINE
  5
21E
330
2
100
AcDbEntity
  8
GAIKEI
 62
     1
100
AcDbLine
 10
14.6865858349222
 20
23.04703324800653
 30
0.0
 11
14.6865858349222
 21
22.87094428525563
 31
0.0
  0
LINE
  5
21F
330
2
100
AcDbEntity
  8
GAIKEI
 62
     1
100
AcDbLine
 10
14.68506782662263
 20
22.35355645648315
 30
0.0
 11
14.68506782662263
 21
22.64779706521779
 31
0.0
  0
LINE
  5
220
330
2
100
AcDbEntity
  8
GAIKEI
 62
     1
100
AcDbLine
 10
14.58260226640118
 20
23.04703324800653
 30
0.0
 11
14.58260226640118
 21
22.87094428525563
 31
0.0
  0
LINE
  5
221
330
2
100
AcDbEntity
  8
GAIKEI
 62
     1
100
AcDbLine
 10
14.5142918929202
 20
22.31864226559287
 30
0.0
 11
14.5142918929202
 21
22.64779706521779
 31
0.0
  0
LINE
  5
222
330
2
100
AcDbEntity
  8
GAIKEI
 62
     1
100
AcDbLine
 10
14.41410334514813
 20
23.94442915443972
 30
0.0
 11
14.41410334514813
 21
22.87094428525563
 31
0.0
  0
ARC
  5
223
330
2
100
AcDbEntity
  8
GAIKEI
 62
     1
100
AcDbCircle
 10
21.14223318809167
 20
22.99771871486803
 30
0.0
 40
6.376162993194777
100
AcDbArc
 50
239.1959207598989
 51
270.0403465508015
  0
ARC
  5
224
330
2
100
AcDbEntity
  8
GAIKEI
 62
     1
100
AcDbCircle
 10
21.11933115240754
 20
22.08605107952826
 30
0.0
 40
6.022677305431433
100
AcDbArc
 50
226.212222898088
 51
270.2605903456389
  0
DIMENSION
  5
225
330
2
100
AcDbEntity
  8
SUNPO
100
AcDbDimension
  2
*D6
 10
13.13467534998818
 20
8.327141261392057
 30
0.0
 11
21.14672315515463
 21
10.07714126139205
 31
0.0
 70
    33
  1
160
 71
     5
 42
16.02409561033289
  3
STANDARD
100
AcDbAlignedDimension
 13
29.15877096032108
 23
16.32714126139205
 33
0.0
 14
13.13467534998818
 24
16.32714126139205
 34
0.0
1001
ACAD
1000
DSTYLE
1002
{
1070
   287
1070
     3
1070
   287
1070
     3
1070
    40
1040
1.0
1070
   140
1040
2.5
1070
   147
1040
0.5
1070
   172
1070
     1
1070
   279
1070
     0
1070
   288
1070
     0
1002
}
  0
CIRCLE
  5
232
330
2
100
AcDbEntity
  8
GAIKEI
 62
     1
100
AcDbCircle
 10
21.84500697295994
 20
42.54174794736615
 30
0.0
 40
0.3987301800221789
  0
LINE
  5
233
330
2
100
AcDbEntity
  8
GAIKEI
 62
     1
100
AcDbLine
 10
21.19681742904061
 20
42.19336744914397
 30
0.0
 11
21.19681742904061
 21
42.89050794766319
 31
0.0
  0
LINE
  5
234
330
2
100
AcDbEntity
  8
GAIKEI
 62
     1
100
AcDbLine
 10
21.39681742904065
 20
43.09050794766318
 30
0.0
 11
21.84525997434321
 21
43.09050794766318
 31
0.0
  0
LINE
  5
235
330
2
100
AcDbEntity
  8
GAIKEI
 62
     1
100
AcDbLine
 10
21.84525997434321
 20
43.28974653698264
 30
0.0
 11
21.14672315515463
 21
43.28974653698264
 31
0.0
  0
LINE
  5
236
330
2
100
AcDbEntity
  8
GAIKEI
 62
     1
100
AcDbLine
 10
22.0243849536933
 20
42.49203317555504
 30
0.0
 11
22.0243849536933
 21
42.59234822401873
 31
0.0
  0
LINE
  5
237
330
2
100
AcDbEntity
  8
GAIKEI
 62
     1
100
AcDbLine
 10
21.89484824546275
 20
42.36224346594122
 30
0.0
 11
21.89484824546275
 21
42.49203317555504
 31
0.0
  0
LINE
  5
238
330
2
100
AcDbEntity
  8
GAIKEI
 62
     1
100
AcDbLine
 10
21.89484824546275
 20
42.59234822401873
 30
0.0
 11
21.89484824546275
 21
42.721631930866
 31
0.0
  0
LINE
  5
239
330
2
100
AcDbEntity
  8
GAIKEI
 62
     1
100
AcDbLine
 10
21.79541870184045
 20
42.721631930866
 30
0.0
 11
21.79541870184045
 21
42.59234822401873
 31
0.0
  0
LINE
  5
23A
330
2
100
AcDbEntity
  8
GAIKEI
 62
     1
100
AcDbLine
 10
21.79541870184045
 20
42.49203317555504
 30
0.0
 11
21.79541870184045
 21
42.36224346594122
 31
0.0
  0
LINE
  5
23B
330
2
100
AcDbEntity
  8
GAIKEI
 62
     1
100
AcDbLine
 10
21.66537599084336
 20
42.59234822401873
 30
0.0
 11
21.66537599084336
 21
42.49203317555504
 31
0.0
  0
LINE
  5
23C
330
2
100
AcDbEntity
  8
GAIKEI
 62
     1
100
AcDbLine
 10
21.79541870184045
 20
42.36224346594122
 30
0.0
 11
21.89484824546275
 21
42.36224346594122
 31
0.0
  0
LINE
  5
23D
330
2
100
AcDbEntity
  8
GAIKEI
 62
     1
100
AcDbLine
 10
21.66537599084336
 20
42.49203317555504
 30
0.0
 11
21.79541870184045
 21
42.49203317555504
 31
0.0
  0
LINE
  5
23E
330
2
100
AcDbEntity
  8
GAIKEI
 62
     1
100
AcDbLine
 10
21.89484824546275
 20
42.49203317555504
 30
0.0
 11
22.0243849536933
 21
42.49203317555504
 31
0.0
  0
LINE
  5
23F
330
2
100
AcDbEntity
  8
GAIKEI
 62
     1
100
AcDbLine
 10
22.0243849536933
 20
42.59234822401873
 30
0.0
 11
21.89484824546275
 21
42.59234822401873
 31
0.0
  0
LINE
  5
240
330
2
100
AcDbEntity
  8
GAIKEI
 62
     1
100
AcDbLine
 10
21.79541870184045
 20
42.59234822401873
 30
0.0
 11
21.66537599084336
 21
42.59234822401873
 31
0.0
  0
LINE
  5
241
330
2
100
AcDbEntity
  8
GAIKEI
 62
     1
100
AcDbLine
 10
21.89484824546275
 20
42.721631930866
 30
0.0
 11
21.79541870184045
 21
42.721631930866
 31
0.0
  0
LINE
  5
242
330
2
100
AcDbEntity
  8
GAIKEI
 62
     1
100
AcDbLine
 10
21.14672315515457
 20
43.28974653698264
 30
0.0
 11
21.14672315515457
 21
41.79387585844136
 31
0.0
  0
ARC
  5
243
330
2
100
AcDbEntity
  8
GAIKEI
100
AcDbCircle
 10
29.94716676913419
 20
34.65986528747658
 30
0.0
 40
18.69128479927947
100
AcDbArc
 50
134.128538655186
 51
158.7762156243142
  0
ARC
  5
244
330
2
100
AcDbEntity
  8
GAIKEI
100
AcDbCircle
 10
12.34627954117513
 20
34.65986528747658
 30
0.0
 40
18.69128479927947
100
AcDbArc
 50
21.22378437568578
 51
45.87146134481397
  0
ARC
  5
245
330
2
100
AcDbEntity
  8
GAIKEI
 62
     1
100
AcDbCircle
 10
21.39681742904065
 20
42.89050794766319
 30
0.0
 40
0.2
100
AcDbArc
 50
90.0
 51
180.0
  0
ARC
  5
246
330
2
100
AcDbEntity
  8
GAIKEI
 62
     1
100
AcDbCircle
 10
21.86761426284261
 20
42.54097210556449
 30
0.0
 40
0.5499903235198174
100
AcDbArc
 50
263.1114230812009
 51
92.3294215236641
  0
ARC
  5
247
330
2
100
AcDbEntity
  8
GAIKEI
 62
     1
100
AcDbCircle
 10
21.84500697295994
 20
42.54174794736615
 30
0.0
 40
0.7481250904305538
100
AcDbArc
 50
270.0193828746022
 51
89.98062040340684
  0
LINE
  5
248
330
2
100
AcDbEntity
  8
GAIKEI
100
AcDbLine
 10
12.39186328872859
 20
41.10685060219117
 30
0.0
 11
29.90158302158068
 21
41.10685060219117
 31
0.0
  0
LINE
  5
249
330
2
100
AcDbEntity
  8
GAIKEI
100
AcDbLine
 10
12.90242008015286
 20
41.3563099660883
 30
0.0
 11
12.39186328872859
 21
41.10685060219117
 31
0.0
  0
LINE
  5
24A
330
2
100
AcDbEntity
  8
GAIKEI
100
AcDbLine
 10
12.57156440115631
 20
41.3563099660883
 30
0.0
 11
12.93480425721054
 21
41.3563099660883
 31
0.0
  0
LINE
  5
24B
330
2
100
AcDbEntity
  8
GAIKEI
100
AcDbLine
 10
12.93480425721054
 20
41.3563099660883
 30
0.0
 11
29.39431524813875
 21
41.3563099660883
 31
0.0
  0
ARC
  5
24C
330
2
100
AcDbEntity
  8
GAIKEI
100
AcDbCircle
 10
12.57156440115625
 20
41.4077166597483
 30
0.0
 40
0.05140669366
100
AcDbArc
 50
158.776215624307
 51
270.0000000000472
  0
ARC
  5
24D
330
2
100
AcDbEntity
  8
GAIKEI
100
AcDbCircle
 10
52.733755879478
 20
25.60645117471552
 30
0.0
 40
43.21724979929718
100
AcDbArc
 50
158.9819322792473
 51
169.9944514485463
  0
LINE
  5
24E
330
2
100
AcDbEntity
  8
GAIKEI
  6
Continuous
 62
     1
100
AcDbLine
 10
24.0511870730187
 20
48.33826504583118
 30
0.0
 11
18.25118707311697
 21
48.33826504583118
 31
0.0
  0
LINE
  5
24F
330
2
100
AcDbEntity
  8
GAIKEI
  6
Continuous
 62
     1
100
AcDbLine
 10
18.25118707311697
 20
48.33826504583118
 30
0.0
 11
18.35118707311687
 21
48.23826504583104
 31
0.0
  0
LINE
  5
250
330
2
100
AcDbEntity
  8
GAIKEI
  6
Continuous
 62
     1
100
AcDbLine
 10
23.9511870730189
 20
48.23826504583109
 30
0.0
 11
18.35118707311687
 21
48.23826504583104
 31
0.0
  0
LINE
  5
251
330
2
100
AcDbEntity
  8
GAIKEI
  6
Continuous
 62
     1
100
AcDbLine
 10
23.9511870730189
 20
48.23826504583109
 30
0.0
 11
24.0511870730187
 21
48.33826504583118
 31
0.0
  0
ELLIPSE
  5
252
330
2
100
AcDbEntity
  8
GAIKEI
 62
     1
100
AcDbEllipse
 10
19.14001507883216
 20
50.63846663829242
 30
0.0
 11
0.0009010519229882
 21
0.746087649995662
 31
0.0
210
0.0
220
0.0
230
1.0
 40
0.7358362973746085
 41
0.0
 42
6.283185307179586
  0
ELLIPSE
  5
253
330
2
100
AcDbEntity
  8
GAIKEI
 62
     1
100
AcDbEllipse
 10
19.14001507883216
 20
50.63846663829242
 30
0.0
 11
0.0118064482089722
 21
0.5493014866635804
 31
0.0
210
0.0
220
0.0
230
1.0
 40
0.8117086103676014
 41
0.0
 42
6.283185307179586
  0
ELLIPSE
  5
254
330
2
100
AcDbEntity
  8
GAIKEI
 62
     1
100
AcDbEllipse
 10
23.13903759468553
 20
50.63846663829242
 30
0.0
 11
-0.0118064482089722
 21
0.5493014866635804
 31
0.0
210
0.0
220
0.0
230
-1.0
 40
0.8117086103676014
 41
0.0
 42
6.283185307179586
  0
ELLIPSE
  5
255
330
2
100
AcDbEntity
  8
GAIKEI
 62
     1
100
AcDbEllipse
 10
23.13903759468553
 20
50.63846663829242
 30
0.0
 11
-0.0009010519229882
 21
0.746087649995662
 31
0.0
210
0.0
220
0.0
230
-1.0
 40
0.7358362973746085
 41
0.0
 42
6.283185307179586
  0
LINE
  5
256
330
2
100
AcDbEntity
  8
GAIKEI
 62
     1
100
AcDbLine
 10
21.84525997434321
 20
41.99336744914404
 30
0.0
 11
21.39681742904065
 21
41.99336744914399
 31
0.0
  0
LINE
  5
257
330
2
100
AcDbEntity
  8
GAIKEI
 62
     1
100
AcDbLine
 10
21.14672315515463
 20
41.79387585844131
 30
0.0
 11
21.84525997434321
 21
41.79387585844131
 31
0.0
  0
LINE
  5
258
330
2
100
AcDbEntity
  8
GAIKEI
100
AcDbLine
 10
25.21599740355356
 20
48.13826504583102
 30
0.0
 11
17.0863767425821
 21
48.13826504583102
 31
0.0
  0
ARC
  5
259
330
2
100
AcDbEntity
  8
GAIKEI
100
AcDbCircle
 10
17.08637674258216
 20
47.91795064443101
 30
0.0
 40
0.2203144014
100
AcDbArc
 50
90.00000000001138
 51
134.128538655186
  0
ARC
  5
25A
330
2
100
AcDbEntity
  8
GAIKEI
100
AcDbCircle
 10
25.2070695677271
 20
47.91795064443101
 30
0.0
 40
0.2203144014
100
AcDbArc
 50
45.87146134481397
 51
89.99999999998861
  0
ARC
  5
25B
330
2
100
AcDbEntity
  8
GAIKEI
 62
     1
100
AcDbCircle
 10
21.39681742904065
 20
42.19336744914403
 30
0.0
 40
0.2
100
AcDbArc
 50
180.0
 51
270.0
  0
ARC
  5
25C
330
2
100
AcDbEntity
  8
GAIKEI
100
AcDbCircle
 10
29.72188190915301
 20
41.4077166597483
 30
0.0
 40
0.05140669366
100
AcDbArc
 50
269.9999999999528
 51
21.22378437569303
  0
LINE
  5
25D
330
2
100
AcDbEntity
  8
GAIKEI
100
AcDbLine
 10
29.72188190915301
 20
41.3563099660883
 30
0.0
 11
29.35864205309872
 21
41.3563099660883
 31
0.0
  0
LINE
  5
25E
330
2
100
AcDbEntity
  8
GAIKEI
100
AcDbLine
 10
29.3910262301564
 20
41.3563099660883
 30
0.0
 11
29.90158302158074
 21
41.10685060219117
 31
0.0
  0
ARC
  5
25F
330
2
100
AcDbEntity
  8
GAIKEI
100
AcDbCircle
 10
-10.44030956916879
 20
25.60645117471552
 30
0.0
 40
43.21724979929718
100
AcDbArc
 50
19.79439805496056
 51
21.01806772075265
  0
LINE
  5
260
330
2
100
AcDbEntity
  8
GAIKEI
100
AcDbLine
 10
30.22340078109096
 20
40.26169948140176
 30
0.0
 11
30.22340078109096
 21
39.28326295945471
 31
0.0
  0
LINE
  5
261
330
2
100
AcDbEntity
  8
GAIKEI
  6
Continuous
 62
     1
100
AcDbLine
 10
32.25660842054208
 20
42.30210864349493
 30
0.0
 11
32.81683473605472
 21
42.76127835574612
 31
0.0
  0
LINE
  5
262
330
2
100
AcDbEntity
  8
GAIKEI
  6
Continuous
 62
     1
100
AcDbLine
 10
32.81683473605472
 20
42.76127835574612
 30
0.0
 11
33.25261344979322
 21
43.51606922879802
 31
0.0
  0
LINE
  5
263
330
2
100
AcDbEntity
  8
GAIKEI
  6
Continuous
 62
     1
100
AcDbLine
 10
33.25261344979322
 20
43.51606922879802
 30
0.0
 11
33.55070364605558
 21
44.33506531198901
 31
0.0
  0
LINE
  5
264
330
2
100
AcDbEntity
  8
GAIKEI
  6
Continuous
 62
     1
100
AcDbLine
 10
33.55070364605558
 20
44.33506531198901
 30
0.0
 11
33.70204800506917
 21
45.19338182376356
 31
0.0
  0
LINE
  5
265
330
2
100
AcDbEntity
  8
GAIKEI
  6
Continuous
 62
     1
100
AcDbLine
 10
33.70204800506917
 20
45.19338182376356
 30
0.0
 11
33.7020480050694
 21
46.06493925124033
 31
0.0
  0
LINE
  5
266
330
2
100
AcDbEntity
  8
GAIKEI
  6
Continuous
 62
     1
100
AcDbLine
 10
33.7020480050694
 20
46.06493925124033
 30
0.0
 11
33.55070364605627
 21
46.92325576301487
 31
0.0
  0
LINE
  5
267
330
2
100
AcDbEntity
  8
GAIKEI
  6
Continuous
 62
     1
100
AcDbLine
 10
33.55070364605627
 20
46.92325576301487
 30
0.0
 11
33.25261344979413
 21
47.7422518462061
 31
0.0
  0
LINE
  5
268
330
2
100
AcDbEntity
  8
GAIKEI
  6
Continuous
 62
     1
100
AcDbLine
 10
33.25261344979413
 20
47.7422518462061
 30
0.0
 11
32.81683473605563
 21
48.49704271925799
 31
0.0
  0
LINE
  5
269
330
2
100
AcDbEntity
  8
GAIKEI
  6
Continuous
 62
     1
100
AcDbLine
 10
32.34146123428536
 20
42.2172558297571
 30
0.0
 11
32.8573976302514
 21
42.61167299270806
 31
0.0
  0
LINE
  5
26A
330
2
100
AcDbEntity
  8
GAIKEI
  6
Continuous
 62
     1
100
AcDbLine
 10
32.8573976302514
 20
42.61167299270806
 30
0.0
 11
33.27397829975462
 21
43.28705312681501
 31
0.0
  0
LINE
  5
26B
330
2
100
AcDbEntity
  8
GAIKEI
  6
Continuous
 62
     1
100
AcDbLine
 10
33.27397829975462
 20
43.28705312681501
 30
0.0
 11
33.58119684970347
 21
44.0186913860096
 31
0.0
  0
LINE
  5
26C
330
2
100
AcDbEntity
  8
GAIKEI
  6
Continuous
 62
     1
100
AcDbLine
 10
33.58119684970347
 20
44.0186913860096
 30
0.0
 11
33.77167379804109
 21
44.78901359904904
 31
0.0
  0
LINE
  5
26D
330
2
100
AcDbEntity
  8
GAIKEI
  6
Continuous
 62
     1
100
AcDbLine
 10
33.77167379804109
 20
44.78901359904904
 30
0.0
 11
33.84083383112625
 21
45.57951639447338
 31
0.0
  0
LINE
  5
26E
330
2
100
AcDbEntity
  8
GAIKEI
  6
Continuous
 62
     1
100
AcDbLine
 10
33.84083383112625
 20
45.57951639447338
 30
0.0
 11
33.78701570414364
 21
46.37121165715853
 31
0.0
  0
LINE
  5
26F
330
2
100
AcDbEntity
  8
GAIKEI
  6
Continuous
 62
     1
100
AcDbLine
 10
33.78701570414364
 20
46.37121165715853
 30
0.0
 11
33.61151214470533
 21
47.14508262855753
 31
0.0
  0
LINE
  5
270
330
2
100
AcDbEntity
  8
GAIKEI
  6
Continuous
 62
     1
100
AcDbLine
 10
33.61151214470533
 20
47.14508262855753
 30
0.0
 11
33.31853880114341
 21
47.88254069496685
 31
0.0
  0
LINE
  5
271
330
2
100
AcDbEntity
  8
GAIKEI
  6
Continuous
 62
     1
100
AcDbLine
 10
33.31853880114341
 20
47.88254069496685
 30
0.0
 11
32.91513298136897
 21
48.56587189162206
 31
0.0
  0
LINE
  5
272
330
2
100
AcDbEntity
  8
GAIKEI
  6
Continuous
 62
     1
100
AcDbLine
 10
28.24420889987619
 20
54.64143288035831
 30
0.0
 11
28.69827250203935
 21
53.54370767222286
 31
0.0
  0
LINE
  5
273
330
2
100
AcDbEntity
  8
GAIKEI
  6
Continuous
 62
     1
100
AcDbLine
 10
28.35016261101873
 20
54.69776946789244
 30
0.0
 11
28.79657074735383
 21
53.61253684458512
 31
0.0
  0
LWPOLYLINE
  5
274
330
2
100
AcDbEntity
  8
GAIKEI
  6
S10
 62
     1
100
AcDbPolyline
 90
        7
 70
     0
 43
0.0
 10
25.73922051477885
 20
75.7922403060084
 10
25.87506660553027
 20
75.9955483482625
 10
25.95118707301913
 20
76.37823178062769
 10
25.87506660553027
 20
76.76091521299287
 10
25.65829385420557
 20
77.08533856181412
 10
25.33387050538431
 20
77.30211131313883
 10
24.95118707301913
 20
77.37823178062768
  0
LWPOLYLINE
  5
275
330
2
100
AcDbEntity
  8
GAIKEI
  6
S10
 62
     1
100
AcDbPolyline
 90
       10
 70
     0
 43
0.0
 10
25.31558733697642
 20
76.21587348381075
 10
25.34711564977147
 20
76.4351577159369
 10
25.25348690276087
 20
76.64017607420584
 10
25.06388009575562
 20
76.76202897007357
 10
24.83849405028264
 20
76.76202897007357
 10
24.64888724327739
 20
76.64017607420584
 10
24.55525849626679
 20
76.4351577159369
 10
24.58733427487732
 20
76.21206577542699
 10
24.73493074603676
 20
76.04173036749518
 10
24.95118707301913
 20
75.9782317806276
  0
LINE
  5
276
330
2
100
AcDbEntity
  8
GAIKEI
  6
Continuous
 62
     1
100
AcDbLine
 10
24.95118707301913
 20
75.9782317806276
 30
0.0
 11
25.0886130606585
 21
76.01858369141678
 31
0.0
  0
LINE
  5
277
330
2
100
AcDbEntity
  8
GAIKEI
  6
S10
 62
     1
100
AcDbLine
 10
18.72118707295499
 20
73.04447153489269
 30
0.0
 11
18.68555721580492
 21
73.1584121165111
 31
0.0
  0
LINE
  5
278
330
2
100
AcDbEntity
  8
GAIKEI
  6
S10
 62
     1
100
AcDbLine
 10
18.68555721580492
 20
73.1584121165111
 30
0.0
 11
18.59136251155951
 21
73.23175583166295
 31
0.0
  0
LINE
  5
279
330
2
100
AcDbEntity
  8
GAIKEI
  6
Continuous
 62
     1
100
AcDbLine
 10
23.71101163447884
 20
73.23175583166295
 30
0.0
 11
23.61681693023343
 21
73.1584121165111
 31
0.0
  0
LINE
  5
27A
330
2
100
AcDbEntity
  8
GAIKEI
  6
Continuous
 62
     1
100
AcDbLine
 10
23.61681693023343
 20
73.1584121165111
 30
0.0
 11
23.58118707308336
 21
73.04447153489269
 31
0.0
  0
LINE
  5
27B
330
2
100
AcDbEntity
  8
GAIKEI
  6
S10
 62
     1
100
AcDbLine
 10
18.35118707301876
 20
73.57823178062773
 30
0.0
 11
18.41710230873559
 21
73.36744170467006
 31
0.0
  0
LINE
  5
27C
330
2
100
AcDbEntity
  8
GAIKEI
  6
S10
 62
     1
100
AcDbLine
 10
18.41710230873559
 20
73.36744170467006
 30
0.0
 11
18.59136251155928
 21
73.23175583166295
 31
0.0
  0
LINE
  5
27D
330
2
100
AcDbEntity
  8
GAIKEI
  6
Continuous
 62
     1
100
AcDbLine
 10
23.71101163447861
 20
73.23175583166317
 30
0.0
 11
23.8852718373023
 21
73.36744170467028
 31
0.0
  0
LINE
  5
27E
330
2
100
AcDbEntity
  8
GAIKEI
  6
Continuous
 62
     1
100
AcDbLine
 10
23.8852718373023
 20
73.36744170467028
 30
0.0
 11
23.95118707301913
 21
73.57823178062796
 31
0.0
  0
LINE
  5
27F
330
2
100
AcDbEntity
  8
GAIKEI
  6
Continuous
 62
     1
100
AcDbLine
 10
24.05955756397998
 20
74.07238870921588
 30
0.0
 11
23.97935164598994
 21
73.9523520701519
 31
0.0
  0
LINE
  5
280
330
2
100
AcDbEntity
  8
GAIKEI
  6
Continuous
 62
     1
100
AcDbLine
 10
23.97935164598994
 20
73.9523520701519
 30
0.0
 11
23.95118707301913
 21
73.81075920017685
 31
0.0
  0
DIMENSION
  5
281
330
2
100
AcDbEntity
  8
SUNPO
100
AcDbDimension
  2
*D5
 10
-4.958355107145735
 20
48.13826504583102
 30
0.0
 11
-6.708355107145742
 21
52.38848463358022
 31
0.0
 70
    33
  1
85
 71
     5
 42
8.500439175498399
  3
STANDARD
100
AcDbAlignedDimension
 13
-12.95835510714573
 23
56.63870422132942
 33
0.0
 14
-12.9583551071457
 24
48.13826504583102
 34
0.0
1001
ACAD
1000
DSTYLE
1002
{
1070
   287
1070
     3
1070
   287
1070
     3
1070
    40
1040
1.0
1070
   140
1040
2.5
1070
   147
1040
0.5
1070
   172
1070
     1
1070
   279
1070
     0
1070
   288
1070
     0
1002
}
  0
TEXT
  5
28E
330
2
100
AcDbEntity
  8
MOJI1
100
AcDbText
 10
-26.00815770131874
 20
-107.9552432735192
 30
0.0
 40
3.0
  1
－４０℃～＋５０℃
 41
0.9
100
AcDbText
  0
TEXT
  5
28F
330
2
100
AcDbEntity
  8
MOJI1
100
AcDbText
 10
-66.00815770131873
 20
-107.9552432735192
 30
0.0
 40
3.0
  1
使用温度範囲
100
AcDbText
  0
LINE
  5
290
330
2
100
AcDbEntity
  8
WAKU
 62
     1
100
AcDbLine
 10
-68.50815770131873
 20
-103.9552432735192
 30
0.0
 11
56.49184229868132
 21
-103.9552432735192
 31
0.0
  0
LINE
  5
291
330
2
100
AcDbEntity
  8
WAKU
 62
     1
100
AcDbLine
 10
-68.50815770131873
 20
-58.95524327351925
 30
0.0
 11
56.49184229868132
 21
-58.95524327351925
 31
0.0
  0
LINE
  5
292
330
2
100
AcDbEntity
  8
WAKU
 62
     1
100
AcDbLine
 10
-68.50815770131873
 20
-63.95524327351925
 30
0.0
 11
56.49184229868132
 21
-63.95524327351925
 31
0.0
  0
LINE
  5
293
330
2
100
AcDbEntity
  8
WAKU
 62
     1
100
AcDbLine
 10
-68.50815770131873
 20
-73.95524327351925
 30
0.0
 11
56.49184229868132
 21
-73.95524327351925
 31
0.0
  0
LINE
  5
294
330
2
100
AcDbEntity
  8
WAKU
 62
     1
100
AcDbLine
 10
-68.50815770131873
 20
-78.95524327351925
 30
0.0
 11
56.49184229868132
 21
-78.95524327351925
 31
0.0
  0
LINE
  5
295
330
2
100
AcDbEntity
  8
WAKU
 62
     1
100
AcDbLine
 10
-68.50815770131873
 20
-83.95524327351925
 30
0.0
 11
56.49184229868132
 21
-83.95524327351925
 31
0.0
  0
LINE
  5
296
330
2
100
AcDbEntity
  8
WAKU
 62
     4
100
AcDbLine
 10
56.49184229868132
 20
-53.95524327351925
 30
0.0
 11
-68.50815770131873
 21
-53.95524327351925
 31
0.0
  0
LINE
  5
297
330
2
100
AcDbEntity
  8
WAKU
 62
     4
100
AcDbLine
 10
-68.50815770131873
 20
-108.9552432735192
 30
0.0
 11
56.49184229868132
 21
-108.9552432735192
 31
0.0
  0
LINE
  5
298
330
2
100
AcDbEntity
  8
WAKU
 62
     1
100
AcDbLine
 10
-68.50815770131873
 20
-68.95524327351925
 30
0.0
 11
56.49184229868132
 21
-68.95524327351925
 31
0.0
  0
TEXT
  5
299
330
2
100
AcDbEntity
  8
MOJI1
100
AcDbText
 10
-26.00815770131874
 20
-62.95524327351924
 30
0.0
 40
3.0
  1
１／４型インターライン転送方式ＣＣＤ
100
AcDbText
  0
TEXT
  5
29A
330
2
100
AcDbEntity
  8
MOJI1
100
AcDbText
 10
-26.00815770131874
 20
-82.95524327351925
 30
0.0
 40
3.0
  1
３０倍
100
AcDbText
  0
LINE
  5
29B
330
2
100
AcDbEntity
  8
WAKU
 62
     4
100
AcDbLine
 10
-68.50815770131873
 20
-53.95524327351925
 30
0.0
 11
-68.50815770131873
 21
-108.9552432735192
 31
0.0
  0
LINE
  5
29C
330
2
100
AcDbEntity
  8
WAKU
 62
     4
100
AcDbLine
 10
-28.50815770131874
 20
-108.9552432735192
 30
0.0
 11
-28.50815770131874
 21
-53.95524327351925
 31
0.0
  0
TEXT
  5
29D
330
2
100
AcDbEntity
  8
MOJI1
100
AcDbText
 10
-26.00815770131874
 20
-57.95524327351924
 30
0.0
 40
3.0
  1
ＡＣ１００Ｖ　５０／６０Ｈｚ　８５Ｗ
100
AcDbText
  0
TEXT
  5
29E
330
2
100
AcDbEntity
  8
MOJI1
100
AcDbText
 10
-26.00815770131874
 20
-67.95524327351924
 30
0.0
 40
3.0
  1
０．５ルクス（カラー)　０．０４ルクス（白黒)
100
AcDbText
  0
TEXT
  5
29F
330
2
100
AcDbEntity
  8
MOJI1
100
AcDbText
 10
-26.00815770131874
 20
-72.95524327351924
 30
0.0
 40
3.0
  1
５２ｄＢ／ｔｙｐ
100
AcDbText
  0
TEXT
  5
2A0
330
2
100
AcDbEntity
  8
MOJI1
100
AcDbText
 10
-66.00815770131873
 20
-72.95524327351924
 30
0.0
 40
3.0
  1
ダイナミックレンジ
100
AcDbText
  0
TEXT
  5
2A1
330
2
100
AcDbEntity
  8
MOJI1
100
AcDbText
 10
-66.00815770131873
 20
-67.95524327351924
 30
0.0
 40
3.0
  1
最低照度
100
AcDbText
  0
TEXT
  5
2A2
330
2
100
AcDbEntity
  8
MOJI1
100
AcDbText
 10
-66.00815770131873
 20
-82.95524327351925
 30
0.0
 40
3.0
  1
ズーム比
100
AcDbText
  0
TEXT
  5
2A3
330
2
100
AcDbEntity
  8
MOJI1
100
AcDbText
 10
-66.00815770131873
 20
-57.95524327351924
 30
0.0
 40
3.0
  1
電　源
100
AcDbText
  0
TEXT
  5
2A4
330
2
100
AcDbEntity
  8
MOJI1
100
AcDbText
 10
-66.00815770131873
 20
-62.95524327351924
 30
0.0
 40
3.0
  1
撮像素子
100
AcDbText
  0
LINE
  5
2A5
330
2
100
AcDbEntity
  8
WAKU
 62
     4
100
AcDbLine
 10
56.49184229868132
 20
-108.9552432735192
 30
0.0
 11
56.49184229868132
 21
-53.95524327351925
 31
0.0
  0
TEXT
  5
2A6
330
2
100
AcDbEntity
  8
MOJI1
100
AcDbText
 10
-66.00815770131873
 20
-87.95524327351925
 30
0.0
 40
3.0
  1
画　角
100
AcDbText
  0
LINE
  5
2A7
330
2
100
AcDbEntity
  8
WAKU
 62
     1
100
AcDbLine
 10
-68.50815770131873
 20
-88.95524327351925
 30
0.0
 11
56.49184229868132
 21
-88.95524327351925
 31
0.0
  0
TEXT
  5
2A8
330
2
100
AcDbEntity
  8
MOJI1
100
AcDbText
 10
-26.00815770131874
 20
-87.95524327351925
 30
0.0
 40
3.0
  1
水平：１．９° ～５２°垂直：１．４° ～４０°
100
AcDbText
  0
TEXT
  5
2A9
330
2
100
AcDbEntity
  8
MOJI1
100
AcDbText
 10
-26.00815770131874
 20
-92.95524327351925
 30
0.0
 40
3.0
  1
１０ＢＡＳＥ－Ｔ／１００ＢＡＳＥ－ＴＸ、ＲＪ４５コネクター
 41
0.75
100
AcDbText
  0
LINE
  5
2AA
330
2
100
AcDbEntity
  8
WAKU
 62
     1
100
AcDbLine
 10
-68.50815770131873
 20
-93.95524327351925
 30
0.0
 11
56.49184229868132
 21
-93.95524327351925
 31
0.0
  0
TEXT
  5
2AB
330
2
100
AcDbEntity
  8
MOJI1
100
AcDbText
 10
-66.00815770131873
 20
-92.95524327351925
 30
0.0
 40
3.0
  1
ネットワーク
100
AcDbText
  0
TEXT
  5
2AC
330
2
100
AcDbEntity
  8
MOJI1
100
AcDbText
 10
-66.00815770131873
 20
-97.95524327351925
 30
0.0
 40
3.0
  1
画像解像度
100
AcDbText
  0
LINE
  5
2AD
330
2
100
AcDbEntity
  8
WAKU
 62
     1
100
AcDbLine
 10
-68.50815770131873
 20
-98.95524327351925
 30
0.0
 11
56.49184229868132
 21
-98.95524327351925
 31
0.0
  0
TEXT
  5
2AE
330
2
100
AcDbEntity
  8
MOJI1
100
AcDbText
 10
-26.00815770131874
 20
-97.95524327351925
 30
0.0
 40
3.0
  1
ＶＧＡ（６４０×４８０)／ＱＶＧＡ（３２０×２４０）
 41
0.85
100
AcDbText
  0
TEXT
  5
2AF
330
2
100
AcDbEntity
  8
MOJI1
100
AcDbText
 10
-66.00815770131873
 20
-102.9552432735192
 30
0.0
 40
3.0
  1
画像圧縮方式
100
AcDbText
  0
TEXT
  5
2B0
330
2
100
AcDbEntity
  8
MOJI1
100
AcDbText
 10
-26.00815770131874
 20
-102.9552432735192
 30
0.0
 40
3.0
  1
ＭＰＥＧ－４／ＪＰＥＧ   デュアルエンコーディング
 41
0.9
100
AcDbText
  0
TEXT
  5
2B1
330
2
100
AcDbEntity
  8
MOJI1
100
AcDbText
 10
-66.00815770131873
 20
-77.95524327351924
 30
0.0
 40
3.0
  1
電子感度アップ
100
AcDbText
  0
TEXT
  5
2B2
330
2
100
AcDbEntity
  8
MOJI1
100
AcDbText
 10
-26.00815770131874
 20
-77.95524327351924
 30
0.0
 40
3.0
  1
最大３２倍
100
AcDbText
  0
ENDSEC
  0
SECTION
  2
OBJECTS
  0
DICTIONARY
  5
7
330
0
100
AcDbDictionary
281
     1
  3
ACAD_COLOR
350
25
  3
ACAD_GROUP
350
21
  3
ACAD_LAYOUT
350
B
  3
ACAD_MATERIAL
350
24
  3
ACAD_MLINESTYLE
350
22
  3
ACAD_PLOTSETTINGS
350
23
  3
ACAD_PLOTSTYLENAME
350
6
  3
ACDBHEADERROUNDTRIPXREC
350
2FF
  3
AcDbVariableDictionary
350
2FA
  3
ASE_INDEX_DICTIONARY
350
2BB
  0
DICTIONARY
  5
11
330
10
100
AcDbDictionary
280
     1
281
     1
  3
ACAD_LAYERSTATES
360
12
  0
DICTIONARY
  5
25
102
{ACAD_REACTORS
330
7
102
}
330
7
100
AcDbDictionary
281
     1
  0
DICTIONARY
  5
21
102
{ACAD_REACTORS
330
7
102
}
330
7
100
AcDbDictionary
281
     1
  0
DICTIONARY
  5
B
102
{ACAD_REACTORS
330
7
102
}
330
7
100
AcDbDictionary
281
     1
  3
Model
350
A
  3
レイアウト1
350
F
  0
DICTIONARY
  5
24
102
{ACAD_REACTORS
330
7
102
}
330
7
100
AcDbDictionary
281
     1
  0
DICTIONARY
  5
22
102
{ACAD_REACTORS
330
7
102
}
330
7
100
AcDbDictionary
281
     1
  3
Standard
350
27
  0
DICTIONARY
  5
23
102
{ACAD_REACTORS
330
7
102
}
330
7
100
AcDbDictionary
281
     1
  0
ACDBDICTIONARYWDFLT
  5
6
102
{ACAD_REACTORS
330
7
102
}
330
7
100
AcDbDictionary
281
     1
  3
Normal
350
5
100
AcDbDictionaryWithDefault
340
5
  0
DICTIONARY
  5
2FF
102
{ACAD_REACTORS
330
7
102
}
330
7
100
AcDbDictionary
281
     1
  3
COLORDICT
350
301
  3
MATERIALDICT
350
300
  0
DICTIONARY
  5
2FA
102
{ACAD_REACTORS
330
7
102
}
330
7
100
AcDbDictionary
281
     1
  3
DIMASSOC
350
2FC
  3
HIDETEXT
350
2FB
  3
PROJECTNAME
350
2FD
  0
DICTIONARY
  5
2BB
102
{ACAD_REACTORS
330
7
102
}
330
7
100
AcDbDictionary
281
     1
  3
ASEBlockHierarchyIndexRecord
350
2BD
1001
DCO15
1040
1647174807.489
  0
DICTIONARY
  5
12
102
{ACAD_REACTORS
330
11
102
}
330
11
100
AcDbDictionary
281
     1
  0
LAYOUT
  5
A
102
{ACAD_XDICTIONARY
360
302
102
}
102
{ACAD_REACTORS
330
B
102
}
330
B
100
AcDbPlotSettings
  1

  2
Ａ４－縦3FRIM01.pc3
  4
A4
  6

 40
5.873749732971191
 41
5.873747825622558
 42
5.873748779296875
 43
5.873748779296875
 44
209.9733276367187
 45
296.9259948730469
 46
5.429999999999999
 47
0.0
 48
0.0
 49
0.0
140
0.0
141
0.0
142
1.0
143
1.382388793903341
 70
 11956
 72
     1
 73
     0
 74
     1
  7
tmsacad.ctb
 75
     0
147
0.7233854935820042
148
0.0064050313486632
149
0.0060110292993159
100
AcDbLayout
  1
Model
 70
     1
 71
     0
 10
0.0
 20
0.0
 11
12.0
 21
9.0
 12
0.0
 22
0.0
 32
0.0
 14
0.0
 24
0.0
 34
0.0
 15
0.0
 25
0.0
 35
0.0
146
0.0
 13
0.0
 23
0.0
 33
0.0
 16
1.0
 26
0.0
 36
0.0
 17
0.0
 27
1.0
 37
0.0
 76
     0
330
2
  0
LAYOUT
  5
F
102
{ACAD_XDICTIONARY
360
304
102
}
102
{ACAD_REACTORS
330
B
102
}
330
B
100
AcDbPlotSettings
  1

  2
None
  4

  6

 40
0.0
 41
0.0
 42
0.0
 43
0.0
 44
0.0
 45
0.0
 46
0.0
 47
0.0
 48
0.0
 49
0.0
140
0.0
141
0.0
142
1.0
143
1.0
 70
   688
 72
     0
 73
     0
 74
     5
  7
tmsacad.ctb
 75
    16
147
1.0
148
0.0
149
0.0
100
AcDbLayout
  1
レイアウト1
 70
     1
 71
     1
 10
0.0
 20
0.0
 11
12.0
 21
9.0
 12
0.0
 22
0.0
 32
0.0
 14
0.0
 24
0.0
 34
0.0
 15
0.0
 25
0.0
 35
0.0
146
0.0
 13
0.0
 23
0.0
 33
0.0
 16
1.0
 26
0.0
 36
0.0
 17
0.0
 27
1.0
 37
0.0
 76
     0
330
C
  0
MLINESTYLE
  5
27
102
{ACAD_REACTORS
330
22
102
}
330
22
100
AcDbMlineStyle
  2
STANDARD
 70
     0
  3

 62
   256
 51
90.0
 52
90.0
 71
     2
 49
0.5
 62
   256
  6
BYLAYER
 49
-0.5
 62
   256
  6
BYLAYER
  0
ACDBPLACEHOLDER
  5
5
102
{ACAD_REACTORS
330
6
102
}
330
6
  0
XRECORD
  5
301
102
{ACAD_REACTORS
330
2FF
102
}
330
2FF
100
AcDbXrecord
280
     1
340
25
  0
XRECORD
  5
300
102
{ACAD_REACTORS
330
2FF
102
}
330
2FF
100
AcDbXrecord
280
     1
340
24
  0
DICTIONARYVAR
  5
2FC
102
{ACAD_REACTORS
330
2FA
102
}
330
2FA
100
DictionaryVariables
280
     0
  1
2
  0
DICTIONARYVAR
  5
2FB
102
{ACAD_REACTORS
330
2FA
102
}
330
2FA
100
DictionaryVariables
280
     0
  1
1
  0
DICTIONARYVAR
  5
2FD
102
{ACAD_REACTORS
330
2FA
102
}
330
2FA
100
DictionaryVariables
280
     0
  1

  0
XRECORD
  5
2BD
102
{ACAD_REACTORS
330
2BB
102
}
330
2BB
100
AcDbXrecord
280
     1
330
DC
330
E3
330
174
330
175
330
166
330
167
330
287
330
288
330
22B
330
22C
330
2CE
330
2CF
330
2DA
330
2DB
330
2E6
330
2E7
330
2F2
330
2F3
  0
DICTIONARY
  5
302
330
A
100
AcDbDictionary
280
     1
281
     1
  3
ACAD_XREC_ROUNDTRIP
360
303
  0
DICTIONARY
  5
304
330
F
100
AcDbDictionary
280
     1
281
     1
  3
ACAD_XREC_ROUNDTRIP
360
305
  0
XRECORD
  5
303
102
{ACAD_REACTORS
330
302
102
}
330
302
100
AcDbXrecord
280
     1
102
SHADEPLOT
 70
     0
102
SHADEPLOTRESLEVEL
 70
     2
102
SHADEPLOTCUSTOMDPI
 70
   300
  0
XRECORD
  5
305
102
{ACAD_REACTORS
330
304
102
}
330
304
100
AcDbXrecord
280
     1
102
SHADEPLOT
 70
     0
102
SHADEPLOTRESLEVEL
 70
     2
102
SHADEPLOTCUSTOMDPI
 70
   300
  0
ENDSEC
  0
EOF
