  0
SECTION
  2
HEADER
  9
$ACADVER
  1
AC1015
  9
$ACADMAINTVER
 70
    20
  9
$DWGCODEPAGE
  3
ANSI_932
  9
$INSBASE
 10
129.0
 20
120.4992141396419
 30
0.0
  9
$EXTMIN
 10
-64.43999558731184
 20
-55.37278052674537
 30
-0.0015258207003583
  9
$EXTMAX
 10
60.6405133826529
 20
57.75830138888068
 30
0.0000000349246037
  9
$LIMMIN
 10
-1101.784450318844
 20
-1579.160531687244
  9
$LIMMAX
 10
-508.2420711400536
 20
-1161.440814074914
  9
$ORTHOMODE
 70
     1
  9
$REGENMODE
 70
     1
  9
$FILLMODE
 70
     1
  9
$QTEXTMODE
 70
     0
  9
$MIRRTEXT
 70
     1
  9
$LTSCALE
 40
1.0
  9
$ATTMODE
 70
     1
  9
$TEXTSIZE
 40
3.0
  9
$TRACEWID
 40
0.5
  9
$TEXTSTYLE
  7
STANDARD
  9
$CLAYER
  8
SUNPO
  9
$CELTYPE
  6
BYLAYER
  9
$CECOLOR
 62
   256
  9
$CELTSCALE
 40
1.0
  9
$DISPSILH
 70
     0
  9
$DIMSCALE
 40
1.0
  9
$DIMASZ
 40
2.0
  9
$DIMEXO
 40
2.0
  9
$DIMDLI
 40
8.0
  9
$DIMRND
 40
0.0
  9
$DIMDLE
 40
0.0
  9
$DIMEXE
 40
2.0
  9
$DIMTP
 40
0.0
  9
$DIMTM
 40
0.0
  9
$DIMTXT
 40
2.5
  9
$DIMCEN
 40
0.0
  9
$DIMTSZ
 40
0.0
  9
$DIMTOL
 70
     0
  9
$DIMLIM
 70
     0
  9
$DIMTIH
 70
     0
  9
$DIMTOH
 70
     0
  9
$DIMSE1
 70
     0
  9
$DIMSE2
 70
     0
  9
$DIMTAD
 70
     3
  9
$DIMZIN
 70
     0
  9
$DIMBLK
  1

  9
$DIMASO
 70
     1
  9
$DIMSHO
 70
     1
  9
$DIMPOST
  1

  9
$DIMAPOST
  1

  9
$DIMALT
 70
     0
  9
$DIMALTD
 70
     2
  9
$DIMALTF
 40
25.4
  9
$DIMLFAC
 40
1.0
  9
$DIMTOFL
 70
     1
  9
$DIMTVP
 40
0.0
  9
$DIMTIX
 70
     0
  9
$DIMSOXD
 70
     0
  9
$DIMSAH
 70
     1
  9
$DIMBLK1
  1
OPEN30
  9
$DIMBLK2
  1
OPEN30
  9
$DIMSTYLE
  2
STANDARD
  9
$DIMCLRD
 70
     0
  9
$DIMCLRE
 70
     0
  9
$DIMCLRT
 70
     0
  9
$DIMTFAC
 40
1.0
  9
$DIMGAP
 40
0.5
  9
$DIMJUST
 70
     0
  9
$DIMSD1
 70
     0
  9
$DIMSD2
 70
     0
  9
$DIMTOLJ
 70
     1
  9
$DIMTZIN
 70
     0
  9
$DIMALTZ
 70
     0
  9
$DIMALTTZ
 70
     0
  9
$DIMUPT
 70
     0
  9
$DIMDEC
 70
     4
  9
$DIMTDEC
 70
     4
  9
$DIMALTU
 70
     2
  9
$DIMALTTD
 70
     2
  9
$DIMTXSTY
  7
STANDARD
  9
$DIMAUNIT
 70
     0
  9
$DIMADEC
 70
     0
  9
$DIMALTRND
 40
0.0
  9
$DIMAZIN
 70
     0
  9
$DIMDSEP
 70
    46
  9
$DIMATFIT
 70
     3
  9
$DIMFRAC
 70
     0
  9
$DIMLDRBLK
  1
OPEN30
  9
$DIMLUNIT
 70
     2
  9
$DIMLWD
 70
    -2
  9
$DIMLWE
 70
    -2
  9
$DIMTMOVE
 70
     0
  9
$LUNITS
 70
     2
  9
$LUPREC
 70
     4
  9
$SKETCHINC
 40
0.1
  9
$FILLETRAD
 40
0.0
  9
$AUNITS
 70
     0
  9
$AUPREC
 70
     0
  9
$MENU
  1
ACAD
  9
$ELEVATION
 40
0.0
  9
$PELEVATION
 40
0.0
  9
$THICKNESS
 40
0.0
  9
$LIMCHECK
 70
     0
  9
$CHAMFERA
 40
0.0
  9
$CHAMFERB
 40
0.0
  9
$CHAMFERC
 40
0.0
  9
$CHAMFERD
 40
0.0
  9
$SKPOLY
 70
     0
  9
$TDCREATE
 40
2451815.565532581
  9
$TDUCREATE
 40
2451815.190532581
  9
$TDUPDATE
 40
2454322.541973379
  9
$TDUUPDATE
 40
2454322.166973380
  9
$TDINDWG
 40
0.8385555324
  9
$TDUSRTIMER
 40
0.8385555324
  9
$USRTIMER
 70
     1
  9
$ANGBASE
 50
0.0
  9
$ANGDIR
 70
     0
  9
$PDMODE
 70
     0
  9
$PDSIZE
 40
0.0
  9
$PLINEWID
 40
0.0
  9
$SPLFRAME
 70
     0
  9
$SPLINETYPE
 70
     6
  9
$SPLINESEGS
 70
     8
  9
$HANDSEED
  5
C9
  9
$SURFTAB1
 70
     6
  9
$SURFTAB2
 70
     6
  9
$SURFTYPE
 70
     6
  9
$SURFU
 70
     6
  9
$SURFV
 70
     6
  9
$UCSBASE
  2

  9
$UCSNAME
  2

  9
$UCSORG
 10
0.0
 20
0.0
 30
0.0
  9
$UCSXDIR
 10
1.0
 20
0.0
 30
0.0
  9
$UCSYDIR
 10
0.0
 20
1.0
 30
0.0
  9
$UCSORTHOREF
  2

  9
$UCSORTHOVIEW
 70
     0
  9
$UCSORGTOP
 10
0.0
 20
0.0
 30
0.0
  9
$UCSORGBOTTOM
 10
0.0
 20
0.0
 30
0.0
  9
$UCSORGLEFT
 10
0.0
 20
0.0
 30
0.0
  9
$UCSORGRIGHT
 10
0.0
 20
0.0
 30
0.0
  9
$UCSORGFRONT
 10
0.0
 20
0.0
 30
0.0
  9
$UCSORGBACK
 10
0.0
 20
0.0
 30
0.0
  9
$PUCSBASE
  2

  9
$PUCSNAME
  2

  9
$PUCSORG
 10
0.0
 20
0.0
 30
0.0
  9
$PUCSXDIR
 10
1.0
 20
0.0
 30
0.0
  9
$PUCSYDIR
 10
0.0
 20
1.0
 30
0.0
  9
$PUCSORTHOREF
  2

  9
$PUCSORTHOVIEW
 70
     0
  9
$PUCSORGTOP
 10
0.0
 20
0.0
 30
0.0
  9
$PUCSORGBOTTOM
 10
0.0
 20
0.0
 30
0.0
  9
$PUCSORGLEFT
 10
0.0
 20
0.0
 30
0.0
  9
$PUCSORGRIGHT
 10
0.0
 20
0.0
 30
0.0
  9
$PUCSORGFRONT
 10
0.0
 20
0.0
 30
0.0
  9
$PUCSORGBACK
 10
0.0
 20
0.0
 30
0.0
  9
$USERI1
 70
     0
  9
$USERI2
 70
     0
  9
$USERI3
 70
     0
  9
$USERI4
 70
     0
  9
$USERI5
 70
     0
  9
$USERR1
 40
0.0
  9
$USERR2
 40
0.0
  9
$USERR3
 40
0.0
  9
$USERR4
 40
0.0
  9
$USERR5
 40
0.0
  9
$WORLDVIEW
 70
     1
  9
$SHADEDGE
 70
     3
  9
$SHADEDIF
 70
    70
  9
$TILEMODE
 70
     1
  9
$MAXACTVP
 70
    48
  9
$PINSBASE
 10
0.0
 20
0.0
 30
0.0
  9
$PLIMCHECK
 70
     0
  9
$PEXTMIN
 10
1.000000000000000E+20
 20
1.000000000000000E+20
 30
1.000000000000000E+20
  9
$PEXTMAX
 10
-1.000000000000000E+20
 20
-1.000000000000000E+20
 30
-1.000000000000000E+20
  9
$PLIMMIN
 10
0.0
 20
0.0
  9
$PLIMMAX
 10
12.0
 20
9.0
  9
$UNITMODE
 70
     0
  9
$VISRETAIN
 70
     1
  9
$PLINEGEN
 70
     0
  9
$PSLTSCALE
 70
     1
  9
$TREEDEPTH
 70
  3020
  9
$CMLSTYLE
  2
STANDARD
  9
$CMLJUST
 70
     0
  9
$CMLSCALE
 40
1.0
  9
$PROXYGRAPHICS
 70
     1
  9
$MEASUREMENT
 70
     0
  9
$CELWEIGHT
370
    -1
  9
$ENDCAPS
280
     0
  9
$JOINSTYLE
280
     0
  9
$LWDISPLAY
290
     0
  9
$INSUNITS
 70
     0
  9
$HYPERLINKBASE
  1

  9
$STYLESHEET
  1

  9
$XEDIT
290
     1
  9
$CEPSNTYPE
380
     0
  9
$PSTYLEMODE
290
     1
  9
$FINGERPRINTGUID
  2
{1754B7AB-9B3C-11D4-AD9E-00104B1004F2}
  9
$VERSIONGUID
  2
{1A3C362C-6999-489D-9D55-0387BE7C3CF6}
  9
$EXTNAMES
290
     1
  9
$PSVPSCALE
 40
0.0
  9
$OLESTARTUP
290
     0
  0
ENDSEC
  0
SECTION
  2
CLASSES
  0
CLASS
  1
ACDBDICTIONARYWDFLT
  2
AcDbDictionaryWithDefault
  3
ObjectDBX Classes
 90
        0
280
     0
281
     0
  0
CLASS
  1
ACDBPLACEHOLDER
  2
AcDbPlaceHolder
  3
ObjectDBX Classes
 90
        0
280
     0
281
     0
  0
CLASS
  1
LAYOUT
  2
AcDbLayout
  3
ObjectDBX Classes
 90
        0
280
     0
281
     0
  0
CLASS
  1
DICTIONARYVAR
  2
AcDbDictionaryVar
  3
ObjectDBX Classes
 90
        0
280
     0
281
     0
  0
CLASS
  1
SORTENTSTABLE
  2
AcDbSortentsTable
  3
ObjectDBX Classes
 90
    32768
280
     0
281
     0
  0
ENDSEC
  0
SECTION
  2
TABLES
  0
TABLE
  2
VPORT
  5
20
330
0
100
AcDbSymbolTable
 70
     4
  0
VPORT
  5
C1
330
20
100
AcDbSymbolTableRecord
100
AcDbViewportTableRecord
  2
*Active
 70
     0
 10
0.0
 20
0.0
 11
1.0
 21
1.0
 12
-1.899741102329478
 22
1.192760431067654
 13
0.0
 23
0.0
 14
1.0
 24
1.0
 15
0.0
 25
0.0
 16
0.0
 26
0.0
 36
1.0
 17
0.0
 27
0.0
 37
0.0
 40
114.0035581257722
 41
1.504504504504504
 42
50.0
 43
0.0
 44
0.0
 50
0.0
 51
0.0
 71
     0
 72
 10000
 73
     1
 74
     0
 75
     0
 76
     1
 77
     0
 78
     0
281
     0
 65
     1
110
0.0
120
0.0
130
0.0
111
1.0
121
0.0
131
0.0
112
0.0
122
1.0
132
0.0
 79
     0
146
0.0
  0
ENDTAB
  0
TABLE
  2
LTYPE
  5
1B
330
0
100
AcDbSymbolTable
 70
     1
  0
LTYPE
  5
1C
330
1B
100
AcDbSymbolTableRecord
100
AcDbLinetypeTableRecord
  2
BYBLOCK
 70
     0
  3

 72
    65
 73
     0
 40
0.0
  0
LTYPE
  5
1D
330
1B
100
AcDbSymbolTableRecord
100
AcDbLinetypeTableRecord
  2
BYLAYER
 70
     0
  3

 72
    65
 73
     0
 40
0.0
  0
LTYPE
  5
A
330
1B
100
AcDbSymbolTableRecord
100
AcDbLinetypeTableRecord
  2
CONTINUOUS
 70
     0
  3
Solid line
 72
    65
 73
     0
 40
0.0
  0
ENDTAB
  0
TABLE
  2
LAYER
  5
14
102
{ACAD_XDICTIONARY
360
15
102
}
330
0
100
AcDbSymbolTable
 70
     7
  0
LAYER
  5
6
330
14
100
AcDbSymbolTableRecord
100
AcDbLayerTableRecord
  2
0
 70
     0
 62
     7
  6
CONTINUOUS
370
    -3
390
7
  0
LAYER
  5
63
330
14
100
AcDbSymbolTableRecord
100
AcDbLayerTableRecord
  2
DEFPOINTS
 70
     0
 62
     7
  6
CONTINUOUS
290
     0
370
    -3
390
7
  0
LAYER
  5
75
330
14
100
AcDbSymbolTableRecord
100
AcDbLayerTableRecord
  2
WAKU
 70
     0
 62
     4
  6
CONTINUOUS
370
    -3
390
7
  0
LAYER
  5
35
330
14
100
AcDbSymbolTableRecord
100
AcDbLayerTableRecord
  2
MOJI1
 70
     0
 62
     2
  6
CONTINUOUS
370
    -3
390
7
  0
LAYER
  5
39
330
14
100
AcDbSymbolTableRecord
100
AcDbLayerTableRecord
  2
GAIKEI
 70
     0
 62
     7
  6
CONTINUOUS
370
    -3
390
7
  0
LAYER
  5
37
330
14
100
AcDbSymbolTableRecord
100
AcDbLayerTableRecord
  2
TOUROKU
 70
     0
 62
     1
  6
CONTINUOUS
370
    -3
390
7
  0
LAYER
  5
32
330
14
100
AcDbSymbolTableRecord
100
AcDbLayerTableRecord
  2
SUNPO
 70
     0
 62
     3
  6
CONTINUOUS
370
    -3
390
7
  0
ENDTAB
  0
TABLE
  2
STYLE
  5
18
330
0
100
AcDbSymbolTable
 70
     1
  0
STYLE
  5
19
330
18
100
AcDbSymbolTableRecord
100
AcDbTextStyleTableRecord
  2
STANDARD
 70
     0
 40
0.0
 41
1.0
 50
0.0
 71
     0
 42
3.0
  3
MONOTXT.shx
  4
BIGFONT.shx
  0
ENDTAB
  0
TABLE
  2
VIEW
  5
1E
330
0
100
AcDbSymbolTable
 70
     0
  0
ENDTAB
  0
TABLE
  2
UCS
  5
1F
330
0
100
AcDbSymbolTable
 70
     0
  0
ENDTAB
  0
TABLE
  2
APPID
  5
22
330
0
100
AcDbSymbolTable
 70
     1
  0
APPID
  5
23
330
22
100
AcDbSymbolTableRecord
100
AcDbRegAppTableRecord
  2
ACAD
 70
     0
  0
ENDTAB
  0
TABLE
  2
DIMSTYLE
  5
24
330
0
100
AcDbSymbolTable
 70
     1
100
AcDbDimStyleTable
 71
     1
340
25
  0
DIMSTYLE
105
25
102
{ACAD_REACTORS
330
67
330
59
102
}
330
24
100
AcDbSymbolTableRecord
100
AcDbDimStyleTableRecord
  2
STANDARD
 70
     0
 40
0.0
 41
2.0
 42
2.0
 43
8.0
 44
2.0
 73
     0
 74
     0
 77
     3
140
3.0
141
0.0
173
     1
279
     2
288
     1
340
19
341
26
343
26
344
26
  0
ENDTAB
  0
TABLE
  2
BLOCK_RECORD
  5
1
330
0
100
AcDbSymbolTable
 70
     5
  0
BLOCK_RECORD
  5
2
102
{ACAD_XDICTIONARY
360
3
102
}
330
1
100
AcDbSymbolTableRecord
100
AcDbBlockTableRecord
  2
*MODEL_SPACE
340
C
  0
BLOCK_RECORD
  5
E
102
{ACAD_XDICTIONARY
360
F
102
}
330
1
100
AcDbSymbolTableRecord
100
AcDbBlockTableRecord
  2
*PAPER_SPACE
340
13
  0
BLOCK_RECORD
  5
26
330
1
100
AcDbSymbolTableRecord
100
AcDbBlockTableRecord
  2
_OPEN30
340
0
102
{BLKREFS
331
6D
331
6E
331
5F
331
60
331
A9
331
AA
331
B5
331
B6
102
}
  0
BLOCK_RECORD
  5
68
330
1
100
AcDbSymbolTableRecord
100
AcDbBlockTableRecord
  2
*D1
340
0
  0
BLOCK_RECORD
  5
5A
330
1
100
AcDbSymbolTableRecord
100
AcDbBlockTableRecord
  2
*D2
340
0
  0
BLOCK_RECORD
  5
A5
330
1
100
AcDbSymbolTableRecord
100
AcDbBlockTableRecord
  2
*D3
340
0
  0
BLOCK_RECORD
  5
B1
330
1
100
AcDbSymbolTableRecord
100
AcDbBlockTableRecord
  2
*D4
340
0
  0
ENDTAB
  0
ENDSEC
  0
SECTION
  2
BLOCKS
  0
BLOCK
  5
5
330
2
100
AcDbEntity
  8
0
100
AcDbBlockBegin
  2
*MODEL_SPACE
 70
     0
 10
0.0
 20
0.0
 30
0.0
  3
*MODEL_SPACE
  1

  0
ENDBLK
  5
B
330
2
100
AcDbEntity
  8
0
100
AcDbBlockEnd
  0
BLOCK
  5
11
330
E
100
AcDbEntity
 67
     1
  8
0
100
AcDbBlockBegin
  2
*PAPER_SPACE
 70
     0
 10
0.0
 20
0.0
 30
0.0
  3
*PAPER_SPACE
  1

  0
ENDBLK
  5
12
330
E
100
AcDbEntity
 67
     1
  8
0
100
AcDbBlockEnd
  0
BLOCK
  5
27
330
26
100
AcDbEntity
  8
0
100
AcDbBlockBegin
  2
_OPEN30
 70
     0
 10
0.0
 20
0.0
 30
0.0
  3
_OPEN30
  1

  0
LINE
  5
28
330
26
100
AcDbEntity
  8
0
  6
ByBlock
 62
     0
100
AcDbLine
 10
-1.0
 20
0.26794919
 30
0.0
 11
0.0
 21
0.0
 31
0.0
  0
LINE
  5
29
330
26
100
AcDbEntity
  8
0
  6
ByBlock
 62
     0
100
AcDbLine
 10
0.0
 20
0.0
 30
0.0
 11
-1.0
 21
-0.26794919
 31
0.0
  0
LINE
  5
2A
330
26
100
AcDbEntity
  8
0
  6
ByBlock
 62
     0
100
AcDbLine
 10
0.0
 20
0.0
 30
0.0
 11
-1.0
 21
0.0
 31
0.0
  0
ENDBLK
  5
2B
330
26
100
AcDbEntity
  8
0
100
AcDbBlockEnd
  0
BLOCK
  5
69
330
68
100
AcDbEntity
  8
0
100
AcDbBlockBegin
  2
*D1
 70
     1
 10
0.0
 20
0.0
 30
0.0
  3
*D1
  1

  0
LINE
  5
6A
330
68
100
AcDbEntity
  8
SUNPO
 62
     0
370
    -2
100
AcDbLine
 10
159.1563584408906
 20
85.96764578094719
 30
0.0
 11
159.1563584408906
 21
93.96764578094717
 31
0.0
  0
LINE
  5
6B
330
68
100
AcDbEntity
  8
SUNPO
 62
     0
370
    -2
100
AcDbLine
 10
182.6071101514205
 20
85.96764578094719
 30
0.0
 11
182.6071101514205
 21
93.96764578094717
 31
0.0
  0
LINE
  5
6C
330
68
100
AcDbEntity
  8
SUNPO
 62
     0
370
    -2
100
AcDbLine
 10
161.1563584408906
 20
91.96764578094718
 30
0.0
 11
180.6071101514205
 21
91.96764578094718
 31
0.0
  0
INSERT
  5
6D
330
68
100
AcDbEntity
  8
SUNPO
 62
     0
370
    -2
100
AcDbBlockReference
  2
_OPEN30
 10
159.1563584408906
 20
91.96764578094718
 30
0.0
 41
2.0
 42
2.0
 43
2.0
 50
180.0
  0
INSERT
  5
6E
330
68
100
AcDbEntity
  8
SUNPO
 62
     0
370
    -2
100
AcDbBlockReference
  2
_OPEN30
 10
182.6071101514205
 20
91.96764578094718
 30
0.0
 41
2.0
 42
2.0
 43
2.0
  0
MTEXT
  5
6F
330
68
100
AcDbEntity
  8
SUNPO
 62
     0
100
AcDbMText
 10
170.8817342961556
 20
93.71764578094717
 30
0.0
 40
2.5
 41
0.0
 71
     5
 72
     1
  1
\A1;φ117.3
 73
     1
 44
1.0
1001
ACAD
1000
MTEXTBEGIN
1070
    73
1070
     1
1070
    44
1040
1.0
1070
    74
1070
     0
1000
MTEXTEND
  0
POINT
  5
70
330
68
100
AcDbEntity
  8
DEFPOINTS
 62
     0
100
AcDbPoint
 10
159.1563584408906
 20
83.96764578094717
 30
0.0
  0
POINT
  5
71
330
68
100
AcDbEntity
  8
DEFPOINTS
 62
     0
100
AcDbPoint
 10
182.6071101514205
 20
83.96764578094717
 30
0.0
  0
POINT
  5
72
330
68
100
AcDbEntity
  8
DEFPOINTS
 62
     0
100
AcDbPoint
 10
182.6071101514205
 20
91.96764578094718
 30
0.0
  0
ENDBLK
  5
73
330
68
100
AcDbEntity
  8
0
100
AcDbBlockEnd
  0
BLOCK
  5
5B
330
5A
100
AcDbEntity
  8
0
100
AcDbBlockBegin
  2
*D2
 70
     1
 10
0.0
 20
0.0
 30
0.0
  3
*D2
  1

  0
LINE
  5
5C
330
5A
100
AcDbEntity
  8
SUNPO
 62
     0
370
    -2
100
AcDbLine
 10
184.6083724388679
 20
83.96764670615272
 30
0.0
 11
192.6083724388679
 21
83.96764670615272
 31
0.0
  0
LINE
  5
5D
330
5A
100
AcDbEntity
  8
SUNPO
 62
     0
370
    -2
100
AcDbLine
 10
184.6083724388679
 20
67.92618462151273
 30
0.0
 11
192.6083724388679
 21
67.92618462151273
 31
0.0
  0
LINE
  5
5E
330
5A
100
AcDbEntity
  8
SUNPO
 62
     0
370
    -2
100
AcDbLine
 10
190.6083724388679
 20
81.96764670615271
 30
0.0
 11
190.6083724388679
 21
69.92618462151273
 31
0.0
  0
INSERT
  5
5F
330
5A
100
AcDbEntity
  8
SUNPO
 62
     0
370
    -2
100
AcDbBlockReference
  2
_OPEN30
 10
190.6083724388679
 20
83.96764670615272
 30
0.0
 41
2.0
 42
2.0
 43
2.0
 50
90.0
  0
INSERT
  5
60
330
5A
100
AcDbEntity
  8
SUNPO
 62
     0
370
    -2
100
AcDbBlockReference
  2
_OPEN30
 10
190.6083724388679
 20
67.92618462151273
 30
0.0
 41
2.0
 42
2.0
 43
2.0
 50
270.0
  0
MTEXT
  5
61
330
5A
100
AcDbEntity
  8
SUNPO
 62
     0
100
AcDbMText
 10
188.8583724388679
 20
75.94691566383275
 30
0.0
 40
2.5
 41
0.0
 71
     5
 72
     1
  1
\A1;80.2
 11
0.0000000000000001
 21
1.0
 31
0.0
 73
     1
 44
1.0
1001
ACAD
1000
MTEXTBEGIN
1070
    73
1070
     1
1070
    44
1040
1.0
1070
    74
1070
     0
1000
MTEXTEND
  0
POINT
  5
62
330
5A
100
AcDbEntity
  8
DEFPOINTS
 62
     0
100
AcDbPoint
 10
182.6083724388679
 20
83.96764670615272
 30
0.0
  0
POINT
  5
64
330
5A
100
AcDbEntity
  8
DEFPOINTS
 62
     0
100
AcDbPoint
 10
182.6083724388679
 20
67.92618462151273
 30
0.0
  0
POINT
  5
65
330
5A
100
AcDbEntity
  8
DEFPOINTS
 62
     0
100
AcDbPoint
 10
190.6083724388679
 20
67.92618462151273
 30
0.0
  0
ENDBLK
  5
66
330
5A
100
AcDbEntity
  8
0
100
AcDbBlockEnd
  0
BLOCK
  5
AF
330
A5
100
AcDbEntity
  8
0
100
AcDbBlockBegin
  2
*D3
 70
     1
 10
0.0
 20
0.0
 30
0.0
  3
*D3
  1

  0
LINE
  5
A6
330
A5
100
AcDbEntity
  8
SUNPO
 62
     0
370
    -2
100
AcDbLine
 10
-36.21466206000866
 20
25.17782901471475
 30
0.0
 11
-36.21466206000866
 21
33.17782901471475
 31
0.0
  0
LINE
  5
A7
330
A5
100
AcDbEntity
  8
SUNPO
 62
     0
370
    -2
100
AcDbLine
 10
-12.76391034947869
 20
25.17782901471475
 30
0.0
 11
-12.76391034947869
 21
33.17782901471475
 31
0.0
  0
LINE
  5
A8
330
A5
100
AcDbEntity
  8
SUNPO
 62
     0
370
    -2
100
AcDbLine
 10
-34.21466206000867
 20
31.17782901471475
 30
0.0
 11
-14.76391034947869
 21
31.17782901471475
 31
0.0
  0
INSERT
  5
A9
330
A5
100
AcDbEntity
  8
SUNPO
 62
     0
370
    -2
100
AcDbBlockReference
  2
_OPEN30
 10
-36.21466206000866
 20
31.17782901471475
 30
0.0
 41
2.0
 42
2.0
 43
2.0
 50
180.0
  0
INSERT
  5
AA
330
A5
100
AcDbEntity
  8
SUNPO
 62
     0
370
    -2
100
AcDbBlockReference
  2
_OPEN30
 10
-12.76391034947869
 20
31.17782901471475
 30
0.0
 41
2.0
 42
2.0
 43
2.0
  0
MTEXT
  5
AB
330
A5
100
AcDbEntity
  8
SUNPO
 62
     0
100
AcDbMText
 10
-24.48928620474368
 20
32.92782901471475
 30
0.0
 40
2.5
 41
0.0
 71
     5
 72
     1
  1
\A1;φ117.3
 73
     1
 44
1.0
1001
ACAD
1000
MTEXTBEGIN
1070
    73
1070
     1
1070
    44
1040
1.0
1070
    74
1070
     0
1000
MTEXTEND
  0
POINT
  5
AC
330
A5
100
AcDbEntity
  8
DEFPOINTS
 62
     0
100
AcDbPoint
 10
-36.21466206000866
 20
23.17782901471475
 30
0.0
  0
POINT
  5
AD
330
A5
100
AcDbEntity
  8
DEFPOINTS
 62
     0
100
AcDbPoint
 10
-12.76391034947869
 20
23.17782901471475
 30
0.0
  0
POINT
  5
AE
330
A5
100
AcDbEntity
  8
DEFPOINTS
 62
     0
100
AcDbPoint
 10
-12.76391034947869
 20
31.17782901471475
 30
0.0
  0
ENDBLK
  5
B0
330
A5
100
AcDbEntity
  8
0
100
AcDbBlockEnd
  0
BLOCK
  5
BB
330
B1
100
AcDbEntity
  8
0
100
AcDbBlockBegin
  2
*D4
 70
     1
 10
0.0
 20
0.0
 30
0.0
  3
*D4
  1

  0
LINE
  5
B2
330
B1
100
AcDbEntity
  8
SUNPO
 62
     0
370
    -2
100
AcDbLine
 10
-10.7626480620313
 20
23.17782993992029
 30
0.0
 11
-2.762648062031299
 21
23.17782993992028
 31
0.0
  0
LINE
  5
B3
330
B1
100
AcDbEntity
  8
SUNPO
 62
     0
370
    -2
100
AcDbLine
 10
-10.7626480620313
 20
7.136367855280298
 30
0.0
 11
-2.762648062031303
 21
7.136367855280295
 31
0.0
  0
LINE
  5
B4
330
B1
100
AcDbEntity
  8
SUNPO
 62
     0
370
    -2
100
AcDbLine
 10
-4.7626480620313
 20
21.17782993992028
 30
0.0
 11
-4.762648062031303
 21
9.136367855280296
 31
0.0
  0
INSERT
  5
B5
330
B1
100
AcDbEntity
  8
SUNPO
 62
     0
370
    -2
100
AcDbBlockReference
  2
_OPEN30
 10
-4.762648062031299
 20
23.17782993992028
 30
0.0
 41
2.0
 42
2.0
 43
2.0
 50
90.0
  0
INSERT
  5
B6
330
B1
100
AcDbEntity
  8
SUNPO
 62
     0
370
    -2
100
AcDbBlockReference
  2
_OPEN30
 10
-4.762648062031303
 20
7.136367855280295
 30
0.0
 41
2.0
 42
2.0
 43
2.0
 50
270.0
  0
MTEXT
  5
B7
330
B1
100
AcDbEntity
  8
SUNPO
 62
     0
100
AcDbMText
 10
-6.512648062031304
 20
15.15709889760029
 30
0.0
 40
2.5
 41
0.0
 71
     5
 72
     1
  1
\A1;80.2
 11
0.0000000000000001
 21
1.0
 31
0.0
 73
     1
 44
1.0
1001
ACAD
1000
MTEXTBEGIN
1070
    73
1070
     1
1070
    44
1040
1.0
1070
    74
1070
     0
1000
MTEXTEND
  0
POINT
  5
B8
330
B1
100
AcDbEntity
  8
DEFPOINTS
 62
     0
100
AcDbPoint
 10
-12.7626480620313
 20
23.17782993992029
 30
0.0
  0
POINT
  5
B9
330
B1
100
AcDbEntity
  8
DEFPOINTS
 62
     0
100
AcDbPoint
 10
-12.7626480620313
 20
7.136367855280298
 30
0.0
  0
POINT
  5
BA
330
B1
100
AcDbEntity
  8
DEFPOINTS
 62
     0
100
AcDbPoint
 10
-4.762648062031303
 20
7.136367855280295
 30
0.0
  0
ENDBLK
  5
BC
330
B1
100
AcDbEntity
  8
0
100
AcDbBlockEnd
  0
ENDSEC
  0
SECTION
  2
ENTITIES
  0
TEXT
  5
34
330
2
100
AcDbEntity
  8
MOJI1
100
AcDbText
 10
-37.37102050089925
 20
53.70939737340961
 30
0.0
 40
4.0
  1
インナーカバー
100
AcDbText
  0
TEXT
  5
36
330
2
100
AcDbEntity
  8
TOUROKU
100
AcDbText
 10
47.02892953202816
 20
47.70939737340938
 30
0.0
 40
2.0
  1
ＤＧＱ１５３
 72
     2
 11
60.62892953202816
 21
47.70939737340938
 31
0.0
100
AcDbText
  0
SPLINE
  5
38
330
2
100
AcDbEntity
  8
GAIKEI
  6
Continuous
100
AcDbSpline
210
0.0
220
0.0
230
1.0
 70
    24
 71
     3
 72
     9
 73
     5
 74
     3
 42
0.0000000001
 43
0.0000000001
 44
0.00000000001
 40
0.0
 40
0.0
 40
0.0
 40
0.0
 40
0.6267626952300832
 40
1.253525390460279
 40
1.253525390460279
 40
1.253525390460279
 40
1.253525390460279
 10
33.08628067733366
 20
14.19775775880657
 30
0.0
 10
33.10618927997703
 20
13.98978759427993
 30
0.0
 10
33.14600648526371
 20
13.57384726522657
 30
0.0
 10
33.18582369055034
 20
13.15790693617323
 30
0.0
 10
33.20573229319371
 20
12.94993677164655
 30
0.0
 11
33.08628067733366
 21
14.19775775880657
 31
0.0
 11
33.14600648526369
 21
13.57384726522662
 31
0.0
 11
33.20573229319371
 21
12.94993677164655
 31
0.0
  0
SPLINE
  5
3A
330
2
100
AcDbEntity
  8
GAIKEI
  6
Continuous
100
AcDbSpline
210
0.0
220
0.0
230
1.0
 70
     8
 71
     3
 72
    17
 73
    13
 74
    11
 42
0.0000000001
 43
0.0000000001
 44
0.00000000001
 40
0.0
 40
0.0
 40
0.0
 40
0.0
 40
1.572340974613544
 40
3.078456163327778
 40
4.285459394580641
 40
5.459686889094409
 40
6.519919393312259
 40
7.628709291055186
 40
8.675404748433907
 40
9.704937227179097
 40
10.56106056563304
 40
11.37956874219571
 40
11.37956874219571
 40
11.37956874219571
 40
11.37956874219571
 10
26.33691974493365
 20
22.75060455038659
 30
0.0
 10
26.81383162418792
 20
22.53109093747443
 30
0.0
 10
27.74756822315652
 20
22.10130945526771
 30
0.0
 10
28.92335554412648
 20
21.27709494672131
 30
0.0
 10
29.89297750191355
 20
20.41571635619076
 30
0.0
 10
30.6771223265805
 20
19.5753680201885
 30
0.0
 10
31.34621515006114
 20
18.68171563015478
 30
0.0
 10
31.90084297345123
 20
17.76265183084558
 30
0.0
 10
32.36687430081662
 20
16.80676941841348
 30
0.0
 10
32.69976358056789
 20
15.88620039232293
 30
0.0
 10
32.93995170299394
 20
15.01619654198515
 30
0.0
 10
33.03824026372604
 20
14.46645463059049
 30
0.0
 10
33.08628067733366
 20
14.19775775880657
 30
0.0
 11
26.33691974493365
 21
22.75060455038659
 31
0.0
 11
27.7444088771855
 21
22.04972618501807
 31
0.0
 11
28.98457311493746
 21
21.19510602080663
 31
0.0
 11
29.88795106194903
 21
20.39462798543775
 31
0.0
 11
30.68599143595065
 21
19.53326756706724
 31
0.0
 11
31.32216329627329
 21
18.68510583300133
 31
0.0
 11
31.89663520159206
 21
17.73674036160531
 31
0.0
 11
32.35207953671375
 21
16.79432758680713
 31
0.0
 11
32.70556471267537
 21
15.82738117920917
 31
0.0
 11
32.93010601013805
 21
15.00122842312874
 31
0.0
 11
33.08628067733366
 21
14.19775775880657
 31
0.0
  0
SPLINE
  5
3B
330
2
100
AcDbEntity
  8
GAIKEI
  6
Continuous
100
AcDbSpline
210
0.0
220
0.0
230
1.0
 70
     8
 71
     3
 72
     9
 73
     5
 74
     3
 42
0.0000000001
 43
0.0000000001
 44
0.00000000001
 40
0.0
 40
0.0
 40
0.0
 40
0.0
 40
0.6346157091983795
 40
1.268418636397129
 40
1.268418636397129
 40
1.268418636397129
 40
1.268418636397129
 10
25.14168477561361
 20
23.17375866410657
 30
0.0
 10
25.3439574355134
 20
23.11148929321345
 30
0.0
 10
25.74824369526363
 20
22.98703030272091
 30
0.0
 10
26.14077823829058
 20
22.82937946113431
 30
0.0
 10
26.33691974493365
 20
22.75060455038659
 30
0.0
 11
25.14168477561361
 21
23.17375866410657
 31
0.0
 11
25.74556105977161
 21
22.97864195084782
 31
0.0
 11
26.33691974493365
 21
22.75060455038659
 31
0.0
  0
SPLINE
  5
3C
330
2
100
AcDbEntity
  8
GAIKEI
  6
Continuous
100
AcDbSpline
210
0.0
220
0.0
230
1.0
 70
     8
 71
     3
 72
    27
 73
    23
 74
    21
 42
0.0000000001
 43
0.0000000001
 44
0.00000000001
 40
0.0
 40
0.0
 40
0.0
 40
0.0
 40
1.054375676379298
 40
2.065636383140142
 40
2.879709883236087
 40
3.671976182547444
 40
4.386623866334559
 40
5.121291106104131
 40
5.869325674608764
 40
6.617367259758411
 40
7.369220684681844
 40
8.121119925912394
 40
8.8769986810951
 40
9.632927358550483
 40
10.39259406935791
 40
11.15229468995226
 40
11.90473330528576
 40
12.63620909222499
 40
13.45475959801701
 40
14.29652374584243
 40
15.34978017196768
 40
16.44856590020222
 40
16.44856590020222
 40
16.44856590020222
 40
16.44856590020222
 10
11.08866269975362
 20
12.95010225666658
 30
0.0
 10
11.11177000999697
 20
13.30111644008258
 30
0.0
 10
11.15703973863776
 20
13.98879132153679
 30
0.0
 10
11.34499385173433
 20
14.93278902851867
 30
0.0
 10
11.58609315939753
 20
15.77178887779477
 30
0.0
 10
11.84967188865997
 20
16.49997314620455
 30
0.0
 10
12.15684190134956
 20
17.18181902500169
 30
0.0
 10
12.5046354130817
 20
17.82708488146141
 30
0.0
 10
12.90114153431028
 20
18.45683503815013
 30
0.0
 10
13.34487261230853
 20
19.06140866168451
 30
0.0
 10
13.83056958539853
 20
19.63448854091214
 30
0.0
 10
14.35727668262598
 20
20.17378122619922
 30
0.0
 10
14.9213718239786
 20
20.67588687213497
 30
0.0
 10
15.52142266463795
 20
21.13865593434756
 30
0.0
 10
16.15328023107466
 20
21.5592931717016
 30
0.0
 10
16.81225626908818
 20
21.93360448474181
 30
0.0
 10
17.48632225527598
 20
22.25889796130747
 30
0.0
 10
18.19986207375831
 20
22.54331859838335
 30
0.0
 10
18.96128647618636
 20
22.78224054669221
 30
0.0
 10
19.84080489668864
 20
22.99524366639099
 30
0.0
 10
20.82939487193113
 20
23.14989887406598
 30
0.0
 10
21.5471333922572
 20
23.16838881561203
 30
0.0
 10
21.91359500693363
 20
23.17782937598656
 30
0.0
 11
11.08866269975362
 21
12.95010225666658
 31
0.0
 11
11.18131673440814
 21
14.00039902272965
 31
0.0
 11
11.37290032850353
 21
14.99334612278682
 31
0.0
 11
11.59695377691105
 21
15.77597995531334
 31
0.0
 11
11.86826245049951
 21
16.5203437727173
 31
0.0
 11
12.16158537308831
 21
17.17202082082184
 31
0.0
 11
12.50960625854463
 21
17.81902732502163
 31
0.0
 11
12.90848941972024
 21
18.45183688516471
 31
0.0
 11
13.35094656146339
 21
19.05499349072721
 31
0.0
 11
13.83710098001745
 21
19.62852418205023
 31
0.0
 11
14.3623846436376
 21
20.16651074479773
 31
0.0
 11
14.92701963623926
 21
20.66904434334242
 31
0.0
 11
15.52553848803234
 21
21.13078382556995
 31
0.0
 11
16.15796681270751
 21
21.55164951157622
 31
0.0
 11
16.81832085860674
 21
21.92725244952527
 31
0.0
 11
17.49623154227322
 21
22.25375049671061
 31
0.0
 11
18.17579307495794
 21
22.52440331892677
 31
0.0
 11
18.95622465561939
 21
22.7712868510601
 31
0.0
 11
19.77453469371949
 21
22.96860781322294
 31
0.0
 11
20.81606339429095
 21
23.12534665671768
 31
0.0
 11
21.91359500693363
 21
23.17782937598656
 31
0.0
  0
SPLINE
  5
3D
330
2
100
AcDbEntity
  8
GAIKEI
  6
Continuous
100
AcDbSpline
210
0.0
220
0.0
230
1.0
 70
     8
 71
     3
 72
    11
 73
     7
 74
     5
 42
0.0000000001
 43
0.0000000001
 44
0.00000000001
 40
0.0
 40
0.0
 40
0.0
 40
0.0
 40
0.1300510108796244
 40
0.266596436097621
 40
0.4356135936529708
 40
0.611125136805442
 40
0.611125136805442
 40
0.611125136805442
 40
0.611125136805442
 10
11.06204069975365
 20
12.33955876024657
 30
0.0
 10
11.06407754842376
 20
12.38286123026344
 30
0.0
 10
11.06825296076891
 20
12.47162858472411
 30
0.0
 10
11.07477271013624
 20
12.61668674873962
 30
0.0
 10
11.08169665681311
 20
12.77689544160479
 30
0.0
 10
11.08630958767711
 20
12.89164571896181
 30
0.0
 10
11.08865953011366
 20
12.95010238226655
 30
0.0
 11
11.06204069975365
 21
12.33955876024657
 31
0.0
 11
11.06810714741254
 21
12.46946820425899
 31
0.0
 11
11.07425167927852
 21
12.60587530772545
 31
0.0
 11
11.08151997303344
 21
12.77473611269209
 31
0.0
 11
11.08865953011366
 21
12.95010238226655
 31
0.0
  0
SPLINE
  5
3E
330
2
100
AcDbEntity
  8
GAIKEI
  6
Continuous
100
AcDbSpline
210
0.0
220
0.0
230
1.0
 70
     8
 71
     3
 72
    19
 73
    15
 74
    13
 42
0.0000000001
 43
0.0000000001
 44
0.00000000001
 40
0.0
 40
0.0
 40
0.0
 40
0.0
 40
1.130302162014767
 40
2.257739290543161
 40
3.367319030589126
 40
4.474625901454349
 40
5.571146837565594
 40
6.669409631540721
 40
7.754746524559524
 40
8.81932622087586
 40
9.963340052683822
 40
11.12917586993432
 40
12.49316461409484
 40
13.90111766445747
 40
13.90111766445747
 40
13.90111766445747
 40
13.90111766445747
 10
-21.26119643606864
 20
23.17375866414022
 30
0.0
 10
-20.90243544493637
 20
23.05765311196126
 30
0.0
 10
-20.18582283211987
 20
22.82573630616007
 30
0.0
 10
-19.16739391420984
 20
22.34722925807449
 30
0.0
 10
-18.20445027437827
 20
21.78288479711442
 30
0.0
 10
-17.31033039092446
 20
21.13125932791316
 30
0.0
 10
-16.48650525845858
 20
20.39867153379275
 30
0.0
 10
-15.74453128056348
 20
19.59322800711075
 30
0.0
 10
-15.08873107717789
 20
18.72957417308785
 30
0.0
 10
-14.51433508896667
 20
17.79167026823167
 30
0.0
 10
-14.02850005418173
 20
16.77484119408893
 30
0.0
 10
-13.61027145187359
 20
15.62246875830256
 30
0.0
 10
-13.29792690019496
 20
14.34163573951031
 30
0.0
 10
-13.2310949080454
 20
13.41871574331875
 30
0.0
 10
-13.19714891848866
 20
12.9499367716802
 30
0.0
 11
-21.26119643606864
 21
23.17375866414022
 31
0.0
 11
-20.19337754762933
 21
22.80315672276987
 31
0.0
 11
-19.17023862241308
 21
22.32955222691737
 31
0.0
 11
-18.21383932689286
 21
21.7669977077382
 31
0.0
 11
-17.31874910836984
 21
21.11512194735917
 31
0.0
 11
-16.49969466234472
 21
20.38607601068799
 31
0.0
 11
-15.75503330980291
 21
19.57882101091366
 31
0.0
 11
-15.09961738558547
 21
18.71372787278926
 31
0.0
 11
-14.54378883730305
 21
17.80577162124228
 31
0.0
 11
-14.04871690741902
 21
16.77442714357789
 31
0.0
 11
-13.65137515435822
 21
15.67839216053278
 31
0.0
 11
-13.33846975591166
 21
14.35077945126113
 31
0.0
 11
-13.19714891848866
 21
12.9499367716802
 31
0.0
  0
SPLINE
  5
3F
330
2
100
AcDbEntity
  8
GAIKEI
  6
Continuous
100
AcDbSpline
210
0.0
220
0.0
230
1.0
 70
     8
 71
     3
 72
    19
 73
    15
 74
    13
 42
0.0000000001
 43
0.0000000001
 44
0.00000000001
 40
0.0
 40
0.0
 40
0.0
 40
0.0
 40
1.130302162009879
 40
2.257739290535076
 40
3.367319030579531
 40
4.474625901443136
 40
5.571146837555811
 40
6.66940963153225
 40
7.754746524552346
 40
8.819326220870246
 40
9.963340052679704
 40
11.12917586993097
 40
12.49316461409095
 40
13.90111766445356
 40
13.90111766445356
 40
13.90111766445356
 40
13.90111766445356
 10
-27.71737597342872
 20
23.17375866414022
 30
0.0
 10
-28.07613696455829
 20
23.05765311195847
 30
0.0
 10
-28.79274957736993
 20
22.82573630615158
 30
0.0
 10
-29.81117849527965
 20
22.34722925807425
 30
0.0
 10
-30.77412213511363
 20
21.7828847971215
 30
0.0
 10
-31.66824201856158
 20
21.13125932791255
 30
0.0
 10
-32.49206715102161
 20
20.39867153378565
 30
0.0
 10
-33.23404112892382
 20
19.59322800710896
 30
0.0
 10
-33.88984133231927
 20
18.72957417309151
 30
0.0
 10
-34.46423732053145
 20
17.79167026823391
 30
0.0
 10
-34.95007235531503
 20
16.77484119408915
 30
0.0
 10
-35.36830095762389
 20
15.62246875830244
 30
0.0
 10
-35.68064550930254
 20
14.34163573951014
 30
0.0
 10
-35.74747750145201
 20
13.41871574331875
 30
0.0
 10
-35.7814234910087
 20
12.9499367716802
 30
0.0
 11
-27.71737597342872
 21
23.17375866414022
 31
0.0
 11
-28.78519486186099
 21
22.80315672276447
 31
0.0
 11
-29.80833378707621
 21
22.32955222691737
 31
0.0
 11
-30.76473308259745
 21
21.76699770774292
 31
0.0
 11
-31.65982330111524
 21
21.11512194735945
 31
0.0
 11
-32.47887774713752
 21
20.38607601068293
 31
0.0
 11
-33.2235390996849
 21
19.57882101091195
 31
0.0
 11
-33.87895502391018
 21
18.71372787279188
 31
0.0
 11
-34.43478357219476
 21
17.80577162124439
 31
0.0
 11
-34.92985550207823
 21
16.77442714357806
 31
0.0
 11
-35.32719725513925
 21
15.67839216053221
 31
0.0
 11
-35.64010265358581
 21
14.35077945126113
 31
0.0
 11
-35.7814234910087
 21
12.9499367716802
 31
0.0
  0
SPLINE
  5
40
330
2
100
AcDbEntity
  8
GAIKEI
  6
Continuous
100
AcDbSpline
210
0.0
220
0.0
230
1.0
 70
    24
 71
     3
 72
     9
 73
     5
 74
     3
 42
0.0000000001
 43
0.0000000001
 44
0.00000000001
 40
0.0
 40
0.0
 40
0.0
 40
0.0
 40
0.009773953933558
 40
0.0195479078672424
 40
0.0195479078672424
 40
0.0195479078672424
 40
0.0195479078672424
 10
-27.59470469222867
 20
12.33636785528017
 30
0.0
 10
-27.59775634677533
 20
12.33522686077019
 30
0.0
 10
-27.60385965586866
 20
12.33294487175021
 30
0.0
 10
-27.60996296496202
 20
12.33066288273021
 30
0.0
 10
-27.6130146195087
 20
12.3295218882202
 30
0.0
 11
-27.59470469222867
 21
12.33636785528017
 31
0.0
 11
-27.60385965586863
 21
12.33294487175021
 31
0.0
 11
-27.6130146195087
 21
12.3295218882202
 31
0.0
  0
SPLINE
  5
41
330
2
100
AcDbEntity
  8
GAIKEI
  6
Continuous
100
AcDbSpline
210
0.0
220
0.0
230
1.0
 70
    24
 71
     3
 72
     9
 73
     5
 74
     3
 42
0.0000000001
 43
0.0000000001
 44
0.00000000001
 40
0.0
 40
0.0
 40
0.0
 40
0.0
 40
0.009773953948796
 40
0.019547907897612
 40
0.019547907897612
 40
0.019547907897612
 40
0.019547907897612
 10
-21.38386771722867
 20
12.33636785528017
 30
0.0
 10
-21.38081606267537
 20
12.33522686077353
 30
0.0
 10
-21.37471275356867
 20
12.33294487176024
 30
0.0
 10
-21.36860944446204
 20
12.33066288274689
 30
0.0
 10
-21.36555778990874
 20
12.32952188824021
 30
0.0
 11
-21.38386771722867
 21
12.33636785528017
 31
0.0
 11
-21.3747127535687
 21
12.33294487176022
 31
0.0
 11
-21.36555778990874
 21
12.32952188824021
 31
0.0
  0
ARC
  5
42
330
2
100
AcDbEntity
  8
GAIKEI
  6
Continuous
100
AcDbCircle
 10
113.1481842442936
 20
15.98424824316646
 30
0.0
 40
80.0
100
AcDbArc
 50
182.1736864492983
 51
186.3498178902987
  0
ARC
  5
43
330
2
100
AcDbEntity
  8
GAIKEI
  6
Continuous
100
AcDbCircle
 10
-69.32099423044633
 20
15.98424824316652
 30
0.0
 40
80.0
100
AcDbArc
 50
353.6501821096653
 51
357.3181503113005
  0
ARC
  5
44
330
2
100
AcDbEntity
  8
GAIKEI
  6
Continuous
100
AcDbCircle
 10
10.69127603229367
 20
12.2363678552465
 30
0.0
 40
0.1
100
AcDbArc
 50
90.0
 51
177.318150311258
  0
ARC
  5
45
330
2
100
AcDbEntity
  8
GAIKEI
  6
Continuous
100
AcDbCircle
 10
66.74530303263122
 20
15.98424824320028
 30
0.0
 40
80.0
100
AcDbArc
 50
182.1736864493016
 51
186.349817890302
  0
ARC
  5
46
330
2
100
AcDbEntity
  8
GAIKEI
  6
Continuous
100
AcDbCircle
 10
-115.7238754421087
 20
15.98424824320028
 30
0.0
 40
80.0
100
AcDbArc
 50
353.6501821097012
 51
357.8263135507017
  0
ARC
  5
47
330
2
100
AcDbEntity
  8
GAIKEI
  6
Continuous
100
AcDbCircle
 10
-27.68928620474878
 20
23.07782993492009
 30
0.0
 40
0.1
100
AcDbArc
 50
0.0000028624983991
 51
89.99999998705387
  0
ARC
  5
48
330
2
100
AcDbEntity
  8
GAIKEI
  6
Continuous
100
AcDbCircle
 10
-21.28928620474869
 20
23.07782993992032
 30
0.0
 40
0.1
100
AcDbArc
 50
90.00000102744071
 51
180.0
  0
LINE
  5
49
330
2
100
AcDbEntity
  8
GAIKEI
  6
Continuous
100
AcDbLine
 10
25.14169692527366
 20
23.17380015498651
 30
0.0
 11
25.11359500693368
 21
23.17782993988669
 31
0.0
  0
LINE
  5
4A
330
2
100
AcDbEntity
  8
GAIKEI
  6
Continuous
100
AcDbLine
 10
21.91359500693363
 20
23.17782993988669
 30
0.0
 11
25.11359500693368
 21
23.17782993988669
 31
0.0
  0
LINE
  5
4B
330
2
100
AcDbEntity
  8
GAIKEI
  6
Continuous
100
AcDbLine
 10
11.06204069975365
 20
12.33636785522572
 30
0.0
 11
10.69127603229367
 21
12.33636785524646
 31
0.0
  0
LINE
  5
4C
330
2
100
AcDbEntity
  8
GAIKEI
  6
Continuous
100
AcDbLine
 10
33.63897086218504
 20
7.136367855281093
 30
0.0
 11
10.18821915166199
 21
7.1363678552799
 31
0.0
  0
LINE
  5
4D
330
2
100
AcDbEntity
  8
GAIKEI
  6
Continuous
100
AcDbLine
 10
-27.58928620474876
 20
12.33636785528029
 30
0.0
 11
-27.59470469222879
 21
12.33636785528029
 31
0.0
  0
LINE
  5
4E
330
2
100
AcDbEntity
  8
GAIKEI
  6
Continuous
100
AcDbLine
 10
-21.38928620474871
 20
12.33636785528029
 30
0.0
 11
-27.58928620474876
 21
12.33636785528029
 31
0.0
  0
LINE
  5
4F
330
2
100
AcDbEntity
  8
GAIKEI
  6
Continuous
100
AcDbLine
 10
-12.7639103494887
 20
7.136367855280298
 30
0.0
 11
-36.21466206000878
 21
7.136367855280298
 31
0.0
  0
LINE
  5
50
330
2
100
AcDbEntity
  8
GAIKEI
  6
Continuous
100
AcDbLine
 10
-27.58928620474876
 20
23.07782993992032
 30
0.0
 11
-27.58928620474876
 21
12.33636785528029
 31
0.0
  0
LINE
  5
51
330
2
100
AcDbEntity
  8
GAIKEI
  6
Continuous
100
AcDbLine
 10
-21.38386771722878
 20
12.33636785528029
 30
0.0
 11
-21.38928620474871
 21
12.33636785528029
 31
0.0
  0
LINE
  5
52
330
2
100
AcDbEntity
  8
GAIKEI
  6
Continuous
100
AcDbLine
 10
-21.38928620474871
 20
12.33636785528029
 30
0.0
 11
-21.38928620474871
 21
16.33636785528028
 31
0.0
  0
LINE
  5
53
330
2
100
AcDbEntity
  8
GAIKEI
  6
Continuous
 62
     1
100
AcDbLine
 10
-21.38928620474871
 20
22.39892330506029
 30
0.0
 11
-27.58928620474876
 21
22.39892330506029
 31
0.0
  0
LINE
  5
54
330
2
100
AcDbEntity
  8
GAIKEI
  6
Continuous
 62
     1
100
AcDbLine
 10
-27.58928620474876
 20
22.46360311994028
 30
0.0
 11
-21.38928620474871
 21
22.46360311994028
 31
0.0
  0
LINE
  5
55
330
2
100
AcDbEntity
  8
GAIKEI
  6
Continuous
100
AcDbLine
 10
-27.68928620474878
 20
23.17782993992029
 30
0.0
 11
-27.71738812308877
 21
23.17380015502028
 31
0.0
  0
LINE
  5
56
330
2
100
AcDbEntity
  8
GAIKEI
  6
Continuous
100
AcDbLine
 10
-27.68928620474878
 20
23.17782993992029
 30
0.0
 11
-21.28928620474869
 21
23.17782993992029
 31
0.0
  0
LINE
  5
57
330
2
100
AcDbEntity
  8
GAIKEI
  6
Continuous
100
AcDbLine
 10
-21.28928620474869
 20
23.17782993992029
 30
0.0
 11
-21.2611842863887
 21
23.17380015502028
 31
0.0
  0
LINE
  5
58
330
2
100
AcDbEntity
  8
GAIKEI
  6
Continuous
100
AcDbLine
 10
-21.38928620474871
 20
16.33636785528028
 30
0.0
 11
-21.38928620474871
 21
23.07782993992032
 31
0.0
  0
DIMENSION
  5
59
330
2
100
AcDbEntity
  8
SUNPO
100
AcDbDimension
  2
*D4
 10
-4.762648062031303
 20
7.136367855280295
 30
0.0
 11
-6.512648062031304
 21
15.15709889760029
 31
0.0
 70
    33
  1
80.2
 71
     5
 42
16.04146208463999
  3
STANDARD
100
AcDbAlignedDimension
 13
-12.7626480620313
 23
23.17782993992029
 33
0.0
 14
-12.7626480620313
 24
7.136367855280298
 34
0.0
1001
ACAD
1000
DSTYLE
1002
{
1070
    40
1040
1.0
1070
   140
1040
2.5
1070
   147
1040
0.5
1070
   172
1070
     1
1070
   279
1070
     0
1070
   288
1070
     0
1002
}
  0
DIMENSION
  5
67
330
2
100
AcDbEntity
  8
SUNPO
100
AcDbDimension
  2
*D3
 10
-12.76391034947869
 20
31.17782901471475
 30
0.0
 11
-24.48928620474368
 21
32.92782901471475
 31
0.0
 70
    33
  1
φ117.3
 71
     5
 42
23.45075171052997
  3
STANDARD
100
AcDbAlignedDimension
 13
-36.21466206000866
 23
23.17782901471475
 33
0.0
 14
-12.76391034947869
 24
23.17782901471475
 34
0.0
1001
ACAD
1000
DSTYLE
1002
{
1070
    40
1040
1.0
1070
   140
1040
2.5
1070
   147
1040
0.5
1070
   172
1070
     1
1070
   279
1070
     0
1070
   288
1070
     0
1002
}
  0
LINE
  5
74
330
2
100
AcDbEntity
  8
WAKU
 62
     1
100
AcDbLine
 10
-64.37102050089913
 20
-45.2906026265905
 30
0.0
 11
60.62897949910075
 21
-45.2906026265905
 31
0.0
  0
TEXT
  5
76
330
2
100
AcDbEntity
  8
MOJI1
100
AcDbText
 10
-61.87102050089913
 20
-29.2906026265905
 30
0.0
 40
3.0
  1
仕上げ
100
AcDbText
  0
TEXT
  5
77
330
2
100
AcDbEntity
  8
MOJI1
100
AcDbText
 10
-21.87102050089913
 20
-29.2906026265905
 30
0.0
 40
3.0
  1
ＡＢＳ樹脂
100
AcDbText
  0
LINE
  5
78
330
2
100
AcDbEntity
  8
WAKU
 62
     1
100
AcDbLine
 10
-64.37102050089913
 20
-30.2906026265905
 30
0.0
 11
60.62897949910075
 21
-30.2906026265905
 31
0.0
  0
LINE
  5
79
330
2
100
AcDbEntity
  8
WAKU
 62
     1
100
AcDbLine
 10
-64.37102050089913
 20
-25.2906026265905
 30
0.0
 11
60.62897949910075
 21
-25.2906026265905
 31
0.0
  0
LINE
  5
7A
330
2
100
AcDbEntity
  8
WAKU
 62
     4
100
AcDbLine
 10
-64.37102050089913
 20
-20.2906026265905
 30
0.0
 11
60.62897949910075
 21
-20.2906026265905
 31
0.0
  0
LINE
  5
7B
330
2
100
AcDbEntity
  8
WAKU
 62
     4
100
AcDbLine
 10
60.62897949910075
 20
-55.2906026265905
 30
0.0
 11
-64.37102050089913
 21
-55.2906026265905
 31
0.0
  0
LINE
  5
7C
330
2
100
AcDbEntity
  8
WAKU
 62
     1
100
AcDbLine
 10
-64.37102050089913
 20
-50.2906026265905
 30
0.0
 11
60.62897949910075
 21
-50.2906026265905
 31
0.0
  0
LINE
  5
7D
330
2
100
AcDbEntity
  8
WAKU
 62
     1
100
AcDbLine
 10
-64.37102050089913
 20
-40.2906026265905
 30
0.0
 11
60.62897949910075
 21
-40.2906026265905
 31
0.0
  0
LINE
  5
7E
330
2
100
AcDbEntity
  8
WAKU
 62
     1
100
AcDbLine
 10
-64.37102050089913
 20
-35.2906026265905
 30
0.0
 11
60.62897949910075
 21
-35.2906026265905
 31
0.0
  0
LINE
  5
7F
330
2
100
AcDbEntity
  8
WAKU
 62
     4
100
AcDbLine
 10
-64.37102050089913
 20
-20.2906026265905
 30
0.0
 11
-64.37102050089913
 21
-55.2906026265905
 31
0.0
  0
TEXT
  5
80
330
2
100
AcDbEntity
  8
MOJI1
100
AcDbText
 10
-21.87102050089913
 20
-24.2906026265905
 30
0.0
 40
3.0
  1
ＤＧ－ＮＳ２０２、ＤＧ－ＮＳ２０２Ａ専用
100
AcDbText
  0
TEXT
  5
81
330
2
100
AcDbEntity
  8
MOJI1
100
AcDbText
 10
-61.87102050089913
 20
-24.2906026265905
 30
0.0
 40
3.0
  1
取付けカメラ
100
AcDbText
  0
LINE
  5
82
330
2
100
AcDbEntity
  8
WAKU
 62
     4
100
AcDbLine
 10
-24.37102050089914
 20
-20.2906026265905
 30
0.0
 11
-24.37102050089914
 21
-55.2906026265905
 31
0.0
  0
LINE
  5
83
330
2
100
AcDbEntity
  8
WAKU
 62
     4
100
AcDbLine
 10
60.62897949910075
 20
-20.2906026265905
 30
0.0
 11
60.62897949910075
 21
-55.2906026265905
 31
0.0
  0
TEXT
  5
84
330
2
100
AcDbEntity
  8
MOJI1
100
AcDbText
 10
-61.87102050089913
 20
-34.2906026265905
 30
0.0
 40
3.0
  1
質　量
100
AcDbText
  0
TEXT
  5
85
330
2
100
AcDbEntity
  8
MOJI1
100
AcDbText
 10
-21.87102050089913
 20
-34.2906026265905
 30
0.0
 40
3.0
  1
約５０ｇ
100
AcDbText
  0
ENDSEC
  0
SECTION
  2
OBJECTS
  0
DICTIONARY
  5
9
330
0
100
AcDbDictionary
281
     1
  3
ACAD_COLOR
350
31
  3
ACAD_GROUP
350
2D
  3
ACAD_LAYOUT
350
D
  3
ACAD_MATERIAL
350
30
  3
ACAD_MLINESTYLE
350
2E
  3
ACAD_PLOTSETTINGS
350
2F
  3
ACAD_PLOTSTYLENAME
350
8
  3
ACDBHEADERROUNDTRIPXREC
350
C2
  3
AcDbVariableDictionary
350
BD
  0
DICTIONARY
  5
15
330
14
100
AcDbDictionary
280
     1
281
     1
  3
ACAD_LAYERFILTERS
360
16
  3
ACAD_LAYERSTATES
360
17
  0
DICTIONARY
  5
3
330
2
100
AcDbDictionary
280
     1
281
     1
  3
ACAD_LAYOUTSELFREF
360
4
  0
DICTIONARY
  5
F
330
E
100
AcDbDictionary
280
     1
281
     1
  3
ACAD_LAYOUTSELFREF
360
10
  0
DICTIONARY
  5
31
102
{ACAD_REACTORS
330
9
102
}
330
9
100
AcDbDictionary
281
     1
  0
DICTIONARY
  5
2D
102
{ACAD_REACTORS
330
9
102
}
330
9
100
AcDbDictionary
281
     1
  0
DICTIONARY
  5
D
102
{ACAD_REACTORS
330
9
102
}
330
9
100
AcDbDictionary
281
     1
  3
Model
350
C
  3
ﾚｲｱｳﾄ1
350
13
  0
DICTIONARY
  5
30
102
{ACAD_REACTORS
330
9
102
}
330
9
100
AcDbDictionary
281
     1
  0
DICTIONARY
  5
2E
102
{ACAD_REACTORS
330
9
102
}
330
9
100
AcDbDictionary
281
     1
  3
STANDARD
350
33
  0
DICTIONARY
  5
2F
102
{ACAD_REACTORS
330
9
102
}
330
9
100
AcDbDictionary
281
     1
  0
ACDBDICTIONARYWDFLT
  5
8
102
{ACAD_REACTORS
330
9
102
}
330
9
100
AcDbDictionary
281
     1
  3
Normal
350
7
100
AcDbDictionaryWithDefault
340
7
  0
DICTIONARY
  5
C2
102
{ACAD_REACTORS
330
9
102
}
330
9
100
AcDbDictionary
281
     1
  3
COLORDICT
350
C4
  3
MATERIALDICT
350
C3
  0
DICTIONARY
  5
BD
102
{ACAD_REACTORS
330
9
102
}
330
9
100
AcDbDictionary
281
     1
  3
DIMASSOC
350
BF
  3
HIDETEXT
350
BE
  3
PROJECTNAME
350
C0
  0
DICTIONARY
  5
16
102
{ACAD_REACTORS
330
15
102
}
330
15
100
AcDbDictionary
280
     1
281
     1
  0
DICTIONARY
  5
17
102
{ACAD_REACTORS
330
15
102
}
330
15
100
AcDbDictionary
281
     1
  0
XRECORD
  5
4
102
{ACAD_REACTORS
330
3
102
}
330
3
100
AcDbXrecord
280
     1
340
2
  0
XRECORD
  5
10
102
{ACAD_REACTORS
330
F
102
}
330
F
100
AcDbXrecord
280
     1
340
E
  0
LAYOUT
  5
C
102
{ACAD_XDICTIONARY
360
C5
102
}
102
{ACAD_REACTORS
330
D
102
}
330
D
100
AcDbPlotSettings
  1

  2
FX78BC34-A4縦.pc3
  4
A4
  6

 40
4.900083065032958
 41
4.900057315826416
 42
4.90008544921875
 43
4.90008544921875
 44
210.0156707763672
 45
297.0106506347656
 46
5.73
 47
0.0
 48
0.0
 49
0.0
140
0.0
141
0.0
142
1.0
143
1.372907815045798
 70
 11956
 72
     1
 73
     0
 74
     1
  7
tmsacad.ctb
 75
     0
147
0.7283810238684099
148
0.5839898734307099
149
0.009273483718971
100
AcDbLayout
  1
Model
 70
     1
 71
     0
 10
0.0
 20
0.0
 11
12.0
 21
9.0
 12
0.0
 22
0.0
 32
0.0
 14
0.0
 24
0.0
 34
0.0
 15
0.0
 25
0.0
 35
0.0
146
0.0
 13
0.0
 23
0.0
 33
0.0
 16
1.0
 26
0.0
 36
0.0
 17
0.0
 27
1.0
 37
0.0
 76
     0
330
2
  0
LAYOUT
  5
13
102
{ACAD_XDICTIONARY
360
C7
102
}
102
{ACAD_REACTORS
330
D
102
}
330
D
100
AcDbPlotSettings
  1

  2
C:\Program Files\ACAD2000\plotters\DWF ePlot.pc3
  4

  6

 40
0.0
 41
0.0
 42
0.0
 43
0.0
 44
0.0
 45
0.0
 46
0.0
 47
0.0
 48
0.0
 49
0.0
140
0.0
141
0.0
142
1.0
143
1.0
 70
   688
 72
     0
 73
     0
 74
     5
  7
tmsacad.ctb
 75
    16
147
1.0
148
0.0
149
0.0
100
AcDbLayout
  1
ﾚｲｱｳﾄ1
 70
     1
 71
     1
 10
0.0
 20
0.0
 11
12.0
 21
9.0
 12
0.0
 22
0.0
 32
0.0
 14
1.000000000000000E+20
 24
1.000000000000000E+20
 34
1.000000000000000E+20
 15
-1.000000000000000E+20
 25
-1.000000000000000E+20
 35
-1.000000000000000E+20
146
0.0
 13
0.0
 23
0.0
 33
0.0
 16
1.0
 26
0.0
 36
0.0
 17
0.0
 27
1.0
 37
0.0
 76
     0
330
E
  0
MLINESTYLE
  5
33
102
{ACAD_REACTORS
330
2E
102
}
330
2E
100
AcDbMlineStyle
  2
STANDARD
 70
     0
  3

 62
   256
 51
90.0
 52
90.0
 71
     2
 49
0.5
 62
   256
  6
BYLAYER
 49
-0.5
 62
   256
  6
BYLAYER
  0
ACDBPLACEHOLDER
  5
7
102
{ACAD_REACTORS
330
8
102
}
330
8
  0
XRECORD
  5
C4
102
{ACAD_REACTORS
330
C2
102
}
330
C2
100
AcDbXrecord
280
     1
340
31
  0
XRECORD
  5
C3
102
{ACAD_REACTORS
330
C2
102
}
330
C2
100
AcDbXrecord
280
     1
340
30
  0
DICTIONARYVAR
  5
BF
102
{ACAD_REACTORS
330
BD
102
}
330
BD
100
DictionaryVariables
280
     0
  1
1
  0
DICTIONARYVAR
  5
BE
102
{ACAD_REACTORS
330
BD
102
}
330
BD
100
DictionaryVariables
280
     0
  1
1
  0
DICTIONARYVAR
  5
C0
102
{ACAD_REACTORS
330
BD
102
}
330
BD
100
DictionaryVariables
280
     0
  1

  0
DICTIONARY
  5
C5
330
C
100
AcDbDictionary
280
     1
281
     1
  3
ACAD_XREC_ROUNDTRIP
360
C6
  0
DICTIONARY
  5
C7
330
13
100
AcDbDictionary
280
     1
281
     1
  3
ACAD_XREC_ROUNDTRIP
360
C8
  0
XRECORD
  5
C6
102
{ACAD_REACTORS
330
C5
102
}
330
C5
100
AcDbXrecord
280
     1
102
SHADEPLOT
 70
     0
102
SHADEPLOTRESLEVEL
 70
     2
102
SHADEPLOTCUSTOMDPI
 70
   300
  0
XRECORD
  5
C8
102
{ACAD_REACTORS
330
C7
102
}
330
C7
100
AcDbXrecord
280
     1
102
SHADEPLOT
 70
     0
102
SHADEPLOTRESLEVEL
 70
     2
102
SHADEPLOTCUSTOMDPI
 70
   300
  0
ENDSEC
  0
EOF
