  0
SECTION
  2
HEADER
  9
$ACADVER
  1
AC1015
  9
$ACADMAINTVER
 70
    20
  9
$DWGCODEPAGE
  3
ANSI_932
  9
$INSBASE
 10
276.5949087709618
 20
528.0588235294117
 30
0.0
  9
$EXTMIN
 10
-60.27491571460268
 20
-67.08965933961986
 30
-0.000000000000013
  9
$EXTMAX
 10
64.77917585915315
 20
45.98025587198821
 30
0.0000000000000023
  9
$LIMMIN
 10
0.0
 20
0.0
  9
$LIMMAX
 10
841.0
 20
594.0
  9
$ORTHOMODE
 70
     0
  9
$REGENMODE
 70
     1
  9
$FILLMODE
 70
     1
  9
$QTEXTMODE
 70
     0
  9
$MIRRTEXT
 70
     1
  9
$LTSCALE
 40
1.0
  9
$ATTMODE
 70
     1
  9
$TEXTSIZE
 40
2.5
  9
$TRACEWID
 40
0.05
  9
$TEXTSTYLE
  7
STANDARD
  9
$CLAYER
  8
GAIKEI
  9
$CELTYPE
  6
BYLAYER
  9
$CECOLOR
 62
   256
  9
$CELTSCALE
 40
1.0
  9
$DISPSILH
 70
     0
  9
$DIMSCALE
 40
1.0
  9
$DIMASZ
 40
2.0
  9
$DIMEXO
 40
2.0
  9
$DIMDLI
 40
8.0
  9
$DIMRND
 40
0.0
  9
$DIMDLE
 40
0.0
  9
$DIMEXE
 40
2.0
  9
$DIMTP
 40
0.0
  9
$DIMTM
 40
0.0
  9
$DIMTXT
 40
2.5
  9
$DIMCEN
 40
0.0
  9
$DIMTSZ
 40
0.0
  9
$DIMTOL
 70
     0
  9
$DIMLIM
 70
     0
  9
$DIMTIH
 70
     0
  9
$DIMTOH
 70
     0
  9
$DIMSE1
 70
     0
  9
$DIMSE2
 70
     0
  9
$DIMTAD
 70
     3
  9
$DIMZIN
 70
     0
  9
$DIMBLK
  1

  9
$DIMASO
 70
     1
  9
$DIMSHO
 70
     0
  9
$DIMPOST
  1

  9
$DIMAPOST
  1

  9
$DIMALT
 70
     0
  9
$DIMALTD
 70
     2
  9
$DIMALTF
 40
25.4
  9
$DIMLFAC
 40
1.0
  9
$DIMTOFL
 70
     1
  9
$DIMTVP
 40
0.0
  9
$DIMTIX
 70
     0
  9
$DIMSOXD
 70
     0
  9
$DIMSAH
 70
     1
  9
$DIMBLK1
  1
OPEN30
  9
$DIMBLK2
  1
OPEN30
  9
$DIMSTYLE
  2
STANDARD
  9
$DIMCLRD
 70
     0
  9
$DIMCLRE
 70
     0
  9
$DIMCLRT
 70
     0
  9
$DIMTFAC
 40
1.0
  9
$DIMGAP
 40
0.5
  9
$DIMJUST
 70
     0
  9
$DIMSD1
 70
     0
  9
$DIMSD2
 70
     0
  9
$DIMTOLJ
 70
     1
  9
$DIMTZIN
 70
     0
  9
$DIMALTZ
 70
     0
  9
$DIMALTTZ
 70
     0
  9
$DIMUPT
 70
     0
  9
$DIMDEC
 70
     4
  9
$DIMTDEC
 70
     4
  9
$DIMALTU
 70
     2
  9
$DIMALTTD
 70
     2
  9
$DIMTXSTY
  7
STANDARD
  9
$DIMAUNIT
 70
     0
  9
$DIMADEC
 70
     0
  9
$DIMALTRND
 40
0.0
  9
$DIMAZIN
 70
     0
  9
$DIMDSEP
 70
    46
  9
$DIMATFIT
 70
     3
  9
$DIMFRAC
 70
     0
  9
$DIMLDRBLK
  1
OPEN30
  9
$DIMLUNIT
 70
     2
  9
$DIMLWD
 70
    -2
  9
$DIMLWE
 70
    -2
  9
$DIMTMOVE
 70
     0
  9
$LUNITS
 70
     2
  9
$LUPREC
 70
     4
  9
$SKETCHINC
 40
0.1
  9
$FILLETRAD
 40
0.0
  9
$AUNITS
 70
     0
  9
$AUPREC
 70
     0
  9
$MENU
  1
ACAD
  9
$ELEVATION
 40
0.0
  9
$PELEVATION
 40
0.0
  9
$THICKNESS
 40
0.0
  9
$LIMCHECK
 70
     0
  9
$CHAMFERA
 40
0.0
  9
$CHAMFERB
 40
0.0
  9
$CHAMFERC
 40
0.0
  9
$CHAMFERD
 40
0.0
  9
$SKPOLY
 70
     0
  9
$TDCREATE
 40
2448885.016931713
  9
$TDUCREATE
 40
2448884.641931713
  9
$TDUPDATE
 40
2456701.588977500
  9
$TDUUPDATE
 40
2456701.213977500
  9
$TDINDWG
 40
1.0999112037
  9
$TDUSRTIMER
 40
1.0999112037
  9
$USRTIMER
 70
     1
  9
$ANGBASE
 50
0.0
  9
$ANGDIR
 70
     0
  9
$PDMODE
 70
     0
  9
$PDSIZE
 40
0.0
  9
$PLINEWID
 40
0.0
  9
$SPLFRAME
 70
     0
  9
$SPLINETYPE
 70
     6
  9
$SPLINESEGS
 70
     8
  9
$HANDSEED
  5
22B
  9
$SURFTAB1
 70
     6
  9
$SURFTAB2
 70
     6
  9
$SURFTYPE
 70
     6
  9
$SURFU
 70
     6
  9
$SURFV
 70
     6
  9
$UCSBASE
  2

  9
$UCSNAME
  2

  9
$UCSORG
 10
0.0
 20
0.0
 30
0.0
  9
$UCSXDIR
 10
1.0
 20
0.0
 30
0.0
  9
$UCSYDIR
 10
0.0
 20
1.0
 30
0.0
  9
$UCSORTHOREF
  2

  9
$UCSORTHOVIEW
 70
     0
  9
$UCSORGTOP
 10
0.0
 20
0.0
 30
0.0
  9
$UCSORGBOTTOM
 10
0.0
 20
0.0
 30
0.0
  9
$UCSORGLEFT
 10
0.0
 20
0.0
 30
0.0
  9
$UCSORGRIGHT
 10
0.0
 20
0.0
 30
0.0
  9
$UCSORGFRONT
 10
0.0
 20
0.0
 30
0.0
  9
$UCSORGBACK
 10
0.0
 20
0.0
 30
0.0
  9
$PUCSBASE
  2

  9
$PUCSNAME
  2

  9
$PUCSORG
 10
0.0
 20
0.0
 30
0.0
  9
$PUCSXDIR
 10
1.0
 20
0.0
 30
0.0
  9
$PUCSYDIR
 10
0.0
 20
1.0
 30
0.0
  9
$PUCSORTHOREF
  2

  9
$PUCSORTHOVIEW
 70
     0
  9
$PUCSORGTOP
 10
0.0
 20
0.0
 30
0.0
  9
$PUCSORGBOTTOM
 10
0.0
 20
0.0
 30
0.0
  9
$PUCSORGLEFT
 10
0.0
 20
0.0
 30
0.0
  9
$PUCSORGRIGHT
 10
0.0
 20
0.0
 30
0.0
  9
$PUCSORGFRONT
 10
0.0
 20
0.0
 30
0.0
  9
$PUCSORGBACK
 10
0.0
 20
0.0
 30
0.0
  9
$USERI1
 70
     0
  9
$USERI2
 70
     0
  9
$USERI3
 70
     0
  9
$USERI4
 70
     0
  9
$USERI5
 70
     0
  9
$USERR1
 40
0.0
  9
$USERR2
 40
0.0
  9
$USERR3
 40
0.0
  9
$USERR4
 40
0.0
  9
$USERR5
 40
0.0
  9
$WORLDVIEW
 70
     1
  9
$SHADEDGE
 70
     3
  9
$SHADEDIF
 70
    70
  9
$TILEMODE
 70
     1
  9
$MAXACTVP
 70
    48
  9
$PINSBASE
 10
0.0
 20
0.0
 30
0.0
  9
$PLIMCHECK
 70
     0
  9
$PEXTMIN
 10
1.000000000000000E+20
 20
1.000000000000000E+20
 30
1.000000000000000E+20
  9
$PEXTMAX
 10
-1.000000000000000E+20
 20
-1.000000000000000E+20
 30
-1.000000000000000E+20
  9
$PLIMMIN
 10
0.0
 20
0.0
  9
$PLIMMAX
 10
12.0
 20
9.0
  9
$UNITMODE
 70
     0
  9
$VISRETAIN
 70
     0
  9
$PLINEGEN
 70
     0
  9
$PSLTSCALE
 70
     0
  9
$TREEDEPTH
 70
  3020
  9
$CMLSTYLE
  2
STANDARD
  9
$CMLJUST
 70
     0
  9
$CMLSCALE
 40
1.0
  9
$PROXYGRAPHICS
 70
     1
  9
$MEASUREMENT
 70
     0
  9
$CELWEIGHT
370
    -1
  9
$ENDCAPS
280
     0
  9
$JOINSTYLE
280
     0
  9
$LWDISPLAY
290
     0
  9
$INSUNITS
 70
     0
  9
$HYPERLINKBASE
  1

  9
$STYLESHEET
  1

  9
$XEDIT
290
     1
  9
$CEPSNTYPE
380
     0
  9
$PSTYLEMODE
290
     1
  9
$FINGERPRINTGUID
  2
{817FF4E2-95E3-4985-8D2A-9E0E5385B838}
  9
$VERSIONGUID
  2
{ECC83C45-86CA-4A0A-8FA6-600E178DFCC8}
  9
$EXTNAMES
290
     1
  9
$PSVPSCALE
 40
0.0
  9
$OLESTARTUP
290
     0
  0
ENDSEC
  0
SECTION
  2
CLASSES
  0
CLASS
  1
DICTIONARYVAR
  2
AcDbDictionaryVar
  3
ObjectDBX Classes
 90
        0
280
     0
281
     0
  0
CLASS
  1
ACDBDICTIONARYWDFLT
  2
AcDbDictionaryWithDefault
  3
ObjectDBX Classes
 90
        0
280
     0
281
     0
  0
CLASS
  1
ACDBPLACEHOLDER
  2
AcDbPlaceHolder
  3
ObjectDBX Classes
 90
        0
280
     0
281
     0
  0
CLASS
  1
LAYOUT
  2
AcDbLayout
  3
ObjectDBX Classes
 90
        0
280
     0
281
     0
  0
CLASS
  1
TABLESTYLE
  2
AcDbTableStyle
  3
ObjectDBX Classes
 90
     4095
280
     0
281
     0
  0
CLASS
  1
MATERIAL
  2
AcDbMaterial
  3
ObjectDBX Classes
 90
     1153
280
     0
281
     0
  0
CLASS
  1
SORTENTSTABLE
  2
AcDbSortentsTable
  3
ObjectDBX Classes
 90
        0
280
     0
281
     0
  0
CLASS
  1
VISUALSTYLE
  2
AcDbVisualStyle
  3
ObjectDBX Classes
 90
     4095
280
     0
281
     0
  0
CLASS
  1
SCALE
  2
AcDbScale
  3
ObjectDBX Classes
 90
     1153
280
     0
281
     0
  0
CLASS
  1
MLEADERSTYLE
  2
AcDbMLeaderStyle
  3
ACDB_MLEADERSTYLE_CLASS
 90
     4095
280
     0
281
     0
  0
CLASS
  1
CELLSTYLEMAP
  2
AcDbCellStyleMap
  3
ObjectDBX Classes
 90
     1152
280
     0
281
     0
  0
CLASS
  1
SOLID_BACKGROUND
  2
AcDbSolidBackground
  3
SCENEOE
 90
    36863
280
     0
281
     0
  0
CLASS
  1
NPOCOLLECTION
  2
AcDbImpNonPersistentObjectsCollection
  3
ObjectDBX Classes
 90
    33921
280
     0
281
     0
  0
ENDSEC
  0
SECTION
  2
TABLES
  0
TABLE
  2
VPORT
  5
28
102
{ACAD_XDICTIONARY
360
2C
102
}
330
0
100
AcDbSymbolTable
 70
     1
  0
VPORT
  5
29
330
28
100
AcDbSymbolTableRecord
100
AcDbViewportTableRecord
  2
*Active
 70
     0
 10
0.0
 20
0.0
 11
1.0
 21
1.0
 12
2.252130072275235
 22
-10.55470173381582
 13
0.0
 23
0.0
 14
1.0
 24
1.0
 15
0.0
 25
0.0
 16
0.0
 26
0.0
 36
1.0
 17
0.0
 27
0.0
 37
0.0
 40
113.8982662387993
 41
2.276283618581907
 42
50.0
 43
0.0
 44
0.0
 50
0.0
 51
0.0
 71
     0
 72
   100
 73
     1
 74
     0
 75
     0
 76
     0
 77
     0
 78
     0
281
     0
 65
     1
110
0.0
120
0.0
130
0.0
111
1.0
121
0.0
131
0.0
112
0.0
122
1.0
132
0.0
 79
     0
146
0.0
  0
ENDTAB
  0
TABLE
  2
LTYPE
  5
23
330
0
100
AcDbSymbolTable
 70
     2
  0
LTYPE
  5
24
330
23
100
AcDbSymbolTableRecord
100
AcDbLinetypeTableRecord
  2
BYBLOCK
 70
     0
  3

 72
    65
 73
     0
 40
0.0
  0
LTYPE
  5
25
330
23
100
AcDbSymbolTableRecord
100
AcDbLinetypeTableRecord
  2
BYLAYER
 70
     0
  3

 72
    65
 73
     0
 40
0.0
  0
LTYPE
  5
F
330
23
100
AcDbSymbolTableRecord
100
AcDbLinetypeTableRecord
  2
CONTINUOUS
 70
     0
  3
実線
 72
    65
 73
     0
 40
0.0
  0
LTYPE
  5
D6
330
23
100
AcDbSymbolTableRecord
100
AcDbLinetypeTableRecord
  2
HIDDEN2
 70
     0
  3
Hidden (.5x) _ _ _ _ _ _ _ _ _ _ _ _ _ _ _ _ _
 72
    65
 73
     2
 40
1.399999999999999
 49
0.7
 74
     0
 49
-0.7
 74
     0
  0
ENDTAB
  0
TABLE
  2
LAYER
  5
1C
102
{ACAD_XDICTIONARY
360
1D
102
}
330
0
100
AcDbSymbolTable
 70
     7
  0
LAYER
  5
7
102
{ACAD_XDICTIONARY
360
8
102
}
330
1C
100
AcDbSymbolTableRecord
100
AcDbLayerTableRecord
  2
0
 70
     0
 62
     7
  6
CONTINUOUS
370
    -3
390
A
  0
LAYER
  5
6A
102
{ACAD_XDICTIONARY
360
6B
102
}
330
1C
100
AcDbSymbolTableRecord
100
AcDbLayerTableRecord
  2
WAKU
 70
     0
 62
     4
  6
CONTINUOUS
370
    -3
390
A
  0
LAYER
  5
50
102
{ACAD_XDICTIONARY
360
51
102
}
330
1C
100
AcDbSymbolTableRecord
100
AcDbLayerTableRecord
  2
GAIKEI
 70
     0
 62
     7
  6
CONTINUOUS
370
    -3
390
A
  0
LAYER
  5
6E
102
{ACAD_XDICTIONARY
360
6F
102
}
330
1C
100
AcDbSymbolTableRecord
100
AcDbLayerTableRecord
  2
MOJI1
 70
     0
 62
     2
  6
CONTINUOUS
370
    -3
390
A
  0
LAYER
  5
167
102
{ACAD_XDICTIONARY
360
168
102
}
330
1C
100
AcDbSymbolTableRecord
100
AcDbLayerTableRecord
  2
TOUROKU
 70
     0
 62
     1
  6
CONTINUOUS
370
    -3
390
A
  0
LAYER
  5
151
330
1C
100
AcDbSymbolTableRecord
100
AcDbLayerTableRecord
  2
Defpoints
 70
     0
 62
     7
  6
CONTINUOUS
290
     0
370
    -3
390
A
  0
LAYER
  5
145
102
{ACAD_XDICTIONARY
360
146
102
}
330
1C
100
AcDbSymbolTableRecord
100
AcDbLayerTableRecord
  2
SUNPO
 70
     0
 62
     3
  6
CONTINUOUS
370
    -3
390
A
  0
ENDTAB
  0
TABLE
  2
STYLE
  5
20
330
0
100
AcDbSymbolTable
 70
     2
  0
STYLE
  5
21
330
20
100
AcDbSymbolTableRecord
100
AcDbTextStyleTableRecord
  2
STANDARD
 70
     0
 40
0.0
 41
1.0
 50
0.0
 71
     0
 42
2.5
  3
MONOTXT.shx
  4
BIGFONT.shx
  0
STYLE
  5
92
330
20
100
AcDbSymbolTableRecord
100
AcDbTextStyleTableRecord
  2
KANJI
 70
     0
 40
0.0
 41
1.0
 50
0.0
 71
     0
 42
3.5
  3
MONOTXT
  4
BIGFONT
  0
ENDTAB
  0
TABLE
  2
VIEW
  5
26
330
0
100
AcDbSymbolTable
 70
     0
  0
ENDTAB
  0
TABLE
  2
UCS
  5
27
330
0
100
AcDbSymbolTable
 70
     0
  0
ENDTAB
  0
TABLE
  2
APPID
  5
2D
330
0
100
AcDbSymbolTable
 70
     3
  0
APPID
  5
2E
330
2D
100
AcDbSymbolTableRecord
100
AcDbRegAppTableRecord
  2
ACAD
 70
     0
  0
APPID
  5
15
330
2D
100
AcDbSymbolTableRecord
100
AcDbRegAppTableRecord
  2
ACAD_PSEXT
 70
     0
  0
APPID
  5
22A
330
2D
100
AcDbSymbolTableRecord
100
AcDbRegAppTableRecord
  2
ACAD_MLEADERVER
 70
     0
  0
ENDTAB
  0
TABLE
  2
DIMSTYLE
  5
2F
330
0
100
AcDbSymbolTable
 70
     1
100
AcDbDimStyleTable
 71
     1
340
30
  0
DIMSTYLE
105
30
102
{ACAD_REACTORS
330
144
330
155
102
}
330
2F
100
AcDbSymbolTableRecord
100
AcDbDimStyleTableRecord
  2
STANDARD
 70
     0
 40
0.0
 41
2.0
 42
2.0
 43
8.0
 44
2.0
 73
     0
 74
     0
 77
     3
140
3.0
141
0.0
173
     1
279
     2
288
     1
340
21
341
31
343
31
344
31
  0
ENDTAB
  0
TABLE
  2
BLOCK_RECORD
  5
1
330
0
100
AcDbSymbolTable
 70
     5
  0
BLOCK_RECORD
  5
2
102
{ACAD_XDICTIONARY
360
3
102
}
330
1
100
AcDbSymbolTableRecord
100
AcDbBlockTableRecord
  2
*MODEL_SPACE
340
11
  0
BLOCK_RECORD
  5
16
102
{ACAD_XDICTIONARY
360
17
102
}
330
1
100
AcDbSymbolTableRecord
100
AcDbBlockTableRecord
  2
*PAPER_SPACE
340
1B
  0
BLOCK_RECORD
  5
31
102
{ACAD_XDICTIONARY
360
32
102
}
330
1
100
AcDbSymbolTableRecord
100
AcDbBlockTableRecord
  2
_OPEN30
340
0
102
{BLKREFS
331
15B
331
15C
331
14D
331
14E
331
1D8
331
1D9
331
1E4
331
1E5
102
}
  0
BLOCK_RECORD
  5
148
330
1
100
AcDbSymbolTableRecord
100
AcDbBlockTableRecord
  2
*D1
340
0
  0
BLOCK_RECORD
  5
156
330
1
100
AcDbSymbolTableRecord
100
AcDbBlockTableRecord
  2
*D2
340
0
  0
BLOCK_RECORD
  5
1D2
330
1
100
AcDbSymbolTableRecord
100
AcDbBlockTableRecord
  2
*D3
340
0
  0
BLOCK_RECORD
  5
1DE
330
1
100
AcDbSymbolTableRecord
100
AcDbBlockTableRecord
  2
*D4
340
0
  0
ENDTAB
  0
ENDSEC
  0
SECTION
  2
BLOCKS
  0
BLOCK
  5
6
330
2
100
AcDbEntity
  8
0
100
AcDbBlockBegin
  2
*MODEL_SPACE
 70
     0
 10
0.0
 20
0.0
 30
0.0
  3
*MODEL_SPACE
  1

  0
ENDBLK
  5
10
330
2
100
AcDbEntity
  8
0
100
AcDbBlockEnd
  0
BLOCK
  5
19
330
16
100
AcDbEntity
 67
     1
  8
0
100
AcDbBlockBegin
  2
*PAPER_SPACE
 70
     0
 10
0.0
 20
0.0
 30
0.0
  3
*PAPER_SPACE
  1

  0
ENDBLK
  5
1A
330
16
100
AcDbEntity
 67
     1
  8
0
100
AcDbBlockEnd
  0
BLOCK
  5
33
330
31
100
AcDbEntity
  8
0
100
AcDbBlockBegin
  2
_OPEN30
 70
     0
 10
0.0
 20
0.0
 30
0.0
  3
_OPEN30
  1

  0
LINE
  5
34
330
31
100
AcDbEntity
  8
0
  6
ByBlock
 62
     0
100
AcDbLine
 10
-1.0
 20
0.26794919
 30
0.0
 11
0.0
 21
0.0
 31
0.0
  0
LINE
  5
35
330
31
100
AcDbEntity
  8
0
  6
ByBlock
 62
     0
100
AcDbLine
 10
0.0
 20
0.0
 30
0.0
 11
-1.0
 21
-0.26794919
 31
0.0
  0
LINE
  5
36
330
31
100
AcDbEntity
  8
0
  6
ByBlock
 62
     0
100
AcDbLine
 10
0.0
 20
0.0
 30
0.0
 11
-1.0
 21
0.0
 31
0.0
  0
ENDBLK
  5
37
330
31
100
AcDbEntity
  8
0
100
AcDbBlockEnd
  0
BLOCK
  5
149
330
148
100
AcDbEntity
  8
0
100
AcDbBlockBegin
  2
*D1
 70
     1
 10
0.0
 20
0.0
 30
0.0
  3
*D1
  1

  0
LINE
  5
14A
330
148
100
AcDbEntity
  8
SUNPO
 62
     0
370
    -2
100
AcDbLine
 10
365.5079846417409
 20
479.9155478701317
 30
0.0
 11
373.5079846417409
 21
479.9155478701317
 31
0.0
  0
LINE
  5
14B
330
148
100
AcDbEntity
  8
SUNPO
 62
     0
370
    -2
100
AcDbLine
 10
365.5079846417409
 20
505.7937060818317
 30
0.0
 11
373.5079846417409
 21
505.7937060818317
 31
0.0
  0
LINE
  5
14C
330
148
100
AcDbEntity
  8
SUNPO
 62
     0
370
    -2
100
AcDbLine
 10
371.5079846417409
 20
481.9155478701317
 30
0.0
 11
371.5079846417409
 21
503.7937060818316
 31
0.0
  0
INSERT
  5
14D
330
148
100
AcDbEntity
  8
SUNPO
 62
     0
370
    -2
100
AcDbBlockReference
  2
_OPEN30
 10
371.5079846417409
 20
479.9155478701317
 30
0.0
 41
2.0
 42
2.0
 43
2.0
 50
270.0
  0
INSERT
  5
14E
330
148
100
AcDbEntity
  8
SUNPO
 62
     0
370
    -2
100
AcDbBlockReference
  2
_OPEN30
 10
371.5079846417409
 20
505.7937060818317
 30
0.0
 41
2.0
 42
2.0
 43
2.0
 50
90.0
  0
MTEXT
  5
14F
330
148
100
AcDbEntity
  8
SUNPO
 62
     0
100
AcDbMText
 10
369.7579846417408
 20
492.8546269759817
 30
0.0
 40
2.5
 41
0.0
 71
     5
 72
     1
  1
\A1;\U+03C6129.5
 11
0.0000000000000001
 21
1.0
 31
0.0
 73
     1
 44
1.0
1001
ACAD
1000
MTEXTBEGIN
1070
    73
1070
     1
1070
    44
1040
1.0
1070
    74
1070
     0
1000
MTEXTEND
  0
POINT
  5
150
330
148
100
AcDbEntity
  8
Defpoints
 62
     0
100
AcDbPoint
 10
363.5079846417409
 20
479.9155478701317
 30
0.0
  0
POINT
  5
152
330
148
100
AcDbEntity
  8
Defpoints
 62
     0
100
AcDbPoint
 10
363.5079846417409
 20
505.7937060818317
 30
0.0
  0
POINT
  5
153
330
148
100
AcDbEntity
  8
Defpoints
 62
     0
100
AcDbPoint
 10
371.5079846417409
 20
505.7937060818317
 30
0.0
  0
ENDBLK
  5
154
330
148
100
AcDbEntity
  8
0
100
AcDbBlockEnd
  0
BLOCK
  5
157
330
156
100
AcDbEntity
  8
0
100
AcDbBlockBegin
  2
*D2
 70
     1
 10
0.0
 20
0.0
 30
0.0
  3
*D2
  1

  0
LINE
  5
158
330
156
100
AcDbEntity
  8
SUNPO
 62
     0
370
    -2
100
AcDbLine
 10
363.518896072261
 20
507.974530395588
 30
0.0
 11
363.518896072261
 21
515.974530395588
 31
0.0
  0
LINE
  5
159
330
156
100
AcDbEntity
  8
SUNPO
 62
     0
370
    -2
100
AcDbLine
 10
344.7092675856313
 20
507.974530395588
 30
0.0
 11
344.7092675856313
 21
515.974530395588
 31
0.0
  0
LINE
  5
15A
330
156
100
AcDbEntity
  8
SUNPO
 62
     0
370
    -2
100
AcDbLine
 10
361.518896072261
 20
513.9745303955881
 30
0.0
 11
346.7092675856313
 21
513.9745303955881
 31
0.0
  0
INSERT
  5
15B
330
156
100
AcDbEntity
  8
SUNPO
 62
     0
370
    -2
100
AcDbBlockReference
  2
_OPEN30
 10
363.518896072261
 20
513.9745303955881
 30
0.0
 41
2.0
 42
2.0
 43
2.0
  0
INSERT
  5
15C
330
156
100
AcDbEntity
  8
SUNPO
 62
     0
370
    -2
100
AcDbBlockReference
  2
_OPEN30
 10
344.7092675856313
 20
513.9745303955881
 30
0.0
 41
2.0
 42
2.0
 43
2.0
 50
180.0
  0
MTEXT
  5
15D
330
156
100
AcDbEntity
  8
SUNPO
 62
     0
100
AcDbMText
 10
354.1140818289461
 20
515.7245303955881
 30
0.0
 40
2.5
 41
0.0
 71
     5
 72
     1
  1
\A1;93
 73
     1
 44
1.0
1001
ACAD
1000
MTEXTBEGIN
1070
    73
1070
     1
1070
    44
1040
1.0
1070
    74
1070
     0
1000
MTEXTEND
  0
POINT
  5
15E
330
156
100
AcDbEntity
  8
Defpoints
 62
     0
100
AcDbPoint
 10
363.518896072261
 20
505.9745303955881
 30
0.0
  0
POINT
  5
15F
330
156
100
AcDbEntity
  8
Defpoints
 62
     0
100
AcDbPoint
 10
344.7092675856313
 20
505.9745303955881
 30
0.0
  0
POINT
  5
160
330
156
100
AcDbEntity
  8
Defpoints
 62
     0
100
AcDbPoint
 10
344.7092675856313
 20
513.9745303955881
 30
0.0
  0
ENDBLK
  5
161
330
156
100
AcDbEntity
  8
0
100
AcDbBlockEnd
  0
BLOCK
  5
1D3
330
1D2
100
AcDbEntity
  8
0
100
AcDbBlockBegin
  2
*D3
 70
     1
 10
0.0
 20
0.0
 30
0.0
  3
*D3
  1

  0
LINE
  5
1D5
330
1D2
100
AcDbEntity
  8
SUNPO
 62
     0
370
    -2
100
AcDbLine
 10
26.64919265551112
 20
-0.191019197137735
 30
0.0
 11
34.64919265551111
 21
-0.1910191971377372
 31
0.0
  0
LINE
  5
1D6
330
1D2
100
AcDbEntity
  8
SUNPO
 62
     0
370
    -2
100
AcDbLine
 10
26.64919265551112
 20
25.68713901456226
 30
0.0
 11
34.64919265551112
 21
25.68713901456226
 31
0.0
  0
LINE
  5
1D7
330
1D2
100
AcDbEntity
  8
SUNPO
 62
     0
370
    -2
100
AcDbLine
 10
32.64919265551111
 20
1.808980802862263
 30
0.0
 11
32.64919265551112
 21
23.68713901456226
 31
0.0
  0
INSERT
  5
1D8
330
1D2
100
AcDbEntity
  8
SUNPO
 62
     0
370
    -2
100
AcDbBlockReference
  2
_OPEN30
 10
32.64919265551111
 20
-0.1910191971377367
 30
0.0
 41
2.0
 42
2.0
 43
2.0
 50
270.0
  0
INSERT
  5
1D9
330
1D2
100
AcDbEntity
  8
SUNPO
 62
     0
370
    -2
100
AcDbBlockReference
  2
_OPEN30
 10
32.64919265551112
 20
25.68713901456226
 30
0.0
 41
2.0
 42
2.0
 43
2.0
 50
90.0
  0
MTEXT
  5
1DA
330
1D2
100
AcDbEntity
  8
SUNPO
 62
     0
100
AcDbMText
 10
30.89919265551111
 20
12.74805990871227
 30
0.0
 40
2.5
 41
0.0
 71
     5
 72
     1
  1
\A1;\U+03C6129.5
 11
0.0000000000000001
 21
1.0
 31
0.0
 73
     1
 44
1.0
1001
ACAD
1000
MTEXTBEGIN
1070
    73
1070
     1
1070
    44
1040
1.0
1070
    74
1070
     0
1000
MTEXTEND
  0
POINT
  5
1DB
330
1D2
100
AcDbEntity
  8
Defpoints
 62
     0
100
AcDbPoint
 10
24.64919265551112
 20
-0.1910191971377344
 30
0.0
  0
POINT
  5
1DC
330
1D2
100
AcDbEntity
  8
Defpoints
 62
     0
100
AcDbPoint
 10
24.64919265551112
 20
25.68713901456226
 30
0.0
  0
POINT
  5
1DD
330
1D2
100
AcDbEntity
  8
Defpoints
 62
     0
100
AcDbPoint
 10
32.64919265551112
 20
25.68713901456226
 30
0.0
  0
ENDBLK
  5
1D4
330
1D2
100
AcDbEntity
  8
0
100
AcDbBlockEnd
  0
BLOCK
  5
1DF
330
1DE
100
AcDbEntity
  8
0
100
AcDbBlockBegin
  2
*D4
 70
     1
 10
0.0
 20
0.0
 30
0.0
  3
*D4
  1

  0
LINE
  5
1E1
330
1DE
100
AcDbEntity
  8
SUNPO
 62
     0
370
    -2
100
AcDbLine
 10
24.6601040860312
 20
27.86796332831864
 30
0.0
 11
24.6601040860312
 21
35.86796332831864
 31
0.0
  0
LINE
  5
1E2
330
1DE
100
AcDbEntity
  8
SUNPO
 62
     0
370
    -2
100
AcDbLine
 10
5.850475599401534
 20
27.86796332831864
 30
0.0
 11
5.850475599401534
 21
35.86796332831864
 31
0.0
  0
LINE
  5
1E3
330
1DE
100
AcDbEntity
  8
SUNPO
 62
     0
370
    -2
100
AcDbLine
 10
22.6601040860312
 20
33.86796332831864
 30
0.0
 11
7.850475599401534
 21
33.86796332831864
 31
0.0
  0
INSERT
  5
1E4
330
1DE
100
AcDbEntity
  8
SUNPO
 62
     0
370
    -2
100
AcDbBlockReference
  2
_OPEN30
 10
24.6601040860312
 20
33.86796332831864
 30
0.0
 41
2.0
 42
2.0
 43
2.0
  0
INSERT
  5
1E5
330
1DE
100
AcDbEntity
  8
SUNPO
 62
     0
370
    -2
100
AcDbBlockReference
  2
_OPEN30
 10
5.850475599401534
 20
33.86796332831864
 30
0.0
 41
2.0
 42
2.0
 43
2.0
 50
180.0
  0
MTEXT
  5
1E6
330
1DE
100
AcDbEntity
  8
SUNPO
 62
     0
100
AcDbMText
 10
15.25528984271636
 20
35.61796332831864
 30
0.0
 40
2.5
 41
0.0
 71
     5
 72
     1
  1
\A1;93
 73
     1
 44
1.0
1001
ACAD
1000
MTEXTBEGIN
1070
    73
1070
     1
1070
    44
1040
1.0
1070
    74
1070
     0
1000
MTEXTEND
  0
POINT
  5
1E7
330
1DE
100
AcDbEntity
  8
Defpoints
 62
     0
100
AcDbPoint
 10
24.6601040860312
 20
25.86796332831864
 30
0.0
  0
POINT
  5
1E8
330
1DE
100
AcDbEntity
  8
Defpoints
 62
     0
100
AcDbPoint
 10
5.850475599401534
 20
25.86796332831864
 30
0.0
  0
POINT
  5
1E9
330
1DE
100
AcDbEntity
  8
Defpoints
 62
     0
100
AcDbPoint
 10
5.850475599401534
 20
33.86796332831864
 30
0.0
  0
ENDBLK
  5
1E0
330
1DE
100
AcDbEntity
  8
0
100
AcDbBlockEnd
  0
ENDSEC
  0
SECTION
  2
ENTITIES
  0
LINE
  5
69
330
2
100
AcDbEntity
  8
WAKU
 62
     1
100
AcDbLine
 10
-60.26388321526815
 20
-47.04774353785774
 30
0.0
 11
64.73611678473185
 21
-47.04774353785774
 31
0.0
  0
TEXT
  5
6D
330
2
100
AcDbEntity
  8
MOJI1
100
AcDbText
 10
-17.76388321526815
 20
-51.04774353785774
 30
0.0
 40
3.0
  1
ＴＣＰ／ＩＰ、ＵＤＰ／ＩＰ、ＨＴＴＰ、ＲＴＰ、
100
AcDbText
  0
TEXT
  5
71
330
2
100
AcDbEntity
  8
MOJI1
100
AcDbText
 10
-57.76388321526815
 20
-51.04774353785774
 30
0.0
 40
3.0
  1
対応プロコトル
100
AcDbText
  0
TEXT
  5
72
330
2
100
AcDbEntity
  8
MOJI1
100
AcDbText
 10
-57.76388321526815
 20
-41.04774353785773
 30
0.0
 40
3.0
  1
画像圧縮方式
100
AcDbText
  0
TEXT
  5
73
330
2
100
AcDbEntity
  8
MOJI1
100
AcDbText
 10
-17.76388321526815
 20
-41.04774353785773
 30
0.0
 40
3.0
  1
Ｈ．２６４／ＭＰＥＧ－４／ＪＰＥＧ
100
AcDbText
  0
TEXT
  5
74
330
2
100
AcDbEntity
  8
MOJI1
100
AcDbText
 10
-57.76388321526815
 20
-31.04774353785774
 30
0.0
 40
3.0
  1
ネットワーク
100
AcDbText
  0
TEXT
  5
75
330
2
100
AcDbEntity
  8
MOJI1
100
AcDbText
 10
-57.76388321526815
 20
-36.04774353785774
 30
0.0
 40
3.0
  1
画像解像度
100
AcDbText
  0
TEXT
  5
76
330
2
100
AcDbEntity
  8
MOJI1
100
AcDbText
 10
-17.76388321526815
 20
-36.04774353785774
 30
0.0
 40
3.0
  1
１２８０\U+00D7９６０／ＶＧＡ（６４０\U+00D7４８０）／ＱＶＧＡ（３２０\U+00D7２４０）
 41
0.65
100
AcDbText
  0
LINE
  5
77
330
2
100
AcDbEntity
  8
WAKU
 62
     1
100
AcDbLine
 10
64.73611678473185
 20
-52.04774353785774
 30
0.0
 11
-60.26388321526815
 21
-52.04774353785774
 31
0.0
  0
LINE
  5
78
330
2
100
AcDbEntity
  8
WAKU
 62
     1
100
AcDbLine
 10
-60.26388321526815
 20
-42.04774353785774
 30
0.0
 11
64.73611678473185
 21
-42.04774353785774
 31
0.0
  0
LINE
  5
79
330
2
100
AcDbEntity
  8
WAKU
 62
     1
100
AcDbLine
 10
-60.26388321526815
 20
-37.04774353785774
 30
0.0
 11
64.73611678473185
 21
-37.04774353785774
 31
0.0
  0
LINE
  5
7A
330
2
100
AcDbEntity
  8
WAKU
 62
     1
100
AcDbLine
 10
-60.26388321526815
 20
-32.04774353785774
 30
0.0
 11
64.73611678473185
 21
-32.04774353785774
 31
0.0
  0
LINE
  5
7B
330
2
100
AcDbEntity
  8
WAKU
 62
     1
100
AcDbLine
 10
64.73611678473185
 20
-57.04774353785774
 30
0.0
 11
-60.26388321526815
 21
-57.04774353785774
 31
0.0
  0
LINE
  5
7C
330
2
100
AcDbEntity
  8
WAKU
 62
     1
100
AcDbLine
 10
64.73611678473185
 20
-62.04774353785774
 30
0.0
 11
-60.26388321526815
 21
-62.04774353785774
 31
0.0
  0
LINE
  5
7D
330
2
100
AcDbEntity
  8
WAKU
 62
     4
100
AcDbLine
 10
64.73611678473185
 20
-67.04774353785774
 30
0.0
 11
-60.26388321526815
 21
-67.04774353785774
 31
0.0
  0
TEXT
  5
7E
330
2
100
AcDbEntity
  8
MOJI1
100
AcDbText
 10
-57.76388321526815
 20
-61.04774353785774
 30
0.0
 40
3.0
  1
機　能
100
AcDbText
  0
TEXT
  5
7F
330
2
100
AcDbEntity
  8
MOJI1
100
AcDbText
 10
-17.76388321526815
 20
-61.04774353785774
 30
0.0
 40
3.0
  1
ワイドダイナミックレンジＯＮ／ＯＦＦ、暗部補正、簡易白黒切換、
 41
0.75
100
AcDbText
  0
TEXT
  5
80
330
2
100
AcDbEntity
  8
MOJI1
100
AcDbText
 10
-17.76388321526815
 20
-66.04774353785774
 30
0.0
 40
3.0
  1
画像認識　顔検出、ＳＤメモリーカードスロット
100
AcDbText
  0
TEXT
  5
81
330
2
100
AcDbEntity
  8
MOJI1
100
AcDbText
 10
-17.76388321526815
 20
-31.04774353785774
 30
0.0
 40
3.0
  1
１０ＢＡＳＥ－Ｔ／１００ＢＡＳＥ－ＴＸ、ＲＪ４５コネクター
 41
0.7800000000000001
100
AcDbText
  0
TEXT
  5
82
330
2
100
AcDbEntity
  8
MOJI1
100
AcDbText
 10
-17.76388321526815
 20
-56.04774353785774
 30
0.0
 40
3.0
  1
ＦＴＰ、ＳＭＴＰ、ＤＮＳ、ＮＴＰ、ＳＮＭＰ
100
AcDbText
  0
LINE
  5
83
330
2
100
AcDbEntity
  8
WAKU
 62
     1
100
AcDbLine
 10
-60.26388321526815
 20
-22.04774353785774
 30
0.0
 11
64.73611678473185
 21
-22.04774353785774
 31
0.0
  0
TEXT
  5
84
330
2
100
AcDbEntity
  8
MOJI1
100
AcDbText
 10
-17.76388321526815
 20
-16.04774353785774
 30
0.0
 40
3.0
  1
１／３型　ＭＯＳセンター
100
AcDbText
  0
TEXT
  5
85
330
2
100
AcDbEntity
  8
MOJI1
100
AcDbText
 10
-17.76388321526815
 20
-26.04774353785774
 30
0.0
 40
3.0
  1
カラー：０．３ルクス、白黒：０．２ルクス（Ｆ１．３）
 41
0.88
100
AcDbText
  0
TEXT
  5
86
330
2
100
AcDbEntity
  8
MOJI1
100
AcDbText
 10
-57.76388321526815
 20
-16.04774353785774
 30
0.0
 40
3.0
  1
撮像素子
100
AcDbText
  0
LINE
  5
87
330
2
100
AcDbEntity
  8
WAKU
 62
     1
100
AcDbLine
 10
-60.26388321526815
 20
-17.04774353785774
 30
0.0
 11
64.73611678473185
 21
-17.04774353785774
 31
0.0
  0
LINE
  5
88
330
2
100
AcDbEntity
  8
WAKU
 62
     1
100
AcDbLine
 10
-60.26388321526815
 20
-12.04774353785774
 30
0.0
 11
64.73611678473185
 21
-12.04774353785774
 31
0.0
  0
LINE
  5
89
330
2
100
AcDbEntity
  8
WAKU
 62
     4
100
AcDbLine
 10
-60.26388321526815
 20
-7.047743537857741
 30
0.0
 11
64.73611678473185
 21
-7.047743537857741
 31
0.0
  0
LINE
  5
8A
330
2
100
AcDbEntity
  8
WAKU
 62
     1
100
AcDbLine
 10
-60.26388321526815
 20
-27.04774353785774
 30
0.0
 11
64.73611678473185
 21
-27.04774353785774
 31
0.0
  0
LINE
  5
8B
330
2
100
AcDbEntity
  8
WAKU
 62
     4
100
AcDbLine
 10
-60.26388321526815
 20
-7.047743537857741
 30
0.0
 11
-60.26388321526815
 21
-67.04774353785774
 31
0.0
  0
TEXT
  5
8C
330
2
100
AcDbEntity
  8
MOJI1
100
AcDbText
 10
-17.76388321526815
 20
-11.04774353785774
 30
0.0
 40
3.0
  1
ＤＣ１２Ｖ、ＰｏＥ(ＩＥＥＥ８０２.３ａｆ準拠)
 41
0.95
100
AcDbText
  0
TEXT
  5
8D
330
2
100
AcDbEntity
  8
MOJI1
100
AcDbText
 10
-57.76388321526815
 20
-11.04774353785774
 30
0.0
 40
3.0
  1
電　源
100
AcDbText
  0
LINE
  5
8E
330
2
100
AcDbEntity
  8
WAKU
 62
     4
100
AcDbLine
 10
-20.26388321526815
 20
-7.047743537857741
 30
0.0
 11
-20.26388321526815
 21
-67.04774353785774
 31
0.0
  0
LINE
  5
8F
330
2
100
AcDbEntity
  8
WAKU
 62
     4
100
AcDbLine
 10
64.73611678473185
 20
-7.047743537857741
 30
0.0
 11
64.73611678473185
 21
-67.04774353785774
 31
0.0
  0
TEXT
  5
90
330
2
100
AcDbEntity
  8
MOJI1
100
AcDbText
 10
-57.76388321526815
 20
-26.04774353785774
 30
0.0
 40
3.0
  1
最低照度
100
AcDbText
  0
TEXT
  5
91
330
2
100
AcDbEntity
  8
MOJI1
100
AcDbText
 10
-33.26388321526815
 20
41.9522564621426
 30
0.0
 40
4.0
  1
メガピクセルネットワークカメラ
  7
KANJI
100
AcDbText
  0
LINE
  5
93
330
2
100
AcDbEntity
  8
GAIKEI
100
AcDbLine
 10
18.4175706853714
 20
0.1394483250022631
 30
0.0
 11
24.46040244901155
 21
-0.1910191971377344
 31
0.0
  0
LINE
  5
94
330
2
100
AcDbEntity
  8
GAIKEI
 62
     1
100
AcDbLine
 10
18.4175706853714
 20
25.35667149242227
 30
0.0
 11
18.4175706853714
 21
0.1394483250022631
 31
0.0
  0
LINE
  5
95
330
2
100
AcDbEntity
  8
GAIKEI
 62
     1
100
AcDbLine
 10
18.13212255143139
 20
25.21333945806237
 30
0.0
 11
18.13212255143139
 21
0.2827803593422686
 31
0.0
  0
LINE
  5
96
330
2
100
AcDbEntity
  8
GAIKEI
100
AcDbLine
 10
24.46040244901155
 20
25.68713901456226
 30
0.0
 11
24.46040244901155
 21
24.37358380540775
 31
0.0
  0
LINE
  5
97
330
2
100
AcDbEntity
  8
GAIKEI
100
AcDbLine
 10
24.6601040860312
 20
25.61806021150221
 30
0.0
 11
24.6601040860312
 21
24.11103601340836
 31
0.0
  0
LINE
  5
98
330
2
100
AcDbEntity
  8
GAIKEI
100
AcDbLine
 10
24.6601040860312
 20
-0.1219403940776829
 30
0.0
 11
24.46040244901155
 21
-0.1910191971377344
 31
0.0
  0
LINE
  5
99
330
2
100
AcDbEntity
  8
GAIKEI
100
AcDbLine
 10
22.95510428153125
 20
25.6048175495423
 30
0.0
 11
18.4175706853714
 21
25.35667149242227
 31
0.0
  0
LINE
  5
9A
330
2
100
AcDbEntity
  8
GAIKEI
100
AcDbLine
 10
24.46040244901155
 20
25.68713901456226
 30
0.0
 11
22.95510428153125
 21
25.6048175495423
 31
0.0
  0
LINE
  5
9B
330
2
100
AcDbEntity
  8
GAIKEI
 62
     1
100
AcDbLine
 10
24.46040244901155
 20
2.214154879422267
 30
0.0
 11
24.46040244901155
 21
-0.1910191971377344
 31
0.0
  0
LINE
  5
9C
330
2
100
AcDbEntity
  8
GAIKEI
100
AcDbLine
 10
24.6601040860312
 20
2.683968375302242
 30
0.0
 11
24.6601040860312
 21
-0.1219403940777965
 31
0.0
  0
LINE
  5
9D
330
2
100
AcDbEntity
  8
GAIKEI
100
AcDbLine
 10
24.46040244901155
 20
25.68713901456226
 30
0.0
 11
24.6601040860312
 21
25.61806021150232
 31
0.0
  0
LINE
  5
9E
330
2
100
AcDbEntity
  8
GAIKEI
 62
     1
100
AcDbLine
 10
24.72010435663128
 20
3.173333684762269
 30
0.0
 11
24.72010435663128
 21
1.822296063262228
 31
0.0
  0
LINE
  5
9F
330
2
100
AcDbEntity
  8
GAIKEI
 62
     1
100
AcDbLine
 10
24.76010428869154
 20
3.398059586842236
 30
0.0
 11
24.76010414445159
 21
5.398059908722302
 31
0.0
  0
LINE
  5
A0
330
2
100
AcDbEntity
  8
GAIKEI
 62
     1
100
AcDbLine
 10
24.46010442577131
 20
5.088696162062205
 30
0.0
 11
24.46010442577131
 21
2.931300829022234
 31
0.0
  0
LINE
  5
A1
330
2
100
AcDbEntity
  8
GAIKEI
 62
     1
100
AcDbLine
 10
24.76010428869154
 20
4.569087455842236
 30
0.0
 11
24.56010388337131
 21
4.569087455842236
 31
0.0
  0
ARC
  5
A2
330
2
100
AcDbEntity
  8
GAIKEI
 62
     1
100
AcDbCircle
 10
24.56976156235328
 20
1.827008863263927
 30
0.0
 40
0.1504166422814277
100
AcDbArc
 50
306.9139717668418
 51
358.2045354536966
  0
LINE
  5
A3
330
2
100
AcDbEntity
  8
GAIKEI
 62
     1
100
AcDbLine
 10
24.46010442577131
 20
3.124453405702297
 30
0.0
 11
24.64954661333127
 21
3.21917412694222
 31
0.0
  0
ARC
  5
A4
330
2
100
AcDbEntity
  8
GAIKEI
 62
     1
100
AcDbCircle
 10
24.56010354012665
 20
3.398060063745674
 30
0.0
 40
0.2000006043250548
100
AcDbArc
 50
296.5650780311879
 51
359.9999555891926
  0
ARC
  5
A5
330
2
100
AcDbEntity
  8
GAIKEI
 62
     1
100
AcDbCircle
 10
24.58102380802052
 20
3.172087657376323
 30
0.0
 40
0.1390861300998529
100
AcDbArc
 50
0.5133011129172297
 51
34.53936239981729
  0
LINE
  5
A6
330
2
100
AcDbEntity
  8
GAIKEI
 62
     1
100
AcDbLine
 10
24.52010395133152
 20
3.020610938642221
 30
0.0
 11
24.52010395133152
 21
3.154453168482291
 31
0.0
  0
LINE
  5
A7
330
2
100
AcDbEntity
  8
GAIKEI
 62
     1
100
AcDbLine
 10
24.46010442577131
 20
3.054765145142255
 30
0.0
 11
24.54526456199142
 21
3.006288687562232
 31
0.0
  0
LINE
  5
A8
330
2
100
AcDbEntity
  8
GAIKEI
 62
     1
100
AcDbLine
 10
24.46019871467365
 20
2.931372650386038
 30
0.0
 11
24.54526429535713
 21
2.883299811483539
 31
0.0
  0
LINE
  5
A9
330
2
100
AcDbEntity
  8
GAIKEI
 62
     1
100
AcDbLine
 10
24.56010388337131
 20
2.862682471842276
 30
0.0
 11
24.56010388337131
 21
2.985643128722244
 31
0.0
  0
LINE
  5
AA
330
2
100
AcDbEntity
  8
GAIKEI
 62
     1
100
AcDbLine
 10
24.46019871375916
 20
2.802913497178565
 30
0.0
 11
24.54526429444263
 21
2.843323448388218
 31
0.0
  0
LINE
  5
AB
330
2
100
AcDbEntity
  8
GAIKEI
 62
     1
100
AcDbLine
 10
24.46010442577131
 20
2.80299214538229
 30
0.0
 11
24.46010442577131
 21
2.642941753242212
 31
0.0
  0
LINE
  5
AC
330
2
100
AcDbEntity
  8
GAIKEI
 62
     1
100
AcDbLine
 10
24.46010442577131
 20
2.642941753242212
 30
0.0
 11
24.56040265165143
 21
2.637999783122268
 31
0.0
  0
LINE
  5
AD
330
2
100
AcDbEntity
  8
GAIKEI
 62
     1
100
AcDbLine
 10
24.46010442577131
 20
2.75578005132229
 30
0.0
 11
24.56184955441154
 21
2.750389556262234
 31
0.0
  0
LINE
  5
AE
330
2
100
AcDbEntity
  8
GAIKEI
 62
     1
100
AcDbLine
 10
24.56040265165143
 20
2.637999783122268
 30
0.0
 11
24.56040265165143
 21
2.2423158389023
 31
0.0
  0
LINE
  5
AF
330
2
100
AcDbEntity
  8
GAIKEI
 62
     1
100
AcDbLine
 10
24.56040265165143
 20
2.2423158389023
 30
0.0
 11
24.46040244901155
 21
2.214154879422267
 31
0.0
  0
LINE
  5
B0
330
2
100
AcDbEntity
  8
GAIKEI
100
AcDbLine
 10
24.6601040860312
 20
-0.1219403940777965
 30
0.0
 11
24.6601040860312
 21
2.683968375302242
 31
0.0
  0
LINE
  5
B1
330
2
100
AcDbEntity
  8
GAIKEI
 62
     1
100
AcDbLine
 10
24.46040244901155
 20
2.214154879422267
 30
0.0
 11
22.85844566427136
 21
2.285477052302212
 31
0.0
  0
ARC
  5
B2
330
2
100
AcDbEntity
  8
GAIKEI
 62
     1
100
AcDbCircle
 10
24.57293918499977
 20
2.660911221387777
 30
0.0
 40
0.0901629209736046
100
AcDbArc
 50
14.81670742537688
 51
97.06501123267473
  0
ARC
  5
B3
330
2
100
AcDbEntity
  8
GAIKEI
 62
     1
100
AcDbCircle
 10
24.53481739186441
 20
2.983123841400924
 30
0.0
 40
0.0254116796245638
100
AcDbArc
 50
5.689589751953939
 51
65.72498599452576
  0
ARC
  5
B4
330
2
100
AcDbEntity
  8
GAIKEI
 62
     1
100
AcDbCircle
 10
24.53847031417467
 20
2.863311674567398
 30
0.0
 40
0.0211112244479378
100
AcDbArc
 50
288.773696048367
 51
71.2270682569399
  0
ARC
  5
B5
330
2
100
AcDbEntity
  8
GAIKEI
 62
     1
100
AcDbCircle
 10
24.56010414445132
 20
5.398059908722188
 30
0.0
 40
0.2000000000000099
100
AcDbArc
 50
0.0000000000065138
 51
59.99999999999946
  0
ARC
  5
B6
330
2
100
AcDbEntity
  8
GAIKEI
 62
     1
100
AcDbCircle
 10
24.54151280964538
 20
5.204029843176613
 30
0.0
 40
0.1192070345509312
100
AcDbArc
 50
278.9722557521543
 51
354.1738870641806
  0
LINE
  5
B7
330
2
100
AcDbEntity
  8
GAIKEI
 62
     1
100
AcDbLine
 10
24.56040265165143
 20
5.086273978322196
 30
0.0
 11
24.46010442577131
 21
5.088696907122198
 31
0.0
  0
LINE
  5
B8
330
2
100
AcDbEntity
  8
GAIKEI
 62
     1
100
AcDbLine
 10
24.56040123832713
 20
7.794396206056262
 30
0.0
 11
22.85844566427136
 21
7.830014730662242
 31
0.0
  0
LINE
  5
B9
330
2
100
AcDbEntity
  8
GAIKEI
 62
     1
100
AcDbLine
 10
24.56010388337131
 20
4.569087455842236
 30
0.0
 11
24.56040123832713
 21
7.794396206056262
 31
0.0
  0
LINE
  5
BA
330
2
100
AcDbEntity
  8
GAIKEI
 62
     1
100
AcDbLine
 10
24.56040123832713
 20
7.794396206056262
 30
0.0
 11
22.85844566427136
 21
7.830014730662242
 31
0.0
  0
LINE
  5
BB
330
2
100
AcDbEntity
  8
GAIKEI
 62
     1
100
AcDbLine
 10
22.26010443769133
 20
2.671029697022277
 30
0.0
 11
22.26010443769133
 21
7.294971401662223
 31
0.0
  0
ARC
  5
BC
330
2
100
AcDbEntity
  8
GAIKEI
 62
     1
100
AcDbCircle
 10
22.82553916966049
 20
7.264728771703289
 30
0.0
 40
0.5662429273587036
100
AcDbArc
 50
86.66845091129353
 51
176.9384166430635
  0
ARC
  5
BD
330
2
100
AcDbEntity
  8
GAIKEI
 62
     1
100
AcDbCircle
 10
22.80245544497416
 20
2.855646338280621
 30
0.0
 40
0.5729117901825047
100
AcDbArc
 50
198.7986081313835
 51
275.608423486013
  0
LINE
  5
BE
330
2
100
AcDbEntity
  8
GAIKEI
 62
     1
100
AcDbLine
 10
21.46030934153282
 20
12.36479347381362
 30
0.0
 11
24.16030934147443
 21
12.3647757447884
 31
0.0
  0
LINE
  5
BF
330
2
100
AcDbEntity
  8
GAIKEI
 62
     1
100
AcDbLine
 10
24.2603086848419
 20
12.26477508815992
 30
0.0
 11
24.26028373288023
 21
8.464775088241935
 31
0.0
  0
LINE
  5
C0
330
2
100
AcDbEntity
  8
GAIKEI
 62
     1
100
AcDbLine
 10
24.16028307625197
 20
8.364775744874691
 30
0.0
 11
21.46028307631036
 21
8.364793473899908
 31
0.0
  0
LINE
  5
C1
330
2
100
AcDbEntity
  8
GAIKEI
 62
     1
100
AcDbLine
 10
21.26028438957587
 20
8.564794787156642
 30
0.0
 11
21.26030802827586
 21
12.16479478707902
 31
0.0
  0
ARC
  5
C2
330
2
100
AcDbEntity
  8
GAIKEI
 62
     1
100
AcDbCircle
 10
21.46030802827159
 20
12.16479347381789
 30
0.0
 40
0.2
100
AcDbArc
 50
89.99962377840127
 51
179.9996237784013
  0
ARC
  5
C3
330
2
100
AcDbEntity
  8
GAIKEI
 62
     1
100
AcDbCircle
 10
21.4602843895716
 20
8.56479347389552
 30
0.0
 40
0.2
100
AcDbArc
 50
179.9996237784013
 51
269.9996237784012
  0
ARC
  5
C4
330
2
100
AcDbEntity
  8
GAIKEI
 62
     1
100
AcDbCircle
 10
24.16028373288259
 20
8.46477574487244
 30
0.0
 40
0.1
100
AcDbArc
 50
269.9996237783948
 51
359.999623778398
  0
ARC
  5
C5
330
2
100
AcDbEntity
  8
GAIKEI
 62
     1
100
AcDbCircle
 10
24.16030868484381
 20
12.26477574479054
 30
0.0
 40
0.1
100
AcDbArc
 50
359.999623778398
 51
89.99962377840127
  0
ARC
  5
C6
330
2
100
AcDbEntity
  8
GAIKEI
100
AcDbCircle
 10
31.88107630613354
 20
16.40144102404201
 30
0.0
 40
21.1859611765122
100
AcDbArc
 50
218.9404126563878
 51
229.5363643490759
  0
ARC
  5
C7
330
2
100
AcDbEntity
  8
GAIKEI
100
AcDbCircle
 10
18.43941318127849
 20
0.5388513934078674
 30
0.0
 40
0.3999998820990647
100
AcDbArc
 50
219.8050769255424
 51
266.8697350278261
  0
ARC
  5
C8
330
2
100
AcDbEntity
  8
GAIKEI
100
AcDbCircle
 10
18.43941318127849
 20
24.95726842401666
 30
0.0
 40
0.3999998820990647
100
AcDbArc
 50
93.13026497217391
 51
140.1949230744551
  0
ARC
  5
C9
330
2
100
AcDbEntity
  8
GAIKEI
100
AcDbCircle
 10
31.88892406899118
 20
9.107510115603645
 30
0.0
 40
21.18129662703836
100
AcDbArc
 50
130.502311460011
 51
141.0994306419074
  0
LINE
  5
CA
330
2
100
AcDbEntity
  8
GAIKEI
 62
     1
100
AcDbLine
 10
15.40263503917117
 20
3.085813949662338
 30
0.0
 11
15.40263503917117
 21
22.41030582179064
 31
0.0
  0
LINE
  5
CB
330
2
100
AcDbEntity
  8
GAIKEI
 62
     1
100
AcDbLine
 10
15.40263541169156
 20
12.74815059426237
 30
0.0
 11
18.08184975885138
 21
12.74805989828235
 31
0.0
  0
LINE
  5
CC
330
2
100
AcDbEntity
  8
GAIKEI
 62
     1
100
AcDbLine
 10
13.88010414445148
 20
20.77768845376227
 30
0.0
 11
13.88010414445148
 21
4.718431363662261
 31
0.0
  0
LINE
  5
CD
330
2
100
AcDbEntity
  8
GAIKEI
 62
     1
100
AcDbLine
 10
15.26822805531151
 20
3.424656669462365
 30
0.0
 11
15.26822805531151
 21
22.07146314796228
 31
0.0
  0
ARC
  5
CE
330
2
100
AcDbEntity
  8
GAIKEI
100
AcDbCircle
 10
15.91626791624844
 20
3.485641030341867
 30
0.0
 40
0.6509073873134623
100
AcDbArc
 50
185.3760009997343
 51
217.8982493144949
  0
LINE
  5
CF
330
2
100
AcDbEntity
  8
GAIKEI
 62
     1
100
AcDbLine
 10
15.08102746807139
 20
4.535809437602324
 30
0.0
 11
15.08102746807139
 21
20.96031037980231
 31
0.0
  0
ARC
  5
D0
330
2
100
AcDbEntity
  8
GAIKEI
100
AcDbCircle
 10
11.63943490131282
 20
3.384658516451054
 30
0.0
 40
3.629009208976418
100
AcDbArc
 50
0.6315144509999201
 51
18.49416311357392
  0
ARC
  5
D1
330
2
100
AcDbEntity
  8
GAIKEI
100
AcDbCircle
 10
11.63943490131282
 20
22.11146130095358
 30
0.0
 40
3.629009208976418
100
AcDbArc
 50
341.5058368864261
 51
359.3684855489968
  0
ARC
  5
D2
330
2
100
AcDbEntity
  8
GAIKEI
100
AcDbCircle
 10
15.91626791624844
 20
22.01047878706277
 30
0.0
 40
0.6509073873134623
100
AcDbArc
 50
142.1017506855051
 51
174.6239990002656
  0
LINE
  5
D3
330
2
100
AcDbEntity
  8
GAIKEI
100
AcDbLine
 10
15.08102746807139
 20
4.697469155162366
 30
0.0
 11
13.88010414445148
 21
4.718431363662261
 31
0.0
  0
ARC
  5
D4
330
2
100
AcDbEntity
  8
GAIKEI
100
AcDbCircle
 10
13.88010414445148
 20
12.74805990871232
 30
0.0
 40
8.029628545050002
100
AcDbArc
 50
90.0
 51
270.0
  0
LINE
  5
D5
330
2
100
AcDbEntity
  8
GAIKEI
  6
HIDDEN2
 62
     1
100
AcDbLine
 10
7.120535192271518
 20
15.94805990870236
 30
0.0
 11
7.120535192281977
 21
12.74805990870232
 31
0.0
  0
ARC
  5
D7
330
2
100
AcDbEntity
  8
GAIKEI
  6
HIDDEN2
 62
     1
100
AcDbCircle
 10
14.39729885926886
 20
12.85573300555438
 30
0.0
 40
7.277560234111349
100
AcDbArc
 50
180.8477345308542
 51
265.9247228442467
  0
ARC
  5
D8
330
2
100
AcDbEntity
  8
GAIKEI
  6
HIDDEN2
 62
     1
100
AcDbCircle
 10
14.08010414445129
 20
12.74805990870232
 30
0.0
 40
7.660000000000035
100
AcDbArc
 50
91.49614337868788
 51
155.3070949892993
  0
LINE
  5
D9
330
2
100
AcDbEntity
  8
GAIKEI
100
AcDbLine
 10
15.08102746807139
 20
20.79865066226227
 30
0.0
 11
13.88010414445148
 21
20.77768845376227
 31
0.0
  0
LINE
  5
DA
330
2
100
AcDbEntity
  8
GAIKEI
 62
     1
100
AcDbLine
 10
-35.91883022682373
 20
12.74805990871232
 30
0.0
 11
-32.97246524375464
 21
12.74805990871232
 31
0.0
  0
LINE
  5
DB
330
2
100
AcDbEntity
  8
GAIKEI
 62
     1
100
AcDbLine
 10
-23.3102187820607
 20
22.41030637040649
 30
0.0
 11
-23.3102187820607
 21
20.96031037983755
 31
0.0
  0
CIRCLE
  5
DC
330
2
100
AcDbEntity
  8
GAIKEI
100
AcDbCircle
 10
-23.3102187820607
 20
12.74805990871232
 30
0.0
 40
12.93907910585994
  0
CIRCLE
  5
DD
330
2
100
AcDbEntity
  8
GAIKEI
 62
     1
100
AcDbCircle
 10
-23.3102187820607
 20
12.74805990871232
 30
0.0
 40
12.6086114447634
  0
CIRCLE
  5
DE
330
2
100
AcDbEntity
  8
GAIKEI
 62
     1
100
AcDbCircle
 10
-23.3102187820607
 20
12.74805990871232
 30
0.0
 40
9.662246461694223
  0
CIRCLE
  5
DF
330
2
100
AcDbEntity
  8
GAIKEI
 62
     7
100
AcDbCircle
 10
-23.3102187820607
 20
12.74805990871232
 30
0.0
 40
8.212250471125258
  0
CIRCLE
  5
E0
330
2
100
AcDbEntity
  8
GAIKEI
 62
     1
100
AcDbCircle
 10
-23.3102187820607
 20
12.74805990871232
 30
0.0
 40
7.660000155500014
  0
LINE
  5
E1
330
2
100
AcDbEntity
  8
GAIKEI
  6
HIDDEN2
 62
     1
100
AcDbLine
 10
-26.51021893756047
 20
6.025632517962321
 30
0.0
 11
-26.51021893756047
 21
12.74805990870232
 31
0.0
  0
LINE
  5
E2
330
2
100
AcDbEntity
  8
GAIKEI
  6
HIDDEN2
 62
     1
100
AcDbLine
 10
-20.11021893756038
 20
6.025632517962321
 30
0.0
 11
-20.11021893756038
 21
12.74805990870232
 31
0.0
  0
ARC
  5
E3
330
2
100
AcDbEntity
  8
GAIKEI
  6
HIDDEN2
 62
     1
100
AcDbCircle
 10
-23.3102187820607
 20
12.74805990871232
 30
0.0
 40
7.483741875526618
100
AcDbArc
 50
244.7248742408344
 51
295.2751228367299
  0
ARC
  5
E4
330
2
100
AcDbEntity
  8
GAIKEI
  6
HIDDEN2
 62
     1
100
AcDbCircle
 10
-23.3102187820607
 20
12.74805990871232
 30
0.0
 40
3.199999844499998
100
AcDbArc
 50
0.0
 51
180.0
  0
ARC
  5
E5
330
2
100
AcDbEntity
  8
GAIKEI
 62
     1
100
AcDbCircle
 10
-23.3102187820607
 20
12.74805990871232
 30
0.0
 40
12.81875012009022
100
AcDbArc
 50
125.4999986618275
 51
157.5000006492392
  0
LINE
  5
E6
330
2
100
AcDbEntity
  8
GAIKEI
 62
     1
100
AcDbLine
 10
-35.26436928646058
 20
17.69963083680227
 30
0.0
 11
-35.15319970597488
 21
17.65358306910161
 31
0.0
  0
LINE
  5
E7
330
2
100
AcDbEntity
  8
GAIKEI
 62
     1
100
AcDbLine
 10
-30.82398045794048
 20
23.28196493800226
 30
0.0
 11
-30.75410462157947
 21
23.18400348126579
 31
0.0
  0
ARC
  5
E8
330
2
100
AcDbEntity
  8
GAIKEI
 62
     1
100
AcDbCircle
 10
-23.3102187820607
 20
12.74805990871232
 30
0.0
 40
12.85675796776827
100
AcDbArc
 50
79.21382978112122
 51
98.97652840954862
  0
LINE
  5
E9
330
2
100
AcDbEntity
  8
GAIKEI
 62
     1
100
AcDbLine
 10
-25.31625665710067
 20
25.53068725284231
 30
0.0
 11
-25.31625665710067
 21
25.44735270341857
 31
0.0
  0
LINE
  5
EA
330
2
100
AcDbEntity
  8
GAIKEI
 62
     1
100
AcDbLine
 10
-20.90415097760047
 20
25.46146241840233
 30
0.0
 11
-20.90415097760047
 21
25.37767047919761
 31
0.0
  0
LINE
  5
EB
330
2
100
AcDbEntity
  8
GAIKEI
 62
     1
100
AcDbLine
 10
-13.64797232036631
 20
12.74805990871232
 30
0.0
 11
-10.70160733729722
 21
12.74805990871232
 31
0.0
  0
LINE
  5
EC
330
2
100
AcDbEntity
  8
GAIKEI
 62
     1
100
AcDbLine
 10
-23.3102187820607
 20
4.535809437586976
 30
0.0
 11
-23.3102187820607
 21
3.08581344701804
 31
0.0
  0
CIRCLE
  5
ED
330
2
100
AcDbEntity
  8
GAIKEI
 62
     1
100
AcDbCircle
 10
-15.08043330422038
 20
24.07424851976236
 30
0.0
 40
0.826235512274366
  0
CIRCLE
  5
EE
330
2
100
AcDbEntity
  8
GAIKEI
 62
     1
100
AcDbCircle
 10
-15.08043330422038
 20
24.07424851976236
 30
0.0
 40
0.9993352141254327
  0
ARC
  5
EF
330
2
100
AcDbEntity
  8
GAIKEI
 62
     1
100
AcDbCircle
 10
-23.3102187820607
 20
12.74805990871232
 30
0.0
 40
12.86249991217406
100
AcDbArc
 50
49.68634910460051
 51
58.31365533454121
  0
LINE
  5
F0
330
2
100
AcDbEntity
  8
GAIKEI
 62
     1
100
AcDbLine
 10
-14.87380210296055
 20
22.5585754018623
 30
0.0
 11
-14.90112263696051
 21
22.53878964002229
 31
0.0
  0
LINE
  5
F1
330
2
100
AcDbEntity
  8
GAIKEI
 62
     1
100
AcDbLine
 10
-14.90112263696824
 20
22.53878964002536
 30
0.0
 11
-14.98854831600352
 21
22.55589884728784
 31
0.0
  0
LINE
  5
F2
330
2
100
AcDbEntity
  8
GAIKEI
 62
     1
100
AcDbLine
 10
-16.57832179504635
 20
23.7980065848102
 30
0.0
 11
-16.59723538892035
 21
23.77108735856234
 31
0.0
  0
LINE
  5
F3
330
2
100
AcDbEntity
  8
GAIKEI
 62
     1
100
AcDbLine
 10
-16.59723538892035
 20
23.77108735856234
 30
0.0
 11
-16.55394809236009
 21
23.69322826548842
 31
0.0
  0
ARC
  5
F4
330
2
100
AcDbEntity
  8
GAIKEI
 62
     1
100
AcDbCircle
 10
-16.42020362069684
 20
24.06321553576641
 30
0.0
 40
0.3415832532300438
100
AcDbArc
 50
238.7838367215451
 51
356.4960330252057
  0
ARC
  5
F5
330
2
100
AcDbEntity
  8
GAIKEI
 62
     1
100
AcDbCircle
 10
-14.67841966771925
 20
22.79616743324504
 30
0.0
 40
0.3415832532300438
100
AcDbArc
 50
111.4364784533221
 51
229.1486747569802
  0
LINE
  5
F6
330
2
100
AcDbEntity
  8
GAIKEI
 62
     1
100
AcDbLine
 10
-15.16122540546052
 20
24.25429752984235
 30
0.0
 11
-15.16122538584045
 21
24.43429781016232
 31
0.0
  0
LINE
  5
F7
330
2
100
AcDbEntity
  8
GAIKEI
 62
     1
100
AcDbLine
 10
-15.16122538584045
 20
24.43429781016232
 30
0.0
 11
-15.00122565762035
 21
24.43429781016232
 31
0.0
  0
LINE
  5
F8
330
2
100
AcDbEntity
  8
GAIKEI
 62
     1
100
AcDbLine
 10
-15.00122565762035
 20
24.43429781016232
 30
0.0
 11
-15.00122540545976
 21
24.2542974006534
 31
0.0
  0
LINE
  5
F9
330
2
100
AcDbEntity
  8
GAIKEI
 62
     1
100
AcDbLine
 10
-14.90122540545985
 20
24.15429754074239
 30
0.0
 11
-14.72122538822054
 21
24.15429754074228
 31
0.0
  0
LINE
  5
FA
330
2
100
AcDbEntity
  8
GAIKEI
 62
     1
100
AcDbLine
 10
-14.72122538822054
 20
24.15429754074228
 30
0.0
 11
-14.72122538822054
 21
23.9942978125423
 31
0.0
  0
LINE
  5
FB
330
2
100
AcDbEntity
  8
GAIKEI
 62
     1
100
AcDbLine
 10
-14.72122538822054
 20
23.9942978125423
 30
0.0
 11
-14.90122540546031
 21
23.9942978125423
 31
0.0
  0
LINE
  5
FC
330
2
100
AcDbEntity
  8
GAIKEI
 62
     1
100
AcDbLine
 10
-15.00122540546022
 20
23.89429795263106
 30
0.0
 11
-15.00122565762035
 21
23.71429754312237
 31
0.0
  0
LINE
  5
FD
330
2
100
AcDbEntity
  8
GAIKEI
 62
     1
100
AcDbLine
 10
-15.00122565762035
 20
23.71429754312237
 30
0.0
 11
-15.16122538584045
 21
23.71429754312237
 31
0.0
  0
LINE
  5
FE
330
2
100
AcDbEntity
  8
GAIKEI
 62
     1
100
AcDbLine
 10
-15.16122538584045
 20
23.71429754312237
 30
0.0
 11
-15.16122538584045
 21
23.89429781254239
 31
0.0
  0
LINE
  5
FF
330
2
100
AcDbEntity
  8
GAIKEI
 62
     1
100
AcDbLine
 10
-15.26122538584036
 20
23.9942978125423
 30
0.0
 11
-15.44122565524071
 21
23.9942978125423
 31
0.0
  0
LINE
  5
100
330
2
100
AcDbEntity
  8
GAIKEI
 62
     1
100
AcDbLine
 10
-15.44122565524071
 20
23.9942978125423
 30
0.0
 11
-15.44122565524071
 21
24.15429754074228
 31
0.0
  0
LINE
  5
101
330
2
100
AcDbEntity
  8
GAIKEI
 62
     1
100
AcDbLine
 10
-15.44122565524071
 20
24.15429754074228
 30
0.0
 11
-15.26122540546043
 21
24.15429754074239
 31
0.0
  0
ARC
  5
102
330
2
100
AcDbEntity
  8
GAIKEI
 62
     1
100
AcDbCircle
 10
-15.26122538584036
 20
23.89429781254239
 30
0.0
 40
0.1
100
AcDbArc
 50
0.0
 51
90.0
  0
ARC
  5
103
330
2
100
AcDbEntity
  8
GAIKEI
 62
     1
100
AcDbCircle
 10
-14.90122540546031
 20
23.89429781254239
 30
0.0
 40
0.1
100
AcDbArc
 50
90.0
 51
179.9999197350994
  0
ARC
  5
104
330
2
100
AcDbEntity
  8
GAIKEI
 62
     1
100
AcDbCircle
 10
-14.90122540545985
 20
24.2542975407423
 30
0.0
 40
0.1
100
AcDbArc
 50
180.0000802650373
 51
270.0
  0
ARC
  5
105
330
2
100
AcDbEntity
  8
GAIKEI
 62
     1
100
AcDbCircle
 10
-15.26122540546043
 20
24.2542975407423
 30
0.0
 40
0.1
100
AcDbArc
 50
270.0
 51
359.9999937547707
  0
LINE
  5
106
330
2
100
AcDbEntity
  8
GAIKEI
  6
Continuous
 62
     1
370
    30
100
AcDbLine
 10
23.86040197813122
 20
24.6235843120478
 30
0.0
 11
23.92040224873131
 21
24.6235843120478
 31
0.0
  0
LINE
  5
107
330
2
100
AcDbEntity
  8
GAIKEI
  6
Continuous
 62
     1
370
    30
100
AcDbLine
 10
23.92040224873131
 20
23.52358431800781
 30
0.0
 11
23.86040197813122
 21
23.52358431800781
 31
0.0
  0
ARC
  5
108
330
2
100
AcDbEntity
  8
GAIKEI
  6
Continuous
 62
     1
370
    30
100
AcDbCircle
 10
23.92040216767123
 20
24.58358405874776
 30
0.0
 40
0.0400000000000205
100
AcDbArc
 50
0.0
 51
90.0
  0
ARC
  5
109
330
2
100
AcDbEntity
  8
GAIKEI
  6
Continuous
 62
     1
370
    30
100
AcDbCircle
 10
23.92040216767123
 20
23.56358405874778
 30
0.0
 40
0.0400000000000205
100
AcDbArc
 50
270.0
 51
0.0
  0
LINE
  5
10A
330
2
100
AcDbEntity
  8
GAIKEI
  6
Continuous
 62
     1
370
    30
100
AcDbLine
 10
24.36040224635121
 20
24.37358380540775
 30
0.0
 11
24.50040238107135
 21
24.37358380540775
 31
0.0
  0
LINE
  5
10B
330
2
100
AcDbEntity
  8
GAIKEI
  6
Continuous
 62
     1
370
    30
100
AcDbLine
 10
24.50040238107135
 20
23.77358407958775
 30
0.0
 11
24.36040224635121
 21
23.77358407958775
 31
0.0
  0
LINE
  5
10C
330
2
100
AcDbEntity
  8
GAIKEI
  6
Continuous
 62
     1
370
    30
100
AcDbLine
 10
24.50040238107135
 20
24.37358380540775
 30
0.0
 11
24.56040190661156
 21
24.31358427984776
 31
0.0
  0
LINE
  5
10D
330
2
100
AcDbEntity
  8
GAIKEI
  6
Continuous
 62
     1
370
    30
100
AcDbLine
 10
24.56040190661156
 20
23.83358435018783
 30
0.0
 11
24.50040238107135
 21
23.77358407958775
 31
0.0
  0
LINE
  5
10E
330
2
100
AcDbEntity
  8
GAIKEI
  6
Continuous
 62
     1
370
    30
100
AcDbLine
 10
23.09830891097158
 20
25.03364415152783
 30
0.0
 11
23.86040197813122
 21
25.07358373388774
 31
0.0
  0
ARC
  5
10F
330
2
100
AcDbEntity
  8
GAIKEI
  6
Continuous
 62
     1
370
    30
100
AcDbCircle
 10
23.10040216767152
 20
24.99369925266786
 30
0.0
 40
0.0400000000000027
100
AcDbArc
 50
93.00006856598054
 51
180.0
  0
LINE
  5
110
330
2
100
AcDbEntity
  8
GAIKEI
  6
Continuous
 62
     1
370
    30
100
AcDbLine
 10
23.96040218079156
 20
24.92358417494779
 30
0.0
 11
24.16040184105145
 21
24.92358417494779
 31
0.0
  0
LINE
  5
111
330
2
100
AcDbEntity
  8
GAIKEI
  6
Continuous
 62
     1
370
    30
100
AcDbLine
 10
24.16040184105145
 20
23.22358371002781
 30
0.0
 11
23.96040218079156
 21
23.22358371002781
 31
0.0
  0
LINE
  5
112
330
2
100
AcDbEntity
  8
GAIKEI
  6
Continuous
 62
     1
370
    30
100
AcDbLine
 10
24.16040184105145
 20
24.47358400806775
 30
0.0
 11
24.36040224635121
 21
24.47358400806775
 31
0.0
  0
LINE
  5
113
330
2
100
AcDbEntity
  8
GAIKEI
  6
Continuous
 62
     1
370
    30
100
AcDbLine
 10
24.36040224635121
 20
23.67358387692775
 30
0.0
 11
24.16040184105145
 21
23.67358387692775
 31
0.0
  0
LINE
  5
114
330
2
100
AcDbEntity
  8
GAIKEI
  6
Continuous
 62
     1
370
    30
100
AcDbLine
 10
24.56040190661156
 20
23.83358435018783
 30
0.0
 11
24.56040190661156
 21
24.31358427984776
 31
0.0
  0
LINE
  5
115
330
2
100
AcDbEntity
  8
GAIKEI
  6
Continuous
 62
     1
370
    30
100
AcDbLine
 10
23.86040197813122
 20
22.5575740753078
 30
0.0
 11
24.46047695481161
 21
22.57692695840774
 31
0.0
  0
LINE
  5
116
330
2
100
AcDbEntity
  8
GAIKEI
  6
Continuous
 62
     1
370
    30
100
AcDbLine
 10
23.09821652377127
 20
22.59880484326777
 30
0.0
 11
23.06040184701146
 21
22.73649428559361
 31
0.0
  0
LINE
  5
117
330
2
100
AcDbEntity
  8
GAIKEI
  6
Continuous
 62
     1
370
    30
100
AcDbLine
 10
24.66040210927145
 20
24.11103354080785
 30
0.0
 11
24.66040210927145
 21
24.24459041340777
 31
0.0
  0
ARC
  5
118
330
2
100
AcDbEntity
  8
GAIKEI
  6
Continuous
 62
     1
370
    30
100
AcDbCircle
 10
24.54575169761142
 20
22.44095634660778
 30
0.0
 40
0.1150007925189327
100
AcDbArc
 50
4.473708991096888
 51
81.80330226440453
  0
LINE
  5
119
330
2
100
AcDbEntity
  8
GAIKEI
  6
Continuous
 62
     1
370
    30
100
AcDbLine
 10
24.46050079667134
 20
22.57652313692779
 30
0.0
 11
24.56214683259145
 21
22.55478234274779
 31
0.0
  0
LINE
  5
11A
330
2
100
AcDbEntity
  8
GAIKEI
  6
Continuous
 62
     1
370
    30
100
AcDbLine
 10
23.86040197813122
 20
25.07358373388774
 30
0.0
 11
23.86040197813122
 21
22.5575740753078
 31
0.0
  0
LINE
  5
11B
330
2
100
AcDbEntity
  8
GAIKEI
  6
Continuous
 62
     1
370
    30
100
AcDbLine
 10
23.06040184701146
 20
22.73649428559361
 30
0.0
 11
23.06040184701146
 21
24.98913736326779
 31
0.0
  0
LINE
  5
11C
330
2
100
AcDbEntity
  8
GAIKEI
  6
Continuous
 62
     1
370
    30
100
AcDbLine
 10
24.66040210927145
 20
24.24459041340777
 30
0.0
 11
24.56040190661156
 21
24.24459041340777
 31
0.0
  0
LINE
  5
11D
330
2
100
AcDbEntity
  8
GAIKEI
  6
Continuous
 62
     1
370
    30
100
AcDbLine
 10
23.96040218079156
 20
24.92358417494779
 30
0.0
 11
23.96040218079156
 21
23.22358371002781
 31
0.0
  0
LINE
  5
11E
330
2
100
AcDbEntity
  8
GAIKEI
  6
Continuous
 62
     1
370
    30
100
AcDbLine
 10
24.16040184105145
 20
23.22358371002781
 30
0.0
 11
24.16040184105145
 21
24.92358417494779
 31
0.0
  0
LINE
  5
11F
330
2
100
AcDbEntity
  8
GAIKEI
  6
Continuous
 62
     1
370
    30
100
AcDbLine
 10
24.36040224635121
 20
24.07358394248774
 30
0.0
 11
24.36040224635121
 21
24.47358400806775
 31
0.0
  0
LINE
  5
120
330
2
100
AcDbEntity
  8
GAIKEI
  6
Continuous
 62
     1
370
    30
100
AcDbLine
 10
24.36040224635121
 20
23.67358387692775
 30
0.0
 11
24.36040224635121
 21
24.07358394248774
 31
0.0
  0
LINE
  5
121
330
2
100
AcDbEntity
  8
GAIKEI
  6
Continuous
 62
     1
370
    30
100
AcDbLine
 10
24.52040197455131
 20
22.55657793268779
 30
0.0
 11
24.52040197455131
 21
22.99153910262782
 31
0.0
  0
ARC
  5
122
330
2
100
AcDbEntity
  8
GAIKEI
  6
Continuous
 62
     1
370
    30
100
AcDbCircle
 10
24.61029001569136
 20
22.57158749014775
 30
0.0
 40
0.1111306418543444
100
AcDbArc
 50
295.1139949674001
 51
352.2377789561019
  0
LINE
  5
123
330
2
100
AcDbEntity
  8
GAIKEI
  6
Continuous
 62
     1
370
    30
100
AcDbLine
 10
24.72040237987153
 20
22.99153910262782
 30
0.0
 11
24.72040237987153
 21
22.55657793268779
 31
0.0
  0
LINE
  5
124
330
2
100
AcDbEntity
  8
GAIKEI
  6
Continuous
 62
     1
370
    30
100
AcDbLine
 10
24.16040184105145
 20
23.10909659846777
 30
0.0
 11
24.52040197455131
 21
23.10909659846777
 31
0.0
  0
LINE
  5
125
330
2
100
AcDbEntity
  8
GAIKEI
  6
Continuous
 62
     1
370
    30
100
AcDbLine
 10
24.52040197455131
 20
22.99153910262782
 30
0.0
 11
24.16040184105145
 21
22.99153910262782
 31
0.0
  0
LINE
  5
126
330
2
100
AcDbEntity
  8
GAIKEI
  6
Continuous
 62
     1
370
    30
100
AcDbLine
 10
23.96040218079156
 20
23.10909659846777
 30
0.0
 11
23.96040218079156
 21
23.22358371002781
 31
0.0
  0
LINE
  5
127
330
2
100
AcDbEntity
  8
GAIKEI
  6
Continuous
 62
     1
370
    30
100
AcDbLine
 10
24.16040184105145
 20
23.22358371002781
 30
0.0
 11
24.16040184105145
 21
23.10909659846777
 31
0.0
  0
LINE
  5
128
330
2
100
AcDbEntity
  8
GAIKEI
  6
Continuous
 62
     1
370
    30
100
AcDbLine
 10
24.72040237987153
 20
22.99153910262782
 30
0.0
 11
24.72040237987153
 21
24.02708114370785
 31
0.0
  0
LINE
  5
129
330
2
100
AcDbEntity
  8
GAIKEI
  6
Continuous
 62
     1
370
     0
100
AcDbLine
 10
23.09821652377127
 20
22.59880484326777
 30
0.0
 11
23.86040197813122
 21
22.5575740753078
 31
0.0
  0
LINE
  5
12A
330
2
100
AcDbEntity
  8
GAIKEI
  6
Continuous
 62
     1
370
     0
100
AcDbLine
 10
24.52040197455131
 20
23.79358441814781
 30
0.0
 11
24.52040197455131
 21
23.10909659846777
 31
0.0
  0
LINE
  5
12B
330
2
100
AcDbEntity
  8
GAIKEI
  6
Continuous
 62
     1
370
    30
100
AcDbLine
 10
24.72040237987153
 20
24.02708114370785
 30
0.0
 11
24.71655937039145
 21
24.05001552088777
 31
0.0
  0
LINE
  5
12C
330
2
100
AcDbEntity
  8
GAIKEI
  6
Continuous
 62
     1
370
    30
100
AcDbLine
 10
24.71655937039145
 20
24.05001552088777
 30
0.0
 11
24.70517786347159
 21
24.07206849440775
 31
0.0
  0
LINE
  5
12D
330
2
100
AcDbEntity
  8
GAIKEI
  6
Continuous
 62
     1
370
    30
100
AcDbLine
 10
24.70517786347159
 20
24.07206849440775
 30
0.0
 11
24.6866959532515
 21
24.09239218814775
 31
0.0
  0
LINE
  5
12E
330
2
100
AcDbEntity
  8
GAIKEI
  6
Continuous
 62
     1
370
    30
100
AcDbLine
 10
24.6866959532515
 20
24.09239218814775
 30
0.0
 11
24.66182368005161
 21
24.11020652636785
 31
0.0
  0
LINE
  5
12F
330
2
100
AcDbEntity
  8
GAIKEI
  6
Continuous
 62
     1
370
    30
100
AcDbLine
 10
24.66182368005161
 20
24.11020652636785
 30
0.0
 11
24.63151620829126
 21
24.12482605560786
 31
0.0
  0
LINE
  5
130
330
2
100
AcDbEntity
  8
GAIKEI
  6
Continuous
 62
     1
370
    30
100
AcDbLine
 10
24.63151620829126
 20
24.12482605560786
 30
0.0
 11
24.59693880879127
 21
24.13568974716782
 31
0.0
  0
LINE
  5
131
330
2
100
AcDbEntity
  8
GAIKEI
  6
Continuous
 62
     1
370
    30
100
AcDbLine
 10
24.59693880879127
 20
24.13568974716782
 30
0.0
 11
24.56040190661156
 21
24.14226264938782
 31
0.0
  0
LINE
  5
132
330
2
100
AcDbEntity
  8
GAIKEI
  6
Continuous
 62
     1
370
    30
100
AcDbLine
 10
24.16040184105145
 20
22.99153910262782
 30
0.0
 11
24.1213838955116
 21
22.99379811866777
 31
0.0
  0
LINE
  5
133
330
2
100
AcDbEntity
  8
GAIKEI
  6
Continuous
 62
     1
370
    30
100
AcDbLine
 10
24.1213838955116
 20
22.99379811866777
 30
0.0
 11
24.08386575187137
 21
23.00048799498779
 31
0.0
  0
LINE
  5
134
330
2
100
AcDbEntity
  8
GAIKEI
  6
Continuous
 62
     1
370
    30
100
AcDbLine
 10
24.08386575187137
 20
23.00048799498779
 30
0.0
 11
24.04928835237138
 21
23.01135094150777
 31
0.0
  0
LINE
  5
135
330
2
100
AcDbEntity
  8
GAIKEI
  6
Continuous
 62
     1
370
    30
100
AcDbLine
 10
24.04928835237138
 20
23.01135094150777
 30
0.0
 11
24.01898088061148
 21
23.02597121580777
 31
0.0
  0
LINE
  5
136
330
2
100
AcDbEntity
  8
GAIKEI
  6
Continuous
 62
     1
370
    30
100
AcDbLine
 10
24.01898088061148
 20
23.02597121580777
 30
0.0
 11
23.99410860741159
 21
23.04378555400774
 31
0.0
  0
LINE
  5
137
330
2
100
AcDbEntity
  8
GAIKEI
  6
Continuous
 62
     1
370
    30
100
AcDbLine
 10
23.99410860741159
 20
23.04378555400774
 30
0.0
 11
23.97562595213162
 21
23.06410924776776
 31
0.0
  0
LINE
  5
138
330
2
100
AcDbEntity
  8
GAIKEI
  6
Continuous
 62
     1
370
    30
100
AcDbLine
 10
23.97562595213162
 20
23.06410924776776
 30
0.0
 11
23.96424519027164
 21
23.08616222126784
 31
0.0
  0
LINE
  5
139
330
2
100
AcDbEntity
  8
GAIKEI
  6
Continuous
 62
     1
370
    30
100
AcDbLine
 10
23.96424519027164
 20
23.08616222126784
 30
0.0
 11
23.96040218079156
 21
23.10909659846777
 31
0.0
  0
LINE
  5
13A
330
2
100
AcDbEntity
  8
GAIKEI
  6
Continuous
 62
     1
370
    30
100
AcDbLine
 10
24.52040197455131
 20
23.10909659846777
 30
0.0
 11
24.55941992009162
 21
23.10683758242783
 31
0.0
  0
LINE
  5
13B
330
2
100
AcDbEntity
  8
GAIKEI
  6
Continuous
 62
     1
370
    30
100
AcDbLine
 10
24.55941992009162
 20
23.10683758242783
 30
0.0
 11
24.59693880879127
 21
23.10014770610781
 31
0.0
  0
LINE
  5
13C
330
2
100
AcDbEntity
  8
GAIKEI
  6
Continuous
 62
     1
370
    30
100
AcDbLine
 10
24.59693880879127
 20
23.10014770610781
 30
0.0
 11
24.63151620829126
 21
23.08928475960783
 31
0.0
  0
LINE
  5
13D
330
2
100
AcDbEntity
  8
GAIKEI
  6
Continuous
 62
     1
370
    30
100
AcDbLine
 10
24.63151620829126
 20
23.08928475960783
 30
0.0
 11
24.66182368005161
 21
23.07466448528783
 31
0.0
  0
LINE
  5
13E
330
2
100
AcDbEntity
  8
GAIKEI
  6
Continuous
 62
     1
370
    30
100
AcDbLine
 10
24.66182368005161
 20
23.07466448528783
 30
0.0
 11
24.6866959532515
 21
23.05685089214785
 31
0.0
  0
LINE
  5
13F
330
2
100
AcDbEntity
  8
GAIKEI
  6
Continuous
 62
     1
370
    30
100
AcDbLine
 10
24.6866959532515
 20
23.05685089214785
 30
0.0
 11
24.70517786347159
 21
23.03652645334785
 31
0.0
  0
LINE
  5
140
330
2
100
AcDbEntity
  8
GAIKEI
  6
Continuous
 62
     1
370
    30
100
AcDbLine
 10
24.70517786347159
 20
23.03652645334785
 30
0.0
 11
24.71655937039145
 21
23.01447347982776
 31
0.0
  0
LINE
  5
141
330
2
100
AcDbEntity
  8
GAIKEI
  6
Continuous
 62
     1
370
    30
100
AcDbLine
 10
24.71655937039145
 20
23.01447347982776
 30
0.0
 11
24.72040237987153
 21
22.99153910262782
 31
0.0
  0
LINE
  5
142
330
2
100
AcDbEntity
  8
GAIKEI
 62
     1
100
AcDbLine
 10
24.46040244901155
 20
22.57692455553797
 30
0.0
 11
24.46040244901155
 21
7.796488980622257
 31
0.0
  0
LINE
  5
143
330
2
100
AcDbEntity
  8
GAIKEI
100
AcDbLine
 10
24.6601040860312
 20
22.47224677364579
 30
0.0
 11
24.6601040860312
 21
5.1919291716423
 31
0.0
  0
DIMENSION
  5
144
330
2
100
AcDbEntity
  8
SUNPO
100
AcDbDimension
  2
*D3
 10
32.64919265551112
 20
25.68713901456226
 30
0.0
 11
30.89919265551111
 21
12.74805990871227
 31
0.0
 70
    33
  1
\U+03C6129.5
 71
     5
 42
25.8781582117
  3
STANDARD
100
AcDbAlignedDimension
 13
24.64919265551112
 23
-0.1910191971377344
 33
0.0
 14
24.64919265551112
 24
25.68713901456226
 34
0.0
1001
ACAD
1000
DSTYLE
1002
{
1070
    40
1040
1.0
1070
   140
1040
2.5
1070
   147
1040
0.5
1070
   172
1070
     1
1002
}
  0
DIMENSION
  5
155
330
2
100
AcDbEntity
  8
SUNPO
100
AcDbDimension
  2
*D4
 10
5.850475599401534
 20
33.86796332831864
 30
0.0
 11
15.25528984271636
 21
35.61796332831864
 31
0.0
 70
    33
  1
93
 71
     5
 42
18.80962848662966
  3
STANDARD
100
AcDbAlignedDimension
 13
24.6601040860312
 23
25.86796332831864
 33
0.0
 14
5.850475599401534
 24
25.86796332831864
 34
0.0
1001
ACAD
1000
DSTYLE
1002
{
1070
    40
1040
1.0
1070
   140
1040
2.5
1070
   147
1040
0.5
1070
   172
1070
     1
1002
}
  0
TEXT
  5
162
330
2
100
AcDbEntity
  8
MOJI1
100
AcDbText
 10
-57.76388321526815
 20
-21.0149337584885
 30
0.0
 40
3.0
  1
有効画素数／走査方式
100
AcDbText
  0
TEXT
  5
163
330
2
100
AcDbEntity
  8
MOJI1
100
AcDbText
 10
-17.76388321526815
 20
-21.0149337584885
 30
0.0
 40
3.0
  1
約１３０万画素／プログレッシブ
100
AcDbText
  0
TEXT
  5
164
330
2
100
AcDbEntity
  8
MOJI1
100
AcDbText
 10
-17.76388321526815
 20
-45.79924509064966
 30
0.0
 40
3.0
  1
ｆ＝２．８～１０ｍｍ（３．６倍バリフォーカル）
100
AcDbText
  0
TEXT
  5
165
330
2
100
AcDbEntity
  8
MOJI1
100
AcDbText
 10
-57.76388321526815
 20
-46.10207374314495
 30
0.0
 40
3.0
  1
レンズ部
100
AcDbText
  0
TEXT
  5
166
330
2
100
AcDbEntity
  8
TOUROKU
100
AcDbText
 10
48.73606681765983
 20
35.95225646214215
 30
0.0
 40
2.0
  1
ＤＧＳＦ３３５
 72
     2
 11
64.73606681765983
 21
35.95225646214215
 31
0.0
100
AcDbText
  0
ENDSEC
  0
SECTION
  2
OBJECTS
  0
DICTIONARY
  5
C
330
0
100
AcDbDictionary
281
     1
  3
ACAD_COLOR
350
4C
  3
ACAD_GROUP
350
39
  3
ACAD_LAYOUT
350
12
  3
ACAD_MATERIAL
350
E
  3
ACAD_MLEADERSTYLE
350
4F
  3
ACAD_MLINESTYLE
350
3A
  3
ACAD_PLOTSETTINGS
350
3B
  3
ACAD_PLOTSTYLENAME
350
B
  3
ACAD_SCALELIST
350
4D
  3
ACAD_TABLESTYLE
350
4E
  3
ACAD_VISUALSTYLE
350
2B
  3
ACDB_RECOMPOSE_DATA
350
1F0
  3
AcDbVariableDictionary
350
16D
  3
DWGPROPS
350
1F1
  0
DICTIONARY
  5
2C
330
28
100
AcDbDictionary
280
     1
281
     1
  0
DICTIONARY
  5
1D
330
1C
100
AcDbDictionary
280
     1
281
     1
  3
ACAD_LAYERFILTERS
360
1E
  3
ACAD_LAYERSTATES
360
1F
  0
DICTIONARY
  5
8
330
7
100
AcDbDictionary
280
     1
281
     1
  3
ADSK_XREC_LAYER_RECONCILED
360
9
  0
DICTIONARY
  5
6B
330
6A
100
AcDbDictionary
280
     1
281
     1
  3
ADSK_XREC_LAYER_RECONCILED
360
6C
  0
DICTIONARY
  5
51
330
50
100
AcDbDictionary
280
     1
281
     1
  3
ADSK_XREC_LAYER_RECONCILED
360
52
  0
DICTIONARY
  5
6F
330
6E
100
AcDbDictionary
280
     1
281
     1
  3
ADSK_XREC_LAYER_RECONCILED
360
70
  0
DICTIONARY
  5
168
330
167
100
AcDbDictionary
280
     1
281
     1
  3
ADSK_XREC_LAYER_RECONCILED
360
169
  0
DICTIONARY
  5
146
330
145
100
AcDbDictionary
280
     1
281
     1
  3
ADSK_XREC_LAYER_RECONCILED
360
147
  0
DICTIONARY
  5
3
330
2
100
AcDbDictionary
280
     1
281
     1
  3
ACAD_LAYOUTSELFREF
360
4
  3
ACAD_SORTENTS
360
16A
  0
DICTIONARY
  5
17
330
16
100
AcDbDictionary
280
     1
281
     1
  3
ACAD_LAYOUTSELFREF
360
18
  0
DICTIONARY
  5
32
330
31
100
AcDbDictionary
280
     1
281
     1
  0
DICTIONARY
  5
4C
102
{ACAD_REACTORS
330
C
102
}
330
C
100
AcDbDictionary
281
     1
  0
DICTIONARY
  5
39
102
{ACAD_REACTORS
330
C
102
}
330
C
100
AcDbDictionary
281
     1
  0
DICTIONARY
  5
12
102
{ACAD_REACTORS
330
C
102
}
330
C
100
AcDbDictionary
281
     1
  3
Model
350
11
  3
ﾚｲｱｳﾄ1
350
1B
  0
DICTIONARY
  5
E
102
{ACAD_REACTORS
330
C
102
}
330
C
100
AcDbDictionary
281
     1
  3
ByBlock
350
44
  3
ByLayer
350
3C
  3
Global
350
D
  0
DICTIONARY
  5
4F
102
{ACAD_REACTORS
330
C
102
}
330
C
100
AcDbDictionary
281
     1
  3
Standard
350
18B
  0
DICTIONARY
  5
3A
102
{ACAD_REACTORS
330
C
102
}
330
C
100
AcDbDictionary
281
     1
  3
STANDARD
350
53
  0
DICTIONARY
  5
3B
102
{ACAD_REACTORS
330
C
102
}
330
C
100
AcDbDictionary
281
     1
  0
ACDBDICTIONARYWDFLT
  5
B
102
{ACAD_REACTORS
330
C
102
}
330
C
100
AcDbDictionary
281
     1
  3
Normal
350
A
100
AcDbDictionaryWithDefault
340
A
  0
DICTIONARY
  5
4D
102
{ACAD_REACTORS
330
C
102
}
330
C
100
AcDbDictionary
281
     1
  3
A0
350
58
  3
A1
350
59
  3
A2
350
5A
  3
A3
350
5B
  3
A4
350
5C
  3
A5
350
5D
  3
A6
350
5E
  3
A7
350
5F
  3
A8
350
60
  3
A9
350
61
  3
B0
350
62
  3
B1
350
63
  3
B2
350
64
  3
B3
350
65
  3
B4
350
66
  3
B5
350
67
  3
B6
350
68
  0
DICTIONARY
  5
4E
102
{ACAD_REACTORS
330
C
102
}
330
C
100
AcDbDictionary
281
     1
  3
Standard
350
54
  0
DICTIONARY
  5
2B
102
{ACAD_REACTORS
330
C
102
}
330
C
100
AcDbDictionary
281
     1
  3
2dWireframe
350
2A
  3
Basic
350
17A
  3
Brighten
350
17E
  3
ColorChange
350
182
  3
Conceptual
350
17C
  3
Dim
350
17D
  3
EdgeColorOff
350
18A
  3
Facepattern
350
181
  3
Flat
350
176
  3
FlatWithEdges
350
177
  3
Gouraud
350
178
  3
GouraudWithEdges
350
179
  3
Hidden
350
17B
  3
JitterOff
350
188
  3
Linepattern
350
180
  3
OverhangOff
350
189
  3
Realistic
350
56
  3
Shaded
350
187
  3
Shaded with edges
350
186
  3
Shades of Gray
350
183
  3
Sketchy
350
184
  3
Thicken
350
17F
  3
Wireframe
350
57
  3
X-Ray
350
185
  0
XRECORD
  5
1F0
102
{ACAD_REACTORS
330
C
102
}
330
C
100
AcDbXrecord
280
     1
 90
        1
330
54
  0
DICTIONARY
  5
16D
102
{ACAD_REACTORS
330
C
102
}
330
C
100
AcDbDictionary
281
     1
  3
CANNOSCALE
350
171
  3
CMLEADERSTYLE
350
16F
  3
CTABLESTYLE
350
16E
  3
DIMASSOC
350
1ED
  3
HIDETEXT
350
1EC
  3
INDEXCTL
350
1EB
  3
LAYEREVAL
350
173
  3
LAYERNOTIFY
350
174
  3
LIGHTINGUNITS
350
172
  3
MSLTSCALE
350
170
  3
SORTENTS
350
1EA
  3
XCLIPFRAME
350
1EE
  0
XRECORD
  5
1F1
102
{ACAD_REACTORS
330
C
102
}
330
C
100
AcDbXrecord
280
     1
  1
DWGPROPS COOKIE
  2

  3

  4

  6

  7

  8
7009729
  9

300
=
301
=
302
=
303
=
304
=
305
=
306
=
307
=
308
=
309
=
 40
1.099911018518518
 41
2448885.016931713
 42
2456701.5889775
  1

 90
        0
  0
DICTIONARY
  5
1E
102
{ACAD_REACTORS
330
1D
102
}
330
1D
100
AcDbDictionary
281
     1
  0
DICTIONARY
  5
1F
102
{ACAD_REACTORS
330
1D
102
}
330
1D
100
AcDbDictionary
281
     1
  0
XRECORD
  5
9
102
{ACAD_REACTORS
330
8
102
}
330
8
100
AcDbXrecord
280
     1
290
     1
  0
XRECORD
  5
6C
102
{ACAD_REACTORS
330
6B
102
}
330
6B
100
AcDbXrecord
280
     1
290
     1
  0
XRECORD
  5
52
102
{ACAD_REACTORS
330
51
102
}
330
51
100
AcDbXrecord
280
     1
290
     1
  0
XRECORD
  5
70
102
{ACAD_REACTORS
330
6F
102
}
330
6F
100
AcDbXrecord
280
     1
290
     1
  0
XRECORD
  5
169
102
{ACAD_REACTORS
330
168
102
}
330
168
100
AcDbXrecord
280
     1
290
     1
  0
XRECORD
  5
147
102
{ACAD_REACTORS
330
146
102
}
330
146
100
AcDbXrecord
280
     1
290
     1
  0
XRECORD
  5
4
102
{ACAD_REACTORS
330
3
102
}
330
3
100
AcDbXrecord
280
     1
340
2
  0
SORTENTSTABLE
  5
16A
102
{ACAD_REACTORS
330
3
102
}
330
3
100
AcDbSortentsTable
330
2
  0
XRECORD
  5
18
102
{ACAD_REACTORS
330
17
102
}
330
17
100
AcDbXrecord
280
     1
340
16
  0
LAYOUT
  5
11
102
{ACAD_XDICTIONARY
360
13
102
}
102
{ACAD_REACTORS
330
12
102
}
330
12
100
AcDbPlotSettings
  1

  2
ＰＤＦ　Ａ4縦.pc3
  4
ISO_full_bleed_A4_(210.00_x_297.00_MM)
  6

 40
0.7937499880790711
 41
0.7937499880790711
 42
0.7937469482421875
 43
0.79376220703125
 44
210.0
 45
297.0
 46
24.76198070625645
 47
0.0
 48
0.0
 49
0.0
140
0.0
141
0.0
142
1.0
143
1.625125410154295
 70
  3764
 72
     1
 73
     0
 74
     1
  7
全て黄色設定.ctb
 75
     0
147
0.6153371264467867
148
-276.3885250876346
149
-48.03559772077097
100
AcDbLayout
  1
Model
 70
     1
 71
     0
 10
0.0
 20
0.0
 11
12.0
 21
9.0
 12
0.0
 22
0.0
 32
0.0
 14
0.0
 24
0.0
 34
0.0
 15
0.0
 25
0.0
 35
0.0
146
0.0
 13
0.0
 23
0.0
 33
0.0
 16
1.0
 26
0.0
 36
0.0
 17
0.0
 27
1.0
 37
0.0
 76
     0
330
2
331
29
1001
ACAD_PSEXT
1000
ＰＤＦ　Ａ4縦.pc3
1000
DWG To PDF
1000
ファイル
1000

1070
     0
  0
LAYOUT
  5
1B
102
{ACAD_XDICTIONARY
360
1F5
102
}
102
{ACAD_REACTORS
330
12
102
}
330
12
100
AcDbPlotSettings
  1

  2
\\N2-DOM\LP-8200
  4

  6

 40
0.0
 41
0.0
 42
0.0
 43
0.0
 44
0.0
 45
0.0
 46
0.0
 47
0.0
 48
0.0
 49
0.0
140
0.0
141
0.0
142
1.0
143
1.0
 70
   688
 72
     0
 73
     0
 74
     5
  7
全て黄色設定.ctb
 75
    16
147
1.0
148
0.0
149
0.0
100
AcDbLayout
  1
ﾚｲｱｳﾄ1
 70
     0
 71
     1
 10
0.0
 20
0.0
 11
12.0
 21
9.0
 12
0.0
 22
0.0
 32
0.0
 14
1.000000000000000E+20
 24
1.000000000000000E+20
 34
1.000000000000000E+20
 15
-1.000000000000000E+20
 25
-1.000000000000000E+20
 35
-1.000000000000000E+20
146
0.0
 13
0.0
 23
0.0
 33
0.0
 16
1.0
 26
0.0
 36
0.0
 17
0.0
 27
1.0
 37
0.0
 76
     0
330
16
  0
MATERIAL
  5
44
102
{ACAD_XDICTIONARY
360
45
102
}
102
{ACAD_REACTORS
330
E
102
}
330
E
100
AcDbMaterial
  1
ByBlock
 72
     0
 43
0.0208333333333333
 43
0.0
 43
0.0
 43
0.0
 43
0.0
 43
0.0208333333333333
 43
0.0
 43
0.0
 43
0.0
 43
0.0
 43
1.0
 43
0.0
 43
0.0
 43
0.0
 43
0.0
 43
1.0
 77
     0
 47
0.0208333333333333
 47
0.0
 47
0.0
 47
0.0
 47
0.0
 47
0.0208333333333333
 47
0.0
 47
0.0
 47
0.0
 47
0.0
 47
1.0
 47
0.0
 47
0.0
 47
0.0
 47
0.0
 47
1.0
171
     0
 49
0.0208333333333333
 49
0.0
 49
0.0
 49
0.0
 49
0.0
 49
0.0208333333333333
 49
0.0
 49
0.0
 49
0.0
 49
0.0
 49
1.0
 49
0.0
 49
0.0
 49
0.0
 49
0.0
 49
1.0
175
     0
142
0.0208333333333333
142
0.0
142
0.0
142
0.0
142
0.0
142
0.0208333333333333
142
0.0
142
0.0
142
0.0
142
0.0
142
1.0
142
0.0
142
0.0
142
0.0
142
0.0
142
1.0
179
     0
144
0.0208333333333333
144
0.0
144
0.0
144
0.0
144
0.0
144
0.0208333333333333
144
0.0
144
0.0
144
0.0
144
0.0
144
1.0
144
0.0
144
0.0
144
0.0
144
0.0
144
1.0
147
0.0208333333333333
147
0.0
147
0.0
147
0.0
147
0.0
147
0.0208333333333333
147
0.0
147
0.0
147
0.0
147
0.0
147
1.0
147
0.0
147
0.0
147
0.0
147
0.0
147
1.0
  0
MATERIAL
  5
3C
102
{ACAD_XDICTIONARY
360
3D
102
}
102
{ACAD_REACTORS
330
E
102
}
330
E
100
AcDbMaterial
  1
ByLayer
 72
     0
 43
0.0208333333333333
 43
0.0
 43
0.0
 43
0.0
 43
0.0
 43
0.0208333333333333
 43
0.0
 43
0.0
 43
0.0
 43
0.0
 43
1.0
 43
0.0
 43
0.0
 43
0.0
 43
0.0
 43
1.0
 77
     0
 47
0.0208333333333333
 47
0.0
 47
0.0
 47
0.0
 47
0.0
 47
0.0208333333333333
 47
0.0
 47
0.0
 47
0.0
 47
0.0
 47
1.0
 47
0.0
 47
0.0
 47
0.0
 47
0.0
 47
1.0
171
     0
 49
0.0208333333333333
 49
0.0
 49
0.0
 49
0.0
 49
0.0
 49
0.0208333333333333
 49
0.0
 49
0.0
 49
0.0
 49
0.0
 49
1.0
 49
0.0
 49
0.0
 49
0.0
 49
0.0
 49
1.0
175
     0
142
0.0208333333333333
142
0.0
142
0.0
142
0.0
142
0.0
142
0.0208333333333333
142
0.0
142
0.0
142
0.0
142
0.0
142
1.0
142
0.0
142
0.0
142
0.0
142
0.0
142
1.0
179
     0
144
0.0208333333333333
144
0.0
144
0.0
144
0.0
144
0.0
144
0.0208333333333333
144
0.0
144
0.0
144
0.0
144
0.0
144
1.0
144
0.0
144
0.0
144
0.0
144
0.0
144
1.0
147
0.0208333333333333
147
0.0
147
0.0
147
0.0
147
0.0
147
0.0208333333333333
147
0.0
147
0.0
147
0.0
147
0.0
147
1.0
147
0.0
147
0.0
147
0.0
147
0.0
147
1.0
  0
MATERIAL
  5
D
102
{ACAD_XDICTIONARY
360
1F2
102
}
102
{ACAD_REACTORS
330
E
102
}
330
E
100
AcDbMaterial
  1
Global
 73
     1
 78
     1
172
     1
176
     1
270
     1
274
     1
  0
MLEADERSTYLE
  5
18B
102
{ACAD_REACTORS
330
4F
102
}
330
4F
100
AcDbMLeaderStyle
170
     2
171
     1
172
     0
 90
        2
 40
0.0
 41
0.0
173
     1
 91
-1056964608
340
24
 92
       -2
290
     1
 42
0.09
291
     1
 43
0.36
  3
Standard
 44
0.18
300

342
21
174
     1
178
     6
175
     1
176
     0
 93
-1056964608
 45
0.18
292
     0
297
     0
 46
0.18
 94
-1056964608
 47
1.0
 49
1.0
140
1.0
293
     1
141
0.0
294
     1
177
     0
142
1.0
295
     0
296
     0
143
0.125
1001
ACAD_MLEADERVER
1070
     2
  0
MLINESTYLE
  5
53
102
{ACAD_REACTORS
330
3A
102
}
330
3A
100
AcDbMlineStyle
  2
STANDARD
 70
     0
  3

 62
   256
 51
90.0
 52
90.0
 71
     2
 49
0.5
 62
   256
  6
BYLAYER
 49
-0.5
 62
   256
  6
BYLAYER
  0
ACDBPLACEHOLDER
  5
A
102
{ACAD_REACTORS
330
B
102
}
330
B
  0
SCALE
  5
58
102
{ACAD_REACTORS
330
4D
102
}
330
4D
100
AcDbScale
 70
     0
300
1:1
140
1.0
141
1.0
290
     1
  0
SCALE
  5
59
102
{ACAD_REACTORS
330
4D
102
}
330
4D
100
AcDbScale
 70
     0
300
1/128" = 1'-0"
140
0.0078125
141
12.0
290
     0
  0
SCALE
  5
5A
102
{ACAD_REACTORS
330
4D
102
}
330
4D
100
AcDbScale
 70
     0
300
1/64" = 1'-0"
140
0.015625
141
12.0
290
     0
  0
SCALE
  5
5B
102
{ACAD_REACTORS
330
4D
102
}
330
4D
100
AcDbScale
 70
     0
300
1/32" = 1'-0"
140
0.03125
141
12.0
290
     0
  0
SCALE
  5
5C
102
{ACAD_REACTORS
330
4D
102
}
330
4D
100
AcDbScale
 70
     0
300
1/16" = 1'-0"
140
0.0625
141
12.0
290
     0
  0
SCALE
  5
5D
102
{ACAD_REACTORS
330
4D
102
}
330
4D
100
AcDbScale
 70
     0
300
3/32" = 1'-0"
140
0.09375
141
12.0
290
     0
  0
SCALE
  5
5E
102
{ACAD_REACTORS
330
4D
102
}
330
4D
100
AcDbScale
 70
     0
300
1/8" = 1'-0"
140
0.125
141
12.0
290
     0
  0
SCALE
  5
5F
102
{ACAD_REACTORS
330
4D
102
}
330
4D
100
AcDbScale
 70
     0
300
3/16" = 1'-0"
140
0.1875
141
12.0
290
     0
  0
SCALE
  5
60
102
{ACAD_REACTORS
330
4D
102
}
330
4D
100
AcDbScale
 70
     0
300
1/4" = 1'-0"
140
0.25
141
12.0
290
     0
  0
SCALE
  5
61
102
{ACAD_REACTORS
330
4D
102
}
330
4D
100
AcDbScale
 70
     0
300
3/8" = 1'-0"
140
0.375
141
12.0
290
     0
  0
SCALE
  5
62
102
{ACAD_REACTORS
330
4D
102
}
330
4D
100
AcDbScale
 70
     0
300
1/2" = 1'-0"
140
0.5
141
12.0
290
     0
  0
SCALE
  5
63
102
{ACAD_REACTORS
330
4D
102
}
330
4D
100
AcDbScale
 70
     0
300
3/4" = 1'-0"
140
0.75
141
12.0
290
     0
  0
SCALE
  5
64
102
{ACAD_REACTORS
330
4D
102
}
330
4D
100
AcDbScale
 70
     0
300
1" = 1'-0"
140
1.0
141
12.0
290
     0
  0
SCALE
  5
65
102
{ACAD_REACTORS
330
4D
102
}
330
4D
100
AcDbScale
 70
     0
300
1-1/2" = 1'-0"
140
1.5
141
12.0
290
     0
  0
SCALE
  5
66
102
{ACAD_REACTORS
330
4D
102
}
330
4D
100
AcDbScale
 70
     0
300
3" = 1'-0"
140
3.0
141
12.0
290
     0
  0
SCALE
  5
67
102
{ACAD_REACTORS
330
4D
102
}
330
4D
100
AcDbScale
 70
     0
300
6" = 1'-0"
140
6.0
141
12.0
290
     0
  0
SCALE
  5
68
102
{ACAD_REACTORS
330
4D
102
}
330
4D
100
AcDbScale
 70
     0
300
1'-0" = 1'-0"
140
12.0
141
12.0
290
     0
  0
TABLESTYLE
  5
54
102
{ACAD_XDICTIONARY
360
55
102
}
102
{ACAD_REACTORS
330
4E
102
}
330
4E
100
AcDbTableStyle
  3
Standard
 70
     0
 71
     0
 40
0.06
 41
0.06
280
     0
281
     0
  7
STANDARD
140
0.18
170
     2
 62
     0
 63
     7
283
     0
274
    -2
284
     1
 64
     0
275
    -2
285
     1
 65
     0
276
    -2
286
     1
 66
     0
277
    -2
287
     1
 67
     0
278
    -2
288
     1
 68
     0
279
    -2
289
     1
 69
     0
  7
STANDARD
140
0.25
170
     5
 62
     0
 63
     7
283
     0
274
    -2
284
     1
 64
     0
275
    -2
285
     1
 65
     0
276
    -2
286
     1
 66
     0
277
    -2
287
     1
 67
     0
278
    -2
288
     1
 68
     0
279
    -2
289
     1
 69
     0
  7
STANDARD
140
0.18
170
     5
 62
     0
 63
     7
283
     0
274
    -2
284
     1
 64
     0
275
    -2
285
     1
 65
     0
276
    -2
286
     1
 66
     0
277
    -2
287
     1
 67
     0
278
    -2
288
     1
 68
     0
279
    -2
289
     1
 69
     0
1001
ACAD
1000
AcRTDxfName
1000
TABLESTYLE
1000
AcRTDxfName
1000
TABLESTYLE
1000
AcRTDxfName
1000
TABLESTYLE
1000
AcRTDxfName
1000
TABLESTYLE
1000
AcRTDxfName
1000
TABLESTYLE
1000
AcRTDxfName
1000
TABLESTYLE
1000
AcRTDxfName
1000
TABLESTYLE
1000
AcRTDxfName
1000
TABLESTYLE
1000
AcRTDxfName
1000
TABLESTYLE
1000
AcRTDxfName
1000
TABLESTYLE
1000
AcRTDxfName
1000
TABLESTYLE
1000
AcRTDxfName
1000
TABLESTYLE
1000
AcRTDxfName
1000
TABLESTYLE
1000
AcRTDxfName
1000
TABLESTYLE
1000
AcRTDxfName
1000
TABLESTYLE
1000
AcRTDxfName
1000
TABLESTYLE
1000
AcRTDxfName
1000
TABLESTYLE
1000
AcRTDxfName
1000
TABLESTYLE
1000
AcRTDxfName
1000
TABLESTYLE
1000
AcRTDxfName
1000
TABLESTYLE
1000
AcRTDxfName
1000
TABLESTYLE
1000
AcRTDxfName
1000
TABLESTYLE
1000
AcRTDxfName
1000
TABLESTYLE
1000
AcRTDxfName
1000
TABLESTYLE
1000
AcRTDxfName
1000
TABLESTYLE
1000
AcRTDxfName
1000
TABLESTYLE
1000
AcRTDxfName
1000
TABLESTYLE
1000
AcRTDxfName
1000
TABLESTYLE
1000
AcRTDxfName
1000
TABLESTYLE
1000
AcRTDxfName
1000
TABLESTYLE
1000
AcRTDxfName
1000
TABLESTYLE
1000
AcRTDxfName
1000
TABLESTYLE
1000
AcRTDxfName
1000
TABLESTYLE
1000
AcRTDxfName
1000
TABLESTYLE
1000
AcRTDxfName
1000
TABLESTYLE
1000
AcRTDxfName
1000
TABLESTYLE
1000
AcRTDxfName
1000
TABLESTYLE
1000
AcRTDxfName
1000
TABLESTYLE
1000
AcRTDxfName
1000
TABLESTYLE
1000
AcRTDxfName
1000
TABLESTYLE
1000
AcRTDxfName
1000
TABLESTYLE
1000
AcRTDxfName
1000
TABLESTYLE
1000
AcRTDxfName
1000
TABLESTYLE
1000
AcRTDxfName
1000
TABLESTYLE
1000
AcRTDxfName
1000
TABLESTYLE
1000
AcRTDxfName
1000
TABLESTYLE
1000
AcRTDxfName
1000
TABLESTYLE
1000
AcRTDxfName
1000
TABLESTYLE
1000
AcRTDxfName
1000
TABLESTYLE
1000
AcRTDxfName
1000
TABLESTYLE
1000
AcRTDxfName
1000
TABLESTYLE
1000
AcRTDxfName
1000
TABLESTYLE
1000
AcRTDxfName
1000
TABLESTYLE
  0
VISUALSTYLE
  5
2A
102
{ACAD_XDICTIONARY
360
1F7
102
}
102
{ACAD_REACTORS
330
2B
102
}
330
2B
100
AcDbVisualStyle
  2
2dWireframe
 70
     4
 71
     0
 72
     2
 73
     0
 90
        0
 40
-0.6
 41
-30.0
 62
     5
 63
     7
 74
     1
 91
        4
 64
     7
 65
   257
 75
     1
175
     1
 42
1.0
 92
        0
 66
   257
 43
1.0
 76
     1
 77
     6
 78
     2
 67
     7
 79
     5
170
     0
171
     0
290
     0
174
     0
 93
        1
 44
0.0
173
     0
291
     0
 45
0.0
1001
ACAD
1000
AcDbSavedByObjectVersion
1070
     0
  0
VISUALSTYLE
  5
17A
102
{ACAD_XDICTIONARY
360
208
102
}
102
{ACAD_REACTORS
330
2B
102
}
330
2B
100
AcDbVisualStyle
  2
Basic
 70
     7
 71
     1
 72
     0
 73
     1
 90
        0
 40
-0.6
 41
-30.0
 62
     5
 63
     7
 74
     0
 91
        4
 64
     7
 65
   257
 75
     1
175
     1
 42
1.0
 92
        8
 66
     7
 43
1.0
 76
     1
 77
     6
 78
     2
 67
     7
 79
     5
170
     0
171
     0
290
     0
174
     0
 93
        1
 44
0.0
173
     0
291
     1
 45
0.0
1001
ACAD
1000
AcDbSavedByObjectVersion
1070
     0
  0
VISUALSTYLE
  5
17E
102
{ACAD_XDICTIONARY
360
210
102
}
102
{ACAD_REACTORS
330
2B
102
}
330
2B
100
AcDbVisualStyle
  2
Brighten
 70
    12
 71
     2
 72
     2
 73
     0
 90
        0
 40
-0.6
 41
-30.0
 62
     5
 63
     7
 74
     1
 91
        4
 64
     7
 65
   257
 75
     1
175
     1
 42
1.0
 92
        8
 66
     7
 43
1.0
 76
     1
 77
     6
 78
     2
 67
     7
 79
     5
170
     0
171
     0
290
     0
174
     0
 93
        1
 44
50.0
173
     0
291
     1
 45
0.0
1001
ACAD
1000
AcDbSavedByObjectVersion
1070
     0
  0
VISUALSTYLE
  5
182
102
{ACAD_XDICTIONARY
360
218
102
}
102
{ACAD_REACTORS
330
2B
102
}
330
2B
100
AcDbVisualStyle
  2
ColorChange
 70
    16
 71
     2
 72
     2
 73
     3
 90
        0
 40
-0.6
 41
-30.0
 62
     5
 63
     8
 74
     1
 91
        4
 64
     7
 65
   257
 75
     1
175
     1
 42
1.0
 92
        8
 66
     8
 43
1.0
 76
     1
 77
     6
 78
     2
 67
     7
 79
     5
170
     0
171
     0
290
     0
174
     0
 93
        1
 44
0.0
173
     0
291
     1
 45
0.0
1001
ACAD
1000
AcDbSavedByObjectVersion
1070
     0
  0
VISUALSTYLE
  5
17C
102
{ACAD_XDICTIONARY
360
20C
102
}
102
{ACAD_REACTORS
330
2B
102
}
330
2B
100
AcDbVisualStyle
  2
Conceptual
 70
     9
 71
     3
 72
     2
 73
     0
 90
        0
 40
-0.6
 41
-30.0
 62
     5
 63
     7
 74
     2
 91
        2
 64
     7
 65
   257
 75
     1
175
     1
 42
179.0
 92
        8
 66
     7
 43
1.0
 76
     1
 77
     6
 78
     2
 67
     7
 79
     3
170
     0
171
     0
290
     0
174
     0
 93
        1
 44
0.0
173
     0
291
     0
 45
0.0
1001
ACAD
1000
AcDbSavedByObjectVersion
1070
     0
  0
VISUALSTYLE
  5
17D
102
{ACAD_XDICTIONARY
360
20E
102
}
102
{ACAD_REACTORS
330
2B
102
}
330
2B
100
AcDbVisualStyle
  2
Dim
 70
    11
 71
     2
 72
     2
 73
     0
 90
        0
 40
-0.6
 41
-30.0
 62
     5
 63
     7
 74
     1
 91
        4
 64
     7
 65
   257
 75
     1
175
     1
 42
1.0
 92
        8
 66
     7
 43
1.0
 76
     1
 77
     6
 78
     2
 67
     7
 79
     5
170
     0
171
     0
290
     0
174
     0
 93
        1
 44
-50.0
173
     0
291
     1
 45
0.0
1001
ACAD
1000
AcDbSavedByObjectVersion
1070
     0
  0
VISUALSTYLE
  5
18A
102
{ACAD_XDICTIONARY
360
228
102
}
102
{ACAD_REACTORS
330
2B
102
}
330
2B
100
AcDbVisualStyle
  2
EdgeColorOff
 70
    22
 71
     2
 72
     2
 73
     0
 90
        0
 40
-0.6
 41
-30.0
 62
     5
 63
     7
 74
     1
 91
        4
 64
     7
 65
   257
 75
     1
175
     1
 42
1.0
 92
        8
 66
     7
 43
1.0
 76
     1
 77
     6
 78
     2
 67
     7
 79
     5
170
     0
171
     0
290
     0
174
     0
 93
        1
 44
0.0
173
     0
291
     1
 45
0.0
1001
ACAD
1000
AcDbSavedByObjectVersion
1070
     0
  0
VISUALSTYLE
  5
181
102
{ACAD_XDICTIONARY
360
216
102
}
102
{ACAD_REACTORS
330
2B
102
}
330
2B
100
AcDbVisualStyle
  2
Facepattern
 70
    15
 71
     2
 72
     2
 73
     0
 90
        0
 40
-0.6
 41
-30.0
 62
     5
 63
     7
 74
     1
 91
        4
 64
     7
 65
   257
 75
     1
175
     1
 42
1.0
 92
        8
 66
     7
 43
1.0
 76
     1
 77
     6
 78
     2
 67
     7
 79
     5
170
     0
171
     0
290
     0
174
     0
 93
        1
 44
0.0
173
     0
291
     1
 45
0.0
1001
ACAD
1000
AcDbSavedByObjectVersion
1070
     0
  0
VISUALSTYLE
  5
176
102
{ACAD_XDICTIONARY
360
200
102
}
102
{ACAD_REACTORS
330
2B
102
}
330
2B
100
AcDbVisualStyle
  2
Flat
 70
     0
 71
     2
 72
     1
 73
     1
 90
        2
 40
-0.6
 41
30.0
 62
     5
 63
     7
 74
     0
 91
        0
 64
     7
 65
   257
 75
     1
175
     1
 42
1.0
 92
        8
 66
     7
 43
1.0
 76
     1
 77
     6
 78
     2
 67
     7
 79
     5
170
     0
171
     0
290
     0
174
     0
 93
       13
 44
0.0
173
     0
291
     1
 45
0.0
1001
ACAD
1000
AcDbSavedByObjectVersion
1070
     0
  0
VISUALSTYLE
  5
177
102
{ACAD_XDICTIONARY
360
202
102
}
102
{ACAD_REACTORS
330
2B
102
}
330
2B
100
AcDbVisualStyle
  2
FlatWithEdges
 70
     1
 71
     2
 72
     1
 73
     1
 90
        2
 40
-0.6
 41
30.0
 62
     5
 63
     7
 74
     1
 91
        0
 64
     7
 65
   257
 75
     1
175
     1
 42
1.0
 92
        0
 66
   257
 43
1.0
 76
     1
 77
     6
 78
     2
 67
     7
 79
     5
170
     0
171
     0
290
     0
174
     0
 93
       13
 44
0.0
173
     0
291
     1
 45
0.0
1001
ACAD
1000
AcDbSavedByObjectVersion
1070
     0
  0
VISUALSTYLE
  5
178
102
{ACAD_XDICTIONARY
360
204
102
}
102
{ACAD_REACTORS
330
2B
102
}
330
2B
100
AcDbVisualStyle
  2
Gouraud
 70
     2
 71
     2
 72
     2
 73
     1
 90
        2
 40
-0.6
 41
30.0
 62
     5
 63
     7
 74
     0
 91
        0
 64
     7
 65
   257
 75
     1
175
     1
 42
1.0
 92
        0
 66
     7
 43
1.0
 76
     1
 77
     6
 78
     2
 67
     7
 79
     5
170
     0
171
     0
290
     0
174
     0
 93
       13
 44
0.0
173
     0
291
     1
 45
0.0
1001
ACAD
1000
AcDbSavedByObjectVersion
1070
     0
  0
VISUALSTYLE
  5
179
102
{ACAD_XDICTIONARY
360
206
102
}
102
{ACAD_REACTORS
330
2B
102
}
330
2B
100
AcDbVisualStyle
  2
GouraudWithEdges
 70
     3
 71
     2
 72
     2
 73
     1
 90
        2
 40
-0.6
 41
30.0
 62
     5
 63
     7
 74
     1
 91
        0
 64
     7
 65
   257
 75
     1
175
     1
 42
1.0
 92
        0
 66
   257
 43
1.0
 76
     1
 77
     6
 78
     2
 67
     7
 79
     5
170
     0
171
     0
290
     0
174
     0
 93
       13
 44
0.0
173
     0
291
     1
 45
0.0
1001
ACAD
1000
AcDbSavedByObjectVersion
1070
     0
  0
VISUALSTYLE
  5
17B
102
{ACAD_XDICTIONARY
360
20A
102
}
102
{ACAD_REACTORS
330
2B
102
}
330
2B
100
AcDbVisualStyle
  2
Hidden
 70
     6
 71
     1
 72
     2
 73
     2
 90
        0
 40
-0.6
 41
-30.0
 62
     5
 63
     7
 74
     2
 91
        2
 64
     7
 65
   257
 75
     2
175
     1
 42
40.0
 92
        0
 66
   257
 43
1.0
 76
     1
 77
     6
 78
     2
 67
     7
 79
     3
170
     0
171
     0
290
     0
174
     0
 93
        1
 44
0.0
173
     0
291
     0
 45
0.0
1001
ACAD
1000
AcDbSavedByObjectVersion
1070
     0
  0
VISUALSTYLE
  5
188
102
{ACAD_XDICTIONARY
360
224
102
}
102
{ACAD_REACTORS
330
2B
102
}
330
2B
100
AcDbVisualStyle
  2
JitterOff
 70
    20
 71
     2
 72
     2
 73
     0
 90
        0
 40
-0.6
 41
-30.0
 62
     5
 63
     7
 74
     1
 91
        4
 64
     7
 65
   257
 75
     1
175
     1
 42
1.0
 92
       10
 66
     7
 43
1.0
 76
     1
 77
     6
 78
     2
 67
     7
 79
     5
170
     0
171
     0
290
     0
174
     0
 93
        1
 44
0.0
173
     0
291
     1
 45
0.0
1001
ACAD
1000
AcDbSavedByObjectVersion
1070
     0
  0
VISUALSTYLE
  5
180
102
{ACAD_XDICTIONARY
360
214
102
}
102
{ACAD_REACTORS
330
2B
102
}
330
2B
100
AcDbVisualStyle
  2
Linepattern
 70
    14
 71
     2
 72
     2
 73
     0
 90
        0
 40
-0.6
 41
-30.0
 62
     5
 63
     7
 74
     1
 91
        4
 64
     7
 65
   257
 75
     7
175
     7
 42
1.0
 92
        8
 66
     7
 43
1.0
 76
     1
 77
     6
 78
     2
 67
     7
 79
     5
170
     0
171
     0
290
     0
174
     0
 93
        1
 44
0.0
173
     0
291
     1
 45
0.0
1001
ACAD
1000
AcDbSavedByObjectVersion
1070
     0
  0
VISUALSTYLE
  5
189
102
{ACAD_XDICTIONARY
360
226
102
}
102
{ACAD_REACTORS
330
2B
102
}
330
2B
100
AcDbVisualStyle
  2
OverhangOff
 70
    21
 71
     2
 72
     2
 73
     0
 90
        0
 40
-0.6
 41
-30.0
 62
     5
 63
     7
 74
     1
 91
        4
 64
     7
 65
   257
 75
     1
175
     1
 42
1.0
 92
        9
 66
     7
 43
1.0
 76
     1
 77
     6
 78
     2
 67
     7
 79
     5
170
     0
171
     0
290
     0
174
     0
 93
        1
 44
0.0
173
     0
291
     1
 45
0.0
1001
ACAD
1000
AcDbSavedByObjectVersion
1070
     0
  0
VISUALSTYLE
  5
56
102
{ACAD_XDICTIONARY
360
1FC
102
}
102
{ACAD_REACTORS
330
2B
102
}
330
2B
100
AcDbVisualStyle
  2
Realistic
 70
     8
 71
     2
 72
     2
 73
     0
 90
        2
 40
-0.6
 41
30.0
 62
     5
 63
     7
 74
     0
 91
        0
 64
     7
 65
   257
 75
     1
175
     1
 42
1.0
 92
        8
 66
   257
 43
1.0
 76
     1
 77
     6
 78
     2
 67
     7
 79
     3
170
     0
171
     0
290
     0
174
     0
 93
       13
 44
0.0
173
     0
291
     0
 45
0.0
1001
ACAD
1000
AcDbSavedByObjectVersion
1070
     0
  0
VISUALSTYLE
  5
187
102
{ACAD_XDICTIONARY
360
222
102
}
102
{ACAD_REACTORS
330
2B
102
}
330
2B
100
AcDbVisualStyle
  2
Shaded
 70
    27
 71
     2
 72
     2
 73
     1
 90
        2
 40
-0.6
 41
30.0
 62
     5
 63
     7
 74
     0
 91
        4
 64
     7
 65
   257
 75
     1
175
     1
 42
1.0
 92
        8
 66
   257
 43
1.0
 76
     1
 77
     6
 78
     2
 67
     8
 79
     3
170
     0
171
     0
290
     0
174
     0
 93
        5
 44
0.0
173
     0
291
     0
 45
0.0
1001
ACAD
1000
AcDbSavedByObjectVersion
1070
     0
  0
VISUALSTYLE
  5
186
102
{ACAD_XDICTIONARY
360
220
102
}
102
{ACAD_REACTORS
330
2B
102
}
330
2B
100
AcDbVisualStyle
  2
Shaded with edges
 70
    26
 71
     2
 72
     2
 73
     1
 90
        2
 40
-0.6
 41
30.0
 62
     5
 63
     7
 74
     1
 91
       10
 64
     7
 65
   257
 75
     2
175
     1
 42
1.0
 92
        8
 66
   257
 43
1.0
 76
     1
 77
     6
 78
     2
 67
     7
 79
     3
170
     0
171
     0
290
     0
174
     0
 93
        5
 44
0.0
173
     0
291
     0
 45
0.0
1001
ACAD
1000
AcDbSavedByObjectVersion
1070
     0
  0
VISUALSTYLE
  5
183
102
{ACAD_XDICTIONARY
360
21A
102
}
102
{ACAD_REACTORS
330
2B
102
}
330
2B
100
AcDbVisualStyle
  2
Shades of Gray
 70
    23
 71
     2
 72
     2
 73
     3
 90
        0
 40
-0.6
 41
-30.0
 62
     5
 63
     7
 74
     2
 91
        2
 64
     7
 65
     7
 75
     1
175
     1
 42
40.0
 92
        8
 66
     7
 43
1.0
 76
     1
 77
     6
 78
     2
 67
     7
 79
     3
170
     0
171
     0
290
     0
174
     0
 93
        1
 44
0.0
173
     0
291
     0
 45
0.0
1001
ACAD
1000
AcDbSavedByObjectVersion
1070
     0
  0
VISUALSTYLE
  5
184
102
{ACAD_XDICTIONARY
360
21C
102
}
102
{ACAD_REACTORS
330
2B
102
}
330
2B
100
AcDbVisualStyle
  2
Sketchy
 70
    24
 71
     1
 72
     2
 73
     2
 90
        0
 40
-0.6
 41
-30.0
 62
     5
 63
     7
 74
     2
 91
        2
 64
     7
 65
     7
 75
     1
175
     1
 42
40.0
 92
       11
 66
     7
 43
1.0
 76
     1
 77
     6
 78
     2
 67
     7
 79
     6
170
     0
171
     0
290
     0
174
     0
 93
        1
 44
0.0
173
     0
291
     0
 45
0.0
1001
ACAD
1000
AcDbSavedByObjectVersion
1070
     0
  0
VISUALSTYLE
  5
17F
102
{ACAD_XDICTIONARY
360
212
102
}
102
{ACAD_REACTORS
330
2B
102
}
330
2B
100
AcDbVisualStyle
  2
Thicken
 70
    13
 71
     2
 72
     2
 73
     0
 90
        0
 40
-0.6
 41
-30.0
 62
     5
 63
     7
 74
     1
 91
        4
 64
     7
 65
   257
 75
     1
175
     1
 42
1.0
 92
       12
 66
     7
 43
1.0
 76
     1
 77
     6
 78
     2
 67
     7
 79
     5
170
     0
171
     0
290
     0
174
     0
 93
        1
 44
0.0
173
     0
291
     1
 45
0.0
1001
ACAD
1000
AcDbSavedByObjectVersion
1070
     0
  0
VISUALSTYLE
  5
57
102
{ACAD_XDICTIONARY
360
1FE
102
}
102
{ACAD_REACTORS
330
2B
102
}
330
2B
100
AcDbVisualStyle
  2
Wireframe
 70
     5
 71
     0
 72
     2
 73
     0
 90
        0
 40
-0.6
 41
-30.0
 62
     5
 63
     7
 74
     1
 91
        4
 64
     7
 65
   257
 75
     1
175
     1
 42
1.0
 92
        0
 66
   257
 43
1.0
 76
     1
 77
     6
 78
     2
 67
     7
 79
     3
170
     0
171
     0
290
     0
174
     0
 93
        1
 44
0.0
173
     0
291
     0
 45
0.0
1001
ACAD
1000
AcDbSavedByObjectVersion
1070
     0
  0
VISUALSTYLE
  5
185
102
{ACAD_XDICTIONARY
360
21E
102
}
102
{ACAD_REACTORS
330
2B
102
}
330
2B
100
AcDbVisualStyle
  2
X-Ray
 70
    25
 71
     2
 72
     2
 73
     1
 90
        1
 40
0.5
 41
-30.0
 62
     5
 63
     7
 74
     1
 91
        0
 64
     7
 65
   257
 75
     1
175
     1
 42
1.0
 92
        8
 66
     7
 43
1.0
 76
     1
 77
     6
 78
     2
 67
     7
 79
     3
170
     0
171
     0
290
     0
174
     0
 93
       13
 44
0.0
173
     0
291
     0
 45
0.0
1001
ACAD
1000
AcDbSavedByObjectVersion
1070
     0
  0
DICTIONARYVAR
  5
171
102
{ACAD_REACTORS
330
16D
102
}
330
16D
100
DictionaryVariables
280
     0
  1
1:1
  0
DICTIONARYVAR
  5
16F
102
{ACAD_REACTORS
330
16D
102
}
330
16D
100
DictionaryVariables
280
     0
  1
STANDARD
  0
DICTIONARYVAR
  5
16E
102
{ACAD_REACTORS
330
16D
102
}
330
16D
100
DictionaryVariables
280
     0
  1
STANDARD
  0
DICTIONARYVAR
  5
1ED
102
{ACAD_REACTORS
330
16D
102
}
330
16D
100
DictionaryVariables
280
     0
  1
1
  0
DICTIONARYVAR
  5
1EC
102
{ACAD_REACTORS
330
16D
102
}
330
16D
100
DictionaryVariables
280
     0
  1
1
  0
DICTIONARYVAR
  5
1EB
102
{ACAD_REACTORS
330
16D
102
}
330
16D
100
DictionaryVariables
280
     0
  1
0
  0
DICTIONARYVAR
  5
173
102
{ACAD_REACTORS
330
16D
102
}
330
16D
100
DictionaryVariables
280
     0
  1
1
  0
DICTIONARYVAR
  5
174
102
{ACAD_REACTORS
330
16D
102
}
330
16D
100
DictionaryVariables
280
     0
  1
15
  0
DICTIONARYVAR
  5
172
102
{ACAD_REACTORS
330
16D
102
}
330
16D
100
DictionaryVariables
280
     0
  1
0
  0
DICTIONARYVAR
  5
170
102
{ACAD_REACTORS
330
16D
102
}
330
16D
100
DictionaryVariables
280
     0
  1
0
  0
DICTIONARYVAR
  5
1EA
102
{ACAD_REACTORS
330
16D
102
}
330
16D
100
DictionaryVariables
280
     0
  1
127
  0
DICTIONARYVAR
  5
1EE
102
{ACAD_REACTORS
330
16D
102
}
330
16D
100
DictionaryVariables
280
     0
  1
2
  0
DICTIONARY
  5
13
330
11
100
AcDbDictionary
280
     1
281
     1
  3
ACAD_XREC_ROUNDTRIP
360
1F4
  3
ADSK_XREC_LAYOUTTHUMBNAIL
360
14
  0
DICTIONARY
  5
1F5
330
1B
100
AcDbDictionary
280
     1
281
     1
  3
ACAD_XREC_ROUNDTRIP
360
1F6
  0
DICTIONARY
  5
45
330
44
100
AcDbDictionary
280
     1
281
     1
  3
ACAD_XREC_ROUNDTRIP
360
1FA
  3
BUMPTILE
360
46
  3
DIFFUSETILE
360
47
  3
OPACITYTILE
360
48
  3
REFLECTIONTILE
360
49
  3
REFRACTIONTILE
360
4A
  3
SPECULARTILE
360
4B
  0
DICTIONARY
  5
3D
330
3C
100
AcDbDictionary
280
     1
281
     1
  3
ACAD_XREC_ROUNDTRIP
360
1F9
  3
BUMPTILE
360
3E
  3
DIFFUSETILE
360
3F
  3
OPACITYTILE
360
40
  3
REFLECTIONTILE
360
41
  3
REFRACTIONTILE
360
42
  3
SPECULARTILE
360
43
  0
DICTIONARY
  5
1F2
330
D
100
AcDbDictionary
280
     1
281
     1
  3
ACAD_XREC_ROUNDTRIP
360
1F3
  0
DICTIONARY
  5
55
330
54
100
AcDbDictionary
280
     1
281
     1
  3
ACAD_ROUNDTRIP_2008_TABLESTYLE_CELLSTYLEMAP
360
1EF
  3
ACAD_XREC_ROUNDTRIP
360
1FB
  0
DICTIONARY
  5
1F7
330
2A
100
AcDbDictionary
280
     1
281
     1
  3
ACAD_XREC_ROUNDTRIP
360
1F8
  0
DICTIONARY
  5
208
330
17A
100
AcDbDictionary
280
     1
281
     1
  3
ACAD_XREC_ROUNDTRIP
360
209
  0
DICTIONARY
  5
210
330
17E
100
AcDbDictionary
280
     1
281
     1
  3
ACAD_XREC_ROUNDTRIP
360
211
  0
DICTIONARY
  5
218
330
182
100
AcDbDictionary
280
     1
281
     1
  3
ACAD_XREC_ROUNDTRIP
360
219
  0
DICTIONARY
  5
20C
330
17C
100
AcDbDictionary
280
     1
281
     1
  3
ACAD_XREC_ROUNDTRIP
360
20D
  0
DICTIONARY
  5
20E
330
17D
100
AcDbDictionary
280
     1
281
     1
  3
ACAD_XREC_ROUNDTRIP
360
20F
  0
DICTIONARY
  5
228
330
18A
100
AcDbDictionary
280
     1
281
     1
  3
ACAD_XREC_ROUNDTRIP
360
229
  0
DICTIONARY
  5
216
330
181
100
AcDbDictionary
280
     1
281
     1
  3
ACAD_XREC_ROUNDTRIP
360
217
  0
DICTIONARY
  5
200
330
176
100
AcDbDictionary
280
     1
281
     1
  3
ACAD_XREC_ROUNDTRIP
360
201
  0
DICTIONARY
  5
202
330
177
100
AcDbDictionary
280
     1
281
     1
  3
ACAD_XREC_ROUNDTRIP
360
203
  0
DICTIONARY
  5
204
330
178
100
AcDbDictionary
280
     1
281
     1
  3
ACAD_XREC_ROUNDTRIP
360
205
  0
DICTIONARY
  5
206
330
179
100
AcDbDictionary
280
     1
281
     1
  3
ACAD_XREC_ROUNDTRIP
360
207
  0
DICTIONARY
  5
20A
330
17B
100
AcDbDictionary
280
     1
281
     1
  3
ACAD_XREC_ROUNDTRIP
360
20B
  0
DICTIONARY
  5
224
330
188
100
AcDbDictionary
280
     1
281
     1
  3
ACAD_XREC_ROUNDTRIP
360
225
  0
DICTIONARY
  5
214
330
180
100
AcDbDictionary
280
     1
281
     1
  3
ACAD_XREC_ROUNDTRIP
360
215
  0
DICTIONARY
  5
226
330
189
100
AcDbDictionary
280
     1
281
     1
  3
ACAD_XREC_ROUNDTRIP
360
227
  0
DICTIONARY
  5
1FC
330
56
100
AcDbDictionary
280
     1
281
     1
  3
ACAD_XREC_ROUNDTRIP
360
1FD
  0
DICTIONARY
  5
222
330
187
100
AcDbDictionary
280
     1
281
     1
  3
ACAD_XREC_ROUNDTRIP
360
223
  0
DICTIONARY
  5
220
330
186
100
AcDbDictionary
280
     1
281
     1
  3
ACAD_XREC_ROUNDTRIP
360
221
  0
DICTIONARY
  5
21A
330
183
100
AcDbDictionary
280
     1
281
     1
  3
ACAD_XREC_ROUNDTRIP
360
21B
  0
DICTIONARY
  5
21C
330
184
100
AcDbDictionary
280
     1
281
     1
  3
ACAD_XREC_ROUNDTRIP
360
21D
  0
DICTIONARY
  5
212
330
17F
100
AcDbDictionary
280
     1
281
     1
  3
ACAD_XREC_ROUNDTRIP
360
213
  0
DICTIONARY
  5
1FE
330
57
100
AcDbDictionary
280
     1
281
     1
  3
ACAD_XREC_ROUNDTRIP
360
1FF
  0
DICTIONARY
  5
21E
330
185
100
AcDbDictionary
280
     1
281
     1
  3
ACAD_XREC_ROUNDTRIP
360
21F
  0
XRECORD
  5
1F4
102
{ACAD_REACTORS
330
13
102
}
330
13
100
AcDbXrecord
280
     1
102
SHADEPLOT
 70
     1
102
SHADEPLOTRESLEVEL
 70
     2
102
SHADEPLOTCUSTOMDPI
 70
   300
  0
XRECORD
  5
14
102
{ACAD_REACTORS
330
13
102
}
330
13
100
AcDbXrecord
280
     1
310
280000000001000070000000010008000000000000700000000000000000000000010000000000000000000000000000FFFFFF000000000000000000000000000000000000000000000000000000000000000000330000006600000099000000CC000000FF00000000330000333300006633000099330000CC330000FF3300
310
0000660000336600006666000099660000CC660000FF66000000990000339900006699000099990000CC990000FF99000000CC000033CC000066CC000099CC0000CCCC0000FFCC000000FF000033FF000066FF000099FF0000CCFF0000FFFF000000003300330033006600330099003300CC003300FF003300003333003333
310
33006633330099333300CC333300FF33330000663300336633006666330099663300CC663300FF66330000993300339933006699330099993300CC993300FF99330000CC330033CC330066CC330099CC3300CCCC3300FFCC330000FF330033FF330066FF330099FF3300CCFF3300FFFF330000006600330066006600660099
310
006600CC006600FF00660000336600333366006633660099336600CC336600FF33660000666600336666006666660099666600CC666600FF66660000996600339966006699660099996600CC996600FF99660000CC660033CC660066CC660099CC6600CCCC6600FFCC660000FF660033FF660066FF660099FF6600CCFF6600
310
FFFF660000009900330099006600990099009900CC009900FF00990000339900333399006633990099339900CC339900FF33990000669900336699006666990099669900CC669900FF66990000999900339999006699990099999900CC999900FF99990000CC990033CC990066CC990099CC9900CCCC9900FFCC990000FF99
310
0033FF990066FF990099FF9900CCFF9900FFFF99000000CC003300CC006600CC009900CC00CC00CC00FF00CC000033CC003333CC006633CC009933CC00CC33CC00FF33CC000066CC003366CC006666CC009966CC00CC66CC00FF66CC000099CC003399CC006699CC009999CC00CC99CC00FF99CC0000CCCC0033CCCC0066CC
310
CC0099CCCC00CCCCCC00FFCCCC0000FFCC0033FFCC0066FFCC0099FFCC00CCFFCC00FFFFCC000000FF003300FF006600FF009900FF00CC00FF00FF00FF000033FF003333FF006633FF009933FF00CC33FF00FF33FF000066FF003366FF006666FF009966FF00CC66FF00FF66FF000099FF003399FF006699FF009999FF00CC
310
99FF00FF99FF0000CCFF0033CCFF0066CCFF0099CCFF00CCCCFF00FFCCFF0000FFFF0033FFFF0066FFFF0099FFFF00CCFFFF00FFFFFF00000000000D0D0D001A1A1A00282828003535350043434300505050005D5D5D006B6B6B00787878008686860093939300A1A1A100AEAEAE00BBBBBB00C9C9C900D6D6D600E4E4E400
310
F1F1F100FFFFFF000000000000000000000000000000000000000000000000000000000000000000000000000000000000000000000000000000000000000000000000000000000000000000000000000000000000000000000000000000000000000000000000000000000000000000000000000000000000000000000000
310
00000000000000000000000000000000000000000000000000000000000000000000000000000000000000000000000000000000000000000000000000000000000000000000000000000000000000000000000000000000000000000000000000000000000000000000000000000000000000000000000000000000000000
310
00000000000000000000000000000000000000000000000000000000000000000000000000000000000000000000000000000000000000000000000000000000000000000000000000000000000000000000000000000000000000000000000000000000000000000000000000000000000000000000000000000000000000
310
00000000000000000000000000000000000000000000000000000000000000000000000000000000000000000000000000000000000000000000000000000000000000000000000000000000000000000000000000000000000000000000000000000000000000000000000000000000000000000000000000000000000000
310
00000000000000000000000000000000000000000000000000000000000000000000000000000000000000000000000000000000000000000000000000000000000000000000000000000000000000000000000000000000000000000000000000000000000000000000000000000000000000000000000000000000000000
310
00000000000000000000000000000000000000000000000000000000000000000000000000000000000000000000000000000000000000000000000000000000000000000000000000000000000000000000000000000000000000000000000000000000000000000000000000000000000000000000000000000000000000
310
00000000000000000000000000000000000000000000000000000000000000000000000000000000000000000000000000000000000000000000000000000000000000000000000000000000000000000000000000000000000000000000000000000000000000000000000000000000000000000000000000000000000000
310
00000000000000000000000000000000000000000000000000000000000000000000000000000000000000000000000000000000000000000000000000000000000000000000000000000000000000000000000000000000000000000000000000000000000000000000000000000000000000000000000000000000000000
310
00000000000000000000000000000000000000000000000000000000000000000000000000000000000000000000000000000000000000000000000000000000000000000000000000000000000000000000000000000000000000000000000000000000000000000000000000000000000000000000000000000000000000
310
00000000000000000000000000000000000000000000000000000000000000000000000000000000000000000000000000000000000000000000000000000000000000000000000000000000000000000000000000000000000000000000000000000000000000000000000000000000000000000000000000000000000000
310
0000000000000000000000000000000000000000000000000000000000000000000000000000000000000000000000000000000000000000000000000000000000000000000000000000000000000000000000000000000000000000000000000000000000000000000000000000C3C3C3C3C3C3C3C3C3C3C3C3C3C3C3C3C3
310
C3C3C3C3C3C300000000000000000000000000000000000000000000000000000000000000000000000000000000000000000000000000000000000000000000000000000000000000000000000000000000000000000000000000C3C3C3C3C3C3C3C3C3C3C3C3C3C3C3C3C3C3C3C3C3C3C3C3C3C3C3C3C3C3C3C3C3C3C3C3
310
C3C3C3C3C3C3C3C30000000000000000000000000000000000000000000000000000000000000000000000000000000000000000000000000000000000000000000000000000000000000000000000000000000000000000000000000000000000000000000000000000000000000000C3C3C3C3C3C3C3C3C3C3C3C3C3C3C3
310
C3C3C3C3C3C3C3C30000C3C3C3C3C3C3C3C3C3C3C3C3C3C3C3C3C3C3C3C3C3C3C3C3C3C3C3C3C3C3C3C3C3C3C3C3C3C3C3C3C3C3C3C3C3C3C3C3C300000000000000000000000000000000000000000000000000000000000000000000C3C3C3C3C3C3C3C3C3C3C3C3C3C3C3C3C3C3C3C3C3C3C3C3C3C3C3C3C3C3C3C3C3C3
310
C3C3C3C3C3C3C3C3C3C3000000000000000000000000000000000000000000000000000000000000000000000000000000000000000000000000000000000000000000000000000000000000000000000000000000000000000000000000000000000000000000000000000000000000000000000000000000000000000000
310
00000000000000000000000000000000000000000000000000000000000000000000000000000000000000000000000000000000000000000000000000000000000000000000000000000000000000000000000000000000000000000000000000000000000000000000000000000000000000000000000000000000000000
310
00000000000000000000000000000000000000000000000000000000000000000000000000000000000000000000000000000000000000000000000000000000000000000000000000000000000000000000000000000000000000000000000000000000000000000000000000000000000000000000000000000000000000
310
00000000000000000000000000000000000000000000000000000000000000000000000000000000000000000000000000000000000000000000000000000000000000000000000000000000000000000000000000000000000000000000000000000000000000000000000000000000000000000000000000000000000000
310
0000000000000000000000282828280000000000000000000000000000000000000000000000000000000000000000000000000000000000000000000000000000000000000000000000000000000000000000000000000000000000000000000000000000000000000000000000000000000000002D2D2D2D2D2D2D2DC2C2
310
C2C2C2C2C2C2C2C2C2C2C2C2C2C2C2C22D2D2D2D2D2D2D2D2DC2C2C2C2C2C2C2C2C2C2C2C2C2C2C2C22D2D2D2D2D2D2D2D2DC2C2C2C2C2C2C2C2C2C2C2C2C2C2C2C2C22D2D2D2D2D2D2D2D2D2DC2C2C2C2C2C2C2C2C2C2C2C2C2C2C2C22D2D2D2D2D2D2D2D2DC2C2C2C2C2C2C2C2C2C2C2C2C2C2C2C22D2D2D2D2D2D2D2D2D
310
2D2D2D2D2D2D2D2D2D2D2D2D2D282828280000000000000000000000000000000000000000000000000000000000000000000000000000000000000000000000000000000000000000000000000000000000000000000000000000000000000000000000000000000000000000000000000000000000002D2D2D2D2D2D2D2D
310
C2C2C2C2C2C2C2C2C2C2C2C2C2C2C2C2C2C22D2D2D2D2D2D2D2DDCDCC2C2C2C2C2C2C2C2C2C2C2C2C2C2C22D2D2D2D2D2D2D2D2DC2C2C2C2C2C2C2C2C2C2C2C2C2C2C2C2C22D2D2D2D2D2D2D2DDCDCC2C2C2C2C2C2C2C2C2C2C2C2C2C2C2C22D2D2D2D2D2D2D2D2DC2C2C2C2C2C2C2C2C2C2C2C2C2C2C2C22D000000000000
310
0000000000000000000000000000000000002D0000000000000000000000000000000000000000000000000000000000000000000000000000000000000000000000000000000000000000000000000000000000000000000000000000000000000000000000000000000000000000000000000000000000002DBEBEBEBEBE
310
BEBEBEBEBEBEBEBEBEBEBEBEBEBEBEBEBEBEBEBEBEBEBEBEBEBEBEBEDCDCDCDCDCDCDCDCDCDCDCDCDCDCDCBEBE2DBEBEBEBEBEBEBE2DDCDCDCDCDCDCDCDCDCDCDCDCDCDCDCBE2DDCDCDCBEBEBEBEBEDCDCDCDCDCDCDCDCDCDCDCDCDCDCDCDCDCDC2DBEBEBEBEBEBEBE2DBEBEBEBEBEBEBEBEBEBEBEBEBEBEBE2D2D00000000
310
00000000000000000000000000000000000000002D000000000000000000000000000000000000000000000000000000000000000000000000000000000000000000000000000000000000000000000000000000000000000000000000000000000000000000000000000000000000000000000000000000000000DCDCDCBE
310
BEBEBEBEBEBEBEBEBEBEBEBEBEBEBEBEBEBEBEBEBEBE2DBEBEBEBEBEBEBE2DBEBEBEBEBEBEBEBEBEBEBEBEBEBEBE2DBEBEBEBEBEBEBEBEBEDCDCDCDCDCDCDCDCDCDCDCDCDCDCDCDCBEDCDCDCBEBEBEBEBEDCDCDCDCDCDCDCDCDCDCDCDCDCDCDCDCDCBE2DBEBEBEBEBEBEBE2DBEBEBEBEBEBEBEBEBEBEBEBEBEBEBE2D2D0000
310
000000000000000000000000000000000000000000002D000000000000000000000000000000000000000000000000000000000000000000000000000000000000000000000000000000000000000000000000000000000000000000000000000000000000000000000000000000000000000000000000000000000000DCDC
310
DCBEBEBEBEBEBEBEBEBEBEBEBEBEBEBEBEBEBEBEBEBEBEBE2DBEBEBEBEBEBEBEDCDCDCDCDCDCDCDCDCDCDCDCDCBEBEBE2DBEDCDCDCBEBEBEBEBEDCDCDCDCDCDCDCDCDCDCDCDCDCDCDCDCBE2DBEBEBEBEBEBEBEDCDCDCDCDCDCDCDCDCDCDCDCDCDCDCDCBE2DDCDCDCDCDCDCBEBEDCDCDCDCDCDCDCDCDCDCDCDCDCDCDCDCDC2D
310
0000000000000000000000000000000000000000000000002D000000000000000000000000000000000000000000000000000000000000000000000000000000000000000000000000000000000000000000000000000000000000000000000000000000000000000000000000000000000000000000000000000000000000
310
BEDCDCDCBEBEBEBEBEBEBEBEBEBEBEBEBEBEBEBEBEBEBEBEBEBEBEBEBEBEBEBEBEBEDCDCDCDCDCDCDCDCDCDCDCDCDCBEBEBEBE2DDCDCDCBEBEBEBE2DDCDCDCDCDCDCDCDCDCDCDCDCDCDCDCDCDC2DDCDCDCDCDCBEBE2DDCDCDCDCDCDCDCDCDCDCDCDCDCDCDCDC2DBEBEBEBEBEBEBEBEBEBEBEBEBEBEBEBEBEBEBEBEBEBEBEBE
310
BE2D0000000000000000000000000000000000000000000000002D00000000000000000000000000000000000000000000000000000000000000000000000000000000000000000000000000000000000000000000000000000000000000000000000000000000000000000000000000000000000000000000000000000000
310
0000BEDCDCDCBEBEBEBEBEBEBEBEBEBEBEBEBEBEBEBEBEBEBEBEBEBEBEBEBEBEBEBEBEBEBEBEBEBEBEBEBEBEBEBEBEBEBEBEBEBEBE2DDCDCDCDCDCDCBE2DDCDCDCDCDCDCDCDCDCDCDCDCDCDCDCDCDC2DBEBEBEBEBEBEBE2DBEBEBEBEBEBEBEBEBEBEBEBEBEBEBEBE2DDCDCDCDCDCBEBEBEDCDCDCDCDCDCDCDCDCDCDCDCDCDC
310
DCDCDC2D0000000000000000000000000000000000000000000000002D0000000000000000000000000000000000000000000000000000000000000000000000000000000000000000000000000000000000000000000000000000000000000000000000000000000000000000000000000000000000000000000000000000
310
00000000BEBEBEBEBEBEBEBEBEBEBEBEBEBEBEBEBEBEBEBEBEBEBEBEBEBEDCDCDCDCDCBEBEBEDCDCDCDCDCDCDCDCDCDCDCDCDCDCDCDCDC2DBEBEBEBEBEBEBE2DBEBEBEBEBEBEBEBEBEBEBEBEBEBEBEBE2D2DBEBEBEBEBEBEBE2DDCDCDCDCDCDCDCDCDCDCDCDCDCDCDCDC2DDCDCDCDCDCBEBEBEDCDCDCDCDCDCDCDCDCDCDCDC
310
DCDCDCDCDC2D0000000000000000000000000000000000000000000000002D000000000000000000000000000000000000000000000000000000000000000000000000000000000000000000000000000000000000000000000000000000000000000000000000000000000000000000000000000000000000000000000000
310
000000000000DCDCDCDCBEBEBEBEBEBEBEBEBEBEBEBEBEBEBEBEBEBEBEBEBEBEDCDCDCDCDCBEBEBEDCDCDCDCDCDCDCDCDCDCDCDCDCDCDCDCDC2DBEBEBEBEBEBEBE2DBEBEBEBEBEBEBEBEBEBEBEBEBEBEBEBE2DDCDCDCDCBEBEBEBE2DDCDCDCDCDCDCDCDCDCDCDCDCDCDCDCBE2DDCBEDCDCBEBEBEBEDCDCDCDCDCDCDCDCDCDC
310
DCDCDCDCDCDCDC2D0000000000000000000000000000000000000000000000002D00000000000000000000000000000000000000000000000000000000000000000000000000000000000000000000000000000000000000000000000000000000000000000000000000000000000000000000000000000000000000000000
310
0000000000000000DCDCDCDCDCBEBEBEBEBEBEBEBEBEBEBEBEBEBEBEBEBEBEBEBEBEBEBEBEBEBEBEBEBEBEDCBEDCBEBEBEBEBEBEBEBEBEBEBEBEBE2DBEBEBEBEBEBEBE2DDCDCDCDCDCDCDCDCDCDCDCDCDCDCDCDC2DDCDCDCDCBEBEBEBE2DBEBEBEBEBEBEBEBEBEBEBEBEBEBEBEBE2DBEBEBEBEBEBEBEBEDCDCDCDCDCDCBEDC
310
DCDCDCBEBEDCDCDCDC2D0000000000000000000000000000000000000000000000002D0000000000000000000000000000000000000000000000000000000000000000000000000000000000000000000000000000000000000000000000000000000000000000000000000000000000000000000000000000000000000000
310
00000000000000000000BEDCDCBEBEBEBEBEBEBEBEBEBEBEBEBEBEBEBEBEBEBEBEBEBEBEBEBEBEBEBEBEBEBEDCDCDCDCDCDCDCDCDCDCDCDCDCDCDCDCDC2DBEBEBEBEBEBEBE2DBEBEBEBEBEBEBEBEBEBEBEBEBEBEBEBE2D2DDCDCDCDCBEBEBEDCDCDCDCDCDCBEBEBEBEBEBEBEBEBEBEBE2DBEBEBEBEBEBEBEBEBEBEBEBEBEBE
310
BEBEBEBEBEBEBEBEBEBEBE2D0000000000000000000000000000000000000000000000002D000000000000000000000000000000000000000000000000000000000000000000000000000000000000000000000000000000000000000000000000000000000000000000000000000000000000000000000000000000000000
310
000000000000000000000000BEBEBEBEBEBEBEBEBEBEBEBEBEBEBEBEBEBEBEBEBEBEBEBEBEBEBEBEBEBEBEBEBEBEBEBEBEBEBEBEBEBEBEBEBEBEBEBEBEBEBE2DDCDCDCDCBEBEBE2DDCDCDCDCDCDCDCDCDCDCDCDCDCDCDCDC2D2DBEBEBEBEBEBEBEDCDCDCDCDCDCBEBEBEBEBEBEBEBEBEBEBE2DDCDCDCDCBEBEBEBEDCDCDCDC
310
DCDCDCDCDCBEBEBEBEBEBEBEBE2D0000000000000000000000000000000000000000000000002D00000000000000000000000000000000000000000000000000000000000000000000000000000000000000000000000000000000000000000000000000000000000000000000000000000000000000000000000000000000
310
0000000000000000000000000000DCDCDCDCDCBEBEBEBEBEBEBEBEBEBEBEBEBEBEBEBEBEBEBEBEBEDCDCDCDCDCBEBEBEBEDCBEDCBEBEBEBEBEBEBEBEBEBEBEBEBE2DBEBEBEBEBEBEBE2DDCDCDCDCDCDCDCDCDCDCDCDCDCDCDCDCDCDCDCDCBEBEBEBEBE2DDCDCDCDCDCDCDCDCDCDCDCDCDCDCDCDC2DDCDCDCBEBEBEBEBEBEBE
310
BEDCBEBEBEBEBEBEBEBEBEBEBEBEBE2D0000000000000000000000000000000000000000000000002D0000000000000000000000000000000000000000000000000000000000000000000000000000000000000000000000000000000000000000000000000000000000000000000000000000000000000000000000000000
310
00000000000000000000000000000000BEDCDCBEBEBEBEBEBEBEBEBEBEBEBEBEBEBEBEBEBEBEBEBEBEBEDCBEDCBEBEBEBEBEDCDCDCDCDCDCDCDCDCDCDCDCDCDCDCDCBE2DDCDCDCBEBEBEBE2DDCDCDCDCDCDCDCDCDCDCDCDCDCDCDCBE2D2D2DDC2D2D2D2D2D2D2D2D2D2D2D2DDC2D2D2D2D2D2DDCDCDC2D2D2D2D2D2D2D2D2D
310
2D2D2D2D2D2D2D2D2D2D2D2D2D2D2D2D2D2D0000000000000000000000000000000000000000000000002D000000000000000000000000000000000000000000000000000000000000000000000000000000000000000000000000000000000000000000000000000000000000000000000000000000000000000000000000
310
0000000000000000000000000000000000002D2D2D2D2D2D2D2D2D2D2D2D2D2D2D2D2D2D2D2D2D2D2D2D2D2DBEBEBEBEBEBEBEBEBEBEBEBEBEBEBEBEBEBEBEBEBEBEBEBEBE2DDCDCDCDCDCDCDC2DDCDCDCDCDCDCDCDCDCDCDCBEDCBEBEDC2D000000000000000000000000000000000000000000000000002D000000000000
310
000000000000000000000000000000000000002D0000000000000000000000000000000000000000000000002D00000000000000000000000000000000000000000000000000000000000000000000000000000000000000000000000000000000000000000000000000000000000000000000000000000000000000000000
310
00000000000000000000000000000000000000002D0000000000000028280000002828282828000000000000002DDCDCDCDCBEBEBEBEDCDCDCDCDCDCDCDCDCBEBEBEBEBEBEBEBE2DBEBEBEBEBEBEBE2DBEBEBEBEBEBEBEBEBEBEBEBEBEBEBEBE2D000000000000000000000000000000000000000000000000002D00000000
310
0000000000000000000000000000000000000000002D0000000000000000000000000000000000000000000000002D0000000000000000000000000000000000000000000000000000000000000000000000000000000000000000000000000000000000000000000000000000000000000000000000000000000000000000
310
000000000000000000000000000000000000000000002D0000000000000028280000002800282828000000000000002DBEBEBEBEBEBEBEBEBEBEBEBEBEBEBEBEBEBEBEBEBEBEBEBEBE2DDCDCDCBEBEBEBE2DDCDCDCDCDCDCDCDCDCDCDCDCDCDCDCDC2D000000000000000000000000000000000000000000000000002D0000
310
00000000000000000000000000000000000000000000002D0000000000000000000000000000000000000000000000002D000000000000000000000000000000000000000000000000000000000000000000000000000000000000000000000000000000000000000000000000000000000000000000000000000000000000
310
0000000000000000000000000000000000000000000000002D00000000000000282828280028F5BEBE28000000000000002D2D2D2D2D2D2D2D2D2D2D2D2D2D2D2D2D2D2D2D2D2D2D2D2D2D2D2D2D2D2D2D2D2D2D2D2D2D2D2D2D2D2D2D2D2D2D2D2D2D2D2D000000000000000000000000000000000000000000000000002D
310
000000000000000000000000000000000000000000000000002D0000000000000000000000000000000000000000000000002D00000000000000000000000000000000000000000000000000000000000000000000000000000000000000000000000000000000000000000000000000000000000000000000000000000000
310
00000000000000000000000000000000000000000000000000002D00000000000000F52828280000BEBEF5F5000000000000002D000000000000000000000000000000000000000000000000002D0000000000000000000000000000000000000000000000002D000000000000000000000000000000000000000000000000
310
002D000000000000000000000000000000000000000000000000002D0000000000000000000000000000000000000000000000002D0000000000000000000000000000000000000000000000000000000000000000000000000000000000000000000000000000000000000000000000000000000000000000000000000000
310
000000000000000000000000000000000000000000000000000000002D00000000000000F5F50000000000BEF500000000000000002D000000000000000000000000000000000000000000000000002D0000000000000000000000000000000000000000000000002D00000000000000000000000000000000000000000000
310
0000002D000000000000000000000000000000000000000000000000002D0000000000000000000000000000000000000000000000002D000000000000000000000000000000000000000000000000000000000000000000000000000000000000000000000000000000000000000000000000000000000000000000000000
310
0000000000000000000000000000000000000000000000000000000000002D00000000000000F5F50000000000F50000000000000000002D000000000000000000000000000000000000000000000000002D0000000000000000000000000000000000000000000000002D0000000000000000000000000000000000000000
310
00000000002D000000000000000000000000000000000000000000000000002D0000000000000000000000000000000000000000000000002D00000000000000000000000000000000000000000000000000000000000000000000000000000000000000000000000000000000000000000000000000000000000000000000
310
00000000000000000000000000000000000000000000000000000000000000002D00000000000000F5F5F5000000F5F5F500000000000000002D000000000000000000000000000000000000000000000000002D0000000000000000000000000000000000000000000000002D000000000000000000000000000000000000
310
000000000000002D000000000000000000000000000000000000000000000000002D0000000000000000000000000000000000000000000000002D0000000000000000000000000000000000000000000000000000000000000000000000000000000000000000000000000000000000000000000000000000000000000000
310
000000000000000000000000000000000000000000000000000000000000000000002DF5F5F52D2D2D2D2D2D2D2D2D2D2D2D2D2D2D2D2D2D2D2D2D2D000000000000000000000000000000000000000000000000002D0000000000000000000000000000000000000000000000002D00000000000000000000000000000000
310
0000000000000000002D000000000000000000000000000000000000000000000000002D2D2D2D2D2D2D2D2D2D2D2D2D2D2D2D2D2D2D2D2D2D2D2D2D2D000000000000000000000000000000000000000000000000000000000000000000000000000000000000000000000000000000000000000000000000000000000000
310
0000000000000000000000000000000000000000000000000000000000000000000000002DF5F5F52DDCDCDCDCDCDCDCDCDCDCDCDCDCDCDCDCDCDCDCDC2D000000000000000000000000000000000000000000000000002D0000000000000000000000000000000000000000000000002D0000000000000000000000000000
310
00000000000000000000002D000000000000000000000000000000000000000000000000002D000000002D000000000000000000000000000000000000002D00000000000000000000000000000000000000000000000000000000000000000000000000000000000000000000000000000000000000000000000000000000
310
00000000000000000000000000000000000000000000000000000000000000000000000000002D2D2D2D2D2D2D2D2DC2C2C2C2C2C2C2C2C2C2C2C2C2C2C2C2C2000000000000000000000000000000000000000000000000002D0000000000000000000000000000000000000000000000002D000000000000000000000000
310
000000000000000000000000002D000000000000000000000000000000000000000000000000002D2D2D2D2D2D2D2D2D2DC2C2C2C2C2C2C2C2C2C2C2C2C2C2C2C20000000000000000000000000000000000000000000000000000000000000000000000000000000000000000000000000000000000000000000000000000
310
000000000000000000000000000000000000000000000000000000000000000000000000000000002D2D2D2D2D2D2D2D2D2D2D2D2D2D2D2D2D2D2D2D2D2D2D2D2D2D000000000000000000000000000000000000000000000000002D0000000000000000000000000000000000000000000000002D00000000000000000000
310
0000000000000000000000000000002D000000000000000000000000000000000000000000000000002DDCDCDCBEBEBEBE2DDCDCBEBEBEBEBEBEBEBEBEBEBEBEBEBE2D000000000000000000000000000000000000000000000000000000000000000000000000000000000000000000000000000000000000000000000000
310
0000000000000000000000000000000000000000000000000000000000000000000000000000000000002DBEBEBEBEBEBEBE2DBEBEBEBEBEBEBEBEBEBEBEBEBEBEBEBE2D000000000000000000000000000000000000000000000000002D0000000000000000000000000000000000000000000000002D0000000000000000
310
00000000000000000000000000000000002D000000000000000000000000000000000000000000000000002DDCDCDCBEBEBEBE2DDCDCDCBEBEBEBEBEBEBEBEBEBEBEBEBE2D00000000000000000000000000000000000000000000000000000000000000000000000000000000000000000000000000000000000000000000
310
0000000000000000000000000000000000000000000000000000000000000000000000000000000000000000DCDCDCBEBEBEBEBEBEBEBEBEBEBEBEBEBEBEBEBEBEBEBEBEBEBE000000000000000000000000000000000000000000000000002D0000000000000000000000000000000000000000000000002D000000000000
310
000000000000000000000000000000000000002D000000000000000000000000000000000000000000000000002DBEBEBEBEBEBEBE2DDCDCDCDCDCDCDCDCDCBEBEBEBEBEBEBE2D0000000000000000000000000000000000000000000000000000000000000000000000000000000000000000000000000000000000000000
310
00000000000000000000000000000000000000000000000000000000000000000000000000000000000000000000BEBEBEBEBEBEBEBEBEBEBEBEBEBEBEBEBEBEBEBEBEBEBEBEBEBE000000000000000000000000000000000000000000000000002D0000000000000000000000000000000000000000000000002D00000000
310
0000000000000000000000000000000000000000002D000000000000000000000000000000000000000000000000002DDCDCDCBEBEBEBE2DDCDCDCDCDCDCDCDCDCBEBEBEBEBEBEBE2D000000000000000000000000000000000000000000000000000000000000000000000000000000000000000000000000000000000000
310
000000000000000000000000000000000000000000000000000000000000000000000000000000000000000000000000BEDCDCDCBEBEBEBEDCDCDCDCDCDCDCDCDCDCDCDCDCDCDCDCDCBE000000000000000000000000000000000000000000000000002D0000000000000000000000000000000000000000000000002D0000
310
00000000000000000000000000000000000000000000002D000000000000000000000000000000000000000000000000002DDCDCDCBEBEBEBE2DDCDCDCDCDCDCDCBEBEBEBEBEBEBEBEBE2D00000000000000000000000000000000000000000000000000000000000000000000000000000000000000000000000000000000
310
0000000000000000000000000000000000000000000000000000000000000000000000000000000000000000000000000000BEBEBEBEBEBEBEBEDCDCDCDCDCDCDCDCDCBEBEBEBEBEBEBEBEBE000000000000000000000000000000000000000000000000002D0000000000000000000000000000000000000000000000002D
310
000000000000000000000000000000000000000000000000002D000000000000000000000000000000000000000000000000002DDCDCDCBEBEBEBE2DDCDCDCDCDCDCDCDCBEBEBEBEBEBEBEBE2D0000000000000000000000000000000000000000000000000000000000000000000000000000000000000000000000000000
310
00000000000000000000000000000000000000000000000000000000000000000000000000000000000000000000000000000000DCDCDCBEBEBEBEBEDCDCDCDCDCDCDCDCDCDCDCDCDCDCDCDCDCBE000000002800002800000000002828282828282800000000002D0000000028280028000000000000280000000028000000
310
002D000000002828002800000000000028282828282800000000002D000000000028002800000000000028280000002800000000002DDCDCDC2D2D2D2D2DDCDCDC2D2D2D2D2D2D2D2D2D2D2D2D2D2D000000000000000000000000000000000000000000000000000000000000000000000000000000000000000000000000
310
000000000000000000000000000000000000000000000000000000000000000000000000000000000000000000000000000000000000DCDCDCDCBEBEBEBEDCDCDCDCDCDCDCDCDCDCDCDCDCDCDCDCDCDC000000002828282800000000002828282828282800000000002D000000002828282800000000000028282828282800
310
0000002D000000002828282800000000000028282828282800000000002D000000000028282800000000000028282828282800000000002D0000000000000000000000000000000000000000000000002D00000000000000000000000000000000000000000000000000000000000000000000000000000000000000000000
310
0000000000000000000000000000000000000000000000000000000000000000000000000000000000000000000000000000000000000000DCDCDCDCDCBEBEBEBEBEBEBEBEBEBEBEBEBEBEBEBEBEBEBEBEBE00000000BEBEBEF5282800BEBEBEBEBEBEBEBE2800000000002D00000000BEBEBEBE282800BEBEBEBEBEBEBEBE
310
BE000000002D00000000BEBEBEBE282800BEBEBEBEBEBEBEBE2800000000002D000000000028BE2828280000BEBE28F5F5F5F52800000000002D0000000000000000000000000000000000000000000000002D0000000000000000000000000000000000000000000000000000000000000000000000000000000000000000
310
00000000000000000000000000000000000000000000000000000000000000000000000000000000000000000000000000000000000000000000BEBEBEBEBEBEBEBEBEBEBEBEBEBEBEBEBEBEBEBEBEBEBEBEBEBE00000000BEF5F5F5280000BEBEBEBE000000F5BE00000000002D00000000BEBEBEBE282800BEBEBEBEBEBE
310
BEBEBE000000002D00000000BEBEBEBE282800BEBEBEBE00000000BE00000000002D0000000000BEF5BE28280000BEBEBEBEBEBEBEBE00000000002D0000000000000000000000000000000000000000000000002D000000000000000000000000000000000000000000000000000000000000000000000000000000000000
310
000000000000000000000000000000000000000000000000000000000000000000000000000000000000000000000000000000000000000000000000DCDCDCDCDCBEBEBEBEBEBEBEBEBEBEBEBEBEBEBEBEBEBEBEBEBE00000000BEBEBEF5282800BEBEBEBEBEBEBEBE0000000000002D00000000BEBEBEBE282800BEBEBEBE
310
BEBEBEBEBE000000002D00000000BEBEBEBE282800BEBEBEBEBEBEBEBEBE00000000002D0000000000BEBEBE28280000BEBEBEBEBEBEBEBE00000000002D0000000000000000002828000000000000000000000000002D00000000000000000000000000000000000000000000000000000000000000000000000000000000
310
0000000000000000000000000000000000000000000000000000000000000000000000000000000000000000000000000000000000000000000000000000DCDCDCDCBEBEBEBEBEDCDCDCDCDCDCDCDCDCDCDCDCDCDCDCDCDC0000000000F5F528282800000000F5F5F500000000000000002D0000000000F5F5282828000000
310
BEBEF5F5000000000000002D0000000000F5BE28282800000000F5F5F500000000000000002D0000000000F5F528282800000000BEF5F5F5000000000000002D0000000000000000002828000000002828000000000000002D0000000000000000000000000000000000000000000000000000000000000000000000000000
310
000000000000000000000000000000000000000000000000000000000000000000000000000000000000000000000000000000000000000000000000000000002D2D2D2D2D2D2D2D2D2D2D2D2D2D2D2D2D2D2D2D2D2D2D2D2D2D0000000000F5F500000000000000F5F50000000000F50000002D0000000000F5F5F5000000
310
00000000F5F5F50000000000002D0000000000F5F50000000000000000F5F500000000F50000002D000000000000F5F500000000000000F5F5F5000000000000002D000000000000BEBEBE282800BEBEBE2828000000000000002D000000000000000000000000000000000000000000000000000000000000000000000000
310
0000000000000000000000000000000000000000000000000000000000000000000000000000000000000000000000000000000000000000000000000000000000002D0000000000000000000000000000000000000000000000002D00000000BEF5BEBE00000000000000F5F5BEF5F5BEF50000002D0000000000F5F5F500
310
000000000000F5F5F50000000000002D0000000000BEBEBE00000000000000F5F5BEBEBEBEF50000002D0000000000F5BEF500000000000000BEF5F5000000000000002D0000000000BEBEBEBE2828BEBEBEBE2828000000000000002D00000000000000000000000000000000000000000000000000000000000000000000
310
00000000000000000000000000000000000000000000000000000000000000000000000000000000000000000000000000000000000000000000000000000000000000002D0000000000000028280000002828282828000000000000002D00000000BEF5BEBE00000000000000F5F5BEF5F5BEF50000002D0000000000F5F5
310
0000000000000000F5F5000000000000002D0000000000F5F5F50000000000000000F5BEBEBEBEF50000002D0000000000F500F500000000000000F5F500000000000000002D000000000000BEBEBE0028BEBEBEBE2828000000000000002D0000000000000000000000000000000000000000000000000000000000000000
310
000000000000000000000000000000000000000000000000000000000000000000000000000000000000000000000000000000000000000000000000000000000000000000002D0000000000000028280000002800282828000000000000002D00000000BEBEBEBE00000000000000000000000000F50000002D0000000000
310
F5F50000000000000000F5F5000000000000002D0000000000F5BEF500000000000000000000000000F50000002D000000000000F5F500000000000000F5F500000000000000002D00000000000000BEBE2828BEBEBE280000000000000000002D000000000000000000000000000000000000000000000000000000000000
310
0000000000000000000000000000000000000000000000000000000000000000000000000000000000000000000000000000000000000000000000000000000000000000000000002D00000000000000282828280028F5BEBE28000000000000002D000000000000000000000000000000000000000000000000002D000000
310
00F5F5F5F5F500000000F5F5F5F5F50000000000002D000000000000000000000000000000000000000000000000002D00000000F5F5F5F5F50000000000F5F5F5F5F50000000000002D0000000000000000000000282828280000000000000000002D00000000000000000000000000000000000000000000000000000000
310
00000000000000000000000000000000000000000000000000000000000000000000000000000000000000000000000000000000000000000000000000000000000000000000000000002D00000000000000F5BE28280000BEBEF5F5000000000000002D000000000000000000000000000000000000000000000000002D00
310
00000000000000000000000000000000000000000000002D000000000000000000000000000000000000000000000000002D000000000000000000000000000000000000000000000000002D0000000000000000000000282828280000000000000000002D0000000000000000000000000000000000000000000000000000
310
000000000000000000000000000000000000000000000000000000000000000000000000000000000000000000000000000000000000000000000000000000000000000000000000000000002D00000000000000BEBE0000000000F5BEBEBE0000000000002D00000000000000000000000000000000000000000000000000
310
2D0000000000000000000000000000000000000000000000002D000000000000000000000000000000000000000000000000002D000000000000000000000000000000000000000000000000002D0000000000000000000000000000000000000000000000002D000000000000000000000000000000000000000000000000
310
0000000000000000000000000000000000000000000000000000000000000000000000000000000000000000000000000000000000000000000000000000000000000000000000000000000000002D00000000000000F5F500000000000000BEBE0000000000002D0000000000000000000000000000000000000000000000
310
00002D0000000000000000000000000000000000000000000000002D000000000000000000000000000000000000000000000000002D000000000000000000000000000000000000000000000000002D0000000000000000000000000000000000000000000000002D00000000000000000000000000000000000000000000
310
00000000000000000000000000000000000000000000000000000000000000000000000000000000000000000000000000000000000000000000000000000000000000000000000000000000000000002D0000000000000000000000000000000000000000000000002D000000000000000000000000000000000000000000
310
000000002D0000000000000000000000000000000000000000000000002D000000000000000000000000000000000000000000000000002D000000000000000000000000000000000000000000000000002D000000000000000000000000000000BEBEBEBEBEBEBEBEBEBE0000000000000000000000000000000000000000
310
000000000000000000000000000000000000000000000000000000000000000000000000000000000000000000000000000000000000000000000000000000000000000000000000000000000000000000002DF5F5F52DDCDCDCDCDCDCDCDCDCDCDCDCDCDCDCDCDCDCDCDC2D2DF5F52D2DDCDCDCDCDCDCDCDCDCDCDCDCDCDC
310
DCDCDCDCDCDC2DF5F5F52D2DDCDCDCDCDCDCDCDCDCDCDCDCDCDCDCDCDCDCDCDC2DF5F5F52DDCDCDCDCDCDCDCDCDCDCDCDCDCDCDCDCDCDCDCDC2D2DF5F52D2DDCDCDCDCDCDCDCDCDCDCDCDCDCDCDCDCDCDCDCDC2D2D2D2D2D2DDCDCDCDCDCDCDCDCDCDC2D2D2D2D2D2D2D2D2D2D000000000000000000000000000000000000
310
0000000000000000000000000000000000000000000000000000000000000000000000000000000000000000000000000000000000000000000000000000000000000000000000000000000000000000000000002DF5F5F52DDCDCDCDCDCDCDCDCDCC2C2C2C2C2C2C2C2C2C2C2C22DF5F52D2DDCDCDCC2C2C2C2C2C2C2C2C2
310
C2C2C2C2C2C2C2C22DF5F5F52D2DDCDCDCDCDCDCDCDCC2C2C2C2C2C2C2C2C2C2C2C22DF5F5F52DDCDCDCDCC2C2C2C2C2C2C2C2C2C2C2C2C2C2C2C2C22DF5F52D2DDCDCDCDCDCDCDCDCDCC2C2C2C2C2C2C2C2C2C2C22D2D2D2D2D2DDCDCDCDCDCDCDCDCC2C2C2C2C2C2C2C2C2C2C2C200000000000000000000000000000000
310
00000000000000000000000000000000000000000000000000000000000000000000000000000000000000000000000000000000000000000000000000000000000000000000000000000000000000000000000000002D2D2D2D2D2D2D2D2DDCDCDCDCDCC2C2C2C2C2C2C2C2C2C2C2C22D2D2D2D2D2D2D2DC2C2C2C2C2C2C2
310
C2C2C2C2C2C2C2C2C2C22D2D2D2D2D2D2D2D2DDCDCDCDCDCC2C2C2C2C2C2C2C2C2C2C2C22D2D2D2D2D2D2D2D2DC2C2C2C2C2C2C2C2C2C2C2C2C2C2C2C2C22D2D2D2D2D2D2D2D2D2D2D2D2D2DC2C2C2C2C2C2C2C2C2C2C22D2D2D2D2D2D2D2D2D2D2D2D2D2DC2C2C2C2C2C2C2C2C2C2C2C20000000000000000000000000000
310
00000000000000000000000000000000000000000000000000000000000000000000000000000000000000000000000000000000000000000000000000000000000000000000000000000000000000000000000000000000BEDCDCBEBEBEBEBEDCDCDCDCDCDCDCDCDCDCDCDCDCDCDCDCDCBEBEBEBEBEBEBEBEBEBEBEBEBEBE
310
BEBEBEBEBEBEBEBEBEBEBEBE2DDCDCDCBEBEBEBE2DDCDCDCDCDCDCDCDCDCDCDCDCDCDCDCDC2D2DBEBEBEBEBEBEBE2DBEBEBEBEBEBEBEBEBEBEBEBEBEBEBEBE2D2DBEBEBEBEBEBE2DBEBEBEBEBEBEBEBEBEBEBEBEBEBEBEBE2D2DBEBEBEBEBEBEBE2DBEBEBEBEBEBEBEBEBEBEBEBEBEBEBEBE2D000000000000000000000000
310
000000000000000000000000000000000000000000000000000000000000000000000000000000000000000000000000000000000000000000000000000000000000000000000000000000000000000000000000000000000000DCDCDCDCBEBEBEBEDCDCDCDCDCDCDCDCDCDCDCDCDCDCDCDCDCDCBEBEBEBEBEBEBEBEBEBEBE
310
BEBEBEBEBEBEBEBEBEBEBEBEBEBE2DDCDCDCBEBEBEBE2DDCDCDCDCDCDCDCDCDCDCDCDCDCDCDCDC2D2DBEBEBEBEBEBEBE2DBEBEBEBEBEBEBEBEBEBEBEBEBEBEBEBE2D2DBEBEBEBEBEBE2DBEBEBEBEBEBEBEBEBEBEBEBEBEBEBEBE2DBEDCDCDCBEBEBEBEBEDCDCDCDCDCDCDCDCDCDCDCDCDCDCDCBEBE00000000000000000000
310
0000000000000000000000000000000000000000000000000000000000000000000000000000000000000000000000000000000000000000000000000000000000000000000000000000000000000000000000000000000000000000DCDCDCDCBEBEBEBEBEDCDCDCDCDCDCDCBEBEBEBEBEBEBEBEBEBEBEBEBEBEBEBEBEBEBE
310
BEBEBEBEBEBEBEBEBEBEBEBEBEBEBEBE2DBEBEBEBEBEBEBE2DDCDCDCDCDCDCDCDCDCDCDCDCDCDCDCBE2DDCDCDCDCDCDCBEBEBEDCDCDCDCDCDCDCDCDCDCDCDCDCDCDCDCBEDCDCDCDCDCDCBEBEDCDCDCDCDCDCDCDCDCDCDCDCDCDCDCDCDC2DDCDCDCBEBEBEBE2DDCDCDCDCDCDCDCDCDCDCDCDCDCDCDCDCDC0000000000000000
310
000000000000000000000000000000000000000000000000000000000000000000000000000000000000000000000000000000000000000000000000000000000000000000000000000000000000000000000000000000000000000000002DBEBEBEBEBEBEBE2DBEBEBEBEBEBEBEBEBEBEBEBEBEBEBEBE2D2DBEBEBEBEBEBE
310
BE2DBEBEBEBEBEBEBEBEBEBEBEBEBEBEBE2D2DDCDCDCDCDCDCBE2DDCDCDCDCDCDCDCDCDCDCDCDCDCDCDCDCDCBEDCDCDCBEBEBEBEBEDCDCDCDCDCDCDCDCDCDCDCDCDCDCDCDCBEBEBEBEBEBEBEBEBEBEBEBEBEBEBEBEBEBEBEBEBEBEBEBEBEBEBEBEBEBEBEBEBEBEBEDCDCDCDCDCDCDCDCDCDCDCDCDCDCDCDCDC000000000000
310
0000000000000000000000000000000000000000000000000000000000000000000000000000000000000000000000000000000000000000000000000000000000000000000000000000000000000000000000000000000000000000000000002DBEBEBEBEBEBEBE2DBEBEBEBEBEBEBEBEBEBEBEBEBEBEBEBE2D2DBEBEBEBE
310
BEBEBE2DBEBEBEBEBEBEBEBEBEBEBEBEBEBEBE2D2DDCDCDCBEBEBEBE2DDCDCDCDCDCDCDCDCDCDCDCDCDCDCDCDCDCDCDCDCDCDCDCBEBEDCDCDCDCDCDCDCDCDCDCDCDCDCDCDCDCDCBEBEBEBEBEBEBEBEBEBEBEBEBEBEBEBEBEBEBEBEBEBEBEBEBEBE2DBEBEBEBEBEBEBE2DBEDCDCDCDCDCDCDCDCDCDCDCDCDCDCBE2D00000000
310
00000000000000000000000000000000000000000000000000000000000000000000000000000000000000000000000000000000000000000000000000000000000000000000000000000000000000000000000000000000000000000000000000002DBEBEBEBEBEBEBE2DBEBEBEBEBEBEBEBEBEBEBEBEBEBEBEBE2D2DBEBE
310
BEBEBEBEBE2DBEBEBEBEBEBEBEBEBEBEBEBEBEBEBE2D2DBEBEBEBEBEBEBE2DBEBEBEBEBEBEBEBEBEBEBEBEBEBEBEBE2DDCDCDCDCDCDCBEBEDCDCDCDCDCDCDCDCDCDCDCDCDCDCDCDCDCBEDCDCDCDCDCBEBEBEDCDCDCDCDCDCDCDCDCDCDCDCDCDCDCDCDC2DBEBEBEBEBEBEBE2DBEDCDCDCDCDCDCDCDCDCDCDCDCDCDCDC2D0000
310
000000000000000000000000000000000000000000000000000000000000000000000000000000000000000000000000000000000000000000000000000000000000000000000000000000000000000000000000000000000000000000000000000000002DBEBEBEBEBEBEBE2DBEBEBEBEBEBEBEBEBEBEBEBEBEBEBEBE2D2D
310
BEBEBEBEBEBEBE2DBEBEBEBEBEBEBEBEBEBEBEBEBEBEBE2D2DBEBEBEBEBEBEBE2DDCDCDCDCDCDCDCDCDCDCDCDCDCDCDCDC2DDCDCDCDCDCBEBEBEDCDCDCDCDCDCDCDCDCDCDCDCDCDCDCDCDCBEDCDCDCDCDCBEBEBEDCDCDCDCDCDCDCDCDCDCDCDCDCDCDCDCDC2DBEBEBEBEBEBEBE2DDCDCDCDCDCDCDCDCDCDCDCDCDCDCDCBE2D
310
0000000000000000000000000000000000000000000000000000000000000000000000000000000000000000000000000000000000000000000000000000000000000000000000000000000000000000000000000000000000000000000000000000000000002DBEBEBEBEBEBEBE2DBEBEBEBEBEBEBEBEBEBEBEBEBEBEBEBE
310
2D2DBEBEBEBEBEBEBE2DBEBEBEBEBEBEBEBEBEBEBEBEBEBEBE2D2DDCDCDCBEBEBEBE2DBEBEBEBEBEBEBEBEBEBEBEBEBEBEBEBE2DDCDCDCDCDCBEBEBEDCDCDCDCDCDCDCDCDCDCDCDCDCDCDCDCDCBEDCDCDCDCDCBEBEBEDCDCDCDCDCDCDCDCDCDCDCDCDCDCDCBEBE2DDCDCDCBEBEBEBE2DDCDCDCDCDCDCDCDCDCDCDCDCDCDCDC
310
DCDC0000000000000000000000000000000000000000000000000000000000000000000000000000000000000000000000000000000000000000000000000000000000000000000000000000000000000000000000000000000000000000000000000000000000002DBEBEBEBEBEBEBE2DBEBEBEBEBEBEBEBEBEBEBEBEBEBE
310
BEBE2D2DBEBEBEBEBEBEBE2DBEBEBEBEBEBEBEBEBEBEBEBEBEBEBE2D2DDCDCDCDCDCDCDCDCDCDCDCDCDCDCDCDCDCDCDCDCDCDCDCDC2DDCDCDCDCDCDCDCDCDCDCDCDCDCDCDCDCDCDCDCDCBEBEBEBEBEBEBEBEBEBEBEBEBEBEBEBEBEBEBEBEBEBEBEBEBEBEBEBEBEBEBE2DDCDCDCDCDCBEBE2DDCDCDCDCDCDCDCDCDCDCDCDCDC
310
DCDCDCDC0000000000000000000000000000000000000000000000000000000000000000000000000000000000000000000000000000000000000000000000000000000000000000000000000000000000000000000000000000000000000000000000000000000000002DBEBEBEBEBEBEBE2DBEBEBEBEBEBEBEBEBEBEBEBE
310
BEBEBEBE2D2DBEBEBEBEBEBEBE2DBEBEBEBEBEBEBEBEBEBEBEBEBEBEBE2D2DDCDCDCDCDCDCDCDCDCDCDCDCDCDCDCDCDCDCDCBEBEBEBEBE2DDCDCDCDCDCDCDCDCDCDCDCDCDCDCDCDCDCDCDCDCBEBEBEBEBEBEDCDCDCDCDCDCDCDCDCDCDCDCDCDCDCDCDCDCDCDCDCDCDCDCDC2DDCDCDCDCDCBEBE2DDCDCDCDCDCDCDCDCDCDCDC
310
DCDCDCDCDC2D0000000000000000000000000000000000000000000000000000000000000000000000000000000000000000000000000000000000000000000000000000000000000000000000000000000000000000000000000000000000000000000000000000000000002DBEBEBEBEBEBEBE2DBEBEBEBEBEBEBEBEBEBE
310
BEBEBEBEBEBE2D2DBEBEBEBEBEBEBE2DBEBEBEBEBEBEBEBEBEBEBEBEBEBEBE2D2DDCDCDCBEBEBEBE2DDCDCDCDCDCDCDCDCDCDCDCDCBEBEBEBE2DDCDCDCDCBEBEBEBEBEDCDCDCDCDCDCDCDCDCBEBEBEBEBEBEBEBEDCDCDCDCDCDCDCDCDCDCDCDCDCDCDCDCDCBEBEBEBEBEBEBEBE2DBEBEBEBEBEBEBE2DBEBEBEBEBEBEBEBEBE
310
BEBEBEBEBEBEBE2D0000000000000000000000000000000000000000000000000000000000000000000000000000000000000000000000000000000000000000000000000000000000000000000000000000000000000000000000000000000000000000000000000000000000002DBEBEBEBEBEBEBE2DBEBEBEBEBEBEBEBE
310
BEBEBEBEBEBEBEBE2D2DBEBEBEBEBEBEBE2DBEBEBEBEBEBEBEBEBEBEBEBEBEBEBE2D2DDCDCDC2D2D2D2D2DDCDCDCDCDCDCDCDCDCDCDCDC2D2D2D2D2D2D2D2D2D2D2D2D2D2D2D2D2D2D2D2D2D2D2D2D2D2D2D2D2D2D2DDCDCDCDCBEBEBEBEDCDCDCDCDCDCDCDCDCBEBEBEBEBEBEBEBE2DBEBEBEBEBEBEBE2DBEBEBEBEBEBEBE
310
BEBEBEBEBEBEBEBEBE2D0000000000000000000000000000000000000000000000000000000000000000000000000000000000000000000000000000000000000000000000000000000000000000000000000000000000000000000000000000000000000000000000000000000000002D2D2D2D2D2D2D2D2D2D2D2D2D2D2D
310
2D2D2D2D2D2D2D2D2D2D2D2D2D2D2D2D2D2D2D2D2D2D2D2D2D2D2D2D2D2D2D2D2D2D2D2D2D00000000000000F500000000000000F5F5282800000000002D0000000000000000000000F5F5F500000000000000000000002D2DDCDC2D2D2D2D2DDCDCDCDCDCDCDCDCDCDCDCDCDC2D2D2D2D2DBEBEBEBEBEBEBE2DBEBEBEBEBE
310
BEBEBEBEBEBEBEBEBEBEBE2D0000000000000000000000000000000000000000000000000000000000000000000000000000000000000000000000000000000000000000000000000000000000000000000000000000000000000000000000000000000000000000000000000000000000002D000000000000000000000000
310
0000000000000000000000002D000000000000000000282828280000000000000000000000002D0000000000F5F5BEF50000000000F5BEBE002800000000002D00000000000000000000F5BEBEBEF5000000000000000000002D000000000000000000000000000000000000000000000000002DDCDCDCDCBEBEBE2DDCDCDC
310
DCDCDCDCDCDCDCDCDCDCDCDCDC2D0000000000000000000000000000000000000000000000000000000000000000000000000000000000000000000000000000000000000000000000000000000000000000000000000000000000000000000000000000000000000000000000000000000000002D00000000000000BEF5F5
310
00000000F50000000000000000002D000000000000000000282828280028000000000000000000002D00000000F5BEF5F5BEF5000000F5BEBEBE282800000000002D00000000000000000000F5BEBEBEF5000000000000000000002D000000000000000000F500282828000000F5000000000000002DDCDCDCBEBEBEBE2DBE
310
BEBEBEBEBEBEBEBEBEBEBEBEBEBEBE2D0000000000000000000000000000000000000000000000000000000000000000000000000000000000000000000000000000000000000000000000000000000000000000000000000000000000000000000000000000000000000000000000000000000000002D00000000000000BE
310
BEBEBE0000F5BE0000000000000000002D00000000000000000028BEBEF52828000000000000000000002D00000000BEBEBEBEF5F50000F5BEBEBEBE282800000000002D0000000000000000000000F5F5F500000000000000000000002D00000000000000F5BEBEBEBE28280000BEBEF5F500000000002DDCDCDCBEBEBEBE
310
2DDCDCDCDCDCDCDCDCDCDCDCBEBEBEBEBE2D0000000000000000000000000000000000000000000000000000000000000000000000000000000000000000000000000000000000000000000000000000000000000000000000000000000000000000000000000000000000000000000000000000000000002D000000000000
310
00BEBEBEF50000F5BE0000000000000000002D000000000000000000BEF5F5282828000000000000000000002D00000000F5BEF5F5BEF5000000F5BEBEBE282800000000002D000000000000000000002828282828000000000000000000002D0000000000000028BEBEBE28282800F5BEBEF5F500000000002DBEBEBEBEBE
310
BEBE2DDCDCDCDCDCDCDCDCDCDCDCBEBEBEBEBE2D0000000000000000000000000000000000000000000000000000000000000000000000000000000000000000000000000000000000000000000000000000000000000000000000000000000000000000000000000000000000000000000000000000000000002D00000000
310
00000028F5F528000028F50000000000000000002D00000000000000000000F5F5002828000000000000000000002D0000000000F5F5BEF50000002800F5BEF5282800000000002D000000000000000000002828282828282800000000000000002D00000000000000280000002800000000000000000000000000BEBEBEBE
310
BEBEBEBEBEBEBEBEBEBEBEBEBEBEBEBEBEBEBEBEBEBE0000000000000000000000000000000000000000000000000000000000000000000000000000000000000000000000000000000000000000000000000000000000000000000000000000000000000000000000000000000000000000000000000000000000002D0000
310
000000000028282828000028282828000000000000002D00000000000000000000F5F5F52828000000000000000000002D0000000000000000000000002800000028000000000000002D0000000000000000000028BEBEBE28282800000000000000002D000000000000002828282828000000000000000000000000002D2D
310
2D2D2D2D2D2D2D2D2D2D2D2D2D2D2D2D2D2D2D2D2D2D2D2D0000000000000000000000000000000000000000000000000000000000000000000000000000000000000000000000000000000000000000000000000000000000000000000000000000000000000000000000000000000000000000000000000000000000002D
310
0000000000000028282828000028282828000000000000002D000000000000000000000000000000000000000000000000002D0000000000000000000000002828282828000000000000002D00000000000000000000BEBEBEBEBE282800000000000000002D00000000000000000028280000000000000000000000000000
310
2D0000000000000000000000000000000000000000000000002D0000000000000000000000000000000000000000000000000000000000000000000000000000000000000000000000000000000000000000000000000000000000000000000000000000000000000000000000000000000000000000000000000000000000
310
002D2D2D2D2D2D2D2D2D2D2D2D2D2D2D2D2D2D2D2D2D2D2D2D2D2D2D2D2D2D2D2D2D2D2D2D2D2D2D2D2D2D2D2D2D2D2D2D2D2D2D2D2D2D2D2D2D2D2D2D2D2D2D2D2D2D28282D2D2D2D2D2D2D2D2D2D2D2D2D2D2D2D2D2D2DBEBE2DBE2828282D2D2D2D2D2D2D2D2D2D2D2D2D2D2D2D2D2D2D2D2D2D2D2D2D2D2D2D2D2D2D2D
310
2D2D2D0000000000000000000000000000000000000000000000002D000000000000000000000000000000000000000000000000000000000000000000000000000000000000000000000000000000000000000000000000000000000000000000000000000000000000000000000000000000000000000000000000000000
310
0000002DF5F5F52DDCDCDCDCDCDCDCDCDCDCDCDC00000000000000002D00F5F5002DDCDCDCDCDCDCDCDCDCDCDCDCDCDCDCDCDCDCDCDC2DF5F5F5002DDCDCDCDCDCDCDCDCDCDCDCDCDCDCDC000000002D00F5F5F52DDCDCDCDCDCDCDCDCDCDCDCDCDCDCDCDCDCDCDCDC2D00F5F5002DDCDCDCDCDCDCDCDCDCDCDCDC00000000
310
000000002D0000000000000000000000000000000000000000000000002D00000000000000000000000000000000000000000000000000000000000000000000000000000000000000000000000000000000000000000000000000000000000000000000000000000000000000000000000000000000000000000000000000
310
00000000002D2D2D2D2D2D2D2D2D2D2D2D2D2DC2C2C2C2C2C2C2C2C2C2C2C22D2D2D2D2D2D2D2D2DC2C2C2C2C2C2C2C2C2C2C2C2C2C2C2C22D2D2D2D2D2D2D2D2D2D2D2D2D2DC2C2C2C2C2C2C2C2C2C2C2C22D2D2D2D2D2D2D2D2DC2C2C2C2C2C2C2C2C2C2C2C2C2C2C2C2C22D2D2D2D2D2D2D2D2D2D2D2D2D2DC2C2C2C2C2
310
C2C2C2C2C2C22D0000000000000000000000000000000000000000000000002D0000000000000000000000000000000000000000000000000000000000000000000000000000000000000000000000000000000000000000000000000000000000000000000000000000000000000000000000000000000000000000000000
310
000000000000002D2D2D2D2D2D2D2D2D2D2D2D2D2DC2C2C2C2C2C2C2C2C2C2C2C22D2D2D2D2D2D2D2D2DC2C2C2C2C2C2C2C2C2C2C2C2C2C2C2C22D2D2D2D2D2D2D2D2DDCDCDCDCDCC2C2C2C2C2C2C2C2C2C2C2C22D2D2D2D2D2D2D2DDCC2C2C2C2C2C2C2C2C2C2C2C2C2C2C2C2C22D2D2D2D2D2D2D2D2D2D2D2D2D2DC2C2C2
310
C2C2C2C2C2C2C2C22D0000000000000000000000000000000000000000000000002D000000000000000000000000000000000000000000000000000000000000000000000000000000000000000000000000000000000000000000000000000000000000000000000000000000000000000000000000000000000000000000
310
0000000000000000002DBEBEBEBEBEBEBE2DBEBEBEBEBEBEBEBEBEBEBEBEBEBEBEBE2DBEBEBEBEBEBEBEBEBEBEBEBEBEBEBEBEBEBEBEBEBEBEBEBEBE2DDCDCDCBEBEBEBE2DDCDCDCDCDCDCDCDCDCDCDCDCDCDCDCDC2DDCDCDCBEBEBEBEBEDCDCDCDCDCDCDCDCDCDCDCDCDCDCDCDCDCDC2DBEBEBEBEBEBEBE2DBEBEBEBEBEBE
310
BEBEBEBEBEBEBEBEBE2D2D0000000000000000000000000000000000000000000000002D00000000000000000000000000000000000000000000000000000000000000000000000000000000000000000000000000000000000000000000000000000000000000000000000000000000000000000000000000000000000000
310
00000000000000000000002DBEBEBEBEBEBEBE2DBEBEBEBEBEBEBEBEBEBEBEBEBEBEBEBE2DBEBEBEBEBEBEBEBEBEBEBEBEBEBEBEBEBEBEBEBEBEBEBEBEBE2DDCDCDCBEBEBEBE2DDCDCDCDCDCDCDCDCDCDCDCDCDCDCDCDC2DDCDCDCBEBEBEBEBEDCDCDCDCDCDCDCDCDCDCDCDCDCDCDCDCDCBE2DBEBEBEBEBEBEBE2DBEBEBEBE
310
BEBEBEBEBEBEBEBEBEBEBE2D2D0000000000000000000000000000000000000000000000002D0000000000000000000000000000000000000000000000000000000000000000000000000000000000000000000000000000000000000000000000000000000000000000000000000000000000000000000000000000000000
310
000000000000000000000000002DBEBEBEBEBEBEBE2DBEBEBEBEBEBEBEBEBEBEBEBEBEBEBEBE2D2DBEBEBEBEBEBEBE2DBEBEBEBEBEBEBEBEBEBEBEBEBEBEBE2D2DBEBEBEBEBEBEBE2DDCDCDCDCDCDCDCDCDCDCDCDCDCDCDCBE2D2DBEBEBEBEBEBEBEDCDCDCDCDCDCDCDCDCDCDCDCDCDCDCDCBE2DDCDCDCDCDCDCBEBEDCDCDC
310
DCDCDCDCDCDCDCDCDCDCDCDCDCDC2D0000000000000000000000000000000000000000000000002D000000000000000000000000000000000000000000000000000000000000000000000000000000000000000000000000000000000000000000000000000000000000000000000000000000000000000000000000000000
310
0000000000000000000000000000002DBEBEBEBEBEBEBE2DBEBEBEBEBEBEBEBEBEBEBEBEBEBEBEBE2D2DBEBEBEBEBEBEBE2DBEBEBEBEBEBEBEBEBEBEBEBEBEBEBE2D2DDCDCDCDCBEBEBE2DDCDCDCDCDCDCDCDCDCDCDCDCDCDCDCDCDC2DDCDCDCDCBEBEBEDCDCDCDCDCDCDCDCDCDCDCDCDCDCDCDCDC2DBEBEBEBEBEBEBEBEBE
310
BEBEBEBEBEBEBEBEBEBEBEBEBEBEBEBE2D0000000000000000000000000000000000000000000000002D00000000000000000000000000000000000000000000000000000000000000000000000000000000000000000000000000000000000000000000000000000000000000000000000000000000000000000000000000
310
00000000000000000000000000000000002DBEBEBEBEBEBEBE2DBEBEBEBEBEBEBEBEBEBEBEBEBEBEBEBE2D2DBEBEBEBEBEBEBE2DBEBEBEBEBEBEBEBEBEBEBEBEBEBEBE2D2DDCBEDCBEBEBEBE2DDCDCDCDCDCDCBEDCDCDCDCDCDCBEDCDCDC2DDCDCDCBEBEBEBE2DDCDCDCDCDCDCBEDCDCDCDCDCBEBEDCDC2DBEBEBEBEBEBEBE
310
BEBEBEBEBEBEBEBEBEBEBEBEBEBEBEBEBEBE2D0000000000000000000000000000000000000000000000002D0000000000000000000000000000000000000000000000000000000000000000000000000000000000000000000000000000000000000000000000000000000000000000000000000000000000000000000000
310
000000000000000000000000000000000000002DBEBEBEBEBEBEBE2DBEBEBEBEBEBEBEBEBEBEBEBEBEBEBEBE2D2DBEBEBEBEBEBEBE2DBEBEBEBEBEBEBEBEBEBEBEBEBEBEBE2D2DBEBEBEBEBEBEBE2DBEBEBEBEBEBEBEBEBEBEBEBEBEBEBEBE2D2DBEBEBEBEBEBEBE2DBEBEBEBEBEBEBEBEBEBEBEBEBEBEBEBE2DDCDCDCDCDC
310
BEBEBEDCDCDCDCDCDCDCDCDCDCDCDCDCDCDCDCDC2D0000000000000000000000000000000000000000000000002D000000000000000000000000000000000000000000000000000000000000000000000000000000000000000000000000000000000000000000000000000000000000000000000000000000000000000000
310
0000000000000000000000000000000000000000002DBEBEBEBEBEBEBE2DBEBEBEBEBEBEBEBEBEBEBEBEBEBEBEBE2D2DBEBEBEBEBEBEBE2DBEBEBEBEBEBEBEBEBEBEBEBEBEBEBE2D2DBEBEBEBEBEBEBE2DDCDCDCDCDCDCDCDCDCDCDCDCDCDCDCDC2D2DBEBEBEBEBEBEBE2DDCDCDCDCDCDCDCDCDCDCDCDCDCDCDCDC2DDCDCDC
310
DCDCBEBEBEDCDCDCDCDCDCDCDCDCDCDCDCDCDCDCDCDC2D0000000000000000000000000000000000000000000000002D00000000000000000000000000000000000000000000000000000000000000000000000000000000000000000000000000000000000000000000000000000000000000000000000000000000000000
310
00000000000000000000000000000000000000000000002DBEBEBEBEBEBEBE2DBEBEBEBEBEBEBEBEBEBEBEBEBEBEBEBE2D2DBEBEBEBEBEBEBE2DBEBEBEBEBEBEBEBEBEBEBEBEBEBEBE2D2DDCDCDCBEBEBEBE2DBEBEBEBEBEBEBEBEBEBEBEBEBEBEBEBE2DDCDCDCDCBEBEBEBE2DBEBEBEBEBEBEBEBEBEBEBEBEBEBEBEBE2DDC
310
DCDCDCDCBEBEBEDCDCDCDCDCDCDCDCDCDCDCDCDCDCDCDCDC2D0000000000000000000000000000000000000000000000002D0000000000000000000000000000000000000000000000000000000000000000000000000000000000000000000000000000000000000000000000000000000000000000000000000000000000
310
000000000000000000000000000000000000000000000000002DBEBEBEBEBEBEBE2DBEBEBEBEBEBEBEBEBEBEBEBEBEBEBEBE2D2DBEBEBEBEBEBEBE2DBEBEBEBEBEBEBEBEBEBEBEBEBEBEBE2D2DDCDCDCDCDCDCDCDCDCDCDCDCDCDCDCDCDCDCDCBEBEDCBEBE2DDCDCDCDCDCDCDCDCDCDCDCDCDCDCDCDCDCDCDCDCBEDCBEBEDC
310
2DBEBEBEBEBEBEBEBEBEBEBEBEBEBEBEBEBEBEBEBEBEBEBEBEBE2D0000000000000000000000000000000000000000000000002D000000000000000000000000000000000000000000000000000000000000000000000000000000000000000000000000000000000000000000000000000000000000000000000000000000
310
0000000000000000000000000000000000000000000000000000002DBEBEBEBEBEBEBE2DBEBEBEBEBEBEBEBEBEBEBEBEBEBEBEBE2D2DBEBEBEBEBEBEBE2DBEBEBEBEBEBEBEBEBEBEBEBEBEBEBE2D2DBEBEBEBEBEBEBE2DBEBEBEBEBEBEBEBEBEBEBEBEBEBEBEBE2D2DBEBEBEBEBEBEBE2DBEBEBEBEBEBEBEBEBEBEBEBEBEBE
310
BEBE2DDCDCDCDCDCDCDCDCDCBEBEDCDCBEBEDCDCDCDCBEBEDCDCDCDC2D0000000000000000000000000000000000000000000000002D00000000000000000000000000000000000000000000000000000000000000000000000000000000000000000000000000000000000000000000000000000000000000000000000000
310
00000000000000000000000000000000000000000000000000000000002DBEBEBEBEBEBEBE2DBEBEBEBEBEBEBEBEBEBEBEBEBEBEBEBE2D2DBEBEBEBEBEBEBE2DBEBEBEBEBEBEBEBEBEBEBEBEBEBEBE2D2DDCDCDCBEBEBEBE2DDCDCDCDCDCDCDCDCDCDCDCDCDCDCDCDC2DDCDCDCBEBEBEBEBE2DDCDCDCDCDCDCDCDCDCDCDCDC
310
DCDCDCDC2DDCDCDCDCBEBEBEBEDCDCDCDCDCDCDCDCDCBEBEBEBEBEBEBEBE2D0000000000BEBEF5BEBE282800F5F5F5F5BE0000000000002D0000000000000000000000000000000000000000000000000000000000000000000000000000000000000000000000000000000000000000000000000000000000000000000000
310
000000000000000000000000000000000000000000000000000000000000002D2D2D2D2D2D2D2D2D2D2D2D2D2D2D2D2D2D2D2D2D2D2D2D2D2D2D2D2D2D2D2D2D2D2D2D2D2D2D2D2D2D2D2D2D2D2D2D2D2D2D2DDCDCDCDCDCDC2D2D2D2D2D2D2D2D2D2D2D2D2D2D2D2D2D2D2D2D2D2D2D2D2D2D2D2D2D2DF5F5F52D2D2D2D2D
310
2D2D2D2D2D2D2DBEBEBEBEBEBEBEBEBEBEBEBEBEBEBEBEBEBEBEBEBEBEBEBEBE2D0000000000BEBEF5BEBE282800F5BEF5BEF50000000000002D000000000000000000000000000000000000000000000000000000000000000000000000000000000000000000000000000000000000000000000000000000000000000000
310
0000000000000000000000000000000000000000000000000000000000000000002D0000000000BEBEBE00000000000000F528282800000000002D00000000000000000000F5F5F5F500000000000000000000002DDCDCDCDCDCDCBEBEBE000000000000F528282800000000002D00000000000000000000F5F5F5F5F50000
310
00000000000000002D2D2D2D2D2D2D2D2D2D2D2D2D2D2D2D2D2D2D2D2D2D2D2D2D2D2D0000000000280000002800000000000000000000000000002D00000000000000000000000000000000000000000000000000000000000000000000000000000000000000000000000000000000000000000000000000000000000000
310
00000000000000000000000000000000000000000000000000000000000000000000002D00000000F5F5BEBEBE00000000F5BEBEF5282800000000002D00000000000000000000F5F5F5F5F5000000000000000000002D0000000000BEBEBEBE00000000BEBEBEF5282800000000002D00000000000000000000F5F5BEF5F5
310
000000000000000000002D000000000000000000000000000000000000000000000000002D0000000000282828282800000000000000000000000000002D0000000000000000000000000000000000000000000000000000000000000000000000000000000000000000000000000000000000000000000000000000000000
310
000000000000000000000000000000000000000000000000000000000000000000000000002D00000000BEBEBEBEBEBE0000F5BEBEBEF5280000000000002D00000000000000000000F5F5F5F500000000000000000000002D00000000BEBEBEBEBEBE000000BEBEBEF5282800000000002D00000000000000000000F5F5F5
310
F5F5000000000000000000002D000000000000000000F5F52828280000F5F5F50000000000002D0000000000002828280000000000000000000000000000002D000000000000000000000000000000000000000000000000000000000000000000000000000000000000000000000000000000000000000000000000000000
310
0000000000000000000000000000000000000000000000000000000000000000000000000000002D00000000BEBEBEBEBEBE0000BE00BEBEF5280000000000002D0000000000000000000028F5F5F528000000000000000000002D00000000BEBEBEBEBEBE0000F5BEBEBEF5282800000000002D0000000000000000000028
310
F5F5F528000000000000000000002D00000000000000BEF5F5F5F5282800F5F5F5BEF500000000002D0000000000000000000000000000000000000000000000002D00000000000000000000000000000000000000000000000000000000000000000000000000000000000000000000000000000000000000000000000000
310
00000000000000000000000000000000000000000000000000000000000000000000000000000000002D00000000BEF5BEBEF5BE0000F5BEF5BEF5280000000000002D000000000000000000002828282828000000000000000000002D00000000BEBEBEBEBEBE000000BEF5BEF5282800000000002D000000000000000000
310
002828282828000000000000000000002D00000000000000BEBEF5F5BE282800BEBEBEBEF500000000002D0000000000000000000000000000000000000000000000002D0000000000000000000000000000000000000000000000000000000000000000000000000000000000000000000000000000000000000000000000
310
000000000000000000000000000000000000000000000000000000000000000000000000000000000000002D00000000F5BEBEBEBE0000002800F5BE28282800000000002D0000000000000000000028BEBE0028282800000000000000002D0000000000BEBEBEBE000000280000F528282800000000002D00000000000000
310
00000028F5BE0028282800000000000000002D000000000000002828000028000000000000000000000000002D0000000000000000000000000000000000000000000000002D000000000000000000000000000000000000000000000000000000000000000000000000000000000000000000000000000000000000000000
310
0000000000000000000000000000000000000000000000000000000000000000000000000000000000000000002D0000000000000000000000002800000028000000000000002D000000000000000000F5F5F5BEF5F5282800000000000000002D0000000000000000000000002800000028000000000000002D0000000000
310
0000000000F5F5F5F5F5282800000000000000002D000000000000002828282828000000000000000000000000002D0000000000000000000000000000000000000000000000002D00000000000000000000000000000000000000000000000000000000000000000000000000000000000000000000000000000000000000
310
00000000000000000000000000000000000000000000000000000000000000000000000000000000000000000000002D0000000000000000000000002828282828000000000000002D00000000000000000000BEBEF5BE28282800000000000000002D0000000000000000000000002828282828000000000000002D000000
310
00000000000000BEBEF5BEBE282800000000000000002D000000000000000000000000000000000000000000000000002D0000000000000000000000000000000000000000000000002D0000000000000000000000000000000000000000000000000000000000000000000000000000000000000000000000000000000000
310
000000000000000000000000000000000000000000000000000000000000000000000000000000000000000000000000002DF5F5F52DDCDCDCDCDCDCDCDC2DDCDCDCDC2D2D2D2D2D2D2D2D2DF5F52D2DDCDCDCDCDCDCDCDC2DDCDCDCDCDCDCDCDCDCDCDC2D2DF5F52D2DDCDCDCDCDCDCDCDCDCDCDCDCDCDCDC2D2D2D2D2D2D
310
F5F5F52DDCDCDCDCDCDCDCDCDC2DDCDCDCDCDCDCDCDCDCDC2D2DF5F52D2DDCDCDCDCDCDCDC2DDCDCDCDCDCDCDCDCDCDC2D2D2D2D2D2D2D2DDCDCDCDCDC2DDCDCDCDC2DDCDCDCDCDCDC2D2D2D000000000000000000000000000000000000000000000000000000000000000000000000000000000000000000000000000000
310
0000000000000000000000000000000000000000000000000000000000000000000000000000000000000000000000000000002DF5F5F52DDCDCDCDCDCDCDCDCDCDCDCDCDC2D2D2D2D2D2D2D2D2DF5F52D2DDCDCDCDCDCDCDCDCDCDCDCDCDCDCDCDCDCDCDCDC2DF5F5F52D2DDCDCDCDCDCDCDCDCDCDCDCDCDCDCDC2D2D2D2D
310
2D2DF5F5F52DDCDCDCDCDCDCDCDCDCDCDCDCDCDCDCDCDCDCDCDC2D2DF5F52D2DDCDCDCDCDCDCDCDCDCDCDCDCDCDCDCDCDCDC2D2D2D2D2D2D2D2DDCDCDCDCDCDCDCDCDCDCDCDCDCDCDCDCDC2D2D2D00000000000000000000000000000000000000000000000000000000000000000000000000000000000000000000000000
310
00000000000000000000000000000000000000000000000000000000000000000000000000000000000000000000000000000000000000000000000000000000000000000000000000000000000000000000000000000000000000000000000000000000000000000000000000000000000000000000000000000000000000
310
000000000000000000000000000000000000000000000000000000000000000000000000000000000000000000000000000000000000000000000000000000000000000000C3C3C3C3C3C3C3C3C3C3C30000000000000000000000000000000000000000000000000000000000000000000000000000000000000000000000
310
00000000000000000000000000000000000000000000000000000000000000000000000000000000000000000000000000000000000000000000000000000000000000000000000000000000000000000000000000000000000000000000000000000000000000000000000000000000000000000000000000000000000000
310
00000000000000000000000000000000000000000000000000000000000000000000000000000000000000000000000000000000000000000000000000000000000000000000000000000000000000000000000000000000000000000000000000000000000000000000000000000000000000000000000000000000000000
310
00000000000000000000000000000000000000000000000000000000000000000000000000000000000000000000000000000000000000000000000000000000000000000000000000000000000000000000000000000000000000000000000000000000000000000000000000000000000000000000000000000000000000
310
00000000000000000000000000000000000000000000000000000000000000000000000000000000000000000000000000000000000000000000000000000000000000000000000000000000000000000000000000000000000000000000000000000000000000000000000000000000000000000000000000000000000000
310
00000000000000000000000000000000000000000000000000000000000000000000000000000000000000000000000000000000000000000000000000000000000000000000000000000000000000000000000000000000000000000000000000000000000000000000000000000000000000000000000000000000000000
310
00000000000000000000000000000000000000000000000000000000000000000000000000000000000000000000000000000000000000000000000000000000000000000000000000000000000000000000000000000000000000000000000000000000000000000000000000000000000000000000000000000000000000
310
00000000000000000000000000000000000000000000000000000000000000000000000000000000000000000000000000000000000000000000000000000000000000000000000000000000000000000000000000000000000000000000000000000000000000000000000000000000000000000000000000000000000000
310
00000000000000000000000000000000000000000000000000000000000000000000000000000000000000000000000000000000000000000000000000000000000000000000000000000000000000000000000000000000000000000000000000000000000000000000000000000000000000000000000000000000000000
310
00000000000000000000000000000000000000000000000000000000000000000000000000000000000000000000000000000000000000000000000000000000000000000000000000000000000000000000000000000000000000000000000000000000000000000000000000000000000000000000000000000000000000
310
00000000000000000000000000000000000000000000000000000000000000000000000000000000000000000000000000000000000000000000000000000000000000000000000000000000000000000000000000000000000000000000000000000000000000000000000000000000000000000000000000000000000000
310
00000000000000000000000000000000000000000000000000000000000000000000000000000000000000000000000000000000000000000000000000000000000000000000000000000000000000000000000000000000000000000000000000000000000000000000000000000000000000000000000000000000000000
310
00000000000000000000000000000000000000000000000000000000000000000000000000000000000000000000000000000000000000000000000000000000000000000000000000000000000000000000000000000000000000000000000000000000000000000000000000000000000000000000000000000000000000
310
00000000000000000000000000000000000000000000000000000000000000000000000000000000000000000000000000000000000000000000000000000000000000000000000000000000000000000000000000000000000000000000000000000000000000000000000000000000000000000000000000000000000000
310
00000000000000000000000000000000000000000000000000000000000000000000000000000000000000000000000000000000000000000000000000000000000000000000000000000000000000000000000000000000000000000000000000000000000000000000000000000000000000000000000000000000000000
310
000000000000000000000000000000000000
  0
XRECORD
  5
1F6
102
{ACAD_REACTORS
330
1F5
102
}
330
1F5
100
AcDbXrecord
280
     1
102
SHADEPLOT
 70
     0
102
SHADEPLOTRESLEVEL
 70
     2
102
SHADEPLOTCUSTOMDPI
 70
   300
  0
XRECORD
  5
1FA
102
{ACAD_REACTORS
330
45
102
}
330
45
100
AcDbXrecord
280
     1
102
MATERIAL
148
0.0
149
0.0
149
0.0
 93
        0
 94
      127
282
     0
 72
     0
 77
     0
171
     0
175
     0
179
     0
273
     0
  0
XRECORD
  5
46
102
{ACAD_REACTORS
330
45
102
}
330
45
100
AcDbXrecord
280
     1
270
     1
271
     1
  0
XRECORD
  5
47
102
{ACAD_REACTORS
330
45
102
}
330
45
100
AcDbXrecord
280
     1
270
     1
271
     1
  0
XRECORD
  5
48
102
{ACAD_REACTORS
330
45
102
}
330
45
100
AcDbXrecord
280
     1
270
     1
271
     1
  0
XRECORD
  5
49
102
{ACAD_REACTORS
330
45
102
}
330
45
100
AcDbXrecord
280
     1
270
     1
271
     1
  0
XRECORD
  5
4A
102
{ACAD_REACTORS
330
45
102
}
330
45
100
AcDbXrecord
280
     1
270
     1
271
     1
  0
XRECORD
  5
4B
102
{ACAD_REACTORS
330
45
102
}
330
45
100
AcDbXrecord
280
     1
270
     1
271
     1
  0
XRECORD
  5
1F9
102
{ACAD_REACTORS
330
3D
102
}
330
3D
100
AcDbXrecord
280
     1
102
MATERIAL
148
0.0
149
0.0
149
0.0
 93
        0
 94
      127
282
     0
 72
     0
 77
     0
171
     0
175
     0
179
     0
273
     0
  0
XRECORD
  5
3E
102
{ACAD_REACTORS
330
3D
102
}
330
3D
100
AcDbXrecord
280
     1
270
     1
271
     1
  0
XRECORD
  5
3F
102
{ACAD_REACTORS
330
3D
102
}
330
3D
100
AcDbXrecord
280
     1
270
     1
271
     1
  0
XRECORD
  5
40
102
{ACAD_REACTORS
330
3D
102
}
330
3D
100
AcDbXrecord
280
     1
270
     1
271
     1
  0
XRECORD
  5
41
102
{ACAD_REACTORS
330
3D
102
}
330
3D
100
AcDbXrecord
280
     1
270
     1
271
     1
  0
XRECORD
  5
42
102
{ACAD_REACTORS
330
3D
102
}
330
3D
100
AcDbXrecord
280
     1
270
     1
271
     1
  0
XRECORD
  5
43
102
{ACAD_REACTORS
330
3D
102
}
330
3D
100
AcDbXrecord
280
     1
270
     1
271
     1
  0
XRECORD
  5
1F3
102
{ACAD_REACTORS
330
1F2
102
}
330
1F2
100
AcDbXrecord
280
     1
102
MATERIAL
148
0.0
149
0.0
149
0.0
 93
        0
 94
       63
282
     0
 72
     1
 77
     1
171
     1
175
     1
179
     1
273
     0
  0
CELLSTYLEMAP
  5
1EF
102
{ACAD_REACTORS
330
55
102
}
330
55
100
AcDbCellStyleMap
 90
        3
300
CELLSTYLE
  1
TABLEFORMAT_BEGIN
 90
        5
170
     1
 91
        0
 92
    32768
 62
   257
 93
        1
300
CONTENTFORMAT
  1
CONTENTFORMAT_BEGIN
 90
        0
 91
        0
 92
        4
 93
        0
300

 40
0.0
140
1.0
 94
        5
 62
     0
340
21
144
0.25
309
CONTENTFORMAT_END
171
     0
 94
        6
 95
        1
302
GRIDFORMAT
  1
GRIDFORMAT_BEGIN
 90
        0
 91
        1
 62
     0
 92
       -2
340
0
 93
        0
 40
0.045
309
GRIDFORMAT_END
 95
        2
302
GRIDFORMAT
  1
GRIDFORMAT_BEGIN
 90
        0
 91
        1
 62
     0
 92
       -2
340
0
 93
        0
 40
0.045
309
GRIDFORMAT_END
 95
        4
302
GRIDFORMAT
  1
GRIDFORMAT_BEGIN
 90
        0
 91
        1
 62
     0
 92
       -2
340
0
 93
        0
 40
0.045
309
GRIDFORMAT_END
 95
        8
302
GRIDFORMAT
  1
GRIDFORMAT_BEGIN
 90
        0
 91
        1
 62
     0
 92
       -2
340
0
 93
        0
 40
0.045
309
GRIDFORMAT_END
 95
       16
302
GRIDFORMAT
  1
GRIDFORMAT_BEGIN
 90
        0
 91
        1
 62
     0
 92
       -2
340
0
 93
        0
 40
0.045
309
GRIDFORMAT_END
 95
       32
302
GRIDFORMAT
  1
GRIDFORMAT_BEGIN
 90
        0
 91
        1
 62
     0
 92
       -2
340
0
 93
        0
 40
0.045
309
GRIDFORMAT_END
309
TABLEFORMAT_END
  1
CELLSTYLE_BEGIN
 90
        1
 91
        1
300
_TITLE
309
CELLSTYLE_END
300
CELLSTYLE
  1
TABLEFORMAT_BEGIN
 90
        5
170
     1
 91
        0
 92
        0
 62
   257
 93
        1
300
CONTENTFORMAT
  1
CONTENTFORMAT_BEGIN
 90
        0
 91
        0
 92
        4
 93
        0
300

 40
0.0
140
1.0
 94
        5
 62
     0
340
21
144
0.18
309
CONTENTFORMAT_END
171
     0
 94
        6
 95
        1
302
GRIDFORMAT
  1
GRIDFORMAT_BEGIN
 90
        0
 91
        1
 62
     0
 92
       -2
340
0
 93
        0
 40
0.045
309
GRIDFORMAT_END
 95
        2
302
GRIDFORMAT
  1
GRIDFORMAT_BEGIN
 90
        0
 91
        1
 62
     0
 92
       -2
340
0
 93
        0
 40
0.045
309
GRIDFORMAT_END
 95
        4
302
GRIDFORMAT
  1
GRIDFORMAT_BEGIN
 90
        0
 91
        1
 62
     0
 92
       -2
340
0
 93
        0
 40
0.045
309
GRIDFORMAT_END
 95
        8
302
GRIDFORMAT
  1
GRIDFORMAT_BEGIN
 90
        0
 91
        1
 62
     0
 92
       -2
340
0
 93
        0
 40
0.045
309
GRIDFORMAT_END
 95
       16
302
GRIDFORMAT
  1
GRIDFORMAT_BEGIN
 90
        0
 91
        1
 62
     0
 92
       -2
340
0
 93
        0
 40
0.045
309
GRIDFORMAT_END
 95
       32
302
GRIDFORMAT
  1
GRIDFORMAT_BEGIN
 90
        0
 91
        1
 62
     0
 92
       -2
340
0
 93
        0
 40
0.045
309
GRIDFORMAT_END
309
TABLEFORMAT_END
  1
CELLSTYLE_BEGIN
 90
        2
 91
        1
300
_HEADER
309
CELLSTYLE_END
300
CELLSTYLE
  1
TABLEFORMAT_BEGIN
 90
        5
170
     1
 91
        0
 92
        0
 62
   257
 93
        1
300
CONTENTFORMAT
  1
CONTENTFORMAT_BEGIN
 90
        0
 91
        0
 92
        4
 93
        0
300

 40
0.0
140
1.0
 94
        2
 62
     0
340
21
144
0.18
309
CONTENTFORMAT_END
171
     0
 94
        6
 95
        1
302
GRIDFORMAT
  1
GRIDFORMAT_BEGIN
 90
        0
 91
        1
 62
     0
 92
       -2
340
0
 93
        0
 40
0.045
309
GRIDFORMAT_END
 95
        2
302
GRIDFORMAT
  1
GRIDFORMAT_BEGIN
 90
        0
 91
        1
 62
     0
 92
       -2
340
0
 93
        0
 40
0.045
309
GRIDFORMAT_END
 95
        4
302
GRIDFORMAT
  1
GRIDFORMAT_BEGIN
 90
        0
 91
        1
 62
     0
 92
       -2
340
0
 93
        0
 40
0.045
309
GRIDFORMAT_END
 95
        8
302
GRIDFORMAT
  1
GRIDFORMAT_BEGIN
 90
        0
 91
        1
 62
     0
 92
       -2
340
0
 93
        0
 40
0.045
309
GRIDFORMAT_END
 95
       16
302
GRIDFORMAT
  1
GRIDFORMAT_BEGIN
 90
        0
 91
        1
 62
     0
 92
       -2
340
0
 93
        0
 40
0.045
309
GRIDFORMAT_END
 95
       32
302
GRIDFORMAT
  1
GRIDFORMAT_BEGIN
 90
        0
 91
        1
 62
     0
 92
       -2
340
0
 93
        0
 40
0.045
309
GRIDFORMAT_END
309
TABLEFORMAT_END
  1
CELLSTYLE_BEGIN
 90
        3
 91
        2
300
_DATA
309
CELLSTYLE_END
  0
XRECORD
  5
1FB
102
{ACAD_REACTORS
330
55
102
}
330
55
100
AcDbXrecord
280
     1
102
ACAD_ROUNDTRIP_PRE2007_TABLESTYLE
 90
        4
 91
        0
  1

 92
        4
 93
        0
  2

 94
        4
 95
        0
  3

  0
XRECORD
  5
1F8
102
{ACAD_REACTORS
330
1F7
102
}
330
1F7
100
AcDbXrecord
280
     1
102
RTVSPropertyOp0
 70
     1
102
RTVSPropertyOp1
 70
     1
102
RTVSPropertyOp2
 70
     1
102
RTVSPropertyOp3
 70
     1
102
RTVSPropertyOp4
 70
     1
102
RTVSPropertyOp5
 70
     1
102
RTVSPropertyOp6
 70
     1
102
RTVSPropertyOp7
 70
     1
102
RTVSPropertyOp8
 70
     1
102
RTVSPropertyOp9
 70
     1
102
RTVSPropertyOp10
 70
     1
102
RTVSPropertyOp11
 70
     1
102
RTVSPropertyOp12
 70
     1
102
RTVSPropertyOp13
 70
     1
102
RTVSPropertyOp14
 70
     1
102
RTVSPropertyOp15
 70
     1
102
RTVSPropertyOp16
 70
     1
102
RTVSPropertyOp17
 70
     1
102
RTVSPropertyOp18
 70
     1
102
RTVSPropertyOp19
 70
     1
102
RTVSPropertyOp20
 70
     1
102
RTVSPropertyOp21
 70
     1
102
RTVSPropertyOp22
 70
     1
102
RTVSPropertyOp23
 70
     1
102
RTVSPropertyOp24
 70
     1
102
RTVSPropertyOp25
 70
     1
102
RTVSPropertyOp26
 70
     1
102
RTVSPropertyOp27
 70
     1
102
RTVSPropertyOp28
 70
     1
102
RTVSPropertyOp29
 70
     1
102
RTVSPropertyOp30
 70
     1
102
RTVSPropertyOp31
 70
     1
102
RTVSPropertyOp32
 70
     1
  0
XRECORD
  5
209
102
{ACAD_REACTORS
330
208
102
}
330
208
100
AcDbXrecord
280
     1
102
RTVSPropertyOp0
 70
     1
102
RTVSPropertyOp1
 70
     1
102
RTVSPropertyOp2
 70
     1
102
RTVSPropertyOp3
 70
     1
102
RTVSPropertyOp4
 70
     1
102
RTVSPropertyOp5
 70
     1
102
RTVSPropertyOp6
 70
     1
102
RTVSPropertyOp7
 70
     1
102
RTVSPropertyOp8
 70
     1
102
RTVSPropertyOp9
 70
     1
102
RTVSPropertyOp10
 70
     1
102
RTVSPropertyOp11
 70
     1
102
RTVSPropertyOp12
 70
     1
102
RTVSPropertyOp13
 70
     1
102
RTVSPropertyOp14
 70
     1
102
RTVSPropertyOp15
 70
     1
102
RTVSPropertyOp16
 70
     1
102
RTVSPropertyOp17
 70
     1
102
RTVSPropertyOp18
 70
     1
102
RTVSPropertyOp19
 70
     1
102
RTVSPropertyOp20
 70
     1
102
RTVSPropertyOp21
 70
     1
102
RTVSPropertyOp22
 70
     1
102
RTVSPropertyOp23
 70
     1
102
RTVSPropertyOp24
 70
     1
102
RTVSPropertyOp25
 70
     1
102
RTVSPropertyOp26
 70
     1
102
RTVSPropertyOp27
 70
     1
102
RTVSPropertyOp28
 70
     1
102
RTVSPropertyOp29
 70
     1
102
RTVSPropertyOp30
 70
     1
102
RTVSPropertyOp31
 70
     1
102
RTVSPropertyOp32
 70
     1
  0
XRECORD
  5
211
102
{ACAD_REACTORS
330
210
102
}
330
210
100
AcDbXrecord
280
     1
102
RTVSPropertyOp0
 70
     1
102
RTVSPropertyOp1
 70
     1
102
RTVSPropertyOp2
 70
     1
102
RTVSPropertyOp3
 70
     1
102
RTVSPropertyOp4
 70
     1
102
RTVSPropertyOp5
 70
     1
102
RTVSPropertyOp6
 70
     1
102
RTVSPropertyOp7
 70
     1
102
RTVSPropertyOp8
 70
     1
102
RTVSPropertyOp9
 70
     1
102
RTVSPropertyOp10
 70
     1
102
RTVSPropertyOp11
 70
     1
102
RTVSPropertyOp12
 70
     1
102
RTVSPropertyOp13
 70
     1
102
RTVSPropertyOp14
 70
     1
102
RTVSPropertyOp15
 70
     1
102
RTVSPropertyOp16
 70
     1
102
RTVSPropertyOp17
 70
     1
102
RTVSPropertyOp18
 70
     1
102
RTVSPropertyOp19
 70
     1
102
RTVSPropertyOp20
 70
     1
102
RTVSPropertyOp21
 70
     1
102
RTVSPropertyOp22
 70
     1
102
RTVSPropertyOp23
 70
     1
102
RTVSPropertyOp24
 70
     1
102
RTVSPropertyOp25
 70
     1
102
RTVSPropertyOp26
 70
     1
102
RTVSPropertyOp27
 70
     1
102
RTVSPropertyOp28
 70
     1
102
RTVSPropertyOp29
 70
     1
102
RTVSPropertyOp30
 70
     1
102
RTVSPropertyOp31
 70
     1
102
RTVSPropertyOp32
 70
     1
  0
XRECORD
  5
219
102
{ACAD_REACTORS
330
218
102
}
330
218
100
AcDbXrecord
280
     1
102
RTVSPropertyOp0
 70
     1
102
RTVSPropertyOp1
 70
     1
102
RTVSPropertyOp2
 70
     1
102
RTVSPropertyOp3
 70
     1
102
RTVSPropertyOp4
 70
     1
102
RTVSPropertyOp5
 70
     1
102
RTVSPropertyOp6
 70
     1
102
RTVSPropertyOp7
 70
     1
102
RTVSPropertyOp8
 70
     1
102
RTVSPropertyOp9
 70
     1
102
RTVSPropertyOp10
 70
     1
102
RTVSPropertyOp11
 70
     1
102
RTVSPropertyOp12
 70
     1
102
RTVSPropertyOp13
 70
     1
102
RTVSPropertyOp14
 70
     1
102
RTVSPropertyOp15
 70
     1
102
RTVSPropertyOp16
 70
     1
102
RTVSPropertyOp17
 70
     1
102
RTVSPropertyOp18
 70
     1
102
RTVSPropertyOp19
 70
     1
102
RTVSPropertyOp20
 70
     1
102
RTVSPropertyOp21
 70
     1
102
RTVSPropertyOp22
 70
     1
102
RTVSPropertyOp23
 70
     1
102
RTVSPropertyOp24
 70
     1
102
RTVSPropertyOp25
 70
     1
102
RTVSPropertyOp26
 70
     1
102
RTVSPropertyOp27
 70
     1
102
RTVSPropertyOp28
 70
     1
102
RTVSPropertyOp29
 70
     1
102
RTVSPropertyOp30
 70
     1
102
RTVSPropertyOp31
 70
     1
102
RTVSPropertyOp32
 70
     1
  0
XRECORD
  5
20D
102
{ACAD_REACTORS
330
20C
102
}
330
20C
100
AcDbXrecord
280
     1
102
RTVSPropertyOp0
 70
     1
102
RTVSPropertyOp1
 70
     1
102
RTVSPropertyOp2
 70
     1
102
RTVSPropertyOp3
 70
     1
102
RTVSPropertyOp4
 70
     1
102
RTVSPropertyOp5
 70
     1
102
RTVSPropertyOp6
 70
     1
102
RTVSPropertyOp7
 70
     1
102
RTVSPropertyOp8
 70
     1
102
RTVSPropertyOp9
 70
     1
102
RTVSPropertyOp10
 70
     1
102
RTVSPropertyOp11
 70
     1
102
RTVSPropertyOp12
 70
     1
102
RTVSPropertyOp13
 70
     1
102
RTVSPropertyOp14
 70
     1
102
RTVSPropertyOp15
 70
     1
102
RTVSPropertyOp16
 70
     1
102
RTVSPropertyOp17
 70
     1
102
RTVSPropertyOp18
 70
     1
102
RTVSPropertyOp19
 70
     1
102
RTVSPropertyOp20
 70
     1
102
RTVSPropertyOp21
 70
     1
102
RTVSPropertyOp22
 70
     1
102
RTVSPropertyOp23
 70
     1
102
RTVSPropertyOp24
 70
     1
102
RTVSPropertyOp25
 70
     1
102
RTVSPropertyOp26
 70
     1
102
RTVSPropertyOp27
 70
     1
102
RTVSPropertyOp28
 70
     1
102
RTVSPropertyOp29
 70
     1
102
RTVSPropertyOp30
 70
     1
102
RTVSPropertyOp31
 70
     1
102
RTVSPropertyOp32
 70
     1
  0
XRECORD
  5
20F
102
{ACAD_REACTORS
330
20E
102
}
330
20E
100
AcDbXrecord
280
     1
102
RTVSPropertyOp0
 70
     1
102
RTVSPropertyOp1
 70
     1
102
RTVSPropertyOp2
 70
     1
102
RTVSPropertyOp3
 70
     1
102
RTVSPropertyOp4
 70
     1
102
RTVSPropertyOp5
 70
     1
102
RTVSPropertyOp6
 70
     1
102
RTVSPropertyOp7
 70
     1
102
RTVSPropertyOp8
 70
     1
102
RTVSPropertyOp9
 70
     1
102
RTVSPropertyOp10
 70
     1
102
RTVSPropertyOp11
 70
     1
102
RTVSPropertyOp12
 70
     1
102
RTVSPropertyOp13
 70
     1
102
RTVSPropertyOp14
 70
     1
102
RTVSPropertyOp15
 70
     1
102
RTVSPropertyOp16
 70
     1
102
RTVSPropertyOp17
 70
     1
102
RTVSPropertyOp18
 70
     1
102
RTVSPropertyOp19
 70
     1
102
RTVSPropertyOp20
 70
     1
102
RTVSPropertyOp21
 70
     1
102
RTVSPropertyOp22
 70
     1
102
RTVSPropertyOp23
 70
     1
102
RTVSPropertyOp24
 70
     1
102
RTVSPropertyOp25
 70
     1
102
RTVSPropertyOp26
 70
     1
102
RTVSPropertyOp27
 70
     1
102
RTVSPropertyOp28
 70
     1
102
RTVSPropertyOp29
 70
     1
102
RTVSPropertyOp30
 70
     1
102
RTVSPropertyOp31
 70
     1
102
RTVSPropertyOp32
 70
     1
  0
XRECORD
  5
229
102
{ACAD_REACTORS
330
228
102
}
330
228
100
AcDbXrecord
280
     1
102
RTVSPropertyOp0
 70
     0
102
RTVSPropertyOp1
 70
     0
102
RTVSPropertyOp2
 70
     0
102
RTVSPropertyOp3
 70
     0
102
RTVSPropertyOp4
 70
     0
102
RTVSPropertyOp5
 70
     0
102
RTVSPropertyOp6
 70
     0
102
RTVSPropertyOp7
 70
     0
102
RTVSPropertyOp8
 70
     0
102
RTVSPropertyOp9
 70
     0
102
RTVSPropertyOp10
 70
     0
102
RTVSPropertyOp11
 70
     0
102
RTVSPropertyOp12
 70
     0
102
RTVSPropertyOp13
 70
     0
102
RTVSPropertyOp14
 70
     2
102
RTVSPropertyOp15
 70
     0
102
RTVSPropertyOp16
 70
     0
102
RTVSPropertyOp17
 70
     0
102
RTVSPropertyOp18
 70
     0
102
RTVSPropertyOp19
 70
     0
102
RTVSPropertyOp20
 70
     0
102
RTVSPropertyOp21
 70
     0
102
RTVSPropertyOp22
 70
     0
102
RTVSPropertyOp23
 70
     0
102
RTVSPropertyOp24
 70
     0
102
RTVSPropertyOp25
 70
     0
102
RTVSPropertyOp26
 70
     0
102
RTVSPropertyOp27
 70
     0
102
RTVSPropertyOp28
 70
     0
102
RTVSPropertyOp29
 70
     0
102
RTVSPropertyOp30
 70
     0
102
RTVSPropertyOp31
 70
     0
102
RTVSPropertyOp32
 70
     0
  0
XRECORD
  5
217
102
{ACAD_REACTORS
330
216
102
}
330
216
100
AcDbXrecord
280
     1
102
RTVSPropertyOp0
 70
     1
102
RTVSPropertyOp1
 70
     1
102
RTVSPropertyOp2
 70
     1
102
RTVSPropertyOp3
 70
     1
102
RTVSPropertyOp4
 70
     1
102
RTVSPropertyOp5
 70
     1
102
RTVSPropertyOp6
 70
     1
102
RTVSPropertyOp7
 70
     1
102
RTVSPropertyOp8
 70
     1
102
RTVSPropertyOp9
 70
     1
102
RTVSPropertyOp10
 70
     1
102
RTVSPropertyOp11
 70
     1
102
RTVSPropertyOp12
 70
     1
102
RTVSPropertyOp13
 70
     1
102
RTVSPropertyOp14
 70
     1
102
RTVSPropertyOp15
 70
     1
102
RTVSPropertyOp16
 70
     1
102
RTVSPropertyOp17
 70
     1
102
RTVSPropertyOp18
 70
     1
102
RTVSPropertyOp19
 70
     1
102
RTVSPropertyOp20
 70
     1
102
RTVSPropertyOp21
 70
     1
102
RTVSPropertyOp22
 70
     1
102
RTVSPropertyOp23
 70
     1
102
RTVSPropertyOp24
 70
     1
102
RTVSPropertyOp25
 70
     1
102
RTVSPropertyOp26
 70
     1
102
RTVSPropertyOp27
 70
     1
102
RTVSPropertyOp28
 70
     1
102
RTVSPropertyOp29
 70
     1
102
RTVSPropertyOp30
 70
     1
102
RTVSPropertyOp31
 70
     1
102
RTVSPropertyOp32
 70
     1
  0
XRECORD
  5
201
102
{ACAD_REACTORS
330
200
102
}
330
200
100
AcDbXrecord
280
     1
102
RTVSPropertyOp0
 70
     1
102
RTVSPropertyOp1
 70
     1
102
RTVSPropertyOp2
 70
     1
102
RTVSPropertyOp3
 70
     1
102
RTVSPropertyOp4
 70
     1
102
RTVSPropertyOp5
 70
     1
102
RTVSPropertyOp6
 70
     1
102
RTVSPropertyOp7
 70
     1
102
RTVSPropertyOp8
 70
     1
102
RTVSPropertyOp9
 70
     1
102
RTVSPropertyOp10
 70
     1
102
RTVSPropertyOp11
 70
     1
102
RTVSPropertyOp12
 70
     1
102
RTVSPropertyOp13
 70
     1
102
RTVSPropertyOp14
 70
     1
102
RTVSPropertyOp15
 70
     1
102
RTVSPropertyOp16
 70
     1
102
RTVSPropertyOp17
 70
     1
102
RTVSPropertyOp18
 70
     1
102
RTVSPropertyOp19
 70
     1
102
RTVSPropertyOp20
 70
     1
102
RTVSPropertyOp21
 70
     1
102
RTVSPropertyOp22
 70
     1
102
RTVSPropertyOp23
 70
     1
102
RTVSPropertyOp24
 70
     1
102
RTVSPropertyOp25
 70
     1
102
RTVSPropertyOp26
 70
     1
102
RTVSPropertyOp27
 70
     1
102
RTVSPropertyOp28
 70
     1
102
RTVSPropertyOp29
 70
     1
102
RTVSPropertyOp30
 70
     1
102
RTVSPropertyOp31
 70
     1
102
RTVSPropertyOp32
 70
     1
  0
XRECORD
  5
203
102
{ACAD_REACTORS
330
202
102
}
330
202
100
AcDbXrecord
280
     1
102
RTVSPropertyOp0
 70
     1
102
RTVSPropertyOp1
 70
     1
102
RTVSPropertyOp2
 70
     1
102
RTVSPropertyOp3
 70
     1
102
RTVSPropertyOp4
 70
     1
102
RTVSPropertyOp5
 70
     1
102
RTVSPropertyOp6
 70
     1
102
RTVSPropertyOp7
 70
     1
102
RTVSPropertyOp8
 70
     1
102
RTVSPropertyOp9
 70
     1
102
RTVSPropertyOp10
 70
     1
102
RTVSPropertyOp11
 70
     1
102
RTVSPropertyOp12
 70
     1
102
RTVSPropertyOp13
 70
     1
102
RTVSPropertyOp14
 70
     1
102
RTVSPropertyOp15
 70
     1
102
RTVSPropertyOp16
 70
     1
102
RTVSPropertyOp17
 70
     1
102
RTVSPropertyOp18
 70
     1
102
RTVSPropertyOp19
 70
     1
102
RTVSPropertyOp20
 70
     1
102
RTVSPropertyOp21
 70
     1
102
RTVSPropertyOp22
 70
     1
102
RTVSPropertyOp23
 70
     1
102
RTVSPropertyOp24
 70
     1
102
RTVSPropertyOp25
 70
     1
102
RTVSPropertyOp26
 70
     1
102
RTVSPropertyOp27
 70
     1
102
RTVSPropertyOp28
 70
     1
102
RTVSPropertyOp29
 70
     1
102
RTVSPropertyOp30
 70
     1
102
RTVSPropertyOp31
 70
     1
102
RTVSPropertyOp32
 70
     1
  0
XRECORD
  5
205
102
{ACAD_REACTORS
330
204
102
}
330
204
100
AcDbXrecord
280
     1
102
RTVSPropertyOp0
 70
     1
102
RTVSPropertyOp1
 70
     1
102
RTVSPropertyOp2
 70
     1
102
RTVSPropertyOp3
 70
     1
102
RTVSPropertyOp4
 70
     1
102
RTVSPropertyOp5
 70
     1
102
RTVSPropertyOp6
 70
     1
102
RTVSPropertyOp7
 70
     1
102
RTVSPropertyOp8
 70
     1
102
RTVSPropertyOp9
 70
     1
102
RTVSPropertyOp10
 70
     1
102
RTVSPropertyOp11
 70
     1
102
RTVSPropertyOp12
 70
     1
102
RTVSPropertyOp13
 70
     1
102
RTVSPropertyOp14
 70
     1
102
RTVSPropertyOp15
 70
     1
102
RTVSPropertyOp16
 70
     1
102
RTVSPropertyOp17
 70
     1
102
RTVSPropertyOp18
 70
     1
102
RTVSPropertyOp19
 70
     1
102
RTVSPropertyOp20
 70
     1
102
RTVSPropertyOp21
 70
     1
102
RTVSPropertyOp22
 70
     1
102
RTVSPropertyOp23
 70
     1
102
RTVSPropertyOp24
 70
     1
102
RTVSPropertyOp25
 70
     1
102
RTVSPropertyOp26
 70
     1
102
RTVSPropertyOp27
 70
     1
102
RTVSPropertyOp28
 70
     1
102
RTVSPropertyOp29
 70
     1
102
RTVSPropertyOp30
 70
     1
102
RTVSPropertyOp31
 70
     1
102
RTVSPropertyOp32
 70
     1
  0
XRECORD
  5
207
102
{ACAD_REACTORS
330
206
102
}
330
206
100
AcDbXrecord
280
     1
102
RTVSPropertyOp0
 70
     1
102
RTVSPropertyOp1
 70
     1
102
RTVSPropertyOp2
 70
     1
102
RTVSPropertyOp3
 70
     1
102
RTVSPropertyOp4
 70
     1
102
RTVSPropertyOp5
 70
     1
102
RTVSPropertyOp6
 70
     1
102
RTVSPropertyOp7
 70
     1
102
RTVSPropertyOp8
 70
     1
102
RTVSPropertyOp9
 70
     1
102
RTVSPropertyOp10
 70
     1
102
RTVSPropertyOp11
 70
     1
102
RTVSPropertyOp12
 70
     1
102
RTVSPropertyOp13
 70
     1
102
RTVSPropertyOp14
 70
     1
102
RTVSPropertyOp15
 70
     1
102
RTVSPropertyOp16
 70
     1
102
RTVSPropertyOp17
 70
     1
102
RTVSPropertyOp18
 70
     1
102
RTVSPropertyOp19
 70
     1
102
RTVSPropertyOp20
 70
     1
102
RTVSPropertyOp21
 70
     1
102
RTVSPropertyOp22
 70
     1
102
RTVSPropertyOp23
 70
     1
102
RTVSPropertyOp24
 70
     1
102
RTVSPropertyOp25
 70
     1
102
RTVSPropertyOp26
 70
     1
102
RTVSPropertyOp27
 70
     1
102
RTVSPropertyOp28
 70
     1
102
RTVSPropertyOp29
 70
     1
102
RTVSPropertyOp30
 70
     1
102
RTVSPropertyOp31
 70
     1
102
RTVSPropertyOp32
 70
     1
  0
XRECORD
  5
20B
102
{ACAD_REACTORS
330
20A
102
}
330
20A
100
AcDbXrecord
280
     1
102
RTVSPropertyOp0
 70
     1
102
RTVSPropertyOp1
 70
     1
102
RTVSPropertyOp2
 70
     1
102
RTVSPropertyOp3
 70
     1
102
RTVSPropertyOp4
 70
     1
102
RTVSPropertyOp5
 70
     1
102
RTVSPropertyOp6
 70
     1
102
RTVSPropertyOp7
 70
     1
102
RTVSPropertyOp8
 70
     1
102
RTVSPropertyOp9
 70
     1
102
RTVSPropertyOp10
 70
     1
102
RTVSPropertyOp11
 70
     1
102
RTVSPropertyOp12
 70
     1
102
RTVSPropertyOp13
 70
     1
102
RTVSPropertyOp14
 70
     1
102
RTVSPropertyOp15
 70
     1
102
RTVSPropertyOp16
 70
     1
102
RTVSPropertyOp17
 70
     1
102
RTVSPropertyOp18
 70
     1
102
RTVSPropertyOp19
 70
     1
102
RTVSPropertyOp20
 70
     1
102
RTVSPropertyOp21
 70
     1
102
RTVSPropertyOp22
 70
     1
102
RTVSPropertyOp23
 70
     1
102
RTVSPropertyOp24
 70
     1
102
RTVSPropertyOp25
 70
     1
102
RTVSPropertyOp26
 70
     1
102
RTVSPropertyOp27
 70
     1
102
RTVSPropertyOp28
 70
     1
102
RTVSPropertyOp29
 70
     1
102
RTVSPropertyOp30
 70
     1
102
RTVSPropertyOp31
 70
     1
102
RTVSPropertyOp32
 70
     1
  0
XRECORD
  5
225
102
{ACAD_REACTORS
330
224
102
}
330
224
100
AcDbXrecord
280
     1
102
RTVSPropertyOp0
 70
     0
102
RTVSPropertyOp1
 70
     0
102
RTVSPropertyOp2
 70
     0
102
RTVSPropertyOp3
 70
     0
102
RTVSPropertyOp4
 70
     0
102
RTVSPropertyOp5
 70
     0
102
RTVSPropertyOp6
 70
     0
102
RTVSPropertyOp7
 70
     0
102
RTVSPropertyOp8
 70
     0
102
RTVSPropertyOp9
 70
     0
102
RTVSPropertyOp10
 70
     0
102
RTVSPropertyOp11
 70
     0
102
RTVSPropertyOp12
 70
     0
102
RTVSPropertyOp13
 70
     0
102
RTVSPropertyOp14
 70
     2
102
RTVSPropertyOp15
 70
     0
102
RTVSPropertyOp16
 70
     0
102
RTVSPropertyOp17
 70
     0
102
RTVSPropertyOp18
 70
     0
102
RTVSPropertyOp19
 70
     0
102
RTVSPropertyOp20
 70
     0
102
RTVSPropertyOp21
 70
     0
102
RTVSPropertyOp22
 70
     0
102
RTVSPropertyOp23
 70
     0
102
RTVSPropertyOp24
 70
     0
102
RTVSPropertyOp25
 70
     0
102
RTVSPropertyOp26
 70
     0
102
RTVSPropertyOp27
 70
     0
102
RTVSPropertyOp28
 70
     0
102
RTVSPropertyOp29
 70
     0
102
RTVSPropertyOp30
 70
     0
102
RTVSPropertyOp31
 70
     0
102
RTVSPropertyOp32
 70
     0
  0
XRECORD
  5
215
102
{ACAD_REACTORS
330
214
102
}
330
214
100
AcDbXrecord
280
     1
102
RTVSPropertyOp0
 70
     1
102
RTVSPropertyOp1
 70
     1
102
RTVSPropertyOp2
 70
     1
102
RTVSPropertyOp3
 70
     1
102
RTVSPropertyOp4
 70
     1
102
RTVSPropertyOp5
 70
     1
102
RTVSPropertyOp6
 70
     1
102
RTVSPropertyOp7
 70
     1
102
RTVSPropertyOp8
 70
     1
102
RTVSPropertyOp9
 70
     1
102
RTVSPropertyOp10
 70
     1
102
RTVSPropertyOp11
 70
     1
102
RTVSPropertyOp12
 70
     1
102
RTVSPropertyOp13
 70
     1
102
RTVSPropertyOp14
 70
     1
102
RTVSPropertyOp15
 70
     1
102
RTVSPropertyOp16
 70
     1
102
RTVSPropertyOp17
 70
     1
102
RTVSPropertyOp18
 70
     1
102
RTVSPropertyOp19
 70
     1
102
RTVSPropertyOp20
 70
     1
102
RTVSPropertyOp21
 70
     1
102
RTVSPropertyOp22
 70
     1
102
RTVSPropertyOp23
 70
     1
102
RTVSPropertyOp24
 70
     1
102
RTVSPropertyOp25
 70
     1
102
RTVSPropertyOp26
 70
     1
102
RTVSPropertyOp27
 70
     1
102
RTVSPropertyOp28
 70
     1
102
RTVSPropertyOp29
 70
     1
102
RTVSPropertyOp30
 70
     1
102
RTVSPropertyOp31
 70
     1
102
RTVSPropertyOp32
 70
     1
  0
XRECORD
  5
227
102
{ACAD_REACTORS
330
226
102
}
330
226
100
AcDbXrecord
280
     1
102
RTVSPropertyOp0
 70
     0
102
RTVSPropertyOp1
 70
     0
102
RTVSPropertyOp2
 70
     0
102
RTVSPropertyOp3
 70
     0
102
RTVSPropertyOp4
 70
     0
102
RTVSPropertyOp5
 70
     0
102
RTVSPropertyOp6
 70
     0
102
RTVSPropertyOp7
 70
     0
102
RTVSPropertyOp8
 70
     0
102
RTVSPropertyOp9
 70
     0
102
RTVSPropertyOp10
 70
     0
102
RTVSPropertyOp11
 70
     0
102
RTVSPropertyOp12
 70
     0
102
RTVSPropertyOp13
 70
     0
102
RTVSPropertyOp14
 70
     2
102
RTVSPropertyOp15
 70
     0
102
RTVSPropertyOp16
 70
     0
102
RTVSPropertyOp17
 70
     0
102
RTVSPropertyOp18
 70
     0
102
RTVSPropertyOp19
 70
     0
102
RTVSPropertyOp20
 70
     0
102
RTVSPropertyOp21
 70
     0
102
RTVSPropertyOp22
 70
     0
102
RTVSPropertyOp23
 70
     0
102
RTVSPropertyOp24
 70
     0
102
RTVSPropertyOp25
 70
     0
102
RTVSPropertyOp26
 70
     0
102
RTVSPropertyOp27
 70
     0
102
RTVSPropertyOp28
 70
     0
102
RTVSPropertyOp29
 70
     0
102
RTVSPropertyOp30
 70
     0
102
RTVSPropertyOp31
 70
     0
102
RTVSPropertyOp32
 70
     0
  0
XRECORD
  5
1FD
102
{ACAD_REACTORS
330
1FC
102
}
330
1FC
100
AcDbXrecord
280
     1
102
RTVSPropertyOp0
 70
     1
102
RTVSPropertyOp1
 70
     1
102
RTVSPropertyOp2
 70
     1
102
RTVSPropertyOp3
 70
     1
102
RTVSPropertyOp4
 70
     1
102
RTVSPropertyOp5
 70
     1
102
RTVSPropertyOp6
 70
     1
102
RTVSPropertyOp7
 70
     1
102
RTVSPropertyOp8
 70
     1
102
RTVSPropertyOp9
 70
     1
102
RTVSPropertyOp10
 70
     1
102
RTVSPropertyOp11
 70
     1
102
RTVSPropertyOp12
 70
     1
102
RTVSPropertyOp13
 70
     1
102
RTVSPropertyOp14
 70
     1
102
RTVSPropertyOp15
 70
     1
102
RTVSPropertyOp16
 70
     1
102
RTVSPropertyOp17
 70
     1
102
RTVSPropertyOp18
 70
     1
102
RTVSPropertyOp19
 70
     1
102
RTVSPropertyOp20
 70
     1
102
RTVSPropertyOp21
 70
     1
102
RTVSPropertyOp22
 70
     1
102
RTVSPropertyOp23
 70
     1
102
RTVSPropertyOp24
 70
     1
102
RTVSPropertyOp25
 70
     1
102
RTVSPropertyOp26
 70
     1
102
RTVSPropertyOp27
 70
     1
102
RTVSPropertyOp28
 70
     1
102
RTVSPropertyOp29
 70
     1
102
RTVSPropertyOp30
 70
     1
102
RTVSPropertyOp31
 70
     1
102
RTVSPropertyOp32
 70
     1
  0
XRECORD
  5
223
102
{ACAD_REACTORS
330
222
102
}
330
222
100
AcDbXrecord
280
     1
102
RTVSPropertyOp0
 70
     1
102
RTVSPropertyOp1
 70
     1
102
RTVSPropertyOp2
 70
     1
102
RTVSPropertyOp3
 70
     1
102
RTVSPropertyOp4
 70
     1
102
RTVSPropertyOp5
 70
     1
102
RTVSPropertyOp6
 70
     1
102
RTVSPropertyOp7
 70
     1
102
RTVSPropertyOp8
 70
     1
102
RTVSPropertyOp9
 70
     1
102
RTVSPropertyOp10
 70
     1
102
RTVSPropertyOp11
 70
     1
102
RTVSPropertyOp12
 70
     1
102
RTVSPropertyOp13
 70
     1
102
RTVSPropertyOp14
 70
     1
102
RTVSPropertyOp15
 70
     1
102
RTVSPropertyOp16
 70
     1
102
RTVSPropertyOp17
 70
     1
102
RTVSPropertyOp18
 70
     1
102
RTVSPropertyOp19
 70
     1
102
RTVSPropertyOp20
 70
     1
102
RTVSPropertyOp21
 70
     1
102
RTVSPropertyOp22
 70
     1
102
RTVSPropertyOp23
 70
     1
102
RTVSPropertyOp24
 70
     1
102
RTVSPropertyOp25
 70
     1
102
RTVSPropertyOp26
 70
     1
102
RTVSPropertyOp27
 70
     1
102
RTVSPropertyOp28
 70
     1
102
RTVSPropertyOp29
 70
     1
102
RTVSPropertyOp30
 70
     1
102
RTVSPropertyOp31
 70
     1
102
RTVSPropertyOp32
 70
     1
  0
XRECORD
  5
221
102
{ACAD_REACTORS
330
220
102
}
330
220
100
AcDbXrecord
280
     1
102
RTVSPropertyOp0
 70
     1
102
RTVSPropertyOp1
 70
     1
102
RTVSPropertyOp2
 70
     1
102
RTVSPropertyOp3
 70
     1
102
RTVSPropertyOp4
 70
     1
102
RTVSPropertyOp5
 70
     1
102
RTVSPropertyOp6
 70
     1
102
RTVSPropertyOp7
 70
     1
102
RTVSPropertyOp8
 70
     1
102
RTVSPropertyOp9
 70
     1
102
RTVSPropertyOp10
 70
     1
102
RTVSPropertyOp11
 70
     1
102
RTVSPropertyOp12
 70
     1
102
RTVSPropertyOp13
 70
     1
102
RTVSPropertyOp14
 70
     1
102
RTVSPropertyOp15
 70
     1
102
RTVSPropertyOp16
 70
     1
102
RTVSPropertyOp17
 70
     1
102
RTVSPropertyOp18
 70
     1
102
RTVSPropertyOp19
 70
     1
102
RTVSPropertyOp20
 70
     1
102
RTVSPropertyOp21
 70
     1
102
RTVSPropertyOp22
 70
     1
102
RTVSPropertyOp23
 70
     1
102
RTVSPropertyOp24
 70
     1
102
RTVSPropertyOp25
 70
     1
102
RTVSPropertyOp26
 70
     1
102
RTVSPropertyOp27
 70
     1
102
RTVSPropertyOp28
 70
     1
102
RTVSPropertyOp29
 70
     1
102
RTVSPropertyOp30
 70
     1
102
RTVSPropertyOp31
 70
     1
102
RTVSPropertyOp32
 70
     1
  0
XRECORD
  5
21B
102
{ACAD_REACTORS
330
21A
102
}
330
21A
100
AcDbXrecord
280
     1
102
RTVSPropertyOp0
 70
     1
102
RTVSPropertyOp1
 70
     1
102
RTVSPropertyOp2
 70
     1
102
RTVSPropertyOp3
 70
     1
102
RTVSPropertyOp4
 70
     1
102
RTVSPropertyOp5
 70
     1
102
RTVSPropertyOp6
 70
     1
102
RTVSPropertyOp7
 70
     1
102
RTVSPropertyOp8
 70
     1
102
RTVSPropertyOp9
 70
     1
102
RTVSPropertyOp10
 70
     1
102
RTVSPropertyOp11
 70
     1
102
RTVSPropertyOp12
 70
     1
102
RTVSPropertyOp13
 70
     1
102
RTVSPropertyOp14
 70
     1
102
RTVSPropertyOp15
 70
     1
102
RTVSPropertyOp16
 70
     1
102
RTVSPropertyOp17
 70
     1
102
RTVSPropertyOp18
 70
     1
102
RTVSPropertyOp19
 70
     1
102
RTVSPropertyOp20
 70
     1
102
RTVSPropertyOp21
 70
     1
102
RTVSPropertyOp22
 70
     1
102
RTVSPropertyOp23
 70
     1
102
RTVSPropertyOp24
 70
     1
102
RTVSPropertyOp25
 70
     1
102
RTVSPropertyOp26
 70
     1
102
RTVSPropertyOp27
 70
     1
102
RTVSPropertyOp28
 70
     1
102
RTVSPropertyOp29
 70
     1
102
RTVSPropertyOp30
 70
     1
102
RTVSPropertyOp31
 70
     1
102
RTVSPropertyOp32
 70
     1
  0
XRECORD
  5
21D
102
{ACAD_REACTORS
330
21C
102
}
330
21C
100
AcDbXrecord
280
     1
102
RTVSPropertyOp0
 70
     1
102
RTVSPropertyOp1
 70
     1
102
RTVSPropertyOp2
 70
     1
102
RTVSPropertyOp3
 70
     1
102
RTVSPropertyOp4
 70
     1
102
RTVSPropertyOp5
 70
     1
102
RTVSPropertyOp6
 70
     1
102
RTVSPropertyOp7
 70
     1
102
RTVSPropertyOp8
 70
     1
102
RTVSPropertyOp9
 70
     1
102
RTVSPropertyOp10
 70
     1
102
RTVSPropertyOp11
 70
     1
102
RTVSPropertyOp12
 70
     1
102
RTVSPropertyOp13
 70
     1
102
RTVSPropertyOp14
 70
     1
102
RTVSPropertyOp15
 70
     1
102
RTVSPropertyOp16
 70
     1
102
RTVSPropertyOp17
 70
     1
102
RTVSPropertyOp18
 70
     1
102
RTVSPropertyOp19
 70
     1
102
RTVSPropertyOp20
 70
     1
102
RTVSPropertyOp21
 70
     1
102
RTVSPropertyOp22
 70
     1
102
RTVSPropertyOp23
 70
     1
102
RTVSPropertyOp24
 70
     1
102
RTVSPropertyOp25
 70
     1
102
RTVSPropertyOp26
 70
     1
102
RTVSPropertyOp27
 70
     1
102
RTVSPropertyOp28
 70
     1
102
RTVSPropertyOp29
 70
     1
102
RTVSPropertyOp30
 70
     1
102
RTVSPropertyOp31
 70
     1
102
RTVSPropertyOp32
 70
     1
  0
XRECORD
  5
213
102
{ACAD_REACTORS
330
212
102
}
330
212
100
AcDbXrecord
280
     1
102
RTVSPropertyOp0
 70
     1
102
RTVSPropertyOp1
 70
     1
102
RTVSPropertyOp2
 70
     1
102
RTVSPropertyOp3
 70
     1
102
RTVSPropertyOp4
 70
     1
102
RTVSPropertyOp5
 70
     1
102
RTVSPropertyOp6
 70
     1
102
RTVSPropertyOp7
 70
     1
102
RTVSPropertyOp8
 70
     1
102
RTVSPropertyOp9
 70
     1
102
RTVSPropertyOp10
 70
     1
102
RTVSPropertyOp11
 70
     1
102
RTVSPropertyOp12
 70
     1
102
RTVSPropertyOp13
 70
     1
102
RTVSPropertyOp14
 70
     1
102
RTVSPropertyOp15
 70
     1
102
RTVSPropertyOp16
 70
     1
102
RTVSPropertyOp17
 70
     1
102
RTVSPropertyOp18
 70
     1
102
RTVSPropertyOp19
 70
     1
102
RTVSPropertyOp20
 70
     1
102
RTVSPropertyOp21
 70
     1
102
RTVSPropertyOp22
 70
     1
102
RTVSPropertyOp23
 70
     1
102
RTVSPropertyOp24
 70
     1
102
RTVSPropertyOp25
 70
     1
102
RTVSPropertyOp26
 70
     1
102
RTVSPropertyOp27
 70
     1
102
RTVSPropertyOp28
 70
     1
102
RTVSPropertyOp29
 70
     1
102
RTVSPropertyOp30
 70
     1
102
RTVSPropertyOp31
 70
     1
102
RTVSPropertyOp32
 70
     1
  0
XRECORD
  5
1FF
102
{ACAD_REACTORS
330
1FE
102
}
330
1FE
100
AcDbXrecord
280
     1
102
RTVSPropertyOp0
 70
     1
102
RTVSPropertyOp1
 70
     1
102
RTVSPropertyOp2
 70
     1
102
RTVSPropertyOp3
 70
     1
102
RTVSPropertyOp4
 70
     1
102
RTVSPropertyOp5
 70
     1
102
RTVSPropertyOp6
 70
     1
102
RTVSPropertyOp7
 70
     1
102
RTVSPropertyOp8
 70
     1
102
RTVSPropertyOp9
 70
     1
102
RTVSPropertyOp10
 70
     1
102
RTVSPropertyOp11
 70
     1
102
RTVSPropertyOp12
 70
     1
102
RTVSPropertyOp13
 70
     1
102
RTVSPropertyOp14
 70
     1
102
RTVSPropertyOp15
 70
     1
102
RTVSPropertyOp16
 70
     1
102
RTVSPropertyOp17
 70
     1
102
RTVSPropertyOp18
 70
     1
102
RTVSPropertyOp19
 70
     1
102
RTVSPropertyOp20
 70
     1
102
RTVSPropertyOp21
 70
     1
102
RTVSPropertyOp22
 70
     1
102
RTVSPropertyOp23
 70
     1
102
RTVSPropertyOp24
 70
     1
102
RTVSPropertyOp25
 70
     1
102
RTVSPropertyOp26
 70
     1
102
RTVSPropertyOp27
 70
     1
102
RTVSPropertyOp28
 70
     1
102
RTVSPropertyOp29
 70
     1
102
RTVSPropertyOp30
 70
     1
102
RTVSPropertyOp31
 70
     1
102
RTVSPropertyOp32
 70
     1
  0
XRECORD
  5
21F
102
{ACAD_REACTORS
330
21E
102
}
330
21E
100
AcDbXrecord
280
     1
102
RTVSPropertyOp0
 70
     1
102
RTVSPropertyOp1
 70
     1
102
RTVSPropertyOp2
 70
     1
102
RTVSPropertyOp3
 70
     1
102
RTVSPropertyOp4
 70
     1
102
RTVSPropertyOp5
 70
     1
102
RTVSPropertyOp6
 70
     1
102
RTVSPropertyOp7
 70
     1
102
RTVSPropertyOp8
 70
     1
102
RTVSPropertyOp9
 70
     1
102
RTVSPropertyOp10
 70
     1
102
RTVSPropertyOp11
 70
     1
102
RTVSPropertyOp12
 70
     1
102
RTVSPropertyOp13
 70
     1
102
RTVSPropertyOp14
 70
     1
102
RTVSPropertyOp15
 70
     1
102
RTVSPropertyOp16
 70
     1
102
RTVSPropertyOp17
 70
     1
102
RTVSPropertyOp18
 70
     1
102
RTVSPropertyOp19
 70
     1
102
RTVSPropertyOp20
 70
     1
102
RTVSPropertyOp21
 70
     1
102
RTVSPropertyOp22
 70
     1
102
RTVSPropertyOp23
 70
     1
102
RTVSPropertyOp24
 70
     1
102
RTVSPropertyOp25
 70
     1
102
RTVSPropertyOp26
 70
     1
102
RTVSPropertyOp27
 70
     1
102
RTVSPropertyOp28
 70
     1
102
RTVSPropertyOp29
 70
     1
102
RTVSPropertyOp30
 70
     1
102
RTVSPropertyOp31
 70
     1
102
RTVSPropertyOp32
 70
     1
  0
ENDSEC
  0
EOF
