  0
SECTION
  2
HEADER
  9
$ACADVER
  1
AC1015
  9
$ACADMAINTVER
 70
    20
  9
$DWGCODEPAGE
  3
ANSI_932
  9
$INSBASE
 10
0.0
 20
372.4992141396417
 30
0.0
  9
$EXTMIN
 10
-61.78429073820689
 20
-146.8900377972213
 30
-0.0015258207003583
  9
$EXTMAX
 10
63.32485686862765
 20
91.95597511595224
 30
0.0000000349246037
  9
$LIMMIN
 10
-1101.784450318844
 20
-1579.160531687244
  9
$LIMMAX
 10
-508.2420711400536
 20
-1161.440814074914
  9
$ORTHOMODE
 70
     1
  9
$REGENMODE
 70
     1
  9
$FILLMODE
 70
     1
  9
$QTEXTMODE
 70
     0
  9
$MIRRTEXT
 70
     1
  9
$LTSCALE
 40
1.0
  9
$ATTMODE
 70
     1
  9
$TEXTSIZE
 40
3.0
  9
$TRACEWID
 40
0.5
  9
$TEXTSTYLE
  7
STANDARD
  9
$CLAYER
  8
GAIKEI
  9
$CELTYPE
  6
BYLAYER
  9
$CECOLOR
 62
   256
  9
$CELTSCALE
 40
1.0
  9
$DISPSILH
 70
     0
  9
$DIMSCALE
 40
1.0
  9
$DIMASZ
 40
2.0
  9
$DIMEXO
 40
2.0
  9
$DIMDLI
 40
8.0
  9
$DIMRND
 40
0.0
  9
$DIMDLE
 40
0.0
  9
$DIMEXE
 40
2.0
  9
$DIMTP
 40
0.0
  9
$DIMTM
 40
0.0
  9
$DIMTXT
 40
2.5
  9
$DIMCEN
 40
0.0
  9
$DIMTSZ
 40
0.0
  9
$DIMTOL
 70
     0
  9
$DIMLIM
 70
     0
  9
$DIMTIH
 70
     0
  9
$DIMTOH
 70
     0
  9
$DIMSE1
 70
     0
  9
$DIMSE2
 70
     0
  9
$DIMTAD
 70
     3
  9
$DIMZIN
 70
     0
  9
$DIMBLK
  1

  9
$DIMASO
 70
     1
  9
$DIMSHO
 70
     1
  9
$DIMPOST
  1

  9
$DIMAPOST
  1

  9
$DIMALT
 70
     0
  9
$DIMALTD
 70
     2
  9
$DIMALTF
 40
25.4
  9
$DIMLFAC
 40
1.0
  9
$DIMTOFL
 70
     1
  9
$DIMTVP
 40
0.0
  9
$DIMTIX
 70
     0
  9
$DIMSOXD
 70
     0
  9
$DIMSAH
 70
     1
  9
$DIMBLK1
  1
OPEN30
  9
$DIMBLK2
  1
OPEN30
  9
$DIMSTYLE
  2
STANDARD
  9
$DIMCLRD
 70
     0
  9
$DIMCLRE
 70
     0
  9
$DIMCLRT
 70
     0
  9
$DIMTFAC
 40
1.0
  9
$DIMGAP
 40
0.5
  9
$DIMJUST
 70
     0
  9
$DIMSD1
 70
     0
  9
$DIMSD2
 70
     0
  9
$DIMTOLJ
 70
     1
  9
$DIMTZIN
 70
     0
  9
$DIMALTZ
 70
     0
  9
$DIMALTTZ
 70
     0
  9
$DIMUPT
 70
     0
  9
$DIMDEC
 70
     4
  9
$DIMTDEC
 70
     4
  9
$DIMALTU
 70
     2
  9
$DIMALTTD
 70
     2
  9
$DIMTXSTY
  7
STANDARD
  9
$DIMAUNIT
 70
     0
  9
$DIMADEC
 70
     0
  9
$DIMALTRND
 40
0.0
  9
$DIMAZIN
 70
     0
  9
$DIMDSEP
 70
    46
  9
$DIMATFIT
 70
     3
  9
$DIMFRAC
 70
     0
  9
$DIMLDRBLK
  1
OPEN30
  9
$DIMLUNIT
 70
     2
  9
$DIMLWD
 70
    -2
  9
$DIMLWE
 70
    -2
  9
$DIMTMOVE
 70
     0
  9
$LUNITS
 70
     2
  9
$LUPREC
 70
     4
  9
$SKETCHINC
 40
0.1
  9
$FILLETRAD
 40
0.0
  9
$AUNITS
 70
     0
  9
$AUPREC
 70
     0
  9
$MENU
  1
ACAD
  9
$ELEVATION
 40
0.0
  9
$PELEVATION
 40
0.0
  9
$THICKNESS
 40
0.0
  9
$LIMCHECK
 70
     0
  9
$CHAMFERA
 40
0.0
  9
$CHAMFERB
 40
0.0
  9
$CHAMFERC
 40
0.0
  9
$CHAMFERD
 40
0.0
  9
$SKPOLY
 70
     0
  9
$TDCREATE
 40
2451815.565532581
  9
$TDUCREATE
 40
2451815.190532581
  9
$TDUPDATE
 40
2456204.657225475
  9
$TDUUPDATE
 40
2456204.282225475
  9
$TDINDWG
 40
0.7036753819
  9
$TDUSRTIMER
 40
0.7036753819
  9
$USRTIMER
 70
     1
  9
$ANGBASE
 50
0.0
  9
$ANGDIR
 70
     0
  9
$PDMODE
 70
     0
  9
$PDSIZE
 40
0.0
  9
$PLINEWID
 40
0.0
  9
$SPLFRAME
 70
     0
  9
$SPLINETYPE
 70
     6
  9
$SPLINESEGS
 70
     8
  9
$HANDSEED
  5
4B3
  9
$SURFTAB1
 70
     6
  9
$SURFTAB2
 70
     6
  9
$SURFTYPE
 70
     6
  9
$SURFU
 70
     6
  9
$SURFV
 70
     6
  9
$UCSBASE
  2

  9
$UCSNAME
  2

  9
$UCSORG
 10
0.0
 20
0.0
 30
0.0
  9
$UCSXDIR
 10
1.0
 20
0.0
 30
0.0
  9
$UCSYDIR
 10
0.0
 20
1.0
 30
0.0
  9
$UCSORTHOREF
  2

  9
$UCSORTHOVIEW
 70
     0
  9
$UCSORGTOP
 10
0.0
 20
0.0
 30
0.0
  9
$UCSORGBOTTOM
 10
0.0
 20
0.0
 30
0.0
  9
$UCSORGLEFT
 10
0.0
 20
0.0
 30
0.0
  9
$UCSORGRIGHT
 10
0.0
 20
0.0
 30
0.0
  9
$UCSORGFRONT
 10
0.0
 20
0.0
 30
0.0
  9
$UCSORGBACK
 10
0.0
 20
0.0
 30
0.0
  9
$PUCSBASE
  2

  9
$PUCSNAME
  2

  9
$PUCSORG
 10
0.0
 20
0.0
 30
0.0
  9
$PUCSXDIR
 10
1.0
 20
0.0
 30
0.0
  9
$PUCSYDIR
 10
0.0
 20
1.0
 30
0.0
  9
$PUCSORTHOREF
  2

  9
$PUCSORTHOVIEW
 70
     0
  9
$PUCSORGTOP
 10
0.0
 20
0.0
 30
0.0
  9
$PUCSORGBOTTOM
 10
0.0
 20
0.0
 30
0.0
  9
$PUCSORGLEFT
 10
0.0
 20
0.0
 30
0.0
  9
$PUCSORGRIGHT
 10
0.0
 20
0.0
 30
0.0
  9
$PUCSORGFRONT
 10
0.0
 20
0.0
 30
0.0
  9
$PUCSORGBACK
 10
0.0
 20
0.0
 30
0.0
  9
$USERI1
 70
     0
  9
$USERI2
 70
     0
  9
$USERI3
 70
     0
  9
$USERI4
 70
     0
  9
$USERI5
 70
     0
  9
$USERR1
 40
0.0
  9
$USERR2
 40
0.0
  9
$USERR3
 40
0.0
  9
$USERR4
 40
0.0
  9
$USERR5
 40
0.0
  9
$WORLDVIEW
 70
     1
  9
$SHADEDGE
 70
     3
  9
$SHADEDIF
 70
    70
  9
$TILEMODE
 70
     1
  9
$MAXACTVP
 70
    48
  9
$PINSBASE
 10
0.0
 20
0.0
 30
0.0
  9
$PLIMCHECK
 70
     0
  9
$PEXTMIN
 10
1.000000000000000E+20
 20
1.000000000000000E+20
 30
1.000000000000000E+20
  9
$PEXTMAX
 10
-1.000000000000000E+20
 20
-1.000000000000000E+20
 30
-1.000000000000000E+20
  9
$PLIMMIN
 10
0.0
 20
0.0
  9
$PLIMMAX
 10
12.0
 20
9.0
  9
$UNITMODE
 70
     0
  9
$VISRETAIN
 70
     1
  9
$PLINEGEN
 70
     0
  9
$PSLTSCALE
 70
     1
  9
$TREEDEPTH
 70
  3020
  9
$CMLSTYLE
  2
STANDARD
  9
$CMLJUST
 70
     0
  9
$CMLSCALE
 40
1.0
  9
$PROXYGRAPHICS
 70
     1
  9
$MEASUREMENT
 70
     0
  9
$CELWEIGHT
370
    -1
  9
$ENDCAPS
280
     0
  9
$JOINSTYLE
280
     0
  9
$LWDISPLAY
290
     0
  9
$INSUNITS
 70
     0
  9
$HYPERLINKBASE
  1

  9
$STYLESHEET
  1

  9
$XEDIT
290
     1
  9
$CEPSNTYPE
380
     0
  9
$PSTYLEMODE
290
     1
  9
$FINGERPRINTGUID
  2
{1754B7AB-9B3C-11D4-AD9E-00104B1004F2}
  9
$VERSIONGUID
  2
{1CDEEF18-5947-4B34-A4A4-0A1413B3AEE8}
  9
$EXTNAMES
290
     1
  9
$PSVPSCALE
 40
0.0
  9
$OLESTARTUP
290
     0
  0
ENDSEC
  0
SECTION
  2
CLASSES
  0
CLASS
  1
ACDBDICTIONARYWDFLT
  2
AcDbDictionaryWithDefault
  3
ObjectDBX Classes
 90
        0
280
     0
281
     0
  0
CLASS
  1
ACDBPLACEHOLDER
  2
AcDbPlaceHolder
  3
ObjectDBX Classes
 90
        0
280
     0
281
     0
  0
CLASS
  1
LAYOUT
  2
AcDbLayout
  3
ObjectDBX Classes
 90
        0
280
     0
281
     0
  0
CLASS
  1
LONG_TRANSACTION
  2
AcDbLongTransaction
  3
ObjectDBX Classes
 90
    32768
280
     0
281
     0
  0
CLASS
  1
LWPOLYLINE
  2
AcDbPolyline
  3
ObjectDBX Classes
 90
    32768
280
     0
281
     1
  0
CLASS
  1
HATCH
  2
AcDbHatch
  3
ObjectDBX Classes
 90
    32768
280
     0
281
     1
  0
CLASS
  1
XRECORD
  2
AcDbXrecord
  3
ObjectDBX Classes
 90
        0
280
     0
281
     0
  0
CLASS
  1
LONG_TRANSACTION
  2
AcDbLongTransaction
  3
ObjectDBX Classes
 90
    32768
280
     0
281
     0
  0
CLASS
  1
LWPOLYLINE
  2
AcDbPolyline
  3
ObjectDBX Classes
 90
    32768
280
     0
281
     1
  0
CLASS
  1
HATCH
  2
AcDbHatch
  3
ObjectDBX Classes
 90
    32768
280
     0
281
     1
  0
CLASS
  1
XRECORD
  2
AcDbXrecord
  3
ObjectDBX Classes
 90
        0
280
     0
281
     0
  0
CLASS
  1
LONG_TRANSACTION
  2
AcDbLongTransaction
  3
ObjectDBX Classes
 90
    32768
280
     0
281
     0
  0
CLASS
  1
LWPOLYLINE
  2
AcDbPolyline
  3
ObjectDBX Classes
 90
    32768
280
     0
281
     1
  0
CLASS
  1
HATCH
  2
AcDbHatch
  3
ObjectDBX Classes
 90
    32768
280
     0
281
     1
  0
CLASS
  1
XRECORD
  2
AcDbXrecord
  3
ObjectDBX Classes
 90
        0
280
     0
281
     0
  0
CLASS
  1
LONG_TRANSACTION
  2
AcDbLongTransaction
  3
ObjectDBX Classes
 90
    32768
280
     0
281
     0
  0
CLASS
  1
LWPOLYLINE
  2
AcDbPolyline
  3
ObjectDBX Classes
 90
    32768
280
     0
281
     1
  0
CLASS
  1
HATCH
  2
AcDbHatch
  3
ObjectDBX Classes
 90
    32768
280
     0
281
     1
  0
CLASS
  1
XRECORD
  2
AcDbXrecord
  3
ObjectDBX Classes
 90
        0
280
     0
281
     0
  0
CLASS
  1
LONG_TRANSACTION
  2
AcDbLongTransaction
  3
ObjectDBX Classes
 90
    32768
280
     0
281
     0
  0
CLASS
  1
LWPOLYLINE
  2
AcDbPolyline
  3
ObjectDBX Classes
 90
    32768
280
     0
281
     1
  0
CLASS
  1
HATCH
  2
AcDbHatch
  3
ObjectDBX Classes
 90
    32768
280
     0
281
     1
  0
CLASS
  1
XRECORD
  2
AcDbXrecord
  3
ObjectDBX Classes
 90
        0
280
     0
281
     0
  0
CLASS
  1
LONG_TRANSACTION
  2
AcDbLongTransaction
  3
ObjectDBX Classes
 90
    32768
280
     0
281
     0
  0
CLASS
  1
LWPOLYLINE
  2
AcDbPolyline
  3
ObjectDBX Classes
 90
    32768
280
     0
281
     1
  0
CLASS
  1
HATCH
  2
AcDbHatch
  3
ObjectDBX Classes
 90
    32768
280
     0
281
     1
  0
CLASS
  1
XRECORD
  2
AcDbXrecord
  3
ObjectDBX Classes
 90
        0
280
     0
281
     0
  0
CLASS
  1
LONG_TRANSACTION
  2
AcDbLongTransaction
  3
ObjectDBX Classes
 90
    32768
280
     0
281
     0
  0
CLASS
  1
LWPOLYLINE
  2
AcDbPolyline
  3
ObjectDBX Classes
 90
    32768
280
     0
281
     1
  0
CLASS
  1
HATCH
  2
AcDbHatch
  3
ObjectDBX Classes
 90
    32768
280
     0
281
     1
  0
CLASS
  1
XRECORD
  2
AcDbXrecord
  3
ObjectDBX Classes
 90
        0
280
     0
281
     0
  0
CLASS
  1
LONG_TRANSACTION
  2
AcDbLongTransaction
  3
ObjectDBX Classes
 90
    32768
280
     0
281
     0
  0
CLASS
  1
LWPOLYLINE
  2
AcDbPolyline
  3
ObjectDBX Classes
 90
    32768
280
     0
281
     1
  0
CLASS
  1
HATCH
  2
AcDbHatch
  3
ObjectDBX Classes
 90
    32768
280
     0
281
     1
  0
CLASS
  1
XRECORD
  2
AcDbXrecord
  3
ObjectDBX Classes
 90
        0
280
     0
281
     0
  0
CLASS
  1
DICTIONARYVAR
  2
AcDbDictionaryVar
  3
ObjectDBX Classes
 90
        0
280
     0
281
     0
  0
CLASS
  1
LONG_TRANSACTION
  2
AcDbLongTransaction
  3
ObjectDBX Classes
 90
    32768
280
     0
281
     0
  0
CLASS
  1
LWPOLYLINE
  2
AcDbPolyline
  3
ObjectDBX Classes
 90
    32768
280
     0
281
     1
  0
CLASS
  1
HATCH
  2
AcDbHatch
  3
ObjectDBX Classes
 90
    32768
280
     0
281
     1
  0
CLASS
  1
XRECORD
  2
AcDbXrecord
  3
ObjectDBX Classes
 90
        0
280
     0
281
     0
  0
CLASS
  1
LONG_TRANSACTION
  2
AcDbLongTransaction
  3
ObjectDBX Classes
 90
    32768
280
     0
281
     0
  0
CLASS
  1
LWPOLYLINE
  2
AcDbPolyline
  3
ObjectDBX Classes
 90
    32768
280
     0
281
     1
  0
CLASS
  1
HATCH
  2
AcDbHatch
  3
ObjectDBX Classes
 90
    32768
280
     0
281
     1
  0
CLASS
  1
XRECORD
  2
AcDbXrecord
  3
ObjectDBX Classes
 90
        0
280
     0
281
     0
  0
CLASS
  1
LONG_TRANSACTION
  2
AcDbLongTransaction
  3
ObjectDBX Classes
 90
    32768
280
     0
281
     0
  0
CLASS
  1
LWPOLYLINE
  2
AcDbPolyline
  3
ObjectDBX Classes
 90
    32768
280
     0
281
     1
  0
CLASS
  1
HATCH
  2
AcDbHatch
  3
ObjectDBX Classes
 90
    32768
280
     0
281
     1
  0
CLASS
  1
XRECORD
  2
AcDbXrecord
  3
ObjectDBX Classes
 90
        0
280
     0
281
     0
  0
CLASS
  1
LONG_TRANSACTION
  2
AcDbLongTransaction
  3
ObjectDBX Classes
 90
    32768
280
     0
281
     0
  0
CLASS
  1
LWPOLYLINE
  2
AcDbPolyline
  3
ObjectDBX Classes
 90
    32768
280
     0
281
     1
  0
CLASS
  1
HATCH
  2
AcDbHatch
  3
ObjectDBX Classes
 90
    32768
280
     0
281
     1
  0
CLASS
  1
XRECORD
  2
AcDbXrecord
  3
ObjectDBX Classes
 90
        0
280
     0
281
     0
  0
CLASS
  1
TABLESTYLE
  2
AcDbTableStyle
  3
ObjectDBX Classes
 90
     2047
280
     1
281
     0
  0
ENDSEC
  0
SECTION
  2
TABLES
  0
TABLE
  2
VPORT
  5
21
330
0
100
AcDbSymbolTable
 70
     3
  0
VPORT
  5
4AB
330
21
100
AcDbSymbolTableRecord
100
AcDbViewportTableRecord
  2
*Active
 70
     0
 10
0.0
 20
0.0
 11
1.0
 21
1.0
 12
0.7702830652104069
 22
-27.46703134063455
 13
0.0
 23
0.0
 14
1.0
 24
1.0
 15
0.0
 25
0.0
 16
0.0
 26
0.0
 36
1.0
 17
0.0
 27
0.0
 37
0.0
 40
240.6306655625871
 41
2.135910224438902
 42
50.0
 43
0.0
 44
0.0
 50
0.0
 51
0.0
 71
     0
 72
  1000
 73
     1
 74
     0
 75
     0
 76
     1
 77
     0
 78
     0
281
     0
 65
     1
110
0.0
120
0.0
130
0.0
111
1.0
121
0.0
131
0.0
112
0.0
122
1.0
132
0.0
 79
     0
146
0.0
  0
ENDTAB
  0
TABLE
  2
LTYPE
  5
1C
330
0
100
AcDbSymbolTable
 70
     1
  0
LTYPE
  5
1D
330
1C
100
AcDbSymbolTableRecord
100
AcDbLinetypeTableRecord
  2
BYBLOCK
 70
     0
  3

 72
    65
 73
     0
 40
0.0
  0
LTYPE
  5
1E
330
1C
100
AcDbSymbolTableRecord
100
AcDbLinetypeTableRecord
  2
BYLAYER
 70
     0
  3

 72
    65
 73
     0
 40
0.0
  0
LTYPE
  5
A
330
1C
100
AcDbSymbolTableRecord
100
AcDbLinetypeTableRecord
  2
CONTINUOUS
 70
     0
  3
Solid line
 72
    65
 73
     0
 40
0.0
  0
ENDTAB
  0
TABLE
  2
LAYER
  5
14
102
{ACAD_XDICTIONARY
360
15
102
}
330
0
100
AcDbSymbolTable
 70
     8
  0
LAYER
  5
6
330
14
100
AcDbSymbolTableRecord
100
AcDbLayerTableRecord
  2
0
 70
     0
 62
     7
  6
CONTINUOUS
370
    -3
390
7
  0
LAYER
  5
4D
330
14
100
AcDbSymbolTableRecord
100
AcDbLayerTableRecord
  2
DEFPOINTS
 70
     0
 62
     7
  6
CONTINUOUS
290
     0
370
    -3
390
7
  0
LAYER
  5
150
330
14
100
AcDbSymbolTableRecord
100
AcDbLayerTableRecord
  2
WAKU
 70
     0
 62
     4
  6
CONTINUOUS
370
    -3
390
7
  0
LAYER
  5
36
330
14
100
AcDbSymbolTableRecord
100
AcDbLayerTableRecord
  2
MOJI1
 70
     0
 62
     2
  6
CONTINUOUS
370
    -3
390
7
  0
LAYER
  5
33
330
14
100
AcDbSymbolTableRecord
100
AcDbLayerTableRecord
  2
GAIKEI
 70
     0
 62
     7
  6
CONTINUOUS
370
    -3
390
7
  0
LAYER
  5
43
330
14
100
AcDbSymbolTableRecord
100
AcDbLayerTableRecord
  2
SUNPO
 70
     0
 62
     3
  6
CONTINUOUS
370
    -3
390
7
  0
LAYER
  5
38
330
14
100
AcDbSymbolTableRecord
100
AcDbLayerTableRecord
  2
TOUROKU
 70
     0
 62
     1
  6
CONTINUOUS
370
    -3
390
7
  0
LAYER
  5
3B
330
14
100
AcDbSymbolTableRecord
100
AcDbLayerTableRecord
  2
PANEL
 70
     0
 62
     1
  6
CONTINUOUS
370
    -3
390
7
  0
ENDTAB
  0
TABLE
  2
STYLE
  5
19
330
0
100
AcDbSymbolTable
 70
     2
  0
STYLE
  5
1A
330
19
100
AcDbSymbolTableRecord
100
AcDbTextStyleTableRecord
  2
STANDARD
 70
     0
 40
0.0
 41
1.0
 50
0.0
 71
     0
 42
3.0
  3
MONOTXT.shx
  4
BIGFONT.shx
  0
STYLE
  5
155
330
19
100
AcDbSymbolTableRecord
100
AcDbTextStyleTableRecord
  2
KANJI
 70
     0
 40
0.0
 41
1.0
 50
0.0
 71
     0
 42
3.5
  3
MONOTXT
  4
BIGFONT
  0
ENDTAB
  0
TABLE
  2
VIEW
  5
1F
330
0
100
AcDbSymbolTable
 70
     0
  0
ENDTAB
  0
TABLE
  2
UCS
  5
20
330
0
100
AcDbSymbolTable
 70
     0
  0
ENDTAB
  0
TABLE
  2
APPID
  5
23
330
0
100
AcDbSymbolTable
 70
     2
  0
APPID
  5
24
330
23
100
AcDbSymbolTableRecord
100
AcDbRegAppTableRecord
  2
ACAD
 70
     0
  0
APPID
  5
1FD
330
23
100
AcDbSymbolTableRecord
100
AcDbRegAppTableRecord
  2
ACAD_PSEXT
 70
     0
  0
ENDTAB
  0
TABLE
  2
DIMSTYLE
  5
25
330
0
100
AcDbSymbolTable
 70
     1
100
AcDbDimStyleTable
 71
     1
340
26
  0
DIMSTYLE
105
26
102
{ACAD_REACTORS
330
33A
330
33B
102
}
330
25
100
AcDbSymbolTableRecord
100
AcDbDimStyleTableRecord
  2
STANDARD
 70
     0
 40
0.0
 41
2.0
 42
2.0
 43
8.0
 44
2.0
 73
     0
 74
     0
 77
     3
140
3.0
141
0.0
173
     1
279
     2
288
     1
340
1A
341
27
343
27
344
27
  0
ENDTAB
  0
TABLE
  2
BLOCK_RECORD
  5
1
330
0
100
AcDbSymbolTable
 70
     7
  0
BLOCK_RECORD
  5
2
102
{ACAD_XDICTIONARY
360
3
102
}
330
1
100
AcDbSymbolTableRecord
100
AcDbBlockTableRecord
  2
*MODEL_SPACE
340
C
  0
BLOCK_RECORD
  5
E
102
{ACAD_XDICTIONARY
360
F
102
}
330
1
100
AcDbSymbolTableRecord
100
AcDbBlockTableRecord
  2
*PAPER_SPACE
340
13
  0
BLOCK_RECORD
  5
27
330
1
100
AcDbSymbolTableRecord
100
AcDbBlockTableRecord
  2
_OPEN30
340
0
102
{BLKREFS
331
57
331
58
331
49
331
4A
331
1EA
331
1EB
331
1F6
331
1F7
331
49C
331
49D
331
4A5
331
4A6
102
}
  0
BLOCK_RECORD
  5
45D
330
1
100
AcDbSymbolTableRecord
100
AcDbBlockTableRecord
  2
*D5
340
0
  0
BLOCK_RECORD
  5
469
330
1
100
AcDbSymbolTableRecord
100
AcDbBlockTableRecord
  2
*D6
340
0
  0
ENDTAB
  0
ENDSEC
  0
SECTION
  2
BLOCKS
  0
BLOCK
  5
5
330
2
100
AcDbEntity
  8
0
100
AcDbBlockBegin
  2
*MODEL_SPACE
 70
     0
 10
0.0
 20
0.0
 30
0.0
  3
*MODEL_SPACE
  1

  0
ENDBLK
  5
B
330
2
100
AcDbEntity
  8
0
100
AcDbBlockEnd
  0
BLOCK
  5
11
330
E
100
AcDbEntity
 67
     1
  8
0
100
AcDbBlockBegin
  2
*PAPER_SPACE
 70
     0
 10
0.0
 20
0.0
 30
0.0
  3
*PAPER_SPACE
  1

  0
ENDBLK
  5
12
330
E
100
AcDbEntity
 67
     1
  8
0
100
AcDbBlockEnd
  0
BLOCK
  5
28
330
27
100
AcDbEntity
  8
0
100
AcDbBlockBegin
  2
_OPEN30
 70
     0
 10
0.0
 20
0.0
 30
0.0
  3
_OPEN30
  1

  0
LINE
  5
29
330
27
100
AcDbEntity
  8
0
  6
ByBlock
 62
     0
100
AcDbLine
 10
-1.0
 20
0.26794919
 30
0.0
 11
0.0
 21
0.0
 31
0.0
  0
LINE
  5
2A
330
27
100
AcDbEntity
  8
0
  6
ByBlock
 62
     0
100
AcDbLine
 10
0.0
 20
0.0
 30
0.0
 11
-1.0
 21
-0.26794919
 31
0.0
  0
LINE
  5
2B
330
27
100
AcDbEntity
  8
0
  6
ByBlock
 62
     0
100
AcDbLine
 10
0.0
 20
0.0
 30
0.0
 11
-1.0
 21
0.0
 31
0.0
  0
ENDBLK
  5
2C
330
27
100
AcDbEntity
  8
0
100
AcDbBlockEnd
  0
BLOCK
  5
467
330
45D
100
AcDbEntity
  8
0
100
AcDbBlockBegin
  2
*D5
 70
     1
 10
0.0
 20
0.0
 30
0.0
  3
*D5
  1

  0
LINE
  5
4A2
330
45D
100
AcDbEntity
  8
SUNPO
 62
     0
370
    -2
100
AcDbLine
 10
19.42031075234263
 20
43.50048350544176
 30
0.0
 11
19.42031075234263
 21
51.50048350544176
 31
0.0
  0
LINE
  5
4A3
330
45D
100
AcDbEntity
  8
SUNPO
 62
     0
370
    -2
100
AcDbLine
 10
28.22214720694262
 20
43.50048350544176
 30
0.0
 11
28.22214720694262
 21
51.50048350544176
 31
0.0
  0
LINE
  5
4A4
330
45D
100
AcDbEntity
  8
SUNPO
 62
     0
370
    -2
100
AcDbLine
 10
21.42031075234263
 20
49.50048350544176
 30
0.0
 11
26.22214720694262
 21
49.50048350544176
 31
0.0
  0
INSERT
  5
4A5
330
45D
100
AcDbEntity
  8
SUNPO
 62
     0
370
    -2
100
AcDbBlockReference
  2
_OPEN30
 10
19.42031075234263
 20
49.50048350544176
 30
0.0
 41
2.0
 42
2.0
 43
2.0
 50
180.0
  0
INSERT
  5
4A6
330
45D
100
AcDbEntity
  8
SUNPO
 62
     0
370
    -2
100
AcDbBlockReference
  2
_OPEN30
 10
28.22214720694262
 20
49.50048350544176
 30
0.0
 41
2.0
 42
2.0
 43
2.0
  0
MTEXT
  5
4A7
330
45D
100
AcDbEntity
  8
SUNPO
 62
     0
100
AcDbMText
 10
23.82122897964263
 20
51.25048350544176
 30
0.0
 40
2.5
 41
0.0
 71
     5
 72
     1
  1
\A1;44
 73
     1
 44
1.0
1001
ACAD
1000
MTEXTBEGIN
1070
    73
1070
     1
1070
    44
1040
1.0
1070
    74
1070
     0
1000
MTEXTEND
  0
POINT
  5
4A8
330
45D
100
AcDbEntity
  8
DEFPOINTS
 62
     0
100
AcDbPoint
 10
19.42031075234263
 20
41.50048350544176
 30
0.0
  0
POINT
  5
4A9
330
45D
100
AcDbEntity
  8
DEFPOINTS
 62
     0
100
AcDbPoint
 10
28.22214720694262
 20
41.50048350544176
 30
0.0
  0
POINT
  5
4AA
330
45D
100
AcDbEntity
  8
DEFPOINTS
 62
     0
100
AcDbPoint
 10
28.22214720694262
 20
49.50048350544176
 30
0.0
  0
ENDBLK
  5
468
330
45D
100
AcDbEntity
  8
0
100
AcDbBlockEnd
  0
BLOCK
  5
473
330
469
100
AcDbEntity
  8
0
100
AcDbBlockBegin
  2
*D6
 70
     1
 10
0.0
 20
0.0
 30
0.0
  3
*D6
  1

  0
LINE
  5
499
330
469
100
AcDbEntity
  8
SUNPO
 62
     0
370
    -2
100
AcDbLine
 10
-30.77230531470263
 20
43.50048350544176
 30
0.0
 11
-30.77230531470263
 21
51.50048350544176
 31
0.0
  0
LINE
  5
49A
330
469
100
AcDbEntity
  8
SUNPO
 62
     0
370
    -2
100
AcDbLine
 10
-0.8072260841827299
 20
43.50048350544176
 30
0.0
 11
-0.8072260841827294
 21
51.50048350544176
 31
0.0
  0
LINE
  5
49B
330
469
100
AcDbEntity
  8
SUNPO
 62
     0
370
    -2
100
AcDbLine
 10
-28.77230531470264
 20
49.50048350544176
 30
0.0
 11
-2.807226084182729
 21
49.50048350544176
 31
0.0
  0
INSERT
  5
49C
330
469
100
AcDbEntity
  8
SUNPO
 62
     0
370
    -2
100
AcDbBlockReference
  2
_OPEN30
 10
-30.77230531470263
 20
49.50048350544176
 30
0.0
 41
2.0
 42
2.0
 43
2.0
 50
180.0
  0
INSERT
  5
49D
330
469
100
AcDbEntity
  8
SUNPO
 62
     0
370
    -2
100
AcDbBlockReference
  2
_OPEN30
 10
-0.8072260841827297
 20
49.50048350544176
 30
0.0
 41
2.0
 42
2.0
 43
2.0
  0
MTEXT
  5
49E
330
469
100
AcDbEntity
  8
SUNPO
 62
     0
100
AcDbMText
 10
-15.78976569944268
 20
51.25048350544176
 30
0.0
 40
2.5
 41
0.0
 71
     5
 72
     1
  1
\A1;φ150
 73
     1
 44
1.0
1001
ACAD
1000
MTEXTBEGIN
1070
    73
1070
     1
1070
    44
1040
1.0
1070
    74
1070
     0
1000
MTEXTEND
  0
POINT
  5
49F
330
469
100
AcDbEntity
  8
DEFPOINTS
 62
     0
100
AcDbPoint
 10
-30.77230531470263
 20
41.50048350544176
 30
0.0
  0
POINT
  5
4A0
330
469
100
AcDbEntity
  8
DEFPOINTS
 62
     0
100
AcDbPoint
 10
-0.8072260841827301
 20
41.50048350544176
 30
0.0
  0
POINT
  5
4A1
330
469
100
AcDbEntity
  8
DEFPOINTS
 62
     0
100
AcDbPoint
 10
-0.8072260841827297
 20
49.50048350544176
 30
0.0
  0
ENDBLK
  5
474
330
469
100
AcDbEntity
  8
0
100
AcDbBlockEnd
  0
ENDSEC
  0
SECTION
  2
ENTITIES
  0
TEXT
  5
330
330
2
100
AcDbEntity
  8
MOJI1
100
AcDbText
 10
-34.70630631467589
 20
88.21637140114757
 30
0.0
 40
4.0
  1
ネットワークカメラ
100
AcDbText
  0
TEXT
  5
331
330
2
100
AcDbEntity
  8
TOUROKU
100
AcDbText
 10
47.29364371825136
 20
82.21637140114756
 30
0.0
 40
2.0
  1
ＤＧＳＦ４３８
 72
     2
 11
63.29364371825136
 21
82.21637140114756
 31
0.0
100
AcDbText
  0
TEXT
  5
332
330
2
100
AcDbEntity
  8
TOUROKU
100
AcDbText
 10
32.11543410734436
 20
10.71260119241702
 30
0.0
 40
1.5
  1
Ｓ＝１／５
 41
0.7
 72
     2
 11
37.99543410734435
 21
10.71260119241702
 31
0.0
100
AcDbText
  0
LINE
  5
333
330
2
100
AcDbEntity
  8
PANEL
  6
Continuous
 62
     7
100
AcDbLine
 10
20.84245135620262
 20
21.41604726761165
 30
0.0
 11
20.84245135620256
 21
21.20210943451161
 31
0.0
  0
LINE
  5
334
330
2
100
AcDbEntity
  8
PANEL
  6
Continuous
 62
     1
100
AcDbLine
 10
21.22214720694245
 20
19.66993002159046
 30
0.0
 11
21.22214720694251
 21
22.79690749417159
 31
0.0
  0
LINE
  5
335
330
2
100
AcDbEntity
  8
PANEL
  6
Continuous
 62
     1
100
AcDbLine
 10
20.13121675418256
 20
27.92604726761164
 30
0.0
 11
20.13121675418256
 21
24.18604726761163
 31
0.0
  0
LINE
  5
336
330
2
100
AcDbEntity
  8
PANEL
  6
Continuous
 62
     7
100
AcDbLine
 10
20.13121675418251
 20
24.18604726761163
 30
0.0
 11
20.13121675418256
 21
23.7316126930516
 31
0.0
  0
LINE
  5
337
330
2
100
AcDbEntity
  8
PANEL
  6
Continuous
 62
     7
100
AcDbLine
 10
20.1326953969625
 20
24.13908152171877
 30
0.0
 11
20.1326953969625
 21
23.72083748825162
 31
0.0
  0
LINE
  5
338
330
2
100
AcDbEntity
  8
PANEL
  6
Continuous
 62
     1
100
AcDbLine
 10
20.84245135620256
 20
30.69604726761162
 30
0.0
 11
20.84245135620256
 21
21.41604726761159
 31
0.0
  0
LINE
  5
339
330
2
100
AcDbEntity
  8
PANEL
  6
Continuous
 62
     7
100
AcDbLine
 10
21.22214720694251
 20
32.44216451361285
 30
0.0
 11
21.22214720694251
 21
34.25604726761162
 31
0.0
  0
DIMENSION
  5
33A
330
2
100
AcDbEntity
  8
SUNPO
100
AcDbDimension
  2
*D5
 10
28.22214720694262
 20
49.50048350544176
 30
0.0
 11
23.82122897964263
 21
51.25048350544176
 31
0.0
 70
    33
  1
44
 71
     5
 42
8.801836454599992
  3
STANDARD
100
AcDbAlignedDimension
 13
19.42031075234263
 23
41.50048350544176
 33
0.0
 14
28.22214720694262
 24
41.50048350544176
 34
0.0
1001
ACAD
1000
DSTYLE
1002
{
1070
    40
1040
1.0
1070
   140
1040
2.5
1070
   147
1040
0.5
1070
   172
1070
     1
1070
   279
1070
     0
1070
   288
1070
     0
1002
}
  0
DIMENSION
  5
33B
330
2
100
AcDbEntity
  8
SUNPO
100
AcDbDimension
  2
*D6
 10
-0.8072260841827297
 20
49.50048350544176
 30
0.0
 11
-15.78976569944268
 21
51.25048350544176
 31
0.0
 70
    33
  1
φ150
 71
     5
 42
29.96507923051991
  3
STANDARD
100
AcDbAlignedDimension
 13
-30.77230531470263
 23
41.50048350544176
 33
0.0
 14
-0.8072260841827301
 24
41.50048350544176
 34
0.0
1001
ACAD
1000
DSTYLE
1002
{
1070
    40
1040
1.0
1070
   140
1040
2.5
1070
   147
1040
0.5
1070
   172
1070
     1
1070
   279
1070
     0
1070
   288
1070
     0
1002
}
  0
LINE
  5
33C
330
2
100
AcDbEntity
  8
PANEL
  6
Continuous
 62
     1
100
AcDbLine
 10
24.91214720694256
 20
21.61604726761163
 30
0.0
 11
24.91214720694256
 21
21.39604726761161
 31
0.0
  0
LINE
  5
33D
330
2
100
AcDbEntity
  8
PANEL
  6
Continuous
 62
     1
100
AcDbLine
 10
25.12214720694249
 20
21.82604726761161
 30
0.0
 11
25.34214720694251
 21
21.82604726761161
 31
0.0
  0
LINE
  5
33E
330
2
100
AcDbEntity
  8
PANEL
  6
Continuous
 62
     1
100
AcDbLine
 10
24.91214720694256
 20
21.39604726761161
 30
0.0
 11
25.05214720694255
 21
21.39604726761161
 31
0.0
  0
LINE
  5
33F
330
2
100
AcDbEntity
  8
PANEL
  6
Continuous
 62
     1
100
AcDbLine
 10
24.91214720694256
 20
22.11604726761164
 30
0.0
 11
25.05214720694255
 21
22.11604726761164
 31
0.0
  0
LINE
  5
340
330
2
100
AcDbEntity
  8
PANEL
  6
Continuous
 62
     1
100
AcDbLine
 10
24.62214720694249
 20
21.82604726761161
 30
0.0
 11
24.62214720694249
 21
21.68604726761163
 31
0.0
  0
LINE
  5
341
330
2
100
AcDbEntity
  8
PANEL
  6
Continuous
 62
     1
100
AcDbLine
 10
25.34214720694251
 20
21.82604726761161
 30
0.0
 11
25.34214720694251
 21
21.68604726761163
 31
0.0
  0
LINE
  5
342
330
2
100
AcDbEntity
  8
PANEL
  6
Continuous
 62
     1
100
AcDbLine
 10
24.62214720694249
 20
21.68604726761163
 30
0.0
 11
24.84214720694251
 21
21.68604726761163
 31
0.0
  0
LINE
  5
343
330
2
100
AcDbEntity
  8
PANEL
  6
Continuous
 62
     1
100
AcDbLine
 10
24.91214720694256
 20
22.11604726761164
 30
0.0
 11
24.91214720694256
 21
21.89604726761161
 31
0.0
  0
LINE
  5
344
330
2
100
AcDbEntity
  8
PANEL
  6
Continuous
 62
     1
100
AcDbLine
 10
25.05214720694255
 20
22.11604726761164
 30
0.0
 11
25.05214720694255
 21
21.89604726761161
 31
0.0
  0
LINE
  5
345
330
2
100
AcDbEntity
  8
PANEL
  6
Continuous
 62
     1
100
AcDbLine
 10
24.62214720694249
 20
21.82604726761161
 30
0.0
 11
24.84214720694251
 21
21.82604726761161
 31
0.0
  0
LINE
  5
346
330
2
100
AcDbEntity
  8
PANEL
  6
Continuous
 62
     1
100
AcDbLine
 10
25.05214720694255
 20
21.61604726761163
 30
0.0
 11
25.05214720694255
 21
21.39604726761161
 31
0.0
  0
LINE
  5
347
330
2
100
AcDbEntity
  8
PANEL
  6
Continuous
 62
     1
100
AcDbLine
 10
25.12214720694249
 20
21.68604726761163
 30
0.0
 11
25.34214720694251
 21
21.68604726761163
 31
0.0
  0
ARC
  5
348
330
2
100
AcDbEntity
  8
PANEL
  6
Continuous
 62
     1
100
AcDbCircle
 10
24.84214720694251
 20
21.61604726761163
 30
0.0
 40
0.0700000000000046
100
AcDbArc
 50
0.0
 51
90.0
  0
ARC
  5
349
330
2
100
AcDbEntity
  8
PANEL
  6
Continuous
 62
     1
100
AcDbCircle
 10
25.12214720694249
 20
21.61604726761163
 30
0.0
 40
0.0700000000000159
100
AcDbArc
 50
90.0
 51
180.0
  0
ARC
  5
34A
330
2
100
AcDbEntity
  8
PANEL
  6
Continuous
 62
     1
100
AcDbCircle
 10
25.12214720694249
 20
21.89604726761161
 30
0.0
 40
0.0700000000000046
100
AcDbArc
 50
180.0
 51
270.0
  0
ARC
  5
34B
330
2
100
AcDbEntity
  8
PANEL
  6
Continuous
 62
     1
100
AcDbCircle
 10
24.84214720694251
 20
21.89604726761161
 30
0.0
 40
0.0700000000000046
100
AcDbArc
 50
270.0
 51
0.0
  0
CIRCLE
  5
34C
330
2
100
AcDbEntity
  8
PANEL
  6
Continuous
 62
     1
100
AcDbCircle
 10
24.9821472069425
 20
21.75604726761162
 30
0.0
 40
0.6300000000000069
  0
LINE
  5
34D
330
2
100
AcDbEntity
  8
PANEL
  6
Continuous
 62
     1
100
AcDbLine
 10
24.22214720694251
 20
40.24386091355876
 30
0.0
 11
24.22214720694251
 21
40.92334834353557
 31
0.0
  0
LINE
  5
34E
330
2
100
AcDbEntity
  8
PANEL
  6
Continuous
 62
     1
100
AcDbLine
 10
27.22214720694251
 20
40.24386091355876
 30
0.0
 11
24.22214720694251
 21
40.24386091355876
 31
0.0
  0
LINE
  5
34F
330
2
100
AcDbEntity
  8
PANEL
  6
Continuous
 62
     1
100
AcDbLine
 10
27.22214720694251
 20
41.02811065200467
 30
0.0
 11
27.22214720694251
 21
40.24386091355876
 31
0.0
  0
LINE
  5
350
330
2
100
AcDbEntity
  8
PANEL
  6
Continuous
 62
     1
100
AcDbLine
 10
27.32214720694253
 20
40.1438609135588
 30
0.0
 11
27.32214720694253
 21
41.03160272895365
 31
0.0
  0
LINE
  5
351
330
2
100
AcDbEntity
  8
PANEL
  6
Continuous
 62
     1
100
AcDbLine
 10
24.12214720694249
 20
40.1438609135588
 30
0.0
 11
27.32214720694253
 21
40.1438609135588
 31
0.0
  0
LINE
  5
352
330
2
100
AcDbEntity
  8
PANEL
  6
Continuous
 62
     1
100
AcDbLine
 10
24.12214720694249
 20
40.91985626658657
 30
0.0
 11
24.12214720694249
 21
40.1438609135588
 31
0.0
  0
LINE
  5
353
330
2
100
AcDbEntity
  8
PANEL
  6
Continuous
 62
     7
100
AcDbLine
 10
27.52214720694246
 20
41.03858688285163
 30
0.0
 11
28.02214720694247
 21
40.95604726761161
 31
0.0
  0
LINE
  5
354
330
2
100
AcDbEntity
  8
PANEL
  6
Continuous
 62
     7
100
AcDbLine
 10
23.22656321518252
 20
40.88858178445161
 30
0.0
 11
27.52214720694246
 21
41.03858688285163
 31
0.0
  0
LINE
  5
355
330
2
100
AcDbEntity
  8
PANEL
  6
Continuous
 62
     1
100
AcDbLine
 10
28.02214720694247
 20
37.99604726761163
 30
0.0
 11
28.22214720686247
 21
37.99604726761163
 31
0.0
  0
LINE
  5
356
330
2
100
AcDbEntity
  8
PANEL
  6
Continuous
 62
     1
100
AcDbLine
 10
28.22214720686247
 20
33.38604726761162
 30
0.0
 11
28.02214720694247
 21
33.38604726761162
 31
0.0
  0
LINE
  5
357
330
2
100
AcDbEntity
  8
PANEL
  6
Continuous
 62
     1
100
AcDbLine
 10
23.9821472069425
 20
31.51604726761161
 30
0.0
 11
25.9821472069425
 21
31.51604726761161
 31
0.0
  0
LINE
  5
358
330
2
100
AcDbEntity
  8
PANEL
  6
Continuous
 62
     7
100
AcDbLine
 10
20.80773855150255
 20
30.69604726761162
 30
0.0
 11
20.84245135620256
 21
30.69604726761162
 31
0.0
  0
LINE
  5
359
330
2
100
AcDbEntity
  8
PANEL
  6
Continuous
 62
     1
100
AcDbLine
 10
28.22214720694251
 20
37.99597022555162
 30
0.0
 11
28.22214720694251
 21
33.38605368521161
 31
0.0
  0
LINE
  5
35A
330
2
100
AcDbEntity
  8
PANEL
  6
Continuous
 62
     1
100
AcDbLine
 10
28.22214720694251
 20
18.72604084993162
 30
0.0
 11
28.22214720694251
 21
14.11612430293161
 31
0.0
  0
LINE
  5
35B
330
2
100
AcDbEntity
  8
PANEL
  6
Continuous
 62
     1
100
AcDbLine
 10
28.12214720694249
 20
28.06417714951164
 30
0.0
 11
28.12214720694249
 21
29.1259172706516
 31
0.0
  0
LINE
  5
35C
330
2
100
AcDbEntity
  8
PANEL
  6
Continuous
 62
     7
100
AcDbLine
 10
28.02214720694247
 20
40.95604720997164
 30
0.0
 11
28.02214720694247
 21
11.15606629477162
 31
0.0
  0
LINE
  5
35D
330
2
100
AcDbEntity
  8
PANEL
  6
Continuous
 62
     1
100
AcDbLine
 10
27.52214720694246
 20
11.07350765235162
 30
0.0
 11
27.52214720694246
 21
11.19446951413164
 31
0.0
  0
LINE
  5
35E
330
2
100
AcDbEntity
  8
PANEL
  6
Continuous
 62
     1
100
AcDbLine
 10
27.52214720694246
 20
41.03858688285163
 30
0.0
 11
27.52214720694246
 21
11.2359091669316
 31
0.0
  0
LINE
  5
35F
330
2
100
AcDbEntity
  8
PANEL
  6
Continuous
 62
     1
100
AcDbLine
 10
28.02214720694247
 20
29.12604029709161
 30
0.0
 11
28.12214720708255
 21
29.12604029709161
 31
0.0
  0
LINE
  5
360
330
2
100
AcDbEntity
  8
PANEL
  6
Continuous
 62
     1
100
AcDbLine
 10
28.02214720694247
 20
29.11844417357162
 30
0.0
 11
28.12214720678253
 21
29.11844417357162
 31
0.0
  0
LINE
  5
361
330
2
100
AcDbEntity
  8
PANEL
  6
Continuous
 62
     7
100
AcDbLine
 10
19.91731075230257
 20
27.8154222675916
 30
0.0
 11
20.02731075230258
 21
27.8360472676116
 31
0.0
  0
LINE
  5
362
330
2
100
AcDbEntity
  8
PANEL
  6
Continuous
 62
     1
100
AcDbLine
 10
26.62214720694249
 20
11.22615455649162
 30
0.0
 11
26.62214720694249
 21
11.26768299621159
 31
0.0
  0
LINE
  5
363
330
2
100
AcDbEntity
  8
PANEL
  6
Continuous
 62
     1
100
AcDbLine
 10
26.44214720694254
 20
31.05604726761163
 30
0.0
 11
26.44214720694254
 21
21.05604726761163
 31
0.0
  0
LINE
  5
364
330
2
100
AcDbEntity
  8
PANEL
  6
Continuous
 62
     1
100
AcDbLine
 10
26.38214942530249
 20
31.05703321577164
 30
0.0
 11
26.38215722688256
 21
27.11589750251164
 31
0.0
  0
LINE
  5
365
330
2
100
AcDbEntity
  8
PANEL
  6
Continuous
 62
     1
100
AcDbLine
 10
26.38215722688256
 20
24.99619703269161
 30
0.0
 11
26.38214942530249
 21
21.05506131943162
 31
0.0
  0
LINE
  5
366
330
2
100
AcDbEntity
  8
PANEL
  6
Continuous
 62
     7
100
AcDbLine
 10
26.32214720694253
 20
11.1154217399316
 30
0.0
 11
26.32214720694253
 21
11.26600115631163
 31
0.0
  0
LINE
  5
367
330
2
100
AcDbEntity
  8
PANEL
  6
Continuous
 62
     1
100
AcDbLine
 10
26.22216373004255
 20
26.99604726761163
 30
0.0
 11
26.22216373004255
 21
25.11604726761163
 31
0.0
  0
LINE
  5
368
330
2
100
AcDbEntity
  8
PANEL
  6
Continuous
 62
     7
100
AcDbLine
 10
20.1173107523025
 20
27.92604726761164
 30
0.0
 11
20.13121675418256
 21
27.92604726761164
 31
0.0
  0
LINE
  5
369
330
2
100
AcDbEntity
  8
PANEL
  6
Continuous
 62
     7
100
AcDbLine
 10
26.02214720694246
 20
11.2118688911716
 30
0.0
 11
26.02214720694246
 21
11.1258888065916
 31
0.0
  0
LINE
  5
36A
330
2
100
AcDbEntity
  8
PANEL
  6
Continuous
 62
     1
100
AcDbLine
 10
26.2821637300425
 20
27.05604726761163
 30
0.0
 11
26.32219194936249
 21
27.05604726761163
 31
0.0
  0
LINE
  5
36B
330
2
100
AcDbEntity
  8
PANEL
  6
Continuous
 62
     1
100
AcDbLine
 10
24.42214720694256
 20
19.87810096507161
 30
0.0
 11
24.42214720694256
 21
11.18176203777164
 31
0.0
  0
LINE
  5
36C
330
2
100
AcDbEntity
  8
PANEL
  6
Continuous
 62
     1
100
AcDbLine
 10
24.3621472069425
 20
11.20538954109162
 30
0.0
 11
24.3621472069425
 21
20.05101058443159
 31
0.0
  0
LINE
  5
36D
330
2
100
AcDbEntity
  8
PANEL
  6
Continuous
 62
     7
100
AcDbLine
 10
24.16214720694256
 20
11.2029551867916
 30
0.0
 11
24.16214720694256
 21
11.19084143783164
 31
0.0
  0
LINE
  5
36E
330
2
100
AcDbEntity
  8
PANEL
  6
Continuous
 62
     1
100
AcDbLine
 10
24.02214720694246
 20
20.1944759043916
 30
0.0
 11
24.02214720694246
 21
20.24965886695162
 31
0.0
  0
LINE
  5
36F
330
2
100
AcDbEntity
  8
PANEL
  6
Continuous
 62
     1
100
AcDbLine
 10
23.5821449319825
 20
31.05600328667163
 30
0.0
 11
23.5821449319825
 21
21.05609124853163
 31
0.0
  0
LINE
  5
370
330
2
100
AcDbEntity
  8
PANEL
  6
Continuous
 62
     1
100
AcDbLine
 10
23.52214720694246
 20
31.05604726761163
 30
0.0
 11
23.52214720694246
 21
21.05604726761163
 31
0.0
  0
LINE
  5
371
330
2
100
AcDbEntity
  8
PANEL
  6
Continuous
 62
     1
100
AcDbLine
 10
23.22658913984253
 20
20.2053310898516
 30
0.0
 11
23.22658913984253
 21
11.22351184545164
 31
0.0
  0
LINE
  5
372
330
2
100
AcDbEntity
  8
PANEL
  6
Continuous
 62
     1
100
AcDbLine
 10
23.22656321518252
 20
40.88858178445161
 30
0.0
 11
23.22656321518252
 21
20.26051431747163
 31
0.0
  0
LINE
  5
373
330
2
100
AcDbEntity
  8
PANEL
  6
Continuous
 62
     1
100
AcDbLine
 10
23.06515814702255
 20
20.29644564015161
 30
0.0
 11
23.06515814702255
 21
40.79662258271162
 31
0.0
  0
LINE
  5
374
330
2
100
AcDbEntity
  8
PANEL
  6
Continuous
 62
     1
100
AcDbLine
 10
23.06514169286254
 20
20.24128855615163
 30
0.0
 11
23.06514169286254
 21
11.31553719905162
 31
0.0
  0
LINE
  5
375
330
2
100
AcDbEntity
  8
PANEL
  6
Continuous
 62
     1
100
AcDbLine
 10
26.32219194936249
 20
25.05604726761163
 30
0.0
 11
26.2821637300425
 21
25.05604726761163
 31
0.0
  0
LINE
  5
376
330
2
100
AcDbEntity
  8
PANEL
  6
Continuous
 62
     7
100
AcDbLine
 10
20.1173107523025
 20
24.18604726761163
 30
0.0
 11
20.13121675418251
 21
24.18604726761163
 31
0.0
  0
LINE
  5
377
330
2
100
AcDbEntity
  8
PANEL
  6
Continuous
 62
     1
100
AcDbLine
 10
21.99714720694249
 20
21.32820061287163
 30
0.0
 11
21.99714720694249
 21
38.1560472676116
 31
0.0
  0
LINE
  5
378
330
2
100
AcDbEntity
  8
PANEL
  6
Continuous
 62
     1
100
AcDbLine
 10
21.99714720694249
 20
13.95604726761161
 30
0.0
 11
21.99714720694249
 21
21.27302844733163
 31
0.0
  0
LINE
  5
379
330
2
100
AcDbEntity
  8
PANEL
  6
Continuous
 62
     7
100
AcDbLine
 10
19.91731075230257
 20
24.2966722676116
 30
0.0
 11
20.02731075230258
 21
24.2760472676116
 31
0.0
  0
LINE
  5
37A
330
2
100
AcDbEntity
  8
PANEL
  6
Continuous
 62
     1
100
AcDbLine
 10
21.22214720694251
 20
22.85205201399163
 30
0.0
 11
21.22214720694251
 21
32.44216451361285
 31
0.0
  0
LINE
  5
37B
330
2
100
AcDbEntity
  8
PANEL
  6
Continuous
 62
     7
100
AcDbLine
 10
21.22214720694251
 20
17.85604726761159
 30
0.0
 11
21.22214720694251
 21
19.66993002159023
 31
0.0
  0
LINE
  5
37C
330
2
100
AcDbEntity
  8
PANEL
  6
Continuous
 62
     7
100
AcDbLine
 10
20.84245135620256
 20
30.90998510069165
 30
0.0
 11
20.84245135620256
 21
30.69604726761162
 31
0.0
  0
LINE
  5
37D
330
2
100
AcDbEntity
  8
PANEL
  6
Continuous
 62
     7
100
AcDbLine
 10
20.02731075230258
 20
24.2760472676116
 30
0.0
 11
20.1173107523025
 21
24.18604726761163
 31
0.0
  0
LINE
  5
37E
330
2
100
AcDbEntity
  8
PANEL
  6
Continuous
 62
     7
100
AcDbLine
 10
19.87683471748255
 20
24.41604726761159
 30
0.0
 11
19.87942330422254
 21
24.4134586808716
 31
0.0
  0
LINE
  5
37F
330
2
100
AcDbEntity
  8
PANEL
  6
Continuous
 62
     7
100
AcDbLine
 10
20.02731075230258
 20
27.8360472676116
 30
0.0
 11
20.1173107523025
 21
27.92604726761164
 31
0.0
  0
LINE
  5
380
330
2
100
AcDbEntity
  8
PANEL
  6
Continuous
 62
     7
100
AcDbLine
 10
19.87683471748255
 20
27.69604726759161
 30
0.0
 11
19.87942330422254
 21
27.6986358543316
 31
0.0
  0
LINE
  5
381
330
2
100
AcDbEntity
  8
PANEL
  6
Continuous
 62
     7
100
AcDbLine
 10
20.13121675418256
 20
28.3804818421516
 30
0.0
 11
20.13121675418256
 21
27.92604726761164
 31
0.0
  0
LINE
  5
382
330
2
100
AcDbEntity
  8
PANEL
  6
Continuous
 62
     1
100
AcDbLine
 10
19.87942330422254
 20
24.37794182517161
 30
0.0
 11
19.87942330422254
 21
27.73415271003159
 31
0.0
  0
LINE
  5
383
330
2
100
AcDbEntity
  8
PANEL
  6
Continuous
 62
     7
100
AcDbLine
 10
21.22214720694251
 20
17.85604726761159
 30
0.0
 11
21.99714720694249
 21
13.95604726761161
 31
0.0
  0
LINE
  5
384
330
2
100
AcDbEntity
  8
PANEL
  6
Continuous
 62
     7
100
AcDbLine
 10
20.1326953969625
 20
23.72083748825162
 30
0.0
 11
20.76921719430254
 21
21.44527206279162
 31
0.0
  0
LINE
  5
385
330
2
100
AcDbEntity
  8
PANEL
  6
Continuous
 62
     7
100
AcDbLine
 10
19.87942330422254
 20
24.37792216225159
 30
0.0
 11
19.91731075230257
 21
24.2966722676116
 31
0.0
  0
LINE
  5
386
330
2
100
AcDbEntity
  8
PANEL
  6
Continuous
 62
     1
100
AcDbLine
 10
21.34164148106254
 20
21.69264980797164
 30
0.0
 11
21.4047140289025
 21
21.69264980797164
 31
0.0
  0
LINE
  5
387
330
2
100
AcDbEntity
  8
PANEL
  6
Continuous
 62
     1
100
AcDbLine
 10
21.4137030231625
 20
21.49264980797159
 30
0.0
 11
21.42917499600253
 21
21.49264980797159
 31
0.0
  0
LINE
  5
388
330
2
100
AcDbEntity
  8
PANEL
  6
Continuous
 62
     7
100
AcDbLine
 10
20.80773855150255
 20
21.41604726761159
 30
0.0
 11
20.84245135620262
 21
21.41604726761165
 31
0.0
  0
LINE
  5
389
330
2
100
AcDbEntity
  8
PANEL
  6
Continuous
 62
     1
100
AcDbLine
 10
21.34243542976253
 20
21.34623964647159
 30
0.0
 11
21.40392362026251
 21
21.34623964647159
 31
0.0
  0
LINE
  5
38A
330
2
100
AcDbEntity
  8
PANEL
  6
Continuous
 62
     1
100
AcDbLine
 10
21.41449290794253
 20
21.1462396464716
 30
0.0
 11
21.42958538444247
 21
21.1462396464716
 31
0.0
  0
LINE
  5
38B
330
2
100
AcDbEntity
  8
PANEL
  6
Continuous
 62
     7
100
AcDbLine
 10
19.87942330422254
 20
27.73417237295161
 30
0.0
 11
19.91731075230257
 21
27.8154222675916
 31
0.0
  0
LINE
  5
38C
330
2
100
AcDbEntity
  8
PANEL
  6
Continuous
 62
     7
100
AcDbLine
 10
20.1326953969625
 20
28.39125704695164
 30
0.0
 11
20.76921719430254
 21
30.66682247241164
 31
0.0
  0
LINE
  5
38D
330
2
100
AcDbEntity
  8
PANEL
  6
Continuous
 62
     7
100
AcDbLine
 10
21.22214720694251
 20
34.25604726761162
 30
0.0
 11
21.99714720694249
 21
38.1560472676116
 31
0.0
  0
LINE
  5
38E
330
2
100
AcDbEntity
  8
PANEL
  6
Continuous
 62
     1
100
AcDbLine
 10
23.22656321518252
 20
20.26051431747163
 30
0.0
 11
24.02214720694246
 21
20.24965886695162
 31
0.0
  0
LINE
  5
38F
330
2
100
AcDbEntity
  8
PANEL
  6
Continuous
 62
     1
100
AcDbLine
 10
24.02214720694246
 20
20.1944759043916
 30
0.0
 11
23.22658913984253
 21
20.2053310898516
 31
0.0
  0
LINE
  5
390
330
2
100
AcDbEntity
  8
PANEL
  6
Continuous
 62
     1
100
AcDbLine
 10
25.9821472069425
 20
20.59604726761159
 30
0.0
 11
23.9821472069425
 21
20.59604726761159
 31
0.0
  0
LINE
  5
391
330
2
100
AcDbEntity
  8
PANEL
  6
Continuous
 62
     1
100
AcDbLine
 10
28.22214720694251
 20
18.72604726761159
 30
0.0
 11
28.02214720694247
 21
18.72604726761159
 31
0.0
  0
LINE
  5
392
330
2
100
AcDbEntity
  8
PANEL
  6
Continuous
 62
     1
100
AcDbLine
 10
28.22214720694251
 20
14.11604726761163
 30
0.0
 11
28.02214720694247
 21
14.11604726761163
 31
0.0
  0
LINE
  5
393
330
2
100
AcDbEntity
  8
PANEL
  6
Continuous
 62
     7
100
AcDbLine
 10
26.32214720694253
 20
11.11541257573162
 30
0.0
 11
27.52214720694246
 21
11.07350765235162
 31
0.0
  0
LINE
  5
394
330
2
100
AcDbEntity
  8
PANEL
  6
Continuous
 62
     7
100
AcDbLine
 10
24.42214720694256
 20
11.18176203777164
 30
0.0
 11
26.02214720694246
 21
11.1258888065916
 31
0.0
  0
LINE
  5
395
330
2
100
AcDbEntity
  8
PANEL
  6
Continuous
 62
     7
100
AcDbLine
 10
23.22658913984253
 20
11.22351184545164
 30
0.0
 11
24.16214720694256
 21
11.19084143783164
 31
0.0
  0
LINE
  5
396
330
2
100
AcDbEntity
  8
PANEL
  6
Continuous
 62
     7
100
AcDbLine
 10
27.52214720694246
 20
11.07350765235162
 30
0.0
 11
28.02214720694247
 21
11.15604726761159
 31
0.0
  0
LINE
  5
397
330
2
100
AcDbEntity
  8
PANEL
  6
Continuous
 62
     1
100
AcDbLine
 10
-7.794766004622601
 20
21.56104719131162
 30
0.0
 11
-7.794766004622601
 21
21.66879550443161
 31
0.0
  0
LINE
  5
398
330
2
100
AcDbEntity
  8
PANEL
  6
Continuous
 62
     1
100
AcDbLine
 10
-7.85976539428259
 20
21.31346878025164
 30
0.0
 11
-7.85976539428259
 21
21.36104719131163
 31
0.0
  0
LINE
  5
399
330
2
100
AcDbEntity
  8
PANEL
  6
Continuous
 62
     1
100
AcDbLine
 10
-8.044766004622601
 20
21.46899955509161
 30
0.0
 11
-8.044766004622601
 21
21.46104719131159
 31
0.0
  0
LINE
  5
39A
330
2
100
AcDbEntity
  8
PANEL
  6
Continuous
 62
     1
100
AcDbLine
 10
-13.34566070696269
 20
20.01644496267164
 30
0.0
 11
-13.42397647030259
 21
19.93812919933162
 31
0.0
  0
LINE
  5
39B
330
2
100
AcDbEntity
  8
PANEL
  6
Continuous
 62
     7
100
AcDbLine
 10
-13.58976569944263
 20
11.26768299621159
 30
0.0
 11
-13.58976569944263
 21
11.2359091669316
 31
0.0
  0
LINE
  5
39C
330
2
100
AcDbEntity
  8
PANEL
  6
Continuous
 62
     1
100
AcDbLine
 10
-13.88976569944259
 20
11.19446951413164
 30
0.0
 11
-13.88976569944259
 21
11.24440924229162
 31
0.0
  0
LINE
  5
39D
330
2
100
AcDbEntity
  8
PANEL
  6
Continuous
 62
     1
100
AcDbLine
 10
-12.33302396556257
 20
20.52781639459164
 30
0.0
 11
-12.31390181524261
 21
20.49259777485162
 31
0.0
  0
LINE
  5
39E
330
2
100
AcDbEntity
  8
PANEL
  6
Continuous
 62
     1
100
AcDbLine
 10
-7.932139605762586
 20
21.86585488873163
 30
0.0
 11
-7.585729444262597
 21
21.66585488873165
 31
0.0
  0
LINE
  5
39F
330
2
100
AcDbEntity
  8
PANEL
  6
Continuous
 62
     1
100
AcDbLine
 10
-13.0169555053626
 20
20.11087076663159
 30
0.0
 11
-13.05309456362261
 21
20.17743063199163
 31
0.0
  0
LINE
  5
3A0
330
2
100
AcDbEntity
  8
PANEL
  6
Continuous
 62
     1
100
AcDbLine
 10
-7.685729444262619
 20
21.49264980797159
 30
0.0
 11
-8.032139605762608
 21
21.69264980797164
 31
0.0
  0
LINE
  5
3A1
330
2
100
AcDbEntity
  8
PANEL
  6
Continuous
 62
     1
100
AcDbLine
 10
-8.132139605762631
 20
21.51944472723164
 30
0.0
 11
-7.785729444262642
 21
21.3194447272316
 31
0.0
  0
LINE
  5
3A2
330
2
100
AcDbEntity
  8
PANEL
  6
Continuous
 62
     1
100
AcDbLine
 10
-7.885729444262665
 20
21.1462396464716
 30
0.0
 11
-8.232139605762654
 21
21.34623964647159
 31
0.0
  0
LINE
  5
3A3
330
2
100
AcDbEntity
  8
PANEL
  6
Continuous
 62
     1
100
AcDbLine
 10
-9.448963712382578
 20
23.3645365095316
 30
0.0
 11
-2.110771848882677
 21
20.24965886695162
 31
0.0
  0
LINE
  5
3A4
330
2
100
AcDbEntity
  8
PANEL
  6
Continuous
 62
     1
100
AcDbLine
 10
-9.47240758010264
 20
23.30930621831163
 30
0.0
 11
-2.134327215922667
 21
20.1944759043916
 31
0.0
  0
LINE
  5
3A5
330
2
100
AcDbEntity
  8
PANEL
  6
Continuous
 62
     1
100
AcDbLine
 10
-29.45273302935579
 20
20.19128009871105
 30
0.0
 11
-22.10712381880262
 21
23.30930621831163
 31
0.0
  0
LINE
  5
3A6
330
2
100
AcDbEntity
  8
PANEL
  6
Continuous
 62
     1
100
AcDbLine
 10
-29.46875955002258
 20
20.24965886695162
 30
0.0
 11
-22.13056768650267
 21
23.3645365095316
 31
0.0
  0
LINE
  5
3A7
330
2
100
AcDbEntity
  8
PANEL
  6
Continuous
 62
     1
100
AcDbLine
 10
-17.68976569944266
 20
11.19446951413164
 30
0.0
 11
-17.68976569944266
 21
11.24440938127162
 31
0.0
  0
LINE
  5
3A8
330
2
100
AcDbEntity
  8
PANEL
  6
Continuous
 62
     7
100
AcDbLine
 10
-17.98976569944261
 20
11.2359091669316
 30
0.0
 11
-17.98976569944261
 21
11.26768299621159
 31
0.0
  0
LINE
  5
3A9
330
2
100
AcDbEntity
  8
PANEL
  6
Continuous
 62
     1
100
AcDbLine
 10
-7.717918393942682
 20
21.56104719131162
 30
0.0
 11
-7.794766004622601
 21
21.56104719131162
 31
0.0
  0
LINE
  5
3AA
330
2
100
AcDbEntity
  8
PANEL
  6
Continuous
 62
     1
100
AcDbLine
 10
-7.85976539428259
 20
21.36104719131163
 30
0.0
 11
-8.046354846102644
 21
21.36104719131163
 31
0.0
  0
ARC
  5
3AB
330
2
100
AcDbEntity
  8
PANEL
  6
Continuous
 62
     7
100
AcDbCircle
 10
14.28114891140251
 20
18.76298864459164
 30
0.0
 40
7.000000000000075
100
AcDbArc
 50
7.250063984299863
 51
20.39228438909997
  0
ARC
  5
3AC
330
2
100
AcDbEntity
  8
PANEL
  6
Continuous
 62
     7
100
AcDbCircle
 10
14.28114891140251
 20
33.34910589061161
 30
0.0
 40
7.000000000000111
100
AcDbArc
 50
339.6077156109
 51
352.5556563917402
  0
ARC
  5
3AD
330
2
100
AcDbEntity
  8
PANEL
  6
Continuous
 62
     7
100
AcDbCircle
 10
23.23354311452249
 20
40.68870361905164
 30
0.0
 40
0.1999999999999772
100
AcDbArc
 50
91.99999999997105
 51
147.343939368327
  0
ARC
  5
3AE
330
2
100
AcDbEntity
  8
PANEL
  6
Continuous
 62
     7
100
AcDbCircle
 10
20.80773855150255
 20
21.45604726761161
 30
0.0
 40
0.0400000000000265
100
AcDbArc
 50
195.6273837136816
 51
270.0
  0
ARC
  5
3AF
330
2
100
AcDbEntity
  8
PANEL
  6
Continuous
 62
     7
100
AcDbCircle
 10
20.80773855150255
 20
30.6560472676116
 30
0.0
 40
0.0399999999999977
100
AcDbArc
 50
90.0
 51
164.3726162752763
  0
ARC
  5
3B0
330
2
100
AcDbEntity
  8
PANEL
  6
Continuous
 62
     1
100
AcDbCircle
 10
25.9821472069425
 20
21.05604726761163
 30
0.0
 40
0.4600000000000022
100
AcDbArc
 50
270.0
 51
0.0
  0
ARC
  5
3B1
330
2
100
AcDbEntity
  8
PANEL
  6
Continuous
 62
     1
100
AcDbCircle
 10
23.9821472069425
 20
21.05604726761163
 30
0.0
 40
0.459999999999991
100
AcDbArc
 50
180.0
 51
270.0
  0
ARC
  5
3B2
330
2
100
AcDbEntity
  8
PANEL
  6
Continuous
 62
     1
100
AcDbCircle
 10
23.9821472069425
 20
31.05604726761163
 30
0.0
 40
0.4600000000000022
100
AcDbArc
 50
90.0
 51
180.0
  0
ARC
  5
3B3
330
2
100
AcDbEntity
  8
PANEL
  6
Continuous
 62
     1
100
AcDbCircle
 10
25.9821472069425
 20
31.05604726761163
 30
0.0
 40
0.4600000000000022
100
AcDbArc
 50
0.0
 51
90.0
  0
ARC
  5
3B4
330
2
100
AcDbEntity
  8
PANEL
  6
Continuous
 62
     7
100
AcDbCircle
 10
23.2335690391825
 20
11.42339001085162
 30
0.0
 40
0.2000000000000696
100
AcDbArc
 50
212.6335541949147
 51
267.9999999999703
  0
ARC
  5
3B5
330
2
100
AcDbEntity
  8
PANEL
  6
Continuous
 62
     1
100
AcDbCircle
 10
26.2821637300425
 20
26.99604726761163
 30
0.0
 40
0.0600000000000023
100
AcDbArc
 50
90.0
 51
180.0
  0
ARC
  5
3B6
330
2
100
AcDbEntity
  8
PANEL
  6
Continuous
 62
     1
100
AcDbCircle
 10
26.2821637300425
 20
25.11604726761163
 30
0.0
 40
0.0600000000000023
100
AcDbArc
 50
180.0
 51
270.0
  0
ARC
  5
3B7
330
2
100
AcDbEntity
  8
PANEL
  6
Continuous
 62
     7
100
AcDbCircle
 10
22.5943107523425
 20
26.05604726761163
 30
0.0
 40
3.173999999999962
100
AcDbArc
 50
148.8889690939002
 51
211.1110309060998
  0
ARC
  5
3B8
330
2
100
AcDbEntity
  8
PANEL
  6
Continuous
 62
     1
100
AcDbCircle
 10
-15.78976569944268
 20
26.05604726761163
 30
0.0
 40
14.74057531509994
100
AcDbArc
 50
336.9999999999995
 51
203.0000000000006
  0
ARC
  5
3B9
330
2
100
AcDbEntity
  8
PANEL
  6
Continuous
 62
     1
100
AcDbCircle
 10
-15.78976569944268
 20
26.05604726761163
 30
0.0
 40
12.09999999999998
100
AcDbArc
 50
337.0000000000031
 51
203.0000000000006
  0
ARC
  5
3BA
330
2
100
AcDbEntity
  8
PANEL
  6
Continuous
 62
     1
100
AcDbCircle
 10
-15.78976569944268
 20
26.05604726761163
 30
0.0
 40
8.199999999999976
100
AcDbArc
 50
336.9999999999995
 51
203.0000000000006
  0
ARC
  5
3BB
330
2
100
AcDbEntity
  8
PANEL
  6
Continuous
 62
     1
100
AcDbCircle
 10
-15.78976569944268
 20
26.05604726761163
 30
0.0
 40
14.98253961525995
100
AcDbArc
 50
262.7144596442976
 51
277.2855403557024
  0
ARC
  5
3BC
330
2
100
AcDbEntity
  8
PANEL
  6
Continuous
 62
     7
100
AcDbCircle
 10
-15.78976569944268
 20
26.05604726761163
 30
0.0
 40
14.98253961525995
100
AcDbArc
 50
278.4437044364994
 51
261.5562955635006
  0
ARC
  5
3BD
330
2
100
AcDbEntity
  8
PANEL
  6
Continuous
 62
     7
100
AcDbCircle
 10
-15.78976569944268
 20
26.05604726761163
 30
0.0
 40
14.93015846102007
100
AcDbArc
 50
263.8480472001979
 51
276.1519527998021
  0
ARC
  5
3BE
330
2
100
AcDbEntity
  8
PANEL
  6
Continuous
 62
     1
100
AcDbCircle
 10
-21.9742752351226
 20
22.9963345681316
 30
0.0
 40
0.3999999999999213
100
AcDbArc
 50
26.32335767400594
 51
113.0000000000071
  0
ARC
  5
3BF
330
2
100
AcDbEntity
  8
PANEL
  6
Continuous
 62
     1
100
AcDbCircle
 10
-9.605256163782655
 20
22.9963345681316
 30
0.0
 40
0.4000000000000722
100
AcDbArc
 50
66.99999999998557
 51
153.676642325994
  0
ARC
  5
3C0
330
2
100
AcDbEntity
  8
PANEL
  6
Continuous
 62
     1
100
AcDbCircle
 10
-13.20423935072256
 20
19.87502360643162
 30
0.0
 40
0.2000000000000366
100
AcDbArc
 50
112.6995908858644
 51
135.0
  0
ARC
  5
3C1
330
2
100
AcDbEntity
  8
PANEL
  6
Continuous
 62
     1
100
AcDbCircle
 10
-15.78976569944268
 20
26.05604726761163
 30
0.0
 40
6.499999999999897
100
AcDbArc
 50
206.3233576739987
 51
333.6766423260014
  0
ARC
  5
3C2
330
2
100
AcDbEntity
  8
PANEL
  6
Continuous
 62
     1
100
AcDbCircle
 10
-15.78976569944268
 20
26.05604726761163
 30
0.0
 40
8.199999999999926
100
AcDbArc
 50
203.4192411520995
 51
336.5807588479005
  0
ARC
  5
3C3
330
2
100
AcDbEntity
  8
PANEL
  6
Continuous
 62
     1
100
AcDbCircle
 10
-15.78976569944268
 20
26.05604726761163
 30
0.0
 40
14.74051006854002
100
AcDbArc
 50
203.2332182705003
 51
336.7667817294998
  0
ARC
  5
3C4
330
2
100
AcDbEntity
  8
PANEL
  6
Continuous
 62
     1
100
AcDbCircle
 10
-15.78976569944268
 20
26.05604726761163
 30
0.0
 40
12.09999999999999
100
AcDbArc
 50
203.2841124676997
 51
336.7158875323004
  0
ARC
  5
3C5
330
2
100
AcDbEntity
  8
PANEL
  6
Continuous
 62
     1
100
AcDbCircle
 10
-21.9742752351226
 20
22.9963345681316
 30
0.0
 40
0.3399999999999146
100
AcDbArc
 50
26.32335767401322
 51
113.0000000000071
  0
ARC
  5
3C6
330
2
100
AcDbEntity
  8
PANEL
  6
Continuous
 62
     1
100
AcDbCircle
 10
-15.78976569944268
 20
26.05604726761163
 30
0.0
 40
6.559999999999878
100
AcDbArc
 50
206.3233576739987
 51
333.6766423260014
  0
ARC
  5
3C7
330
2
100
AcDbEntity
  8
PANEL
  6
Continuous
 62
     1
100
AcDbCircle
 10
-9.605256163782655
 20
22.9963345681316
 30
0.0
 40
0.3400000000000032
100
AcDbArc
 50
66.99999999998557
 51
153.6766423259868
  0
ARC
  5
3C8
330
2
100
AcDbEntity
  8
PANEL
  6
Continuous
 62
     1
100
AcDbCircle
 10
-7.635729444262665
 20
21.57925234835165
 30
0.0
 40
0.0999999999999689
100
AcDbArc
 50
239.9999999999922
 51
59.99999999998492
  0
ARC
  5
3C9
330
2
100
AcDbEntity
  8
PANEL
  6
Continuous
 62
     1
100
AcDbCircle
 10
-7.982139605762654
 20
21.77925234835163
 30
0.0
 40
0.099999999999959
100
AcDbArc
 50
59.99999999998492
 51
239.9999999999922
  0
ARC
  5
3CA
330
2
100
AcDbEntity
  8
PANEL
  6
Continuous
 62
     1
100
AcDbCircle
 10
-7.835729444262597
 20
21.2328421868516
 30
0.0
 40
0.0999999999999689
100
AcDbArc
 50
239.9999999999922
 51
59.99999999998492
  0
ARC
  5
3CB
330
2
100
AcDbEntity
  8
PANEL
  6
Continuous
 62
     1
100
AcDbCircle
 10
-8.182139605762586
 20
21.43284218685165
 30
0.0
 40
0.099999999999959
100
AcDbArc
 50
59.99999999998492
 51
239.9999999999922
  0
ARC
  5
3CC
330
2
100
AcDbEntity
  8
PANEL
  6
Continuous
 62
     1
100
AcDbCircle
 10
-15.78976569944268
 20
26.05604726761163
 30
0.0
 40
6.519999999999978
100
AcDbArc
 50
294.9827127594041
 51
302.0172872405985
  0
ARC
  5
3CD
330
2
100
AcDbEntity
  8
PANEL
  6
Continuous
 62
     1
100
AcDbCircle
 10
-30.36492044402269
 20
28.6260402970916
 30
0.0
 40
0.5000000000000084
100
AcDbArc
 50
100.1329061540029
 51
243.6190575889964
  0
ARC
  5
3CE
330
2
100
AcDbEntity
  8
PANEL
  6
Continuous
 62
     1
100
AcDbCircle
 10
-7.908934525002678
 20
21.50604726761162
 30
0.0
 40
0.2000000000000624
100
AcDbArc
 50
180.1901662435835
 51
299.8098337564004
  0
ARC
  5
3CF
330
2
100
AcDbEntity
  8
PANEL
  6
Continuous
 62
     1
100
AcDbCircle
 10
-7.908934525002678
 20
21.50604726761162
 30
0.0
 40
0.2000000000000616
100
AcDbArc
 50
0.1901662435249555
 51
119.8098337565208
  0
CIRCLE
  5
3D0
330
2
100
AcDbEntity
  8
PANEL
  6
Continuous
 62
     1
100
AcDbCircle
 10
-15.78976569944268
 20
26.05604726761163
 30
0.0
 40
2.335209645999998
  0
CIRCLE
  5
3D1
330
2
100
AcDbEntity
  8
PANEL
  6
Continuous
 62
     1
100
AcDbCircle
 10
-15.78976569944268
 20
26.05604726761163
 30
0.0
 40
4.61077492418002
  0
CIRCLE
  5
3D2
330
2
100
AcDbEntity
  8
PANEL
  6
Continuous
 62
     1
100
AcDbCircle
 10
-15.78976569944268
 20
26.05604726761163
 30
0.0
 40
4.853937819000019
  0
CIRCLE
  5
3D3
330
2
100
AcDbEntity
  8
PANEL
  6
Continuous
 62
     1
100
AcDbCircle
 10
-15.78976569944268
 20
26.05604726761163
 30
0.0
 40
1.970683887920017
  0
CIRCLE
  5
3D4
330
2
100
AcDbEntity
  8
PANEL
  6
Continuous
 62
     1
100
AcDbCircle
 10
-15.78976569944268
 20
26.05604726761163
 30
0.0
 40
1.64000000000002
  0
SPLINE
  5
3D5
330
2
100
AcDbEntity
  8
PANEL
  6
Continuous
 62
     1
100
AcDbSpline
210
0.0
220
0.0
230
1.0
 70
     8
 71
     3
 72
    11
 73
     7
 74
     5
 42
0.0000000001
 43
0.0000000001
 44
0.00000001
 40
0.0
 40
0.0
 40
0.0
 40
0.0
 40
0.0236199723083991
 40
0.0468082678427324
 40
0.0700007296642175
 40
0.0936247773508587
 40
0.0936247773508587
 40
0.0936247773508587
 40
0.0936247773508587
 10
24.85214720694262
 20
20.6560472676116
 30
0.0
 10
24.85304406940065
 20
20.6481011940408
 30
0.0
 10
24.85482141728818
 20
20.63235427183048
 30
0.0
 10
24.86888298965559
 20
20.61278077585985
 30
0.0
 10
24.88845920492102
 20
20.59872081509116
 30
0.0
 10
24.90420890126813
 20
20.59694390565454
 30
0.0
 10
24.91215634662263
 20
20.59604726761159
 30
0.0
 11
24.85214720694262
 21
20.6560472676116
 31
0.0
 11
24.85677946797455
 21
20.63288597779894
 31
0.0
 11
24.86979525942934
 21
20.61369518836318
 31
0.0
 11
24.88899078724637
 21
20.6006789610392
 31
0.0
 11
24.91215634662263
 21
20.59604726761159
 31
0.0
  0
SPLINE
  5
3D6
330
2
100
AcDbEntity
  8
PANEL
  6
Continuous
 62
     1
100
AcDbSpline
210
0.0
220
0.0
230
1.0
 70
     8
 71
     3
 72
    11
 73
     7
 74
     5
 42
0.0000000001
 43
0.0000000001
 44
0.00000001
 40
0.0
 40
0.0
 40
0.0
 40
0.0
 40
0.0236240480577485
 40
0.0468165095114653
 40
0.0700048046862438
 40
0.0936247773653779
 40
0.0936247773653779
 40
0.0936247773653779
 40
0.0936247773653779
 10
25.0521380672626
 20
20.59604726761159
 30
0.0
 10
25.06008551272515
 20
20.59694390571815
 30
0.0
 10
25.07583520903998
 20
20.59872081525282
 30
0.0
 10
25.09541142438377
 20
20.6127807757012
 30
0.0
 10
25.10947299640782
 20
20.63235427175852
 30
0.0
 10
25.11125034441187
 20
20.64810119393502
 30
0.0
 10
25.11214720694261
 20
20.6560472676116
 30
0.0
 11
25.0521380672626
 21
20.59604726761159
 31
0.0
 11
25.07530362698048
 21
20.60067896122337
 31
0.0
 11
25.09449915454786
 21
20.61369518826024
 31
0.0
 11
25.10751494570798
 21
20.6328859774614
 31
0.0
 11
25.11214720694261
 21
20.6560472676116
 31
0.0
  0
SPLINE
  5
3D7
330
2
100
AcDbEntity
  8
PANEL
  6
Continuous
 62
     1
100
AcDbSpline
210
0.0
220
0.0
230
1.0
 70
    24
 71
     3
 72
     9
 73
     5
 74
     3
 42
0.0000000001
 43
0.0000000001
 44
0.00000001
 40
0.0
 40
0.0
 40
0.0
 40
0.0
 40
0.0034015195577289
 40
0.0068030391154298
 40
0.0068030391154298
 40
0.0068030391154298
 40
0.0068030391154298
 10
27.52885794842257
 20
11.19558633551162
 30
0.0
 10
27.52773949150924
 20
11.19540019861489
 30
0.0
 10
27.52550257768263
 20
11.19502792482149
 30
0.0
 10
27.52326566385591
 20
11.19465565102831
 30
0.0
 10
27.52214720694258
 20
11.19446951413164
 30
0.0
 11
27.52885794842257
 21
11.19558633551162
 31
0.0
 11
27.52550257768258
 21
11.1950279248216
 31
0.0
 11
27.52214720694258
 21
11.19446951413164
 31
0.0
  0
SPLINE
  5
3D8
330
2
100
AcDbEntity
  8
PANEL
  6
Continuous
 62
     1
100
AcDbSpline
210
0.0
220
0.0
230
1.0
 70
     8
 71
     3
 72
    11
 73
     7
 74
     5
 42
0.0000000001
 43
0.0000000001
 44
0.00000001
 40
0.0
 40
0.0
 40
0.0
 40
0.0
 40
0.1266412592088864
 40
0.2532825184177645
 40
0.3766784739507958
 40
0.5000744294840835
 40
0.5000744294840835
 40
0.5000744294840835
 40
0.5000744294840835
 10
28.02214720694258
 20
11.27768470607162
 30
0.0
 10
27.98050626674325
 20
11.27075411825046
 30
0.0
 10
27.89722438387895
 20
11.2568929574233
 30
0.0
 10
27.77336855573577
 20
11.2362793770738
 30
0.0
 10
27.65057975145081
 20
11.21584379116484
 30
0.0
 10
27.56943188358517
 20
11.20233881580327
 30
0.0
 10
27.52885794842257
 20
11.19558633551162
 30
0.0
 11
28.02214720694258
 21
11.27768470607162
 31
0.0
 11
27.89722436990542
 21
11.25689304138103
 31
0.0
 11
27.77230145619842
 21
11.23610183735212
 31
0.0
 11
27.65057973843727
 21
11.21584386935944
 31
0.0
 11
27.52885794842257
 21
11.19558633551162
 31
0.0
  0
SPLINE
  5
3D9
330
2
100
AcDbEntity
  8
PANEL
  6
Continuous
 62
     1
100
AcDbSpline
210
0.0
220
0.0
230
1.0
 70
     8
 71
     3
 72
     9
 73
     5
 74
     3
 42
0.0000000001
 43
0.0000000001
 44
0.00000001
 40
0.0
 40
0.0
 40
0.0
 40
0.0
 40
0.4502787863950614
 40
0.9005575727899779
 40
0.9005575727899779
 40
0.9005575727899779
 40
0.9005575727899779
 10
26.6221472069426
 20
11.22615455649162
 30
0.0
 10
26.7721472045476
 20
11.22087364806793
 30
0.0
 10
27.07214720046113
 20
11.21031185120802
 30
0.0
 10
27.37214720454753
 20
11.19975028649452
 30
0.0
 10
27.52214720694258
 20
11.19446951413164
 30
0.0
 11
26.6221472069426
 21
11.22615455649162
 31
0.0
 11
27.07214720215257
 21
11.21031189925082
 31
0.0
 11
27.52214720694258
 21
11.19446951413164
 31
0.0
  0
SPLINE
  5
3DA
330
2
100
AcDbEntity
  8
PANEL
  6
Continuous
 62
     1
100
AcDbSpline
210
0.0
220
0.0
230
1.0
 70
     8
 71
     3
 72
    13
 73
     9
 74
     7
 42
0.0000000001
 43
0.0000000001
 44
0.00000001
 40
0.0
 40
0.0
 40
0.0
 40
0.0
 40
0.0584930840168511
 40
0.1167366259519227
 40
0.144456430470289
 40
0.1725615906057752
 40
0.1921512229534891
 40
0.2118545309608516
 40
0.2118545309608516
 40
0.2118545309608516
 40
0.2118545309608516
 10
26.52980308436259
 20
11.22754631969161
 30
0.0
 10
26.51030158889003
 20
11.22737438085784
 30
0.0
 10
26.4713817948126
 20
11.22703124942893
 30
0.0
 10
26.42332590805225
 20
11.22380974698848
 30
0.0
 10
26.3854662527977
 20
11.21986421578367
 30
0.0
 10
26.36050861234995
 20
11.21798387338668
 30
0.0
 10
26.33808771075602
 20
11.21324021270203
 30
0.0
 10
26.32747094407088
 20
11.20530907303123
 30
0.0
 10
26.32214720694264
 20
11.2013320232316
 30
0.0
 11
26.52980308436259
 21
11.22754631969161
 31
0.0
 11
26.47132003644492
 21
11.2264630396985
 31
0.0
 11
26.41320182955974
 21
11.22264410876124
 31
0.0
 11
26.38560742174878
 21
11.22001043959426
 31
0.0
 11
26.3576619347026
 21
11.21701883262977
 31
0.0
 11
26.33873562602162
 21
11.21196428533795
 31
0.0
 11
26.32214720694264
 21
11.2013320232316
 31
0.0
  0
SPLINE
  5
3DB
330
2
100
AcDbEntity
  8
PANEL
  6
Continuous
 62
     1
100
AcDbSpline
210
0.0
220
0.0
230
1.0
 70
    24
 71
     3
 72
     9
 73
     5
 74
     3
 42
0.0000000001
 43
0.0000000001
 44
0.00000001
 40
0.0
 40
0.0
 40
0.0
 40
0.0
 40
0.0461773049773305
 40
0.0923546099546627
 40
0.0923546099546627
 40
0.0923546099546627
 40
0.0923546099546627
 10
26.6221472069426
 20
11.22615455649162
 30
0.0
 10
26.60675651984593
 20
11.22638651702493
 30
0.0
 10
26.57597514565262
 20
11.2268504380915
 30
0.0
 10
26.54519377145923
 20
11.22731435915818
 30
0.0
 10
26.52980308436259
 20
11.22754631969161
 30
0.0
 11
26.6221472069426
 21
11.22615455649162
 31
0.0
 11
26.57597514565259
 21
11.22685043809162
 31
0.0
 11
26.52980308436259
 21
11.22754631969161
 31
0.0
  0
SPLINE
  5
3DC
330
2
100
AcDbEntity
  8
PANEL
  6
Continuous
 62
     1
100
AcDbSpline
210
0.0
220
0.0
230
1.0
 70
     8
 71
     3
 72
    11
 73
     7
 74
     5
 42
0.0000000001
 43
0.0000000001
 44
0.00000001
 40
0.0
 40
0.0
 40
0.0
 40
0.0
 40
0.0236199726833703
 40
0.046808267860223
 40
0.0700007293193618
 40
0.0936247773793509
 40
0.0936247773793509
 40
0.0936247773793509
 40
0.0936247773793509
 10
25.11424181474263
 20
20.6560472676116
 30
0.0
 10
25.1133449522126
 20
20.64810119393314
 30
0.0
 10
25.11156760421011
 20
20.6323542717538
 30
0.0
 10
25.09750603217279
 20
20.61278077569847
 30
0.0
 10
25.07792981682178
 20
20.59872081525839
 30
0.0
 10
25.06218012050539
 20
20.59694390571991
 30
0.0
 10
25.05423267504261
 20
20.59604726761159
 30
0.0
 11
25.11424181474263
 21
20.6560472676116
 31
0.0
 11
25.10960955350743
 21
20.63288597745719
 31
0.0
 11
25.09659376233867
 21
20.61369518825939
 31
0.0
 11
25.0773982347622
 21
20.60067896122626
 31
0.0
 11
25.05423267504261
 21
20.59604726761159
 31
0.0
  0
SPLINE
  5
3DD
330
2
100
AcDbEntity
  8
PANEL
  6
Continuous
 62
     1
100
AcDbSpline
210
0.0
220
0.0
230
1.0
 70
     8
 71
     3
 72
    11
 73
     7
 74
     5
 42
0.0000000001
 43
0.0000000001
 44
0.00000001
 40
0.0
 40
0.0
 40
0.0
 40
0.0
 40
0.0236240476949469
 40
0.0468165095191407
 40
0.0700048050552426
 40
0.0936247773609662
 40
0.0936247773609662
 40
0.0936247773609662
 40
0.0936247773609662
 10
24.91006173884262
 20
20.59604726761159
 30
0.0
 10
24.90211429348432
 20
20.59694390565073
 30
0.0
 10
24.8863645971316
 20
20.5987208150795
 30
0.0
 10
24.86678838186691
 20
20.61278077586235
 30
0.0
 10
24.8527268095101
 20
20.63235427183622
 30
0.0
 10
24.85094946160797
 20
20.64810119404325
 30
0.0
 10
24.8500525991426
 20
20.6560472676116
 30
0.0
 11
24.91006173884262
 21
20.59604726761159
 31
0.0
 11
24.88689617945659
 21
20.60067896103266
 31
0.0
 11
24.8677006516416
 21
20.61369518836449
 31
0.0
 11
24.85468486019045
 21
20.63288597780485
 31
0.0
 11
24.8500525991426
 21
20.6560472676116
 31
0.0
  0
SPLINE
  5
3DE
330
2
100
AcDbEntity
  8
PANEL
  6
Continuous
 62
     7
100
AcDbSpline
210
0.0
220
0.0
230
1.0
 70
     8
 71
     3
 72
    11
 73
     7
 74
     5
 42
0.0000000001
 43
0.0000000001
 44
0.00000001
 40
0.0
 40
0.0
 40
0.0
 40
0.0
 40
0.6901089366137171
 40
1.379152751174874
 40
2.122300305238504
 40
2.865682237326564
 40
2.865682237326564
 40
2.865682237326564
 40
2.865682237326564
 10
23.06515814702266
 20
40.79662258271162
 30
0.0
 10
22.94194490731033
 20
40.60204645837631
 30
0.0
 10
22.69570860942758
 20
40.21319451314411
 30
0.0
 10
22.405304693473
 20
39.56609024262491
 30
0.0
 10
22.1646353355606
 20
38.88076968703342
 30
0.0
 10
22.05298244632741
 20
38.39764679966839
 30
0.0
 10
21.9971472069426
 20
38.1560472676116
 30
0.0
 11
23.06515814702266
 21
40.79662258271162
 31
0.0
 11
22.70992080477697
 21
40.20496662182006
 31
0.0
 11
22.42139710003846
 21
39.57923868435847
 31
0.0
 11
22.17785511354612
 21
38.87713072302415
 31
0.0
 11
21.9971472069426
 21
38.1560472676116
 31
0.0
  0
SPLINE
  5
3DF
330
2
100
AcDbEntity
  8
PANEL
  6
Continuous
 62
     1
100
AcDbSpline
210
0.0
220
0.0
230
1.0
 70
     8
 71
     3
 72
     9
 73
     5
 74
     3
 42
0.0000000001
 43
0.0000000001
 44
0.00000001
 40
0.0
 40
0.0
 40
0.0
 40
0.0
 40
0.0931503490596169
 40
0.1870834454585617
 40
0.1870834454585617
 40
0.1870834454585617
 40
0.1870834454585617
 10
24.37157777056257
 20
20.05644261949163
 30
0.0
 10
24.38602421133322
 20
20.02856358209147
 30
0.0
 10
24.41503846856475
 20
19.97257123159232
 30
0.0
 10
24.41977103365872
 20
19.90967876820605
 30
0.0
 10
24.42214720694256
 20
19.87810096507161
 30
0.0
 11
24.37157777056257
 21
20.05644261949163
 31
0.0
 11
24.40889735141548
 21
19.97109487982465
 31
0.0
 11
24.42214720694256
 21
19.87810096507161
 31
0.0
  0
SPLINE
  5
3E0
330
2
100
AcDbEntity
  8
PANEL
  6
Continuous
 62
     1
100
AcDbSpline
210
0.0
220
0.0
230
1.0
 70
     8
 71
     3
 72
    13
 73
     9
 74
     7
 42
0.0000000001
 43
0.0000000001
 44
0.00000001
 40
0.0
 40
0.0
 40
0.0
 40
0.0
 40
0.0937784102758511
 40
0.1869598906720082
 40
0.2480884294854802
 40
0.3092022553768262
 40
0.3627439983396819
 40
0.4161087294793441
 40
0.4161087294793441
 40
0.4161087294793441
 40
0.4161087294793441
 10
24.02214720694258
 20
20.24965886695162
 30
0.0
 10
24.05343994415427
 20
20.24729735069849
 30
0.0
 10
24.11582622838853
 20
20.24258933548157
 30
0.0
 10
24.19444288061783
 20
20.21380230500097
 30
0.0
 10
24.25704912607418
 20
20.17829405051566
 30
0.0
 10
24.30302075371469
 20
20.14161980791385
 30
0.0
 10
24.34202306428853
 20
20.10106176837542
 30
0.0
 10
24.36173708632586
 20
20.07129924534212
 30
0.0
 10
24.37157777056257
 20
20.05644261949163
 30
0.0
 11
24.02214720694258
 21
20.24965886695162
 31
0.0
 11
24.11523523823758
 21
20.23830066788793
 31
0.0
 11
24.2031219155839
 21
20.20733745550876
 31
0.0
 11
24.25616401040338
 21
20.17695267989865
 31
0.0
 11
24.30404350490471
 21
20.13897302843526
 31
0.0
 11
24.34078442746227
 21
20.10002661579966
 31
0.0
 11
24.37157777056257
 21
20.05644261949163
 31
0.0
  0
SPLINE
  5
3E1
330
2
100
AcDbEntity
  8
PANEL
  6
Continuous
 62
     1
100
AcDbSpline
210
0.0
220
0.0
230
1.0
 70
     8
 71
     3
 72
    11
 73
     7
 74
     5
 42
0.0000000001
 43
0.0000000001
 44
0.00000001
 40
0.0
 40
0.0
 40
0.0
 40
0.0
 40
0.1266447009653162
 40
0.2532894019301414
 40
0.380102669671355
 40
0.5069159374128717
 40
0.5069159374128717
 40
0.5069159374128717
 40
0.5069159374128717
 10
28.02214720694258
 20
11.31935835863163
 30
0.0
 10
27.98050831075173
 20
11.31240852890755
 30
0.0
 10
27.8972305159009
 20
11.29850888425386
 30
0.0
 10
27.77225827253824
 20
11.27765093881106
 30
0.0
 10
27.64723051550789
 20
11.25678429073252
 30
0.0
 10
27.56384164395408
 20
11.24286753659976
 30
0.0
 10
27.52214720694258
 20
11.2359091669316
 30
0.0
 11
28.02214720694258
 21
11.31935835863163
 31
0.0
 11
27.89723049608438
 21
11.29850900298288
 31
0.0
 11
27.77231368129242
 21
11.27766027005458
 31
0.0
 11
27.64723049582926
 21
11.25678440864476
 31
0.0
 11
27.52214720694258
 21
11.2359091669316
 31
0.0
  0
SPLINE
  5
3E2
330
2
100
AcDbEntity
  8
PANEL
  6
Continuous
 62
     1
100
AcDbSpline
210
0.0
220
0.0
230
1.0
 70
     8
 71
     3
 72
    11
 73
     7
 74
     5
 42
0.0000000001
 43
0.0000000001
 44
0.00000001
 40
0.0
 40
0.0
 40
0.0
 40
0.0
 40
0.0458381053306649
 40
0.0917005081349972
 40
0.1292541954898213
 40
0.1669264995778705
 40
0.1669264995778705
 40
0.1669264995778705
 40
0.1669264995778705
 10
23.22656321518264
 20
20.26051431747163
 30
0.0
 10
23.21128301260396
 20
20.26111094568467
 30
0.0
 10
23.18071450889968
 20
20.26230453337638
 30
0.0
 10
23.13808852459652
 20
20.26908736146487
 30
0.0
 10
23.09892517969726
 20
20.27963358655836
 30
0.0
 10
23.07642564835536
 20
20.29083572992869
 30
0.0
 10
23.06515814702266
 20
20.29644564015161
 30
0.0
 11
23.22656321518264
 21
20.26051431747163
 31
0.0
 11
23.18080434765875
 21
20.26320836489123
 31
0.0
 11
23.13550871924326
 21
20.27039628289293
 31
0.0
 11
23.09941975858612
 21
20.28078216168416
 31
0.0
 11
23.06515814702266
 21
20.29644564015161
 31
0.0
  0
SPLINE
  5
3E3
330
2
100
AcDbEntity
  8
PANEL
  6
Continuous
 62
     1
100
AcDbSpline
210
0.0
220
0.0
230
1.0
 70
     8
 71
     3
 72
     9
 73
     5
 74
     3
 42
0.0000000001
 43
0.0000000001
 44
0.00000001
 40
0.0
 40
0.0
 40
0.0
 40
0.0
 40
0.13014604828785
 40
0.260294248562194
 40
0.260294248562194
 40
0.260294248562194
 40
0.260294248562194
 10
26.36189204598259
 20
11.26815368595163
 30
0.0
 10
26.40526957568554
 20
11.26919677105417
 30
0.0
 10
26.49202535248216
 20
11.27128293851228
 30
0.0
 10
26.57877301646275
 20
11.26888299025694
 30
0.0
 10
26.6221472069426
 20
11.26768299621159
 30
0.0
 11
26.36189204598259
 21
11.26815368595163
 31
0.0
 11
26.49202260707511
 21
11.27016142088092
 31
0.0
 11
26.6221472069426
 21
11.26768299621159
 31
0.0
  0
SPLINE
  5
3E4
330
2
100
AcDbEntity
  8
PANEL
  6
Continuous
 62
     7
100
AcDbSpline
210
0.0
220
0.0
230
1.0
 70
     8
 71
     3
 72
    15
 73
    11
 74
     9
 42
0.0000000001
 43
0.0000000001
 44
0.00000001
 40
0.0
 40
0.0
 40
0.0
 40
0.0
 40
0.02196684287394
 40
0.0437003661457862
 40
0.0740516929086418
 40
0.1038568618470198
 40
0.1456656379402686
 40
0.187637231424979
 40
0.2686636915164724
 40
0.3496075983285136
 40
0.3496075983285136
 40
0.3496075983285136
 40
0.3496075983285136
 10
26.02214720694258
 20
11.21186889119161
 30
0.0
 10
26.02710694402947
 20
11.21741882489766
 30
0.0
 10
26.03697373035408
 20
11.22845975212254
 30
0.0
 10
26.06098162872917
 20
11.23669091445424
 30
0.0
 10
26.08772945083797
 20
11.24126320486067
 30
0.0
 10
26.12114925788802
 20
11.24774331295185
 30
0.0
 10
26.15858507310426
 20
11.25338593666174
 30
0.0
 10
26.21319400816862
 20
11.25948165606166
 30
0.0
 10
26.28098561774178
 20
11.26479719506306
 30
0.0
 10
26.33493240199565
 20
11.26703523165048
 30
0.0
 10
26.36189204598259
 20
11.26815368595163
 30
0.0
 11
26.02214720694258
 21
11.21186889119161
 31
0.0
 11
26.03811320000523
 21
11.22695628491169
 31
0.0
 11
26.05820970878267
 21
11.23523131848793
 31
0.0
 11
26.0879250871908
 21
11.24141187382014
 31
0.0
 11
26.11723764876342
 21
11.24680833756133
 31
0.0
 11
26.15856831605629
 21
11.25311307355093
 31
0.0
 11
26.20026825118202
 21
11.25788067958154
 31
0.0
 11
26.2810397917541
 21
11.26430294382459
 31
0.0
 11
26.36189204598259
 21
11.26815368595163
 31
0.0
  0
SPLINE
  5
3E5
330
2
100
AcDbEntity
  8
PANEL
  6
Continuous
 62
     1
100
AcDbSpline
210
0.0
220
0.0
230
1.0
 70
     8
 71
     3
 72
     9
 73
     5
 74
     3
 42
0.0000000001
 43
0.0000000001
 44
0.00000001
 40
0.0
 40
0.0
 40
0.0
 40
0.0
 40
0.450280350511507
 40
0.9005607010230869
 40
0.9005607010230869
 40
0.9005607010230869
 40
0.9005607010230869
 10
26.6221472069426
 20
11.26768299621159
 30
0.0
 10
26.77214720369537
 20
11.26238726602099
 30
0.0
 10
27.0721471979067
 20
11.25179582562742
 30
0.0
 10
27.37214720369539
 20
11.24120471316769
 30
0.0
 10
27.52214720694258
 20
11.2359091669316
 30
0.0
 11
26.6221472069426
 21
11.26768299621159
 31
0.0
 11
27.07214720044817
 21
11.25179589761711
 31
0.0
 11
27.52214720694258
 21
11.2359091669316
 31
0.0
  0
SPLINE
  5
3E6
330
2
100
AcDbEntity
  8
PANEL
  6
Continuous
 62
     1
100
AcDbSpline
210
0.0
220
0.0
230
1.0
 70
     8
 71
     3
 72
    17
 73
    13
 74
    11
 42
0.0000000001
 43
0.0000000001
 44
0.00000001
 40
0.0
 40
0.0
 40
0.0
 40
0.0
 40
0.1694986982332132
 40
0.3389917742214489
 40
0.458273756894104
 40
0.5775866212400818
 40
0.705856075901274
 40
0.8341161971159737
 40
0.9659643218938001
 40
1.097759907965284
 40
1.301002083677688
 40
1.504235508300007
 40
1.504235508300007
 40
1.504235508300007
 40
1.504235508300007
 10
21.9971472069426
 20
21.32820061289164
 30
0.0
 10
22.02629340832493
 20
21.27978687307547
 30
0.0
 10
22.08458485676005
 20
21.1829610069928
 30
0.0
 10
22.17155414988275
 20
21.05724020713683
 30
0.0
 10
22.25448141755277
 20
20.94934299055353
 30
0.0
 10
22.33481826660926
 20
20.85704978928266
 30
0.0
 10
22.42217181205689
 20
20.76715242167921
 30
0.0
 10
22.51765998824414
 20
20.67964187462485
 30
0.0
 10
22.61843480545122
 20
20.59641617683877
 30
0.0
 10
22.74350391627797
 20
20.50372500751899
 30
0.0
 10
22.89200456794546
 20
20.40288756626706
 30
0.0
 10
23.00744111314884
 20
20.33192576878162
 30
0.0
 10
23.06515814702266
 20
20.29644564015161
 30
0.0
 11
21.9971472069426
 21
21.32820061289164
 31
0.0
 11
22.0860961169833
 21
21.18391651635244
 31
0.0
 11
22.18241938249639
 21
21.04445422198415
 31
0.0
 11
22.25541573945566
 21
20.95011587691823
 31
0.0
 11
22.33362959635929
 21
20.86001508735404
 31
0.0
 11
22.42303620495318
 21
20.76803948491841
 31
0.0
 11
22.51749107006753
 21
20.68127003609305
 31
0.0
 11
22.61915632327395
 21
20.59731704689426
 31
0.0
 11
22.72477986412468
 21
20.51848974060357
 31
0.0
 11
22.89283107409779
 21
20.4041823786132
 31
0.0
 11
23.06515814702266
 21
20.29644564015161
 31
0.0
  0
SPLINE
  5
3E7
330
2
100
AcDbEntity
  8
PANEL
  6
Continuous
 62
     1
100
AcDbSpline
210
0.0
220
0.0
230
1.0
 70
     8
 71
     3
 72
    11
 73
     7
 74
     5
 42
0.0000000001
 43
0.0000000001
 44
0.00000001
 40
0.0
 40
0.0
 40
0.0
 40
0.0
 40
0.3971026941500851
 40
0.7941648889366695
 40
1.227379565025605
 40
1.660647080871075
 40
1.660647080871075
 40
1.660647080871075
 40
1.660647080871075
 10
21.24175707386257
 20
22.80575736651162
 30
0.0
 10
21.29489603054918
 20
22.68450848594131
 30
0.0
 10
21.40116853805498
 20
22.44202309674932
 30
0.0
 10
21.58163420924382
 20
22.07473875384164
 30
0.0
 10
21.77833280449025
 20
21.70218714679248
 30
0.0
 10
21.92420610322179
 20
21.45286785635733
 30
0.0
 10
21.9971472069426
 20
21.32820061289164
 30
0.0
 11
21.24175707386257
 21
22.80575736651162
 31
0.0
 11
21.40379826089975
 21
22.44322019109325
 31
0.0
 11
21.57795897083861
 21
22.0863918935633
 31
0.0
 11
21.78107078639869
 21
21.70374251585332
 31
0.0
 11
21.9971472069426
 21
21.32820061289164
 31
0.0
  0
SPLINE
  5
3E8
330
2
100
AcDbEntity
  8
PANEL
  6
Continuous
 62
     1
100
AcDbSpline
210
0.0
220
0.0
230
1.0
 70
    24
 71
     3
 72
     9
 73
     5
 74
     3
 42
0.0000000001
 43
0.0000000001
 44
0.00000001
 40
0.0
 40
0.0
 40
0.0
 40
0.0
 40
0.0251383236608869
 40
0.0502766473217596
 40
0.0502766473217596
 40
0.0502766473217596
 40
0.0502766473217596
 10
21.22214720694262
 20
22.85205201399163
 30
0.0
 10
21.22541551809598
 20
22.84433623941163
 30
0.0
 10
21.23195214040271
 20
22.82890469025165
 30
0.0
 10
21.23848876270932
 20
22.81347314109166
 30
0.0
 10
21.24175707386257
 20
22.80575736651162
 30
0.0
 11
21.22214720694262
 21
22.85205201399163
 31
0.0
 11
21.23195214040265
 21
22.82890469025165
 31
0.0
 11
21.24175707386257
 21
22.80575736651162
 31
0.0
  0
SPLINE
  5
3E9
330
2
100
AcDbEntity
  8
PANEL
  6
Continuous
 62
     1
100
AcDbSpline
210
0.0
220
0.0
230
1.0
 70
     8
 71
     3
 72
     9
 73
     5
 74
     3
 42
0.0000000001
 43
0.0000000001
 44
0.00000001
 40
0.0
 40
0.0
 40
0.0
 40
0.0
 40
0.0066157724960669
 40
0.0178562657301282
 40
0.0178562657301282
 40
0.0178562657301282
 40
0.0178562657301282
 10
21.42267508592261
 20
21.47978395509159
 30
0.0
 10
21.42027262757327
 20
21.48015402409982
 30
0.0
 10
21.41378829251784
 20
21.48115287308184
 30
0.0
 10
21.41373595896082
 20
21.48820837428258
 30
0.0
 10
21.41370302316261
 20
21.49264980797164
 30
0.0
 11
21.42267508592261
 21
21.47978395509159
 31
0.0
 11
21.41635063850731
 21
21.48172557196352
 31
0.0
 11
21.41370302316261
 21
21.49264980797164
 31
0.0
  0
SPLINE
  5
3EA
330
2
100
AcDbEntity
  8
PANEL
  6
Continuous
 62
     1
100
AcDbSpline
210
0.0
220
0.0
230
1.0
 70
     8
 71
     3
 72
     9
 73
     5
 74
     3
 42
0.0000000001
 43
0.0000000001
 44
0.00000001
 40
0.0
 40
0.0
 40
0.0
 40
0.0
 40
0.0065321535403164
 40
0.0178107873163258
 40
0.0178107873163258
 40
0.0178107873163258
 40
0.0178107873163258
 10
21.42334635814257
 20
21.13337936989166
 30
0.0
 10
21.42097135416273
 20
21.13373448295147
 30
0.0
 10
21.41449559658383
 20
21.13470276230686
 30
0.0
 10
21.41449394543133
 20
21.14176652896777
 30
0.0
 10
21.41449290794264
 20
21.1462396464716
 30
0.0
 11
21.42334635814257
 21
21.13337936989166
 31
0.0
 11
21.41709216024413
 21
21.13526460296623
 31
0.0
 11
21.41449290794264
 21
21.1462396464716
 31
0.0
  0
SPLINE
  5
3EB
330
2
100
AcDbEntity
  8
PANEL
  6
Continuous
 62
     1
100
AcDbSpline
210
0.0
220
0.0
230
1.0
 70
    24
 71
     3
 72
     9
 73
     5
 74
     3
 42
0.0000000001
 43
0.0000000001
 44
0.00000001
 40
0.0
 40
0.0
 40
0.0
 40
0.0
 40
0.031511938583914
 40
0.0630238771678105
 40
0.0630238771678105
 40
0.0630238771678105
 40
0.0630238771678105
 10
23.16375357134257
 20
20.21019939803165
 30
0.0
 10
23.17422616609258
 20
20.20938801333494
 30
0.0
 10
23.1951713555926
 20
20.20776524394142
 30
0.0
 10
23.2161165450926
 20
20.20614247454824
 30
0.0
 10
23.22658913984264
 20
20.20533108985166
 30
0.0
 11
23.16375357134257
 21
20.21019939803165
 31
0.0
 11
23.1951713555926
 21
20.20776524394165
 31
0.0
 11
23.22658913984264
 21
20.20533108985166
 31
0.0
  0
SPLINE
  5
3EC
330
2
100
AcDbEntity
  8
PANEL
  6
Continuous
 62
     1
100
AcDbSpline
210
0.0
220
0.0
230
1.0
 70
     8
 71
     3
 72
     9
 73
     5
 74
     3
 42
0.0000000001
 43
0.0000000001
 44
0.00000001
 40
0.0
 40
0.0
 40
0.0
 40
0.0
 40
0.0518887000401704
 40
0.1038760094840167
 40
0.1038760094840167
 40
0.1038760094840167
 40
0.1038760094840167
 10
23.06514169286265
 20
20.24128855615163
 30
0.0
 10
23.08081226880921
 20
20.23373652196119
 30
0.0
 10
23.11218320797315
 20
20.21861812028789
 30
0.0
 10
23.1465525729318
 20
20.21300740779742
 30
0.0
 10
23.16375357134257
 20
20.21019939803165
 30
0.0
 11
23.06514169286265
 21
20.24128855615163
 31
0.0
 11
23.11290160848352
 21
20.22100487425354
 31
0.0
 11
23.16375357134257
 21
20.21019939803165
 31
0.0
  0
SPLINE
  5
3ED
330
2
100
AcDbEntity
  8
PANEL
  6
Continuous
 62
     1
100
AcDbSpline
210
0.0
220
0.0
230
1.0
 70
     8
 71
     3
 72
    15
 73
    11
 74
     9
 42
0.0000000001
 43
0.0000000001
 44
0.00000001
 40
0.0
 40
0.0
 40
0.0
 40
0.0
 40
0.0741085811838895
 40
0.1475516598152821
 40
0.1984428128889658
 40
0.2492089582636739
 40
0.3012960608562392
 40
0.3534229627088894
 40
0.4327612993432132
 40
0.5125966706177419
 40
0.5125966706177419
 40
0.5125966706177419
 40
0.5125966706177419
 10
24.36214720694261
 20
19.87891993919163
 30
0.0
 10
24.36023109749425
 20
19.9036867177075
 30
0.0
 10
24.35641607128929
 20
19.95299786465972
 30
0.0
 10
24.33012900062357
 20
20.01488357593292
 30
0.0
 10
24.29782922131574
 20
20.06365468634118
 30
0.0
 10
24.26279143067814
 20
20.10137261113027
 30
0.0
 10
24.22216990710211
 20
20.13364013725561
 30
0.0
 10
24.16886658966018
 20
20.1639366407835
 30
0.0
 10
24.10190053033995
 20
20.18846286761073
 30
0.0
 10
24.048786932707
 20
20.19246739547316
 30
0.0
 10
24.02214720694258
 20
20.1944759043916
 30
0.0
 11
24.36214720694261
 21
19.87891993919163
 31
0.0
 11
24.35243065363545
 21
19.95238878145443
 31
0.0
 11
24.32488585965746
 21
20.02047086830765
 31
0.0
 11
24.29669965702533
 21
20.06284359065034
 31
0.0
 11
24.26223523636861
 21
20.1001183188065
 31
0.0
 11
24.22144383834825
 21
20.1325085677708
 31
0.0
 11
24.17622052105548
 21
20.15843279548022
 31
0.0
 11
24.10139527239812
 21
20.18480994630317
 31
0.0
 11
24.02214720694258
 21
20.1944759043916
 31
0.0
  0
SPLINE
  5
3EE
330
2
100
AcDbEntity
  8
PANEL
  6
Continuous
 62
     1
100
AcDbSpline
210
0.0
220
0.0
230
1.0
 70
     8
 71
     3
 72
    21
 73
    17
 74
    15
 42
0.0000000001
 43
0.0000000001
 44
0.00000001
 40
0.0
 40
0.0
 40
0.0
 40
0.0
 40
0.1509594195126999
 40
0.3019205015641051
 40
0.4067959122550826
 40
0.5116855769096348
 40
0.6104393236514208
 40
0.7092126901272624
 40
0.8014555718597314
 40
0.8936993794579402
 40
0.9804731390882793
 40
1.067229692653858
 40
1.150294151089709
 40
1.233347533203979
 40
1.354148094322665
 40
1.474956630708991
 40
1.474956630708991
 40
1.474956630708991
 40
1.474956630708991
 10
23.04007975968261
 20
20.25663392713164
 30
0.0
 10
22.99731319520836
 20
20.2831542217761
 30
0.0
 10
22.91177960308056
 20
20.33619511559221
 30
0.0
 10
22.79884468614466
 20
20.41129563559315
 30
0.0
 10
22.70052644095466
 20
20.48053783432584
 30
0.0
 10
22.61829628853093
 20
20.54232974179803
 30
0.0
 10
22.53981503202408
 20
20.6056294030322
 30
0.0
 10
22.46704760079473
 20
20.66918865840631
 30
0.0
 10
22.39861213861519
 20
20.73428931328113
 30
0.0
 10
22.33625275422446
 20
20.79981387631062
 30
0.0
 10
22.27797356640934
 20
20.86656930774603
 30
0.0
 10
22.2244021347272
 20
20.93327340657794
 30
0.0
 10
22.17393598354013
 20
21.00080720447085
 30
0.0
 10
22.11909331228955
 20
21.07917171570012
 30
0.0
 10
22.05960974670325
 20
21.16961431760171
 30
0.0
 10
22.01796850754846
 20
21.23855630963806
 30
0.0
 10
21.9971472069426
 20
21.27302844733163
 30
0.0
 11
23.04007975968261
 21
20.25663392713164
 31
0.0
 11
22.91220862585533
 21
20.33686932763618
 31
0.0
 11
22.78650144810297
 21
20.42045732831701
 31
0.0
 11
22.70084620525734
 21
20.48097204714446
 31
0.0
 11
22.61704003721002
 21
20.5440463525826
 31
0.0
 11
22.54023445773157
 21
20.60612054618059
 31
0.0
 11
22.46589398422429
 21
20.67115647456296
 31
0.0
 11
22.39915252334913
 21
20.73483006941495
 31
0.0
 11
22.33549939586817
 21
20.80159233010249
 31
0.0
 11
22.27842550452908
 21
20.86695482952933
 31
0.0
 11
22.22403942291066
 21
20.93454812620195
 31
0.0
 11
22.17428374951703
 21
21.0010618635705
 31
0.0
 11
22.12657667725125
 21
21.06904641752198
 31
0.0
 11
22.06026754808215
 21
21.17002104338599
 31
0.0
 11
21.9971472069426
 21
21.27302844733163
 31
0.0
  0
SPLINE
  5
3EF
330
2
100
AcDbEntity
  8
PANEL
  6
Continuous
 62
     1
100
AcDbSpline
210
0.0
220
0.0
230
1.0
 70
    24
 71
     3
 72
     9
 73
     5
 74
     3
 42
0.0000000001
 43
0.0000000001
 44
0.00000001
 40
0.0
 40
0.0
 40
0.0
 40
0.0
 40
0.0146933735509753
 40
0.0293867471019694
 40
0.0293867471019694
 40
0.0293867471019694
 40
0.0293867471019694
 10
23.06514169286265
 20
20.24128855615163
 30
0.0
 10
23.06096470399933
 20
20.2438461179816
 30
0.0
 10
23.05261072627263
 20
20.24896124164166
 30
0.0
 10
23.04425674854596
 20
20.25407636530167
 30
0.0
 10
23.04007975968261
 20
20.25663392713164
 30
0.0
 11
23.06514169286265
 21
20.24128855615163
 31
0.0
 11
23.05261072627263
 21
20.24896124164161
 31
0.0
 11
23.04007975968261
 21
20.25663392713164
 31
0.0
  0
SPLINE
  5
3F0
330
2
100
AcDbEntity
  8
PANEL
  6
Continuous
 62
     1
100
AcDbSpline
210
0.0
220
0.0
230
1.0
 70
    24
 71
     3
 72
     9
 73
     5
 74
     3
 42
0.0000000001
 43
0.0000000001
 44
0.00000001
 40
0.0
 40
0.0
 40
0.0
 40
0.0
 40
0.0245627810975633
 40
0.0491255621950005
 40
0.0491255621950005
 40
0.0491255621950005
 40
0.0491255621950005
 10
21.3588665645226
 20
21.2999434406716
 30
0.0
 10
21.35612804206258
 20
21.30765947497161
 30
0.0
 10
21.35065099714259
 20
21.32309154357159
 30
0.0
 10
21.34517395222264
 20
21.33852361217163
 30
0.0
 10
21.34243542976264
 20
21.34623964647159
 30
0.0
 11
21.3588665645226
 21
21.2999434406716
 31
0.0
 11
21.35065099714257
 21
21.32309154357165
 31
0.0
 11
21.34243542976264
 21
21.34623964647159
 31
0.0
  0
SPLINE
  5
3F1
330
2
100
AcDbEntity
  8
PANEL
  6
Continuous
 62
     1
100
AcDbSpline
210
0.0
220
0.0
230
1.0
 70
    24
 71
     3
 72
     9
 73
     5
 74
     3
 42
0.0000000001
 43
0.0000000001
 44
0.00000001
 40
0.0
 40
0.0
 40
0.0
 40
0.0
 40
0.010829874665915
 40
0.0216597493317611
 40
0.0216597493317611
 40
0.0216597493317611
 40
0.0216597493317611
 10
21.36615334234261
 20
21.27954619551161
 30
0.0
 10
21.36493887937266
 20
21.28294573637163
 30
0.0
 10
21.36250995343269
 20
21.2897448180916
 30
0.0
 10
21.36008102749264
 20
21.29654389981164
 30
0.0
 10
21.3588665645226
 20
21.2999434406716
 30
0.0
 11
21.36615334234261
 21
21.27954619551161
 31
0.0
 11
21.36250995343266
 21
21.2897448180916
 31
0.0
 11
21.3588665645226
 21
21.2999434406716
 31
0.0
  0
SPLINE
  5
3F2
330
2
100
AcDbEntity
  8
PANEL
  6
Continuous
 62
     1
100
AcDbSpline
210
0.0
220
0.0
230
1.0
 70
    24
 71
     3
 72
     9
 73
     5
 74
     3
 42
0.0000000001
 43
0.0000000001
 44
0.00000001
 40
0.0
 40
0.0
 40
0.0
 40
0.0
 40
0.0354308771521623
 40
0.0708617543041983
 40
0.0708617543041983
 40
0.0708617543041983
 40
0.0708617543041983
 10
21.39017255822261
 20
21.21287937099163
 30
0.0
 10
21.38616935557596
 20
21.22399050841165
 30
0.0
 10
21.37816295028259
 20
21.24621278325162
 30
0.0
 10
21.37015654498927
 20
21.26843505809166
 30
0.0
 10
21.36615334234261
 20
21.27954619551161
 30
0.0
 11
21.39017255822261
 21
21.21287937099163
 31
0.0
 11
21.37816295028256
 21
21.24621278325162
 31
0.0
 11
21.36615334234261
 21
21.27954619551161
 31
0.0
  0
SPLINE
  5
3F3
330
2
100
AcDbEntity
  8
PANEL
  6
Continuous
 62
     1
100
AcDbSpline
210
0.0
220
0.0
230
1.0
 70
    24
 71
     3
 72
     9
 73
     5
 74
     3
 42
0.0000000001
 43
0.0000000001
 44
0.00000001
 40
0.0
 40
0.0
 40
0.0
 40
0.0
 40
0.0354694667800092
 40
0.0709389335598583
 40
0.0709389335598583
 40
0.0709389335598583
 40
0.0709389335598583
 10
21.41449290794264
 20
21.1462396464716
 30
0.0
 10
21.41043951632264
 20
21.15734626722497
 30
0.0
 10
21.40233273308266
 20
21.17955950873164
 30
0.0
 10
21.39422594984265
 20
21.20177275023838
 30
0.0
 10
21.39017255822261
 20
21.21287937099163
 30
0.0
 11
21.41449290794264
 21
21.1462396464716
 31
0.0
 11
21.40233273308263
 21
21.17955950873164
 31
0.0
 11
21.39017255822261
 21
21.21287937099163
 31
0.0
  0
SPLINE
  5
3F4
330
2
100
AcDbEntity
  8
PANEL
  6
Continuous
 62
     1
100
AcDbSpline
210
0.0
220
0.0
230
1.0
 70
     8
 71
     3
 72
    11
 73
     7
 74
     5
 42
0.0000000001
 43
0.0000000001
 44
0.00000001
 40
0.0
 40
0.0
 40
0.0
 40
0.0
 40
0.0251798963035611
 40
0.0512816261584348
 40
0.0615942688128917
 40
0.0719592619678381
 40
0.0719592619678381
 40
0.0719592619678381
 40
0.0719592619678381
 10
21.32488093354266
 20
21.46258434361164
 30
0.0
 10
21.32486025129262
 20
21.47099457475531
 30
0.0
 10
21.32481812280847
 20
21.48812293266025
 30
0.0
 10
21.3239961857573
 20
21.50843806381187
 30
0.0
 10
21.32608866902106
 20
21.52441337415121
 30
0.0
 10
21.33077696335914
 20
21.5296844836563
 30
0.0
 10
21.33312705342257
 20
21.53232670653165
 30
0.0
 11
21.32488093354266
 21
21.46258434361164
 31
0.0
 11
21.32466406083017
 21
21.48776330112224
 31
0.0
 11
21.32487206473513
 21
21.51386419900257
 31
0.0
 11
21.32702240080357
 21
21.52395016822976
 31
0.0
 11
21.33312705342257
 21
21.53232670653165
 31
0.0
  0
SPLINE
  5
3F5
330
2
100
AcDbEntity
  8
PANEL
  6
Continuous
 62
     1
100
AcDbSpline
210
0.0
220
0.0
230
1.0
 70
     8
 71
     3
 72
    11
 73
     7
 74
     5
 42
0.0000000001
 43
0.0000000001
 44
0.00000001
 40
0.0
 40
0.0
 40
0.0
 40
0.0
 40
0.026363207905685
 40
0.0527057756960665
 40
0.0853272147522633
 40
0.1179387841439178
 40
0.1179387841439178
 40
0.1179387841439178
 40
0.1179387841439178
 10
21.34243542976264
 20
21.34623964647159
 30
0.0
 10
21.34006165805002
 20
21.35470642405483
 30
0.0
 10
21.33531598744162
 20
21.37163335417728
 30
0.0
 10
21.3304902736449
 20
21.39970085201452
 30
0.0
 10
21.32690880772011
 20
21.43002668401095
 30
0.0
 10
21.3255568183898
 20
21.45173288472802
 30
0.0
 10
21.32488093354266
 20
21.46258434361164
 30
0.0
 11
21.34243542976264
 21
21.34623964647159
 31
0.0
 11
21.33575568355855
 21
21.37174258267294
 31
0.0
 11
21.33105068464613
 21
21.39766157012008
 31
0.0
 11
21.32720831109248
 21
21.43005592922464
 31
0.0
 11
21.32488093354266
 21
21.46258434361164
 31
0.0
  0
SPLINE
  5
3F6
330
2
100
AcDbEntity
  8
PANEL
  6
Continuous
 62
     1
100
AcDbSpline
210
0.0
220
0.0
230
1.0
 70
    24
 71
     3
 72
     9
 73
     5
 74
     3
 42
0.0000000001
 43
0.0000000001
 44
0.00000001
 40
0.0
 40
0.0
 40
0.0
 40
0.0
 40
0.0248286866621659
 40
0.0496573733242402
 40
0.0496573733242402
 40
0.0496573733242402
 40
0.0496573733242402
 10
21.35825210094265
 20
21.64585299149161
 30
0.0
 10
21.35548366429592
 20
21.65365246090494
 30
0.0
 10
21.34994679100259
 20
21.66925139973165
 30
0.0
 10
21.3444099177093
 20
21.68485033855831
 30
0.0
 10
21.34164148106265
 20
21.69264980797164
 30
0.0
 11
21.35825210094265
 21
21.64585299149161
 31
0.0
 11
21.34994679100259
 21
21.66925139973165
 31
0.0
 11
21.34164148106265
 21
21.69264980797164
 31
0.0
  0
SPLINE
  5
3F7
330
2
100
AcDbEntity
  8
PANEL
  6
Continuous
 62
     1
100
AcDbSpline
210
0.0
220
0.0
230
1.0
 70
    24
 71
     3
 72
     9
 73
     5
 74
     3
 42
0.0000000001
 43
0.0000000001
 44
0.00000001
 40
0.0
 40
0.0
 40
0.0
 40
0.0
 40
0.0105643287406925
 40
0.0211286574813124
 40
0.0211286574813124
 40
0.0211286574813124
 40
0.0211286574813124
 10
21.36536088494256
 20
21.62595612347161
 30
0.0
 10
21.36417608760922
 20
21.62927226814162
 30
0.0
 10
21.36180649294255
 20
21.63590455748158
 30
0.0
 10
21.35943689827596
 20
21.6425368468216
 30
0.0
 10
21.35825210094265
 20
21.64585299149161
 30
0.0
 11
21.36536088494256
 21
21.62595612347161
 31
0.0
 11
21.3618064929426
 21
21.63590455748164
 31
0.0
 11
21.35825210094265
 21
21.64585299149161
 31
0.0
  0
SPLINE
  5
3F8
330
2
100
AcDbEntity
  8
PANEL
  6
Continuous
 62
     1
100
AcDbSpline
210
0.0
220
0.0
230
1.0
 70
    24
 71
     3
 72
     9
 73
     5
 74
     3
 42
0.0000000001
 43
0.0000000001
 44
0.00000001
 40
0.0
 40
0.0
 40
0.0
 40
0.0
 40
0.0354311067554617
 40
0.0708622135107822
 40
0.0708622135107822
 40
0.0708622135107822
 40
0.0708622135107822
 10
21.38938145582256
 20
21.55928929905162
 30
0.0
 10
21.3853780273426
 20
21.57040043645498
 30
0.0
 10
21.37737117038262
 20
21.59262271126164
 30
0.0
 10
21.36936431342258
 20
21.61484498606831
 30
0.0
 10
21.36536088494256
 20
21.62595612347161
 30
0.0
 11
21.38938145582256
 21
21.55928929905162
 31
0.0
 11
21.37737117038262
 21
21.59262271126164
 31
0.0
 11
21.36536088494256
 21
21.62595612347161
 31
0.0
  0
SPLINE
  5
3F9
330
2
100
AcDbEntity
  8
PANEL
  6
Continuous
 62
     1
100
AcDbSpline
210
0.0
220
0.0
230
1.0
 70
    24
 71
     3
 72
     9
 73
     5
 74
     3
 42
0.0000000001
 43
0.0000000001
 44
0.00000001
 40
0.0
 40
0.0
 40
0.0
 40
0.0
 40
0.0105309347541408
 40
0.0210618695082281
 40
0.0210618695082281
 40
0.0210618695082281
 40
0.0210618695082281
 10
21.39657388694264
 20
21.5394935600716
 30
0.0
 10
21.3953751484226
 20
21.54279284990161
 30
0.0
 10
21.3929776713826
 20
21.54939142956158
 30
0.0
 10
21.39058019434259
 20
21.5559900092216
 30
0.0
 10
21.38938145582256
 20
21.55928929905162
 30
0.0
 11
21.39657388694264
 21
21.5394935600716
 31
0.0
 11
21.3929776713826
 21
21.54939142956158
 31
0.0
 11
21.38938145582256
 21
21.55928929905162
 31
0.0
  0
SPLINE
  5
3FA
330
2
100
AcDbEntity
  8
PANEL
  6
Continuous
 62
     1
100
AcDbSpline
210
0.0
220
0.0
230
1.0
 70
    24
 71
     3
 72
     9
 73
     5
 74
     3
 42
0.0000000001
 43
0.0000000001
 44
0.00000001
 40
0.0
 40
0.0
 40
0.0
 40
0.0
 40
0.024938646807925
 40
0.0498772936158838
 40
0.0498772936158838
 40
0.0498772936158838
 40
0.0498772936158838
 10
21.41370302316261
 20
21.49264980797164
 30
0.0
 10
21.41084816712592
 20
21.50045709998829
 30
0.0
 10
21.40513845505257
 20
21.5160716840216
 30
0.0
 10
21.39942874297927
 20
21.5316862680549
 30
0.0
 10
21.39657388694264
 20
21.5394935600716
 30
0.0
 11
21.41370302316261
 21
21.49264980797164
 31
0.0
 11
21.40513845505257
 21
21.5160716840216
 31
0.0
 11
21.39657388694264
 21
21.5394935600716
 31
0.0
  0
SPLINE
  5
3FB
330
2
100
AcDbEntity
  8
PANEL
  6
Continuous
 62
     1
100
AcDbSpline
210
0.0
220
0.0
230
1.0
 70
     8
 71
     3
 72
    11
 73
     7
 74
     5
 42
0.0000000001
 43
0.0000000001
 44
0.00000001
 40
0.0
 40
0.0
 40
0.0
 40
0.0
 40
0.0252067004276107
 40
0.0513413110546078
 40
0.0617369177706624
 40
0.0721901022163863
 40
0.0721901022163863
 40
0.0721901022163863
 40
0.0721901022163863
 10
21.32470870062264
 20
21.80892612479164
 30
0.0
 10
21.32475321113927
 20
21.81734508981651
 30
0.0
 10
21.3248438637963
 20
21.83449293711203
 30
0.0
 10
21.32424956731728
 20
21.85486248951026
 30
0.0
 10
21.32656750981431
 20
21.87088498638297
 30
0.0
 10
21.33138562652184
 20
21.87612001174165
 30
0.0
 10
21.33380134594256
 20
21.87874474861161
 30
0.0
 11
21.32470870062264
 21
21.80892612479164
 31
0.0
 11
21.32470125214729
 21
21.8341328191824
 31
0.0
 11
21.32520049069444
 21
21.86026265778906
 31
0.0
 11
21.32750681740867
 21
21.87039920662432
 31
0.0
 11
21.33380134594256
 21
21.87874474861161
 31
0.0
  0
SPLINE
  5
3FC
330
2
100
AcDbEntity
  8
PANEL
  6
Continuous
 62
     1
100
AcDbSpline
210
0.0
220
0.0
230
1.0
 70
     8
 71
     3
 72
    11
 73
     7
 74
     5
 42
0.0000000001
 43
0.0000000001
 44
0.00000001
 40
0.0
 40
0.0
 40
0.0
 40
0.0
 40
0.0263290826124667
 40
0.0526363688593034
 40
0.0852209357238112
 40
0.1177950994793552
 40
0.1177950994793552
 40
0.1177950994793552
 40
0.1177950994793552
 10
21.34164148106265
 20
21.69264980797164
 30
0.0
 10
21.33928525543956
 20
21.70110999262721
 30
0.0
 10
21.33457476914506
 20
21.71802336190546
 30
0.0
 10
21.32988324835378
 20
21.74607973601536
 30
0.0
 10
21.32648880693145
 20
21.7763909416513
 30
0.0
 10
21.32530200120212
 20
21.79808221778609
 30
0.0
 10
21.32470870062264
 20
21.80892612479164
 30
0.0
 11
21.34164148106265
 21
21.69264980797164
 31
0.0
 11
21.3350263809798
 21
21.71813433418169
 31
0.0
 11
21.33043963158081
 21
21.74403867914799
 31
0.0
 11
21.32679634234751
 21
21.77641892764711
 31
0.0
 11
21.32470870062264
 21
21.80892612479164
 31
0.0
  0
SPLINE
  5
3FD
330
2
100
AcDbEntity
  8
PANEL
  6
Continuous
 62
     1
100
AcDbSpline
210
0.0
220
0.0
230
1.0
 70
     8
 71
     3
 72
    11
 73
     7
 74
     5
 42
0.0000000001
 43
0.0000000001
 44
0.00000001
 40
0.0
 40
0.0
 40
0.0
 40
0.0
 40
0.1942490363617564
 40
0.3885293105469833
 40
0.8107108353570687
 40
1.2329667154592
 40
1.2329667154592
 40
1.2329667154592
 40
1.2329667154592
 10
21.75952653422257
 20
21.68776273669164
 30
0.0
 10
21.72863179472071
 20
21.74466853505521
 30
0.0
 10
21.66683736030186
 20
21.85848928991322
 30
0.0
 10
21.54261841078585
 20
22.09849155221082
 30
0.0
 10
21.39021855615337
 20
22.40951826349692
 30
0.0
 10
21.2781742738124
 20
22.66777016849431
 30
0.0
 10
21.22214720694262
 20
22.79690749417165
 30
0.0
 11
21.75952653422257
 21
21.68776273669164
 31
0.0
 11
21.66740800219554
 21
21.85877988277633
 31
0.0
 11
21.57793611639693
 21
22.03123163447754
 31
0.0
 11
21.39319166482414
 21
22.4108455538705
 31
0.0
 11
21.22214720694262
 21
22.79690749417165
 31
0.0
  0
SPLINE
  5
3FE
330
2
100
AcDbEntity
  8
PANEL
  6
Continuous
 62
     1
100
AcDbSpline
210
0.0
220
0.0
230
1.0
 70
    24
 71
     3
 72
     9
 73
     5
 74
     3
 42
0.0000000001
 43
0.0000000001
 44
0.00000001
 40
0.0
 40
0.0
 40
0.0
 40
0.0
 40
0.104901341090936
 40
0.2098026821819057
 40
0.2098026821819057
 40
0.2098026821819057
 40
0.2098026821819057
 10
21.86194552326265
 20
21.50465753159159
 30
0.0
 10
21.84487569175605
 20
21.53517506577498
 30
0.0
 10
21.81073602874272
 20
21.59621013414164
 30
0.0
 10
21.77659636572926
 20
21.65724520250831
 30
0.0
 10
21.75952653422257
 20
21.68776273669164
 30
0.0
 11
21.86194552326265
 21
21.50465753159159
 31
0.0
 11
21.81073602874267
 21
21.59621013414164
 31
0.0
 11
21.75952653422257
 21
21.68776273669164
 31
0.0
  0
SPLINE
  5
3FF
330
2
100
AcDbEntity
  8
PANEL
  6
Continuous
 62
     1
100
AcDbSpline
210
0.0
220
0.0
230
1.0
 70
    24
 71
     3
 72
     9
 73
     5
 74
     3
 42
0.0000000001
 43
0.0000000001
 44
0.00000001
 40
0.0
 40
0.0
 40
0.0
 40
0.0
 40
0.0081156126345226
 40
0.0162312252691721
 40
0.0162312252691721
 40
0.0162312252691721
 40
0.0162312252691721
 10
21.86999284934257
 20
21.49056167345162
 30
0.0
 10
21.86865162832924
 20
21.4929109831416
 30
0.0
 10
21.86596918630261
 20
21.49760960252155
 30
0.0
 10
21.863286744276
 20
21.50230822190161
 30
0.0
 10
21.86194552326265
 20
21.50465753159159
 30
0.0
 11
21.86999284934257
 21
21.49056167345162
 31
0.0
 11
21.86596918630266
 21
21.49760960252161
 31
0.0
 11
21.86194552326265
 21
21.50465753159159
 31
0.0
  0
SPLINE
  5
400
330
2
100
AcDbEntity
  8
PANEL
  6
Continuous
 62
     1
100
AcDbSpline
210
0.0
220
0.0
230
1.0
 70
    24
 71
     3
 72
     9
 73
     5
 74
     3
 42
0.0000000001
 43
0.0000000001
 44
0.00000001
 40
0.0
 40
0.0
 40
0.0
 40
0.0
 40
0.1019993587034198
 40
0.2039987174068396
 40
0.2039987174068396
 40
0.2039987174068396
 40
0.2039987174068396
 10
21.97261933144261
 20
21.31425715883159
 30
0.0
 10
21.95551491775928
 20
21.3436412446016
 30
0.0
 10
21.92130609039259
 20
21.40240941614167
 30
0.0
 10
21.88709726302591
 20
21.46117758768162
 30
0.0
 10
21.86999284934257
 20
21.49056167345162
 30
0.0
 11
21.97261933144261
 21
21.31425715883159
 31
0.0
 11
21.92130609039259
 21
21.40240941614161
 31
0.0
 11
21.86999284934257
 21
21.49056167345162
 31
0.0
  0
SPLINE
  5
401
330
2
100
AcDbEntity
  8
PANEL
  6
Continuous
 62
     1
100
AcDbSpline
210
0.0
220
0.0
230
1.0
 70
    24
 71
     3
 72
     9
 73
     5
 74
     3
 42
0.0000000001
 43
0.0000000001
 44
0.00000001
 40
0.0
 40
0.0
 40
0.0
 40
0.0
 40
0.0020364094821105
 40
0.0040728189641629
 40
0.0040728189641629
 40
0.0040728189641629
 40
0.0040728189641629
 10
21.97469592706261
 20
21.3107535028916
 30
0.0
 10
21.97434982779262
 20
21.3113374455483
 30
0.0
 10
21.97365762925256
 20
21.31250533086154
 30
0.0
 10
21.97296543071255
 20
21.31367321617489
 30
0.0
 10
21.97261933144261
 20
21.31425715883159
 30
0.0
 11
21.97469592706261
 21
21.3107535028916
 31
0.0
 11
21.97365762925256
 21
21.3125053308616
 31
0.0
 11
21.97261933144261
 21
21.31425715883159
 31
0.0
  0
SPLINE
  5
402
330
2
100
AcDbEntity
  8
PANEL
  6
Continuous
 62
     1
100
AcDbSpline
210
0.0
220
0.0
230
1.0
 70
    24
 71
     3
 72
     9
 73
     5
 74
     3
 42
0.0000000001
 43
0.0000000001
 44
0.00000001
 40
0.0
 40
0.0
 40
0.0
 40
0.0
 40
0.021950169619308
 40
0.0439003392384695
 40
0.0439003392384695
 40
0.0439003392384695
 40
0.0439003392384695
 10
21.9971472069426
 20
21.27302844733163
 30
0.0
 10
21.9934053269626
 20
21.27931595659169
 30
0.0
 10
21.98592156700266
 20
21.2918909751117
 30
0.0
 10
21.97843780704261
 20
21.3044659936316
 30
0.0
 10
21.97469592706261
 20
21.3107535028916
 30
0.0
 11
21.9971472069426
 21
21.27302844733163
 31
0.0
 11
21.98592156700261
 21
21.29189097511164
 31
0.0
 11
21.97469592706261
 21
21.3107535028916
 31
0.0
  0
SPLINE
  5
403
330
2
100
AcDbEntity
  8
PANEL
  6
Continuous
 62
     7
100
AcDbSpline
210
0.0
220
0.0
230
1.0
 70
     8
 71
     3
 72
     9
 73
     5
 74
     3
 42
0.0000000001
 43
0.0000000001
 44
0.00000001
 40
0.0
 40
0.0
 40
0.0
 40
0.0
 40
0.10000797310478
 40
0.2000159452640584
 40
0.2000159452640584
 40
0.2000159452640584
 40
0.2000159452640584
 10
24.16214720694256
 20
11.2029551867916
 30
0.0
 10
24.1954825867621
 20
11.20319279073465
 30
0.0
 10
24.26215334587624
 20
11.20366801861706
 30
0.0
 10
24.32881592011788
 20
11.20481569360254
 30
0.0
 10
24.36214720694261
 20
11.20538954109162
 30
0.0
 11
24.16214720694256
 21
11.2029551867916
 31
0.0
 11
24.26215130009496
 21
11.2038361203974
 31
0.0
 11
24.36214720694261
 21
11.20538954109162
 31
0.0
  0
SPLINE
  5
404
330
2
100
AcDbEntity
  8
PANEL
  6
Continuous
 62
     7
100
AcDbSpline
210
0.0
220
0.0
230
1.0
 70
     8
 71
     3
 72
    13
 73
     9
 74
     7
 42
0.0000000001
 43
0.0000000001
 44
0.00000001
 40
0.0
 40
0.0
 40
0.0
 40
0.0
 40
0.5048994914960156
 40
1.009825639846059
 40
1.379560231250221
 40
1.74919827487919
 40
2.307722991480718
 40
2.866085915945788
 40
2.866085915945788
 40
2.866085915945788
 40
2.866085915945788
 10
23.06514169286265
 20
11.31553719905162
 30
0.0
 10
22.97529287420272
 20
11.45791474517119
 30
0.0
 10
22.79559050571606
 20
11.74267736208207
 30
0.0
 10
22.58280653519671
 20
12.15092464854689
 30
0.0
 10
22.41337835098682
 20
12.52981493675116
 30
0.0
 10
22.26759506435787
 20
12.93745297569728
 30
0.0
 10
22.12572291367167
 20
13.41254722420365
 30
0.0
 10
22.04000163189446
 20
13.77489808198868
 30
0.0
 10
21.9971472069426
 20
13.95604726761161
 30
0.0
 11
23.06514169286265
 21
11.31553719905162
 31
0.0
 11
22.8015815299799
 21
11.74618733303248
 31
0.0
 11
22.56722365037569
 21
12.19343089113147
 31
0.0
 11
22.41777317780316
 21
12.5316146054509
 31
0.0
 11
22.29129674348019
 21
12.87894153380461
 31
0.0
 11
22.13092724387923
 21
13.41394759291933
 31
0.0
 11
21.9971472069426
 21
13.95604726761161
 31
0.0
  0
SPLINE
  5
405
330
2
100
AcDbEntity
  8
PANEL
  6
Continuous
 62
     1
100
AcDbSpline
210
0.0
220
0.0
230
1.0
 70
     8
 71
     3
 72
     9
 73
     5
 74
     3
 42
0.0000000001
 43
0.0000000001
 44
0.00000001
 40
0.0
 40
0.0
 40
0.0
 40
0.0
 40
0.0064648806026011
 40
0.0177052668386957
 40
0.0177052668386957
 40
0.0177052668386957
 40
0.0177052668386957
 10
21.33380134594256
 20
21.87874474861161
 30
0.0
 10
21.33614831005676
 20
21.8783708686849
 30
0.0
 10
21.34257589627737
 20
21.87734691338238
 30
0.0
 10
21.34248998173655
 20
21.87031755886119
 30
0.0
 10
21.34243542976264
 20
21.86585488873163
 30
0.0
 11
21.33380134594256
 21
21.87874474861161
 31
0.0
 11
21.33997381873667
 21
21.87682242566501
 31
0.0
 11
21.34243542976264
 21
21.86585488873163
 31
0.0
  0
SPLINE
  5
406
330
2
100
AcDbEntity
  8
PANEL
  6
Continuous
 62
     1
100
AcDbSpline
210
0.0
220
0.0
230
1.0
 70
     8
 71
     3
 72
     9
 73
     5
 74
     3
 42
0.0000000001
 43
0.0000000001
 44
0.00000001
 40
0.0
 40
0.0
 40
0.0
 40
0.0
 40
0.0063791042704623
 40
0.0176594747990009
 40
0.0176594747990009
 40
0.0176594747990009
 40
0.0176594747990009
 10
21.33312705342257
 20
21.53232670653165
 30
0.0
 10
21.335445889655
 20
21.53196878921432
 30
0.0
 10
21.34186518946803
 20
21.53097793914276
 30
0.0
 10
21.34172868463526
 20
21.52394022499994
 30
0.0
 10
21.34164148106265
 20
21.51944472723164
 30
0.0
 11
21.33312705342257
 21
21.53232670653165
 31
0.0
 11
21.33922812356764
 21
21.53046391861773
 31
0.0
 11
21.34164148106265
 21
21.51944472723164
 31
0.0
  0
SPLINE
  5
407
330
2
100
AcDbEntity
  8
PANEL
  6
Continuous
 62
     1
100
AcDbSpline
210
0.0
220
0.0
230
1.0
 70
    24
 71
     3
 72
     9
 73
     5
 74
     3
 42
0.0000000001
 43
0.0000000001
 44
0.00000001
 40
0.0
 40
0.0
 40
0.0
 40
0.0
 40
0.009448305329143
 40
0.0188966106583996
 40
0.0188966106583996
 40
0.0188966106583996
 40
0.0188966106583996
 10
24.36150322130266
 20
20.06989621857162
 30
0.0
 10
24.36161055224267
 20
20.06674861288167
 30
0.0
 10
24.36182521412263
 20
20.06045340150166
 30
0.0
 10
24.3620398760026
 20
20.0541581901216
 30
0.0
 10
24.36214720694261
 20
20.05101058443159
 30
0.0
 11
24.36150322130266
 21
20.06989621857162
 31
0.0
 11
24.36182521412263
 21
20.06045340150166
 31
0.0
 11
24.36214720694261
 21
20.05101058443159
 31
0.0
  0
SPLINE
  5
408
330
2
100
AcDbEntity
  8
PANEL
  6
Continuous
 62
     1
100
AcDbSpline
210
0.0
220
0.0
230
1.0
 70
    24
 71
     3
 72
     9
 73
     5
 74
     3
 42
0.0000000001
 43
0.0000000001
 44
0.00000001
 40
0.0
 40
0.0
 40
0.0
 40
0.0
 40
0.0248025435981031
 40
0.0496050871961723
 40
0.0496050871961723
 40
0.0496050871961723
 40
0.0496050871961723
 10
21.39666700154259
 20
21.36603269395164
 30
0.0
 10
21.39950633847925
 20
21.35826803283163
 30
0.0
 10
21.40518501235255
 20
21.34273871059162
 30
0.0
 10
21.41086368622589
 20
21.32720938835166
 30
0.0
 10
21.41370302316261
 20
21.31944472723166
 30
0.0
 11
21.39666700154259
 21
21.36603269395164
 31
0.0
 11
21.4051850123526
 21
21.34273871059162
 31
0.0
 11
21.41370302316261
 21
21.31944472723166
 31
0.0
  0
SPLINE
  5
409
330
2
100
AcDbEntity
  8
PANEL
  6
Continuous
 62
     1
100
AcDbSpline
210
0.0
220
0.0
230
1.0
 70
    24
 71
     3
 72
     9
 73
     5
 74
     3
 42
0.0000000001
 43
0.0000000001
 44
0.00000001
 40
0.0
 40
0.0
 40
0.0
 40
0.0
 40
0.0106670452642032
 40
0.0213340905284598
 40
0.0213340905284598
 40
0.0213340905284598
 40
0.0213340905284598
 10
21.38938145090265
 20
21.38608423181159
 30
0.0
 10
21.39059570934262
 20
21.38274230883491
 30
0.0
 10
21.39302422622262
 20
21.37605846288165
 30
0.0
 10
21.39545274310262
 20
21.36937461692832
 30
0.0
 10
21.39666700154259
 20
21.36603269395164
 30
0.0
 11
21.38938145090265
 21
21.38608423181159
 31
0.0
 11
21.39302422622257
 21
21.37605846288165
 31
0.0
 11
21.39666700154259
 21
21.36603269395164
 31
0.0
  0
SPLINE
  5
40A
330
2
100
AcDbEntity
  8
PANEL
  6
Continuous
 62
     1
100
AcDbSpline
210
0.0
220
0.0
230
1.0
 70
    24
 71
     3
 72
     9
 73
     5
 74
     3
 42
0.0000000001
 43
0.0000000001
 44
0.00000001
 40
0.0
 40
0.0
 40
0.0
 40
0.0
 40
0.0354311067733927
 40
0.0708622135469459
 40
0.0708622135469459
 40
0.0708622135469459
 40
0.0708622135469459
 10
21.36536088008256
 20
21.45275105629162
 30
0.0
 10
21.36936430855258
 20
21.44163991887831
 30
0.0
 10
21.37737116549266
 20
21.41941764405164
 30
0.0
 10
21.38537802243263
 20
21.39719536922496
 30
0.0
 10
21.38938145090265
 20
21.38608423181159
 30
0.0
 11
21.36536088008256
 21
21.45275105629162
 31
0.0
 11
21.3773711654926
 21
21.41941764405164
 31
0.0
 11
21.38938145090265
 21
21.38608423181159
 31
0.0
  0
SPLINE
  5
40B
330
2
100
AcDbEntity
  8
PANEL
  6
Continuous
 62
     1
100
AcDbSpline
210
0.0
220
0.0
230
1.0
 70
    24
 71
     3
 72
     9
 73
     5
 74
     3
 42
0.0000000001
 43
0.0000000001
 44
0.00000001
 40
0.0
 40
0.0
 40
0.0
 40
0.0
 40
0.0106966614046166
 40
0.0213933228090878
 40
0.0213933228090878
 40
0.0213933228090878
 40
0.0213933228090878
 10
21.35816320446259
 20
21.47289721539164
 30
0.0
 10
21.35936281706591
 20
21.46953952220832
 30
0.0
 10
21.36176204227263
 20
21.46282413584157
 30
0.0
 10
21.36416126747929
 20
21.45610874947494
 30
0.0
 10
21.36536088008256
 20
21.45275105629162
 30
0.0
 11
21.35816320446259
 21
21.47289721539164
 31
0.0
 11
21.36176204227263
 21
21.46282413584157
 31
0.0
 11
21.36536088008256
 21
21.45275105629162
 31
0.0
  0
SPLINE
  5
40C
330
2
100
AcDbEntity
  8
PANEL
  6
Continuous
 62
     1
100
AcDbSpline
210
0.0
220
0.0
230
1.0
 70
    24
 71
     3
 72
     9
 73
     5
 74
     3
 42
0.0000000001
 43
0.0000000001
 44
0.00000001
 40
0.0
 40
0.0
 40
0.0
 40
0.0
 40
0.0246963469089488
 40
0.0493926938180048
 40
0.0493926938180048
 40
0.0493926938180048
 40
0.0493926938180048
 10
21.34164148106265
 20
21.51944472723164
 30
0.0
 10
21.34439510162934
 20
21.51168680859166
 30
0.0
 10
21.3499023427627
 20
21.49617097131176
 30
0.0
 10
21.35540958389592
 20
21.48065513403168
 30
0.0
 10
21.35816320446259
 20
21.47289721539164
 30
0.0
 11
21.34164148106265
 21
21.51944472723164
 31
0.0
 11
21.34990234276256
 21
21.49617097131164
 31
0.0
 11
21.35816320446259
 21
21.47289721539164
 31
0.0
  0
SPLINE
  5
40D
330
2
100
AcDbEntity
  8
PANEL
  6
Continuous
 62
     1
100
AcDbSpline
210
0.0
220
0.0
230
1.0
 70
    24
 71
     3
 72
     9
 73
     5
 74
     3
 42
0.0000000001
 43
0.0000000001
 44
0.00000001
 40
0.0
 40
0.0
 40
0.0
 40
0.0
 40
0.0026112877632814
 40
0.0052225755268041
 40
0.0052225755268041
 40
0.0052225755268041
 40
0.0052225755268041
 10
21.4270476526026
 20
21.1370638935316
 30
0.0
 10
21.42643077019264
 20
21.13644980625833
 30
0.0
 10
21.42519700537258
 20
21.13522163171166
 30
0.0
 10
21.42396324055267
 20
21.13399345716505
 30
0.0
 10
21.42334635814257
 20
21.13337936989166
 30
0.0
 11
21.4270476526026
 21
21.1370638935316
 31
0.0
 11
21.42519700537264
 21
21.13522163171166
 31
0.0
 11
21.42334635814257
 21
21.13337936989166
 31
0.0
  0
SPLINE
  5
40E
330
2
100
AcDbEntity
  8
PANEL
  6
Continuous
 62
     1
100
AcDbSpline
210
0.0
220
0.0
230
1.0
 70
     8
 71
     3
 72
    11
 73
     7
 74
     5
 42
0.0000000001
 43
0.0000000001
 44
0.00000001
 40
0.0
 40
0.0
 40
0.0
 40
0.0
 40
0.0253468146801262
 40
0.0513770769538658
 40
0.0592802811414815
 40
0.0670992200644126
 40
0.0670992200644126
 40
0.0670992200644126
 40
0.0670992200644126
 10
21.43190954310262
 20
21.20325017213162
 30
0.0
 10
21.43199290642349
 20
21.19479364063676
 30
0.0
 10
21.43216188374953
 20
21.17765255956664
 30
0.0
 10
21.43252308811239
 20
21.15799029232698
 30
0.0
 10
21.43102535473776
 20
21.14393242839089
 30
0.0
 10
21.42836881327955
 20
21.13934520756061
 30
0.0
 10
21.4270476526026
 20
21.1370638935316
 30
0.0
 11
21.43190954310262
 21
21.20325017213162
 31
0.0
 11
21.43219469250687
 21
21.17790496496161
 31
0.0
 11
21.43179558551969
 21
21.15187776419884
 31
0.0
 11
21.43049357923678
 21
21.1440825444497
 31
0.0
 11
21.4270476526026
 21
21.1370638935316
 31
0.0
  0
SPLINE
  5
40F
330
2
100
AcDbEntity
  8
PANEL
  6
Continuous
 62
     1
100
AcDbSpline
210
0.0
220
0.0
230
1.0
 70
     8
 71
     3
 72
    11
 73
     7
 74
     5
 42
0.0000000001
 43
0.0000000001
 44
0.00000001
 40
0.0
 40
0.0
 40
0.0
 40
0.0
 40
0.026264524721856
 40
0.0525071092211379
 40
0.0852142331092099
 40
0.1179108910952465
 40
0.1179108910952465
 40
0.1179108910952465
 40
0.1179108910952465
 10
21.41370302316261
 20
21.31944472723166
 30
0.0
 10
21.41615671666796
 20
21.31103461375943
 30
0.0
 10
21.42106203965596
 20
21.29422140840148
 30
0.0
 10
21.42607078176937
 20
21.26622157721477
 30
0.0
 10
21.42979831570603
 20
21.2358885070575
 30
0.0
 10
21.43120588074302
 20
21.2141284568321
 30
0.0
 10
21.43190954310262
 20
21.20325017213162
 30
0.0
 11
21.41370302316261
 21
21.31944472723166
 31
0.0
 11
21.42060895706834
 21
21.2941043766001
 31
0.0
 11
21.42547930534022
 21
21.26831769403048
 31
0.0
 11
21.42948550017991
 21
21.23585684979355
 31
0.0
 11
21.43190954310262
 21
21.20325017213162
 31
0.0
  0
SPLINE
  5
410
330
2
100
AcDbEntity
  8
PANEL
  6
Continuous
 62
     1
100
AcDbSpline
210
0.0
220
0.0
230
1.0
 70
    24
 71
     3
 72
     9
 73
     5
 74
     3
 42
0.0000000001
 43
0.0000000001
 44
0.00000001
 40
0.0
 40
0.0
 40
0.0
 40
0.0
 40
0.0250735422223258
 40
0.0501470844447439
 40
0.0501470844447439
 40
0.0501470844447439
 40
0.0501470844447439
 10
21.39727229512255
 20
21.71295245313161
 30
0.0
 10
21.4001423972592
 20
21.70510285906494
 30
0.0
 10
21.40588260153265
 20
21.68940367093171
 30
0.0
 10
21.41162280580591
 20
21.67370448279831
 30
0.0
 10
21.41449290794264
 20
21.66585488873165
 30
0.0
 11
21.39727229512255
 21
21.71295245313161
 31
0.0
 11
21.40588260153254
 21
21.68940367093165
 31
0.0
 11
21.41449290794264
 21
21.66585488873165
 31
0.0
  0
SPLINE
  5
411
330
2
100
AcDbEntity
  8
PANEL
  6
Continuous
 62
     1
100
AcDbSpline
210
0.0
220
0.0
230
1.0
 70
    24
 71
     3
 72
     9
 73
     5
 74
     3
 42
0.0000000001
 43
0.0000000001
 44
0.00000001
 40
0.0
 40
0.0
 40
0.0
 40
0.0
 40
0.0103959488782038
 40
0.020791897756461
 40
0.020791897756461
 40
0.020791897756461
 40
0.020791897756461
 10
21.39017255228259
 20
21.73249462967163
 30
0.0
 10
21.3913558427559
 20
21.72923760024827
 30
0.0
 10
21.39372242370265
 20
21.7227235414017
 30
0.0
 10
21.39608900464921
 20
21.71620948255498
 30
0.0
 10
21.39727229512255
 20
21.71295245313161
 30
0.0
 11
21.39017255228259
 21
21.73249462967163
 31
0.0
 11
21.39372242370257
 21
21.72272354140159
 31
0.0
 11
21.39727229512255
 21
21.71295245313161
 31
0.0
  0
SPLINE
  5
412
330
2
100
AcDbEntity
  8
PANEL
  6
Continuous
 62
     1
100
AcDbSpline
210
0.0
220
0.0
230
1.0
 70
    24
 71
     3
 72
     9
 73
     5
 74
     3
 42
0.0000000001
 43
0.0000000001
 44
0.00000001
 40
0.0
 40
0.0
 40
0.0
 40
0.0
 40
0.0354308771702159
 40
0.0708617543403249
 40
0.0708617543403249
 40
0.0708617543403249
 40
0.0708617543403249
 10
21.36615333646262
 20
21.79916145425165
 30
0.0
 10
21.3701565390993
 20
21.78805031682163
 30
0.0
 10
21.37816294437255
 20
21.76582804196164
 30
0.0
 10
21.38616934964591
 20
21.74360576710165
 30
0.0
 10
21.39017255228259
 20
21.73249462967163
 30
0.0
 11
21.36615333646262
 21
21.79916145425165
 31
0.0
 11
21.37816294437266
 21
21.76582804196164
 31
0.0
 11
21.39017255228259
 21
21.73249462967163
 31
0.0
  0
SPLINE
  5
413
330
2
100
AcDbEntity
  8
PANEL
  6
Continuous
 62
     1
100
AcDbSpline
210
0.0
220
0.0
230
1.0
 70
    24
 71
     3
 72
     9
 73
     5
 74
     3
 42
0.0000000001
 43
0.0000000001
 44
0.00000001
 40
0.0
 40
0.0
 40
0.0
 40
0.0
 40
0.0353926309454288
 40
0.0707852618909111
 40
0.0707852618909111
 40
0.0707852618909111
 40
0.0707852618909111
 10
21.34243542976264
 20
21.86585488873163
 30
0.0
 10
21.34638841421258
 20
21.85473931631827
 30
0.0
 10
21.35429438311269
 20
21.83250817149167
 30
0.0
 10
21.36220035201265
 20
21.81027702666501
 30
0.0
 10
21.36615333646262
 20
21.79916145425165
 30
0.0
 11
21.34243542976264
 21
21.86585488873163
 31
0.0
 11
21.35429438311257
 21
21.83250817149161
 31
0.0
 11
21.36615333646262
 21
21.79916145425165
 31
0.0
  0
SPLINE
  5
414
330
2
100
AcDbEntity
  8
PANEL
  6
Continuous
 62
     1
100
AcDbSpline
210
0.0
220
0.0
230
1.0
 70
    24
 71
     3
 72
     9
 73
     5
 74
     3
 42
0.0000000001
 43
0.0000000001
 44
0.00000001
 40
0.0
 40
0.0
 40
0.0
 40
0.0
 40
0.0024467243351075
 40
0.0048934486702538
 40
0.0048934486702538
 40
0.0048934486702538
 40
0.0048934486702538
 10
21.42625230294266
 20
21.48312302057161
 30
0.0
 10
21.42565610010598
 20
21.48256650965828
 30
0.0
 10
21.42446369443257
 20
21.48145348783157
 30
0.0
 10
21.42327128875931
 20
21.48034046600498
 30
0.0
 10
21.42267508592261
 20
21.47978395509159
 30
0.0
 11
21.42625230294266
 21
21.48312302057161
 31
0.0
 11
21.42446369443257
 21
21.48145348783163
 31
0.0
 11
21.42267508592261
 21
21.47978395509159
 31
0.0
  0
SPLINE
  5
415
330
2
100
AcDbEntity
  8
PANEL
  6
Continuous
 62
     1
100
AcDbSpline
210
0.0
220
0.0
230
1.0
 70
     8
 71
     3
 72
    11
 73
     7
 74
     5
 42
0.0000000001
 43
0.0000000001
 44
0.00000001
 40
0.0
 40
0.0
 40
0.0
 40
0.0
 40
0.0253598151678411
 40
0.0514167961928021
 40
0.0595527248552251
 40
0.0676086571028102
 40
0.0676086571028102
 40
0.0676086571028102
 40
0.0676086571028102
 10
21.43208385972264
 20
21.5496683162516
 30
0.0
 10
21.432100426402
 20
21.54120673289469
 30
0.0
 10
21.43213401849934
 20
21.52405095158087
 30
0.0
 10
21.43228512151029
 20
21.50429973955608
 30
0.0
 10
21.4305490859779
 20
21.49008492908132
 30
0.0
 10
21.42767984471666
 20
21.48543599825535
 30
0.0
 10
21.42625230294266
 20
21.48312302057161
 30
0.0
 11
21.43208385972264
 21
21.5496683162516
 31
0.0
 11
21.43215711836126
 21
21.52430861059599
 31
0.0
 11
21.43146426553119
 21
21.49826084446027
 31
0.0
 11
21.4299893746786
 21
21.49025971490869
 31
0.0
 11
21.42625230294266
 21
21.48312302057161
 31
0.0
  0
SPLINE
  5
416
330
2
100
AcDbEntity
  8
PANEL
  6
Continuous
 62
     1
100
AcDbSpline
210
0.0
220
0.0
230
1.0
 70
     8
 71
     3
 72
    11
 73
     7
 74
     5
 42
0.0000000001
 43
0.0000000001
 44
0.00000001
 40
0.0
 40
0.0
 40
0.0
 40
0.0
 40
0.0262516243232223
 40
0.0524801050359814
 40
0.0851581056847693
 40
0.117825086867348
 40
0.117825086867348
 40
0.117825086867348
 40
0.117825086867348
 10
21.41449290794264
 20
21.66585488873165
 30
0.0
 10
21.41693065587276
 20
21.65744428697036
 30
0.0
 10
21.42180398827475
 20
21.64063049447429
 30
0.0
 10
21.42668062207969
 20
21.61262419991067
 30
0.0
 10
21.43022151709934
 20
21.58229259368028
 30
0.0
 10
21.4314631536711
 20
21.56054185311626
 30
0.0
 10
21.43208385972264
 20
21.5496683162516
 30
0.0
 11
21.41449290794264
 21
21.66585488873165
 31
0.0
 11
21.42133872888144
 21
21.6405115947361
 31
0.0
 11
21.42609409683655
 21
21.61471780233546
 31
0.0
 11
21.42990057609518
 21
21.58226225587589
 31
0.0
 11
21.43208385972264
 21
21.5496683162516
 31
0.0
  0
SPLINE
  5
417
330
2
100
AcDbEntity
  8
PANEL
  6
Continuous
 62
     1
100
AcDbSpline
210
0.0
220
0.0
230
1.0
 70
    24
 71
     3
 72
     9
 73
     5
 74
     3
 42
0.0000000001
 43
0.0000000001
 44
0.00000001
 40
0.0
 40
0.0
 40
0.0
 40
0.0
 40
0.0181851804634113
 40
0.0363703609268397
 40
0.0363703609268397
 40
0.0363703609268397
 40
0.0363703609268397
 10
21.22214720694262
 20
22.79690749417165
 30
0.0
 10
21.22398271369261
 20
22.80268464286502
 30
0.0
 10
21.22765372719255
 20
22.81423894025164
 30
0.0
 10
21.23132474069257
 20
22.82579323763832
 30
0.0
 10
21.23316024744259
 20
22.83157038633163
 30
0.0
 11
21.22214720694262
 21
22.79690749417165
 31
0.0
 11
21.22765372719255
 21
22.81423894025164
 31
0.0
 11
21.23316024744259
 21
22.83157038633163
 31
0.0
  0
SPLINE
  5
418
330
2
100
AcDbEntity
  8
PANEL
  6
Continuous
 62
     1
100
AcDbSpline
210
0.0
220
0.0
230
1.0
 70
     8
 71
     3
 72
    13
 73
     9
 74
     7
 42
0.0000000001
 43
0.0000000001
 44
0.00000001
 40
0.0
 40
0.0
 40
0.0
 40
0.0
 40
0.0139890691691019
 40
0.0279231474875931
 40
0.0504091287340052
 40
0.0733730068323595
 40
0.0908609412017453
 40
0.1086051558207548
 40
0.1086051558207548
 40
0.1086051558207548
 40
0.1086051558207548
 10
28.02215353328256
 20
29.01512956691164
 30
0.0
 10
28.0267740182544
 20
29.01576072115648
 30
0.0
 10
28.03599682669793
 20
29.01702053725012
 30
0.0
 10
28.05258423131366
 20
29.01968655165899
 30
0.0
 10
28.07202500870909
 20
29.02361388615663
 30
0.0
 10
28.09250150478903
 20
29.02750118005275
 30
0.0
 10
28.11121643554128
 20
29.03468682082149
 30
0.0
 10
28.11848599397519
 20
29.04419581452748
 30
0.0
 10
28.12214720678264
 20
29.04898490251162
 30
0.0
 11
28.02215353328256
 21
29.01512956691164
 31
0.0
 11
28.03600631328595
 21
29.01707748171901
 31
0.0
 11
28.04976121038931
 21
29.01930489133639
 31
0.0
 11
28.07184597437811
 21
29.0235336661122
 31
0.0
 11
28.09423404082418
 21
29.02864385008025
 31
0.0
 11
28.11013360127617
 21
29.03592616687689
 31
0.0
 11
28.12214720678264
 21
29.04898490251162
 31
0.0
  0
SPLINE
  5
419
330
2
100
AcDbEntity
  8
PANEL
  6
Continuous
 62
     1
100
AcDbSpline
210
0.0
220
0.0
230
1.0
 70
    24
 71
     3
 72
     9
 73
     5
 74
     3
 42
0.0000000001
 43
0.0000000001
 44
0.00000001
 40
0.0
 40
0.0
 40
0.0
 40
0.0
 40
0.0146342802854707
 40
0.0292685605707644
 40
0.0292685605707644
 40
0.0292685605707644
 40
0.0292685605707644
 10
28.05111070212263
 20
37.99809546339162
 30
0.0
 10
28.04628291582261
 20
37.99879423011834
 30
0.0
 10
28.03662734322256
 20
38.00019176357165
 30
0.0
 10
28.02697177062256
 20
38.00158929702491
 30
0.0
 10
28.02214398432261
 20
38.00228806375162
 30
0.0
 11
28.05111070212263
 21
37.99809546339162
 31
0.0
 11
28.03662734322256
 21
38.00019176357165
 31
0.0
 11
28.02214398432261
 21
38.00228806375162
 31
0.0
  0
SPLINE
  5
41A
330
2
100
AcDbEntity
  8
PANEL
  6
Continuous
 62
     1
100
AcDbSpline
210
0.0
220
0.0
230
1.0
 70
     8
 71
     3
 72
    13
 73
     9
 74
     7
 42
0.0000000001
 43
0.0000000001
 44
0.00000001
 40
0.0
 40
0.0
 40
0.0
 40
0.0
 40
0.0177470667448422
 40
0.0352378209802564
 40
0.0582037266253034
 40
0.080691736369318
 40
0.0946209048982287
 40
0.1086050308193847
 40
0.1086050308193847
 40
0.1086050308193847
 40
0.1086050308193847
 10
28.12214720678264
 20
28.06417714949163
 30
0.0
 10
28.11848510855813
 20
28.05938753380326
 30
0.0
 10
28.11121379023609
 20
28.04987748989845
 30
0.0
 10
28.09249616933249
 20
28.04269160174346
 30
0.0
 10
28.07201731883879
 20
28.03880443042965
 30
0.0
 10
28.05257674291352
 20
28.03487754859162
 30
0.0
 10
28.03599188260026
 20
28.0322121396162
 30
0.0
 10
28.02677232604651
 20
28.03095278854858
 30
0.0
 10
28.02215347254264
 20
28.03032186759163
 30
0.0
 11
28.12214720678264
 21
28.06417714949163
 31
0.0
 11
28.11013089640232
 21
28.05111702682433
 31
0.0
 11
28.09422847866381
 21
28.04383417670038
 31
0.0
 11
28.07183828826032
 21
28.03872418670119
 31
0.0
 11
28.04975144313653
 21
28.03449549439165
 31
0.0
 11
28.03600136481021
 21
28.03226904177183
 31
0.0
 11
28.02215347254264
 21
28.03032186759163
 31
0.0
  0
SPLINE
  5
41B
330
2
100
AcDbEntity
  8
PANEL
  6
Continuous
 62
     1
100
AcDbSpline
210
0.0
220
0.0
230
1.0
 70
     8
 71
     3
 72
    37
 73
    33
 74
    31
 42
0.0000000001
 43
0.0000000001
 44
0.00000001
 40
0.0
 40
0.0
 40
0.0
 40
0.0
 40
0.1111318702599363
 40
0.2219380278610183
 40
0.2954965470379198
 40
0.3690208283665352
 40
0.4427158851495455
 40
0.5164191005699964
 40
0.5908468042204214
 40
0.665278100391335
 40
0.7405521618096643
 40
0.8158304140439277
 40
0.8916694837810103
 40
0.9675103138511859
 40
1.043597418167538
 40
1.11968543803691
 40
1.195810880373688
 40
1.271935874161494
 40
1.348018241060928
 40
1.424100556360581
 40
1.500258527847942
 40
1.576417083138546
 40
1.65250614102783
 40
1.728593457123717
 40
1.804289237033927
 40
1.879983240100088
 40
1.955302862126277
 40
2.030615323729077
 40
2.1059868375904
 40
2.181395924766016
 40
2.295025254711121
 40
2.409005408580505
 40
2.409005408580505
 40
2.409005408580505
 40
2.409005408580505
 10
24.98214720694261
 20
20.99668195229162
 30
0.0
 10
24.94507360492671
 20
20.99827282827624
 30
0.0
 10
24.87103505964919
 20
21.0014499299437
 30
0.0
 10
24.77452717118652
 20
21.02372941839036
 30
0.0
 10
24.69330423394968
 20
21.05209294786448
 30
0.0
 10
24.62643070882609
 20
21.08312410670249
 30
0.0
 10
24.56277064905751
 20
21.12035675800871
 30
0.0
 10
24.50275259688897
 20
21.16374164422382
 30
0.0
 10
24.44697223528379
 20
21.21282906044297
 30
0.0
 10
24.39588652401628
 20
21.26750527147556
 30
0.0
 10
24.35015288398506
 20
21.32709332982404
 30
0.0
 10
24.31027459314771
 20
21.3913022100088
 30
0.0
 10
24.27677192137745
 20
21.45927007910734
 30
0.0
 10
24.25010208019532
 20
21.53048618650416
 30
0.0
 10
24.23053320917518
 20
21.60405852034251
 30
0.0
 10
24.21839239597443
 20
21.67931070182709
 30
0.0
 10
24.21371500575066
 20
21.75540518376459
 30
0.0
 10
24.21666289769798
 20
21.83158438204509
 30
0.0
 10
24.2270910420832
 20
21.90708929678266
 30
0.0
 10
24.24500749675985
 20
21.98118661259616
 30
0.0
 10
24.27013724388408
 20
22.05318539149073
 30
0.0
 10
24.3023350991607
 20
22.12231543375498
 30
0.0
 10
24.34116484354894
 20
22.18792230372958
 30
0.0
 10
24.38625421100772
 20
22.2492039369377
 30
0.0
 10
24.43704462539717
 20
22.30567118317532
 30
0.0
 10
24.49299639622552
 20
22.35664850895972
 30
0.0
 10
24.55354710030503
 20
22.40185487877892
 30
0.0
 10
24.61816493805961
 20
22.44080597987391
 30
0.0
 10
24.68629963191896
 20
22.47334131948111
 30
0.0
 10
24.76932882672313
 20
22.50313226975055
 30
0.0
 10
24.86818773720694
 20
22.52655780860255
 30
0.0
 10
24.94412170330554
 20
22.52989619538846
 30
0.0
 10
24.98214720694261
 20
22.53156795539161
 30
0.0
 11
24.98214720694261
 21
20.99668195229162
 31
0.0
 11
24.87131617427019
 21
21.00485361767494
 31
0.0
 11
24.76313759435413
 21
21.02884111206089
 31
0.0
 11
24.69373686522022
 21
21.05322132226183
 31
0.0
 11
24.62702382169652
 21
21.08412746810438
 31
0.0
 11
24.56342117171209
 21
21.12135198121513
 31
0.0
 11
24.50367966989143
 21
21.16451582003941
 31
0.0
 11
24.44781794776395
 21
21.21369865368757
 31
0.0
 11
24.39699081800984
 21
21.26807347121684
 31
0.0
 11
24.35117470994442
 21
21.3277984125196
 31
0.0
 11
24.31144328482594
 21
21.39173767405401
 31
0.0
 11
24.27792959213889
 21
21.45976999687787
 31
0.0
 11
24.2513147666051
 21
21.53078747792807
 31
0.0
 11
24.23177513739097
 21
21.60432284615649
 31
0.0
 11
24.21963790452594
 21
21.67943658919268
 31
0.0
 11
24.2149860936164
 21
21.75541976939104
 31
0.0
 11
24.21791105477678
 21
21.83148854963787
 31
0.0
 11
24.22833842262662
 21
21.9068529749303
 31
0.0
 11
24.2462013736407
 21
21.98080859493012
 31
0.0
 11
24.27131541197218
 21
22.05270659036398
 31
0.0
 11
24.30345304897594
 21
22.12175221209339
 31
0.0
 11
24.3422233601151
 21
22.18722287540021
 31
0.0
 11
24.38730069438361
 21
22.24851980563739
 31
0.0
 11
24.43793529873869
 21
22.30478691850493
 31
0.0
 11
24.49387559826096
 21
22.35577971255782
 31
0.0
 11
24.55424113778202
 21
22.40082465857136
 31
0.0
 11
24.61872929589208
 21
22.43972510080346
 31
0.0
 11
24.68676528580806
 21
22.47215917645462
 31
0.0
 11
24.75769491315441
 21
22.49776227211498
 31
0.0
 11
24.86849124561377
 21
22.5229773039357
 31
0.0
 11
24.98214720694261
 21
22.53156795539161
 31
0.0
  0
SPLINE
  5
41C
330
2
100
AcDbEntity
  8
PANEL
  6
Continuous
 62
     1
100
AcDbSpline
210
0.0
220
0.0
230
1.0
 70
     8
 71
     3
 72
    37
 73
    33
 74
    31
 42
0.0000000001
 43
0.0000000001
 44
0.00000001
 40
0.0
 40
0.0
 40
0.0
 40
0.0
 40
0.1133378232662481
 40
0.2263340198999054
 40
0.3016929497020627
 40
0.3770161405866591
 40
0.4524871007949872
 40
0.5279657957858239
 40
0.603829131410337
 40
0.6796937452574099
 40
0.7557524379172595
 40
0.831811426423393
 40
0.9076281452581508
 40
0.9834426438879685
 40
1.059100415725466
 40
1.134759082163158
 40
1.210744606837429
 40
1.286732559957975
 40
1.363025782471506
 40
1.439319529413158
 40
1.515443154844146
 40
1.591564339148685
 40
1.667036191617647
 40
1.742503624879956
 40
1.817089980788354
 40
1.891672578997257
 40
1.965624225056814
 40
2.039568579506473
 40
2.11365809159658
 40
2.187785003264766
 40
2.300176554698474
 40
2.412912191593672
 40
2.412912191593672
 40
2.412912191593672
 40
2.412912191593672
 10
24.98214720694261
 20
22.53156795539161
 30
0.0
 10
25.01996212543446
 20
22.53001047082284
 30
0.0
 10
25.09547797846517
 20
22.5269001839689
 30
0.0
 10
25.19398649256971
 20
22.50395663035522
 30
0.0
 10
25.27691111376453
 20
22.47459799480367
 30
0.0
 10
25.34520274134024
 20
22.44234730735866
 30
0.0
 10
25.41006249647018
 20
22.40362356212376
 30
0.0
 10
25.47092550263821
 20
22.35856398092278
 30
0.0
 10
25.52719493635308
 20
22.30768884271896
 30
0.0
 10
25.57825769230181
 20
22.25132738938362
 30
0.0
 10
25.62358354139246
 20
22.19017492366152
 30
0.0
 10
25.66257738950227
 20
22.12482110869609
 30
0.0
 10
25.69493479106578
 20
22.05603084199714
 30
0.0
 10
25.72024640127711
 20
21.98448988624159
 30
0.0
 10
25.73841805154939
 20
21.91086594502877
 30
0.0
 10
25.74919977520148
 20
21.83574535111097
 30
0.0
 10
25.75256888998138
 20
21.75981811757771
 30
0.0
 10
25.74833823684441
 20
21.68372208564512
 30
0.0
 10
25.73662059900116
 20
21.60830932677573
 30
0.0
 10
25.71740044707576
 20
21.53440480827561
 30
0.0
 10
25.69101339847856
 20
21.46280781270377
 30
0.0
 10
25.65772885205658
 20
21.39445000479515
 30
0.0
 10
25.61802475389391
 20
21.32987018036335
 30
0.0
 10
25.57243617466571
 20
21.26994271399866
 30
0.0
 10
25.52145758665009
 20
21.21493660573248
 30
0.0
 10
25.46572617376029
 20
21.16551151819448
 30
0.0
 10
25.40568677451711
 20
21.12178359488627
 30
0.0
 10
25.34184160890266
 20
21.08416424169281
 30
0.0
 10
25.2746322668045
 20
21.05275488099966
 30
0.0
 10
25.19260842687521
 20
21.02393269728242
 30
0.0
 10
25.09487316776304
 20
21.00129773970855
 30
0.0
 10
25.01976079490672
 20
20.99822211091384
 30
0.0
 10
24.98214720694261
 20
20.99668195229162
 30
0.0
 11
24.98214720694261
 21
22.53156795539161
 31
0.0
 11
25.09518738196175
 21
22.52335927869626
 31
0.0
 11
25.20546047311734
 21
22.49870190029816
 31
0.0
 11
25.2764504726216
 21
22.47341576999958
 31
0.0
 11
25.34458146248017
 21
22.44129488285199
 31
0.0
 11
25.40936961499665
 21
22.40258621201463
 31
0.0
 11
25.47004373673189
 21
22.35768983788364
 31
0.0
 11
25.52630368695736
 21
22.30679716897595
 31
0.0
 11
25.57725360483312
 21
22.25058733393689
 31
0.0
 11
25.62252863068966
 21
22.18947189551727
 31
0.0
 11
25.66151562705443
 21
22.12416505134257
 31
0.0
 11
25.69376947786009
 21
22.05555117511636
 31
0.0
 11
25.71907394156779
 21
21.98408424313999
 31
0.0
 11
25.73718584641233
 21
21.91062638182569
 31
0.0
 11
25.74795246555118
 21
21.83573770600742
 31
0.0
 11
25.75130241396266
 21
21.75982606096972
 31
0.0
 11
25.74710285217191
 21
21.68395424309983
 31
0.0
 11
25.73537045682372
 21
21.60856852331125
 31
0.0
 11
25.71618613554324
 21
21.53472613923026
 31
0.0
 11
25.68984436074379
 21
21.46330543287172
 31
0.0
 11
25.65653713049642
 21
21.39485791165055
 31
0.0
 11
25.616994437117
 21
21.33057435260338
 31
0.0
 11
25.5713169948142
 21
21.27050019178824
 31
0.0
 11
25.52060482211539
 21
21.21580649856128
 31
0.0
 11
25.46481642861284
 21
21.1663068100749
 31
0.0
 11
25.40502869765908
 21
21.12278356064246
 31
0.0
 11
25.34133242750647
 21
21.085226233914
 31
0.0
 11
25.27419121570097
 21
21.05390030915544
 31
0.0
 11
25.20430258807562
 21
21.02919446221404
 31
0.0
 11
25.09459009215368
 21
21.00480123451195
 31
0.0
 11
24.98214720694261
 21
20.99668195229162
 31
0.0
  0
SPLINE
  5
41D
330
2
100
AcDbEntity
  8
PANEL
  6
Continuous
 62
     1
100
AcDbSpline
210
0.0
220
0.0
230
1.0
 70
     8
 71
     3
 72
    19
 73
    15
 74
    13
 42
0.0000000001
 43
0.0000000001
 44
0.00000001
 40
0.0
 40
0.0
 40
0.0
 40
0.0
 40
0.0680293407591697
 40
0.1357844294864259
 40
0.181474008752318
 40
0.2271266858619332
 40
0.2722581886630333
 40
0.3173880229964546
 40
0.3624529260195147
 40
0.4075134563838088
 40
0.4527890020887819
 40
0.4980895118333516
 40
0.5642656368694923
 40
0.6306657525089748
 40
0.6306657525089748
 40
0.6306657525089748
 40
0.6306657525089748
 10
26.3821494253026
 20
31.05703321577164
 30
0.0
 10
26.38100401006574
 20
31.07973772153594
 30
0.0
 10
26.37871778274408
 20
31.12505520132987
 30
0.0
 10
26.36235876778977
 20
31.18379220297987
 30
0.0
 10
26.34157629488311
 20
31.23265150544592
 30
0.0
 10
26.31888284626658
 20
31.2722115115846
 30
0.0
 10
26.29202915598219
 20
31.30881280162936
 30
0.0
 10
26.2613369318004
 20
31.34200027070728
 30
0.0
 10
26.22718931795708
 20
31.37158188849241
 30
0.0
 10
26.18991300922772
 20
31.39718482455413
 30
0.0
 10
26.1499760066124
 20
31.41860540369055
 30
0.0
 10
26.10136062227832
 20
31.43791588024396
 30
0.0
 10
26.04357042378413
 20
31.4529227133661
 30
0.0
 10
25.99933045615481
 20
31.4550045819189
 30
0.0
 10
25.97717309952259
 20
31.45604726761161
 30
0.0
 11
26.3821494253026
 21
31.05703321577164
 31
0.0
 11
26.37621458957028
 21
31.12480318832019
 31
0.0
 11
26.3587314888448
 21
31.1902638138991
 31
0.0
 11
26.34075657859217
 21
31.23226905581674
 31
0.0
 11
26.3180777584879
 21
31.27189023865685
 31
0.0
 11
26.29136937806447
 21
31.30827038483011
 31
0.0
 11
26.26074263982821
 21
31.34141710297678
 31
0.0
 11
26.22667366233736
 21
31.37091541357018
 31
0.0
 11
26.18954204829254
 21
31.39644372544467
 31
0.0
 11
26.149628036536
 21
31.41781536041407
 31
0.0
 11
26.10756354618263
 21
31.43462948895769
 31
0.0
 11
26.04335233200561
 21
31.45063572911869
 31
0.0
 11
25.97717309952259
 21
31.45604726761161
 31
0.0
  0
SPLINE
  5
41E
330
2
100
AcDbEntity
  8
PANEL
  6
Continuous
 62
     1
100
AcDbSpline
210
0.0
220
0.0
230
1.0
 70
    24
 71
     3
 72
    11
 73
     7
 74
     5
 42
0.0000000001
 43
0.0000000001
 44
0.00000001
 40
0.0
 40
0.0
 40
0.0
 40
0.0
 40
0.4967464385950393
 40
0.9934928771900217
 40
1.491759522955078
 40
1.990026168719964
 40
1.990026168719964
 40
1.990026168719964
 40
1.990026168719964
 10
23.98714693080262
 20
31.45604726761161
 30
0.0
 10
24.152729077001
 20
31.45604726761161
 30
0.0
 10
24.48389336939766
 20
31.45604726761161
 30
0.0
 10
24.98114654371602
 20
31.45604726761161
 30
0.0
 10
25.47890645375762
 20
31.45604726761161
 30
0.0
 10
25.81108421760098
 20
31.45604726761161
 30
0.0
 10
25.97717309952259
 20
31.45604726761161
 30
0.0
 11
23.98714693080262
 21
31.45604726761161
 31
0.0
 11
24.48389336939761
 21
31.45604726761161
 31
0.0
 11
24.98063980799259
 21
31.45604726761161
 31
0.0
 11
25.47890645375765
 21
31.45604726761161
 31
0.0
 11
25.97717309952259
 21
31.45604726761161
 31
0.0
  0
SPLINE
  5
41F
330
2
100
AcDbEntity
  8
PANEL
  6
Continuous
 62
     1
100
AcDbSpline
210
0.0
220
0.0
230
1.0
 70
     8
 71
     3
 72
    19
 73
    15
 74
    13
 42
0.0000000001
 43
0.0000000001
 44
0.00000001
 40
0.0
 40
0.0
 40
0.0
 40
0.0
 40
0.0664797037636092
 40
0.1327325050685022
 40
0.1780945221141425
 40
0.2234304663272305
 40
0.2684990632107931
 40
0.3135709067589013
 40
0.3586328751318307
 40
0.4036957160417227
 40
0.4493308558025288
 40
0.4950039156997296
 40
0.5630677833460178
 40
0.6314109339769214
 40
0.6314109339769214
 40
0.6314109339769214
 40
0.6314109339769214
 10
23.98714693080262
 20
31.45604726761161
 30
0.0
 10
23.96496285806205
 20
31.45499592887745
 30
0.0
 10
23.92067043043278
 20
31.45289682523964
 30
0.0
 10
23.86282615489981
 20
31.43779289982695
 30
0.0
 10
23.81418313395369
 20
31.41837241497603
 30
0.0
 10
23.77424998859854
 20
31.39685210603801
 30
0.0
 10
23.73700465172567
 20
31.37116018861064
 30
0.0
 10
23.70292478573077
 20
31.34152791411117
 30
0.0
 10
23.6723120478344
 20
31.30832719259189
 30
0.0
 10
23.64552266218527
 20
31.27174377204994
 30
0.0
 10
23.62286271433985
 20
31.23220516917189
 30
0.0
 10
23.60203622700808
 20
31.18326615352697
 30
0.0
 10
23.58560152307481
 20
31.12433761847404
 30
0.0
 10
23.58329869580592
 20
31.07881246745939
 30
0.0
 10
23.58214493198261
 20
31.05600328667163
 30
0.0
 11
23.98714693080262
 21
31.45604726761161
 31
0.0
 11
23.92089110342704
 21
31.45059597792516
 31
0.0
 11
23.85662570822888
 21
31.43449029912626
 31
0.0
 11
23.81453338473057
 21
31.41758027315586
 31
0.0
 11
23.77460808034038
 21
31.39610195886678
 31
0.0
 11
23.73752055725004
 21
31.37049543375309
 31
0.0
 11
23.7035000465271
 21
31.34093065738483
 31
0.0
 11
23.67296793070114
 21
31.30778897715646
 31
0.0
 11
23.64633334975815
 21
31.27143985332129
 31
0.0
 11
23.62367836403667
 21
31.23182523877176
 31
0.0
 11
23.60570350397643
 21
31.18983794427931
 31
0.0
 11
23.58811883229873
 21
31.12408484805167
 31
0.0
 11
23.58214493198261
 21
31.05600328667163
 31
0.0
  0
SPLINE
  5
420
330
2
100
AcDbEntity
  8
PANEL
  6
Continuous
 62
     1
100
AcDbSpline
210
0.0
220
0.0
230
1.0
 70
     8
 71
     3
 72
    19
 73
    15
 74
    13
 42
0.0000000001
 43
0.0000000001
 44
0.00000001
 40
0.0
 40
0.0
 40
0.0
 40
0.0
 40
0.0683431506309035
 40
0.1364070182772467
 40
0.1820800781743953
 40
0.2277152179352015
 40
0.2727780588451605
 40
0.3178400272180547
 40
0.3629118707662002
 40
0.407980467649695
 40
0.4533164118627636
 40
0.4986784289087646
 40
0.564931230212001
 40
0.6314109339750003
 40
0.6314109339750003
 40
0.6314109339750003
 40
0.6314109339750003
 10
23.58214493198261
 20
21.05609124853163
 30
0.0
 10
23.58329869580586
 20
21.03328206774387
 30
0.0
 10
23.58560152307479
 20
20.9877569167291
 30
0.0
 10
23.60203622700814
 20
20.92882838167628
 30
0.0
 10
23.62286271433985
 20
20.87988936603137
 30
0.0
 10
23.64552266218522
 20
20.84035076315331
 30
0.0
 10
23.67231204783457
 20
20.80376734261137
 30
0.0
 10
23.70292478573077
 20
20.77056662109197
 30
0.0
 10
23.73700465172555
 20
20.74093434659244
 30
0.0
 10
23.7742499885988
 20
20.71524242916542
 30
0.0
 10
23.81418313395389
 20
20.69372212022745
 30
0.0
 10
23.8628261548987
 20
20.67430163537472
 30
0.0
 10
23.92067043043238
 20
20.65919770996334
 30
0.0
 10
23.96496285806177
 20
20.65709860633899
 30
0.0
 10
23.98714693080262
 20
20.6560472676116
 30
0.0
 11
23.58214493198261
 21
21.05609124853163
 31
0.0
 11
23.58811883229873
 21
20.98800968715159
 31
0.0
 11
23.60570350397643
 21
20.92225659092389
 31
0.0
 11
23.62367836403667
 21
20.88026929643149
 31
0.0
 11
23.64633334975815
 21
20.84065468188197
 31
0.0
 11
23.67296793070125
 21
20.80430555804679
 31
0.0
 11
23.7035000465271
 21
20.77116387781837
 31
0.0
 11
23.73752055725004
 21
20.74159910145005
 31
0.0
 11
23.7746080803405
 21
20.71599257633665
 31
0.0
 11
23.81453338473057
 21
20.69451426204739
 31
0.0
 11
23.85662570822876
 21
20.67760423607575
 31
0.0
 11
23.92089110342624
 21
20.66149855728093
 31
0.0
 11
23.98714693080262
 21
20.6560472676116
 31
0.0
  0
SPLINE
  5
421
330
2
100
AcDbEntity
  8
PANEL
  6
Continuous
 62
     1
100
AcDbSpline
210
0.0
220
0.0
230
1.0
 70
    24
 71
     3
 72
    11
 73
     7
 74
     5
 42
0.0000000001
 43
0.0000000001
 44
0.00000001
 40
0.0
 40
0.0
 40
0.0
 40
0.0
 40
0.4982666457649998
 40
0.9965332915300564
 40
1.493279730125038
 40
1.990026168719964
 40
1.990026168719964
 40
1.990026168719964
 40
1.990026168719964
 10
25.97717309952259
 20
20.6560472676116
 30
0.0
 10
25.81108421760089
 20
20.65604726761154
 30
0.0
 10
25.47890645375753
 20
20.65604726761154
 30
0.0
 10
24.98114654371597
 20
20.65604726761154
 30
0.0
 10
24.4838933693975
 20
20.6560472676116
 30
0.0
 10
24.15272907700091
 20
20.6560472676116
 30
0.0
 10
23.98714693080262
 20
20.6560472676116
 30
0.0
 11
25.97717309952259
 21
20.6560472676116
 31
0.0
 11
25.47890645375765
 21
20.6560472676116
 31
0.0
 11
24.98063980799259
 21
20.6560472676116
 31
0.0
 11
24.48389336939761
 21
20.6560472676116
 31
0.0
 11
23.98714693080262
 21
20.6560472676116
 31
0.0
  0
SPLINE
  5
422
330
2
100
AcDbEntity
  8
PANEL
  6
Continuous
 62
     1
100
AcDbSpline
210
0.0
220
0.0
230
1.0
 70
     8
 71
     3
 72
    19
 73
    15
 74
    13
 42
0.0000000001
 43
0.0000000001
 44
0.00000001
 40
0.0
 40
0.0
 40
0.0
 40
0.0
 40
0.0664001156387725
 40
0.13257624067322
 40
0.1778767504181272
 40
0.2231522961232345
 40
0.2682128264875257
 40
0.3132777295105486
 40
0.3584075638440116
 40
0.4035390666451575
 40
0.4491917437547727
 40
0.4948813230206126
 40
0.5626364117479237
 40
0.6306657525070934
 40
0.6306657525070934
 40
0.6306657525070934
 40
0.6306657525070934
 10
25.97717309952259
 20
20.6560472676116
 30
0.0
 10
25.99933045615504
 20
20.6570899532976
 30
0.0
 10
26.04357042378439
 20
20.65917182183711
 30
0.0
 10
26.10136062227935
 20
20.67417865495742
 30
0.0
 10
26.14997600661212
 20
20.69348913151277
 30
0.0
 10
26.18991300922758
 20
20.71490971064941
 30
0.0
 10
26.22718931795694
 20
20.74051264671061
 30
0.0
 10
26.26133693180054
 20
20.77009426449592
 30
0.0
 10
26.29202915598219
 20
20.80328173357373
 30
0.0
 10
26.3188828462666
 20
20.83988302361871
 30
0.0
 10
26.34157629488311
 20
20.87944302975728
 30
0.0
 10
26.36235876778983
 20
20.92830233222338
 30
0.0
 10
26.37871778274408
 20
20.98703933387338
 30
0.0
 10
26.38100401006574
 20
21.03235681366732
 30
0.0
 10
26.3821494253026
 20
21.05506131943162
 30
0.0
 11
25.97717309952259
 21
20.6560472676116
 31
0.0
 11
26.04335233200629
 21
20.66145880608747
 31
0.0
 11
26.10756354618263
 21
20.67746504624421
 31
0.0
 11
26.14962803653589
 21
20.69427917478902
 31
0.0
 11
26.18954204829242
 21
20.7156508097587
 31
0.0
 11
26.22667366233736
 21
20.74117912163302
 31
0.0
 11
26.26074263982821
 21
20.77067743222636
 31
0.0
 11
26.29136937806447
 21
20.80382415037309
 31
0.0
 11
26.3180777584879
 21
20.8402042965464
 31
0.0
 11
26.34075657859217
 21
20.87982547938651
 31
0.0
 11
26.3587314888448
 21
20.9218307213041
 31
0.0
 11
26.37621458957028
 21
20.98729134688307
 31
0.0
 11
26.3821494253026
 21
21.05506131943162
 31
0.0
  0
SPLINE
  5
423
330
2
100
AcDbEntity
  8
PANEL
  6
Continuous
 62
     1
100
AcDbSpline
210
0.0
220
0.0
230
1.0
 70
     8
 71
     3
 72
    13
 73
     9
 74
     7
 42
0.0000000001
 43
0.0000000001
 44
0.00000001
 40
0.0
 40
0.0
 40
0.0
 40
0.0
 40
0.0176461487354894
 40
0.0350754828923525
 40
0.0468385019554089
 40
0.0586026791108197
 40
0.0761003817316753
 40
0.0938118585607858
 40
0.0938118585607858
 40
0.0938118585607858
 40
0.0938118585607858
 10
26.38215722688256
 20
24.99619703269161
 30
0.0
 10
26.381654604533
 20
25.00210210548329
 30
0.0
 10
26.38065552122663
 20
25.01383969450859
 30
0.0
 10
26.37355148020294
 20
25.0281319322259
 30
0.0
 10
26.36492170107013
 20
25.03879145784629
 30
0.0
 10
26.35423850200186
 20
25.04742810891526
 30
0.0
 10
26.33990135318646
 20
25.05454491545754
 30
0.0
 10
26.32811893053699
 20
25.05554446539515
 30
0.0
 10
26.3221919493626
 20
25.05604726761163
 30
0.0
 11
26.38215722688256
 21
24.99619703269161
 31
0.0
 11
26.37955574697412
 21
25.01365036865355
 31
0.0
 11
26.3720777439479
 21
25.02939397870085
 31
0.0
 11
26.36462964448583
 21
25.03849861874988
 31
0.0
 11
26.35551962527154
 21
25.04594196829817
 31
0.0
 11
26.3397107593911
 21
25.05344193188717
 31
0.0
 11
26.3221919493626
 21
25.05604726761163
 31
0.0
  0
SPLINE
  5
424
330
2
100
AcDbEntity
  8
PANEL
  6
Continuous
 62
     1
100
AcDbSpline
210
0.0
220
0.0
230
1.0
 70
     8
 71
     3
 72
    13
 73
     9
 74
     7
 42
0.0000000001
 43
0.0000000001
 44
0.00000001
 40
0.0
 40
0.0
 40
0.0
 40
0.0
 40
0.0177114768278891
 40
0.0352091794459982
 40
0.0469733566019722
 40
0.0587363756651605
 40
0.0761657098217156
 40
0.0938118585572612
 40
0.0938118585572612
 40
0.0938118585572612
 40
0.0938118585572612
 10
26.3221919493626
 20
27.05604726761163
 30
0.0
 10
26.32811893053736
 20
27.05655006982158
 30
0.0
 10
26.33990135318726
 20
27.05754961974583
 30
0.0
 10
26.35423850200374
 20
27.06466642628703
 30
0.0
 10
26.36492170106973
 20
27.07330307735726
 30
0.0
 10
26.37355148020294
 20
27.08396260297741
 30
0.0
 10
26.38065552122663
 20
27.09825484069472
 30
0.0
 10
26.381654604533
 20
27.10999242971991
 30
0.0
 10
26.38215722688256
 20
27.11589750251164
 30
0.0
 11
26.3221919493626
 21
27.05604726761163
 31
0.0
 11
26.33971075939235
 21
27.05865260331939
 31
0.0
 11
26.35551962527188
 21
27.0661525669039
 31
0.0
 11
26.36462964448583
 21
27.07359591645349
 31
0.0
 11
26.3720777439479
 21
27.08270055650269
 31
0.0
 11
26.37955574697412
 21
27.09844416654966
 31
0.0
 11
26.38215722688256
 21
27.11589750251164
 31
0.0
  0
SPLINE
  5
425
330
2
100
AcDbEntity
  8
PANEL
  6
Continuous
 62
     1
100
AcDbSpline
210
0.0
220
0.0
230
1.0
 70
     8
 71
     3
 72
     9
 73
     5
 74
     0
 42
0.0000000001
 43
0.0000000001
 40
0.0166232164876248
 40
0.0166232164876248
 40
0.0166232164876248
 40
0.0166232164876248
 40
0.0387617710709654
 40
0.0773100940821989
 40
0.0773100940821989
 40
0.0773100940821989
 40
0.0773100940821989
 10
-29.45273302935584
 20
20.19128009871105
 30
0.0
 10
-29.45553921120535
 20
20.19811663502157
 30
0.0
 10
-29.46269286042639
 20
20.21702198849653
 30
0.0
 10
-29.46640292529048
 20
20.23698093533858
 30
0.0
 10
-29.46875955002258
 20
20.24965886695162
 30
0.0
  0
SPLINE
  5
426
330
2
100
AcDbEntity
  8
PANEL
  6
Continuous
 62
     1
100
AcDbSpline
210
0.0
220
0.0
230
1.0
 70
    24
 71
     3
 72
     9
 73
     5
 74
     3
 42
0.0000000001
 43
0.0000000001
 44
0.00000001
 40
0.0
 40
0.0
 40
0.0
 40
0.0
 40
0.0283659359082582
 40
0.0567318718166238
 40
0.0567318718166238
 40
0.0567318718166238
 40
0.0567318718166238
 10
-2.114441279782568
 20
20.23001741885162
 30
0.0
 10
-2.117559345112567
 20
20.22109102019164
 30
0.0
 10
-2.12379547577251
 20
20.20323822287173
 30
0.0
 10
-2.130031606432567
 20
20.1853854255516
 30
0.0
 10
-2.133149671762566
 20
20.17645902689162
 30
0.0
 11
-2.114441279782568
 21
20.23001741885162
 31
0.0
 11
-2.123795475772567
 21
20.20323822287162
 31
0.0
 11
-2.133149671762566
 21
20.17645902689162
 31
0.0
  0
SPLINE
  5
427
330
2
100
AcDbEntity
  8
PANEL
  6
Continuous
 62
     1
100
AcDbSpline
210
0.0
220
0.0
230
1.0
 70
    24
 71
     3
 72
     9
 73
     5
 74
     3
 42
0.0000000001
 43
0.0000000001
 44
0.00000001
 40
0.0
 40
0.0
 40
0.0
 40
0.0
 40
0.0099906356978516
 40
0.0199812713958604
 40
0.0199812713958604
 40
0.0199812713958604
 40
0.0199812713958604
 10
-2.110771848882563
 20
20.24965886695162
 30
0.0
 10
-2.111383420699269
 20
20.24638529226832
 30
0.0
 10
-2.112606564332622
 20
20.23983814290165
 30
0.0
 10
-2.113829707965919
 20
20.23329099353498
 30
0.0
 10
-2.114441279782568
 20
20.23001741885162
 30
0.0
 11
-2.110771848882563
 21
20.24965886695162
 31
0.0
 11
-2.112606564332622
 21
20.23983814290165
 31
0.0
 11
-2.114441279782568
 21
20.23001741885162
 31
0.0
  0
SPLINE
  5
428
330
2
100
AcDbEntity
  8
PANEL
  6
Continuous
 62
     1
100
AcDbSpline
210
0.0
220
0.0
230
1.0
 70
     8
 71
     3
 72
    11
 73
     7
 74
     5
 42
0.0000000001
 43
0.0000000001
 44
0.00000001
 40
0.0
 40
0.0
 40
0.0
 40
0.0
 40
0.0318329134273671
 40
0.0632545085914405
 40
0.0827333953517988
 40
0.1020362115954052
 40
0.1020362115954052
 40
0.1020362115954052
 40
0.1020362115954052
 10
-12.28946641104255
 20
20.57901295225162
 30
0.0
 10
-12.27995542305524
 20
20.58393973923563
 30
0.0
 10
-12.26105633458576
 20
20.59372963944912
 30
0.0
 10
-12.23285808801694
 20
20.59558986504902
 30
0.0
 10
-12.20956483272277
 20
20.59214769253003
 30
0.0
 10
-12.19761083907292
 20
20.58708858712595
 30
0.0
 10
-12.19166098054256
 20
20.58457051189163
 30
0.0
 11
-12.28946641104255
 21
20.57901295225162
 31
0.0
 11
-12.26025973876756
 21
20.59167410215321
 31
0.0
 11
-12.22896288513925
 21
20.59447120456838
 31
0.0
 11
-12.2097369062634
 21
20.59134249015778
 31
0.0
 11
-12.19166098054256
 21
20.58457051189163
 31
0.0
  0
SPLINE
  5
429
330
2
100
AcDbEntity
  8
PANEL
  6
Continuous
 62
     7
100
AcDbSpline
210
0.0
220
0.0
230
1.0
 70
     8
 71
     3
 72
    15
 73
    11
 74
     9
 42
0.0000000001
 43
0.0000000001
 44
0.00000001
 40
0.0
 40
0.0
 40
0.0
 40
0.0
 40
0.0811328892949416
 40
0.1622861664038968
 40
0.2041512014367861
 40
0.2459782104336822
 40
0.2750540985052079
 40
0.3042541818018817
 40
0.3229444116291091
 40
0.3416510994192597
 40
0.3416510994192597
 40
0.3416510994192597
 40
0.3416510994192597
 10
-13.92970910766246
 20
11.24012182739164
 30
0.0
 10
-13.90282133420982
 20
11.24302791762051
 30
0.0
 10
-13.84903903225904
 20
11.24884084284889
 30
0.0
 10
-13.78137281519579
 20
11.25605399517735
 30
0.0
 10
-13.72669481690963
 20
11.26152649868538
 30
0.0
 10
-13.68925090581493
 20
11.26478053004558
 30
0.0
 10
-13.65597156993368
 20
11.26739716212665
 30
0.0
 10
-13.63050364795421
 20
11.27019806988591
 30
0.0
 10
-13.60820357823721
 20
11.27116110704963
 30
0.0
 10
-13.59591346267092
 20
11.26884270181767
 30
0.0
 10
-13.58976569944252
 20
11.26768299621159
 30
0.0
 11
-13.92970910766246
 21
11.24012182739164
 31
0.0
 11
-13.84904386800588
 21
11.24882036626417
 31
0.0
 11
-13.76833775305761
 21
11.25732785652775
 31
0.0
 11
-13.72667484944713
 21
11.26143682477601
 31
0.0
 11
-13.68500693019689
 21
11.26508143553019
 31
0.0
 11
-13.65603539620918
 21
11.26754263107892
 31
0.0
 11
-13.62695557667143
 21
11.27019007085681
 31
0.0
 11
-13.60826710949243
 21
11.27044669082022
 31
0.0
 11
-13.58976569944252
 21
11.26768299621159
 31
0.0
  0
SPLINE
  5
42A
330
2
100
AcDbEntity
  8
PANEL
  6
Continuous
 62
     7
100
AcDbSpline
210
0.0
220
0.0
230
1.0
 70
     8
 71
     3
 72
     9
 73
     5
 74
     3
 42
0.0000000001
 43
0.0000000001
 44
0.00000001
 40
0.0
 40
0.0
 40
0.0
 40
0.0
 40
0.1307934100563992
 40
0.2615868196361302
 40
0.2615868196361302
 40
0.2615868196361302
 40
0.2615868196361302
 10
-14.18976569944254
 20
11.21186889119161
 30
0.0
 10
-14.14642104822249
 20
11.21656035547437
 30
0.0
 10
-14.05973174809782
 20
11.22594330390603
 30
0.0
 10
-13.97304998703402
 20
11.23539564627458
 30
0.0
 10
-13.92970910766246
 20
11.24012182739164
 30
0.0
 11
-14.18976569944254
 21
11.21186889119161
 31
0.0
 11
-14.05973363162502
 21
11.2259606424659
 31
0.0
 11
-13.92970910766246
 21
11.24012182739164
 31
0.0
  0
SPLINE
  5
42B
330
2
100
AcDbEntity
  8
PANEL
  6
Continuous
 62
     7
100
AcDbSpline
210
0.0
220
0.0
230
1.0
 70
     8
 71
     3
 72
     9
 73
     5
 74
     3
 42
0.0000000001
 43
0.0000000001
 44
0.00000001
 40
0.0
 40
0.0
 40
0.0
 40
0.0
 40
0.1307876852162384
 40
0.2615753709229716
 40
0.2615753709229716
 40
0.2615753709229716
 40
0.2615753709229716
 10
-17.64981090946253
 20
11.24012059113164
 30
0.0
 10
-17.60647192599458
 20
11.23539462580334
 30
0.0
 10
-17.51979395673345
 20
11.22594271501162
 30
0.0
 10
-17.43310845264616
 20
11.21656015917642
 30
0.0
 10
-17.38976569944259
 20
11.21186889119161
 30
0.0
 11
-17.64981090946253
 21
11.24012059113164
 31
0.0
 11
-17.5197920742695
 21
11.22596004382689
 31
0.0
 11
-17.38976569944259
 21
11.21186889119161
 31
0.0
  0
SPLINE
  5
42C
330
2
100
AcDbEntity
  8
PANEL
  6
Continuous
 62
     7
100
AcDbSpline
210
0.0
220
0.0
230
1.0
 70
     8
 71
     3
 72
    15
 73
    11
 74
     9
 42
0.0000000001
 43
0.0000000001
 44
0.00000001
 40
0.0
 40
0.0
 40
0.0
 40
0.0
 40
0.0187388976771394
 40
0.0374619254767859
 40
0.0667305336147465
 40
0.0958738111474669
 40
0.1377102595704446
 40
0.1795849374323639
 40
0.2606345184850434
 40
0.3416636565244571
 40
0.3416636565244571
 40
0.3416636565244571
 40
0.3416636565244571
 10
-17.9897656994425
 20
11.2676829962316
 30
0.0
 10
-17.98360744700159
 20
11.26884557859813
 30
0.0
 10
-17.97129615966145
 20
11.27116977306332
 30
0.0
 10
-17.94895124517052
 20
11.27019969136705
 30
0.0
 10
-17.92342837010011
 20
11.26738589175721
 30
0.0
 10
-17.89010078795397
 20
11.26476335024279
 30
0.0
 10
-17.85262822811114
 20
11.26150645883359
 30
0.0
 10
-17.79797842299564
 20
11.25603534925227
 30
0.0
 10
-17.73037787648508
 20
11.24882825242008
 30
0.0
 10
-17.67666430735647
 20
11.24302289598449
 30
0.0
 10
-17.64981090946253
 20
11.24012059113164
 30
0.0
 11
-17.9897656994425
 21
11.2676829962316
 31
0.0
 11
-17.97123265606728
 21
11.27045294263194
 31
0.0
 11
-17.95251143763801
 21
11.27019271440627
 31
0.0
 11
-17.92336396104986
 21
11.26753263771814
 31
0.0
 11
-17.89432550314802
 21
11.26506310617816
 31
0.0
 11
-17.85264826910179
 21
11.26141665865998
 31
0.0
 11
-17.81097586189628
 21
11.25730580439727
 31
0.0
 11
-17.73037299452482
 21
11.24880801907085
 31
0.0
 11
-17.64981090946253
 21
11.24012059113164
 31
0.0
  0
LINE
  5
42D
330
2
100
AcDbEntity
  8
WAKU
 62
     4
100
AcDbLine
 10
63.29365115712755
 20
-146.7836169866076
 30
0.0
 11
63.29365115712755
 21
-66.7836169866076
 31
0.0
  0
LINE
  5
42E
330
2
100
AcDbEntity
  8
WAKU
 62
     4
100
AcDbLine
 10
-21.70634884287244
 20
-146.7836169866076
 30
0.0
 11
-21.70634884287244
 21
-66.7836169866076
 31
0.0
  0
TEXT
  5
42F
330
2
100
AcDbEntity
  8
MOJI1
100
AcDbText
 10
-59.00076761235403
 20
-80.78361698660742
 30
0.0
 40
3.0
  1
有効画素数
100
AcDbText
  0
TEXT
  5
430
330
2
100
AcDbEntity
  8
MOJI1
100
AcDbText
 10
-59.00076761235403
 20
-140.7836169866074
 30
0.0
 40
3.0
  1
機　能
100
AcDbText
  0
TEXT
  5
431
330
2
100
AcDbEntity
  8
MOJI1
100
AcDbText
 10
-59.00076761235403
 20
-70.65849803549204
 30
0.0
 40
3.0
  1
電　源
  7
KANJI
100
AcDbText
  0
TEXT
  5
432
330
2
100
AcDbEntity
  8
MOJI1
100
AcDbText
 10
-59.00076761235403
 20
-85.65166054914939
 30
0.0
 40
3.0
  1
最低照度
  7
KANJI
100
AcDbText
  0
TEXT
  5
433
330
2
100
AcDbEntity
  8
MOJI1
100
AcDbText
 10
-59.00076761235403
 20
-75.65507929232072
 30
0.0
 40
3.0
  1
撮像素子
  7
KANJI
100
AcDbText
  0
TEXT
  5
434
330
2
100
AcDbEntity
  8
MOJI1
100
AcDbText
 10
-19.00076761235402
 20
-75.62776459172496
 30
0.0
 40
3.0
  1
１／３型ＭＯＳセンサー
  7
KANJI
100
AcDbText
  0
TEXT
  5
435
330
2
100
AcDbEntity
  8
MOJI1
100
AcDbText
 10
-19.07015323538132
 20
-70.72733108099161
 30
0.0
 40
3.0
  1
ＤＣ１２Ｖ、ＰｏＥ（ＩＥＥＥ８０２．３ａｆ準拠）
 41
0.95
  7
KANJI
100
AcDbText
  0
TEXT
  5
436
330
2
100
AcDbEntity
  8
MOJI1
100
AcDbText
 10
-19.07015323538132
 20
-85.72049359464896
 30
0.0
 40
3.0
  1
カラーモード：１．５ルクス（Ｆ２．４）
  7
KANJI
100
AcDbText
  0
TEXT
  5
437
330
2
100
AcDbEntity
  8
MOJI1
100
AcDbText
 10
-19.00076761235402
 20
-140.6277645917249
 30
0.0
 40
3.0
  1
暗部補正、簡易白黒切換、ＶＭＤ（４エリア）、映像反転
 41
0.88
  7
KANJI
100
AcDbText
  0
TEXT
  5
438
330
2
100
AcDbEntity
  8
MOJI1
100
AcDbText
 10
-19.07015323538132
 20
-90.72049359464896
 30
0.0
 40
3.0
  1
白黒モード：１。２ルクス（Ｆ２．４）
  7
KANJI
100
AcDbText
  0
TEXT
  5
439
330
2
100
AcDbEntity
  8
MOJI1
100
AcDbText
 10
-19.0007676123538
 20
-80.78361698660719
 30
0.0
 40
3.0
  1
約３１０万画素
 41
0.95
100
AcDbText
  0
LINE
  5
43A
330
2
100
AcDbEntity
  8
WAKU
 62
     4
100
AcDbLine
 10
-61.70634884287244
 20
-66.7836169866076
 30
0.0
 11
-61.70634884287244
 21
-146.7836169866076
 31
0.0
  0
LINE
  5
43B
330
2
100
AcDbEntity
  8
WAKU
 62
     4
100
AcDbLine
 10
-61.70634884287244
 20
-146.7836169866076
 30
0.0
 11
63.29365115712755
 21
-146.7836169866076
 31
0.0
  0
LINE
  5
43C
330
2
100
AcDbEntity
  8
WAKU
 62
     1
100
AcDbLine
 10
-61.70634884287244
 20
-136.7836169866076
 30
0.0
 11
63.29365115712755
 21
-136.7836169866076
 31
0.0
  0
LINE
  5
43D
330
2
100
AcDbEntity
  8
WAKU
 62
     1
100
AcDbLine
 10
-61.70634884287244
 20
-86.78361698660765
 30
0.0
 11
63.29365115712755
 21
-86.78361698660765
 31
0.0
  0
LINE
  5
43E
330
2
100
AcDbEntity
  8
WAKU
 62
     1
100
AcDbLine
 10
-61.70634884287244
 20
-81.78361698660765
 30
0.0
 11
63.29365115712755
 21
-81.78361698660765
 31
0.0
  0
LINE
  5
43F
330
2
100
AcDbEntity
  8
WAKU
 62
     1
100
AcDbLine
 10
-61.70634884287244
 20
-76.78361698660765
 30
0.0
 11
63.29365115712755
 21
-76.78361698660765
 31
0.0
  0
LINE
  5
440
330
2
100
AcDbEntity
  8
WAKU
 62
     1
100
AcDbLine
 10
-61.70634884287244
 20
-71.78361698660765
 30
0.0
 11
63.29365115712755
 21
-71.78361698660765
 31
0.0
  0
LINE
  5
441
330
2
100
AcDbEntity
  8
WAKU
100
AcDbLine
 10
-61.70634884287244
 20
-66.78361698660765
 30
0.0
 11
63.29365115712755
 21
-66.78361698660765
 31
0.0
  0
LINE
  5
442
330
2
100
AcDbEntity
  8
WAKU
 62
     1
100
AcDbLine
 10
-61.70634884287244
 20
-141.7836169866076
 30
0.0
 11
63.29365115712755
 21
-141.7836169866076
 31
0.0
  0
TEXT
  5
443
330
2
100
AcDbEntity
  8
MOJI1
100
AcDbText
 10
-19.00076761235402
 20
-145.6277645917249
 30
0.0
 40
3.0
  1
ＶＩＱＳ（２ヶ所）、ＳＤＸＣ／ＳＤＨＣ／ＳＤ対応
 41
0.73
  7
KANJI
100
AcDbText
  0
LINE
  5
444
330
2
100
AcDbEntity
  8
WAKU
 62
     1
100
AcDbLine
 10
-61.70634884287244
 20
-126.7836169866076
 30
0.0
 11
63.29365115712755
 21
-126.7836169866076
 31
0.0
  0
LINE
  5
445
330
2
100
AcDbEntity
  8
WAKU
 62
     1
100
AcDbLine
 10
-61.70634884287244
 20
-121.7836169866076
 30
0.0
 11
63.29365115712755
 21
-121.7836169866076
 31
0.0
  0
TEXT
  5
446
330
2
100
AcDbEntity
  8
MOJI1
100
AcDbText
 10
-59.00076761235403
 20
-125.6516605491494
 30
0.0
 40
3.0
  1
レンズ部
  7
KANJI
100
AcDbText
  0
TEXT
  5
447
330
2
100
AcDbEntity
  8
MOJI1
100
AcDbText
 10
-19.07015323538132
 20
-125.7204935946489
 30
0.0
 40
3.0
  1
ｆ＝０．８ｍｍ
 41
0.88
  7
KANJI
100
AcDbText
  0
TEXT
  5
448
330
2
100
AcDbEntity
  8
MOJI1
100
AcDbText
 10
-19.07015323538132
 20
-130.7204935946489
 30
0.0
 40
3.0
  1
画角　/水平：１８８°、垂直：１８１°
 41
0.9
  7
KANJI
100
AcDbText
  0
LINE
  5
449
330
2
100
AcDbEntity
  8
WAKU
 62
     1
100
AcDbLine
 10
-61.70634884287244
 20
-121.7836169866076
 30
0.0
 11
63.29365115712755
 21
-121.7836169866076
 31
0.0
  0
LINE
  5
44A
330
2
100
AcDbEntity
  8
WAKU
 62
     1
100
AcDbLine
 10
-61.70634884287244
 20
-131.7836169866076
 30
0.0
 11
63.29365115712755
 21
-131.7836169866076
 31
0.0
  0
TEXT
  5
44B
330
2
100
AcDbEntity
  8
MOJI1
100
AcDbText
 10
-59.00076761235403
 20
-135.6516605491494
 30
0.0
 40
3.0
  1
設置方法
  7
KANJI
100
AcDbText
  0
TEXT
  5
44C
330
2
100
AcDbEntity
  8
MOJI1
100
AcDbText
 10
-19.07015323538132
 20
-135.7204935946489
 30
0.0
 40
3.0
  1
天井設置／壁設置／卓上設置
 41
0.9
  7
KANJI
100
AcDbText
  0
LINE
  5
44D
330
2
100
AcDbEntity
  8
WAKU
 62
     1
100
AcDbLine
 10
-61.70634884287244
 20
-101.7836169866076
 30
0.0
 11
63.29365115712755
 21
-101.7836169866076
 31
0.0
  0
LINE
  5
44E
330
2
100
AcDbEntity
  8
WAKU
 62
     1
100
AcDbLine
 10
-61.70634884287244
 20
-96.78361698660765
 30
0.0
 11
63.29365115712755
 21
-96.78361698660765
 31
0.0
  0
LINE
  5
44F
330
2
100
AcDbEntity
  8
WAKU
 62
     1
100
AcDbLine
 10
-61.70634884287244
 20
-91.78361698660765
 30
0.0
 11
63.29365115712755
 21
-91.78361698660765
 31
0.0
  0
TEXT
  5
450
330
2
100
AcDbEntity
  8
MOJI1
100
AcDbText
 10
-59.00076761235403
 20
-95.65166054914939
 30
0.0
 40
3.0
  1
ネットワーク
  7
KANJI
100
AcDbText
  0
TEXT
  5
451
330
2
100
AcDbEntity
  8
MOJI1
100
AcDbText
 10
-19.07015323538132
 20
-95.72049359464896
 30
0.0
 40
3.0
  1
１０ＢＡＳＥ-Ｔ／１００ＢＡＳＥ－ＴＸ，ＲＪ４５コネクター
 41
0.8
  7
KANJI
100
AcDbText
  0
TEXT
  5
452
330
2
100
AcDbEntity
  8
MOJI1
100
AcDbText
 10
-19.07015323538132
 20
-100.7204935946489
 30
0.0
 40
3.0
  1
Ｈ．２６４／ＪＰＥＧ（同方式による２ストリーム配信可）
 41
0.85
  7
KANJI
100
AcDbText
  0
TEXT
  5
453
330
2
100
AcDbEntity
  8
MOJI1
100
AcDbText
 10
-59.00076761235403
 20
-100.6516605491494
 30
0.0
 40
3.0
  1
画像圧縮方式
  7
KANJI
100
AcDbText
  0
TEXT
  5
454
330
2
100
AcDbEntity
  8
MOJI1
100
AcDbText
 10
-19.07015323538132
 20
-105.7204935946489
 30
0.0
 40
3.0
  1
２Ｍパノラマ／２Ｍダブルパノラマ／１．３Ｍ魚眼／３Ｍ魚眼
 41
0.8
  7
KANJI
100
AcDbText
  0
TEXT
  5
455
330
2
100
AcDbEntity
  8
MOJI1
100
AcDbText
 10
-59.00076761235403
 20
-105.6516605491494
 30
0.0
 40
3.0
  1
配信画像モード
  7
KANJI
100
AcDbText
  0
LINE
  5
456
330
2
100
AcDbEntity
  8
WAKU
 62
     1
100
AcDbLine
 10
-61.70634884287244
 20
-111.7836169866076
 30
0.0
 11
63.29365115712755
 21
-111.7836169866076
 31
0.0
  0
LINE
  5
457
330
2
100
AcDbEntity
  8
WAKU
 62
     1
100
AcDbLine
 10
-61.70634884287244
 20
-106.7836169866076
 30
0.0
 11
63.29365115712755
 21
-106.7836169866076
 31
0.0
  0
TEXT
  5
458
330
2
100
AcDbEntity
  8
MOJI1
100
AcDbText
 10
-19.07015323538132
 20
-110.7204935946489
 30
0.0
 40
3.0
  1
１．３Ｍ４画ＰＴＺ／１．３Ｍ１画ＰＴＺ／ＶＧＡ４ストリーム
 41
0.7800000000000001
  7
KANJI
100
AcDbText
  0
LINE
  5
459
330
2
100
AcDbEntity
  8
WAKU
 62
     1
100
AcDbLine
 10
-61.70634884287244
 20
-116.7836169866076
 30
0.0
 11
63.29365115712755
 21
-116.7836169866076
 31
0.0
  0
TEXT
  5
45A
330
2
100
AcDbEntity
  8
MOJI1
100
AcDbText
 10
-6.476494430121306
 20
-121.0182387315354
 30
0.0
 40
3.0
  1
ＦＴＰ、ＳＭＴＰ、ＤＮＳ、ＮＴＰ、ＳＮＭＰ、ＤＨＣＰｖ６
 41
0.6800000000000001
100
AcDbText
  0
TEXT
  5
45B
330
2
100
AcDbEntity
  8
MOJI1
100
AcDbText
 10
-18.67699796613521
 20
-116.0182387315354
 30
0.0
 40
3.0
  1
ＩＰｖ６：ＴＣＰ／ＩＰ、ＵＤＰ／ＩＰ、ＨＴＴＰ、ＨＴＴＰＳ、ＲＴＰ、
 41
0.6800000000000001
100
AcDbText
  0
TEXT
  5
45C
330
2
100
AcDbEntity
  8
MOJI1
100
AcDbText
 10
-59.00076761235403
 20
-115.6516605491494
 30
0.0
 40
3.0
  1
対応プロトコル
  7
KANJI
100
AcDbText
  0
ENDSEC
  0
SECTION
  2
OBJECTS
  0
DICTIONARY
  5
9
330
0
100
AcDbDictionary
281
     1
  3
ACAD_COLOR
350
32
  3
ACAD_GROUP
350
2E
  3
ACAD_LAYOUT
350
D
  3
ACAD_MATERIAL
350
31
  3
ACAD_MLINESTYLE
350
2F
  3
ACAD_PLOTSETTINGS
350
30
  3
ACAD_PLOTSTYLENAME
350
8
  3
ACAD_TABLESTYLE
350
1BA
  3
ACDBHEADERROUNDTRIPXREC
350
4AC
  3
AcDbVariableDictionary
350
1B5
  0
DICTIONARY
  5
15
330
14
100
AcDbDictionary
280
     1
281
     1
  3
ACAD_LAYERFILTERS
360
16
  3
ACAD_LAYERSTATES
360
18
  0
DICTIONARY
  5
3
330
2
100
AcDbDictionary
280
     1
281
     1
  3
ACAD_LAYOUTSELFREF
360
4
  0
DICTIONARY
  5
F
330
E
100
AcDbDictionary
280
     1
281
     1
  3
ACAD_LAYOUTSELFREF
360
10
  0
DICTIONARY
  5
32
102
{ACAD_REACTORS
330
9
102
}
330
9
100
AcDbDictionary
281
     1
  0
DICTIONARY
  5
2E
102
{ACAD_REACTORS
330
9
102
}
330
9
100
AcDbDictionary
281
     1
  0
DICTIONARY
  5
D
102
{ACAD_REACTORS
330
9
102
}
330
9
100
AcDbDictionary
281
     1
  3
Model
350
C
  3
ﾚｲｱｳﾄ1
350
13
  0
DICTIONARY
  5
31
102
{ACAD_REACTORS
330
9
102
}
330
9
100
AcDbDictionary
281
     1
  0
DICTIONARY
  5
2F
102
{ACAD_REACTORS
330
9
102
}
330
9
100
AcDbDictionary
281
     1
  3
STANDARD
350
34
  0
DICTIONARY
  5
30
102
{ACAD_REACTORS
330
9
102
}
330
9
100
AcDbDictionary
281
     1
  0
ACDBDICTIONARYWDFLT
  5
8
102
{ACAD_REACTORS
330
9
102
}
330
9
100
AcDbDictionary
281
     1
  3
Normal
350
7
100
AcDbDictionaryWithDefault
340
7
  0
DICTIONARY
  5
1BA
102
{ACAD_REACTORS
330
9
102
}
330
9
100
AcDbDictionary
281
     1
  3
Standard
350
1BB
  0
DICTIONARY
  5
4AC
102
{ACAD_REACTORS
330
9
102
}
330
9
100
AcDbDictionary
281
     1
  3
COLORDICT
350
4AE
  3
MATERIALDICT
350
4AD
  0
DICTIONARY
  5
1B5
102
{ACAD_REACTORS
330
9
102
}
330
9
100
AcDbDictionary
281
     1
  3
CTABLESTYLE
350
1C0
  3
DIMASSOC
350
1B7
  3
HIDETEXT
350
1B6
  3
PROJECTNAME
350
1B8
  0
DICTIONARY
  5
16
102
{ACAD_REACTORS
330
15
102
}
330
15
100
AcDbDictionary
280
     1
281
     1
  3
ロック画層
360
17
  0
DICTIONARY
  5
18
102
{ACAD_REACTORS
330
15
102
}
330
15
100
AcDbDictionary
281
     1
  0
XRECORD
  5
4
102
{ACAD_REACTORS
330
3
102
}
330
3
100
AcDbXrecord
280
     1
340
2
  0
XRECORD
  5
10
102
{ACAD_REACTORS
330
F
102
}
330
F
100
AcDbXrecord
280
     1
340
E
  0
LAYOUT
  5
C
102
{ACAD_XDICTIONARY
360
4AF
102
}
102
{ACAD_REACTORS
330
D
102
}
330
D
100
AcDbPlotSettings
  1

  2
\\MARS\NX800A(RPDL)
  4
A4
  6

 40
5.831416606903076
 41
4.942422866821289
 42
7.609405517578125
 43
5.789093017578125
 44
209.9733276367187
 45
296.9683227539062
 46
4.23
 47
0.0
 48
0.0
 49
0.0
140
0.0
141
0.0
142
1.0
143
1.377557041813
 70
 11956
 72
     1
 73
     0
 74
     1
  7
tmsacad.ctb
 75
     0
147
0.7259227528494222
148
0.5228791232484547
149
0.0333900090324306
100
AcDbLayout
  1
Model
 70
     1
 71
     0
 10
0.0
 20
0.0
 11
12.0
 21
9.0
 12
0.0
 22
0.0
 32
0.0
 14
0.0
 24
0.0
 34
0.0
 15
0.0
 25
0.0
 35
0.0
146
0.0
 13
0.0
 23
0.0
 33
0.0
 16
1.0
 26
0.0
 36
0.0
 17
0.0
 27
1.0
 37
0.0
 76
     0
330
2
  0
LAYOUT
  5
13
102
{ACAD_XDICTIONARY
360
4B1
102
}
102
{ACAD_REACTORS
330
D
102
}
330
D
100
AcDbPlotSettings
  1

  2
C:\Program Files\ACAD2000\plotters\DWF ePlot.pc3
  4

  6

 40
0.0
 41
0.0
 42
0.0
 43
0.0
 44
0.0
 45
0.0
 46
0.0
 47
0.0
 48
0.0
 49
0.0
140
0.0
141
0.0
142
1.0
143
1.0
 70
   688
 72
     0
 73
     0
 74
     5
  7
全て黄色設定.ctb
 75
    16
147
1.0
148
0.0
149
0.0
100
AcDbLayout
  1
ﾚｲｱｳﾄ1
 70
     1
 71
     1
 10
0.0
 20
0.0
 11
12.0
 21
9.0
 12
0.0
 22
0.0
 32
0.0
 14
1.000000000000000E+20
 24
1.000000000000000E+20
 34
1.000000000000000E+20
 15
-1.000000000000000E+20
 25
-1.000000000000000E+20
 35
-1.000000000000000E+20
146
0.0
 13
0.0
 23
0.0
 33
0.0
 16
1.0
 26
0.0
 36
0.0
 17
0.0
 27
1.0
 37
0.0
 76
     0
330
E
  0
MLINESTYLE
  5
34
102
{ACAD_REACTORS
330
2F
102
}
330
2F
100
AcDbMlineStyle
  2
STANDARD
 70
     0
  3

 62
   256
 51
90.0
 52
90.0
 71
     2
 49
0.5
 62
   256
  6
BYLAYER
 49
-0.5
 62
   256
  6
BYLAYER
  0
ACDBPLACEHOLDER
  5
7
102
{ACAD_REACTORS
330
8
102
}
330
8
  0
ACAD_PROXY_OBJECT
  5
1BB
102
{ACAD_REACTORS
330
1BA
102
}
330
1BA
100
AcDbProxyObject
 90
      499
 91
      552
 95
   983063
 70
     0
 93
     1841
310
4214DD185B99185C9928B81E85EB51B8AE3F2E07A17AD46E2B8FC02B5E8DC0F42B1CFD028000000C1008070000C3001FDFF8000000C1003FBFF000000182007F7FE00000030400FEFFC00000060801FDFF8000000C1003FBFF00000018200000000000000681FA0B0000001820100E000186003FBFF000000182007F7FE000
310
00030400FEFFC00000060801FDFF8000000C1003FBFF000000182007F7FE000000304000AD7A3703D0AC73F4160000003040201C00030C007F7FE00000030400FEFFC00000060801FDFF8000000C1003FBFF000000182007F7FE00000030400FEFFC000000608051
340
1A
340
1A
340
1A
 94
        0
1001
ACAD
1000
AcRTDxfName
1000
TABLESTYLE
  0
XRECORD
  5
4AE
102
{ACAD_REACTORS
330
4AC
102
}
330
4AC
100
AcDbXrecord
280
     1
340
32
  0
XRECORD
  5
4AD
102
{ACAD_REACTORS
330
4AC
102
}
330
4AC
100
AcDbXrecord
280
     1
340
31
  0
DICTIONARYVAR
  5
1C0
102
{ACAD_REACTORS
330
1B5
102
}
330
1B5
100
DictionaryVariables
280
     0
  1
STANDARD
  0
DICTIONARYVAR
  5
1B7
102
{ACAD_REACTORS
330
1B5
102
}
330
1B5
100
DictionaryVariables
280
     0
  1
1
  0
DICTIONARYVAR
  5
1B6
102
{ACAD_REACTORS
330
1B5
102
}
330
1B5
100
DictionaryVariables
280
     0
  1
1
  0
DICTIONARYVAR
  5
1B8
102
{ACAD_REACTORS
330
1B5
102
}
330
1B5
100
DictionaryVariables
280
     0
  1

  0
XRECORD
  5
17
102
{ACAD_REACTORS
330
16
102
}
330
16
100
AcDbXrecord
280
     1
  1
ロック画層
  1
*
  1
*
  1
*
 70
   256
  1
*
  1
*
  0
DICTIONARY
  5
4AF
330
C
100
AcDbDictionary
280
     1
281
     1
  3
ACAD_XREC_ROUNDTRIP
360
4B0
  0
DICTIONARY
  5
4B1
330
13
100
AcDbDictionary
280
     1
281
     1
  3
ACAD_XREC_ROUNDTRIP
360
4B2
  0
XRECORD
  5
4B0
102
{ACAD_REACTORS
330
4AF
102
}
330
4AF
100
AcDbXrecord
280
     1
102
SHADEPLOT
 70
     0
102
SHADEPLOTRESLEVEL
 70
     2
102
SHADEPLOTCUSTOMDPI
 70
   300
  0
XRECORD
  5
4B2
102
{ACAD_REACTORS
330
4B1
102
}
330
4B1
100
AcDbXrecord
280
     1
102
SHADEPLOT
 70
     0
102
SHADEPLOTRESLEVEL
 70
     2
102
SHADEPLOTCUSTOMDPI
 70
   300
  0
ENDSEC
  0
EOF
