  0
SECTION
  2
HEADER
  9
$ACADVER
  1
AC1015
  9
$ACADMAINTVER
 70
    20
  9
$DWGCODEPAGE
  3
ANSI_932
  9
$INSBASE
 10
0.0
 20
372.4992141396417
 30
0.0
  9
$EXTMIN
 10
-58.80801024663651
 20
-128.986297218652
 30
-0.0015258207003583
  9
$EXTMAX
 10
66.27249872332822
 20
104.3842113066675
 30
0.0000000349246037
  9
$LIMMIN
 10
-1101.784450318844
 20
-1579.160531687244
  9
$LIMMAX
 10
-508.2420711400536
 20
-1161.440814074914
  9
$ORTHOMODE
 70
     1
  9
$REGENMODE
 70
     1
  9
$FILLMODE
 70
     1
  9
$QTEXTMODE
 70
     0
  9
$MIRRTEXT
 70
     1
  9
$LTSCALE
 40
1.0
  9
$ATTMODE
 70
     1
  9
$TEXTSIZE
 40
3.0
  9
$TRACEWID
 40
0.5
  9
$TEXTSTYLE
  7
STANDARD
  9
$CLAYER
  8
GAIKEI
  9
$CELTYPE
  6
BYLAYER
  9
$CECOLOR
 62
   256
  9
$CELTSCALE
 40
1.0
  9
$DISPSILH
 70
     0
  9
$DIMSCALE
 40
1.0
  9
$DIMASZ
 40
2.0
  9
$DIMEXO
 40
2.0
  9
$DIMDLI
 40
8.0
  9
$DIMRND
 40
0.0
  9
$DIMDLE
 40
0.0
  9
$DIMEXE
 40
2.0
  9
$DIMTP
 40
0.0
  9
$DIMTM
 40
0.0
  9
$DIMTXT
 40
2.5
  9
$DIMCEN
 40
0.0
  9
$DIMTSZ
 40
0.0
  9
$DIMTOL
 70
     0
  9
$DIMLIM
 70
     0
  9
$DIMTIH
 70
     0
  9
$DIMTOH
 70
     0
  9
$DIMSE1
 70
     0
  9
$DIMSE2
 70
     0
  9
$DIMTAD
 70
     3
  9
$DIMZIN
 70
     0
  9
$DIMBLK
  1

  9
$DIMASO
 70
     1
  9
$DIMSHO
 70
     1
  9
$DIMPOST
  1

  9
$DIMAPOST
  1

  9
$DIMALT
 70
     0
  9
$DIMALTD
 70
     2
  9
$DIMALTF
 40
25.4
  9
$DIMLFAC
 40
1.0
  9
$DIMTOFL
 70
     1
  9
$DIMTVP
 40
0.0
  9
$DIMTIX
 70
     0
  9
$DIMSOXD
 70
     0
  9
$DIMSAH
 70
     1
  9
$DIMBLK1
  1
OPEN30
  9
$DIMBLK2
  1
OPEN30
  9
$DIMSTYLE
  2
STANDARD
  9
$DIMCLRD
 70
     0
  9
$DIMCLRE
 70
     0
  9
$DIMCLRT
 70
     0
  9
$DIMTFAC
 40
1.0
  9
$DIMGAP
 40
0.5
  9
$DIMJUST
 70
     0
  9
$DIMSD1
 70
     0
  9
$DIMSD2
 70
     0
  9
$DIMTOLJ
 70
     1
  9
$DIMTZIN
 70
     0
  9
$DIMALTZ
 70
     0
  9
$DIMALTTZ
 70
     0
  9
$DIMUPT
 70
     0
  9
$DIMDEC
 70
     4
  9
$DIMTDEC
 70
     4
  9
$DIMALTU
 70
     2
  9
$DIMALTTD
 70
     2
  9
$DIMTXSTY
  7
STANDARD
  9
$DIMAUNIT
 70
     0
  9
$DIMADEC
 70
     0
  9
$DIMALTRND
 40
0.0
  9
$DIMAZIN
 70
     0
  9
$DIMDSEP
 70
    46
  9
$DIMATFIT
 70
     3
  9
$DIMFRAC
 70
     0
  9
$DIMLDRBLK
  1
OPEN30
  9
$DIMLUNIT
 70
     2
  9
$DIMLWD
 70
    -2
  9
$DIMLWE
 70
    -2
  9
$DIMTMOVE
 70
     0
  9
$LUNITS
 70
     2
  9
$LUPREC
 70
     4
  9
$SKETCHINC
 40
0.1
  9
$FILLETRAD
 40
0.0
  9
$AUNITS
 70
     0
  9
$AUPREC
 70
     0
  9
$MENU
  1
ACAD
  9
$ELEVATION
 40
0.0
  9
$PELEVATION
 40
0.0
  9
$THICKNESS
 40
0.0
  9
$LIMCHECK
 70
     0
  9
$CHAMFERA
 40
0.0
  9
$CHAMFERB
 40
0.0
  9
$CHAMFERC
 40
0.0
  9
$CHAMFERD
 40
0.0
  9
$SKPOLY
 70
     0
  9
$TDCREATE
 40
2451815.565532581
  9
$TDUCREATE
 40
2451815.190532581
  9
$TDUPDATE
 40
2456146.580395278
  9
$TDUUPDATE
 40
2456146.205395278
  9
$TDINDWG
 40
0.7653115972
  9
$TDUSRTIMER
 40
0.7653115972
  9
$USRTIMER
 70
     1
  9
$ANGBASE
 50
0.0
  9
$ANGDIR
 70
     0
  9
$PDMODE
 70
     0
  9
$PDSIZE
 40
0.0
  9
$PLINEWID
 40
0.0
  9
$SPLFRAME
 70
     0
  9
$SPLINETYPE
 70
     6
  9
$SPLINESEGS
 70
     8
  9
$HANDSEED
  5
172
  9
$SURFTAB1
 70
     6
  9
$SURFTAB2
 70
     6
  9
$SURFTYPE
 70
     6
  9
$SURFU
 70
     6
  9
$SURFV
 70
     6
  9
$UCSBASE
  2

  9
$UCSNAME
  2

  9
$UCSORG
 10
0.0
 20
0.0
 30
0.0
  9
$UCSXDIR
 10
1.0
 20
0.0
 30
0.0
  9
$UCSYDIR
 10
0.0
 20
1.0
 30
0.0
  9
$UCSORTHOREF
  2

  9
$UCSORTHOVIEW
 70
     0
  9
$UCSORGTOP
 10
0.0
 20
0.0
 30
0.0
  9
$UCSORGBOTTOM
 10
0.0
 20
0.0
 30
0.0
  9
$UCSORGLEFT
 10
0.0
 20
0.0
 30
0.0
  9
$UCSORGRIGHT
 10
0.0
 20
0.0
 30
0.0
  9
$UCSORGFRONT
 10
0.0
 20
0.0
 30
0.0
  9
$UCSORGBACK
 10
0.0
 20
0.0
 30
0.0
  9
$PUCSBASE
  2

  9
$PUCSNAME
  2

  9
$PUCSORG
 10
0.0
 20
0.0
 30
0.0
  9
$PUCSXDIR
 10
1.0
 20
0.0
 30
0.0
  9
$PUCSYDIR
 10
0.0
 20
1.0
 30
0.0
  9
$PUCSORTHOREF
  2

  9
$PUCSORTHOVIEW
 70
     0
  9
$PUCSORGTOP
 10
0.0
 20
0.0
 30
0.0
  9
$PUCSORGBOTTOM
 10
0.0
 20
0.0
 30
0.0
  9
$PUCSORGLEFT
 10
0.0
 20
0.0
 30
0.0
  9
$PUCSORGRIGHT
 10
0.0
 20
0.0
 30
0.0
  9
$PUCSORGFRONT
 10
0.0
 20
0.0
 30
0.0
  9
$PUCSORGBACK
 10
0.0
 20
0.0
 30
0.0
  9
$USERI1
 70
     0
  9
$USERI2
 70
     0
  9
$USERI3
 70
     0
  9
$USERI4
 70
     0
  9
$USERI5
 70
     0
  9
$USERR1
 40
0.0
  9
$USERR2
 40
0.0
  9
$USERR3
 40
0.0
  9
$USERR4
 40
0.0
  9
$USERR5
 40
0.0
  9
$WORLDVIEW
 70
     1
  9
$SHADEDGE
 70
     3
  9
$SHADEDIF
 70
    70
  9
$TILEMODE
 70
     1
  9
$MAXACTVP
 70
    48
  9
$PINSBASE
 10
0.0
 20
0.0
 30
0.0
  9
$PLIMCHECK
 70
     0
  9
$PEXTMIN
 10
1.000000000000000E+20
 20
1.000000000000000E+20
 30
1.000000000000000E+20
  9
$PEXTMAX
 10
-1.000000000000000E+20
 20
-1.000000000000000E+20
 30
-1.000000000000000E+20
  9
$PLIMMIN
 10
0.0
 20
0.0
  9
$PLIMMAX
 10
12.0
 20
9.0
  9
$UNITMODE
 70
     0
  9
$VISRETAIN
 70
     1
  9
$PLINEGEN
 70
     0
  9
$PSLTSCALE
 70
     1
  9
$TREEDEPTH
 70
  3020
  9
$CMLSTYLE
  2
STANDARD
  9
$CMLJUST
 70
     0
  9
$CMLSCALE
 40
1.0
  9
$PROXYGRAPHICS
 70
     1
  9
$MEASUREMENT
 70
     0
  9
$CELWEIGHT
370
    -1
  9
$ENDCAPS
280
     0
  9
$JOINSTYLE
280
     0
  9
$LWDISPLAY
290
     0
  9
$INSUNITS
 70
     0
  9
$HYPERLINKBASE
  1

  9
$STYLESHEET
  1

  9
$XEDIT
290
     1
  9
$CEPSNTYPE
380
     0
  9
$PSTYLEMODE
290
     1
  9
$FINGERPRINTGUID
  2
{1754B7AB-9B3C-11D4-AD9E-00104B1004F2}
  9
$VERSIONGUID
  2
{232A585E-F592-4E76-BA71-32DE4D5F704C}
  9
$EXTNAMES
290
     1
  9
$PSVPSCALE
 40
0.0
  9
$OLESTARTUP
290
     0
  0
ENDSEC
  0
SECTION
  2
CLASSES
  0
CLASS
  1
ACDBDICTIONARYWDFLT
  2
AcDbDictionaryWithDefault
  3
ObjectDBX Classes
 90
        0
280
     0
281
     0
  0
CLASS
  1
ACDBPLACEHOLDER
  2
AcDbPlaceHolder
  3
ObjectDBX Classes
 90
        0
280
     0
281
     0
  0
CLASS
  1
LAYOUT
  2
AcDbLayout
  3
ObjectDBX Classes
 90
        0
280
     0
281
     0
  0
CLASS
  1
DICTIONARYVAR
  2
AcDbDictionaryVar
  3
ObjectDBX Classes
 90
        0
280
     0
281
     0
  0
CLASS
  1
MATERIAL
  2
AcDbMaterial
  3
ObjectDBX Classes
 90
    32768
280
     0
281
     0
  0
ENDSEC
  0
SECTION
  2
TABLES
  0
TABLE
  2
VPORT
  5
21
330
0
100
AcDbSymbolTable
 70
     3
  0
VPORT
  5
16A
330
21
100
AcDbSymbolTableRecord
100
AcDbViewportTableRecord
  2
*Active
 70
     0
 10
0.0
 20
0.0
 11
1.0
 21
1.0
 12
3.732244238345856
 22
-12.30104295599221
 13
0.0
 23
0.0
 14
1.0
 24
1.0
 15
0.0
 25
0.0
 16
0.0
 26
0.0
 36
1.0
 17
0.0
 27
0.0
 37
0.0
 40
235.1362374675036
 41
2.179292929292929
 42
50.0
 43
0.0
 44
0.0
 50
0.0
 51
0.0
 71
     0
 72
  1000
 73
     1
 74
     0
 75
     0
 76
     1
 77
     0
 78
     0
281
     0
 65
     1
110
0.0
120
0.0
130
0.0
111
1.0
121
0.0
131
0.0
112
0.0
122
1.0
132
0.0
 79
     0
146
0.0
  0
ENDTAB
  0
TABLE
  2
LTYPE
  5
1C
330
0
100
AcDbSymbolTable
 70
     2
  0
LTYPE
  5
1D
330
1C
100
AcDbSymbolTableRecord
100
AcDbLinetypeTableRecord
  2
BYBLOCK
 70
     0
  3

 72
    65
 73
     0
 40
0.0
  0
LTYPE
  5
1E
330
1C
100
AcDbSymbolTableRecord
100
AcDbLinetypeTableRecord
  2
BYLAYER
 70
     0
  3

 72
    65
 73
     0
 40
0.0
  0
LTYPE
  5
A
330
1C
100
AcDbSymbolTableRecord
100
AcDbLinetypeTableRecord
  2
CONTINUOUS
 70
     0
  3
Solid line
 72
    65
 73
     0
 40
0.0
  0
LTYPE
  5
7D
330
1C
100
AcDbSymbolTableRecord
100
AcDbLinetypeTableRecord
  2
HIDDEN2
 70
     0
  3
Hidden (.5x) _ _ _ _ _ _ _ _ _ _ _ _ _ _ _ _ _
 72
    65
 73
     2
 40
1.399999999999999
 49
0.7
 74
     0
 49
-0.7
 74
     0
  0
ENDTAB
  0
TABLE
  2
LAYER
  5
14
102
{ACAD_XDICTIONARY
360
15
102
}
330
0
100
AcDbSymbolTable
 70
     7
  0
LAYER
  5
6
330
14
100
AcDbSymbolTableRecord
100
AcDbLayerTableRecord
  2
0
 70
     0
 62
     7
  6
CONTINUOUS
370
    -3
390
7
  0
LAYER
  5
F6
330
14
100
AcDbSymbolTableRecord
100
AcDbLayerTableRecord
  2
DEFPOINTS
 70
     0
 62
     7
  6
CONTINUOUS
290
     0
370
    -3
390
7
  0
LAYER
  5
10B
330
14
100
AcDbSymbolTableRecord
100
AcDbLayerTableRecord
  2
WAKU
 70
     0
 62
     4
  6
CONTINUOUS
370
    -3
390
7
  0
LAYER
  5
36
330
14
100
AcDbSymbolTableRecord
100
AcDbLayerTableRecord
  2
MOJI1
 70
     0
 62
     2
  6
CONTINUOUS
370
    -3
390
7
  0
LAYER
  5
33
330
14
100
AcDbSymbolTableRecord
100
AcDbLayerTableRecord
  2
GAIKEI
 70
     0
 62
     7
  6
CONTINUOUS
370
    -3
390
7
  0
LAYER
  5
EC
330
14
100
AcDbSymbolTableRecord
100
AcDbLayerTableRecord
  2
SUNPO
 70
     0
 62
     3
  6
CONTINUOUS
370
    -3
390
7
  0
LAYER
  5
39
330
14
100
AcDbSymbolTableRecord
100
AcDbLayerTableRecord
  2
TOUROKU
 70
     0
 62
     1
  6
CONTINUOUS
370
    -3
390
7
  0
ENDTAB
  0
TABLE
  2
STYLE
  5
19
330
0
100
AcDbSymbolTable
 70
     2
  0
STYLE
  5
1A
330
19
100
AcDbSymbolTableRecord
100
AcDbTextStyleTableRecord
  2
STANDARD
 70
     0
 40
0.0
 41
1.0
 50
0.0
 71
     0
 42
3.0
  3
MONOTXT.shx
  4
BIGFONT.shx
  0
STYLE
  5
37
330
19
100
AcDbSymbolTableRecord
100
AcDbTextStyleTableRecord
  2
KANJI
 70
     0
 40
0.0
 41
1.0
 50
0.0
 71
     0
 42
3.5
  3
MONOTXT
  4
BIGFONT
  0
ENDTAB
  0
TABLE
  2
VIEW
  5
1F
330
0
100
AcDbSymbolTable
 70
     0
  0
ENDTAB
  0
TABLE
  2
UCS
  5
20
330
0
100
AcDbSymbolTable
 70
     0
  0
ENDTAB
  0
TABLE
  2
APPID
  5
23
330
0
100
AcDbSymbolTable
 70
     1
  0
APPID
  5
24
330
23
100
AcDbSymbolTableRecord
100
AcDbRegAppTableRecord
  2
ACAD
 70
     0
  0
ENDTAB
  0
TABLE
  2
DIMSTYLE
  5
25
330
0
100
AcDbSymbolTable
 70
     1
100
AcDbDimStyleTable
 71
     1
340
26
  0
DIMSTYLE
105
26
102
{ACAD_REACTORS
330
FA
330
EB
102
}
330
25
100
AcDbSymbolTableRecord
100
AcDbDimStyleTableRecord
  2
STANDARD
 70
     0
 40
0.0
 41
2.0
 42
2.0
 43
8.0
 44
2.0
 73
     0
 74
     0
 77
     3
140
3.0
141
0.0
173
     1
279
     2
288
     1
340
1A
341
27
343
27
344
27
  0
ENDTAB
  0
TABLE
  2
BLOCK_RECORD
  5
1
330
0
100
AcDbSymbolTable
 70
     5
  0
BLOCK_RECORD
  5
2
102
{ACAD_XDICTIONARY
360
3
102
}
330
1
100
AcDbSymbolTableRecord
100
AcDbBlockTableRecord
  2
*MODEL_SPACE
340
C
  0
BLOCK_RECORD
  5
E
102
{ACAD_XDICTIONARY
360
F
102
}
330
1
100
AcDbSymbolTableRecord
100
AcDbBlockTableRecord
  2
*PAPER_SPACE
340
13
  0
BLOCK_RECORD
  5
27
330
1
100
AcDbSymbolTableRecord
100
AcDbBlockTableRecord
  2
_OPEN30
340
0
102
{BLKREFS
331
F2
331
F3
331
100
331
101
331
152
331
153
331
15E
331
15F
102
}
  0
BLOCK_RECORD
  5
FB
330
1
100
AcDbSymbolTableRecord
100
AcDbBlockTableRecord
  2
*D1
340
0
  0
BLOCK_RECORD
  5
ED
330
1
100
AcDbSymbolTableRecord
100
AcDbBlockTableRecord
  2
*D2
340
0
  0
BLOCK_RECORD
  5
14E
330
1
100
AcDbSymbolTableRecord
100
AcDbBlockTableRecord
  2
*D3
340
0
  0
BLOCK_RECORD
  5
15A
330
1
100
AcDbSymbolTableRecord
100
AcDbBlockTableRecord
  2
*D4
340
0
  0
ENDTAB
  0
ENDSEC
  0
SECTION
  2
BLOCKS
  0
BLOCK
  5
5
330
2
100
AcDbEntity
  8
0
100
AcDbBlockBegin
  2
*MODEL_SPACE
 70
     0
 10
0.0
 20
0.0
 30
0.0
  3
*MODEL_SPACE
  1

  0
ENDBLK
  5
B
330
2
100
AcDbEntity
  8
0
100
AcDbBlockEnd
  0
BLOCK
  5
11
330
E
100
AcDbEntity
 67
     1
  8
0
100
AcDbBlockBegin
  2
*PAPER_SPACE
 70
     0
 10
0.0
 20
0.0
 30
0.0
  3
*PAPER_SPACE
  1

  0
ENDBLK
  5
12
330
E
100
AcDbEntity
 67
     1
  8
0
100
AcDbBlockEnd
  0
BLOCK
  5
28
330
27
100
AcDbEntity
  8
0
100
AcDbBlockBegin
  2
_OPEN30
 70
     0
 10
0.0
 20
0.0
 30
0.0
  3
_OPEN30
  1

  0
LINE
  5
29
330
27
100
AcDbEntity
  8
0
  6
ByBlock
 62
     0
100
AcDbLine
 10
-1.0
 20
0.26794919
 30
0.0
 11
0.0
 21
0.0
 31
0.0
  0
LINE
  5
2A
330
27
100
AcDbEntity
  8
0
  6
ByBlock
 62
     0
100
AcDbLine
 10
0.0
 20
0.0
 30
0.0
 11
-1.0
 21
-0.26794919
 31
0.0
  0
LINE
  5
2B
330
27
100
AcDbEntity
  8
0
  6
ByBlock
 62
     0
100
AcDbLine
 10
0.0
 20
0.0
 30
0.0
 11
-1.0
 21
0.0
 31
0.0
  0
ENDBLK
  5
2C
330
27
100
AcDbEntity
  8
0
100
AcDbBlockEnd
  0
BLOCK
  5
FC
330
FB
100
AcDbEntity
  8
0
100
AcDbBlockBegin
  2
*D1
 70
     1
 10
0.0
 20
0.0
 30
0.0
  3
*D1
  1

  0
LINE
  5
FD
330
FB
100
AcDbEntity
  8
SUNPO
 62
     0
370
    -2
100
AcDbLine
 10
86.92398730129948
 20
329.8418413477816
 30
0.0
 11
86.92398730129948
 21
337.8418413477816
 31
0.0
  0
LINE
  5
FE
330
FB
100
AcDbEntity
  8
SUNPO
 62
     0
370
    -2
100
AcDbLine
 10
68.11435881466941
 20
329.8418413477816
 30
0.0
 11
68.11435881466941
 21
337.8418413477816
 31
0.0
  0
LINE
  5
FF
330
FB
100
AcDbEntity
  8
SUNPO
 62
     0
370
    -2
100
AcDbLine
 10
84.92398730129947
 20
335.8418413477816
 30
0.0
 11
70.11435881466941
 21
335.8418413477816
 31
0.0
  0
INSERT
  5
100
330
FB
100
AcDbEntity
  8
SUNPO
 62
     0
370
    -2
100
AcDbBlockReference
  2
_OPEN30
 10
86.92398730129948
 20
335.8418413477816
 30
0.0
 41
2.0
 42
2.0
 43
2.0
  0
INSERT
  5
101
330
FB
100
AcDbEntity
  8
SUNPO
 62
     0
370
    -2
100
AcDbBlockReference
  2
_OPEN30
 10
68.11435881466941
 20
335.8418413477816
 30
0.0
 41
2.0
 42
2.0
 43
2.0
 50
180.0
  0
MTEXT
  5
102
330
FB
100
AcDbEntity
  8
SUNPO
 62
     0
100
AcDbMText
 10
77.51917305798444
 20
337.5918413477816
 30
0.0
 40
2.5
 41
0.0
 71
     5
 72
     1
  1
\A1;93
 73
     1
 44
1.0
1001
ACAD
1000
MTEXTBEGIN
1070
    73
1070
     1
1070
    44
1040
1.0
1070
    74
1070
     0
1000
MTEXTEND
  0
POINT
  5
103
330
FB
100
AcDbEntity
  8
DEFPOINTS
 62
     0
100
AcDbPoint
 10
86.92398730129948
 20
327.8418413477816
 30
0.0
  0
POINT
  5
104
330
FB
100
AcDbEntity
  8
DEFPOINTS
 62
     0
100
AcDbPoint
 10
68.11435881466941
 20
327.8418413477816
 30
0.0
  0
POINT
  5
105
330
FB
100
AcDbEntity
  8
DEFPOINTS
 62
     0
100
AcDbPoint
 10
68.11435881466941
 20
335.8418413477816
 30
0.0
  0
ENDBLK
  5
106
330
FB
100
AcDbEntity
  8
0
100
AcDbBlockEnd
  0
BLOCK
  5
EE
330
ED
100
AcDbEntity
  8
0
100
AcDbBlockBegin
  2
*D2
 70
     1
 10
0.0
 20
0.0
 30
0.0
  3
*D2
  1

  0
LINE
  5
EF
330
ED
100
AcDbEntity
  8
SUNPO
 62
     0
370
    -2
100
AcDbLine
 10
88.91307587077941
 20
301.7828588223252
 30
0.0
 11
96.91307587077941
 21
301.7828588223252
 31
0.0
  0
LINE
  5
F0
330
ED
100
AcDbEntity
  8
SUNPO
 62
     0
370
    -2
100
AcDbLine
 10
88.91307587077941
 20
327.6610170340252
 30
0.0
 11
96.91307587077941
 21
327.6610170340252
 31
0.0
  0
LINE
  5
F1
330
ED
100
AcDbEntity
  8
SUNPO
 62
     0
370
    -2
100
AcDbLine
 10
94.9130758707794
 20
303.7828588223252
 30
0.0
 11
94.9130758707794
 21
325.6610170340252
 31
0.0
  0
INSERT
  5
F2
330
ED
100
AcDbEntity
  8
SUNPO
 62
     0
370
    -2
100
AcDbBlockReference
  2
_OPEN30
 10
94.9130758707794
 20
301.7828588223252
 30
0.0
 41
2.0
 42
2.0
 43
2.0
 50
270.0
  0
INSERT
  5
F3
330
ED
100
AcDbEntity
  8
SUNPO
 62
     0
370
    -2
100
AcDbBlockReference
  2
_OPEN30
 10
94.9130758707794
 20
327.6610170340252
 30
0.0
 41
2.0
 42
2.0
 43
2.0
 50
90.0
  0
MTEXT
  5
F4
330
ED
100
AcDbEntity
  8
SUNPO
 62
     0
100
AcDbMText
 10
93.16307587077934
 20
314.7219379281752
 30
0.0
 40
2.5
 41
0.0
 71
     5
 72
     1
  1
\A1;φ129.5
 11
0.0000000000000001
 21
1.0
 31
0.0
 73
     1
 44
1.0
1001
ACAD
1000
MTEXTBEGIN
1070
    73
1070
     1
1070
    44
1040
1.0
1070
    74
1070
     0
1000
MTEXTEND
  0
POINT
  5
F5
330
ED
100
AcDbEntity
  8
DEFPOINTS
 62
     0
100
AcDbPoint
 10
86.91307587077941
 20
301.7828588223252
 30
0.0
  0
POINT
  5
F7
330
ED
100
AcDbEntity
  8
DEFPOINTS
 62
     0
100
AcDbPoint
 10
86.91307587077941
 20
327.6610170340252
 30
0.0
  0
POINT
  5
F8
330
ED
100
AcDbEntity
  8
DEFPOINTS
 62
     0
100
AcDbPoint
 10
94.9130758707794
 20
327.6610170340252
 30
0.0
  0
ENDBLK
  5
F9
330
ED
100
AcDbEntity
  8
0
100
AcDbBlockEnd
  0
BLOCK
  5
158
330
14E
100
AcDbEntity
  8
0
100
AcDbBlockBegin
  2
*D3
 70
     1
 10
0.0
 20
0.0
 30
0.0
  3
*D3
  1

  0
LINE
  5
14F
330
14E
100
AcDbEntity
  8
SUNPO
 62
     0
370
    -2
100
AcDbLine
 10
26.13162374977959
 20
63.94009952898023
 30
0.0
 11
26.13162374977959
 21
71.94009952898023
 31
0.0
  0
LINE
  5
150
330
14E
100
AcDbEntity
  8
SUNPO
 62
     0
370
    -2
100
AcDbLine
 10
7.321995263149531
 20
63.94009952898023
 30
0.0
 11
7.321995263149532
 21
71.94009952898023
 31
0.0
  0
LINE
  5
151
330
14E
100
AcDbEntity
  8
SUNPO
 62
     0
370
    -2
100
AcDbLine
 10
24.1316237497796
 20
69.94009952898022
 30
0.0
 11
9.321995263149531
 21
69.94009952898022
 31
0.0
  0
INSERT
  5
152
330
14E
100
AcDbEntity
  8
SUNPO
 62
     0
370
    -2
100
AcDbBlockReference
  2
_OPEN30
 10
26.13162374977959
 20
69.94009952898022
 30
0.0
 41
2.0
 42
2.0
 43
2.0
  0
INSERT
  5
153
330
14E
100
AcDbEntity
  8
SUNPO
 62
     0
370
    -2
100
AcDbBlockReference
  2
_OPEN30
 10
7.321995263149532
 20
69.94009952898022
 30
0.0
 41
2.0
 42
2.0
 43
2.0
 50
180.0
  0
MTEXT
  5
154
330
14E
100
AcDbEntity
  8
SUNPO
 62
     0
100
AcDbMText
 10
16.72680950646456
 20
71.69009952898022
 30
0.0
 40
2.5
 41
0.0
 71
     5
 72
     1
  1
\A1;93
 73
     1
 44
1.0
1001
ACAD
1000
MTEXTBEGIN
1070
    73
1070
     1
1070
    44
1040
1.0
1070
    74
1070
     0
1000
MTEXTEND
  0
POINT
  5
155
330
14E
100
AcDbEntity
  8
DEFPOINTS
 62
     0
100
AcDbPoint
 10
26.13162374977959
 20
61.94009952898023
 30
0.0
  0
POINT
  5
156
330
14E
100
AcDbEntity
  8
DEFPOINTS
 62
     0
100
AcDbPoint
 10
7.321995263149531
 20
61.94009952898023
 30
0.0
  0
POINT
  5
157
330
14E
100
AcDbEntity
  8
DEFPOINTS
 62
     0
100
AcDbPoint
 10
7.321995263149532
 20
69.94009952898022
 30
0.0
  0
ENDBLK
  5
159
330
14E
100
AcDbEntity
  8
0
100
AcDbBlockEnd
  0
BLOCK
  5
164
330
15A
100
AcDbEntity
  8
0
100
AcDbBlockBegin
  2
*D4
 70
     1
 10
0.0
 20
0.0
 30
0.0
  3
*D4
  1

  0
LINE
  5
15B
330
15A
100
AcDbEntity
  8
SUNPO
 62
     0
370
    -2
100
AcDbLine
 10
28.12071231925953
 20
35.88111700352385
 30
0.0
 11
36.12071231925952
 21
35.88111700352385
 31
0.0
  0
LINE
  5
15C
330
15A
100
AcDbEntity
  8
SUNPO
 62
     0
370
    -2
100
AcDbLine
 10
28.12071231925953
 20
61.75927521522385
 30
0.0
 11
36.12071231925952
 21
61.75927521522385
 31
0.0
  0
LINE
  5
15D
330
15A
100
AcDbEntity
  8
SUNPO
 62
     0
370
    -2
100
AcDbLine
 10
34.12071231925952
 20
37.88111700352386
 30
0.0
 11
34.12071231925953
 21
59.75927521522385
 31
0.0
  0
INSERT
  5
15E
330
15A
100
AcDbEntity
  8
SUNPO
 62
     0
370
    -2
100
AcDbBlockReference
  2
_OPEN30
 10
34.12071231925952
 20
35.88111700352385
 30
0.0
 41
2.0
 42
2.0
 43
2.0
 50
270.0
  0
INSERT
  5
15F
330
15A
100
AcDbEntity
  8
SUNPO
 62
     0
370
    -2
100
AcDbBlockReference
  2
_OPEN30
 10
34.12071231925953
 20
61.75927521522385
 30
0.0
 41
2.0
 42
2.0
 43
2.0
 50
90.0
  0
MTEXT
  5
160
330
15A
100
AcDbEntity
  8
SUNPO
 62
     0
100
AcDbMText
 10
32.37071231925951
 20
48.82019610937386
 30
0.0
 40
2.5
 41
0.0
 71
     5
 72
     1
  1
\A1;φ129.5
 11
0.0000000000000001
 21
1.0
 31
0.0
 73
     1
 44
1.0
1001
ACAD
1000
MTEXTBEGIN
1070
    73
1070
     1
1070
    44
1040
1.0
1070
    74
1070
     0
1000
MTEXTEND
  0
POINT
  5
161
330
15A
100
AcDbEntity
  8
DEFPOINTS
 62
     0
100
AcDbPoint
 10
26.12071231925952
 20
35.88111700352385
 30
0.0
  0
POINT
  5
162
330
15A
100
AcDbEntity
  8
DEFPOINTS
 62
     0
100
AcDbPoint
 10
26.12071231925952
 20
61.75927521522385
 30
0.0
  0
POINT
  5
163
330
15A
100
AcDbEntity
  8
DEFPOINTS
 62
     0
100
AcDbPoint
 10
34.12071231925953
 20
61.75927521522385
 30
0.0
  0
ENDBLK
  5
165
330
15A
100
AcDbEntity
  8
0
100
AcDbBlockEnd
  0
ENDSEC
  0
SECTION
  2
ENTITIES
  0
TEXT
  5
35
330
2
100
AcDbEntity
  8
MOJI1
100
AcDbText
 10
-31.79236355151977
 20
100.5974723208406
 30
0.0
 40
4.0
  1
ネットワークカメラ
  7
KANJI
100
AcDbText
  0
TEXT
  5
38
330
2
100
AcDbEntity
  8
TOUROKU
100
AcDbText
 10
50.2075864814074
 20
94.59747232084044
 30
0.0
 40
2.0
  1
ＤＧＳＦ５３９
 72
     2
 11
66.2075864814074
 21
94.59747232084044
 31
0.0
100
AcDbText
  0
LINE
  5
3A
330
2
100
AcDbEntity
  8
GAIKEI
100
AcDbLine
 10
19.88909034911957
 20
36.21158452566386
 30
0.0
 11
25.9319221127596
 21
35.88111700352385
 31
0.0
  0
LINE
  5
3B
330
2
100
AcDbEntity
  8
GAIKEI
 62
     1
100
AcDbLine
 10
19.88909034911957
 20
61.42880769308385
 30
0.0
 11
19.88909034911957
 21
36.21158452566386
 31
0.0
  0
LINE
  5
3C
330
2
100
AcDbEntity
  8
GAIKEI
 62
     1
100
AcDbLine
 10
19.60364221517956
 20
61.2854756587239
 30
0.0
 11
19.60364221517956
 21
36.35491656000386
 31
0.0
  0
LINE
  5
3D
330
2
100
AcDbEntity
  8
GAIKEI
100
AcDbLine
 10
25.9319221127596
 20
61.75927521522385
 30
0.0
 11
25.93192211275962
 21
60.44572000606933
 31
0.0
  0
LINE
  5
3E
330
2
100
AcDbEntity
  8
GAIKEI
100
AcDbLine
 10
26.13162374977958
 20
61.6901964121638
 30
0.0
 11
26.13162374977958
 21
60.18317221406994
 31
0.0
  0
LINE
  5
3F
330
2
100
AcDbEntity
  8
GAIKEI
100
AcDbLine
 10
26.13162374977958
 20
35.95019580658391
 30
0.0
 11
25.9319221127596
 21
35.88111700352385
 31
0.0
  0
LINE
  5
40
330
2
100
AcDbEntity
  8
GAIKEI
100
AcDbLine
 10
24.42662394527952
 20
61.6769537502039
 30
0.0
 11
19.88909034911957
 21
61.42880769308385
 31
0.0
  0
LINE
  5
41
330
2
100
AcDbEntity
  8
GAIKEI
100
AcDbLine
 10
25.9319221127596
 20
61.75927521522385
 30
0.0
 11
24.42662394527952
 21
61.6769537502039
 31
0.0
  0
LINE
  5
42
330
2
100
AcDbEntity
  8
GAIKEI
 62
     1
100
AcDbLine
 10
25.9319221127596
 20
38.28629108008385
 30
0.0
 11
25.9319221127596
 21
35.88111700352385
 31
0.0
  0
LINE
  5
43
330
2
100
AcDbEntity
  8
GAIKEI
100
AcDbLine
 10
26.13162374977958
 20
38.75610457596383
 30
0.0
 11
26.13162374977958
 21
35.95019580658379
 31
0.0
  0
LINE
  5
44
330
2
100
AcDbEntity
  8
GAIKEI
100
AcDbLine
 10
25.9319221127596
 20
61.75927521522385
 30
0.0
 11
26.13162374977958
 21
61.69019641216391
 31
0.0
  0
LINE
  5
45
330
2
100
AcDbEntity
  8
GAIKEI
 62
     1
100
AcDbLine
 10
26.19162402037955
 20
39.24546988542386
 30
0.0
 11
26.19162402037955
 21
37.89443226392382
 31
0.0
  0
LINE
  5
46
330
2
100
AcDbEntity
  8
GAIKEI
 62
     1
100
AcDbLine
 10
26.23162395243958
 20
39.47019578750383
 30
0.0
 11
26.23162380819963
 21
41.47019610938383
 31
0.0
  0
LINE
  5
47
330
2
100
AcDbEntity
  8
GAIKEI
 62
     1
100
AcDbLine
 10
25.93162408951958
 20
41.1608323627238
 30
0.0
 11
25.93162408951958
 21
39.00343702968383
 31
0.0
  0
LINE
  5
48
330
2
100
AcDbEntity
  8
GAIKEI
 62
     1
100
AcDbLine
 10
26.23162395243958
 20
40.64122365650383
 30
0.0
 11
26.03162354711958
 21
40.64122365650383
 31
0.0
  0
ARC
  5
49
330
2
100
AcDbEntity
  8
GAIKEI
 62
     1
100
AcDbCircle
 10
26.04128122610144
 20
37.89914506392552
 30
0.0
 40
0.1504166422814277
100
AcDbArc
 50
306.9139717668381
 51
358.2045354536933
  0
LINE
  5
4A
330
2
100
AcDbEntity
  8
GAIKEI
 62
     1
100
AcDbLine
 10
25.93162408951958
 20
39.19658960636383
 30
0.0
 11
26.12106627707954
 21
39.29131032760381
 31
0.0
  0
ARC
  5
4B
330
2
100
AcDbEntity
  8
GAIKEI
 62
     1
100
AcDbCircle
 10
26.03162320387463
 20
39.47019626440726
 30
0.0
 40
0.2000006043250548
100
AcDbArc
 50
296.5650780311886
 51
359.9999555891926
  0
ARC
  5
4C
330
2
100
AcDbEntity
  8
GAIKEI
 62
     1
100
AcDbCircle
 10
26.05254347176867
 20
39.24422385803791
 30
0.0
 40
0.1390861300998529
100
AcDbArc
 50
0.5133011129139856
 51
34.53936239981798
  0
LINE
  5
4D
330
2
100
AcDbEntity
  8
GAIKEI
 62
     1
100
AcDbLine
 10
25.99162361507956
 20
39.09274713930381
 30
0.0
 11
25.99162361507956
 21
39.22658936914383
 31
0.0
  0
LINE
  5
4E
330
2
100
AcDbEntity
  8
GAIKEI
 62
     1
100
AcDbLine
 10
25.93162408951958
 20
39.12690134580385
 30
0.0
 11
26.01678422573957
 21
39.07842488822382
 31
0.0
  0
LINE
  5
4F
330
2
100
AcDbEntity
  8
GAIKEI
 62
     1
100
AcDbLine
 10
25.93171837842198
 20
39.00350885104752
 30
0.0
 11
26.01678395910557
 21
38.95543601214513
 31
0.0
  0
LINE
  5
50
330
2
100
AcDbEntity
  8
GAIKEI
 62
     1
100
AcDbLine
 10
26.03162354711958
 20
38.93481867250381
 30
0.0
 11
26.03162354711958
 21
39.05777932938383
 31
0.0
  0
LINE
  5
51
330
2
100
AcDbEntity
  8
GAIKEI
 62
     1
100
AcDbLine
 10
25.93171837750754
 20
38.87504969784016
 30
0.0
 11
26.01678395819073
 21
38.91545964904981
 31
0.0
  0
LINE
  5
52
330
2
100
AcDbEntity
  8
GAIKEI
 62
     1
100
AcDbLine
 10
25.93162408951958
 20
38.87512834604383
 30
0.0
 11
25.93162408951958
 21
38.7150779539038
 31
0.0
  0
LINE
  5
53
330
2
100
AcDbEntity
  8
GAIKEI
 62
     1
100
AcDbLine
 10
25.93162408951958
 20
38.7150779539038
 30
0.0
 11
26.03192231539959
 21
38.71013598378386
 31
0.0
  0
LINE
  5
54
330
2
100
AcDbEntity
  8
GAIKEI
 62
     1
100
AcDbLine
 10
25.93162408951958
 20
38.82791625198382
 30
0.0
 11
26.03336921815958
 21
38.82252575692382
 31
0.0
  0
LINE
  5
55
330
2
100
AcDbEntity
  8
GAIKEI
 62
     1
100
AcDbLine
 10
26.03192231539959
 20
38.71013598378386
 30
0.0
 11
26.03192231539959
 21
38.31445203956383
 31
0.0
  0
LINE
  5
56
330
2
100
AcDbEntity
  8
GAIKEI
 62
     1
100
AcDbLine
 10
26.03192231539959
 20
38.31445203956383
 30
0.0
 11
25.9319221127596
 21
38.28629108008385
 31
0.0
  0
LINE
  5
57
330
2
100
AcDbEntity
  8
GAIKEI
100
AcDbLine
 10
26.13162374977958
 20
35.95019580658379
 30
0.0
 11
26.13162374977958
 21
38.75610457596383
 31
0.0
  0
LINE
  5
58
330
2
100
AcDbEntity
  8
GAIKEI
 62
     1
100
AcDbLine
 10
25.9319221127596
 20
38.28629108008385
 30
0.0
 11
24.32996532801963
 21
38.3576132529638
 31
0.0
  0
ARC
  5
59
330
2
100
AcDbEntity
  8
GAIKEI
 62
     1
100
AcDbCircle
 10
26.04445884874792
 20
38.73304742204937
 30
0.0
 40
0.0901629209736046
100
AcDbArc
 50
14.81670742537712
 51
97.06501123267507
  0
ARC
  5
5A
330
2
100
AcDbEntity
  8
GAIKEI
 62
     1
100
AcDbCircle
 10
26.00633705561256
 20
39.05526004206251
 30
0.0
 40
0.0254116796245638
100
AcDbArc
 50
5.689589751950608
 51
65.72498599452825
  0
ARC
  5
5B
330
2
100
AcDbEntity
  8
GAIKEI
 62
     1
100
AcDbCircle
 10
26.00998997792277
 20
38.93544787522893
 30
0.0
 40
0.0211112244479378
100
AcDbArc
 50
288.7736960483701
 51
71.22706825694009
  0
ARC
  5
5C
330
2
100
AcDbEntity
  8
GAIKEI
 62
     1
100
AcDbCircle
 10
26.03162380819964
 20
41.47019610938378
 30
0.0
 40
0.2000000000000099
100
AcDbArc
 50
0.0000000000065138
 51
60.00000000000474
  0
ARC
  5
5D
330
2
100
AcDbEntity
  8
GAIKEI
 62
     1
100
AcDbCircle
 10
26.01303247339365
 20
41.2761660438382
 30
0.0
 40
0.1192070345509312
100
AcDbArc
 50
278.9722557521512
 51
354.1738870641806
  0
LINE
  5
5E
330
2
100
AcDbEntity
  8
GAIKEI
 62
     1
100
AcDbLine
 10
26.03192231539959
 20
41.15841017898378
 30
0.0
 11
25.93162408951958
 21
41.16083310778378
 31
0.0
  0
LINE
  5
5F
330
2
100
AcDbEntity
  8
GAIKEI
 62
     1
100
AcDbLine
 10
26.03192090207554
 20
43.86653240671785
 30
0.0
 11
24.32996532801963
 21
43.90215093132383
 31
0.0
  0
LINE
  5
60
330
2
100
AcDbEntity
  8
GAIKEI
 62
     1
100
AcDbLine
 10
26.03162354711958
 20
40.64122365650383
 30
0.0
 11
26.03192090207554
 21
43.86653240671785
 31
0.0
  0
LINE
  5
61
330
2
100
AcDbEntity
  8
GAIKEI
 62
     1
100
AcDbLine
 10
26.03192090207554
 20
43.86653240671785
 30
0.0
 11
24.32996532801963
 21
43.90215093132383
 31
0.0
  0
LINE
  5
62
330
2
100
AcDbEntity
  8
GAIKEI
 62
     1
100
AcDbLine
 10
23.73162410143959
 20
38.74316589768381
 30
0.0
 11
23.73162410143959
 21
43.36710760232381
 31
0.0
  0
ARC
  5
63
330
2
100
AcDbEntity
  8
GAIKEI
 62
     1
100
AcDbCircle
 10
24.2970588334087
 20
43.33686497236487
 30
0.0
 40
0.5662429273587036
100
AcDbArc
 50
86.66845091129459
 51
176.9384166430635
  0
ARC
  5
64
330
2
100
AcDbEntity
  8
GAIKEI
 62
     1
100
AcDbCircle
 10
24.27397510872231
 20
38.92778253894221
 30
0.0
 40
0.5729117901825047
100
AcDbArc
 50
198.7986081313805
 51
275.6084234860136
  0
LINE
  5
65
330
2
100
AcDbEntity
  8
GAIKEI
 62
     1
100
AcDbLine
 10
22.93182900528098
 20
48.43692967447515
 30
0.0
 11
25.63182900522276
 21
48.43691194544994
 31
0.0
  0
LINE
  5
66
330
2
100
AcDbEntity
  8
GAIKEI
 62
     1
100
AcDbLine
 10
25.73182834859006
 20
48.33691128882151
 30
0.0
 11
25.73180339662861
 21
44.53691128890352
 31
0.0
  0
LINE
  5
67
330
2
100
AcDbEntity
  8
GAIKEI
 62
     1
100
AcDbLine
 10
25.63180274000021
 20
44.43691194553622
 30
0.0
 11
22.93180274005852
 21
44.43692967456138
 31
0.0
  0
LINE
  5
68
330
2
100
AcDbEntity
  8
GAIKEI
 62
     1
100
AcDbLine
 10
22.73180405332391
 20
44.63693098781823
 30
0.0
 11
22.73182769202413
 21
48.23693098774061
 31
0.0
  0
ARC
  5
69
330
2
100
AcDbEntity
  8
GAIKEI
 62
     1
100
AcDbCircle
 10
22.93182769201985
 20
48.23692967447948
 30
0.0
 40
0.2
100
AcDbArc
 50
89.99962377840006
 51
179.9996237784013
  0
ARC
  5
6A
330
2
100
AcDbEntity
  8
GAIKEI
 62
     1
100
AcDbCircle
 10
22.93180405331964
 20
44.63692967455711
 30
0.0
 40
0.2
100
AcDbArc
 50
179.9996237784013
 51
269.9996237784
  0
ARC
  5
6B
330
2
100
AcDbEntity
  8
GAIKEI
 62
     1
100
AcDbCircle
 10
25.63180339663077
 20
44.53691194553402
 30
0.0
 40
0.1
100
AcDbArc
 50
269.9996237783994
 51
359.999623778398
  0
ARC
  5
6C
330
2
100
AcDbEntity
  8
GAIKEI
 62
     1
100
AcDbCircle
 10
25.63182834859219
 20
48.33691194545213
 30
0.0
 40
0.1
100
AcDbArc
 50
359.999623778398
 51
89.99962377840006
  0
ARC
  5
6D
330
2
100
AcDbEntity
  8
GAIKEI
100
AcDbCircle
 10
33.35259596988192
 20
52.4735772247036
 30
0.0
 40
21.1859611765122
100
AcDbArc
 50
218.9404126563868
 51
229.536364349077
  0
ARC
  5
6E
330
2
100
AcDbEntity
  8
GAIKEI
100
AcDbCircle
 10
19.91093284502672
 20
36.61098759406946
 30
0.0
 40
0.3999998820990647
100
AcDbArc
 50
219.8050769255424
 51
266.8697350278248
  0
ARC
  5
6F
330
2
100
AcDbEntity
  8
GAIKEI
100
AcDbCircle
 10
19.91093284502672
 20
61.02940462467825
 30
0.0
 40
0.3999998820990647
100
AcDbArc
 50
93.13026497217514
 51
140.1949230744576
  0
ARC
  5
70
330
2
100
AcDbEntity
  8
GAIKEI
100
AcDbCircle
 10
33.36044373273959
 20
45.17964631626523
 30
0.0
 40
21.18129662703836
100
AcDbArc
 50
130.5023114600104
 51
141.099430641907
  0
LINE
  5
71
330
2
100
AcDbEntity
  8
GAIKEI
 62
     1
100
AcDbLine
 10
16.87415470291957
 20
39.15795015032387
 30
0.0
 11
16.87415470291957
 21
58.48244202245211
 31
0.0
  0
LINE
  5
72
330
2
100
AcDbEntity
  8
GAIKEI
 62
     1
100
AcDbLine
 10
16.87415507543962
 20
48.8202867949239
 30
0.0
 11
19.55336942259966
 21
48.82019609894388
 31
0.0
  0
LINE
  5
73
330
2
100
AcDbEntity
  8
GAIKEI
 62
     1
100
AcDbLine
 10
15.35162380819953
 20
56.84982465442385
 30
0.0
 11
15.35162380819953
 21
40.79056756432385
 31
0.0
  0
LINE
  5
74
330
2
100
AcDbEntity
  8
GAIKEI
 62
     1
100
AcDbLine
 10
16.73974771905956
 20
39.4967928701239
 30
0.0
 11
16.73974771905956
 21
58.14359934862387
 31
0.0
  0
ARC
  5
75
330
2
100
AcDbEntity
  8
GAIKEI
100
AcDbCircle
 10
17.38778757999664
 20
39.55777723100346
 30
0.0
 40
0.6509073873134623
100
AcDbArc
 50
185.3760009997377
 51
217.8982493144915
  0
LINE
  5
76
330
2
100
AcDbEntity
  8
GAIKEI
 62
     1
100
AcDbLine
 10
16.55254713181956
 20
40.60794563826391
 30
0.0
 11
16.55254713181956
 21
57.03244658046384
 31
0.0
  0
ARC
  5
77
330
2
100
AcDbEntity
  8
GAIKEI
100
AcDbCircle
 10
13.11095456506093
 20
39.45679471711264
 30
0.0
 40
3.629009208976418
100
AcDbArc
 50
0.6315144510031924
 51
18.49416311357387
  0
ARC
  5
78
330
2
100
AcDbEntity
  8
GAIKEI
100
AcDbCircle
 10
13.11095456506093
 20
58.18359750161505
 30
0.0
 40
3.629009208976418
100
AcDbArc
 50
341.5058368864261
 51
359.3684855489968
  0
ARC
  5
79
330
2
100
AcDbEntity
  8
GAIKEI
100
AcDbCircle
 10
17.38778757999664
 20
58.0826149877243
 30
0.0
 40
0.6509073873134623
100
AcDbArc
 50
142.1017506855085
 51
174.6239990002623
  0
LINE
  5
7A
330
2
100
AcDbEntity
  8
GAIKEI
100
AcDbLine
 10
16.55254713181956
 20
40.76960535582389
 30
0.0
 11
15.35162380819953
 21
40.79056756432385
 31
0.0
  0
ARC
  5
7B
330
2
100
AcDbEntity
  8
GAIKEI
100
AcDbCircle
 10
15.35162380819953
 20
48.82019610937385
 30
0.0
 40
8.029628545050002
100
AcDbArc
 50
90.0
 51
270.0
  0
LINE
  5
7C
330
2
100
AcDbEntity
  8
GAIKEI
  6
HIDDEN2
 62
     1
100
AcDbLine
 10
8.592054856019572
 20
52.02019610936389
 30
0.0
 11
8.592054856030259
 21
48.8201961093639
 31
0.0
  0
ARC
  5
7E
330
2
100
AcDbEntity
  8
GAIKEI
  6
HIDDEN2
 62
     1
100
AcDbCircle
 10
15.86881852301691
 20
48.92786920621592
 30
0.0
 40
7.277560234111349
100
AcDbArc
 50
180.8477345308575
 51
265.9247228442426
  0
ARC
  5
7F
330
2
100
AcDbEntity
  8
GAIKEI
  6
HIDDEN2
 62
     1
100
AcDbCircle
 10
15.55162380819963
 20
48.82019610936379
 30
0.0
 40
7.660000000000035
100
AcDbArc
 50
91.49614337868747
 51
155.3070949892992
  0
LINE
  5
80
330
2
100
AcDbEntity
  8
GAIKEI
100
AcDbLine
 10
16.55254713181956
 20
56.8707868629238
 30
0.0
 11
15.35162380819953
 21
56.84982465442385
 31
0.0
  0
LINE
  5
81
330
2
100
AcDbEntity
  8
GAIKEI
 62
     1
100
AcDbLine
 10
-34.44731056307573
 20
48.82019610937385
 30
0.0
 11
-31.50094558000656
 21
48.82019610937385
 31
0.0
  0
LINE
  5
82
330
2
100
AcDbEntity
  8
GAIKEI
 62
     1
100
AcDbLine
 10
-21.83869911831234
 20
58.48244257106808
 30
0.0
 11
-21.83869911831234
 21
57.03244658049914
 31
0.0
  0
CIRCLE
  5
83
330
2
100
AcDbEntity
  8
GAIKEI
100
AcDbCircle
 10
-21.83869911831234
 20
48.82019610937385
 30
0.0
 40
12.93907910585994
  0
CIRCLE
  5
84
330
2
100
AcDbEntity
  8
GAIKEI
 62
     1
100
AcDbCircle
 10
-21.83869911831234
 20
48.82019610937385
 30
0.0
 40
12.6086114447634
  0
CIRCLE
  5
85
330
2
100
AcDbEntity
  8
GAIKEI
 62
     1
100
AcDbCircle
 10
-21.83869911831234
 20
48.82019610937385
 30
0.0
 40
9.662246461694223
  0
CIRCLE
  5
86
330
2
100
AcDbEntity
  8
GAIKEI
 62
     7
100
AcDbCircle
 10
-21.83869911831234
 20
48.82019610937385
 30
0.0
 40
8.212250471125258
  0
CIRCLE
  5
87
330
2
100
AcDbEntity
  8
GAIKEI
 62
     1
100
AcDbCircle
 10
-21.83869911831234
 20
48.82019610937385
 30
0.0
 40
7.660000155500014
  0
LINE
  5
88
330
2
100
AcDbEntity
  8
GAIKEI
  6
HIDDEN2
 62
     1
100
AcDbLine
 10
-25.03869927381231
 20
42.0977687186239
 30
0.0
 11
-25.03869927381231
 21
48.8201961093639
 31
0.0
  0
LINE
  5
89
330
2
100
AcDbEntity
  8
GAIKEI
  6
HIDDEN2
 62
     1
100
AcDbLine
 10
-18.63869927381233
 20
42.0977687186239
 30
0.0
 11
-18.63869927381233
 21
48.8201961093639
 31
0.0
  0
ARC
  5
8A
330
2
100
AcDbEntity
  8
GAIKEI
  6
HIDDEN2
 62
     1
100
AcDbCircle
 10
-21.83869911831234
 20
48.82019610937385
 30
0.0
 40
7.483741875526618
100
AcDbArc
 50
244.7248742408357
 51
295.2751228367349
  0
ARC
  5
8B
330
2
100
AcDbEntity
  8
GAIKEI
  6
HIDDEN2
 62
     1
100
AcDbCircle
 10
-21.83869911831234
 20
48.82019610937385
 30
0.0
 40
3.199999844499998
100
AcDbArc
 50
0.0
 51
180.0
  0
ARC
  5
8C
330
2
100
AcDbEntity
  8
GAIKEI
 62
     1
100
AcDbCircle
 10
-21.83869911831234
 20
48.82019610937385
 30
0.0
 40
12.81875012009022
100
AcDbArc
 50
125.4999986618251
 51
157.5000006492393
  0
LINE
  5
8D
330
2
100
AcDbEntity
  8
GAIKEI
 62
     1
100
AcDbLine
 10
-33.79284962271231
 20
53.77176703746386
 30
0.0
 11
-33.68168004222662
 21
53.72571926976309
 31
0.0
  0
LINE
  5
8E
330
2
100
AcDbEntity
  8
GAIKEI
 62
     1
100
AcDbLine
 10
-29.35246079419233
 20
59.35410113866385
 30
0.0
 11
-29.28258495783133
 21
59.25613968192738
 31
0.0
  0
ARC
  5
8F
330
2
100
AcDbEntity
  8
GAIKEI
 62
     1
100
AcDbCircle
 10
-21.83869911831234
 20
48.82019610937385
 30
0.0
 40
12.85675796776827
100
AcDbArc
 50
79.21382978112055
 51
98.97652840955316
  0
LINE
  5
90
330
2
100
AcDbEntity
  8
GAIKEI
 62
     1
100
AcDbLine
 10
-23.84473699335229
 20
61.6028234535039
 30
0.0
 11
-23.84473699335229
 21
61.51948890408011
 31
0.0
  0
LINE
  5
91
330
2
100
AcDbEntity
  8
GAIKEI
 62
     1
100
AcDbLine
 10
-19.43263131385231
 20
61.53359861906392
 30
0.0
 11
-19.43263131385232
 21
61.44980667985914
 31
0.0
  0
LINE
  5
92
330
2
100
AcDbEntity
  8
GAIKEI
 62
     1
100
AcDbLine
 10
-12.17645265661811
 20
48.82019610937385
 30
0.0
 11
-9.230087673548936
 21
48.82019610937385
 31
0.0
  0
LINE
  5
93
330
2
100
AcDbEntity
  8
GAIKEI
 62
     1
100
AcDbLine
 10
-21.83869911831234
 20
40.60794563824856
 30
0.0
 11
-21.83869911831234
 21
39.15794964767963
 31
0.0
  0
CIRCLE
  5
94
330
2
100
AcDbEntity
  8
GAIKEI
 62
     1
100
AcDbCircle
 10
-13.60891364047233
 20
60.14638472042389
 30
0.0
 40
0.826235512274366
  0
CIRCLE
  5
95
330
2
100
AcDbEntity
  8
GAIKEI
 62
     1
100
AcDbCircle
 10
-13.60891364047233
 20
60.14638472042389
 30
0.0
 40
0.9993352141254327
  0
ARC
  5
96
330
2
100
AcDbEntity
  8
GAIKEI
 62
     1
100
AcDbCircle
 10
-21.83869911831234
 20
48.82019610937385
 30
0.0
 40
12.86249991217406
100
AcDbArc
 50
49.68634910460097
 51
58.31365533453804
  0
LINE
  5
97
330
2
100
AcDbEntity
  8
GAIKEI
 62
     1
100
AcDbLine
 10
-13.40228243921228
 20
58.63071160252388
 30
0.0
 11
-13.42960297321224
 21
58.61092584068387
 31
0.0
  0
LINE
  5
98
330
2
100
AcDbEntity
  8
GAIKEI
 62
     1
100
AcDbLine
 10
-13.42960297321997
 20
58.61092584068694
 30
0.0
 11
-13.51702865225549
 21
58.62803504794931
 31
0.0
  0
LINE
  5
99
330
2
100
AcDbEntity
  8
GAIKEI
 62
     1
100
AcDbLine
 10
-15.10680213129831
 20
59.87014278547173
 30
0.0
 11
-15.12571572517231
 21
59.84322355922387
 31
0.0
  0
LINE
  5
9A
330
2
100
AcDbEntity
  8
GAIKEI
 62
     1
100
AcDbLine
 10
-15.12571572517231
 20
59.84322355922387
 30
0.0
 11
-15.08242842861172
 21
59.76536446614989
 31
0.0
  0
ARC
  5
9B
330
2
100
AcDbEntity
  8
GAIKEI
 62
     1
100
AcDbCircle
 10
-14.94868395694846
 20
60.13535173642799
 30
0.0
 40
0.3415832532300438
100
AcDbArc
 50
238.7838367215451
 51
356.4960330252058
  0
ARC
  5
9C
330
2
100
AcDbEntity
  8
GAIKEI
 62
     1
100
AcDbCircle
 10
-13.20690000397107
 20
58.86830363390652
 30
0.0
 40
0.3415832532300438
100
AcDbArc
 50
111.4364784533218
 51
229.1486747569817
  0
LINE
  5
9D
330
2
100
AcDbEntity
  8
GAIKEI
 62
     1
100
AcDbLine
 10
-13.68970574171229
 20
60.32643373050394
 30
0.0
 11
-13.6897057220923
 21
60.50643401082391
 31
0.0
  0
LINE
  5
9E
330
2
100
AcDbEntity
  8
GAIKEI
 62
     1
100
AcDbLine
 10
-13.6897057220923
 20
60.50643401082391
 30
0.0
 11
-13.52970599387231
 21
60.50643401082391
 31
0.0
  0
LINE
  5
9F
330
2
100
AcDbEntity
  8
GAIKEI
 62
     1
100
AcDbLine
 10
-13.52970599387231
 20
60.50643401082391
 30
0.0
 11
-13.52970574171166
 21
60.32643360131499
 31
0.0
  0
LINE
  5
A0
330
2
100
AcDbEntity
  8
GAIKEI
 62
     1
100
AcDbLine
 10
-13.42970574171177
 20
60.22643374140392
 30
0.0
 11
-13.24970572447228
 21
60.22643374140386
 31
0.0
  0
LINE
  5
A1
330
2
100
AcDbEntity
  8
GAIKEI
 62
     1
100
AcDbLine
 10
-13.24970572447228
 20
60.22643374140386
 30
0.0
 11
-13.24970572447228
 21
60.06643401320388
 31
0.0
  0
LINE
  5
A2
330
2
100
AcDbEntity
  8
GAIKEI
 62
     1
100
AcDbLine
 10
-13.24970572447228
 20
60.06643401320388
 30
0.0
 11
-13.42970574171223
 21
60.06643401320388
 31
0.0
  0
LINE
  5
A3
330
2
100
AcDbEntity
  8
GAIKEI
 62
     1
100
AcDbLine
 10
-13.52970574171212
 20
59.96643415329259
 30
0.0
 11
-13.52970599387231
 21
59.7864337437839
 31
0.0
  0
LINE
  5
A4
330
2
100
AcDbEntity
  8
GAIKEI
 62
     1
100
AcDbLine
 10
-13.52970599387231
 20
59.7864337437839
 30
0.0
 11
-13.6897057220923
 21
59.7864337437839
 31
0.0
  0
LINE
  5
A5
330
2
100
AcDbEntity
  8
GAIKEI
 62
     1
100
AcDbLine
 10
-13.6897057220923
 20
59.7864337437839
 30
0.0
 11
-13.68970572209228
 21
59.96643401320392
 31
0.0
  0
LINE
  5
A6
330
2
100
AcDbEntity
  8
GAIKEI
 62
     1
100
AcDbLine
 10
-13.78970572209228
 20
60.06643401320388
 30
0.0
 11
-13.96970599149233
 21
60.06643401320388
 31
0.0
  0
LINE
  5
A7
330
2
100
AcDbEntity
  8
GAIKEI
 62
     1
100
AcDbLine
 10
-13.96970599149233
 20
60.06643401320388
 30
0.0
 11
-13.96970599149233
 21
60.22643374140386
 31
0.0
  0
LINE
  5
A8
330
2
100
AcDbEntity
  8
GAIKEI
 62
     1
100
AcDbLine
 10
-13.96970599149233
 20
60.22643374140386
 30
0.0
 11
-13.78970574171228
 21
60.22643374140392
 31
0.0
  0
ARC
  5
A9
330
2
100
AcDbEntity
  8
GAIKEI
 62
     1
100
AcDbCircle
 10
-13.78970572209228
 20
59.96643401320392
 30
0.0
 40
0.1
100
AcDbArc
 50
0.0
 51
90.0
  0
ARC
  5
AA
330
2
100
AcDbEntity
  8
GAIKEI
 62
     1
100
AcDbCircle
 10
-13.42970574171223
 20
59.96643401320392
 30
0.0
 40
0.1
100
AcDbArc
 50
90.0
 51
179.9999197350994
  0
ARC
  5
AB
330
2
100
AcDbEntity
  8
GAIKEI
 62
     1
100
AcDbCircle
 10
-13.42970574171177
 20
60.32643374140389
 30
0.0
 40
0.1
100
AcDbArc
 50
180.000080265034
 51
270.0
  0
ARC
  5
AC
330
2
100
AcDbEntity
  8
GAIKEI
 62
     1
100
AcDbCircle
 10
-13.78970574171228
 20
60.32643374140389
 30
0.0
 40
0.1
100
AcDbArc
 50
270.0
 51
359.9999937547707
  0
LINE
  5
AD
330
2
100
AcDbEntity
  8
GAIKEI
  6
Continuous
 62
     1
370
    30
100
AcDbLine
 10
25.33192164187961
 20
60.69572051270933
 30
0.0
 11
25.39192191247963
 21
60.69572051270933
 31
0.0
  0
LINE
  5
AE
330
2
100
AcDbEntity
  8
GAIKEI
  6
Continuous
 62
     1
370
    30
100
AcDbLine
 10
25.39192191247963
 20
59.59572051866934
 30
0.0
 11
25.33192164187961
 21
59.59572051866934
 31
0.0
  0
ARC
  5
AF
330
2
100
AcDbEntity
  8
GAIKEI
  6
Continuous
 62
     1
370
    30
100
AcDbCircle
 10
25.39192183141961
 20
60.65572025940935
 30
0.0
 40
0.0400000000000205
100
AcDbArc
 50
0.0
 51
90.0
  0
ARC
  5
B0
330
2
100
AcDbEntity
  8
GAIKEI
  6
Continuous
 62
     1
370
    30
100
AcDbCircle
 10
25.39192183141961
 20
59.63572025940937
 30
0.0
 40
0.0400000000000205
100
AcDbArc
 50
270.0
 51
0.0
  0
LINE
  5
B1
330
2
100
AcDbEntity
  8
GAIKEI
  6
Continuous
 62
     1
370
    30
100
AcDbLine
 10
25.8319219100996
 20
60.44572000606933
 30
0.0
 11
25.97192204481956
 21
60.44572000606933
 31
0.0
  0
LINE
  5
B2
330
2
100
AcDbEntity
  8
GAIKEI
  6
Continuous
 62
     1
370
    30
100
AcDbLine
 10
25.97192204481956
 20
59.84572028024934
 30
0.0
 11
25.8319219100996
 21
59.84572028024934
 31
0.0
  0
LINE
  5
B3
330
2
100
AcDbEntity
  8
GAIKEI
  6
Continuous
 62
     1
370
    30
100
AcDbLine
 10
25.97192204481956
 20
60.44572000606933
 30
0.0
 11
26.0319215703596
 21
60.38572048050935
 31
0.0
  0
LINE
  5
B4
330
2
100
AcDbEntity
  8
GAIKEI
  6
Continuous
 62
     1
370
    30
100
AcDbLine
 10
26.0319215703596
 20
59.90572055084936
 30
0.0
 11
25.97192204481956
 21
59.84572028024934
 31
0.0
  0
LINE
  5
B5
330
2
100
AcDbEntity
  8
GAIKEI
  6
Continuous
 62
     1
370
    30
100
AcDbLine
 10
24.56982857471956
 20
61.10578035218935
 30
0.0
 11
25.33192164187961
 21
61.14571993454934
 31
0.0
  0
ARC
  5
B6
330
2
100
AcDbEntity
  8
GAIKEI
  6
Continuous
 62
     1
370
    30
100
AcDbCircle
 10
24.57192183141962
 20
61.06583545332938
 30
0.0
 40
0.0400000000000027
100
AcDbArc
 50
93.00006856598207
 51
180.0
  0
LINE
  5
B7
330
2
100
AcDbEntity
  8
GAIKEI
  6
Continuous
 62
     1
370
    30
100
AcDbLine
 10
25.4319218445396
 20
60.99572037560932
 30
0.0
 11
25.63192150479961
 21
60.99572037560932
 31
0.0
  0
LINE
  5
B8
330
2
100
AcDbEntity
  8
GAIKEI
  6
Continuous
 62
     1
370
    30
100
AcDbLine
 10
25.63192150479961
 20
59.29571991068934
 30
0.0
 11
25.4319218445396
 21
59.29571991068934
 31
0.0
  0
LINE
  5
B9
330
2
100
AcDbEntity
  8
GAIKEI
  6
Continuous
 62
     1
370
    30
100
AcDbLine
 10
25.63192150479961
 20
60.54572020872933
 30
0.0
 11
25.8319219100996
 21
60.54572020872933
 31
0.0
  0
LINE
  5
BA
330
2
100
AcDbEntity
  8
GAIKEI
  6
Continuous
 62
     1
370
    30
100
AcDbLine
 10
25.8319219100996
 20
59.74572007758934
 30
0.0
 11
25.63192150479961
 21
59.74572007758934
 31
0.0
  0
LINE
  5
BB
330
2
100
AcDbEntity
  8
GAIKEI
  6
Continuous
 62
     1
370
    30
100
AcDbLine
 10
26.0319215703596
 20
59.90572055084936
 30
0.0
 11
26.0319215703596
 21
60.38572048050935
 31
0.0
  0
LINE
  5
BC
330
2
100
AcDbEntity
  8
GAIKEI
  6
Continuous
 62
     1
370
    30
100
AcDbLine
 10
25.33192164187961
 20
58.62971027596933
 30
0.0
 11
25.9319966185596
 21
58.64906315906933
 31
0.0
  0
LINE
  5
BD
330
2
100
AcDbEntity
  8
GAIKEI
  6
Continuous
 62
     1
370
    30
100
AcDbLine
 10
24.56973618751959
 20
58.67094104392936
 30
0.0
 11
24.53192151075956
 21
58.80863048625508
 31
0.0
  0
LINE
  5
BE
330
2
100
AcDbEntity
  8
GAIKEI
  6
Continuous
 62
     1
370
    30
100
AcDbLine
 10
26.1319217730196
 20
60.18316974146938
 30
0.0
 11
26.1319217730196
 21
60.31672661406935
 31
0.0
  0
ARC
  5
BF
330
2
100
AcDbEntity
  8
GAIKEI
  6
Continuous
 62
     1
370
    30
100
AcDbCircle
 10
26.01727136135958
 20
58.51309254726936
 30
0.0
 40
0.1150007925189327
100
AcDbArc
 50
4.473708991096979
 51
81.8033022643995
  0
LINE
  5
C0
330
2
100
AcDbEntity
  8
GAIKEI
  6
Continuous
 62
     1
370
    30
100
AcDbLine
 10
25.93202046041961
 20
58.64865933758932
 30
0.0
 11
26.03366649633961
 21
58.62691854340937
 31
0.0
  0
LINE
  5
C1
330
2
100
AcDbEntity
  8
GAIKEI
  6
Continuous
 62
     1
370
    30
100
AcDbLine
 10
25.33192164187961
 20
61.14571993454934
 30
0.0
 11
25.33192164187961
 21
58.62971027596933
 31
0.0
  0
LINE
  5
C2
330
2
100
AcDbEntity
  8
GAIKEI
  6
Continuous
 62
     1
370
    30
100
AcDbLine
 10
24.53192151075956
 20
58.80863048625508
 30
0.0
 11
24.53192151075956
 21
61.06127356392931
 31
0.0
  0
LINE
  5
C3
330
2
100
AcDbEntity
  8
GAIKEI
  6
Continuous
 62
     1
370
    30
100
AcDbLine
 10
26.1319217730196
 20
60.31672661406935
 30
0.0
 11
26.0319215703596
 21
60.31672661406935
 31
0.0
  0
LINE
  5
C4
330
2
100
AcDbEntity
  8
GAIKEI
  6
Continuous
 62
     1
370
    30
100
AcDbLine
 10
25.4319218445396
 20
60.99572037560932
 30
0.0
 11
25.4319218445396
 21
59.29571991068934
 31
0.0
  0
LINE
  5
C5
330
2
100
AcDbEntity
  8
GAIKEI
  6
Continuous
 62
     1
370
    30
100
AcDbLine
 10
25.63192150479961
 20
59.29571991068934
 30
0.0
 11
25.63192150479961
 21
60.99572037560932
 31
0.0
  0
LINE
  5
C6
330
2
100
AcDbEntity
  8
GAIKEI
  6
Continuous
 62
     1
370
    30
100
AcDbLine
 10
25.8319219100996
 20
60.14572014314933
 30
0.0
 11
25.8319219100996
 21
60.54572020872933
 31
0.0
  0
LINE
  5
C7
330
2
100
AcDbEntity
  8
GAIKEI
  6
Continuous
 62
     1
370
    30
100
AcDbLine
 10
25.8319219100996
 20
59.74572007758934
 30
0.0
 11
25.8319219100996
 21
60.14572014314933
 31
0.0
  0
LINE
  5
C8
330
2
100
AcDbEntity
  8
GAIKEI
  6
Continuous
 62
     1
370
    30
100
AcDbLine
 10
25.99192163829963
 20
58.62871413334932
 30
0.0
 11
25.99192163829963
 21
59.06367530328935
 31
0.0
  0
ARC
  5
C9
330
2
100
AcDbEntity
  8
GAIKEI
  6
Continuous
 62
     1
370
    30
100
AcDbCircle
 10
26.08180967943963
 20
58.64372369080934
 30
0.0
 40
0.1111306418543444
100
AcDbArc
 50
295.113994967403
 51
352.2377789561019
  0
LINE
  5
CA
330
2
100
AcDbEntity
  8
GAIKEI
  6
Continuous
 62
     1
370
    30
100
AcDbLine
 10
26.19192204361963
 20
59.06367530328935
 30
0.0
 11
26.19192204361963
 21
58.62871413334932
 31
0.0
  0
LINE
  5
CB
330
2
100
AcDbEntity
  8
GAIKEI
  6
Continuous
 62
     1
370
    30
100
AcDbLine
 10
25.63192150479961
 20
59.18123279912936
 30
0.0
 11
25.99192163829963
 21
59.18123279912936
 31
0.0
  0
LINE
  5
CC
330
2
100
AcDbEntity
  8
GAIKEI
  6
Continuous
 62
     1
370
    30
100
AcDbLine
 10
25.99192163829963
 20
59.06367530328935
 30
0.0
 11
25.63192150479961
 21
59.06367530328935
 31
0.0
  0
LINE
  5
CD
330
2
100
AcDbEntity
  8
GAIKEI
  6
Continuous
 62
     1
370
    30
100
AcDbLine
 10
25.4319218445396
 20
59.18123279912936
 30
0.0
 11
25.4319218445396
 21
59.29571991068934
 31
0.0
  0
LINE
  5
CE
330
2
100
AcDbEntity
  8
GAIKEI
  6
Continuous
 62
     1
370
    30
100
AcDbLine
 10
25.63192150479961
 20
59.29571991068934
 30
0.0
 11
25.63192150479961
 21
59.18123279912936
 31
0.0
  0
LINE
  5
CF
330
2
100
AcDbEntity
  8
GAIKEI
  6
Continuous
 62
     1
370
    30
100
AcDbLine
 10
26.19192204361963
 20
59.06367530328935
 30
0.0
 11
26.19192204361963
 21
60.09921734436938
 31
0.0
  0
LINE
  5
D0
330
2
100
AcDbEntity
  8
GAIKEI
  6
Continuous
 62
     1
370
     0
100
AcDbLine
 10
24.56973618751959
 20
58.67094104392936
 30
0.0
 11
25.33192164187961
 21
58.62971027596933
 31
0.0
  0
LINE
  5
D1
330
2
100
AcDbEntity
  8
GAIKEI
  6
Continuous
 62
     1
370
     0
100
AcDbLine
 10
25.99192163829963
 20
59.86572061880934
 30
0.0
 11
25.99192163829963
 21
59.18123279912936
 31
0.0
  0
LINE
  5
D2
330
2
100
AcDbEntity
  8
GAIKEI
  6
Continuous
 62
     1
370
    30
100
AcDbLine
 10
26.19192204361963
 20
60.09921734436938
 30
0.0
 11
26.18807903413961
 21
60.12215172154935
 31
0.0
  0
LINE
  5
D3
330
2
100
AcDbEntity
  8
GAIKEI
  6
Continuous
 62
     1
370
    30
100
AcDbLine
 10
26.18807903413961
 20
60.12215172154935
 30
0.0
 11
26.17669752721957
 21
60.14420469506934
 31
0.0
  0
LINE
  5
D4
330
2
100
AcDbEntity
  8
GAIKEI
  6
Continuous
 62
     1
370
    30
100
AcDbLine
 10
26.17669752721957
 20
60.14420469506934
 30
0.0
 11
26.1582156169996
 21
60.16452838880934
 31
0.0
  0
LINE
  5
D5
330
2
100
AcDbEntity
  8
GAIKEI
  6
Continuous
 62
     1
370
    30
100
AcDbLine
 10
26.1582156169996
 20
60.16452838880934
 30
0.0
 11
26.1333433437996
 21
60.18234272702938
 31
0.0
  0
LINE
  5
D6
330
2
100
AcDbEntity
  8
GAIKEI
  6
Continuous
 62
     1
370
    30
100
AcDbLine
 10
26.1333433437996
 20
60.18234272702938
 30
0.0
 11
26.10303587203958
 21
60.19696225626939
 31
0.0
  0
LINE
  5
D7
330
2
100
AcDbEntity
  8
GAIKEI
  6
Continuous
 62
     1
370
    30
100
AcDbLine
 10
26.10303587203958
 20
60.19696225626939
 30
0.0
 11
26.06845847253959
 21
60.20782594782935
 31
0.0
  0
LINE
  5
D8
330
2
100
AcDbEntity
  8
GAIKEI
  6
Continuous
 62
     1
370
    30
100
AcDbLine
 10
26.06845847253959
 20
60.20782594782935
 30
0.0
 11
26.0319215703596
 21
60.21439885004935
 31
0.0
  0
LINE
  5
D9
330
2
100
AcDbEntity
  8
GAIKEI
  6
Continuous
 62
     1
370
    30
100
AcDbLine
 10
25.63192150479961
 20
59.06367530328935
 30
0.0
 11
25.59290355925958
 21
59.06593431932936
 31
0.0
  0
LINE
  5
DA
330
2
100
AcDbEntity
  8
GAIKEI
  6
Continuous
 62
     1
370
    30
100
AcDbLine
 10
25.59290355925958
 20
59.06593431932936
 30
0.0
 11
25.55538541561958
 21
59.07262419564933
 31
0.0
  0
LINE
  5
DB
330
2
100
AcDbEntity
  8
GAIKEI
  6
Continuous
 62
     1
370
    30
100
AcDbLine
 10
25.55538541561958
 20
59.07262419564933
 30
0.0
 11
25.52080801611959
 21
59.08348714216936
 31
0.0
  0
LINE
  5
DC
330
2
100
AcDbEntity
  8
GAIKEI
  6
Continuous
 62
     1
370
    30
100
AcDbLine
 10
25.52080801611959
 20
59.08348714216936
 30
0.0
 11
25.49050054435958
 21
59.09810741646936
 31
0.0
  0
LINE
  5
DD
330
2
100
AcDbEntity
  8
GAIKEI
  6
Continuous
 62
     1
370
    30
100
AcDbLine
 10
25.49050054435958
 20
59.09810741646936
 30
0.0
 11
25.46562827115958
 21
59.11592175466933
 31
0.0
  0
LINE
  5
DE
330
2
100
AcDbEntity
  8
GAIKEI
  6
Continuous
 62
     1
370
    30
100
AcDbLine
 10
25.46562827115958
 20
59.11592175466933
 30
0.0
 11
25.44714561587961
 21
59.13624544842935
 31
0.0
  0
LINE
  5
DF
330
2
100
AcDbEntity
  8
GAIKEI
  6
Continuous
 62
     1
370
    30
100
AcDbLine
 10
25.44714561587961
 20
59.13624544842935
 30
0.0
 11
25.43576485401962
 21
59.15829842192938
 31
0.0
  0
LINE
  5
E0
330
2
100
AcDbEntity
  8
GAIKEI
  6
Continuous
 62
     1
370
    30
100
AcDbLine
 10
25.43576485401962
 20
59.15829842192938
 30
0.0
 11
25.4319218445396
 21
59.18123279912936
 31
0.0
  0
LINE
  5
E1
330
2
100
AcDbEntity
  8
GAIKEI
  6
Continuous
 62
     1
370
    30
100
AcDbLine
 10
25.99192163829963
 20
59.18123279912936
 30
0.0
 11
26.0309395838396
 21
59.17897378308936
 31
0.0
  0
LINE
  5
E2
330
2
100
AcDbEntity
  8
GAIKEI
  6
Continuous
 62
     1
370
    30
100
AcDbLine
 10
26.0309395838396
 20
59.17897378308936
 30
0.0
 11
26.06845847253959
 21
59.17228390676934
 31
0.0
  0
LINE
  5
E3
330
2
100
AcDbEntity
  8
GAIKEI
  6
Continuous
 62
     1
370
    30
100
AcDbLine
 10
26.06845847253959
 20
59.17228390676934
 30
0.0
 11
26.10303587203958
 21
59.16142096026937
 31
0.0
  0
LINE
  5
E4
330
2
100
AcDbEntity
  8
GAIKEI
  6
Continuous
 62
     1
370
    30
100
AcDbLine
 10
26.10303587203958
 20
59.16142096026937
 30
0.0
 11
26.1333433437996
 21
59.14680068594936
 31
0.0
  0
LINE
  5
E5
330
2
100
AcDbEntity
  8
GAIKEI
  6
Continuous
 62
     1
370
    30
100
AcDbLine
 10
26.1333433437996
 20
59.14680068594936
 30
0.0
 11
26.1582156169996
 21
59.12898709280938
 31
0.0
  0
LINE
  5
E6
330
2
100
AcDbEntity
  8
GAIKEI
  6
Continuous
 62
     1
370
    30
100
AcDbLine
 10
26.1582156169996
 20
59.12898709280938
 30
0.0
 11
26.17669752721957
 21
59.10866265400938
 31
0.0
  0
LINE
  5
E7
330
2
100
AcDbEntity
  8
GAIKEI
  6
Continuous
 62
     1
370
    30
100
AcDbLine
 10
26.17669752721957
 20
59.10866265400938
 30
0.0
 11
26.18807903413961
 21
59.08660968048934
 31
0.0
  0
LINE
  5
E8
330
2
100
AcDbEntity
  8
GAIKEI
  6
Continuous
 62
     1
370
    30
100
AcDbLine
 10
26.18807903413961
 20
59.08660968048934
 30
0.0
 11
26.19192204361963
 21
59.06367530328935
 31
0.0
  0
LINE
  5
E9
330
2
100
AcDbEntity
  8
GAIKEI
 62
     1
100
AcDbLine
 10
25.93192211275962
 20
58.64906075619956
 30
0.0
 11
25.9319221127596
 21
43.86862518128384
 31
0.0
  0
LINE
  5
EA
330
2
100
AcDbEntity
  8
GAIKEI
100
AcDbLine
 10
26.13162374977958
 20
58.54438297430738
 30
0.0
 11
26.13162374977958
 21
41.26406537230383
 31
0.0
  0
DIMENSION
  5
EB
330
2
100
AcDbEntity
  8
SUNPO
100
AcDbDimension
  2
*D4
 10
34.12071231925953
 20
61.75927521522385
 30
0.0
 11
32.37071231925951
 21
48.82019610937386
 31
0.0
 70
    33
  1
φ129.5
 71
     5
 42
25.8781582117
  3
STANDARD
100
AcDbAlignedDimension
 13
26.12071231925952
 23
35.88111700352385
 33
0.0
 14
26.12071231925952
 24
61.75927521522385
 34
0.0
1001
ACAD
1000
DSTYLE
1002
{
1070
    40
1040
1.0
1070
   140
1040
2.5
1070
   147
1040
0.5
1070
   172
1070
     1
1070
   279
1070
     0
1070
   288
1070
     0
1002
}
  0
DIMENSION
  5
FA
330
2
100
AcDbEntity
  8
SUNPO
100
AcDbDimension
  2
*D3
 10
7.321995263149532
 20
69.94009952898022
 30
0.0
 11
16.72680950646456
 21
71.69009952898022
 31
0.0
 70
    33
  1
93
 71
     5
 42
18.80962848663006
  3
STANDARD
100
AcDbAlignedDimension
 13
26.13162374977959
 23
61.94009952898023
 33
0.0
 14
7.321995263149531
 24
61.94009952898023
 34
0.0
1001
ACAD
1000
DSTYLE
1002
{
1070
    40
1040
1.0
1070
   140
1040
2.5
1070
   147
1040
0.5
1070
   172
1070
     1
1070
   279
1070
     0
1070
   288
1070
     0
1002
}
  0
TEXT
  5
107
330
2
100
AcDbEntity
  8
MOJI1
100
AcDbText
 10
-56.29236355151988
 20
-62.55481403348557
 30
0.0
 40
3.0
  1
ネットワーク
100
AcDbText
  0
TEXT
  5
108
330
2
100
AcDbEntity
  8
MOJI1
100
AcDbText
 10
-16.29236355151988
 20
-62.55481403348557
 30
0.0
 40
3.0
  1
１０ＢＡＳＥ－Ｔ／１００ＢＡＳＥ－ＴＸ、ＲＪ４５コネクター
 41
0.7800000000000001
100
AcDbText
  0
TEXT
  5
109
330
2
100
AcDbEntity
  8
MOJI1
100
AcDbText
 10
-16.29236355151988
 20
-112.7463720493969
 30
0.0
 40
3.0
  1
クロッピング機能（領域取出し：４ケ所まで）
 41
0.8
100
AcDbText
  0
LINE
  5
10A
330
2
100
AcDbEntity
  8
WAKU
 62
     1
100
AcDbLine
 10
66.20763644848006
 20
-113.9017418188014
 30
0.0
 11
-58.79236355151988
 21
-113.9017418188014
 31
0.0
  0
TEXT
  5
10C
330
2
100
AcDbEntity
  8
MOJI1
100
AcDbText
 10
-16.29236355151988
 20
-127.8751787766358
 30
0.0
 40
3.0
  1
ＶＭＤ（４エリア）、ＳＤＸＣ／ＳＤＨＣ／ＳＤ対応
 41
0.8
100
AcDbText
  0
LINE
  5
10D
330
2
100
AcDbEntity
  8
WAKU
 62
     1
100
AcDbLine
 10
66.20763644848006
 20
-123.9017418188014
 30
0.0
 11
-58.79236355151988
 21
-123.9017418188014
 31
0.0
  0
TEXT
  5
10E
330
2
100
AcDbEntity
  8
MOJI1
100
AcDbText
 10
-16.29236355151988
 20
-82.89124699664155
 30
0.0
 40
3.0
  1
３Ｍ【４：３】Ｈ．２６４／１２８０×９６０、ＪＰＥＧ／２０４８×１５３６
 41
0.63
100
AcDbText
  0
LINE
  5
10F
330
2
100
AcDbEntity
  8
WAKU
 62
     1
100
AcDbLine
 10
-58.79236355151988
 20
-83.90174181880139
 30
0.0
 11
66.20763644848006
 21
-83.90174181880139
 31
0.0
  0
TEXT
  5
110
330
2
100
AcDbEntity
  8
MOJI1
100
AcDbText
 10
-16.29236355151988
 20
-73.02951195648034
 30
0.0
 40
3.0
  1
１．３Ｍ【１６：９】１２８０×７２０／６４０×３６０／３２０×１８０
 41
0.65
100
AcDbText
  0
TEXT
  5
111
330
2
100
AcDbEntity
  8
MOJI1
100
AcDbText
 10
-16.29236355151988
 20
-77.89283324516446
 30
0.0
 40
3.0
  1
１．３Ｍ【４：３】１２８０×９６０／６４０×４８０／３２０×２４０
 41
0.65
100
AcDbText
  0
LINE
  5
112
330
2
100
AcDbEntity
  8
WAKU
 62
     1
100
AcDbLine
 10
-58.79236355151988
 20
-78.90174181880138
 30
0.0
 11
66.20763644848006
 21
-78.90174181880138
 31
0.0
  0
LINE
  5
113
330
2
100
AcDbEntity
  8
WAKU
 62
     1
100
AcDbLine
 10
-58.79236355151988
 20
-73.90174181880138
 30
0.0
 11
66.20763644848006
 21
-73.90174181880138
 31
0.0
  0
TEXT
  5
114
330
2
100
AcDbEntity
  8
MOJI1
100
AcDbText
 10
44.03484471691854
 20
-58.02891423068757
 30
0.0
 40
3.0
  1
（Ｆ１．３）
 41
0.88
100
AcDbText
  0
LINE
  5
115
330
2
100
AcDbEntity
  8
WAKU
 62
     1
100
AcDbLine
 10
-58.79236355151988
 20
-58.90174181880138
 30
0.0
 11
66.20763644848006
 21
-58.90174181880138
 31
0.0
  0
TEXT
  5
116
330
2
100
AcDbEntity
  8
MOJI1
100
AcDbText
 10
-16.29236355151988
 20
-47.86893203943214
 30
0.0
 40
3.0
  1
１／３型　ＭＯＳセンサー
100
AcDbText
  0
LINE
  5
117
330
2
100
AcDbEntity
  8
WAKU
 62
     1
100
AcDbLine
 10
-58.79236355151988
 20
-98.90174181880139
 30
0.0
 11
66.20763644848006
 21
-98.90174181880139
 31
0.0
  0
TEXT
  5
118
330
2
100
AcDbEntity
  8
MOJI1
100
AcDbText
 10
-16.29236355151988
 20
-102.9017418188014
 30
0.0
 40
3.0
  1
ＴＣＰ／ＩＰ、ＵＤＰ／ＩＰ、ＨＴＴＰ、ＲＴＰ、ＦＴＰ
 41
0.88
100
AcDbText
  0
TEXT
  5
119
330
2
100
AcDbEntity
  8
MOJI1
100
AcDbText
 10
-56.29236355151988
 20
-102.9017418188014
 30
0.0
 40
3.0
  1
対応プロコトル
100
AcDbText
  0
TEXT
  5
11A
330
2
100
AcDbEntity
  8
MOJI1
100
AcDbText
 10
-56.29236355151988
 20
-87.76091358657822
 30
0.0
 40
3.0
  1
画像圧縮方式
100
AcDbText
  0
TEXT
  5
11B
330
2
100
AcDbEntity
  8
MOJI1
100
AcDbText
 10
-16.29236355151988
 20
-87.76091358657822
 30
0.0
 40
3.0
  1
Ｈ．２６４×２／ＪＰＥＧ（トリプルエンコーディング）
 41
0.88
100
AcDbText
  0
TEXT
  5
11C
330
2
100
AcDbEntity
  8
MOJI1
100
AcDbText
 10
-56.29236355151988
 20
-67.76091358657822
 30
0.0
 40
3.0
  1
画像解像度
100
AcDbText
  0
TEXT
  5
11D
330
2
100
AcDbEntity
  8
MOJI1
100
AcDbText
 10
-16.29236355151988
 20
-67.76091358657822
 30
0.0
 40
3.0
  1
２Ｍ【１６：９】１９２０×１０８０／６４０×３６０／３２０×１８０
 41
0.65
100
AcDbText
  0
TEXT
  5
11E
330
2
100
AcDbEntity
  8
MOJI1
100
AcDbText
 10
-16.29236355151988
 20
-57.55481403348557
 30
0.0
 40
3.0
  1
カラー：０．５ｌｘ、白黒：０．０６ｌｘ
 41
0.88
100
AcDbText
  0
TEXT
  5
11F
330
2
100
AcDbEntity
  8
MOJI1
100
AcDbText
 10
-56.29236355151988
 20
-47.86893203943214
 30
0.0
 40
3.0
  1
撮像素子
100
AcDbText
  0
TEXT
  5
120
330
2
100
AcDbEntity
  8
MOJI1
100
AcDbText
 10
-56.29236355151988
 20
-52.86893203943214
 30
0.0
 40
3.0
  1
有効画素数／走査方式
100
AcDbText
  0
LINE
  5
121
330
2
100
AcDbEntity
  8
WAKU
 62
     1
100
AcDbLine
 10
-58.79236355151988
 20
-53.90174181880138
 30
0.0
 11
66.20763644848006
 21
-53.90174181880138
 31
0.0
  0
LINE
  5
122
330
2
100
AcDbEntity
  8
WAKU
 62
     1
100
AcDbLine
 10
-58.79236355151988
 20
-48.90174181880138
 30
0.0
 11
66.20763644848006
 21
-48.90174181880138
 31
0.0
  0
LINE
  5
123
330
2
100
AcDbEntity
  8
WAKU
 62
     1
100
AcDbLine
 10
-58.79236355151988
 20
-43.90174181880138
 30
0.0
 11
66.20763644848006
 21
-43.90174181880138
 31
0.0
  0
LINE
  5
124
330
2
100
AcDbEntity
  8
WAKU
 62
     1
100
AcDbLine
 10
66.20763644848006
 20
-103.9017418188014
 30
0.0
 11
-58.79236355151988
 21
-103.9017418188014
 31
0.0
  0
LINE
  5
125
330
2
100
AcDbEntity
  8
WAKU
 62
     1
100
AcDbLine
 10
-58.79236355151988
 20
-93.90174181880139
 30
0.0
 11
66.20763644848006
 21
-93.90174181880139
 31
0.0
  0
LINE
  5
126
330
2
100
AcDbEntity
  8
WAKU
 62
     1
100
AcDbLine
 10
-58.79236355151988
 20
-88.90174181880139
 30
0.0
 11
66.20763644848006
 21
-88.90174181880139
 31
0.0
  0
LINE
  5
127
330
2
100
AcDbEntity
  8
WAKU
 62
     1
100
AcDbLine
 10
-58.79236355151988
 20
-68.90174181880138
 30
0.0
 11
66.20763644848006
 21
-68.90174181880138
 31
0.0
  0
LINE
  5
128
330
2
100
AcDbEntity
  8
WAKU
 62
     1
100
AcDbLine
 10
-58.79236355151988
 20
-63.90174181880138
 30
0.0
 11
66.20763644848006
 21
-63.90174181880138
 31
0.0
  0
LINE
  5
129
330
2
100
AcDbEntity
  8
WAKU
 62
     4
100
AcDbLine
 10
-58.79236355151988
 20
-38.90174181880133
 30
0.0
 11
-58.79236355151988
 21
-128.9017418188014
 31
0.0
  0
TEXT
  5
12A
330
2
100
AcDbEntity
  8
MOJI1
100
AcDbText
 10
-16.29236355151988
 20
-42.86893203943214
 30
0.0
 40
3.0
  1
ＤＣ１２Ｖ、ＰｏＥ(ＩＥＥＥ８０２.３ａｆ準拠)
 41
0.95
100
AcDbText
  0
TEXT
  5
12B
330
2
100
AcDbEntity
  8
MOJI1
100
AcDbText
 10
-56.29236355151988
 20
-42.86893203943214
 30
0.0
 40
3.0
  1
電　源
100
AcDbText
  0
LINE
  5
12C
330
2
100
AcDbEntity
  8
WAKU
 62
     4
100
AcDbLine
 10
-18.79236355151988
 20
-38.90174181880133
 30
0.0
 11
-18.79236355151988
 21
-128.9017418188014
 31
0.0
  0
LINE
  5
12D
330
2
100
AcDbEntity
  8
WAKU
 62
     4
100
AcDbLine
 10
66.20763644848011
 20
-38.90174181880133
 30
0.0
 11
66.20763644848006
 21
-128.9017418188014
 31
0.0
  0
LINE
  5
12E
330
2
100
AcDbEntity
  8
WAKU
 62
     1
100
AcDbLine
 10
66.20763644848006
 20
-108.9017418188014
 30
0.0
 11
-58.79236355151988
 21
-108.9017418188014
 31
0.0
  0
LINE
  5
12F
330
2
100
AcDbEntity
  8
WAKU
 62
     1
100
AcDbLine
 10
66.20763644848006
 20
-118.9017418188013
 30
0.0
 11
-58.79236355151988
 21
-118.9017418188013
 31
0.0
  0
LINE
  5
130
330
2
100
AcDbEntity
  8
WAKU
 62
     4
100
AcDbLine
 10
66.20763644848006
 20
-128.9017418188014
 30
0.0
 11
-58.79236355151988
 21
-128.9017418188014
 31
0.0
  0
TEXT
  5
131
330
2
100
AcDbEntity
  8
MOJI1
100
AcDbText
 10
-56.29236355151988
 20
-112.9651040999442
 30
0.0
 40
3.0
  1
機　能
100
AcDbText
  0
TEXT
  5
132
330
2
100
AcDbEntity
  8
MOJI1
100
AcDbText
 10
-56.29236355151988
 20
-57.55481403348557
 30
0.0
 40
3.0
  1
最低照度
100
AcDbText
  0
TEXT
  5
133
330
2
100
AcDbEntity
  8
MOJI1
100
AcDbText
 10
-16.29236355151988
 20
-117.9017418188013
 30
0.0
 40
3.0
  1
スーパーダイナミックレンジ、暗部補正、カラー／白黒切換、
 41
0.8
100
AcDbText
  0
TEXT
  5
134
330
2
100
AcDbEntity
  8
MOJI1
100
AcDbText
 10
-16.29236355151988
 20
-122.9017418188014
 30
0.0
 40
3.0
  1
ＶＩＱＳ（最大２ケ所）、画像認識・顔検出、ＡＦ、
 41
0.8
100
AcDbText
  0
TEXT
  5
135
330
2
100
AcDbEntity
  8
MOJI1
100
AcDbText
 10
-16.29236355151988
 20
-52.86893203943214
 30
0.0
 40
3.0
  1
約３１０万画素／プログレッシブ
100
AcDbText
  0
TEXT
  5
136
330
2
100
AcDbEntity
  8
MOJI1
100
AcDbText
 10
-16.29236355151988
 20
-107.9017418188014
 30
0.0
 40
3.0
  1
ＳＭＴＰ、ＤＮＳ、ＮＴＰ、ＳＮＭＰ、ＨＴＴＰＳ、ＡＲＰ
 41
0.85
100
AcDbText
  0
TEXT
  5
137
330
2
100
AcDbEntity
  8
MOJI1
100
AcDbText
 10
-16.29236355151988
 20
-92.65324337159331
 30
0.0
 40
3.0
  1
ｆ＝２．８～１０ｍｍ（３．６倍バリフォーカル）
100
AcDbText
  0
LINE
  5
138
330
2
100
AcDbEntity
  8
WAKU
 62
     4
100
AcDbLine
 10
-58.79236355151988
 20
-38.90174181880139
 30
0.0
 11
66.20763644848006
 21
-38.90174181880139
 31
0.0
  0
TEXT
  5
139
330
2
100
AcDbEntity
  8
MOJI1
100
AcDbText
 10
-16.29236355151988
 20
-97.84840215335226
 30
0.0
 40
3.0
  1
画角（１６：９モード）：水平２４．２°～８６．６°
 41
0.9
100
AcDbText
  0
TEXT
  5
13A
330
2
100
AcDbEntity
  8
MOJI1
100
AcDbText
 10
-56.29236355151988
 20
-92.95607202408859
 30
0.0
 40
3.0
  1
レンズ部
100
AcDbText
  0
ENDSEC
  0
SECTION
  2
OBJECTS
  0
DICTIONARY
  5
9
330
0
100
AcDbDictionary
281
     1
  3
ACAD_COLOR
350
32
  3
ACAD_GROUP
350
2E
  3
ACAD_LAYOUT
350
D
  3
ACAD_MATERIAL
350
31
  3
ACAD_MLINESTYLE
350
2F
  3
ACAD_PLOTSETTINGS
350
30
  3
ACAD_PLOTSTYLENAME
350
8
  3
ACDBHEADERROUNDTRIPXREC
350
16B
  3
AcDbVariableDictionary
350
166
  0
DICTIONARY
  5
15
330
14
100
AcDbDictionary
280
     1
281
     1
  3
ACAD_LAYERFILTERS
360
16
  3
ACAD_LAYERSTATES
360
18
  0
DICTIONARY
  5
3
330
2
100
AcDbDictionary
280
     1
281
     1
  3
ACAD_LAYOUTSELFREF
360
4
  0
DICTIONARY
  5
F
330
E
100
AcDbDictionary
280
     1
281
     1
  3
ACAD_LAYOUTSELFREF
360
10
  0
DICTIONARY
  5
32
102
{ACAD_REACTORS
330
9
102
}
330
9
100
AcDbDictionary
281
     1
  0
DICTIONARY
  5
2E
102
{ACAD_REACTORS
330
9
102
}
330
9
100
AcDbDictionary
281
     1
  0
DICTIONARY
  5
D
102
{ACAD_REACTORS
330
9
102
}
330
9
100
AcDbDictionary
281
     1
  3
Model
350
C
  3
ﾚｲｱｳﾄ1
350
13
  0
DICTIONARY
  5
31
102
{ACAD_REACTORS
330
9
102
}
330
9
100
AcDbDictionary
281
     1
  0
DICTIONARY
  5
2F
102
{ACAD_REACTORS
330
9
102
}
330
9
100
AcDbDictionary
281
     1
  3
STANDARD
350
34
  0
DICTIONARY
  5
30
102
{ACAD_REACTORS
330
9
102
}
330
9
100
AcDbDictionary
281
     1
  0
ACDBDICTIONARYWDFLT
  5
8
102
{ACAD_REACTORS
330
9
102
}
330
9
100
AcDbDictionary
281
     1
  3
Normal
350
7
100
AcDbDictionaryWithDefault
340
7
  0
DICTIONARY
  5
16B
102
{ACAD_REACTORS
330
9
102
}
330
9
100
AcDbDictionary
281
     1
  3
COLORDICT
350
16D
  3
MATERIALDICT
350
16C
  0
DICTIONARY
  5
166
102
{ACAD_REACTORS
330
9
102
}
330
9
100
AcDbDictionary
281
     1
  3
DIMASSOC
350
168
  3
HIDETEXT
350
167
  3
PROJECTNAME
350
169
  0
DICTIONARY
  5
16
102
{ACAD_REACTORS
330
15
102
}
330
15
100
AcDbDictionary
280
     1
281
     1
  3
ロック画層
360
17
  0
DICTIONARY
  5
18
102
{ACAD_REACTORS
330
15
102
}
330
15
100
AcDbDictionary
281
     1
  0
XRECORD
  5
4
102
{ACAD_REACTORS
330
3
102
}
330
3
100
AcDbXrecord
280
     1
340
2
  0
XRECORD
  5
10
102
{ACAD_REACTORS
330
F
102
}
330
F
100
AcDbXrecord
280
     1
340
E
  0
LAYOUT
  5
C
102
{ACAD_XDICTIONARY
360
16E
102
}
102
{ACAD_REACTORS
330
D
102
}
330
D
100
AcDbPlotSettings
  1

  2
\\MARS\NX800A(RPDL)
  4
A4
  6

 40
5.831416606903076
 41
4.942422866821289
 42
7.609405517578125
 43
5.789093017578125
 44
209.9733276367187
 45
296.9683227539062
 46
4.23
 47
0.0
 48
0.0
 49
0.0
140
0.0
141
0.0
142
1.0
143
1.377557041813
 70
 11956
 72
     1
 73
     0
 74
     1
  7
tmsacad.ctb
 75
     0
147
0.7259227528494222
148
0.5228791232484547
149
0.0333900090324306
100
AcDbLayout
  1
Model
 70
     1
 71
     0
 10
0.0
 20
0.0
 11
12.0
 21
9.0
 12
0.0
 22
0.0
 32
0.0
 14
0.0
 24
0.0
 34
0.0
 15
0.0
 25
0.0
 35
0.0
146
0.0
 13
0.0
 23
0.0
 33
0.0
 16
1.0
 26
0.0
 36
0.0
 17
0.0
 27
1.0
 37
0.0
 76
     0
330
2
  0
LAYOUT
  5
13
102
{ACAD_XDICTIONARY
360
170
102
}
102
{ACAD_REACTORS
330
D
102
}
330
D
100
AcDbPlotSettings
  1

  2
C:\Program Files\ACAD2000\plotters\DWF ePlot.pc3
  4

  6

 40
0.0
 41
0.0
 42
0.0
 43
0.0
 44
0.0
 45
0.0
 46
0.0
 47
0.0
 48
0.0
 49
0.0
140
0.0
141
0.0
142
1.0
143
1.0
 70
   688
 72
     0
 73
     0
 74
     5
  7
SSC.ctb
 75
    16
147
1.0
148
0.0
149
0.0
100
AcDbLayout
  1
ﾚｲｱｳﾄ1
 70
     1
 71
     1
 10
0.0
 20
0.0
 11
12.0
 21
9.0
 12
0.0
 22
0.0
 32
0.0
 14
1.000000000000000E+20
 24
1.000000000000000E+20
 34
1.000000000000000E+20
 15
-1.000000000000000E+20
 25
-1.000000000000000E+20
 35
-1.000000000000000E+20
146
0.0
 13
0.0
 23
0.0
 33
0.0
 16
1.0
 26
0.0
 36
0.0
 17
0.0
 27
1.0
 37
0.0
 76
     0
330
E
  0
MLINESTYLE
  5
34
102
{ACAD_REACTORS
330
2F
102
}
330
2F
100
AcDbMlineStyle
  2
STANDARD
 70
     0
  3

 62
   256
 51
90.0
 52
90.0
 71
     2
 49
0.5
 62
   256
  6
BYLAYER
 49
-0.5
 62
   256
  6
BYLAYER
  0
ACDBPLACEHOLDER
  5
7
102
{ACAD_REACTORS
330
8
102
}
330
8
  0
XRECORD
  5
16D
102
{ACAD_REACTORS
330
16B
102
}
330
16B
100
AcDbXrecord
280
     1
340
32
  0
XRECORD
  5
16C
102
{ACAD_REACTORS
330
16B
102
}
330
16B
100
AcDbXrecord
280
     1
340
31
  0
DICTIONARYVAR
  5
168
102
{ACAD_REACTORS
330
166
102
}
330
166
100
DictionaryVariables
280
     0
  1
1
  0
DICTIONARYVAR
  5
167
102
{ACAD_REACTORS
330
166
102
}
330
166
100
DictionaryVariables
280
     0
  1
1
  0
DICTIONARYVAR
  5
169
102
{ACAD_REACTORS
330
166
102
}
330
166
100
DictionaryVariables
280
     0
  1

  0
XRECORD
  5
17
102
{ACAD_REACTORS
330
16
102
}
330
16
100
AcDbXrecord
280
     1
  1
ロック画層
  1
*
  1
*
  1
*
 70
   256
  1
*
  1
*
  0
DICTIONARY
  5
16E
330
C
100
AcDbDictionary
280
     1
281
     1
  3
ACAD_XREC_ROUNDTRIP
360
16F
  0
DICTIONARY
  5
170
330
13
100
AcDbDictionary
280
     1
281
     1
  3
ACAD_XREC_ROUNDTRIP
360
171
  0
XRECORD
  5
16F
102
{ACAD_REACTORS
330
16E
102
}
330
16E
100
AcDbXrecord
280
     1
102
SHADEPLOT
 70
     0
102
SHADEPLOTRESLEVEL
 70
     2
102
SHADEPLOTCUSTOMDPI
 70
   300
  0
XRECORD
  5
171
102
{ACAD_REACTORS
330
170
102
}
330
170
100
AcDbXrecord
280
     1
102
SHADEPLOT
 70
     0
102
SHADEPLOTRESLEVEL
 70
     2
102
SHADEPLOTCUSTOMDPI
 70
   300
  0
ENDSEC
  0
EOF
