  0
SECTION
  2
HEADER
  9
$ACADVER
  1
AC1015
  9
$ACADMAINTVER
 70
    20
  9
$DWGCODEPAGE
  3
ANSI_932
  9
$INSBASE
 10
129.499999944041
 20
246.5008351249345
 30
0.0
  9
$EXTMIN
 10
-60.92742829225892
 20
-66.10624633369297
 30
-0.0015258207003583
  9
$EXTMAX
 10
64.10614070029248
 20
46.64643899868997
 30
0.0000000349246037
  9
$LIMMIN
 10
0.0
 20
0.0
  9
$LIMMAX
 10
420.0
 20
297.0
  9
$ORTHOMODE
 70
     1
  9
$REGENMODE
 70
     0
  9
$FILLMODE
 70
     1
  9
$QTEXTMODE
 70
     0
  9
$MIRRTEXT
 70
     0
  9
$LTSCALE
 40
1.0
  9
$ATTMODE
 70
     1
  9
$TEXTSIZE
 40
2.5
  9
$TRACEWID
 40
1.0
  9
$TEXTSTYLE
  7
Standard
  9
$CLAYER
  8
GAIKEI
  9
$CELTYPE
  6
ByLayer
  9
$CECOLOR
 62
   256
  9
$CELTSCALE
 40
1.0
  9
$DISPSILH
 70
     0
  9
$DIMSCALE
 40
1.0
  9
$DIMASZ
 40
2.0
  9
$DIMEXO
 40
2.0
  9
$DIMDLI
 40
8.0
  9
$DIMRND
 40
0.0
  9
$DIMDLE
 40
0.0
  9
$DIMEXE
 40
2.0
  9
$DIMTP
 40
0.0
  9
$DIMTM
 40
0.0
  9
$DIMTXT
 40
2.5
  9
$DIMCEN
 40
0.0
  9
$DIMTSZ
 40
0.0
  9
$DIMTOL
 70
     0
  9
$DIMLIM
 70
     0
  9
$DIMTIH
 70
     0
  9
$DIMTOH
 70
     0
  9
$DIMSE1
 70
     0
  9
$DIMSE2
 70
     0
  9
$DIMTAD
 70
     3
  9
$DIMZIN
 70
     0
  9
$DIMBLK
  1

  9
$DIMASO
 70
     1
  9
$DIMSHO
 70
     1
  9
$DIMPOST
  1

  9
$DIMAPOST
  1

  9
$DIMALT
 70
     0
  9
$DIMALTD
 70
     2
  9
$DIMALTF
 40
25.4
  9
$DIMLFAC
 40
1.0
  9
$DIMTOFL
 70
     1
  9
$DIMTVP
 40
0.0
  9
$DIMTIX
 70
     0
  9
$DIMSOXD
 70
     0
  9
$DIMSAH
 70
     1
  9
$DIMBLK1
  1
OPEN30
  9
$DIMBLK2
  1
OPEN30
  9
$DIMSTYLE
  2
STANDARD
  9
$DIMCLRD
 70
     0
  9
$DIMCLRE
 70
     0
  9
$DIMCLRT
 70
     0
  9
$DIMTFAC
 40
1.0
  9
$DIMGAP
 40
0.5
  9
$DIMJUST
 70
     0
  9
$DIMSD1
 70
     0
  9
$DIMSD2
 70
     0
  9
$DIMTOLJ
 70
     1
  9
$DIMTZIN
 70
     0
  9
$DIMALTZ
 70
     0
  9
$DIMALTTZ
 70
     0
  9
$DIMUPT
 70
     0
  9
$DIMDEC
 70
     4
  9
$DIMTDEC
 70
     4
  9
$DIMALTU
 70
     2
  9
$DIMALTTD
 70
     2
  9
$DIMTXSTY
  7
Standard
  9
$DIMAUNIT
 70
     0
  9
$DIMADEC
 70
     0
  9
$DIMALTRND
 40
0.0
  9
$DIMAZIN
 70
     0
  9
$DIMDSEP
 70
    46
  9
$DIMATFIT
 70
     3
  9
$DIMFRAC
 70
     0
  9
$DIMLDRBLK
  1
OPEN30
  9
$DIMLUNIT
 70
     2
  9
$DIMLWD
 70
    -2
  9
$DIMLWE
 70
    -2
  9
$DIMTMOVE
 70
     0
  9
$LUNITS
 70
     2
  9
$LUPREC
 70
     4
  9
$SKETCHINC
 40
1.0
  9
$FILLETRAD
 40
0.0
  9
$AUNITS
 70
     0
  9
$AUPREC
 70
     0
  9
$MENU
  1
.
  9
$ELEVATION
 40
0.0
  9
$PELEVATION
 40
0.0
  9
$THICKNESS
 40
0.0
  9
$LIMCHECK
 70
     0
  9
$CHAMFERA
 40
0.0
  9
$CHAMFERB
 40
0.0
  9
$CHAMFERC
 40
0.0
  9
$CHAMFERD
 40
0.0
  9
$SKPOLY
 70
     0
  9
$TDCREATE
 40
2454349.434269746
  9
$TDUCREATE
 40
2454349.059269746
  9
$TDUPDATE
 40
2455456.635220266
  9
$TDUUPDATE
 40
2455456.260220266
  9
$TDINDWG
 40
0.1948860185
  9
$TDUSRTIMER
 40
0.1948860185
  9
$USRTIMER
 70
     1
  9
$ANGBASE
 50
0.0
  9
$ANGDIR
 70
     0
  9
$PDMODE
 70
     0
  9
$PDSIZE
 40
0.0
  9
$PLINEWID
 40
0.0
  9
$SPLFRAME
 70
     0
  9
$SPLINETYPE
 70
     6
  9
$SPLINESEGS
 70
     8
  9
$HANDSEED
  5
137
  9
$SURFTAB1
 70
     6
  9
$SURFTAB2
 70
     6
  9
$SURFTYPE
 70
     6
  9
$SURFU
 70
     6
  9
$SURFV
 70
     6
  9
$UCSBASE
  2

  9
$UCSNAME
  2

  9
$UCSORG
 10
0.0
 20
0.0
 30
0.0
  9
$UCSXDIR
 10
1.0
 20
0.0
 30
0.0
  9
$UCSYDIR
 10
0.0
 20
1.0
 30
0.0
  9
$UCSORTHOREF
  2

  9
$UCSORTHOVIEW
 70
     0
  9
$UCSORGTOP
 10
0.0
 20
0.0
 30
0.0
  9
$UCSORGBOTTOM
 10
0.0
 20
0.0
 30
0.0
  9
$UCSORGLEFT
 10
0.0
 20
0.0
 30
0.0
  9
$UCSORGRIGHT
 10
0.0
 20
0.0
 30
0.0
  9
$UCSORGFRONT
 10
0.0
 20
0.0
 30
0.0
  9
$UCSORGBACK
 10
0.0
 20
0.0
 30
0.0
  9
$PUCSBASE
  2

  9
$PUCSNAME
  2

  9
$PUCSORG
 10
0.0
 20
0.0
 30
0.0
  9
$PUCSXDIR
 10
1.0
 20
0.0
 30
0.0
  9
$PUCSYDIR
 10
0.0
 20
1.0
 30
0.0
  9
$PUCSORTHOREF
  2

  9
$PUCSORTHOVIEW
 70
     0
  9
$PUCSORGTOP
 10
0.0
 20
0.0
 30
0.0
  9
$PUCSORGBOTTOM
 10
0.0
 20
0.0
 30
0.0
  9
$PUCSORGLEFT
 10
0.0
 20
0.0
 30
0.0
  9
$PUCSORGRIGHT
 10
0.0
 20
0.0
 30
0.0
  9
$PUCSORGFRONT
 10
0.0
 20
0.0
 30
0.0
  9
$PUCSORGBACK
 10
0.0
 20
0.0
 30
0.0
  9
$USERI1
 70
     0
  9
$USERI2
 70
     0
  9
$USERI3
 70
     0
  9
$USERI4
 70
     0
  9
$USERI5
 70
     0
  9
$USERR1
 40
0.0
  9
$USERR2
 40
0.0
  9
$USERR3
 40
0.0
  9
$USERR4
 40
0.0
  9
$USERR5
 40
0.0
  9
$WORLDVIEW
 70
     1
  9
$SHADEDGE
 70
     3
  9
$SHADEDIF
 70
    70
  9
$TILEMODE
 70
     1
  9
$MAXACTVP
 70
    64
  9
$PINSBASE
 10
0.0
 20
0.0
 30
0.0
  9
$PLIMCHECK
 70
     0
  9
$PEXTMIN
 10
0.0
 20
0.0
 30
0.0
  9
$PEXTMAX
 10
0.0
 20
0.0
 30
0.0
  9
$PLIMMIN
 10
0.0
 20
0.0
  9
$PLIMMAX
 10
12.0
 20
9.0
  9
$UNITMODE
 70
     0
  9
$VISRETAIN
 70
     1
  9
$PLINEGEN
 70
     0
  9
$PSLTSCALE
 70
     1
  9
$TREEDEPTH
 70
  3020
  9
$CMLSTYLE
  2
Standard
  9
$CMLJUST
 70
     0
  9
$CMLSCALE
 40
20.0
  9
$PROXYGRAPHICS
 70
     1
  9
$MEASUREMENT
 70
     1
  9
$CELWEIGHT
370
    -1
  9
$ENDCAPS
280
     0
  9
$JOINSTYLE
280
     0
  9
$LWDISPLAY
290
     0
  9
$INSUNITS
 70
     4
  9
$HYPERLINKBASE
  1

  9
$STYLESHEET
  1

  9
$XEDIT
290
     1
  9
$CEPSNTYPE
380
     0
  9
$PSTYLEMODE
290
     1
  9
$FINGERPRINTGUID
  2
{FDEAD578-A652-11D2-9A35-0060089B3A3F}
  9
$VERSIONGUID
  2
{8AE06DCD-9227-4774-82FA-D13D82ECB088}
  9
$EXTNAMES
290
     1
  9
$PSVPSCALE
 40
0.0
  9
$OLESTARTUP
290
     0
  0
ENDSEC
  0
SECTION
  2
CLASSES
  0
CLASS
  1
ACDBDICTIONARYWDFLT
  2
AcDbDictionaryWithDefault
  3
ObjectDBX Classes
 90
        0
280
     0
281
     0
  0
CLASS
  1
ACDBPLACEHOLDER
  2
AcDbPlaceHolder
  3
ObjectDBX Classes
 90
        0
280
     0
281
     0
  0
CLASS
  1
LAYOUT
  2
AcDbLayout
  3
ObjectDBX Classes
 90
        0
280
     0
281
     0
  0
CLASS
  1
DICTIONARYVAR
  2
AcDbDictionaryVar
  3
ObjectDBX Classes
 90
        0
280
     0
281
     0
  0
ENDSEC
  0
SECTION
  2
TABLES
  0
TABLE
  2
VPORT
  5
1B
330
0
100
AcDbSymbolTable
 70
     3
  0
VPORT
  5
12F
330
1B
100
AcDbSymbolTableRecord
100
AcDbViewportTableRecord
  2
*Active
 70
     0
 10
0.0
 20
0.0
 11
1.0
 21
1.0
 12
1.589356204016773
 22
-9.729903667501503
 13
0.0
 23
0.0
 14
10.0
 24
10.0
 15
10.0
 25
10.0
 16
0.0
 26
0.0
 36
1.0
 17
0.0
 27
0.0
 37
0.0
 40
113.647547914386
 41
1.451655629139072
 42
50.0
 43
0.0
 44
0.0
 50
0.0
 51
0.0
 71
     0
 72
  1000
 73
     1
 74
     2
 75
     0
 76
     0
 77
     0
 78
     0
281
     0
 65
     1
110
0.0
120
0.0
130
0.0
111
1.0
121
0.0
131
0.0
112
0.0
122
1.0
132
0.0
 79
     0
146
0.0
  0
ENDTAB
  0
TABLE
  2
LTYPE
  5
16
330
0
100
AcDbSymbolTable
 70
     1
  0
LTYPE
  5
17
330
16
100
AcDbSymbolTableRecord
100
AcDbLinetypeTableRecord
  2
ByBlock
 70
     0
  3

 72
    65
 73
     0
 40
0.0
  0
LTYPE
  5
18
330
16
100
AcDbSymbolTableRecord
100
AcDbLinetypeTableRecord
  2
ByLayer
 70
     0
  3

 72
    65
 73
     0
 40
0.0
  0
LTYPE
  5
8
330
16
100
AcDbSymbolTableRecord
100
AcDbLinetypeTableRecord
  2
Continuous
 70
     0
  3
Solid line
 72
    65
 73
     0
 40
0.0
  0
ENDTAB
  0
TABLE
  2
LAYER
  5
10
102
{ACAD_XDICTIONARY
360
11
102
}
330
0
100
AcDbSymbolTable
 70
     7
  0
LAYER
  5
4
330
10
100
AcDbSymbolTableRecord
100
AcDbLayerTableRecord
  2
0
 70
     0
 62
     7
  6
Continuous
370
    -3
390
5
  0
LAYER
  5
D6
330
10
100
AcDbSymbolTableRecord
100
AcDbLayerTableRecord
  2
WAKU
 70
     0
 62
     4
  6
Continuous
370
    -3
390
5
  0
LAYER
  5
30
330
10
100
AcDbSymbolTableRecord
100
AcDbLayerTableRecord
  2
MOJI1
 70
     0
 62
     2
  6
Continuous
370
    -3
390
5
  0
LAYER
  5
D1
330
10
100
AcDbSymbolTableRecord
100
AcDbLayerTableRecord
  2
TOUROKU
 70
     0
 62
     1
  6
Continuous
370
    -3
390
5
  0
LAYER
  5
3D
330
10
100
AcDbSymbolTableRecord
100
AcDbLayerTableRecord
  2
Defpoints
 70
     0
 62
     7
  6
Continuous
290
     0
370
    -3
390
5
  0
LAYER
  5
2D
330
10
100
AcDbSymbolTableRecord
100
AcDbLayerTableRecord
  2
GAIKEI
 70
     0
 62
     7
  6
Continuous
370
    -3
390
5
  0
LAYER
  5
33
330
10
100
AcDbSymbolTableRecord
100
AcDbLayerTableRecord
  2
SUNPO
 70
     0
 62
     3
  6
Continuous
370
    -3
390
5
  0
ENDTAB
  0
TABLE
  2
STYLE
  5
13
330
0
100
AcDbSymbolTable
 70
     2
  0
STYLE
  5
14
330
13
100
AcDbSymbolTableRecord
100
AcDbTextStyleTableRecord
  2
Standard
 70
     0
 40
0.0
 41
1.0
 50
0.0
 71
     0
 42
2.5
  3
MONOTXT.shx
  4
BIGFONT.shx
  0
STYLE
  5
31
330
13
100
AcDbSymbolTableRecord
100
AcDbTextStyleTableRecord
  2
KANJI
 70
     0
 40
0.0
 41
1.0
 50
0.0
 71
     0
 42
3.5
  3
MONOTXT
  4
BIGFONT
  0
ENDTAB
  0
TABLE
  2
VIEW
  5
19
330
0
100
AcDbSymbolTable
 70
     0
  0
ENDTAB
  0
TABLE
  2
UCS
  5
1A
330
0
100
AcDbSymbolTable
 70
     0
  0
ENDTAB
  0
TABLE
  2
APPID
  5
1D
330
0
100
AcDbSymbolTable
 70
     1
  0
APPID
  5
1E
330
1D
100
AcDbSymbolTableRecord
100
AcDbRegAppTableRecord
  2
ACAD
 70
     0
  0
ENDTAB
  0
TABLE
  2
DIMSTYLE
  5
1F
330
0
100
AcDbSymbolTable
 70
     1
100
AcDbDimStyleTable
 71
     1
340
20
  0
DIMSTYLE
105
20
102
{ACAD_REACTORS
330
4E
330
41
330
32
102
}
330
1F
100
AcDbSymbolTableRecord
100
AcDbDimStyleTableRecord
  2
STANDARD
 70
     0
 40
0.0
 41
2.0
 42
2.0
 43
8.0
 44
2.0
 73
     0
 74
     0
 77
     3
140
3.0
141
0.0
173
     1
279
     2
288
     1
340
14
341
21
343
21
344
21
  0
ENDTAB
  0
TABLE
  2
BLOCK_RECORD
  5
1
330
0
100
AcDbSymbolTable
 70
     7
  0
BLOCK_RECORD
  5
2
330
1
100
AcDbSymbolTableRecord
100
AcDbBlockTableRecord
  2
*Model_Space
340
A
  0
BLOCK_RECORD
  5
C
330
1
100
AcDbSymbolTableRecord
100
AcDbBlockTableRecord
  2
*Paper_Space
340
F
  0
BLOCK_RECORD
  5
21
330
1
100
AcDbSymbolTableRecord
100
AcDbBlockTableRecord
  2
_OPEN30
340
0
102
{BLKREFS
331
54
331
55
331
39
331
3A
331
47
331
48
331
10B
331
10C
331
117
331
118
331
123
331
124
102
}
  0
BLOCK_RECORD
  5
4F
330
1
100
AcDbSymbolTableRecord
100
AcDbBlockTableRecord
  2
*D1
340
0
  0
BLOCK_RECORD
  5
42
330
1
100
AcDbSymbolTableRecord
100
AcDbBlockTableRecord
  2
*D2
340
0
  0
BLOCK_RECORD
  5
34
330
1
100
AcDbSymbolTableRecord
100
AcDbBlockTableRecord
  2
*D3
340
0
  0
BLOCK_RECORD
  5
107
330
1
100
AcDbSymbolTableRecord
100
AcDbBlockTableRecord
  2
*D4
340
0
  0
BLOCK_RECORD
  5
113
330
1
100
AcDbSymbolTableRecord
100
AcDbBlockTableRecord
  2
*D5
340
0
  0
BLOCK_RECORD
  5
11F
330
1
100
AcDbSymbolTableRecord
100
AcDbBlockTableRecord
  2
*D6
340
0
  0
ENDTAB
  0
ENDSEC
  0
SECTION
  2
BLOCKS
  0
BLOCK
  5
3
330
2
100
AcDbEntity
  8
0
100
AcDbBlockBegin
  2
*Model_Space
 70
     0
 10
0.0
 20
0.0
 30
0.0
  3
*Model_Space
  1

  0
ENDBLK
  5
9
330
2
100
AcDbEntity
  8
0
100
AcDbBlockEnd
  0
BLOCK
  5
D
330
C
100
AcDbEntity
 67
     1
  8
0
100
AcDbBlockBegin
  2
*Paper_Space
 70
     0
 10
0.0
 20
0.0
 30
0.0
  3
*Paper_Space
  1

  0
ENDBLK
  5
E
330
C
100
AcDbEntity
 67
     1
  8
0
100
AcDbBlockEnd
  0
BLOCK
  5
22
330
21
100
AcDbEntity
  8
0
100
AcDbBlockBegin
  2
_OPEN30
 70
     0
 10
0.0
 20
0.0
 30
0.0
  3
_OPEN30
  1

  0
LINE
  5
23
330
21
100
AcDbEntity
  8
0
  6
ByBlock
 62
     0
100
AcDbLine
 10
-1.0
 20
0.26794919
 30
0.0
 11
0.0
 21
0.0
 31
0.0
  0
LINE
  5
24
330
21
100
AcDbEntity
  8
0
  6
ByBlock
 62
     0
100
AcDbLine
 10
0.0
 20
0.0
 30
0.0
 11
-1.0
 21
-0.26794919
 31
0.0
  0
LINE
  5
25
330
21
100
AcDbEntity
  8
0
  6
ByBlock
 62
     0
100
AcDbLine
 10
0.0
 20
0.0
 30
0.0
 11
-1.0
 21
0.0
 31
0.0
  0
ENDBLK
  5
26
330
21
100
AcDbEntity
  8
0
100
AcDbBlockEnd
  0
BLOCK
  5
50
330
4F
100
AcDbEntity
  8
0
100
AcDbBlockBegin
  2
*D1
 70
     1
 10
0.0
 20
0.0
 30
0.0
  3
*D1
  1

  0
LINE
  5
51
330
4F
100
AcDbEntity
  8
SUNPO
 62
     0
370
    -2
100
AcDbLine
 10
192.5317386042232
 20
215.450863820866
 30
0.0
 11
184.5317386042232
 21
215.450863820866
 31
0.0
  0
LINE
  5
52
330
4F
100
AcDbEntity
  8
SUNPO
 62
     0
370
    -2
100
AcDbLine
 10
192.5317386042232
 20
204.4508638208661
 30
0.0
 11
184.5317386042232
 21
204.4508638208661
 31
0.0
  0
LINE
  5
53
330
4F
100
AcDbEntity
  8
SUNPO
 62
     0
370
    -2
100
AcDbLine
 10
186.5317386042232
 20
213.4508638208661
 30
0.0
 11
186.5317386042232
 21
206.4508638208661
 31
0.0
  0
INSERT
  5
54
330
4F
100
AcDbEntity
  8
SUNPO
 62
     0
370
    -2
100
AcDbBlockReference
  2
_OPEN30
 10
186.5317386042232
 20
215.450863820866
 30
0.0
 41
2.0
 42
2.0
 43
2.0
 50
90.0
  0
INSERT
  5
55
330
4F
100
AcDbEntity
  8
SUNPO
 62
     0
370
    -2
100
AcDbBlockReference
  2
_OPEN30
 10
186.5317386042232
 20
204.4508638208661
 30
0.0
 41
2.0
 42
2.0
 43
2.0
 50
270.0
  0
MTEXT
  5
56
330
4F
100
AcDbEntity
  8
SUNPO
 62
     0
100
AcDbMText
 10
184.7817386042232
 20
209.9508638208661
 30
0.0
 40
2.5
 41
0.0
 71
     5
 72
     1
  1
\A1;φ55
 11
0.0000000000000001
 21
1.0
 31
0.0
 73
     1
 44
1.0
1001
ACAD
1000
MTEXTBEGIN
1070
    73
1070
     1
1070
    44
1040
1.0
1070
    74
1070
     0
1000
MTEXTEND
  0
POINT
  5
57
330
4F
100
AcDbEntity
  8
Defpoints
 62
     0
100
AcDbPoint
 10
194.5317386042232
 20
215.450863820866
 30
0.0
  0
POINT
  5
58
330
4F
100
AcDbEntity
  8
Defpoints
 62
     0
100
AcDbPoint
 10
194.5317386042232
 20
204.4508638208661
 30
0.0
  0
POINT
  5
59
330
4F
100
AcDbEntity
  8
Defpoints
 62
     0
100
AcDbPoint
 10
186.5317386042232
 20
204.4508638208661
 30
0.0
  0
ENDBLK
  5
5A
330
4F
100
AcDbEntity
  8
0
100
AcDbBlockEnd
  0
BLOCK
  5
43
330
42
100
AcDbEntity
  8
0
100
AcDbBlockBegin
  2
*D2
 70
     1
 10
0.0
 20
0.0
 30
0.0
  3
*D2
  1

  0
LINE
  5
44
330
42
100
AcDbEntity
  8
SUNPO
 62
     0
370
    -2
100
AcDbLine
 10
194.8330589124349
 20
217.4936361412226
 30
0.0
 11
194.8331921159637
 21
225.4936361390047
 31
0.0
  0
LINE
  5
45
330
42
100
AcDbEntity
  8
SUNPO
 62
     0
370
    -2
100
AcDbLine
 10
219.092550171727
 20
217.4932322099923
 30
0.0
 11
219.0926833752558
 21
225.4932322077744
 31
0.0
  0
LINE
  5
46
330
42
100
AcDbEntity
  8
SUNPO
 62
     0
370
    -2
100
AcDbLine
 10
196.8331588148043
 20
223.4936028383997
 30
0.0
 11
217.0926500746508
 21
223.4932655089338
 31
0.0
  0
INSERT
  5
47
330
42
100
AcDbEntity
  8
SUNPO
 62
     0
370
    -2
100
AcDbBlockReference
  2
_OPEN30
 10
194.8331588150815
 20
223.4936361392819
 30
0.0
 41
2.0
 42
2.0
 43
2.0
 50
179.999045999998
  0
INSERT
  5
48
330
42
100
AcDbEntity
  8
SUNPO
 62
     0
370
    -2
100
AcDbBlockReference
  2
_OPEN30
 10
219.0926500743736
 20
223.4932322080516
 30
0.0
 41
2.0
 42
2.0
 43
2.0
 50
359.999045999998
  0
MTEXT
  5
49
330
42
100
AcDbEntity
  8
SUNPO
 62
     0
100
AcDbMText
 10
206.9629335829994
 20
225.2434341734242
 30
0.0
 40
2.5
 41
0.0
 71
     5
 72
     1
  1
\A1;121.5
 11
0.9999999998613814
 21
-0.0000166504410971
 31
0.0
 73
     1
 44
1.0
1001
ACAD
1000
MTEXTBEGIN
1070
    73
1070
     1
1070
    44
1040
1.0
1070
    74
1070
     0
1000
MTEXTEND
  0
POINT
  5
4A
330
42
100
AcDbEntity
  8
Defpoints
 62
     0
100
AcDbPoint
 10
194.8330256115527
 20
215.4936361414999
 30
0.0
  0
POINT
  5
4B
330
42
100
AcDbEntity
  8
Defpoints
 62
     0
100
AcDbPoint
 10
219.0925168708448
 20
215.4932322102695
 30
0.0
  0
POINT
  5
4C
330
42
100
AcDbEntity
  8
Defpoints
 62
     0
100
AcDbPoint
 10
219.0926500743736
 20
223.4932322080516
 30
0.0
  0
ENDBLK
  5
4D
330
42
100
AcDbEntity
  8
0
100
AcDbBlockEnd
  0
BLOCK
  5
35
330
34
100
AcDbEntity
  8
0
100
AcDbBlockBegin
  2
*D3
 70
     1
 10
0.0
 20
0.0
 30
0.0
  3
*D3
  1

  0
LINE
  5
36
330
34
100
AcDbEntity
  8
SUNPO
 62
     0
370
    -2
100
AcDbLine
 10
173.9025313939866
 20
217.4940508713144
 30
0.0
 11
173.9025313939866
 21
225.4940508713144
 31
0.0
  0
LINE
  5
37
330
34
100
AcDbEntity
  8
SUNPO
 62
     0
370
    -2
100
AcDbLine
 10
162.9025313939866
 20
217.4940508713144
 30
0.0
 11
162.9025313939866
 21
225.4940508713144
 31
0.0
  0
LINE
  5
38
330
34
100
AcDbEntity
  8
SUNPO
 62
     0
370
    -2
100
AcDbLine
 10
171.9025313939866
 20
223.4940508713144
 30
0.0
 11
164.9025313939866
 21
223.4940508713144
 31
0.0
  0
INSERT
  5
39
330
34
100
AcDbEntity
  8
SUNPO
 62
     0
370
    -2
100
AcDbBlockReference
  2
_OPEN30
 10
173.9025313939866
 20
223.4940508713144
 30
0.0
 41
2.0
 42
2.0
 43
2.0
  0
INSERT
  5
3A
330
34
100
AcDbEntity
  8
SUNPO
 62
     0
370
    -2
100
AcDbBlockReference
  2
_OPEN30
 10
162.9025313939866
 20
223.4940508713144
 30
0.0
 41
2.0
 42
2.0
 43
2.0
 50
180.0
  0
MTEXT
  5
3B
330
34
100
AcDbEntity
  8
SUNPO
 62
     0
100
AcDbMText
 10
168.4025313939866
 20
225.2440508713144
 30
0.0
 40
2.5
 41
0.0
 71
     5
 72
     1
  1
\A1;φ55
 73
     1
 44
1.0
1001
ACAD
1000
MTEXTBEGIN
1070
    73
1070
     1
1070
    44
1040
1.0
1070
    74
1070
     0
1000
MTEXTEND
  0
POINT
  5
3C
330
34
100
AcDbEntity
  8
Defpoints
 62
     0
100
AcDbPoint
 10
173.9025313939866
 20
215.4940508713144
 30
0.0
  0
POINT
  5
3E
330
34
100
AcDbEntity
  8
Defpoints
 62
     0
100
AcDbPoint
 10
162.9025313939866
 20
215.4940508713144
 30
0.0
  0
POINT
  5
3F
330
34
100
AcDbEntity
  8
Defpoints
 62
     0
100
AcDbPoint
 10
162.9025313939866
 20
223.4940508713144
 30
0.0
  0
ENDBLK
  5
40
330
34
100
AcDbEntity
  8
0
100
AcDbBlockEnd
  0
BLOCK
  5
111
330
107
100
AcDbEntity
  8
0
100
AcDbBlockBegin
  2
*D4
 70
     1
 10
0.0
 20
0.0
 30
0.0
  3
*D4
  1

  0
LINE
  5
108
330
107
100
AcDbEntity
  8
SUNPO
 62
     0
370
    -2
100
AcDbLine
 10
0.1229512095916902
 20
17.84947176653972
 30
0.0
 11
-7.877048790408307
 21
17.84947176653972
 31
0.0
  0
LINE
  5
109
330
107
100
AcDbEntity
  8
SUNPO
 62
     0
370
    -2
100
AcDbLine
 10
0.1229512095916905
 20
6.849471766539722
 30
0.0
 11
-7.877048790408309
 21
6.849471766539725
 31
0.0
  0
LINE
  5
10A
330
107
100
AcDbEntity
  8
SUNPO
 62
     0
370
    -2
100
AcDbLine
 10
-5.877048790408307
 20
15.84947176653972
 30
0.0
 11
-5.877048790408309
 21
8.849471766539725
 31
0.0
  0
INSERT
  5
10B
330
107
100
AcDbEntity
  8
SUNPO
 62
     0
370
    -2
100
AcDbBlockReference
  2
_OPEN30
 10
-5.877048790408307
 20
17.84947176653972
 30
0.0
 41
2.0
 42
2.0
 43
2.0
 50
90.0
  0
INSERT
  5
10C
330
107
100
AcDbEntity
  8
SUNPO
 62
     0
370
    -2
100
AcDbBlockReference
  2
_OPEN30
 10
-5.877048790408309
 20
6.849471766539724
 30
0.0
 41
2.0
 42
2.0
 43
2.0
 50
270.0
  0
MTEXT
  5
10D
330
107
100
AcDbEntity
  8
SUNPO
 62
     0
100
AcDbMText
 10
-7.62704879040831
 20
12.34947176653972
 30
0.0
 40
2.5
 41
0.0
 71
     5
 72
     1
  1
\A1;φ55
 11
0.0000000000000001
 21
1.0
 31
0.0
 73
     1
 44
1.0
1001
ACAD
1000
MTEXTBEGIN
1070
    73
1070
     1
1070
    44
1040
1.0
1070
    74
1070
     0
1000
MTEXTEND
  0
POINT
  5
10E
330
107
100
AcDbEntity
  8
Defpoints
 62
     0
100
AcDbPoint
 10
2.12295120959169
 20
17.84947176653972
 30
0.0
  0
POINT
  5
10F
330
107
100
AcDbEntity
  8
Defpoints
 62
     0
100
AcDbPoint
 10
2.12295120959169
 20
6.849471766539721
 30
0.0
  0
POINT
  5
110
330
107
100
AcDbEntity
  8
Defpoints
 62
     0
100
AcDbPoint
 10
-5.877048790408309
 20
6.849471766539724
 30
0.0
  0
ENDBLK
  5
112
330
107
100
AcDbEntity
  8
0
100
AcDbBlockEnd
  0
BLOCK
  5
11D
330
113
100
AcDbEntity
  8
0
100
AcDbBlockBegin
  2
*D5
 70
     1
 10
0.0
 20
0.0
 30
0.0
  3
*D5
  1

  0
LINE
  5
114
330
113
100
AcDbEntity
  8
SUNPO
 62
     0
370
    -2
100
AcDbLine
 10
2.42427151780339
 20
19.8922440868963
 30
0.0
 11
2.424404721332149
 21
27.89224408467835
 31
0.0
  0
LINE
  5
115
330
113
100
AcDbEntity
  8
SUNPO
 62
     0
370
    -2
100
AcDbLine
 10
26.68376277709547
 20
19.89184015566598
 30
0.0
 11
26.68389598062423
 21
27.89184015344803
 31
0.0
  0
LINE
  5
116
330
113
100
AcDbEntity
  8
SUNPO
 62
     0
370
    -2
100
AcDbLine
 10
4.424371420172718
 20
25.89221078407339
 30
0.0
 11
24.68386268001927
 21
25.89187345460747
 31
0.0
  0
INSERT
  5
117
330
113
100
AcDbEntity
  8
SUNPO
 62
     0
370
    -2
100
AcDbBlockReference
  2
_OPEN30
 10
2.424371420449955
 20
25.89224408495559
 30
0.0
 41
2.0
 42
2.0
 43
2.0
 50
179.999045999998
  0
INSERT
  5
118
330
113
100
AcDbEntity
  8
SUNPO
 62
     0
370
    -2
100
AcDbBlockReference
  2
_OPEN30
 10
26.68386267974203
 20
25.89184015372528
 30
0.0
 41
2.0
 42
2.0
 43
2.0
 50
359.999045999998
  0
MTEXT
  5
119
330
113
100
AcDbEntity
  8
SUNPO
 62
     0
100
AcDbMText
 10
14.55414618836791
 20
27.64204211909785
 30
0.0
 40
2.5
 41
0.0
 71
     5
 72
     1
  1
\A1;121.5
 11
0.9999999998613814
 21
-0.0000166504410971
 31
0.0
 73
     1
 44
1.0
1001
ACAD
1000
MTEXTBEGIN
1070
    73
1070
     1
1070
    44
1040
1.0
1070
    74
1070
     0
1000
MTEXTEND
  0
POINT
  5
11A
330
113
100
AcDbEntity
  8
Defpoints
 62
     0
100
AcDbPoint
 10
2.424238216921196
 20
17.89224408717354
 30
0.0
  0
POINT
  5
11B
330
113
100
AcDbEntity
  8
Defpoints
 62
     0
100
AcDbPoint
 10
26.68372947621327
 20
17.89184015594321
 30
0.0
  0
POINT
  5
11C
330
113
100
AcDbEntity
  8
Defpoints
 62
     0
100
AcDbPoint
 10
26.68386267974203
 20
25.89184015372528
 30
0.0
  0
ENDBLK
  5
11E
330
113
100
AcDbEntity
  8
0
100
AcDbBlockEnd
  0
BLOCK
  5
129
330
11F
100
AcDbEntity
  8
0
100
AcDbBlockBegin
  2
*D6
 70
     1
 10
0.0
 20
0.0
 30
0.0
  3
*D6
  1

  0
LINE
  5
120
330
11F
100
AcDbEntity
  8
SUNPO
 62
     0
370
    -2
100
AcDbLine
 10
-18.50625600064487
 20
19.89265881698807
 30
0.0
 11
-18.50625600064487
 21
27.89265881698808
 31
0.0
  0
LINE
  5
121
330
11F
100
AcDbEntity
  8
SUNPO
 62
     0
370
    -2
100
AcDbLine
 10
-29.50625600064487
 20
19.89265881698807
 30
0.0
 11
-29.50625600064487
 21
27.89265881698808
 31
0.0
  0
LINE
  5
122
330
11F
100
AcDbEntity
  8
SUNPO
 62
     0
370
    -2
100
AcDbLine
 10
-20.50625600064487
 20
25.89265881698807
 30
0.0
 11
-27.50625600064487
 21
25.89265881698807
 31
0.0
  0
INSERT
  5
123
330
11F
100
AcDbEntity
  8
SUNPO
 62
     0
370
    -2
100
AcDbBlockReference
  2
_OPEN30
 10
-18.50625600064487
 20
25.89265881698807
 30
0.0
 41
2.0
 42
2.0
 43
2.0
  0
INSERT
  5
124
330
11F
100
AcDbEntity
  8
SUNPO
 62
     0
370
    -2
100
AcDbBlockReference
  2
_OPEN30
 10
-29.50625600064487
 20
25.89265881698807
 30
0.0
 41
2.0
 42
2.0
 43
2.0
 50
180.0
  0
MTEXT
  5
125
330
11F
100
AcDbEntity
  8
SUNPO
 62
     0
100
AcDbMText
 10
-24.00625600064487
 20
27.64265881698808
 30
0.0
 40
2.5
 41
0.0
 71
     5
 72
     1
  1
\A1;φ55
 73
     1
 44
1.0
1001
ACAD
1000
MTEXTBEGIN
1070
    73
1070
     1
1070
    44
1040
1.0
1070
    74
1070
     0
1000
MTEXTEND
  0
POINT
  5
126
330
11F
100
AcDbEntity
  8
Defpoints
 62
     0
100
AcDbPoint
 10
-18.50625600064487
 20
17.89265881698807
 30
0.0
  0
POINT
  5
127
330
11F
100
AcDbEntity
  8
Defpoints
 62
     0
100
AcDbPoint
 10
-29.50625600064487
 20
17.89265881698807
 30
0.0
  0
POINT
  5
128
330
11F
100
AcDbEntity
  8
Defpoints
 62
     0
100
AcDbPoint
 10
-29.50625600064487
 20
25.89265881698807
 30
0.0
  0
ENDBLK
  5
12A
330
11F
100
AcDbEntity
  8
0
100
AcDbBlockEnd
  0
ENDSEC
  0
SECTION
  2
ENTITIES
  0
TEXT
  5
2F
330
2
100
AcDbEntity
  8
MOJI1
100
AcDbText
 10
-33.90878745059036
 20
42.89944307060849
 30
0.0
 40
4.0
  1
ネットワークカメラ
  7
KANJI
100
AcDbText
  0
DIMENSION
  5
32
330
2
100
AcDbEntity
  8
SUNPO
100
AcDbDimension
  2
*D6
 10
-29.50625600064487
 20
25.89265881698807
 30
0.0
 11
-24.00625600064487
 21
27.64265881698808
 31
0.0
 70
    33
  1
φ55
 71
     5
 42
11.0
  3
STANDARD
100
AcDbAlignedDimension
 13
-18.50625600064487
 23
17.89265881698807
 33
0.0
 14
-29.50625600064487
 24
17.89265881698807
 34
0.0
1001
ACAD
1000
DSTYLE
1002
{
1070
    40
1040
1.0
1070
   140
1040
2.5
1070
   147
1040
0.5
1070
   172
1070
     1
1070
   279
1070
     0
1070
   288
1070
     0
1002
}
  0
DIMENSION
  5
41
330
2
100
AcDbEntity
  8
SUNPO
100
AcDbDimension
  2
*D5
 10
26.68386267974203
 20
25.89184015372528
 30
0.0
 11
14.55414618836791
 21
27.64204211909785
 31
0.0
 70
    33
  1
121.5
 71
     5
 42
24.2594912626549
  3
STANDARD
100
AcDbAlignedDimension
 13
2.424238216921196
 23
17.89224408717354
 33
0.0
 14
26.68372947621327
 24
17.89184015594321
 34
0.0
1001
ACAD
1000
DSTYLE
1002
{
1070
    40
1040
1.0
1070
   140
1040
2.5
1070
   147
1040
0.5
1070
   172
1070
     1
1070
   279
1070
     0
1070
   288
1070
     0
1002
}
  0
DIMENSION
  5
4E
330
2
100
AcDbEntity
  8
SUNPO
100
AcDbDimension
  2
*D4
 10
-5.877048790408309
 20
6.849471766539724
 30
0.0
 11
-7.62704879040831
 21
12.34947176653972
 31
0.0
 70
    33
  1
φ55
 71
     5
 42
11.0
  3
STANDARD
100
AcDbAlignedDimension
 13
2.12295120959169
 23
17.84947176653972
 33
0.0
 14
2.12295120959169
 24
6.849471766539721
 34
0.0
1001
ACAD
1000
DSTYLE
1002
{
1070
    40
1040
1.0
1070
   140
1040
2.5
1070
   147
1040
0.5
1070
   172
1070
     1
1070
   279
1070
     0
1070
   288
1070
     0
1002
}
  0
LINE
  5
5B
330
2
100
AcDbEntity
  8
GAIKEI
 62
     1
 48
0.015302
370
    40
100
AcDbLine
 10
22.20618480959166
 20
17.23831816653973
 30
0.0
 11
22.0837674095917
 21
17.23831816653973
 31
0.0
  0
LINE
  5
5C
330
2
100
AcDbEntity
  8
GAIKEI
 62
     1
 48
0.234698
370
    40
100
AcDbLine
 10
24.0837674095917
 20
17.23831816653973
 30
0.0
 11
22.20618480959166
 21
17.23831816653973
 31
0.0
  0
ARC
  5
5D
330
2
100
AcDbEntity
  8
GAIKEI
 62
     1
370
    40
100
AcDbCircle
 10
5.077627209591696
 20
17.84305636653974
 30
0.0
 40
0.0800078
100
AcDbArc
 50
35.77898799999957
 51
90.29456699999895
  0
ARC
  5
5E
330
2
100
AcDbEntity
  8
GAIKEI
 62
     1
370
    40
100
AcDbCircle
 10
3.76376960959169
 20
17.84305996653972
 30
0.0
 40
0.0800036
100
AcDbArc
 50
89.99954100000071
 51
144.2216140000005
  0
LINE
  5
5F
330
2
100
AcDbEntity
  8
GAIKEI
 62
     7
 48
0.000434
370
    40
100
AcDbLine
 10
16.3580728095917
 20
6.863897166539743
 30
0.0
 11
16.36099900959169
 21
6.865759566539736
 31
0.0
  0
LINE
  5
60
330
2
100
AcDbEntity
  8
GAIKEI
 62
     7
 48
0.00005
370
    40
100
AcDbLine
 10
16.3580728095917
 20
6.863897166539743
 30
0.0
 11
16.3584118095917
 21
6.864112766539733
 31
0.0
  0
ARC
  5
61
330
2
100
AcDbEntity
  8
GAIKEI
 62
     7
370
    40
100
AcDbCircle
 10
16.30447180959169
 20
6.948317566539742
 30
0.0
 40
0.0999994
100
AcDbArc
 50
269.9998910000001
 51
302.4775620000009
  0
ARC
  5
62
330
2
100
AcDbEntity
  8
GAIKEI
 62
     7
370
    40
100
AcDbCircle
 10
3.183767409591666
 20
6.948318166539735
 30
0.0
 40
0.1
100
AcDbArc
 50
180.0
 51
270.0
  0
ARC
  5
63
330
2
100
AcDbEntity
  8
GAIKEI
 62
     1
370
    40
100
AcDbCircle
 10
5.223615409591673
 20
17.94823396653973
 30
0.0
 40
0.0999206
100
AcDbArc
 50
215.7642240000003
 51
269.7253470000009
  0
ARC
  5
64
330
2
100
AcDbEntity
  8
GAIKEI
 62
     1
370
    40
100
AcDbCircle
 10
3.617784209591661
 20
17.94823376653974
 30
0.0
 40
0.0999204000000001
100
AcDbArc
 50
270.2710560000004
 51
324.2358249999995
  0
LINE
  5
65
330
2
100
AcDbEntity
  8
GAIKEI
 62
     7
 48
0.000434
370
    40
100
AcDbLine
 10
16.3580728095917
 20
17.83273916653974
 30
0.0
 11
16.36100000959169
 21
17.83087616653972
 31
0.0
  0
ARC
  5
66
330
2
100
AcDbEntity
  8
GAIKEI
 62
     7
370
    40
100
AcDbCircle
 10
16.3044716095917
 20
17.74831816653972
 30
0.0
 40
0.1
100
AcDbArc
 50
57.58745399999883
 51
90.00000199999956
  0
ARC
  5
67
330
2
100
AcDbEntity
  8
GAIKEI
 62
     7
370
    40
100
AcDbCircle
 10
3.183767409591666
 20
17.74831816653972
 30
0.0
 40
0.1
100
AcDbArc
 50
90.0
 51
180.0
  0
LINE
  5
68
330
2
100
AcDbEntity
  8
GAIKEI
 62
     7
370
    40
100
AcDbLine
 10
16.3044716095917
 20
6.848318166539741
 30
0.0
 11
3.183767409591666
 21
6.848318166539741
 31
0.0
  0
LINE
  5
69
330
2
100
AcDbEntity
  8
GAIKEI
 62
     7
 48
0.054311
370
    40
100
AcDbLine
 10
3.618257009591673
 20
17.84831816653974
 30
0.0
 11
3.183767409591666
 21
17.84831816653974
 31
0.0
  0
LINE
  5
6A
330
2
100
AcDbEntity
  8
GAIKEI
 62
     7
370
    40
100
AcDbLine
 10
16.3044716095917
 20
17.84831816653974
 30
0.0
 11
5.223136609591676
 21
17.84831816653974
 31
0.0
  0
LINE
  5
6B
330
2
100
AcDbEntity
  8
GAIKEI
 62
     1
 48
0.145914
370
    40
100
AcDbLine
 10
3.837045609591655
 20
17.92306356653972
 30
0.0
 11
5.004354009591679
 21
17.92306356653972
 31
0.0
  0
LINE
  5
6C
330
2
100
AcDbEntity
  8
GAIKEI
 62
     1
 48
0.009159
370
    40
100
AcDbLine
 10
5.004354009591679
 20
17.92306356653972
 30
0.0
 11
5.077625809591665
 21
17.92306356653972
 31
0.0
  0
LINE
  5
6D
330
2
100
AcDbEntity
  8
GAIKEI
 62
     1
 48
0.009159
370
    40
100
AcDbLine
 10
3.7637704095917
 20
17.92306356653972
 30
0.0
 11
3.837045609591655
 21
17.92306356653972
 31
0.0
  0
LINE
  5
6E
330
2
100
AcDbEntity
  8
GAIKEI
 62
     7
 48
0.0125
370
    40
100
AcDbLine
 10
26.5837674095917
 20
7.458318166539726
 30
0.0
 11
26.48376740959168
 21
7.458318166539726
 31
0.0
  0
ARC
  5
6F
330
2
100
AcDbEntity
  8
GAIKEI
 62
     7
370
    40
100
AcDbCircle
 10
26.5837674095917
 20
7.55831816653972
 30
0.0
 40
0.1
100
AcDbArc
 50
270.0
 51
0.0
  0
LINE
  5
70
330
2
100
AcDbEntity
  8
GAIKEI
 62
     7
 48
0.001412
370
    13
100
AcDbLine
 10
26.48376740959168
 20
7.46961436653973
 30
0.0
 11
26.48376740959168
 21
7.458318166539726
 31
0.0
  0
LINE
  5
71
330
2
100
AcDbEntity
  8
GAIKEI
 62
     7
370
    40
100
AcDbLine
 10
26.48376740959168
 20
7.458318166539726
 30
0.0
 11
18.68376740959167
 21
7.458318166539726
 31
0.0
  0
LINE
  5
72
330
2
100
AcDbEntity
  8
GAIKEI
 62
     7
 48
0.071271
370
    40
100
AcDbLine
 10
18.68376740959167
 20
7.458316766539724
 30
0.0
 11
18.11359720959172
 21
7.458316766539724
 31
0.0
  0
ARC
  5
73
330
2
100
AcDbEntity
  8
GAIKEI
 62
     7
370
    40
100
AcDbCircle
 10
18.1135744095917
 20
5.011981966539735
 30
0.0
 40
2.4463348
100
AcDbArc
 50
89.99946500000152
 51
92.80138600000034
  0
ARC
  5
74
330
2
100
AcDbEntity
  8
GAIKEI
 62
     7
370
    40
100
AcDbCircle
 10
18.11359440959165
 20
5.000139166539725
 30
0.0
 40
2.4581612
100
AcDbArc
 50
92.78836099999884
 51
95.56056800000117
  0
ARC
  5
75
330
2
100
AcDbEntity
  8
GAIKEI
 62
     7
370
    40
100
AcDbCircle
 10
18.12964700959168
 20
4.861980766539716
 30
0.0
 40
2.5972412
100
AcDbArc
 50
95.6177009999986
 51
100.8780130000013
  0
ARC
  5
76
330
2
100
AcDbEntity
  8
GAIKEI
 62
     7
370
    40
100
AcDbCircle
 10
18.1458892095917
 20
4.777782366539724
 30
0.0
 40
2.682991599999999
100
AcDbArc
 50
100.8793069999995
 51
103.4251159999988
  0
ARC
  5
77
330
2
100
AcDbEntity
  8
GAIKEI
 62
     7
370
    40
100
AcDbCircle
 10
18.18962060959165
 20
4.594040566539717
 30
0.0
 40
2.871865999999999
100
AcDbArc
 50
103.4226489999992
 51
105.8057159999995
  0
ARC
  5
78
330
2
100
AcDbEntity
  8
GAIKEI
 62
     7
370
    40
100
AcDbCircle
 10
18.2531242095917
 20
4.380706166539738
 30
0.0
 40
3.094454199999999
100
AcDbArc
 50
105.8612910000011
 51
110.2759549999987
  0
ARC
  5
79
330
2
100
AcDbEntity
  8
GAIKEI
 62
     7
370
    40
100
AcDbCircle
 10
18.36198520959169
 20
4.080992766539736
 30
0.0
 40
3.413320999999999
100
AcDbArc
 50
110.2466170000008
 51
112.2510020000008
  0
ARC
  5
7A
330
2
100
AcDbEntity
  8
GAIKEI
 62
     7
370
    40
100
AcDbCircle
 10
18.45894860959169
 20
3.846230166539726
 30
0.0
 40
3.667320999999999
100
AcDbArc
 50
112.2642279999994
 51
114.1271820000007
  0
ARC
  5
7B
330
2
100
AcDbEntity
  8
GAIKEI
 62
     7
370
    40
100
AcDbCircle
 10
18.61229380959168
 20
3.511293766539722
 30
0.0
 40
4.035705
100
AcDbArc
 50
114.1703310000006
 51
117.5554390000001
  0
ARC
  5
7C
330
2
100
AcDbEntity
  8
GAIKEI
 62
     7
370
    40
100
AcDbCircle
 10
18.87690520959165
 20
3.000191166539735
 30
0.0
 40
4.6112732
100
AcDbArc
 50
117.5325200000004
 51
119.0176169999986
  0
ARC
  5
7D
330
2
100
AcDbEntity
  8
GAIKEI
 62
     7
370
    40
100
AcDbCircle
 10
19.04075520959168
 20
2.708083566539727
 30
0.0
 40
4.946197399999999
100
AcDbArc
 50
119.0360029999987
 51
120.4140309999997
  0
ARC
  5
7E
330
2
100
AcDbEntity
  8
GAIKEI
 62
     7
370
    40
100
AcDbCircle
 10
19.20415000959167
 20
2.431849766539727
 30
0.0
 40
5.267140600000001
100
AcDbArc
 50
120.4256629999995
 51
121.7433209999997
  0
LINE
  5
7F
330
2
100
AcDbEntity
  8
GAIKEI
 62
     7
 48
0.007455
370
    40
100
AcDbLine
 10
16.43346960959167
 20
6.911369766539735
 30
0.0
 11
16.38292300959165
 21
6.879714766539734
 31
0.0
  0
LINE
  5
80
330
2
100
AcDbEntity
  8
GAIKEI
 62
     7
 48
0.000036
370
    40
100
AcDbLine
 10
16.3584118095917
 20
6.864112766539733
 30
0.0
 11
16.35816840959165
 21
6.863957966539715
 31
0.0
  0
LINE
  5
81
330
2
100
AcDbEntity
  8
GAIKEI
 62
     7
 48
0.003338
370
    40
100
AcDbLine
 10
16.38352600959166
 20
6.880098366539726
 30
0.0
 11
16.36099900959169
 21
6.865759566539736
 31
0.0
  0
LINE
  5
82
330
2
100
AcDbEntity
  8
GAIKEI
 62
     7
370
    40
100
AcDbLine
 10
3.0837674095917
 20
12.34831816653974
 30
0.0
 11
3.0837674095917
 21
6.948318166539735
 31
0.0
  0
ARC
  5
83
330
2
100
AcDbEntity
  8
GAIKEI
 62
     7
370
    40
100
AcDbCircle
 10
26.5837674095917
 20
17.13831816653973
 30
0.0
 40
0.1
100
AcDbArc
 50
0.0
 51
90.0
  0
LINE
  5
84
330
2
100
AcDbEntity
  8
GAIKEI
 62
     7
 48
0.012501
370
    40
100
AcDbLine
 10
26.48376080959167
 20
17.23831816653973
 30
0.0
 11
26.5837674095917
 21
17.23831816653973
 31
0.0
  0
LINE
  5
85
330
2
100
AcDbEntity
  8
GAIKEI
 62
     7
 48
0.003338
370
    40
100
AcDbLine
 10
16.38352560959168
 20
17.81653816653974
 30
0.0
 11
16.36100000959169
 21
17.83087616653972
 31
0.0
  0
LINE
  5
86
330
2
100
AcDbEntity
  8
GAIKEI
 62
     7
 48
0.007455
370
    40
100
AcDbLine
 10
16.43346960959167
 20
17.78526656653972
 30
0.0
 11
16.38292300959165
 21
17.81692156653972
 31
0.0
  0
ARC
  5
87
330
2
100
AcDbEntity
  8
GAIKEI
 62
     7
370
    40
100
AcDbCircle
 10
19.20415000959167
 20
22.26478656653973
 30
0.0
 40
5.267140600000001
100
AcDbArc
 50
238.2566739999992
 51
239.5743489999999
  0
ARC
  5
88
330
2
100
AcDbEntity
  8
GAIKEI
 62
     7
370
    40
100
AcDbCircle
 10
19.04075520959168
 20
21.98855276653973
 30
0.0
 40
4.946197399999999
100
AcDbArc
 50
239.5859690000003
 51
240.9640030000009
  0
ARC
  5
89
330
2
100
AcDbEntity
  8
GAIKEI
 62
     7
370
    40
100
AcDbCircle
 10
18.87690520959165
 20
21.69644516653972
 30
0.0
 40
4.6112732
100
AcDbArc
 50
240.9823830000014
 51
242.4674810000003
  0
ARC
  5
8A
330
2
100
AcDbEntity
  8
GAIKEI
 62
     7
370
    40
100
AcDbCircle
 10
18.61229380959168
 20
21.18534256653973
 30
0.0
 40
4.035705
100
AcDbArc
 50
242.4445589999991
 51
245.8296689999994
  0
ARC
  5
8B
330
2
100
AcDbEntity
  8
GAIKEI
 62
     7
370
    40
100
AcDbCircle
 10
18.45894860959169
 20
20.85040616653973
 30
0.0
 40
3.667320999999999
100
AcDbArc
 50
245.8728179999992
 51
247.735770999999
  0
ARC
  5
8C
330
2
100
AcDbEntity
  8
GAIKEI
 62
     7
370
    40
100
AcDbCircle
 10
18.36198520959169
 20
20.61564356653972
 30
0.0
 40
3.413320999999999
100
AcDbArc
 50
247.7489979999992
 51
249.7533829999991
  0
ARC
  5
8D
330
2
100
AcDbEntity
  8
GAIKEI
 62
     7
370
    40
100
AcDbCircle
 10
18.2531242095917
 20
20.31593016653971
 30
0.0
 40
3.094454199999999
100
AcDbArc
 50
249.7240520000011
 51
254.1387059999987
  0
ARC
  5
8E
330
2
100
AcDbEntity
  8
GAIKEI
 62
     7
370
    40
100
AcDbCircle
 10
18.18962060959165
 20
20.10259576653973
 30
0.0
 40
2.871865999999999
100
AcDbArc
 50
254.1942849999987
 51
256.5773510000008
  0
ARC
  5
8F
330
2
100
AcDbEntity
  8
GAIKEI
 62
     7
370
    40
100
AcDbCircle
 10
18.1458892095917
 20
19.91885396653973
 30
0.0
 40
2.682991599999999
100
AcDbArc
 50
256.574882999999
 51
259.1206930000004
  0
ARC
  5
90
330
2
100
AcDbEntity
  8
GAIKEI
 62
     7
370
    40
100
AcDbCircle
 10
18.12964700959168
 20
19.83465556653974
 30
0.0
 40
2.5972412
100
AcDbArc
 50
259.1219839999993
 51
264.3822990000014
  0
LINE
  5
91
330
2
100
AcDbEntity
  8
GAIKEI
 62
     7
370
    40
100
AcDbLine
 10
26.68376740959167
 20
7.55831816653972
 30
0.0
 11
26.68376740959167
 21
17.13831816653973
 31
0.0
  0
LINE
  5
92
330
2
100
AcDbEntity
  8
GAIKEI
 62
     7
370
    40
100
AcDbLine
 10
3.0837674095917
 20
17.74831816653972
 30
0.0
 11
3.0837674095917
 21
12.34831816653974
 31
0.0
  0
LINE
  5
93
330
2
100
AcDbEntity
  8
GAIKEI
 62
     1
370
    13
100
AcDbLine
 10
3.183767409591666
 20
12.34831816653974
 30
0.0
 11
3.183767409591666
 21
6.848318166539741
 31
0.0
  0
LINE
  5
94
330
2
100
AcDbEntity
  8
GAIKEI
 62
     1
370
    13
100
AcDbLine
 10
26.48376740959168
 20
12.34831816653974
 30
0.0
 11
26.48376740959168
 21
7.46961436653973
 31
0.0
  0
ARC
  5
95
330
2
100
AcDbEntity
  8
GAIKEI
 62
     7
370
    40
100
AcDbCircle
 10
18.11359440959165
 20
19.69649716653973
 30
0.0
 40
2.4581612
100
AcDbArc
 50
264.4394319999988
 51
267.2116390000012
  0
LINE
  5
96
330
2
100
AcDbEntity
  8
GAIKEI
 62
     7
 48
0.001412
370
    13
100
AcDbLine
 10
26.48376080959167
 20
17.23831816653973
 30
0.0
 11
26.48376740959168
 21
17.22702196653972
 31
0.0
  0
LINE
  5
97
330
2
100
AcDbEntity
  8
GAIKEI
 62
     7
370
    40
100
AcDbLine
 10
26.48376080959167
 20
17.23831816653973
 30
0.0
 11
18.68376740959167
 21
17.23831816653973
 31
0.0
  0
LINE
  5
98
330
2
100
AcDbEntity
  8
GAIKEI
 62
     7
 48
0.145914
370
    13
100
AcDbLine
 10
5.004354009591679
 20
17.84336676653973
 30
0.0
 11
3.837045609591655
 21
17.84336676653973
 31
0.0
  0
ARC
  5
99
330
2
100
AcDbEntity
  8
GAIKEI
 62
     7
370
    13
100
AcDbCircle
 10
5.014511609591693
 20
22.39292676653972
 30
0.0
 40
4.549514
100
AcDbArc
 50
269.8712319999984
 51
272.6344060000005
  0
ARC
  5
9A
330
2
100
AcDbEntity
  8
GAIKEI
 62
     7
370
    13
100
AcDbCircle
 10
3.826897809591685
 20
22.39343576653974
 30
0.0
 40
4.550022799999999
100
AcDbArc
 50
267.3717170000012
 51
270.128627999999
  0
LINE
  5
9B
330
2
100
AcDbEntity
  8
GAIKEI
 62
     1
370
    13
100
AcDbLine
 10
26.48376740959168
 20
17.22702196653972
 30
0.0
 11
26.48376740959168
 21
12.34831816653974
 31
0.0
  0
LINE
  5
9C
330
2
100
AcDbEntity
  8
GAIKEI
 62
     1
370
    13
100
AcDbLine
 10
3.183767409591666
 20
17.84831816653974
 30
0.0
 11
3.183767409591666
 21
12.34831816653974
 31
0.0
  0
ARC
  5
9D
330
2
100
AcDbEntity
  8
GAIKEI
 62
     7
370
    40
100
AcDbCircle
 10
18.1135744095917
 20
19.68465436653971
 30
0.0
 40
2.4463348
100
AcDbArc
 50
267.1986129999984
 51
270.0005349999985
  0
LINE
  5
9E
330
2
100
AcDbEntity
  8
GAIKEI
 62
     7
 48
0.071271
370
    40
100
AcDbLine
 10
18.68376740959167
 20
17.23831956653973
 30
0.0
 11
18.11359720959172
 21
17.23831956653973
 31
0.0
  0
LINE
  5
9F
330
2
100
AcDbEntity
  8
GAIKEI
 62
     7
370
    40
100
AcDbLine
 10
2.424276809591674
 20
17.09831816653974
 30
0.0
 11
2.424276809591674
 21
7.598318166539741
 31
0.0
  0
ARC
  5
A0
330
2
100
AcDbEntity
  8
GAIKEI
 62
     7
370
    40
100
AcDbCircle
 10
6.184276809591665
 20
17.09831816653974
 30
0.0
 40
3.76
100
AcDbArc
 50
173.6892040000008
 51
180.0
  0
ARC
  5
A1
330
2
100
AcDbEntity
  8
GAIKEI
 62
     7
370
    40
100
AcDbCircle
 10
6.184276809591665
 20
7.598318166539741
 30
0.0
 40
3.76
100
AcDbArc
 50
180.0
 51
186.3107959999991
  0
ARC
  5
A2
330
2
100
AcDbEntity
  8
GAIKEI
 62
     7
370
    40
100
AcDbCircle
 10
2.546455409591658
 20
17.50063116653973
 30
0.0
 40
0.1
100
AcDbArc
 50
113.6401190000009
 51
173.6892040000008
  0
ARC
  5
A3
330
2
100
AcDbEntity
  8
GAIKEI
 62
     7
370
    40
100
AcDbCircle
 10
2.546455409591658
 20
7.19600516653972
 30
0.0
 40
0.1
100
AcDbArc
 50
186.3107959999991
 51
246.359880999999
  0
ARC
  5
A4
330
2
100
AcDbEntity
  8
GAIKEI
 62
     7
370
    40
100
AcDbCircle
 10
3.31635740959166
 20
15.74175336653974
 30
0.0
 40
2.02
100
AcDbArc
 50
96.61190300000029
 51
113.6401190000009
  0
ARC
  5
A5
330
2
100
AcDbEntity
  8
GAIKEI
 62
     7
370
    40
100
AcDbCircle
 10
3.31635740959166
 20
8.954882966539742
 30
0.0
 40
2.02
100
AcDbArc
 50
246.359880999999
 51
263.3880969999997
  0
LINE
  5
A6
330
2
100
AcDbEntity
  8
GAIKEI
 62
     1
370
    13
100
AcDbLine
 10
2.50635640959166
 20
17.59223936653973
 30
0.0
 11
2.50635640959166
 21
7.746344366539716
 31
0.0
  0
LINE
  5
A7
330
2
100
AcDbEntity
  8
GAIKEI
 62
     1
370
    40
100
AcDbLine
 10
3.0837674095917
 20
17.74831816653972
 30
0.0
 11
3.0837674095917
 21
7.60937236653973
 31
0.0
  0
LINE
  5
A8
330
2
100
AcDbEntity
  8
GAIKEI
 62
     1
 48
0.080243
370
    13
100
AcDbLine
 10
2.50635640959166
 20
7.746344366539716
 30
0.0
 11
2.50635640959166
 21
7.104396966539724
 31
0.0
  0
LINE
  5
A9
330
2
100
AcDbEntity
  8
GAIKEI
 62
     1
 48
0.082632
370
    40
100
AcDbLine
 10
3.0837674095917
 20
7.60937236653973
 30
0.0
 11
3.0837674095917
 21
6.948318166539735
 31
0.0
  0
LINE
  5
AA
330
2
100
AcDbEntity
  8
GAIKEI
 62
     1
 48
0.001819
370
    40
100
AcDbLine
 10
-23.92193919049345
 20
17.92306356653972
 30
0.0
 11
-23.90741519049345
 21
17.92216616653974
 31
0.0
  0
ARC
  5
AB
330
2
100
AcDbEntity
  8
GAIKEI
 62
     1
370
    40
100
AcDbCircle
 10
-24.06512759049344
 20
17.83363376653972
 30
0.0
 40
0.089447
100
AcDbArc
 50
88.54417600000058
 51
98.18317299999865
  0
ARC
  5
AC
330
2
100
AcDbEntity
  8
GAIKEI
 62
     1
370
    40
100
AcDbCircle
 10
-24.21287519049343
 20
17.93462636653973
 30
0.0
 40
0.0901082
100
AcDbArc
 50
271.2378009999991
 51
291.0822639999997
  0
ARC
  5
AD
330
2
100
AcDbEntity
  8
GAIKEI
 62
     1
370
    40
100
AcDbCircle
 10
-23.91936399049348
 20
17.84306356653974
 30
0.0
 40
0.08
100
AcDbArc
 50
33.83063900000049
 51
81.41012199999929
  0
LINE
  5
AE
330
2
100
AcDbEntity
  8
GAIKEI
 62
     1
 48
0.017614
370
    40
100
AcDbLine
 10
-24.06285479049348
 20
17.92306356653972
 30
0.0
 11
-23.92193919049345
 21
17.92306356653972
 31
0.0
  0
ARC
  5
AF
330
2
100
AcDbEntity
  8
GAIKEI
 62
     1
370
    40
100
AcDbCircle
 10
-24.06590999049348
 20
17.84306356653974
 30
0.0
 40
0.08
100
AcDbArc
 50
98.58987800000072
 51
145.7057009999989
  0
ARC
  5
B0
330
2
100
AcDbEntity
  8
GAIKEI
 62
     1
370
    13
100
AcDbCircle
 10
-24.00195419049345
 20
12.93050056653973
 30
0.0
 40
4.959344999999999
100
AcDbArc
 50
88.27780599999897
 51
91.50263000000078
  0
ARC
  5
B1
330
2
100
AcDbEntity
  8
GAIKEI
 62
     1
370
    40
100
AcDbCircle
 10
-24.21461779049344
 20
17.94448336653974
 30
0.0
 40
0.1
100
AcDbArc
 50
289.9822400000016
 51
325.7057060000009
  0
ARC
  5
B2
330
2
100
AcDbEntity
  8
GAIKEI
 62
     1
370
    40
100
AcDbCircle
 10
-23.76984039049347
 20
17.94327676653972
 30
0.0
 40
0.1
100
AcDbArc
 50
213.8306390000005
 51
267.5686030000008
  0
CIRCLE
  5
B3
330
2
100
AcDbEntity
  8
GAIKEI
 62
     7
370
    40
100
AcDbCircle
 10
-24.00740999049344
 20
12.34831816653974
 30
0.0
 40
5.5
  0
CIRCLE
  5
B4
330
2
100
AcDbEntity
  8
GAIKEI
 62
     1
370
    40
100
AcDbCircle
 10
-24.00740999049344
 20
12.34831816653974
 30
0.0
 40
1.2
  0
CIRCLE
  5
B5
330
2
100
AcDbEntity
  8
GAIKEI
 62
     1
370
    40
100
AcDbCircle
 10
-24.00740999049344
 20
12.34831816653974
 30
0.0
 40
1.4
  0
ARC
  5
B6
330
2
100
AcDbEntity
  8
GAIKEI
 62
     1
370
    40
100
AcDbCircle
 10
-24.00740999049344
 20
12.34831816653974
 30
0.0
 40
1.88
100
AcDbArc
 50
3.049086999999355
 51
176.9509130000006
  0
ARC
  5
B7
330
2
100
AcDbEntity
  8
GAIKEI
 62
     1
370
    40
100
AcDbCircle
 10
-24.00740999049344
 20
12.34831816653974
 30
0.0
 40
1.88
100
AcDbArc
 50
183.0490869999993
 51
356.9509130000007
  0
ARC
  5
B8
330
2
100
AcDbEntity
  8
GAIKEI
 62
     1
370
    40
100
AcDbCircle
 10
-24.00740999049344
 20
12.34831816653974
 30
0.0
 40
1.7
100
AcDbArc
 50
356.6277130000002
 51
118.6478900000015
  0
LINE
  5
B9
330
2
100
AcDbEntity
  8
GAIKEI
 62
     1
 48
0.045064
370
    40
100
AcDbLine
 10
-22.31035379049348
 20
12.24831816653972
 30
0.0
 11
-21.94983859049347
 21
12.24831816653972
 31
0.0
  0
LINE
  5
BA
330
2
100
AcDbEntity
  8
GAIKEI
 62
     1
 48
0.045064
370
    40
100
AcDbLine
 10
-22.31035379049348
 20
12.44831816653973
 30
0.0
 11
-21.94983859049347
 21
12.44831816653973
 31
0.0
  0
ARC
  5
BB
330
2
100
AcDbEntity
  8
GAIKEI
 62
     1
370
    40
100
AcDbCircle
 10
-24.00740999049344
 20
12.34831816653974
 30
0.0
 40
1.98
100
AcDbArc
 50
2.894957999999416
 51
177.1050420000005
  0
ARC
  5
BC
330
2
100
AcDbEntity
  8
GAIKEI
 62
     1
370
    40
100
AcDbCircle
 10
-24.00740999049344
 20
12.34831816653974
 30
0.0
 40
1.7
100
AcDbArc
 50
118.6478900000015
 51
356.6277130000002
  0
LINE
  5
BD
330
2
100
AcDbEntity
  8
GAIKEI
 62
     1
 48
0.045064
370
    40
100
AcDbLine
 10
-25.70446619049346
 20
12.44831816653973
 30
0.0
 11
-26.06498139049347
 21
12.44831816653973
 31
0.0
  0
LINE
  5
BE
330
2
100
AcDbEntity
  8
GAIKEI
 62
     1
 48
0.045064
370
    40
100
AcDbLine
 10
-25.70446619049346
 20
12.24831816653972
 30
0.0
 11
-26.06498139049347
 21
12.24831816653972
 31
0.0
  0
LINE
  5
BF
330
2
100
AcDbEntity
  8
GAIKEI
 62
     1
 48
0.005006
370
    40
100
AcDbLine
 10
-21.94983859049347
 20
12.44831816653973
 30
0.0
 11
-21.90979239049346
 21
12.44831816653973
 31
0.0
  0
ARC
  5
C0
330
2
100
AcDbEntity
  8
GAIKEI
 62
     1
370
    40
100
AcDbCircle
 10
-24.00740999049344
 20
12.34831816653974
 30
0.0
 40
2.06
100
AcDbArc
 50
357.2175580000001
 51
2.782441999999866
  0
LINE
  5
C1
330
2
100
AcDbEntity
  8
GAIKEI
 62
     1
 48
0.005006
370
    40
100
AcDbLine
 10
-21.94983859049347
 20
12.24831816653972
 30
0.0
 11
-21.90979239049346
 21
12.24831816653972
 31
0.0
  0
ARC
  5
C2
330
2
100
AcDbEntity
  8
GAIKEI
 62
     1
370
    40
100
AcDbCircle
 10
-24.00740999049344
 20
12.34831816653974
 30
0.0
 40
2.06
100
AcDbArc
 50
177.2175580000001
 51
182.7824419999999
  0
LINE
  5
C3
330
2
100
AcDbEntity
  8
GAIKEI
 62
     1
 48
0.005006
370
    40
100
AcDbLine
 10
-26.06498139049347
 20
12.44831816653973
 30
0.0
 11
-26.10502759049348
 21
12.44831816653973
 31
0.0
  0
LINE
  5
C4
330
2
100
AcDbEntity
  8
GAIKEI
 62
     1
 48
0.005006
370
    40
100
AcDbLine
 10
-26.06498139049347
 20
12.24831816653972
 30
0.0
 11
-26.10502759049348
 21
12.24831816653972
 31
0.0
  0
CIRCLE
  5
C5
330
2
100
AcDbEntity
  8
GAIKEI
 62
     1
370
    40
100
AcDbCircle
 10
-24.00740999049344
 20
12.34831816653974
 30
0.0
 40
2.239999999999999
  0
CIRCLE
  5
C6
330
2
100
AcDbEntity
  8
GAIKEI
 62
     1
370
    40
100
AcDbCircle
 10
-24.00740999049344
 20
12.34831816653974
 30
0.0
 40
3.5
  0
CIRCLE
  5
C7
330
2
100
AcDbEntity
  8
GAIKEI
 62
     1
370
    40
100
AcDbCircle
 10
-24.00740999049344
 20
12.34831816653974
 30
0.0
 40
3.74
  0
CIRCLE
  5
C8
330
2
100
AcDbEntity
  8
GAIKEI
 62
     1
370
    40
100
AcDbCircle
 10
-24.00740999049344
 20
12.34831816653974
 30
0.0
 40
4.1399566
  0
CIRCLE
  5
C9
330
2
100
AcDbEntity
  8
GAIKEI
 62
     1
370
    40
100
AcDbCircle
 10
-24.00740999049344
 20
12.34831816653974
 30
0.0
 40
4.28
  0
CIRCLE
  5
CA
330
2
100
AcDbEntity
  8
GAIKEI
 62
     1
370
    13
100
AcDbCircle
 10
-24.00740999049344
 20
12.34831816653974
 30
0.0
 40
5.163305199999999
  0
CIRCLE
  5
CB
330
2
100
AcDbEntity
  8
GAIKEI
 62
   251
370
    40
100
AcDbCircle
 10
-24.00740999049344
 20
12.34831816653974
 30
0.0
 40
5.4
  0
LINE
  5
CC
330
2
100
AcDbEntity
  8
GAIKEI
 62
     1
 48
0.0375
370
    40
100
AcDbLine
 10
2.12295120959169
 20
17.84947176653972
 30
0.0
 11
2.422951209591701
 21
17.84947176653972
 31
0.0
  0
LINE
  5
CD
330
2
100
AcDbEntity
  8
GAIKEI
 62
     1
370
    40
100
AcDbLine
 10
2.422951209591701
 20
6.849471766539721
 30
0.0
 11
2.422951209591701
 21
17.84947176653972
 31
0.0
  0
LINE
  5
CE
330
2
100
AcDbEntity
  8
GAIKEI
 62
     1
 48
0.0375
370
    40
100
AcDbLine
 10
2.422951209591701
 20
6.849471766539721
 30
0.0
 11
2.12295120959169
 21
6.849471766539721
 31
0.0
  0
LINE
  5
CF
330
2
100
AcDbEntity
  8
GAIKEI
 62
     1
370
    40
100
AcDbLine
 10
2.12295120959169
 20
17.84947176653972
 30
0.0
 11
2.12295120959169
 21
6.849471766539721
 31
0.0
  0
TEXT
  5
D0
330
2
100
AcDbEntity
  8
TOUROKU
100
AcDbText
 10
48.09116258233683
 20
36.89944307060819
 30
0.0
 40
2.0
  1
ＤＧＳＰ１０２
 72
     2
 11
64.09116258233684
 21
36.89944307060819
 31
0.0
100
AcDbText
  0
TEXT
  5
D2
330
2
100
AcDbEntity
  8
MOJI1
100
AcDbText
 10
-18.40878745059058
 20
-65.10055692939184
 30
0.0
 40
3.0
  1
ＶＭＤアラーム（４箇所）
 41
0.75
100
AcDbText
  0
TEXT
  5
D3
330
2
100
AcDbEntity
  8
MOJI1
100
AcDbText
 10
-18.40878745059058
 20
-60.10055692939184
 30
0.0
 40
3.0
  1
暗部補正、簡易白黒切換、フリッカレス、プライバシーゾーン（２箇所）、
 41
0.6800000000000001
100
AcDbText
  0
TEXT
  5
D4
330
2
100
AcDbEntity
  8
MOJI1
100
AcDbText
 10
-58.40878745059058
 20
-60.10055692939184
 30
0.0
 40
3.0
  1
機　能
100
AcDbText
  0
LINE
  5
D5
330
2
100
AcDbEntity
  8
WAKU
 62
     4
100
AcDbLine
 10
64.09121254940931
 20
-16.1005569293919
 30
0.0
 11
64.09121254940931
 21
-66.1005569293919
 31
0.0
  0
LINE
  5
D7
330
2
100
AcDbEntity
  8
WAKU
 62
     4
100
AcDbLine
 10
-20.90878745059061
 20
-16.1005569293919
 30
0.0
 11
-20.90878745059061
 21
-66.1005569293919
 31
0.0
  0
TEXT
  5
D8
330
2
100
AcDbEntity
  8
MOJI1
100
AcDbText
 10
-58.40878745059061
 20
-20.1005569293919
 30
0.0
 40
3.0
  1
電　源
100
AcDbText
  0
TEXT
  5
D9
330
2
100
AcDbEntity
  8
MOJI1
100
AcDbText
 10
-18.40878745059061
 20
-20.1005569293919
 30
0.0
 40
3.0
  1
ＤＣ１２Ｖ、ＰｏＥ（ＩＥＥＥ８０２．３ａｆ準拠）
 41
0.95
100
AcDbText
  0
LINE
  5
DA
330
2
100
AcDbEntity
  8
WAKU
 62
     4
100
AcDbLine
 10
-60.90878745059061
 20
-16.1005569293919
 30
0.0
 11
-60.90878745059061
 21
-66.1005569293919
 31
0.0
  0
LINE
  5
DB
330
2
100
AcDbEntity
  8
WAKU
 62
     1
100
AcDbLine
 10
-60.90878745059061
 20
-31.1005569293919
 30
0.0
 11
64.09121254940931
 21
-31.1005569293919
 31
0.0
  0
LINE
  5
DC
330
2
100
AcDbEntity
  8
WAKU
 62
     1
100
AcDbLine
 10
-60.90878745059061
 20
-36.1005569293919
 30
0.0
 11
64.09121254940931
 21
-36.1005569293919
 31
0.0
  0
LINE
  5
DD
330
2
100
AcDbEntity
  8
WAKU
 62
     4
100
AcDbLine
 10
64.09121254940931
 20
-66.1005569293919
 30
0.0
 11
-60.90878745059061
 21
-66.1005569293919
 31
0.0
  0
LINE
  5
DE
330
2
100
AcDbEntity
  8
WAKU
 62
     4
100
AcDbLine
 10
-60.90878745059061
 20
-16.1005569293919
 30
0.0
 11
64.09121254940931
 21
-16.1005569293919
 31
0.0
  0
LINE
  5
DF
330
2
100
AcDbEntity
  8
WAKU
 62
     1
100
AcDbLine
 10
-60.90878745059061
 20
-21.1005569293919
 30
0.0
 11
64.09121254940931
 21
-21.1005569293919
 31
0.0
  0
LINE
  5
E0
330
2
100
AcDbEntity
  8
WAKU
 62
     1
100
AcDbLine
 10
-60.90878745059061
 20
-26.1005569293919
 30
0.0
 11
64.09121254940931
 21
-26.1005569293919
 31
0.0
  0
TEXT
  5
E1
330
2
100
AcDbEntity
  8
MOJI1
100
AcDbText
 10
-18.40878745059061
 20
-25.1005569293919
 30
0.0
 40
3.0
  1
１／５型　ＭＯＳセンター
 41
0.9
100
AcDbText
  0
TEXT
  5
E2
330
2
100
AcDbEntity
  8
MOJI1
100
AcDbText
 10
-58.40878745059061
 20
-25.1005569293919
 30
0.0
 40
3.0
  1
撮像素子
100
AcDbText
  0
TEXT
  5
E3
330
2
100
AcDbEntity
  8
MOJI1
100
AcDbText
 10
-58.40878745059061
 20
-30.1005569293919
 30
0.0
 40
3.0
  1
有効画素数
100
AcDbText
  0
TEXT
  5
E4
330
2
100
AcDbEntity
  8
MOJI1
100
AcDbText
 10
-18.40878745059061
 20
-30.1005569293919
 30
0.0
 40
3.0
  1
約３２万画素
100
AcDbText
  0
TEXT
  5
E5
330
2
100
AcDbEntity
  8
MOJI1
100
AcDbText
 10
-58.40878745059061
 20
-35.1005569293919
 30
0.0
 40
3.0
  1
最低照度
100
AcDbText
  0
TEXT
  5
E6
330
2
100
AcDbEntity
  8
MOJI1
100
AcDbText
 10
-18.40878745059061
 20
-35.1005569293919
 30
0.0
 40
3.0
  1
カラー１．５ｌｘ、白黒０．８ｌｘ（Ｆ２．８）
 41
0.85
100
AcDbText
  0
TEXT
  5
E7
330
2
100
AcDbEntity
  8
MOJI1
100
AcDbText
 10
-58.40878745059061
 20
-40.10055692939189
 30
0.0
 40
3.0
  1
ネットワーク
100
AcDbText
  0
TEXT
  5
E8
330
2
100
AcDbEntity
  8
MOJI1
100
AcDbText
 10
-18.40878745059061
 20
-40.10055692939189
 30
0.0
 40
3.0
  1
１０ＢＡＳＥ－Ｔ／１００ＢＡＳＥ－ＴＸ、ＲＪ４５コネクター
 41
0.75
100
AcDbText
  0
LINE
  5
E9
330
2
100
AcDbEntity
  8
WAKU
 62
     1
100
AcDbLine
 10
-60.90878745059061
 20
-41.1005569293919
 30
0.0
 11
64.09121254940931
 21
-41.1005569293919
 31
0.0
  0
TEXT
  5
EA
330
2
100
AcDbEntity
  8
MOJI1
100
AcDbText
 10
-18.40878745059061
 20
-55.10055692939189
 30
0.0
 40
3.0
  1
ＴＣＰ／ＩＰ、ＵＤＰ／ＩＰ、ＨＴＴＰ、ＲＴＰ、ＦＴＰ、ＳＭＴＰ、ＤＮＳ、ＮＴＰ、ＳＮＭＰ
 41
0.51
100
AcDbText
  0
TEXT
  5
EB
330
2
100
AcDbEntity
  8
MOJI1
100
AcDbText
 10
-58.40878745059061
 20
-55.10055692939189
 30
0.0
 40
3.0
  1
対応プロコトル
100
AcDbText
  0
LINE
  5
EC
330
2
100
AcDbEntity
  8
WAKU
 62
     1
100
AcDbLine
 10
-60.90878745059061
 20
-56.1005569293919
 30
0.0
 11
64.09121254940931
 21
-56.1005569293919
 31
0.0
  0
LINE
  5
ED
330
2
100
AcDbEntity
  8
WAKU
 62
     1
100
AcDbLine
 10
-60.90878745059061
 20
-61.1005569293919
 30
0.0
 11
64.09121254940931
 21
-61.1005569293919
 31
0.0
  0
LINE
  5
EE
330
2
100
AcDbEntity
  8
WAKU
 62
     1
100
AcDbLine
 10
-60.90878745059061
 20
-46.1005569293919
 30
0.0
 11
64.09121254940931
 21
-46.1005569293919
 31
0.0
  0
TEXT
  5
EF
330
2
100
AcDbEntity
  8
MOJI1
100
AcDbText
 10
-18.40878745059061
 20
-45.10055692939189
 30
0.0
 40
3.0
  1
ＶＧＡ（６４０×４８０）／ＱＶＧＡ（３２０×２４０）
 41
0.7800000000000001
100
AcDbText
  0
TEXT
  5
F0
330
2
100
AcDbEntity
  8
MOJI1
100
AcDbText
 10
-58.40878745059061
 20
-50.10055692939189
 30
0.0
 40
3.0
  1
画像圧縮方式
100
AcDbText
  0
LINE
  5
F1
330
2
100
AcDbEntity
  8
WAKU
 62
     1
100
AcDbLine
 10
-60.90878745059061
 20
-51.1005569293919
 30
0.0
 11
64.09121254940931
 21
-51.1005569293919
 31
0.0
  0
TEXT
  5
F2
330
2
100
AcDbEntity
  8
MOJI1
100
AcDbText
 10
-18.40878745059061
 20
-50.10055692939189
 30
0.0
 40
3.0
  1
Ｈ２６４／ＪＰＥＧ
 41
0.75
100
AcDbText
  0
TEXT
  5
F3
330
2
100
AcDbEntity
  8
MOJI1
100
AcDbText
 10
-58.40878745059061
 20
-45.10055692939189
 30
0.0
 40
3.0
  1
画像解像度
100
AcDbText
  0
ENDSEC
  0
SECTION
  2
OBJECTS
  0
DICTIONARY
  5
7
330
0
100
AcDbDictionary
281
     1
  3
ACAD_COLOR
350
2C
  3
ACAD_GROUP
350
28
  3
ACAD_LAYOUT
350
B
  3
ACAD_MATERIAL
350
2B
  3
ACAD_MLINESTYLE
350
29
  3
ACAD_PLOTSETTINGS
350
2A
  3
ACAD_PLOTSTYLENAME
350
6
  3
ACDBHEADERROUNDTRIPXREC
350
130
  3
AcDbVariableDictionary
350
12B
  0
DICTIONARY
  5
11
330
10
100
AcDbDictionary
280
     1
281
     1
  3
ACAD_LAYERSTATES
360
12
  0
DICTIONARY
  5
2C
102
{ACAD_REACTORS
330
7
102
}
330
7
100
AcDbDictionary
281
     1
  0
DICTIONARY
  5
28
102
{ACAD_REACTORS
330
7
102
}
330
7
100
AcDbDictionary
281
     1
  0
DICTIONARY
  5
B
102
{ACAD_REACTORS
330
7
102
}
330
7
100
AcDbDictionary
281
     1
  3
Model
350
A
  3
レイアウト1
350
F
  0
DICTIONARY
  5
2B
102
{ACAD_REACTORS
330
7
102
}
330
7
100
AcDbDictionary
281
     1
  0
DICTIONARY
  5
29
102
{ACAD_REACTORS
330
7
102
}
330
7
100
AcDbDictionary
281
     1
  3
Standard
350
2E
  0
DICTIONARY
  5
2A
102
{ACAD_REACTORS
330
7
102
}
330
7
100
AcDbDictionary
281
     1
  0
ACDBDICTIONARYWDFLT
  5
6
102
{ACAD_REACTORS
330
7
102
}
330
7
100
AcDbDictionary
281
     1
  3
Normal
350
5
100
AcDbDictionaryWithDefault
340
5
  0
DICTIONARY
  5
130
102
{ACAD_REACTORS
330
7
102
}
330
7
100
AcDbDictionary
281
     1
  3
COLORDICT
350
132
  3
MATERIALDICT
350
131
  0
DICTIONARY
  5
12B
102
{ACAD_REACTORS
330
7
102
}
330
7
100
AcDbDictionary
281
     1
  3
DIMASSOC
350
12D
  3
HIDETEXT
350
12C
  3
PROJECTNAME
350
12E
  0
DICTIONARY
  5
12
102
{ACAD_REACTORS
330
11
102
}
330
11
100
AcDbDictionary
281
     1
  0
LAYOUT
  5
A
102
{ACAD_XDICTIONARY
360
133
102
}
102
{ACAD_REACTORS
330
B
102
}
330
B
100
AcDbPlotSettings
  1

  2
いきなりPDF Professional
  4
A4
  6

 40
3.174999952316284
 41
3.174999952316284
 42
3.175003051757812
 43
3.17498779296875
 44
209.9733276367187
 45
297.0106506347656
 46
6.32
 47
0.0
 48
0.0
 49
0.0
140
0.0
141
0.0
142
1.0
143
1.35643967871148
 70
 11956
 72
     1
 73
     0
 74
     1
  7
tmsacad.ctb
 75
     0
147
0.7372240842658981
148
0.0256332569354072
149
0.0240599051811614
100
AcDbLayout
  1
Model
 70
     1
 71
     0
 10
0.0
 20
0.0
 11
12.0
 21
9.0
 12
0.0
 22
0.0
 32
0.0
 14
0.0
 24
0.0
 34
0.0
 15
0.0
 25
0.0
 35
0.0
146
0.0
 13
0.0
 23
0.0
 33
0.0
 16
1.0
 26
0.0
 36
0.0
 17
0.0
 27
1.0
 37
0.0
 76
     0
330
2
  0
LAYOUT
  5
F
102
{ACAD_XDICTIONARY
360
135
102
}
102
{ACAD_REACTORS
330
B
102
}
330
B
100
AcDbPlotSettings
  1

  2
None
  4

  6

 40
0.0
 41
0.0
 42
0.0
 43
0.0
 44
0.0
 45
0.0
 46
0.0
 47
0.0
 48
0.0
 49
0.0
140
0.0
141
0.0
142
1.0
143
1.0
 70
   688
 72
     0
 73
     0
 74
     5
  7
tmsacad.ctb
 75
    16
147
1.0
148
0.0
149
0.0
100
AcDbLayout
  1
レイアウト1
 70
     1
 71
     1
 10
0.0
 20
0.0
 11
12.0
 21
9.0
 12
0.0
 22
0.0
 32
0.0
 14
0.0
 24
0.0
 34
0.0
 15
0.0
 25
0.0
 35
0.0
146
0.0
 13
0.0
 23
0.0
 33
0.0
 16
1.0
 26
0.0
 36
0.0
 17
0.0
 27
1.0
 37
0.0
 76
     0
330
C
  0
MLINESTYLE
  5
2E
102
{ACAD_REACTORS
330
29
102
}
330
29
100
AcDbMlineStyle
  2
STANDARD
 70
     0
  3

 62
   256
 51
90.0
 52
90.0
 71
     2
 49
0.5
 62
   256
  6
BYLAYER
 49
-0.5
 62
   256
  6
BYLAYER
  0
ACDBPLACEHOLDER
  5
5
102
{ACAD_REACTORS
330
6
102
}
330
6
  0
XRECORD
  5
132
102
{ACAD_REACTORS
330
130
102
}
330
130
100
AcDbXrecord
280
     1
340
2C
  0
XRECORD
  5
131
102
{ACAD_REACTORS
330
130
102
}
330
130
100
AcDbXrecord
280
     1
340
2B
  0
DICTIONARYVAR
  5
12D
102
{ACAD_REACTORS
330
12B
102
}
330
12B
100
DictionaryVariables
280
     0
  1
1
  0
DICTIONARYVAR
  5
12C
102
{ACAD_REACTORS
330
12B
102
}
330
12B
100
DictionaryVariables
280
     0
  1
1
  0
DICTIONARYVAR
  5
12E
102
{ACAD_REACTORS
330
12B
102
}
330
12B
100
DictionaryVariables
280
     0
  1

  0
DICTIONARY
  5
133
330
A
100
AcDbDictionary
280
     1
281
     1
  3
ACAD_XREC_ROUNDTRIP
360
134
  0
DICTIONARY
  5
135
330
F
100
AcDbDictionary
280
     1
281
     1
  3
ACAD_XREC_ROUNDTRIP
360
136
  0
XRECORD
  5
134
102
{ACAD_REACTORS
330
133
102
}
330
133
100
AcDbXrecord
280
     1
102
SHADEPLOT
 70
     0
102
SHADEPLOTRESLEVEL
 70
     2
102
SHADEPLOTCUSTOMDPI
 70
   150
  0
XRECORD
  5
136
102
{ACAD_REACTORS
330
135
102
}
330
135
100
AcDbXrecord
280
     1
102
SHADEPLOT
 70
     0
102
SHADEPLOTRESLEVEL
 70
     2
102
SHADEPLOTCUSTOMDPI
 70
   300
  0
ENDSEC
  0
EOF
