  0
SECTION
  2
HEADER
  9
$ACADVER
  1
AC1015
  9
$ACADMAINTVER
 70
    20
  9
$DWGCODEPAGE
  3
ANSI_932
  9
$INSBASE
 10
0.4999999440410648
 20
372.5008351249344
 30
0.0
  9
$EXTMIN
 10
-55.06347564871362
 20
-69.68641601559522
 30
-0.0015258207003583
  9
$EXTMAX
 10
69.97009334383779
 20
43.06626931678772
 30
0.0000000349246037
  9
$LIMMIN
 10
0.0
 20
0.0
  9
$LIMMAX
 10
420.0
 20
297.0
  9
$ORTHOMODE
 70
     1
  9
$REGENMODE
 70
     0
  9
$FILLMODE
 70
     1
  9
$QTEXTMODE
 70
     0
  9
$MIRRTEXT
 70
     0
  9
$LTSCALE
 40
1.0
  9
$ATTMODE
 70
     1
  9
$TEXTSIZE
 40
2.5
  9
$TRACEWID
 40
1.0
  9
$TEXTSTYLE
  7
Standard
  9
$CLAYER
  8
MOJI1
  9
$CELTYPE
  6
ByLayer
  9
$CECOLOR
 62
   256
  9
$CELTSCALE
 40
1.0
  9
$DISPSILH
 70
     0
  9
$DIMSCALE
 40
1.0
  9
$DIMASZ
 40
2.0
  9
$DIMEXO
 40
2.0
  9
$DIMDLI
 40
8.0
  9
$DIMRND
 40
0.0
  9
$DIMDLE
 40
0.0
  9
$DIMEXE
 40
2.0
  9
$DIMTP
 40
0.0
  9
$DIMTM
 40
0.0
  9
$DIMTXT
 40
2.5
  9
$DIMCEN
 40
0.0
  9
$DIMTSZ
 40
0.0
  9
$DIMTOL
 70
     0
  9
$DIMLIM
 70
     0
  9
$DIMTIH
 70
     0
  9
$DIMTOH
 70
     0
  9
$DIMSE1
 70
     0
  9
$DIMSE2
 70
     0
  9
$DIMTAD
 70
     3
  9
$DIMZIN
 70
     0
  9
$DIMBLK
  1

  9
$DIMASO
 70
     1
  9
$DIMSHO
 70
     1
  9
$DIMPOST
  1

  9
$DIMAPOST
  1

  9
$DIMALT
 70
     0
  9
$DIMALTD
 70
     2
  9
$DIMALTF
 40
25.4
  9
$DIMLFAC
 40
1.0
  9
$DIMTOFL
 70
     1
  9
$DIMTVP
 40
0.0
  9
$DIMTIX
 70
     0
  9
$DIMSOXD
 70
     0
  9
$DIMSAH
 70
     1
  9
$DIMBLK1
  1
OPEN30
  9
$DIMBLK2
  1
OPEN30
  9
$DIMSTYLE
  2
STANDARD
  9
$DIMCLRD
 70
     0
  9
$DIMCLRE
 70
     0
  9
$DIMCLRT
 70
     0
  9
$DIMTFAC
 40
1.0
  9
$DIMGAP
 40
0.5
  9
$DIMJUST
 70
     0
  9
$DIMSD1
 70
     0
  9
$DIMSD2
 70
     0
  9
$DIMTOLJ
 70
     1
  9
$DIMTZIN
 70
     0
  9
$DIMALTZ
 70
     0
  9
$DIMALTTZ
 70
     0
  9
$DIMUPT
 70
     0
  9
$DIMDEC
 70
     4
  9
$DIMTDEC
 70
     4
  9
$DIMALTU
 70
     2
  9
$DIMALTTD
 70
     2
  9
$DIMTXSTY
  7
Standard
  9
$DIMAUNIT
 70
     0
  9
$DIMADEC
 70
     0
  9
$DIMALTRND
 40
0.0
  9
$DIMAZIN
 70
     0
  9
$DIMDSEP
 70
    46
  9
$DIMATFIT
 70
     3
  9
$DIMFRAC
 70
     0
  9
$DIMLDRBLK
  1
OPEN30
  9
$DIMLUNIT
 70
     2
  9
$DIMLWD
 70
    -2
  9
$DIMLWE
 70
    -2
  9
$DIMTMOVE
 70
     0
  9
$LUNITS
 70
     2
  9
$LUPREC
 70
     4
  9
$SKETCHINC
 40
1.0
  9
$FILLETRAD
 40
0.0
  9
$AUNITS
 70
     0
  9
$AUPREC
 70
     0
  9
$MENU
  1
.
  9
$ELEVATION
 40
0.0
  9
$PELEVATION
 40
0.0
  9
$THICKNESS
 40
0.0
  9
$LIMCHECK
 70
     0
  9
$CHAMFERA
 40
0.0
  9
$CHAMFERB
 40
0.0
  9
$CHAMFERC
 40
0.0
  9
$CHAMFERD
 40
0.0
  9
$SKPOLY
 70
     0
  9
$TDCREATE
 40
2454349.434269746
  9
$TDUCREATE
 40
2454349.059269746
  9
$TDUPDATE
 40
2455337.689085232
  9
$TDUUPDATE
 40
2455337.314085232
  9
$TDINDWG
 40
0.1082263426
  9
$TDUSRTIMER
 40
0.1082263426
  9
$USRTIMER
 70
     1
  9
$ANGBASE
 50
0.0
  9
$ANGDIR
 70
     0
  9
$PDMODE
 70
     0
  9
$PDSIZE
 40
0.0
  9
$PLINEWID
 40
0.0
  9
$SPLFRAME
 70
     0
  9
$SPLINETYPE
 70
     6
  9
$SPLINESEGS
 70
     8
  9
$HANDSEED
  5
374
  9
$SURFTAB1
 70
     6
  9
$SURFTAB2
 70
     6
  9
$SURFTYPE
 70
     6
  9
$SURFU
 70
     6
  9
$SURFV
 70
     6
  9
$UCSBASE
  2

  9
$UCSNAME
  2

  9
$UCSORG
 10
0.0
 20
0.0
 30
0.0
  9
$UCSXDIR
 10
1.0
 20
0.0
 30
0.0
  9
$UCSYDIR
 10
0.0
 20
1.0
 30
0.0
  9
$UCSORTHOREF
  2

  9
$UCSORTHOVIEW
 70
     0
  9
$UCSORGTOP
 10
0.0
 20
0.0
 30
0.0
  9
$UCSORGBOTTOM
 10
0.0
 20
0.0
 30
0.0
  9
$UCSORGLEFT
 10
0.0
 20
0.0
 30
0.0
  9
$UCSORGRIGHT
 10
0.0
 20
0.0
 30
0.0
  9
$UCSORGFRONT
 10
0.0
 20
0.0
 30
0.0
  9
$UCSORGBACK
 10
0.0
 20
0.0
 30
0.0
  9
$PUCSBASE
  2

  9
$PUCSNAME
  2

  9
$PUCSORG
 10
0.0
 20
0.0
 30
0.0
  9
$PUCSXDIR
 10
1.0
 20
0.0
 30
0.0
  9
$PUCSYDIR
 10
0.0
 20
1.0
 30
0.0
  9
$PUCSORTHOREF
  2

  9
$PUCSORTHOVIEW
 70
     0
  9
$PUCSORGTOP
 10
0.0
 20
0.0
 30
0.0
  9
$PUCSORGBOTTOM
 10
0.0
 20
0.0
 30
0.0
  9
$PUCSORGLEFT
 10
0.0
 20
0.0
 30
0.0
  9
$PUCSORGRIGHT
 10
0.0
 20
0.0
 30
0.0
  9
$PUCSORGFRONT
 10
0.0
 20
0.0
 30
0.0
  9
$PUCSORGBACK
 10
0.0
 20
0.0
 30
0.0
  9
$USERI1
 70
     0
  9
$USERI2
 70
     0
  9
$USERI3
 70
     0
  9
$USERI4
 70
     0
  9
$USERI5
 70
     0
  9
$USERR1
 40
0.0
  9
$USERR2
 40
0.0
  9
$USERR3
 40
0.0
  9
$USERR4
 40
0.0
  9
$USERR5
 40
0.0
  9
$WORLDVIEW
 70
     1
  9
$SHADEDGE
 70
     3
  9
$SHADEDIF
 70
    70
  9
$TILEMODE
 70
     1
  9
$MAXACTVP
 70
    64
  9
$PINSBASE
 10
0.0
 20
0.0
 30
0.0
  9
$PLIMCHECK
 70
     0
  9
$PEXTMIN
 10
0.0
 20
0.0
 30
0.0
  9
$PEXTMAX
 10
0.0
 20
0.0
 30
0.0
  9
$PLIMMIN
 10
0.0
 20
0.0
  9
$PLIMMAX
 10
12.0
 20
9.0
  9
$UNITMODE
 70
     0
  9
$VISRETAIN
 70
     1
  9
$PLINEGEN
 70
     0
  9
$PSLTSCALE
 70
     1
  9
$TREEDEPTH
 70
  3020
  9
$CMLSTYLE
  2
Standard
  9
$CMLJUST
 70
     0
  9
$CMLSCALE
 40
20.0
  9
$PROXYGRAPHICS
 70
     1
  9
$MEASUREMENT
 70
     1
  9
$CELWEIGHT
370
    -1
  9
$ENDCAPS
280
     0
  9
$JOINSTYLE
280
     0
  9
$LWDISPLAY
290
     0
  9
$INSUNITS
 70
     4
  9
$HYPERLINKBASE
  1

  9
$STYLESHEET
  1

  9
$XEDIT
290
     1
  9
$CEPSNTYPE
380
     0
  9
$PSTYLEMODE
290
     1
  9
$FINGERPRINTGUID
  2
{FDEAD578-A652-11D2-9A35-0060089B3A3F}
  9
$VERSIONGUID
  2
{C5244C07-C460-440F-A2C3-890F5D9B9896}
  9
$EXTNAMES
290
     1
  9
$PSVPSCALE
 40
0.0
  9
$OLESTARTUP
290
     0
  0
ENDSEC
  0
SECTION
  2
CLASSES
  0
CLASS
  1
ACDBDICTIONARYWDFLT
  2
AcDbDictionaryWithDefault
  3
ObjectDBX Classes
 90
        0
280
     0
281
     0
  0
CLASS
  1
ACDBPLACEHOLDER
  2
AcDbPlaceHolder
  3
ObjectDBX Classes
 90
        0
280
     0
281
     0
  0
CLASS
  1
LAYOUT
  2
AcDbLayout
  3
ObjectDBX Classes
 90
        0
280
     0
281
     0
  0
CLASS
  1
DICTIONARYVAR
  2
AcDbDictionaryVar
  3
ObjectDBX Classes
 90
        0
280
     0
281
     0
  0
CLASS
  1
MATERIAL
  2
AcDbMaterial
  3
ObjectDBX Classes
 90
        0
280
     0
281
     0
  0
ENDSEC
  0
SECTION
  2
TABLES
  0
TABLE
  2
VPORT
  5
1B
330
0
100
AcDbSymbolTable
 70
     3
  0
VPORT
  5
36C
330
1B
100
AcDbSymbolTableRecord
100
AcDbViewportTableRecord
  2
*Active
 70
     0
 10
0.0
 20
0.0
 11
1.0
 21
1.0
 12
7.453308847562084
 22
-13.31007334940375
 13
0.0
 23
0.0
 14
10.0
 24
10.0
 15
10.0
 25
10.0
 16
0.0
 26
0.0
 36
1.0
 17
0.0
 27
0.0
 37
0.0
 40
113.6144892967069
 41
1.4375
 42
50.0
 43
0.0
 44
0.0
 50
0.0
 51
0.0
 71
     0
 72
  1000
 73
     1
 74
     2
 75
     0
 76
     0
 77
     0
 78
     0
281
     0
 65
     1
110
0.0
120
0.0
130
0.0
111
1.0
121
0.0
131
0.0
112
0.0
122
1.0
132
0.0
 79
     0
146
0.0
  0
ENDTAB
  0
TABLE
  2
LTYPE
  5
16
330
0
100
AcDbSymbolTable
 70
     2
  0
LTYPE
  5
17
330
16
100
AcDbSymbolTableRecord
100
AcDbLinetypeTableRecord
  2
ByBlock
 70
     0
  3

 72
    65
 73
     0
 40
0.0
  0
LTYPE
  5
18
330
16
100
AcDbSymbolTableRecord
100
AcDbLinetypeTableRecord
  2
ByLayer
 70
     0
  3

 72
    65
 73
     0
 40
0.0
  0
LTYPE
  5
8
330
16
100
AcDbSymbolTableRecord
100
AcDbLinetypeTableRecord
  2
Continuous
 70
     0
  3
Solid line
 72
    65
 73
     0
 40
0.0
  0
LTYPE
  5
160
330
16
100
AcDbSymbolTableRecord
100
AcDbLinetypeTableRecord
  2
SLD-実線
 70
     0
  3
SolidWorks Line Style
 72
    65
 73
     0
 40
0.0
  0
ENDTAB
  0
TABLE
  2
LAYER
  5
10
102
{ACAD_XDICTIONARY
360
11
102
}
330
0
100
AcDbSymbolTable
 70
     7
  0
LAYER
  5
4
330
10
100
AcDbSymbolTableRecord
100
AcDbLayerTableRecord
  2
0
 70
     0
 62
     7
  6
Continuous
370
    -3
390
5
  0
LAYER
  5
30A
330
10
100
AcDbSymbolTableRecord
100
AcDbLayerTableRecord
  2
WAKU
 70
     0
 62
     4
  6
Continuous
370
    -3
390
5
  0
LAYER
  5
2E
330
10
100
AcDbSymbolTableRecord
100
AcDbLayerTableRecord
  2
MOJI1
 70
     0
 62
     2
  6
Continuous
370
    -3
390
5
  0
LAYER
  5
33
330
10
100
AcDbSymbolTableRecord
100
AcDbLayerTableRecord
  2
TOUROKU
 70
     0
 62
     1
  6
Continuous
370
    -3
390
5
  0
LAYER
  5
44
102
{ACAD_XDICTIONARY
360
45
102
}
330
10
100
AcDbSymbolTableRecord
100
AcDbLayerTableRecord
  2
DEFPOINTS
 70
     0
 62
     7
  6
Continuous
290
     0
370
    -3
390
5
  0
LAYER
  5
65
102
{ACAD_XDICTIONARY
360
66
102
}
330
10
100
AcDbSymbolTableRecord
100
AcDbLayerTableRecord
  2
GAIKEI
 70
     0
 62
     7
  6
Continuous
370
    -3
390
5
  0
LAYER
  5
35
102
{ACAD_XDICTIONARY
360
36
102
}
330
10
100
AcDbSymbolTableRecord
100
AcDbLayerTableRecord
  2
SUNPO
 70
     0
 62
     3
  6
Continuous
370
    -3
390
5
  0
ENDTAB
  0
TABLE
  2
STYLE
  5
13
330
0
100
AcDbSymbolTable
 70
     2
  0
STYLE
  5
14
330
13
100
AcDbSymbolTableRecord
100
AcDbTextStyleTableRecord
  2
Standard
 70
     0
 40
0.0
 41
1.0
 50
0.0
 71
     0
 42
2.5
  3
MONOTXT.shx
  4
BIGFONT.shx
  0
STYLE
  5
31
330
13
100
AcDbSymbolTableRecord
100
AcDbTextStyleTableRecord
  2
KANJI
 70
     0
 40
0.0
 41
1.0
 50
0.0
 71
     0
 42
3.5
  3
MONOTXT
  4
BIGFONT
  0
ENDTAB
  0
TABLE
  2
VIEW
  5
19
330
0
100
AcDbSymbolTable
 70
     0
  0
ENDTAB
  0
TABLE
  2
UCS
  5
1A
330
0
100
AcDbSymbolTable
 70
     0
  0
ENDTAB
  0
TABLE
  2
APPID
  5
1D
330
0
100
AcDbSymbolTable
 70
     1
  0
APPID
  5
1E
330
1D
100
AcDbSymbolTableRecord
100
AcDbRegAppTableRecord
  2
ACAD
 70
     0
  0
ENDTAB
  0
TABLE
  2
DIMSTYLE
  5
1F
330
0
100
AcDbSymbolTable
 70
     2
100
AcDbDimStyleTable
 71
     2
340
20
340
27
  0
DIMSTYLE
105
27
330
1F
100
AcDbSymbolTableRecord
100
AcDbDimStyleTableRecord
  2
ISO-25
 70
     0
 41
2.5
 42
0.625
 43
3.75
 44
1.25
 73
     0
 74
     0
 77
     1
 78
     8
140
2.5
141
2.5
143
0.03937007874016
147
0.625
171
     3
172
     1
271
     2
272
     2
274
     3
278
    44
283
     0
284
     8
340
14
  0
DIMSTYLE
105
20
102
{ACAD_REACTORS
330
57
330
4A
330
34
102
}
330
1F
100
AcDbSymbolTableRecord
100
AcDbDimStyleTableRecord
  2
STANDARD
 70
     0
 40
0.0
 41
2.0
 42
2.0
 43
8.0
 44
2.0
 73
     0
 74
     0
 77
     3
140
3.0
141
0.0
173
     1
279
     2
288
     1
340
14
341
21
343
21
344
21
  0
ENDTAB
  0
TABLE
  2
BLOCK_RECORD
  5
1
330
0
100
AcDbSymbolTable
 70
     7
  0
BLOCK_RECORD
  5
2
330
1
100
AcDbSymbolTableRecord
100
AcDbBlockTableRecord
  2
*Model_Space
340
A
  0
BLOCK_RECORD
  5
C
330
1
100
AcDbSymbolTableRecord
100
AcDbBlockTableRecord
  2
*Paper_Space
340
F
  0
BLOCK_RECORD
  5
21
330
1
100
AcDbSymbolTableRecord
100
AcDbBlockTableRecord
  2
_OPEN30
340
0
102
{BLKREFS
331
40
331
41
331
50
331
51
331
5D
331
5E
331
348
331
349
331
354
331
355
331
360
331
361
102
}
  0
BLOCK_RECORD
  5
58
330
1
100
AcDbSymbolTableRecord
100
AcDbBlockTableRecord
  2
*D1
340
0
  0
BLOCK_RECORD
  5
4B
330
1
100
AcDbSymbolTableRecord
100
AcDbBlockTableRecord
  2
*D2
340
0
  0
BLOCK_RECORD
  5
3B
330
1
100
AcDbSymbolTableRecord
100
AcDbBlockTableRecord
  2
*D3
340
0
  0
BLOCK_RECORD
  5
344
330
1
100
AcDbSymbolTableRecord
100
AcDbBlockTableRecord
  2
*D4
340
0
  0
BLOCK_RECORD
  5
350
330
1
100
AcDbSymbolTableRecord
100
AcDbBlockTableRecord
  2
*D5
340
0
  0
BLOCK_RECORD
  5
35C
330
1
100
AcDbSymbolTableRecord
100
AcDbBlockTableRecord
  2
*D6
340
0
  0
ENDTAB
  0
ENDSEC
  0
SECTION
  2
BLOCKS
  0
BLOCK
  5
3
330
2
100
AcDbEntity
  8
0
100
AcDbBlockBegin
  2
*Model_Space
 70
     0
 10
0.0
 20
0.0
 30
0.0
  3
*Model_Space
  1

  0
ENDBLK
  5
9
330
2
100
AcDbEntity
  8
0
100
AcDbBlockEnd
  0
BLOCK
  5
D
330
C
100
AcDbEntity
 67
     1
  8
0
100
AcDbBlockBegin
  2
*Paper_Space
 70
     0
 10
0.0
 20
0.0
 30
0.0
  3
*Paper_Space
  1

  0
ENDBLK
  5
E
330
C
100
AcDbEntity
 67
     1
  8
0
100
AcDbBlockEnd
  0
BLOCK
  5
22
330
21
100
AcDbEntity
  8
0
100
AcDbBlockBegin
  2
_OPEN30
 70
     0
 10
0.0
 20
0.0
 30
0.0
  3
_OPEN30
  1

  0
LINE
  5
23
330
21
100
AcDbEntity
  8
0
  6
ByBlock
 62
     0
100
AcDbLine
 10
-1.0
 20
0.26794919
 30
0.0
 11
0.0
 21
0.0
 31
0.0
  0
LINE
  5
24
330
21
100
AcDbEntity
  8
0
  6
ByBlock
 62
     0
100
AcDbLine
 10
0.0
 20
0.0
 30
0.0
 11
-1.0
 21
-0.26794919
 31
0.0
  0
LINE
  5
25
330
21
100
AcDbEntity
  8
0
  6
ByBlock
 62
     0
100
AcDbLine
 10
0.0
 20
0.0
 30
0.0
 11
-1.0
 21
0.0
 31
0.0
  0
ENDBLK
  5
26
330
21
100
AcDbEntity
  8
0
100
AcDbBlockEnd
  0
BLOCK
  5
59
330
58
100
AcDbEntity
  8
0
100
AcDbBlockBegin
  2
*D1
 70
     1
 10
0.0
 20
0.0
 30
0.0
  3
*D1
  1

  0
LINE
  5
5A
330
58
100
AcDbEntity
  8
SUNPO
 62
     0
370
    -2
100
AcDbLine
 10
32.11208424920932
 20
347.5365530176281
 30
0.0
 11
32.11208424920932
 21
355.5365530176281
 31
0.0
  0
LINE
  5
5B
330
58
100
AcDbEntity
  8
SUNPO
 62
     0
370
    -2
100
AcDbLine
 10
47.11208057224928
 20
347.5365530176281
 30
0.0
 11
47.11208057224928
 21
355.5365530176281
 31
0.0
  0
LINE
  5
5C
330
58
100
AcDbEntity
  8
SUNPO
 62
     0
370
    -2
100
AcDbLine
 10
34.11208424920932
 20
353.5365530176281
 30
0.0
 11
45.11208057224928
 21
353.5365530176281
 31
0.0
  0
INSERT
  5
5D
330
58
100
AcDbEntity
  8
SUNPO
 62
     0
370
    -2
100
AcDbBlockReference
  2
_OPEN30
 10
32.11208424920932
 20
353.5365530176281
 30
0.0
 41
2.0
 42
2.0
 43
2.0
 50
180.0
  0
INSERT
  5
5E
330
58
100
AcDbEntity
  8
SUNPO
 62
     0
370
    -2
100
AcDbBlockReference
  2
_OPEN30
 10
47.11208057224928
 20
353.5365530176281
 30
0.0
 41
2.0
 42
2.0
 43
2.0
  0
MTEXT
  5
5F
330
58
100
AcDbEntity
  8
SUNPO
 62
     0
100
AcDbMText
 10
39.6120824107293
 20
355.2865530176281
 30
0.0
 40
2.5
 41
0.0
 71
     5
 72
     1
  1
\A1;75
 73
     1
 44
1.0
1001
ACAD
1000
MTEXTBEGIN
1070
    73
1070
     1
1070
    44
1040
1.0
1070
    74
1070
     0
1000
MTEXTEND
  0
POINT
  5
60
330
58
100
AcDbEntity
  8
DEFPOINTS
 62
     0
100
AcDbPoint
 10
32.11208424920932
 20
345.5365530176281
 30
0.0
  0
POINT
  5
61
330
58
100
AcDbEntity
  8
DEFPOINTS
 62
     0
100
AcDbPoint
 10
47.11208057224928
 20
345.5365530176281
 30
0.0
  0
POINT
  5
62
330
58
100
AcDbEntity
  8
DEFPOINTS
 62
     0
100
AcDbPoint
 10
47.11208057224928
 20
353.5365530176281
 30
0.0
  0
ENDBLK
  5
63
330
58
100
AcDbEntity
  8
0
100
AcDbBlockEnd
  0
BLOCK
  5
4C
330
4B
100
AcDbEntity
  8
0
100
AcDbBlockBegin
  2
*D2
 70
     1
 10
0.0
 20
0.0
 30
0.0
  3
*D2
  1

  0
LINE
  5
4D
330
4B
100
AcDbEntity
  8
SUNPO
 62
     0
370
    -2
100
AcDbLine
 10
49.06228315025202
 20
332.5448480680834
 30
0.0
 11
57.06228315025202
 21
332.5448480680834
 31
0.0
  0
LINE
  5
4E
330
4B
100
AcDbEntity
  8
SUNPO
 62
     0
370
    -2
100
AcDbLine
 10
49.06228315025202
 20
345.5448480680834
 30
0.0
 11
57.06228315025203
 21
345.5448480680834
 31
0.0
  0
LINE
  5
4F
330
4B
100
AcDbEntity
  8
SUNPO
 62
     0
370
    -2
100
AcDbLine
 10
55.06228315025202
 20
334.5448480680834
 30
0.0
 11
55.06228315025203
 21
343.5448480680834
 31
0.0
  0
INSERT
  5
50
330
4B
100
AcDbEntity
  8
SUNPO
 62
     0
370
    -2
100
AcDbBlockReference
  2
_OPEN30
 10
55.06228315025202
 20
332.5448480680834
 30
0.0
 41
2.0
 42
2.0
 43
2.0
 50
270.0
  0
INSERT
  5
51
330
4B
100
AcDbEntity
  8
SUNPO
 62
     0
370
    -2
100
AcDbBlockReference
  2
_OPEN30
 10
55.06228315025203
 20
345.5448480680834
 30
0.0
 41
2.0
 42
2.0
 43
2.0
 50
90.0
  0
MTEXT
  5
52
330
4B
100
AcDbEntity
  8
SUNPO
 62
     0
100
AcDbMText
 10
53.31228315025197
 20
339.0448480680834
 30
0.0
 40
2.5
 41
0.0
 71
     5
 72
     1
  1
\A1;65
 11
0.0000000000000001
 21
1.0
 31
0.0
 73
     1
 44
1.0
1001
ACAD
1000
MTEXTBEGIN
1070
    73
1070
     1
1070
    44
1040
1.0
1070
    74
1070
     0
1000
MTEXTEND
  0
POINT
  5
53
330
4B
100
AcDbEntity
  8
DEFPOINTS
 62
     0
100
AcDbPoint
 10
47.06228315025202
 20
332.5448480680834
 30
0.0
  0
POINT
  5
54
330
4B
100
AcDbEntity
  8
DEFPOINTS
 62
     0
100
AcDbPoint
 10
47.06228315025202
 20
345.5448480680834
 30
0.0
  0
POINT
  5
55
330
4B
100
AcDbEntity
  8
DEFPOINTS
 62
     0
100
AcDbPoint
 10
55.06228315025203
 20
345.5448480680834
 30
0.0
  0
ENDBLK
  5
56
330
4B
100
AcDbEntity
  8
0
100
AcDbBlockEnd
  0
BLOCK
  5
3C
330
3B
100
AcDbEntity
  8
0
100
AcDbBlockBegin
  2
*D3
 70
     1
 10
0.0
 20
0.0
 30
0.0
  3
*D3
  1

  0
LINE
  5
3D
330
3B
100
AcDbEntity
  8
SUNPO
 62
     0
370
    -2
100
AcDbLine
 10
63.59820897465443
 20
347.5365530176281
 30
0.0
 11
63.59820897465443
 21
355.5365530176281
 31
0.0
  0
LINE
  5
3E
330
3B
100
AcDbEntity
  8
SUNPO
 62
     0
370
    -2
100
AcDbLine
 10
99.99821220971439
 20
347.5365530176281
 30
0.0
 11
99.99821220971439
 21
355.5365530176281
 31
0.0
  0
LINE
  5
3F
330
3B
100
AcDbEntity
  8
SUNPO
 62
     0
370
    -2
100
AcDbLine
 10
65.59820897465442
 20
353.5365530176281
 30
0.0
 11
97.99821220971438
 21
353.5365530176281
 31
0.0
  0
INSERT
  5
40
330
3B
100
AcDbEntity
  8
SUNPO
 62
     0
370
    -2
100
AcDbBlockReference
  2
_OPEN30
 10
63.59820897465443
 20
353.5365530176281
 30
0.0
 41
2.0
 42
2.0
 43
2.0
 50
180.0
  0
INSERT
  5
41
330
3B
100
AcDbEntity
  8
SUNPO
 62
     0
370
    -2
100
AcDbBlockReference
  2
_OPEN30
 10
99.99821220971439
 20
353.5365530176281
 30
0.0
 41
2.0
 42
2.0
 43
2.0
  0
MTEXT
  5
42
330
3B
100
AcDbEntity
  8
SUNPO
 62
     0
100
AcDbMText
 10
81.7982105921844
 20
355.2865530176281
 30
0.0
 40
2.5
 41
0.0
 71
     5
 72
     1
  1
\A1;182
 73
     1
 44
1.0
1001
ACAD
1000
MTEXTBEGIN
1070
    73
1070
     1
1070
    44
1040
1.0
1070
    74
1070
     0
1000
MTEXTEND
  0
POINT
  5
43
330
3B
100
AcDbEntity
  8
DEFPOINTS
 62
     0
100
AcDbPoint
 10
63.59820897465443
 20
345.5365530176281
 30
0.0
  0
POINT
  5
47
330
3B
100
AcDbEntity
  8
DEFPOINTS
 62
     0
100
AcDbPoint
 10
99.99821220971439
 20
345.5365530176281
 30
0.0
  0
POINT
  5
48
330
3B
100
AcDbEntity
  8
DEFPOINTS
 62
     0
100
AcDbPoint
 10
99.99821220971439
 20
353.5365530176281
 30
0.0
  0
ENDBLK
  5
49
330
3B
100
AcDbEntity
  8
0
100
AcDbBlockEnd
  0
BLOCK
  5
34E
330
344
100
AcDbEntity
  8
0
100
AcDbBlockBegin
  2
*D4
 70
     1
 10
0.0
 20
0.0
 30
0.0
  3
*D4
  1

  0
LINE
  5
345
330
344
100
AcDbEntity
  8
SUNPO
 62
     0
370
    -2
100
AcDbLine
 10
-25.43469267106531
 20
20.35363906098053
 30
0.0
 11
-25.43469267106531
 21
28.35363906098053
 31
0.0
  0
LINE
  5
346
330
344
100
AcDbEntity
  8
SUNPO
 62
     0
370
    -2
100
AcDbLine
 10
-10.43469634802534
 20
20.35363906098053
 30
0.0
 11
-10.43469634802534
 21
28.35363906098053
 31
0.0
  0
LINE
  5
347
330
344
100
AcDbEntity
  8
SUNPO
 62
     0
370
    -2
100
AcDbLine
 10
-23.43469267106531
 20
26.35363906098053
 30
0.0
 11
-12.43469634802534
 21
26.35363906098053
 31
0.0
  0
INSERT
  5
348
330
344
100
AcDbEntity
  8
SUNPO
 62
     0
370
    -2
100
AcDbBlockReference
  2
_OPEN30
 10
-25.43469267106531
 20
26.35363906098053
 30
0.0
 41
2.0
 42
2.0
 43
2.0
 50
180.0
  0
INSERT
  5
349
330
344
100
AcDbEntity
  8
SUNPO
 62
     0
370
    -2
100
AcDbBlockReference
  2
_OPEN30
 10
-10.43469634802534
 20
26.35363906098053
 30
0.0
 41
2.0
 42
2.0
 43
2.0
  0
MTEXT
  5
34A
330
344
100
AcDbEntity
  8
SUNPO
 62
     0
100
AcDbMText
 10
-17.93469450954532
 20
28.10363906098053
 30
0.0
 40
2.5
 41
0.0
 71
     5
 72
     1
  1
\A1;75
 73
     1
 44
1.0
1001
ACAD
1000
MTEXTBEGIN
1070
    73
1070
     1
1070
    44
1040
1.0
1070
    74
1070
     0
1000
MTEXTEND
  0
POINT
  5
34B
330
344
100
AcDbEntity
  8
DEFPOINTS
 62
     0
100
AcDbPoint
 10
-25.43469267106531
 20
18.35363906098052
 30
0.0
  0
POINT
  5
34C
330
344
100
AcDbEntity
  8
DEFPOINTS
 62
     0
100
AcDbPoint
 10
-10.43469634802534
 20
18.35363906098052
 30
0.0
  0
POINT
  5
34D
330
344
100
AcDbEntity
  8
DEFPOINTS
 62
     0
100
AcDbPoint
 10
-10.43469634802534
 20
26.35363906098053
 30
0.0
  0
ENDBLK
  5
34F
330
344
100
AcDbEntity
  8
0
100
AcDbBlockEnd
  0
BLOCK
  5
35A
330
350
100
AcDbEntity
  8
0
100
AcDbBlockBegin
  2
*D5
 70
     1
 10
0.0
 20
0.0
 30
0.0
  3
*D5
  1

  0
LINE
  5
351
330
350
100
AcDbEntity
  8
SUNPO
 62
     0
370
    -2
100
AcDbLine
 10
-8.484493770022595
 20
5.361934111435856
 30
0.0
 11
-0.484493770022598
 21
5.361934111435854
 31
0.0
  0
LINE
  5
352
330
350
100
AcDbEntity
  8
SUNPO
 62
     0
370
    -2
100
AcDbLine
 10
-8.484493770022595
 20
18.36193411143586
 30
0.0
 11
-0.484493770022595
 21
18.36193411143585
 31
0.0
  0
LINE
  5
353
330
350
100
AcDbEntity
  8
SUNPO
 62
     0
370
    -2
100
AcDbLine
 10
-2.484493770022597
 20
7.361934111435854
 30
0.0
 11
-2.484493770022595
 21
16.36193411143585
 31
0.0
  0
INSERT
  5
354
330
350
100
AcDbEntity
  8
SUNPO
 62
     0
370
    -2
100
AcDbBlockReference
  2
_OPEN30
 10
-2.484493770022598
 20
5.361934111435854
 30
0.0
 41
2.0
 42
2.0
 43
2.0
 50
270.0
  0
INSERT
  5
355
330
350
100
AcDbEntity
  8
SUNPO
 62
     0
370
    -2
100
AcDbBlockReference
  2
_OPEN30
 10
-2.484493770022595
 20
18.36193411143585
 30
0.0
 41
2.0
 42
2.0
 43
2.0
 50
90.0
  0
MTEXT
  5
356
330
350
100
AcDbEntity
  8
SUNPO
 62
     0
100
AcDbMText
 10
-4.234493770022598
 20
11.86193411143585
 30
0.0
 40
2.5
 41
0.0
 71
     5
 72
     1
  1
\A1;65
 11
0.0000000000000001
 21
1.0
 31
0.0
 73
     1
 44
1.0
1001
ACAD
1000
MTEXTBEGIN
1070
    73
1070
     1
1070
    44
1040
1.0
1070
    74
1070
     0
1000
MTEXTEND
  0
POINT
  5
357
330
350
100
AcDbEntity
  8
DEFPOINTS
 62
     0
100
AcDbPoint
 10
-10.48449377002259
 20
5.361934111435857
 30
0.0
  0
POINT
  5
358
330
350
100
AcDbEntity
  8
DEFPOINTS
 62
     0
100
AcDbPoint
 10
-10.48449377002259
 20
18.36193411143586
 30
0.0
  0
POINT
  5
359
330
350
100
AcDbEntity
  8
DEFPOINTS
 62
     0
100
AcDbPoint
 10
-2.484493770022595
 20
18.36193411143585
 30
0.0
  0
ENDBLK
  5
35B
330
350
100
AcDbEntity
  8
0
100
AcDbBlockEnd
  0
BLOCK
  5
366
330
35C
100
AcDbEntity
  8
0
100
AcDbBlockBegin
  2
*D6
 70
     1
 10
0.0
 20
0.0
 30
0.0
  3
*D6
  1

  0
LINE
  5
35D
330
35C
100
AcDbEntity
  8
SUNPO
 62
     0
370
    -2
100
AcDbLine
 10
6.051432054379802
 20
20.35363906098053
 30
0.0
 11
6.051432054379803
 21
28.35363906098053
 31
0.0
  0
LINE
  5
35E
330
35C
100
AcDbEntity
  8
SUNPO
 62
     0
370
    -2
100
AcDbLine
 10
42.45143528943976
 20
20.35363906098053
 30
0.0
 11
42.45143528943976
 21
28.35363906098053
 31
0.0
  0
LINE
  5
35F
330
35C
100
AcDbEntity
  8
SUNPO
 62
     0
370
    -2
100
AcDbLine
 10
8.051432054379802
 20
26.35363906098053
 30
0.0
 11
40.45143528943976
 21
26.35363906098053
 31
0.0
  0
INSERT
  5
360
330
35C
100
AcDbEntity
  8
SUNPO
 62
     0
370
    -2
100
AcDbBlockReference
  2
_OPEN30
 10
6.051432054379803
 20
26.35363906098053
 30
0.0
 41
2.0
 42
2.0
 43
2.0
 50
180.0
  0
INSERT
  5
361
330
35C
100
AcDbEntity
  8
SUNPO
 62
     0
370
    -2
100
AcDbBlockReference
  2
_OPEN30
 10
42.45143528943976
 20
26.35363906098053
 30
0.0
 41
2.0
 42
2.0
 43
2.0
  0
MTEXT
  5
362
330
35C
100
AcDbEntity
  8
SUNPO
 62
     0
100
AcDbMText
 10
24.25143367190978
 20
28.10363906098053
 30
0.0
 40
2.5
 41
0.0
 71
     5
 72
     1
  1
\A1;182
 73
     1
 44
1.0
1001
ACAD
1000
MTEXTBEGIN
1070
    73
1070
     1
1070
    44
1040
1.0
1070
    74
1070
     0
1000
MTEXTEND
  0
POINT
  5
363
330
35C
100
AcDbEntity
  8
DEFPOINTS
 62
     0
100
AcDbPoint
 10
6.051432054379802
 20
18.35363906098052
 30
0.0
  0
POINT
  5
364
330
35C
100
AcDbEntity
  8
DEFPOINTS
 62
     0
100
AcDbPoint
 10
42.45143528943976
 20
18.35363906098052
 30
0.0
  0
POINT
  5
365
330
35C
100
AcDbEntity
  8
DEFPOINTS
 62
     0
100
AcDbPoint
 10
42.45143528943976
 20
26.35363906098053
 30
0.0
  0
ENDBLK
  5
367
330
35C
100
AcDbEntity
  8
0
100
AcDbBlockEnd
  0
ENDSEC
  0
SECTION
  2
ENTITIES
  0
TEXT
  5
30
330
2
100
AcDbEntity
  8
MOJI1
100
AcDbText
 10
-28.04677697623356
 20
39.31792116828706
 30
0.0
 40
4.0
  1
ネットワークカメラ
  7
KANJI
100
AcDbText
  0
TEXT
  5
32
330
2
100
AcDbEntity
  8
TOUROKU
100
AcDbText
 10
51.41983972336039
 20
33.31792116828683
 30
0.0
 40
2.0
  1
ＤＧＳＰ３０４Ｖ
 72
     2
 11
69.95317305669373
 21
33.31792116828683
 31
0.0
100
AcDbText
  0
DIMENSION
  5
34
330
2
100
AcDbEntity
  8
SUNPO
100
AcDbDimension
  2
*D6
 10
42.45143528943976
 20
26.35363906098053
 30
0.0
 11
24.25143367190978
 21
28.10363906098053
 31
0.0
 70
    33
  1
182
 71
     5
 42
36.40000323505996
  3
STANDARD
100
AcDbAlignedDimension
 13
6.051432054379802
 23
18.35363906098052
 33
0.0
 14
42.45143528943976
 24
18.35363906098052
 34
0.0
1001
ACAD
1000
DSTYLE
1002
{
1070
    40
1040
1.0
1070
   140
1040
2.5
1070
   147
1040
0.5
1070
   172
1070
     1
1070
   279
1070
     0
1070
   288
1070
     0
1002
}
  0
DIMENSION
  5
4A
330
2
100
AcDbEntity
  8
SUNPO
100
AcDbDimension
  2
*D5
 10
-2.484493770022595
 20
18.36193411143585
 30
0.0
 11
-4.234493770022598
 21
11.86193411143585
 31
0.0
 70
    33
  1
65
 71
     5
 42
13.0
  3
STANDARD
100
AcDbAlignedDimension
 13
-10.48449377002259
 23
5.361934111435857
 33
0.0
 14
-10.48449377002259
 24
18.36193411143586
 34
0.0
1001
ACAD
1000
DSTYLE
1002
{
1070
    40
1040
1.0
1070
   140
1040
2.5
1070
   147
1040
0.5
1070
   172
1070
     1
1070
   279
1070
     0
1070
   288
1070
     0
1002
}
  0
DIMENSION
  5
57
330
2
100
AcDbEntity
  8
SUNPO
100
AcDbDimension
  2
*D4
 10
-10.43469634802534
 20
26.35363906098053
 30
0.0
 11
-17.93469450954532
 21
28.10363906098053
 31
0.0
 70
    33
  1
75
 71
     5
 42
14.99999632303996
  3
STANDARD
100
AcDbAlignedDimension
 13
-25.43469267106531
 23
18.35363906098052
 33
0.0
 14
-10.43469634802534
 24
18.35363906098052
 34
0.0
1001
ACAD
1000
DSTYLE
1002
{
1070
    40
1040
1.0
1070
   140
1040
2.5
1070
   147
1040
0.5
1070
   172
1070
     1
1070
   279
1070
     0
1070
   288
1070
     0
1002
}
  0
LINE
  5
64
330
2
100
AcDbEntity
  8
GAIKEI
  6
Continuous
 62
     1
100
AcDbLine
 10
-19.12591684836536
 20
7.403971762375817
 30
0.0
 11
-19.07082092244536
 21
7.198351011595832
 31
0.0
  0
LINE
  5
68
330
2
100
AcDbEntity
  8
GAIKEI
  6
Continuous
 62
     1
100
AcDbLine
 10
-18.29908051754535
 20
6.990295411075805
 30
0.0
 11
-18.14755545224534
 21
7.141820476375812
 31
0.0
  0
LINE
  5
69
330
2
100
AcDbEntity
  8
GAIKEI
  6
Continuous
 62
     1
100
AcDbLine
 10
-19.02225673424533
 20
7.186409966075814
 30
0.0
 11
-19.25028547870534
 21
6.335395337055842
 31
0.0
  0
LINE
  5
6A
330
2
100
AcDbEntity
  8
GAIKEI
  6
Continuous
 62
     1
100
AcDbLine
 10
-18.57413737330535
 20
6.154222176395819
 30
0.0
 11
-18.34537660930533
 21
7.007968933295842
 31
0.0
  0
ARC
  5
6B
330
2
100
AcDbEntity
  8
GAIKEI
  6
Continuous
 62
     1
100
AcDbCircle
 10
-19.13437432340532
 20
6.304337046255795
 30
0.0
 40
0.1199999999999987
100
AcDbArc
 50
165.0000000000024
 51
254.9999999999984
  0
ARC
  5
6C
330
2
100
AcDbEntity
  8
GAIKEI
  6
Continuous
 62
     1
100
AcDbCircle
 10
-18.69004844330533
 20
6.18528028551583
 30
0.0
 40
0.1200000000000112
100
AcDbArc
 50
254.9999999999984
 51
345.0000000000024
  0
LINE
  5
6D
330
2
100
AcDbEntity
  8
GAIKEI
  6
Continuous
 62
     1
100
AcDbLine
 10
-20.63176281976536
 20
13.25568775179579
 30
0.0
 11
-20.61434541124532
 21
13.19068478883582
 31
0.0
  0
LINE
  5
6E
330
2
100
AcDbEntity
  8
GAIKEI
  6
Continuous
 62
     1
100
AcDbLine
 10
-18.16743588302535
 20
7.121940092175805
 30
0.0
 11
-18.07447890046535
 21
6.960933790515809
 31
0.0
  0
LINE
  5
6F
330
2
100
AcDbEntity
  8
GAIKEI
  6
Continuous
 62
     1
100
AcDbLine
 10
-17.27563379558535
 20
6.960933790515809
 30
0.0
 11
-17.16861924382533
 21
7.146288589555808
 31
0.0
  0
LINE
  5
70
330
2
100
AcDbEntity
  8
GAIKEI
  6
Continuous
 62
     1
100
AcDbLine
 10
-18.02505635882534
 20
6.922952220755803
 30
0.0
 11
-18.02505635882534
 21
6.041951985075797
 31
0.0
  0
LINE
  5
71
330
2
100
AcDbEntity
  8
GAIKEI
  6
Continuous
 62
     1
100
AcDbLine
 10
-17.32505633722536
 20
6.041951985075797
 30
0.0
 11
-17.32505633722536
 21
6.922952220755803
 31
0.0
  0
ARC
  5
72
330
2
100
AcDbEntity
  8
GAIKEI
  6
Continuous
 62
     1
100
AcDbCircle
 10
-17.90505634802531
 20
6.041951880655801
 30
0.0
 40
0.1199999999999989
100
AcDbArc
 50
180.0
 51
270.0
  0
ARC
  5
73
330
2
100
AcDbEntity
  8
GAIKEI
  6
Continuous
 62
     1
100
AcDbCircle
 10
-17.44505634802533
 20
6.041951880655801
 30
0.0
 40
0.1200000000000045
100
AcDbArc
 50
270.0
 51
0.0
  0
LINE
  5
74
330
2
100
AcDbEntity
  8
GAIKEI
  6
Continuous
 62
     1
100
AcDbLine
 10
-17.81165635206531
 20
6.961934030975839
 30
0.0
 11
-17.81165635206531
 21
6.920951739875818
 31
0.0
  0
LINE
  5
75
330
2
100
AcDbEntity
  8
GAIKEI
  6
Continuous
 62
     1
100
AcDbLine
 10
-17.53845634398533
 20
6.920951739875818
 30
0.0
 11
-17.53845634398533
 21
6.961934030975839
 31
0.0
  0
LINE
  5
76
330
2
100
AcDbEntity
  8
GAIKEI
  6
Continuous
 62
     1
100
AcDbLine
 10
-21.69505622464533
 20
14.21193419487582
 30
0.0
 11
-21.69505622464533
 21
13.81193412931583
 31
0.0
  0
LINE
  5
77
330
2
100
AcDbEntity
  8
GAIKEI
  6
Continuous
 62
     1
100
AcDbLine
 10
-20.29505636770534
 20
13.81193412931583
 30
0.0
 11
-20.29505636770534
 21
14.21193419487582
 31
0.0
  0
ARC
  5
78
330
2
100
AcDbEntity
  8
GAIKEI
  6
Continuous
 62
     1
100
AcDbCircle
 10
-21.49505634802534
 20
14.21193411143582
 30
0.0
 40
0.2000000000000056
100
AcDbArc
 50
90.0
 51
180.0
  0
ARC
  5
79
330
2
100
AcDbEntity
  8
GAIKEI
  6
Continuous
 62
     1
100
AcDbCircle
 10
-20.49505634802534
 20
14.21193411143582
 30
0.0
 40
0.2000000000000056
100
AcDbArc
 50
0.0
 51
90.0
  0
ARC
  5
7A
330
2
100
AcDbEntity
  8
GAIKEI
  6
Continuous
 62
     1
100
AcDbCircle
 10
-25.37704913430537
 20
12.16658079339584
 30
0.0
 40
0.0943183979992145
100
AcDbArc
 50
87.23954154459926
 51
182.8786317196004
  0
ARC
  5
7B
330
2
100
AcDbEntity
  8
GAIKEI
  6
Continuous
 62
     1
100
AcDbCircle
 10
-25.43523928162534
 20
10.15438861999581
 30
0.0
 40
0.0808047343232604
100
AcDbArc
 50
174.7009959907995
 51
218.0783266932012
  0
ARC
  5
7C
330
2
100
AcDbEntity
  8
GAIKEI
  6
Continuous
 62
     1
100
AcDbCircle
 10
-25.42265158356531
 20
10.15341214221581
 30
0.0
 40
0.0905141545828448
100
AcDbArc
 50
212.6695320852004
 51
273.6189630063992
  0
ARC
  5
7D
330
2
100
AcDbEntity
  8
GAIKEI
  6
Continuous
 62
     1
100
AcDbCircle
 10
-11.99670160722536
 20
10.8619358351558
 30
0.0
 40
13.53835475446496
100
AcDbArc
 50
174.4388730707005
 51
183.0146582666991
  0
ARC
  5
7E
330
2
100
AcDbEntity
  8
GAIKEI
  6
Continuous
 62
     1
100
AcDbCircle
 10
-15.87505634802534
 20
6.641809984015822
 30
0.0
 40
1.349875872583857
100
AcDbArc
 50
251.4674752733005
 51
288.5325247266996
  0
ARC
  5
7F
330
2
100
AcDbEntity
  8
GAIKEI
  6
Continuous
 62
     1
100
AcDbCircle
 10
-19.47505634802536
 20
15.08205823885583
 30
0.0
 40
1.349875872583859
100
AcDbArc
 50
101.5380344865008
 51
108.5325247266995
  0
ARC
  5
80
330
2
100
AcDbEntity
  8
GAIKEI
  6
Continuous
 62
     1
100
AcDbCircle
 10
-19.47505634802536
 20
15.08205823885583
 30
0.0
 40
1.349875872583861
100
AcDbArc
 50
71.46747527330045
 51
78.46196551349918
  0
LINE
  5
81
330
2
100
AcDbEntity
  8
GAIKEI
  6
Continuous
 62
     1
100
AcDbLine
 10
-19.97505635250536
 20
5.321934209195831
 30
0.0
 11
-19.97505635250536
 21
5.361934141235792
 31
0.0
  0
LINE
  5
82
330
2
100
AcDbEntity
  8
GAIKEI
  6
Continuous
 62
     1
100
AcDbLine
 10
-16.14856882248534
 20
5.319934100835837
 30
0.0
 11
-19.97505635250536
 21
5.319934100835837
 31
0.0
  0
LINE
  5
83
330
2
100
AcDbEntity
  8
GAIKEI
  6
Continuous
 62
     1
100
AcDbLine
 10
-19.97505635250536
 20
5.319934100835837
 30
0.0
 11
-19.97505635250536
 21
5.321934209195831
 31
0.0
  0
CIRCLE
  5
84
330
2
100
AcDbEntity
  8
GAIKEI
  6
Continuous
 62
     1
100
AcDbCircle
 10
-17.67505655568533
 20
10.86193416401579
 30
0.0
 40
1.869993096991873
  0
CIRCLE
  5
85
330
2
100
AcDbEntity
  8
GAIKEI
  6
Continuous
 62
     1
100
AcDbCircle
 10
-17.67505655568533
 20
10.86193416401579
 30
0.0
 40
2.00999994479148
  0
ARC
  5
86
330
2
100
AcDbEntity
  8
GAIKEI
  6
Continuous
 62
     1
100
AcDbCircle
 10
-17.67505634802535
 20
10.8619341114358
 30
0.0
 40
3.339999999999999
100
AcDbArc
 50
236.2232921794004
 51
243.776707820599
  0
LINE
  5
87
330
2
100
AcDbEntity
  8
GAIKEI
  6
Continuous
 62
     1
100
AcDbLine
 10
-18.95313322770533
 20
8.208240144875844
 30
0.0
 11
-19.11081489402534
 21
7.935127378415813
 31
0.0
  0
LINE
  5
88
330
2
100
AcDbEntity
  8
GAIKEI
  6
Continuous
 62
     1
100
AcDbLine
 10
-19.11081489402534
 20
7.935127378415813
 30
0.0
 11
-19.15090404678534
 21
7.865690947495806
 31
0.0
  0
LINE
  5
89
330
2
100
AcDbEntity
  8
GAIKEI
  6
Continuous
 62
     1
100
AcDbLine
 10
-19.49186608422536
 20
8.155127377235828
 30
0.0
 11
-19.33418441790536
 21
8.428240143675793
 31
0.0
  0
LINE
  5
8A
330
2
100
AcDbEntity
  8
GAIKEI
  6
Continuous
 62
     1
100
AcDbLine
 10
-19.53195523696536
 20
8.085690946295812
 30
0.0
 11
-19.49186608422536
 21
8.155127377235828
 31
0.0
  0
ARC
  5
8B
330
2
100
AcDbEntity
  8
GAIKEI
  6
Continuous
 62
     1
100
AcDbCircle
 10
-17.67505634802535
 20
10.8619341114358
 30
0.0
 40
3.339999999999973
100
AcDbArc
 50
116.223292179401
 51
123.7767078205996
  0
LINE
  5
8C
330
2
100
AcDbEntity
  8
GAIKEI
  6
Continuous
 62
     1
100
AcDbLine
 10
-19.11081489402534
 20
13.78874084445584
 30
0.0
 11
-18.95313322770533
 21
13.51562807799581
 31
0.0
  0
LINE
  5
8D
330
2
100
AcDbEntity
  8
GAIKEI
  6
Continuous
 62
     1
100
AcDbLine
 10
-19.11081489402534
 20
13.78874084445584
 30
0.0
 11
-19.15090404678534
 21
13.85817727537585
 31
0.0
  0
LINE
  5
8E
330
2
100
AcDbEntity
  8
GAIKEI
  6
Continuous
 62
     1
100
AcDbLine
 10
-19.33418441790536
 20
13.29562807919581
 30
0.0
 11
-19.49186608422536
 21
13.56874084563583
 31
0.0
  0
LINE
  5
8F
330
2
100
AcDbEntity
  8
GAIKEI
  6
Continuous
 62
     1
100
AcDbLine
 10
-19.49186608422536
 20
13.56874084563583
 30
0.0
 11
-19.53195523696536
 21
13.63817727657579
 31
0.0
  0
ARC
  5
90
330
2
100
AcDbEntity
  8
GAIKEI
  6
Continuous
 62
     1
100
AcDbCircle
 10
-17.67505634802535
 20
10.8619341114358
 30
0.0
 40
3.26
100
AcDbArc
 50
123.8695272332985
 51
236.1304727667015
  0
ARC
  5
91
330
2
100
AcDbEntity
  8
GAIKEI
  6
Continuous
 62
     1
100
AcDbCircle
 10
-17.67505634802535
 20
10.8619341114358
 30
0.0
 40
3.25999999999999
100
AcDbArc
 50
243.8695272332999
 51
356.1304727667014
  0
LINE
  5
92
330
2
100
AcDbEntity
  8
GAIKEI
  6
Continuous
 62
     1
100
AcDbLine
 10
-14.34230957406532
 20
10.64193411263579
 30
0.0
 11
-14.42248825210532
 21
10.64193411263579
 31
0.0
  0
ARC
  5
93
330
2
100
AcDbEntity
  8
GAIKEI
  6
Continuous
 62
     1
100
AcDbCircle
 10
-17.67505634802535
 20
10.8619341114358
 30
0.0
 40
3.33999999999985
100
AcDbArc
 50
356.2232921793999
 51
3.776707820600082
  0
LINE
  5
94
330
2
100
AcDbEntity
  8
GAIKEI
  6
Continuous
 62
     1
100
AcDbLine
 10
-14.42248825210532
 20
11.0819341102358
 30
0.0
 11
-14.34230957406532
 21
11.0819341102358
 31
0.0
  0
ARC
  5
95
330
2
100
AcDbEntity
  8
GAIKEI
  6
Continuous
 62
     1
100
AcDbCircle
 10
-17.67505634802535
 20
10.8619341114358
 30
0.0
 40
3.26
100
AcDbArc
 50
3.869527233298558
 51
116.1304727667
  0
LINE
  5
96
330
2
100
AcDbEntity
  8
GAIKEI
  6
Continuous
 62
     1
100
AcDbLine
 10
-14.73785139846535
 20
11.0819341102358
 30
0.0
 11
-14.42248825210532
 21
11.0819341102358
 31
0.0
  0
LINE
  5
97
330
2
100
AcDbEntity
  8
GAIKEI
  6
Continuous
 62
     1
100
AcDbLine
 10
-14.42248825210532
 20
10.64193411263579
 30
0.0
 11
-14.73785139846535
 21
10.64193411263579
 31
0.0
  0
ARC
  5
98
330
2
100
AcDbEntity
  8
GAIKEI
  6
Continuous
 62
     1
100
AcDbCircle
 10
-17.67505634802535
 20
10.8619341114358
 30
0.0
 40
2.94543247960412
100
AcDbArc
 50
4.283520831401065
 51
115.7164791685997
  0
ARC
  5
99
330
2
100
AcDbEntity
  8
GAIKEI
  6
Continuous
 62
     1
100
AcDbCircle
 10
-17.67505634802535
 20
10.8619341114358
 30
0.0
 40
2.945432479604292
100
AcDbArc
 50
244.2835208314003
 51
355.7164791685989
  0
ARC
  5
9A
330
2
100
AcDbEntity
  8
GAIKEI
  6
Continuous
 62
     1
100
AcDbCircle
 10
-17.67505634802535
 20
10.8619341114358
 30
0.0
 40
2.945432479604313
100
AcDbArc
 50
124.2835208314009
 51
235.7164791685991
  0
ARC
  5
9B
330
2
100
AcDbEntity
  8
GAIKEI
  6
Continuous
 62
     7
100
AcDbCircle
 10
-17.67505624636533
 20
10.8619341114358
 30
0.0
 40
3.75000014901162
100
AcDbArc
 50
90.00000155320011
 51
269.9999984467999
  0
ARC
  5
9C
330
2
100
AcDbEntity
  8
GAIKEI
  6
Continuous
 62
     7
100
AcDbCircle
 10
-17.67505644968531
 20
10.8619341114358
 30
0.0
 40
3.75000014901162
100
AcDbArc
 50
270.0000015532001
 51
89.99999844679988
  0
ARC
  5
9D
330
2
100
AcDbEntity
  8
GAIKEI
  6
Continuous
 62
     1
100
AcDbCircle
 10
-17.67505635324534
 20
10.86193408761585
 30
0.0
 40
3.750000000000003
100
AcDbArc
 50
89.40907233310023
 51
98.73412675840121
  0
LINE
  5
9E
330
2
100
AcDbEntity
  8
GAIKEI
  6
Continuous
 62
     1
100
AcDbLine
 10
-17.90795362780534
 20
7.119173319055846
 30
0.0
 11
-17.67505635324534
 21
7.111933962415832
 31
0.0
  0
LWPOLYLINE
  5
9F
330
2
100
AcDbEntity
  8
GAIKEI
  6
Continuous
 62
     1
100
AcDbPolyline
 90
        9
 70
   128
 43
0.0
 10
-19.07082092244531
 20
7.198351011595832
 10
-19.04141031432533
 20
7.190470532495851
 10
-18.95765573012534
 20
7.168028266155829
 10
-18.83230818662531
 20
7.134441793875851
 10
-18.68445066962533
 20
7.094823331555858
 10
-18.53659305948531
 20
7.055205241755857
 10
-18.41124556254533
 20
7.02161839695583
 10
-18.32749097834534
 20
6.999176503135856
 10
-18.29808027710533
 20
6.991295651515827
  0
LWPOLYLINE
  5
A0
330
2
100
AcDbEntity
  8
GAIKEI
  6
Continuous
 62
     1
100
AcDbPolyline
 90
        9
 70
   128
 43
0.0
 10
-19.16543258580532
 20
6.188425929275865
 10
-19.14852144422531
 20
6.18389448615585
 10
-19.10036256764533
 20
6.17099045307583
 10
-19.02828769984535
 20
6.151678175655831
 10
-18.94326968344535
 20
6.128897652935847
 10
-18.85825157392531
 20
6.106117130235816
 10
-18.78617670614534
 20
6.086804480275873
 10
-18.73801782954535
 20
6.073900447215805
 10
-18.72110668796529
 20
6.069369004095847
  0
LWPOLYLINE
  5
A1
330
2
100
AcDbEntity
  8
GAIKEI
  6
Continuous
 62
     1
100
AcDbPolyline
 90
        9
 70
   128
 43
0.0
 10
-20.06507724750532
 20
13.81764034273584
 10
-20.08660737652531
 20
13.79611039997587
 10
-20.14792006688532
 20
13.73479770959585
 10
-20.23968085872531
 20
13.64303691777581
 10
-20.34791991340535
 20
13.53479767681585
 10
-20.45615915436531
 20
13.42655843587585
 10
-20.5479199462053
 20
13.33479764403586
 10
-20.60923263656531
 20
13.27348513993581
 10
-20.6307627655853
 20
13.25195501091582
  0
ARC
  5
A2
330
2
100
AcDbEntity
  8
GAIKEI
  6
Continuous
 62
     1
100
AcDbCircle
 10
-22.46429497930535
 20
13.26117270487583
 30
0.0
 40
0.2003685821423876
100
AcDbArc
 50
270.1834965601995
 51
359.8165034398004
  0
ARC
  5
A3
330
2
100
AcDbEntity
  8
GAIKEI
  6
Continuous
 62
     1
100
AcDbCircle
 10
-22.70128656920531
 20
8.825701927755801
 30
0.0
 40
0.2078795413284102
100
AcDbArc
 50
224.9996272801007
 51
269.9777206224992
  0
ARC
  5
A4
330
2
100
AcDbEntity
  8
GAIKEI
  6
Continuous
 62
     1
100
AcDbCircle
 10
-22.70128783104536
 20
8.82570437329582
 30
0.0
 40
0.2078803783330906
100
AcDbArc
 50
180.0223748819998
 51
225.0003498174002
  0
ARC
  5
A5
330
2
100
AcDbEntity
  8
GAIKEI
  6
Continuous
 62
     1
100
AcDbCircle
 10
-22.05604706274534
 20
13.49816394825581
 30
0.0
 40
0.2078803777559784
100
AcDbArc
 50
134.9996501450983
 51
179.9776765418977
  0
ARC
  5
A6
330
2
100
AcDbEntity
  8
GAIKEI
  6
Continuous
 62
     1
100
AcDbCircle
 10
-22.70128783154536
 20
12.85292317945584
 30
0.0
 40
0.2078803777559784
100
AcDbArc
 50
134.9996501450983
 51
179.9776765418977
  0
ARC
  5
A7
330
2
100
AcDbEntity
  8
GAIKEI
  6
Continuous
 62
     1
100
AcDbCircle
 10
-22.05604580042535
 20
13.4981663934758
 30
0.0
 40
0.207879541328416
100
AcDbArc
 50
90.02227937750081
 51
135.0003727198992
  0
ARC
  5
A8
330
2
100
AcDbEntity
  8
GAIKEI
  6
Continuous
 62
     1
100
AcDbCircle
 10
-22.70128656920531
 20
12.85292562467583
 30
0.0
 40
0.207879541328416
100
AcDbArc
 50
90.02227937750081
 51
135.0003727198992
  0
LINE
  5
A9
330
2
100
AcDbEntity
  8
GAIKEI
  6
Continuous
 62
     1
100
AcDbLine
 10
-18.07505636702535
 20
6.961934030975839
 30
0.0
 11
-17.27505632902534
 21
6.961934030975839
 31
0.0
  0
ARC
  5
AA
330
2
100
AcDbEntity
  8
GAIKEI
  6
Continuous
 62
     1
100
AcDbCircle
 10
-22.71616894960533
 20
8.810821459795818
 30
0.0
 40
0.2988872678939976
100
AcDbArc
 50
180.0004570748007
 51
269.9995429251993
  0
LINE
  5
AB
330
2
100
AcDbEntity
  8
GAIKEI
  6
Continuous
 62
     1
100
AcDbLine
 10
-20.30223593342532
 20
13.81193412931583
 30
0.0
 11
-20.07078351029097
 21
13.81193412931583
 31
0.0
  0
LINE
  5
AC
330
2
100
AcDbEntity
  8
GAIKEI
  6
Continuous
 62
     1
100
AcDbLine
 10
-21.68787684518532
 20
13.81193412931583
 30
0.0
 11
-22.07093056518534
 21
13.81193412931583
 31
0.0
  0
LINE
  5
AD
330
2
100
AcDbEntity
  8
GAIKEI
  6
Continuous
 62
     1
100
AcDbLine
 10
-23.01505621748532
 20
8.810819075435802
 30
0.0
 11
-23.01505621748532
 21
12.86780847699583
 31
0.0
  0
LINE
  5
AE
330
2
100
AcDbEntity
  8
GAIKEI
  6
Continuous
 62
     1
100
AcDbLine
 10
-18.02505635882534
 20
6.921951980315839
 30
0.0
 11
-17.67505634802535
 21
6.921951980315839
 31
0.0
  0
LINE
  5
AF
330
2
100
AcDbEntity
  8
GAIKEI
  6
Continuous
 62
     1
100
AcDbLine
 10
-17.67505634802535
 20
6.921951980315839
 30
0.0
 11
-17.32505633722536
 21
6.921951980315839
 31
0.0
  0
LINE
  5
B0
330
2
100
AcDbEntity
  8
GAIKEI
  6
Continuous
 62
     1
100
AcDbLine
 10
-17.90505635312536
 20
5.92195181639579
 30
0.0
 11
-17.44505634292534
 21
5.92195181639579
 31
0.0
  0
LINE
  5
B1
330
2
100
AcDbEntity
  8
GAIKEI
  6
Continuous
 62
     1
100
AcDbLine
 10
-22.71617133396535
 20
8.511934191895818
 30
0.0
 11
-20.59738416450534
 21
8.511934191895818
 31
0.0
  0
ARC
  5
B2
330
2
100
AcDbEntity
  8
GAIKEI
  6
Continuous
 62
     1
100
AcDbCircle
 10
-22.43744719828533
 20
13.5195192736158
 30
0.0
 40
0.0797198424754221
100
AcDbArc
 50
352.0170826609996
 51
50.34569958890146
  0
ARC
  5
B3
330
2
100
AcDbEntity
  8
GAIKEI
  6
Continuous
 62
     1
100
AcDbCircle
 10
-22.46505635260536
 20
13.26193407817584
 30
0.0
 40
0.380000013352062
100
AcDbArc
 50
81.46560112009913
 51
188.5343988798977
  0
ARC
  5
B4
330
2
100
AcDbEntity
  8
GAIKEI
  6
Continuous
 62
     1
100
AcDbCircle
 10
-22.91969364566535
 20
13.1936105352558
 30
0.0
 40
0.0797425449761462
100
AcDbArc
 50
301.9059846279993
 51
8.604367310100974
  0
ARC
  5
B5
330
2
100
AcDbEntity
  8
GAIKEI
  6
Continuous
 62
     1
100
AcDbCircle
 10
-22.39673279544536
 20
13.71657134027583
 30
0.0
 40
0.0797425165214465
100
AcDbArc
 50
261.3956192348995
 51
328.0940288270021
  0
LINE
  5
B6
330
2
100
AcDbEntity
  8
GAIKEI
  6
Continuous
 62
     1
100
AcDbLine
 10
-20.99505629616533
 20
13.81193412931583
 30
0.0
 11
-20.30223593342532
 21
13.81193412931583
 31
0.0
  0
LINE
  5
B7
330
2
100
AcDbEntity
  8
GAIKEI
  6
Continuous
 62
     1
100
AcDbLine
 10
-21.68787684518532
 20
13.81193412931583
 30
0.0
 11
-20.99505629616533
 21
13.81193412931583
 31
0.0
  0
LINE
  5
B8
330
2
100
AcDbEntity
  8
GAIKEI
  6
Continuous
 62
     1
100
AcDbLine
 10
-21.69047001976531
 20
13.81193412931583
 30
0.0
 11
-21.68787684518532
 21
13.81193412931583
 31
0.0
  0
LINE
  5
B9
330
2
100
AcDbEntity
  8
GAIKEI
  6
Continuous
 62
     1
100
AcDbLine
 10
-20.30223593342532
 20
13.81193412931583
 30
0.0
 11
-20.29964275884532
 21
13.81193412931583
 31
0.0
  0
LINE
  5
BA
330
2
100
AcDbEntity
  8
GAIKEI
  6
Continuous
 62
     1
100
AcDbLine
 10
-20.99505629616533
 20
14.41193422767583
 30
0.0
 11
-21.49505619186533
 21
14.41193422767583
 31
0.0
  0
LINE
  5
BB
330
2
100
AcDbEntity
  8
GAIKEI
  6
Continuous
 62
     1
100
AcDbLine
 10
-20.49505640048534
 20
14.41193422767583
 30
0.0
 11
-20.99505629616533
 21
14.41193422767583
 31
0.0
  0
ARC
  5
BC
330
2
100
AcDbEntity
  8
GAIKEI
  6
Continuous
 62
     1
100
AcDbCircle
 10
-22.05914921648334
 20
13.47882878162761
 30
0.0
 40
0.3333136253376487
100
AcDbArc
 50
92.02560634081791
 51
144.0680339565368
  0
ARC
  5
BD
330
2
100
AcDbEntity
  8
GAIKEI
  6
Continuous
 62
     1
100
AcDbCircle
 10
-22.71499392185686
 20
12.87369208831205
 30
0.0
 40
0.3000674456923751
100
AcDbArc
 50
122.8010531461963
 51
180.3356870839173
  0
ARC
  5
BE
330
2
100
AcDbEntity
  8
GAIKEI
  6
Continuous
 62
     1
100
AcDbCircle
 10
-22.71641802054535
 20
8.810572388855803
 30
0.0
 40
0.2986381970723646
100
AcDbArc
 50
179.9983779943005
 51
270.0015862706
  0
LINE
  5
BF
330
2
100
AcDbEntity
  8
GAIKEI
  6
Continuous
 62
     1
100
AcDbLine
 10
-23.01505621748532
 20
12.86780847699583
 30
0.0
 11
-23.01505621748532
 21
12.87193404975585
 31
0.0
  0
ARC
  5
C0
330
2
100
AcDbEntity
  8
GAIKEI
  6
Continuous
 62
     7
100
AcDbCircle
 10
-15.65455814946534
 20
15.58843471191585
 30
0.0
 40
6.0
100
AcDbArc
 50
153.0549675031988
 51
170.6624873464979
  0
LINE
  5
C1
330
2
100
AcDbEntity
  8
GAIKEI
  6
Continuous
 62
     1
100
AcDbLine
 10
-13.77505634851687
 20
16.56193411441575
 30
0.0
 11
-21.57505634753383
 21
16.5619341144158
 31
0.0
  0
ELLIPSE
  5
C2
330
2
100
AcDbEntity
  8
GAIKEI
  6
Continuous
 62
     1
100
AcDbEllipse
 10
-20.9750563480253
 20
18.10479125429583
 30
0.0
 11
-0.0000000000000114
 21
1.542857142857144
 31
0.0
210
0.0
220
0.0
230
1.0
 40
0.3888888889
 41
3.098064568962695
 42
3.141592653589792
  0
LINE
  5
C3
330
2
100
AcDbEntity
  8
GAIKEI
  6
Continuous
 62
     7
100
AcDbLine
 10
-21.57505642848537
 20
16.36193408163581
 30
0.0
 11
-21.57505642848537
 21
16.56177839727581
 31
0.0
  0
LINE
  5
C4
330
2
100
AcDbEntity
  8
GAIKEI
  6
Continuous
 62
     7
100
AcDbLine
 10
-13.77505626756533
 20
16.56177839727581
 30
0.0
 11
-13.77505626756533
 21
16.36193408163581
 31
0.0
  0
ARC
  5
C5
330
2
100
AcDbEntity
  8
GAIKEI
  6
Continuous
 62
     7
100
AcDbCircle
 10
-19.69555454658535
 20
15.58843471191585
 30
0.0
 40
6.0
100
AcDbArc
 50
9.33751265350204
 51
26.94503249680118
  0
ARC
  5
C6
330
2
100
AcDbEntity
  8
GAIKEI
  6
Continuous
 62
     1
100
AcDbCircle
 10
-17.22332607434532
 20
17.26193411143583
 30
0.0
 40
0.1000000000000014
100
AcDbArc
 50
270.0
 51
358.9999999999982
  0
ARC
  5
C7
330
2
100
AcDbEntity
  8
GAIKEI
  6
Continuous
 62
     1
100
AcDbCircle
 10
-18.12678662172533
 20
17.26193411143583
 30
0.0
 40
0.1000000000000014
100
AcDbArc
 50
180.9999999999985
 51
270.0
  0
LINE
  5
C8
330
2
100
AcDbEntity
  8
GAIKEI
  6
Continuous
 62
     1
100
AcDbLine
 10
-18.12678663286533
 20
17.16193421275579
 30
0.0
 11
-17.22332606318537
 21
17.16193421275579
 31
0.0
  0
LINE
  5
C9
330
2
100
AcDbEntity
  8
GAIKEI
  6
Continuous
 62
     1
100
AcDbLine
 10
-17.12334132048534
 20
17.2601887443958
 30
0.0
 11
-17.10582533146532
 21
18.26367913277585
 31
0.0
  0
LINE
  5
CA
330
2
100
AcDbEntity
  8
GAIKEI
  6
Continuous
 62
     1
100
AcDbLine
 10
-18.24428736458532
 20
18.26367913277585
 30
0.0
 11
-18.22677137556536
 21
17.2601887443958
 31
0.0
  0
LINE
  5
CB
330
2
100
AcDbEntity
  8
GAIKEI
  6
Continuous
 62
     7
100
AcDbLine
 10
-14.43604868132536
 20
18.36193440945584
 30
0.0
 11
-20.91406401472534
 21
18.36193440945584
 31
0.0
  0
ARC
  5
CC
330
2
100
AcDbEntity
  8
GAIKEI
  6
Continuous
 62
     7
100
AcDbCircle
 10
-14.43604877506533
 20
18.26193411143583
 30
0.0
 40
0.1000000000000045
100
AcDbArc
 50
26.94503249680118
 51
90.0
  0
ARC
  5
CD
330
2
100
AcDbEntity
  8
GAIKEI
  6
Continuous
 62
     7
100
AcDbCircle
 10
-20.91406392100532
 20
18.26193411143583
 30
0.0
 40
0.1000000000000045
100
AcDbArc
 50
90.0
 51
153.0549675031988
  0
ARC
  5
CE
330
2
100
AcDbEntity
  8
GAIKEI
  6
Continuous
 62
     1
100
AcDbCircle
 10
-17.00584054380533
 20
18.26193411143583
 30
0.0
 40
0.1
100
AcDbArc
 50
90.0
 51
178.9999999999982
  0
ARC
  5
CF
330
2
100
AcDbEntity
  8
GAIKEI
  6
Continuous
 62
     1
100
AcDbCircle
 10
-18.34427215224531
 20
18.26193411143583
 30
0.0
 40
0.1000000000000011
100
AcDbArc
 50
0.9999999999985053
 51
90.0
  0
LWPOLYLINE
  5
D0
330
2
100
AcDbEntity
  8
GAIKEI
  6
Continuous
 62
     7
100
AcDbPolyline
 90
        3
 70
   128
 43
0.0
 10
-24.48026988882532
 20
13.75235518905583
 10
-24.68895171064531
 20
12.36361716407583
 10
-24.77505658048534
 20
10.96192978553585
  0
LWPOLYLINE
  5
D1
330
2
100
AcDbEntity
  8
GAIKEI
  6
Continuous
 62
     1
100
AcDbPolyline
 90
        3
 70
   128
 43
0.0
 10
-10.92947982700531
 20
13.75233935655586
 10
-10.72080024034534
 20
12.36360943409585
 10
-10.63469611556536
 20
10.96193056551584
  0
ARC
  5
D2
330
2
100
AcDbEntity
  8
GAIKEI
  6
Continuous
 62
     1
100
AcDbCircle
 10
-9.964913387605349
 20
8.035916399475809
 30
0.0
 40
5.797230359437111
100
AcDbArc
 50
99.57764391530176
 51
101.5511635314005
  0
LINE
  5
D3
330
2
100
AcDbEntity
  8
GAIKEI
  6
Continuous
 62
     1
100
AcDbLine
 10
-10.63469611556536
 20
10.96193056551584
 30
0.0
 11
-10.63399799616536
 21
10.92193411429582
 31
0.0
  0
LINE
  5
D4
330
2
100
AcDbEntity
  8
GAIKEI
  6
Continuous
 62
     1
100
AcDbLine
 10
-10.63399799616536
 20
10.92193411429582
 30
0.0
 11
-10.83399840148536
 21
10.92193411429582
 31
0.0
  0
LINE
  5
D5
330
2
100
AcDbEntity
  8
GAIKEI
  6
Continuous
 62
     1
100
AcDbLine
 10
-13.87567412334533
 20
10.92193411429582
 30
0.0
 11
-10.83399840148536
 21
10.92193411429582
 31
0.0
  0
LINE
  5
D6
330
2
100
AcDbEntity
  8
GAIKEI
  6
Continuous
 62
     1
100
AcDbLine
 10
-13.87567412334533
 20
10.92193411429582
 30
0.0
 11
-13.87637224274533
 21
10.96193411619583
 31
0.0
  0
ARC
  5
D7
330
2
100
AcDbEntity
  8
GAIKEI
  6
Continuous
 62
     1
100
AcDbCircle
 10
-17.67741164028666
 20
10.85830047582078
 30
0.0
 40
3.80245177481681
100
AcDbArc
 50
1.561756896140688
 51
128.8974126289729
  0
LINE
  5
D8
330
2
100
AcDbEntity
  8
GAIKEI
  6
Continuous
 62
     1
100
AcDbLine
 10
-24.57575429458535
 20
10.92193411429582
 30
0.0
 11
-23.01505621748532
 21
10.92193411429582
 31
0.0
  0
LINE
  5
D9
330
2
100
AcDbEntity
  8
GAIKEI
  6
Continuous
 62
     1
100
AcDbLine
 10
-24.57575429458535
 20
10.92193411429582
 30
0.0
 11
-24.77575469988534
 21
10.92193411429582
 31
0.0
  0
LINE
  5
DA
330
2
100
AcDbEntity
  8
GAIKEI
  6
Continuous
 62
     1
100
AcDbLine
 10
-24.77505658048534
 20
10.9619297855358
 30
0.0
 11
-24.77575469988534
 21
10.92193411429582
 31
0.0
  0
ARC
  5
DB
330
2
100
AcDbEntity
  8
GAIKEI
  6
Continuous
 62
     7
100
AcDbCircle
 10
-19.57313870298532
 20
12.79308192447581
 30
0.0
 40
5.000014167084182
100
AcDbArc
 50
148.4700121297013
 51
168.9389922900978
  0
ARC
  5
DC
330
2
100
AcDbEntity
  8
GAIKEI
  6
Continuous
 62
     1
100
AcDbCircle
 10
-27.17558873084533
 20
9.676392685735834
 30
0.0
 40
6.633914730393567
100
AcDbArc
 50
58.04429080010094
 51
59.76387826949822
  0
ARC
  5
DD
330
2
100
AcDbEntity
  8
GAIKEI
  6
Continuous
 62
     7
100
AcDbCircle
 10
-15.83660915176534
 20
12.7930846752958
 30
0.0
 40
5.000008775335764
100
AcDbArc
 50
11.06080280849959
 51
31.5299687616024
  0
ARC
  5
DE
330
2
100
AcDbEntity
  8
GAIKEI
  6
Continuous
 62
     7
100
AcDbCircle
 10
-13.27950889650532
 20
14.36193321619583
 30
0.0
 40
2.000000865459872
100
AcDbArc
 50
31.5295992099002
 51
90.00029616499899
  0
LWPOLYLINE
  5
DF
330
2
100
AcDbEntity
  8
GAIKEI
  6
Continuous
 62
     1
100
AcDbPolyline
 90
        5
 70
   128
 43
0.0
 10
-13.2795084312653
 20
16.16367934735581
 10
-13.27951141150532
 20
16.23967862221582
 10
-13.27951401920535
 20
16.30397117229586
 10
-13.27951662690532
 20
16.34687645825585
 10
-13.27951923460534
 20
16.36193408163586
  0
ARC
  5
E0
330
2
100
AcDbEntity
  8
GAIKEI
  6
Continuous
 62
     7
100
AcDbCircle
 10
-22.13024430216535
 20
14.36193447759581
 30
0.0
 40
1.999999604066794
100
AcDbArc
 50
89.99972145280116
 51
148.4703709327018
  0
LWPOLYLINE
  5
E1
330
2
100
AcDbEntity
  8
GAIKEI
  6
Continuous
 62
     1
100
AcDbPolyline
 90
        7
 70
   128
 43
0.0
 10
-22.13024426478535
 20
16.16367971987586
 10
-22.13024202960531
 20
16.23677103313582
 10
-22.13024091202533
 20
16.27226150127586
 10
-22.13023942190535
 20
16.30392125339585
 10
-22.1302383043253
 20
16.32963581475582
 10
-22.13023718672531
 20
16.34801341685585
 10
-22.13023457902534
 20
16.36193370909586
  0
LINE
  5
E2
330
2
100
AcDbEntity
  8
GAIKEI
  6
Continuous
 62
     7
100
AcDbLine
 10
-22.13023457902534
 20
16.36193408163581
 30
0.0
 11
-13.27951923460534
 21
16.36193408163581
 31
0.0
  0
LINE
  5
E3
330
2
100
AcDbEntity
  8
GAIKEI
  6
Continuous
 62
     1
100
AcDbLine
 10
-23.81546166020536
 20
15.4352766880558
 30
0.0
 11
-23.83497994620535
 21
15.40781943591582
 31
0.0
  0
ARC
  5
E4
330
2
100
AcDbEntity
  8
GAIKEI
  6
Continuous
 62
     7
100
AcDbCircle
 10
-19.90584825116531
 20
10.88479552969579
 30
0.0
 40
9.471179387188806
100
AcDbArc
 50
339.1209303736015
 51
359.8617000060976
  0
LINE
  5
E5
330
2
100
AcDbEntity
  8
GAIKEI
  6
Continuous
 62
     1
100
AcDbLine
 10
-11.06156893522535
 20
7.510270685875809
 30
0.0
 11
-11.05533279926533
 21
7.530295611335816
 31
0.0
  0
ARC
  5
E6
330
2
100
AcDbEntity
  8
GAIKEI
  6
Continuous
 62
     7
100
AcDbCircle
 10
-19.90586516412531
 20
10.88480147145583
 30
0.0
 40
9.471196314453242
100
AcDbArc
 50
359.8616643085992
 51
20.57938217360023
  0
ARC
  5
E7
330
2
100
AcDbEntity
  8
GAIKEI
  6
Continuous
 62
     1
100
AcDbCircle
 10
-17.67505634802535
 20
10.8619341114358
 30
0.0
 40
3.800000000000003
100
AcDbArc
 50
277.1798149628003
 51
358.9999999999982
  0
ARC
  5
E8
330
2
100
AcDbEntity
  8
GAIKEI
  6
Continuous
 62
     1
100
AcDbCircle
 10
-17.67505634802535
 20
10.8619341114358
 30
0.0
 40
3.799999999999996
100
AcDbArc
 50
218.2009228307987
 51
247.8201848250017
  0
LINE
  5
E9
330
2
100
AcDbEntity
  8
GAIKEI
  6
Continuous
 62
     1
100
AcDbLine
 10
-13.87447756010533
 20
10.8619341114358
 30
0.0
 11
-13.87563500780533
 21
10.79561496849584
 31
0.0
  0
LINE
  5
EA
330
2
100
AcDbEntity
  8
GAIKEI
  6
Continuous
 62
     1
100
AcDbLine
 10
-23.01505621748532
 20
10.8619341114358
 30
0.0
 11
-24.57505617516535
 21
10.8619341114358
 31
0.0
  0
LINE
  5
EB
330
2
100
AcDbEntity
  8
GAIKEI
  6
Continuous
 62
     1
100
AcDbLine
 10
-10.83469652088536
 20
10.8619341114358
 30
0.0
 11
-13.87447756010533
 21
10.8619341114358
 31
0.0
  0
ARC
  5
EC
330
2
100
AcDbEntity
  8
GAIKEI
  6
Continuous
 62
     1
100
AcDbCircle
 10
-25.47767445644536
 20
13.61045952607583
 30
0.0
 40
5.813250473938021
100
AcDbArc
 50
280.2456775542988
 51
282.2135648875997
  0
LINE
  5
ED
330
2
100
AcDbEntity
  8
GAIKEI
  6
Continuous
 62
     1
100
AcDbLine
 10
-24.57505617516535
 20
10.8619341114358
 30
0.0
 11
-24.77505658048534
 21
10.8619341114358
 31
0.0
  0
ARC
  5
EE
330
2
100
AcDbEntity
  8
GAIKEI
  6
Continuous
 62
     1
100
AcDbCircle
 10
-9.931547393525363
 20
13.61307840361581
 30
0.0
 40
5.815922379251644
100
AcDbArc
 50
257.7867819744985
 51
259.7537658625019
  0
ARC
  5
EF
330
2
100
AcDbEntity
  8
GAIKEI
  6
Continuous
 62
     1
100
AcDbCircle
 10
-26.63229238562536
 20
11.14117672663582
 30
0.0
 40
16.00003321427097
100
AcDbArc
 50
348.2756172914025
 51
358.9999873481001
  0
LINE
  5
F0
330
2
100
AcDbEntity
  8
GAIKEI
  6
Continuous
 62
     1
100
AcDbLine
 10
-10.63469611556536
 20
10.8619341114358
 30
0.0
 11
-10.83469652088536
 21
10.8619341114358
 31
0.0
  0
ARC
  5
F1
330
2
100
AcDbEntity
  8
GAIKEI
  6
Continuous
 62
     1
100
AcDbCircle
 10
-27.09983156746535
 20
12.06284652325581
 30
0.0
 40
6.595049152986162
100
AcDbArc
 50
299.6728548061
 51
301.4027044064006
  0
ARC
  5
F2
330
2
100
AcDbEntity
  8
GAIKEI
  6
Continuous
 62
     7
100
AcDbCircle
 10
-19.54798662424531
 20
8.905918869635797
 30
0.0
 40
5.000005232651543
100
AcDbArc
 50
191.7242840789995
 51
210.9745262328001
  0
ARC
  5
F3
330
2
100
AcDbEntity
  8
GAIKEI
  6
Continuous
 62
     7
100
AcDbCircle
 10
-15.86176630072532
 20
8.905919490595806
 30
0.0
 40
5.000005620822746
100
AcDbArc
 50
329.0254631592973
 51
348.2757073970987
  0
ARC
  5
F4
330
2
100
AcDbEntity
  8
GAIKEI
  6
Continuous
 62
     1
100
AcDbCircle
 10
-8.309814503005327
 20
12.0630061640158
 30
0.0
 40
6.595240967811218
100
AcDbArc
 50
238.5972275976981
 51
240.3270285280996
  0
LWPOLYLINE
  5
F5
330
2
100
AcDbEntity
  8
GAIKEI
  6
Continuous
 62
     1
100
AcDbPolyline
 90
        5
 70
   128
 43
0.0
 10
-22.12017294246533
 20
5.560188875515848
 10
-22.1201707072853
 20
5.484189600675847
 10
-22.12016809958533
 20
5.419897050575855
 10
-22.1201658644053
 20
5.376991764615809
 10
-22.12016362924533
 20
5.361934141235849
  0
ARC
  5
F6
330
2
100
AcDbEntity
  8
GAIKEI
  6
Continuous
 62
     7
100
AcDbCircle
 10
-22.12017246390536
 20
7.361935020675787
 30
0.0
 40
2.000000879460446
100
AcDbArc
 50
210.9741644044995
 51
270.0002530944987
  0
ARC
  5
F7
330
2
100
AcDbEntity
  8
GAIKEI
  6
Continuous
 62
     7
100
AcDbCircle
 10
-13.28957973898537
 20
7.361933886375823
 30
0.0
 40
1.999999745166493
100
AcDbArc
 50
269.9997221048985
 51
329.0258415431002
  0
LWPOLYLINE
  5
F8
330
2
100
AcDbEntity
  8
GAIKEI
  6
Continuous
 62
     1
100
AcDbPolyline
 90
        7
 70
   128
 43
0.0
 10
-13.28957975358531
 20
5.560188875515848
 10
-13.28958198876535
 20
5.487097934795826
 10
-13.28958310636528
 20
5.451607466655843
 10
-13.28958459646532
 20
5.419947714535851
 10
-13.28958571406531
 20
5.394233153175832
 10
-13.28958720416528
 20
5.375855178555866
 10
-13.28958943934532
 20
5.36193451377585
  0
LINE
  5
F9
330
2
100
AcDbEntity
  8
GAIKEI
  6
Continuous
 62
     7
100
AcDbLine
 10
-13.28959018440537
 20
5.361934141235792
 30
0.0
 11
-22.12016362924533
 21
5.361934141235792
 31
0.0
  0
LINE
  5
FA
330
2
100
AcDbEntity
  8
GAIKEI
  6
Continuous
 62
     1
100
AcDbLine
 10
-11.63178384752535
 20
6.249904022535815
 30
0.0
 11
-11.57478578836532
 21
6.332622603495792
 31
0.0
  0
LWPOLYLINE
  5
FB
330
2
100
AcDbEntity
  8
GAIKEI
  6
Continuous
 62
     7
100
AcDbPolyline
 90
        3
 70
   128
 43
0.0
 10
-24.70289249200533
 20
9.465954215255862
 10
-24.7670315601253
 20
10.39587105157585
 10
-24.77575469988534
 20
10.92193411429582
  0
LWPOLYLINE
  5
FC
330
2
100
AcDbEntity
  8
GAIKEI
  6
Continuous
 62
     7
100
AcDbPolyline
 90
        3
 70
   128
 43
0.0
 10
-24.41502515452532
 20
7.760498807755823
 10
-24.5851286150853
 20
8.602159605335828
 10
-24.70289249200533
 20
9.465954215255862
  0
LWPOLYLINE
  5
FD
330
2
100
AcDbEntity
  8
GAIKEI
  6
Continuous
 62
     7
100
AcDbPolyline
 90
        4
 70
   128
 43
0.0
 10
-23.9439007162399
 20
6.523484899439324
 10
-24.02609963196534
 20
6.524919853535834
 10
-24.18717447894534
 20
6.527731330115841
 10
-24.4063914217453
 20
6.531557575775877
  0
LWPOLYLINE
  5
FE
330
2
100
AcDbEntity
  8
GAIKEI
  6
Continuous
 62
     7
100
AcDbPolyline
 90
        4
 70
   128
 43
0.0
 10
-24.4719937838853
 20
15.05116535815585
 10
-24.25756458420534
 20
15.05490815731582
 10
-24.10017404932535
 20
15.05765555889581
 10
-24.02442846674535
 20
15.05897766443581
  0
ARC
  5
FF
330
2
100
AcDbEntity
  8
GAIKEI
  6
Continuous
 62
     7
100
AcDbCircle
 10
-24.46605988636532
 20
14.71121692157584
 30
0.0
 40
0.3400002215615558
100
AcDbArc
 50
91.00001272020072
 51
156.0285651078998
  0
ARC
  5
100
330
2
100
AcDbEntity
  8
GAIKEI
  6
Continuous
 62
     7
100
AcDbCircle
 10
-24.40045720540536
 20
6.871506542655822
 30
0.0
 40
0.3400007573634076
100
AcDbArc
 50
205.8852183023998
 51
268.9999351227011
  0
ARC
  5
101
330
2
100
AcDbEntity
  8
GAIKEI
  6
Continuous
 62
     7
100
AcDbCircle
 10
-11.89666494602534
 20
10.86192778307583
 30
0.0
 40
13.53839127165225
100
AcDbArc
 50
181.6367264234997
 51
193.2431488458007
  0
LWPOLYLINE
  5
102
330
2
100
AcDbEntity
  8
GAIKEI
  6
Continuous
 62
     7
100
AcDbPolyline
 90
        3
 70
   128
 43
0.0
 10
-24.7063458361053
 20
6.723072514855857
 10
-24.91996515768534
 20
7.233403385595863
 10
-25.07357377786531
 20
7.754349098515831
  0
LINE
  5
103
330
2
100
AcDbEntity
  8
GAIKEI
  6
Continuous
 62
     1
100
AcDbLine
 10
-25.07357377786537
 20
7.754349098515831
 30
0.0
 11
-25.07502515096536
 21
7.760498994015847
 31
0.0
  0
LINE
  5
104
330
2
100
AcDbEntity
  8
GAIKEI
  6
Continuous
 62
     1
100
AcDbLine
 10
-25.02938438434535
 20
14.14239196571583
 30
0.0
 11
-25.02622906344533
 21
14.15383456739585
 31
0.0
  0
ARC
  5
105
330
2
100
AcDbEntity
  8
GAIKEI
  6
Continuous
 62
     1
100
AcDbCircle
 10
-11.89129395172534
 20
10.86201588323581
 30
0.0
 40
13.54376269741476
100
AcDbArc
 50
180.4198721219992
 51
181.5417901563007
  0
LINE
  5
106
330
2
100
AcDbEntity
  8
GAIKEI
  6
Continuous
 62
     1
100
AcDbLine
 10
-25.07502515096536
 20
13.96336941511583
 30
0.0
 11
-25.09483698982535
 21
13.8779477635158
 31
0.0
  0
ARC
  5
107
330
2
100
AcDbEntity
  8
GAIKEI
  6
Continuous
 62
     7
100
AcDbCircle
 10
-11.8965609065853
 20
10.86193015369582
 30
0.0
 40
13.53849525582642
100
AcDbArc
 50
167.1280151636013
 51
180.4196726625
  0
ARC
  5
108
330
2
100
AcDbEntity
  8
GAIKEI
  6
Continuous
 62
     7
100
AcDbCircle
 10
-20.20799141388534
 20
12.8179514717558
 30
0.0
 40
4.999999999999966
100
AcDbArc
 50
155.9762751139
 51
166.7568752542978
  0
ARC
  5
109
330
2
100
AcDbEntity
  8
GAIKEI
  6
Continuous
 62
     7
100
AcDbCircle
 10
-11.89661246000531
 20
10.8619341114358
 30
0.0
 40
13.53844388802355
100
AcDbArc
 50
177.6197367816998
 51
181.9658854807016
  0
LINE
  5
10A
330
2
100
AcDbEntity
  8
GAIKEI
  6
Continuous
 62
     1
100
AcDbLine
 10
-25.37249703186535
 20
12.16193413825584
 30
0.0
 11
-25.37249703186535
 21
12.2612614603558
 31
0.0
  0
LINE
  5
10B
330
2
100
AcDbEntity
  8
GAIKEI
  6
Continuous
 62
     1
100
AcDbLine
 10
-25.41694794076534
 20
10.16193408983582
 30
0.0
 11
-25.41694794076534
 21
10.06260667459582
 31
0.0
  0
LINE
  5
10C
330
2
100
AcDbEntity
  8
GAIKEI
  6
Continuous
 62
     1
100
AcDbLine
 10
-19.74505637068535
 20
16.40465608331584
 30
0.0
 11
-19.74505637068535
 21
16.40329448969584
 31
0.0
  0
ARC
  5
10D
330
2
100
AcDbEntity
  8
GAIKEI
  6
Continuous
 62
     1
100
AcDbCircle
 10
-19.47505634802536
 20
15.08205823885583
 30
0.0
 40
1.348541757374987
100
AcDbArc
 50
95.95894653199849
 51
101.5496061687999
  0
ARC
  5
10E
330
2
100
AcDbEntity
  8
GAIKEI
  6
Continuous
 62
     1
100
AcDbCircle
 10
-19.57505638006535
 20
16.20465142145582
 30
0.0
 40
0.222290179455223
100
AcDbArc
 50
79.6334388347003
 51
100.3665611652997
  0
LINE
  5
10F
330
2
100
AcDbEntity
  8
GAIKEI
  6
Continuous
 62
     1
100
AcDbLine
 10
-19.53505635488534
 20
16.42331308217581
 30
0.0
 11
-19.53505635488534
 21
16.40329448969584
 31
0.0
  0
ARC
  5
110
330
2
100
AcDbEntity
  8
GAIKEI
  6
Continuous
 62
     1
100
AcDbCircle
 10
-19.47505634802536
 20
15.08205823885583
 30
0.0
 40
1.322597773846612
100
AcDbArc
 50
87.39986934539917
 51
92.60013065460082
  0
LINE
  5
111
330
2
100
AcDbEntity
  8
GAIKEI
  6
Continuous
 62
     1
100
AcDbLine
 10
-19.41505637246535
 20
16.40329448969584
 30
0.0
 11
-19.41505637246535
 21
16.42331308217581
 31
0.0
  0
ARC
  5
112
330
2
100
AcDbEntity
  8
GAIKEI
  6
Continuous
 62
     1
100
AcDbCircle
 10
-19.37505634728535
 20
16.2608254047758
 30
0.0
 40
0.1673387203325798
100
AcDbArc
 50
76.17033218990113
 51
103.8296678100989
  0
ARC
  5
113
330
2
100
AcDbEntity
  8
GAIKEI
  6
Continuous
 62
     1
100
AcDbCircle
 10
-19.47505634802536
 20
15.08205823885583
 30
0.0
 40
1.348541757374988
100
AcDbArc
 50
78.4503938312001
 51
84.04105346800148
  0
LINE
  5
114
330
2
100
AcDbEntity
  8
GAIKEI
  6
Continuous
 62
     1
100
AcDbLine
 10
-19.20505635666535
 20
16.40329448969584
 30
0.0
 11
-19.20505635666535
 21
16.40465608331584
 31
0.0
  0
LINE
  5
115
330
2
100
AcDbEntity
  8
GAIKEI
  6
Continuous
 62
     1
100
AcDbLine
 10
-19.77505631972536
 20
5.321934209195831
 30
0.0
 11
-19.77505631972536
 21
5.361934141235792
 31
0.0
  0
CIRCLE
  5
116
330
2
100
AcDbEntity
  8
GAIKEI
  6
Continuous
 62
     1
100
AcDbCircle
 10
-17.67505655568533
 20
10.86193416401579
 30
0.0
 40
2.209999993239716
  0
LWPOLYLINE
  5
117
330
2
100
AcDbEntity
  8
GAIKEI
  6
Continuous
 62
     1
100
AcDbPolyline
 90
       11
 70
   128
 43
0.0
 10
-19.25028547870534
 20
6.335395337055842
 10
-19.23373885678529
 20
6.330961869075849
 10
-19.18571902666531
 20
6.318094716395819
 10
-19.11092628020532
 20
6.298054144695811
 10
-19.0166820235853
 20
6.272801519355823
 10
-18.91221137944535
 20
6.244808570455859
 10
-18.80774073528533
 20
6.216815994095838
 10
-18.71349647868533
 20
6.191562996235859
 10
-18.63870373222534
 20
6.171522424535851
 10
-18.59068390208534
 20
6.158655644375812
 10
-18.57413737330535
 20
6.154222176395819
  0
LINE
  5
118
330
2
100
AcDbEntity
  8
GAIKEI
  6
Continuous
 62
     1
100
AcDbLine
 10
-22.46365327614535
 20
12.86107929887583
 30
0.0
 11
-22.70944234210532
 21
12.86107929887583
 31
0.0
  0
ARC
  5
119
330
2
100
AcDbEntity
  8
GAIKEI
  6
Continuous
 62
     1
100
AcDbCircle
 10
-22.47246072928533
 20
13.26933845485581
 30
0.0
 40
0.4083541473628412
100
AcDbArc
 50
271.2358611494984
 51
358.7641388505016
  0
LINE
  5
11A
330
2
100
AcDbEntity
  8
GAIKEI
  6
Continuous
 62
     1
100
AcDbLine
 10
-22.06420157330535
 20
13.50632006765579
 30
0.0
 11
-22.06420157330535
 21
13.26053100171583
 31
0.0
  0
LINE
  5
11B
330
2
100
AcDbEntity
  8
GAIKEI
  6
Continuous
 62
     1
100
AcDbLine
 10
-20.37639770882532
 20
13.50632006765579
 30
0.0
 11
-22.06420157330535
 21
13.50632006765579
 31
0.0
  0
LINE
  5
11C
330
2
100
AcDbEntity
  8
GAIKEI
  6
Continuous
 62
     1
100
AcDbLine
 10
-22.46365327614535
 20
13.06080515029583
 30
0.0
 11
-22.70136740284534
 21
13.06080515029583
 31
0.0
  0
LINE
  5
11D
330
2
100
AcDbEntity
  8
GAIKEI
  6
Continuous
 62
     1
100
AcDbLine
 10
-22.26392742472535
 20
13.26053100171583
 30
0.0
 11
-22.26392742472535
 21
13.49824494215579
 31
0.0
  0
ARC
  5
11E
330
2
100
AcDbEntity
  8
GAIKEI
  6
Continuous
 62
     1
100
AcDbCircle
 10
-22.20079741744536
 20
13.00687817811581
 30
0.0
 40
0.495405585982967
100
AcDbArc
 50
90.12431302269877
 51
97.32116217260077
  0
ARC
  5
11F
330
2
100
AcDbEntity
  8
GAIKEI
  6
Continuous
 62
     1
100
AcDbCircle
 10
-21.67704851534535
 20
-2.044112586304208
 30
0.0
 40
15.55525130675022
100
AcDbArc
 50
91.42617606140067
 51
91.93348820220121
  0
LINE
  5
120
330
2
100
AcDbEntity
  8
GAIKEI
  6
Continuous
 62
     1
100
AcDbLine
 10
-20.67946348566534
 20
8.6178224021358
 30
0.0
 11
-22.70136740284534
 21
8.6178224021358
 31
0.0
  0
LINE
  5
121
330
2
100
AcDbEntity
  8
GAIKEI
  6
Continuous
 62
     1
100
AcDbLine
 10
-22.90916819352532
 20
8.825623192815839
 30
0.0
 11
-22.90916819352532
 21
12.85300417335583
 31
0.0
  0
ARC
  5
122
330
2
100
AcDbEntity
  8
GAIKEI
  6
Continuous
 62
     1
100
AcDbCircle
 10
-22.84603086836535
 20
12.36152494041585
 30
0.0
 40
0.4955180705445472
100
AcDbArc
 50
90.12513095459883
 51
97.32034424060149
  0
ARC
  5
123
330
2
100
AcDbEntity
  8
GAIKEI
  6
Continuous
 62
     1
100
AcDbCircle
 10
-22.32228928414532
 20
-2.689353355104174
 30
0.0
 40
15.55525130675022
100
AcDbArc
 50
91.42617606140067
 51
91.93348820220121
  0
LINE
  5
124
330
2
100
AcDbEntity
  8
GAIKEI
  6
Continuous
 62
     1
100
AcDbLine
 10
-20.17667185742533
 20
13.70604591907579
 30
0.0
 11
-22.05612663406532
 21
13.70604591907579
 31
0.0
  0
ARC
  5
125
330
2
100
AcDbEntity
  8
GAIKEI
  6
Continuous
 62
     1
100
AcDbCircle
 10
-6.495432615545325
 20
13.1186299716158
 30
0.0
 40
15.57359529687959
100
AcDbArc
 50
178.0668125078
 51
178.573527771501
  0
ARC
  5
126
330
2
100
AcDbEntity
  8
GAIKEI
  6
Continuous
 62
     1
100
AcDbCircle
 10
-21.56461601390532
 20
13.64290803587585
 30
0.0
 40
0.49554927305228
100
AcDbArc
 50
172.6800541612982
 51
179.8747908666993
  0
LINE
  5
127
330
2
100
AcDbEntity
  8
GAIKEI
  6
Continuous
 62
     1
100
AcDbLine
 10
-22.90916819352532
 20
12.85300417335583
 30
0.0
 11
-23.01505621748532
 21
12.86780847699583
 31
0.0
  0
LINE
  5
128
330
2
100
AcDbEntity
  8
GAIKEI
  6
Continuous
 62
     1
100
AcDbLine
 10
-22.07093056518534
 20
13.81193412931583
 30
0.0
 11
-22.05612663406532
 21
13.70604591907579
 31
0.0
  0
LINE
  5
129
330
2
100
AcDbEntity
  8
GAIKEI
  6
Continuous
 62
     1
100
AcDbLine
 10
-17.67505634802535
 20
6.041951985075797
 30
0.0
 11
-17.32505633722536
 21
6.041951985075797
 31
0.0
  0
LINE
  5
12A
330
2
100
AcDbEntity
  8
GAIKEI
  6
Continuous
 62
     1
100
AcDbLine
 10
-18.02505635882534
 20
6.041951985075797
 30
0.0
 11
-17.67505634802535
 21
6.041951985075797
 31
0.0
  0
LWPOLYLINE
  5
12B
330
2
100
AcDbEntity
  8
GAIKEI
  6
Continuous
 62
     1
100
AcDbPolyline
 90
        3
 70
   128
 43
0.0
 10
-22.40528319258533
 20
13.20216073187583
 10
-22.37066742258531
 20
13.25398492159581
 10
-22.35851068276531
 20
13.31516927571584
  0
LWPOLYLINE
  5
12C
330
2
100
AcDbEntity
  8
GAIKEI
  6
Continuous
 62
     1
100
AcDbPolyline
 90
        3
 70
   128
 43
0.0
 10
-22.51829210894533
 20
13.15538859459582
 10
-22.45721858220532
 20
13.16749895455586
 10
-22.40528319258533
 20
13.20216073187583
  0
LINE
  5
12D
330
2
100
AcDbEntity
  8
GAIKEI
  6
Continuous
 62
     1
100
AcDbLine
 10
-22.71157022792534
 20
13.15537760497579
 30
0.0
 11
-22.70900611060534
 21
13.15538859459582
 31
0.0
  0
LINE
  5
12E
330
2
100
AcDbEntity
  8
GAIKEI
  6
Continuous
 62
     1
100
AcDbLine
 10
-22.35849987942533
 20
13.50844795347581
 30
0.0
 11
-22.35851105528536
 21
13.50588402243579
 31
0.0
  0
LINE
  5
12F
330
2
100
AcDbEntity
  8
GAIKEI
  6
Continuous
 62
     1
100
AcDbLine
 10
-22.35851068276531
 20
13.50588402243579
 30
0.0
 11
-22.35851068276531
 21
13.31516927571579
 31
0.0
  0
LINE
  5
130
330
2
100
AcDbEntity
  8
GAIKEI
  6
Continuous
 62
     1
100
AcDbLine
 10
-22.70900611060534
 20
13.15538859459582
 30
0.0
 11
-22.51829210894533
 21
13.15538859459582
 31
0.0
  0
ARC
  5
131
330
2
100
AcDbEntity
  8
GAIKEI
  6
Continuous
 62
     1
100
AcDbCircle
 10
-22.72264136684532
 20
13.2343253914758
 30
0.0
 40
0.079720280418123
100
AcDbArc
 50
219.6544760637002
 51
277.9827416864009
  0
ARC
  5
132
330
2
100
AcDbEntity
  8
GAIKEI
  6
Continuous
 62
     1
100
AcDbCircle
 10
-22.46505651626535
 20
13.26193424181582
 30
0.0
 40
0.2685578650702664
100
AcDbArc
 50
66.62337297289844
 51
203.3766270271016
  0
LINE
  5
133
330
2
100
AcDbEntity
  8
GAIKEI
  6
Continuous
 62
     1
100
AcDbLine
 10
-22.38657366710532
 20
13.5808960953558
 30
0.0
 11
-22.40866314846534
 21
13.63772633017584
 31
0.0
  0
LINE
  5
134
330
2
100
AcDbEntity
  8
GAIKEI
  6
Continuous
 62
     1
100
AcDbLine
 10
-22.78401855606535
 20
13.1834513926758
 30
0.0
 11
-22.84084860462536
 21
13.20554087401581
 31
0.0
  0
LINE
  5
135
330
2
100
AcDbEntity
  8
GAIKEI
  6
Continuous
 62
     1
100
AcDbLine
 10
-20.29505636770534
 20
14.21193419487582
 30
0.0
 11
-21.69505622464533
 21
14.21193419487582
 31
0.0
  0
ARC
  5
136
330
2
100
AcDbEntity
  8
GAIKEI
  6
Continuous
 62
     1
100
AcDbCircle
 10
-15.65455814946534
 20
15.80590246861584
 30
0.0
 40
5.399999999999996
100
AcDbArc
 50
152.513949585599
 51
171.9361542941998
  0
ARC
  5
137
330
2
100
AcDbEntity
  8
GAIKEI
  6
Continuous
 62
     1
100
AcDbCircle
 10
-19.69555454658535
 20
15.80590246861584
 30
0.0
 40
5.400000000000008
100
AcDbArc
 50
8.063845705800199
 51
27.48605041440097
  0
LINE
  5
138
330
2
100
AcDbEntity
  8
GAIKEI
  6
Continuous
 62
     1
100
AcDbLine
 10
-18.32675616484533
 20
17.29468791277582
 30
0.0
 11
-18.34427215386535
 21
18.29817904623581
 31
0.0
  0
ARC
  5
139
330
2
100
AcDbEntity
  8
GAIKEI
  6
Continuous
 62
     1
100
AcDbCircle
 10
-18.12678662172533
 20
17.29817873755581
 30
0.0
 40
0.2000000000000028
100
AcDbArc
 50
180.9999999999985
 51
270.0
  0
LINE
  5
13A
330
2
100
AcDbEntity
  8
GAIKEI
  6
Continuous
 62
     1
100
AcDbLine
 10
-17.22332606318537
 20
17.09817884953583
 30
0.0
 11
-18.12678663286533
 21
17.09817884953583
 31
0.0
  0
ARC
  5
13B
330
2
100
AcDbEntity
  8
GAIKEI
  6
Continuous
 62
     1
100
AcDbCircle
 10
-17.22332607434532
 20
17.29817873755581
 30
0.0
 40
0.2000000000000028
100
AcDbArc
 50
270.0
 51
358.9999999999982
  0
LINE
  5
13C
330
2
100
AcDbEntity
  8
GAIKEI
  6
Continuous
 62
     1
100
AcDbLine
 10
-17.00584054220536
 20
18.29817904623581
 30
0.0
 11
-17.02335653122531
 21
17.29468791277582
 31
0.0
  0
LINE
  5
13D
330
2
100
AcDbEntity
  8
GAIKEI
  6
Continuous
 62
     1
100
AcDbLine
 10
-20.97505633014532
 20
16.5619341144158
 30
0.0
 11
-20.97505633014532
 21
16.36193408163581
 31
0.0
  0
LINE
  5
13E
330
2
100
AcDbEntity
  8
GAIKEI
  6
Continuous
 62
     1
100
AcDbLine
 10
-14.37505636590532
 20
16.36193408163581
 30
0.0
 11
-14.37505636590532
 21
16.5619341144158
 31
0.0
  0
LINE
  5
13F
330
2
100
AcDbEntity
  8
GAIKEI
  6
Continuous
 62
     1
100
AcDbLine
 10
-14.90508917946533
 20
18.36193440945584
 30
0.0
 11
-14.90508917946533
 21
18.29817904623581
 31
0.0
  0
LINE
  5
140
330
2
100
AcDbEntity
  8
GAIKEI
  6
Continuous
 62
     1
100
AcDbLine
 10
-20.44502351660532
 20
18.36193440945584
 30
0.0
 11
-20.44502351660532
 21
18.29817904623581
 31
0.0
  0
LINE
  5
141
330
2
100
AcDbEntity
  8
GAIKEI
  6
Continuous
 62
     1
100
AcDbLine
 10
-18.34427215386535
 20
18.29817904623581
 30
0.0
 11
-18.34427215386535
 21
18.36193440945584
 31
0.0
  0
LINE
  5
142
330
2
100
AcDbEntity
  8
GAIKEI
  6
Continuous
 62
     1
100
AcDbLine
 10
-17.00584054220536
 20
18.36193440945584
 30
0.0
 11
-17.00584054220536
 21
18.29817904623581
 31
0.0
  0
LWPOLYLINE
  5
143
330
2
100
AcDbEntity
  8
GAIKEI
  6
Continuous
 62
     1
100
AcDbPolyline
 90
        3
 70
   128
 43
0.0
 10
-24.28398508804531
 20
13.71573130133583
 10
-24.4901642598453
 20
12.34436588825582
 10
-24.57508672254534
 20
10.96018893409587
  0
LWPOLYLINE
  5
144
330
2
100
AcDbEntity
  8
GAIKEI
  6
Continuous
 62
     1
100
AcDbPolyline
 90
        3
 70
   128
 43
0.0
 10
-10.83466597350531
 20
10.96018893409587
 10
-10.91958769114535
 20
12.34436430501586
 10
-11.12576760800533
 20
13.71573130133583
  0
LINE
  5
145
330
2
100
AcDbEntity
  8
GAIKEI
  6
Continuous
 62
     1
100
AcDbLine
 10
-10.83466597350531
 20
10.96018893409581
 30
0.0
 11
-10.83399840148536
 21
10.92193411429582
 31
0.0
  0
ARC
  5
146
330
2
100
AcDbEntity
  8
GAIKEI
  6
Continuous
 62
     1
100
AcDbCircle
 10
-19.57487328418534
 20
12.79550289117583
 30
0.0
 40
4.798182396301601
100
AcDbArc
 50
148.465808323801
 51
168.9429173893019
  0
ARC
  5
147
330
2
100
AcDbEntity
  8
GAIKEI
  6
Continuous
 62
     1
100
AcDbCircle
 10
-22.13024048254533
 20
14.36367277273581
 30
0.0
 40
1.800006574621295
100
AcDbArc
 50
90.0001203917994
 51
148.4696200333987
  0
LINE
  5
148
330
2
100
AcDbEntity
  8
GAIKEI
  6
Continuous
 62
     1
100
AcDbLine
 10
-22.13024426478535
 20
16.16367934735581
 30
0.0
 11
-13.27950843126535
 21
16.16367934735581
 31
0.0
  0
ARC
  5
149
330
2
100
AcDbEntity
  8
GAIKEI
  6
Continuous
 62
     1
100
AcDbCircle
 10
-13.27951221350531
 20
14.36367277273581
 30
0.0
 40
1.800006574621295
100
AcDbArc
 50
31.5303799666013
 51
89.99987960820059
  0
ARC
  5
14A
330
2
100
AcDbEntity
  8
GAIKEI
  6
Continuous
 62
     1
100
AcDbCircle
 10
-15.83484182928532
 20
12.79551754071582
 30
0.0
 40
4.798142701802314
100
AcDbArc
 50
11.0569969950006
 51
31.53427729180013
  0
LINE
  5
14B
330
2
100
AcDbEntity
  8
GAIKEI
  6
Continuous
 62
     1
100
AcDbLine
 10
-24.57575429458535
 20
10.92193411429582
 30
0.0
 11
-24.57508672254534
 21
10.96018893409581
 31
0.0
  0
ARC
  5
14C
330
2
100
AcDbEntity
  8
GAIKEI
  6
Continuous
 62
     1
100
AcDbCircle
 10
-8.236422933865355
 20
9.680018735755822
 30
0.0
 40
6.629642591359658
100
AcDbArc
 50
120.2350335080009
 51
121.9557307819019
  0
LINE
  5
14D
330
2
100
AcDbEntity
  8
GAIKEI
  6
Continuous
 62
     1
100
AcDbLine
 10
-11.06156893522535
 20
7.510270685875809
 30
0.0
 11
-11.05659716280536
 21
7.509298757635804
 31
0.0
  0
ARC
  5
14E
330
2
100
AcDbEntity
  8
GAIKEI
  6
Continuous
 62
     1
100
AcDbCircle
 10
-26.60417319412534
 20
11.13629305919585
 30
0.0
 40
15.77186315500486
100
AcDbArc
 50
348.2659692918023
 51
359.0032628021981
  0
ARC
  5
14F
330
2
100
AcDbEntity
  8
GAIKEI
  6
Continuous
 62
     1
100
AcDbCircle
 10
-15.86024565020534
 20
8.903579607655842
 30
0.0
 40
4.798395852798002
100
AcDbArc
 50
329.0219545463
 51
348.2787966815993
  0
ARC
  5
150
330
2
100
AcDbEntity
  8
GAIKEI
  6
Continuous
 62
     1
100
AcDbCircle
 10
-13.28958420016533
 20
7.360196598095853
 30
0.0
 40
1.800007722578278
100
AcDbArc
 50
270.0001415379003
 51
329.0250689882001
  0
LINE
  5
151
330
2
100
AcDbEntity
  8
GAIKEI
  6
Continuous
 62
     1
100
AcDbLine
 10
-13.28957975358531
 20
5.560188875515791
 30
0.0
 11
-22.12017294246533
 21
5.560188875515791
 31
0.0
  0
ARC
  5
152
330
2
100
AcDbEntity
  8
GAIKEI
  6
Continuous
 62
     1
100
AcDbCircle
 10
-22.12016910718535
 20
7.360195518215846
 30
0.0
 40
1.80000664270131
100
AcDbArc
 50
210.9749115543976
 51
269.9998779195009
  0
ARC
  5
153
330
2
100
AcDbEntity
  8
GAIKEI
  6
Continuous
 62
     1
100
AcDbCircle
 10
-19.54949909670535
 20
8.903582714855815
 30
0.0
 40
4.798404267425135
100
AcDbArc
 50
191.7212203637985
 51
210.9780284082024
  0
ARC
  5
154
330
2
100
AcDbEntity
  8
GAIKEI
  6
Continuous
 62
     1
100
AcDbCircle
 10
-8.805586655725335
 20
11.13629226113585
 30
0.0
 40
15.77185598840753
100
AcDbArc
 50
180.9967347510983
 51
191.7340331549
  0
LWPOLYLINE
  5
155
330
2
100
AcDbEntity
  8
GAIKEI
  6
Continuous
 62
     1
100
AcDbPolyline
 90
        3
 70
   128
 43
0.0
 10
-24.75309748428532
 20
13.96335749419586
 10
-24.80532605428533
 20
14.04149434061582
 10
-24.86178729910534
 20
14.08316432031586
  0
LINE
  5
156
330
2
100
AcDbEntity
  8
GAIKEI
  6
Continuous
 62
     1
100
AcDbLine
 10
-25.00181574600532
 20
14.14656205567581
 30
0.0
 11
-24.86178655404535
 21
14.0831639477758
 31
0.0
  0
ARC
  5
157
330
2
100
AcDbEntity
  8
GAIKEI
  6
Continuous
 62
     1
100
AcDbCircle
 10
-25.42918007490533
 20
13.7193922489958
 30
0.0
 40
0.7187535810074594
100
AcDbArc
 50
348.9745441900988
 51
19.84204169160158
  0
LINE
  5
158
330
2
100
AcDbEntity
  8
GAIKEI
  6
Continuous
 62
     1
100
AcDbLine
 10
-24.76154183858201
 20
11.18193410335584
 30
0.0
 11
-24.99145645874535
 21
11.18193410335584
 31
0.0
  0
LWPOLYLINE
  5
159
330
2
100
AcDbEntity
  8
GAIKEI
  6
Continuous
 62
     1
100
AcDbPolyline
 90
        3
 70
   128
 43
0.0
 10
-24.71304921937065
 20
13.65804644260117
 10
-24.91349507350532
 20
12.35403357537586
 10
-24.99145645874535
 20
11.18193410335584
  0
LINE
  5
15A
330
2
100
AcDbEntity
  8
GAIKEI
  6
Continuous
 62
     1
100
AcDbLine
 10
-25.40174056070532
 20
10.47716205471579
 30
0.0
 11
-25.23928810138534
 21
10.52385165353581
 31
0.0
  0
ARC
  5
15B
330
2
100
AcDbEntity
  8
GAIKEI
  6
Continuous
 62
     1
100
AcDbCircle
 10
-25.55752125060536
 20
10.99781003883584
 30
0.0
 40
0.5708843230709228
100
AcDbArc
 50
303.8788674369978
 51
8.814125215900443
  0
LINE
  5
15C
330
2
100
AcDbEntity
  8
GAIKEI
  6
Continuous
 62
     1
100
AcDbLine
 10
-24.99145645874535
 20
11.18193410335584
 30
0.0
 11
-24.99337870854532
 21
11.08528633599582
 31
0.0
  0
LWPOLYLINE
  5
15D
330
2
100
AcDbEntity
  8
GAIKEI
  6
Continuous
 62
     1
100
AcDbPolyline
 90
        3
 70
   128
 43
0.0
 10
-25.42953197140531
 20
10.47523912971581
 10
-25.42255375760533
 20
10.47571023923586
 10
-25.40173981564533
 20
10.47716205471584
  0
ARC
  5
15E
330
2
100
AcDbEntity
  8
GAIKEI
  6
Continuous
 62
     1
100
AcDbCircle
 10
-24.91158568772533
 20
14.49401861621584
 30
0.0
 40
0.3589815925068811
100
AcDbArc
 50
251.3759411895019
 51
255.4425816149991
  0
LINE
  5
15F
330
2
100
AcDbEntity
  8
GAIKEI
  6
SLD-実線
 62
     7
100
AcDbLine
 10
6.888432039119777
 20
14.61202143223579
 30
0.0
 11
6.678716821759735
 21
14.59367400499582
 31
0.0
  0
LINE
  5
161
330
2
100
AcDbEntity
  8
GAIKEI
  6
SLD-実線
 62
     7
100
AcDbLine
 10
6.678716821759735
 20
7.130194217875839
 30
0.0
 11
6.888432039119777
 21
7.111846790635809
 31
0.0
  0
LINE
  5
162
330
2
100
AcDbEntity
  8
GAIKEI
  6
SLD-実線
 62
     7
100
AcDbLine
 10
6.967432035299736
 20
7.111933962415832
 30
0.0
 11
7.877431793299763
 21
7.111933962415832
 31
0.0
  0
LINE
  5
163
330
2
100
AcDbEntity
  8
GAIKEI
  6
SLD-実線
 62
     7
100
AcDbLine
 10
7.877431793299763
 20
14.61193426045582
 30
0.0
 11
6.967432035299736
 21
14.61193426045582
 31
0.0
  0
LINE
  5
164
330
2
100
AcDbEntity
  8
GAIKEI
  6
SLD-実線
 62
     7
100
AcDbLine
 10
7.877431793299763
 20
7.111933962415832
 30
0.0
 11
8.009858412839776
 21
7.244360581955845
 31
0.0
  0
LINE
  5
165
330
2
100
AcDbEntity
  8
GAIKEI
  6
SLD-実線
 62
     7
100
AcDbLine
 10
8.009858412839776
 20
14.47950764091581
 30
0.0
 11
7.877431793299763
 21
14.61193426045582
 31
0.0
  0
ARC
  5
166
330
2
100
AcDbEntity
  8
GAIKEI
  6
SLD-実線
 62
     1
100
AcDbCircle
 10
6.967432054379742
 20
7.151934087615813
 30
0.0
 40
0.0400000000000034
100
AcDbArc
 50
180.0
 51
270.0
  0
ARC
  5
167
330
2
100
AcDbEntity
  8
GAIKEI
  6
SLD-実線
 62
     7
100
AcDbCircle
 10
6.967432054379742
 20
14.57193408761583
 30
0.0
 40
0.0399999999999977
100
AcDbArc
 50
90.0
 51
180.0
  0
ARC
  5
168
330
2
100
AcDbEntity
  8
GAIKEI
  6
SLD-実線
 62
     7
100
AcDbCircle
 10
6.687432054379769
 20
14.49405439497582
 30
0.0
 40
0.1
100
AcDbArc
 50
94.99999999999975
 51
180.0
  0
ARC
  5
169
330
2
100
AcDbEntity
  8
GAIKEI
  6
SLD-実線
 62
     7
100
AcDbCircle
 10
6.687432054379769
 20
7.229813827895839
 30
0.0
 40
0.1
100
AcDbArc
 50
180.0
 51
265.0000000000003
  0
LINE
  5
16A
330
2
100
AcDbEntity
  8
GAIKEI
  6
SLD-実線
 62
     7
100
AcDbLine
 10
13.18599617311974
 20
7.201933995795798
 30
0.0
 11
13.36352208831977
 21
7.201933995795798
 31
0.0
  0
LINE
  5
16B
330
2
100
AcDbEntity
  8
GAIKEI
  6
SLD-実線
 62
     7
100
AcDbLine
 10
11.84743194111973
 20
7.201933995795798
 30
0.0
 11
12.10886797139977
 21
7.201933995795798
 31
0.0
  0
ARC
  5
16C
330
2
100
AcDbEntity
  8
GAIKEI
  6
SLD-実線
 62
     7
100
AcDbCircle
 10
13.36352209125976
 20
7.301934111555851
 30
0.0
 40
0.1000000000000197
100
AcDbArc
 50
270.0
 51
349.9999999999982
  0
ARC
  5
16D
330
2
100
AcDbEntity
  8
GAIKEI
  6
SLD-実線
 62
     7
100
AcDbCircle
 10
11.84743205437974
 20
7.301934111555851
 30
0.0
 40
0.1000000000000114
100
AcDbArc
 50
180.0
 51
270.0
  0
ARC
  5
16E
330
2
100
AcDbEntity
  8
GAIKEI
  6
SLD-実線
 62
     7
100
AcDbCircle
 10
8.052284868119784
 20
7.201934087615825
 30
0.0
 40
0.0599999999999868
100
AcDbArc
 50
90.0
 51
135.0
  0
ARC
  5
16F
330
2
100
AcDbEntity
  8
GAIKEI
  6
SLD-実線
 62
     7
100
AcDbCircle
 10
8.052284868119784
 20
14.52193408761582
 30
0.0
 40
0.0599999999999909
100
AcDbArc
 50
225.0
 51
270.0
  0
LINE
  5
170
330
2
100
AcDbEntity
  8
GAIKEI
  6
SLD-実線
 62
     7
100
AcDbLine
 10
9.407432360739733
 20
7.261934266415835
 30
0.0
 11
11.56000046261977
 21
7.261934266415835
 31
0.0
  0
LINE
  5
171
330
2
100
AcDbEntity
  8
GAIKEI
  6
SLD-実線
 62
     7
100
AcDbLine
 10
8.052284998999766
 20
7.261934266415835
 30
0.0
 11
8.207432164059753
 21
7.261934266415835
 31
0.0
  0
LINE
  5
172
330
2
100
AcDbEntity
  8
GAIKEI
  6
SLD-実線
 62
     7
100
AcDbLine
 10
11.56000046261977
 20
14.46193395645582
 30
0.0
 11
8.052284998999766
 21
14.46193395645582
 31
0.0
  0
ARC
  5
173
330
2
100
AcDbEntity
  8
GAIKEI
  6
SLD-実線
 62
     7
100
AcDbCircle
 10
11.56000047511975
 20
7.361934102135819
 30
0.0
 40
0.0999999999999943
100
AcDbArc
 50
270.0
 51
329.9999963964984
  0
ARC
  5
174
330
2
100
AcDbEntity
  8
GAIKEI
  6
SLD-実線
 62
     7
100
AcDbCircle
 10
11.56000047511975
 20
14.36193409691583
 30
0.0
 40
0.1000000023256875
100
AcDbArc
 50
30.00000951509879
 51
90.0
  0
LINE
  5
175
330
2
100
AcDbEntity
  8
GAIKEI
  6
SLD-実線
 62
     7
100
AcDbLine
 10
13.46200293133978
 20
7.284569130255817
 30
0.0
 11
13.53679875115978
 21
7.708758250795824
 31
0.0
  0
LINE
  5
176
330
2
100
AcDbEntity
  8
GAIKEI
  6
SLD-実線
 62
     7
100
AcDbLine
 10
11.64660303125976
 20
7.311933995215838
 30
0.0
 11
11.72743214497979
 21
7.451934129915798
 31
0.0
  0
LINE
  5
177
330
2
100
AcDbEntity
  8
GAIKEI
  6
SLD-実線
 62
     7
100
AcDbLine
 10
11.72743214497979
 20
14.2719340929558
 30
0.0
 11
11.64660303125976
 21
14.41193422767583
 31
0.0
  0
LINE
  5
178
330
2
100
AcDbEntity
  8
GAIKEI
  6
SLD-実線
 62
     7
100
AcDbLine
 10
11.72743214497979
 20
7.451934129915798
 30
0.0
 11
11.74743211099974
 21
7.451934129915798
 31
0.0
  0
LINE
  5
179
330
2
100
AcDbEntity
  8
GAIKEI
  6
SLD-実線
 62
     7
100
AcDbLine
 10
11.92743217775978
 20
14.2719340929558
 30
0.0
 11
11.72743214497979
 21
14.2719340929558
 31
0.0
  0
ARC
  5
17A
330
2
100
AcDbEntity
  8
GAIKEI
  6
SLD-実線
 62
     7
100
AcDbCircle
 10
11.92743205437978
 20
14.2319340876158
 30
0.0
 40
0.0400000000000091
100
AcDbArc
 50
0.0
 51
89.99999999989903
  0
ARC
  5
17B
330
2
100
AcDbEntity
  8
GAIKEI
  6
SLD-実線
 62
     7
100
AcDbCircle
 10
14.02920269221977
 20
7.621934111555844
 30
0.0
 40
0.5
100
AcDbArc
 50
87.91059890551196
 51
169.9999999999981
  0
LINE
  5
17C
330
2
100
AcDbEntity
  8
GAIKEI
  6
SLD-実線
 62
     1
100
AcDbLine
 10
15.84743204961978
 20
13.66193419785583
 30
0.0
 11
15.54543206671974
 21
13.66193419785583
 31
0.0
  0
LINE
  5
17D
330
2
100
AcDbEntity
  8
GAIKEI
  6
SLD-実線
 62
     7
100
AcDbLine
 10
15.54543206671974
 20
8.06193402501583
 30
0.0
 11
15.84743204961978
 21
8.06193402501583
 31
0.0
  0
LINE
  5
17E
330
2
100
AcDbEntity
  8
GAIKEI
  6
SLD-実線
 62
     1
100
AcDbLine
 10
15.54543206671974
 20
13.66193419785583
 30
0.0
 11
15.50543204153975
 21
13.62193403638378
 31
0.0
  0
LINE
  5
17F
330
2
100
AcDbEntity
  8
GAIKEI
  6
SLD-実線
 62
     7
100
AcDbLine
 10
15.47430877777975
 20
8.133057556294204
 30
0.0
 11
15.54543206671974
 21
8.06193402501583
 31
0.0
  0
LINE
  5
180
330
2
100
AcDbEntity
  8
GAIKEI
  6
SLD-実線
 62
     7
100
AcDbLine
 10
15.84743204961978
 20
8.06193402501583
 30
0.0
 11
15.90843225507973
 21
8.122934349795798
 31
0.0
  0
LINE
  5
181
330
2
100
AcDbEntity
  8
GAIKEI
  6
SLD-実線
 62
     7
100
AcDbLine
 10
15.90743205537973
 20
13.60193407473224
 30
0.0
 11
15.84743204961978
 21
13.66193419785583
 31
0.0
  0
LINE
  5
182
330
2
100
AcDbEntity
  8
GAIKEI
  6
SLD-実線
 62
     7
100
AcDbLine
 10
15.40743204037977
 20
8.081934177295806
 30
0.0
 11
15.47430877777975
 21
8.081934177295806
 31
0.0
  0
LINE
  5
183
330
2
100
AcDbEntity
  8
GAIKEI
  6
SLD-実線
 62
     7
100
AcDbLine
 10
14.04743211547975
 20
8.081934177295806
 30
0.0
 11
14.12743197957974
 21
8.08193417729575
 31
0.0
  0
LINE
  5
184
330
2
100
AcDbEntity
  8
GAIKEI
  6
SLD-実線
 62
     1
100
AcDbLine
 10
15.48743204417974
 20
13.49193411411579
 30
0.0
 11
15.47780831547976
 21
13.60193411351582
 31
0.0
  0
LINE
  5
185
330
2
100
AcDbEntity
  8
GAIKEI
  6
SLD-実線
 62
     7
100
AcDbLine
 10
14.12643192539974
 20
8.121934109355834
 30
0.0
 11
15.40743204037977
 21
8.121934109355777
 31
0.0
  0
LINE
  5
186
330
2
100
AcDbEntity
  8
GAIKEI
  6
SLD-実線
 62
     1
100
AcDbLine
 10
15.47780831547976
 20
13.60193411351582
 30
0.0
 11
13.81174044885972
 21
13.60193411351582
 31
0.0
  0
LINE
  5
187
330
2
100
AcDbEntity
  8
GAIKEI
  6
SLD-実線
 62
     1
100
AcDbLine
 10
15.50543204153973
 20
13.49193411411585
 30
0.0
 11
15.48743204417974
 21
13.49193411411579
 31
0.0
  0
LINE
  5
188
330
2
100
AcDbEntity
  8
GAIKEI
  6
SLD-実線
 62
     1
100
AcDbLine
 10
15.90643185567973
 20
8.427658812135803
 30
0.0
 11
15.94743205437976
 21
8.427658812135803
 31
0.0
  0
LINE
  5
189
330
2
100
AcDbEntity
  8
GAIKEI
  6
SLD-実線
 62
     1
100
AcDbLine
 10
15.94743205437976
 20
13.29620941075581
 30
0.0
 11
15.90643185567973
 21
13.29620941075581
 31
0.0
  0
LINE
  5
18A
330
2
100
AcDbEntity
  8
GAIKEI
  6
SLD-実線
 62
     7
100
AcDbLine
 10
6.479432417259772
 20
8.711934038415847
 30
0.0
 11
6.587432308299753
 21
8.711934038415847
 31
0.0
  0
LINE
  5
18B
330
2
100
AcDbEntity
  8
GAIKEI
  6
SLD-実線
 62
     7
100
AcDbLine
 10
6.587432308299753
 20
13.01193437071583
 30
0.0
 11
6.479432417259772
 21
13.01193437071583
 31
0.0
  0
LINE
  5
18C
330
2
100
AcDbEntity
  8
GAIKEI
  6
SLD-実線
 62
     7
100
AcDbLine
 10
6.479432417259772
 20
13.01193437071583
 30
0.0
 11
6.339432282539746
 21
12.87193404975585
 31
0.0
  0
LINE
  5
18D
330
2
100
AcDbEntity
  8
GAIKEI
  6
SLD-実線
 62
     7
100
AcDbLine
 10
6.339432282539746
 20
8.851934173135816
 30
0.0
 11
6.479432417259772
 21
8.711934038415847
 31
0.0
  0
LINE
  5
18E
330
2
100
AcDbEntity
  8
GAIKEI
  6
SLD-実線
 62
     7
100
AcDbLine
 10
6.339432282539746
 20
12.73476699831582
 30
0.0
 11
6.336592121219723
 21
12.73192720951584
 31
0.0
  0
LINE
  5
18F
330
2
100
AcDbEntity
  8
GAIKEI
  6
SLD-実線
 62
     7
100
AcDbLine
 10
6.336592121219723
 20
8.991941013355813
 30
0.0
 11
6.339432282539746
 21
8.989101224555838
 31
0.0
  0
ARC
  5
190
330
2
100
AcDbEntity
  8
GAIKEI
  6
SLD-実線
 62
     7
100
AcDbCircle
 10
12.32543205437975
 20
10.86193416401579
 30
0.0
 40
6.273999999998842
100
AcDbArc
 50
162.6592186051993
 51
180.0
  0
ARC
  5
191
330
2
100
AcDbEntity
  8
GAIKEI
  6
SLD-実線
 62
     7
100
AcDbCircle
 10
12.32543205437975
 20
10.86193416401579
 30
0.0
 40
6.273999999998842
100
AcDbArc
 50
180.0
 51
197.3407813948007
  0
LINE
  5
192
330
2
100
AcDbEntity
  8
GAIKEI
  6
SLD-実線
 62
     7
100
AcDbLine
 10
8.206431551079731
 20
7.281934232435844
 30
0.0
 11
8.490614576439725
 21
7.281934232435844
 31
0.0
  0
LINE
  5
193
330
2
100
AcDbEntity
  8
GAIKEI
  6
SLD-実線
 62
     7
100
AcDbLine
 10
9.124249203299768
 20
7.281934232435844
 30
0.0
 11
9.408432228659762
 21
7.281934232435844
 31
0.0
  0
LINE
  5
194
330
2
100
AcDbEntity
  8
GAIKEI
  6
SLD-実線
 62
     1
100
AcDbLine
 10
12.10886797139977
 20
7.201933995795798
 30
0.0
 11
12.24800942669975
 21
6.960933790515809
 31
0.0
  0
LINE
  5
195
330
2
100
AcDbEntity
  8
GAIKEI
  6
SLD-実線
 62
     1
100
AcDbLine
 10
13.04685453155974
 20
6.960933790515809
 30
0.0
 11
13.18599617311974
 21
7.201933995795798
 31
0.0
  0
LINE
  5
196
330
2
100
AcDbEntity
  8
GAIKEI
  6
SLD-実線
 62
     1
100
AcDbLine
 10
12.29743210801973
 20
6.922952220755803
 30
0.0
 11
12.29743210801973
 21
6.041951985075797
 31
0.0
  0
LINE
  5
197
330
2
100
AcDbEntity
  8
GAIKEI
  6
SLD-実線
 62
     1
100
AcDbLine
 10
12.99743203649973
 20
6.041951985075797
 30
0.0
 11
12.99743203649973
 21
6.922952220755803
 31
0.0
  0
ARC
  5
198
330
2
100
AcDbEntity
  8
GAIKEI
  6
SLD-実線
 62
     1
100
AcDbCircle
 10
12.41743205437973
 20
6.041951880655801
 30
0.0
 40
0.1199999999999989
100
AcDbArc
 50
180.0
 51
270.0
  0
ARC
  5
199
330
2
100
AcDbEntity
  8
GAIKEI
  6
SLD-実線
 62
     1
100
AcDbCircle
 10
12.87743205437976
 20
6.041951880655801
 30
0.0
 40
0.1199999999999989
100
AcDbArc
 50
270.0
 51
0.0
  0
LINE
  5
19A
330
2
100
AcDbEntity
  8
GAIKEI
  6
SLD-実線
 62
     1
100
AcDbLine
 10
12.51083200999977
 20
6.961934030975839
 30
0.0
 11
12.51083200999977
 21
6.920951739875818
 31
0.0
  0
LINE
  5
19B
330
2
100
AcDbEntity
  8
GAIKEI
  6
SLD-実線
 62
     1
100
AcDbLine
 10
12.78403213451975
 20
6.920951739875818
 30
0.0
 11
12.78403213451975
 21
6.961934030975839
 31
0.0
  0
LINE
  5
19C
330
2
100
AcDbEntity
  8
GAIKEI
  6
SLD-実線
 62
     1
100
AcDbLine
 10
9.601455910299762
 20
7.261934266415835
 30
0.0
 11
9.714062122799759
 21
7.075808332275812
 31
0.0
  0
LINE
  5
19D
330
2
100
AcDbEntity
  8
GAIKEI
  6
SLD-実線
 62
     1
100
AcDbLine
 10
10.50080208311976
 20
7.075808332275812
 30
0.0
 11
10.61340829559975
 21
7.261934266415835
 31
0.0
  0
LINE
  5
19E
330
2
100
AcDbEntity
  8
GAIKEI
  6
SLD-実線
 62
     1
100
AcDbLine
 10
9.757431952459739
 20
7.047631726575843
 30
0.0
 11
9.757431952459739
 21
6.244808570455802
 31
0.0
  0
LINE
  5
19F
330
2
100
AcDbEntity
  8
GAIKEI
  6
SLD-実線
 62
     1
100
AcDbLine
 10
10.45743188091978
 20
6.244808570455802
 30
0.0
 11
10.45743188091978
 21
7.047631726575843
 31
0.0
  0
LWPOLYLINE
  5
1A0
330
2
100
AcDbEntity
  8
GAIKEI
  6
SLD-実線
 62
     1
100
AcDbPolyline
 90
        8
 70
   128
 43
0.0
 10
10.10522766241979
 20
6.066184998475819
 10
10.13307979533976
 20
6.06560720595587
 10
10.2224901152598
 20
6.072149560775869
 10
10.3041346950398
 20
6.08759833963586
 10
10.38145458529976
 20
6.118992106035818
 10
10.42414268681977
 20
6.15506967993582
 10
10.45009678433979
 20
6.200777874315861
 10
10.45587359199976
 20
6.244470314115858
  0
LWPOLYLINE
  5
1A1
330
2
100
AcDbEntity
  8
GAIKEI
  6
SLD-実線
 62
     1
100
AcDbPolyline
 90
        9
 70
   128
 43
0.0
 10
9.759258834819775
 20
6.244852528895819
 10
9.757933749059759
 20
6.233161450355851
 10
9.772590903739796
 20
6.182340295035828
 10
9.79858039149974
 20
6.146391988715834
 10
9.833135439259763
 20
6.119159371575847
 10
9.880551679239772
 20
6.096968934855851
 10
9.957860393619796
 20
6.077301264715856
 10
10.04061920771977
 20
6.067526102975818
 10
10.10522766241979
 20
6.066184998475819
  0
LINE
  5
1A2
330
2
100
AcDbEntity
  8
GAIKEI
  6
SLD-実線
 62
     1
100
AcDbLine
 10
13.56743199953973
 20
14.21193419487582
 30
0.0
 11
13.56743199953973
 21
13.81193412931583
 31
0.0
  0
LINE
  5
1A3
330
2
100
AcDbEntity
  8
GAIKEI
  6
SLD-実線
 62
     1
100
AcDbLine
 10
14.96743204275975
 20
13.81193412931583
 30
0.0
 11
14.96743204275975
 21
14.21193419487582
 31
0.0
  0
LINE
  5
1A4
330
2
100
AcDbEntity
  8
GAIKEI
  6
SLD-実線
 62
     1
100
AcDbLine
 10
14.81743201815976
 20
13.77891725393584
 30
0.0
 11
14.81743201815976
 21
13.81193412931583
 31
0.0
  0
ARC
  5
1A5
330
2
100
AcDbEntity
  8
GAIKEI
  6
SLD-実線
 62
     1
100
AcDbCircle
 10
13.76743205437975
 20
14.21193411143582
 30
0.0
 40
0.2000000000000056
100
AcDbArc
 50
90.0
 51
180.0
  0
ARC
  5
1A6
330
2
100
AcDbEntity
  8
GAIKEI
  6
SLD-実線
 62
     1
100
AcDbCircle
 10
14.76743205437975
 20
14.21193411143582
 30
0.0
 40
0.2000000000000056
100
AcDbArc
 50
0.0
 51
90.0
  0
LINE
  5
1A7
330
2
100
AcDbEntity
  8
GAIKEI
  6
SLD-実線
 62
     7
100
AcDbLine
 10
29.34743238815975
 20
16.5619341144158
 30
0.0
 11
28.86777593025977
 21
18.28869818241583
 31
0.0
  0
LINE
  5
1A8
330
2
100
AcDbEntity
  8
GAIKEI
  6
SLD-実線
 62
     7
100
AcDbLine
 10
29.34743238815975
 20
16.36193408163581
 30
0.0
 11
29.34743238815975
 21
16.5619341144158
 31
0.0
  0
ARC
  5
1A9
330
2
100
AcDbEntity
  8
GAIKEI
  6
SLD-実線
 62
     7
100
AcDbCircle
 10
28.77142348941976
 20
18.26193411143583
 30
0.0
 40
0.1
100
AcDbArc
 50
15.52411099680045
 51
90.0
  0
ARC
  5
1AA
330
2
100
AcDbEntity
  8
GAIKEI
  6
SLD-実線
 62
     7
100
AcDbCircle
 10
40.69847872755974
 20
15.73112825743584
 30
0.0
 40
0.7061778158386577
100
AcDbArc
 50
21.66958193040127
 51
57.70251240619842
  0
LINE
  5
1AB
330
2
100
AcDbEntity
  8
GAIKEI
  6
SLD-実線
 62
     1
100
AcDbLine
 10
42.11190190769975
 20
8.031934075975811
 30
0.0
 11
42.34935191131973
 21
8.031934075975811
 31
0.0
  0
LINE
  5
1AC
330
2
100
AcDbEntity
  8
GAIKEI
  6
SLD-実線
 62
     1
100
AcDbLine
 10
42.34935191131973
 20
8.031934075975811
 30
0.0
 11
42.44935062385974
 21
8.131934092355834
 31
0.0
  0
LINE
  5
1AD
330
2
100
AcDbEntity
  8
GAIKEI
  6
SLD-実線
 62
     1
100
AcDbLine
 10
42.44935062385974
 20
9.591934126775811
 30
0.0
 11
42.37553027131975
 21
9.665754758735829
 31
0.0
  0
ARC
  5
1AE
330
2
100
AcDbEntity
  8
GAIKEI
  6
SLD-実線
 62
     1
100
AcDbCircle
 10
17.34743205437974
 20
6.641809984015822
 30
0.0
 40
1.34987587258386
100
AcDbArc
 50
269.8267247399237
 51
288.5325247266996
  0
ARC
  5
1AF
330
2
100
AcDbEntity
  8
GAIKEI
  6
SLD-実線
 62
     1
100
AcDbCircle
 10
17.34743205437974
 20
6.641809984015822
 30
0.0
 40
1.349875872583857
100
AcDbArc
 50
251.4674752733005
 51
269.8267247399237
  0
ARC
  5
1B0
330
2
100
AcDbEntity
  8
GAIKEI
  6
SLD-実線
 62
     1
100
AcDbCircle
 10
39.74935205437976
 20
6.641809984015822
 30
0.0
 40
1.349875872583857
100
AcDbArc
 50
268.6656881376558
 51
288.5325247266996
  0
ARC
  5
1B1
330
2
100
AcDbEntity
  8
GAIKEI
  6
SLD-実線
 62
     1
100
AcDbCircle
 10
39.74935205437976
 20
6.641809984015822
 30
0.0
 40
1.349875872583857
100
AcDbArc
 50
251.4674752733005
 51
268.6656881376558
  0
ARC
  5
1B2
330
2
100
AcDbEntity
  8
GAIKEI
  6
SLD-実線
 62
     1
100
AcDbCircle
 10
17.34743205437974
 20
15.08205823885583
 30
0.0
 40
1.349875872583861
100
AcDbArc
 50
101.5380344865008
 51
108.5325247266995
  0
ARC
  5
1B3
330
2
100
AcDbEntity
  8
GAIKEI
  6
SLD-実線
 62
     1
100
AcDbCircle
 10
17.34743205437974
 20
15.08205823885583
 30
0.0
 40
1.349875872583859
100
AcDbArc
 50
71.46747527330045
 51
78.46196551349918
  0
ARC
  5
1B4
330
2
100
AcDbEntity
  8
GAIKEI
  6
SLD-実線
 62
     1
100
AcDbCircle
 10
39.74935205437976
 20
15.08205823885583
 30
0.0
 40
1.349875872583851
100
AcDbArc
 50
90.0942991866791
 51
108.5325247266995
  0
ARC
  5
1B5
330
2
100
AcDbEntity
  8
GAIKEI
  6
SLD-実線
 62
     1
100
AcDbCircle
 10
39.74935205437976
 20
15.08205823885583
 30
0.0
 40
1.349875872583858
100
AcDbArc
 50
71.46747527330045
 51
90.0942991866791
  0
LINE
  5
1B6
330
2
100
AcDbEntity
  8
GAIKEI
  6
SLD-実線
 62
     7
100
AcDbLine
 10
16.07801588921972
 20
14.46649408431585
 30
0.0
 11
16.04737113897977
 21
14.46542418093583
 31
0.0
  0
LINE
  5
1B7
330
2
100
AcDbEntity
  8
GAIKEI
  6
SLD-実線
 62
     7
100
AcDbLine
 10
16.04737113897977
 20
7.258444041935831
 30
0.0
 11
16.07888884113975
 21
7.257343591175811
 31
0.0
  0
LINE
  5
1B8
330
2
100
AcDbEntity
  8
GAIKEI
  6
SLD-実線
 62
     7
100
AcDbLine
 10
16.04737113897977
 20
14.46542418093583
 30
0.0
 11
15.94743205437976
 21
14.36193412633582
 31
0.0
  0
LINE
  5
1B9
330
2
100
AcDbEntity
  8
GAIKEI
  6
SLD-実線
 62
     7
100
AcDbLine
 10
15.94743205437976
 20
7.361934096535833
 30
0.0
 11
16.04737113897977
 21
7.258444041935831
 31
0.0
  0
LINE
  5
1BA
330
2
100
AcDbEntity
  8
GAIKEI
  6
SLD-実線
 62
     1
100
AcDbLine
 10
6.887432171199748
 20
14.61193426045582
 30
0.0
 11
6.887432171199748
 21
7.111933962415832
 31
0.0
  0
LINE
  5
1BB
330
2
100
AcDbEntity
  8
GAIKEI
  6
SLD-実線
 62
     1
100
AcDbLine
 10
7.877431793299763
 20
7.111933962415832
 30
0.0
 11
7.877431793299763
 21
14.61193426045582
 31
0.0
  0
LINE
  5
1BC
330
2
100
AcDbEntity
  8
GAIKEI
  6
SLD-実線
 62
     1
100
AcDbLine
 10
6.927432103259775
 20
7.151934266995795
 30
0.0
 11
6.927432103259775
 21
14.5719339558758
 31
0.0
  0
LINE
  5
1BD
330
2
100
AcDbEntity
  8
GAIKEI
  6
SLD-実線
 62
     7
100
AcDbLine
 10
6.587432308299753
 20
7.229813695875805
 30
0.0
 11
6.587432308299753
 21
14.49405452699579
 31
0.0
  0
LINE
  5
1BE
330
2
100
AcDbEntity
  8
GAIKEI
  6
SLD-実線
 62
     1
100
AcDbLine
 10
13.36352208831977
 20
11.78876733871584
 30
0.0
 11
11.84743194111973
 21
11.78876733871584
 31
0.0
  0
ARC
  5
1BF
330
2
100
AcDbEntity
  8
GAIKEI
  6
SLD-実線
 62
     7
100
AcDbCircle
 10
12.64759548425974
 20
3.931382240815821
 30
0.0
 40
3.314571478150478
100
AcDbArc
 50
80.65176960809969
 51
90.0028250313008
  0
ARC
  5
1C0
330
2
100
AcDbEntity
  8
GAIKEI
  6
SLD-実線
 62
     7
100
AcDbCircle
 10
12.64724975029975
 20
3.932346382895843
 30
0.0
 40
3.313617071770766
100
AcDbArc
 50
89.9968471404985
 51
99.35061570559966
  0
ARC
  5
1C1
330
2
100
AcDbEntity
  8
GAIKEI
  6
SLD-実線
 62
     1
100
AcDbCircle
 10
13.36898034637977
 20
11.88559486437583
 30
0.0
 40
0.0969812471830698
100
AcDbArc
 50
266.7735980002002
 51
343.5730688902019
  0
LINE
  5
1C2
330
2
100
AcDbEntity
  8
GAIKEI
  6
SLD-実線
 62
     1
100
AcDbLine
 10
11.74743211099974
 20
7.306188479975844
 30
0.0
 11
11.74743211099974
 21
11.87302874865582
 31
0.0
  0
ARC
  5
1C3
330
2
100
AcDbEntity
  8
GAIKEI
  6
SLD-実線
 62
     1
100
AcDbCircle
 10
11.84059779447977
 20
11.88212635225579
 30
0.0
 40
0.0936088188709967
100
AcDbArc
 50
185.5772349263012
 51
274.1867470383009
  0
LINE
  5
1C4
330
2
100
AcDbEntity
  8
GAIKEI
  6
SLD-実線
 62
     1
100
AcDbLine
 10
9.455577267499734
 20
7.476914064015829
 30
0.0
 11
9.456666542379764
 21
7.404584945155818
 31
0.0
  0
LWPOLYLINE
  5
1C5
330
2
100
AcDbEntity
  8
GAIKEI
  6
SLD-実線
 62
     1
100
AcDbPolyline
 90
        3
 70
   128
 43
0.0
 10
9.438877536159793
 20
7.49229653271584
 10
9.451378120279798
 20
7.484854147755868
 10
9.455577267499734
 20
7.476914064015829
  0
ARC
  5
1C6
330
2
100
AcDbEntity
  8
GAIKEI
  6
SLD-実線
 62
     1
100
AcDbCircle
 10
11.06411717159977
 20
11.22010447849584
 30
0.0
 40
4.066688573424924
100
AcDbArc
 50
236.7695630132003
 51
246.4438912859986
  0
ARC
  5
1C7
330
2
100
AcDbEntity
  8
GAIKEI
  6
SLD-実線
 62
     1
100
AcDbCircle
 10
8.807431889859742
 20
7.777171076855836
 30
0.0
 40
0.0499223288128488
100
AcDbArc
 50
55.7329578645998
 51
124.2670421354002
  0
ARC
  5
1C8
330
2
100
AcDbEntity
  8
GAIKEI
  6
SLD-実線
 62
     1
100
AcDbCircle
 10
6.544720639339743
 20
11.23124867619583
 30
0.0
 40
4.07931281389291
100
AcDbArc
 50
293.5711479930995
 51
303.2154569033013
  0
LWPOLYLINE
  5
1C9
330
2
100
AcDbEntity
  8
GAIKEI
  6
SLD-実線
 62
     1
100
AcDbPolyline
 90
        3
 70
   128
 43
0.0
 10
8.159287257299752
 20
7.476914064015829
 10
8.163485659459752
 20
7.484854147755868
 10
8.175986988639749
 20
7.49229653271584
  0
LINE
  5
1CA
330
2
100
AcDbEntity
  8
GAIKEI
  6
SLD-実線
 62
     1
100
AcDbLine
 10
8.158197982399769
 20
7.404584945155818
 30
0.0
 11
8.159287257299752
 21
7.476914064015829
 31
0.0
  0
LWPOLYLINE
  5
1CB
330
2
100
AcDbEntity
  8
GAIKEI
  6
SLD-実線
 62
     1
100
AcDbPolyline
 90
        3
 70
   128
 43
0.0
 10
9.384036792619781
 20
7.382907480915832
 10
9.401488287539791
 20
7.375107095555847
 10
9.40743236073979
 20
7.366670803155841
  0
LWPOLYLINE
  5
1CC
330
2
100
AcDbEntity
  8
GAIKEI
  6
SLD-実線
 62
     1
100
AcDbPolyline
 90
        3
 70
   128
 43
0.0
 10
8.884036524399789
 20
7.584290341455812
 10
9.172053618519782
 20
7.457154379215808
 10
9.384036792619781
 20
7.382907480915832
  0
ARC
  5
1CD
330
2
100
AcDbEntity
  8
GAIKEI
  6
SLD-実線
 62
     1
100
AcDbCircle
 10
8.807431889859742
 20
7.404182358355797
 30
0.0
 40
0.1957221387767203
100
AcDbArc
 50
66.95868191550001
 51
113.0413180845
  0
LWPOLYLINE
  5
1CE
330
2
100
AcDbEntity
  8
GAIKEI
  6
SLD-実線
 62
     1
100
AcDbPolyline
 90
        3
 70
   128
 43
0.0
 10
8.230827732179761
 20
7.382907480915832
 10
8.442810161219767
 20
7.457154379215808
 10
8.730827255339761
 20
7.584290341455812
  0
LWPOLYLINE
  5
1CF
330
2
100
AcDbEntity
  8
GAIKEI
  6
SLD-実線
 62
     1
100
AcDbPolyline
 90
        3
 70
   128
 43
0.0
 10
8.20743216405981
 20
7.366670803155841
 10
8.213376237259751
 20
7.375107095555847
 10
8.230827732179761
 20
7.382907480915832
  0
LINE
  5
1D0
330
2
100
AcDbEntity
  8
GAIKEI
  6
SLD-実線
 62
     1
100
AcDbLine
 10
8.207432164059753
 20
7.264015213575817
 30
0.0
 11
8.207432164059753
 21
7.366670803155841
 31
0.0
  0
LINE
  5
1D1
330
2
100
AcDbEntity
  8
GAIKEI
  6
SLD-実線
 62
     1
100
AcDbLine
 10
9.407432360739733
 20
7.366670803155841
 30
0.0
 11
9.407432360739733
 21
7.264015213575817
 31
0.0
  0
LINE
  5
1D2
330
2
100
AcDbEntity
  8
GAIKEI
  6
SLD-実線
 62
     1
100
AcDbLine
 10
9.464769793839764
 20
7.627516374915842
 30
0.0
 11
9.466256184679764
 21
7.524053887455806
 31
0.0
  0
LWPOLYLINE
  5
1D3
330
2
100
AcDbEntity
  8
GAIKEI
  6
SLD-実線
 62
     1
100
AcDbPolyline
 90
        3
 70
   128
 43
0.0
 10
9.450598789559762
 20
7.644585655055834
 10
9.461211396559747
 20
7.636401937335847
 10
9.464769793839764
 20
7.627516374915842
  0
ARC
  5
1D4
330
2
100
AcDbEntity
  8
GAIKEI
  6
SLD-実線
 62
     1
100
AcDbCircle
 10
11.80933892715973
 20
11.87255547213584
 30
0.0
 40
4.841423738010807
100
AcDbArc
 50
232.0335267729011
 51
240.8433091849997
  0
ARC
  5
1D5
330
2
100
AcDbEntity
  8
GAIKEI
  6
SLD-実線
 62
     1
100
AcDbCircle
 10
8.807432262399743
 20
8.02905109789583
 30
0.0
 40
0.0355185334818624
100
AcDbArc
 50
48.65872948310107
 51
131.3412705168989
  0
ARC
  5
1D6
330
2
100
AcDbEntity
  8
GAIKEI
  6
SLD-実線
 62
     1
100
AcDbCircle
 10
5.788685516299722
 20
11.89793874093584
 30
0.0
 40
4.871795752060102
100
AcDbArc
 50
299.1842057510009
 51
307.9389582910983
  0
LWPOLYLINE
  5
1D7
330
2
100
AcDbEntity
  8
GAIKEI
  6
SLD-実線
 62
     1
100
AcDbPolyline
 90
        3
 70
   128
 43
0.0
 10
8.150093985899786
 20
7.627516374915842
 10
8.153652383179746
 20
7.636401937335847
 10
8.16426573523978
 20
7.644585655055834
  0
LINE
  5
1D8
330
2
100
AcDbEntity
  8
GAIKEI
  6
SLD-実線
 62
     1
100
AcDbLine
 10
8.148607595059786
 20
7.524053887455806
 30
0.0
 11
8.150093985899729
 21
7.627516374915842
 31
0.0
  0
LINE
  5
1D9
330
2
100
AcDbEntity
  8
GAIKEI
  6
SLD-実線
 62
     1
100
AcDbLine
 10
13.46200293133978
 20
11.85816931071582
 30
0.0
 11
13.46506474743973
 21
11.87302874865582
 31
0.0
  0
LINE
  5
1DA
330
2
100
AcDbEntity
  8
GAIKEI
  6
SLD-実線
 62
     1
100
AcDbLine
 10
13.46506474743973
 20
11.87302874865582
 30
0.0
 11
13.46200293133978
 21
11.89771820323585
 31
0.0
  0
LINE
  5
1DB
330
2
100
AcDbEntity
  8
GAIKEI
  6
SLD-実線
 62
     1
100
AcDbLine
 10
13.46200293133978
 20
12.1538321906558
 30
0.0
 11
13.46506474743973
 21
12.16667848171585
 31
0.0
  0
LINE
  5
1DC
330
2
100
AcDbEntity
  8
GAIKEI
  6
SLD-実線
 62
     1
100
AcDbLine
 10
13.46506474743973
 20
12.16667848171585
 30
0.0
 11
13.46200293133978
 21
12.19220957251582
 31
0.0
  0
LINE
  5
1DD
330
2
100
AcDbEntity
  8
GAIKEI
  6
SLD-実線
 62
     1
100
AcDbLine
 10
13.46200293133978
 20
12.4396630981758
 30
0.0
 11
13.46506474743973
 21
12.45039826723581
 31
0.0
  0
LINE
  5
1DE
330
2
100
AcDbEntity
  8
GAIKEI
  6
SLD-実線
 62
     1
100
AcDbLine
 10
13.46506474743973
 20
12.45039826723581
 30
0.0
 11
13.46200293133978
 21
12.47657681347584
 31
0.0
  0
LINE
  5
1DF
330
2
100
AcDbEntity
  8
GAIKEI
  6
SLD-実線
 62
     1
100
AcDbLine
 10
13.46200293133978
 20
12.71348646375583
 30
0.0
 11
13.46506474743973
 21
12.72202892693582
 31
0.0
  0
LINE
  5
1E0
330
2
100
AcDbEntity
  8
GAIKEI
  6
SLD-実線
 62
     1
100
AcDbLine
 10
13.46506474743973
 20
12.72202892693582
 30
0.0
 11
13.46200293133978
 21
12.7486556255958
 31
0.0
  0
LINE
  5
1E1
330
2
100
AcDbEntity
  8
GAIKEI
  6
SLD-実線
 62
     1
100
AcDbLine
 10
13.46200293133978
 20
12.97321835997581
 30
0.0
 11
13.46506474743973
 21
12.97950329723585
 31
0.0
  0
LINE
  5
1E2
330
2
100
AcDbEntity
  8
GAIKEI
  6
SLD-実線
 62
     1
100
AcDbLine
 10
13.46506474743973
 20
12.97950329723585
 30
0.0
 11
13.46200293133978
 21
13.0063753062758
 31
0.0
  0
LINE
  5
1E3
330
2
100
AcDbEntity
  8
GAIKEI
  6
SLD-実線
 62
     1
100
AcDbLine
 10
13.46200293133978
 20
13.21688214781579
 30
0.0
 11
13.46506474743973
 21
13.22086150291579
 31
0.0
  0
LINE
  5
1E4
330
2
100
AcDbEntity
  8
GAIKEI
  6
SLD-実線
 62
     1
100
AcDbLine
 10
13.46506474743973
 20
13.22086150291579
 30
0.0
 11
13.46200293133978
 21
13.2477746763958
 31
0.0
  0
LINE
  5
1E5
330
2
100
AcDbEntity
  8
GAIKEI
  6
SLD-実線
 62
     1
100
AcDbLine
 10
13.46200293133978
 20
13.44262337775581
 30
0.0
 11
13.46506474743973
 21
13.4442667895758
 31
0.0
  0
LINE
  5
1E6
330
2
100
AcDbEntity
  8
GAIKEI
  6
SLD-実線
 62
     1
100
AcDbLine
 10
13.46506474743973
 20
13.4442667895758
 30
0.0
 11
13.46200293133978
 21
13.47101623655584
 31
0.0
  0
LINE
  5
1E7
330
2
100
AcDbEntity
  8
GAIKEI
  6
SLD-実線
 62
     1
100
AcDbLine
 10
13.46200293133978
 20
13.64872394593584
 30
0.0
 11
13.46506474743973
 21
13.64801912101581
 31
0.0
  0
LINE
  5
1E8
330
2
100
AcDbEntity
  8
GAIKEI
  6
SLD-実線
 62
     1
100
AcDbLine
 10
13.46506474743973
 20
13.64801912101581
 30
0.0
 11
13.46200293133978
 21
13.6744010681158
 31
0.0
  0
LINE
  5
1E9
330
2
100
AcDbEntity
  8
GAIKEI
  6
SLD-実線
 62
     1
100
AcDbLine
 10
13.46200293133978
 20
13.83361531885583
 30
0.0
 11
13.46506474743973
 21
13.83056765885584
 31
0.0
  0
LINE
  5
1EA
330
2
100
AcDbEntity
  8
GAIKEI
  6
SLD-実線
 62
     1
100
AcDbLine
 10
13.46506474743973
 20
13.83056765885584
 30
0.0
 11
13.46200293133978
 21
13.85638131293581
 31
0.0
  0
LINE
  5
1EB
330
2
100
AcDbEntity
  8
GAIKEI
  6
SLD-実線
 62
     1
100
AcDbLine
 10
13.46200293133978
 20
13.99589045437585
 30
0.0
 11
13.46506474743973
 21
13.99052305611582
 31
0.0
  0
LINE
  5
1EC
330
2
100
AcDbEntity
  8
GAIKEI
  6
SLD-実線
 62
     1
100
AcDbLine
 10
13.46506474743973
 20
13.99052305611582
 30
0.0
 11
13.46200293133978
 21
14.0155719080758
 31
0.0
  0
LINE
  5
1ED
330
2
100
AcDbEntity
  8
GAIKEI
  6
SLD-実線
 62
     7
100
AcDbLine
 10
13.46200293133978
 20
14.12864974231581
 30
0.0
 11
13.53679875115978
 21
13.8566527003158
 31
0.0
  0
LINE
  5
1EE
330
2
100
AcDbEntity
  8
GAIKEI
  6
SLD-実線
 62
     1
100
AcDbLine
 10
11.74743211099974
 20
13.22086150291579
 30
0.0
 11
11.74743211099974
 21
13.4442667895758
 31
0.0
  0
LINE
  5
1EF
330
2
100
AcDbEntity
  8
GAIKEI
  6
SLD-実線
 62
     1
100
AcDbLine
 10
11.74743211099974
 20
12.97950329723585
 30
0.0
 11
11.74743211099974
 21
13.22086150291579
 31
0.0
  0
LINE
  5
1F0
330
2
100
AcDbEntity
  8
GAIKEI
  6
SLD-実線
 62
     1
100
AcDbLine
 10
11.74743211099974
 20
12.72202892693582
 30
0.0
 11
11.74743211099974
 21
12.97950329723585
 31
0.0
  0
LINE
  5
1F1
330
2
100
AcDbEntity
  8
GAIKEI
  6
SLD-実線
 62
     1
100
AcDbLine
 10
11.74743211099974
 20
12.45039826723581
 30
0.0
 11
11.74743211099974
 21
12.72202892693582
 31
0.0
  0
LINE
  5
1F2
330
2
100
AcDbEntity
  8
GAIKEI
  6
SLD-実線
 62
     1
100
AcDbLine
 10
11.74743211099974
 20
12.16667848171585
 30
0.0
 11
11.74743211099974
 21
12.45039826723581
 31
0.0
  0
LINE
  5
1F3
330
2
100
AcDbEntity
  8
GAIKEI
  6
SLD-実線
 62
     1
100
AcDbLine
 10
11.74743211099974
 20
11.87302874865582
 30
0.0
 11
11.74743211099974
 21
12.16667848171585
 31
0.0
  0
LINE
  5
1F4
330
2
100
AcDbEntity
  8
GAIKEI
  6
SLD-実線
 62
     1
100
AcDbLine
 10
11.74743211099974
 20
14.11791122051579
 30
0.0
 11
11.74743211099974
 21
13.99052305611582
 31
0.0
  0
LINE
  5
1F5
330
2
100
AcDbEntity
  8
GAIKEI
  6
SLD-実線
 62
     1
100
AcDbLine
 10
11.74743211099974
 20
13.83056765885584
 30
0.0
 11
11.74743211099974
 21
13.99052305611582
 31
0.0
  0
LINE
  5
1F6
330
2
100
AcDbEntity
  8
GAIKEI
  6
SLD-実線
 62
     1
100
AcDbLine
 10
11.74743211099974
 20
13.64801912101581
 30
0.0
 11
11.74743211099974
 21
13.83056765885584
 31
0.0
  0
LINE
  5
1F7
330
2
100
AcDbEntity
  8
GAIKEI
  6
SLD-実線
 62
     1
100
AcDbLine
 10
11.74743211099974
 20
13.4442667895758
 30
0.0
 11
11.74743211099974
 21
13.64801912101581
 31
0.0
  0
ARC
  5
1F8
330
2
100
AcDbEntity
  8
GAIKEI
  6
SLD-実線
 62
     1
100
AcDbCircle
 10
13.34792964969978
 20
11.90000582321579
 30
0.0
 40
0.1140962172335638
100
AcDbArc
 50
358.8511472476984
 51
82.14535425520095
  0
LWPOLYLINE
  5
1F9
330
2
100
AcDbEntity
  8
GAIKEI
  6
SLD-実線
 62
     1
100
AcDbPolyline
 90
        7
 70
   128
 43
0.0
 10
11.84743194111979
 20
12.01303158419586
 10
11.82424089143978
 20
12.00929660813585
 10
11.80236859449974
 20
11.99824506881583
 10
11.78471071849975
 20
11.98255647437582
 10
11.76981030235976
 20
11.96189145089585
 10
11.75460254975979
 20
11.92553885745587
 10
11.74743211099974
 20
11.87302874865582
  0
LINE
  5
1FA
330
2
100
AcDbEntity
  8
GAIKEI
  6
SLD-実線
 62
     1
100
AcDbLine
 10
13.36352208831977
 20
12.0130315841958
 30
0.0
 11
11.84743194111973
 21
12.0130315841958
 31
0.0
  0
LINE
  5
1FB
330
2
100
AcDbEntity
  8
GAIKEI
  6
SLD-実線
 62
     1
100
AcDbLine
 10
13.36352208831977
 20
12.0938331307758
 30
0.0
 11
11.84743194111973
 21
12.0938331307758
 31
0.0
  0
ARC
  5
1FC
330
2
100
AcDbEntity
  8
GAIKEI
  6
SLD-実線
 62
     1
100
AcDbCircle
 10
13.37199823511975
 20
12.19074204473583
 30
0.0
 40
0.0972788911825556
100
AcDbArc
 50
265.0013404619006
 51
337.7020500624001
  0
ARC
  5
1FD
330
2
100
AcDbEntity
  8
GAIKEI
  6
SLD-実線
 62
     1
100
AcDbCircle
 10
11.83665915999972
 20
12.18410559455583
 30
0.0
 40
0.0909129833050432
100
AcDbArc
 50
191.0514290936998
 51
276.8052826562985
  0
LINE
  5
1FE
330
2
100
AcDbEntity
  8
GAIKEI
  6
SLD-実線
 62
     7
100
AcDbLine
 10
11.96743210981975
 20
14.23193416091584
 30
0.0
 11
11.96743210981975
 21
14.17938707859582
 31
0.0
  0
ARC
  5
1FF
330
2
100
AcDbEntity
  8
GAIKEI
  6
SLD-実線
 62
     1
100
AcDbCircle
 10
13.34564045673977
 20
12.19639759787583
 30
0.0
 40
0.1164378162367703
100
AcDbArc
 50
357.9387457293025
 51
81.16599212679862
  0
LWPOLYLINE
  5
200
330
2
100
AcDbEntity
  8
GAIKEI
  6
SLD-実線
 62
     1
100
AcDbPolyline
 90
        7
 70
   128
 43
0.0
 10
11.84743194111979
 20
12.31145415919582
 10
11.82424089143978
 20
12.30759187133583
 10
11.80236859449974
 20
12.29616361203585
 10
11.78471071849975
 20
12.27994006591586
 10
11.76981030235976
 20
12.25857059003584
 10
11.75460254975979
 20
12.22097868563583
 10
11.74743211099974
 20
12.16667848171585
  0
LINE
  5
201
330
2
100
AcDbEntity
  8
GAIKEI
  6
SLD-実線
 62
     1
100
AcDbLine
 10
13.36352208831977
 20
12.31145415919582
 30
0.0
 11
11.84743194111973
 21
12.31145415919582
 31
0.0
  0
LINE
  5
202
330
2
100
AcDbEntity
  8
GAIKEI
  6
SLD-実線
 62
     1
100
AcDbLine
 10
13.36352208831977
 20
12.38952329845586
 30
0.0
 11
11.84743194111973
 21
12.38952329845586
 31
0.0
  0
ARC
  5
203
330
2
100
AcDbEntity
  8
GAIKEI
  6
SLD-実線
 62
     1
100
AcDbCircle
 10
13.37469124497977
 20
12.48936992815584
 30
0.0
 40
0.1004693959353282
100
AcDbArc
 50
263.6172496458007
 51
330.3469984895984
  0
LWPOLYLINE
  5
204
330
2
100
AcDbEntity
  8
GAIKEI
  6
SLD-実線
 62
     1
100
AcDbPolyline
 90
        7
 70
   128
 43
0.0
 10
11.74743211099974
 20
12.45039826723587
 10
11.75460254975979
 20
12.42756633551585
 10
11.76981030235976
 20
12.41175974251587
 10
11.78450620005981
 20
12.40287567021585
 10
11.80205529759979
 20
12.39604739935584
 10
11.8240155113798
 20
12.39117127375584
 10
11.84743194111979
 20
12.38952329845586
  0
LINE
  5
205
330
2
100
AcDbEntity
  8
GAIKEI
  6
SLD-実線
 62
     1
100
AcDbLine
 10
13.36352208831977
 20
12.59884512515583
 30
0.0
 11
11.84743194111973
 21
12.59884512515583
 31
0.0
  0
ARC
  5
206
330
2
100
AcDbEntity
  8
GAIKEI
  6
SLD-実線
 62
     1
100
AcDbCircle
 10
13.34382689215977
 20
12.48218687113581
 30
0.0
 40
0.118309124678283
100
AcDbArc
 50
357.2820929223009
 51
80.41722394590179
  0
LWPOLYLINE
  5
207
330
2
100
AcDbEntity
  8
GAIKEI
  6
SLD-実線
 62
     1
100
AcDbPolyline
 90
        7
 70
   128
 43
0.0
 10
11.84743194111979
 20
12.59884512515583
 10
11.82424089143978
 20
12.59488476903584
 10
11.80236859449974
 20
12.58316668213581
 10
11.78471071849975
 20
12.56653195711584
 10
11.76981030235976
 20
12.54462054463585
 10
11.75460254975979
 20
12.50607533843583
 10
11.74743211099974
 20
12.45039826723587
  0
ARC
  5
208
330
2
100
AcDbEntity
  8
GAIKEI
  6
SLD-実線
 62
     1
100
AcDbCircle
 10
13.37697800783974
 20
12.78186275171583
 30
0.0
 40
0.1091079940681295
100
AcDbArc
 50
262.9158698661007
 51
321.194068143598
  0
LINE
  5
209
330
2
100
AcDbEntity
  8
GAIKEI
  6
SLD-実線
 62
     1
100
AcDbLine
 10
13.36352208831977
 20
12.67358767333581
 30
0.0
 11
11.84743194111973
 21
12.67358767333581
 31
0.0
  0
LWPOLYLINE
  5
20A
330
2
100
AcDbEntity
  8
GAIKEI
  6
SLD-実線
 62
     1
100
AcDbPolyline
 90
        7
 70
   128
 43
0.0
 10
11.74743211099974
 20
12.72202892693582
 10
11.75460254975979
 20
12.70386049987587
 10
11.76981030235976
 20
12.69128224345581
 10
11.78450620005981
 20
12.68421276005585
 10
11.80205529759979
 20
12.67877923789581
 10
11.8240155113798
 20
12.67489916177584
 10
11.84743194111979
 20
12.67358767333587
  0
ARC
  5
20B
330
2
100
AcDbEntity
  8
GAIKEI
  6
SLD-実線
 62
     7
100
AcDbCircle
 10
13.99867040839973
 20
14.0673133722758
 30
0.0
 40
0.5076449019471347
100
AcDbArc
 50
204.5178325298
 51
273.4481434776984
  0
LWPOLYLINE
  5
20C
330
2
100
AcDbEntity
  8
GAIKEI
  6
SLD-実線
 62
     1
100
AcDbPolyline
 90
        7
 70
   128
 43
0.0
 10
13.46200293133978
 20
12.74865562559586
 10
13.45231624523978
 20
12.79245479495586
 10
13.43425622413974
 20
12.82932715953586
 10
13.41888195107975
 20
12.84814322831585
 10
13.40106798539977
 20
12.86207898053584
 10
13.38268218765978
 20
12.87024854215582
 10
13.36352208831977
 20
12.87301699163583
  0
LWPOLYLINE
  5
20D
330
2
100
AcDbEntity
  8
GAIKEI
  6
SLD-実線
 62
     1
100
AcDbPolyline
 90
        7
 70
   128
 43
0.0
 10
11.84743194111979
 20
12.87301699163583
 10
11.82424089143978
 20
12.86898902149585
 10
11.80236859449974
 20
12.85707032771586
 10
11.78471071849975
 20
12.84015061797584
 10
11.76981030235976
 20
12.81786425503583
 10
11.75460254975979
 20
12.77865929993584
 10
11.74743211099974
 20
12.72202892693582
  0
LINE
  5
20E
330
2
100
AcDbEntity
  8
GAIKEI
  6
SLD-実線
 62
     1
100
AcDbLine
 10
13.36352208831977
 20
12.87301699163583
 30
0.0
 11
11.84743194111973
 21
12.87301699163583
 31
0.0
  0
LINE
  5
20F
330
2
100
AcDbEntity
  8
GAIKEI
  6
SLD-実線
 62
     1
100
AcDbLine
 10
13.36352208831977
 20
12.94386437627582
 30
0.0
 11
11.84743194111973
 21
12.94386437627582
 31
0.0
  0
ARC
  5
210
330
2
100
AcDbEntity
  8
GAIKEI
  6
SLD-実線
 62
     1
100
AcDbCircle
 10
13.37878976587973
 20
13.07251787289584
 30
0.0
 40
0.1295562587243622
100
AcDbArc
 50
263.2321987808004
 51
309.9630664272977
  0
LWPOLYLINE
  5
211
330
2
100
AcDbEntity
  8
GAIKEI
  6
SLD-実線
 62
     1
100
AcDbPolyline
 90
        7
 70
   128
 43
0.0
 10
11.74743211099974
 20
12.97950329723585
 10
11.75460254975979
 20
12.96613639683585
 10
11.76981030235976
 20
12.95688240321584
 10
11.78450620005981
 20
12.95168133915581
 10
11.80205529759979
 20
12.94768373015586
 10
11.8240155113798
 20
12.94482904019583
 10
11.84743194111979
 20
12.94386437627582
  0
LWPOLYLINE
  5
212
330
2
100
AcDbEntity
  8
GAIKEI
  6
SLD-実線
 62
     1
100
AcDbPolyline
 90
        7
 70
   128
 43
0.0
 10
13.46200293133978
 20
13.00637530627585
 10
13.45231624523978
 20
13.05057848335582
 10
13.43425622413974
 20
13.08779059441582
 10
13.41888195107975
 20
13.10678026171581
 10
13.40106798539977
 20
13.12084435017584
 10
13.38268218765978
 20
13.12908934893585
 10
13.36352208831977
 20
13.13188331665583
  0
LWPOLYLINE
  5
213
330
2
100
AcDbEntity
  8
GAIKEI
  6
SLD-実線
 62
     1
100
AcDbPolyline
 90
        7
 70
   128
 43
0.0
 10
11.84743194111979
 20
13.13188331665583
 10
11.82424089143978
 20
13.12781827987584
 10
11.80236859449974
 20
13.11578969003585
 10
11.78471071849975
 20
13.09871407689582
 10
11.76981030235976
 20
13.07622207793582
 10
11.75460254975979
 20
13.03665558339583
 10
11.74743211099974
 20
12.97950329723585
  0
LINE
  5
214
330
2
100
AcDbEntity
  8
GAIKEI
  6
SLD-実線
 62
     1
100
AcDbLine
 10
11.84743194111973
 20
13.13188331665583
 30
0.0
 11
13.36352208831977
 21
13.13188331665583
 31
0.0
  0
ARC
  5
215
330
2
100
AcDbEntity
  8
GAIKEI
  6
SLD-実線
 62
     1
100
AcDbCircle
 10
13.38006896113973
 20
13.38082074031581
 30
0.0
 40
0.1832731229277591
100
AcDbArc
 50
264.8199783701013
 51
296.5551732898982
  0
LINE
  5
216
330
2
100
AcDbEntity
  8
GAIKEI
  6
SLD-実線
 62
     1
100
AcDbLine
 10
11.84743194111973
 20
13.19829611571583
 30
0.0
 11
13.36352208831977
 21
13.19829611571583
 31
0.0
  0
ARC
  5
217
330
2
100
AcDbEntity
  8
GAIKEI
  6
SLD-実線
 62
     1
100
AcDbCircle
 10
11.82612521551976
 20
13.33673435273584
 30
0.0
 40
0.1400682763062676
100
AcDbArc
 50
235.8182703940015
 51
278.7496130802002
  0
LINE
  5
218
330
2
100
AcDbEntity
  8
GAIKEI
  6
SLD-実線
 62
     1
100
AcDbLine
 10
15.50543204153973
 20
13.49193411411585
 30
0.0
 11
15.50543204153975
 21
13.62193403638378
 31
0.0
  0
LINE
  5
219
330
2
100
AcDbEntity
  8
GAIKEI
  6
SLD-実線
 62
     1
100
AcDbLine
 10
15.90743205537973
 20
8.121934109355834
 30
0.0
 11
15.90743205537973
 21
13.60193407473224
 31
0.0
  0
LINE
  5
21A
330
2
100
AcDbEntity
  8
GAIKEI
  6
SLD-実線
 62
     1
100
AcDbLine
 10
15.40743204037977
 20
13.4780160570358
 30
0.0
 11
15.40743204037977
 21
8.081934177295806
 31
0.0
  0
LINE
  5
21B
330
2
100
AcDbEntity
  8
GAIKEI
  6
SLD-実線
 62
     1
100
AcDbLine
 10
14.04743211547975
 20
8.081934177295806
 30
0.0
 11
14.04743211547975
 21
13.32898395599579
 31
0.0
  0
ARC
  5
21C
330
2
100
AcDbEntity
  8
GAIKEI
  6
SLD-実線
 62
     1
100
AcDbCircle
 10
15.49180487815977
 20
10.29783729965584
 30
0.0
 40
3.35768711018344
100
AcDbArc
 50
103.7400754880988
 51
115.4782830648994
  0
LINE
  5
21D
330
2
100
AcDbEntity
  8
GAIKEI
  6
SLD-実線
 62
     1
100
AcDbLine
 10
14.69429496879974
 20
13.55943823697584
 30
0.0
 11
15.21174738387975
 21
13.55943823697584
 31
0.0
  0
LWPOLYLINE
  5
21E
330
2
100
AcDbEntity
  8
GAIKEI
  6
SLD-実線
 62
     1
100
AcDbPolyline
 90
        7
 70
   128
 43
0.0
 10
15.21174738387975
 20
13.55943823697584
 10
15.27192386069976
 20
13.55685176791587
 10
15.33027862401979
 20
13.54878316165582
 10
15.37442377971979
 20
13.53755252899583
 10
15.41229210065978
 20
13.52208065333582
 10
15.45891043001978
 20
13.48504418971584
 10
15.4743088243398
 20
13.44022782983586
  0
LINE
  5
21F
330
2
100
AcDbEntity
  8
GAIKEI
  6
SLD-実線
 62
     1
100
AcDbLine
 10
15.47430877777975
 20
13.4402278298358
 30
0.0
 11
15.47430877777975
 21
8.081934177295806
 31
0.0
  0
LWPOLYLINE
  5
220
330
2
100
AcDbEntity
  8
GAIKEI
  6
SLD-実線
 62
     1
100
AcDbPolyline
 90
        7
 70
   128
 43
0.0
 10
15.20743205415977
 20
13.53897670747585
 10
15.25490720027977
 20
13.53745026977583
 10
15.29959010163975
 20
13.53281898887587
 10
15.33526399375978
 20
13.52616506161587
 10
15.36502473259975
 20
13.51721318903583
 10
15.39784556457977
 20
13.49816075059584
 10
15.40743204037977
 20
13.47801605703586
  0
LINE
  5
221
330
2
100
AcDbEntity
  8
GAIKEI
  6
SLD-実線
 62
     1
100
AcDbLine
 10
14.81027480417975
 20
13.5389767074758
 30
0.0
 11
15.20743205415977
 21
13.5389767074758
 31
0.0
  0
ARC
  5
222
330
2
100
AcDbEntity
  8
GAIKEI
  6
SLD-実線
 62
     1
100
AcDbCircle
 10
14.80309913203973
 20
12.98292936761584
 30
0.0
 40
0.5560936381903878
100
AcDbArc
 50
89.26065124439878
 51
103.9696885147006
  0
LINE
  5
223
330
2
100
AcDbEntity
  8
GAIKEI
  6
SLD-実線
 62
     1
100
AcDbLine
 10
14.18601067939977
 20
13.34091959985579
 30
0.0
 11
14.66885337809975
 21
13.5225757444158
 31
0.0
  0
LWPOLYLINE
  5
224
330
2
100
AcDbEntity
  8
GAIKEI
  6
SLD-実線
 62
     1
100
AcDbPolyline
 90
        3
 70
   128
 43
0.0
 10
14.12743197957979
 20
13.27143511267582
 10
14.14244974235976
 20
13.30974897833584
 10
14.18601067939977
 20
13.34091959985585
  0
LINE
  5
225
330
2
100
AcDbEntity
  8
GAIKEI
  6
SLD-実線
 62
     1
100
AcDbLine
 10
14.12743197957974
 20
8.08193417729575
 30
0.0
 11
14.12743197957974
 21
13.27143511267582
 31
0.0
  0
LWPOLYLINE
  5
226
330
2
100
AcDbEntity
  8
GAIKEI
  6
SLD-実線
 62
     1
100
AcDbPolyline
 90
        7
 70
   128
 43
0.0
 10
13.46200293133978
 20
13.2477746763958
 10
13.45231624523978
 20
13.29204509499584
 10
13.43425622413974
 20
13.32931401671584
 10
13.41888195107975
 20
13.34833274127584
 10
13.40106798539977
 20
13.36241825015582
 10
13.38268218765978
 20
13.37067572863583
 10
13.36352208831977
 20
13.37347398045585
  0
LWPOLYLINE
  5
227
330
2
100
AcDbEntity
  8
GAIKEI
  6
SLD-実線
 62
     1
100
AcDbPolyline
 90
        7
 70
   128
 43
0.0
 10
11.84743194111979
 20
13.37347398045585
 10
11.82424089143978
 20
13.36940261067582
 10
11.80236859449974
 20
13.35735576691581
 10
11.78471071849975
 20
13.34025407673584
 10
11.76981030235976
 20
13.31772780509584
 10
11.75460254975979
 20
13.27810096087586
 10
11.74743211099974
 20
13.22086150291585
  0
LINE
  5
228
330
2
100
AcDbEntity
  8
GAIKEI
  6
SLD-実線
 62
     1
100
AcDbLine
 10
11.84743194111973
 20
13.37347398045585
 30
0.0
 11
13.36352208831977
 21
13.37347398045585
 31
0.0
  0
ARC
  5
229
330
2
100
AcDbEntity
  8
GAIKEI
  6
SLD-実線
 62
     1
100
AcDbCircle
 10
11.82519831507977
 20
13.73753007083581
 30
0.0
 40
0.3033989694060295
100
AcDbArc
 50
255.148383801498
 51
274.2025056460008
  0
ARC
  5
22A
330
2
100
AcDbEntity
  8
GAIKEI
  6
SLD-実線
 62
     1
100
AcDbCircle
 10
13.38077897783978
 20
13.8490967457958
 30
0.0
 40
0.4145092635105721
100
AcDbArc
 50
267.6139670011997
 51
281.3003469761002
  0
LINE
  5
22B
330
2
100
AcDbEntity
  8
GAIKEI
  6
SLD-実線
 62
     1
100
AcDbLine
 10
11.84743194111973
 20
13.43494685831581
 30
0.0
 11
13.36352208831977
 21
13.43494685831581
 31
0.0
  0
LWPOLYLINE
  5
22C
330
2
100
AcDbEntity
  8
GAIKEI
  6
SLD-実線
 62
     1
100
AcDbPolyline
 90
        7
 70
   128
 43
0.0
 10
11.84743194111979
 20
13.59595036597585
 10
11.82424089143978
 20
13.59190376939585
 10
11.80236859449974
 20
13.57993031385581
 10
11.78471071849975
 20
13.56293274553582
 10
11.76981030235976
 20
13.54054356457584
 10
11.75460254975979
 20
13.50115793289581
 10
11.74743211099974
 20
13.44426678957586
  0
LINE
  5
22D
330
2
100
AcDbEntity
  8
GAIKEI
  6
SLD-実線
 62
     1
100
AcDbLine
 10
11.84743194111973
 20
13.59595036597579
 30
0.0
 11
13.36352208831977
 21
13.59595036597579
 31
0.0
  0
LWPOLYLINE
  5
22E
330
2
100
AcDbEntity
  8
GAIKEI
  6
SLD-実線
 62
     1
100
AcDbPolyline
 90
        7
 70
   128
 43
0.0
 10
13.46200293133978
 20
13.47101623655584
 10
13.45231624523978
 20
13.51501713039584
 10
13.43425622413974
 20
13.55205918195582
 10
13.41888195107975
 20
13.57096204997583
 10
13.40106798539977
 20
13.58496187719584
 10
13.38268218765978
 20
13.59316906423584
 10
13.36352208831977
 20
13.59595036597585
  0
ARC
  5
22F
330
2
100
AcDbEntity
  8
GAIKEI
  6
SLD-実線
 62
     1
100
AcDbCircle
 10
11.82504244235974
 20
12.95911985109581
 30
0.0
 40
0.6932572160557879
100
AcDbArc
 50
88.14924841009981
 51
96.42775223329962
  0
ARC
  5
230
330
2
100
AcDbEntity
  8
GAIKEI
  6
SLD-実線
 62
     1
100
AcDbCircle
 10
13.38090180259974
 20
12.69709970565583
 30
0.0
 40
0.9550738650769329
100
AcDbArc
 50
85.12880083929911
 51
91.04268295769955
  0
LINE
  5
231
330
2
100
AcDbEntity
  8
GAIKEI
  6
SLD-実線
 62
     1
100
AcDbLine
 10
11.84743194111973
 20
13.65201542617581
 30
0.0
 11
13.36352208831977
 21
13.65201542617581
 31
0.0
  0
ARC
  5
232
330
2
100
AcDbEntity
  8
GAIKEI
  6
SLD-実線
 62
     1
100
AcDbCircle
 10
8.807431889859742
 20
7.927509356875816
 30
0.0
 40
0.0385947254305714
100
AcDbArc
 50
52.17644562349811
 51
127.8235543765019
  0
ARC
  5
233
330
2
100
AcDbEntity
  8
GAIKEI
  6
SLD-実線
 62
     1
100
AcDbCircle
 10
5.763446092659762
 20
12.12718892277581
 30
0.0
 40
5.148251817972965
100
AcDbArc
 50
298.5254612014013
 51
305.9209648178011
  0
ARC
  5
234
330
2
100
AcDbEntity
  8
GAIKEI
  6
SLD-実線
 62
     1
100
AcDbCircle
 10
11.85135085413975
 20
12.12708806223583
 30
0.0
 40
5.148130929589022
100
AcDbArc
 50
234.078978994002
 51
241.4746635426991
  0
LWPOLYLINE
  5
235
330
2
100
AcDbEntity
  8
GAIKEI
  6
SLD-実線
 62
     1
100
AcDbPolyline
 90
        7
 70
   128
 43
0.0
 10
13.46200293133978
 20
13.67440106811585
 10
13.45231624523978
 20
13.71779753359584
 10
13.43425622413974
 20
13.75433089675584
 10
13.41888195107975
 20
13.77297411205586
 10
13.40106798539977
 20
13.78678171427583
 10
13.38268218765978
 20
13.79487621131585
 10
13.36352208831977
 20
13.79761932881581
  0
LWPOLYLINE
  5
236
330
2
100
AcDbEntity
  8
GAIKEI
  6
SLD-実線
 62
     1
100
AcDbPolyline
 90
        7
 70
   128
 43
0.0
 10
11.84743194111979
 20
13.79761932881581
 10
11.82424089143978
 20
13.79362823905586
 10
11.80236859449974
 20
13.78181906881582
 10
11.78471071849975
 20
13.76505507619583
 10
11.76981030235976
 20
13.74297341795585
 10
11.75460254975979
 20
13.70412888469582
 10
11.74743211099974
 20
13.64801912101586
  0
LINE
  5
237
330
2
100
AcDbEntity
  8
GAIKEI
  6
SLD-実線
 62
     1
100
AcDbLine
 10
11.84743194111973
 20
13.79761932881581
 30
0.0
 11
13.36352208831977
 21
13.79761932881581
 31
0.0
  0
ARC
  5
238
330
2
100
AcDbEntity
  8
GAIKEI
  6
SLD-実線
 62
     1
100
AcDbCircle
 10
11.82566283097975
 20
13.6758569256358
 30
0.0
 40
0.1733650960425704
100
AcDbArc
 50
82.78644117469841
 51
116.8238074248993
  0
ARC
  5
239
330
2
100
AcDbEntity
  8
GAIKEI
  6
SLD-実線
 62
     1
100
AcDbCircle
 10
13.38042434321977
 20
13.6170025342758
 30
0.0
 40
0.2314652554441852
100
AcDbArc
 50
69.3631132747004
 51
94.18762895609907
  0
LINE
  5
23A
330
2
100
AcDbEntity
  8
GAIKEI
  6
SLD-実線
 62
     1
100
AcDbLine
 10
9.407432360739733
 20
7.516637952055816
 30
0.0
 11
8.85339452157973
 21
7.831234619935798
 31
0.0
  0
ARC
  5
23B
330
2
100
AcDbEntity
  8
GAIKEI
  6
SLD-実線
 62
     1
100
AcDbCircle
 10
8.807431889859742
 20
7.750608004775813
 30
0.0
 40
0.0928074058736072
100
AcDbArc
 50
60.31393077919792
 51
119.686069220802
  0
LINE
  5
23C
330
2
100
AcDbEntity
  8
GAIKEI
  6
SLD-実線
 62
     1
100
AcDbLine
 10
8.761469258159763
 20
7.831234619935798
 30
0.0
 11
8.207432164059753
 21
7.516637952055816
 31
0.0
  0
LINE
  5
23D
330
2
100
AcDbEntity
  8
GAIKEI
  6
SLD-実線
 62
     1
100
AcDbLine
 10
8.207432164059753
 20
7.586705074635801
 30
0.0
 11
8.207432164059753
 21
7.516637952055816
 31
0.0
  0
LWPOLYLINE
  5
23E
330
2
100
AcDbEntity
  8
GAIKEI
  6
SLD-実線
 62
     1
100
AcDbPolyline
 90
        3
 70
   128
 43
0.0
 10
8.221989853479783
 20
7.603909210275844
 10
8.211072517739751
 20
7.595668868135817
 10
8.20743216405981
 20
7.586705074635858
  0
LWPOLYLINE
  5
23F
330
2
100
AcDbEntity
  8
GAIKEI
  6
SLD-実線
 62
     1
100
AcDbPolyline
 90
        3
 70
   128
 43
0.0
 10
9.392874671319759
 20
7.603909210275844
 10
9.403791261999742
 20
7.595668868135817
 10
9.40743236073979
 20
7.586705074635858
  0
LINE
  5
240
330
2
100
AcDbEntity
  8
GAIKEI
  6
SLD-実線
 62
     1
100
AcDbLine
 10
9.407432360739733
 20
7.586705074635801
 30
0.0
 11
9.407432360739733
 21
7.516637952055816
 31
0.0
  0
LINE
  5
241
330
2
100
AcDbEntity
  8
GAIKEI
  6
SLD-実線
 62
     1
100
AcDbLine
 10
11.84743194111973
 20
13.84784983935583
 30
0.0
 11
13.36352208831977
 21
13.84784983935583
 31
0.0
  0
LINE
  5
242
330
2
100
AcDbEntity
  8
GAIKEI
  6
SLD-実線
 62
     1
100
AcDbLine
 10
6.339432282539746
 20
12.87193404975585
 30
0.0
 11
6.339432282539746
 21
8.851934173135816
 31
0.0
  0
LINE
  5
243
330
2
100
AcDbEntity
  8
GAIKEI
  6
SLD-実線
 62
     1
100
AcDbLine
 10
9.466256184679764
 20
7.524053887455806
 30
0.0
 11
9.407432360739733
 21
7.516637952055816
 31
0.0
  0
LINE
  5
244
330
2
100
AcDbEntity
  8
GAIKEI
  6
SLD-実線
 62
     1
100
AcDbLine
 10
8.148607595059786
 20
7.524053887455806
 30
0.0
 11
8.207432164059753
 21
7.516637952055816
 31
0.0
  0
ARC
  5
245
330
2
100
AcDbEntity
  8
GAIKEI
  6
SLD-実線
 62
     1
100
AcDbCircle
 10
13.34485472311974
 20
13.86119423459581
 30
0.0
 40
0.1172470336650526
100
AcDbArc
 50
357.6473809729021
 51
80.83872505750045
  0
LWPOLYLINE
  5
246
330
2
100
AcDbEntity
  8
GAIKEI
  6
SLD-実線
 62
     1
100
AcDbPolyline
 90
        7
 70
   128
 43
0.0
 10
11.84743194111979
 20
13.97694567681583
 10
11.82424051889978
 20
13.97304045499584
 10
11.80236747691975
 20
13.96148516329583
 10
11.78470960089976
 20
13.94508140625584
 10
11.76980881223977
 20
13.92347453625587
 10
11.7546021772398
 20
13.88546707573584
 10
11.74743211099974
 20
13.83056765885584
  0
LINE
  5
247
330
2
100
AcDbEntity
  8
GAIKEI
  6
SLD-実線
 62
     1
100
AcDbLine
 10
11.84743194111973
 20
13.97694567681583
 30
0.0
 11
13.36352208831977
 21
13.97694567681583
 31
0.0
  0
LWPOLYLINE
  5
248
330
2
100
AcDbEntity
  8
GAIKEI
  6
SLD-実線
 62
     1
100
AcDbPolyline
 90
        7
 70
   128
 43
0.0
 10
11.84743194111979
 20
14.02095942291583
 10
11.82430049607978
 20
14.02016295583587
 10
11.80205417999974
 20
14.01770202907585
 10
11.78444398769977
 20
14.01425613553584
 10
11.76980881223977
 20
14.00984129401581
 10
11.7546021772398
 20
14.00208263191587
 10
11.74743211099974
 20
13.99052305611582
  0
ARC
  5
249
330
2
100
AcDbEntity
  8
GAIKEI
  6
SLD-実線
 62
     1
100
AcDbCircle
 10
13.37936791911977
 20
13.87723775233581
 30
0.0
 40
0.1445925618549635
100
AcDbArc
 50
55.14493296769789
 51
96.29165427909921
  0
ARC
  5
24A
330
2
100
AcDbEntity
  8
GAIKEI
  6
SLD-実線
 62
     1
100
AcDbCircle
 10
8.807432262399743
 20
7.696750312115796
 30
0.0
 40
0.053072781256825
100
AcDbArc
 50
57.73716554859897
 51
122.262834451401
  0
ARC
  5
24B
330
2
100
AcDbEntity
  8
GAIKEI
  6
SLD-実線
 62
     1
100
AcDbCircle
 10
11.03216282827975
 20
11.28685706523583
 30
0.0
 40
4.170469372457495
100
AcDbArc
 50
238.2202508129014
 51
246.8181530155013
  0
ARC
  5
24C
330
2
100
AcDbEntity
  8
GAIKEI
  6
SLD-実線
 62
     1
100
AcDbCircle
 10
6.582701696519734
 20
11.28685706523583
 30
0.0
 40
4.170469372455611
100
AcDbArc
 50
293.1818469844987
 51
301.7797491870986
  0
LINE
  5
24D
330
2
100
AcDbEntity
  8
GAIKEI
  6
SLD-実線
 62
     1
100
AcDbLine
 10
11.84743194111973
 20
14.02095942291583
 30
0.0
 11
13.36352208831977
 21
14.02095942291583
 31
0.0
  0
LINE
  5
24E
330
2
100
AcDbEntity
  8
GAIKEI
  6
SLD-実線
 62
     1
100
AcDbLine
 10
9.407432360739733
 20
7.384988428075814
 30
0.0
 11
8.85339452157973
 21
7.637102291895814
 31
0.0
  0
ARC
  5
24F
330
2
100
AcDbEntity
  8
GAIKEI
  6
SLD-実線
 62
     1
100
AcDbCircle
 10
8.807431889859742
 20
7.53910420507583
 30
0.0
 40
0.1082413439220093
100
AcDbArc
 50
64.8726899164009
 51
115.1273100835991
  0
LINE
  5
250
330
2
100
AcDbEntity
  8
GAIKEI
  6
SLD-実線
 62
     1
100
AcDbLine
 10
8.761469258159763
 20
7.637102291895814
 30
0.0
 11
8.207432164059753
 21
7.384988428075814
 31
0.0
  0
LINE
  5
251
330
2
100
AcDbEntity
  8
GAIKEI
  6
SLD-実線
 62
     1
100
AcDbLine
 10
8.207432164059753
 20
7.437632740455796
 30
0.0
 11
8.207432164059753
 21
7.384988428075814
 31
0.0
  0
LWPOLYLINE
  5
252
330
2
100
AcDbEntity
  8
GAIKEI
  6
SLD-実線
 62
     1
100
AcDbPolyline
 90
        3
 70
   128
 43
0.0
 10
8.224409802059767
 20
7.453110949115853
 10
8.211677504879787
 20
7.445627958495833
 10
8.20743216405981
 20
7.437632740455853
  0
LWPOLYLINE
  5
253
330
2
100
AcDbEntity
  8
GAIKEI
  6
SLD-実線
 62
     1
100
AcDbPolyline
 90
        3
 70
   128
 43
0.0
 10
9.390454722739775
 20
7.453110949115853
 10
9.403186274859763
 20
7.445627958495833
 10
9.40743236073979
 20
7.437632740455853
  0
LINE
  5
254
330
2
100
AcDbEntity
  8
GAIKEI
  6
SLD-実線
 62
     1
100
AcDbLine
 10
9.407432360739733
 20
7.437632740455796
 30
0.0
 11
9.407432360739733
 21
7.384988428075814
 31
0.0
  0
LINE
  5
255
330
2
100
AcDbEntity
  8
GAIKEI
  6
SLD-実線
 62
     1
100
AcDbLine
 10
11.84743194111973
 20
14.13256502243581
 30
0.0
 11
13.36352208831977
 21
14.13256502243581
 31
0.0
  0
ARC
  5
256
330
2
100
AcDbEntity
  8
GAIKEI
  6
SLD-実線
 62
     1
100
AcDbCircle
 10
13.34696119615972
 20
14.01867914703581
 30
0.0
 40
0.1150836902656731
100
AcDbArc
 50
358.4528362352978
 51
81.72623853269943
  0
LWPOLYLINE
  5
257
330
2
100
AcDbEntity
  8
GAIKEI
  6
SLD-実線
 62
     1
100
AcDbPolyline
 90
        7
 70
   128
 43
0.0
 10
11.74743211099974
 20
13.99052305611582
 10
11.75460254975979
 20
14.04385207685584
 10
11.76981030235976
 20
14.08067992421581
 10
11.78440971503977
 20
14.10125693769584
 10
11.80236859449974
 20
14.11756551357587
 10
11.82447409459979
 20
14.12882334085583
 10
11.84743194111979
 20
14.13256502243587
  0
LWPOLYLINE
  5
258
330
2
100
AcDbEntity
  8
GAIKEI
  6
SLD-実線
 62
     1
100
AcDbPolyline
 90
        7
 70
   128
 43
0.0
 10
11.74743211099974
 20
14.11791122051585
 10
11.75400315055981
 20
14.14012959691581
 10
11.77313139865975
 20
14.15915204675582
 10
11.7879170758398
 20
14.16739462407582
 10
11.8054892701798
 20
14.17375406713586
 10
11.82559726963978
 20
14.17791111859583
 10
11.84743194111979
 20
14.17938707859582
  0
LINE
  5
259
330
2
100
AcDbEntity
  8
GAIKEI
  6
SLD-実線
 62
     1
100
AcDbLine
 10
8.158197982399769
 20
7.404584945155818
 30
0.0
 11
8.207432164059753
 21
7.384988428075814
 31
0.0
  0
LINE
  5
25A
330
2
100
AcDbEntity
  8
GAIKEI
  6
SLD-実線
 62
     1
100
AcDbLine
 10
9.456666542379764
 20
7.404584945155818
 30
0.0
 11
9.407432360739733
 21
7.384988428075814
 31
0.0
  0
ARC
  5
25B
330
2
100
AcDbEntity
  8
GAIKEI
  6
SLD-実線
 62
     7
100
AcDbCircle
 10
13.37394145461974
 20
14.07866699225582
 30
0.0
 40
0.1012575873023902
100
AcDbArc
 50
29.57877954770021
 51
95.90616757219928
  0
LINE
  5
25C
330
2
100
AcDbEntity
  8
GAIKEI
  6
SLD-実線
 62
     7
100
AcDbLine
 10
11.84743194111973
 20
14.17938707859582
 30
0.0
 11
13.36352208831977
 21
14.17938707859582
 31
0.0
  0
LINE
  5
25D
330
2
100
AcDbEntity
  8
GAIKEI
  6
SLD-実線
 62
     1
100
AcDbLine
 10
9.142175300219776
 20
7.332328841995831
 30
0.0
 11
9.142252041199753
 21
7.310011000355814
 31
0.0
  0
LINE
  5
25E
330
2
100
AcDbEntity
  8
GAIKEI
  6
SLD-実線
 62
     1
100
AcDbLine
 10
8.872082812879739
 20
7.332328841995831
 30
0.0
 11
9.142175300219776
 21
7.332328841995831
 31
0.0
  0
LINE
  5
25F
330
2
100
AcDbEntity
  8
GAIKEI
  6
SLD-実線
 62
     1
100
AcDbLine
 10
8.872224373919777
 20
7.389690489495819
 30
0.0
 11
8.872082812879739
 21
7.332328841995831
 31
0.0
  0
LINE
  5
260
330
2
100
AcDbEntity
  8
GAIKEI
  6
SLD-実線
 62
     1
100
AcDbLine
 10
8.727639896959772
 20
7.389690489495819
 30
0.0
 11
8.872224373919777
 21
7.389690489495819
 31
0.0
  0
LINE
  5
261
330
2
100
AcDbEntity
  8
GAIKEI
  6
SLD-実線
 62
     1
100
AcDbLine
 10
8.727781457999753
 20
7.332328841995831
 30
0.0
 11
8.727639896959772
 21
7.389690489495819
 31
0.0
  0
LINE
  5
262
330
2
100
AcDbEntity
  8
GAIKEI
  6
SLD-実線
 62
     1
100
AcDbLine
 10
8.617082966659722
 20
7.332328841995831
 30
0.0
 11
8.727781457999753
 21
7.332328841995831
 31
0.0
  0
ARC
  5
263
330
2
100
AcDbEntity
  8
GAIKEI
  6
SLD-実線
 62
     1
100
AcDbCircle
 10
12.97059303591976
 20
7.355954293455852
 30
0.0
 40
4.353574173597246
100
AcDbArc
 50
179.4069229013994
 51
180.3109273548003
  0
LINE
  5
264
330
2
100
AcDbEntity
  8
GAIKEI
  6
SLD-実線
 62
     1
100
AcDbLine
 10
8.47261173853974
 20
7.401017979695836
 30
0.0
 11
8.617252094839784
 21
7.401017979695836
 31
0.0
  0
ARC
  5
265
330
2
100
AcDbEntity
  8
GAIKEI
  6
SLD-実線
 62
     1
100
AcDbCircle
 10
5.066834750259772
 20
7.35551449003583
 30
0.0
 40
3.406080953451851
100
AcDbArc
 50
359.2345350843014
 51
0.765464915799622
  0
LINE
  5
266
330
2
100
AcDbEntity
  8
GAIKEI
  6
SLD-実線
 62
     1
100
AcDbLine
 10
8.47261173853974
 20
7.310011000355814
 30
0.0
 11
8.507432026959747
 21
7.255705953555832
 31
0.0
  0
LINE
  5
267
330
2
100
AcDbEntity
  8
GAIKEI
  6
SLD-実線
 62
     1
100
AcDbLine
 10
9.107431752779746
 20
7.255705953555832
 30
0.0
 11
8.507432026959747
 21
7.255705953555832
 31
0.0
  0
LINE
  5
268
330
2
100
AcDbEntity
  8
GAIKEI
  6
SLD-実線
 62
     1
100
AcDbLine
 10
9.142252041199753
 20
7.310011000355814
 30
0.0
 11
9.107431752779746
 21
7.255705953555832
 31
0.0
  0
LINE
  5
269
330
2
100
AcDbEntity
  8
GAIKEI
  6
SLD-実線
 62
     1
100
AcDbLine
 10
12.64743207225973
 20
6.961934030975839
 30
0.0
 11
13.04743213781978
 21
6.961934030975839
 31
0.0
  0
LINE
  5
26A
330
2
100
AcDbEntity
  8
GAIKEI
  6
SLD-実線
 62
     1
100
AcDbLine
 10
12.24743200669974
 20
6.961934030975839
 30
0.0
 11
12.64743207225973
 21
6.961934030975839
 31
0.0
  0
LINE
  5
26B
330
2
100
AcDbEntity
  8
GAIKEI
  6
SLD-実線
 62
     1
100
AcDbLine
 10
12.29743210801973
 20
6.921951980315839
 30
0.0
 11
12.99743203649973
 21
6.921951980315839
 31
0.0
  0
LINE
  5
26C
330
2
100
AcDbEntity
  8
GAIKEI
  6
SLD-実線
 62
     1
100
AcDbLine
 10
12.64743207225973
 20
5.92195181639579
 30
0.0
 11
12.81320376525974
 21
5.92195181639579
 31
0.0
  0
LINE
  5
26D
330
2
100
AcDbEntity
  8
GAIKEI
  6
SLD-実線
 62
     1
100
AcDbLine
 10
12.48636579343974
 20
5.92195181639579
 30
0.0
 11
12.64743207225973
 21
5.92195181639579
 31
0.0
  0
ARC
  5
26E
330
2
100
AcDbEntity
  8
GAIKEI
  6
SLD-実線
 62
     1
100
AcDbCircle
 10
8.807431889859742
 20
7.970524039855831
 30
0.0
 40
0.7478925265122243
100
AcDbArc
 50
263.8594908767017
 51
276.1405091232983
  0
LINE
  5
26F
330
2
100
AcDbEntity
  8
GAIKEI
  6
SLD-実線
 62
     1
100
AcDbLine
 10
8.719447238539771
 20
7.255705953555832
 30
0.0
 11
8.727432025759753
 21
7.22692249807585
 31
0.0
  0
LINE
  5
270
330
2
100
AcDbEntity
  8
GAIKEI
  6
SLD-実線
 62
     1
100
AcDbLine
 10
8.895416541199779
 20
7.255705953555832
 30
0.0
 11
8.88743175397974
 21
7.22692249807585
 31
0.0
  0
ARC
  5
271
330
2
100
AcDbEntity
  8
GAIKEI
  6
SLD-実線
 62
     1
100
AcDbCircle
 10
10.19873823811974
 20
7.488585466155825
 30
0.0
 40
0.5056026147870395
100
AcDbArc
 50
259.5959248838988
 51
305.9257551309022
  0
ARC
  5
272
330
2
100
AcDbEntity
  8
GAIKEI
  6
SLD-実線
 62
     1
100
AcDbCircle
 10
10.01612571469974
 20
7.488585993495803
 30
0.0
 40
0.5056031118886364
100
AcDbArc
 50
234.0742689722979
 51
280.4040510128984
  0
LWPOLYLINE
  5
273
330
2
100
AcDbEntity
  8
GAIKEI
  6
SLD-実線
 62
     1
100
AcDbPolyline
 90
        5
 70
   128
 43
0.0
 10
14.16740900107976
 20
13.61196389885583
 10
14.16740546205977
 20
13.62742422611586
 10
14.16738460043979
 20
13.72439185621584
 10
14.16740546205977
 20
13.78918340893585
 10
14.16743209787978
 20
13.81193412931583
  0
LINE
  5
274
330
2
100
AcDbEntity
  8
GAIKEI
  6
SLD-実線
 62
     7
100
AcDbLine
 10
13.57488630541974
 20
13.78088010939581
 30
0.0
 11
14.16743209787972
 21
13.81193412931583
 31
0.0
  0
LWPOLYLINE
  5
275
330
2
100
AcDbEntity
  8
GAIKEI
  6
SLD-実線
 62
     1
100
AcDbPolyline
 90
        5
 70
   128
 43
0.0
 10
14.1874320639198
 20
13.81193412931583
 10
14.18740393797975
 20
13.78920035901581
 10
14.18738177249975
 20
13.72446543069583
 10
14.18740393797975
 20
13.62758180589583
 10
14.18740784951978
 20
13.61193409653583
  0
LINE
  5
276
330
2
100
AcDbEntity
  8
GAIKEI
  6
SLD-実線
 62
     7
100
AcDbLine
 10
15.64789924973974
 20
13.73539431485579
 30
0.0
 11
14.18743206391974
 21
13.81193412931583
 31
0.0
  0
ARC
  5
277
330
2
100
AcDbEntity
  8
GAIKEI
  6
SLD-実線
 62
     7
100
AcDbCircle
 10
15.63743187937973
 20
13.5356679343958
 30
0.0
 40
0.2000004822318308
100
AcDbArc
 50
43.50007065580027
 51
86.99995585790043
  0
LINE
  5
278
330
2
100
AcDbEntity
  8
GAIKEI
  6
SLD-実線
 62
     1
100
AcDbLine
 10
14.18740784951973
 20
13.61193409653583
 30
0.0
 11
14.16743209787972
 21
13.61193409653583
 31
0.0
  0
LINE
  5
279
330
2
100
AcDbEntity
  8
GAIKEI
  6
SLD-実線
 62
     1
100
AcDbLine
 10
14.96743204275975
 20
13.81193412931583
 30
0.0
 11
14.18743206391974
 21
13.81193412931583
 31
0.0
  0
LINE
  5
27A
330
2
100
AcDbEntity
  8
GAIKEI
  6
SLD-実線
 62
     1
100
AcDbLine
 10
14.76743200997975
 20
14.41193422767583
 30
0.0
 11
13.76743203231973
 21
14.41193422767583
 31
0.0
  0
ARC
  5
27B
330
2
100
AcDbEntity
  8
GAIKEI
  6
SLD-実線
 62
     1
100
AcDbCircle
 10
27.84419632459975
 20
3.206795521355843
 30
0.0
 40
13.35901408389361
100
AcDbArc
 50
88.64888505069847
 51
91.38047526170135
  0
LINE
  5
27C
330
2
100
AcDbEntity
  8
GAIKEI
  6
SLD-実線
 62
     1
100
AcDbLine
 10
27.52235753665974
 20
16.5619341144158
 30
0.0
 11
27.52165718207976
 21
16.5619341144158
 31
0.0
  0
LINE
  5
27D
330
2
100
AcDbEntity
  8
GAIKEI
  6
SLD-実線
 62
     1
100
AcDbLine
 10
28.15919144281975
 20
16.56209541949579
 30
0.0
 11
28.16465346345978
 21
16.5619341144158
 31
0.0
  0
LINE
  5
27E
330
2
100
AcDbEntity
  8
GAIKEI
  6
SLD-実線
 62
     1
100
AcDbLine
 10
27.52165718207976
 20
16.5619341144158
 30
0.0
 11
18.84743197093971
 21
16.5619341144158
 31
0.0
  0
LINE
  5
27F
330
2
100
AcDbEntity
  8
GAIKEI
  6
SLD-実線
 62
     1
100
AcDbLine
 10
19.45334745773976
 20
16.5619341144158
 30
0.0
 11
19.44743206927978
 21
16.56177839727581
 31
0.0
  0
LWPOLYLINE
  5
280
330
2
100
AcDbEntity
  8
GAIKEI
  6
SLD-実線
 62
     7
100
AcDbPolyline
 90
        5
 70
   128
 43
0.0
 10
18.84800045023974
 20
16.56339554579585
 10
19.02293803373976
 20
17.01323515267586
 10
19.19450571963978
 20
17.45440898927586
 10
19.36147174069975
 20
17.88375093133584
 10
19.52263822981979
 20
18.29817904623587
  0
LINE
  5
281
330
2
100
AcDbEntity
  8
GAIKEI
  6
SLD-実線
 62
     7
100
AcDbLine
 10
18.84743197093974
 20
16.36193408163581
 30
0.0
 11
18.84743197093974
 21
16.5619341144158
 31
0.0
  0
LWPOLYLINE
  5
282
330
2
100
AcDbEntity
  8
GAIKEI
  6
SLD-実線
 62
     7
100
AcDbPolyline
 90
        3
 70
   128
 43
0.0
 10
18.84743197093974
 20
16.56193411441586
 10
18.84757409075979
 20
16.56229956539585
 10
18.84800045023974
 20
16.56339554579585
  0
LINE
  5
283
330
2
100
AcDbEntity
  8
GAIKEI
  6
SLD-実線
 62
     1
100
AcDbLine
 10
29.34743238815975
 20
16.5619341144158
 30
0.0
 11
28.16465346345978
 21
16.5619341144158
 31
0.0
  0
ARC
  5
284
330
2
100
AcDbEntity
  8
GAIKEI
  6
SLD-実線
 62
     7
100
AcDbCircle
 10
19.61583876501976
 20
18.26193411143583
 30
0.0
 40
0.1000000000000061
100
AcDbArc
 50
90.0
 51
158.749494492901
  0
LINE
  5
285
330
2
100
AcDbEntity
  8
GAIKEI
  6
SLD-実線
 62
     7
100
AcDbLine
 10
28.77142353185974
 20
18.36193440945584
 30
0.0
 11
19.61583866009977
 21
18.36193440945584
 31
0.0
  0
LWPOLYLINE
  5
286
330
2
100
AcDbEntity
  8
GAIKEI
  6
SLD-実線
 62
     7
100
AcDbPolyline
 90
        3
 70
   128
 43
0.0
 10
16.04741682035978
 20
10.96018893409587
 10
16.05949634191978
 20
12.34436430501586
 10
16.07146408145979
 20
13.71573130133583
  0
ARC
  5
287
330
2
100
AcDbEntity
  8
GAIKEI
  6
SLD-実線
 62
     1
100
AcDbCircle
 10
16.22090929211976
 20
13.46389164889581
 30
0.0
 40
0.2928431005222972
100
AcDbArc
 50
80.06051942219842
 51
120.6854928506986
  0
LWPOLYLINE
  5
288
330
2
100
AcDbEntity
  8
GAIKEI
  6
SLD-実線
 62
     1
100
AcDbPolyline
 90
        4
 70
   128
 43
0.0
 10
19.47943194041977
 20
10.96193411619583
 10
19.49575877019976
 20
11.89729826989583
 10
19.51201295683978
 20
12.82850219401587
 10
19.52813899347978
 20
13.75235686543584
  0
LWPOLYLINE
  5
289
330
2
100
AcDbEntity
  8
GAIKEI
  6
SLD-実線
 62
     7
100
AcDbPolyline
 90
        4
 70
   128
 43
0.0
 10
16.07146408145979
 20
13.71573130133583
 10
16.07629021833975
 20
14.26875269503586
 10
16.08093707559976
 20
14.80122967155586
 10
16.08533330231978
 20
15.30498726757582
  0
LINE
  5
28A
330
2
100
AcDbEntity
  8
GAIKEI
  6
SLD-実線
 62
     1
100
AcDbLine
 10
19.60055230387974
 20
14.46193395645582
 30
0.0
 11
41.9144535415216
 21
14.46193395645582
 31
0.0
  0
LWPOLYLINE
  5
28B
330
2
100
AcDbEntity
  8
GAIKEI
  6
SLD-実線
 62
     1
100
AcDbPolyline
 90
        8
 70
   128
 43
0.0
 10
19.53718921373979
 20
14.27083550485582
 10
19.55028882453979
 20
14.38485770019582
 10
19.55869158933978
 20
14.41298736723581
 10
19.57210747727976
 20
14.44106152745587
 10
19.57977486977978
 20
14.45107361765582
 10
19.58985364267977
 20
14.45910199077582
 10
19.59672643075976
 20
14.46157260329585
 10
19.60055230387979
 20
14.46193395645582
  0
LWPOLYLINE
  5
28C
330
2
100
AcDbEntity
  8
GAIKEI
  6
SLD-実線
 62
     1
100
AcDbPolyline
 90
        4
 70
   128
 43
0.0
 10
19.52813899347978
 20
13.75235686543584
 10
19.53118218311977
 20
13.92669765743585
 10
19.53420004079976
 20
14.09959732087583
 10
19.53718921373979
 20
14.27083550485582
  0
LINE
  5
28D
330
2
100
AcDbEntity
  8
GAIKEI
  6
SLD-実線
 62
     7
100
AcDbLine
 10
41.35475006557821
 20
15.99188684018645
 30
0.0
 11
41.35555174805823
 21
15.99005809518644
 31
0.0
  0
ARC
  5
28E
330
2
100
AcDbEntity
  8
GAIKEI
  6
SLD-実線
 62
     7
100
AcDbCircle
 10
28.87948633648894
 20
10.56074680491315
 30
0.0
 40
13.60623501295032
100
AcDbArc
 50
15.76788199717652
 51
23.51762378657547
  0
LINE
  5
28F
330
2
100
AcDbEntity
  8
GAIKEI
  6
SLD-実線
 62
     1
100
AcDbLine
 10
16.29281938745975
 20
16.36193408163581
 30
0.0
 11
16.29257100371973
 21
16.3323940196758
 31
0.0
  0
ARC
  5
290
330
2
100
AcDbEntity
  8
GAIKEI
  6
SLD-実線
 62
     7
100
AcDbCircle
 10
16.29281936669974
 20
16.16193410323581
 30
0.0
 40
0.1999999783901284
100
AcDbArc
 50
89.99999405729978
 51
179.5000179912021
  0
LWPOLYLINE
  5
291
330
2
100
AcDbEntity
  8
GAIKEI
  6
SLD-実線
 62
     7
100
AcDbPolyline
 90
        5
 70
   128
 43
0.0
 10
16.09282700314793
 20
16.16367934734813
 10
16.09231853595975
 20
16.10541617961587
 10
16.09082610315977
 20
15.93440039547585
 10
16.0884463295198
 20
15.66170467527581
 10
16.08533330231978
 20
15.30498726757582
  0
LINE
  5
292
330
2
100
AcDbEntity
  8
GAIKEI
  6
SLD-実線
 62
     7
100
AcDbLine
 10
16.29281938745975
 20
16.36193408163581
 30
0.0
 11
41.06191244579974
 21
16.36193408163581
 31
0.0
  0
ARC
  5
293
330
2
100
AcDbEntity
  8
GAIKEI
  6
SLD-実線
 62
     7
100
AcDbCircle
 10
41.06191751001972
 20
16.1619410446558
 30
0.0
 40
0.1999926645125335
100
AcDbArc
 50
358.5628504656248
 51
90.00145084439983
  0
ARC
  5
294
330
2
100
AcDbEntity
  8
GAIKEI
  6
SLD-実線
 62
     1
100
AcDbCircle
 10
32.09012129763971
 20
10.92712637287582
 30
0.0
 40
10.35921463862453
100
AcDbArc
 50
0.2219135640978036
 51
8.273463409201051
  0
LINE
  5
295
330
2
100
AcDbEntity
  8
GAIKEI
  6
SLD-実線
 62
     1
100
AcDbLine
 10
42.44925823665972
 20
10.96724877831582
 30
0.0
 11
42.44935062385974
 21
10.96193411619583
 31
0.0
  0
LINE
  5
296
330
2
100
AcDbEntity
  8
GAIKEI
  6
SLD-実線
 62
     1
100
AcDbLine
 10
42.44935062385974
 20
10.96193411619583
 30
0.0
 11
42.45005097843978
 21
10.92193411429582
 31
0.0
  0
LWPOLYLINE
  5
297
330
2
100
AcDbEntity
  8
GAIKEI
  6
SLD-実線
 62
     1
100
AcDbPolyline
 90
        5
 70
   128
 43
0.0
 10
19.60742918977979
 20
14.21397230119584
 10
19.60742993483978
 20
13.39992782565582
 10
19.60743067989978
 20
12.56534452083582
 10
19.60743142495977
 20
11.71703743281585
 10
19.60743217001976
 20
10.86193411143586
  0
LWPOLYLINE
  5
298
330
2
100
AcDbEntity
  8
GAIKEI
  6
SLD-実線
 62
     1
100
AcDbPolyline
 90
        5
 70
   128
 43
0.0
 10
19.60743217001976
 20
10.86193411143586
 10
19.60743142495977
 20
10.00607045831583
 10
19.60743067989978
 20
9.157398664375818
 10
19.60742993483978
 20
8.322864719655854
 10
19.60742914640366
 20
7.461933926655831
  0
ARC
  5
299
330
2
100
AcDbEntity
  8
GAIKEI
  6
SLD-実線
 62
     7
100
AcDbCircle
 10
29.99264691831974
 20
10.8619341114358
 30
0.0
 40
12.4477468001246
100
AcDbArc
 50
344.3079335046006
 51
15.84972545947204
  0
LWPOLYLINE
  5
29A
330
2
100
AcDbEntity
  8
GAIKEI
  6
SLD-実線
 62
     1
100
AcDbPolyline
 90
        5
 70
   128
 43
0.0
 10
19.60743377820034
 20
14.26028920801582
 10
19.60743142495977
 20
14.24170336219583
 10
19.60743067989978
 20
14.23392793627584
 10
19.60742993483978
 20
14.22456330151584
 10
19.60742918977979
 20
14.21397230119584
  0
LWPOLYLINE
  5
29B
330
2
100
AcDbEntity
  8
GAIKEI
  6
SLD-実線
 62
     1
100
AcDbPolyline
 90
        5
 70
   128
 43
0.0
 10
19.60742918977979
 20
7.50929838509586
 10
19.60742993483978
 20
7.498731226635868
 10
19.60743067989978
 20
7.489401982155868
 10
19.60743142495977
 20
7.481672377315817
 10
19.60743217001976
 20
7.475841552935833
  0
LINE
  5
29C
330
2
100
AcDbEntity
  8
GAIKEI
  6
SLD-実線
 62
     1
100
AcDbLine
 10
22.24875016341974
 20
14.26028920801582
 30
0.0
 11
19.53700518437978
 21
14.26028920801582
 31
0.0
  0
LINE
  5
29D
330
2
100
AcDbEntity
  8
GAIKEI
  6
SLD-実線
 62
     1
100
AcDbLine
 10
22.25092275271976
 20
14.2581162461758
 30
0.0
 11
22.24875016341974
 21
14.26028920801582
 31
0.0
  0
LINE
  5
29E
330
2
100
AcDbEntity
  8
GAIKEI
  6
SLD-実線
 62
     1
100
AcDbLine
 10
41.97372516287575
 20
14.2581162461758
 30
0.0
 11
22.25092275271976
 21
14.2581162461758
 31
0.0
  0
LINE
  5
29F
330
2
100
AcDbEntity
  8
GAIKEI
  6
SLD-実線
 62
     1
100
AcDbLine
 10
22.24845512041975
 20
7.463283971875853
 30
0.0
 11
22.25059641727978
 21
7.465425268735828
 31
0.0
  0
LINE
  5
2A0
330
2
100
AcDbEntity
  8
GAIKEI
  6
SLD-実線
 62
     1
100
AcDbLine
 10
22.25092275271976
 20
14.2581162461758
 30
0.0
 11
22.25092275271976
 21
14.26193429621583
 31
0.0
  0
LINE
  5
2A1
330
2
100
AcDbEntity
  8
GAIKEI
  6
SLD-実線
 62
     1
100
AcDbLine
 10
22.25059641727978
 20
7.465425268735828
 30
0.0
 11
22.25059641727978
 21
7.461933926655831
 31
0.0
  0
LWPOLYLINE
  5
2A2
330
2
100
AcDbEntity
  8
GAIKEI
  6
SLD-実線
 62
     7
100
AcDbPolyline
 90
        4
 70
   128
 43
0.0
 10
16.07302923889978
 20
7.92878712059587
 10
16.06455635715974
 20
8.89968270899584
 10
16.05602396389975
 20
9.877398465735836
 10
16.04743205911978
 20
10.86193411143586
  0
LINE
  5
2A3
330
2
100
AcDbEntity
  8
GAIKEI
  6
SLD-実線
 62
     1
100
AcDbLine
 10
16.24740921629973
 20
10.8619341114358
 30
0.0
 11
16.04743205911978
 21
10.8619341114358
 31
0.0
  0
LWPOLYLINE
  5
2A4
330
2
100
AcDbEntity
  8
GAIKEI
  6
SLD-実線
 62
     1
100
AcDbPolyline
 90
        5
 70
   128
 43
0.0
 10
19.52930910715975
 20
7.889891364595825
 10
19.51645573803978
 20
8.626269497895862
 10
19.50350625643977
 20
9.368153610255831
 10
19.49048860201975
 20
10.11391938197585
 10
19.47743220457977
 20
10.86193411143586
  0
LINE
  5
2A5
330
2
100
AcDbEntity
  8
GAIKEI
  6
SLD-実線
 62
     1
100
AcDbLine
 10
19.47743220457977
 20
10.8619341114358
 30
0.0
 11
16.24740921629973
 21
10.8619341114358
 31
0.0
  0
LWPOLYLINE
  5
2A6
330
2
100
AcDbEntity
  8
GAIKEI
  6
SLD-実線
 62
     7
100
AcDbPolyline
 90
        4
 70
   128
 43
0.0
 10
16.08607579923978
 20
6.433799252835854
 10
16.08192775833976
 20
6.909117982715827
 10
16.07755930831979
 20
7.409692318155862
 10
16.07302923889978
 20
7.92878712059587
  0
LINE
  5
2A7
330
2
100
AcDbEntity
  8
GAIKEI
  6
SLD-実線
 62
     1
100
AcDbLine
 10
41.90210123472145
 20
7.261934266415835
 30
0.0
 11
19.60029786655974
 21
7.261934266415835
 31
0.0
  0
LWPOLYLINE
  5
2A8
330
2
100
AcDbEntity
  8
GAIKEI
  6
SLD-実線
 62
     1
100
AcDbPolyline
 90
        6
 70
   128
 43
0.0
 10
19.6002978665598
 20
7.261934266415835
 10
19.59306670555975
 20
7.263248548835861
 10
19.58512885699974
 20
7.267758757795832
 10
19.57440151105976
 20
7.279369742595861
 10
19.55530530045979
 20
7.321104914855823
 10
19.53686697611977
 20
7.456911862815843
  0
LWPOLYLINE
  5
2A9
330
2
100
AcDbEntity
  8
GAIKEI
  6
SLD-実線
 62
     1
100
AcDbPolyline
 90
        4
 70
   128
 43
0.0
 10
19.53686697611977
 20
7.456911862815843
 10
19.53436730631978
 20
7.600122080175822
 10
19.53184714743975
 20
7.744491049075861
 10
19.52930910715975
 20
7.889891364595825
  0
LINE
  5
2AA
330
2
100
AcDbEntity
  8
GAIKEI
  6
SLD-実線
 62
     1
100
AcDbLine
 10
19.53677931825885
 20
7.461933926655831
 30
0.0
 11
41.96584498047752
 21
7.461933926655831
 31
0.0
  0
LWPOLYLINE
  5
2AB
330
2
100
AcDbEntity
  8
GAIKEI
  6
SLD-実線
 62
     7
100
AcDbPolyline
 90
        3
 70
   128
 43
0.0
 10
41.80780199029976
 20
6.95438845547585
 10
41.88232567765976
 20
7.199887321315827
 10
41.97645631291881
 20
7.495227591120908
  0
LWPOLYLINE
  5
2AC
330
2
100
AcDbEntity
  8
GAIKEI
  6
SLD-実線
 62
     1
100
AcDbPolyline
 90
        4
 70
   128
 43
0.0
 10
41.80444028831977
 20
6.943645463315874
 10
41.80532243705977
 20
6.946462527835819
 10
41.80620458581978
 20
6.949279964875813
 10
41.80780497051978
 20
6.954394415935837
  0
ARC
  5
2AD
330
2
100
AcDbEntity
  8
GAIKEI
  6
SLD-実線
 62
     7
100
AcDbCircle
 10
28.77337346871974
 20
11.10064920561581
 30
0.0
 40
13.67806182961354
100
AcDbArc
 50
337.0080493396983
 51
342.3069446669026
  0
LINE
  5
2AE
330
2
100
AcDbEntity
  8
GAIKEI
  6
SLD-実線
 62
     1
100
AcDbLine
 10
41.36484709241972
 20
5.757973478155804
 30
0.0
 11
41.36404839017973
 21
5.756120518755835
 31
0.0
  0
ARC
  5
2AF
330
2
100
AcDbEntity
  8
GAIKEI
  6
SLD-実線
 62
     7
100
AcDbCircle
 10
16.29369186713972
 20
5.561934310095807
 30
0.0
 40
0.1999997963186853
100
AcDbArc
 50
180.500037028199
 51
270.0000552455
  0
LWPOLYLINE
  5
2B0
330
2
100
AcDbEntity
  8
GAIKEI
  6
SLD-実線
 62
     7
100
AcDbPolyline
 90
        5
 70
   128
 43
0.0
 10
16.09369968732842
 20
5.560188875525795
 10
16.09318158093975
 20
5.61955845447585
 10
16.09166144131978
 20
5.793747813415848
 10
16.08923958351977
 20
6.071265549375823
 10
16.08607579923978
 20
6.433799252835854
  0
LWPOLYLINE
  5
2B1
330
2
100
AcDbEntity
  8
GAIKEI
  6
SLD-実線
 62
     1
100
AcDbPolyline
 90
        3
 70
   128
 43
0.0
 10
41.06079783893977
 20
5.361934141235849
 10
41.0686686322798
 20
5.381294102395827
 10
41.06898751713976
 20
5.382095784855835
  0
LINE
  5
2B2
330
2
100
AcDbEntity
  8
GAIKEI
  6
SLD-実線
 62
     7
100
AcDbLine
 10
41.06079783893972
 20
5.361934141235792
 30
0.0
 11
16.29369205997977
 21
5.361934141235792
 31
0.0
  0
LWPOLYLINE
  5
2B3
330
2
100
AcDbEntity
  8
GAIKEI
  6
SLD-実線
 62
     7
100
AcDbPolyline
 90
        3
 70
   128
 43
0.0
 10
41.36484709241978
 20
5.757973478155861
 10
41.31354239441975
 20
5.63864013643581
 10
41.25122871853977
 20
5.497748912295833
  0
LINE
  5
2B4
330
2
100
AcDbEntity
  8
GAIKEI
  6
SLD-実線
 62
     7
100
AcDbLine
 10
41.25122871853977
 20
5.497748912295833
 30
0.0
 11
41.24312844731974
 21
5.479745329335798
 31
0.0
  0
ARC
  5
2B5
330
2
100
AcDbEntity
  8
GAIKEI
  6
SLD-実線
 62
     7
100
AcDbCircle
 10
41.06080028025973
 20
5.561928667675829
 30
0.0
 40
0.1999941539293263
100
AcDbArc
 50
269.9993005975001
 51
335.7368121489017
  0
LWPOLYLINE
  5
2B6
330
2
100
AcDbEntity
  8
GAIKEI
  6
SLD-実線
 62
     1
100
AcDbPolyline
 90
        3
 70
   128
 43
0.0
 10
42.44935062385979
 20
10.86193411009583
 10
42.43167784669975
 20
10.36575133445586
 10
42.41708960987978
 20
10.20410726311581
  0
LINE
  5
2B7
330
2
100
AcDbEntity
  8
GAIKEI
  6
SLD-実線
 62
     1
100
AcDbLine
 10
42.44935062385974
 20
9.591934126775811
 30
0.0
 11
42.44935062385974
 21
8.131934092355834
 31
0.0
  0
LINE
  5
2B8
330
2
100
AcDbEntity
  8
GAIKEI
  6
SLD-実線
 62
     1
100
AcDbLine
 10
17.61743201145975
 20
16.40329448969584
 30
0.0
 11
17.61743201145975
 21
16.40465608331584
 31
0.0
  0
LINE
  5
2B9
330
2
100
AcDbEntity
  8
GAIKEI
  6
SLD-実線
 62
     1
100
AcDbLine
 10
17.07743209057975
 20
16.40465608331584
 30
0.0
 11
17.07743209057975
 21
16.40329448969584
 31
0.0
  0
ARC
  5
2BA
330
2
100
AcDbEntity
  8
GAIKEI
  6
SLD-実線
 62
     1
100
AcDbCircle
 10
17.34743205437974
 20
15.08205823885583
 30
0.0
 40
1.348541757374988
100
AcDbArc
 50
95.95894653199849
 51
101.5496061687999
  0
ARC
  5
2BB
330
2
100
AcDbEntity
  8
GAIKEI
  6
SLD-実線
 62
     1
100
AcDbCircle
 10
17.24743203463976
 20
16.20465228609583
 30
0.0
 40
0.2222893205518595
100
AcDbArc
 50
79.63341053819951
 51
100.3665894618005
  0
LINE
  5
2BC
330
2
100
AcDbEntity
  8
GAIKEI
  6
SLD-実線
 62
     1
100
AcDbLine
 10
17.28743201325977
 20
16.42331308217581
 30
0.0
 11
17.28743201325977
 21
16.40329448969584
 31
0.0
  0
ARC
  5
2BD
330
2
100
AcDbEntity
  8
GAIKEI
  6
SLD-実線
 62
     1
100
AcDbCircle
 10
17.34743205437974
 20
15.08205823885583
 30
0.0
 40
1.322597773846612
100
AcDbArc
 50
87.39986934539917
 51
92.60013065460082
  0
LINE
  5
2BE
330
2
100
AcDbEntity
  8
GAIKEI
  6
SLD-実線
 62
     1
100
AcDbLine
 10
17.40743208879974
 20
16.40329448969584
 30
0.0
 11
17.40743208879974
 21
16.42331308217581
 31
0.0
  0
ARC
  5
2BF
330
2
100
AcDbEntity
  8
GAIKEI
  6
SLD-実線
 62
     1
100
AcDbCircle
 10
17.44743206741975
 20
16.26082585023584
 30
0.0
 40
0.1673382766500016
100
AcDbArc
 50
76.17031121269926
 51
103.8296887873007
  0
ARC
  5
2C0
330
2
100
AcDbEntity
  8
GAIKEI
  6
SLD-実線
 62
     1
100
AcDbCircle
 10
17.34743205437974
 20
15.08205823885583
 30
0.0
 40
1.348541757374987
100
AcDbArc
 50
78.4503938312001
 51
84.04105346800148
  0
LINE
  5
2C1
330
2
100
AcDbEntity
  8
GAIKEI
  6
SLD-実線
 62
     1
100
AcDbLine
 10
16.04741682035973
 20
10.96018887589582
 30
0.0
 11
16.04737113897977
 21
10.9601896675158
 31
0.0
  0
ARC
  5
2C2
330
2
100
AcDbEntity
  8
GAIKEI
  6
SLD-実線
 62
     1
100
AcDbCircle
 10
16.04504794373974
 20
10.86126023747584
 30
0.0
 40
0.0976182153275797
100
AcDbArc
 50
179.6044750372987
 51
270.1458811833013
  0
ARC
  5
2C3
330
2
100
AcDbEntity
  8
GAIKEI
  6
SLD-実線
 62
     1
100
AcDbCircle
 10
16.04526121269976
 20
10.86239564367582
 30
0.0
 40
0.0978302470084276
100
AcDbArc
 50
89.97933936849952
 51
180.2703044109016
  0
LINE
  5
2C4
330
2
100
AcDbEntity
  8
GAIKEI
  6
SLD-実線
 62
     7
100
AcDbLine
 10
15.94743205437976
 20
10.8619341114358
 30
0.0
 11
15.94743205437976
 21
14.36193412633582
 31
0.0
  0
LINE
  5
2C5
330
2
100
AcDbEntity
  8
GAIKEI
  6
SLD-実線
 62
     7
100
AcDbLine
 10
15.94743205437976
 20
7.361934096535833
 30
0.0
 11
15.94743205437976
 21
10.8619341114358
 31
0.0
  0
LINE
  5
2C6
330
2
100
AcDbEntity
  8
GAIKEI
  6
SLD-実線
 62
     1
100
AcDbLine
 10
16.04737113897977
 20
10.9601896675158
 30
0.0
 11
16.04529648989978
 21
10.96022588431583
 31
0.0
  0
LINE
  5
2C7
330
2
100
AcDbEntity
  8
GAIKEI
  6
SLD-実線
 62
     1
100
AcDbLine
 10
16.04529648989978
 20
10.76364233855582
 30
0.0
 11
16.04737113897977
 21
10.76367855535579
 31
0.0
  0
LINE
  5
2C8
330
2
100
AcDbEntity
  8
GAIKEI
  6
SLD-実線
 62
     1
100
AcDbLine
 10
8.009858412839776
 20
14.47950764091581
 30
0.0
 11
8.009858412839776
 21
7.244360581955845
 31
0.0
  0
LINE
  5
2C9
330
2
100
AcDbEntity
  8
GAIKEI
  6
SLD-実線
 62
     1
100
AcDbLine
 10
13.46200293133978
 20
11.85816931071582
 30
0.0
 11
13.46200293133978
 21
7.284569130255817
 31
0.0
  0
LINE
  5
2CA
330
2
100
AcDbEntity
  8
GAIKEI
  6
SLD-実線
 62
     1
100
AcDbLine
 10
13.46200293133978
 20
12.1538321906558
 30
0.0
 11
13.46200293133978
 21
11.89771820323585
 31
0.0
  0
LINE
  5
2CB
330
2
100
AcDbEntity
  8
GAIKEI
  6
SLD-実線
 62
     1
100
AcDbLine
 10
13.46200293133978
 20
12.4396630981758
 30
0.0
 11
13.46200293133978
 21
12.19220957251582
 31
0.0
  0
LINE
  5
2CC
330
2
100
AcDbEntity
  8
GAIKEI
  6
SLD-実線
 62
     1
100
AcDbLine
 10
13.46200293133978
 20
12.71348646375583
 30
0.0
 11
13.46200293133978
 21
12.47657681347584
 31
0.0
  0
LINE
  5
2CD
330
2
100
AcDbEntity
  8
GAIKEI
  6
SLD-実線
 62
     1
100
AcDbLine
 10
13.46200293133978
 20
12.97321835997581
 30
0.0
 11
13.46200293133978
 21
12.7486556255958
 31
0.0
  0
LINE
  5
2CE
330
2
100
AcDbEntity
  8
GAIKEI
  6
SLD-実線
 62
     1
100
AcDbLine
 10
13.46200293133978
 20
13.21688214781579
 30
0.0
 11
13.46200293133978
 21
13.0063753062758
 31
0.0
  0
LINE
  5
2CF
330
2
100
AcDbEntity
  8
GAIKEI
  6
SLD-実線
 62
     1
100
AcDbLine
 10
13.46200293133978
 20
13.44262337775581
 30
0.0
 11
13.46200293133978
 21
13.2477746763958
 31
0.0
  0
LINE
  5
2D0
330
2
100
AcDbEntity
  8
GAIKEI
  6
SLD-実線
 62
     1
100
AcDbLine
 10
13.46200293133978
 20
13.64872394593584
 30
0.0
 11
13.46200293133978
 21
13.47101623655584
 31
0.0
  0
LINE
  5
2D1
330
2
100
AcDbEntity
  8
GAIKEI
  6
SLD-実線
 62
     1
100
AcDbLine
 10
13.46200293133978
 20
13.83361531885583
 30
0.0
 11
13.46200293133978
 21
13.6744010681158
 31
0.0
  0
LINE
  5
2D2
330
2
100
AcDbEntity
  8
GAIKEI
  6
SLD-実線
 62
     1
100
AcDbLine
 10
13.46200293133978
 20
13.99589045437585
 30
0.0
 11
13.46200293133978
 21
13.85638131293581
 31
0.0
  0
LINE
  5
2D3
330
2
100
AcDbEntity
  8
GAIKEI
  6
SLD-実線
 62
     1
100
AcDbLine
 10
13.46200293133978
 20
14.12864974231581
 30
0.0
 11
13.46200293133978
 21
14.0155719080758
 31
0.0
  0
LINE
  5
2D4
330
2
100
AcDbEntity
  8
GAIKEI
  6
SLD-実線
 62
     1
100
AcDbLine
 10
13.36352208831977
 20
12.0130315841958
 30
0.0
 11
13.36352208831977
 21
12.0938331307758
 31
0.0
  0
LINE
  5
2D5
330
2
100
AcDbEntity
  8
GAIKEI
  6
SLD-実線
 62
     1
100
AcDbLine
 10
11.84743194111973
 20
12.0938331307758
 30
0.0
 11
11.84743194111973
 21
12.0130315841958
 31
0.0
  0
LINE
  5
2D6
330
2
100
AcDbEntity
  8
GAIKEI
  6
SLD-実線
 62
     1
100
AcDbLine
 10
11.84743194111973
 20
12.38952329845586
 30
0.0
 11
11.84743194111973
 21
12.31145415919582
 31
0.0
  0
LINE
  5
2D7
330
2
100
AcDbEntity
  8
GAIKEI
  6
SLD-実線
 62
     1
100
AcDbLine
 10
13.36352208831977
 20
12.31145415919582
 30
0.0
 11
13.36352208831977
 21
12.38952329845586
 31
0.0
  0
LINE
  5
2D8
330
2
100
AcDbEntity
  8
GAIKEI
  6
SLD-実線
 62
     1
100
AcDbLine
 10
13.36352208831977
 20
12.59884512515583
 30
0.0
 11
13.36352208831977
 21
12.67358767333581
 31
0.0
  0
LINE
  5
2D9
330
2
100
AcDbEntity
  8
GAIKEI
  6
SLD-実線
 62
     1
100
AcDbLine
 10
11.84743194111973
 20
12.67358767333581
 30
0.0
 11
11.84743194111973
 21
12.59884512515583
 31
0.0
  0
LINE
  5
2DA
330
2
100
AcDbEntity
  8
GAIKEI
  6
SLD-実線
 62
     1
100
AcDbLine
 10
13.36352208831977
 20
12.87301699163583
 30
0.0
 11
13.36352208831977
 21
12.94386437627582
 31
0.0
  0
LINE
  5
2DB
330
2
100
AcDbEntity
  8
GAIKEI
  6
SLD-実線
 62
     1
100
AcDbLine
 10
11.84743194111973
 20
12.94386437627582
 30
0.0
 11
11.84743194111973
 21
12.87301699163583
 31
0.0
  0
LINE
  5
2DC
330
2
100
AcDbEntity
  8
GAIKEI
  6
SLD-実線
 62
     1
100
AcDbLine
 10
13.36352208831977
 20
13.13188331665583
 30
0.0
 11
13.36352208831977
 21
13.19829611571583
 31
0.0
  0
LINE
  5
2DD
330
2
100
AcDbEntity
  8
GAIKEI
  6
SLD-実線
 62
     1
100
AcDbLine
 10
11.84743194111973
 20
13.19829611571583
 30
0.0
 11
11.84743194111973
 21
13.13188331665583
 31
0.0
  0
LINE
  5
2DE
330
2
100
AcDbEntity
  8
GAIKEI
  6
SLD-実線
 62
     1
100
AcDbLine
 10
11.84743194111973
 20
13.43494685831581
 30
0.0
 11
11.84743194111973
 21
13.37347398045585
 31
0.0
  0
LINE
  5
2DF
330
2
100
AcDbEntity
  8
GAIKEI
  6
SLD-実線
 62
     1
100
AcDbLine
 10
13.36352208831977
 20
13.37347398045585
 30
0.0
 11
13.36352208831977
 21
13.43494685831581
 31
0.0
  0
LINE
  5
2E0
330
2
100
AcDbEntity
  8
GAIKEI
  6
SLD-実線
 62
     1
100
AcDbLine
 10
11.84743194111973
 20
13.65201542617581
 30
0.0
 11
11.84743194111973
 21
13.59595036597579
 31
0.0
  0
LINE
  5
2E1
330
2
100
AcDbEntity
  8
GAIKEI
  6
SLD-実線
 62
     1
100
AcDbLine
 10
13.36352208831977
 20
13.59595036597579
 30
0.0
 11
13.36352208831977
 21
13.65201542617581
 31
0.0
  0
LINE
  5
2E2
330
2
100
AcDbEntity
  8
GAIKEI
  6
SLD-実線
 62
     1
100
AcDbLine
 10
11.84743194111973
 20
13.84784983935583
 30
0.0
 11
11.84743194111973
 21
13.79761932881581
 31
0.0
  0
LINE
  5
2E3
330
2
100
AcDbEntity
  8
GAIKEI
  6
SLD-実線
 62
     1
100
AcDbLine
 10
13.36352208831977
 20
13.79761932881581
 30
0.0
 11
13.36352208831977
 21
13.84784983935583
 31
0.0
  0
LINE
  5
2E4
330
2
100
AcDbEntity
  8
GAIKEI
  6
SLD-実線
 62
     1
100
AcDbLine
 10
11.84743194111973
 20
14.02095942291583
 30
0.0
 11
11.84743194111973
 21
13.97694567681583
 31
0.0
  0
LINE
  5
2E5
330
2
100
AcDbEntity
  8
GAIKEI
  6
SLD-実線
 62
     1
100
AcDbLine
 10
13.36352208831977
 20
13.97694567681583
 30
0.0
 11
13.36352208831977
 21
14.02095942291583
 31
0.0
  0
LINE
  5
2E6
330
2
100
AcDbEntity
  8
GAIKEI
  6
SLD-実線
 62
     1
100
AcDbLine
 10
11.84743194111973
 20
14.17938707859582
 30
0.0
 11
11.84743194111973
 21
14.13256502243581
 31
0.0
  0
LINE
  5
2E7
330
2
100
AcDbEntity
  8
GAIKEI
  6
SLD-実線
 62
     1
100
AcDbLine
 10
13.36352208831977
 20
14.17938707859582
 30
0.0
 11
13.36352208831977
 21
14.13256502243581
 31
0.0
  0
LINE
  5
2E8
330
2
100
AcDbEntity
  8
GAIKEI
  6
SLD-実線
 62
     1
100
AcDbLine
 10
12.29743210801973
 20
6.041951985075797
 30
0.0
 11
12.99743203649973
 21
6.041951985075797
 31
0.0
  0
LINE
  5
2E9
330
2
100
AcDbEntity
  8
GAIKEI
  6
SLD-実線
 62
     1
100
AcDbLine
 10
12.81320376525974
 20
5.92195181639579
 30
0.0
 11
12.87743205407975
 21
5.92195181639579
 31
0.0
  0
LINE
  5
2EA
330
2
100
AcDbEntity
  8
GAIKEI
  6
SLD-実線
 62
     1
100
AcDbLine
 10
12.41743190417975
 20
5.92195181639579
 30
0.0
 11
12.48636579343974
 21
5.92195181639579
 31
0.0
  0
LWPOLYLINE
  5
2EB
330
2
100
AcDbEntity
  8
GAIKEI
  6
SLD-実線
 62
     1
100
AcDbPolyline
 90
       11
 70
   128
 43
0.0
 10
9.757431952459796
 20
6.244808570455859
 10
9.774562327359774
 20
6.216815994095838
 10
9.824275953859796
 20
6.191562996235859
 10
9.901707230299734
 20
6.171522424535851
 10
9.999275935979767
 20
6.158655644375812
 10
10.10743191669979
 20
6.154222176395819
 10
10.21558789739976
 20
6.158655644375812
 10
10.31315697559978
 20
6.171522424535851
 10
10.39058787951978
 20
6.191562996235859
 10
10.4403018785398
 20
6.216815994095838
 10
10.45743188091978
 20
6.244808570455859
  0
LWPOLYLINE
  5
2EC
330
2
100
AcDbEntity
  8
GAIKEI
  6
SLD-実線
 62
     1
100
AcDbPolyline
 90
        3
 70
   128
 43
0.0
 10
15.77267540915272
 20
13.66193419785583
 10
15.77814140559974
 20
13.66787119301585
 10
15.78250692195979
 20
13.67333936037585
  0
LINE
  5
2ED
330
2
100
AcDbEntity
  8
GAIKEI
  6
SLD-実線
 62
     1
100
AcDbLine
 10
14.96743204275975
 20
14.21193419487582
 30
0.0
 11
13.56743199953973
 21
14.21193419487582
 31
0.0
  0
ARC
  5
2EE
330
2
100
AcDbEntity
  8
GAIKEI
  6
SLD-実線
 62
     1
100
AcDbCircle
 10
36.40515658693977
 20
18.28880033345581
 30
0.0
 40
9.049786108789676
100
AcDbArc
 50
179.8832051917996
 51
191.0005522425016
  0
LINE
  5
2EF
330
2
100
AcDbEntity
  8
GAIKEI
  6
SLD-実線
 62
     1
100
AcDbLine
 10
27.52235753665974
 20
16.36193408163581
 30
0.0
 11
27.52235753665974
 21
16.5619341144158
 31
0.0
  0
LWPOLYLINE
  5
2F0
330
2
100
AcDbEntity
  8
GAIKEI
  6
SLD-実線
 62
     1
100
AcDbPolyline
 90
        5
 70
   128
 43
0.0
 10
20.06420714983978
 20
18.30724789293583
 10
19.91771867701976
 20
17.88870929273582
 10
19.76648083159978
 20
17.45660095007582
 10
19.61138544807977
 20
17.01347096355585
 10
19.45334745773976
 20
16.56193411441586
  0
LINE
  5
2F1
330
2
100
AcDbEntity
  8
GAIKEI
  6
SLD-実線
 62
     1
100
AcDbLine
 10
19.44743206927978
 20
16.56177839727581
 30
0.0
 11
19.44743206927978
 21
16.36193408163581
 31
0.0
  0
LINE
  5
2F2
330
2
100
AcDbEntity
  8
GAIKEI
  6
SLD-実線
 62
     1
100
AcDbLine
 10
27.35538928041979
 20
18.36193440945584
 30
0.0
 11
27.35538928041979
 21
18.30724789293583
 31
0.0
  0
LINE
  5
2F3
330
2
100
AcDbEntity
  8
GAIKEI
  6
SLD-実線
 62
     1
100
AcDbLine
 10
20.06420714983978
 20
18.36193440945584
 30
0.0
 11
20.06420714983978
 21
18.30724789293583
 31
0.0
  0
LWPOLYLINE
  5
2F4
330
2
100
AcDbEntity
  8
GAIKEI
  6
SLD-実線
 62
     1
100
AcDbPolyline
 90
        3
 70
   128
 43
0.0
 10
16.27145631441976
 20
13.75233935655586
 10
16.25943275371975
 20
12.36360943409585
 10
16.24740916973974
 20
10.96193056551584
  0
ARC
  5
2F5
330
2
100
AcDbEntity
  8
GAIKEI
  6
SLD-実線
 62
     1
100
AcDbCircle
 10
16.17238017747974
 20
8.094066533155796
 30
0.0
 40
2.868845317859749
100
AcDbArc
 50
88.50137099570124
 51
92.49652325199877
  0
LINE
  5
2F6
330
2
100
AcDbEntity
  8
GAIKEI
  6
SLD-実線
 62
     1
100
AcDbLine
 10
16.24740928613977
 20
10.96193056551584
 30
0.0
 11
19.47943194041977
 21
10.96193411619583
 31
0.0
  0
LINE
  5
2F7
330
2
100
AcDbEntity
  8
GAIKEI
  6
SLD-実線
 62
     1
100
AcDbLine
 10
16.27145631441976
 20
13.75233935655581
 30
0.0
 11
19.52813899347978
 21
13.75235686543584
 31
0.0
  0
LWPOLYLINE
  5
2F8
330
2
100
AcDbEntity
  8
GAIKEI
  6
SLD-実線
 62
     1
100
AcDbPolyline
 90
        4
 70
   128
 43
0.0
 10
16.28532552363975
 20
15.40781161279585
 10
16.28138388709976
 20
14.93802829177582
 10
16.27676082511976
 20
14.38625393899582
 10
16.27145631441976
 20
13.75233935655586
  0
LWPOLYLINE
  5
2F9
330
2
100
AcDbEntity
  8
GAIKEI
  6
SLD-実線
 62
     1
100
AcDbPolyline
 90
        7
 70
   128
 43
0.0
 10
16.08533330231978
 20
15.30498726757582
 10
16.0996366824798
 20
15.34325978251581
 10
16.11825401865974
 20
15.36178378851582
 10
16.14423129445976
 20
15.37825143429586
 10
16.17615819645976
 20
15.39155556353586
 10
16.2118948131598
 20
15.40097719521583
 10
16.28532552363975
 20
15.40781161279585
  0
LINE
  5
2FA
330
2
100
AcDbEntity
  8
GAIKEI
  6
SLD-実線
 62
     1
100
AcDbLine
 10
16.28532552363975
 20
15.4078116127958
 30
0.0
 11
41.40934493995973
 21
15.4078216710958
 31
0.0
  0
LWPOLYLINE
  5
2FB
330
2
100
AcDbEntity
  8
GAIKEI
  6
SLD-実線
 62
     1
100
AcDbPolyline
 90
        3
 70
   128
 43
0.0
 10
41.7054399535798
 20
14.46193283887584
 10
41.57170501209975
 20
14.91658440323584
 10
41.40934493995979
 20
15.40782167109586
  0
LWPOLYLINE
  5
2FC
330
2
100
AcDbEntity
  8
GAIKEI
  6
SLD-実線
 62
     1
100
AcDbPolyline
 90
        8
 70
   128
 43
0.0
 10
16.29257100371978
 20
16.33239401967586
 10
16.29235093219978
 20
16.30622385533581
 10
16.29176545625978
 20
16.23407243283583
 10
16.29094582253975
 20
16.13079099449584
 10
16.28989198447976
 20
15.99589972289584
 10
16.28860401193975
 20
15.82961915525584
 10
16.28708185831976
 20
15.63296070785583
 10
16.28532552363975
 20
15.40781161279585
  0
LWPOLYLINE
  5
2FD
330
2
100
AcDbEntity
  8
GAIKEI
  6
SLD-実線
 62
     1
100
AcDbPolyline
 90
        3
 70
   128
 43
0.0
 10
41.40934493995979
 20
15.40782167109586
 10
41.28519442535974
 20
15.77362133653582
 10
41.18108001209975
 20
16.06546169611585
  0
ARC
  5
2FE
330
2
100
AcDbEntity
  8
GAIKEI
  6
SLD-実線
 62
     1
100
AcDbCircle
 10
27.75138786143975
 20
10.83956069059581
 30
0.0
 40
14.41064441935143
100
AcDbArc
 50
21.26252253760017
 51
22.53296253660079
  0
ARC
  5
2FF
330
2
100
AcDbEntity
  8
GAIKEI
  6
SLD-実線
 62
     1
100
AcDbCircle
 10
29.35482461239974
 20
10.86085690225582
 30
0.0
 40
12.864813945285
100
AcDbArc
 50
344.6803972059032
 51
15.32802593854622
  0
LWPOLYLINE
  5
300
330
2
100
AcDbEntity
  8
GAIKEI
  6
SLD-実線
 62
     1
100
AcDbPolyline
 90
        4
 70
   128
 43
0.0
 10
16.27302149513974
 20
7.889906079495858
 10
16.26448406109978
 20
8.873042413015809
 10
16.25594665033975
 20
9.865005169975859
 10
16.24740921629978
 20
10.86193411141585
  0
LINE
  5
301
330
2
100
AcDbEntity
  8
GAIKEI
  6
SLD-実線
 62
     1
100
AcDbLine
 10
19.52930910715975
 20
7.889891364595825
 30
0.0
 11
16.27302149513974
 21
7.889906079495801
 31
0.0
  0
LWPOLYLINE
  5
302
330
2
100
AcDbEntity
  8
GAIKEI
  6
SLD-実線
 62
     1
100
AcDbPolyline
 90
        4
 70
   128
 43
0.0
 10
16.27302149513974
 20
7.889906079495858
 10
16.27797298801977
 20
7.298293844775855
 10
16.28232184535977
 20
6.77923871667582
 10
16.2860680438398
 20
6.332631171655862
  0
LWPOLYLINE
  5
303
330
2
100
AcDbEntity
  8
GAIKEI
  6
SLD-実線
 62
     1
100
AcDbPolyline
 90
        3
 70
   128
 43
0.0
 10
41.40735414483976
 20
6.332622603495849
 10
41.56431999661975
 20
6.815329701615837
 10
41.69424918151975
 20
7.261934266415835
  0
LINE
  5
304
330
2
100
AcDbEntity
  8
GAIKEI
  6
SLD-実線
 62
     1
100
AcDbLine
 10
41.40735414483976
 20
6.332622603495792
 30
0.0
 11
16.28606804383975
 21
6.332631171655805
 31
0.0
  0
LWPOLYLINE
  5
305
330
2
100
AcDbEntity
  8
GAIKEI
  6
SLD-実線
 62
     1
100
AcDbPolyline
 90
        8
 70
   128
 43
0.0
 10
16.2860680438398
 20
6.332631171655862
 10
16.28785487933976
 20
6.103528426015827
 10
16.28940348251979
 20
5.903376773915852
 10
16.29071383009977
 20
5.734148384055856
 10
16.29178596863977
 20
5.596899003695853
 10
16.29261985157978
 20
5.491854757975829
 10
16.29321550221976
 20
5.418513850295823
 10
16.29343894979979
 20
5.391986058075872
  0
ARC
  5
306
330
2
100
AcDbEntity
  8
GAIKEI
  6
SLD-実線
 62
     1
100
AcDbCircle
 10
18.84286835247974
 20
13.63933220387582
 30
0.0
 40
23.71801054594735
100
AcDbArc
 50
340.3544837014991
 51
342.0572904515988
  0
ARC
  5
307
330
2
100
AcDbEntity
  8
GAIKEI
  6
SLD-実線
 62
     1
100
AcDbCircle
 10
26.27439380761973
 20
11.35810873669584
 30
0.0
 40
15.9559623285575
100
AcDbArc
 50
338.0046308819
 51
339.0974251259023
  0
TEXT
  5
308
330
2
100
AcDbEntity
  8
MOJI1
100
AcDbText
 10
-12.54677697623367
 20
-43.68207883171305
 30
0.0
 40
3.0
  1
ＪＰＥＧ：１２８０×９６０
 41
0.8
100
AcDbText
  0
LINE
  5
309
330
2
100
AcDbEntity
  8
WAKU
 62
     1
100
AcDbLine
 10
-55.04677697623368
 20
-39.68207883171306
 30
0.0
 11
69.95322302376621
 21
-39.68207883171306
 31
0.0
  0
TEXT
  5
30B
330
2
100
AcDbEntity
  8
MOJI1
100
AcDbText
 10
-52.54677697623368
 20
-58.68207883171305
 30
0.0
 40
3.0
  1
音　声
100
AcDbText
  0
TEXT
  5
30C
330
2
100
AcDbEntity
  8
MOJI1
100
AcDbText
 10
-12.54677697623367
 20
-48.68207883171305
 30
0.0
 40
3.0
  1
焦点距離：f＝３ｍｍ～８ｍｍ　(２。６倍バリフォーカルレンズ)
 41
0.75
100
AcDbText
  0
TEXT
  5
30D
330
2
100
AcDbEntity
  8
MOJI1
100
AcDbText
 10
-52.54677697623368
 20
-48.68207883171305
 30
0.0
 40
3.0
  1
レンズ部
100
AcDbText
  0
LINE
  5
30E
330
2
100
AcDbEntity
  8
WAKU
 62
     1
100
AcDbLine
 10
-55.04677697623368
 20
-19.68207883171305
 30
0.0
 11
69.95322302376621
 21
-19.68207883171305
 31
0.0
  0
TEXT
  5
30F
330
2
100
AcDbEntity
  8
MOJI1
100
AcDbText
 10
-12.54677697623367
 20
-13.68207883171306
 30
0.0
 40
3.0
  1
１/３型　ＭＯＳセンサー（走査方式：プログレッシブ） 
 41
0.9
100
AcDbText
  0
LINE
  5
310
330
2
100
AcDbEntity
  8
WAKU
 62
     1
100
AcDbLine
 10
-55.04677697623368
 20
-49.68207883171306
 30
0.0
 11
69.95322302376621
 21
-49.68207883171306
 31
0.0
  0
TEXT
  5
311
330
2
100
AcDbEntity
  8
MOJI1
100
AcDbText
 10
-12.54677697623367
 20
-53.68207883171305
 30
0.0
 40
3.0
  1
画角：水平：３４．５°～９４．９°/垂直：２５．９°～６９．５°
 41
0.73
100
AcDbText
  0
TEXT
  5
312
330
2
100
AcDbEntity
  8
MOJI1
100
AcDbText
 10
-52.54677697623368
 20
-33.68207883171306
 30
0.0
 40
3.0
  1
圧縮方式
100
AcDbText
  0
TEXT
  5
313
330
2
100
AcDbEntity
  8
MOJI1
100
AcDbText
 10
-12.54677697623367
 20
-33.68207883171306
 30
0.0
 40
3.0
  1
Ｈ．２６４／ＭＰＥＧ４／ＪＰＥＧ(Ｈ.２６４／ＭＰＥＧ４は選択)    
 41
0.73
100
AcDbText
  0
TEXT
  5
314
330
2
100
AcDbEntity
  8
MOJI1
100
AcDbText
 10
-52.54677697623368
 20
-28.68207883171306
 30
0.0
 40
3.0
  1
ネットワーク
100
AcDbText
  0
TEXT
  5
315
330
2
100
AcDbEntity
  8
MOJI1
100
AcDbText
 10
-52.54677697623368
 20
-38.68207883171306
 30
0.0
 40
3.0
  1
解像度
100
AcDbText
  0
TEXT
  5
316
330
2
100
AcDbEntity
  8
MOJI1
100
AcDbText
 10
-12.54677697623367
 20
-38.68207883171306
 30
0.0
 40
3.0
  1
Ｈ．２６４：１２８０×９６０／ＭＰＥＧ４：６４０×４８０
 41
0.8
100
AcDbText
  0
TEXT
  5
317
330
2
100
AcDbEntity
  8
MOJI1
100
AcDbText
 10
-12.54677697623367
 20
-23.68207883171306
 30
0.0
 40
3.0
  1
カラー：０．４ルクス（Ｆ１．４）、白黒：０．３ルクス（Ｆ１．４）
 41
0.7
100
AcDbText
  0
TEXT
  5
318
330
2
100
AcDbEntity
  8
MOJI1
100
AcDbText
 10
-52.54677697623368
 20
-13.68207883171306
 30
0.0
 40
3.0
  1
撮像素子
100
AcDbText
  0
TEXT
  5
319
330
2
100
AcDbEntity
  8
MOJI1
100
AcDbText
 10
-52.54677697623368
 20
-18.68207883171305
 30
0.0
 40
3.0
  1
有効画素数
100
AcDbText
  0
LINE
  5
31A
330
2
100
AcDbEntity
  8
WAKU
 62
     1
100
AcDbLine
 10
-55.04677697623368
 20
-14.68207883171305
 30
0.0
 11
69.95322302376621
 21
-14.68207883171305
 31
0.0
  0
LINE
  5
31B
330
2
100
AcDbEntity
  8
WAKU
 62
     1
100
AcDbLine
 10
-55.04677697623368
 20
-9.682078831713056
 30
0.0
 11
69.95322302376621
 21
-9.682078831713056
 31
0.0
  0
LINE
  5
31C
330
2
100
AcDbEntity
  8
WAKU
 62
     4
100
AcDbLine
 10
-55.04677697623368
 20
-4.682078831713056
 30
0.0
 11
69.95322302376621
 21
-4.682078831713056
 31
0.0
  0
LINE
  5
31D
330
2
100
AcDbEntity
  8
WAKU
 62
     1
100
AcDbLine
 10
69.95322302376621
 20
-54.68207883171306
 30
0.0
 11
-55.04677697623368
 21
-54.68207883171306
 31
0.0
  0
LINE
  5
31E
330
2
100
AcDbEntity
  8
WAKU
 62
     1
100
AcDbLine
 10
-55.04677697623368
 20
-44.68207883171305
 30
0.0
 11
69.95322302376621
 21
-44.68207883171305
 31
0.0
  0
LINE
  5
31F
330
2
100
AcDbEntity
  8
WAKU
 62
     1
100
AcDbLine
 10
-55.04677697623368
 20
-34.68207883171306
 30
0.0
 11
69.95322302376621
 21
-34.68207883171306
 31
0.0
  0
LINE
  5
320
330
2
100
AcDbEntity
  8
WAKU
 62
     1
100
AcDbLine
 10
-55.04677697623368
 20
-29.68207883171306
 30
0.0
 11
69.95322302376621
 21
-29.68207883171306
 31
0.0
  0
LINE
  5
321
330
2
100
AcDbEntity
  8
WAKU
 62
     1
100
AcDbLine
 10
-55.04677697623368
 20
-24.68207883171306
 30
0.0
 11
69.95322302376621
 21
-24.68207883171306
 31
0.0
  0
LINE
  5
322
330
2
100
AcDbEntity
  8
WAKU
 62
     4
100
AcDbLine
 10
-55.04677697623368
 20
-4.682078831713056
 30
0.0
 11
-55.04677697623368
 21
-69.68207883171306
 31
0.0
  0
TEXT
  5
323
330
2
100
AcDbEntity
  8
MOJI1
100
AcDbText
 10
-12.54677697623367
 20
-8.682078831713056
 30
0.0
 40
3.0
  1
ＰｏＥ(ＩＥＥＥ８０２.３ａｆ準拠)
 41
0.95
100
AcDbText
  0
TEXT
  5
324
330
2
100
AcDbEntity
  8
MOJI1
100
AcDbText
 10
-52.54677697623368
 20
-8.682078831713056
 30
0.0
 40
3.0
  1
電　源
100
AcDbText
  0
LINE
  5
325
330
2
100
AcDbEntity
  8
WAKU
 62
     4
100
AcDbLine
 10
-15.04677697623367
 20
-4.682078831713056
 30
0.0
 11
-15.04677697623367
 21
-69.68207883171306
 31
0.0
  0
LINE
  5
326
330
2
100
AcDbEntity
  8
WAKU
 62
     4
100
AcDbLine
 10
69.95322302376621
 20
-4.682078831713056
 30
0.0
 11
69.95322302376621
 21
-69.68207883171306
 31
0.0
  0
LINE
  5
327
330
2
100
AcDbEntity
  8
WAKU
 62
     1
100
AcDbLine
 10
69.95322302376621
 20
-59.68207883171306
 30
0.0
 11
-55.04677697623368
 21
-59.68207883171306
 31
0.0
  0
LINE
  5
328
330
2
100
AcDbEntity
  8
WAKU
 62
     1
100
AcDbLine
 10
69.95322302376621
 20
-64.68207883171306
 30
0.0
 11
-55.04677697623368
 21
-64.68207883171306
 31
0.0
  0
LINE
  5
329
330
2
100
AcDbEntity
  8
WAKU
 62
     4
100
AcDbLine
 10
69.95322302376621
 20
-69.68207883171306
 30
0.0
 11
-55.04677697623368
 21
-69.68207883171306
 31
0.0
  0
TEXT
  5
32A
330
2
100
AcDbEntity
  8
MOJI1
100
AcDbText
 10
-52.54677697623368
 20
-63.68207883171305
 30
0.0
 40
3.0
  1
機能、その他
100
AcDbText
  0
TEXT
  5
32B
330
2
100
AcDbEntity
  8
MOJI1
100
AcDbText
 10
-52.54677697623368
 20
-23.68207883171306
 30
0.0
 40
3.0
  1
最低照度
100
AcDbText
  0
TEXT
  5
32C
330
2
100
AcDbEntity
  8
MOJI1
100
AcDbText
 10
-12.54677697623367
 20
-63.68207883171305
 30
0.0
 40
3.0
  1
フリッカレス、暗部補正、簡易白黒切換、プライバシーゾーン
 41
0.8
100
AcDbText
  0
TEXT
  5
32D
330
2
100
AcDbEntity
  8
MOJI1
100
AcDbText
 10
-12.54677697623367
 20
-68.68207883171305
 30
0.0
 40
3.0
  1
ＶＭＤ、ワイドダイナミックレンジ
100
AcDbText
  0
TEXT
  5
32E
330
2
100
AcDbEntity
  8
MOJI1
100
AcDbText
 10
-12.54677697623367
 20
-28.68207883171306
 30
0.0
 40
3.0
  1
１０ＢＡＳＥ－Ｔ／１００ＢＡＳＥ－ＴＸ、ＲＪ４５コネクター
 41
0.7800000000000001
100
AcDbText
  0
TEXT
  5
32F
330
2
100
AcDbEntity
  8
MOJI1
100
AcDbText
 10
-12.54677697623367
 20
-18.68207883171305
 30
0.0
 40
3.0
  1
約１３０万画素
100
AcDbText
  0
TEXT
  5
330
330
2
100
AcDbEntity
  8
MOJI1
100
AcDbText
 10
-12.54677697623367
 20
-58.68207883171305
 30
0.0
 40
3.0
  1
内蔵マイクにて集音
100
AcDbText
  0
ENDSEC
  0
SECTION
  2
OBJECTS
  0
DICTIONARY
  5
7
330
0
100
AcDbDictionary
281
     1
  3
ACAD_COLOR
350
2D
  3
ACAD_GROUP
350
29
  3
ACAD_LAYOUT
350
B
  3
ACAD_MATERIAL
350
2C
  3
ACAD_MLINESTYLE
350
2A
  3
ACAD_PLOTSETTINGS
350
2B
  3
ACAD_PLOTSTYLENAME
350
6
  3
ACDBHEADERROUNDTRIPXREC
350
36D
  3
AcDbVariableDictionary
350
368
  0
DICTIONARY
  5
11
330
10
100
AcDbDictionary
280
     1
281
     1
  3
ACAD_LAYERSTATES
360
12
  0
DICTIONARY
  5
45
330
44
100
AcDbDictionary
280
     1
281
     1
  3
ACAD_XREC_ROUNDTRIP
360
46
  0
DICTIONARY
  5
66
330
65
100
AcDbDictionary
280
     1
281
     1
  3
ACAD_XREC_ROUNDTRIP
360
67
  0
DICTIONARY
  5
36
330
35
100
AcDbDictionary
280
     1
281
     1
  3
ACAD_XREC_ROUNDTRIP
360
37
  0
DICTIONARY
  5
2D
102
{ACAD_REACTORS
330
7
102
}
330
7
100
AcDbDictionary
281
     1
  0
DICTIONARY
  5
29
102
{ACAD_REACTORS
330
7
102
}
330
7
100
AcDbDictionary
281
     1
  0
DICTIONARY
  5
B
102
{ACAD_REACTORS
330
7
102
}
330
7
100
AcDbDictionary
281
     1
  3
Model
350
A
  3
レイアウト1
350
F
  0
DICTIONARY
  5
2C
102
{ACAD_REACTORS
330
7
102
}
330
7
100
AcDbDictionary
281
     1
  3
Global
350
38
  0
DICTIONARY
  5
2A
102
{ACAD_REACTORS
330
7
102
}
330
7
100
AcDbDictionary
281
     1
  3
Standard
350
2F
  0
DICTIONARY
  5
2B
102
{ACAD_REACTORS
330
7
102
}
330
7
100
AcDbDictionary
281
     1
  0
ACDBDICTIONARYWDFLT
  5
6
102
{ACAD_REACTORS
330
7
102
}
330
7
100
AcDbDictionary
281
     1
  3
Normal
350
5
100
AcDbDictionaryWithDefault
340
5
  0
DICTIONARY
  5
36D
102
{ACAD_REACTORS
330
7
102
}
330
7
100
AcDbDictionary
281
     1
  3
COLORDICT
350
36F
  3
MATERIALDICT
350
36E
  0
DICTIONARY
  5
368
102
{ACAD_REACTORS
330
7
102
}
330
7
100
AcDbDictionary
281
     1
  3
DIMASSOC
350
36A
  3
HIDETEXT
350
369
  3
PROJECTNAME
350
36B
  0
DICTIONARY
  5
12
102
{ACAD_REACTORS
330
11
102
}
330
11
100
AcDbDictionary
281
     1
  0
XRECORD
  5
46
102
{ACAD_REACTORS
330
45
102
}
330
45
100
AcDbXrecord
280
     1
102
MATERIAL
340
38
  0
XRECORD
  5
67
102
{ACAD_REACTORS
330
66
102
}
330
66
100
AcDbXrecord
280
     1
102
MATERIAL
340
38
  0
XRECORD
  5
37
102
{ACAD_REACTORS
330
36
102
}
330
36
100
AcDbXrecord
280
     1
102
MATERIAL
340
38
  0
LAYOUT
  5
A
102
{ACAD_XDICTIONARY
360
370
102
}
102
{ACAD_REACTORS
330
B
102
}
330
B
100
AcDbPlotSettings
  1

  2
A4縦　10F06M_RICOH_SP-8100.pc3
  4
A4
  6

 40
5.873749732971191
 41
5.873747825622558
 42
5.873748779296875
 43
5.873748779296875
 44
209.9733276367187
 45
296.9259948730469
 46
5.419999999999999
 47
0.0
 48
0.0
 49
0.0
140
0.0
141
0.0
142
1.0
143
1.382430978808389
 70
 11956
 72
     1
 73
     0
 74
     1
  7
tmsacad.ctb
 75
     0
147
0.7233634194612505
148
0.0173690255812744
149
0.0120236189740126
100
AcDbLayout
  1
Model
 70
     1
 71
     0
 10
0.0
 20
0.0
 11
12.0
 21
9.0
 12
0.0
 22
0.0
 32
0.0
 14
0.0
 24
0.0
 34
0.0
 15
0.0
 25
0.0
 35
0.0
146
0.0
 13
0.0
 23
0.0
 33
0.0
 16
1.0
 26
0.0
 36
0.0
 17
0.0
 27
1.0
 37
0.0
 76
     0
330
2
  0
LAYOUT
  5
F
102
{ACAD_XDICTIONARY
360
372
102
}
102
{ACAD_REACTORS
330
B
102
}
330
B
100
AcDbPlotSettings
  1

  2
None
  4

  6

 40
0.0
 41
0.0
 42
0.0
 43
0.0
 44
0.0
 45
0.0
 46
0.0
 47
0.0
 48
0.0
 49
0.0
140
0.0
141
0.0
142
1.0
143
1.0
 70
   688
 72
     0
 73
     0
 74
     5
  7
tmsacad.ctb
 75
    16
147
1.0
148
0.0
149
0.0
100
AcDbLayout
  1
レイアウト1
 70
     1
 71
     1
 10
0.0
 20
0.0
 11
12.0
 21
9.0
 12
0.0
 22
0.0
 32
0.0
 14
0.0
 24
0.0
 34
0.0
 15
0.0
 25
0.0
 35
0.0
146
0.0
 13
0.0
 23
0.0
 33
0.0
 16
1.0
 26
0.0
 36
0.0
 17
0.0
 27
1.0
 37
0.0
 76
     0
330
C
  0
MATERIAL
  5
38
102
{ACAD_XDICTIONARY
360
39
102
}
102
{ACAD_REACTORS
330
2C
102
}
330
2C
100
AcDbMaterial
  1
Global
  0
MLINESTYLE
  5
2F
102
{ACAD_REACTORS
330
2A
102
}
330
2A
100
AcDbMlineStyle
  2
STANDARD
 70
     0
  3

 62
   256
 51
90.0
 52
90.0
 71
     2
 49
0.5
 62
   256
  6
BYLAYER
 49
-0.5
 62
   256
  6
BYLAYER
  0
ACDBPLACEHOLDER
  5
5
102
{ACAD_REACTORS
330
6
102
}
330
6
  0
XRECORD
  5
36F
102
{ACAD_REACTORS
330
36D
102
}
330
36D
100
AcDbXrecord
280
     1
340
2D
  0
XRECORD
  5
36E
102
{ACAD_REACTORS
330
36D
102
}
330
36D
100
AcDbXrecord
280
     1
340
2C
  0
DICTIONARYVAR
  5
36A
102
{ACAD_REACTORS
330
368
102
}
330
368
100
DictionaryVariables
280
     0
  1
1
  0
DICTIONARYVAR
  5
369
102
{ACAD_REACTORS
330
368
102
}
330
368
100
DictionaryVariables
280
     0
  1
1
  0
DICTIONARYVAR
  5
36B
102
{ACAD_REACTORS
330
368
102
}
330
368
100
DictionaryVariables
280
     0
  1

  0
DICTIONARY
  5
370
330
A
100
AcDbDictionary
280
     1
281
     1
  3
ACAD_XREC_ROUNDTRIP
360
371
  0
DICTIONARY
  5
372
330
F
100
AcDbDictionary
280
     1
281
     1
  3
ACAD_XREC_ROUNDTRIP
360
373
  0
DICTIONARY
  5
39
330
38
100
AcDbDictionary
280
     1
281
     1
  3
ACAD_XREC_ROUNDTRIP
360
3A
  0
XRECORD
  5
371
102
{ACAD_REACTORS
330
370
102
}
330
370
100
AcDbXrecord
280
     1
102
SHADEPLOT
 70
     0
102
SHADEPLOTRESLEVEL
 70
     2
102
SHADEPLOTCUSTOMDPI
 70
   300
  0
XRECORD
  5
373
102
{ACAD_REACTORS
330
372
102
}
330
372
100
AcDbXrecord
280
     1
102
SHADEPLOT
 70
     0
102
SHADEPLOTRESLEVEL
 70
     2
102
SHADEPLOTCUSTOMDPI
 70
   300
  0
XRECORD
  5
3A
102
{ACAD_REACTORS
330
39
102
}
330
39
100
AcDbXrecord
280
     1
102
MATERIAL
148
0.0
149
0.0
149
0.0
 93
        0
 94
       63
282
     0
 72
     1
 77
     1
171
     1
175
     1
179
     1
273
     0
  0
ENDSEC
  0
EOF
