  0
SECTION
  2
HEADER
  9
$ACADVER
  1
AC1015
  9
$ACADMAINTVER
 70
    20
  9
$DWGCODEPAGE
  3
ANSI_932
  9
$INSBASE
 10
0.4999999440410648
 20
372.5008351249344
 30
0.0
  9
$EXTMIN
 10
-60.63903717864184
 20
-62.2088464268121
 30
-0.0015258207003583
  9
$EXTMAX
 10
64.39453181390945
 20
50.56649820735504
 30
0.0000000349246037
  9
$LIMMIN
 10
0.0
 20
0.0
  9
$LIMMAX
 10
420.0
 20
297.0
  9
$ORTHOMODE
 70
     1
  9
$REGENMODE
 70
     0
  9
$FILLMODE
 70
     1
  9
$QTEXTMODE
 70
     0
  9
$MIRRTEXT
 70
     0
  9
$LTSCALE
 40
1.0
  9
$ATTMODE
 70
     1
  9
$TEXTSIZE
 40
2.5
  9
$TRACEWID
 40
1.0
  9
$TEXTSTYLE
  7
Standard
  9
$CLAYER
  8
GAIKEI
  9
$CELTYPE
  6
ByLayer
  9
$CECOLOR
 62
   256
  9
$CELTSCALE
 40
1.0
  9
$DISPSILH
 70
     0
  9
$DIMSCALE
 40
1.0
  9
$DIMASZ
 40
2.0
  9
$DIMEXO
 40
2.0
  9
$DIMDLI
 40
8.0
  9
$DIMRND
 40
0.0
  9
$DIMDLE
 40
0.0
  9
$DIMEXE
 40
2.0
  9
$DIMTP
 40
0.0
  9
$DIMTM
 40
0.0
  9
$DIMTXT
 40
2.5
  9
$DIMCEN
 40
0.0
  9
$DIMTSZ
 40
0.0
  9
$DIMTOL
 70
     0
  9
$DIMLIM
 70
     0
  9
$DIMTIH
 70
     0
  9
$DIMTOH
 70
     0
  9
$DIMSE1
 70
     0
  9
$DIMSE2
 70
     0
  9
$DIMTAD
 70
     3
  9
$DIMZIN
 70
     0
  9
$DIMBLK
  1

  9
$DIMASO
 70
     1
  9
$DIMSHO
 70
     1
  9
$DIMPOST
  1

  9
$DIMAPOST
  1

  9
$DIMALT
 70
     0
  9
$DIMALTD
 70
     2
  9
$DIMALTF
 40
25.4
  9
$DIMLFAC
 40
1.0
  9
$DIMTOFL
 70
     1
  9
$DIMTVP
 40
0.0
  9
$DIMTIX
 70
     0
  9
$DIMSOXD
 70
     0
  9
$DIMSAH
 70
     1
  9
$DIMBLK1
  1
OPEN30
  9
$DIMBLK2
  1
OPEN30
  9
$DIMSTYLE
  2
STANDARD
  9
$DIMCLRD
 70
     0
  9
$DIMCLRE
 70
     0
  9
$DIMCLRT
 70
     0
  9
$DIMTFAC
 40
1.0
  9
$DIMGAP
 40
0.5
  9
$DIMJUST
 70
     0
  9
$DIMSD1
 70
     0
  9
$DIMSD2
 70
     0
  9
$DIMTOLJ
 70
     1
  9
$DIMTZIN
 70
     0
  9
$DIMALTZ
 70
     0
  9
$DIMALTTZ
 70
     0
  9
$DIMUPT
 70
     0
  9
$DIMDEC
 70
     4
  9
$DIMTDEC
 70
     4
  9
$DIMALTU
 70
     2
  9
$DIMALTTD
 70
     2
  9
$DIMTXSTY
  7
Standard
  9
$DIMAUNIT
 70
     0
  9
$DIMADEC
 70
     0
  9
$DIMALTRND
 40
0.0
  9
$DIMAZIN
 70
     0
  9
$DIMDSEP
 70
    46
  9
$DIMATFIT
 70
     3
  9
$DIMFRAC
 70
     0
  9
$DIMLDRBLK
  1
OPEN30
  9
$DIMLUNIT
 70
     2
  9
$DIMLWD
 70
    -2
  9
$DIMLWE
 70
    -2
  9
$DIMTMOVE
 70
     0
  9
$LUNITS
 70
     2
  9
$LUPREC
 70
     4
  9
$SKETCHINC
 40
1.0
  9
$FILLETRAD
 40
0.0
  9
$AUNITS
 70
     0
  9
$AUPREC
 70
     0
  9
$MENU
  1
.
  9
$ELEVATION
 40
0.0
  9
$PELEVATION
 40
0.0
  9
$THICKNESS
 40
0.0
  9
$LIMCHECK
 70
     0
  9
$CHAMFERA
 40
0.0
  9
$CHAMFERB
 40
0.0
  9
$CHAMFERC
 40
0.0
  9
$CHAMFERD
 40
0.0
  9
$SKPOLY
 70
     0
  9
$TDCREATE
 40
2454349.434269746
  9
$TDUCREATE
 40
2454349.059269746
  9
$TDUPDATE
 40
2455288.621320683
  9
$TDUUPDATE
 40
2455288.246320683
  9
$TDINDWG
 40
0.1514335185
  9
$TDUSRTIMER
 40
0.1514335185
  9
$USRTIMER
 70
     1
  9
$ANGBASE
 50
0.0
  9
$ANGDIR
 70
     0
  9
$PDMODE
 70
     0
  9
$PDSIZE
 40
0.0
  9
$PLINEWID
 40
0.0
  9
$SPLFRAME
 70
     0
  9
$SPLINETYPE
 70
     6
  9
$SPLINESEGS
 70
     8
  9
$HANDSEED
  5
1BD
  9
$SURFTAB1
 70
     6
  9
$SURFTAB2
 70
     6
  9
$SURFTYPE
 70
     6
  9
$SURFU
 70
     6
  9
$SURFV
 70
     6
  9
$UCSBASE
  2

  9
$UCSNAME
  2

  9
$UCSORG
 10
0.0
 20
0.0
 30
0.0
  9
$UCSXDIR
 10
1.0
 20
0.0
 30
0.0
  9
$UCSYDIR
 10
0.0
 20
1.0
 30
0.0
  9
$UCSORTHOREF
  2

  9
$UCSORTHOVIEW
 70
     0
  9
$UCSORGTOP
 10
0.0
 20
0.0
 30
0.0
  9
$UCSORGBOTTOM
 10
0.0
 20
0.0
 30
0.0
  9
$UCSORGLEFT
 10
0.0
 20
0.0
 30
0.0
  9
$UCSORGRIGHT
 10
0.0
 20
0.0
 30
0.0
  9
$UCSORGFRONT
 10
0.0
 20
0.0
 30
0.0
  9
$UCSORGBACK
 10
0.0
 20
0.0
 30
0.0
  9
$PUCSBASE
  2

  9
$PUCSNAME
  2

  9
$PUCSORG
 10
0.0
 20
0.0
 30
0.0
  9
$PUCSXDIR
 10
1.0
 20
0.0
 30
0.0
  9
$PUCSYDIR
 10
0.0
 20
1.0
 30
0.0
  9
$PUCSORTHOREF
  2

  9
$PUCSORTHOVIEW
 70
     0
  9
$PUCSORGTOP
 10
0.0
 20
0.0
 30
0.0
  9
$PUCSORGBOTTOM
 10
0.0
 20
0.0
 30
0.0
  9
$PUCSORGLEFT
 10
0.0
 20
0.0
 30
0.0
  9
$PUCSORGRIGHT
 10
0.0
 20
0.0
 30
0.0
  9
$PUCSORGFRONT
 10
0.0
 20
0.0
 30
0.0
  9
$PUCSORGBACK
 10
0.0
 20
0.0
 30
0.0
  9
$USERI1
 70
     0
  9
$USERI2
 70
     0
  9
$USERI3
 70
     0
  9
$USERI4
 70
     0
  9
$USERI5
 70
     0
  9
$USERR1
 40
0.0
  9
$USERR2
 40
0.0
  9
$USERR3
 40
0.0
  9
$USERR4
 40
0.0
  9
$USERR5
 40
0.0
  9
$WORLDVIEW
 70
     1
  9
$SHADEDGE
 70
     3
  9
$SHADEDIF
 70
    70
  9
$TILEMODE
 70
     1
  9
$MAXACTVP
 70
    64
  9
$PINSBASE
 10
0.0
 20
0.0
 30
0.0
  9
$PLIMCHECK
 70
     0
  9
$PEXTMIN
 10
0.0
 20
0.0
 30
0.0
  9
$PEXTMAX
 10
0.0
 20
0.0
 30
0.0
  9
$PLIMMIN
 10
0.0
 20
0.0
  9
$PLIMMAX
 10
12.0
 20
9.0
  9
$UNITMODE
 70
     0
  9
$VISRETAIN
 70
     1
  9
$PLINEGEN
 70
     0
  9
$PSLTSCALE
 70
     1
  9
$TREEDEPTH
 70
  3020
  9
$CMLSTYLE
  2
Standard
  9
$CMLJUST
 70
     0
  9
$CMLSCALE
 40
20.0
  9
$PROXYGRAPHICS
 70
     1
  9
$MEASUREMENT
 70
     1
  9
$CELWEIGHT
370
    -1
  9
$ENDCAPS
280
     0
  9
$JOINSTYLE
280
     0
  9
$LWDISPLAY
290
     0
  9
$INSUNITS
 70
     4
  9
$HYPERLINKBASE
  1

  9
$STYLESHEET
  1

  9
$XEDIT
290
     1
  9
$CEPSNTYPE
380
     0
  9
$PSTYLEMODE
290
     1
  9
$FINGERPRINTGUID
  2
{FDEAD578-A652-11D2-9A35-0060089B3A3F}
  9
$VERSIONGUID
  2
{4F524C50-5288-42E3-91CF-C7635B27CC46}
  9
$EXTNAMES
290
     1
  9
$PSVPSCALE
 40
0.0
  9
$OLESTARTUP
290
     0
  0
ENDSEC
  0
SECTION
  2
CLASSES
  0
CLASS
  1
ACDBDICTIONARYWDFLT
  2
AcDbDictionaryWithDefault
  3
ObjectDBX Classes
 90
        0
280
     0
281
     0
  0
CLASS
  1
ACDBPLACEHOLDER
  2
AcDbPlaceHolder
  3
ObjectDBX Classes
 90
        0
280
     0
281
     0
  0
CLASS
  1
LAYOUT
  2
AcDbLayout
  3
ObjectDBX Classes
 90
        0
280
     0
281
     0
  0
CLASS
  1
DICTIONARYVAR
  2
AcDbDictionaryVar
  3
ObjectDBX Classes
 90
        0
280
     0
281
     0
  0
CLASS
  1
MATERIAL
  2
AcDbMaterial
  3
ObjectDBX Classes
 90
        0
280
     0
281
     0
  0
CLASS
  1
SORTENTSTABLE
  2
AcDbSortentsTable
  3
ObjectDBX Classes
 90
    32768
280
     0
281
     0
  0
CLASS
  1
DIMASSOC
  2
AcDbDimAssoc
  3
"AcDbDimAssoc|Product Desc:     AcDim ARX App For Dimension|Company:          Autodesk, Inc.|WEB Address:      www.autodesk.com"
 90
    32768
280
     0
281
     0
  0
ENDSEC
  0
SECTION
  2
TABLES
  0
TABLE
  2
VPORT
  5
1B
330
0
100
AcDbSymbolTable
 70
     4
  0
VPORT
  5
1B5
330
1B
100
AcDbSymbolTableRecord
100
AcDbViewportTableRecord
  2
*Active
 70
     0
 10
0.0
 20
0.0
 11
1.0
 21
1.0
 12
1.877747317633811
 22
-5.821174109728531
 13
0.0
 23
0.0
 14
10.0
 24
10.0
 15
10.0
 25
10.0
 16
0.0
 26
0.0
 36
1.0
 17
0.0
 27
0.0
 37
0.0
 40
113.6373217906066
 41
1.386479591836734
 42
50.0
 43
0.0
 44
0.0
 50
0.0
 51
0.0
 71
     0
 72
 10000
 73
     1
 74
     2
 75
     0
 76
     0
 77
     0
 78
     0
281
     0
 65
     1
110
0.0
120
0.0
130
0.0
111
1.0
121
0.0
131
0.0
112
0.0
122
1.0
132
0.0
 79
     0
146
0.0
  0
ENDTAB
  0
TABLE
  2
LTYPE
  5
16
330
0
100
AcDbSymbolTable
 70
     1
  0
LTYPE
  5
17
330
16
100
AcDbSymbolTableRecord
100
AcDbLinetypeTableRecord
  2
ByBlock
 70
     0
  3

 72
    65
 73
     0
 40
0.0
  0
LTYPE
  5
18
330
16
100
AcDbSymbolTableRecord
100
AcDbLinetypeTableRecord
  2
ByLayer
 70
     0
  3

 72
    65
 73
     0
 40
0.0
  0
LTYPE
  5
8
330
16
100
AcDbSymbolTableRecord
100
AcDbLinetypeTableRecord
  2
Continuous
 70
     0
  3
Solid line
 72
    65
 73
     0
 40
0.0
  0
ENDTAB
  0
TABLE
  2
LAYER
  5
10
102
{ACAD_XDICTIONARY
360
11
102
}
330
0
100
AcDbSymbolTable
 70
     7
  0
LAYER
  5
4
330
10
100
AcDbSymbolTableRecord
100
AcDbLayerTableRecord
  2
0
 70
     0
 62
     7
  6
Continuous
370
    -3
390
5
  0
LAYER
  5
35
330
10
100
AcDbSymbolTableRecord
100
AcDbLayerTableRecord
  2
WAKU
 70
     0
 62
     4
  6
Continuous
370
    -3
390
5
  0
LAYER
  5
37
330
10
100
AcDbSymbolTableRecord
100
AcDbLayerTableRecord
  2
MOJI1
 70
     0
 62
     2
  6
Continuous
370
    -3
390
5
  0
LAYER
  5
16F
330
10
100
AcDbSymbolTableRecord
100
AcDbLayerTableRecord
  2
TOUROKU
 70
     0
 62
     1
  6
Continuous
370
    -3
390
5
  0
LAYER
  5
146
102
{ACAD_XDICTIONARY
360
147
102
}
330
10
100
AcDbSymbolTableRecord
100
AcDbLayerTableRecord
  2
DEFPOINTS
 70
     0
 62
     7
  6
Continuous
290
     0
370
    -3
390
5
  0
LAYER
  5
2D
102
{ACAD_XDICTIONARY
360
2E
102
}
330
10
100
AcDbSymbolTableRecord
100
AcDbLayerTableRecord
  2
GAIKEI
 70
     0
 62
     7
  6
Continuous
370
    -3
390
5
  0
LAYER
  5
13A
102
{ACAD_XDICTIONARY
360
13B
102
}
330
10
100
AcDbSymbolTableRecord
100
AcDbLayerTableRecord
  2
SUNPO
 70
     0
 62
     3
  6
Continuous
370
    -3
390
5
  0
ENDTAB
  0
TABLE
  2
STYLE
  5
13
330
0
100
AcDbSymbolTable
 70
     2
  0
STYLE
  5
14
330
13
100
AcDbSymbolTableRecord
100
AcDbTextStyleTableRecord
  2
Standard
 70
     0
 40
0.0
 41
1.0
 50
0.0
 71
     0
 42
2.5
  3
MONOTXT.shx
  4
BIGFONT.shx
  0
STYLE
  5
171
330
13
100
AcDbSymbolTableRecord
100
AcDbTextStyleTableRecord
  2
KANJI
 70
     0
 40
0.0
 41
1.0
 50
0.0
 71
     0
 42
3.5
  3
MONOTXT
  4
BIGFONT
  0
ENDTAB
  0
TABLE
  2
VIEW
  5
19
330
0
100
AcDbSymbolTable
 70
     0
  0
ENDTAB
  0
TABLE
  2
UCS
  5
1A
330
0
100
AcDbSymbolTable
 70
     0
  0
ENDTAB
  0
TABLE
  2
APPID
  5
1D
330
0
100
AcDbSymbolTable
 70
     1
  0
APPID
  5
1E
330
1D
100
AcDbSymbolTableRecord
100
AcDbRegAppTableRecord
  2
ACAD
 70
     0
  0
ENDTAB
  0
TABLE
  2
DIMSTYLE
  5
1F
330
0
100
AcDbSymbolTable
 70
     1
100
AcDbDimStyleTable
 71
     1
340
20
  0
DIMSTYLE
105
20
102
{ACAD_REACTORS
330
160
330
14C
330
139
102
}
330
1F
100
AcDbSymbolTableRecord
100
AcDbDimStyleTableRecord
  2
STANDARD
 70
     0
 40
0.0
 41
2.0
 42
2.0
 43
8.0
 44
2.0
 73
     0
 74
     0
 77
     3
140
3.0
141
0.0
173
     1
279
     2
288
     1
340
14
341
21
343
21
344
21
  0
ENDTAB
  0
TABLE
  2
BLOCK_RECORD
  5
1
330
0
100
AcDbSymbolTable
 70
     7
  0
BLOCK_RECORD
  5
2
330
1
100
AcDbSymbolTableRecord
100
AcDbBlockTableRecord
  2
*Model_Space
340
A
  0
BLOCK_RECORD
  5
C
330
1
100
AcDbSymbolTableRecord
100
AcDbBlockTableRecord
  2
*Paper_Space
340
F
  0
BLOCK_RECORD
  5
21
330
1
100
AcDbSymbolTableRecord
100
AcDbBlockTableRecord
  2
_OPEN30
340
0
102
{BLKREFS
331
166
331
167
331
152
331
153
331
142
331
143
331
195
331
196
331
1A1
331
1A2
331
1AD
331
1AE
102
}
  0
BLOCK_RECORD
  5
161
330
1
100
AcDbSymbolTableRecord
100
AcDbBlockTableRecord
  2
*D1
340
0
  0
BLOCK_RECORD
  5
14D
330
1
100
AcDbSymbolTableRecord
100
AcDbBlockTableRecord
  2
*D2
340
0
  0
BLOCK_RECORD
  5
13D
330
1
100
AcDbSymbolTableRecord
100
AcDbBlockTableRecord
  2
*D3
340
0
  0
BLOCK_RECORD
  5
191
330
1
100
AcDbSymbolTableRecord
100
AcDbBlockTableRecord
  2
*D4
340
0
  0
BLOCK_RECORD
  5
19D
330
1
100
AcDbSymbolTableRecord
100
AcDbBlockTableRecord
  2
*D5
340
0
  0
BLOCK_RECORD
  5
1A9
330
1
100
AcDbSymbolTableRecord
100
AcDbBlockTableRecord
  2
*D6
340
0
  0
ENDTAB
  0
ENDSEC
  0
SECTION
  2
BLOCKS
  0
BLOCK
  5
3
330
2
100
AcDbEntity
  8
0
100
AcDbBlockBegin
  2
*Model_Space
 70
     0
 10
0.0
 20
0.0
 30
0.0
  3
*Model_Space
  1

  0
ENDBLK
  5
9
330
2
100
AcDbEntity
  8
0
100
AcDbBlockEnd
  0
BLOCK
  5
D
330
C
100
AcDbEntity
 67
     1
  8
0
100
AcDbBlockBegin
  2
*Paper_Space
 70
     0
 10
0.0
 20
0.0
 30
0.0
  3
*Paper_Space
  1

  0
ENDBLK
  5
E
330
C
100
AcDbEntity
 67
     1
  8
0
100
AcDbBlockEnd
  0
BLOCK
  5
22
330
21
100
AcDbEntity
  8
0
100
AcDbBlockBegin
  2
_OPEN30
 70
     0
 10
0.0
 20
0.0
 30
0.0
  3
_OPEN30
  1

  0
LINE
  5
23
330
21
100
AcDbEntity
  8
0
  6
ByBlock
 62
     0
100
AcDbLine
 10
-1.0
 20
0.26794919
 30
0.0
 11
0.0
 21
0.0
 31
0.0
  0
LINE
  5
24
330
21
100
AcDbEntity
  8
0
  6
ByBlock
 62
     0
100
AcDbLine
 10
0.0
 20
0.0
 30
0.0
 11
-1.0
 21
-0.26794919
 31
0.0
  0
LINE
  5
25
330
21
100
AcDbEntity
  8
0
  6
ByBlock
 62
     0
100
AcDbLine
 10
0.0
 20
0.0
 30
0.0
 11
-1.0
 21
0.0
 31
0.0
  0
ENDBLK
  5
26
330
21
100
AcDbEntity
  8
0
100
AcDbBlockEnd
  0
BLOCK
  5
162
330
161
100
AcDbEntity
  8
0
100
AcDbBlockBegin
  2
*D1
 70
     1
 10
0.0
 20
0.0
 30
0.0
  3
*D1
  1

  0
LINE
  5
163
330
161
100
AcDbEntity
  8
SUNPO
 62
     0
370
    -2
100
AcDbLine
 10
67.55791506346373
 20
344.1315733633276
 30
0.0
 11
67.55791506346373
 21
352.1315733633276
 31
0.0
  0
LINE
  5
164
330
161
100
AcDbEntity
  8
SUNPO
 62
     0
370
    -2
100
AcDbLine
 10
94.05791506344371
 20
344.1315733633276
 30
0.0
 11
94.05791506344371
 21
352.1315733633276
 31
0.0
  0
LINE
  5
165
330
161
100
AcDbEntity
  8
SUNPO
 62
     0
370
    -2
100
AcDbLine
 10
69.55791506346372
 20
350.1315733633276
 30
0.0
 11
92.05791506344372
 21
350.1315733633276
 31
0.0
  0
INSERT
  5
166
330
161
100
AcDbEntity
  8
SUNPO
 62
     0
370
    -2
100
AcDbBlockReference
  2
_OPEN30
 10
67.55791506346373
 20
350.1315733633276
 30
0.0
 41
2.0
 42
2.0
 43
2.0
 50
180.0
  0
INSERT
  5
167
330
161
100
AcDbEntity
  8
SUNPO
 62
     0
370
    -2
100
AcDbBlockReference
  2
_OPEN30
 10
94.05791506344371
 20
350.1315733633276
 30
0.0
 41
2.0
 42
2.0
 43
2.0
  0
MTEXT
  5
168
330
161
100
AcDbEntity
  8
SUNPO
 62
     0
100
AcDbMText
 10
80.80791506345372
 20
351.8815733633276
 30
0.0
 40
2.5
 41
0.0
 71
     5
 72
     1
  1
\A1;132.5
 73
     1
 44
1.0
1001
ACAD
1000
MTEXTBEGIN
1070
    73
1070
     1
1070
    44
1040
1.0
1070
    74
1070
     0
1000
MTEXTEND
  0
POINT
  5
169
330
161
100
AcDbEntity
  8
DEFPOINTS
 62
     0
100
AcDbPoint
 10
67.55791506346373
 20
342.1315733633276
 30
0.0
  0
POINT
  5
16A
330
161
100
AcDbEntity
  8
DEFPOINTS
 62
     0
100
AcDbPoint
 10
94.05791506344371
 20
342.1315733633276
 30
0.0
  0
POINT
  5
16B
330
161
100
AcDbEntity
  8
DEFPOINTS
 62
     0
100
AcDbPoint
 10
94.05791506344371
 20
350.1315733633276
 30
0.0
  0
ENDBLK
  5
16C
330
161
100
AcDbEntity
  8
0
100
AcDbBlockEnd
  0
BLOCK
  5
14E
330
14D
100
AcDbEntity
  8
0
100
AcDbBlockBegin
  2
*D2
 70
     1
 10
0.0
 20
0.0
 30
0.0
  3
*D2
  1

  0
LINE
  5
14F
330
14D
100
AcDbEntity
  8
SUNPO
 62
     0
370
    -2
100
AcDbLine
 10
28.97641803562929
 20
344.1315733633277
 30
0.0
 11
28.97641803562929
 21
352.1315733633277
 31
0.0
  0
LINE
  5
150
330
14D
100
AcDbEntity
  8
SUNPO
 62
     0
370
    -2
100
AcDbLine
 10
43.97645435866925
 20
344.1315733633277
 30
0.0
 11
43.97645435866925
 21
352.1315733633277
 31
0.0
  0
LINE
  5
151
330
14D
100
AcDbEntity
  8
SUNPO
 62
     0
370
    -2
100
AcDbLine
 10
30.97641803562929
 20
350.1315733633277
 30
0.0
 11
41.97645435866925
 21
350.1315733633277
 31
0.0
  0
INSERT
  5
152
330
14D
100
AcDbEntity
  8
SUNPO
 62
     0
370
    -2
100
AcDbBlockReference
  2
_OPEN30
 10
28.97641803562929
 20
350.1315733633277
 30
0.0
 41
2.0
 42
2.0
 43
2.0
 50
180.0
  0
INSERT
  5
153
330
14D
100
AcDbEntity
  8
SUNPO
 62
     0
370
    -2
100
AcDbBlockReference
  2
_OPEN30
 10
43.97645435866925
 20
350.1315733633277
 30
0.0
 41
2.0
 42
2.0
 43
2.0
  0
MTEXT
  5
154
330
14D
100
AcDbEntity
  8
SUNPO
 62
     0
100
AcDbMText
 10
36.47643619714927
 20
351.8815733633277
 30
0.0
 40
2.5
 41
0.0
 71
     5
 72
     1
  1
\A1;75
 73
     1
 44
1.0
1001
ACAD
1000
MTEXTBEGIN
1070
    73
1070
     1
1070
    44
1040
1.0
1070
    74
1070
     0
1000
MTEXTEND
  0
POINT
  5
155
330
14D
100
AcDbEntity
  8
DEFPOINTS
 62
     0
100
AcDbPoint
 10
28.97641803562929
 20
342.1315733633277
 30
0.0
  0
POINT
  5
156
330
14D
100
AcDbEntity
  8
DEFPOINTS
 62
     0
100
AcDbPoint
 10
43.97645435866925
 20
342.1315733633277
 30
0.0
  0
POINT
  5
157
330
14D
100
AcDbEntity
  8
DEFPOINTS
 62
     0
100
AcDbPoint
 10
43.97645435866925
 20
350.1315733633277
 30
0.0
  0
ENDBLK
  5
158
330
14D
100
AcDbEntity
  8
0
100
AcDbBlockEnd
  0
BLOCK
  5
13E
330
13D
100
AcDbEntity
  8
0
100
AcDbBlockBegin
  2
*D3
 70
     1
 10
0.0
 20
0.0
 30
0.0
  3
*D3
  1

  0
LINE
  5
13F
330
13D
100
AcDbEntity
  8
SUNPO
 62
     0
370
    -2
100
AcDbLine
 10
45.98212463210134
 20
332.0708096882378
 30
0.0
 11
53.98212463210133
 21
332.0708096882378
 31
0.0
  0
LINE
  5
140
330
13D
100
AcDbEntity
  8
SUNPO
 62
     0
370
    -2
100
AcDbLine
 10
45.98212463210134
 20
345.0708029679463
 30
0.0
 11
53.98212463210134
 21
345.0708029679463
 31
0.0
  0
LINE
  5
141
330
13D
100
AcDbEntity
  8
SUNPO
 62
     0
370
    -2
100
AcDbLine
 10
51.98212463210133
 20
334.0708096882378
 30
0.0
 11
51.98212463210134
 21
343.0708029679463
 31
0.0
  0
INSERT
  5
142
330
13D
100
AcDbEntity
  8
SUNPO
 62
     0
370
    -2
100
AcDbBlockReference
  2
_OPEN30
 10
51.98212463210133
 20
332.0708096882378
 30
0.0
 41
2.0
 42
2.0
 43
2.0
 50
270.0
  0
INSERT
  5
143
330
13D
100
AcDbEntity
  8
SUNPO
 62
     0
370
    -2
100
AcDbBlockReference
  2
_OPEN30
 10
51.98212463210134
 20
345.0708029679463
 30
0.0
 41
2.0
 42
2.0
 43
2.0
 50
90.0
  0
MTEXT
  5
144
330
13D
100
AcDbEntity
  8
SUNPO
 62
     0
100
AcDbMText
 10
50.23212463210128
 20
338.570806328092
 30
0.0
 40
2.5
 41
0.0
 71
     5
 72
     1
  1
\A1;65
 11
0.0000000000000001
 21
1.0
 31
0.0
 73
     1
 44
1.0
1001
ACAD
1000
MTEXTBEGIN
1070
    73
1070
     1
1070
    44
1040
1.0
1070
    74
1070
     0
1000
MTEXTEND
  0
POINT
  5
145
330
13D
100
AcDbEntity
  8
DEFPOINTS
 62
     0
100
AcDbPoint
 10
43.98212463210134
 20
332.0708096882378
 30
0.0
  0
POINT
  5
149
330
13D
100
AcDbEntity
  8
DEFPOINTS
 62
     0
100
AcDbPoint
 10
43.98212463210134
 20
345.0708029679463
 30
0.0
  0
POINT
  5
14A
330
13D
100
AcDbEntity
  8
DEFPOINTS
 62
     0
100
AcDbPoint
 10
51.98212463210134
 20
345.0708029679463
 30
0.0
  0
ENDBLK
  5
14B
330
13D
100
AcDbEntity
  8
0
100
AcDbBlockEnd
  0
BLOCK
  5
19B
330
191
100
AcDbEntity
  8
0
100
AcDbBlockBegin
  2
*D4
 70
     1
 10
0.0
 20
0.0
 30
0.0
  3
*D4
  1

  0
LINE
  5
192
330
191
100
AcDbEntity
  8
SUNPO
 62
     0
370
    -2
100
AcDbLine
 10
4.43349870079146
 20
24.44318635039241
 30
0.0
 11
4.433498700791461
 21
32.44318635039241
 31
0.0
  0
LINE
  5
193
330
191
100
AcDbEntity
  8
SUNPO
 62
     0
370
    -2
100
AcDbLine
 10
30.93349870077145
 20
24.44318635039241
 30
0.0
 11
30.93349870077145
 21
32.44318635039241
 31
0.0
  0
LINE
  5
194
330
191
100
AcDbEntity
  8
SUNPO
 62
     0
370
    -2
100
AcDbLine
 10
6.433498700791461
 20
30.44318635039241
 30
0.0
 11
28.93349870077145
 21
30.44318635039241
 31
0.0
  0
INSERT
  5
195
330
191
100
AcDbEntity
  8
SUNPO
 62
     0
370
    -2
100
AcDbBlockReference
  2
_OPEN30
 10
4.433498700791461
 20
30.44318635039241
 30
0.0
 41
2.0
 42
2.0
 43
2.0
 50
180.0
  0
INSERT
  5
196
330
191
100
AcDbEntity
  8
SUNPO
 62
     0
370
    -2
100
AcDbBlockReference
  2
_OPEN30
 10
30.93349870077145
 20
30.44318635039241
 30
0.0
 41
2.0
 42
2.0
 43
2.0
  0
MTEXT
  5
197
330
191
100
AcDbEntity
  8
SUNPO
 62
     0
100
AcDbMText
 10
17.68349870078145
 20
32.19318635039241
 30
0.0
 40
2.5
 41
0.0
 71
     5
 72
     1
  1
\A1;132.5
 73
     1
 44
1.0
1001
ACAD
1000
MTEXTBEGIN
1070
    73
1070
     1
1070
    44
1040
1.0
1070
    74
1070
     0
1000
MTEXTEND
  0
POINT
  5
198
330
191
100
AcDbEntity
  8
DEFPOINTS
 62
     0
100
AcDbPoint
 10
4.43349870079146
 20
22.44318635039241
 30
0.0
  0
POINT
  5
199
330
191
100
AcDbEntity
  8
DEFPOINTS
 62
     0
100
AcDbPoint
 10
30.93349870077145
 20
22.44318635039241
 30
0.0
  0
POINT
  5
19A
330
191
100
AcDbEntity
  8
DEFPOINTS
 62
     0
100
AcDbPoint
 10
30.93349870077145
 20
30.44318635039241
 30
0.0
  0
ENDBLK
  5
19C
330
191
100
AcDbEntity
  8
0
100
AcDbBlockEnd
  0
BLOCK
  5
1A7
330
19D
100
AcDbEntity
  8
0
100
AcDbBlockBegin
  2
*D5
 70
     1
 10
0.0
 20
0.0
 30
0.0
  3
*D5
  1

  0
LINE
  5
19E
330
19D
100
AcDbEntity
  8
SUNPO
 62
     0
370
    -2
100
AcDbLine
 10
-34.14799832704298
 20
24.44318635039247
 30
0.0
 11
-34.14799832704298
 21
32.44318635039247
 31
0.0
  0
LINE
  5
19F
330
19D
100
AcDbEntity
  8
SUNPO
 62
     0
370
    -2
100
AcDbLine
 10
-19.14796200400301
 20
24.44318635039247
 30
0.0
 11
-19.14796200400301
 21
32.44318635039247
 31
0.0
  0
LINE
  5
1A0
330
19D
100
AcDbEntity
  8
SUNPO
 62
     0
370
    -2
100
AcDbLine
 10
-32.14799832704298
 20
30.44318635039247
 30
0.0
 11
-21.14796200400301
 21
30.44318635039247
 31
0.0
  0
INSERT
  5
1A1
330
19D
100
AcDbEntity
  8
SUNPO
 62
     0
370
    -2
100
AcDbBlockReference
  2
_OPEN30
 10
-34.14799832704298
 20
30.44318635039247
 30
0.0
 41
2.0
 42
2.0
 43
2.0
 50
180.0
  0
INSERT
  5
1A2
330
19D
100
AcDbEntity
  8
SUNPO
 62
     0
370
    -2
100
AcDbBlockReference
  2
_OPEN30
 10
-19.14796200400301
 20
30.44318635039247
 30
0.0
 41
2.0
 42
2.0
 43
2.0
  0
MTEXT
  5
1A3
330
19D
100
AcDbEntity
  8
SUNPO
 62
     0
100
AcDbMText
 10
-26.647980165523
 20
32.19318635039247
 30
0.0
 40
2.5
 41
0.0
 71
     5
 72
     1
  1
\A1;75
 73
     1
 44
1.0
1001
ACAD
1000
MTEXTBEGIN
1070
    73
1070
     1
1070
    44
1040
1.0
1070
    74
1070
     0
1000
MTEXTEND
  0
POINT
  5
1A4
330
19D
100
AcDbEntity
  8
DEFPOINTS
 62
     0
100
AcDbPoint
 10
-34.14799832704298
 20
22.44318635039247
 30
0.0
  0
POINT
  5
1A5
330
19D
100
AcDbEntity
  8
DEFPOINTS
 62
     0
100
AcDbPoint
 10
-19.14796200400301
 20
22.44318635039247
 30
0.0
  0
POINT
  5
1A6
330
19D
100
AcDbEntity
  8
DEFPOINTS
 62
     0
100
AcDbPoint
 10
-19.14796200400301
 20
30.44318635039247
 30
0.0
  0
ENDBLK
  5
1A8
330
19D
100
AcDbEntity
  8
0
100
AcDbBlockEnd
  0
BLOCK
  5
1B3
330
1A9
100
AcDbEntity
  8
0
100
AcDbBlockBegin
  2
*D6
 70
     1
 10
0.0
 20
0.0
 30
0.0
  3
*D6
  1

  0
LINE
  5
1AA
330
1A9
100
AcDbEntity
  8
SUNPO
 62
     0
370
    -2
100
AcDbLine
 10
-17.14229173057092
 20
12.38242267530256
 30
0.0
 11
-9.142291730570926
 21
12.38242267530256
 31
0.0
  0
LINE
  5
1AB
330
1A9
100
AcDbEntity
  8
SUNPO
 62
     0
370
    -2
100
AcDbLine
 10
-17.14229173057092
 20
25.38241595501109
 30
0.0
 11
-9.142291730570924
 21
25.38241595501109
 31
0.0
  0
LINE
  5
1AC
330
1A9
100
AcDbEntity
  8
SUNPO
 62
     0
370
    -2
100
AcDbLine
 10
-11.14229173057093
 20
14.38242267530256
 30
0.0
 11
-11.14229173057092
 21
23.38241595501108
 31
0.0
  0
INSERT
  5
1AD
330
1A9
100
AcDbEntity
  8
SUNPO
 62
     0
370
    -2
100
AcDbBlockReference
  2
_OPEN30
 10
-11.14229173057093
 20
12.38242267530256
 30
0.0
 41
2.0
 42
2.0
 43
2.0
 50
270.0
  0
INSERT
  5
1AE
330
1A9
100
AcDbEntity
  8
SUNPO
 62
     0
370
    -2
100
AcDbBlockReference
  2
_OPEN30
 10
-11.14229173057092
 20
25.38241595501109
 30
0.0
 41
2.0
 42
2.0
 43
2.0
 50
90.0
  0
MTEXT
  5
1AF
330
1A9
100
AcDbEntity
  8
SUNPO
 62
     0
100
AcDbMText
 10
-12.89229173057093
 20
18.88241931515682
 30
0.0
 40
2.5
 41
0.0
 71
     5
 72
     1
  1
\A1;65
 11
0.0000000000000001
 21
1.0
 31
0.0
 73
     1
 44
1.0
1001
ACAD
1000
MTEXTBEGIN
1070
    73
1070
     1
1070
    44
1040
1.0
1070
    74
1070
     0
1000
MTEXTEND
  0
POINT
  5
1B0
330
1A9
100
AcDbEntity
  8
DEFPOINTS
 62
     0
100
AcDbPoint
 10
-19.14229173057092
 20
12.38242267530256
 30
0.0
  0
POINT
  5
1B1
330
1A9
100
AcDbEntity
  8
DEFPOINTS
 62
     0
100
AcDbPoint
 10
-19.14229173057092
 20
25.38241595501109
 30
0.0
  0
POINT
  5
1B2
330
1A9
100
AcDbEntity
  8
DEFPOINTS
 62
     0
100
AcDbPoint
 10
-11.14229173057092
 20
25.38241595501109
 30
0.0
  0
ENDBLK
  5
1B4
330
1A9
100
AcDbEntity
  8
0
100
AcDbBlockEnd
  0
ENDSEC
  0
SECTION
  2
ENTITIES
  0
LINE
  5
34
330
2
100
AcDbEntity
  8
WAKU
 62
     1
100
AcDbLine
 10
-60.62441641863131
 20
-17.18755188800071
 30
0.0
 11
64.37558358136858
 21
-17.18755188800071
 31
0.0
  0
TEXT
  5
36
330
2
100
AcDbEntity
  8
MOJI1
100
AcDbText
 10
-18.12441641863131
 20
-21.18755188800071
 30
0.0
 40
3.0
  1
プログレッシブ
100
AcDbText
  0
TEXT
  5
38
330
2
100
AcDbEntity
  8
MOJI1
100
AcDbText
 10
-18.12441641863131
 20
-11.18755188800071
 30
0.0
 40
3.0
  1
１／３型　ＭＯＳセンター
100
AcDbText
  0
LINE
  5
39
330
2
100
AcDbEntity
  8
WAKU
 62
     1
100
AcDbLine
 10
-60.62441641863131
 20
-42.18755188800071
 30
0.0
 11
64.37558358136858
 21
-42.18755188800071
 31
0.0
  0
TEXT
  5
3A
330
2
100
AcDbEntity
  8
MOJI1
100
AcDbText
 10
-18.12441641863131
 20
-46.18755188800071
 30
0.0
 40
3.0
  1
ＴＣＰ／ＩＰ、ＵＤＰ／ＩＰ、ＨＴＴＰ、ＲＴＰ、
100
AcDbText
  0
TEXT
  5
3B
330
2
100
AcDbEntity
  8
MOJI1
100
AcDbText
 10
-58.12441641863131
 20
-46.18755188800071
 30
0.0
 40
3.0
  1
対応プロコトル
100
AcDbText
  0
TEXT
  5
3C
330
2
100
AcDbEntity
  8
MOJI1
100
AcDbText
 10
-58.12441641863131
 20
-41.18755188800071
 30
0.0
 40
3.0
  1
画像圧縮方式
100
AcDbText
  0
TEXT
  5
3D
330
2
100
AcDbEntity
  8
MOJI1
100
AcDbText
 10
-18.12441641863131
 20
-41.18755188800071
 30
0.0
 40
3.0
  1
Ｈ．２６４／ＭＰＥＧ－４／ＪＰＥＧ
100
AcDbText
  0
TEXT
  5
3E
330
2
100
AcDbEntity
  8
MOJI1
100
AcDbText
 10
-58.12441641863131
 20
-31.18755188800071
 30
0.0
 40
3.0
  1
ネットワーク
100
AcDbText
  0
TEXT
  5
3F
330
2
100
AcDbEntity
  8
MOJI1
100
AcDbText
 10
-58.12441641863131
 20
-36.18755188800071
 30
0.0
 40
3.0
  1
画像解像度
100
AcDbText
  0
TEXT
  5
40
330
2
100
AcDbEntity
  8
MOJI1
100
AcDbText
 10
-18.12441641863131
 20
-36.18755188800071
 30
0.0
 40
3.0
  1
１２８０×９６０／ＶＧＡ（６４０×４８０）／ＱＶＧＡ（３２０×２４０）
 41
0.65
100
AcDbText
  0
TEXT
  5
41
330
2
100
AcDbEntity
  8
MOJI1
100
AcDbText
 10
-18.12441641863131
 20
-26.18755188800071
 30
0.0
 40
3.0
  1
カラー：０．３ルクス、白黒：０．２ルクス（Ｆ１．４）
 41
0.88
100
AcDbText
  0
TEXT
  5
42
330
2
100
AcDbEntity
  8
MOJI1
100
AcDbText
 10
-58.12441641863131
 20
-11.18755188800071
 30
0.0
 40
3.0
  1
撮像素子
100
AcDbText
  0
TEXT
  5
43
330
2
100
AcDbEntity
  8
MOJI1
100
AcDbText
 10
-58.12441641863131
 20
-16.18755188800071
 30
0.0
 40
3.0
  1
有効画素数
100
AcDbText
  0
LINE
  5
44
330
2
100
AcDbEntity
  8
WAKU
 62
     1
100
AcDbLine
 10
-60.62441641863131
 20
-12.18755188800071
 30
0.0
 11
64.37558358136858
 21
-12.18755188800071
 31
0.0
  0
LINE
  5
45
330
2
100
AcDbEntity
  8
WAKU
 62
     1
100
AcDbLine
 10
-60.62441641863131
 20
-7.187551888000712
 30
0.0
 11
64.37558358136858
 21
-7.187551888000712
 31
0.0
  0
LINE
  5
46
330
2
100
AcDbEntity
  8
WAKU
 62
     4
100
AcDbLine
 10
-60.62441641863131
 20
-2.187551888000712
 30
0.0
 11
64.37558358136858
 21
-2.187551888000712
 31
0.0
  0
LINE
  5
47
330
2
100
AcDbEntity
  8
WAKU
 62
     1
100
AcDbLine
 10
64.37558358136858
 20
-47.18755188800071
 30
0.0
 11
-60.62441641863131
 21
-47.18755188800071
 31
0.0
  0
LINE
  5
48
330
2
100
AcDbEntity
  8
WAKU
 62
     1
100
AcDbLine
 10
-60.62441641863131
 20
-37.18755188800071
 30
0.0
 11
64.37558358136858
 21
-37.18755188800071
 31
0.0
  0
LINE
  5
49
330
2
100
AcDbEntity
  8
WAKU
 62
     1
100
AcDbLine
 10
-60.62441641863131
 20
-32.18755188800071
 30
0.0
 11
64.37558358136858
 21
-32.18755188800071
 31
0.0
  0
LINE
  5
4A
330
2
100
AcDbEntity
  8
WAKU
 62
     1
100
AcDbLine
 10
-60.62441641863131
 20
-27.18755188800071
 30
0.0
 11
64.37558358136858
 21
-27.18755188800071
 31
0.0
  0
LINE
  5
4B
330
2
100
AcDbEntity
  8
WAKU
 62
     1
100
AcDbLine
 10
-60.62441641863131
 20
-22.18755188800071
 30
0.0
 11
64.37558358136858
 21
-22.18755188800071
 31
0.0
  0
LINE
  5
4C
330
2
100
AcDbEntity
  8
WAKU
 62
     4
100
AcDbLine
 10
-60.62441641863131
 20
-2.187551888000712
 30
0.0
 11
-60.62441641863131
 21
-62.18755188800071
 31
0.0
  0
TEXT
  5
4D
330
2
100
AcDbEntity
  8
MOJI1
100
AcDbText
 10
-18.12441641863131
 20
-6.187551888000712
 30
0.0
 40
3.0
  1
ＤＣ１２Ｖ、ＰｏＥ(ＩＥＥＥ８０２.３ａｆ準拠)
 41
0.95
100
AcDbText
  0
TEXT
  5
4E
330
2
100
AcDbEntity
  8
MOJI1
100
AcDbText
 10
-58.12441641863131
 20
-6.187551888000712
 30
0.0
 40
3.0
  1
電　源
100
AcDbText
  0
LINE
  5
4F
330
2
100
AcDbEntity
  8
WAKU
 62
     4
100
AcDbLine
 10
-20.62441641863131
 20
-2.187551888000712
 30
0.0
 11
-20.62441641863131
 21
-62.18755188800071
 31
0.0
  0
LINE
  5
50
330
2
100
AcDbEntity
  8
WAKU
 62
     4
100
AcDbLine
 10
64.37558358136858
 20
-2.187551888000712
 30
0.0
 11
64.37558358136858
 21
-62.18755188800071
 31
0.0
  0
LINE
  5
51
330
2
100
AcDbEntity
  8
WAKU
 62
     1
100
AcDbLine
 10
64.37558358136858
 20
-52.18755188800071
 30
0.0
 11
-60.62441641863131
 21
-52.18755188800071
 31
0.0
  0
LINE
  5
52
330
2
100
AcDbEntity
  8
WAKU
 62
     1
100
AcDbLine
 10
64.37558358136858
 20
-57.18755188800071
 30
0.0
 11
-60.62441641863131
 21
-57.18755188800071
 31
0.0
  0
LINE
  5
53
330
2
100
AcDbEntity
  8
WAKU
 62
     4
100
AcDbLine
 10
64.37558358136858
 20
-62.18755188800071
 30
0.0
 11
-60.62441641863131
 21
-62.18755188800071
 31
0.0
  0
TEXT
  5
54
330
2
100
AcDbEntity
  8
MOJI1
100
AcDbText
 10
-58.12441641863131
 20
-56.18755188800071
 30
0.0
 40
3.0
  1
機　能
100
AcDbText
  0
TEXT
  5
55
330
2
100
AcDbEntity
  8
MOJI1
100
AcDbText
 10
-58.12441641863131
 20
-26.18755188800071
 30
0.0
 40
3.0
  1
最低照度
100
AcDbText
  0
TEXT
  5
56
330
2
100
AcDbEntity
  8
MOJI1
100
AcDbText
 10
-58.12441641863131
 20
-21.18755188800071
 30
0.0
 40
3.0
  1
走査方式
100
AcDbText
  0
TEXT
  5
57
330
2
100
AcDbEntity
  8
MOJI1
100
AcDbText
 10
-18.12441641863131
 20
-56.18755188800071
 30
0.0
 40
3.0
  1
ワイドダイナミックレンジＯＮ／ＯＦＦ、暗部補正、簡易白黒切換、
 41
0.75
100
AcDbText
  0
TEXT
  5
58
330
2
100
AcDbEntity
  8
MOJI1
100
AcDbText
 10
-18.12441641863131
 20
-61.18755188800071
 30
0.0
 40
3.0
  1
画像認識　顔検出、ＳＤメモリーカードスロット
100
AcDbText
  0
TEXT
  5
59
330
2
100
AcDbEntity
  8
MOJI1
100
AcDbText
 10
-18.12441641863131
 20
-31.18755188800071
 30
0.0
 40
3.0
  1
１０ＢＡＳＥ－Ｔ／１００ＢＡＳＥ－ＴＸ、ＲＪ４５コネクター
 41
0.7800000000000001
100
AcDbText
  0
TEXT
  5
5A
330
2
100
AcDbEntity
  8
MOJI1
100
AcDbText
 10
-18.12441641863131
 20
-16.18755188800071
 30
0.0
 40
3.0
  1
約１３０万画素
100
AcDbText
  0
TEXT
  5
5B
330
2
100
AcDbEntity
  8
MOJI1
100
AcDbText
 10
-18.12441641863131
 20
-51.18755188800071
 30
0.0
 40
3.0
  1
ＦＴＰ、ＳＭＴＰ、ＤＮＳ、ＮＴＰ、ＳＮＭＰ
100
AcDbText
  0
ARC
  5
5C
330
2
100
AcDbEntity
  8
GAIKEI
  6
Continuous
 62
     1
100
AcDbCircle
 10
7.327014998891513
 20
20.65982076774265
 30
0.0
 40
23.71801054594737
100
AcDbArc
 50
339.5748323122075
 51
342.0572904515992
  0
LWPOLYLINE
  5
5D
330
2
100
AcDbEntity
  8
GAIKEI
  6
Continuous
 62
     1
100
AcDbPolyline
 90
        9
 70
   128
 43
0.0
 10
4.772134690251505
 20
13.35311973552257
 10
4.773921525751575
 20
13.12401698988265
 10
4.775470128931601
 20
12.92386533778256
 10
4.776780476511476
 20
12.75463694792256
 10
4.777852615051529
 20
12.61738756756256
 10
4.778686497991543
 20
12.51234332184265
 10
4.779282148631523
 20
12.43900241416258
 10
4.779639543671464
 20
12.3962409244026
 10
4.779758706391476
 20
12.38242270510261
  0
LINE
  5
5E
330
2
100
AcDbEntity
  8
GAIKEI
  6
Continuous
 62
     1
100
AcDbLine
 10
29.89150079125148
 20
13.35311116736261
 30
0.0
 11
4.573025325431558
 21
13.35311980343834
 31
0.0
  0
LWPOLYLINE
  5
5F
330
2
100
AcDbEntity
  8
GAIKEI
  6
Continuous
 62
     1
100
AcDbPolyline
 90
        3
 70
   128
 43
0.0
 10
29.89150079125148
 20
13.35311116736261
 10
30.04846664303159
 20
13.83581826548254
 10
30.2365810657983
 20
14.48242249052259
  0
LWPOLYLINE
  5
60
330
2
100
AcDbEntity
  8
GAIKEI
  6
Continuous
 62
     1
100
AcDbPolyline
 90
        4
 70
   128
 43
0.0
 10
4.759088141551501
 20
14.91039464336256
 10
4.764039634431583
 20
14.31878240864262
 10
4.768388491771474
 20
13.79972728054258
 10
4.772134690251505
 20
13.35311973552257
  0
LINE
  5
61
330
2
100
AcDbEntity
  8
GAIKEI
  6
Continuous
 62
     1
100
AcDbLine
 10
8.015375753571561
 20
14.91037992846259
 30
0.0
 11
4.53343778539147
 21
14.91039566305824
 31
0.0
  0
LWPOLYLINE
  5
62
330
2
100
AcDbEntity
  8
GAIKEI
  6
Continuous
 62
     1
100
AcDbPolyline
 90
        4
 70
   128
 43
0.0
 10
4.759088141551501
 20
14.91039464336256
 10
4.750550707511592
 20
15.89353097688263
 10
4.742013296751565
 20
16.88549373384262
 10
4.733475862711543
 20
17.88242267528255
  0
ARC
  5
63
330
2
100
AcDbEntity
  8
GAIKEI
  6
Continuous
 62
     1
100
AcDbCircle
 10
17.83897125881151
 20
17.88134546612264
 30
0.0
 40
12.864813945285
100
AcDbArc
 50
344.6803972059035
 51
15.32955162583652
  0
ARC
  5
64
330
2
100
AcDbEntity
  8
GAIKEI
  6
Continuous
 62
     1
100
AcDbCircle
 10
8.666776109011493
 20
15.42901447708266
 30
0.0
 40
22.35091924425048
100
AcDbArc
 50
18.2494515398
 51
20.84456558709231
  0
LWPOLYLINE
  5
65
330
2
100
AcDbEntity
  8
GAIKEI
  6
Continuous
 62
     1
100
AcDbPolyline
 90
        8
 70
   128
 43
0.0
 10
4.778743401811539
 20
23.3657560692426
 10
4.778417578611538
 20
23.32671241920264
 10
4.777832102671482
 20
23.2545609967026
 10
4.777012468951511
 20
23.1512795583626
 10
4.775958630891523
 20
23.01638828676266
 10
4.774670658331501
 20
22.85010771912255
 10
4.77314850473158
 20
22.65344927172259
 10
4.771392170051512
 20
22.42830017666256
  0
LWPOLYLINE
  5
66
330
2
100
AcDbEntity
  8
GAIKEI
  6
Continuous
 62
     1
100
AcDbPolyline
 90
        3
 70
   128
 43
0.0
 10
30.24841581228378
 20
21.28242286008265
 10
30.05585165851153
 20
21.93707296710261
 10
29.89349158637151
 20
22.42831023496262
  0
LINE
  5
67
330
2
100
AcDbEntity
  8
GAIKEI
  6
Continuous
 62
     1
100
AcDbLine
 10
4.57229728247259
 20
22.42830009694973
 30
0.0
 11
29.89349158637151
 21
22.42831023496262
 31
0.0
  0
LWPOLYLINE
  5
68
330
2
100
AcDbEntity
  8
GAIKEI
  6
Continuous
 62
     1
100
AcDbPolyline
 90
        5
 70
   128
 43
0.0
 10
4.771392170051512
 20
22.42830017666256
 10
4.768499831371514
 20
22.08355287176266
 10
4.765224183611508
 20
21.69298971158264
 10
4.761565226771494
 20
21.25587010842264
 10
4.757522960831465
 20
20.77282792042263
  0
LINE
  5
69
330
2
100
AcDbEntity
  8
GAIKEI
  6
Continuous
 62
     1
100
AcDbLine
 10
4.53343778539147
 20
20.77282671567508
 30
0.0
 11
8.014205639891542
 21
20.77284542930261
 31
0.0
  0
LINE
  5
6A
330
2
100
AcDbEntity
  8
GAIKEI
  6
Continuous
 62
     1
100
AcDbLine
 10
4.73347581615144
 20
17.9824191293826
 30
0.0
 11
4.733126779731492
 21
17.94242267816264
 31
0.0
  0
LWPOLYLINE
  5
6B
330
2
100
AcDbEntity
  8
GAIKEI
  6
Continuous
 62
     1
100
AcDbPolyline
 90
        4
 70
   128
 43
0.0
 10
4.757522960831465
 20
20.77282792042263
 10
4.74950725369149
 20
19.84897790562263
 10
4.741491546571523
 20
18.91777854498264
 10
4.733475816151553
 20
17.9824191293826
  0
LINE
  5
6C
330
2
100
AcDbEntity
  8
GAIKEI
  6
Continuous
 62
     1
100
AcDbLine
 10
8.550273796251531
 20
25.3824229733226
 30
0.0
 11
8.550273796251531
 21
25.32773645680265
 31
0.0
  0
LINE
  5
6D
330
2
100
AcDbEntity
  8
GAIKEI
  6
Continuous
 62
     1
100
AcDbLine
 10
7.933498715691484
 20
23.58226696114264
 30
0.0
 11
7.933498715691484
 21
23.38242264550263
 31
0.0
  0
LWPOLYLINE
  5
6E
330
2
100
AcDbEntity
  8
GAIKEI
  6
Continuous
 62
     1
100
AcDbPolyline
 90
        5
 70
   128
 43
0.0
 10
8.550273796251531
 20
25.32773645680265
 10
8.40378532343152
 20
24.90919785660265
 10
8.252547478011592
 20
24.47708951394259
 10
8.097452094491472
 20
24.03395952742255
 10
7.939414104151524
 20
23.58242267828257
  0
LINE
  5
6F
330
2
100
AcDbEntity
  8
GAIKEI
  6
Continuous
 62
     1
100
AcDbLine
 10
16.0084241830715
 20
23.38242264550263
 30
0.0
 11
16.0084241830715
 21
23.58242267828257
 31
0.0
  0
ARC
  5
70
330
2
100
AcDbEntity
  8
GAIKEI
  6
Continuous
 62
     1
100
AcDbCircle
 10
24.89122323335152
 20
25.30928889732263
 30
0.0
 40
9.049786108789666
100
AcDbArc
 50
179.5369703268426
 51
191.0005522425016
  0
LINE
  5
71
330
2
100
AcDbEntity
  8
GAIKEI
  6
Continuous
 62
     1
100
AcDbLine
 10
4.43349870079146
 20
19.27372705276264
 30
0.0
 11
4.419498700411509
 21
19.27372705276264
 31
0.0
  0
LINE
  5
72
330
2
100
AcDbEntity
  8
GAIKEI
  6
Continuous
 62
     1
100
AcDbLine
 10
4.43349870079146
 20
16.4911182978426
 30
0.0
 11
4.419498700411509
 21
16.4911182978426
 31
0.0
  0
LINE
  5
73
330
2
100
AcDbEntity
  8
GAIKEI
  6
Continuous
 62
     1
100
AcDbLine
 10
30.93349727027146
 20
16.61242269064257
 30
0.0
 11
30.93349727027146
 21
15.1524226562226
 31
0.0
  0
ARC
  5
74
330
2
100
AcDbEntity
  8
GAIKEI
  6
Continuous
100
AcDbCircle
 10
29.54494692667152
 20
12.58241723154265
 30
0.0
 40
0.1999941539293263
100
AcDbArc
 50
269.9993005975001
 51
335.7368121489018
  0
LINE
  5
75
330
2
100
AcDbEntity
  8
GAIKEI
  6
Continuous
100
AcDbLine
 10
29.54494448535149
 20
12.38242270510261
 30
0.0
 11
4.779758706391476
 21
12.38242270510261
 31
0.0
  0
LWPOLYLINE
  5
76
330
2
100
AcDbEntity
  8
GAIKEI
  6
Continuous
100
AcDbPolyline
 90
       10
 70
   128
 43
0.0
 10
4.579768103260306
 20
12.5804751561327
 10
4.579766333740252
 20
12.58067743939262
 10
4.579248227351513
 20
12.64004701834267
 10
4.578609293491581
 20
12.71326126616259
 10
4.577728087731543
 20
12.81423637728255
 10
4.576621932611487
 20
12.94098937970261
 10
4.575306229931584
 20
13.09175411324259
 10
4.573806020611527
 20
13.26366098684264
 10
4.564955483874001
 20
14.27783215517104
 10
4.53343778539147
 20
14.27893260580265
  0
ARC
  5
77
330
2
100
AcDbEntity
  8
GAIKEI
  6
Continuous
100
AcDbCircle
 10
4.779758513551541
 20
12.58242287396263
 30
0.0
 40
0.1999997963186626
100
AcDbArc
 50
180.5000370281991
 51
270.0000552455
  0
LINE
  5
78
330
2
100
AcDbEntity
  8
GAIKEI
  6
Continuous
100
AcDbLine
 10
29.72807379597559
 20
12.50208685260117
 30
0.0
 11
29.7272750937356
 21
12.50023389320114
 31
0.0
  0
ARC
  5
79
330
2
100
AcDbEntity
  8
GAIKEI
  6
Continuous
100
AcDbCircle
 10
10.44349957493328
 20
20.73379307641079
 30
0.0
 40
20.96796997606543
100
AcDbArc
 50
336.8845713651895
 51
341.1641989132966
  0
LWPOLYLINE
  5
7A
330
2
100
AcDbEntity
  8
GAIKEI
  6
Continuous
100
AcDbPolyline
 90
        4
 70
   128
 43
0.0
 10
30.28858693473149
 20
13.96413402718258
 10
30.28946908347155
 20
13.96695109170264
 10
30.2903512322315
 20
13.96976852874263
 10
30.29195161693156
 20
13.9748829798026
  0
LWPOLYLINE
  5
7B
330
2
100
AcDbEntity
  8
GAIKEI
  6
Continuous
100
AcDbPolyline
 90
        3
 70
   128
 43
0.0
 10
30.2919486367116
 20
13.97487701934267
 10
30.36647232407154
 20
14.22037588518264
 10
30.45119945806131
 20
14.48242249052259
  0
LINE
  5
7C
330
2
100
AcDbEntity
  8
GAIKEI
  6
Continuous
 62
     1
100
AcDbLine
 10
8.082873170911511
 20
14.48242249052259
 30
0.0
 11
30.45119945806131
 21
14.48242249052259
 31
0.0
  0
LWPOLYLINE
  5
7D
330
2
100
AcDbEntity
  8
GAIKEI
  6
Continuous
 62
     1
100
AcDbPolyline
 90
        5
 70
   128
 43
0.0
 10
8.082873170911511
 20
14.48242249052259
 10
8.059902285871544
 20
14.48246570390256
 10
8.040428703351494
 20
14.48242249052259
 10
8.027416264351586
 20
14.48237964968257
 10
8.0228460782115
 20
14.48242249052259
  0
LWPOLYLINE
  5
7E
330
2
100
AcDbEntity
  8
GAIKEI
  6
Continuous
 62
     1
100
AcDbPolyline
 90
        4
 70
   128
 43
0.0
 10
8.022933622531581
 20
14.4774004266826
 10
8.020433952731536
 20
14.62061064404258
 10
8.017913793851562
 20
14.76497961294262
 10
8.015375753571561
 20
14.91037992846259
  0
LWPOLYLINE
  5
7F
330
2
100
AcDbEntity
  8
GAIKEI
  6
Continuous
 62
     1
100
AcDbPolyline
 90
        6
 70
   128
 43
0.0
 10
8.086364512971499
 20
14.2824228302826
 10
8.079133351971563
 20
14.28373711270262
 10
8.071195503411559
 20
14.28824732166265
 10
8.060468157471518
 20
14.29985830646262
 10
8.041371946871549
 20
14.34159347872264
 10
8.022933622531581
 20
14.4774004266826
  0
LINE
  5
80
330
2
100
AcDbEntity
  8
GAIKEI
  6
Continuous
 62
     1
100
AcDbLine
 10
30.17839582793147
 20
14.2824228302826
 30
0.0
 11
8.086364512971499
 21
14.2824228302826
 31
0.0
  0
LINE
  5
81
330
2
100
AcDbEntity
  8
GAIKEI
  6
Continuous
 62
     1
100
AcDbLine
 10
4.733498703391433
 20
17.88242267530256
 30
0.0
 11
4.734545998911471
 21
17.94242267816264
 31
0.0
  0
LWPOLYLINE
  5
82
330
2
100
AcDbEntity
  8
GAIKEI
  6
Continuous
 62
     1
100
AcDbPolyline
 90
        7
 70
   128
 43
0.0
 10
8.015375753571561
 20
14.91037992846259
 10
8.002522384451594
 20
15.64675806176262
 10
7.989572902851477
 20
16.38864217412265
 10
7.976555248431509
 20
17.13440794584255
 10
7.963498850991527
 20
17.88242267530256
 10
4.53343778539147
 20
17.88242267530262
 10
4.53343778539147
 20
14.27893260580265
  0
LINE
  5
83
330
2
100
AcDbEntity
  8
GAIKEI
  6
Continuous
 62
     1
100
AcDbLine
 10
10.73666306369148
 20
14.48591383260259
 30
0.0
 11
10.73666306369148
 21
14.48242249052259
 31
0.0
  0
LINE
  5
84
330
2
100
AcDbEntity
  8
GAIKEI
  6
Continuous
100
AcDbLine
 10
29.63000627391148
 20
21.27860481004256
 30
0.0
 11
29.63000627391148
 21
21.28242286008265
 31
0.0
  0
LINE
  5
85
330
2
100
AcDbEntity
  8
GAIKEI
  6
Continuous
 62
     1
100
AcDbLine
 10
10.73698939913152
 20
21.27860481004256
 30
0.0
 11
10.73698939913152
 21
21.28242286008265
 31
0.0
  0
LINE
  5
86
330
2
100
AcDbEntity
  8
GAIKEI
  6
Continuous
 62
     1
100
AcDbLine
 10
10.73452176683145
 20
14.48377253574267
 30
0.0
 11
10.73666306369148
 21
14.48591383260259
 31
0.0
  0
LINE
  5
87
330
2
100
AcDbEntity
  8
GAIKEI
  6
Continuous
100
AcDbLine
 10
29.88567145699153
 20
21.28209354442265
 30
0.0
 11
29.63349910609145
 21
21.28209428948264
 31
0.0
  0
LINE
  5
88
330
2
100
AcDbEntity
  8
GAIKEI
  6
Continuous
100
AcDbLine
 10
29.63349910609145
 20
21.28209503452263
 30
0.0
 11
29.63000627391148
 21
21.27860481004256
 31
0.0
  0
LINE
  5
89
330
2
100
AcDbEntity
  8
GAIKEI
  6
Continuous
 62
     1
100
AcDbLine
 10
10.73698939913152
 20
21.27860481004256
 30
0.0
 11
10.7348168098315
 21
21.28077777188264
 31
0.0
  0
LINE
  5
8A
330
2
100
AcDbEntity
  8
GAIKEI
  6
Continuous
 62
     1
100
AcDbLine
 10
10.7348168098315
 20
21.28077777188264
 30
0.0
 11
8.023071830791536
 21
21.28077777188264
 31
0.0
  0
ARC
  5
8B
330
2
100
AcDbEntity
  8
GAIKEI
  6
Continuous
100
AcDbCircle
 10
18.4769342029715
 20
17.88242267530256
 30
0.0
 40
12.44761140362884
100
AcDbArc
 50
344.1485138656462
 51
15.85148613435718
  0
LINE
  5
8C
330
2
100
AcDbEntity
  8
GAIKEI
  6
Continuous
100
AcDbLine
 10
29.73481806153154
 20
23.25063342314263
 30
0.0
 11
29.72774597041155
 21
23.26602855782267
 31
0.0
  0
ARC
  5
8D
330
2
100
AcDbEntity
  8
GAIKEI
  6
Continuous
100
AcDbCircle
 10
29.5460641564315
 20
23.18242960852263
 30
0.0
 40
0.1999926645125173
100
AcDbArc
 50
24.70901900239899
 51
90.0014508443998
  0
LINE
  5
8E
330
2
100
AcDbEntity
  8
GAIKEI
  6
Continuous
100
AcDbLine
 10
4.778886033871458
 20
23.38242264550263
 30
0.0
 11
29.54605909221152
 21
23.38242264550263
 31
0.0
  0
LWPOLYLINE
  5
8F
330
2
100
AcDbEntity
  8
GAIKEI
  6
Continuous
100
AcDbPolyline
 90
        9
 70
   128
 43
0.0
 10
4.578895407439631
 20
23.18437019449499
 10
4.578893649559631
 20
23.18416791121496
 10
4.578512447599678
 20
23.14048739235494
 10
4.577757645571523
 20
23.05399546486262
 10
4.576892749571584
 20
22.95488895934261
 10
4.575805570171496
 20
22.83030891876263
 10
4.574512975931497
 20
22.68219323914264
 10
4.573037050831544
 20
22.51306915742259
 10
4.571399948731595
 20
22.32547583144265
  0
ARC
  5
90
330
2
100
AcDbEntity
  8
GAIKEI
  6
Continuous
100
AcDbCircle
 10
4.778886013111446
 20
23.18242266710263
 30
0.0
 40
0.1999999783901312
100
AcDbArc
 50
89.99999405729978
 51
179.5000179912021
  0
LWPOLYLINE
  5
91
330
2
100
AcDbEntity
  8
GAIKEI
  6
Continuous
100
AcDbPolyline
 90
        3
 70
   128
 43
0.0
 10
4.778886033871572
 20
23.38242264550263
 10
4.778768896771566
 20
23.36880931716257
 10
4.778743401811539
 20
23.3657560692426
  0
ARC
  5
92
330
2
100
AcDbEntity
  8
GAIKEI
  6
Continuous
100
AcDbCircle
 10
14.41418752621155
 20
16.76650634748262
 30
0.0
 40
16.66287923888926
100
AcDbArc
 50
15.72476811902619
 51
17.83161539740143
  0
ARC
  5
93
330
2
100
AcDbEntity
  8
GAIKEI
  6
Continuous
100
AcDbCircle
 10
11.34776331757104
 20
15.24344938798896
 30
0.0
 40
20.0548941241339
100
AcDbArc
 50
19.2913523175065
 51
23.53213445416483
  0
LINE
  5
94
330
2
100
AcDbEntity
  8
GAIKEI
  6
Continuous
100
AcDbLine
 10
29.73401632603707
 20
23.25246210695917
 30
0.0
 11
29.73481800851714
 21
23.25063336195916
 31
0.0
  0
LWPOLYLINE
  5
95
330
2
100
AcDbEntity
  8
GAIKEI
  6
Continuous
 62
     1
100
AcDbPolyline
 90
        4
 70
   128
 43
0.0
 10
8.014205639891542
 20
20.77284542930261
 10
8.017248829531581
 20
20.94718622130256
 10
8.020266687211574
 20
21.12008588474259
 10
8.023255860131484
 20
21.29132406872259
  0
LWPOLYLINE
  5
96
330
2
100
AcDbEntity
  8
GAIKEI
  6
Continuous
 62
     1
100
AcDbPolyline
 90
        8
 70
   128
 43
0.0
 10
8.023255860131484
 20
21.29132406872259
 10
8.036355470951548
 20
21.40534626406259
 10
8.044758235751487
 20
21.43347593110263
 10
8.058174123691514
 20
21.46155009132258
 10
8.065841516191539
 20
21.47156218152259
 10
8.075920289091527
 20
21.47959055464264
 10
8.082793077171572
 20
21.48206116716267
 10
8.086618950291494
 20
21.48242252032265
  0
LINE
  5
97
330
2
100
AcDbEntity
  8
GAIKEI
  6
Continuous
 62
     1
100
AcDbLine
 10
8.086618950291494
 20
21.48242252032265
 30
0.0
 11
30.18958659999146
 21
21.48242252032265
 31
0.0
  0
LWPOLYLINE
  5
98
330
2
100
AcDbEntity
  8
GAIKEI
  6
Continuous
100
AcDbPolyline
 90
        4
 70
   128
 43
0.0
 10
4.53343778539147
 20
21.48591274480259
 10
4.564082528112933
 20
21.48698264792011
 10
4.567003722011577
 20
21.82171823542262
 10
4.571399948731595
 20
22.32547583144265
  0
LINE
  5
99
330
2
100
AcDbEntity
  8
GAIKEI
  6
Continuous
100
AcDbLine
 10
15.84145592683148
 20
25.38242297332255
 30
0.0
 11
17.25749017827149
 21
25.3824229733226
 31
0.0
  0
LINE
  5
9A
330
2
100
AcDbEntity
  8
GAIKEI
  6
Continuous
100
AcDbLine
 10
8.550273796251531
 20
25.3824229733226
 30
0.0
 11
15.84145592683148
 21
25.3824229733226
 31
0.0
  0
ARC
  5
9B
330
2
100
AcDbEntity
  8
GAIKEI
  6
Continuous
100
AcDbCircle
 10
8.101905411431516
 20
25.28242267530266
 30
0.0
 40
0.1
100
AcDbArc
 50
90.0
 51
158.7494944929011
  0
LINE
  5
9C
330
2
100
AcDbEntity
  8
GAIKEI
  6
Continuous
100
AcDbLine
 10
8.101905306511525
 20
25.3824229733226
 30
0.0
 11
8.550273796251531
 21
25.3824229733226
 31
0.0
  0
LWPOLYLINE
  5
9D
330
2
100
AcDbEntity
  8
GAIKEI
  6
Continuous
100
AcDbPolyline
 90
        3
 70
   128
 43
0.0
 10
7.333498617351551
 20
23.58242267828257
 10
7.333640737171549
 20
23.58278812926267
 10
7.334067096651551
 20
23.58388410966256
  0
LINE
  5
9E
330
2
100
AcDbEntity
  8
GAIKEI
  6
Continuous
100
AcDbLine
 10
7.333498617351551
 20
23.38242264550263
 30
0.0
 11
7.333498617351551
 21
23.58242267828257
 31
0.0
  0
LWPOLYLINE
  5
9F
330
2
100
AcDbEntity
  8
GAIKEI
  6
Continuous
100
AcDbPolyline
 90
        6
 70
   128
 43
0.0
 10
7.334067096651551
 20
23.58388410966256
 10
7.474246790331562
 20
23.94434617918262
 10
7.612428983391509
 20
24.29967181842255
 10
7.747978886291548
 20
24.64822860520258
 10
7.880273258031593
 20
24.98841466468264
 10
8.008704876231604
 20
25.31866761010258
  0
LINE
  5
A0
330
2
100
AcDbEntity
  8
GAIKEI
  6
Continuous
 62
     1
100
AcDbLine
 10
7.939414104151524
 20
23.58242267828257
 30
0.0
 11
7.933498715691484
 21
23.58226696114264
 31
0.0
  0
LINE
  5
A1
330
2
100
AcDbEntity
  8
GAIKEI
  6
Continuous
 62
     1
100
AcDbLine
 10
16.00772382849152
 20
23.58242267828257
 30
0.0
 11
7.333498617351551
 21
23.58242267828257
 31
0.0
  0
LINE
  5
A2
330
2
100
AcDbEntity
  8
GAIKEI
  6
Continuous
 62
     1
100
AcDbLine
 10
16.0084241830715
 20
23.58242267828257
 30
0.0
 11
16.00772382849152
 21
23.58242267828257
 31
0.0
  0
ARC
  5
A3
330
2
100
AcDbEntity
  8
GAIKEI
  6
Continuous
 62
     1
100
AcDbCircle
 10
16.33026297101151
 20
10.22728408522266
 30
0.0
 40
13.35901408389361
100
AcDbArc
 50
83.53905254612724
 51
91.38047526170131
  0
LINE
  5
A4
330
2
100
AcDbEntity
  8
GAIKEI
  6
Continuous
 62
     1
100
AcDbLine
 10
4.419498700411509
 20
21.88242258590264
 30
0.0
 11
4.419498700411509
 21
19.27372705276264
 31
0.0
  0
LINE
  5
A5
330
2
100
AcDbEntity
  8
GAIKEI
  6
Continuous
 62
     1
100
AcDbLine
 10
4.419498700411509
 20
16.4911182978426
 30
0.0
 11
4.419498700411509
 21
13.88242276470259
 31
0.0
  0
LINE
  5
A6
330
2
100
AcDbEntity
  8
GAIKEI
  6
Continuous
 62
     1
100
AcDbLine
 10
4.43349870079146
 20
21.88242258590264
 30
0.0
 11
4.43349870079146
 21
19.27372705276264
 31
0.0
  0
LINE
  5
A7
330
2
100
AcDbEntity
  8
GAIKEI
  6
Continuous
 62
     1
100
AcDbLine
 10
4.43349870079146
 20
16.4911182978426
 30
0.0
 11
4.43349870079146
 21
13.88242276470259
 31
0.0
  0
LINE
  5
A8
330
2
100
AcDbEntity
  8
GAIKEI
  6
Continuous
 62
     1
100
AcDbLine
 10
4.419498700411509
 20
19.27372705276264
 30
0.0
 11
4.419498700411509
 21
18.88242265294264
 31
0.0
  0
LINE
  5
A9
330
2
100
AcDbEntity
  8
GAIKEI
  6
Continuous
 62
     1
100
AcDbLine
 10
4.43349870079146
 20
19.27372705276264
 30
0.0
 11
4.43349870079146
 21
18.88242265294264
 31
0.0
  0
LINE
  5
AA
330
2
100
AcDbEntity
  8
GAIKEI
  6
Continuous
 62
     1
100
AcDbLine
 10
4.419498700411509
 20
16.8824226976626
 30
0.0
 11
4.419498700411509
 21
16.4911182978426
 31
0.0
  0
LINE
  5
AB
330
2
100
AcDbEntity
  8
GAIKEI
  6
Continuous
 62
     1
100
AcDbLine
 10
4.43349870079146
 20
16.8824226976626
 30
0.0
 11
4.43349870079146
 21
16.4911182978426
 31
0.0
  0
LINE
  5
AC
330
2
100
AcDbEntity
  8
GAIKEI
  6
Continuous
 62
     1
100
AcDbLine
 10
4.419498700411509
 20
16.8824226976626
 30
0.0
 11
4.419498700411509
 21
18.88242265294264
 31
0.0
  0
LINE
  5
AD
330
2
100
AcDbEntity
  8
GAIKEI
  6
Continuous
 62
     1
100
AcDbLine
 10
4.447498701171525
 20
16.8824226976626
 30
0.0
 11
4.419498700411509
 21
16.8824226976626
 31
0.0
  0
LINE
  5
AE
330
2
100
AcDbEntity
  8
GAIKEI
  6
Continuous
 62
     1
100
AcDbLine
 10
4.447498701171525
 20
18.88242265294264
 30
0.0
 11
4.447498701171525
 21
16.8824226976626
 31
0.0
  0
LINE
  5
AF
330
2
100
AcDbEntity
  8
GAIKEI
  6
Continuous
 62
     1
100
AcDbLine
 10
4.447498701171525
 20
18.88242265294264
 30
0.0
 11
4.419498700411509
 21
18.88242265294264
 31
0.0
  0
LINE
  5
B0
330
2
100
AcDbEntity
  8
GAIKEI
  6
Continuous
100
AcDbLine
 10
4.43349870079146
 20
14.38242266040265
 30
0.0
 11
4.53343778539147
 21
14.27893260580265
 31
0.0
  0
LINE
  5
B1
330
2
100
AcDbEntity
  8
GAIKEI
  6
Continuous
100
AcDbLine
 10
4.53343778539147
 20
21.48591274480259
 30
0.0
 11
4.43349870079146
 21
21.38242269020259
 31
0.0
  0
LINE
  5
B2
330
2
100
AcDbEntity
  8
GAIKEI
  6
Continuous
 62
     1
100
AcDbLine
 10
30.59697540633147
 20
15.05242263984257
 30
0.0
 11
30.83349855773156
 21
15.05242263984257
 31
0.0
  0
LINE
  5
B3
330
2
100
AcDbEntity
  8
GAIKEI
  6
Continuous
 62
     1
100
AcDbLine
 10
30.93349727027146
 20
16.61242269064257
 30
0.0
 11
30.86266609065149
 21
16.6832556397826
 31
0.0
  0
LINE
  5
B4
330
2
100
AcDbEntity
  8
GAIKEI
  6
Continuous
 62
     1
100
AcDbLine
 10
30.83349855773156
 20
15.05242263984257
 30
0.0
 11
30.93349727027146
 21
15.1524226562226
 31
0.0
  0
ARC
  5
B5
330
2
100
AcDbEntity
  8
GAIKEI
  6
Continuous
100
AcDbCircle
 10
17.25749013583152
 20
25.28242267530266
 30
0.0
 40
0.100000000000005
100
AcDbArc
 50
15.5241109967025
 51
90.0
  0
LINE
  5
B6
330
2
100
AcDbEntity
  8
GAIKEI
  6
Continuous
100
AcDbLine
 10
17.83349903457156
 20
23.38242264550263
 30
0.0
 11
17.83349903457156
 21
23.58242267828257
 31
0.0
  0
LINE
  5
B7
330
2
100
AcDbEntity
  8
GAIKEI
  6
Continuous
100
AcDbLine
 10
17.83349903457156
 20
23.58242267828257
 30
0.0
 11
17.35384257667147
 21
25.30918674628265
 31
0.0
  0
LINE
  5
B8
330
2
100
AcDbEntity
  8
GAIKEI
  6
Continuous
 62
     1
100
AcDbLine
 10
4.43349870079146
 20
21.88242258590264
 30
0.0
 11
4.419498700411509
 21
21.88242258590264
 31
0.0
  0
LINE
  5
B9
330
2
100
AcDbEntity
  8
GAIKEI
  6
Continuous
 62
     1
100
AcDbLine
 10
4.419498700411509
 20
13.88242276470259
 30
0.0
 11
4.43349870079146
 21
13.88242276470259
 31
0.0
  0
LWPOLYLINE
  5
BA
330
2
100
AcDbEntity
  8
GAIKEI
  6
Continuous
 62
     1
100
AcDbPolyline
 90
        3
 70
   128
 43
0.0
 10
-33.80367132248993
 20
20.91736853360402
 10
-33.51748283072302
 20
20.77153431338263
 10
-33.42473803152631
 20
20.70186831124488
  0
LWPOLYLINE
  5
BB
330
2
100
AcDbEntity
  8
GAIKEI
  6
Continuous
 62
     1
100
AcDbPolyline
 90
        3
 70
   128
 43
0.0
 10
-33.72088545269683
 20
17.91897637319937
 10
-33.76263375446299
 20
17.89462670740261
 10
-34.14776714778505
 20
17.75553600554031
  0
ARC
  5
BC
330
2
100
AcDbEntity
  8
GAIKEI
  6
Continuous
 62
     1
100
AcDbCircle
 10
-34.43518438828159
 20
18.10178971758546
 30
0.0
 40
0.7373219705550337
100
AcDbArc
 50
310.8831255609537
 51
7.844464537386107
  0
LINE
  5
BD
330
2
100
AcDbEntity
  8
GAIKEI
  6
Continuous
 62
     1
100
AcDbLine
 10
-34.14266513469369
 20
17.48971281199505
 30
0.0
 11
-33.95259375736296
 21
17.54434021740258
 31
0.0
  0
LINE
  5
BE
330
2
100
AcDbEntity
  8
GAIKEI
  6
Continuous
 62
     1
100
AcDbLine
 10
-33.43699867888304
 20
20.60242271136258
 30
0.0
 11
-33.44832877680304
 21
20.53558243524264
 31
0.0
  0
LWPOLYLINE
  5
BF
330
2
100
AcDbEntity
  8
GAIKEI
  6
Continuous
 62
     1
100
AcDbPolyline
 90
        3
 70
   128
 43
0.0
 10
-33.44832877680303
 20
20.53558243524264
 10
-33.62680072948299
 20
19.37452213924257
 10
-33.70476211472296
 20
18.20242266722255
  0
LINE
  5
C0
330
2
100
AcDbEntity
  8
GAIKEI
  6
Continuous
 62
     1
100
AcDbLine
 10
-33.48457957668305
 20
18.20242266722266
 30
0.0
 11
-33.70476211472297
 21
18.20242266722266
 31
0.0
  0
ARC
  5
C1
330
2
100
AcDbEntity
  8
GAIKEI
  6
Continuous
 62
     1
100
AcDbCircle
 10
-34.14248573088301
 20
20.73988081286257
 30
0.0
 40
0.7187535810074701
100
AcDbArc
 50
348.9745441900989
 51
19.84204169160136
  0
LINE
  5
C2
330
2
100
AcDbEntity
  8
GAIKEI
  6
Continuous
 62
     1
100
AcDbLine
 10
-33.22593207845998
 20
20.60242271136258
 30
0.0
 11
-33.43699867888304
 21
20.60242271136258
 31
0.0
  0
LINE
  5
C3
330
2
100
AcDbEntity
  8
GAIKEI
  6
Continuous
 62
     1
100
AcDbLine
 10
-33.715121401983
 20
21.16705061954258
 30
0.0
 11
-33.57509221002298
 21
21.10365251164262
 31
0.0
  0
LWPOLYLINE
  5
C4
330
2
100
AcDbEntity
  8
GAIKEI
  6
Continuous
 62
     1
100
AcDbPolyline
 90
        3
 70
   128
 43
0.0
 10
-33.46640314026299
 20
20.98384605806257
 10
-33.51863171024299
 20
21.06198290448265
 10
-33.57509295508296
 20
21.10365288418257
  0
LWPOLYLINE
  5
C5
330
2
100
AcDbEntity
  8
GAIKEI
  6
Continuous
 62
     1
100
AcDbPolyline
 90
        5
 70
   128
 43
0.0
 10
-33.14757348401401
 20
20.98385533249729
 10
-33.15000007912297
 20
20.98385499876258
 10
-33.21448559924297
 20
20.98385201852261
 10
-33.32065935298297
 20
20.98384903830265
 10
-33.46640314026299
 20
20.98384605806257
  0
LINE
  5
C6
330
2
100
AcDbEntity
  8
GAIKEI
  6
Continuous
 62
     1
100
AcDbLine
 10
-33.12833081050306
 20
14.78098737162258
 30
0.0
 11
-33.78833076310316
 21
14.78098737162258
 31
0.0
  0
ARC
  5
C7
330
2
100
AcDbEntity
  8
GAIKEI
  6
Continuous
 62
     1
100
AcDbCircle
 10
-17.518892311703
 20
18.15678082500267
 30
0.0
 40
15.77185598840754
100
AcDbArc
 50
180.9967347510983
 51
191.7340331549
  0
ARC
  5
C8
330
2
100
AcDbEntity
  8
GAIKEI
  6
Continuous
 62
     1
100
AcDbCircle
 10
-28.26280475268303
 20
15.92407127872263
 30
0.0
 40
4.798404267425146
100
AcDbArc
 50
191.7212203637985
 51
210.9780284082025
  0
ARC
  5
C9
330
2
100
AcDbEntity
  8
GAIKEI
  6
Continuous
 62
     1
100
AcDbCircle
 10
-30.83347476314296
 20
14.38068408208266
 30
0.0
 40
1.800006642701314
100
AcDbArc
 50
210.9749115543975
 51
269.9998779195009
  0
LINE
  5
CA
330
2
100
AcDbEntity
  8
GAIKEI
  6
Continuous
 62
     1
100
AcDbLine
 10
-22.00284540956304
 20
12.58067743938261
 30
0.0
 11
-30.83347859844301
 21
12.58067743938261
 31
0.0
  0
ARC
  5
CB
330
2
100
AcDbEntity
  8
GAIKEI
  6
Continuous
 62
     1
100
AcDbCircle
 10
-22.00284985612299
 20
14.38068516196267
 30
0.0
 40
1.800007722578287
100
AcDbArc
 50
270.0001415379003
 51
329.0250689882004
  0
ARC
  5
CC
330
2
100
AcDbEntity
  8
GAIKEI
  6
Continuous
 62
     1
100
AcDbCircle
 10
-24.573511306163
 20
15.92406817152266
 30
0.0
 40
4.798395852798002
100
AcDbArc
 50
329.0219545463004
 51
348.2787966815994
  0
ARC
  5
CD
330
2
100
AcDbEntity
  8
GAIKEI
  6
Continuous
 62
     1
100
AcDbCircle
 10
-35.317438850103
 20
18.15678162306267
 30
0.0
 40
15.77186315500486
100
AcDbArc
 50
348.2659692918021
 51
359.0032628021981
  0
LINE
  5
CE
330
2
100
AcDbEntity
  8
GAIKEI
  6
Continuous
 62
     1
100
AcDbLine
 10
-19.17540152200253
 20
18.62607888867154
 30
0.0
 11
-19.37805466658299
 21
18.62607602116259
 31
0.0
  0
LINE
  5
CF
330
2
100
AcDbEntity
  8
GAIKEI
  6
Continuous
 62
     1
100
AcDbLine
 10
-19.38416861302298
 20
17.13876942258264
 30
0.0
 11
-19.17900322081948
 21
17.13876650454722
 31
0.0
  0
ARC
  5
D0
330
2
100
AcDbEntity
  8
GAIKEI
  6
Continuous
 62
     1
100
AcDbCircle
 10
-16.94968858984303
 20
16.70050729962258
 30
0.0
 40
6.629642591359654
100
AcDbArc
 50
120.2350335080015
 51
121.955730781902
  0
LINE
  5
D1
330
2
100
AcDbEntity
  8
GAIKEI
  6
Continuous
 62
     1
100
AcDbLine
 10
-33.28905995054302
 20
17.94242267816264
 30
0.0
 11
-33.28839237852302
 21
17.98067749796257
 31
0.0
  0
ARC
  5
D2
330
2
100
AcDbEntity
  8
GAIKEI
  6
Continuous
 62
     1
100
AcDbCircle
 10
-24.54810748526299
 20
19.81600610458258
 30
0.0
 40
4.798142701802314
100
AcDbArc
 50
11.05699699500044
 51
31.53427729180029
  0
ARC
  5
D3
330
2
100
AcDbEntity
  8
GAIKEI
  6
Continuous
 62
     1
100
AcDbCircle
 10
-21.99277786948298
 20
21.38416133660257
 30
0.0
 40
1.800006574621295
100
AcDbArc
 50
31.53037996660066
 51
89.99987960820059
  0
LINE
  5
D4
330
2
100
AcDbEntity
  8
GAIKEI
  6
Continuous
 62
     1
100
AcDbLine
 10
-30.84354992076297
 20
23.18416791122263
 30
0.0
 11
-21.99277408724297
 21
23.18416791122263
 31
0.0
  0
ARC
  5
D5
330
2
100
AcDbEntity
  8
GAIKEI
  6
Continuous
 62
     1
100
AcDbCircle
 10
-30.84354613852295
 20
21.38416133660257
 30
0.0
 40
1.800006574621295
100
AcDbArc
 50
90.0001203917994
 51
148.4696200333993
  0
ARC
  5
D6
330
2
100
AcDbEntity
  8
GAIKEI
  6
Continuous
 62
     1
100
AcDbCircle
 10
-28.28817894016302
 20
19.81599145504265
 30
0.0
 40
4.79818239630159
100
AcDbArc
 50
148.4658083238014
 51
168.9429173893019
  0
LINE
  5
D7
330
2
100
AcDbEntity
  8
GAIKEI
  6
Continuous
 62
     1
100
AcDbLine
 10
-19.54793162948304
 20
17.98067749796257
 30
0.0
 11
-19.54726405746303
 21
17.94242267816264
 31
0.0
  0
ARC
  5
D8
330
2
100
AcDbEntity
  8
GAIKEI
  6
Continuous
 62
     1
100
AcDbCircle
 10
-35.32137506036301
 20
17.70748328988259
 30
0.0
 40
15.775809099466
100
AcDbArc
 50
0.9922570353993293
 51
11.06871535960212
  0
ARC
  5
D9
330
2
100
AcDbEntity
  8
GAIKEI
  6
Continuous
 62
     1
100
AcDbCircle
 10
-17.514988586143
 20
17.70748747738264
 30
0.0
 40
15.77576939438564
100
AcDbArc
 50
168.9312719272006
 51
179.0077556778022
  0
ARC
  5
DA
330
2
100
AcDbEntity
  8
GAIKEI
  6
Continuous
 62
     1
100
AcDbCircle
 10
-34.16439640380307
 20
15.02570930200261
 30
0.0
 40
5.828556275150274
100
AcDbArc
 50
78.4490432345018
 51
80.41195777829996
  0
LINE
  5
DB
330
2
100
AcDbEntity
  8
GAIKEI
  6
Continuous
100
AcDbLine
 10
-25.74894619818304
 20
25.3824229733226
 30
0.0
 11
-25.74894619818304
 21
25.31866761010258
 31
0.0
  0
LINE
  5
DC
330
2
100
AcDbEntity
  8
GAIKEI
  6
Continuous
100
AcDbLine
 10
-27.08737780982301
 20
25.31866761010258
 30
0.0
 11
-27.08737780982301
 21
25.3824229733226
 31
0.0
  0
LINE
  5
DD
330
2
100
AcDbEntity
  8
GAIKEI
  6
Continuous
100
AcDbLine
 10
-29.18812917258299
 20
25.3824229733226
 30
0.0
 11
-29.18812917258299
 21
25.31866761010258
 31
0.0
  0
LINE
  5
DE
330
2
100
AcDbEntity
  8
GAIKEI
  6
Continuous
100
AcDbLine
 10
-23.64819483544295
 20
25.3824229733226
 30
0.0
 11
-23.64819483544295
 21
25.31866761010258
 31
0.0
  0
LINE
  5
DF
330
2
100
AcDbEntity
  8
GAIKEI
  6
Continuous
 62
     1
100
AcDbLine
 10
-25.74894619818304
 20
25.31866761010258
 30
0.0
 11
-25.76646218720305
 21
24.31517647664259
 31
0.0
  0
ARC
  5
E0
330
2
100
AcDbEntity
  8
GAIKEI
  6
Continuous
 62
     1
100
AcDbCircle
 10
-25.96643173032305
 20
24.31866730142258
 30
0.0
 40
0.2000000000000028
100
AcDbArc
 50
270.0
 51
358.9999999999982
  0
LINE
  5
E1
330
2
100
AcDbEntity
  8
GAIKEI
  6
Continuous
 62
     1
100
AcDbLine
 10
-25.96643171916298
 20
24.11866741340259
 30
0.0
 11
-26.86989228884295
 21
24.11866741340259
 31
0.0
  0
ARC
  5
E2
330
2
100
AcDbEntity
  8
GAIKEI
  6
Continuous
 62
     1
100
AcDbCircle
 10
-26.86989227768299
 20
24.31866730142258
 30
0.0
 40
0.2000000000000028
100
AcDbArc
 50
180.9999999999985
 51
270.0
  0
LINE
  5
E3
330
2
100
AcDbEntity
  8
GAIKEI
  6
Continuous
 62
     1
100
AcDbLine
 10
-27.069861820803
 20
24.31517647664259
 30
0.0
 11
-27.08737780982301
 21
25.31866761010258
 31
0.0
  0
ARC
  5
E4
330
2
100
AcDbEntity
  8
GAIKEI
  6
Continuous
 62
     1
100
AcDbCircle
 10
-28.43866020256303
 20
22.82639103248266
 30
0.0
 40
5.399999999999998
100
AcDbArc
 50
8.063845705800066
 51
27.48605041440077
  0
LINE
  5
E5
330
2
100
AcDbEntity
  8
GAIKEI
  6
Continuous
 62
     1
100
AcDbLine
 10
-23.118162021883
 20
23.38242264550263
 30
0.0
 11
-23.118162021883
 21
23.58242267828257
 31
0.0
  0
LINE
  5
E6
330
2
100
AcDbEntity
  8
GAIKEI
  6
Continuous
 62
     1
100
AcDbLine
 10
-29.71816198612305
 20
23.58242267828257
 30
0.0
 11
-29.71816198612305
 21
23.38242264550263
 31
0.0
  0
ARC
  5
E7
330
2
100
AcDbEntity
  8
GAIKEI
  6
Continuous
 62
     1
100
AcDbCircle
 10
-24.39766380544302
 20
22.82639103248266
 30
0.0
 40
5.400000000000002
100
AcDbArc
 50
152.5139495855992
 51
171.9361542941999
  0
LINE
  5
E8
330
2
100
AcDbEntity
  8
GAIKEI
  6
Continuous
100
AcDbLine
 10
-34.13025359674296
 20
17.18242265370259
 30
0.0
 11
-34.13025359674296
 21
17.08309523846265
 31
0.0
  0
LINE
  5
E9
330
2
100
AcDbEntity
  8
GAIKEI
  6
Continuous
100
AcDbLine
 10
-34.08580268784297
 20
19.1824227021226
 30
0.0
 11
-34.08580268784297
 21
19.28175002422256
 31
0.0
  0
LINE
  5
EA
330
2
100
AcDbEntity
  8
GAIKEI
  6
Continuous
100
AcDbLine
 10
-33.81502847238304
 20
20.86814394306259
 30
0.0
 11
-33.78833080692303
 21
20.98385797898266
 31
0.0
  0
ARC
  5
EB
330
2
100
AcDbEntity
  8
GAIKEI
  6
Continuous
100
AcDbCircle
 10
-20.60991811598299
 20
17.88242267530256
 30
0.0
 40
13.53844388802356
100
AcDbArc
 50
179.2643583938002
 51
182.9033973450004
  0
LWPOLYLINE
  5
EC
330
2
100
AcDbEntity
  8
GAIKEI
  6
Continuous
100
AcDbPolyline
 90
        3
 70
   128
 43
0.0
 10
-33.73656342788299
 20
21.18499422532261
 10
-33.76004765792302
 20
21.09800124626258
 10
-33.78833080692291
 20
20.98385797898266
  0
ARC
  5
ED
330
2
100
AcDbEntity
  8
GAIKEI
  6
Continuous
100
AcDbCircle
 10
-20.60986656256298
 20
17.88241871756258
 30
0.0
 40
13.53849525582642
100
AcDbArc
 50
167.128015163601
 51
180.4196726625
  0
LINE
  5
EE
330
2
100
AcDbEntity
  8
GAIKEI
  6
Continuous
100
AcDbLine
 10
-33.78833080692303
 20
20.98385797898266
 30
0.0
 11
-33.80814264580298
 21
20.89843632738257
 31
0.0
  0
ARC
  5
EF
330
2
100
AcDbEntity
  8
GAIKEI
  6
Continuous
100
AcDbCircle
 10
-20.60459960770302
 20
17.88250444710263
 30
0.0
 40
13.54376269741478
100
AcDbArc
 50
180.4198721219992
 51
181.5417901563007
  0
LWPOLYLINE
  5
F0
330
2
100
AcDbEntity
  8
GAIKEI
  6
Continuous
100
AcDbPolyline
 90
        3
 70
   128
 43
0.0
 10
-33.739534719423
 20
21.17432387632255
 10
-33.62765307590294
 20
21.52669759552259
 10
-33.49004010720298
 20
21.86984116296264
  0
LWPOLYLINE
  5
F1
330
2
100
AcDbEntity
  8
GAIKEI
  6
Continuous
100
AcDbPolyline
 90
        3
 70
   128
 43
0.0
 10
-33.41965149208297
 20
13.74356107872256
 10
-33.63327081366301
 20
14.25389194946262
 10
-33.78687943382297
 20
14.77483766238265
  0
ARC
  5
F2
330
2
100
AcDbEntity
  8
GAIKEI
  6
Continuous
100
AcDbCircle
 10
-20.60996126118303
 20
17.88241756672266
 30
0.0
 40
13.53840064351093
100
AcDbArc
 50
181.636730454501
 51
193.2431448147992
  0
ARC
  5
F3
330
2
100
AcDbEntity
  8
GAIKEI
  6
Continuous
100
AcDbCircle
 10
-33.10774569328297
 20
13.90141931196263
 30
0.0
 40
0.3495775294887164
100
AcDbArc
 50
206.8443678886997
 51
268.0407855365006
  0
ARC
  5
F4
330
2
100
AcDbEntity
  8
GAIKEI
  6
Continuous
100
AcDbCircle
 10
-33.17936554234305
 20
21.7317054854426
 30
0.0
 40
0.3400002215615558
100
AcDbArc
 50
91.00001272020065
 51
156.0285651078993
  0
LWPOLYLINE
  5
F5
330
2
100
AcDbEntity
  8
GAIKEI
  6
Continuous
100
AcDbPolyline
 90
        4
 70
   128
 43
0.0
 10
-33.18529943986302
 20
22.07165392202262
 10
-32.97087024018301
 20
22.07539672118264
 10
-32.81347970530296
 20
22.07814412276264
 10
-32.74360992740958
 20
22.07936370911574
  0
LWPOLYLINE
  5
F6
330
2
100
AcDbEntity
  8
GAIKEI
  6
Continuous
100
AcDbPolyline
 90
        5
 70
   128
 43
0.0
 10
-32.66612659260297
 20
13.54412915270257
 10
-32.73940528794301
 20
13.54540841740265
 10
-32.90048013492301
 20
13.5482198939826
 10
-33.11215187474297
 20
13.55191463690255
 10
-33.11969707772302
 20
13.55204613964258
  0
LWPOLYLINE
  5
F7
330
2
100
AcDbEntity
  8
GAIKEI
  6
Continuous
100
AcDbPolyline
 90
        3
 70
   128
 43
0.0
 10
-33.1545727718088
 20
14.91083087986192
 10
-33.29843427106291
 20
15.62264816920265
 10
-33.416198147983
 20
16.48644277912262
  0
LWPOLYLINE
  5
F8
330
2
100
AcDbEntity
  8
GAIKEI
  6
Continuous
100
AcDbPolyline
 90
        3
 70
   128
 43
0.0
 10
-33.416198147983
 20
16.48644277912262
 10
-33.48033721610298
 20
17.41635961544261
 10
-33.48906035586301
 20
17.94242267816264
  0
LINE
  5
F9
330
2
100
AcDbEntity
  8
GAIKEI
  6
Continuous
100
AcDbLine
 10
-22.00285584038303
 20
12.38242270510261
 30
0.0
 11
-30.83346928520305
 21
12.38242270510261
 31
0.0
  0
LWPOLYLINE
  5
FA
330
2
100
AcDbEntity
  8
GAIKEI
  6
Continuous
 62
     1
100
AcDbPolyline
 90
        7
 70
   128
 43
0.0
 10
-22.00284540956293
 20
12.58067743938261
 10
-22.00284764474302
 20
12.50758649866259
 10
-22.00284876232295
 20
12.47209603052261
 10
-22.00285025244293
 20
12.44043627840256
 10
-22.00285137004298
 20
12.41472171704265
 10
-22.00285286014296
 20
12.39634374242257
 10
-22.00285509532294
 20
12.38242307764255
  0
ARC
  5
FB
330
2
100
AcDbEntity
  8
GAIKEI
  6
Continuous
100
AcDbCircle
 10
-22.00284539496303
 20
14.38242245024264
 30
0.0
 40
1.999999745166496
100
AcDbArc
 50
269.9997221048985
 51
329.0258415431002
  0
ARC
  5
FC
330
2
100
AcDbEntity
  8
GAIKEI
  6
Continuous
 62
     7
100
AcDbCircle
 10
-30.83347864010298
 20
14.38242266556267
 30
0.0
 40
1.999999960469286
100
AcDbArc
 50
210.9741495014027
 51
270.0002679976012
  0
LWPOLYLINE
  5
FD
330
2
100
AcDbEntity
  8
GAIKEI
  6
Continuous
 62
     1
100
AcDbPolyline
 90
        5
 70
   128
 43
0.0
 10
-30.833478598443
 20
12.58067743938261
 10
-30.83347636326291
 20
12.50467816454261
 10
-30.833473755563
 20
12.44038561444256
 10
-30.83347152038302
 20
12.39748032848263
 10
-30.83346928520293
 20
12.38242270510261
  0
ARC
  5
FE
330
2
100
AcDbEntity
  8
GAIKEI
  6
Continuous
 62
     1
100
AcDbCircle
 10
-17.023080158983
 20
19.08349472788257
 30
0.0
 40
6.595240967811218
100
AcDbArc
 50
238.5972275976971
 51
240.327028528099
  0
ARC
  5
FF
330
2
100
AcDbEntity
  8
GAIKEI
  6
Continuous
100
AcDbCircle
 10
-24.57503195670299
 20
15.92640805446263
 30
0.0
 40
5.000005620822746
100
AcDbArc
 50
329.0254631592972
 51
343.2140645064079
  0
ARC
  5
100
330
2
100
AcDbEntity
  8
GAIKEI
  6
Continuous
100
AcDbCircle
 10
-28.26129228022299
 20
15.92640743350262
 30
0.0
 40
5.000005232651543
100
AcDbArc
 50
191.7242840789998
 51
210.9745262327993
  0
ARC
  5
101
330
2
100
AcDbEntity
  8
GAIKEI
  6
Continuous
 62
     1
100
AcDbCircle
 10
-35.81313722344297
 20
19.08333508712258
 30
0.0
 40
6.595049152986168
100
AcDbArc
 50
299.6728548061007
 51
301.402704406401
  0
LINE
  5
102
330
2
100
AcDbEntity
  8
GAIKEI
  6
Continuous
 62
     1
100
AcDbLine
 10
-19.34796177154303
 20
17.88242267530256
 30
0.0
 11
-19.54796217686303
 21
17.88242267530256
 31
0.0
  0
ARC
  5
103
330
2
100
AcDbEntity
  8
GAIKEI
  6
Continuous
 62
     1
100
AcDbCircle
 10
-35.34555804160297
 20
18.16166529050258
 30
0.0
 40
16.00003321427096
100
AcDbArc
 50
348.2756172914025
 51
358.9999873481001
  0
ARC
  5
104
330
2
100
AcDbEntity
  8
GAIKEI
  6
Continuous
 62
     1
100
AcDbCircle
 10
-18.64481304950298
 20
20.63356696748258
 30
0.0
 40
5.815922379251644
100
AcDbArc
 50
257.7867819744984
 51
259.7537658625023
  0
LINE
  5
105
330
2
100
AcDbEntity
  8
GAIKEI
  6
Continuous
 62
     1
100
AcDbLine
 10
-33.28836183114302
 20
17.88242267530256
 30
0.0
 11
-33.48836223646302
 21
17.88242267530256
 31
0.0
  0
ARC
  5
106
330
2
100
AcDbEntity
  8
GAIKEI
  6
Continuous
 62
     1
100
AcDbCircle
 10
-34.19098011242298
 20
20.63094808994265
 30
0.0
 40
5.813250473938024
100
AcDbArc
 50
280.2456775542985
 51
282.2135648875999
  0
LINE
  5
107
330
2
100
AcDbEntity
  8
GAIKEI
  6
Continuous
 62
     1
100
AcDbLine
 10
-19.54796217686303
 20
17.88242267530256
 30
0.0
 11
-20.44796213812296
 21
17.88242267530256
 31
0.0
  0
LINE
  5
108
330
2
100
AcDbEntity
  8
GAIKEI
  6
Continuous
 62
     1
100
AcDbLine
 10
-30.41816191460305
 20
17.88242267530256
 30
0.0
 11
-33.28836183114302
 21
17.88242267530256
 31
0.0
  0
ARC
  5
109
330
2
100
AcDbEntity
  8
GAIKEI
  6
Continuous
100
AcDbCircle
 10
-28.61913082010298
 20
17.90529003532265
 30
0.0
 40
9.471196314453255
100
AcDbArc
 50
359.8616643085992
 51
20.88960281951065
  0
ARC
  5
10A
330
2
100
AcDbEntity
  8
GAIKEI
  6
Continuous
100
AcDbCircle
 10
-28.61911390714303
 20
17.90528409356261
 30
0.0
 40
9.471179387188806
100
AcDbArc
 50
338.8139469107407
 51
359.8617000060976
  0
LINE
  5
10B
330
2
100
AcDbEntity
  8
GAIKEI
  6
Continuous
100
AcDbLine
 10
-30.84354023500296
 20
23.38242264550263
 30
0.0
 11
-21.99278489058301
 21
23.38242264550263
 31
0.0
  0
LWPOLYLINE
  5
10C
330
2
100
AcDbEntity
  8
GAIKEI
  6
Continuous
 62
     1
100
AcDbPolyline
 90
        7
 70
   128
 43
0.0
 10
-30.84354992076296
 20
23.18416828374257
 10
-30.84354768558299
 20
23.25725959700264
 10
-30.84354656800294
 20
23.29275006514263
 10
-30.84354507788296
 20
23.32440981726256
 10
-30.84354396030292
 20
23.35012437862258
 10
-30.84354284270298
 20
23.36850198072261
 10
-30.84354023500296
 20
23.38242227296257
  0
ARC
  5
10D
330
2
100
AcDbEntity
  8
GAIKEI
  6
Continuous
100
AcDbCircle
 10
-30.84354995814297
 20
21.38242304146263
 30
0.0
 40
1.999999604066794
100
AcDbArc
 50
89.99972145280116
 51
148.4703709327019
  0
LWPOLYLINE
  5
10E
330
2
100
AcDbEntity
  8
GAIKEI
  6
Continuous
 62
     1
100
AcDbPolyline
 90
        5
 70
   128
 43
0.0
 10
-21.99277408724297
 20
23.18416791122263
 10
-21.99277706748294
 20
23.26016718608264
 10
-21.99277967518296
 20
23.32445973616257
 10
-21.99278228288299
 20
23.36736502212261
 10
-21.99278489058302
 20
23.38242264550263
  0
ARC
  5
10F
330
2
100
AcDbEntity
  8
GAIKEI
  6
Continuous
 62
     1
100
AcDbCircle
 10
-24.54986929068295
 20
19.81357538966256
 30
0.0
 40
5.000002948182785
100
AcDbArc
 50
11.06079075240047
 51
17.08372079083449
  0
ARC
  5
110
330
2
100
AcDbEntity
  8
GAIKEI
  6
Continuous
 62
     1
100
AcDbCircle
 10
-35.88889438682307
 20
16.69688124960259
 30
0.0
 40
6.633914730393567
100
AcDbArc
 50
58.04429080010063
 51
59.76387826949728
  0
ARC
  5
111
330
2
100
AcDbEntity
  8
GAIKEI
  6
Continuous
100
AcDbCircle
 10
-28.28646250818295
 20
19.8135775627826
 30
0.0
 40
4.99999499776087
100
AcDbArc
 50
148.469972469299
 51
168.9390319504998
  0
LINE
  5
112
330
2
100
AcDbEntity
  8
GAIKEI
  6
Continuous
100
AcDbLine
 10
-33.48836223646302
 20
17.98241834940256
 30
0.0
 11
-33.48906035586302
 21
17.94242267816264
 31
0.0
  0
LINE
  5
113
330
2
100
AcDbEntity
  8
GAIKEI
  6
Continuous
 62
     1
100
AcDbLine
 10
-33.28905995054302
 20
17.94242267816264
 30
0.0
 11
-33.48906035586302
 21
17.94242267816264
 31
0.0
  0
LINE
  5
114
330
2
100
AcDbEntity
  8
GAIKEI
  6
Continuous
 62
     1
100
AcDbLine
 10
-33.28905995054302
 20
17.94242267816264
 30
0.0
 11
-30.41771189952306
 21
17.94242267816264
 31
0.0
  0
LINE
  5
115
330
2
100
AcDbEntity
  8
GAIKEI
  6
Continuous
 62
     1
100
AcDbLine
 10
-20.44796213812296
 20
17.94242267816264
 30
0.0
 11
-19.54726405746303
 21
17.94242267816264
 31
0.0
  0
LINE
  5
116
330
2
100
AcDbEntity
  8
GAIKEI
  6
Continuous
 62
     1
100
AcDbLine
 10
-19.34726365214303
 20
17.94242267816264
 30
0.0
 11
-19.54726405746303
 21
17.94242267816264
 31
0.0
  0
LINE
  5
117
330
2
100
AcDbEntity
  8
GAIKEI
  6
Continuous
 62
     1
100
AcDbLine
 10
-19.34796177154303
 20
17.9824191293826
 30
0.0
 11
-19.34726365214303
 21
17.94242267816264
 31
0.0
  0
ARC
  5
118
330
2
100
AcDbEntity
  8
GAIKEI
  6
Continuous
 62
     1
100
AcDbCircle
 10
-18.67817904358296
 20
15.05640496334263
 30
0.0
 40
5.797230359437111
100
AcDbArc
 50
99.57764391530213
 51
101.5511635314003
  0
ARC
  5
119
330
2
100
AcDbEntity
  8
GAIKEI
  6
Continuous
 62
     1
100
AcDbCircle
 10
-35.34558610768304
 20
17.70317698050257
 30
0.0
 40
16.00006126794959
100
AcDbArc
 50
1.000009228200286
 51
11.06091078600021
  0
ARC
  5
11A
330
2
100
AcDbEntity
  8
GAIKEI
  6
Continuous
100
AcDbCircle
 10
-17.49065764560296
 20
17.70316922612266
 30
0.0
 40
16.00014163215437
100
AcDbArc
 50
168.9390594083015
 51
178.999970816299
  0
LINE
  5
11B
330
2
100
AcDbEntity
  8
GAIKEI
  6
Continuous
100
AcDbLine
 10
-27.08737780982301
 20
25.3824229733226
 30
0.0
 11
-25.74894619818304
 21
25.3824229733226
 31
0.0
  0
LINE
  5
11C
330
2
100
AcDbEntity
  8
GAIKEI
  6
Continuous
100
AcDbLine
 10
-25.74894619818304
 20
25.3824229733226
 30
0.0
 11
-23.64819483544295
 21
25.3824229733226
 31
0.0
  0
LINE
  5
11D
330
2
100
AcDbEntity
  8
GAIKEI
  6
Continuous
100
AcDbLine
 10
-29.18812917258299
 20
25.3824229733226
 30
0.0
 11
-27.08737780982301
 21
25.3824229733226
 31
0.0
  0
ARC
  5
11E
330
2
100
AcDbEntity
  8
GAIKEI
  6
Continuous
100
AcDbCircle
 10
-29.65716957698305
 20
25.28242267530266
 30
0.0
 40
0.1000000000000045
100
AcDbArc
 50
90.0
 51
153.054967503199
  0
LINE
  5
11F
330
2
100
AcDbEntity
  8
GAIKEI
  6
Continuous
100
AcDbLine
 10
-29.65716967070296
 20
25.3824229733226
 30
0.0
 11
-29.18812917258299
 21
25.3824229733226
 31
0.0
  0
ARC
  5
120
330
2
100
AcDbEntity
  8
GAIKEI
  6
Continuous
100
AcDbCircle
 10
-23.17915443102299
 20
25.28242267530266
 30
0.0
 40
0.1000000000000045
100
AcDbArc
 50
26.94503249680102
 51
90.0
  0
LINE
  5
121
330
2
100
AcDbEntity
  8
GAIKEI
  6
Continuous
100
AcDbLine
 10
-23.64819483544295
 20
25.3824229733226
 30
0.0
 11
-23.17915433730298
 21
25.3824229733226
 31
0.0
  0
ARC
  5
122
330
2
100
AcDbEntity
  8
GAIKEI
  6
Continuous
100
AcDbCircle
 10
-28.43866020256303
 20
22.60892327578267
 30
0.0
 40
6.0
100
AcDbArc
 50
9.33751265350196
 51
26.94503249680102
  0
ELLIPSE
  5
123
330
2
100
AcDbEntity
  8
GAIKEI
  6
Continuous
 62
     1
100
AcDbEllipse
 10
-23.11816200400301
 20
25.12527981816266
 30
0.0
 11
0.0
 21
1.542857142857144
 31
0.0
210
0.0
220
0.0
230
1.0
 40
0.3888888889
 41
3.141592653589773
 42
3.185120738216907
  0
LINE
  5
124
330
2
100
AcDbEntity
  8
GAIKEI
  6
Continuous
100
AcDbLine
 10
-22.51816192354295
 20
23.58226696114264
 30
0.0
 11
-22.51816192354295
 21
23.38242264550263
 31
0.0
  0
LINE
  5
125
330
2
100
AcDbEntity
  8
GAIKEI
  6
Continuous
 62
     1
100
AcDbLine
 10
-22.51816200449453
 20
23.58242267828251
 30
0.0
 11
-30.31816200351153
 21
23.58242267828251
 31
0.0
  0
LINE
  5
126
330
2
100
AcDbEntity
  8
GAIKEI
  6
Continuous
100
AcDbLine
 10
-30.31816208446298
 20
23.38242264550263
 30
0.0
 11
-30.31816208446298
 21
23.58226696114264
 31
0.0
  0
ELLIPSE
  5
127
330
2
100
AcDbEntity
  8
GAIKEI
  6
Continuous
 62
     1
100
AcDbEllipse
 10
-29.71816200400292
 20
25.12527981816266
 30
0.0
 11
-0.0000000000000114
 21
1.542857142857144
 31
0.0
210
0.0
220
0.0
230
1.0
 40
0.3888888889
 41
3.098064568962695
 42
3.141592653589792
  0
ARC
  5
128
330
2
100
AcDbEntity
  8
GAIKEI
  6
Continuous
100
AcDbCircle
 10
-24.39766380544302
 20
22.60892327578267
 30
0.0
 40
6.0
100
AcDbArc
 50
153.054967503199
 51
170.662487346498
  0
ARC
  5
129
330
2
100
AcDbEntity
  8
GAIKEI
  6
Continuous
 62
     1
100
AcDbCircle
 10
-26.41816200400297
 20
17.88242267530256
 30
0.0
 40
4.000000000000034
100
AcDbArc
 50
20.35440639820126
 51
339.6455936017988
  0
ARC
  5
12A
330
2
100
AcDbEntity
  8
GAIKEI
  6
Continuous
 62
     1
100
AcDbCircle
 10
-22.13245228276628
 20
19.44444479028539
 30
0.0
 40
0.5620287842475016
100
AcDbArc
 50
197.6831397771512
 51
269.7208756294328
  0
LINE
  5
12B
330
2
100
AcDbEntity
  8
GAIKEI
  6
Continuous
 62
     1
100
AcDbLine
 10
-22.13519044524296
 20
18.88242265294264
 30
0.0
 11
-21.04796186392306
 21
18.88242265294264
 31
0.0
  0
LINE
  5
12C
330
2
100
AcDbEntity
  8
GAIKEI
  6
Continuous
 62
     1
100
AcDbLine
 10
-21.04796186392306
 20
18.88242265294264
 30
0.0
 11
-20.71462884848299
 21
18.5842802663426
 31
0.0
  0
ARC
  5
12D
330
2
100
AcDbEntity
  8
GAIKEI
  6
Continuous
 62
     1
100
AcDbCircle
 10
-20.44796200400296
 20
18.88242267530256
 30
0.0
 40
0.4
100
AcDbArc
 50
228.1896851041967
 51
270.0
  0
LINE
  5
12E
330
2
100
AcDbEntity
  8
GAIKEI
  6
Continuous
 62
     1
100
AcDbLine
 10
-20.44796213812296
 20
18.48242268052263
 30
0.0
 11
-20.44796213812296
 21
17.28242267008261
 31
0.0
  0
ARC
  5
12F
330
2
100
AcDbEntity
  8
GAIKEI
  6
Continuous
 62
     1
100
AcDbCircle
 10
-20.44796200400296
 20
16.88242267530256
 30
0.0
 40
0.4000000000000016
100
AcDbArc
 50
90.0
 51
131.8103148958032
  0
LINE
  5
130
330
2
100
AcDbEntity
  8
GAIKEI
  6
Continuous
 62
     1
100
AcDbLine
 10
-20.71462884848299
 20
17.18056508426264
 30
0.0
 11
-21.04796186392306
 21
16.8824226976626
 31
0.0
  0
LINE
  5
131
330
2
100
AcDbEntity
  8
GAIKEI
  6
Continuous
 62
     1
100
AcDbLine
 10
-21.04796186392306
 20
16.8824226976626
 30
0.0
 11
-22.13519044524296
 21
16.8824226976626
 31
0.0
  0
ARC
  5
132
330
2
100
AcDbEntity
  8
GAIKEI
  6
Continuous
 62
     1
100
AcDbCircle
 10
-22.13245228276628
 20
16.32040056031985
 30
0.0
 40
0.5620287842474909
100
AcDbArc
 50
90.27912437056718
 51
162.3168602228487
  0
ARC
  5
133
330
2
100
AcDbEntity
  8
GAIKEI
  6
Continuous
 62
     1
100
AcDbCircle
 10
-20.71003355048302
 20
17.88242498326258
 30
0.0
 40
13.53832853430314
100
AcDbArc
 50
174.4388647506004
 51
183.0146665867006
  0
ARC
  5
134
330
2
100
AcDbEntity
  8
GAIKEI
  6
Continuous
 62
     1
100
AcDbCircle
 10
-34.13595130104298
 20
17.17395606978266
 30
0.0
 40
0.0905490489284303
100
AcDbArc
 50
212.6969935232985
 51
273.6128566255993
  0
ARC
  5
135
330
2
100
AcDbEntity
  8
GAIKEI
  6
Continuous
 62
     1
100
AcDbCircle
 10
-34.14678682934303
 20
17.17522063218257
 30
0.0
 40
0.082404499133648
100
AcDbArc
 50
175.0172443638012
 51
217.5123851420972
  0
ARC
  5
136
330
2
100
AcDbEntity
  8
GAIKEI
  6
Continuous
 62
     1
100
AcDbCircle
 10
-34.09089861926307
 20
19.18771373350262
 30
0.0
 40
0.0936829405184235
100
AcDbArc
 50
86.88639126190034
 51
183.2702537702977
  0
ARC
  5
137
330
2
100
AcDbEntity
  8
GAIKEI
  6
Continuous
 62
     1
100
AcDbCircle
 10
-24.57503195670299
 20
15.92640805446263
 30
0.0
 40
5.000005620822746
100
AcDbArc
 50
343.2140645064079
 51
348.2757073970986
  0
ARC
  5
138
330
2
100
AcDbEntity
  8
GAIKEI
  6
Continuous
100
AcDbCircle
 10
-24.54986929068295
 20
19.81357538966256
 30
0.0
 40
5.000002948182785
100
AcDbArc
 50
17.08372079083449
 51
31.52998081780103
  0
DIMENSION
  5
139
330
2
100
AcDbEntity
  8
SUNPO
100
AcDbDimension
  2
*D6
 10
-11.14229173057092
 20
25.38241595501109
 30
0.0
 11
-12.89229173057093
 21
18.88241931515682
 31
0.0
 70
    33
  1
65
 71
     5
 42
12.99999327970852
  3
STANDARD
100
AcDbAlignedDimension
 13
-19.14229173057092
 23
12.38242267530256
 33
0.0
 14
-19.14229173057092
 24
25.38241595501109
 34
0.0
1001
ACAD
1000
DSTYLE
1002
{
1070
   287
1070
     3
1070
    40
1040
1.0
1070
   140
1040
2.5
1070
   147
1040
0.5
1070
   172
1070
     1
1070
   279
1070
     0
1070
   288
1070
     0
1002
}
  0
DIMENSION
  5
14C
330
2
100
AcDbEntity
  8
SUNPO
100
AcDbDimension
  2
*D5
 10
-19.14796200400301
 20
30.44318635039247
 30
0.0
 11
-26.647980165523
 21
32.19318635039247
 31
0.0
 70
    33
  1
75
 71
     5
 42
15.00003632303996
  3
STANDARD
100
AcDbAlignedDimension
 13
-34.14799832704298
 23
22.44318635039247
 33
0.0
 14
-19.14796200400301
 24
22.44318635039247
 34
0.0
1001
ACAD
1000
DSTYLE
1002
{
1070
   287
1070
     3
1070
    40
1040
1.0
1070
   140
1040
2.5
1070
   147
1040
0.5
1070
   172
1070
     1
1070
   279
1070
     0
1070
   288
1070
     0
1002
}
  0
LINE
  5
159
330
2
100
AcDbEntity
  8
GAIKEI
  6
Continuous
 62
     1
100
AcDbLine
 10
4.53343778539147
 20
21.48591274480259
 30
0.0
 11
4.533437785391484
 21
17.94242267816264
 31
0.0
  0
LINE
  5
15A
330
2
100
AcDbEntity
  8
GAIKEI
  6
Continuous
 62
     1
100
AcDbLine
 10
4.533437785391484
 20
17.94242267816264
 30
0.0
 11
7.964800377612988
 21
17.94242267816264
 31
0.0
  0
LINE
  5
15B
330
2
100
AcDbEntity
  8
GAIKEI
  6
Continuous
 62
     1
100
AcDbLine
 10
7.964800377612988
 20
17.94242267816264
 30
0.0
 11
7.977748458911491
 21
18.68421075950266
 31
0.0
  0
LINE
  5
15C
330
2
100
AcDbEntity
  8
GAIKEI
  6
Continuous
 62
     1
100
AcDbLine
 10
7.977748458911491
 20
18.68421075950266
 30
0.0
 11
7.989965175911493
 21
19.38410861504258
 31
0.0
  0
LINE
  5
15D
330
2
100
AcDbEntity
  8
GAIKEI
  6
Continuous
 62
     1
100
AcDbLine
 10
7.989965175911493
 20
19.38410861504258
 30
0.0
 11
8.002125268511576
 21
20.08076770316256
 31
0.0
  0
LINE
  5
15E
330
2
100
AcDbEntity
  8
GAIKEI
  6
Continuous
 62
     1
100
AcDbLine
 10
8.002125268511576
 20
20.08076770316256
 30
0.0
 11
8.014205639891542
 21
20.77284542930261
 31
0.0
  0
LINE
  5
15F
330
2
100
AcDbEntity
  8
GAIKEI
  6
Continuous
 62
     1
100
AcDbLine
 10
8.083127980751442
 20
21.28242286008265
 30
0.0
 11
30.45345317589262
 21
21.28242286008271
 31
0.0
  0
DIMENSION
  5
160
330
2
100
AcDbEntity
  8
SUNPO
100
AcDbDimension
  2
*D4
 10
30.93349870077145
 20
30.44318635039241
 30
0.0
 11
17.68349870078145
 21
32.19318635039241
 31
0.0
 70
    33
  1
132.5
 71
     5
 42
26.49999999997999
  3
STANDARD
100
AcDbAlignedDimension
 13
4.43349870079146
 23
22.44318635039241
 33
0.0
 14
30.93349870077145
 24
22.44318635039241
 34
0.0
1001
ACAD
1000
DSTYLE
1002
{
1070
   287
1070
     3
1070
    40
1040
1.0
1070
   140
1040
2.5
1070
   147
1040
0.5
1070
   172
1070
     1
1070
   279
1070
     0
1070
   288
1070
     0
1002
}
  0
ARC
  5
16D
330
2
100
AcDbEntity
  8
GAIKEI
  6
Continuous
100
AcDbCircle
 10
-21.99277400936304
 20
21.38242275046264
 30
0.0
 40
1.999999895066925
100
AcDbArc
 50
31.52958365060069
 51
90.00031172419838
  0
TEXT
  5
16E
330
2
100
AcDbEntity
  8
TOUROKU
100
AcDbText
 10
48.37553361429609
 20
40.81244811199917
 30
0.0
 40
2.0
  1
ＤＧＳＰ３０５
 72
     2
 11
64.37553361429609
 21
40.81244811199917
 31
0.0
100
AcDbText
  0
TEXT
  5
170
330
2
100
AcDbEntity
  8
MOJI1
100
AcDbText
 10
-33.6244164186312
 20
46.8124481119994
 30
0.0
 40
4.0
  1
ネットワークカメラ
  7
KANJI
100
AcDbText
  0
ENDSEC
  0
SECTION
  2
OBJECTS
  0
DICTIONARY
  5
7
330
0
100
AcDbDictionary
281
     1
  3
ACAD_COLOR
350
2C
  3
ACAD_GROUP
350
28
  3
ACAD_LAYOUT
350
B
  3
ACAD_MATERIAL
350
2B
  3
ACAD_MLINESTYLE
350
29
  3
ACAD_PLOTSETTINGS
350
2A
  3
ACAD_PLOTSTYLENAME
350
6
  3
ACDBHEADERROUNDTRIPXREC
350
1B6
  3
AcDbVariableDictionary
350
185
  0
DICTIONARY
  5
11
330
10
100
AcDbDictionary
280
     1
281
     1
  3
ACAD_LAYERSTATES
360
12
  0
DICTIONARY
  5
147
330
146
100
AcDbDictionary
280
     1
281
     1
  3
ACAD_XREC_ROUNDTRIP
360
148
  0
DICTIONARY
  5
2E
330
2D
100
AcDbDictionary
280
     1
281
     1
  3
ACAD_XREC_ROUNDTRIP
360
2F
  0
DICTIONARY
  5
13B
330
13A
100
AcDbDictionary
280
     1
281
     1
  3
ACAD_XREC_ROUNDTRIP
360
13C
  0
DICTIONARY
  5
2C
102
{ACAD_REACTORS
330
7
102
}
330
7
100
AcDbDictionary
281
     1
  0
DICTIONARY
  5
28
102
{ACAD_REACTORS
330
7
102
}
330
7
100
AcDbDictionary
281
     1
  0
DICTIONARY
  5
B
102
{ACAD_REACTORS
330
7
102
}
330
7
100
AcDbDictionary
281
     1
  3
Model
350
A
  3
レイアウト1
350
F
  0
DICTIONARY
  5
2B
102
{ACAD_REACTORS
330
7
102
}
330
7
100
AcDbDictionary
281
     1
  3
Global
350
30
  0
DICTIONARY
  5
29
102
{ACAD_REACTORS
330
7
102
}
330
7
100
AcDbDictionary
281
     1
  3
Standard
350
33
  0
DICTIONARY
  5
2A
102
{ACAD_REACTORS
330
7
102
}
330
7
100
AcDbDictionary
281
     1
  0
ACDBDICTIONARYWDFLT
  5
6
102
{ACAD_REACTORS
330
7
102
}
330
7
100
AcDbDictionary
281
     1
  3
Normal
350
5
100
AcDbDictionaryWithDefault
340
5
  0
DICTIONARY
  5
1B6
102
{ACAD_REACTORS
330
7
102
}
330
7
100
AcDbDictionary
281
     1
  3
COLORDICT
350
1B8
  3
MATERIALDICT
350
1B7
  0
DICTIONARY
  5
185
102
{ACAD_REACTORS
330
7
102
}
330
7
100
AcDbDictionary
281
     1
  3
DIMASSOC
350
187
  3
HIDETEXT
350
186
  3
PROJECTNAME
350
188
  0
DICTIONARY
  5
12
102
{ACAD_REACTORS
330
11
102
}
330
11
100
AcDbDictionary
281
     1
  0
XRECORD
  5
148
102
{ACAD_REACTORS
330
147
102
}
330
147
100
AcDbXrecord
280
     1
102
MATERIAL
340
30
  0
XRECORD
  5
2F
102
{ACAD_REACTORS
330
2E
102
}
330
2E
100
AcDbXrecord
280
     1
102
MATERIAL
340
30
  0
XRECORD
  5
13C
102
{ACAD_REACTORS
330
13B
102
}
330
13B
100
AcDbXrecord
280
     1
102
MATERIAL
340
30
  0
LAYOUT
  5
A
102
{ACAD_XDICTIONARY
360
1B9
102
}
102
{ACAD_REACTORS
330
B
102
}
330
B
100
AcDbPlotSettings
  1

  2
Ａ３ＰＤＦ出力.pc3
  4
A4
  6

 40
7.143749713897705
 41
7.143756389617919
 42
7.14373779296875
 43
7.14373779296875
 44
209.9733276367187
 45
297.0530090332031
 46
4.95
 47
0.0
 48
0.0
 49
0.0
140
0.0
141
0.0
142
1.0
143
1.394185427725552
 70
 11956
 72
     1
 73
     0
 74
     1
  7
tmsacad.ctb
 75
     0
147
0.7172647053350579
148
0.0064050313486632
149
0.0060110292993159
100
AcDbLayout
  1
Model
 70
     1
 71
     0
 10
0.0
 20
0.0
 11
12.0
 21
9.0
 12
0.0
 22
0.0
 32
0.0
 14
0.0
 24
0.0
 34
0.0
 15
0.0
 25
0.0
 35
0.0
146
0.0
 13
0.0
 23
0.0
 33
0.0
 16
1.0
 26
0.0
 36
0.0
 17
0.0
 27
1.0
 37
0.0
 76
     0
330
2
  0
LAYOUT
  5
F
102
{ACAD_XDICTIONARY
360
1BB
102
}
102
{ACAD_REACTORS
330
B
102
}
330
B
100
AcDbPlotSettings
  1

  2
None
  4

  6

 40
0.0
 41
0.0
 42
0.0
 43
0.0
 44
0.0
 45
0.0
 46
0.0
 47
0.0
 48
0.0
 49
0.0
140
0.0
141
0.0
142
1.0
143
1.0
 70
   688
 72
     0
 73
     0
 74
     5
  7
tmsacad.ctb
 75
    16
147
1.0
148
0.0
149
0.0
100
AcDbLayout
  1
レイアウト1
 70
     1
 71
     1
 10
0.0
 20
0.0
 11
12.0
 21
9.0
 12
0.0
 22
0.0
 32
0.0
 14
0.0
 24
0.0
 34
0.0
 15
0.0
 25
0.0
 35
0.0
146
0.0
 13
0.0
 23
0.0
 33
0.0
 16
1.0
 26
0.0
 36
0.0
 17
0.0
 27
1.0
 37
0.0
 76
     0
330
C
  0
MATERIAL
  5
30
102
{ACAD_XDICTIONARY
360
31
102
}
102
{ACAD_REACTORS
330
2B
102
}
330
2B
100
AcDbMaterial
  1
Global
  0
MLINESTYLE
  5
33
102
{ACAD_REACTORS
330
29
102
}
330
29
100
AcDbMlineStyle
  2
STANDARD
 70
     0
  3

 62
   256
 51
90.0
 52
90.0
 71
     2
 49
0.5
 62
   256
  6
BYLAYER
 49
-0.5
 62
   256
  6
BYLAYER
  0
ACDBPLACEHOLDER
  5
5
102
{ACAD_REACTORS
330
6
102
}
330
6
  0
XRECORD
  5
1B8
102
{ACAD_REACTORS
330
1B6
102
}
330
1B6
100
AcDbXrecord
280
     1
340
2C
  0
XRECORD
  5
1B7
102
{ACAD_REACTORS
330
1B6
102
}
330
1B6
100
AcDbXrecord
280
     1
340
2B
  0
DICTIONARYVAR
  5
187
102
{ACAD_REACTORS
330
185
102
}
330
185
100
DictionaryVariables
280
     0
  1
1
  0
DICTIONARYVAR
  5
186
102
{ACAD_REACTORS
330
185
102
}
330
185
100
DictionaryVariables
280
     0
  1
1
  0
DICTIONARYVAR
  5
188
102
{ACAD_REACTORS
330
185
102
}
330
185
100
DictionaryVariables
280
     0
  1

  0
DICTIONARY
  5
1B9
330
A
100
AcDbDictionary
280
     1
281
     1
  3
ACAD_XREC_ROUNDTRIP
360
1BA
  0
DICTIONARY
  5
1BB
330
F
100
AcDbDictionary
280
     1
281
     1
  3
ACAD_XREC_ROUNDTRIP
360
1BC
  0
DICTIONARY
  5
31
330
30
100
AcDbDictionary
280
     1
281
     1
  3
ACAD_XREC_ROUNDTRIP
360
32
  0
XRECORD
  5
1BA
102
{ACAD_REACTORS
330
1B9
102
}
330
1B9
100
AcDbXrecord
280
     1
102
SHADEPLOT
 70
     0
102
SHADEPLOTRESLEVEL
 70
     2
102
SHADEPLOTCUSTOMDPI
 70
   300
  0
XRECORD
  5
1BC
102
{ACAD_REACTORS
330
1BB
102
}
330
1BB
100
AcDbXrecord
280
     1
102
SHADEPLOT
 70
     0
102
SHADEPLOTRESLEVEL
 70
     2
102
SHADEPLOTCUSTOMDPI
 70
   300
  0
XRECORD
  5
32
102
{ACAD_REACTORS
330
31
102
}
330
31
100
AcDbXrecord
280
     1
102
MATERIAL
148
0.0
149
0.0
149
0.0
 93
        0
 94
       63
282
     0
 72
     1
 77
     1
171
     1
175
     1
179
     1
273
     0
  0
ENDSEC
  0
EOF
