  0
SECTION
  2
HEADER
  9
$ACADVER
  1
AC1015
  9
$ACADMAINTVER
 70
    20
  9
$DWGCODEPAGE
  3
ANSI_932
  9
$INSBASE
 10
0.0
 20
246.4992141396417
 30
0.0
  9
$EXTMIN
 10
-60.56204889397441
 20
-146.2664023635225
 30
-0.0015258207003583
  9
$EXTMAX
 10
64.62638055457455
 20
92.5364305600333
 30
0.0000000349246037
  9
$LIMMIN
 10
-1101.784450318844
 20
-1579.160531687244
  9
$LIMMAX
 10
-508.2420711400536
 20
-1161.440814074914
  9
$ORTHOMODE
 70
     1
  9
$REGENMODE
 70
     1
  9
$FILLMODE
 70
     1
  9
$QTEXTMODE
 70
     0
  9
$MIRRTEXT
 70
     1
  9
$LTSCALE
 40
1.0
  9
$ATTMODE
 70
     1
  9
$TEXTSIZE
 40
3.0
  9
$TRACEWID
 40
0.5
  9
$TEXTSTYLE
  7
STANDARD
  9
$CLAYER
  8
GAIKEI
  9
$CELTYPE
  6
BYLAYER
  9
$CECOLOR
 62
   256
  9
$CELTSCALE
 40
1.0
  9
$DISPSILH
 70
     0
  9
$DIMSCALE
 40
1.0
  9
$DIMASZ
 40
2.0
  9
$DIMEXO
 40
2.0
  9
$DIMDLI
 40
8.0
  9
$DIMRND
 40
0.0
  9
$DIMDLE
 40
0.0
  9
$DIMEXE
 40
2.0
  9
$DIMTP
 40
0.0
  9
$DIMTM
 40
0.0
  9
$DIMTXT
 40
2.5
  9
$DIMCEN
 40
0.0
  9
$DIMTSZ
 40
0.0
  9
$DIMTOL
 70
     0
  9
$DIMLIM
 70
     0
  9
$DIMTIH
 70
     0
  9
$DIMTOH
 70
     0
  9
$DIMSE1
 70
     0
  9
$DIMSE2
 70
     0
  9
$DIMTAD
 70
     3
  9
$DIMZIN
 70
     0
  9
$DIMBLK
  1

  9
$DIMASO
 70
     1
  9
$DIMSHO
 70
     1
  9
$DIMPOST
  1

  9
$DIMAPOST
  1

  9
$DIMALT
 70
     0
  9
$DIMALTD
 70
     2
  9
$DIMALTF
 40
25.4
  9
$DIMLFAC
 40
1.0
  9
$DIMTOFL
 70
     1
  9
$DIMTVP
 40
0.0
  9
$DIMTIX
 70
     0
  9
$DIMSOXD
 70
     0
  9
$DIMSAH
 70
     1
  9
$DIMBLK1
  1
OPEN30
  9
$DIMBLK2
  1
OPEN30
  9
$DIMSTYLE
  2
STANDARD
  9
$DIMCLRD
 70
     0
  9
$DIMCLRE
 70
     0
  9
$DIMCLRT
 70
     0
  9
$DIMTFAC
 40
1.0
  9
$DIMGAP
 40
0.5
  9
$DIMJUST
 70
     0
  9
$DIMSD1
 70
     0
  9
$DIMSD2
 70
     0
  9
$DIMTOLJ
 70
     1
  9
$DIMTZIN
 70
     0
  9
$DIMALTZ
 70
     0
  9
$DIMALTTZ
 70
     0
  9
$DIMUPT
 70
     0
  9
$DIMDEC
 70
     4
  9
$DIMTDEC
 70
     4
  9
$DIMALTU
 70
     2
  9
$DIMALTTD
 70
     2
  9
$DIMTXSTY
  7
STANDARD
  9
$DIMAUNIT
 70
     0
  9
$DIMADEC
 70
     0
  9
$DIMALTRND
 40
0.0
  9
$DIMAZIN
 70
     0
  9
$DIMDSEP
 70
    46
  9
$DIMATFIT
 70
     3
  9
$DIMFRAC
 70
     0
  9
$DIMLDRBLK
  1
OPEN30
  9
$DIMLUNIT
 70
     2
  9
$DIMLWD
 70
    -2
  9
$DIMLWE
 70
    -2
  9
$DIMTMOVE
 70
     0
  9
$LUNITS
 70
     2
  9
$LUPREC
 70
     4
  9
$SKETCHINC
 40
0.1
  9
$FILLETRAD
 40
0.0
  9
$AUNITS
 70
     0
  9
$AUPREC
 70
     0
  9
$MENU
  1
ACAD
  9
$ELEVATION
 40
0.0
  9
$PELEVATION
 40
0.0
  9
$THICKNESS
 40
0.0
  9
$LIMCHECK
 70
     0
  9
$CHAMFERA
 40
0.0
  9
$CHAMFERB
 40
0.0
  9
$CHAMFERC
 40
0.0
  9
$CHAMFERD
 40
0.0
  9
$SKPOLY
 70
     0
  9
$TDCREATE
 40
2451815.565532581
  9
$TDUCREATE
 40
2451815.190532581
  9
$TDUPDATE
 40
2456204.657048426
  9
$TDUUPDATE
 40
2456204.282048426
  9
$TDINDWG
 40
0.6656496991
  9
$TDUSRTIMER
 40
0.6656496991
  9
$USRTIMER
 70
     1
  9
$ANGBASE
 50
0.0
  9
$ANGDIR
 70
     0
  9
$PDMODE
 70
     0
  9
$PDSIZE
 40
0.0
  9
$PLINEWID
 40
0.0
  9
$SPLFRAME
 70
     0
  9
$SPLINETYPE
 70
     6
  9
$SPLINESEGS
 70
     8
  9
$HANDSEED
  5
107A
  9
$SURFTAB1
 70
     6
  9
$SURFTAB2
 70
     6
  9
$SURFTYPE
 70
     6
  9
$SURFU
 70
     6
  9
$SURFV
 70
     6
  9
$UCSBASE
  2

  9
$UCSNAME
  2

  9
$UCSORG
 10
0.0
 20
0.0
 30
0.0
  9
$UCSXDIR
 10
1.0
 20
0.0
 30
0.0
  9
$UCSYDIR
 10
0.0
 20
1.0
 30
0.0
  9
$UCSORTHOREF
  2

  9
$UCSORTHOVIEW
 70
     0
  9
$UCSORGTOP
 10
0.0
 20
0.0
 30
0.0
  9
$UCSORGBOTTOM
 10
0.0
 20
0.0
 30
0.0
  9
$UCSORGLEFT
 10
0.0
 20
0.0
 30
0.0
  9
$UCSORGRIGHT
 10
0.0
 20
0.0
 30
0.0
  9
$UCSORGFRONT
 10
0.0
 20
0.0
 30
0.0
  9
$UCSORGBACK
 10
0.0
 20
0.0
 30
0.0
  9
$PUCSBASE
  2

  9
$PUCSNAME
  2

  9
$PUCSORG
 10
0.0
 20
0.0
 30
0.0
  9
$PUCSXDIR
 10
1.0
 20
0.0
 30
0.0
  9
$PUCSYDIR
 10
0.0
 20
1.0
 30
0.0
  9
$PUCSORTHOREF
  2

  9
$PUCSORTHOVIEW
 70
     0
  9
$PUCSORGTOP
 10
0.0
 20
0.0
 30
0.0
  9
$PUCSORGBOTTOM
 10
0.0
 20
0.0
 30
0.0
  9
$PUCSORGLEFT
 10
0.0
 20
0.0
 30
0.0
  9
$PUCSORGRIGHT
 10
0.0
 20
0.0
 30
0.0
  9
$PUCSORGFRONT
 10
0.0
 20
0.0
 30
0.0
  9
$PUCSORGBACK
 10
0.0
 20
0.0
 30
0.0
  9
$USERI1
 70
     0
  9
$USERI2
 70
     0
  9
$USERI3
 70
     0
  9
$USERI4
 70
     0
  9
$USERI5
 70
     0
  9
$USERR1
 40
0.0
  9
$USERR2
 40
0.0
  9
$USERR3
 40
0.0
  9
$USERR4
 40
0.0
  9
$USERR5
 40
0.0
  9
$WORLDVIEW
 70
     1
  9
$SHADEDGE
 70
     3
  9
$SHADEDIF
 70
    70
  9
$TILEMODE
 70
     1
  9
$MAXACTVP
 70
    48
  9
$PINSBASE
 10
0.0
 20
0.0
 30
0.0
  9
$PLIMCHECK
 70
     0
  9
$PEXTMIN
 10
1.000000000000000E+20
 20
1.000000000000000E+20
 30
1.000000000000000E+20
  9
$PEXTMAX
 10
-1.000000000000000E+20
 20
-1.000000000000000E+20
 30
-1.000000000000000E+20
  9
$PLIMMIN
 10
0.0
 20
0.0
  9
$PLIMMAX
 10
12.0
 20
9.0
  9
$UNITMODE
 70
     0
  9
$VISRETAIN
 70
     1
  9
$PLINEGEN
 70
     0
  9
$PSLTSCALE
 70
     1
  9
$TREEDEPTH
 70
  3020
  9
$CMLSTYLE
  2
STANDARD
  9
$CMLJUST
 70
     0
  9
$CMLSCALE
 40
1.0
  9
$PROXYGRAPHICS
 70
     1
  9
$MEASUREMENT
 70
     0
  9
$CELWEIGHT
370
    -1
  9
$ENDCAPS
280
     0
  9
$JOINSTYLE
280
     0
  9
$LWDISPLAY
290
     0
  9
$INSUNITS
 70
     0
  9
$HYPERLINKBASE
  1

  9
$STYLESHEET
  1

  9
$XEDIT
290
     1
  9
$CEPSNTYPE
380
     0
  9
$PSTYLEMODE
290
     1
  9
$FINGERPRINTGUID
  2
{1754B7AB-9B3C-11D4-AD9E-00104B1004F2}
  9
$VERSIONGUID
  2
{4CA23ECF-F853-46AA-9345-D5A608755AE6}
  9
$EXTNAMES
290
     1
  9
$PSVPSCALE
 40
0.0
  9
$OLESTARTUP
290
     0
  0
ENDSEC
  0
SECTION
  2
CLASSES
  0
CLASS
  1
ACDBDICTIONARYWDFLT
  2
AcDbDictionaryWithDefault
  3
ObjectDBX Classes
 90
        0
280
     0
281
     0
  0
CLASS
  1
ACDBPLACEHOLDER
  2
AcDbPlaceHolder
  3
ObjectDBX Classes
 90
        0
280
     0
281
     0
  0
CLASS
  1
LAYOUT
  2
AcDbLayout
  3
ObjectDBX Classes
 90
        0
280
     0
281
     0
  0
CLASS
  1
LONG_TRANSACTION
  2
AcDbLongTransaction
  3
ObjectDBX Classes
 90
    32768
280
     0
281
     0
  0
CLASS
  1
LWPOLYLINE
  2
AcDbPolyline
  3
ObjectDBX Classes
 90
    32768
280
     0
281
     1
  0
CLASS
  1
HATCH
  2
AcDbHatch
  3
ObjectDBX Classes
 90
    32768
280
     0
281
     1
  0
CLASS
  1
XRECORD
  2
AcDbXrecord
  3
ObjectDBX Classes
 90
        0
280
     0
281
     0
  0
CLASS
  1
LONG_TRANSACTION
  2
AcDbLongTransaction
  3
ObjectDBX Classes
 90
    32768
280
     0
281
     0
  0
CLASS
  1
LWPOLYLINE
  2
AcDbPolyline
  3
ObjectDBX Classes
 90
    32768
280
     0
281
     1
  0
CLASS
  1
HATCH
  2
AcDbHatch
  3
ObjectDBX Classes
 90
    32768
280
     0
281
     1
  0
CLASS
  1
XRECORD
  2
AcDbXrecord
  3
ObjectDBX Classes
 90
        0
280
     0
281
     0
  0
CLASS
  1
LONG_TRANSACTION
  2
AcDbLongTransaction
  3
ObjectDBX Classes
 90
    32768
280
     0
281
     0
  0
CLASS
  1
LWPOLYLINE
  2
AcDbPolyline
  3
ObjectDBX Classes
 90
    32768
280
     0
281
     1
  0
CLASS
  1
HATCH
  2
AcDbHatch
  3
ObjectDBX Classes
 90
    32768
280
     0
281
     1
  0
CLASS
  1
XRECORD
  2
AcDbXrecord
  3
ObjectDBX Classes
 90
        0
280
     0
281
     0
  0
CLASS
  1
LONG_TRANSACTION
  2
AcDbLongTransaction
  3
ObjectDBX Classes
 90
    32768
280
     0
281
     0
  0
CLASS
  1
LWPOLYLINE
  2
AcDbPolyline
  3
ObjectDBX Classes
 90
    32768
280
     0
281
     1
  0
CLASS
  1
HATCH
  2
AcDbHatch
  3
ObjectDBX Classes
 90
    32768
280
     0
281
     1
  0
CLASS
  1
XRECORD
  2
AcDbXrecord
  3
ObjectDBX Classes
 90
        0
280
     0
281
     0
  0
CLASS
  1
LONG_TRANSACTION
  2
AcDbLongTransaction
  3
ObjectDBX Classes
 90
    32768
280
     0
281
     0
  0
CLASS
  1
LWPOLYLINE
  2
AcDbPolyline
  3
ObjectDBX Classes
 90
    32768
280
     0
281
     1
  0
CLASS
  1
HATCH
  2
AcDbHatch
  3
ObjectDBX Classes
 90
    32768
280
     0
281
     1
  0
CLASS
  1
XRECORD
  2
AcDbXrecord
  3
ObjectDBX Classes
 90
        0
280
     0
281
     0
  0
CLASS
  1
LONG_TRANSACTION
  2
AcDbLongTransaction
  3
ObjectDBX Classes
 90
    32768
280
     0
281
     0
  0
CLASS
  1
LWPOLYLINE
  2
AcDbPolyline
  3
ObjectDBX Classes
 90
    32768
280
     0
281
     1
  0
CLASS
  1
HATCH
  2
AcDbHatch
  3
ObjectDBX Classes
 90
    32768
280
     0
281
     1
  0
CLASS
  1
XRECORD
  2
AcDbXrecord
  3
ObjectDBX Classes
 90
        0
280
     0
281
     0
  0
CLASS
  1
LONG_TRANSACTION
  2
AcDbLongTransaction
  3
ObjectDBX Classes
 90
    32768
280
     0
281
     0
  0
CLASS
  1
LWPOLYLINE
  2
AcDbPolyline
  3
ObjectDBX Classes
 90
    32768
280
     0
281
     1
  0
CLASS
  1
HATCH
  2
AcDbHatch
  3
ObjectDBX Classes
 90
    32768
280
     0
281
     1
  0
CLASS
  1
XRECORD
  2
AcDbXrecord
  3
ObjectDBX Classes
 90
        0
280
     0
281
     0
  0
CLASS
  1
LONG_TRANSACTION
  2
AcDbLongTransaction
  3
ObjectDBX Classes
 90
    32768
280
     0
281
     0
  0
CLASS
  1
LWPOLYLINE
  2
AcDbPolyline
  3
ObjectDBX Classes
 90
    32768
280
     0
281
     1
  0
CLASS
  1
HATCH
  2
AcDbHatch
  3
ObjectDBX Classes
 90
    32768
280
     0
281
     1
  0
CLASS
  1
XRECORD
  2
AcDbXrecord
  3
ObjectDBX Classes
 90
        0
280
     0
281
     0
  0
CLASS
  1
DICTIONARYVAR
  2
AcDbDictionaryVar
  3
ObjectDBX Classes
 90
        0
280
     0
281
     0
  0
CLASS
  1
LONG_TRANSACTION
  2
AcDbLongTransaction
  3
ObjectDBX Classes
 90
    32768
280
     0
281
     0
  0
CLASS
  1
LWPOLYLINE
  2
AcDbPolyline
  3
ObjectDBX Classes
 90
    32768
280
     0
281
     1
  0
CLASS
  1
HATCH
  2
AcDbHatch
  3
ObjectDBX Classes
 90
    32768
280
     0
281
     1
  0
CLASS
  1
XRECORD
  2
AcDbXrecord
  3
ObjectDBX Classes
 90
        0
280
     0
281
     0
  0
CLASS
  1
LONG_TRANSACTION
  2
AcDbLongTransaction
  3
ObjectDBX Classes
 90
    32768
280
     0
281
     0
  0
CLASS
  1
LWPOLYLINE
  2
AcDbPolyline
  3
ObjectDBX Classes
 90
    32768
280
     0
281
     1
  0
CLASS
  1
HATCH
  2
AcDbHatch
  3
ObjectDBX Classes
 90
    32768
280
     0
281
     1
  0
CLASS
  1
XRECORD
  2
AcDbXrecord
  3
ObjectDBX Classes
 90
        0
280
     0
281
     0
  0
CLASS
  1
LONG_TRANSACTION
  2
AcDbLongTransaction
  3
ObjectDBX Classes
 90
    32768
280
     0
281
     0
  0
CLASS
  1
LWPOLYLINE
  2
AcDbPolyline
  3
ObjectDBX Classes
 90
    32768
280
     0
281
     1
  0
CLASS
  1
HATCH
  2
AcDbHatch
  3
ObjectDBX Classes
 90
    32768
280
     0
281
     1
  0
CLASS
  1
XRECORD
  2
AcDbXrecord
  3
ObjectDBX Classes
 90
        0
280
     0
281
     0
  0
CLASS
  1
LONG_TRANSACTION
  2
AcDbLongTransaction
  3
ObjectDBX Classes
 90
    32768
280
     0
281
     0
  0
CLASS
  1
LWPOLYLINE
  2
AcDbPolyline
  3
ObjectDBX Classes
 90
    32768
280
     0
281
     1
  0
CLASS
  1
HATCH
  2
AcDbHatch
  3
ObjectDBX Classes
 90
    32768
280
     0
281
     1
  0
CLASS
  1
XRECORD
  2
AcDbXrecord
  3
ObjectDBX Classes
 90
        0
280
     0
281
     0
  0
CLASS
  1
TABLESTYLE
  2
AcDbTableStyle
  3
ObjectDBX Classes
 90
     2047
280
     1
281
     0
  0
ENDSEC
  0
SECTION
  2
TABLES
  0
TABLE
  2
VPORT
  5
21
330
0
100
AcDbSymbolTable
 70
     3
  0
VPORT
  5
1072
330
21
100
AcDbSymbolTableRecord
100
AcDbViewportTableRecord
  2
*Active
 70
     0
 10
0.0
 20
0.0
 11
1.0
 21
1.0
 12
2.032165830300044
 22
-26.86498590174461
 13
0.0
 23
0.0
 14
1.0
 24
1.0
 15
0.0
 25
0.0
 16
0.0
 26
0.0
 36
1.0
 17
0.0
 27
0.0
 37
0.0
 40
240.5871629329472
 41
2.135910224438902
 42
50.0
 43
0.0
 44
0.0
 50
0.0
 51
0.0
 71
     0
 72
  1000
 73
     1
 74
     0
 75
     0
 76
     1
 77
     0
 78
     0
281
     0
 65
     1
110
0.0
120
0.0
130
0.0
111
1.0
121
0.0
131
0.0
112
0.0
122
1.0
132
0.0
 79
     0
146
0.0
  0
ENDTAB
  0
TABLE
  2
LTYPE
  5
1C
330
0
100
AcDbSymbolTable
 70
     1
  0
LTYPE
  5
1D
330
1C
100
AcDbSymbolTableRecord
100
AcDbLinetypeTableRecord
  2
BYBLOCK
 70
     0
  3

 72
    65
 73
     0
 40
0.0
  0
LTYPE
  5
1E
330
1C
100
AcDbSymbolTableRecord
100
AcDbLinetypeTableRecord
  2
BYLAYER
 70
     0
  3

 72
    65
 73
     0
 40
0.0
  0
LTYPE
  5
A
330
1C
100
AcDbSymbolTableRecord
100
AcDbLinetypeTableRecord
  2
CONTINUOUS
 70
     0
  3
Solid line
 72
    65
 73
     0
 40
0.0
  0
ENDTAB
  0
TABLE
  2
LAYER
  5
14
102
{ACAD_XDICTIONARY
360
15
102
}
330
0
100
AcDbSymbolTable
 70
     7
  0
LAYER
  5
6
330
14
100
AcDbSymbolTableRecord
100
AcDbLayerTableRecord
  2
0
 70
     0
 62
     7
  6
CONTINUOUS
370
    -3
390
7
  0
LAYER
  5
437
330
14
100
AcDbSymbolTableRecord
100
AcDbLayerTableRecord
  2
DEFPOINTS
 70
     0
 62
     7
  6
CONTINUOUS
290
     0
370
    -3
390
7
  0
LAYER
  5
520
330
14
100
AcDbSymbolTableRecord
100
AcDbLayerTableRecord
  2
WAKU
 70
     0
 62
     4
  6
CONTINUOUS
370
    -3
390
7
  0
LAYER
  5
38
330
14
100
AcDbSymbolTableRecord
100
AcDbLayerTableRecord
  2
MOJI1
 70
     0
 62
     2
  6
CONTINUOUS
370
    -3
390
7
  0
LAYER
  5
33
330
14
100
AcDbSymbolTableRecord
100
AcDbLayerTableRecord
  2
GAIKEI
 70
     0
 62
     7
  6
CONTINUOUS
370
    -3
390
7
  0
LAYER
  5
42D
330
14
100
AcDbSymbolTableRecord
100
AcDbLayerTableRecord
  2
SUNPO
 70
     0
 62
     3
  6
CONTINUOUS
370
    -3
390
7
  0
LAYER
  5
36
330
14
100
AcDbSymbolTableRecord
100
AcDbLayerTableRecord
  2
TOUROKU
 70
     0
 62
     1
  6
CONTINUOUS
370
    -3
390
7
  0
ENDTAB
  0
TABLE
  2
STYLE
  5
19
330
0
100
AcDbSymbolTable
 70
     2
  0
STYLE
  5
1A
330
19
100
AcDbSymbolTableRecord
100
AcDbTextStyleTableRecord
  2
STANDARD
 70
     0
 40
0.0
 41
1.0
 50
0.0
 71
     0
 42
3.0
  3
MONOTXT.shx
  4
BIGFONT.shx
  0
STYLE
  5
525
330
19
100
AcDbSymbolTableRecord
100
AcDbTextStyleTableRecord
  2
KANJI
 70
     0
 40
0.0
 41
1.0
 50
0.0
 71
     0
 42
3.5
  3
MONOTXT
  4
BIGFONT
  0
ENDTAB
  0
TABLE
  2
VIEW
  5
1F
330
0
100
AcDbSymbolTable
 70
     0
  0
ENDTAB
  0
TABLE
  2
UCS
  5
20
330
0
100
AcDbSymbolTable
 70
     0
  0
ENDTAB
  0
TABLE
  2
APPID
  5
23
330
0
100
AcDbSymbolTable
 70
     2
  0
APPID
  5
24
330
23
100
AcDbSymbolTableRecord
100
AcDbRegAppTableRecord
  2
ACAD
 70
     0
  0
APPID
  5
5D6
330
23
100
AcDbSymbolTableRecord
100
AcDbRegAppTableRecord
  2
ACAD_PSEXT
 70
     0
  0
ENDTAB
  0
TABLE
  2
DIMSTYLE
  5
25
330
0
100
AcDbSymbolTable
 70
     1
100
AcDbDimStyleTable
 71
     1
340
26
  0
DIMSTYLE
105
26
102
{ACAD_REACTORS
330
EF4
330
EF5
102
}
330
25
100
AcDbSymbolTableRecord
100
AcDbDimStyleTableRecord
  2
STANDARD
 70
     0
 40
0.0
 41
2.0
 42
2.0
 43
8.0
 44
2.0
 73
     0
 74
     0
 77
     3
140
3.0
141
0.0
173
     1
279
     2
288
     1
340
1A
341
27
343
27
344
27
  0
ENDTAB
  0
TABLE
  2
BLOCK_RECORD
  5
1
330
0
100
AcDbSymbolTable
 70
     7
  0
BLOCK_RECORD
  5
2
102
{ACAD_XDICTIONARY
360
3
102
}
330
1
100
AcDbSymbolTableRecord
100
AcDbBlockTableRecord
  2
*MODEL_SPACE
340
C
  0
BLOCK_RECORD
  5
E
102
{ACAD_XDICTIONARY
360
F
102
}
330
1
100
AcDbSymbolTableRecord
100
AcDbBlockTableRecord
  2
*PAPER_SPACE
340
13
  0
BLOCK_RECORD
  5
27
330
1
100
AcDbSymbolTableRecord
100
AcDbBlockTableRecord
  2
_OPEN30
340
0
102
{BLKREFS
331
567
331
568
331
573
331
574
331
5CF
331
5D0
331
5C3
331
5C4
331
1063
331
1064
331
106C
331
106D
102
}
  0
BLOCK_RECORD
  5
1024
330
1
100
AcDbSymbolTableRecord
100
AcDbBlockTableRecord
  2
*D5
340
0
  0
BLOCK_RECORD
  5
1030
330
1
100
AcDbSymbolTableRecord
100
AcDbBlockTableRecord
  2
*D6
340
0
  0
ENDTAB
  0
ENDSEC
  0
SECTION
  2
BLOCKS
  0
BLOCK
  5
5
330
2
100
AcDbEntity
  8
0
100
AcDbBlockBegin
  2
*MODEL_SPACE
 70
     0
 10
0.0
 20
0.0
 30
0.0
  3
*MODEL_SPACE
  1

  0
ENDBLK
  5
B
330
2
100
AcDbEntity
  8
0
100
AcDbBlockEnd
  0
BLOCK
  5
11
330
E
100
AcDbEntity
 67
     1
  8
0
100
AcDbBlockBegin
  2
*PAPER_SPACE
 70
     0
 10
0.0
 20
0.0
 30
0.0
  3
*PAPER_SPACE
  1

  0
ENDBLK
  5
12
330
E
100
AcDbEntity
 67
     1
  8
0
100
AcDbBlockEnd
  0
BLOCK
  5
28
330
27
100
AcDbEntity
  8
0
100
AcDbBlockBegin
  2
_OPEN30
 70
     0
 10
0.0
 20
0.0
 30
0.0
  3
_OPEN30
  1

  0
LINE
  5
29
330
27
100
AcDbEntity
  8
0
  6
ByBlock
 62
     0
100
AcDbLine
 10
-1.0
 20
0.26794919
 30
0.0
 11
0.0
 21
0.0
 31
0.0
  0
LINE
  5
2A
330
27
100
AcDbEntity
  8
0
  6
ByBlock
 62
     0
100
AcDbLine
 10
0.0
 20
0.0
 30
0.0
 11
-1.0
 21
-0.26794919
 31
0.0
  0
LINE
  5
2B
330
27
100
AcDbEntity
  8
0
  6
ByBlock
 62
     0
100
AcDbLine
 10
0.0
 20
0.0
 30
0.0
 11
-1.0
 21
0.0
 31
0.0
  0
ENDBLK
  5
2C
330
27
100
AcDbEntity
  8
0
100
AcDbBlockEnd
  0
BLOCK
  5
102E
330
1024
100
AcDbEntity
  8
0
100
AcDbBlockBegin
  2
*D5
 70
     1
 10
0.0
 20
0.0
 30
0.0
  3
*D5
  1

  0
LINE
  5
1069
330
1024
100
AcDbEntity
  8
SUNPO
 62
     0
370
    -2
100
AcDbLine
 10
15.56262169906654
 20
45.70499120151524
 30
0.0
 11
15.56262169906654
 21
53.70499120151524
 31
0.0
  0
LINE
  5
106A
330
1024
100
AcDbEntity
  8
SUNPO
 62
     0
370
    -2
100
AcDbLine
 10
33.1630625790666
 20
45.70499120151524
 30
0.0
 11
33.1630625790666
 21
53.70499120151524
 31
0.0
  0
LINE
  5
106B
330
1024
100
AcDbEntity
  8
SUNPO
 62
     0
370
    -2
100
AcDbLine
 10
17.56262169906654
 20
51.70499120151524
 30
0.0
 11
31.16306257906661
 21
51.70499120151524
 31
0.0
  0
INSERT
  5
106C
330
1024
100
AcDbEntity
  8
SUNPO
 62
     0
370
    -2
100
AcDbBlockReference
  2
_OPEN30
 10
15.56262169906654
 20
51.70499120151524
 30
0.0
 41
2.0
 42
2.0
 43
2.0
 50
180.0
  0
INSERT
  5
106D
330
1024
100
AcDbEntity
  8
SUNPO
 62
     0
370
    -2
100
AcDbBlockReference
  2
_OPEN30
 10
33.1630625790666
 20
51.70499120151524
 30
0.0
 41
2.0
 42
2.0
 43
2.0
  0
MTEXT
  5
106E
330
1024
100
AcDbEntity
  8
SUNPO
 62
     0
100
AcDbMText
 10
24.36284213906657
 20
53.45499120151524
 30
0.0
 40
2.5
 41
0.0
 71
     5
 72
     1
  1
\A1;88
 73
     1
 44
1.0
1001
ACAD
1000
MTEXTBEGIN
1070
    73
1070
     1
1070
    44
1040
1.0
1070
    74
1070
     0
1000
MTEXTEND
  0
POINT
  5
106F
330
1024
100
AcDbEntity
  8
DEFPOINTS
 62
     0
100
AcDbPoint
 10
15.56262169906654
 20
43.70499120151523
 30
0.0
  0
POINT
  5
1070
330
1024
100
AcDbEntity
  8
DEFPOINTS
 62
     0
100
AcDbPoint
 10
33.1630625790666
 20
43.70499120151523
 30
0.0
  0
POINT
  5
1071
330
1024
100
AcDbEntity
  8
DEFPOINTS
 62
     0
100
AcDbPoint
 10
33.1630625790666
 20
51.70499120151524
 30
0.0
  0
ENDBLK
  5
102F
330
1024
100
AcDbEntity
  8
0
100
AcDbBlockEnd
  0
BLOCK
  5
103A
330
1030
100
AcDbEntity
  8
0
100
AcDbBlockBegin
  2
*D6
 70
     1
 10
0.0
 20
0.0
 30
0.0
  3
*D6
  1

  0
LINE
  5
1060
330
1030
100
AcDbEntity
  8
SUNPO
 62
     0
370
    -2
100
AcDbLine
 10
-38.61487567836116
 20
45.70499120151535
 30
0.0
 11
-38.61487567836116
 21
53.70499120151541
 31
0.0
  0
LINE
  5
1061
330
1030
100
AcDbEntity
  8
SUNPO
 62
     0
370
    -2
100
AcDbLine
 10
-0.3148686872187908
 20
45.70499120151535
 30
0.0
 11
-0.3148686872187903
 21
53.70499120151541
 31
0.0
  0
LINE
  5
1062
330
1030
100
AcDbEntity
  8
SUNPO
 62
     0
370
    -2
100
AcDbLine
 10
-36.61487567836116
 20
51.70499120151541
 30
0.0
 11
-2.31486868721879
 21
51.70499120151541
 31
0.0
  0
INSERT
  5
1063
330
1030
100
AcDbEntity
  8
SUNPO
 62
     0
370
    -2
100
AcDbBlockReference
  2
_OPEN30
 10
-38.61487567836116
 20
51.70499120151541
 30
0.0
 41
2.0
 42
2.0
 43
2.0
 50
180.0
  0
INSERT
  5
1064
330
1030
100
AcDbEntity
  8
SUNPO
 62
     0
370
    -2
100
AcDbBlockReference
  2
_OPEN30
 10
-0.3148686872187904
 20
51.70499120151541
 30
0.0
 41
2.0
 42
2.0
 43
2.0
  0
MTEXT
  5
1065
330
1030
100
AcDbEntity
  8
SUNPO
 62
     0
100
AcDbMText
 10
-19.46487218278997
 20
53.45499120151541
 30
0.0
 40
2.5
 41
0.0
 71
     5
 72
     1
  1
\A1;191.5
 73
     1
 44
1.0
1001
ACAD
1000
MTEXTBEGIN
1070
    73
1070
     1
1070
    44
1040
1.0
1070
    74
1070
     0
1000
MTEXTEND
  0
POINT
  5
1066
330
1030
100
AcDbEntity
  8
DEFPOINTS
 62
     0
100
AcDbPoint
 10
-38.61487567836116
 20
43.70499120151535
 30
0.0
  0
POINT
  5
1067
330
1030
100
AcDbEntity
  8
DEFPOINTS
 62
     0
100
AcDbPoint
 10
-0.3148686872187909
 20
43.70499120151535
 30
0.0
  0
POINT
  5
1068
330
1030
100
AcDbEntity
  8
DEFPOINTS
 62
     0
100
AcDbPoint
 10
-0.3148686872187904
 20
51.70499120151541
 30
0.0
  0
ENDBLK
  5
103B
330
1030
100
AcDbEntity
  8
0
100
AcDbBlockEnd
  0
ENDSEC
  0
SECTION
  2
ENTITIES
  0
TEXT
  5
B00
330
2
100
AcDbEntity
  8
TOUROKU
100
AcDbText
 10
48.53552607807547
 20
82.76724760860119
 30
0.0
 40
2.0
  1
ＤＧＳＷ４５８
 72
     2
 11
64.53552607807546
 21
82.76724760860119
 31
0.0
100
AcDbText
  0
TEXT
  5
B01
330
2
100
AcDbEntity
  8
MOJI1
100
AcDbText
 10
-33.4644239548519
 20
88.76724760860113
 30
0.0
 40
4.0
  1
ネットワークカメラ
100
AcDbText
  0
ARC
  5
B02
330
2
100
AcDbEntity
  8
GAIKEI
  6
Continuous
 62
     7
370
    40
100
AcDbCircle
 10
24.86285466406662
 20
12.45281658975804
 30
0.0
 40
0.10000290501002
100
AcDbArc
 50
180.0156219999999
 51
260.4189430000003
  0
LINE
  5
B03
330
2
100
AcDbEntity
  8
GAIKEI
  6
Continuous
 62
     7
 48
0.001272
370
    40
100
AcDbLine
 10
24.7628521590666
 20
12.45333540275394
 30
0.0
 11
24.7628521590666
 21
12.47369111265172
 31
0.0
  0
POLYLINE
  5
B04
330
2
100
AcDbEntity
  8
GAIKEI
  6
Continuous
 62
     7
370
    40
100
AcDb2dPolyline
 66
     1
 10
0.0
 20
0.0
 30
0.0
  0
VERTEX
  5
B05
330
B04
100
AcDbEntity
  8
GAIKEI
  6
Continuous
 62
     7
370
     0
100
AcDbVertex
100
AcDb2dVertex
 10
24.96293037090027
 20
12.216391067447
 30
0.0
  0
VERTEX
  5
B06
330
B04
100
AcDbEntity
  8
GAIKEI
  6
Continuous
 62
     7
370
     0
100
AcDbVertex
100
AcDb2dVertex
 10
24.9634919849683
 20
12.21319258732714
 30
0.0
  0
VERTEX
  5
B07
330
B04
100
AcDbEntity
  8
GAIKEI
  6
Continuous
 62
     7
370
     0
100
AcDbVertex
100
AcDb2dVertex
 10
24.96595764673157
 20
12.20702163274856
 30
0.0
  0
VERTEX
  5
B08
330
B04
100
AcDbEntity
  8
GAIKEI
  6
Continuous
 62
     7
370
     0
100
AcDbVertex
100
AcDb2dVertex
 10
24.96703207364533
 20
12.19764659790982
 30
0.0
  0
VERTEX
  5
B09
330
B04
100
AcDbEntity
  8
GAIKEI
  6
Continuous
 62
     7
370
     0
100
AcDbVertex
100
AcDb2dVertex
 10
24.96704407394588
 20
12.16015165868518
 30
0.0
  0
SEQEND
  5
B0A
330
B04
100
AcDbEntity
  8
GAIKEI
  6
Continuous
 62
     7
370
     0
  0
ARC
  5
B0B
330
2
100
AcDbEntity
  8
GAIKEI
  6
Continuous
 62
     1
370
    40
100
AcDbCircle
 10
24.86285466406662
 20
44.0670057053579
 30
0.0
 40
0.100002505
100
AcDbArc
 50
93.5763369999997
 51
180.0000050000005
  0
ARC
  5
B0C
330
2
100
AcDbEntity
  8
GAIKEI
  6
Continuous
 62
     7
370
    40
100
AcDbCircle
 10
24.82292446384008
 20
12.21615306148519
 30
0.0
 40
0.14000790711022
100
AcDbArc
 50
0.0991720000007044
 51
80.42564800000047
  0
ARC
  5
B0D
330
2
100
AcDbEntity
  8
GAIKEI
  6
Continuous
 62
     7
370
    40
100
AcDbCircle
 10
25.26286468406659
 20
12.16015165868518
 30
0.0
 40
0.300007515
100
AcDbArc
 50
180.000514
 51
269.9998129999981
  0
LINE
  5
B0E
330
2
100
AcDbEntity
  8
GAIKEI
  6
Continuous
 62
     7
 48
0.495104
370
    40
100
AcDbLine
 10
24.85661650780469
 20
44.16681300546812
 30
0.0
 11
32.76305255906653
 21
44.66096578368509
 31
0.0
  0
POLYLINE
  5
B0F
330
2
100
AcDbEntity
  8
GAIKEI
  6
Continuous
 62
     1
370
    13
100
AcDb2dPolyline
 66
     1
 10
0.0
 20
0.0
 30
0.0
  0
VERTEX
  5
B10
330
B0F
100
AcDbEntity
  8
GAIKEI
  6
Continuous
 62
     1
370
     0
100
AcDbVertex
100
AcDb2dVertex
 10
27.60774742190779
 20
27.01685340974163
 30
0.0
  0
VERTEX
  5
B11
330
B0F
100
AcDbEntity
  8
GAIKEI
  6
Continuous
 62
     1
370
     0
100
AcDbVertex
100
AcDb2dVertex
 10
27.59615073141799
 20
27.01599858832887
 30
0.0
  0
VERTEX
  5
B12
330
B0F
100
AcDbEntity
  8
GAIKEI
  6
Continuous
 62
     1
370
     0
100
AcDbVertex
100
AcDb2dVertex
 10
27.58428523419468
 20
27.02218794336827
 30
0.0
  0
VERTEX
  5
B13
330
B0F
100
AcDbEntity
  8
GAIKEI
  6
Continuous
 62
     1
370
     0
100
AcDbVertex
100
AcDb2dVertex
 10
27.57263934247237
 20
27.0360430904311
 30
0.0
  0
VERTEX
  5
B14
330
B0F
100
AcDbEntity
  8
GAIKEI
  6
Continuous
 62
     1
370
     0
100
AcDbVertex
100
AcDb2dVertex
 10
27.55636693485883
 20
27.07110276865396
 30
0.0
  0
VERTEX
  5
B15
330
B0F
100
AcDbEntity
  8
GAIKEI
  6
Continuous
 62
     1
370
     0
100
AcDbVertex
100
AcDb2dVertex
 10
27.54235298381809
 20
27.11937637787761
 30
0.0
  0
VERTEX
  5
B16
330
B0F
100
AcDbEntity
  8
GAIKEI
  6
Continuous
 62
     1
370
     0
100
AcDbVertex
100
AcDb2dVertex
 10
27.53092669759678
 20
27.17544498236097
 30
0.0
  0
VERTEX
  5
B17
330
B0F
100
AcDbEntity
  8
GAIKEI
  6
Continuous
 62
     1
370
     0
100
AcDbVertex
100
AcDb2dVertex
 10
27.52152726214684
 20
27.2381293525651
 30
0.0
  0
VERTEX
  5
B18
330
B0F
100
AcDbEntity
  8
GAIKEI
  6
Continuous
 62
     1
370
     0
100
AcDbVertex
100
AcDb2dVertex
 10
27.50635328204817
 20
27.3982289629599
 30
0.0
  0
VERTEX
  5
B19
330
B0F
100
AcDbEntity
  8
GAIKEI
  6
Continuous
 62
     1
370
     0
100
AcDbVertex
100
AcDb2dVertex
 10
27.49804027381254
 20
27.59908839436261
 30
0.0
  0
SEQEND
  5
B1A
330
B0F
100
AcDbEntity
  8
GAIKEI
  6
Continuous
 62
     1
370
     0
  0
POLYLINE
  5
B1B
330
2
100
AcDbEntity
  8
GAIKEI
  6
Continuous
 62
     1
370
    13
100
AcDb2dPolyline
 66
     1
 10
0.0
 20
0.0
 30
0.0
  0
VERTEX
  5
B1C
330
B1B
100
AcDbEntity
  8
GAIKEI
  6
Continuous
 62
     1
370
     0
100
AcDbVertex
100
AcDb2dVertex
 10
27.79238364692935
 20
27.10569203509348
 30
0.0
  0
VERTEX
  5
B1D
330
B1B
100
AcDbEntity
  8
GAIKEI
  6
Continuous
 62
     1
370
     0
100
AcDbVertex
100
AcDb2dVertex
 10
27.75590793323568
 20
27.07862855717028
 30
0.0
  0
VERTEX
  5
B1E
330
B1B
100
AcDbEntity
  8
GAIKEI
  6
Continuous
 62
     1
370
     0
100
AcDbVertex
100
AcDb2dVertex
 10
27.71599013331979
 20
27.05451275308448
 30
0.0
  0
VERTEX
  5
B1F
330
B1B
100
AcDbEntity
  8
GAIKEI
  6
Continuous
 62
     1
370
     0
100
AcDbVertex
100
AcDb2dVertex
 10
27.65561262090102
 20
27.03141057438947
 30
0.0
  0
VERTEX
  5
B20
330
B1B
100
AcDbEntity
  8
GAIKEI
  6
Continuous
 62
     1
370
     0
100
AcDbVertex
100
AcDb2dVertex
 10
27.60774742190779
 20
27.01685340974163
 30
0.0
  0
SEQEND
  5
B21
330
B1B
100
AcDbEntity
  8
GAIKEI
  6
Continuous
 62
     1
370
     0
  0
POLYLINE
  5
B22
330
2
100
AcDbEntity
  8
GAIKEI
  6
Continuous
 62
     1
370
    13
100
AcDb2dPolyline
 66
     1
 10
0.0
 20
0.0
 30
0.0
  0
VERTEX
  5
B23
330
B22
100
AcDbEntity
  8
GAIKEI
  6
Continuous
 62
     1
370
     0
100
AcDbVertex
100
AcDb2dVertex
 10
27.91659315829964
 20
27.60286048885129
 30
0.0
  0
VERTEX
  5
B24
330
B22
100
AcDbEntity
  8
GAIKEI
  6
Continuous
 62
     1
370
     0
100
AcDbVertex
100
AcDb2dVertex
 10
27.90028434977421
 20
27.44234606806569
 30
0.0
  0
VERTEX
  5
B25
330
B22
100
AcDbEntity
  8
GAIKEI
  6
Continuous
 62
     1
370
     0
100
AcDbVertex
100
AcDb2dVertex
 10
27.88739322685967
 20
27.35990400294369
 30
0.0
  0
VERTEX
  5
B26
330
B22
100
AcDbEntity
  8
GAIKEI
  6
Continuous
 62
     1
370
     0
100
AcDbVertex
100
AcDb2dVertex
 10
27.86863035686156
 20
27.27191939898464
 30
0.0
  0
VERTEX
  5
B27
330
B22
100
AcDbEntity
  8
GAIKEI
  6
Continuous
 62
     1
370
     0
100
AcDbVertex
100
AcDb2dVertex
 10
27.8450461660924
 20
27.19425625357152
 30
0.0
  0
VERTEX
  5
B28
330
B22
100
AcDbEntity
  8
GAIKEI
  6
Continuous
 62
     1
370
     0
100
AcDbVertex
100
AcDb2dVertex
 10
27.82760172912026
 20
27.15365483653156
 30
0.0
  0
VERTEX
  5
B29
330
B22
100
AcDbEntity
  8
GAIKEI
  6
Continuous
 62
     1
370
     0
100
AcDbVertex
100
AcDb2dVertex
 10
27.80948607533446
 20
27.12372848689526
 30
0.0
  0
VERTEX
  5
B2A
330
B22
100
AcDbEntity
  8
GAIKEI
  6
Continuous
 62
     1
370
     0
100
AcDbVertex
100
AcDb2dVertex
 10
27.79238364692935
 20
27.10569203509348
 30
0.0
  0
SEQEND
  5
B2B
330
B22
100
AcDbEntity
  8
GAIKEI
  6
Continuous
 62
     1
370
     0
  0
POLYLINE
  5
B2C
330
2
100
AcDbEntity
  8
GAIKEI
  6
Continuous
 62
     1
370
    13
100
AcDb2dPolyline
 66
     1
 10
0.0
 20
0.0
 30
0.0
  0
VERTEX
  5
B2D
330
B2C
100
AcDbEntity
  8
GAIKEI
  6
Continuous
 62
     1
370
     0
100
AcDbVertex
100
AcDb2dVertex
 10
27.94304662094237
 20
28.26055496368517
 30
0.0
  0
VERTEX
  5
B2E
330
B2C
100
AcDbEntity
  8
GAIKEI
  6
Continuous
 62
     1
370
     0
100
AcDbVertex
100
AcDb2dVertex
 10
27.93899371941973
 20
28.00952347550387
 30
0.0
  0
VERTEX
  5
B2F
330
B2C
100
AcDbEntity
  8
GAIKEI
  6
Continuous
 62
     1
370
     0
100
AcDbVertex
100
AcDb2dVertex
 10
27.92611499681573
 20
27.74215837817596
 30
0.0
  0
VERTEX
  5
B30
330
B2C
100
AcDbEntity
  8
GAIKEI
  6
Continuous
 62
     1
370
     0
100
AcDbVertex
100
AcDb2dVertex
 10
27.91659315829964
 20
27.60286048885129
 30
0.0
  0
SEQEND
  5
B31
330
B2C
100
AcDbEntity
  8
GAIKEI
  6
Continuous
 62
     1
370
     0
  0
POLYLINE
  5
B32
330
2
100
AcDbEntity
  8
GAIKEI
  6
Continuous
 62
     1
370
    13
100
AcDb2dPolyline
 66
     1
 10
0.0
 20
0.0
 30
0.0
  0
VERTEX
  5
B33
330
B32
100
AcDbEntity
  8
GAIKEI
  6
Continuous
 62
     1
370
     0
100
AcDbVertex
100
AcDb2dVertex
 10
27.91659315829964
 20
28.91824983852902
 30
0.0
  0
VERTEX
  5
B34
330
B32
100
AcDbEntity
  8
GAIKEI
  6
Continuous
 62
     1
370
     0
100
AcDbVertex
100
AcDb2dVertex
 10
27.93400079435003
 20
28.63655318220455
 30
0.0
  0
VERTEX
  5
B35
330
B32
100
AcDbEntity
  8
GAIKEI
  6
Continuous
 62
     1
370
     0
100
AcDbVertex
100
AcDb2dVertex
 10
27.93966493623327
 20
28.48938149564614
 30
0.0
  0
VERTEX
  5
B36
330
B32
100
AcDbEntity
  8
GAIKEI
  6
Continuous
 62
     1
370
     0
100
AcDbVertex
100
AcDb2dVertex
 10
27.94304662094237
 20
28.26055496368517
 30
0.0
  0
SEQEND
  5
B37
330
B32
100
AcDbEntity
  8
GAIKEI
  6
Continuous
 62
     1
370
     0
  0
POLYLINE
  5
B38
330
2
100
AcDbEntity
  8
GAIKEI
  6
Continuous
 62
     1
370
    13
100
AcDb2dPolyline
 66
     1
 10
0.0
 20
0.0
 30
0.0
  0
VERTEX
  5
B39
330
B38
100
AcDbEntity
  8
GAIKEI
  6
Continuous
 62
     1
370
     0
100
AcDbVertex
100
AcDb2dVertex
 10
27.79238364692935
 20
29.41541789227685
 30
0.0
  0
VERTEX
  5
B3A
330
B38
100
AcDbEntity
  8
GAIKEI
  6
Continuous
 62
     1
370
     0
100
AcDbVertex
100
AcDb2dVertex
 10
27.80703241387175
 20
29.4005371195228
 30
0.0
  0
VERTEX
  5
B3B
330
B38
100
AcDbEntity
  8
GAIKEI
  6
Continuous
 62
     1
370
     0
100
AcDbVertex
100
AcDb2dVertex
 10
27.82256000282814
 20
29.37700132996608
 30
0.0
  0
VERTEX
  5
B3C
330
B38
100
AcDbEntity
  8
GAIKEI
  6
Continuous
 62
     1
370
     0
100
AcDbVertex
100
AcDb2dVertex
 10
27.83846640127342
 20
29.34367529516985
 30
0.0
  0
VERTEX
  5
B3D
330
B38
100
AcDbEntity
  8
GAIKEI
  6
Continuous
 62
     1
370
     0
100
AcDbVertex
100
AcDb2dVertex
 10
27.85403039114158
 20
29.30074221972322
 30
0.0
  0
VERTEX
  5
B3E
330
B38
100
AcDbEntity
  8
GAIKEI
  6
Continuous
 62
     1
370
     0
100
AcDbVertex
100
AcDb2dVertex
 10
27.86836195013814
 20
29.25030135621123
 30
0.0
  0
VERTEX
  5
B3F
330
B38
100
AcDbEntity
  8
GAIKEI
  6
Continuous
 62
     1
370
     0
100
AcDbVertex
100
AcDb2dVertex
 10
27.88784483817233
 20
29.15861225945682
 30
0.0
  0
VERTEX
  5
B40
330
B38
100
AcDbEntity
  8
GAIKEI
  6
Continuous
 62
     1
370
     0
100
AcDbVertex
100
AcDb2dVertex
 10
27.90290881551551
 20
29.05860975445691
 30
0.0
  0
VERTEX
  5
B41
330
B38
100
AcDbEntity
  8
GAIKEI
  6
Continuous
 62
     1
370
     0
100
AcDbVertex
100
AcDb2dVertex
 10
27.91659315829964
 20
28.91824983852902
 30
0.0
  0
SEQEND
  5
B42
330
B38
100
AcDbEntity
  8
GAIKEI
  6
Continuous
 62
     1
370
     0
  0
POLYLINE
  5
B43
330
2
100
AcDbEntity
  8
GAIKEI
  6
Continuous
 62
     1
370
    13
100
AcDb2dPolyline
 66
     1
 10
0.0
 20
0.0
 30
0.0
  0
VERTEX
  5
B44
330
B43
100
AcDbEntity
  8
GAIKEI
  6
Continuous
 62
     1
370
     0
100
AcDbVertex
100
AcDb2dVertex
 10
27.60773542160723
 20
29.50426291778896
 30
0.0
  0
VERTEX
  5
B45
330
B43
100
AcDbEntity
  8
GAIKEI
  6
Continuous
 62
     1
370
     0
100
AcDbVertex
100
AcDb2dVertex
 10
27.67265384777306
 20
29.48448722242026
 30
0.0
  0
VERTEX
  5
B46
330
B43
100
AcDbEntity
  8
GAIKEI
  6
Continuous
 62
     1
370
     0
100
AcDbVertex
100
AcDb2dVertex
 10
27.71103400917195
 20
29.46906923620927
 30
0.0
  0
VERTEX
  5
B47
330
B43
100
AcDbEntity
  8
GAIKEI
  6
Continuous
 62
     1
370
     0
100
AcDbVertex
100
AcDb2dVertex
 10
27.75186743202358
 20
29.44524063931792
 30
0.0
  0
VERTEX
  5
B48
330
B43
100
AcDbEntity
  8
GAIKEI
  6
Continuous
 62
     1
370
     0
100
AcDbVertex
100
AcDb2dVertex
 10
27.79238364692935
 20
29.41541789227685
 30
0.0
  0
SEQEND
  5
B49
330
B43
100
AcDbEntity
  8
GAIKEI
  6
Continuous
 62
     1
370
     0
  0
POLYLINE
  5
B4A
330
2
100
AcDbEntity
  8
GAIKEI
  6
Continuous
 62
     1
370
    13
100
AcDb2dPolyline
 66
     1
 10
0.0
 20
0.0
 30
0.0
  0
VERTEX
  5
B4B
330
B4A
100
AcDbEntity
  8
GAIKEI
  6
Continuous
 62
     1
370
     0
100
AcDbVertex
100
AcDb2dVertex
 10
27.498027873502
 20
28.92315716145444
 30
0.0
  0
VERTEX
  5
B4C
330
B4A
100
AcDbEntity
  8
GAIKEI
  6
Continuous
 62
     1
370
     0
100
AcDbVertex
100
AcDb2dVertex
 10
27.50722010376148
 20
29.13574768671364
 30
0.0
  0
VERTEX
  5
B4D
330
B4A
100
AcDbEntity
  8
GAIKEI
  6
Continuous
 62
     1
370
     0
100
AcDbVertex
100
AcDb2dVertex
 10
27.52401732452142
 20
29.3015114389917
 30
0.0
  0
VERTEX
  5
B4E
330
B4A
100
AcDbEntity
  8
GAIKEI
  6
Continuous
 62
     1
370
     0
100
AcDbVertex
100
AcDb2dVertex
 10
27.53356356364873
 20
29.36033851257295
 30
0.0
  0
VERTEX
  5
B4F
330
B4A
100
AcDbEntity
  8
GAIKEI
  6
Continuous
 62
     1
370
     0
100
AcDbVertex
100
AcDb2dVertex
 10
27.54506305170366
 20
29.41256142072402
 30
0.0
  0
VERTEX
  5
B50
330
B4A
100
AcDbEntity
  8
GAIKEI
  6
Continuous
 62
     1
370
     0
100
AcDbVertex
100
AcDb2dVertex
 10
27.5589669999888
 20
29.45694733256321
 30
0.0
  0
VERTEX
  5
B51
330
B4A
100
AcDbEntity
  8
GAIKEI
  6
Continuous
 62
     1
370
     0
100
AcDbVertex
100
AcDb2dVertex
 10
27.57223653238225
 20
29.48437721966465
 30
0.0
  0
VERTEX
  5
B52
330
B4A
100
AcDbEntity
  8
GAIKEI
  6
Continuous
 62
     1
370
     0
100
AcDbVertex
100
AcDb2dVertex
 10
27.58671449504618
 20
29.50078403064501
 30
0.0
  0
VERTEX
  5
B53
330
B4A
100
AcDbEntity
  8
GAIKEI
  6
Continuous
 62
     1
370
     0
100
AcDbVertex
100
AcDb2dVertex
 10
27.5973223607665
 20
29.50531294409151
 30
0.0
  0
VERTEX
  5
B54
330
B4A
100
AcDbEntity
  8
GAIKEI
  6
Continuous
 62
     1
370
     0
100
AcDbVertex
100
AcDb2dVertex
 10
27.60773542160723
 20
29.50426291778896
 30
0.0
  0
SEQEND
  5
B55
330
B4A
100
AcDbEntity
  8
GAIKEI
  6
Continuous
 62
     1
370
     0
  0
LINE
  5
B56
330
2
100
AcDbEntity
  8
GAIKEI
  6
Continuous
 62
     7
 48
0.000034
370
    40
100
AcDbLine
 10
24.7628521590666
 20
12.45278618899644
 30
0.0
 11
24.7628521590666
 21
12.45333540275394
 31
0.0
  0
LINE
  5
B57
330
2
100
AcDbEntity
  8
GAIKEI
  6
Continuous
 62
     1
 48
0.00498
370
    13
100
AcDbLine
 10
27.49804027381254
 20
27.59908839436261
 30
0.0
 11
27.49791827075649
 21
27.67876559022634
 31
0.0
  0
POLYLINE
  5
B58
330
2
100
AcDbEntity
  8
GAIKEI
  6
Continuous
 62
     1
370
    13
100
AcDb2dPolyline
 66
     1
 10
0.0
 20
0.0
 30
0.0
  0
VERTEX
  5
B59
330
B58
100
AcDbEntity
  8
GAIKEI
  6
Continuous
 62
     1
370
     0
100
AcDbVertex
100
AcDb2dVertex
 10
27.5088557447333
 20
25.74252308856669
 30
0.0
  0
VERTEX
  5
B5A
330
B58
100
AcDbEntity
  8
GAIKEI
  6
Continuous
 62
     1
370
     0
100
AcDbVertex
100
AcDb2dVertex
 10
27.4889700466091
 20
25.81487010081398
 30
0.0
  0
VERTEX
  5
B5B
330
B58
100
AcDbEntity
  8
GAIKEI
  6
Continuous
 62
     1
370
     0
100
AcDbVertex
100
AcDb2dVertex
 10
27.47948500901487
 20
25.87344076797237
 30
0.0
  0
VERTEX
  5
B5C
330
B58
100
AcDbEntity
  8
GAIKEI
  6
Continuous
 62
     1
370
     0
100
AcDbVertex
100
AcDb2dVertex
 10
27.47760496192086
 20
25.93428229201445
 30
0.0
  0
SEQEND
  5
B5D
330
B58
100
AcDbEntity
  8
GAIKEI
  6
Continuous
 62
     1
370
     0
  0
ARC
  5
B5E
330
2
100
AcDbEntity
  8
GAIKEI
  6
Continuous
 62
     1
370
    13
100
AcDbCircle
 10
27.72924726540259
 20
25.87439919198036
 30
0.0
 40
0.25862327835084
100
AcDbArc
 50
157.2824
 51
166.6148970000021
  0
POLYLINE
  5
B5F
330
2
100
AcDbEntity
  8
GAIKEI
  6
Continuous
 62
     1
370
    13
100
AcDb2dPolyline
 66
     1
 10
0.0
 20
0.0
 30
0.0
  0
VERTEX
  5
B60
330
B5F
100
AcDbEntity
  8
GAIKEI
  6
Continuous
 62
     1
370
     0
100
AcDbVertex
100
AcDb2dVertex
 10
27.62483785001223
 20
25.47130069461591
 30
0.0
  0
VERTEX
  5
B61
330
B5F
100
AcDbEntity
  8
GAIKEI
  6
Continuous
 62
     1
370
     0
100
AcDbVertex
100
AcDb2dVertex
 10
27.55432808378691
 20
25.62437452901938
 30
0.0
  0
VERTEX
  5
B62
330
B5F
100
AcDbEntity
  8
GAIKEI
  6
Continuous
 62
     1
370
     0
100
AcDbVertex
100
AcDb2dVertex
 10
27.52296769822886
 20
25.70213527687733
 30
0.0
  0
VERTEX
  5
B63
330
B5F
100
AcDbEntity
  8
GAIKEI
  6
Continuous
 62
     1
370
     0
100
AcDbVertex
100
AcDb2dVertex
 10
27.50884374443274
 20
25.74252308856669
 30
0.0
  0
SEQEND
  5
B64
330
B5F
100
AcDbEntity
  8
GAIKEI
  6
Continuous
 62
     1
370
     0
  0
ELLIPSE
  5
B65
330
2
100
AcDbEntity
  8
GAIKEI
  6
Continuous
 62
     1
370
    13
100
AcDbEllipse
 10
51.17502496742213
 20
24.16693442105915
 30
0.0
 11
23.89044219058594
 21
-0.9465202917706299
 31
0.0
210
0.0
220
0.0
230
1.0
 40
0.3034050000000001
 41
2.926437733285258
 42
3.021608749069262
  0
POLYLINE
  5
B66
330
2
100
AcDbEntity
  8
GAIKEI
  6
Continuous
 62
     1
370
    13
100
AcDb2dPolyline
 66
     1
 10
0.0
 20
0.0
 30
0.0
  0
VERTEX
  5
B67
330
B66
100
AcDbEntity
  8
GAIKEI
  6
Continuous
 62
     1
370
     0
100
AcDbVertex
100
AcDb2dVertex
 10
27.95858621019931
 20
26.87994798034649
 30
0.0
  0
VERTEX
  5
B68
330
B66
100
AcDbEntity
  8
GAIKEI
  6
Continuous
 62
     1
370
     0
100
AcDbVertex
100
AcDb2dVertex
 10
27.95081041542051
 20
26.81429073567378
 30
0.0
  0
VERTEX
  5
B69
330
B66
100
AcDbEntity
  8
GAIKEI
  6
Continuous
 62
     1
370
     0
100
AcDbVertex
100
AcDb2dVertex
 10
27.9400069448003
 20
26.75431603334502
 30
0.0
  0
VERTEX
  5
B6A
330
B66
100
AcDbEntity
  8
GAIKEI
  6
Continuous
 62
     1
370
     0
100
AcDbVertex
100
AcDb2dVertex
 10
27.92764063503205
 20
26.70650603573458
 30
0.0
  0
VERTEX
  5
B6B
330
B66
100
AcDbEntity
  8
GAIKEI
  6
Continuous
 62
     1
370
     0
100
AcDbVertex
100
AcDb2dVertex
 10
27.91302866901151
 20
26.66716185018751
 30
0.0
  0
VERTEX
  5
B6C
330
B66
100
AcDbEntity
  8
GAIKEI
  6
Continuous
 62
     1
370
     0
100
AcDbVertex
100
AcDb2dVertex
 10
27.8967438610872
 20
26.63917034901792
 30
0.0
  0
SEQEND
  5
B6D
330
B66
100
AcDbEntity
  8
GAIKEI
  6
Continuous
 62
     1
370
     0
  0
ARC
  5
B6E
330
2
100
AcDbEntity
  8
GAIKEI
  6
Continuous
 62
     1
370
    13
100
AcDbCircle
 10
12.83757183827754
 20
28.2605429633845
 30
0.0
 40
15.1839883493804
100
AcDbArc
 50
354.7831720000001
 51
5.216877000000526
  0
POLYLINE
  5
B6F
330
2
100
AcDbEntity
  8
GAIKEI
  6
Continuous
 62
     1
370
    13
100
AcDb2dPolyline
 66
     1
 10
0.0
 20
0.0
 30
0.0
  0
VERTEX
  5
B70
330
B6F
100
AcDbEntity
  8
GAIKEI
  6
Continuous
 62
     1
370
     0
100
AcDbVertex
100
AcDb2dVertex
 10
27.8967438610872
 20
29.88194557850258
 30
0.0
  0
VERTEX
  5
B71
330
B6F
100
AcDbEntity
  8
GAIKEI
  6
Continuous
 62
     1
370
     0
100
AcDbVertex
100
AcDb2dVertex
 10
27.90788934027455
 20
29.86442833970679
 30
0.0
  0
VERTEX
  5
B72
330
B6F
100
AcDbEntity
  8
GAIKEI
  6
Continuous
 62
     1
370
     0
100
AcDbVertex
100
AcDb2dVertex
 10
27.91830200110508
 20
29.84153936635241
 30
0.0
  0
VERTEX
  5
B73
330
B6F
100
AcDbEntity
  8
GAIKEI
  6
Continuous
 62
     1
370
     0
100
AcDbVertex
100
AcDb2dVertex
 10
27.93328077631406
 20
29.79482219611654
 30
0.0
  0
VERTEX
  5
B74
330
B6F
100
AcDbEntity
  8
GAIKEI
  6
Continuous
 62
     1
370
     0
100
AcDbVertex
100
AcDb2dVertex
 10
27.94551228270564
 20
29.73905879927847
 30
0.0
  0
VERTEX
  5
B75
330
B6F
100
AcDbEntity
  8
GAIKEI
  6
Continuous
 62
     1
370
     0
100
AcDbVertex
100
AcDb2dVertex
 10
27.95858621019931
 20
29.64115594687346
 30
0.0
  0
SEQEND
  5
B76
330
B6F
100
AcDbEntity
  8
GAIKEI
  6
Continuous
 62
     1
370
     0
  0
ELLIPSE
  5
B77
330
2
100
AcDbEntity
  8
GAIKEI
  6
Continuous
 62
     1
370
    13
100
AcDbEllipse
 10
28.09162194266093
 20
29.88193357820203
 30
0.0
 11
0.1580361852697754
 21
0.1225738711798096
 31
0.0
210
0.0
220
0.0
230
1.0
 40
0.935936
 41
0.9786298911646992
 42
2.449561618803954
  0
LINE
  5
B78
330
2
100
AcDbEntity
  8
GAIKEI
  6
Continuous
 62
     1
 48
0.005074
370
    13
100
AcDbLine
 10
27.49791827075649
 20
28.84197832797563
 30
0.0
 11
27.498027873502
 21
28.92315716145444
 31
0.0
  0
ARC
  5
B79
330
2
100
AcDbEntity
  8
GAIKEI
  6
Continuous
 62
     1
370
    13
100
AcDbCircle
 10
-116.2322448796417
 20
28.25976174381546
 30
0.0
 40
143.7312715781635
100
AcDbArc
 50
359.7683980000001
 51
0.2320929999994459
  0
LINE
  5
B7A
330
2
100
AcDbEntity
  8
GAIKEI
  6
Continuous
 62
     7
370
    40
100
AcDbLine
 10
24.7628521590666
 20
44.0670057053579
 30
0.0
 11
24.7628521590666
 21
12.47369111265172
 31
0.0
  0
LINE
  5
B7B
330
2
100
AcDbEntity
  8
GAIKEI
  6
Continuous
 62
     7
 48
0.001399
370
    13
100
AcDbLine
 10
24.84620384697405
 20
12.35420571961762
 30
0.0
 11
24.85661650780469
 21
12.37401221575791
 31
0.0
  0
ARC
  5
B7C
330
2
100
AcDbEntity
  8
GAIKEI
  6
Continuous
 62
     1
370
    13
100
AcDbCircle
 10
-35.59141247739103
 20
28.41987295450085
 30
0.0
 40
63.00142054605212
100
AcDbArc
 50
359.3293789999999
 51
359.8551060000001
  0
LINE
  5
B7D
330
2
100
AcDbEntity
  8
GAIKEI
  6
Continuous
 62
     1
 48
0.004958
370
    13
100
AcDbLine
 10
27.40516674738899
 20
27.60316569649646
 30
0.0
 11
27.40583836421263
 21
27.6824888834926
 31
0.0
  0
ARC
  5
B7E
330
2
100
AcDbEntity
  8
GAIKEI
  6
Continuous
 62
     1
370
    13
100
AcDbCircle
 10
-97.05492089970949
 20
28.32188489996153
 30
0.0
 40
124.4621868996834
100
AcDbArc
 50
358.9074249999992
 51
359.6691430000005
  0
POLYLINE
  5
B7F
330
2
100
AcDbEntity
  8
GAIKEI
  6
Continuous
 62
     1
370
    13
100
AcDb2dPolyline
 66
     1
 10
0.0
 20
0.0
 30
0.0
  0
VERTEX
  5
B80
330
B7F
100
AcDbEntity
  8
GAIKEI
  6
Continuous
 62
     1
370
     0
100
AcDbVertex
100
AcDb2dVertex
 10
27.4407388384476
 20
25.71517280345924
 30
0.0
  0
VERTEX
  5
B81
330
B7F
100
AcDbEntity
  8
GAIKEI
  6
Continuous
 62
     1
370
     0
100
AcDbVertex
100
AcDb2dVertex
 10
27.41346775532406
 20
25.77945041357302
 30
0.0
  0
VERTEX
  5
B82
330
B7F
100
AcDbEntity
  8
GAIKEI
  6
Continuous
 62
     1
370
     0
100
AcDbVertex
100
AcDb2dVertex
 10
27.39935620183849
 20
25.82571637250621
 30
0.0
  0
VERTEX
  5
B83
330
B7F
100
AcDbEntity
  8
GAIKEI
  6
Continuous
 62
     1
370
     0
100
AcDbVertex
100
AcDb2dVertex
 10
27.38666028381374
 20
25.89794698183775
 30
0.0
  0
VERTEX
  5
B84
330
B7F
100
AcDbEntity
  8
GAIKEI
  6
Continuous
 62
     1
370
     0
100
AcDbVertex
100
AcDb2dVertex
 10
27.38465863367367
 20
25.94865025192277
 30
0.0
  0
SEQEND
  5
B85
330
B7F
100
AcDbEntity
  8
GAIKEI
  6
Continuous
 62
     1
370
     0
  0
POLYLINE
  5
B86
330
2
100
AcDbEntity
  8
GAIKEI
  6
Continuous
 62
     1
370
    13
100
AcDb2dPolyline
 66
     1
 10
0.0
 20
0.0
 30
0.0
  0
VERTEX
  5
B87
330
B86
100
AcDbEntity
  8
GAIKEI
  6
Continuous
 62
     1
370
     0
100
AcDbVertex
100
AcDb2dVertex
 10
27.62483785001223
 20
25.47130069461591
 30
0.0
  0
VERTEX
  5
B88
330
B86
100
AcDbEntity
  8
GAIKEI
  6
Continuous
 62
     1
370
     0
100
AcDbVertex
100
AcDb2dVertex
 10
27.55606172721355
 20
25.54572855898718
 30
0.0
  0
VERTEX
  5
B89
330
B86
100
AcDbEntity
  8
GAIKEI
  6
Continuous
 62
     1
370
     0
100
AcDbVertex
100
AcDb2dVertex
 10
27.52141725939134
 20
25.58811242067631
 30
0.0
  0
VERTEX
  5
B8A
330
B86
100
AcDbEntity
  8
GAIKEI
  6
Continuous
 62
     1
370
     0
100
AcDbVertex
100
AcDb2dVertex
 10
27.47343005734206
 20
25.65669333858532
 30
0.0
  0
VERTEX
  5
B8B
330
B86
100
AcDbEntity
  8
GAIKEI
  6
Continuous
 62
     1
370
     0
100
AcDbVertex
100
AcDb2dVertex
 10
27.4407388384476
 20
25.71517280345924
 30
0.0
  0
SEQEND
  5
B8C
330
B86
100
AcDbEntity
  8
GAIKEI
  6
Continuous
 62
     1
370
     0
  0
LINE
  5
B8D
330
2
100
AcDbEntity
  8
GAIKEI
  6
Continuous
 62
     1
 48
0.385146
370
    13
100
AcDbLine
 10
32.76305255906653
 20
12.59241368657771
 30
0.0
 11
26.61195847801958
 21
12.96698946946603
 31
0.0
  0
POLYLINE
  5
B8E
330
2
100
AcDbEntity
  8
GAIKEI
  6
Continuous
 62
     1
370
    13
100
AcDb2dPolyline
 66
     1
 10
0.0
 20
0.0
 30
0.0
  0
VERTEX
  5
B8F
330
B8E
100
AcDbEntity
  8
GAIKEI
  6
Continuous
 62
     1
370
     0
100
AcDbVertex
100
AcDb2dVertex
 10
26.61195847801958
 20
12.96698946946603
 30
0.0
  0
VERTEX
  5
B90
330
B8E
100
AcDbEntity
  8
GAIKEI
  6
Continuous
 62
     1
370
     0
100
AcDbVertex
100
AcDb2dVertex
 10
26.43857773494074
 20
12.97344723122884
 30
0.0
  0
VERTEX
  5
B91
330
B8E
100
AcDbEntity
  8
GAIKEI
  6
Continuous
 62
     1
370
     0
100
AcDbVertex
100
AcDb2dVertex
 10
26.26800466219231
 20
12.97162838566791
 30
0.0
  0
VERTEX
  5
B92
330
B8E
100
AcDbEntity
  8
GAIKEI
  6
Continuous
 62
     1
370
     0
100
AcDbVertex
100
AcDb2dVertex
 10
26.10667222091592
 20
12.96205174577912
 30
0.0
  0
VERTEX
  5
B93
330
B8E
100
AcDbEntity
  8
GAIKEI
  6
Continuous
 62
     1
370
     0
100
AcDbVertex
100
AcDb2dVertex
 10
25.95266476312565
 20
12.94509572104138
 30
0.0
  0
VERTEX
  5
B94
330
B8E
100
AcDbEntity
  8
GAIKEI
  6
Continuous
 62
     1
370
     0
100
AcDbVertex
100
AcDb2dVertex
 10
25.80911836737858
 20
12.92141952796757
 30
0.0
  0
VERTEX
  5
B95
330
B8E
100
AcDbEntity
  8
GAIKEI
  6
Continuous
 62
     1
370
     0
100
AcDbVertex
100
AcDb2dVertex
 10
25.68266279974591
 20
12.89283601196845
 30
0.0
  0
VERTEX
  5
B96
330
B8E
100
AcDbEntity
  8
GAIKEI
  6
Continuous
 62
     1
370
     0
100
AcDbVertex
100
AcDb2dVertex
 10
25.5728944501177
 20
12.86024239551872
 30
0.0
  0
VERTEX
  5
B97
330
B8E
100
AcDbEntity
  8
GAIKEI
  6
Continuous
 62
     1
370
     0
100
AcDbVertex
100
AcDb2dVertex
 10
25.48165656466585
 20
12.82541512311749
 30
0.0
  0
VERTEX
  5
B98
330
B8E
100
AcDbEntity
  8
GAIKEI
  6
Continuous
 62
     1
370
     0
100
AcDbVertex
100
AcDb2dVertex
 10
25.40747270640679
 20
12.78838419551593
 30
0.0
  0
VERTEX
  5
B99
330
B8E
100
AcDbEntity
  8
GAIKEI
  6
Continuous
 62
     1
370
     0
100
AcDbVertex
100
AcDb2dVertex
 10
25.35632382515939
 20
12.75385573059961
 30
0.0
  0
SEQEND
  5
B9A
330
B8E
100
AcDbEntity
  8
GAIKEI
  6
Continuous
 62
     1
370
     0
  0
ARC
  5
B9B
330
2
100
AcDbEntity
  8
GAIKEI
  6
Continuous
 62
     1
370
    13
100
AcDbCircle
 10
16.64065750318707
 20
23.70407482671678
 30
0.0
 40
13.99540977623296
100
AcDbArc
 50
305.9476139999981
 51
308.5175209999993
  0
LINE
  5
B9C
330
2
100
AcDbEntity
  8
GAIKEI
  6
Continuous
 62
     1
 48
0.321182
370
    13
100
AcDbLine
 10
32.76305255906653
 20
25.3792327883726
 30
0.0
 11
27.62483785001223
 21
25.47130069461591
 31
0.0
  0
LINE
  5
B9D
330
2
100
AcDbEntity
  8
GAIKEI
  6
Continuous
 62
     1
 48
0.292511
370
    13
100
AcDbLine
 10
28.08465176806237
 20
30.07308836650949
 30
0.0
 11
32.76305255906653
 21
30.20607489773872
 31
0.0
  0
LINE
  5
B9E
330
2
100
AcDbEntity
  8
GAIKEI
  6
Continuous
 62
     1
 48
0.321171
370
    13
100
AcDbLine
 10
27.62502105460146
 20
31.04973643093067
 30
0.0
 11
32.76305255906653
 21
31.14187713899762
 31
0.0
  0
POLYLINE
  5
B9F
330
2
100
AcDbEntity
  8
GAIKEI
  6
Continuous
 62
     1
370
    13
100
AcDb2dPolyline
 66
     1
 10
0.0
 20
0.0
 30
0.0
  0
VERTEX
  5
BA0
330
B9F
100
AcDbEntity
  8
GAIKEI
  6
Continuous
 62
     1
370
     0
100
AcDbVertex
100
AcDb2dVertex
 10
27.38465863367367
 20
30.57246607560782
 30
0.0
  0
VERTEX
  5
BA1
330
B9F
100
AcDbEntity
  8
GAIKEI
  6
Continuous
 62
     1
370
     0
100
AcDbVertex
100
AcDb2dVertex
 10
27.3879787168396
 20
30.63501644245523
 30
0.0
  0
VERTEX
  5
BA2
330
B9F
100
AcDbEntity
  8
GAIKEI
  6
Continuous
 62
     1
370
     0
100
AcDbVertex
100
AcDb2dVertex
 10
27.39917299724937
 20
30.69491794295024
 30
0.0
  0
VERTEX
  5
BA3
330
B9F
100
AcDbEntity
  8
GAIKEI
  6
Continuous
 62
     1
370
     0
100
AcDbVertex
100
AcDb2dVertex
 10
27.41721544920142
 20
30.75187736974815
 30
0.0
  0
VERTEX
  5
BA4
330
B9F
100
AcDbEntity
  8
GAIKEI
  6
Continuous
 62
     1
370
     0
100
AcDbVertex
100
AcDb2dVertex
 10
27.44059243478023
 20
30.80563831642607
 30
0.0
  0
VERTEX
  5
BA5
330
B9F
100
AcDbEntity
  8
GAIKEI
  6
Continuous
 62
     1
370
     0
100
AcDbVertex
100
AcDb2dVertex
 10
27.46772951454705
 20
30.85512675608047
 30
0.0
  0
VERTEX
  5
BA6
330
B9F
100
AcDbEntity
  8
GAIKEI
  6
Continuous
 62
     1
370
     0
100
AcDbVertex
100
AcDb2dVertex
 10
27.5129454471778
 20
30.92192522934031
 30
0.0
  0
VERTEX
  5
BA7
330
B9F
100
AcDbEntity
  8
GAIKEI
  6
Continuous
 62
     1
370
     0
100
AcDbVertex
100
AcDb2dVertex
 10
27.56177467031921
 20
30.98197313350258
 30
0.0
  0
VERTEX
  5
BA8
330
B9F
100
AcDbEntity
  8
GAIKEI
  6
Continuous
 62
     1
370
     0
100
AcDbVertex
100
AcDb2dVertex
 10
27.62502105460146
 20
31.04973643093067
 30
0.0
  0
SEQEND
  5
BA9
330
B9F
100
AcDbEntity
  8
GAIKEI
  6
Continuous
 62
     1
370
     0
  0
ARC
  5
BAA
330
2
100
AcDbEntity
  8
GAIKEI
  6
Continuous
 62
     1
370
    13
100
AcDbCircle
 10
-97.08288800026787
 20
28.19889581916229
 30
0.0
 40
124.4901552002718
100
AcDbArc
 50
0.3314559999997161
 51
1.09248499999936
  0
LINE
  5
BAB
330
2
100
AcDbEntity
  8
GAIKEI
  6
Continuous
 62
     1
 48
0.005051
370
    13
100
AcDbLine
 10
27.40585036451319
 20
28.83825503470936
 30
0.0
 11
27.40516674738899
 21
28.91906745900994
 31
0.0
  0
ARC
  5
BAC
330
2
100
AcDbEntity
  8
GAIKEI
  6
Continuous
 62
     1
370
    13
100
AcDbCircle
 10
-33.87791755541844
 20
28.11467730954141
 30
0.0
 40
61.28790002343825
100
AcDbArc
 50
0.1363810000003385
 51
0.6764690000002167
  0
LINE
  5
BAD
330
2
100
AcDbEntity
  8
GAIKEI
  6
Continuous
 62
     7
 48
0.030892
370
    40
100
AcDbLine
 10
25.26286468406659
 20
11.86014414368512
 30
0.0
 11
32.76305255906653
 21
11.86014414368512
 31
0.0
  0
LINE
  5
BAE
330
2
100
AcDbEntity
  8
GAIKEI
  6
Continuous
 62
     7
370
    40
100
AcDbLine
 10
32.76305255906653
 20
44.66096578368509
 30
0.0
 11
32.76305255906653
 21
11.86014414368512
 31
0.0
  0
ARC
  5
BAF
330
2
100
AcDbEntity
  8
GAIKEI
  6
Continuous
 62
     1
370
    40
100
AcDbCircle
 10
26.42289134200644
 20
11.520133226625
 30
0.0
 40
0.060001503
100
AcDbArc
 50
180.0000050000005
 51
270.000037999998
  0
ARC
  5
BB0
330
2
100
AcDbEntity
  8
GAIKEI
  6
Continuous
 62
     1
370
    40
100
AcDbCircle
 10
31.90303341612673
 20
11.520133226625
 30
0.0
 40
0.060001503
100
AcDbArc
 50
269.9999630000002
 51
0.0
  0
LINE
  5
BB1
330
2
100
AcDbEntity
  8
GAIKEI
  6
Continuous
 62
     1
 48
0.01125
370
    40
100
AcDbLine
 10
26.36289223906658
 20
11.70014253574524
 30
0.0
 11
26.36289223906658
 21
11.520133226625
 31
0.0
  0
LINE
  5
BB2
330
2
100
AcDbEntity
  8
GAIKEI
  6
Continuous
 62
     1
 48
0.01125
370
    40
100
AcDbLine
 10
31.96303251906659
 20
11.70014253574524
 30
0.0
 11
31.96303251906659
 21
11.520133226625
 31
0.0
  0
ARC
  5
BB3
330
2
100
AcDbEntity
  8
GAIKEI
  6
Continuous
 62
     1
370
    40
100
AcDbCircle
 10
26.42289134200644
 20
11.70014253574524
 30
0.0
 40
0.060001503
100
AcDbArc
 50
89.99996199999877
 51
179.9999949999995
  0
ARC
  5
BB4
330
2
100
AcDbEntity
  8
GAIKEI
  6
Continuous
 62
     1
370
    40
100
AcDbCircle
 10
31.90303341612673
 20
11.70014253574524
 30
0.0
 40
0.060001503
100
AcDbArc
 50
359.9999990000002
 51
90.00004300000172
  0
LINE
  5
BB5
330
2
100
AcDbEntity
  8
GAIKEI
  6
Continuous
 62
     1
 48
0.17125
370
    40
100
AcDbLine
 10
26.42289134200644
 20
11.46013412368515
 30
0.0
 11
29.16296237906659
 21
11.46013412368515
 31
0.0
  0
LINE
  5
BB6
330
2
100
AcDbEntity
  8
GAIKEI
  6
Continuous
 62
     1
 48
0.170481
370
    40
100
AcDbLine
 10
29.17526708729179
 20
11.46013412368515
 30
0.0
 11
31.90303341612673
 21
11.46013412368515
 31
0.0
  0
ARC
  5
BB7
330
2
100
AcDbEntity
  8
GAIKEI
  6
Continuous
 62
     1
370
    40
100
AcDbCircle
 10
33.06306007406659
 20
43.16092820868513
 30
0.0
 40
0.100002505
100
AcDbArc
 50
0.0
 51
90.00000300000095
  0
ARC
  5
BB8
330
2
100
AcDbEntity
  8
GAIKEI
  6
Continuous
 62
     1
370
    40
100
AcDbCircle
 10
33.06306007406659
 20
29.36058251868516
 30
0.0
 40
0.100002505
100
AcDbArc
 50
359.9986590000004
 51
90.00000300000095
  0
ARC
  5
BB9
330
2
100
AcDbEntity
  8
GAIKEI
  6
Continuous
 62
     1
370
    40
100
AcDbCircle
 10
33.06306007406659
 20
15.56023682868508
 30
0.0
 40
0.100002505
100
AcDbArc
 50
359.9986590000004
 51
90.00000300000095
  0
ARC
  5
BBA
330
2
100
AcDbEntity
  8
GAIKEI
  6
Continuous
 62
     1
370
    40
100
AcDbCircle
 10
33.06306007406659
 20
13.36018171868508
 30
0.0
 40
0.100002505
100
AcDbArc
 50
269.9999969999991
 51
0.001340999999598
  0
ARC
  5
BBB
330
2
100
AcDbEntity
  8
GAIKEI
  6
Continuous
 62
     1
370
    40
100
AcDbCircle
 10
33.06306007406659
 20
29.36058251868516
 30
0.0
 40
0.100002505
100
AcDbArc
 50
359.9986590000004
 51
90.00000300000095
  0
ARC
  5
BBC
330
2
100
AcDbEntity
  8
GAIKEI
  6
Continuous
 62
     1
370
    40
100
AcDbCircle
 10
33.06306007406659
 20
27.16052740868517
 30
0.0
 40
0.100002505
100
AcDbArc
 50
269.9999969999991
 51
0.001340999999598
  0
ARC
  5
BBD
330
2
100
AcDbEntity
  8
GAIKEI
  6
Continuous
 62
     1
370
    40
100
AcDbCircle
 10
33.06306007406659
 20
20.87509156246117
 30
0.0
 40
0.100002505
100
AcDbArc
 50
359.9986590000004
 51
90.00000300000095
  0
ARC
  5
BBE
330
2
100
AcDbEntity
  8
GAIKEI
  6
Continuous
 62
     1
370
    40
100
AcDbCircle
 10
33.06306007406659
 20
18.67503645246117
 30
0.0
 40
0.100002505
100
AcDbArc
 50
269.9999969999991
 51
0.001340999999598
  0
ARC
  5
BBF
330
2
100
AcDbEntity
  8
GAIKEI
  6
Continuous
 62
     1
370
    40
100
AcDbCircle
 10
33.06306007406659
 20
20.87509156246117
 30
0.0
 40
0.100002505
100
AcDbArc
 50
359.9986590000004
 51
90.00000300000095
  0
ARC
  5
BC0
330
2
100
AcDbEntity
  8
GAIKEI
  6
Continuous
 62
     1
370
    40
100
AcDbCircle
 10
33.06306007406659
 20
37.84607347490905
 30
0.0
 40
0.100002505
100
AcDbArc
 50
359.9986590000004
 51
90.00000300000095
  0
LINE
  5
BC1
330
2
100
AcDbEntity
  8
GAIKEI
  6
Continuous
 62
     1
 48
0.00625
370
    40
100
AcDbLine
 10
26.36289223906658
 20
11.86014414368512
 30
0.0
 11
26.36289223906658
 21
11.7601416386851
 31
0.0
  0
ARC
  5
BC2
330
2
100
AcDbEntity
  8
GAIKEI
  6
Continuous
 62
     1
370
    40
100
AcDbCircle
 10
33.06306007406659
 20
37.84607347490905
 30
0.0
 40
0.100002505
100
AcDbArc
 50
359.9986590000004
 51
90.00000300000095
  0
ARC
  5
BC3
330
2
100
AcDbEntity
  8
GAIKEI
  6
Continuous
 62
     1
370
    40
100
AcDbCircle
 10
33.06306007406659
 20
35.64601836490906
 30
0.0
 40
0.100002505
100
AcDbArc
 50
269.9999969999991
 51
0.001340999999598
  0
LINE
  5
BC4
330
2
100
AcDbEntity
  8
GAIKEI
  6
Continuous
 62
     1
 48
0.0125
370
    40
100
AcDbLine
 10
32.86305506406654
 20
43.26093071368515
 30
0.0
 11
33.06306007406659
 21
43.26093071368515
 31
0.0
  0
LINE
  5
BC5
330
2
100
AcDbEntity
  8
GAIKEI
  6
Continuous
 62
     1
 48
0.0125
370
    40
100
AcDbLine
 10
32.86305506406654
 20
29.46058502368519
 30
0.0
 11
33.06306007406659
 21
29.46058502368519
 31
0.0
  0
LINE
  5
BC6
330
2
100
AcDbEntity
  8
GAIKEI
  6
Continuous
 62
     1
 48
0.0125
370
    40
100
AcDbLine
 10
32.86305506406654
 20
15.6602393336851
 30
0.0
 11
33.06306007406659
 21
15.6602393336851
 31
0.0
  0
LINE
  5
BC7
330
2
100
AcDbEntity
  8
GAIKEI
  6
Continuous
 62
     1
 48
0.0125
370
    40
100
AcDbLine
 10
32.86305506406654
 20
13.26017921368517
 30
0.0
 11
33.06306007406659
 21
13.26017921368517
 31
0.0
  0
LINE
  5
BC8
330
2
100
AcDbEntity
  8
GAIKEI
  6
Continuous
 62
     1
 48
0.0125
370
    40
100
AcDbLine
 10
32.86305506406654
 20
29.46058502368519
 30
0.0
 11
33.06306007406659
 21
29.46058502368519
 31
0.0
  0
LINE
  5
BC9
330
2
100
AcDbEntity
  8
GAIKEI
  6
Continuous
 62
     1
 48
0.0125
370
    40
100
AcDbLine
 10
32.86305506406654
 20
27.06052490368515
 30
0.0
 11
33.06306007406659
 21
27.06052490368515
 31
0.0
  0
LINE
  5
BCA
330
2
100
AcDbEntity
  8
GAIKEI
  6
Continuous
 62
     1
 48
0.0125
370
    40
100
AcDbLine
 10
32.86305506406654
 20
20.97509406746119
 30
0.0
 11
33.06306007406659
 21
20.97509406746119
 31
0.0
  0
LINE
  5
BCB
330
2
100
AcDbEntity
  8
GAIKEI
  6
Continuous
 62
     1
 48
0.0125
370
    40
100
AcDbLine
 10
32.86305506406654
 20
18.57503394746126
 30
0.0
 11
33.06306007406659
 21
18.57503394746126
 31
0.0
  0
LINE
  5
BCC
330
2
100
AcDbEntity
  8
GAIKEI
  6
Continuous
 62
     1
 48
0.0125
370
    40
100
AcDbLine
 10
32.86305506406654
 20
20.97509406746119
 30
0.0
 11
33.06306007406659
 21
20.97509406746119
 31
0.0
  0
LINE
  5
BCD
330
2
100
AcDbEntity
  8
GAIKEI
  6
Continuous
 62
     1
 48
0.0125
370
    40
100
AcDbLine
 10
32.86305506406654
 20
37.94607597990907
 30
0.0
 11
33.06306007406659
 21
37.94607597990907
 31
0.0
  0
LINE
  5
BCE
330
2
100
AcDbEntity
  8
GAIKEI
  6
Continuous
 62
     1
 48
0.0125
370
    40
100
AcDbLine
 10
32.86305506406654
 20
37.94607597990907
 30
0.0
 11
33.06306007406659
 21
37.94607597990907
 31
0.0
  0
LINE
  5
BCF
330
2
100
AcDbEntity
  8
GAIKEI
  6
Continuous
 62
     1
 48
0.0125
370
    40
100
AcDbLine
 10
32.86305506406654
 20
35.54601585990904
 30
0.0
 11
33.06306007406659
 21
35.54601585990904
 31
0.0
  0
LINE
  5
BD0
330
2
100
AcDbEntity
  8
GAIKEI
  6
Continuous
 62
     1
 48
0.00625
370
    40
100
AcDbLine
 10
32.86305506406654
 20
43.96094824868518
 30
0.0
 11
32.76305255906653
 21
43.96094824868518
 31
0.0
  0
LINE
  5
BD1
330
2
100
AcDbEntity
  8
GAIKEI
  6
Continuous
 62
     1
 48
0.128472
370
    40
100
AcDbLine
 10
33.1630625790666
 20
41.10532271705742
 30
0.0
 11
33.1630625790666
 21
43.16092820868513
 31
0.0
  0
LINE
  5
BD2
330
2
100
AcDbEntity
  8
GAIKEI
  6
Continuous
 62
     1
 48
0.064373
370
    40
100
AcDbLine
 10
33.1630625790666
 20
15.56023682868508
 30
0.0
 11
33.1630625790666
 21
13.36018171868508
 31
0.0
  0
LINE
  5
BD3
330
2
100
AcDbEntity
  8
GAIKEI
  6
Continuous
 62
     1
 48
0.064373
370
    40
100
AcDbLine
 10
33.1630625790666
 20
29.36058251868516
 30
0.0
 11
33.1630625790666
 21
27.16052740868517
 31
0.0
  0
LINE
  5
BD4
330
2
100
AcDbEntity
  8
GAIKEI
  6
Continuous
 62
     1
 48
0.064373
370
    40
100
AcDbLine
 10
33.1630625790666
 20
20.87508556231089
 30
0.0
 11
33.1630625790666
 21
18.67503645246117
 31
0.0
  0
LINE
  5
BD5
330
2
100
AcDbEntity
  8
GAIKEI
  6
Continuous
 62
     1
 48
0.0125
370
    40
100
AcDbLine
 10
32.86305506406654
 20
41.07337591681013
 30
0.0
 11
33.06306007406659
 21
41.07337591681013
 31
0.0
  0
POLYLINE
  5
BD6
330
2
100
AcDbEntity
  8
GAIKEI
  6
Continuous
 62
     1
370
    40
100
AcDb2dPolyline
 66
     1
 10
0.0
 20
0.0
 30
0.0
  0
VERTEX
  5
BD7
330
BD6
100
AcDbEntity
  8
GAIKEI
  6
Continuous
 62
     1
370
     0
100
AcDbVertex
100
AcDb2dVertex
 10
33.1630625790666
 20
41.10532271705742
 30
0.0
  0
VERTEX
  5
BD8
330
BD6
100
AcDbEntity
  8
GAIKEI
  6
Continuous
 62
     1
370
     0
100
AcDbVertex
100
AcDb2dVertex
 10
33.16159774237338
 20
41.10006138526441
 30
0.0
  0
VERTEX
  5
BD9
330
BD6
100
AcDbEntity
  8
GAIKEI
  6
Continuous
 62
     1
370
     0
100
AcDbVertex
100
AcDb2dVertex
 10
33.15894847601089
 20
41.09653329688794
 30
0.0
  0
VERTEX
  5
BDA
330
BD6
100
AcDbEntity
  8
GAIKEI
  6
Continuous
 62
     1
370
     0
100
AcDbVertex
100
AcDb2dVertex
 10
33.14960984208392
 20
41.08966072473433
 30
0.0
  0
VERTEX
  5
BDB
330
BD6
100
AcDbEntity
  8
GAIKEI
  6
Continuous
 62
     1
370
     0
100
AcDbVertex
100
AcDb2dVertex
 10
33.11780984551399
 20
41.0787592516593
 30
0.0
  0
VERTEX
  5
BDC
330
BD6
100
AcDbEntity
  8
GAIKEI
  6
Continuous
 62
     1
370
     0
100
AcDbVertex
100
AcDb2dVertex
 10
33.06306007406659
 20
41.07337591681013
 30
0.0
  0
SEQEND
  5
BDD
330
BD6
100
AcDbEntity
  8
GAIKEI
  6
Continuous
 62
     1
370
     0
  0
LINE
  5
BDE
330
2
100
AcDbEntity
  8
GAIKEI
  6
Continuous
 62
     1
 48
0.00625
370
    40
100
AcDbLine
 10
32.76305255906653
 20
27.06052490368515
 30
0.0
 11
32.86305506406654
 21
27.06052490368515
 31
0.0
  0
LINE
  5
BDF
330
2
100
AcDbEntity
  8
GAIKEI
  6
Continuous
 62
     1
 48
0.00625
370
    40
100
AcDbLine
 10
32.86305506406654
 20
29.46058502368519
 30
0.0
 11
32.76305255906653
 21
29.46058502368519
 31
0.0
  0
LINE
  5
BE0
330
2
100
AcDbEntity
  8
GAIKEI
  6
Continuous
 62
     1
 48
0.175
370
    40
100
AcDbLine
 10
26.36289223906658
 20
11.7601416386851
 30
0.0
 11
29.16296237906659
 21
11.7601416386851
 31
0.0
  0
LINE
  5
BE1
330
2
100
AcDbEntity
  8
GAIKEI
  6
Continuous
 62
     1
 48
0.23125
370
    40
100
AcDbLine
 10
32.86305506406654
 20
11.7601416386851
 30
0.0
 11
29.16296237906659
 21
11.7601416386851
 31
0.0
  0
LINE
  5
BE2
330
2
100
AcDbEntity
  8
GAIKEI
  6
Continuous
 62
     1
 48
0.064373
370
    40
100
AcDbLine
 10
33.1630625790666
 20
37.84607347490905
 30
0.0
 11
33.1630625790666
 21
35.64601836490906
 31
0.0
  0
LINE
  5
BE3
330
2
100
AcDbEntity
  8
GAIKEI
  6
Continuous
 62
     1
 48
0.070711
370
    40
100
AcDbLine
 10
32.86305506406654
 20
19.13864686561109
 30
0.0
 11
32.86305506406654
 21
11.7601416386851
 31
0.0
  0
LINE
  5
BE4
330
2
100
AcDbEntity
  8
GAIKEI
  6
Continuous
 62
     1
 48
0.057931
370
    40
100
AcDbLine
 10
32.86305506406654
 20
24.68736385749
 30
0.0
 11
32.86305506406654
 21
19.13864686561109
 31
0.0
  0
LINE
  5
BE5
330
2
100
AcDbEntity
  8
GAIKEI
  6
Continuous
 62
     1
 48
0.10438
370
    40
100
AcDbLine
 10
32.86305506406654
 20
24.68736385749
 30
0.0
 11
32.86305506406654
 21
26.35748009285382
 31
0.0
  0
LINE
  5
BE6
330
2
100
AcDbEntity
  8
GAIKEI
  6
Continuous
 62
     1
 48
0.043939
370
    40
100
AcDbLine
 10
32.86305506406654
 20
27.06052490368515
 30
0.0
 11
32.86305506406654
 21
26.35748009285382
 31
0.0
  0
LINE
  5
BE7
330
2
100
AcDbEntity
  8
GAIKEI
  6
Continuous
 62
     1
 48
0.075
370
    40
100
AcDbLine
 10
32.86305506406654
 20
28.26055496368517
 30
0.0
 11
32.86305506406654
 21
27.06052490368515
 31
0.0
  0
LINE
  5
BE8
330
2
100
AcDbEntity
  8
GAIKEI
  6
Continuous
 62
     1
 48
0.075
370
    40
100
AcDbLine
 10
32.86305506406654
 20
29.46058502368519
 30
0.0
 11
32.86305506406654
 21
28.26055496368517
 31
0.0
  0
LINE
  5
BE9
330
2
100
AcDbEntity
  8
GAIKEI
  6
Continuous
 62
     1
 48
0.043939
370
    40
100
AcDbLine
 10
32.86305506406654
 20
30.1636302345265
 30
0.0
 11
32.86305506406654
 21
29.46058502368519
 31
0.0
  0
LINE
  5
BEA
330
2
100
AcDbEntity
  8
GAIKEI
  6
Continuous
 62
     1
 48
0.173975
370
    40
100
AcDbLine
 10
32.86305506406654
 20
42.38040345702993
 30
0.0
 11
32.86305506406654
 21
38.5138638026377
 31
0.0
  0
LINE
  5
BEB
330
2
100
AcDbEntity
  8
GAIKEI
  6
Continuous
 62
     1
 48
0.073032
370
    40
100
AcDbLine
 10
32.86305506406654
 20
42.38040345702993
 30
0.0
 11
32.86305506406654
 21
43.5489383280952
 31
0.0
  0
LINE
  5
BEC
330
2
100
AcDbEntity
  8
GAIKEI
  6
Continuous
 62
     1
 48
0.02575
370
    40
100
AcDbLine
 10
32.86305506406654
 20
43.5489383280952
 30
0.0
 11
32.86305506406654
 21
43.96094824868518
 31
0.0
  0
LINE
  5
BED
330
2
100
AcDbEntity
  8
GAIKEI
  6
Continuous
 62
     1
 48
0.070711
370
    40
100
AcDbLine
 10
32.86305506406654
 20
37.38246306175913
 30
0.0
 11
32.86305506406654
 21
38.5138638026377
 31
0.0
  0
LINE
  5
BEE
330
2
100
AcDbEntity
  8
GAIKEI
  6
Continuous
 62
     1
 48
0.159099
370
    40
100
AcDbLine
 10
32.86305506406654
 20
37.38246306175913
 30
0.0
 11
32.86305506406654
 21
30.1636302345265
 31
0.0
  0
CIRCLE
  5
BEF
330
2
100
AcDbEntity
  8
GAIKEI
  6
Continuous
 62
     1
370
    40
100
AcDbCircle
 10
-2.164438617784981
 20
28.26055496368517
 30
0.0
 40
0.1520038076
  0
ARC
  5
BF0
330
2
100
AcDbEntity
  8
GAIKEI
  6
Continuous
 62
     1
370
    40
100
AcDbCircle
 10
-2.587069204416025
 20
28.01655485163539
 30
0.0
 40
0.20000501
100
AcDbArc
 50
329.9999989999971
 51
90.00000300000095
  0
ARC
  5
BF1
330
2
100
AcDbEntity
  8
GAIKEI
  6
Continuous
 62
     1
370
    40
100
AcDbCircle
 10
-2.375753911100446
 20
27.89454259530496
 30
0.0
 40
0.0440011022
100
AcDbArc
 50
149.9999969999997
 51
329.9999989999971
  0
ARC
  5
BF2
330
2
100
AcDbEntity
  8
GAIKEI
  6
Continuous
 62
     1
370
    40
100
AcDbCircle
 10
-2.164438617784981
 20
27.77254233927508
 30
0.0
 40
0.20000501
100
AcDbArc
 50
30.00000100000287
 51
149.9999969999997
  0
ARC
  5
BF3
330
2
100
AcDbEntity
  8
GAIKEI
  6
Continuous
 62
     1
370
    40
100
AcDbCircle
 10
-1.953123724479496
 20
27.89454259530496
 30
0.0
 40
0.0440011022
100
AcDbArc
 50
210.0000030000003
 51
30.00000100000287
  0
ARC
  5
BF4
330
2
100
AcDbEntity
  8
GAIKEI
  6
Continuous
 62
     1
370
    40
100
AcDbCircle
 10
-1.741808431164031
 20
28.01655485163539
 30
0.0
 40
0.20000501
100
AcDbArc
 50
90.00000300000095
 51
210.0000030000003
  0
ARC
  5
BF5
330
2
100
AcDbEntity
  8
GAIKEI
  6
Continuous
 62
     1
370
    40
100
AcDbCircle
 10
-1.741808431164031
 20
28.26055496368517
 30
0.0
 40
0.0440011022
100
AcDbArc
 50
269.9999969999991
 51
90.00000300000095
  0
ARC
  5
BF6
330
2
100
AcDbEntity
  8
GAIKEI
  6
Continuous
 62
     1
370
    40
100
AcDbCircle
 10
-1.741808431164031
 20
28.50455547574481
 30
0.0
 40
0.20000501
100
AcDbArc
 50
149.9999969999997
 51
269.9999969999991
  0
ARC
  5
BF7
330
2
100
AcDbEntity
  8
GAIKEI
  6
Continuous
 62
     1
370
    40
100
AcDbCircle
 10
-1.953123724479496
 20
28.62656773207536
 30
0.0
 40
0.0440011022
100
AcDbArc
 50
329.9999989999971
 51
149.9999969999997
  0
ARC
  5
BF8
330
2
100
AcDbEntity
  8
GAIKEI
  6
Continuous
 62
     1
370
    40
100
AcDbCircle
 10
-2.164438617784981
 20
28.74856758809514
 30
0.0
 40
0.20000501
100
AcDbArc
 50
210.0000030000003
 51
329.9999989999971
  0
ARC
  5
BF9
330
2
100
AcDbEntity
  8
GAIKEI
  6
Continuous
 62
     1
370
    40
100
AcDbCircle
 10
-2.375753911100446
 20
28.62656773207536
 30
0.0
 40
0.0440011022
100
AcDbArc
 50
30.00000100000287
 51
210.0000030000003
  0
ARC
  5
BFA
330
2
100
AcDbEntity
  8
GAIKEI
  6
Continuous
 62
     1
370
    40
100
AcDbCircle
 10
-2.587069204416025
 20
28.50455547574481
 30
0.0
 40
0.20000501
100
AcDbArc
 50
269.9999969999991
 51
30.00000100000287
  0
ARC
  5
BFB
330
2
100
AcDbEntity
  8
GAIKEI
  6
Continuous
 62
     1
370
    40
100
AcDbCircle
 10
-2.587069204416025
 20
28.26055496368517
 30
0.0
 40
0.0440011022
100
AcDbArc
 50
90.00000300000095
 51
269.9999969999991
  0
CIRCLE
  5
BFC
330
2
100
AcDbEntity
  8
GAIKEI
  6
Continuous
 62
     1
370
    40
100
AcDbCircle
 10
-2.164438617784981
 20
28.26055496368517
 30
0.0
 40
0.80002004
  0
ARC
  5
BFD
330
2
100
AcDbEntity
  8
GAIKEI
  6
Continuous
 62
     1
370
    13
100
AcDbCircle
 10
-2.097103331078301
 20
28.17881491614818
 30
0.0
 40
0.90677991426786
100
AcDbArc
 50
295.5308420000009
 51
323.0159769999969
  0
POLYLINE
  5
BFE
330
2
100
AcDbEntity
  8
GAIKEI
  6
Continuous
 62
     1
370
    13
100
AcDb2dPolyline
 66
     1
 10
0.0
 20
0.0
 30
0.0
  0
VERTEX
  5
BFF
330
BFE
100
AcDbEntity
  8
GAIKEI
  6
Continuous
 62
     1
370
     0
100
AcDbVertex
100
AcDb2dVertex
 10
-1.157980606643377
 20
28.26055496368517
 30
0.0
  0
VERTEX
  5
C00
330
BFE
100
AcDbEntity
  8
GAIKEI
  6
Continuous
 62
     1
370
     0
100
AcDbVertex
100
AcDb2dVertex
 10
-1.161874704187994
 20
28.17369998802244
 30
0.0
  0
VERTEX
  5
C01
330
BFE
100
AcDbEntity
  8
GAIKEI
  6
Continuous
 62
     1
370
     0
100
AcDbVertex
100
AcDb2dVertex
 10
-1.173544996521513
 20
28.08494016464462
 30
0.0
  0
VERTEX
  5
C02
330
BFE
100
AcDbEntity
  8
GAIKEI
  6
Continuous
 62
     1
370
     0
100
AcDbVertex
100
AcDb2dVertex
 10
-1.19786200564738
 20
27.97848029789177
 30
0.0
  0
VERTEX
  5
C03
330
BFE
100
AcDbEntity
  8
GAIKEI
  6
Continuous
 62
     1
370
     0
100
AcDbVertex
100
AcDb2dVertex
 10
-1.220433371045942
 20
27.90902055796889
 30
0.0
  0
VERTEX
  5
C04
330
BFE
100
AcDbEntity
  8
GAIKEI
  6
Continuous
 62
     1
370
     0
100
AcDbVertex
100
AcDb2dVertex
 10
-1.248192866403769
 20
27.84120845931838
 30
0.0
  0
VERTEX
  5
C05
330
BFE
100
AcDbEntity
  8
GAIKEI
  6
Continuous
 62
     1
370
     0
100
AcDbVertex
100
AcDb2dVertex
 10
-1.292957187721981
 20
27.7535234628642
 30
0.0
  0
VERTEX
  5
C06
330
BFE
100
AcDbEntity
  8
GAIKEI
  6
Continuous
 62
     1
370
     0
100
AcDbVertex
100
AcDb2dVertex
 10
-1.34163360703576
 20
27.67595791989604
 30
0.0
  0
VERTEX
  5
C07
330
BFE
100
AcDbEntity
  8
GAIKEI
  6
Continuous
 62
     1
370
     0
100
AcDbVertex
100
AcDb2dVertex
 10
-1.372683184808238
 20
27.63323204963976
 30
0.0
  0
SEQEND
  5
C08
330
BFE
100
AcDbEntity
  8
GAIKEI
  6
Continuous
 62
     1
370
     0
  0
POLYLINE
  5
C09
330
2
100
AcDbEntity
  8
GAIKEI
  6
Continuous
 62
     1
370
    13
100
AcDb2dPolyline
 66
     1
 10
0.0
 20
0.0
 30
0.0
  0
VERTEX
  5
C0A
330
C09
100
AcDbEntity
  8
GAIKEI
  6
Continuous
 62
     1
370
     0
100
AcDbVertex
100
AcDb2dVertex
 10
-1.372689184958517
 20
28.88787787773046
 30
0.0
  0
VERTEX
  5
C0B
330
C09
100
AcDbEntity
  8
GAIKEI
  6
Continuous
 62
     1
370
     0
100
AcDbVertex
100
AcDb2dVertex
 10
-1.308289571788577
 20
28.79361271644731
 30
0.0
  0
VERTEX
  5
C0C
330
C09
100
AcDbEntity
  8
GAIKEI
  6
Continuous
 62
     1
370
     0
100
AcDbVertex
100
AcDb2dVertex
 10
-1.26514889114162
 20
28.71553476064352
 30
0.0
  0
VERTEX
  5
C0D
330
C09
100
AcDbEntity
  8
GAIKEI
  6
Continuous
 62
     1
370
     0
100
AcDbVertex
100
AcDb2dVertex
 10
-1.226353919351936
 20
28.62786176449001
 30
0.0
  0
VERTEX
  5
C0E
330
C09
100
AcDbEntity
  8
GAIKEI
  6
Continuous
 62
     1
370
     0
100
AcDbVertex
100
AcDb2dVertex
 10
-1.203654150736952
 20
28.56219851966691
 30
0.0
  0
VERTEX
  5
C0F
330
C09
100
AcDbEntity
  8
GAIKEI
  6
Continuous
 62
     1
370
     0
100
AcDbVertex
100
AcDb2dVertex
 10
-1.185251689766914
 20
28.49373960481407
 30
0.0
  0
VERTEX
  5
C10
330
C09
100
AcDbEntity
  8
GAIKEI
  6
Continuous
 62
     1
370
     0
100
AcDbVertex
100
AcDb2dVertex
 10
-1.170902130319404
 20
28.42036136673525
 30
0.0
  0
VERTEX
  5
C11
330
C09
100
AcDbEntity
  8
GAIKEI
  6
Continuous
 62
     1
370
     0
100
AcDbVertex
100
AcDb2dVertex
 10
-1.16133749073117
 20
28.34113578218407
 30
0.0
  0
VERTEX
  5
C12
330
C09
100
AcDbEntity
  8
GAIKEI
  6
Continuous
 62
     1
370
     0
100
AcDbVertex
100
AcDb2dVertex
 10
-1.157974206483004
 20
28.26055496368517
 30
0.0
  0
SEQEND
  5
C13
330
C09
100
AcDbEntity
  8
GAIKEI
  6
Continuous
 62
     1
370
     0
  0
ARC
  5
C14
330
2
100
AcDbEntity
  8
GAIKEI
  6
Continuous
 62
     1
370
    13
100
AcDbCircle
 10
-2.097158132450999
 20
28.34224661000959
 30
0.0
 40
0.9068527160914999
100
AcDbArc
 50
36.98524199999892
 51
64.46738299999835
  0
POLYLINE
  5
C15
330
2
100
AcDbEntity
  8
GAIKEI
  6
Continuous
 62
     1
370
    13
100
AcDb2dPolyline
 66
     1
 10
0.0
 20
0.0
 30
0.0
  0
VERTEX
  5
C16
330
C15
100
AcDbEntity
  8
GAIKEI
  6
Continuous
 62
     1
370
     0
100
AcDbVertex
100
AcDb2dVertex
 10
-2.617391963982072
 20
29.16458160898534
 30
0.0
  0
VERTEX
  5
C17
330
C15
100
AcDbEntity
  8
GAIKEI
  6
Continuous
 62
     1
370
     0
100
AcDbVertex
100
AcDb2dVertex
 10
-2.543800120552646
 20
29.19608879822064
 30
0.0
  0
VERTEX
  5
C18
330
C15
100
AcDbEntity
  8
GAIKEI
  6
Continuous
 62
     1
370
     0
100
AcDbVertex
100
AcDb2dVertex
 10
-2.466338580189585
 20
29.22265186360878
 30
0.0
  0
VERTEX
  5
C19
330
C15
100
AcDbEntity
  8
GAIKEI
  6
Continuous
 62
     1
370
     0
100
AcDbVertex
100
AcDb2dVertex
 10
-2.382852488915432
 20
29.24406359995927
 30
0.0
  0
VERTEX
  5
C1A
330
C15
100
AcDbEntity
  8
GAIKEI
  6
Continuous
 62
     1
370
     0
100
AcDbVertex
100
AcDb2dVertex
 10
-2.293464249796102
 20
29.25905437546882
 30
0.0
  0
VERTEX
  5
C1B
330
C15
100
AcDbEntity
  8
GAIKEI
  6
Continuous
 62
     1
370
     0
100
AcDbVertex
100
AcDb2dVertex
 10
-2.193858554735925
 20
29.2666225650473
 30
0.0
  0
VERTEX
  5
C1C
330
C15
100
AcDbEntity
  8
GAIKEI
  6
Continuous
 62
     1
370
     0
100
AcDbVertex
100
AcDb2dVertex
 10
-2.088435913964872
 20
29.26408370145029
 30
0.0
  0
VERTEX
  5
C1D
330
C15
100
AcDbEntity
  8
GAIKEI
  6
Continuous
 62
     1
370
     0
100
AcDbVertex
100
AcDb2dVertex
 10
-1.982738866320232
 20
29.250716566612
 30
0.0
  0
VERTEX
  5
C1E
330
C15
100
AcDbEntity
  8
GAIKEI
  6
Continuous
 62
     1
370
     0
100
AcDbVertex
100
AcDb2dVertex
 10
-1.880679109787365
 20
29.22716877675461
 30
0.0
  0
VERTEX
  5
C1F
330
C15
100
AcDbEntity
  8
GAIKEI
  6
Continuous
 62
     1
370
     0
100
AcDbVertex
100
AcDb2dVertex
 10
-1.787268769916977
 20
29.19578359057536
 30
0.0
  0
VERTEX
  5
C20
330
C15
100
AcDbEntity
  8
GAIKEI
  6
Continuous
 62
     1
370
     0
100
AcDbVertex
100
AcDb2dVertex
 10
-1.706285141327839
 20
29.1605287074627
 30
0.0
  0
SEQEND
  5
C21
330
C15
100
AcDbEntity
  8
GAIKEI
  6
Continuous
 62
     1
370
     0
  0
POLYLINE
  5
C22
330
2
100
AcDbEntity
  8
GAIKEI
  6
Continuous
 62
     1
370
    13
100
AcDb2dPolyline
 66
     1
 10
0.0
 20
0.0
 30
0.0
  0
VERTEX
  5
C23
330
C22
100
AcDbEntity
  8
GAIKEI
  6
Continuous
 62
     1
370
     0
100
AcDbVertex
100
AcDb2dVertex
 10
-1.706285141327839
 20
27.36057521975724
 30
0.0
  0
VERTEX
  5
C24
330
C22
100
AcDbEntity
  8
GAIKEI
  6
Continuous
 62
     1
370
     0
100
AcDbVertex
100
AcDb2dVertex
 10
-1.77900416289367
 20
27.32857361813726
 30
0.0
  0
VERTEX
  5
C25
330
C22
100
AcDbEntity
  8
GAIKEI
  6
Continuous
 62
     1
370
     0
100
AcDbVertex
100
AcDb2dVertex
 10
-1.856075293477147
 20
27.30129653486344
 30
0.0
  0
VERTEX
  5
C26
330
C22
100
AcDbEntity
  8
GAIKEI
  6
Continuous
 62
     1
370
     0
100
AcDbVertex
100
AcDb2dVertex
 10
-1.939524583829552
 20
27.27903637726044
 30
0.0
  0
VERTEX
  5
C27
330
C22
100
AcDbEntity
  8
GAIKEI
  6
Continuous
 62
     1
370
     0
100
AcDbVertex
100
AcDb2dVertex
 10
-2.033118528299155
 20
27.26267236735222
 30
0.0
  0
VERTEX
  5
C28
330
C22
100
AcDbEntity
  8
GAIKEI
  6
Continuous
 62
     1
370
     0
100
AcDbVertex
100
AcDb2dVertex
 10
-2.134335463719821
 20
27.25457896461759
 30
0.0
  0
VERTEX
  5
C29
330
C22
100
AcDbEntity
  8
GAIKEI
  6
Continuous
 62
     1
370
     0
100
AcDbVertex
100
AcDb2dVertex
 10
-2.24044172161507
 20
27.25684342134079
 30
0.0
  0
VERTEX
  5
C2A
330
C22
100
AcDbEntity
  8
GAIKEI
  6
Continuous
 62
     1
370
     0
100
AcDbVertex
100
AcDb2dVertex
 10
-2.346169570031293
 20
27.26994814960605
 30
0.0
  0
VERTEX
  5
C2B
330
C22
100
AcDbEntity
  8
GAIKEI
  6
Continuous
 62
     1
370
     0
100
AcDbVertex
100
AcDb2dVertex
 10
-2.446690888027205
 20
27.29275112080618
 30
0.0
  0
VERTEX
  5
C2C
330
C22
100
AcDbEntity
  8
GAIKEI
  6
Continuous
 62
     1
370
     0
100
AcDbVertex
100
AcDb2dVertex
 10
-2.536957949160409
 20
27.32242106401961
 30
0.0
  0
VERTEX
  5
C2D
330
C22
100
AcDbEntity
  8
GAIKEI
  6
Continuous
 62
     1
370
     0
100
AcDbVertex
100
AcDb2dVertex
 10
-2.617349162909931
 20
27.35651031793404
 30
0.0
  0
SEQEND
  5
C2E
330
C22
100
AcDbEntity
  8
GAIKEI
  6
Continuous
 62
     1
370
     0
  0
ARC
  5
C2F
330
2
100
AcDbEntity
  8
GAIKEI
  6
Continuous
 62
     1
370
    13
100
AcDbCircle
 10
-2.243817006163794
 20
28.35428291151138
 30
0.0
 40
0.8922523503615
100
AcDbArc
 50
114.7510029999983
 51
147.4584289999998
  0
ARC
  5
C30
330
2
100
AcDbEntity
  8
GAIKEI
  6
Continuous
 62
     1
370
    13
100
AcDbCircle
 10
-2.246557474810856
 20
28.16279851494741
 30
0.0
 40
0.8874126291295199
100
AcDbArc
 50
212.8640240000019
 51
245.3037340000003
  0
POLYLINE
  5
C31
330
2
100
AcDbEntity
  8
GAIKEI
  6
Continuous
 62
     1
370
    13
100
AcDb2dPolyline
 66
     1
 10
0.0
 20
0.0
 30
0.0
  0
VERTEX
  5
C32
330
C31
100
AcDbEntity
  8
GAIKEI
  6
Continuous
 62
     1
370
     0
100
AcDbVertex
100
AcDb2dVertex
 10
-2.992084149786251
 20
27.68115805015597
 30
0.0
  0
VERTEX
  5
C33
330
C31
100
AcDbEntity
  8
GAIKEI
  6
Continuous
 62
     1
370
     0
100
AcDbVertex
100
AcDb2dVertex
 10
-3.039540138528991
 20
27.75962681574933
 30
0.0
  0
VERTEX
  5
C34
330
C31
100
AcDbEntity
  8
GAIKEI
  6
Continuous
 62
     1
370
     0
100
AcDbVertex
100
AcDb2dVertex
 10
-3.083993252051527
 20
27.85038868927731
 30
0.0
  0
VERTEX
  5
C35
330
C31
100
AcDbEntity
  8
GAIKEI
  6
Continuous
 62
     1
370
     0
100
AcDbVertex
100
AcDb2dVertex
 10
-3.123923452277949
 20
27.95889940740276
 30
0.0
  0
VERTEX
  5
C36
330
C31
100
AcDbEntity
  8
GAIKEI
  6
Continuous
 62
     1
370
     0
100
AcDbVertex
100
AcDb2dVertex
 10
-3.153458992124797
 20
28.0825965059374
 30
0.0
  0
VERTEX
  5
C37
330
C31
100
AcDbEntity
  8
GAIKEI
  6
Continuous
 62
     1
370
     0
100
AcDbVertex
100
AcDb2dVertex
 10
-3.162986830791169
 20
28.14908977155207
 30
0.0
  0
VERTEX
  5
C38
330
C31
100
AcDbEntity
  8
GAIKEI
  6
Continuous
 62
     1
370
     0
100
AcDbVertex
100
AcDb2dVertex
 10
-3.168309364117249
 20
28.21829310505208
 30
0.0
  0
VERTEX
  5
C39
330
C31
100
AcDbEntity
  8
GAIKEI
  6
Continuous
 62
     1
370
     0
100
AcDbVertex
100
AcDb2dVertex
 10
-3.16864497252402
 20
28.29360019144733
 30
0.0
  0
VERTEX
  5
C3A
330
C31
100
AcDbEntity
  8
GAIKEI
  6
Continuous
 62
     1
370
     0
100
AcDbVertex
100
AcDb2dVertex
 10
-3.163548444859202
 20
28.3671252332035
 30
0.0
  0
VERTEX
  5
C3B
330
C31
100
AcDbEntity
  8
GAIKEI
  6
Continuous
 62
     1
370
     0
100
AcDbVertex
100
AcDb2dVertex
 10
-3.153672597475406
 20
28.43764699972948
 30
0.0
  0
VERTEX
  5
C3C
330
C31
100
AcDbEntity
  8
GAIKEI
  6
Continuous
 62
     1
370
     0
100
AcDbVertex
100
AcDb2dVertex
 10
-3.139304637567079
 20
28.5064719237507
 30
0.0
  0
VERTEX
  5
C3D
330
C31
100
AcDbEntity
  8
GAIKEI
  6
Continuous
 62
     1
370
     0
100
AcDbVertex
100
AcDb2dVertex
 10
-3.121292586376512
 20
28.57109754258189
 30
0.0
  0
VERTEX
  5
C3E
330
C31
100
AcDbEntity
  8
GAIKEI
  6
Continuous
 62
     1
370
     0
100
AcDbVertex
100
AcDb2dVertex
 10
-3.099472039785496
 20
28.63333070148346
 30
0.0
  0
VERTEX
  5
C3F
330
C31
100
AcDbEntity
  8
GAIKEI
  6
Continuous
 62
     1
370
     0
100
AcDbVertex
100
AcDb2dVertex
 10
-3.075368636010352
 20
28.6904729328605
 30
0.0
  0
VERTEX
  5
C40
330
C31
100
AcDbEntity
  8
GAIKEI
  6
Continuous
 62
     1
370
     0
100
AcDbVertex
100
AcDb2dVertex
 10
-3.036946073549188
 20
28.76656123882478
 30
0.0
  0
VERTEX
  5
C41
330
C31
100
AcDbEntity
  8
GAIKEI
  6
Continuous
 62
     1
370
     0
100
AcDbVertex
100
AcDb2dVertex
 10
-2.996069849625541
 20
28.83428773533101
 30
0.0
  0
SEQEND
  5
C42
330
C31
100
AcDbEntity
  8
GAIKEI
  6
Continuous
 62
     1
370
     0
  0
ARC
  5
C43
330
2
100
AcDbEntity
  8
GAIKEI
  6
Continuous
 62
     1
370
    40
100
AcDbCircle
 10
-19.46487198278498
 20
28.26055496368517
 30
0.0
 40
15.560389778
100
AcDbArc
 50
274.4230909999999
 51
265.5769099999996
  0
LINE
  5
C44
330
2
100
AcDbEntity
  8
GAIKEI
  6
Continuous
 62
     1
370
    13
100
AcDbLine
 10
-3.481793616701111
 20
25.93428229201445
 30
0.0
 11
-3.541414310162053
 21
25.94360252548038
 31
0.0
  0
POLYLINE
  5
C45
330
2
100
AcDbEntity
  8
GAIKEI
  6
Continuous
 62
     1
370
    13
100
AcDb2dPolyline
 66
     1
 10
0.0
 20
0.0
 30
0.0
  0
VERTEX
  5
C46
330
C45
100
AcDbEntity
  8
GAIKEI
  6
Continuous
 62
     1
370
     0
100
AcDbVertex
100
AcDb2dVertex
 10
-2.597439064174409
 20
27.01685340974163
 30
0.0
  0
VERTEX
  5
C47
330
C45
100
AcDbEntity
  8
GAIKEI
  6
Continuous
 62
     1
370
     0
100
AcDbVertex
100
AcDb2dVertex
 10
-2.676811452402944
 20
27.01636499750723
 30
0.0
  0
VERTEX
  5
C48
330
C45
100
AcDbEntity
  8
GAIKEI
  6
Continuous
 62
     1
370
     0
100
AcDbVertex
100
AcDb2dVertex
 10
-2.758380695661344
 20
27.02470240635407
 30
0.0
  0
VERTEX
  5
C49
330
C45
100
AcDbEntity
  8
GAIKEI
  6
Continuous
 62
     1
370
     0
100
AcDbVertex
100
AcDb2dVertex
 10
-2.813466475525501
 20
27.03572588248525
 30
0.0
  0
VERTEX
  5
C4A
330
C45
100
AcDbEntity
  8
GAIKEI
  6
Continuous
 62
     1
370
     0
100
AcDbVertex
100
AcDb2dVertex
 10
-2.867618231993105
 20
27.05127787205274
 30
0.0
  0
VERTEX
  5
C4B
330
C45
100
AcDbEntity
  8
GAIKEI
  6
Continuous
 62
     1
370
     0
100
AcDbVertex
100
AcDb2dVertex
 10
-2.945110173117541
 20
27.08237625104763
 30
0.0
  0
VERTEX
  5
C4C
330
C45
100
AcDbEntity
  8
GAIKEI
  6
Continuous
 62
     1
370
     0
100
AcDbVertex
100
AcDb2dVertex
 10
-3.015540337348966
 20
27.12076801273722
 30
0.0
  0
VERTEX
  5
C4D
330
C45
100
AcDbEntity
  8
GAIKEI
  6
Continuous
 62
     1
370
     0
100
AcDbVertex
100
AcDb2dVertex
 10
-3.094326710898258
 20
27.17793504473545
 30
0.0
  0
VERTEX
  5
C4E
330
C45
100
AcDbEntity
  8
GAIKEI
  6
Continuous
 62
     1
370
     0
100
AcDbVertex
100
AcDb2dVertex
 10
-3.160649172234229
 20
27.24243266036032
 30
0.0
  0
VERTEX
  5
C4F
330
C45
100
AcDbEntity
  8
GAIKEI
  6
Continuous
 62
     1
370
     0
100
AcDbVertex
100
AcDb2dVertex
 10
-3.218817029302613
 20
27.31743453911028
 30
0.0
  0
VERTEX
  5
C50
330
C45
100
AcDbEntity
  8
GAIKEI
  6
Continuous
 62
     1
370
     0
100
AcDbVertex
100
AcDb2dVertex
 10
-3.269044287463884
 20
27.40594395621562
 30
0.0
  0
VERTEX
  5
C51
330
C45
100
AcDbEntity
  8
GAIKEI
  6
Continuous
 62
     1
370
     0
100
AcDbVertex
100
AcDb2dVertex
 10
-3.289289994606178
 20
27.45368075199244
 30
0.0
  0
VERTEX
  5
C52
330
C45
100
AcDbEntity
  8
GAIKEI
  6
Continuous
 62
     1
370
     0
100
AcDbVertex
100
AcDb2dVertex
 10
-3.305696805586421
 20
27.50282118292941
 30
0.0
  0
VERTEX
  5
C53
330
C45
100
AcDbEntity
  8
GAIKEI
  6
Continuous
 62
     1
370
     0
100
AcDbVertex
100
AcDb2dVertex
 10
-3.326418524652467
 20
27.59908839436261
 30
0.0
  0
SEQEND
  5
C54
330
C45
100
AcDbEntity
  8
GAIKEI
  6
Continuous
 62
     1
370
     0
  0
POLYLINE
  5
C55
330
2
100
AcDbEntity
  8
GAIKEI
  6
Continuous
 62
     1
370
    13
100
AcDb2dPolyline
 66
     1
 10
0.0
 20
0.0
 30
0.0
  0
VERTEX
  5
C56
330
C55
100
AcDbEntity
  8
GAIKEI
  6
Continuous
 62
     1
370
     0
100
AcDbVertex
100
AcDb2dVertex
 10
-1.613936828060559
 20
27.10569203509348
 30
0.0
  0
VERTEX
  5
C57
330
C55
100
AcDbEntity
  8
GAIKEI
  6
Continuous
 62
     1
370
     0
100
AcDbVertex
100
AcDb2dVertex
 10
-1.789569627552054
 20
27.07888496359314
 30
0.0
  0
VERTEX
  5
C58
330
C55
100
AcDbEntity
  8
GAIKEI
  6
Continuous
 62
     1
370
     0
100
AcDbVertex
100
AcDb2dVertex
 10
-1.989935046580058
 20
27.0549155631746
 30
0.0
  0
VERTEX
  5
C59
330
C55
100
AcDbEntity
  8
GAIKEI
  6
Continuous
 62
     1
370
     0
100
AcDbVertex
100
AcDb2dVertex
 10
-2.261597051542821
 20
27.03454185282598
 30
0.0
  0
VERTEX
  5
C5A
330
C55
100
AcDbEntity
  8
GAIKEI
  6
Continuous
 62
     1
370
     0
100
AcDbVertex
100
AcDb2dVertex
 10
-2.597439064174409
 20
27.01685340974163
 30
0.0
  0
SEQEND
  5
C5B
330
C55
100
AcDbEntity
  8
GAIKEI
  6
Continuous
 62
     1
370
     0
  0
POLYLINE
  5
C5C
330
2
100
AcDbEntity
  8
GAIKEI
  6
Continuous
 62
     1
370
    13
100
AcDb2dPolyline
 66
     1
 10
0.0
 20
0.0
 30
0.0
  0
VERTEX
  5
C5D
330
C5C
100
AcDbEntity
  8
GAIKEI
  6
Continuous
 62
     1
370
     0
100
AcDbVertex
100
AcDb2dVertex
 10
-1.054163206082648
 20
27.60286048885129
 30
0.0
  0
VERTEX
  5
C5E
330
C5C
100
AcDbEntity
  8
GAIKEI
  6
Continuous
 62
     1
370
     0
100
AcDbVertex
100
AcDb2dVertex
 10
-1.074683720108623
 20
27.54475343330589
 30
0.0
  0
VERTEX
  5
C5F
330
C5C
100
AcDbEntity
  8
GAIKEI
  6
Continuous
 62
     1
370
     0
100
AcDbVertex
100
AcDb2dVertex
 10
-1.101259185807293
 20
27.48494353510555
 30
0.0
  0
VERTEX
  5
C60
330
C5C
100
AcDbEntity
  8
GAIKEI
  6
Continuous
 62
     1
370
     0
100
AcDbVertex
100
AcDb2dVertex
 10
-1.136226861725617
 20
27.42241756886935
 30
0.0
  0
VERTEX
  5
C61
330
C5C
100
AcDbEntity
  8
GAIKEI
  6
Continuous
 62
     1
370
     0
100
AcDbVertex
100
AcDb2dVertex
 10
-1.179251939476898
 20
27.36119163519808
 30
0.0
  0
VERTEX
  5
C62
330
C5C
100
AcDbEntity
  8
GAIKEI
  6
Continuous
 62
     1
370
     0
100
AcDbVertex
100
AcDb2dVertex
 10
-1.23215846475216
 20
27.30110733012393
 30
0.0
  0
VERTEX
  5
C63
330
C5C
100
AcDbEntity
  8
GAIKEI
  6
Continuous
 62
     1
370
     0
100
AcDbVertex
100
AcDb2dVertex
 10
-1.293518401780033
 20
27.24614355331582
 30
0.0
  0
VERTEX
  5
C64
330
C5C
100
AcDbEntity
  8
GAIKEI
  6
Continuous
 62
     1
370
     0
100
AcDbVertex
100
AcDb2dVertex
 10
-1.364662983907237
 20
27.1967467159561
 30
0.0
  0
VERTEX
  5
C65
330
C5C
100
AcDbEntity
  8
GAIKEI
  6
Continuous
 62
     1
370
     0
100
AcDbVertex
100
AcDb2dVertex
 10
-1.442508933899375
 20
27.15630970303422
 30
0.0
  0
VERTEX
  5
C66
330
C5C
100
AcDbEntity
  8
GAIKEI
  6
Continuous
 62
     1
370
     0
100
AcDbVertex
100
AcDb2dVertex
 10
-1.525714218139569
 20
27.12582213933988
 30
0.0
  0
VERTEX
  5
C67
330
C5C
100
AcDbEntity
  8
GAIKEI
  6
Continuous
 62
     1
370
     0
100
AcDbVertex
100
AcDb2dVertex
 10
-1.613936828060559
 20
27.10569203509348
 30
0.0
  0
SEQEND
  5
C68
330
C5C
100
AcDbEntity
  8
GAIKEI
  6
Continuous
 62
     1
370
     0
  0
POLYLINE
  5
C69
330
2
100
AcDbEntity
  8
GAIKEI
  6
Continuous
 62
     1
370
    13
100
AcDb2dPolyline
 66
     1
 10
0.0
 20
0.0
 30
0.0
  0
VERTEX
  5
C6A
330
C69
100
AcDbEntity
  8
GAIKEI
  6
Continuous
 62
     1
370
     0
100
AcDbVertex
100
AcDb2dVertex
 10
-0.9425700107431111
 20
28.26055496368517
 30
0.0
  0
VERTEX
  5
C6B
330
C69
100
AcDbEntity
  8
GAIKEI
  6
Continuous
 62
     1
370
     0
100
AcDbVertex
100
AcDb2dVertex
 10
-0.9448524679172578
 20
28.16848745745185
 30
0.0
  0
VERTEX
  5
C6C
330
C69
100
AcDbEntity
  8
GAIKEI
  6
Continuous
 62
     1
370
     0
100
AcDbVertex
100
AcDb2dVertex
 10
-0.9519082446599895
 20
28.07419789555749
 30
0.0
  0
VERTEX
  5
C6D
330
C69
100
AcDbEntity
  8
GAIKEI
  6
Continuous
 62
     1
370
     0
100
AcDbVertex
100
AcDb2dVertex
 10
-0.9642621541177049
 20
27.97635584467557
 30
0.0
  0
VERTEX
  5
C6E
330
C69
100
AcDbEntity
  8
GAIKEI
  6
Continuous
 62
     1
370
     0
100
AcDbVertex
100
AcDb2dVertex
 10
-0.9818957958292457
 20
27.87728136292193
 30
0.0
  0
VERTEX
  5
C6F
330
C69
100
AcDbEntity
  8
GAIKEI
  6
Continuous
 62
     1
370
     0
100
AcDbVertex
100
AcDb2dVertex
 10
-1.014117002950342
 20
27.74064474026031
 30
0.0
  0
VERTEX
  5
C70
330
C69
100
AcDbEntity
  8
GAIKEI
  6
Continuous
 62
     1
370
     0
100
AcDbVertex
100
AcDb2dVertex
 10
-1.054163206082648
 20
27.60286048885129
 30
0.0
  0
SEQEND
  5
C71
330
C69
100
AcDbEntity
  8
GAIKEI
  6
Continuous
 62
     1
370
     0
  0
POLYLINE
  5
C72
330
2
100
AcDbEntity
  8
GAIKEI
  6
Continuous
 62
     1
370
    13
100
AcDb2dPolyline
 66
     1
 10
0.0
 20
0.0
 30
0.0
  0
VERTEX
  5
C73
330
C72
100
AcDbEntity
  8
GAIKEI
  6
Continuous
 62
     1
370
     0
100
AcDbVertex
100
AcDb2dVertex
 10
-1.054163206082648
 20
28.91824983852902
 30
0.0
  0
VERTEX
  5
C74
330
C72
100
AcDbEntity
  8
GAIKEI
  6
Continuous
 62
     1
370
     0
100
AcDbVertex
100
AcDb2dVertex
 10
-1.017351883982087
 20
28.79256309015486
 30
0.0
  0
VERTEX
  5
C75
330
C72
100
AcDbEntity
  8
GAIKEI
  6
Continuous
 62
     1
370
     0
100
AcDbVertex
100
AcDb2dVertex
 10
-0.9856982910794158
 20
28.66184701579923
 30
0.0
  0
VERTEX
  5
C76
330
C72
100
AcDbEntity
  8
GAIKEI
  6
Continuous
 62
     1
370
     0
100
AcDbVertex
100
AcDb2dVertex
 10
-0.9679122455501101
 20
28.56769145726159
 30
0.0
  0
VERTEX
  5
C77
330
C72
100
AcDbEntity
  8
GAIKEI
  6
Continuous
 62
     1
370
     0
100
AcDbVertex
100
AcDb2dVertex
 10
-0.9545819116336815
 20
28.47196185929519
 30
0.0
  0
VERTEX
  5
C78
330
C72
100
AcDbEntity
  8
GAIKEI
  6
Continuous
 62
     1
370
     0
100
AcDbVertex
100
AcDb2dVertex
 10
-0.9456520879471099
 20
28.36706403167042
 30
0.0
  0
VERTEX
  5
C79
330
C72
100
AcDbEntity
  8
GAIKEI
  6
Continuous
 62
     1
370
     0
100
AcDbVertex
100
AcDb2dVertex
 10
-0.9425700107431111
 20
28.26055496368517
 30
0.0
  0
SEQEND
  5
C7A
330
C72
100
AcDbEntity
  8
GAIKEI
  6
Continuous
 62
     1
370
     0
  0
POLYLINE
  5
C7B
330
2
100
AcDbEntity
  8
GAIKEI
  6
Continuous
 62
     1
370
    13
100
AcDb2dPolyline
 66
     1
 10
0.0
 20
0.0
 30
0.0
  0
VERTEX
  5
C7C
330
C7B
100
AcDbEntity
  8
GAIKEI
  6
Continuous
 62
     1
370
     0
100
AcDbVertex
100
AcDb2dVertex
 10
-1.613936828060559
 20
29.41541789227685
 30
0.0
  0
VERTEX
  5
C7D
330
C7B
100
AcDbEntity
  8
GAIKEI
  6
Continuous
 62
     1
370
     0
100
AcDbVertex
100
AcDb2dVertex
 10
-1.545069102967204
 20
29.4006959235007
 30
0.0
  0
VERTEX
  5
C7E
330
C7B
100
AcDbEntity
  8
GAIKEI
  6
Continuous
 62
     1
370
     0
100
AcDbVertex
100
AcDb2dVertex
 10
-1.472728490880285
 20
29.37729453731069
 30
0.0
  0
VERTEX
  5
C7F
330
C7B
100
AcDbEntity
  8
GAIKEI
  6
Continuous
 62
     1
370
     0
100
AcDbVertex
100
AcDb2dVertex
 10
-1.399246250196256
 20
29.3439317015926
 30
0.0
  0
VERTEX
  5
C80
330
C7B
100
AcDbEntity
  8
GAIKEI
  6
Continuous
 62
     1
370
     0
100
AcDbVertex
100
AcDb2dVertex
 10
-1.328877287498016
 20
29.30116943042455
 30
0.0
  0
VERTEX
  5
C81
330
C7B
100
AcDbEntity
  8
GAIKEI
  6
Continuous
 62
     1
370
     0
100
AcDbVertex
100
AcDb2dVertex
 10
-1.263183241903334
 20
29.24948373573031
 30
0.0
  0
VERTEX
  5
C82
330
C7B
100
AcDbEntity
  8
GAIKEI
  6
Continuous
 62
     1
370
     0
100
AcDbVertex
100
AcDb2dVertex
 10
-1.204234165265916
 20
29.19002184624728
 30
0.0
  0
VERTEX
  5
C83
330
C7B
100
AcDbEntity
  8
GAIKEI
  6
Continuous
 62
     1
370
     0
100
AcDbVertex
100
AcDb2dVertex
 10
-1.153103684479447
 20
29.12435860142429
 30
0.0
  0
VERTEX
  5
C84
330
C7B
100
AcDbEntity
  8
GAIKEI
  6
Continuous
 62
     1
370
     0
100
AcDbVertex
100
AcDb2dVertex
 10
-1.11112863303083
 20
29.05535047281396
 30
0.0
  0
VERTEX
  5
C85
330
C7B
100
AcDbEntity
  8
GAIKEI
  6
Continuous
 62
     1
370
     0
100
AcDbVertex
100
AcDb2dVertex
 10
-1.077949001901856
 20
28.98447469742015
 30
0.0
  0
VERTEX
  5
C86
330
C7B
100
AcDbEntity
  8
GAIKEI
  6
Continuous
 62
     1
370
     0
100
AcDbVertex
100
AcDb2dVertex
 10
-1.054163206082648
 20
28.91824983852902
 30
0.0
  0
SEQEND
  5
C87
330
C7B
100
AcDbEntity
  8
GAIKEI
  6
Continuous
 62
     1
370
     0
  0
POLYLINE
  5
C88
330
2
100
AcDbEntity
  8
GAIKEI
  6
Continuous
 62
     1
370
    13
100
AcDb2dPolyline
 66
     1
 10
0.0
 20
0.0
 30
0.0
  0
VERTEX
  5
C89
330
C88
100
AcDbEntity
  8
GAIKEI
  6
Continuous
 62
     1
370
     0
100
AcDbVertex
100
AcDb2dVertex
 10
-2.597469864945992
 20
29.50426291778896
 30
0.0
  0
VERTEX
  5
C8A
330
C88
100
AcDbEntity
  8
GAIKEI
  6
Continuous
 62
     1
370
     0
100
AcDbVertex
100
AcDb2dVertex
 10
-2.419828615144183
 20
29.49477788019473
 30
0.0
  0
VERTEX
  5
C8B
330
C88
100
AcDbEntity
  8
GAIKEI
  6
Continuous
 62
     1
370
     0
100
AcDbVertex
100
AcDb2dVertex
 10
-2.227477396866788
 20
29.48462122577686
 30
0.0
  0
VERTEX
  5
C8C
330
C88
100
AcDbEntity
  8
GAIKEI
  6
Continuous
 62
     1
370
     0
100
AcDbVertex
100
AcDb2dVertex
 10
-2.02339508473301
 20
29.46939884446576
 30
0.0
  0
VERTEX
  5
C8D
330
C88
100
AcDbEntity
  8
GAIKEI
  6
Continuous
 62
     1
370
     0
100
AcDbVertex
100
AcDb2dVertex
 10
-1.762774556352269
 20
29.43844086898796
 30
0.0
  0
VERTEX
  5
C8E
330
C88
100
AcDbEntity
  8
GAIKEI
  6
Continuous
 62
     1
370
     0
100
AcDbVertex
100
AcDb2dVertex
 10
-1.613936828060559
 20
29.41541789227685
 30
0.0
  0
SEQEND
  5
C8F
330
C88
100
AcDbEntity
  8
GAIKEI
  6
Continuous
 62
     1
370
     0
  0
POLYLINE
  5
C90
330
2
100
AcDbEntity
  8
GAIKEI
  6
Continuous
 62
     1
370
    13
100
AcDb2dPolyline
 66
     1
 10
0.0
 20
0.0
 30
0.0
  0
VERTEX
  5
C91
330
C90
100
AcDbEntity
  8
GAIKEI
  6
Continuous
 62
     1
370
     0
100
AcDbVertex
100
AcDb2dVertex
 10
-3.326467325875
 20
28.92315716145444
 30
0.0
  0
VERTEX
  5
C92
330
C90
100
AcDbEntity
  8
GAIKEI
  6
Continuous
 62
     1
370
     0
100
AcDbVertex
100
AcDb2dVertex
 10
-3.316573478040254
 20
28.97684490629874
 30
0.0
  0
VERTEX
  5
C93
330
C90
100
AcDbEntity
  8
GAIKEI
  6
Continuous
 62
     1
370
     0
100
AcDbVertex
100
AcDb2dVertex
 10
-3.302211518282206
 20
29.0303498465639
 30
0.0
  0
VERTEX
  5
C94
330
C90
100
AcDbEntity
  8
GAIKEI
  6
Continuous
 62
     1
370
     0
100
AcDbVertex
100
AcDb2dVertex
 10
-3.283051838344249
 20
29.08362238100753
 30
0.0
  0
VERTEX
  5
C95
330
C90
100
AcDbEntity
  8
GAIKEI
  6
Continuous
 62
     1
370
     0
100
AcDbVertex
100
AcDb2dVertex
 10
-3.25957125017021
 20
29.13467365980998
 30
0.0
  0
VERTEX
  5
C96
330
C90
100
AcDbEntity
  8
GAIKEI
  6
Continuous
 62
     1
370
     0
100
AcDbVertex
100
AcDb2dVertex
 10
-3.232678576525586
 20
29.18231885329212
 30
0.0
  0
VERTEX
  5
C97
330
C90
100
AcDbEntity
  8
GAIKEI
  6
Continuous
 62
     1
370
     0
100
AcDbVertex
100
AcDb2dVertex
 10
-3.202929031318149
 20
29.22647275931976
 30
0.0
  0
VERTEX
  5
C98
330
C90
100
AcDbEntity
  8
GAIKEI
  6
Continuous
 62
     1
370
     0
100
AcDbVertex
100
AcDb2dVertex
 10
-3.14081227533245
 20
29.29996100015419
 30
0.0
  0
VERTEX
  5
C99
330
C90
100
AcDbEntity
  8
GAIKEI
  6
Continuous
 62
     1
370
     0
100
AcDbVertex
100
AcDb2dVertex
 10
-3.074660618274947
 20
29.35911768199193
 30
0.0
  0
VERTEX
  5
C9A
330
C90
100
AcDbEntity
  8
GAIKEI
  6
Continuous
 62
     1
370
     0
100
AcDbVertex
100
AcDb2dVertex
 10
-2.999036323933864
 20
29.41029096385054
 30
0.0
  0
VERTEX
  5
C9B
330
C90
100
AcDbEntity
  8
GAIKEI
  6
Continuous
 62
     1
370
     0
100
AcDbVertex
100
AcDb2dVertex
 10
-2.909660085115092
 20
29.45428606590017
 30
0.0
  0
VERTEX
  5
C9C
330
C90
100
AcDbEntity
  8
GAIKEI
  6
Continuous
 62
     1
370
     0
100
AcDbVertex
100
AcDb2dVertex
 10
-2.859622431703314
 20
29.47241411999661
 30
0.0
  0
VERTEX
  5
C9D
330
C90
100
AcDbEntity
  8
GAIKEI
  6
Continuous
 62
     1
370
     0
100
AcDbVertex
100
AcDb2dVertex
 10
-2.807655529965018
 20
29.48672087837187
 30
0.0
  0
VERTEX
  5
C9E
330
C90
100
AcDbEntity
  8
GAIKEI
  6
Continuous
 62
     1
370
     0
100
AcDbVertex
100
AcDb2dVertex
 10
-2.753711378697857
 20
29.49710953860128
 30
0.0
  0
VERTEX
  5
C9F
330
C90
100
AcDbEntity
  8
GAIKEI
  6
Continuous
 62
     1
370
     0
100
AcDbVertex
100
AcDb2dVertex
 10
-2.699352017029923
 20
29.50333529455256
 30
0.0
  0
VERTEX
  5
CA0
330
C90
100
AcDbEntity
  8
GAIKEI
  6
Continuous
 62
     1
370
     0
100
AcDbVertex
100
AcDb2dVertex
 10
-2.597469864945992
 20
29.50426291778896
 30
0.0
  0
SEQEND
  5
CA1
330
C90
100
AcDbEntity
  8
GAIKEI
  6
Continuous
 62
     1
370
     0
  0
LINE
  5
CA2
330
2
100
AcDbEntity
  8
GAIKEI
  6
Continuous
 62
     1
370
    13
100
AcDbLine
 10
-3.481793616701111
 20
30.58683403551615
 30
0.0
 11
-3.541414310162053
 21
30.57750780189983
 31
0.0
  0
ARC
  5
CA3
330
2
100
AcDbEntity
  8
GAIKEI
  6
Continuous
 62
     1
370
    40
100
AcDbCircle
 10
-19.46485398233403
 20
27.6959656210764
 30
0.0
 40
14.99755047922874
100
AcDbArc
 50
265.4105000000018
 51
274.5893660000004
  0
ARC
  5
CA4
330
2
100
AcDbEntity
  8
GAIKEI
  6
Continuous
 62
     1
370
    13
100
AcDbCircle
 10
-1.850624756944625
 20
27.67194181929526
 30
0.0
 40
1.477588212657559
100
AcDbArc
 50
179.7351850000002
 51
182.8259859999998
  0
ARC
  5
CA5
330
2
100
AcDbEntity
  8
GAIKEI
  6
Continuous
 62
     1
370
    13
100
AcDbCircle
 10
-3.4989020452565
 20
26.24691812334581
 30
0.0
 40
0.30620247017974
100
AcDbArc
 50
256.9855089999995
 51
262.0212369999996
  0
ARC
  5
CA6
330
2
100
AcDbEntity
  8
GAIKEI
  6
Continuous
 62
     1
370
    13
100
AcDbCircle
 10
-3.205523096297838
 20
25.38547694478481
 30
0.0
 40
0.61441819079014
100
AcDbArc
 50
106.6080920000002
 51
116.7206110000001
  0
ARC
  5
CA7
330
2
100
AcDbEntity
  8
GAIKEI
  6
Continuous
 62
     1
370
    13
100
AcDbCircle
 10
201.4126576607348
 20
-660.3249552712679
 30
0.0
 40
716.2032524420657
100
AcDbArc
 50
106.4282190000009
 51
106.6152640000008
  0
ARC
  5
CA8
330
2
100
AcDbEntity
  8
GAIKEI
  6
Continuous
 62
     1
370
    13
100
AcDbCircle
 10
-1.251336145140953
 20
27.02323756966084
 30
0.0
 40
0.3999220177956
100
AcDbArc
 50
286.2271129999997
 51
338.9983720000005
  0
ARC
  5
CA9
330
2
100
AcDbEntity
  8
GAIKEI
  6
Continuous
 62
     1
370
    13
100
AcDbCircle
 10
-4.510560986678115
 20
28.2605429633845
 30
0.0
 40
3.885964540973359
100
AcDbArc
 50
339.1896580000024
 51
20.81054100000269
  0
ARC
  5
CAA
330
2
100
AcDbEntity
  8
GAIKEI
  6
Continuous
 62
     1
370
    13
100
AcDbCircle
 10
-1.251336145140953
 20
29.49787835785978
 30
0.0
 40
0.3999200177455
100
AcDbArc
 50
21.00106100000079
 51
73.77257299999915
  0
ARC
  5
CAB
330
2
100
AcDbEntity
  8
GAIKEI
  6
Continuous
 62
     1
370
    13
100
AcDbCircle
 10
201.4165153573677
 20
716.8590539239975
 30
0.0
 40
716.2168239820241
100
AcDbArc
 50
253.3847359999992
 51
253.5717809999991
  0
ARC
  5
CAC
330
2
100
AcDbEntity
  8
GAIKEI
  6
Continuous
 62
     1
370
    13
100
AcDbCircle
 10
-3.205474295075418
 20
31.13573698519062
 30
0.0
 40
0.6145285935556601
100
AcDbArc
 50
243.2794440000014
 51
253.3902620000018
  0
ARC
  5
CAD
330
2
100
AcDbEntity
  8
GAIKEI
  6
Continuous
 62
     1
370
    13
100
AcDbCircle
 10
-3.498932846027969
 20
30.27426500585816
 30
0.0
 40
0.30612446822584
100
AcDbArc
 50
97.97468500000114
 51
103.0116699999997
  0
ARC
  5
CAE
330
2
100
AcDbEntity
  8
GAIKEI
  6
Continuous
 62
     1
370
    13
100
AcDbCircle
 10
-1.849983940892684
 20
28.84881449921735
 30
0.0
 40
1.4783530318158
100
AcDbArc
 50
177.1176520000007
 51
180.2648420000004
  0
POLYLINE
  5
CAF
330
2
100
AcDbEntity
  8
GAIKEI
  6
Continuous
 62
     1
370
    13
100
AcDb2dPolyline
 66
     1
 10
0.0
 20
0.0
 30
0.0
  0
VERTEX
  5
CB0
330
CAF
100
AcDbEntity
  8
GAIKEI
  6
Continuous
 62
     1
370
     0
100
AcDbVertex
100
AcDb2dVertex
 10
-3.328200969301633
 20
27.67876559022634
 30
0.0
  0
VERTEX
  5
CB1
330
CAF
100
AcDbEntity
  8
GAIKEI
  6
Continuous
 62
     1
370
     0
100
AcDbVertex
100
AcDb2dVertex
 10
-3.328457375724497
 20
28.13270776119291
 30
0.0
  0
VERTEX
  5
CB2
330
CAF
100
AcDbEntity
  8
GAIKEI
  6
Continuous
 62
     1
370
     0
100
AcDbVertex
100
AcDb2dVertex
 10
-3.327993364101303
 20
28.61766830915039
 30
0.0
  0
VERTEX
  5
CB3
330
CAF
100
AcDbEntity
  8
GAIKEI
  6
Continuous
 62
     1
370
     0
100
AcDbVertex
100
AcDb2dVertex
 10
-3.328322972357682
 20
28.84197832797563
 30
0.0
  0
SEQEND
  5
CB4
330
CAF
100
AcDbEntity
  8
GAIKEI
  6
Continuous
 62
     1
370
     0
  0
ARC
  5
CB5
330
2
100
AcDbEntity
  8
GAIKEI
  6
Continuous
 62
     1
370
    13
100
AcDbCircle
 10
-19.46488438309564
 20
28.17747208251112
 30
0.0
 40
15.82318076074922
100
AcDbArc
 50
267.1323969999996
 51
272.8676519999996
  0
ARC
  5
CB6
330
2
100
AcDbEntity
  8
GAIKEI
  6
Continuous
 62
     1
370
    13
100
AcDbCircle
 10
-19.24406605173499
 20
28.26363144074898
 30
0.0
 40
15.84503010806166
100
AcDbArc
 50
357.8981200000005
 51
359.9888780000002
  0
LINE
  5
CB7
330
2
100
AcDbEntity
  8
GAIKEI
  6
Continuous
 62
     1
370
    13
100
AcDbLine
 10
-3.412785488090776
 20
27.60316569649646
 30
0.0
 11
-3.409691010576011
 21
27.6824888834926
 31
0.0
  0
ARC
  5
CB8
330
2
100
AcDbEntity
  8
GAIKEI
  6
Continuous
 62
     1
370
    13
100
AcDbCircle
 10
-19.33805640613434
 20
28.26115337867506
 30
0.0
 40
15.93885885841298
100
AcDbArc
 50
351.6577690000006
 51
357.634087
  0
ARC
  5
CB9
330
2
100
AcDbEntity
  8
GAIKEI
  6
Continuous
 62
     1
370
    13
100
AcDbCircle
 10
10.21774394811871
 20
23.93100331113303
 30
0.0
 40
13.9324529992052
100
AcDbArc
 50
171.6733619999998
 51
172.6425799999994
  0
ARC
  5
CBA
330
2
100
AcDbEntity
  8
GAIKEI
  6
Continuous
 62
     1
370
    13
100
AcDbCircle
 10
11.55282379103096
 20
23.76849324035763
 30
0.0
 40
15.27737188857946
100
AcDbArc
 50
172.6793130000002
 51
173.6005410000001
  0
LINE
  5
CBB
330
2
100
AcDbEntity
  8
GAIKEI
  6
Continuous
 62
     1
370
    13
100
AcDbLine
 10
-14.61896819593585
 20
12.59241368657771
 30
0.0
 11
-14.70902165171844
 21
12.96698946946603
 31
0.0
  0
POLYLINE
  5
CBC
330
2
100
AcDbEntity
  8
GAIKEI
  6
Continuous
 62
     1
370
    13
100
AcDb2dPolyline
 66
     1
 10
0.0
 20
0.0
 30
0.0
  0
VERTEX
  5
CBD
330
CBC
100
AcDbEntity
  8
GAIKEI
  6
Continuous
 62
     1
370
     0
100
AcDbVertex
100
AcDb2dVertex
 10
-14.70902165171844
 20
12.96698946946603
 30
0.0
  0
VERTEX
  5
CBE
330
CBC
100
AcDbEntity
  8
GAIKEI
  6
Continuous
 62
     1
370
     0
100
AcDbVertex
100
AcDb2dVertex
 10
-14.7094428622695
 20
12.96809429714128
 30
0.0
  0
VERTEX
  5
CBF
330
CBC
100
AcDbEntity
  8
GAIKEI
  6
Continuous
 62
     1
370
     0
100
AcDbVertex
100
AcDb2dVertex
 10
-14.71123730721922
 20
12.97001074514705
 30
0.0
  0
VERTEX
  5
CC0
330
CBC
100
AcDbEntity
  8
GAIKEI
  6
Continuous
 62
     1
370
     0
100
AcDbVertex
100
AcDb2dVertex
 10
-14.71427698336117
 20
12.97153678337335
 30
0.0
  0
VERTEX
  5
CC1
330
CBC
100
AcDbEntity
  8
GAIKEI
  6
Continuous
 62
     1
370
     0
100
AcDbVertex
100
AcDb2dVertex
 10
-14.72406722860069
 20
12.97339242985614
 30
0.0
  0
VERTEX
  5
CC2
330
CBC
100
AcDbEntity
  8
GAIKEI
  6
Continuous
 62
     1
370
     0
100
AcDbVertex
100
AcDb2dVertex
 10
-14.74775582198503
 20
12.97328842725093
 30
0.0
  0
VERTEX
  5
CC3
330
CBC
100
AcDbEntity
  8
GAIKEI
  6
Continuous
 62
     1
370
     0
100
AcDbVertex
100
AcDb2dVertex
 10
-14.82472895011358
 20
12.96340657971686
 30
0.0
  0
VERTEX
  5
CC4
330
CBC
100
AcDbEntity
  8
GAIKEI
  6
Continuous
 62
     1
370
     0
100
AcDbVertex
100
AcDb2dVertex
 10
-15.01712896961339
 20
12.92542962841807
 30
0.0
  0
VERTEX
  5
CC5
330
CBC
100
AcDbEntity
  8
GAIKEI
  6
Continuous
 62
     1
370
     0
100
AcDbVertex
100
AcDb2dVertex
 10
-15.27990395196184
 20
12.86698096431573
 30
0.0
  0
VERTEX
  5
CC6
330
CBC
100
AcDbEntity
  8
GAIKEI
  6
Continuous
 62
     1
370
     0
100
AcDbVertex
100
AcDb2dVertex
 10
-15.7843965891858
 20
12.75385573059961
 30
0.0
  0
SEQEND
  5
CC7
330
CBC
100
AcDbEntity
  8
GAIKEI
  6
Continuous
 62
     1
370
     0
  0
ARC
  5
CC8
330
2
100
AcDbEntity
  8
GAIKEI
  6
Continuous
 62
     1
370
    13
100
AcDbCircle
 10
-19.45348289749552
 20
29.48963855145777
 30
0.0
 40
17.13334277948568
100
AcDbArc
 50
272.6100309999998
 51
282.365652000001
  0
ARC
  5
CC9
330
2
100
AcDbEntity
  8
GAIKEI
  6
Continuous
 62
     1
370
    13
100
AcDbCircle
 10
-19.46487198278498
 20
28.26055496368517
 30
0.0
 40
15.906258441793
100
AcDbArc
 50
272.8526260000015
 51
359.591767
  0
LINE
  5
CCA
330
2
100
AcDbEntity
  8
GAIKEI
  6
Continuous
 62
     1
370
    13
100
AcDbLine
 10
-3.559017151102125
 20
28.14722212476861
 30
0.0
 11
-3.558614341012003
 21
28.26055496368517
 31
0.0
  0
LINE
  5
CCB
330
2
100
AcDbEntity
  8
GAIKEI
  6
Continuous
 62
     1
370
    13
100
AcDbLine
 10
-3.319545952498856
 20
25.3792327883726
 30
0.0
 11
-3.629368113349642
 21
25.47130069461591
 31
0.0
  0
LINE
  5
CCC
330
2
100
AcDbEntity
  8
GAIKEI
  6
Continuous
 62
     1
370
    13
100
AcDbLine
 10
-3.629349712888711
 20
31.04973643093067
 30
0.0
 11
-3.319545952498856
 21
31.14187713899762
 31
0.0
  0
ARC
  5
CCD
330
2
100
AcDbEntity
  8
GAIKEI
  6
Continuous
 62
     1
370
    13
100
AcDbCircle
 10
10.34695838485925
 20
32.60686743608537
 30
0.0
 40
14.06274506293964
100
AcDbArc
 50
186.3571939999999
 51
188.3179500000006
  0
ARC
  5
CCE
330
2
100
AcDbEntity
  8
GAIKEI
  6
Continuous
 62
     1
370
    13
100
AcDbCircle
 10
-19.33808680689583
 20
28.25995694870525
 30
0.0
 40
15.93888805914444
100
AcDbArc
 50
2.36997199999964
 51
8.342228999999726
  0
LINE
  5
CCF
330
2
100
AcDbEntity
  8
GAIKEI
  6
Continuous
 62
     1
370
    13
100
AcDbLine
 10
-3.40967261011508
 20
28.83825503470936
 30
0.0
 11
-3.412834289313195
 21
28.91906745900994
 31
0.0
  0
ARC
  5
CD0
330
2
100
AcDbEntity
  8
GAIKEI
  6
Continuous
 62
     1
370
    13
100
AcDbCircle
 10
-19.23600904991213
 20
28.2576496909098
 30
0.0
 40
15.83697030616868
100
AcDbArc
 50
0.0105159999999633
 51
2.101030000000794
  0
ARC
  5
CD1
330
2
100
AcDbEntity
  8
GAIKEI
  6
Continuous
 62
     1
370
    13
100
AcDbCircle
 10
-19.46487198278498
 20
28.26055496368517
 30
0.0
 40
15.906258441793
100
AcDbArc
 50
0.0
 51
179.5917650000002
  0
ARC
  5
CD2
330
2
100
AcDbEntity
  8
GAIKEI
  6
Continuous
 62
     1
370
    13
100
AcDbCircle
 10
-19.46487198278498
 20
28.26055496368517
 30
0.0
 40
15.906258441793
100
AcDbArc
 50
180.0000050000005
 51
267.1473210000011
  0
ARC
  5
CD3
330
2
100
AcDbEntity
  8
GAIKEI
  6
Continuous
 62
     1
370
    13
100
AcDbCircle
 10
-19.47629226885601
 20
29.4894921477904
 30
0.0
 40
17.13319357574822
100
AcDbArc
 50
257.6343290000009
 51
267.3899909999998
  0
POLYLINE
  5
CD4
330
2
100
AcDbEntity
  8
GAIKEI
  6
Continuous
 62
     1
370
    13
100
AcDb2dPolyline
 66
     1
 10
0.0
 20
0.0
 30
0.0
  0
VERTEX
  5
CD5
330
CD4
100
AcDbEntity
  8
GAIKEI
  6
Continuous
 62
     1
370
     0
100
AcDbVertex
100
AcDb2dVertex
 10
-23.14534777639415
 20
12.75385573059961
 30
0.0
  0
VERTEX
  5
CD6
330
CD4
100
AcDbEntity
  8
GAIKEI
  6
Continuous
 62
     1
370
     0
100
AcDbVertex
100
AcDb2dVertex
 10
-23.77444073477795
 20
12.89504566731895
 30
0.0
  0
VERTEX
  5
CD7
330
CD4
100
AcDbEntity
  8
GAIKEI
  6
Continuous
 62
     1
370
     0
100
AcDbVertex
100
AcDb2dVertex
 10
-24.02782828197712
 20
12.94927062562007
 30
0.0
  0
VERTEX
  5
CD8
330
CD4
100
AcDbEntity
  8
GAIKEI
  6
Continuous
 62
     1
370
     0
100
AcDbVertex
100
AcDb2dVertex
 10
-24.12234344952265
 20
12.96618984943606
 30
0.0
  0
VERTEX
  5
CD9
330
CD4
100
AcDbEntity
  8
GAIKEI
  6
Continuous
 62
     1
370
     0
100
AcDbVertex
100
AcDb2dVertex
 10
-24.18764668532777
 20
12.97358763474594
 30
0.0
  0
VERTEX
  5
CDA
330
CD4
100
AcDbEntity
  8
GAIKEI
  6
Continuous
 62
     1
370
     0
100
AcDbVertex
100
AcDb2dVertex
 10
-24.20769718758027
 20
12.97318482465582
 30
0.0
  0
VERTEX
  5
CDB
330
CD4
100
AcDbEntity
  8
GAIKEI
  6
Continuous
 62
     1
370
     0
100
AcDbVertex
100
AcDb2dVertex
 10
-24.2161201985715
 20
12.97126837664993
 30
0.0
  0
VERTEX
  5
CDC
330
CD4
100
AcDbEntity
  8
GAIKEI
  6
Continuous
 62
     1
370
     0
100
AcDbVertex
100
AcDb2dVertex
 10
-24.21875706462322
 20
12.96980954010698
 30
0.0
  0
VERTEX
  5
CDD
330
CD4
100
AcDbEntity
  8
GAIKEI
  6
Continuous
 62
     1
370
     0
100
AcDbVertex
100
AcDb2dVertex
 10
-24.22072231385153
 20
12.96698946946603
 30
0.0
  0
SEQEND
  5
CDE
330
CD4
100
AcDbEntity
  8
GAIKEI
  6
Continuous
 62
     1
370
     0
  0
LINE
  5
CDF
330
2
100
AcDbEntity
  8
GAIKEI
  6
Continuous
 62
     1
370
    13
100
AcDbLine
 10
-24.22072231385153
 20
12.96698946946603
 30
0.0
 11
-24.3107761696441
 21
12.59241368657771
 31
0.0
  0
LINE
  5
CE0
330
2
100
AcDbEntity
  8
GAIKEI
  6
Continuous
 62
     7
370
    40
100
AcDbLine
 10
-23.788619489947
 20
11.86014414368512
 30
0.0
 11
-15.35650507077173
 21
11.86014414368512
 31
0.0
  0
LINE
  5
CE1
330
2
100
AcDbEntity
  8
GAIKEI
  6
Continuous
 62
     7
370
    40
100
AcDbLine
 10
-15.14112487563307
 20
11.86014414368512
 30
0.0
 11
-15.35650507077173
 21
11.86014414368512
 31
0.0
  0
ELLIPSE
  5
CE2
330
2
100
AcDbEntity
  8
GAIKEI
  6
Continuous
 62
     7
370
    40
100
AcDbEllipse
 10
-15.14112487563307
 20
12.16015165868506
 30
0.0
 11
-0.3001906250555419
 21
0.0
 31
0.0
210
0.0
220
0.0
230
1.0
 40
0.9993909999999999
 41
1.57079632719019
 42
2.819842098894143
  0
LINE
  5
CE3
330
2
100
AcDbEntity
  8
GAIKEI
  6
Continuous
 62
     7
370
    40
100
AcDbLine
 10
-14.71035848520523
 20
12.50294584546438
 30
0.0
 11
-14.85634014195409
 21
12.06528248227172
 31
0.0
  0
ARC
  5
CE4
330
2
100
AcDbEntity
  8
GAIKEI
  6
Continuous
 62
     7
370
    40
100
AcDbCircle
 10
-14.57721915014849
 20
12.4583647287354
 30
0.0
 40
0.14043791788172
100
AcDbArc
 50
107.2994710000006
 51
161.4889490000025
  0
ARC
  5
CE5
330
2
100
AcDbEntity
  8
GAIKEI
  6
Continuous
 62
     7
370
    40
100
AcDbCircle
 10
-19.46487198278498
 20
28.26055496368517
 30
0.0
 40
16.40041082
100
AcDbArc
 50
287.1859899999994
 51
349.8814220000004
  0
ARC
  5
CE6
330
2
100
AcDbEntity
  8
GAIKEI
  6
Continuous
 62
     7
370
    40
100
AcDbCircle
 10
-2.925859290895004
 20
25.30865622047392
 30
0.0
 40
0.40001122003006
100
AcDbArc
 50
106.9907879999997
 51
169.8366839999997
  0
LINE
  5
CE7
330
2
100
AcDbEntity
  8
GAIKEI
  6
Continuous
 62
     7
370
    40
100
AcDbLine
 10
-3.042744618799133
 20
25.69119140274015
 30
0.0
 11
-1.002239105416492
 21
26.3150410297819
 31
0.0
  0
ARC
  5
CE8
330
2
100
AcDbEntity
  8
GAIKEI
  6
Continuous
 62
     7
370
    40
100
AcDbCircle
 10
-1.177634298956036
 20
26.8885661962274
 30
0.0
 40
0.5997578235571401
100
AcDbArc
 50
287.0045530000012
 51
338.2902609999994
  0
ARC
  5
CE9
330
2
100
AcDbEntity
  8
GAIKEI
  6
Continuous
 62
     7
370
    40
100
AcDbCircle
 10
-4.62449784072487
 20
28.26055496368517
 30
0.0
 40
4.30963275359624
100
AcDbArc
 50
338.2947840000022
 51
21.70521599999782
  0
ARC
  5
CEA
330
2
100
AcDbEntity
  8
GAIKEI
  6
Continuous
 62
     7
370
    40
100
AcDbCircle
 10
-1.177634298956036
 20
29.63253773099254
 30
0.0
 40
0.5997586235771802
100
AcDbArc
 50
21.70981300000004
 51
72.99544099999912
  0
LINE
  5
CEB
330
2
100
AcDbEntity
  8
GAIKEI
  6
Continuous
 62
     7
370
    40
100
AcDbLine
 10
-1.002239105416492
 20
30.20607489773872
 30
0.0
 11
-3.042744618799133
 21
30.82991892464006
 31
0.0
  0
ARC
  5
CEC
330
2
100
AcDbEntity
  8
GAIKEI
  6
Continuous
 62
     7
370
    40
100
AcDbCircle
 10
-2.925859290895004
 20
31.21246010705667
 30
0.0
 40
0.40001122003006
100
AcDbArc
 50
190.1638080000006
 51
253.0096420000004
  0
ARC
  5
CED
330
2
100
AcDbEntity
  8
GAIKEI
  6
Continuous
 62
     7
370
    40
100
AcDbCircle
 10
-19.46487198278498
 20
28.26055496368517
 30
0.0
 40
16.40041082
100
AcDbArc
 50
10.11857799999958
 51
169.8814210000001
  0
ARC
  5
CEE
330
2
100
AcDbEntity
  8
GAIKEI
  6
Continuous
 62
     7
370
    40
100
AcDbCircle
 10
-19.46487198278498
 20
28.26055496368517
 30
0.0
 40
16.40041082
100
AcDbArc
 50
190.1185789999999
 51
252.8140120000016
  0
ARC
  5
CEF
330
2
100
AcDbEntity
  8
GAIKEI
  6
Continuous
 62
     7
370
    40
100
AcDbCircle
 10
-24.35251281512092
 20
12.45837712904605
 30
0.0
 40
0.14042671760116
100
AcDbArc
 50
18.50892799999935
 51
72.70284200000007
  0
LINE
  5
CF0
330
2
100
AcDbEntity
  8
GAIKEI
  6
Continuous
 62
     7
370
    40
100
AcDbLine
 10
-24.21938588037472
 20
12.50294584546438
 30
0.0
 11
-24.07340422362586
 21
12.06528248227172
 31
0.0
  0
ELLIPSE
  5
CF1
330
2
100
AcDbEntity
  8
GAIKEI
  6
Continuous
 62
     7
370
    40
100
AcDbEllipse
 10
-23.78861948994688
 20
12.16015165868506
 30
0.0
 11
-0.3001906250555419
 21
0.0
 31
0.0
210
0.0
220
0.0
230
1.0
 40
0.9993909999999999
 41
0.3217505546967732
 42
1.570796326403157
  0
LINE
  5
CF2
330
2
100
AcDbEntity
  8
GAIKEI
  6
Continuous
 62
     1
370
    40
100
AcDbLine
 10
-22.20491261908353
 20
11.46013412368515
 30
0.0
 11
-16.72480094572484
 21
11.46013412368515
 31
0.0
  0
ARC
  5
CF3
330
2
100
AcDbEntity
  8
GAIKEI
  6
Continuous
 62
     1
370
    40
100
AcDbCircle
 10
-22.20494341985511
 20
11.520133226625
 30
0.0
 40
0.060001503
100
AcDbArc
 50
180.0000050000005
 51
270.000037999998
  0
ARC
  5
CF4
330
2
100
AcDbEntity
  8
GAIKEI
  6
Continuous
 62
     1
370
    40
100
AcDbCircle
 10
-16.72480094572484
 20
11.520133226625
 30
0.0
 40
0.060001503
100
AcDbArc
 50
269.9999630000002
 51
0.0
  0
LINE
  5
CF5
330
2
100
AcDbEntity
  8
GAIKEI
  6
Continuous
 62
     1
370
    13
100
AcDbLine
 10
-22.2649117220235
 20
11.520133226625
 30
0.0
 11
-16.66480184278498
 21
11.520133226625
 31
0.0
  0
LINE
  5
CF6
330
2
100
AcDbEntity
  8
GAIKEI
  6
Continuous
 62
     1
370
    40
100
AcDbLine
 10
-16.66480184278498
 20
11.70014253574524
 30
0.0
 11
-16.66480184278498
 21
11.520133226625
 31
0.0
  0
LINE
  5
CF7
330
2
100
AcDbEntity
  8
GAIKEI
  6
Continuous
 62
     1
370
    40
100
AcDbLine
 10
-22.26494212278499
 20
11.70014253574524
 30
0.0
 11
-22.26494212278499
 21
11.520133226625
 31
0.0
  0
LINE
  5
CF8
330
2
100
AcDbEntity
  8
GAIKEI
  6
Continuous
 62
     1
370
    13
100
AcDbLine
 10
-16.66485704416777
 20
11.70014253574524
 30
0.0
 11
-22.26494212278499
 21
11.70014253574524
 31
0.0
  0
ARC
  5
CF9
330
2
100
AcDbEntity
  8
GAIKEI
  6
Continuous
 62
     1
370
    40
100
AcDbCircle
 10
-22.20494341985511
 20
11.70014253574524
 30
0.0
 40
0.060001503
100
AcDbArc
 50
89.99996199999877
 51
180.0000050000005
  0
ARC
  5
CFA
330
2
100
AcDbEntity
  8
GAIKEI
  6
Continuous
 62
     1
370
    40
100
AcDbCircle
 10
-16.72480094572484
 20
11.70014253574524
 30
0.0
 40
0.060001503
100
AcDbArc
 50
0.0
 51
90.00003699999982
  0
LINE
  5
CFB
330
2
100
AcDbEntity
  8
GAIKEI
  6
Continuous
 62
     1
370
    40
100
AcDbLine
 10
-22.26494212278499
 20
11.86014414368512
 30
0.0
 11
-22.26494212278499
 21
11.7601416386851
 31
0.0
  0
LINE
  5
CFC
330
2
100
AcDbEntity
  8
GAIKEI
  6
Continuous
 62
     1
370
    40
100
AcDbLine
 10
-22.26494212278499
 20
11.7601416386851
 30
0.0
 11
-16.66480184278498
 21
11.7601416386851
 31
0.0
  0
LINE
  5
CFD
330
2
100
AcDbEntity
  8
GAIKEI
  6
Continuous
 62
     1
370
    40
100
AcDbLine
 10
-16.66480184278498
 20
11.86014414368512
 30
0.0
 11
-16.66480184278498
 21
11.7601416386851
 31
0.0
  0
LINE
  5
CFE
330
2
100
AcDbEntity
  8
GAIKEI
  6
Continuous
 62
     1
370
    40
100
AcDbLine
 10
-14.54609677055237
 20
42.84315904876708
 30
0.0
 11
-14.63585701899023
 21
42.57706358324262
 31
0.0
  0
LINE
  5
CFF
330
2
100
AcDbEntity
  8
GAIKEI
  6
Continuous
 62
     1
370
    40
100
AcDbLine
 10
-24.38364759502758
 20
42.84315904876708
 30
0.0
 11
-24.29388734658971
 21
42.57706358324262
 31
0.0
  0
ARC
  5
D00
330
2
100
AcDbEntity
  8
GAIKEI
  6
Continuous
 62
     1
370
    40
100
AcDbCircle
 10
-19.46487198278498
 20
28.20366873872089
 30
0.0
 40
15.1429473213284
100
AcDbArc
 50
71.42933300000179
 51
108.5706650000007
  0
LINE
  5
D01
330
2
100
AcDbEntity
  8
GAIKEI
  6
Continuous
 62
     1
370
    40
100
AcDbLine
 10
-24.28750878681081
 20
42.55814230927657
 30
0.0
 11
-24.29388734658971
 21
42.57706358324262
 31
0.0
  0
LINE
  5
D02
330
2
100
AcDbEntity
  8
GAIKEI
  6
Continuous
 62
     1
370
    40
100
AcDbLine
 10
-14.64223557876914
 20
42.55814230927657
 30
0.0
 11
-14.63585701899023
 21
42.57706358324262
 31
0.0
  0
ARC
  5
D03
330
2
100
AcDbEntity
  8
GAIKEI
  6
Continuous
 62
     1
370
    40
100
AcDbCircle
 10
-19.46487198278498
 20
28.26055496368517
 30
0.0
 40
15.38982790553212
100
AcDbArc
 50
70.98774699999848
 51
109.0122579999994
  0
LINE
  5
D04
330
2
100
AcDbEntity
  8
GAIKEI
  6
Continuous
 62
     1
370
    40
100
AcDbLine
 10
-14.4513187964236
 20
42.81084623935143
 30
0.0
 11
-14.5149619906457
 21
42.62614921280689
 31
0.0
  0
LINE
  5
D05
330
2
100
AcDbEntity
  8
GAIKEI
  6
Continuous
 62
     1
370
    40
100
AcDbLine
 10
-24.47842556915635
 20
42.81084623935143
 30
0.0
 11
-24.41478237493425
 21
42.62614921280689
 31
0.0
  0
LINE
  5
D06
330
2
100
AcDbEntity
  8
GAIKEI
  6
Continuous
 62
     1
370
    40
100
AcDbLine
 10
-14.61495209533507
 20
42.6390159351101
 30
0.0
 11
-14.52146815362096
 21
42.60727674006327
 31
0.0
  0
LINE
  5
D07
330
2
100
AcDbEntity
  8
GAIKEI
  6
Continuous
 62
     1
370
    40
100
AcDbLine
 10
-24.40827621195899
 20
42.60727674006327
 30
0.0
 11
-24.31479227024488
 21
42.6390159351101
 31
0.0
  0
LINE
  5
D08
330
2
100
AcDbEntity
  8
GAIKEI
  6
Continuous
 62
     1
370
    40
100
AcDbLine
 10
-24.40827621195899
 20
42.60727674006327
 30
0.0
 11
-24.41478237493425
 21
42.62614921280689
 31
0.0
  0
LINE
  5
D09
330
2
100
AcDbEntity
  8
GAIKEI
  6
Continuous
 62
     1
370
    40
100
AcDbLine
 10
-14.52146815362096
 20
42.60727674006327
 30
0.0
 11
-14.5149619906457
 21
42.62614921280689
 31
0.0
  0
ARC
  5
D0A
330
2
100
AcDbEntity
  8
GAIKEI
  6
Continuous
 62
     1
370
    40
100
AcDbCircle
 10
-19.46487198278498
 20
28.26055496368517
 30
0.0
 40
15.38982790553212
100
AcDbArc
 50
112.7401470000006
 51
127.6517279999975
  0
LINE
  5
D0B
330
2
100
AcDbEntity
  8
GAIKEI
  6
Continuous
 62
     1
370
    40
100
AcDbLine
 10
-25.41384940093645
 20
42.45409890305459
 30
0.0
 11
-25.34304682737638
 21
42.28517387158851
 31
0.0
  0
LINE
  5
D0C
330
2
100
AcDbEntity
  8
GAIKEI
  6
Continuous
 62
     1
370
    40
100
AcDbLine
 10
-28.86590107266466
 20
40.44527178319569
 30
0.0
 11
-28.75402707029105
 21
40.30027295106592
 31
0.0
  0
LINE
  5
D0D
330
2
100
AcDbEntity
  8
GAIKEI
  6
Continuous
 62
     1
370
    40
100
AcDbLine
 10
-25.33533183412067
 20
42.26676541046808
 30
0.0
 11
-25.34304682737638
 21
42.28517387158851
 31
0.0
  0
LINE
  5
D0E
330
2
100
AcDbEntity
  8
GAIKEI
  6
Continuous
 62
     1
370
    40
100
AcDbLine
 10
-28.74183196481136
 20
40.28446455507557
 30
0.0
 11
-28.75402707029105
 21
40.30027295106592
 31
0.0
  0
ARC
  5
D0F
330
2
100
AcDbEntity
  8
GAIKEI
  6
Continuous
 62
     1
370
    40
100
AcDbCircle
 10
-19.43625806602426
 20
28.21138373197661
 30
0.0
 40
15.24312103061696
100
AcDbArc
 50
112.7678919999995
 51
127.6239699999991
  0
POLYLINE
  5
D10
330
2
100
AcDbEntity
  8
GAIKEI
  6
Continuous
 62
     1
370
    40
100
AcDb2dPolyline
 66
     1
 10
0.0
 20
0.0
 30
0.0
  0
VERTEX
  5
D11
330
D10
100
AcDbEntity
  8
GAIKEI
  6
Continuous
 62
     1
370
     0
100
AcDbVertex
100
AcDb2dVertex
 10
-5.370427325790387
 20
22.7925467935116
 30
0.0
  0
VERTEX
  5
D12
330
D10
100
AcDbEntity
  8
GAIKEI
  6
Continuous
 62
     1
370
     0
100
AcDbVertex
100
AcDb2dVertex
 10
-5.513662113731925
 20
22.41689058355925
 30
0.0
  0
VERTEX
  5
D13
330
D10
100
AcDbEntity
  8
GAIKEI
  6
Continuous
 62
     1
370
     0
100
AcDbVertex
100
AcDb2dVertex
 10
-5.57239758501862
 20
22.25171924612082
 30
0.0
  0
VERTEX
  5
D14
330
D10
100
AcDbEntity
  8
GAIKEI
  6
Continuous
 62
     1
370
     0
100
AcDbVertex
100
AcDb2dVertex
 10
-5.595616166629497
 20
22.16891077182058
 30
0.0
  0
SEQEND
  5
D15
330
D10
100
AcDbEntity
  8
GAIKEI
  6
Continuous
 62
     1
370
     0
  0
POLYLINE
  5
D16
330
2
100
AcDbEntity
  8
GAIKEI
  6
Continuous
 62
     1
370
    40
100
AcDb2dPolyline
 66
     1
 10
0.0
 20
0.0
 30
0.0
  0
VERTEX
  5
D17
330
D16
100
AcDbEntity
  8
GAIKEI
  6
Continuous
 62
     1
370
     0
100
AcDbVertex
100
AcDb2dVertex
 10
-5.893395625818129
 20
34.9239666779674
 30
0.0
  0
VERTEX
  5
D18
330
D16
100
AcDbEntity
  8
GAIKEI
  6
Continuous
 62
     1
370
     0
100
AcDbVertex
100
AcDb2dVertex
 10
-5.942359252326241
 20
35.02903530987064
 30
0.0
  0
VERTEX
  5
D19
330
D16
100
AcDbEntity
  8
GAIKEI
  6
Continuous
 62
     1
370
     0
100
AcDbVertex
100
AcDb2dVertex
 10
-5.954902366523356
 20
35.06084730674124
 30
0.0
  0
SEQEND
  5
D1A
330
D16
100
AcDbEntity
  8
GAIKEI
  6
Continuous
 62
     1
370
     0
  0
ARC
  5
D1B
330
2
100
AcDbEntity
  8
GAIKEI
  6
Continuous
 62
     1
370
    13
100
AcDbCircle
 10
-5.6525755934274
 20
22.16248981097951
 30
0.0
 40
0.06012390606612
100
AcDbArc
 50
336.2682740000007
 51
13.97517099999911
  0
ARC
  5
D1C
330
2
100
AcDbEntity
  8
GAIKEI
  6
Continuous
 62
     1
370
    13
100
AcDbCircle
 10
-6.013326630014603
 20
35.05192388321504
 30
0.0
 40
0.06011630587574
100
AcDbArc
 50
4.110407999999563
 51
26.70014300000251
  0
POLYLINE
  5
D1D
330
2
100
AcDbEntity
  8
GAIKEI
  6
Continuous
 62
     1
370
    13
100
AcDb2dPolyline
 66
     1
 10
0.0
 20
0.0
 30
0.0
  0
VERTEX
  5
D1E
330
D1D
100
AcDbEntity
  8
GAIKEI
  6
Continuous
 62
     1
370
     0
100
AcDbVertex
100
AcDb2dVertex
 10
-5.702674448372363
 20
34.94040988985953
 30
0.0
  0
VERTEX
  5
D1F
330
D1D
100
AcDbEntity
  8
GAIKEI
  6
Continuous
 62
     1
370
     0
100
AcDbVertex
100
AcDb2dVertex
 10
-5.495698863763777
 20
34.49707598462337
 30
0.0
  0
VERTEX
  5
D20
330
D1D
100
AcDbEntity
  8
GAIKEI
  6
Continuous
 62
     1
370
     0
100
AcDbVertex
100
AcDb2dVertex
 10
-5.303030437540655
 20
34.04733311884681
 30
0.0
  0
VERTEX
  5
D21
330
D1D
100
AcDbEntity
  8
GAIKEI
  6
Continuous
 62
     1
370
     0
100
AcDbVertex
100
AcDb2dVertex
 10
-5.124864374592561
 20
33.59163330385238
 30
0.0
  0
VERTEX
  5
D22
330
D1D
100
AcDbEntity
  8
GAIKEI
  6
Continuous
 62
     1
370
     0
100
AcDbVertex
100
AcDb2dVertex
 10
-4.961389879659009
 20
33.13045255156394
 30
0.0
  0
VERTEX
  5
D23
330
D1D
100
AcDbEntity
  8
GAIKEI
  6
Continuous
 62
     1
370
     0
100
AcDbVertex
100
AcDb2dVertex
 10
-4.812777757018579
 20
32.66426647389514
 30
0.0
  0
VERTEX
  5
D24
330
D1D
100
AcDbEntity
  8
GAIKEI
  6
Continuous
 62
     1
370
     0
100
AcDbVertex
100
AcDb2dVertex
 10
-4.679174810348627
 20
32.1935394824794
 30
0.0
  0
VERTEX
  5
D25
330
D1D
100
AcDbEntity
  8
GAIKEI
  6
Continuous
 62
     1
370
     0
100
AcDbVertex
100
AcDb2dVertex
 10
-4.560720643146055
 20
31.71877158984168
 30
0.0
  0
VERTEX
  5
D26
330
D1D
100
AcDbEntity
  8
GAIKEI
  6
Continuous
 62
     1
370
     0
100
AcDbVertex
100
AcDb2dVertex
 10
-4.479157400038047
 20
31.34709467956824
 30
0.0
  0
VERTEX
  5
D27
330
D1D
100
AcDbEntity
  8
GAIKEI
  6
Continuous
 62
     1
370
     0
100
AcDbVertex
100
AcDb2dVertex
 10
-4.406877989484087
 20
30.9734037188442
 30
0.0
  0
VERTEX
  5
D28
330
D1D
100
AcDbEntity
  8
GAIKEI
  6
Continuous
 62
     1
370
     0
100
AcDbVertex
100
AcDb2dVertex
 10
-4.343973213758999
 20
30.59804031622647
 30
0.0
  0
VERTEX
  5
D29
330
D1D
100
AcDbEntity
  8
GAIKEI
  6
Continuous
 62
     1
370
     0
100
AcDbVertex
100
AcDb2dVertex
 10
-4.303103389995499
 20
30.316343659902
 30
0.0
  0
VERTEX
  5
D2A
330
D1D
100
AcDbEntity
  8
GAIKEI
  6
Continuous
 62
     1
370
     0
100
AcDbVertex
100
AcDb2dVertex
 10
-4.26753089892702
 20
30.0339149852409
 30
0.0
  0
VERTEX
  5
D2B
330
D1D
100
AcDbEntity
  8
GAIKEI
  6
Continuous
 62
     1
370
     0
100
AcDbVertex
100
AcDb2dVertex
 10
-4.224146212167738
 20
29.60951475428144
 30
0.0
  0
VERTEX
  5
D2C
330
D1D
100
AcDbEntity
  8
GAIKEI
  6
Continuous
 62
     1
370
     0
100
AcDbVertex
100
AcDb2dVertex
 10
-4.192651423243091
 20
29.18416209946438
 30
0.0
  0
VERTEX
  5
D2D
330
D1D
100
AcDbEntity
  8
GAIKEI
  6
Continuous
 62
     1
370
     0
100
AcDbVertex
100
AcDb2dVertex
 10
-4.172948529697919
 20
28.75668579145108
 30
0.0
  0
VERTEX
  5
D2E
330
D1D
100
AcDbEntity
  8
GAIKEI
  6
Continuous
 62
     1
370
     0
100
AcDbVertex
100
AcDb2dVertex
 10
-4.16512353368671
 20
28.3289894779268
 30
0.0
  0
VERTEX
  5
D2F
330
D1D
100
AcDbEntity
  8
GAIKEI
  6
Continuous
 62
     1
370
     0
100
AcDbVertex
100
AcDb2dVertex
 10
-4.170318063806462
 20
27.85409958223281
 30
0.0
  0
VERTEX
  5
D30
330
D1D
100
AcDbEntity
  8
GAIKEI
  6
Continuous
 62
     1
370
     0
100
AcDbVertex
100
AcDb2dVertex
 10
-4.190099759325448
 20
27.38033891482539
 30
0.0
  0
VERTEX
  5
D31
330
D1D
100
AcDbEntity
  8
GAIKEI
  6
Continuous
 62
     1
370
     0
100
AcDbVertex
100
AcDb2dVertex
 10
-4.224610223790932
 20
26.90624863916148
 30
0.0
  0
VERTEX
  5
D32
330
D1D
100
AcDbEntity
  8
GAIKEI
  6
Continuous
 62
     1
370
     0
100
AcDbVertex
100
AcDb2dVertex
 10
-4.26776290473856
 20
26.4851808916786
 30
0.0
  0
VERTEX
  5
D33
330
D1D
100
AcDbEntity
  8
GAIKEI
  6
Continuous
 62
     1
370
     0
100
AcDbVertex
100
AcDb2dVertex
 10
-4.322635079252108
 20
26.0654559778329
 30
0.0
  0
VERTEX
  5
D34
330
D1D
100
AcDbEntity
  8
GAIKEI
  6
Continuous
 62
     1
370
     0
100
AcDbVertex
100
AcDb2dVertex
 10
-4.366135768917047
 20
25.78408932977501
 30
0.0
  0
VERTEX
  5
D35
330
D1D
100
AcDbEntity
  8
GAIKEI
  6
Continuous
 62
     1
370
     0
100
AcDbVertex
100
AcDb2dVertex
 10
-4.415771012248796
 20
25.49888938569527
 30
0.0
  0
VERTEX
  5
D36
330
D1D
100
AcDbEntity
  8
GAIKEI
  6
Continuous
 62
     1
370
     0
100
AcDbVertex
100
AcDb2dVertex
 10
-4.509449758842606
 20
25.0307376587883
 30
0.0
  0
VERTEX
  5
D37
330
D1D
100
AcDbEntity
  8
GAIKEI
  6
Continuous
 62
     1
370
     0
100
AcDbVertex
100
AcDb2dVertex
 10
-4.591281808684129
 20
24.67345350904461
 30
0.0
  0
VERTEX
  5
D38
330
D1D
100
AcDbEntity
  8
GAIKEI
  6
Continuous
 62
     1
370
     0
100
AcDbVertex
100
AcDb2dVertex
 10
-4.689190661239422
 20
24.29019790873221
 30
0.0
  0
VERTEX
  5
D39
330
D1D
100
AcDbEntity
  8
GAIKEI
  6
Continuous
 62
     1
370
     0
100
AcDbVertex
100
AcDb2dVertex
 10
-4.797018162250651
 20
23.90951837294878
 30
0.0
  0
VERTEX
  5
D3A
330
D1D
100
AcDbEntity
  8
GAIKEI
  6
Continuous
 62
     1
370
     0
100
AcDbVertex
100
AcDb2dVertex
 10
-4.914684709723815
 20
23.53171970932928
 30
0.0
  0
VERTEX
  5
D3B
330
D1D
100
AcDbEntity
  8
GAIKEI
  6
Continuous
 62
     1
370
     0
100
AcDbVertex
100
AcDb2dVertex
 10
-5.042086701063794
 20
23.15714352643098
 30
0.0
  0
VERTEX
  5
D3C
330
D1D
100
AcDbEntity
  8
GAIKEI
  6
Continuous
 62
     1
370
     0
100
AcDbVertex
100
AcDb2dVertex
 10
-5.179113733505005
 20
22.78608943175877
 30
0.0
  0
SEQEND
  5
D3D
330
D1D
100
AcDbEntity
  8
GAIKEI
  6
Continuous
 62
     1
370
     0
  0
POLYLINE
  5
D3E
330
2
100
AcDbEntity
  8
GAIKEI
  6
Continuous
 62
     1
370
    13
100
AcDb2dPolyline
 66
     1
 10
0.0
 20
0.0
 30
0.0
  0
VERTEX
  5
D3F
330
D3E
100
AcDbEntity
  8
GAIKEI
  6
Continuous
 62
     1
370
     0
100
AcDbVertex
100
AcDb2dVertex
 10
-5.702674448372363
 20
34.94040988985953
 30
0.0
  0
VERTEX
  5
D40
330
D3E
100
AcDbEntity
  8
GAIKEI
  6
Continuous
 62
     1
370
     0
100
AcDbVertex
100
AcDb2dVertex
 10
-5.759817079759386
 20
35.05004383612103
 30
0.0
  0
VERTEX
  5
D41
330
D3E
100
AcDbEntity
  8
GAIKEI
  6
Continuous
 62
     1
370
     0
100
AcDbVertex
100
AcDb2dVertex
 10
-5.782296842863388
 20
35.08649514920362
 30
0.0
  0
VERTEX
  5
D42
330
D3E
100
AcDbEntity
  8
GAIKEI
  6
Continuous
 62
     1
370
     0
100
AcDbVertex
100
AcDb2dVertex
 10
-5.787668177411887
 20
35.09284290821094
 30
0.0
  0
VERTEX
  5
D43
330
D3E
100
AcDbEntity
  8
GAIKEI
  6
Continuous
 62
     1
370
     0
100
AcDbVertex
100
AcDb2dVertex
 10
-5.788791005538087
 20
35.09355092594635
 30
0.0
  0
VERTEX
  5
D44
330
D3E
100
AcDbEntity
  8
GAIKEI
  6
Continuous
 62
     1
370
     0
100
AcDbVertex
100
AcDb2dVertex
 10
-5.78921221608914
 20
35.09361212747942
 30
0.0
  0
SEQEND
  5
D45
330
D3E
100
AcDbEntity
  8
GAIKEI
  6
Continuous
 62
     1
370
     0
  0
LINE
  5
D46
330
2
100
AcDbEntity
  8
GAIKEI
  6
Continuous
 62
     1
370
    13
100
AcDbLine
 10
-5.959614484558983
 20
35.07893855991583
 30
0.0
 11
-5.78921221608914
 21
35.09361212747942
 31
0.0
  0
POLYLINE
  5
D47
330
2
100
AcDbEntity
  8
GAIKEI
  6
Continuous
 62
     1
370
    13
100
AcDb2dPolyline
 66
     1
 10
0.0
 20
0.0
 30
0.0
  0
VERTEX
  5
D48
330
D47
100
AcDbEntity
  8
GAIKEI
  6
Continuous
 62
     1
370
     0
100
AcDbVertex
100
AcDb2dVertex
 10
-5.959614484558983
 20
35.07893855991583
 30
0.0
  0
VERTEX
  5
D49
330
D47
100
AcDbEntity
  8
GAIKEI
  6
Continuous
 62
     1
370
     0
100
AcDbVertex
100
AcDb2dVertex
 10
-5.959882891282404
 20
35.07885335778153
 30
0.0
  0
VERTEX
  5
D4A
330
D47
100
AcDbEntity
  8
GAIKEI
  6
Continuous
 62
     1
370
     0
100
AcDbVertex
100
AcDb2dVertex
 10
-5.960084496332569
 20
35.0786457525812
 30
0.0
  0
VERTEX
  5
D4B
330
D47
100
AcDbEntity
  8
GAIKEI
  6
Continuous
 62
     1
370
     0
100
AcDbVertex
100
AcDb2dVertex
 10
-5.960255300611038
 20
35.07818174095789
 30
0.0
  0
VERTEX
  5
D4C
330
D47
100
AcDbEntity
  8
GAIKEI
  6
Continuous
 62
     1
370
     0
100
AcDbVertex
100
AcDb2dVertex
 10
-5.960273701071969
 20
35.07660730151915
 30
0.0
  0
VERTEX
  5
D4D
330
D47
100
AcDbEntity
  8
GAIKEI
  6
Continuous
 62
     1
370
     0
100
AcDbVertex
100
AcDb2dVertex
 10
-5.959504481803492
 20
35.0727496048863
 30
0.0
  0
VERTEX
  5
D4E
330
D47
100
AcDbEntity
  8
GAIKEI
  6
Continuous
 62
     1
370
     0
100
AcDbVertex
100
AcDb2dVertex
 10
-5.955415179369083
 20
35.06035929451682
 30
0.0
  0
VERTEX
  5
D4F
330
D47
100
AcDbEntity
  8
GAIKEI
  6
Continuous
 62
     1
370
     0
100
AcDbVertex
100
AcDb2dVertex
 10
-5.9392891754228
 20
35.02151552150471
 30
0.0
  0
VERTEX
  5
D50
330
D47
100
AcDbEntity
  8
GAIKEI
  6
Continuous
 62
     1
370
     0
100
AcDbVertex
100
AcDb2dVertex
 10
-5.893524029034551
 20
34.92397867826796
 30
0.0
  0
SEQEND
  5
D51
330
D47
100
AcDbEntity
  8
GAIKEI
  6
Continuous
 62
     1
370
     0
  0
POLYLINE
  5
D52
330
2
100
AcDbEntity
  8
GAIKEI
  6
Continuous
 62
     1
370
    13
100
AcDb2dPolyline
 66
     1
 10
0.0
 20
0.0
 30
0.0
  0
VERTEX
  5
D53
330
D52
100
AcDbEntity
  8
GAIKEI
  6
Continuous
 62
     1
370
     0
100
AcDbVertex
100
AcDb2dVertex
 10
-5.37054932884655
 20
22.79254079336121
 30
0.0
  0
VERTEX
  5
D54
330
D52
100
AcDbEntity
  8
GAIKEI
  6
Continuous
 62
     1
370
     0
100
AcDbVertex
100
AcDb2dVertex
 10
-5.215467444142632
 20
23.21144168656585
 30
0.0
  0
VERTEX
  5
D55
330
D52
100
AcDbEntity
  8
GAIKEI
  6
Continuous
 62
     1
370
     0
100
AcDbVertex
100
AcDb2dVertex
 10
-5.072787870108754
 20
23.63478629108247
 30
0.0
  0
VERTEX
  5
D56
330
D52
100
AcDbEntity
  8
GAIKEI
  6
Continuous
 62
     1
370
     0
100
AcDbVertex
100
AcDb2dVertex
 10
-4.942633409821269
 20
24.06221379787334
 30
0.0
  0
VERTEX
  5
D57
330
D52
100
AcDbEntity
  8
GAIKEI
  6
Continuous
 62
     1
370
     0
100
AcDbVertex
100
AcDb2dVertex
 10
-4.825137666626574
 20
24.49331579670795
 30
0.0
  0
VERTEX
  5
D58
330
D52
100
AcDbEntity
  8
GAIKEI
  6
Continuous
 62
     1
370
     0
100
AcDbVertex
100
AcDb2dVertex
 10
-4.720411043290368
 20
24.92767747719549
 30
0.0
  0
VERTEX
  5
D59
330
D52
100
AcDbEntity
  8
GAIKEI
  6
Continuous
 62
     1
370
     0
100
AcDbVertex
100
AcDb2dVertex
 10
-4.628550742247512
 20
25.36489522922577
 30
0.0
  0
VERTEX
  5
D5A
330
D52
100
AcDbEntity
  8
GAIKEI
  6
Continuous
 62
     1
370
     0
100
AcDbVertex
100
AcDb2dVertex
 10
-4.549599964580011
 20
25.80460344364062
 30
0.0
  0
VERTEX
  5
D5B
330
D52
100
AcDbEntity
  8
GAIKEI
  6
Continuous
 62
     1
370
     0
100
AcDbVertex
100
AcDb2dVertex
 10
-4.479841017162243
 20
26.27434801044726
 30
0.0
  0
VERTEX
  5
D5C
330
D52
100
AcDbEntity
  8
GAIKEI
  6
Continuous
 62
     1
370
     0
100
AcDbVertex
100
AcDb2dVertex
 10
-4.424743236997414
 20
26.74609462740406
 30
0.0
  0
VERTEX
  5
D5D
330
D52
100
AcDbEntity
  8
GAIKEI
  6
Continuous
 62
     1
370
     0
100
AcDbVertex
100
AcDb2dVertex
 10
-4.384422226981428
 20
27.21926928013213
 30
0.0
  0
VERTEX
  5
D5E
330
D52
100
AcDbEntity
  8
GAIKEI
  6
Continuous
 62
     1
370
     0
100
AcDbVertex
100
AcDb2dVertex
 10
-4.367399400570207
 20
27.50314479103551
 30
0.0
  0
VERTEX
  5
D5F
330
D52
100
AcDbEntity
  8
GAIKEI
  6
Continuous
 62
     1
370
     0
100
AcDbVertex
100
AcDb2dVertex
 10
-4.355741108537358
 20
27.78725230775055
 30
0.0
  0
VERTEX
  5
D60
330
D52
100
AcDbEntity
  8
GAIKEI
  6
Continuous
 62
     1
370
     0
100
AcDbVertex
100
AcDb2dVertex
 10
-4.348270521403833
 20
28.25800369977762
 30
0.0
  0
VERTEX
  5
D61
330
D52
100
AcDbEntity
  8
GAIKEI
  6
Continuous
 62
     1
370
     0
100
AcDbVertex
100
AcDb2dVertex
 10
-4.355551903797845
 20
28.72799827284675
 30
0.0
  0
VERTEX
  5
D62
330
D52
100
AcDbEntity
  8
GAIKEI
  6
Continuous
 62
     1
370
     0
100
AcDbVertex
100
AcDb2dVertex
 10
-4.377543654677424
 20
29.19757803552509
 30
0.0
  0
VERTEX
  5
D63
330
D52
100
AcDbEntity
  8
GAIKEI
  6
Continuous
 62
     1
370
     0
100
AcDbVertex
100
AcDb2dVertex
 10
-4.410076069594083
 20
29.62213707046257
 30
0.0
  0
VERTEX
  5
D64
330
D52
100
AcDbEntity
  8
GAIKEI
  6
Continuous
 62
     1
370
     0
100
AcDbVertex
100
AcDb2dVertex
 10
-4.45454758357755
 20
30.04585368429784
 30
0.0
  0
VERTEX
  5
D65
330
D52
100
AcDbEntity
  8
GAIKEI
  6
Continuous
 62
     1
370
     0
100
AcDbVertex
100
AcDb2dVertex
 10
-4.510969796918629
 20
30.46894788254198
 30
0.0
  0
VERTEX
  5
D66
330
D52
100
AcDbEntity
  8
GAIKEI
  6
Continuous
 62
     1
370
     0
100
AcDbVertex
100
AcDb2dVertex
 10
-4.578036676901888
 20
30.88369187161865
 30
0.0
  0
VERTEX
  5
D67
330
D52
100
AcDbEntity
  8
GAIKEI
  6
Continuous
 62
     1
370
     0
100
AcDbVertex
100
AcDb2dVertex
 10
-4.628563142558164
 20
31.15629390012847
 30
0.0
  0
VERTEX
  5
D68
330
D52
100
AcDbEntity
  8
GAIKEI
  6
Continuous
 62
     1
370
     0
100
AcDbVertex
100
AcDb2dVertex
 10
-4.685827777001236
 20
31.43622051211443
 30
0.0
  0
VERTEX
  5
D69
330
D52
100
AcDbEntity
  8
GAIKEI
  6
Continuous
 62
     1
370
     0
100
AcDbVertex
100
AcDb2dVertex
 10
-4.789681578473846
 20
31.88691540173861
 30
0.0
  0
VERTEX
  5
D6A
330
D52
100
AcDbEntity
  8
GAIKEI
  6
Continuous
 62
     1
370
     0
100
AcDbVertex
100
AcDb2dVertex
 10
-4.907244523351891
 20
32.33421660635312
 30
0.0
  0
VERTEX
  5
D6B
330
D52
100
AcDbEntity
  8
GAIKEI
  6
Continuous
 62
     1
370
     0
100
AcDbVertex
100
AcDb2dVertex
 10
-5.038412209020066
 20
32.7777337161784
 30
0.0
  0
VERTEX
  5
D6C
330
D52
100
AcDbEntity
  8
GAIKEI
  6
Continuous
 62
     1
370
     0
100
AcDbVertex
100
AcDb2dVertex
 10
-5.183050632121762
 20
33.21702672019248
 30
0.0
  0
VERTEX
  5
D6D
330
D52
100
AcDbEntity
  8
GAIKEI
  6
Continuous
 62
     1
370
     0
100
AcDbVertex
100
AcDb2dVertex
 10
-5.341038189610912
 20
33.65170560862586
 30
0.0
  0
VERTEX
  5
D6E
330
D52
100
AcDbEntity
  8
GAIKEI
  6
Continuous
 62
     1
370
     0
100
AcDbVertex
100
AcDb2dVertex
 10
-5.512221677649904
 20
34.08135517107789
 30
0.0
  0
VERTEX
  5
D6F
330
D52
100
AcDbEntity
  8
GAIKEI
  6
Continuous
 62
     1
370
     0
100
AcDbVertex
100
AcDb2dVertex
 10
-5.696436292110433
 20
34.50557219744812
 30
0.0
  0
VERTEX
  5
D70
330
D52
100
AcDbEntity
  8
GAIKEI
  6
Continuous
 62
     1
370
     0
100
AcDbVertex
100
AcDb2dVertex
 10
-5.893524029034551
 20
34.92397867826796
 30
0.0
  0
SEQEND
  5
D71
330
D52
100
AcDbEntity
  8
GAIKEI
  6
Continuous
 62
     1
370
     0
  0
LINE
  5
D72
330
2
100
AcDbEntity
  8
GAIKEI
  6
Continuous
 62
     1
370
    13
100
AcDbLine
 10
-5.597532614635383
 20
22.13828880475952
 30
0.0
 11
-5.490834341910613
 21
22.13471191516064
 31
0.0
  0
POLYLINE
  5
D73
330
2
100
AcDbEntity
  8
GAIKEI
  6
Continuous
 62
     1
370
    13
100
AcDb2dPolyline
 66
     1
 10
0.0
 20
0.0
 30
0.0
  0
VERTEX
  5
D74
330
D73
100
AcDbEntity
  8
GAIKEI
  6
Continuous
 62
     1
370
     0
100
AcDbVertex
100
AcDb2dVertex
 10
-5.490834341910613
 20
22.13471191516064
 30
0.0
  0
VERTEX
  5
D75
330
D73
100
AcDbEntity
  8
GAIKEI
  6
Continuous
 62
     1
370
     0
100
AcDbVertex
100
AcDb2dVertex
 10
-5.489772315307504
 20
22.13484631852734
 30
0.0
  0
VERTEX
  5
D76
330
D73
100
AcDbEntity
  8
GAIKEI
  6
Continuous
 62
     1
370
     0
100
AcDbVertex
100
AcDb2dVertex
 10
-5.487215051249677
 20
22.1361155503208
 30
0.0
  0
VERTEX
  5
D77
330
D73
100
AcDbEntity
  8
GAIKEI
  6
Continuous
 62
     1
370
     0
100
AcDbVertex
100
AcDb2dVertex
 10
-5.476252776651563
 20
22.14771864097096
 30
0.0
  0
VERTEX
  5
D78
330
D73
100
AcDbEntity
  8
GAIKEI
  6
Continuous
 62
     1
370
     0
100
AcDbVertex
100
AcDb2dVertex
 10
-5.460889591813383
 20
22.17013760255188
 30
0.0
  0
VERTEX
  5
D79
330
D73
100
AcDbEntity
  8
GAIKEI
  6
Continuous
 62
     1
370
     0
100
AcDbVertex
100
AcDb2dVertex
 10
-5.420190572328465
 20
22.24148938986943
 30
0.0
  0
VERTEX
  5
D7A
330
D73
100
AcDbEntity
  8
GAIKEI
  6
Continuous
 62
     1
370
     0
100
AcDbVertex
100
AcDb2dVertex
 10
-5.343632254590602
 20
22.39635166907234
 30
0.0
  0
VERTEX
  5
D7B
330
D73
100
AcDbEntity
  8
GAIKEI
  6
Continuous
 62
     1
370
     0
100
AcDbVertex
100
AcDb2dVertex
 10
-5.260756578607015
 20
22.58342315509569
 30
0.0
  0
VERTEX
  5
D7C
330
D73
100
AcDbEntity
  8
GAIKEI
  6
Continuous
 62
     1
370
     0
100
AcDbVertex
100
AcDb2dVertex
 10
-5.179113733505005
 20
22.78608943175877
 30
0.0
  0
SEQEND
  5
D7D
330
D73
100
AcDbEntity
  8
GAIKEI
  6
Continuous
 62
     1
370
     0
  0
CIRCLE
  5
D7E
330
2
100
AcDbEntity
  8
GAIKEI
  6
Continuous
 62
     1
370
    13
100
AcDbCircle
 10
-19.46487198278498
 20
28.26055496368517
 30
0.0
 40
14.92561427727202
  0
ARC
  5
D7F
330
2
100
AcDbEntity
  8
GAIKEI
  6
Continuous
 62
     1
370
    40
100
AcDbCircle
 10
-19.46487198278498
 20
28.26055496368517
 30
0.0
 40
15.36986060536378
100
AcDbArc
 50
109.0122579999994
 51
112.7401470000006
  0
ARC
  5
D80
330
2
100
AcDbEntity
  8
GAIKEI
  6
Continuous
 62
     1
370
    40
100
AcDbCircle
 10
-19.46487198278498
 20
28.26055496368517
 30
0.0
 40
15.36986060536378
100
AcDbArc
 50
127.6517279999975
 51
236.7703690000004
  0
ARC
  5
D81
330
2
100
AcDbEntity
  8
GAIKEI
  6
Continuous
 62
     1
370
    40
100
AcDbCircle
 10
-17.24311948677814
 20
33.02511910980272
 30
0.0
 40
20.58659725328125
100
AcDbArc
 50
238.8651846551933
 51
251.1348203448085
  0
ARC
  5
D82
330
2
100
AcDbEntity
  8
GAIKEI
  6
Continuous
 62
     1
370
    40
100
AcDbCircle
 10
-19.46487198278498
 20
28.26055496368517
 30
0.0
 40
15.36986060536378
100
AcDbArc
 50
253.2296359999997
 51
70.98774699999848
  0
CIRCLE
  5
D83
330
2
100
AcDbEntity
  8
GAIKEI
  6
Continuous
 62
     1
370
    13
100
AcDbCircle
 10
-19.46487198278498
 20
28.26055496368517
 30
0.0
 40
4.8489608
  0
CIRCLE
  5
D84
330
2
100
AcDbEntity
  8
GAIKEI
  6
Continuous
 62
     1
370
    40
100
AcDbCircle
 10
-19.46487198278498
 20
28.26055496368517
 30
0.0
 40
4.49
  0
CIRCLE
  5
D85
330
2
100
AcDbEntity
  8
GAIKEI
  6
Continuous
 62
     1
370
    13
100
AcDbCircle
 10
-19.46487198278498
 20
28.26055496368517
 30
0.0
 40
8.219806
  0
CIRCLE
  5
D86
330
2
100
AcDbEntity
  8
GAIKEI
  6
Continuous
 62
     1
370
    40
100
AcDbCircle
 10
-19.46487198278498
 20
15.26055496368516
 30
0.0
 40
0.7993788000000001
  0
ARC
  5
D87
330
2
100
AcDbEntity
  8
GAIKEI
  6
Continuous
 62
     1
370
    40
100
AcDbCircle
 10
-21.56672158278491
 20
15.88294256368519
 30
0.0
 40
2.3544024
100
AcDbArc
 50
10.36112299999992
 51
12.00892499999896
  0
ARC
  5
D88
330
2
100
AcDbEntity
  8
GAIKEI
  6
Continuous
 62
     1
370
    40
100
AcDbCircle
 10
-17.36302278278492
 20
15.88294256368519
 30
0.0
 40
2.354401199999999
100
AcDbArc
 50
167.9910709999996
 51
169.6388810000003
  0
ARC
  5
D89
330
2
100
AcDbEntity
  8
GAIKEI
  6
Continuous
 62
     1
370
    40
100
AcDbCircle
 10
-19.46487198278498
 20
9.457344563685154
 30
0.0
 40
6.923189599999999
100
AcDbArc
 50
88.83269599999914
 51
91.16730199999988
  0
POLYLINE
  5
D8A
330
2
100
AcDbEntity
  8
GAIKEI
  6
Continuous
 62
     1
370
    40
100
AcDb2dPolyline
 66
     1
 10
0.0
 20
0.0
 30
0.0
  0
VERTEX
  5
D8B
330
D8A
100
AcDbEntity
  8
GAIKEI
  6
Continuous
 62
     1
370
     0
100
AcDbVertex
100
AcDb2dVertex
 10
-19.32383198278489
 20
16.37909736368519
 30
0.0
  0
VERTEX
  5
D8C
330
D8A
100
AcDbEntity
  8
GAIKEI
  6
Continuous
 62
     1
370
     0
100
AcDbVertex
100
AcDb2dVertex
 10
-19.28202918278498
 20
16.37678416368518
 30
0.0
  0
VERTEX
  5
D8D
330
D8A
100
AcDbEntity
  8
GAIKEI
  6
Continuous
 62
     1
370
     0
100
AcDbVertex
100
AcDb2dVertex
 10
-19.26726478278499
 20
16.37447096368518
 30
0.0
  0
VERTEX
  5
D8E
330
D8A
100
AcDbEntity
  8
GAIKEI
  6
Continuous
 62
     1
370
     0
100
AcDbVertex
100
AcDb2dVertex
 10
-19.26431678278493
 20
16.37336016368519
 30
0.0
  0
VERTEX
  5
D8F
330
D8A
100
AcDbEntity
  8
GAIKEI
  6
Continuous
 62
     1
370
     0
100
AcDbVertex
100
AcDb2dVertex
 10
-19.26384078278499
 20
16.37281096368517
 30
0.0
  0
SEQEND
  5
D90
330
D8A
100
AcDbEntity
  8
GAIKEI
  6
Continuous
 62
     1
370
     0
  0
POLYLINE
  5
D91
330
2
100
AcDbEntity
  8
GAIKEI
  6
Continuous
 62
     1
370
    40
100
AcDb2dPolyline
 66
     1
 10
0.0
 20
0.0
 30
0.0
  0
VERTEX
  5
D92
330
D91
100
AcDbEntity
  8
GAIKEI
  6
Continuous
 62
     1
370
     0
100
AcDbVertex
100
AcDb2dVertex
 10
-19.60591238278493
 20
16.37909736368519
 30
0.0
  0
VERTEX
  5
D93
330
D91
100
AcDbEntity
  8
GAIKEI
  6
Continuous
 62
     1
370
     0
100
AcDbVertex
100
AcDb2dVertex
 10
-19.64771518278496
 20
16.37678416368518
 30
0.0
  0
VERTEX
  5
D94
330
D91
100
AcDbEntity
  8
GAIKEI
  6
Continuous
 62
     1
370
     0
100
AcDbVertex
100
AcDb2dVertex
 10
-19.66247958278495
 20
16.37447096368518
 30
0.0
  0
VERTEX
  5
D95
330
D91
100
AcDbEntity
  8
GAIKEI
  6
Continuous
 62
     1
370
     0
100
AcDbVertex
100
AcDb2dVertex
 10
-19.6654275827849
 20
16.37336016368519
 30
0.0
  0
VERTEX
  5
D96
330
D91
100
AcDbEntity
  8
GAIKEI
  6
Continuous
 62
     1
370
     0
100
AcDbVertex
100
AcDb2dVertex
 10
-19.66590358278495
 20
16.37281096368517
 30
0.0
  0
SEQEND
  5
D97
330
D91
100
AcDbEntity
  8
GAIKEI
  6
Continuous
 62
     1
370
     0
  0
LINE
  5
D98
330
2
100
AcDbEntity
  8
GAIKEI
  6
Continuous
 62
     1
370
    40
100
AcDbLine
 10
-19.68024078278495
 20
16.2969381636851
 30
0.0
 11
-19.67903238278495
 21
16.30638616368512
 31
0.0
  0
LINE
  5
D99
330
2
100
AcDbEntity
  8
GAIKEI
  6
Continuous
 62
     1
370
    40
100
AcDbLine
 10
-19.24950358278499
 20
16.2969381636851
 30
0.0
 11
-19.25071198278499
 21
16.30638616368512
 31
0.0
  0
LINE
  5
D9A
330
2
100
AcDbEntity
  8
GAIKEI
  6
Continuous
 62
     1
370
    40
100
AcDbLine
 10
-19.30752958278492
 20
16.24322696368514
 30
0.0
 11
-19.62221478278491
 21
16.24322696368514
 31
0.0
  0
ARC
  5
D9B
330
2
100
AcDbEntity
  8
GAIKEI
  6
Continuous
 62
     1
370
    40
100
AcDbCircle
 10
-19.62273358278492
 20
16.30113736368511
 30
0.0
 40
0.0578352
100
AcDbArc
 50
184.178335999999
 51
270.5180129999992
  0
ARC
  5
D9C
330
2
100
AcDbEntity
  8
GAIKEI
  6
Continuous
 62
     1
370
    13
100
AcDbCircle
 10
-19.47341078278498
 20
15.19763976368514
 30
0.0
 40
1.118572799999999
100
AcDbArc
 50
100.6555480000003
 51
112.4368190000003
  0
ARC
  5
D9D
330
2
100
AcDbEntity
  8
GAIKEI
  6
Continuous
 62
     1
370
    13
100
AcDbCircle
 10
-19.45633318278499
 20
15.19763976368514
 30
0.0
 40
1.118572799999999
100
AcDbArc
 50
67.56318599999916
 51
79.34445000000046
  0
ARC
  5
D9E
330
2
100
AcDbEntity
  8
GAIKEI
  6
Continuous
 62
     1
370
    40
100
AcDbCircle
 10
-19.30701078278491
 20
16.30113736368511
 30
0.0
 40
0.057834
100
AcDbArc
 50
269.4822009999992
 51
355.8234000000004
  0
POLYLINE
  5
D9F
330
2
100
AcDbEntity
  8
GAIKEI
  6
Continuous
 62
     1
370
    13
100
AcDb2dPolyline
 66
     1
 10
0.0
 20
0.0
 30
0.0
  0
VERTEX
  5
DA0
330
D9F
100
AcDbEntity
  8
GAIKEI
  6
Continuous
 62
     1
370
     0
100
AcDbVertex
100
AcDb2dVertex
 10
-20.14387598278495
 20
14.03434016368519
 30
0.0
  0
VERTEX
  5
DA1
330
D9F
100
AcDbEntity
  8
GAIKEI
  6
Continuous
 62
     1
370
     0
100
AcDbVertex
100
AcDb2dVertex
 10
-20.22937398278498
 20
14.04759736368518
 30
0.0
  0
VERTEX
  5
DA2
330
D9F
100
AcDbEntity
  8
GAIKEI
  6
Continuous
 62
     1
370
     0
100
AcDbVertex
100
AcDb2dVertex
 10
-20.31218678278492
 20
14.07150456368512
 30
0.0
  0
VERTEX
  5
DA3
330
D9F
100
AcDbEntity
  8
GAIKEI
  6
Continuous
 62
     1
370
     0
100
AcDbVertex
100
AcDb2dVertex
 10
-20.39075118278493
 20
14.10552576368511
 30
0.0
  0
VERTEX
  5
DA4
330
D9F
100
AcDbEntity
  8
GAIKEI
  6
Continuous
 62
     1
370
     0
100
AcDbVertex
100
AcDb2dVertex
 10
-20.46367598278493
 20
14.14892176368514
 30
0.0
  0
VERTEX
  5
DA5
330
D9F
100
AcDbEntity
  8
GAIKEI
  6
Continuous
 62
     1
370
     0
100
AcDbVertex
100
AcDb2dVertex
 10
-20.52978318278497
 20
14.20073456368513
 30
0.0
  0
VERTEX
  5
DA6
330
D9F
100
AcDbEntity
  8
GAIKEI
  6
Continuous
 62
     1
370
     0
100
AcDbVertex
100
AcDb2dVertex
 10
-20.59323518278495
 20
14.26587096368516
 30
0.0
  0
VERTEX
  5
DA7
330
D9F
100
AcDbEntity
  8
GAIKEI
  6
Continuous
 62
     1
370
     0
100
AcDbVertex
100
AcDb2dVertex
 10
-20.64642118278493
 20
14.33831976368512
 30
0.0
  0
VERTEX
  5
DA8
330
D9F
100
AcDbEntity
  8
GAIKEI
  6
Continuous
 62
     1
370
     0
100
AcDbVertex
100
AcDb2dVertex
 10
-20.68865758278491
 20
14.4165609636851
 30
0.0
  0
VERTEX
  5
DA9
330
D9F
100
AcDbEntity
  8
GAIKEI
  6
Continuous
 62
     1
370
     0
100
AcDbVertex
100
AcDb2dVertex
 10
-20.71948038278492
 20
14.49906816368511
 30
0.0
  0
VERTEX
  5
DAA
330
D9F
100
AcDbEntity
  8
GAIKEI
  6
Continuous
 62
     1
370
     0
100
AcDbVertex
100
AcDb2dVertex
 10
-20.73860878278492
 20
14.5843465636851
 30
0.0
  0
VERTEX
  5
DAB
330
D9F
100
AcDbEntity
  8
GAIKEI
  6
Continuous
 62
     1
370
     0
100
AcDbVertex
100
AcDb2dVertex
 10
-20.74590838278493
 20
14.67094936368514
 30
0.0
  0
VERTEX
  5
DAC
330
D9F
100
AcDbEntity
  8
GAIKEI
  6
Continuous
 62
     1
370
     0
100
AcDbVertex
100
AcDb2dVertex
 10
-20.7451027827849
 20
14.71465656368511
 30
0.0
  0
SEQEND
  5
DAD
330
D9F
100
AcDbEntity
  8
GAIKEI
  6
Continuous
 62
     1
370
     0
  0
ARC
  5
DAE
330
2
100
AcDbEntity
  8
GAIKEI
  6
Continuous
 62
     1
370
    13
100
AcDbCircle
 10
-19.4419839827849
 20
21.40725296368518
 30
0.0
 40
7.406083999999999
100
AcDbArc
 50
264.5618760000011
 51
269.8229250000003
  0
ARC
  5
DAF
330
2
100
AcDbEntity
  8
GAIKEI
  6
Continuous
 62
     1
370
    13
100
AcDbCircle
 10
-19.48776038278493
 20
21.40718576368508
 30
0.0
 40
7.406019599999999
100
AcDbArc
 50
270.1770559999995
 51
275.438146000001
  0
POLYLINE
  5
DB0
330
2
100
AcDbEntity
  8
GAIKEI
  6
Continuous
 62
     1
370
    13
100
AcDb2dPolyline
 66
     1
 10
0.0
 20
0.0
 30
0.0
  0
VERTEX
  5
DB1
330
DB0
100
AcDbEntity
  8
GAIKEI
  6
Continuous
 62
     1
370
     0
100
AcDbVertex
100
AcDb2dVertex
 10
-18.18464158278493
 20
14.71465656368511
 30
0.0
  0
VERTEX
  5
DB2
330
DB0
100
AcDbEntity
  8
GAIKEI
  6
Continuous
 62
     1
370
     0
100
AcDbVertex
100
AcDb2dVertex
 10
-18.18662518278495
 20
14.62064416368511
 30
0.0
  0
VERTEX
  5
DB3
330
DB0
100
AcDbEntity
  8
GAIKEI
  6
Continuous
 62
     1
370
     0
100
AcDbVertex
100
AcDb2dVertex
 10
-18.20250638278492
 20
14.52754096368514
 30
0.0
  0
VERTEX
  5
DB4
330
DB0
100
AcDbEntity
  8
GAIKEI
  6
Continuous
 62
     1
370
     0
100
AcDbVertex
100
AcDb2dVertex
 10
-18.232163582785
 20
14.43716616368519
 30
0.0
  0
VERTEX
  5
DB5
330
DB0
100
AcDbEntity
  8
GAIKEI
  6
Continuous
 62
     1
370
     0
100
AcDbVertex
100
AcDb2dVertex
 10
-18.27528478278498
 20
14.35136896368519
 30
0.0
  0
VERTEX
  5
DB6
330
DB0
100
AcDbEntity
  8
GAIKEI
  6
Continuous
 62
     1
370
     0
100
AcDbVertex
100
AcDb2dVertex
 10
-18.33310958278491
 20
14.26992376368511
 30
0.0
  0
VERTEX
  5
DB7
330
DB0
100
AcDbEntity
  8
GAIKEI
  6
Continuous
 62
     1
370
     0
100
AcDbVertex
100
AcDb2dVertex
 10
-18.40375158278493
 20
14.19738336368513
 30
0.0
  0
VERTEX
  5
DB8
330
DB0
100
AcDbEntity
  8
GAIKEI
  6
Continuous
 62
     1
370
     0
100
AcDbVertex
100
AcDb2dVertex
 10
-18.443619582785
 20
14.16501056368517
 30
0.0
  0
VERTEX
  5
DB9
330
DB0
100
AcDbEntity
  8
GAIKEI
  6
Continuous
 62
     1
370
     0
100
AcDbVertex
100
AcDb2dVertex
 10
-18.48618558278497
 20
14.13566496368511
 30
0.0
  0
VERTEX
  5
DBA
330
DB0
100
AcDbEntity
  8
GAIKEI
  6
Continuous
 62
     1
370
     0
100
AcDbVertex
100
AcDb2dVertex
 10
-18.53092438278497
 20
14.10972496368512
 30
0.0
  0
VERTEX
  5
DBB
330
DB0
100
AcDbEntity
  8
GAIKEI
  6
Continuous
 62
     1
370
     0
100
AcDbVertex
100
AcDb2dVertex
 10
-18.57781158278499
 20
14.08722136368519
 30
0.0
  0
VERTEX
  5
DBC
330
DB0
100
AcDbEntity
  8
GAIKEI
  6
Continuous
 62
     1
370
     0
100
AcDbVertex
100
AcDb2dVertex
 10
-18.65348918278494
 20
14.05972496368517
 30
0.0
  0
VERTEX
  5
DBD
330
DB0
100
AcDbEntity
  8
GAIKEI
  6
Continuous
 62
     1
370
     0
100
AcDbVertex
100
AcDb2dVertex
 10
-18.73228558278492
 20
14.0413409636852
 30
0.0
  0
VERTEX
  5
DBE
330
DB0
100
AcDbEntity
  8
GAIKEI
  6
Continuous
 62
     1
370
     0
100
AcDbVertex
100
AcDb2dVertex
 10
-18.785868382785
 20
14.03434016368519
 30
0.0
  0
SEQEND
  5
DBF
330
DB0
100
AcDbEntity
  8
GAIKEI
  6
Continuous
 62
     1
370
     0
  0
ARC
  5
DC0
330
2
100
AcDbEntity
  8
GAIKEI
  6
Continuous
 62
     1
370
    13
100
AcDbCircle
 10
-35.27796438278495
 20
13.83081256368515
 30
0.0
 40
17.1161324
100
AcDbArc
 50
2.959953000000096
 51
4.596909000000361
  0
ARC
  5
DC1
330
2
100
AcDbEntity
  8
GAIKEI
  6
Continuous
 62
     1
370
    13
100
AcDbCircle
 10
-39.09141638278493
 20
13.47107136368512
 30
0.0
 40
20.9462796
100
AcDbArc
 50
4.741753000000857
 51
6.642456000000953
  0
POLYLINE
  5
DC2
330
2
100
AcDbEntity
  8
GAIKEI
  6
Continuous
 62
     1
370
    13
100
AcDb2dPolyline
 66
     1
 10
0.0
 20
0.0
 30
0.0
  0
VERTEX
  5
DC3
330
DC2
100
AcDbEntity
  8
GAIKEI
  6
Continuous
 62
     1
370
     0
100
AcDbVertex
100
AcDb2dVertex
 10
-18.9130471827849
 20
16.46880096368508
 30
0.0
  0
VERTEX
  5
DC4
330
DC2
100
AcDbEntity
  8
GAIKEI
  6
Continuous
 62
     1
370
     0
100
AcDbVertex
100
AcDb2dVertex
 10
-18.8190043827849
 20
16.46017656368516
 30
0.0
  0
VERTEX
  5
DC5
330
DC2
100
AcDbEntity
  8
GAIKEI
  6
Continuous
 62
     1
370
     0
100
AcDbVertex
100
AcDb2dVertex
 10
-18.72735998278495
 20
16.4379049636851
 30
0.0
  0
VERTEX
  5
DC6
330
DC2
100
AcDbEntity
  8
GAIKEI
  6
Continuous
 62
     1
370
     0
100
AcDbVertex
100
AcDb2dVertex
 10
-18.64013478278491
 20
16.40247376368515
 30
0.0
  0
VERTEX
  5
DC7
330
DC2
100
AcDbEntity
  8
GAIKEI
  6
Continuous
 62
     1
370
     0
100
AcDbVertex
100
AcDb2dVertex
 10
-18.55921438278494
 20
16.35472016368519
 30
0.0
  0
VERTEX
  5
DC8
330
DC2
100
AcDbEntity
  8
GAIKEI
  6
Continuous
 62
     1
370
     0
100
AcDbVertex
100
AcDb2dVertex
 10
-18.505399582785
 20
16.31294736368508
 30
0.0
  0
VERTEX
  5
DC9
330
DC2
100
AcDbEntity
  8
GAIKEI
  6
Continuous
 62
     1
370
     0
100
AcDbVertex
100
AcDb2dVertex
 10
-18.45641878278491
 20
16.2657857636851
 30
0.0
  0
VERTEX
  5
DCA
330
DC2
100
AcDbEntity
  8
GAIKEI
  6
Continuous
 62
     1
370
     0
100
AcDbVertex
100
AcDb2dVertex
 10
-18.41276638278498
 20
16.2138201636852
 30
0.0
  0
VERTEX
  5
DCB
330
DC2
100
AcDbEntity
  8
GAIKEI
  6
Continuous
 62
     1
370
     0
100
AcDbVertex
100
AcDb2dVertex
 10
-18.38379318278498
 20
16.17206616368511
 30
0.0
  0
VERTEX
  5
DCC
330
DC2
100
AcDbEntity
  8
GAIKEI
  6
Continuous
 62
     1
370
     0
100
AcDbVertex
100
AcDb2dVertex
 10
-18.35821918278498
 20
16.12823056368515
 30
0.0
  0
VERTEX
  5
DCD
330
DC2
100
AcDbEntity
  8
GAIKEI
  6
Continuous
 62
     1
370
     0
100
AcDbVertex
100
AcDb2dVertex
 10
-18.31774678278498
 20
16.03543296368511
 30
0.0
  0
VERTEX
  5
DCE
330
DC2
100
AcDbEntity
  8
GAIKEI
  6
Continuous
 62
     1
370
     0
100
AcDbVertex
100
AcDb2dVertex
 10
-18.29209398278499
 20
15.93770936368511
 30
0.0
  0
VERTEX
  5
DCF
330
DC2
100
AcDbEntity
  8
GAIKEI
  6
Continuous
 62
     1
370
     0
100
AcDbVertex
100
AcDb2dVertex
 10
-18.285642382785
 20
15.89400816368513
 30
0.0
  0
SEQEND
  5
DD0
330
DC2
100
AcDbEntity
  8
GAIKEI
  6
Continuous
 62
     1
370
     0
  0
ARC
  5
DD1
330
2
100
AcDbEntity
  8
GAIKEI
  6
Continuous
 62
     1
370
    13
100
AcDbCircle
 10
-19.464865982785
 20
-12.69126983631489
 30
0.0
 40
29.1652788
100
AcDbArc
 50
88.91588099999971
 51
91.08414500000112
  0
POLYLINE
  5
DD2
330
2
100
AcDbEntity
  8
GAIKEI
  6
Continuous
 62
     1
370
    13
100
AcDb2dPolyline
 66
     1
 10
0.0
 20
0.0
 30
0.0
  0
VERTEX
  5
DD3
330
DD2
100
AcDbEntity
  8
GAIKEI
  6
Continuous
 62
     1
370
     0
100
AcDbVertex
100
AcDb2dVertex
 10
-20.64410198278495
 20
15.89400816368513
 30
0.0
  0
VERTEX
  5
DD4
330
DD2
100
AcDbEntity
  8
GAIKEI
  6
Continuous
 62
     1
370
     0
100
AcDbVertex
100
AcDb2dVertex
 10
-20.62742718278491
 20
15.98426096368516
 30
0.0
  0
VERTEX
  5
DD5
330
DD2
100
AcDbEntity
  8
GAIKEI
  6
Continuous
 62
     1
370
     0
100
AcDbVertex
100
AcDb2dVertex
 10
-20.59831318278498
 20
16.07144376368509
 30
0.0
  0
VERTEX
  5
DD6
330
DD2
100
AcDbEntity
  8
GAIKEI
  6
Continuous
 62
     1
370
     0
100
AcDbVertex
100
AcDb2dVertex
 10
-20.55715118278499
 20
16.15382896368518
 30
0.0
  0
VERTEX
  5
DD7
330
DD2
100
AcDbEntity
  8
GAIKEI
  6
Continuous
 62
     1
370
     0
100
AcDbVertex
100
AcDb2dVertex
 10
-20.50458758278501
 20
16.22973216368515
 30
0.0
  0
VERTEX
  5
DD8
330
DD2
100
AcDbEntity
  8
GAIKEI
  6
Continuous
 62
     1
370
     0
100
AcDbVertex
100
AcDb2dVertex
 10
-20.44109278278495
 20
16.29792656368519
 30
0.0
  0
VERTEX
  5
DD9
330
DD2
100
AcDbEntity
  8
GAIKEI
  6
Continuous
 62
     1
370
     0
100
AcDbVertex
100
AcDb2dVertex
 10
-20.36818638278498
 20
16.35633736368513
 30
0.0
  0
VERTEX
  5
DDA
330
DD2
100
AcDbEntity
  8
GAIKEI
  6
Continuous
 62
     1
370
     0
100
AcDbVertex
100
AcDb2dVertex
 10
-20.28733918278499
 20
16.4035909636851
 30
0.0
  0
VERTEX
  5
DDB
330
DD2
100
AcDbEntity
  8
GAIKEI
  6
Continuous
 62
     1
370
     0
100
AcDbVertex
100
AcDb2dVertex
 10
-20.20026038278491
 20
16.43858216368514
 30
0.0
  0
VERTEX
  5
DDC
330
DD2
100
AcDbEntity
  8
GAIKEI
  6
Continuous
 62
     1
370
     0
100
AcDbVertex
100
AcDb2dVertex
 10
-20.108505982785
 20
16.46054896368511
 30
0.0
  0
VERTEX
  5
DDD
330
DD2
100
AcDbEntity
  8
GAIKEI
  6
Continuous
 62
     1
370
     0
100
AcDbVertex
100
AcDb2dVertex
 10
-20.01669718278492
 20
16.46880096368508
 30
0.0
  0
SEQEND
  5
DDE
330
DD2
100
AcDbEntity
  8
GAIKEI
  6
Continuous
 62
     1
370
     0
  0
ARC
  5
DDF
330
2
100
AcDbEntity
  8
GAIKEI
  6
Continuous
 62
     1
370
    13
100
AcDbCircle
 10
0.1687764172149855
 20
13.47085776368519
 30
0.0
 40
20.953374
100
AcDbArc
 50
173.3592169999994
 51
175.2592799999998
  0
ARC
  5
DE0
330
2
100
AcDbEntity
  8
GAIKEI
  6
Continuous
 62
     1
370
    13
100
AcDbCircle
 10
-3.657273182784933
 20
13.83131296368512
 30
0.0
 40
17.1106184
100
AcDbArc
 50
175.4032879999997
 51
177.0407710000007
  0
ARC
  5
DE1
330
2
100
AcDbEntity
  8
GAIKEI
  6
Continuous
 62
     1
370
    13
100
AcDbCircle
 10
-19.53542878278495
 20
15.23981536368509
 30
0.0
 40
1.1300668
100
AcDbArc
 50
339.9895009999977
 51
0.8263750000008171
  0
POLYLINE
  5
DE2
330
2
100
AcDbEntity
  8
GAIKEI
  6
Continuous
 62
     1
370
    13
100
AcDb2dPolyline
 66
     1
 10
0.0
 20
0.0
 30
0.0
  0
VERTEX
  5
DE3
330
DE2
100
AcDbEntity
  8
GAIKEI
  6
Continuous
 62
     1
370
     0
100
AcDbVertex
100
AcDb2dVertex
 10
-18.40537518278495
 20
15.25611776368518
 30
0.0
  0
VERTEX
  5
DE4
330
DE2
100
AcDbEntity
  8
GAIKEI
  6
Continuous
 62
     1
370
     0
100
AcDbVertex
100
AcDb2dVertex
 10
-18.40739518278496
 20
15.31399736368516
 30
0.0
  0
VERTEX
  5
DE5
330
DE2
100
AcDbEntity
  8
GAIKEI
  6
Continuous
 62
     1
370
     0
100
AcDbVertex
100
AcDb2dVertex
 10
-18.42104878278496
 20
15.43624456368511
 30
0.0
  0
VERTEX
  5
DE6
330
DE2
100
AcDbEntity
  8
GAIKEI
  6
Continuous
 62
     1
370
     0
100
AcDbVertex
100
AcDb2dVertex
 10
-18.44739798278499
 20
15.5563617636852
 30
0.0
  0
VERTEX
  5
DE7
330
DE2
100
AcDbEntity
  8
GAIKEI
  6
Continuous
 62
     1
370
     0
100
AcDbVertex
100
AcDb2dVertex
 10
-18.48638718278493
 20
15.67287176368515
 30
0.0
  0
VERTEX
  5
DE8
330
DE2
100
AcDbEntity
  8
GAIKEI
  6
Continuous
 62
     1
370
     0
100
AcDbVertex
100
AcDb2dVertex
 10
-18.53785198278501
 20
15.78424256368518
 30
0.0
  0
VERTEX
  5
DE9
330
DE2
100
AcDbEntity
  8
GAIKEI
  6
Continuous
 62
     1
370
     0
100
AcDbVertex
100
AcDb2dVertex
 10
-18.55167638278499
 20
15.8094197636851
 30
0.0
  0
SEQEND
  5
DEA
330
DE2
100
AcDbEntity
  8
GAIKEI
  6
Continuous
 62
     1
370
     0
  0
ARC
  5
DEB
330
2
100
AcDbEntity
  8
GAIKEI
  6
Continuous
 62
     1
370
    13
100
AcDbCircle
 10
-19.409922382785
 20
15.31941736368512
 30
0.0
 40
0.9883419999999999
100
AcDbArc
 50
29.72361699999885
 51
67.35556900000101
  0
ARC
  5
DEC
330
2
100
AcDbEntity
  8
GAIKEI
  6
Continuous
 62
     1
370
    13
100
AcDbCircle
 10
-19.51982198278495
 20
15.31941736368512
 30
0.0
 40
0.9883419999999999
100
AcDbArc
 50
112.6444289999977
 51
150.2763879999997
  0
POLYLINE
  5
DED
330
2
100
AcDbEntity
  8
GAIKEI
  6
Continuous
 62
     1
370
    13
100
AcDb2dPolyline
 66
     1
 10
0.0
 20
0.0
 30
0.0
  0
VERTEX
  5
DEE
330
DED
100
AcDbEntity
  8
GAIKEI
  6
Continuous
 62
     1
370
     0
100
AcDbVertex
100
AcDb2dVertex
 10
-20.37806798278495
 20
15.8094197636851
 30
0.0
  0
VERTEX
  5
DEF
330
DED
100
AcDbEntity
  8
GAIKEI
  6
Continuous
 62
     1
370
     0
100
AcDbVertex
100
AcDb2dVertex
 10
-20.40514318278497
 20
15.7585225636852
 30
0.0
  0
VERTEX
  5
DF0
330
DED
100
AcDbEntity
  8
GAIKEI
  6
Continuous
 62
     1
370
     0
100
AcDbVertex
100
AcDb2dVertex
 10
-20.45368438278501
 20
15.64579656368514
 30
0.0
  0
VERTEX
  5
DF1
330
DED
100
AcDbEntity
  8
GAIKEI
  6
Continuous
 62
     1
370
     0
100
AcDbVertex
100
AcDb2dVertex
 10
-20.48970118278498
 20
15.52831016368517
 30
0.0
  0
VERTEX
  5
DF2
330
DED
100
AcDbEntity
  8
GAIKEI
  6
Continuous
 62
     1
370
     0
100
AcDbVertex
100
AcDb2dVertex
 10
-20.51305958278499
 20
15.40755816368514
 30
0.0
  0
VERTEX
  5
DF3
330
DED
100
AcDbEntity
  8
GAIKEI
  6
Continuous
 62
     1
370
     0
100
AcDbVertex
100
AcDb2dVertex
 10
-20.52371598278501
 20
15.28500576368512
 30
0.0
  0
VERTEX
  5
DF4
330
DED
100
AcDbEntity
  8
GAIKEI
  6
Continuous
 62
     1
370
     0
100
AcDbVertex
100
AcDb2dVertex
 10
-20.524369182785
 20
15.25611776368518
 30
0.0
  0
SEQEND
  5
DF5
330
DED
100
AcDbEntity
  8
GAIKEI
  6
Continuous
 62
     1
370
     0
  0
ARC
  5
DF6
330
2
100
AcDbEntity
  8
GAIKEI
  6
Continuous
 62
     1
370
    13
100
AcDbCircle
 10
-19.39422398278498
 20
15.23979096368518
 30
0.0
 40
1.1301524
100
AcDbArc
 50
179.1723229999988
 51
200.0076130000014
  0
ARC
  5
DF7
330
2
100
AcDbEntity
  8
GAIKEI
  6
Continuous
 62
     1
370
    13
100
AcDbCircle
 10
-19.51939478278496
 20
15.20787536368513
 30
0.0
 40
1.0017576
100
AcDbArc
 50
200.7419820000007
 51
241.2743050000013
  0
POLYLINE
  5
DF8
330
2
100
AcDbEntity
  8
GAIKEI
  6
Continuous
 62
     1
370
    13
100
AcDb2dPolyline
 66
     1
 10
0.0
 20
0.0
 30
0.0
  0
VERTEX
  5
DF9
330
DF8
100
AcDbEntity
  8
GAIKEI
  6
Continuous
 62
     1
370
     0
100
AcDbVertex
100
AcDb2dVertex
 10
-20.000809582785
 20
14.32948816368511
 30
0.0
  0
VERTEX
  5
DFA
330
DF8
100
AcDbEntity
  8
GAIKEI
  6
Continuous
 62
     1
370
     0
100
AcDbVertex
100
AcDb2dVertex
 10
-19.95139558278492
 20
14.30456136368511
 30
0.0
  0
VERTEX
  5
DFB
330
DF8
100
AcDbEntity
  8
GAIKEI
  6
Continuous
 62
     1
370
     0
100
AcDbVertex
100
AcDb2dVertex
 10
-19.86603798278497
 20
14.26884336368513
 30
0.0
  0
VERTEX
  5
DFC
330
DF8
100
AcDbEntity
  8
GAIKEI
  6
Continuous
 62
     1
370
     0
100
AcDbVertex
100
AcDb2dVertex
 10
-19.77775038278491
 20
14.24054136368519
 30
0.0
  0
VERTEX
  5
DFD
330
DF8
100
AcDbEntity
  8
GAIKEI
  6
Continuous
 62
     1
370
     0
100
AcDbVertex
100
AcDb2dVertex
 10
-19.68727798278496
 20
14.21960656368512
 30
0.0
  0
VERTEX
  5
DFE
330
DF8
100
AcDbEntity
  8
GAIKEI
  6
Continuous
 62
     1
370
     0
100
AcDbVertex
100
AcDb2dVertex
 10
-19.60439838278489
 20
14.20696616368511
 30
0.0
  0
VERTEX
  5
DFF
330
DF8
100
AcDbEntity
  8
GAIKEI
  6
Continuous
 62
     1
370
     0
100
AcDbVertex
100
AcDb2dVertex
 10
-19.52076798278494
 20
14.20018496368513
 30
0.0
  0
VERTEX
  5
E00
330
DF8
100
AcDbEntity
  8
GAIKEI
  6
Continuous
 62
     1
370
     0
100
AcDbVertex
100
AcDb2dVertex
 10
-19.46487198278498
 20
14.19889736368517
 30
0.0
  0
SEQEND
  5
E01
330
DF8
100
AcDbEntity
  8
GAIKEI
  6
Continuous
 62
     1
370
     0
  0
POLYLINE
  5
E02
330
2
100
AcDbEntity
  8
GAIKEI
  6
Continuous
 62
     1
370
    13
100
AcDb2dPolyline
 66
     1
 10
0.0
 20
0.0
 30
0.0
  0
VERTEX
  5
E03
330
E02
100
AcDbEntity
  8
GAIKEI
  6
Continuous
 62
     1
370
     0
100
AcDbVertex
100
AcDb2dVertex
 10
-19.46487198278498
 20
14.19889736368517
 30
0.0
  0
VERTEX
  5
E04
330
E02
100
AcDbEntity
  8
GAIKEI
  6
Continuous
 62
     1
370
     0
100
AcDbVertex
100
AcDb2dVertex
 10
-19.40890918278501
 20
14.20018496368513
 30
0.0
  0
VERTEX
  5
E05
330
E02
100
AcDbEntity
  8
GAIKEI
  6
Continuous
 62
     1
370
     0
100
AcDbVertex
100
AcDb2dVertex
 10
-19.29763598278498
 20
14.2105245636852
 30
0.0
  0
VERTEX
  5
E06
330
E02
100
AcDbEntity
  8
GAIKEI
  6
Continuous
 62
     1
370
     0
100
AcDbVertex
100
AcDb2dVertex
 10
-19.18793718278493
 20
14.23129456368517
 30
0.0
  0
VERTEX
  5
E07
330
E02
100
AcDbEntity
  8
GAIKEI
  6
Continuous
 62
     1
370
     0
100
AcDbVertex
100
AcDb2dVertex
 10
-19.08102198278493
 20
14.26264216368517
 30
0.0
  0
VERTEX
  5
E08
330
E02
100
AcDbEntity
  8
GAIKEI
  6
Continuous
 62
     1
370
     0
100
AcDbVertex
100
AcDb2dVertex
 10
-18.97813518278496
 20
14.30465896368511
 30
0.0
  0
VERTEX
  5
E09
330
E02
100
AcDbEntity
  8
GAIKEI
  6
Continuous
 62
     1
370
     0
100
AcDbVertex
100
AcDb2dVertex
 10
-18.92893478278495
 20
14.32948816368511
 30
0.0
  0
SEQEND
  5
E0A
330
E02
100
AcDbEntity
  8
GAIKEI
  6
Continuous
 62
     1
370
     0
  0
ARC
  5
E0B
330
2
100
AcDbEntity
  8
GAIKEI
  6
Continuous
 62
     1
370
    13
100
AcDbCircle
 10
-19.41034958278499
 20
15.20787536368513
 30
0.0
 40
1.0017576
100
AcDbArc
 50
298.7256899999988
 51
339.2580249999984
  0
LINE
  5
E0C
330
2
100
AcDbEntity
  8
GAIKEI
  6
Continuous
 62
     1
370
    40
100
AcDbLine
 10
-19.46487198278498
 20
14.91414376368513
 30
0.0
 11
-19.16487198278491
 21
15.08734936368509
 31
0.0
  0
LINE
  5
E0D
330
2
100
AcDbEntity
  8
GAIKEI
  6
Continuous
 62
     1
370
    40
100
AcDbLine
 10
-19.76487198278494
 20
15.08734936368509
 30
0.0
 11
-19.46487198278498
 21
14.91414376368513
 31
0.0
  0
LINE
  5
E0E
330
2
100
AcDbEntity
  8
GAIKEI
  6
Continuous
 62
     1
370
    40
100
AcDbLine
 10
-19.76487198278494
 20
15.43376056368513
 30
0.0
 11
-19.76487198278494
 21
15.08734936368509
 31
0.0
  0
LINE
  5
E0F
330
2
100
AcDbEntity
  8
GAIKEI
  6
Continuous
 62
     1
370
    40
100
AcDbLine
 10
-19.46487198278498
 20
15.6069661636852
 30
0.0
 11
-19.76487198278494
 21
15.43376056368513
 31
0.0
  0
LINE
  5
E10
330
2
100
AcDbEntity
  8
GAIKEI
  6
Continuous
 62
     1
370
    40
100
AcDbLine
 10
-19.16487198278491
 20
15.43376056368513
 30
0.0
 11
-19.46487198278498
 21
15.6069661636852
 31
0.0
  0
LINE
  5
E11
330
2
100
AcDbEntity
  8
GAIKEI
  6
Continuous
 62
     1
370
    40
100
AcDbLine
 10
-19.16487198278491
 20
15.08734936368509
 30
0.0
 11
-19.16487198278491
 21
15.43376056368513
 31
0.0
  0
LINE
  5
E12
330
2
100
AcDbEntity
  8
GAIKEI
  6
Continuous
 62
     7
370
    40
100
AcDbLine
 10
21.71746769906656
 20
43.45153376368509
 30
0.0
 11
24.7628521590666
 21
43.63779120087807
 31
0.0
  0
LINE
  5
E13
330
2
100
AcDbEntity
  8
GAIKEI
  6
Continuous
 62
     1
370
    40
100
AcDbLine
 10
24.7628521590666
 20
42.78000037158299
 30
0.0
 11
21.76959169906661
 21
42.60691736368514
 31
0.0
  0
LINE
  5
E14
330
2
100
AcDbEntity
  8
GAIKEI
  6
Continuous
 62
     1
370
    40
100
AcDbLine
 10
21.71746769906656
 20
43.45153376368509
 30
0.0
 11
21.76837089906655
 21
42.62578936368512
 31
0.0
  0
LINE
  5
E15
330
2
100
AcDbEntity
  8
GAIKEI
  6
Continuous
 62
     1
370
    40
100
AcDbLine
 10
21.76959169906661
 20
42.60691736368514
 30
0.0
 11
21.76837089906655
 21
42.62578936368512
 31
0.0
  0
CIRCLE
  5
E16
330
2
100
AcDbEntity
  8
GAIKEI
  6
Continuous
 62
     1
370
    40
100
AcDbCircle
 10
22.32261929906656
 20
23.42055256368516
 30
0.0
 40
0.7000000000000001
  0
LINE
  5
E17
330
2
100
AcDbEntity
  8
GAIKEI
  6
Continuous
 62
     1
370
    13
100
AcDbLine
 10
21.1230524990666
 20
33.89875056368519
 30
0.0
 11
23.50930129906658
 21
33.8929461636852
 31
0.0
  0
ARC
  5
E18
330
2
100
AcDbEntity
  8
GAIKEI
  6
Continuous
 62
     1
370
    13
100
AcDbCircle
 10
21.12316849906665
 20
33.85921816368508
 30
0.0
 40
0.039572
100
AcDbArc
 50
90.16957599999859
 51
181.5526749999991
  0
ELLIPSE
  5
E19
330
2
100
AcDbEntity
  8
GAIKEI
  6
Continuous
 62
     1
370
    13
100
AcDbEllipse
 10
20.5956536990667
 20
28.26055496368517
 30
0.0
 11
0.0
 21
-15.102392578125
 31
0.0
210
0.0
220
0.0
230
1.0
 40
0.034783
 41
1.206989815812744
 42
1.950496884196269
  0
POLYLINE
  5
E1A
330
2
100
AcDbEntity
  8
GAIKEI
  6
Continuous
 62
     1
370
    13
100
AcDb2dPolyline
 66
     1
 10
0.0
 20
0.0
 30
0.0
  0
VERTEX
  5
E1B
330
E1A
100
AcDbEntity
  8
GAIKEI
  6
Continuous
 62
     1
370
     0
100
AcDbVertex
100
AcDb2dVertex
 10
21.58034609906668
 20
22.37901816368512
 30
0.0
  0
VERTEX
  5
E1C
330
E1A
100
AcDbEntity
  8
GAIKEI
  6
Continuous
 62
     1
370
     0
100
AcDbVertex
100
AcDb2dVertex
 10
21.49921809906664
 20
22.38554896368518
 30
0.0
  0
VERTEX
  5
E1D
330
E1A
100
AcDbEntity
  8
GAIKEI
  6
Continuous
 62
     1
370
     0
100
AcDbVertex
100
AcDb2dVertex
 10
21.42036089906662
 20
22.40540976368513
 30
0.0
  0
VERTEX
  5
E1E
330
E1A
100
AcDbEntity
  8
GAIKEI
  6
Continuous
 62
     1
370
     0
100
AcDbVertex
100
AcDb2dVertex
 10
21.34614809906657
 20
22.43794736368508
 30
0.0
  0
VERTEX
  5
E1F
330
E1A
100
AcDbEntity
  8
GAIKEI
  6
Continuous
 62
     1
370
     0
100
AcDbVertex
100
AcDb2dVertex
 10
21.27870449906664
 20
22.48205136368515
 30
0.0
  0
VERTEX
  5
E20
330
E1A
100
AcDbEntity
  8
GAIKEI
  6
Continuous
 62
     1
370
     0
100
AcDbVertex
100
AcDb2dVertex
 10
21.22033049906656
 20
22.53560376368509
 30
0.0
  0
VERTEX
  5
E21
330
E1A
100
AcDbEntity
  8
GAIKEI
  6
Continuous
 62
     1
370
     0
100
AcDbVertex
100
AcDb2dVertex
 10
21.17161809906656
 20
22.59731016368514
 30
0.0
  0
VERTEX
  5
E22
330
E1A
100
AcDbEntity
  8
GAIKEI
  6
Continuous
 62
     1
370
     0
100
AcDbVertex
100
AcDb2dVertex
 10
21.13345289906658
 20
22.66540096368519
 30
0.0
  0
VERTEX
  5
E23
330
E1A
100
AcDbEntity
  8
GAIKEI
  6
Continuous
 62
     1
370
     0
100
AcDbVertex
100
AcDb2dVertex
 10
21.10640809906659
 20
22.73811856368511
 30
0.0
  0
VERTEX
  5
E24
330
E1A
100
AcDbEntity
  8
GAIKEI
  6
Continuous
 62
     1
370
     0
100
AcDbVertex
100
AcDb2dVertex
 10
21.09104569906663
 20
22.81172056368516
 30
0.0
  0
VERTEX
  5
E25
330
E1A
100
AcDbEntity
  8
GAIKEI
  6
Continuous
 62
     1
370
     0
100
AcDbVertex
100
AcDb2dVertex
 10
21.08658409906661
 20
22.88660456368516
 30
0.0
  0
SEQEND
  5
E26
330
E1A
100
AcDbEntity
  8
GAIKEI
  6
Continuous
 62
     1
370
     0
  0
LINE
  5
E27
330
2
100
AcDbEntity
  8
GAIKEI
  6
Continuous
 62
     1
370
    13
100
AcDbLine
 10
21.58034609906668
 20
22.37901816368512
 30
0.0
 11
23.05410729906657
 21
22.38263136368514
 31
0.0
  0
POLYLINE
  5
E28
330
2
100
AcDbEntity
  8
GAIKEI
  6
Continuous
 62
     1
370
    13
100
AcDb2dPolyline
 66
     1
 10
0.0
 20
0.0
 30
0.0
  0
VERTEX
  5
E29
330
E28
100
AcDbEntity
  8
GAIKEI
  6
Continuous
 62
     1
370
     0
100
AcDbVertex
100
AcDb2dVertex
 10
23.54564169906655
 20
22.89252496368519
 30
0.0
  0
VERTEX
  5
E2A
330
E28
100
AcDbEntity
  8
GAIKEI
  6
Continuous
 62
     1
370
     0
100
AcDbVertex
100
AcDb2dVertex
 10
23.54086849906662
 20
22.81522416368509
 30
0.0
  0
VERTEX
  5
E2B
330
E28
100
AcDbEntity
  8
GAIKEI
  6
Continuous
 62
     1
370
     0
100
AcDbVertex
100
AcDb2dVertex
 10
23.52463329906663
 20
22.73963816368516
 30
0.0
  0
VERTEX
  5
E2C
330
E28
100
AcDbEntity
  8
GAIKEI
  6
Continuous
 62
     1
370
     0
100
AcDbVertex
100
AcDb2dVertex
 10
23.49719169906655
 20
22.6673481636852
 30
0.0
  0
VERTEX
  5
E2D
330
E28
100
AcDbEntity
  8
GAIKEI
  6
Continuous
 62
     1
370
     0
100
AcDbVertex
100
AcDb2dVertex
 10
23.45898369906661
 20
22.59993496368517
 30
0.0
  0
VERTEX
  5
E2E
330
E28
100
AcDbEntity
  8
GAIKEI
  6
Continuous
 62
     1
370
     0
100
AcDbVertex
100
AcDb2dVertex
 10
23.41031449906666
 20
22.53863096368511
 30
0.0
  0
VERTEX
  5
E2F
330
E28
100
AcDbEntity
  8
GAIKEI
  6
Continuous
 62
     1
370
     0
100
AcDbVertex
100
AcDb2dVertex
 10
23.35220889906657
 20
22.48544496368513
 30
0.0
  0
VERTEX
  5
E30
330
E28
100
AcDbEntity
  8
GAIKEI
  6
Continuous
 62
     1
370
     0
100
AcDbVertex
100
AcDb2dVertex
 10
23.28583929906665
 20
22.44195136368521
 30
0.0
  0
VERTEX
  5
E31
330
E28
100
AcDbEntity
  8
GAIKEI
  6
Continuous
 62
     1
370
     0
100
AcDbVertex
100
AcDb2dVertex
 10
23.21271929906663
 20
22.40958456368511
 30
0.0
  0
VERTEX
  5
E32
330
E28
100
AcDbEntity
  8
GAIKEI
  6
Continuous
 62
     1
370
     0
100
AcDbVertex
100
AcDb2dVertex
 10
23.13475889906658
 20
22.38954656368512
 30
0.0
  0
VERTEX
  5
E33
330
E28
100
AcDbEntity
  8
GAIKEI
  6
Continuous
 62
     1
370
     0
100
AcDbVertex
100
AcDb2dVertex
 10
23.05410729906657
 20
22.38263136368514
 30
0.0
  0
SEQEND
  5
E34
330
E28
100
AcDbEntity
  8
GAIKEI
  6
Continuous
 62
     1
370
     0
  0
ELLIPSE
  5
E35
330
2
100
AcDbEntity
  8
GAIKEI
  6
Continuous
 62
     1
370
    13
100
AcDbEllipse
 10
24.0444940990667
 20
28.26055496368517
 30
0.0
 11
0.0
 21
-15.3131103515625
 31
0.0
210
0.0
220
0.0
230
1.0
 40
0.034783
 41
4.338593536870948
 42
5.070548479168404
  0
ARC
  5
E36
330
2
100
AcDbEntity
  8
GAIKEI
  6
Continuous
 62
     1
370
    13
100
AcDbCircle
 10
23.50883729906661
 20
33.85327336368514
 30
0.0
 40
0.0397296
100
AcDbArc
 50
358.3910410000003
 51
89.33719399999876
  0
POLYLINE
  5
E37
330
2
100
AcDbEntity
  8
GAIKEI
  6
Continuous
 62
     1
370
    40
100
AcDb2dPolyline
 66
     1
 10
0.0
 20
0.0
 30
0.0
  0
VERTEX
  5
E38
330
E37
100
AcDbEntity
  8
GAIKEI
  6
Continuous
 62
     1
370
     0
100
AcDbVertex
100
AcDb2dVertex
 10
22.71357369906661
 20
22.70492736368519
 30
0.0
  0
VERTEX
  5
E39
330
E37
100
AcDbEntity
  8
GAIKEI
  6
Continuous
 62
     1
370
     0
100
AcDbVertex
100
AcDb2dVertex
 10
22.61718689906661
 20
22.66104936368512
 30
0.0
  0
VERTEX
  5
E3A
330
E37
100
AcDbEntity
  8
GAIKEI
  6
Continuous
 62
     1
370
     0
100
AcDbVertex
100
AcDb2dVertex
 10
22.51539249906659
 20
22.62975056368518
 30
0.0
  0
VERTEX
  5
E3B
330
E37
100
AcDbEntity
  8
GAIKEI
  6
Continuous
 62
     1
370
     0
100
AcDbVertex
100
AcDb2dVertex
 10
22.4099056990666
 20
22.61178176368511
 30
0.0
  0
VERTEX
  5
E3C
330
E37
100
AcDbEntity
  8
GAIKEI
  6
Continuous
 62
     1
370
     0
100
AcDbVertex
100
AcDb2dVertex
 10
22.30258729906655
 20
22.60763736368514
 30
0.0
  0
VERTEX
  5
E3D
330
E37
100
AcDbEntity
  8
GAIKEI
  6
Continuous
 62
     1
370
     0
100
AcDbVertex
100
AcDb2dVertex
 10
22.19543409906657
 20
22.61750696368515
 30
0.0
  0
VERTEX
  5
E3E
330
E37
100
AcDbEntity
  8
GAIKEI
  6
Continuous
 62
     1
370
     0
100
AcDbVertex
100
AcDb2dVertex
 10
22.1041252990666
 20
22.63733736368519
 30
0.0
  0
VERTEX
  5
E3F
330
E37
100
AcDbEntity
  8
GAIKEI
  6
Continuous
 62
     1
370
     0
100
AcDbVertex
100
AcDb2dVertex
 10
22.01578329906658
 20
22.66731776368519
 30
0.0
  0
VERTEX
  5
E40
330
E37
100
AcDbEntity
  8
GAIKEI
  6
Continuous
 62
     1
370
     0
100
AcDbVertex
100
AcDb2dVertex
 10
21.93162809906664
 20
22.70696616368511
 30
0.0
  0
VERTEX
  5
E41
330
E37
100
AcDbEntity
  8
GAIKEI
  6
Continuous
 62
     1
370
     0
100
AcDbVertex
100
AcDb2dVertex
 10
21.85275809906659
 20
22.75564776368512
 30
0.0
  0
VERTEX
  5
E42
330
E37
100
AcDbEntity
  8
GAIKEI
  6
Continuous
 62
     1
370
     0
100
AcDbVertex
100
AcDb2dVertex
 10
21.78016289906657
 20
22.81261176368511
 30
0.0
  0
VERTEX
  5
E43
330
E37
100
AcDbEntity
  8
GAIKEI
  6
Continuous
 62
     1
370
     0
100
AcDbVertex
100
AcDb2dVertex
 10
21.70462609906667
 20
22.88829536368516
 30
0.0
  0
VERTEX
  5
E44
330
E37
100
AcDbEntity
  8
GAIKEI
  6
Continuous
 62
     1
370
     0
100
AcDbVertex
100
AcDb2dVertex
 10
21.63986169906662
 20
22.9726461636852
 30
0.0
  0
VERTEX
  5
E45
330
E37
100
AcDbEntity
  8
GAIKEI
  6
Continuous
 62
     1
370
     0
100
AcDbVertex
100
AcDb2dVertex
 10
21.58676089906657
 20
23.06415616368517
 30
0.0
  0
VERTEX
  5
E46
330
E37
100
AcDbEntity
  8
GAIKEI
  6
Continuous
 62
     1
370
     0
100
AcDbVertex
100
AcDb2dVertex
 10
21.54599569906657
 20
23.16128736368509
 30
0.0
  0
VERTEX
  5
E47
330
E37
100
AcDbEntity
  8
GAIKEI
  6
Continuous
 62
     1
370
     0
100
AcDbVertex
100
AcDb2dVertex
 10
21.51805969906661
 20
23.26250176368521
 30
0.0
  0
VERTEX
  5
E48
330
E37
100
AcDbEntity
  8
GAIKEI
  6
Continuous
 62
     1
370
     0
100
AcDbVertex
100
AcDb2dVertex
 10
21.50315489906666
 20
23.36764736368511
 30
0.0
  0
VERTEX
  5
E49
330
E37
100
AcDbEntity
  8
GAIKEI
  6
Continuous
 62
     1
370
     0
100
AcDbVertex
100
AcDb2dVertex
 10
21.50192809906662
 20
23.47379976368515
 30
0.0
  0
VERTEX
  5
E4A
330
E37
100
AcDbEntity
  8
GAIKEI
  6
Continuous
 62
     1
370
     0
100
AcDbVertex
100
AcDb2dVertex
 10
21.5144100990666
 20
23.57932936368511
 30
0.0
  0
VERTEX
  5
E4B
330
E37
100
AcDbEntity
  8
GAIKEI
  6
Continuous
 62
     1
370
     0
100
AcDbVertex
100
AcDb2dVertex
 10
21.54047209906662
 20
23.68258856368513
 30
0.0
  0
VERTEX
  5
E4C
330
E37
100
AcDbEntity
  8
GAIKEI
  6
Continuous
 62
     1
370
     0
100
AcDbVertex
100
AcDb2dVertex
 10
21.57981529906658
 20
23.78193536368517
 30
0.0
  0
VERTEX
  5
E4D
330
E37
100
AcDbEntity
  8
GAIKEI
  6
Continuous
 62
     1
370
     0
100
AcDbVertex
100
AcDb2dVertex
 10
21.62874689906664
 20
23.8707173636852
 30
0.0
  0
VERTEX
  5
E4E
330
E37
100
AcDbEntity
  8
GAIKEI
  6
Continuous
 62
     1
370
     0
100
AcDbVertex
100
AcDb2dVertex
 10
21.6885188990666
 20
23.95316376368518
 30
0.0
  0
VERTEX
  5
E4F
330
E37
100
AcDbEntity
  8
GAIKEI
  6
Continuous
 62
     1
370
     0
100
AcDbVertex
100
AcDb2dVertex
 10
21.75837969906661
 20
24.02793176368513
 30
0.0
  0
VERTEX
  5
E50
330
E37
100
AcDbEntity
  8
GAIKEI
  6
Continuous
 62
     1
370
     0
100
AcDbVertex
100
AcDb2dVertex
 10
21.83737729906659
 20
24.09376416368511
 30
0.0
  0
VERTEX
  5
E51
330
E37
100
AcDbEntity
  8
GAIKEI
  6
Continuous
 62
     1
370
     0
100
AcDbVertex
100
AcDb2dVertex
 10
21.92440729906662
 20
24.14948296368513
 30
0.0
  0
SEQEND
  5
E52
330
E37
100
AcDbEntity
  8
GAIKEI
  6
Continuous
 62
     1
370
     0
  0
POLYLINE
  5
E53
330
2
100
AcDbEntity
  8
GAIKEI
  6
Continuous
 62
     1
370
    40
100
AcDb2dPolyline
 66
     1
 10
0.0
 20
0.0
 30
0.0
  0
VERTEX
  5
E54
330
E53
100
AcDbEntity
  8
GAIKEI
  6
Continuous
 62
     1
370
     0
100
AcDbVertex
100
AcDb2dVertex
 10
22.71357369906661
 20
22.70492736368519
 30
0.0
  0
VERTEX
  5
E55
330
E53
100
AcDbEntity
  8
GAIKEI
  6
Continuous
 62
     1
370
     0
100
AcDbVertex
100
AcDb2dVertex
 10
22.80435129906664
 20
22.7613909636851
 30
0.0
  0
VERTEX
  5
E56
330
E53
100
AcDbEntity
  8
GAIKEI
  6
Continuous
 62
     1
370
     0
100
AcDbVertex
100
AcDb2dVertex
 10
22.88660209906664
 20
22.82872496368518
 30
0.0
  0
VERTEX
  5
E57
330
E53
100
AcDbEntity
  8
GAIKEI
  6
Continuous
 62
     1
370
     0
100
AcDbVertex
100
AcDb2dVertex
 10
22.95916689906665
 20
22.90568416368509
 30
0.0
  0
VERTEX
  5
E58
330
E53
100
AcDbEntity
  8
GAIKEI
  6
Continuous
 62
     1
370
     0
100
AcDbVertex
100
AcDb2dVertex
 10
23.02103209906659
 20
22.99097496368515
 30
0.0
  0
VERTEX
  5
E59
330
E53
100
AcDbEntity
  8
GAIKEI
  6
Continuous
 62
     1
370
     0
100
AcDbVertex
100
AcDb2dVertex
 10
23.07138609906656
 20
23.08322936368515
 30
0.0
  0
VERTEX
  5
E5A
330
E53
100
AcDbEntity
  8
GAIKEI
  6
Continuous
 62
     1
370
     0
100
AcDbVertex
100
AcDb2dVertex
 10
23.10986289906657
 20
23.1821065636851
 30
0.0
  0
VERTEX
  5
E5B
330
E53
100
AcDbEntity
  8
GAIKEI
  6
Continuous
 62
     1
370
     0
100
AcDbVertex
100
AcDb2dVertex
 10
23.13530209906662
 20
23.28520696368511
 30
0.0
  0
VERTEX
  5
E5C
330
E53
100
AcDbEntity
  8
GAIKEI
  6
Continuous
 62
     1
370
     0
100
AcDbVertex
100
AcDb2dVertex
 10
23.14724689906666
 20
23.39096256368518
 30
0.0
  0
VERTEX
  5
E5D
330
E53
100
AcDbEntity
  8
GAIKEI
  6
Continuous
 62
     1
370
     0
100
AcDbVertex
100
AcDb2dVertex
 10
23.1454036990666
 20
23.49773136368512
 30
0.0
  0
VERTEX
  5
E5E
330
E53
100
AcDbEntity
  8
GAIKEI
  6
Continuous
 62
     1
370
     0
100
AcDbVertex
100
AcDb2dVertex
 10
23.1296380990666
 20
23.60382896368512
 30
0.0
  0
VERTEX
  5
E5F
330
E53
100
AcDbEntity
  8
GAIKEI
  6
Continuous
 62
     1
370
     0
100
AcDbVertex
100
AcDb2dVertex
 10
23.1006648990666
 20
23.70562936368512
 30
0.0
  0
VERTEX
  5
E60
330
E53
100
AcDbEntity
  8
GAIKEI
  6
Continuous
 62
     1
370
     0
100
AcDbVertex
100
AcDb2dVertex
 10
23.05858729906663
 20
23.80338936368511
 30
0.0
  0
VERTEX
  5
E61
330
E53
100
AcDbEntity
  8
GAIKEI
  6
Continuous
 62
     1
370
     0
100
AcDbVertex
100
AcDb2dVertex
 10
23.00390569906665
 20
23.89538776368519
 30
0.0
  0
VERTEX
  5
E62
330
E53
100
AcDbEntity
  8
GAIKEI
  6
Continuous
 62
     1
370
     0
100
AcDbVertex
100
AcDb2dVertex
 10
22.93735929906666
 20
23.97994576368509
 30
0.0
  0
VERTEX
  5
E63
330
E53
100
AcDbEntity
  8
GAIKEI
  6
Continuous
 62
     1
370
     0
100
AcDbVertex
100
AcDb2dVertex
 10
22.85994809906663
 20
24.05544616368511
 30
0.0
  0
VERTEX
  5
E64
330
E53
100
AcDbEntity
  8
GAIKEI
  6
Continuous
 62
     1
370
     0
100
AcDbVertex
100
AcDb2dVertex
 10
22.77484089906659
 20
24.11915496368519
 30
0.0
  0
VERTEX
  5
E65
330
E53
100
AcDbEntity
  8
GAIKEI
  6
Continuous
 62
     1
370
     0
100
AcDbVertex
100
AcDb2dVertex
 10
22.68195129906667
 20
24.17151056368513
 30
0.0
  0
VERTEX
  5
E66
330
E53
100
AcDbEntity
  8
GAIKEI
  6
Continuous
 62
     1
370
     0
100
AcDbVertex
100
AcDb2dVertex
 10
22.58287289906661
 20
24.2115069636852
 30
0.0
  0
VERTEX
  5
E67
330
E53
100
AcDbEntity
  8
GAIKEI
  6
Continuous
 62
     1
370
     0
100
AcDbVertex
100
AcDb2dVertex
 10
22.47934529906661
 20
24.23836856368516
 30
0.0
  0
VERTEX
  5
E68
330
E53
100
AcDbEntity
  8
GAIKEI
  6
Continuous
 62
     1
370
     0
100
AcDbVertex
100
AcDb2dVertex
 10
22.37321129906661
 20
24.25160736368511
 30
0.0
  0
VERTEX
  5
E69
330
E53
100
AcDbEntity
  8
GAIKEI
  6
Continuous
 62
     1
370
     0
100
AcDbVertex
100
AcDb2dVertex
 10
22.27950409906657
 20
24.25182096368516
 30
0.0
  0
VERTEX
  5
E6A
330
E53
100
AcDbEntity
  8
GAIKEI
  6
Continuous
 62
     1
370
     0
100
AcDbVertex
100
AcDb2dVertex
 10
22.18654729906666
 20
24.24143256368515
 30
0.0
  0
VERTEX
  5
E6B
330
E53
100
AcDbEntity
  8
GAIKEI
  6
Continuous
 62
     1
370
     0
100
AcDbVertex
100
AcDb2dVertex
 10
22.09559289906656
 20
24.22064416368514
 30
0.0
  0
VERTEX
  5
E6C
330
E53
100
AcDbEntity
  8
GAIKEI
  6
Continuous
 62
     1
370
     0
100
AcDbVertex
100
AcDb2dVertex
 10
22.00783649906657
 20
24.18982736368511
 30
0.0
  0
VERTEX
  5
E6D
330
E53
100
AcDbEntity
  8
GAIKEI
  6
Continuous
 62
     1
370
     0
100
AcDbVertex
100
AcDb2dVertex
 10
21.92440729906662
 20
24.14948296368513
 30
0.0
  0
SEQEND
  5
E6E
330
E53
100
AcDbEntity
  8
GAIKEI
  6
Continuous
 62
     1
370
     0
  0
ARC
  5
E6F
330
2
100
AcDbEntity
  8
GAIKEI
  6
Continuous
 62
     7
370
    40
100
AcDbCircle
 10
20.26262169906658
 20
28.26055496368517
 30
0.0
 40
4.7
100
AcDbArc
 50
111.9667989999981
 51
180.0000049999988
  0
ARC
  5
E70
330
2
100
AcDbEntity
  8
GAIKEI
  6
Continuous
 62
     7
370
    40
100
AcDbCircle
 10
20.26262169906658
 20
28.26055496368517
 30
0.0
 40
4.7
100
AcDbArc
 50
179.9999949999995
 51
248.0332009999989
  0
LINE
  5
E71
330
2
100
AcDbEntity
  8
GAIKEI
  6
Continuous
 62
     7
370
    40
100
AcDbLine
 10
20.10555969906659
 20
13.18820376368521
 30
0.0
 11
24.7628521590666
 21
12.90335363686805
 31
0.0
  0
POLYLINE
  5
E72
330
2
100
AcDbEntity
  8
GAIKEI
  6
Continuous
 62
     7
370
    40
100
AcDb2dPolyline
 66
     1
 10
0.0
 20
0.0
 30
0.0
  0
VERTEX
  5
E73
330
E72
100
AcDbEntity
  8
GAIKEI
  6
Continuous
 62
     7
370
     0
100
AcDbVertex
100
AcDb2dVertex
 10
19.73985529906667
 20
14.05224816368511
 30
0.0
  0
VERTEX
  5
E74
330
E72
100
AcDbEntity
  8
GAIKEI
  6
Continuous
 62
     7
370
     0
100
AcDbVertex
100
AcDb2dVertex
 10
19.72689769906662
 20
14.11223336368513
 30
0.0
  0
VERTEX
  5
E75
330
E72
100
AcDbEntity
  8
GAIKEI
  6
Continuous
 62
     7
370
     0
100
AcDbVertex
100
AcDb2dVertex
 10
19.66028409906664
 20
14.39444176368519
 30
0.0
  0
VERTEX
  5
E76
330
E72
100
AcDbEntity
  8
GAIKEI
  6
Continuous
 62
     7
370
     0
100
AcDbVertex
100
AcDb2dVertex
 10
19.58187809906656
 20
14.71453456368519
 30
0.0
  0
SEQEND
  5
E77
330
E72
100
AcDbEntity
  8
GAIKEI
  6
Continuous
 62
     7
370
     0
  0
LINE
  5
E78
330
2
100
AcDbEntity
  8
GAIKEI
  6
Continuous
 62
     7
370
    40
100
AcDbLine
 10
19.74089929906654
 20
14.04652896368517
 30
0.0
 11
19.74085649906658
 21
14.04684656368519
 31
0.0
  0
LINE
  5
E79
330
2
100
AcDbEntity
  8
GAIKEI
  6
Continuous
 62
     7
370
    40
100
AcDbLine
 10
19.74089929906654
 20
14.04652896368517
 30
0.0
 11
19.74531809906659
 21
14.01310616368514
 31
0.0
  0
POLYLINE
  5
E7A
330
2
100
AcDbEntity
  8
GAIKEI
  6
Continuous
 62
     7
370
    40
100
AcDb2dPolyline
 66
     1
 10
0.0
 20
0.0
 30
0.0
  0
VERTEX
  5
E7B
330
E7A
100
AcDbEntity
  8
GAIKEI
  6
Continuous
 62
     7
370
     0
100
AcDbVertex
100
AcDb2dVertex
 10
19.58187809906656
 20
14.71453456368519
 30
0.0
  0
VERTEX
  5
E7C
330
E7A
100
AcDbEntity
  8
GAIKEI
  6
Continuous
 62
     7
370
     0
100
AcDbVertex
100
AcDb2dVertex
 10
19.70230649906659
 20
14.21848936368516
 30
0.0
  0
VERTEX
  5
E7D
330
E7A
100
AcDbEntity
  8
GAIKEI
  6
Continuous
 62
     7
370
     0
100
AcDbVertex
100
AcDb2dVertex
 10
19.74089929906654
 20
14.04652896368517
 30
0.0
  0
SEQEND
  5
E7E
330
E7A
100
AcDbEntity
  8
GAIKEI
  6
Continuous
 62
     7
370
     0
  0
ARC
  5
E7F
330
2
100
AcDbEntity
  8
GAIKEI
  6
Continuous
 62
     7
370
    40
100
AcDbCircle
 10
82.23778009906665
 20
30.25344416368509
 30
0.0
 40
64.5540156
100
AcDbArc
 50
193.4828429999998
 51
193.9285540000001
  0
ARC
  5
E80
330
2
100
AcDbEntity
  8
GAIKEI
  6
Continuous
 62
     7
370
    40
100
AcDbCircle
 10
80.89822929906654
 20
29.93632416368516
 30
0.0
 40
63.1774348
100
AcDbArc
 50
192.8424849999984
 51
193.4864079999987
  0
POLYLINE
  5
E81
330
2
100
AcDbEntity
  8
GAIKEI
  6
Continuous
 62
     7
370
    40
100
AcDb2dPolyline
 66
     1
 10
0.0
 20
0.0
 30
0.0
  0
VERTEX
  5
E82
330
E81
100
AcDbEntity
  8
GAIKEI
  6
Continuous
 62
     7
370
     0
100
AcDbVertex
100
AcDb2dVertex
 10
19.16836489906654
 20
16.45623976368514
 30
0.0
  0
VERTEX
  5
E83
330
E81
100
AcDbEntity
  8
GAIKEI
  6
Continuous
 62
     7
370
     0
100
AcDbVertex
100
AcDb2dVertex
 10
19.2438472990666
 20
16.14315976368513
 30
0.0
  0
VERTEX
  5
E84
330
E81
100
AcDbEntity
  8
GAIKEI
  6
Continuous
 62
     7
370
     0
100
AcDbVertex
100
AcDb2dVertex
 10
19.30119569906662
 20
15.89377656368512
 30
0.0
  0
SEQEND
  5
E85
330
E81
100
AcDbEntity
  8
GAIKEI
  6
Continuous
 62
     7
370
     0
  0
LINE
  5
E86
330
2
100
AcDbEntity
  8
GAIKEI
  6
Continuous
 62
     7
370
    40
100
AcDbLine
 10
19.17836849906655
 20
16.43522536368513
 30
0.0
 11
19.18317809906659
 21
16.4287861636852
 31
0.0
  0
ARC
  5
E87
330
2
100
AcDbEntity
  8
GAIKEI
  6
Continuous
 62
     7
370
    40
100
AcDbCircle
 10
19.25850769906663
 20
16.49507656368516
 30
0.0
 40
0.1000264
100
AcDbArc
 50
192.1421589999994
 51
209.1343169999985
  0
ARC
  5
E88
330
2
100
AcDbEntity
  8
GAIKEI
  6
Continuous
 62
     7
370
    40
100
AcDbCircle
 10
77.8191524990666
 20
29.09105416368513
 30
0.0
 40
59.9999996
100
AcDbArc
 50
188.6755239999997
 51
192.1389759999988
  0
ARC
  5
E89
330
2
100
AcDbEntity
  8
GAIKEI
  6
Continuous
 62
     7
370
    40
100
AcDbCircle
 10
77.8191524990666
 20
29.09105416368513
 30
0.0
 40
59.9999996
100
AcDbArc
 50
194.5660149999998
 51
195.2241309999977
  0
ARC
  5
E8A
330
2
100
AcDbEntity
  8
GAIKEI
  6
Continuous
 62
     7
370
    40
100
AcDbCircle
 10
77.8191524990666
 20
27.43005576368509
 30
0.0
 40
59.9999996
100
AcDbArc
 50
164.7758690000007
 51
171.3244760000003
  0
LINE
  5
E8B
330
2
100
AcDbEntity
  8
GAIKEI
  6
Continuous
 62
     7
370
    40
100
AcDbLine
 10
18.50449769906663
 20
20.05583096368511
 30
0.0
 11
18.50563929906661
 21
20.04074896368511
 31
0.0
  0
LINE
  5
E8C
330
2
100
AcDbEntity
  8
GAIKEI
  6
Continuous
 62
     7
370
    40
100
AcDbLine
 10
18.50449769906663
 20
36.46527896368511
 30
0.0
 11
18.50449769906663
 21
20.05583096368511
 31
0.0
  0
LINE
  5
E8D
330
2
100
AcDbEntity
  8
GAIKEI
  6
Continuous
 62
     7
370
    40
100
AcDbLine
 10
18.50449769906663
 20
36.46527896368511
 30
0.0
 11
18.50563929906661
 21
36.48036096368512
 31
0.0
  0
ARC
  5
E8E
330
2
100
AcDbEntity
  8
GAIKEI
  6
Continuous
 62
     7
370
    40
100
AcDbCircle
 10
20.11776689906662
 20
13.38783776368515
 30
0.0
 40
0.2
100
AcDbArc
 50
195.2241309999977
 51
266.4999969999991
  0
ARC
  5
E8F
330
2
100
AcDbEntity
  8
GAIKEI
  6
Continuous
 62
     7
370
    40
100
AcDbCircle
 10
20.11776689906662
 20
43.13327216368517
 30
0.0
 40
0.2
100
AcDbArc
 50
93.5000030000009
 51
164.7758690000007
  0
LINE
  5
E90
330
2
100
AcDbEntity
  8
GAIKEI
  6
Continuous
 62
     7
370
    40
100
AcDbLine
 10
20.10555969906659
 20
43.33290616368512
 30
0.0
 11
21.71868849906662
 21
43.43156336368517
 31
0.0
  0
POLYLINE
  5
E91
330
2
100
AcDbEntity
  8
GAIKEI
  6
Continuous
 62
     1
370
    13
100
AcDb2dPolyline
 66
     1
 10
0.0
 20
0.0
 30
0.0
  0
VERTEX
  5
E92
330
E91
100
AcDbEntity
  8
GAIKEI
  6
Continuous
 62
     1
370
     0
100
AcDbVertex
100
AcDb2dVertex
 10
23.78323929906662
 20
34.94024856368512
 30
0.0
  0
VERTEX
  5
E93
330
E91
100
AcDbEntity
  8
GAIKEI
  6
Continuous
 62
     1
370
     0
100
AcDbVertex
100
AcDb2dVertex
 10
23.8081416990666
 20
33.20535456368518
 30
0.0
  0
VERTEX
  5
E94
330
E91
100
AcDbEntity
  8
GAIKEI
  6
Continuous
 62
     1
370
     0
100
AcDbVertex
100
AcDb2dVertex
 10
23.82528009906662
 20
31.41930736368519
 30
0.0
  0
VERTEX
  5
E95
330
E91
100
AcDbEntity
  8
GAIKEI
  6
Continuous
 62
     1
370
     0
100
AcDbVertex
100
AcDb2dVertex
 10
23.82939409906658
 20
30.19033416368515
 30
0.0
  0
VERTEX
  5
E96
330
E91
100
AcDbEntity
  8
GAIKEI
  6
Continuous
 62
     1
370
     0
100
AcDbVertex
100
AcDb2dVertex
 10
23.82192329906661
 20
28.94704176368518
 30
0.0
  0
VERTEX
  5
E97
330
E91
100
AcDbEntity
  8
GAIKEI
  6
Continuous
 62
     1
370
     0
100
AcDbVertex
100
AcDb2dVertex
 10
23.82126409906664
 20
27.70271176368519
 30
0.0
  0
VERTEX
  5
E98
330
E91
100
AcDbEntity
  8
GAIKEI
  6
Continuous
 62
     1
370
     0
100
AcDbVertex
100
AcDb2dVertex
 10
23.82901569906664
 20
26.46785456368511
 30
0.0
  0
VERTEX
  5
E99
330
E91
100
AcDbEntity
  8
GAIKEI
  6
Continuous
 62
     1
370
     0
100
AcDbVertex
100
AcDb2dVertex
 10
23.82706249906664
 20
25.35647176368511
 30
0.0
  0
VERTEX
  5
E9A
330
E91
100
AcDbEntity
  8
GAIKEI
  6
Continuous
 62
     1
370
     0
100
AcDbVertex
100
AcDb2dVertex
 10
23.82178889906663
 20
24.66060976368519
 30
0.0
  0
VERTEX
  5
E9B
330
E91
100
AcDbEntity
  8
GAIKEI
  6
Continuous
 62
     1
370
     0
100
AcDbVertex
100
AcDb2dVertex
 10
23.80145209906664
 20
22.7862261636852
 30
0.0
  0
SEQEND
  5
E9C
330
E91
100
AcDbEntity
  8
GAIKEI
  6
Continuous
 62
     1
370
     0
  0
POLYLINE
  5
E9D
330
2
100
AcDbEntity
  8
GAIKEI
  6
Continuous
 62
     1
370
    13
100
AcDb2dPolyline
 66
     1
 10
0.0
 20
0.0
 30
0.0
  0
VERTEX
  5
E9E
330
E9D
100
AcDbEntity
  8
GAIKEI
  6
Continuous
 62
     1
370
     0
100
AcDbVertex
100
AcDb2dVertex
 10
23.78323929906662
 20
34.94024856368512
 30
0.0
  0
VERTEX
  5
E9F
330
E9D
100
AcDbEntity
  8
GAIKEI
  6
Continuous
 62
     1
370
     0
100
AcDbVertex
100
AcDb2dVertex
 10
23.77502409906663
 20
34.98667176368517
 30
0.0
  0
VERTEX
  5
EA0
330
E9D
100
AcDbEntity
  8
GAIKEI
  6
Continuous
 62
     1
370
     0
100
AcDbVertex
100
AcDb2dVertex
 10
23.75278289906658
 20
35.02857856368516
 30
0.0
  0
VERTEX
  5
EA1
330
E9D
100
AcDbEntity
  8
GAIKEI
  6
Continuous
 62
     1
370
     0
100
AcDbVertex
100
AcDb2dVertex
 10
23.7175532990666
 20
35.06293536368512
 30
0.0
  0
VERTEX
  5
EA2
330
E9D
100
AcDbEntity
  8
GAIKEI
  6
Continuous
 62
     1
370
     0
100
AcDbVertex
100
AcDb2dVertex
 10
23.67243609906666
 20
35.0854937636851
 30
0.0
  0
VERTEX
  5
EA3
330
E9D
100
AcDbEntity
  8
GAIKEI
  6
Continuous
 62
     1
370
     0
100
AcDbVertex
100
AcDb2dVertex
 10
23.64694769906657
 20
35.09149976368516
 30
0.0
  0
VERTEX
  5
EA4
330
E9D
100
AcDbEntity
  8
GAIKEI
  6
Continuous
 62
     1
370
     0
100
AcDbVertex
100
AcDb2dVertex
 10
23.62061729906657
 20
35.09344056368511
 30
0.0
  0
SEQEND
  5
EA5
330
E9D
100
AcDbEntity
  8
GAIKEI
  6
Continuous
 62
     1
370
     0
  0
LINE
  5
EA6
330
2
100
AcDbEntity
  8
GAIKEI
  6
Continuous
 62
     1
370
    13
100
AcDbLine
 10
21.0232416990666
 20
35.07876776368514
 30
0.0
 11
23.62061729906657
 21
35.09344056368511
 31
0.0
  0
POLYLINE
  5
EA7
330
2
100
AcDbEntity
  8
GAIKEI
  6
Continuous
 62
     1
370
    13
100
AcDb2dPolyline
 66
     1
 10
0.0
 20
0.0
 30
0.0
  0
VERTEX
  5
EA8
330
EA7
100
AcDbEntity
  8
GAIKEI
  6
Continuous
 62
     1
370
     0
100
AcDbVertex
100
AcDb2dVertex
 10
21.0232416990666
 20
35.07876776368514
 30
0.0
  0
VERTEX
  5
EA9
330
EA7
100
AcDbEntity
  8
GAIKEI
  6
Continuous
 62
     1
370
     0
100
AcDbVertex
100
AcDb2dVertex
 10
20.98833569906663
 20
35.07484936368516
 30
0.0
  0
VERTEX
  5
EAA
330
EA7
100
AcDbEntity
  8
GAIKEI
  6
Continuous
 62
     1
370
     0
100
AcDbVertex
100
AcDb2dVertex
 10
20.95516289906663
 20
35.06374696368514
 30
0.0
  0
VERTEX
  5
EAB
330
EA7
100
AcDbEntity
  8
GAIKEI
  6
Continuous
 62
     1
370
     0
100
AcDbVertex
100
AcDb2dVertex
 10
20.92537169906655
 20
35.04616896368518
 30
0.0
  0
VERTEX
  5
EAC
330
EA7
100
AcDbEntity
  8
GAIKEI
  6
Continuous
 62
     1
370
     0
100
AcDbVertex
100
AcDb2dVertex
 10
20.89063049906656
 20
35.01101896368513
 30
0.0
  0
VERTEX
  5
EAD
330
EA7
100
AcDbEntity
  8
GAIKEI
  6
Continuous
 62
     1
370
     0
100
AcDbVertex
100
AcDb2dVertex
 10
20.86878009906661
 20
34.96808656368509
 30
0.0
  0
VERTEX
  5
EAE
330
EA7
100
AcDbEntity
  8
GAIKEI
  6
Continuous
 62
     1
370
     0
100
AcDbVertex
100
AcDb2dVertex
 10
20.86133369906656
 20
34.92380576368518
 30
0.0
  0
SEQEND
  5
EAF
330
EA7
100
AcDbEntity
  8
GAIKEI
  6
Continuous
 62
     1
370
     0
  0
POLYLINE
  5
EB0
330
2
100
AcDbEntity
  8
GAIKEI
  6
Continuous
 62
     1
370
    13
100
AcDb2dPolyline
 66
     1
 10
0.0
 20
0.0
 30
0.0
  0
VERTEX
  5
EB1
330
EB0
100
AcDbEntity
  8
GAIKEI
  6
Continuous
 62
     1
370
     0
100
AcDbVertex
100
AcDb2dVertex
 10
20.84314529906658
 20
22.79267776368519
 30
0.0
  0
VERTEX
  5
EB2
330
EB0
100
AcDbEntity
  8
GAIKEI
  6
Continuous
 62
     1
370
     0
100
AcDbVertex
100
AcDb2dVertex
 10
20.81862129906665
 20
25.18144136368514
 30
0.0
  0
VERTEX
  5
EB3
330
EB0
100
AcDbEntity
  8
GAIKEI
  6
Continuous
 62
     1
370
     0
100
AcDbVertex
100
AcDb2dVertex
 10
20.81482489906659
 20
26.41329536368514
 30
0.0
  0
VERTEX
  5
EB4
330
EB0
100
AcDbEntity
  8
GAIKEI
  6
Continuous
 62
     1
370
     0
100
AcDbVertex
100
AcDb2dVertex
 10
20.82142289906665
 20
27.65904736368518
 30
0.0
  0
VERTEX
  5
EB5
330
EB0
100
AcDbEntity
  8
GAIKEI
  6
Continuous
 62
     1
370
     0
100
AcDbVertex
100
AcDb2dVertex
 10
20.82125209906667
 20
28.9067525636851
 30
0.0
  0
VERTEX
  5
EB6
330
EB0
100
AcDbEntity
  8
GAIKEI
  6
Continuous
 62
     1
370
     0
100
AcDbVertex
100
AcDb2dVertex
 10
20.81477609906665
 20
30.15178416368517
 30
0.0
  0
VERTEX
  5
EB7
330
EB0
100
AcDbEntity
  8
GAIKEI
  6
Continuous
 62
     1
370
     0
100
AcDbVertex
100
AcDb2dVertex
 10
20.81889609906659
 20
31.37735176368514
 30
0.0
  0
VERTEX
  5
EB8
330
EB0
100
AcDbEntity
  8
GAIKEI
  6
Continuous
 62
     1
370
     0
100
AcDbVertex
100
AcDb2dVertex
 10
20.83982489906657
 20
33.47527656368513
 30
0.0
  0
VERTEX
  5
EB9
330
EB0
100
AcDbEntity
  8
GAIKEI
  6
Continuous
 62
     1
370
     0
100
AcDbVertex
100
AcDb2dVertex
 10
20.86133369906656
 20
34.92380576368518
 30
0.0
  0
SEQEND
  5
EBA
330
EB0
100
AcDbEntity
  8
GAIKEI
  6
Continuous
 62
     1
370
     0
  0
POLYLINE
  5
EBB
330
2
100
AcDbEntity
  8
GAIKEI
  6
Continuous
 62
     1
370
    13
100
AcDb2dPolyline
 66
     1
 10
0.0
 20
0.0
 30
0.0
  0
VERTEX
  5
EBC
330
EBB
100
AcDbEntity
  8
GAIKEI
  6
Continuous
 62
     1
370
     0
100
AcDbVertex
100
AcDb2dVertex
 10
20.84314529906658
 20
22.79267776368519
 30
0.0
  0
VERTEX
  5
EBD
330
EBB
100
AcDbEntity
  8
GAIKEI
  6
Continuous
 62
     1
370
     0
100
AcDbVertex
100
AcDb2dVertex
 10
20.85215409906664
 20
22.69326376368517
 30
0.0
  0
VERTEX
  5
EBE
330
EBB
100
AcDbEntity
  8
GAIKEI
  6
Continuous
 62
     1
370
     0
100
AcDbVertex
100
AcDb2dVertex
 10
20.87630569906662
 20
22.59610176368514
 30
0.0
  0
VERTEX
  5
EBF
330
EBB
100
AcDbEntity
  8
GAIKEI
  6
Continuous
 62
     1
370
     0
100
AcDbVertex
100
AcDb2dVertex
 10
20.91516689906666
 20
22.50327336368511
 30
0.0
  0
VERTEX
  5
EC0
330
EBB
100
AcDbEntity
  8
GAIKEI
  6
Continuous
 62
     1
370
     0
100
AcDbVertex
100
AcDb2dVertex
 10
20.96804129906661
 20
22.41685976368509
 30
0.0
  0
VERTEX
  5
EC1
330
EBB
100
AcDbEntity
  8
GAIKEI
  6
Continuous
 62
     1
370
     0
100
AcDbVertex
100
AcDb2dVertex
 10
20.99993249906663
 20
22.37611296368513
 30
0.0
  0
VERTEX
  5
EC2
330
EBB
100
AcDbEntity
  8
GAIKEI
  6
Continuous
 62
     1
370
     0
100
AcDbVertex
100
AcDb2dVertex
 10
21.03503369906662
 20
22.33778896368514
 30
0.0
  0
VERTEX
  5
EC3
330
EBB
100
AcDbEntity
  8
GAIKEI
  6
Continuous
 62
     1
370
     0
100
AcDbVertex
100
AcDb2dVertex
 10
21.07315009906665
 20
22.30217496368513
 30
0.0
  0
VERTEX
  5
EC4
330
EBB
100
AcDbEntity
  8
GAIKEI
  6
Continuous
 62
     1
370
     0
100
AcDbVertex
100
AcDb2dVertex
 10
21.11408649906662
 20
22.26949056368514
 30
0.0
  0
VERTEX
  5
EC5
330
EBB
100
AcDbEntity
  8
GAIKEI
  6
Continuous
 62
     1
370
     0
100
AcDbVertex
100
AcDb2dVertex
 10
21.17268009906661
 20
22.23087976368512
 30
0.0
  0
VERTEX
  5
EC6
330
EBB
100
AcDbEntity
  8
GAIKEI
  6
Continuous
 62
     1
370
     0
100
AcDbVertex
100
AcDb2dVertex
 10
21.23527769906662
 20
22.1984333636851
 30
0.0
  0
VERTEX
  5
EC7
330
EBB
100
AcDbEntity
  8
GAIKEI
  6
Continuous
 62
     1
370
     0
100
AcDbVertex
100
AcDb2dVertex
 10
21.30117729906658
 20
22.17262176368521
 30
0.0
  0
VERTEX
  5
EC8
330
EBB
100
AcDbEntity
  8
GAIKEI
  6
Continuous
 62
     1
370
     0
100
AcDbVertex
100
AcDb2dVertex
 10
21.36962249906662
 20
22.15384096368516
 30
0.0
  0
VERTEX
  5
EC9
330
EBB
100
AcDbEntity
  8
GAIKEI
  6
Continuous
 62
     1
370
     0
100
AcDbVertex
100
AcDb2dVertex
 10
21.43973329906657
 20
22.14238496368509
 30
0.0
  0
VERTEX
  5
ECA
330
EBB
100
AcDbEntity
  8
GAIKEI
  6
Continuous
 62
     1
370
     0
100
AcDbVertex
100
AcDb2dVertex
 10
21.51063169906661
 20
22.13844176368511
 30
0.0
  0
SEQEND
  5
ECB
330
EBB
100
AcDbEntity
  8
GAIKEI
  6
Continuous
 62
     1
370
     0
  0
LINE
  5
ECC
330
2
100
AcDbEntity
  8
GAIKEI
  6
Continuous
 62
     1
370
    13
100
AcDbLine
 10
21.51063169906661
 20
22.13844176368511
 30
0.0
 11
23.1310052990666
 21
22.13486536368518
 31
0.0
  0
POLYLINE
  5
ECD
330
2
100
AcDbEntity
  8
GAIKEI
  6
Continuous
 62
     1
370
    13
100
AcDb2dPolyline
 66
     1
 10
0.0
 20
0.0
 30
0.0
  0
VERTEX
  5
ECE
330
ECD
100
AcDbEntity
  8
GAIKEI
  6
Continuous
 62
     1
370
     0
100
AcDbVertex
100
AcDb2dVertex
 10
23.1310052990666
 20
22.13486536368518
 30
0.0
  0
VERTEX
  5
ECF
330
ECD
100
AcDbEntity
  8
GAIKEI
  6
Continuous
 62
     1
370
     0
100
AcDbVertex
100
AcDb2dVertex
 10
23.21735809906659
 20
22.14024256368518
 30
0.0
  0
VERTEX
  5
ED0
330
ECD
100
AcDbEntity
  8
GAIKEI
  6
Continuous
 62
     1
370
     0
100
AcDbVertex
100
AcDb2dVertex
 10
23.30194049906663
 20
22.15655096368513
 30
0.0
  0
VERTEX
  5
ED1
330
ECD
100
AcDbEntity
  8
GAIKEI
  6
Continuous
 62
     1
370
     0
100
AcDbVertex
100
AcDb2dVertex
 10
23.38326369906656
 20
22.18331496368509
 30
0.0
  0
VERTEX
  5
ED2
330
ECD
100
AcDbEntity
  8
GAIKEI
  6
Continuous
 62
     1
370
     0
100
AcDbVertex
100
AcDb2dVertex
 10
23.4600580990666
 20
22.2198809636852
 30
0.0
  0
VERTEX
  5
ED3
330
ECD
100
AcDbEntity
  8
GAIKEI
  6
Continuous
 62
     1
370
     0
100
AcDbVertex
100
AcDb2dVertex
 10
23.53113969906656
 20
22.26546816368509
 30
0.0
  0
VERTEX
  5
ED4
330
ECD
100
AcDbEntity
  8
GAIKEI
  6
Continuous
 62
     1
370
     0
100
AcDbVertex
100
AcDb2dVertex
 10
23.5716304990666
 20
22.2976581636851
 30
0.0
  0
VERTEX
  5
ED5
330
ECD
100
AcDbEntity
  8
GAIKEI
  6
Continuous
 62
     1
370
     0
100
AcDbVertex
100
AcDb2dVertex
 10
23.60937449906657
 20
22.33273496368517
 30
0.0
  0
VERTEX
  5
ED6
330
ECD
100
AcDbEntity
  8
GAIKEI
  6
Continuous
 62
     1
370
     0
100
AcDbVertex
100
AcDb2dVertex
 10
23.67589049906655
 20
22.41068296368516
 30
0.0
  0
VERTEX
  5
ED7
330
ECD
100
AcDbEntity
  8
GAIKEI
  6
Continuous
 62
     1
370
     0
100
AcDbVertex
100
AcDb2dVertex
 10
23.72935729906658
 20
22.4975057636851
 30
0.0
  0
VERTEX
  5
ED8
330
ECD
100
AcDbEntity
  8
GAIKEI
  6
Continuous
 62
     1
370
     0
100
AcDbVertex
100
AcDb2dVertex
 10
23.76867609906662
 20
22.59128016368513
 30
0.0
  0
VERTEX
  5
ED9
330
ECD
100
AcDbEntity
  8
GAIKEI
  6
Continuous
 62
     1
370
     0
100
AcDbVertex
100
AcDb2dVertex
 10
23.79251649906655
 20
22.68739816368517
 30
0.0
  0
VERTEX
  5
EDA
330
ECD
100
AcDbEntity
  8
GAIKEI
  6
Continuous
 62
     1
370
     0
100
AcDbVertex
100
AcDb2dVertex
 10
23.80145209906664
 20
22.7862261636852
 30
0.0
  0
SEQEND
  5
EDB
330
ECD
100
AcDbEntity
  8
GAIKEI
  6
Continuous
 62
     1
370
     0
  0
LINE
  5
EDC
330
2
100
AcDbEntity
  8
GAIKEI
  6
Continuous
 62
     7
370
    40
100
AcDbLine
 10
19.74531809906659
 20
14.01310616368514
 30
0.0
 11
19.74763729906658
 21
14.00132656368518
 31
0.0
  0
ARC
  5
EDD
330
2
100
AcDbEntity
  8
GAIKEI
  6
Continuous
 62
     7
370
    13
100
AcDbCircle
 10
19.26235289906663
 20
16.48980896368513
 30
0.0
 40
0.0999576
100
AcDbArc
 50
192.1320780000008
 51
201.139731000002
  0
LINE
  5
EDE
330
2
100
AcDbEntity
  8
GAIKEI
  6
Continuous
 62
     7
370
    13
100
AcDbLine
 10
19.74326729906659
 20
14.03434016368519
 30
0.0
 11
19.74763729906658
 21
14.00132656368518
 31
0.0
  0
ARC
  5
EDF
330
2
100
AcDbEntity
  8
GAIKEI
  6
Continuous
 62
     7
370
    13
100
AcDbCircle
 10
82.23029729906659
 20
30.25181456368509
 30
0.0
 40
64.5463252
100
AcDbArc
 50
193.4828289999987
 51
193.9286499999998
  0
ARC
  5
EE0
330
2
100
AcDbEntity
  8
GAIKEI
  6
Continuous
 62
     7
370
    13
100
AcDbCircle
 10
80.88135929906661
 20
29.93241176368517
 30
0.0
 40
63.1601008
100
AcDbArc
 50
192.8422260000001
 51
193.4863810000003
  0
POLYLINE
  5
EE1
330
2
100
AcDbEntity
  8
GAIKEI
  6
Continuous
 62
     7
370
    13
100
AcDb2dPolyline
 66
     1
 10
0.0
 20
0.0
 30
0.0
  0
VERTEX
  5
EE2
330
EE1
100
AcDbEntity
  8
GAIKEI
  6
Continuous
 62
     7
370
     0
100
AcDbVertex
100
AcDb2dVertex
 10
19.16462369906662
 20
16.46880096368508
 30
0.0
  0
VERTEX
  5
EE3
330
EE1
100
AcDbEntity
  8
GAIKEI
  6
Continuous
 62
     7
370
     0
100
AcDbVertex
100
AcDb2dVertex
 10
19.1647944990666
 20
16.46852016368515
 30
0.0
  0
VERTEX
  5
EE4
330
EE1
100
AcDbEntity
  8
GAIKEI
  6
Continuous
 62
     7
370
     0
100
AcDbVertex
100
AcDb2dVertex
 10
19.1652520990666
 20
16.46742736368512
 30
0.0
  0
VERTEX
  5
EE5
330
EE1
100
AcDbEntity
  8
GAIKEI
  6
Continuous
 62
     7
370
     0
100
AcDbVertex
100
AcDb2dVertex
 10
19.18212249906662
 20
16.40345056368514
 30
0.0
  0
VERTEX
  5
EE6
330
EE1
100
AcDbEntity
  8
GAIKEI
  6
Continuous
 62
     7
370
     0
100
AcDbVertex
100
AcDb2dVertex
 10
19.21462369906658
 20
16.26812336368513
 30
0.0
  0
VERTEX
  5
EE7
330
EE1
100
AcDbEntity
  8
GAIKEI
  6
Continuous
 62
     7
370
     0
100
AcDbVertex
100
AcDb2dVertex
 10
19.30116529906661
 20
15.89400816368513
 30
0.0
  0
SEQEND
  5
EE8
330
EE1
100
AcDbEntity
  8
GAIKEI
  6
Continuous
 62
     7
370
     0
  0
LINE
  5
EE9
330
2
100
AcDbEntity
  8
GAIKEI
  6
Continuous
 62
     7
370
    13
100
AcDbLine
 10
19.16071729906662
 20
16.47403776368512
 30
0.0
 11
19.16462369906662
 21
16.46880096368508
 31
0.0
  0
LINE
  5
EEA
330
2
100
AcDbEntity
  8
GAIKEI
  6
Continuous
 62
     1
370
    13
100
AcDbLine
 10
20.10555969906659
 20
13.18820376368521
 30
0.0
 11
20.10555969906659
 21
41.48778896368511
 31
0.0
  0
LINE
  5
EEB
330
2
100
AcDbEntity
  8
GAIKEI
  6
Continuous
 62
     1
370
    13
100
AcDbLine
 10
19.92478569906666
 20
13.33531696368513
 30
0.0
 11
19.92478569906666
 21
41.3586873636851
 31
0.0
  0
LINE
  5
EEC
330
2
100
AcDbEntity
  8
GAIKEI
  6
Continuous
 62
     1
370
    13
100
AcDbLine
 10
19.92478569906666
 20
43.18579896368518
 30
0.0
 11
19.92478569906666
 21
41.3586873636851
 31
0.0
  0
LINE
  5
EED
330
2
100
AcDbEntity
  8
GAIKEI
  6
Continuous
 62
     1
370
    13
100
AcDbLine
 10
20.10555969906659
 20
43.33290616368512
 30
0.0
 11
20.10555969906659
 21
41.48778896368511
 31
0.0
  0
LINE
  5
EEE
330
2
100
AcDbEntity
  8
GAIKEI
  6
Continuous
 62
     1
370
    40
100
AcDbLine
 10
22.1494136990666
 20
23.72055256368512
 30
0.0
 11
21.97621409906663
 21
23.42055256368516
 31
0.0
  0
LINE
  5
EEF
330
2
100
AcDbEntity
  8
GAIKEI
  6
Continuous
 62
     1
370
    40
100
AcDbLine
 10
22.49582489906663
 20
23.72055256368512
 30
0.0
 11
22.1494136990666
 21
23.72055256368512
 31
0.0
  0
LINE
  5
EF0
330
2
100
AcDbEntity
  8
GAIKEI
  6
Continuous
 62
     1
370
    40
100
AcDbLine
 10
22.66903009906662
 20
23.42055256368516
 30
0.0
 11
22.49582489906663
 21
23.72055256368512
 31
0.0
  0
LINE
  5
EF1
330
2
100
AcDbEntity
  8
GAIKEI
  6
Continuous
 62
     1
370
    40
100
AcDbLine
 10
22.49582489906663
 20
23.12055256368509
 30
0.0
 11
22.66903009906662
 21
23.42055256368516
 31
0.0
  0
LINE
  5
EF2
330
2
100
AcDbEntity
  8
GAIKEI
  6
Continuous
 62
     1
370
    40
100
AcDbLine
 10
22.1494136990666
 20
23.12055256368509
 30
0.0
 11
22.49582489906663
 21
23.12055256368509
 31
0.0
  0
LINE
  5
EF3
330
2
100
AcDbEntity
  8
GAIKEI
  6
Continuous
 62
     1
370
    40
100
AcDbLine
 10
21.97621409906663
 20
23.42055256368516
 30
0.0
 11
22.1494136990666
 21
23.12055256368509
 31
0.0
  0
DIMENSION
  5
EF4
330
2
100
AcDbEntity
  8
SUNPO
100
AcDbDimension
  2
*D5
 10
33.1630625790666
 20
51.70499120151524
 30
0.0
 11
24.36284213906657
 21
53.45499120151524
 31
0.0
 70
    33
  1
88
 71
     5
 42
17.60044088000006
  3
STANDARD
100
AcDbAlignedDimension
 13
15.56262169906654
 23
43.70499120151523
 33
0.0
 14
33.1630625790666
 24
43.70499120151523
 34
0.0
1001
ACAD
1000
DSTYLE
1002
{
1070
    40
1040
1.0
1070
   140
1040
2.5
1070
   147
1040
0.5
1070
   172
1070
     1
1070
   279
1070
     0
1070
   288
1070
     0
1002
}
  0
DIMENSION
  5
EF5
330
2
100
AcDbEntity
  8
SUNPO
100
AcDbDimension
  2
*D6
 10
-0.3148686872187904
 20
51.70499120151541
 30
0.0
 11
-19.46487218278997
 21
53.45499120151541
 31
0.0
 70
    33
  1
191.5
 71
     5
 42
38.30000699114237
  3
STANDARD
100
AcDbAlignedDimension
 13
-38.61487567836116
 23
43.70499120151535
 33
0.0
 14
-0.3148686872187909
 24
43.70499120151535
 34
0.0
1001
ACAD
1000
DSTYLE
1002
{
1070
    40
1040
1.0
1070
   140
1040
2.5
1070
   147
1040
0.5
1070
   172
1070
     1
1070
   279
1070
     0
1070
   288
1070
     0
1002
}
  0
ARC
  5
EF6
330
2
100
AcDbEntity
  8
GAIKEI
  6
Continuous
 62
     7
370
    40
100
AcDbCircle
 10
-36.00388467467496
 20
31.21246010705667
 30
0.0
 40
0.40001122003006
100
AcDbArc
 50
286.9903579999996
 51
349.8361919999994
  0
LINE
  5
EF7
330
2
100
AcDbEntity
  8
GAIKEI
  6
Continuous
 62
     7
370
    40
100
AcDbLine
 10
-37.92750486015348
 20
30.20607489773872
 30
0.0
 11
-35.88699934677084
 21
30.82991892464006
 31
0.0
  0
ARC
  5
EF8
330
2
100
AcDbEntity
  8
GAIKEI
  6
Continuous
 62
     7
370
    40
100
AcDbCircle
 10
-37.75210966661393
 20
29.63253773099254
 30
0.0
 40
0.5997586235771802
100
AcDbArc
 50
107.0045590000008
 51
158.2901869999999
  0
ARC
  5
EF9
330
2
100
AcDbEntity
  8
GAIKEI
  6
Continuous
 62
     7
370
    40
100
AcDbCircle
 10
-34.3052461248451
 20
28.26055496368517
 30
0.0
 40
4.30963275359624
100
AcDbArc
 50
158.2947840000022
 51
201.7052159999978
  0
ARC
  5
EFA
330
2
100
AcDbEntity
  8
GAIKEI
  6
Continuous
 62
     7
370
    40
100
AcDbCircle
 10
-37.75210966661393
 20
26.8885661962274
 30
0.0
 40
0.5997578235571401
100
AcDbArc
 50
201.7097390000006
 51
252.9954469999988
  0
LINE
  5
EFB
330
2
100
AcDbEntity
  8
GAIKEI
  6
Continuous
 62
     7
370
    40
100
AcDbLine
 10
-35.88699934677084
 20
25.69119140274015
 30
0.0
 11
-37.92750486015348
 21
26.3150410297819
 31
0.0
  0
ARC
  5
EFC
330
2
100
AcDbEntity
  8
GAIKEI
  6
Continuous
 62
     7
370
    40
100
AcDbCircle
 10
-36.00388467467496
 20
25.30865622047392
 30
0.0
 40
0.40001122003006
100
AcDbArc
 50
10.16331600000024
 51
73.00921200000029
  0
ARC
  5
EFD
330
2
100
AcDbEntity
  8
GAIKEI
  6
Continuous
 62
     1
370
    13
100
AcDbCircle
 10
-19.69373491565784
 20
28.2576496909098
 30
0.0
 40
15.83697030616868
100
AcDbArc
 50
177.8989699999992
 51
179.989484
  0
LINE
  5
EFE
330
2
100
AcDbEntity
  8
GAIKEI
  6
Continuous
 62
     1
370
    13
100
AcDbLine
 10
-35.52007135545489
 20
28.83825503470936
 30
0.0
 11
-35.51690967625678
 21
28.91906745900994
 31
0.0
  0
ARC
  5
EFF
330
2
100
AcDbEntity
  8
GAIKEI
  6
Continuous
 62
     1
370
    13
100
AcDbCircle
 10
-19.59165715867414
 20
28.25995694870525
 30
0.0
 40
15.93888805914444
100
AcDbArc
 50
171.6577710000002
 51
177.6300280000003
  0
ARC
  5
F00
330
2
100
AcDbEntity
  8
GAIKEI
  6
Continuous
 62
     1
370
    13
100
AcDbCircle
 10
-49.27670235042922
 20
32.60686743608537
 30
0.0
 40
14.06274506293964
100
AcDbArc
 50
351.6820499999994
 51
353.6428060000001
  0
LINE
  5
F01
330
2
100
AcDbEntity
  8
GAIKEI
  6
Continuous
 62
     1
370
    13
100
AcDbLine
 10
-35.30039425268126
 20
31.04973643093067
 30
0.0
 11
-35.61019801307111
 21
31.14187713899762
 31
0.0
  0
LINE
  5
F02
330
2
100
AcDbEntity
  8
GAIKEI
  6
Continuous
 62
     1
370
    13
100
AcDbLine
 10
-35.61019801307111
 20
25.3792327883726
 30
0.0
 11
-35.30037585222033
 21
25.47130069461591
 31
0.0
  0
LINE
  5
F03
330
2
100
AcDbEntity
  8
GAIKEI
  6
Continuous
 62
     1
370
    13
100
AcDbLine
 10
-35.37072681446784
 20
28.14722212476861
 30
0.0
 11
-35.37112962455797
 21
28.26055496368517
 31
0.0
  0
ARC
  5
F04
330
2
100
AcDbEntity
  8
GAIKEI
  6
Continuous
 62
     1
370
    13
100
AcDbCircle
 10
-50.48256775660092
 20
23.76849324035763
 30
0.0
 40
15.27737188857946
100
AcDbArc
 50
6.399458999999834
 51
7.320686999999822
  0
ARC
  5
F05
330
2
100
AcDbEntity
  8
GAIKEI
  6
Continuous
 62
     1
370
    13
100
AcDbCircle
 10
-49.14748791368868
 20
23.93100331113303
 30
0.0
 40
13.9324529992052
100
AcDbArc
 50
7.357420000000623
 51
8.326638000000132
  0
ARC
  5
F06
330
2
100
AcDbEntity
  8
GAIKEI
  6
Continuous
 62
     1
370
    13
100
AcDbCircle
 10
-19.59168755943563
 20
28.26115337867506
 30
0.0
 40
15.93885885841298
100
AcDbArc
 50
182.3659130000001
 51
188.3422309999994
  0
LINE
  5
F07
330
2
100
AcDbEntity
  8
GAIKEI
  6
Continuous
 62
     1
370
    13
100
AcDbLine
 10
-35.51695847747919
 20
27.60316569649646
 30
0.0
 11
-35.52005295499396
 21
27.6824888834926
 31
0.0
  0
ARC
  5
F08
330
2
100
AcDbEntity
  8
GAIKEI
  6
Continuous
 62
     1
370
    13
100
AcDbCircle
 10
-19.68567791383498
 20
28.26363144074898
 30
0.0
 40
15.84503010806166
100
AcDbArc
 50
180.0111219999998
 51
182.1018799999995
  0
POLYLINE
  5
F09
330
2
100
AcDbEntity
  8
GAIKEI
  6
Continuous
 62
     1
370
    13
100
AcDb2dPolyline
 66
     1
 10
0.0
 20
0.0
 30
0.0
  0
VERTEX
  5
F0A
330
F09
100
AcDbEntity
  8
GAIKEI
  6
Continuous
 62
     1
370
     0
100
AcDbVertex
100
AcDb2dVertex
 10
-35.60154299626834
 20
27.67876559022634
 30
0.0
  0
VERTEX
  5
F0B
330
F09
100
AcDbEntity
  8
GAIKEI
  6
Continuous
 62
     1
370
     0
100
AcDbVertex
100
AcDb2dVertex
 10
-35.60128658984548
 20
28.13270776119291
 30
0.0
  0
VERTEX
  5
F0C
330
F09
100
AcDbEntity
  8
GAIKEI
  6
Continuous
 62
     1
370
     0
100
AcDbVertex
100
AcDb2dVertex
 10
-35.60175060146867
 20
28.61766830915039
 30
0.0
  0
VERTEX
  5
F0D
330
F09
100
AcDbEntity
  8
GAIKEI
  6
Continuous
 62
     1
370
     0
100
AcDbVertex
100
AcDb2dVertex
 10
-35.60142099321229
 20
28.84197832797563
 30
0.0
  0
SEQEND
  5
F0E
330
F09
100
AcDbEntity
  8
GAIKEI
  6
Continuous
 62
     1
370
     0
  0
ARC
  5
F0F
330
2
100
AcDbEntity
  8
GAIKEI
  6
Continuous
 62
     1
370
    13
100
AcDbCircle
 10
-37.07976002467729
 20
28.84881449921735
 30
0.0
 40
1.4783530318158
100
AcDbArc
 50
359.7351579999996
 51
2.882347999999227
  0
ARC
  5
F10
330
2
100
AcDbEntity
  8
GAIKEI
  6
Continuous
 62
     1
370
    13
100
AcDbCircle
 10
-35.430811119542
 20
30.27426500585816
 30
0.0
 40
0.30612446822584
100
AcDbArc
 50
76.98833000000021
 51
82.02531499999887
  0
ARC
  5
F11
330
2
100
AcDbEntity
  8
GAIKEI
  6
Continuous
 62
     1
370
    13
100
AcDbCircle
 10
-35.72426967049455
 20
31.13573698519062
 30
0.0
 40
0.6145285935556601
100
AcDbArc
 50
286.6097379999983
 51
296.7205559999987
  0
ARC
  5
F12
330
2
100
AcDbEntity
  8
GAIKEI
  6
Continuous
 62
     1
370
    13
100
AcDbCircle
 10
-240.3462593229377
 20
716.8590539239975
 30
0.0
 40
716.2168239820241
100
AcDbArc
 50
286.4282190000009
 51
286.6152640000008
  0
ARC
  5
F13
330
2
100
AcDbEntity
  8
GAIKEI
  6
Continuous
 62
     1
370
    13
100
AcDbCircle
 10
-37.67840782042902
 20
29.49787835785978
 30
0.0
 40
0.3999200177455
100
AcDbArc
 50
106.2274270000008
 51
158.9989389999992
  0
ARC
  5
F14
330
2
100
AcDbEntity
  8
GAIKEI
  6
Continuous
 62
     1
370
    13
100
AcDbCircle
 10
-34.41918297889186
 20
28.2605429633845
 30
0.0
 40
3.885964540973359
100
AcDbArc
 50
159.1894589999973
 51
200.8103419999977
  0
ARC
  5
F15
330
2
100
AcDbEntity
  8
GAIKEI
  6
Continuous
 62
     1
370
    13
100
AcDbCircle
 10
-37.67840782042902
 20
27.02323756966084
 30
0.0
 40
0.3999220177956
100
AcDbArc
 50
201.0016279999994
 51
253.7728870000003
  0
ARC
  5
F16
330
2
100
AcDbEntity
  8
GAIKEI
  6
Continuous
 62
     1
370
    13
100
AcDbCircle
 10
-240.3424016263048
 20
-660.3249552712679
 30
0.0
 40
716.2032524420657
100
AcDbArc
 50
73.38473599999915
 51
73.57178099999909
  0
ARC
  5
F17
330
2
100
AcDbEntity
  8
GAIKEI
  6
Continuous
 62
     1
370
    13
100
AcDbCircle
 10
-35.72422086927213
 20
25.38547694478481
 30
0.0
 40
0.61441819079014
100
AcDbArc
 50
63.27938899999988
 51
73.39190799999973
  0
ARC
  5
F18
330
2
100
AcDbEntity
  8
GAIKEI
  6
Continuous
 62
     1
370
    13
100
AcDbCircle
 10
-35.43084192031347
 20
26.24691812334581
 30
0.0
 40
0.30620247017974
100
AcDbArc
 50
277.9787630000003
 51
283.0144910000005
  0
ARC
  5
F19
330
2
100
AcDbEntity
  8
GAIKEI
  6
Continuous
 62
     1
370
    13
100
AcDbCircle
 10
-37.07911920862534
 20
27.67194181929526
 30
0.0
 40
1.477588212657559
100
AcDbArc
 50
357.1740140000002
 51
0.2648149999998144
  0
LINE
  5
F1A
330
2
100
AcDbEntity
  8
GAIKEI
  6
Continuous
 62
     1
370
    13
100
AcDbLine
 10
-35.44795034886886
 20
30.58683403551615
 30
0.0
 11
-35.38832965540791
 21
30.57750780189983
 31
0.0
  0
POLYLINE
  5
F1B
330
2
100
AcDbEntity
  8
GAIKEI
  6
Continuous
 62
     1
370
    13
100
AcDb2dPolyline
 66
     1
 10
0.0
 20
0.0
 30
0.0
  0
VERTEX
  5
F1C
330
F1B
100
AcDbEntity
  8
GAIKEI
  6
Continuous
 62
     1
370
     0
100
AcDbVertex
100
AcDb2dVertex
 10
-35.60327663969497
 20
28.92315716145444
 30
0.0
  0
VERTEX
  5
F1D
330
F1B
100
AcDbEntity
  8
GAIKEI
  6
Continuous
 62
     1
370
     0
100
AcDbVertex
100
AcDb2dVertex
 10
-35.61317048752972
 20
28.97684490629874
 30
0.0
  0
VERTEX
  5
F1E
330
F1B
100
AcDbEntity
  8
GAIKEI
  6
Continuous
 62
     1
370
     0
100
AcDbVertex
100
AcDb2dVertex
 10
-35.62753244728777
 20
29.0303498465639
 30
0.0
  0
VERTEX
  5
F1F
330
F1B
100
AcDbEntity
  8
GAIKEI
  6
Continuous
 62
     1
370
     0
100
AcDbVertex
100
AcDb2dVertex
 10
-35.64669212722572
 20
29.08362238100753
 30
0.0
  0
VERTEX
  5
F20
330
F1B
100
AcDbEntity
  8
GAIKEI
  6
Continuous
 62
     1
370
     0
100
AcDbVertex
100
AcDb2dVertex
 10
-35.67017271539976
 20
29.13467365980998
 30
0.0
  0
VERTEX
  5
F21
330
F1B
100
AcDbEntity
  8
GAIKEI
  6
Continuous
 62
     1
370
     0
100
AcDbVertex
100
AcDb2dVertex
 10
-35.69706538904438
 20
29.18231885329212
 30
0.0
  0
VERTEX
  5
F22
330
F1B
100
AcDbEntity
  8
GAIKEI
  6
Continuous
 62
     1
370
     0
100
AcDbVertex
100
AcDb2dVertex
 10
-35.72681493425182
 20
29.22647275931976
 30
0.0
  0
VERTEX
  5
F23
330
F1B
100
AcDbEntity
  8
GAIKEI
  6
Continuous
 62
     1
370
     0
100
AcDbVertex
100
AcDb2dVertex
 10
-35.78893169023752
 20
29.29996100015419
 30
0.0
  0
VERTEX
  5
F24
330
F1B
100
AcDbEntity
  8
GAIKEI
  6
Continuous
 62
     1
370
     0
100
AcDbVertex
100
AcDb2dVertex
 10
-35.85508334729502
 20
29.35911768199193
 30
0.0
  0
VERTEX
  5
F25
330
F1B
100
AcDbEntity
  8
GAIKEI
  6
Continuous
 62
     1
370
     0
100
AcDbVertex
100
AcDb2dVertex
 10
-35.93070764163611
 20
29.41029096385054
 30
0.0
  0
VERTEX
  5
F26
330
F1B
100
AcDbEntity
  8
GAIKEI
  6
Continuous
 62
     1
370
     0
100
AcDbVertex
100
AcDb2dVertex
 10
-36.02008388045488
 20
29.45428606590017
 30
0.0
  0
VERTEX
  5
F27
330
F1B
100
AcDbEntity
  8
GAIKEI
  6
Continuous
 62
     1
370
     0
100
AcDbVertex
100
AcDb2dVertex
 10
-36.07012153386666
 20
29.47241411999661
 30
0.0
  0
VERTEX
  5
F28
330
F1B
100
AcDbEntity
  8
GAIKEI
  6
Continuous
 62
     1
370
     0
100
AcDbVertex
100
AcDb2dVertex
 10
-36.12208843560495
 20
29.48672087837187
 30
0.0
  0
VERTEX
  5
F29
330
F1B
100
AcDbEntity
  8
GAIKEI
  6
Continuous
 62
     1
370
     0
100
AcDbVertex
100
AcDb2dVertex
 10
-36.17603258687211
 20
29.49710953860128
 30
0.0
  0
VERTEX
  5
F2A
330
F1B
100
AcDbEntity
  8
GAIKEI
  6
Continuous
 62
     1
370
     0
100
AcDbVertex
100
AcDb2dVertex
 10
-36.23039194854005
 20
29.50333529455256
 30
0.0
  0
VERTEX
  5
F2B
330
F1B
100
AcDbEntity
  8
GAIKEI
  6
Continuous
 62
     1
370
     0
100
AcDbVertex
100
AcDb2dVertex
 10
-36.33227410062398
 20
29.50426291778896
 30
0.0
  0
SEQEND
  5
F2C
330
F1B
100
AcDbEntity
  8
GAIKEI
  6
Continuous
 62
     1
370
     0
  0
POLYLINE
  5
F2D
330
2
100
AcDbEntity
  8
GAIKEI
  6
Continuous
 62
     1
370
    13
100
AcDb2dPolyline
 66
     1
 10
0.0
 20
0.0
 30
0.0
  0
VERTEX
  5
F2E
330
F2D
100
AcDbEntity
  8
GAIKEI
  6
Continuous
 62
     1
370
     0
100
AcDbVertex
100
AcDb2dVertex
 10
-36.33227410062398
 20
29.50426291778896
 30
0.0
  0
VERTEX
  5
F2F
330
F2D
100
AcDbEntity
  8
GAIKEI
  6
Continuous
 62
     1
370
     0
100
AcDbVertex
100
AcDb2dVertex
 10
-36.50991535042579
 20
29.49477788019473
 30
0.0
  0
VERTEX
  5
F30
330
F2D
100
AcDbEntity
  8
GAIKEI
  6
Continuous
 62
     1
370
     0
100
AcDbVertex
100
AcDb2dVertex
 10
-36.70226656870318
 20
29.48462122577686
 30
0.0
  0
VERTEX
  5
F31
330
F2D
100
AcDbEntity
  8
GAIKEI
  6
Continuous
 62
     1
370
     0
100
AcDbVertex
100
AcDb2dVertex
 10
-36.90634888083696
 20
29.46939884446576
 30
0.0
  0
VERTEX
  5
F32
330
F2D
100
AcDbEntity
  8
GAIKEI
  6
Continuous
 62
     1
370
     0
100
AcDbVertex
100
AcDb2dVertex
 10
-37.1669694092177
 20
29.43844086898796
 30
0.0
  0
VERTEX
  5
F33
330
F2D
100
AcDbEntity
  8
GAIKEI
  6
Continuous
 62
     1
370
     0
100
AcDbVertex
100
AcDb2dVertex
 10
-37.31580713750941
 20
29.41541789227685
 30
0.0
  0
SEQEND
  5
F34
330
F2D
100
AcDbEntity
  8
GAIKEI
  6
Continuous
 62
     1
370
     0
  0
POLYLINE
  5
F35
330
2
100
AcDbEntity
  8
GAIKEI
  6
Continuous
 62
     1
370
    13
100
AcDb2dPolyline
 66
     1
 10
0.0
 20
0.0
 30
0.0
  0
VERTEX
  5
F36
330
F35
100
AcDbEntity
  8
GAIKEI
  6
Continuous
 62
     1
370
     0
100
AcDbVertex
100
AcDb2dVertex
 10
-37.31580713750941
 20
29.41541789227685
 30
0.0
  0
VERTEX
  5
F37
330
F35
100
AcDbEntity
  8
GAIKEI
  6
Continuous
 62
     1
370
     0
100
AcDbVertex
100
AcDb2dVertex
 10
-37.38467486260276
 20
29.4006959235007
 30
0.0
  0
VERTEX
  5
F38
330
F35
100
AcDbEntity
  8
GAIKEI
  6
Continuous
 62
     1
370
     0
100
AcDbVertex
100
AcDb2dVertex
 10
-37.45701547468968
 20
29.37729453731069
 30
0.0
  0
VERTEX
  5
F39
330
F35
100
AcDbEntity
  8
GAIKEI
  6
Continuous
 62
     1
370
     0
100
AcDbVertex
100
AcDb2dVertex
 10
-37.53049771537372
 20
29.3439317015926
 30
0.0
  0
VERTEX
  5
F3A
330
F35
100
AcDbEntity
  8
GAIKEI
  6
Continuous
 62
     1
370
     0
100
AcDbVertex
100
AcDb2dVertex
 10
-37.60086667807196
 20
29.30116943042455
 30
0.0
  0
VERTEX
  5
F3B
330
F35
100
AcDbEntity
  8
GAIKEI
  6
Continuous
 62
     1
370
     0
100
AcDbVertex
100
AcDb2dVertex
 10
-37.66656072366663
 20
29.24948373573031
 30
0.0
  0
VERTEX
  5
F3C
330
F35
100
AcDbEntity
  8
GAIKEI
  6
Continuous
 62
     1
370
     0
100
AcDbVertex
100
AcDb2dVertex
 10
-37.72550980030406
 20
29.19002184624728
 30
0.0
  0
VERTEX
  5
F3D
330
F35
100
AcDbEntity
  8
GAIKEI
  6
Continuous
 62
     1
370
     0
100
AcDbVertex
100
AcDb2dVertex
 10
-37.77664028109052
 20
29.12435860142429
 30
0.0
  0
VERTEX
  5
F3E
330
F35
100
AcDbEntity
  8
GAIKEI
  6
Continuous
 62
     1
370
     0
100
AcDbVertex
100
AcDb2dVertex
 10
-37.81861533253914
 20
29.05535047281396
 30
0.0
  0
VERTEX
  5
F3F
330
F35
100
AcDbEntity
  8
GAIKEI
  6
Continuous
 62
     1
370
     0
100
AcDbVertex
100
AcDb2dVertex
 10
-37.85179496366811
 20
28.98447469742015
 30
0.0
  0
VERTEX
  5
F40
330
F35
100
AcDbEntity
  8
GAIKEI
  6
Continuous
 62
     1
370
     0
100
AcDbVertex
100
AcDb2dVertex
 10
-37.87558075948732
 20
28.91824983852902
 30
0.0
  0
SEQEND
  5
F41
330
F35
100
AcDbEntity
  8
GAIKEI
  6
Continuous
 62
     1
370
     0
  0
POLYLINE
  5
F42
330
2
100
AcDbEntity
  8
GAIKEI
  6
Continuous
 62
     1
370
    13
100
AcDb2dPolyline
 66
     1
 10
0.0
 20
0.0
 30
0.0
  0
VERTEX
  5
F43
330
F42
100
AcDbEntity
  8
GAIKEI
  6
Continuous
 62
     1
370
     0
100
AcDbVertex
100
AcDb2dVertex
 10
-37.87558075948732
 20
28.91824983852902
 30
0.0
  0
VERTEX
  5
F44
330
F42
100
AcDbEntity
  8
GAIKEI
  6
Continuous
 62
     1
370
     0
100
AcDbVertex
100
AcDb2dVertex
 10
-37.91239208158788
 20
28.79256309015486
 30
0.0
  0
VERTEX
  5
F45
330
F42
100
AcDbEntity
  8
GAIKEI
  6
Continuous
 62
     1
370
     0
100
AcDbVertex
100
AcDb2dVertex
 10
-37.94404567449055
 20
28.66184701579923
 30
0.0
  0
VERTEX
  5
F46
330
F42
100
AcDbEntity
  8
GAIKEI
  6
Continuous
 62
     1
370
     0
100
AcDbVertex
100
AcDb2dVertex
 10
-37.96183172001986
 20
28.56769145726159
 30
0.0
  0
VERTEX
  5
F47
330
F42
100
AcDbEntity
  8
GAIKEI
  6
Continuous
 62
     1
370
     0
100
AcDbVertex
100
AcDb2dVertex
 10
-37.97516205393629
 20
28.47196185929519
 30
0.0
  0
VERTEX
  5
F48
330
F42
100
AcDbEntity
  8
GAIKEI
  6
Continuous
 62
     1
370
     0
100
AcDbVertex
100
AcDb2dVertex
 10
-37.98409187762286
 20
28.36706403167042
 30
0.0
  0
VERTEX
  5
F49
330
F42
100
AcDbEntity
  8
GAIKEI
  6
Continuous
 62
     1
370
     0
100
AcDbVertex
100
AcDb2dVertex
 10
-37.98717395482686
 20
28.26055496368517
 30
0.0
  0
SEQEND
  5
F4A
330
F42
100
AcDbEntity
  8
GAIKEI
  6
Continuous
 62
     1
370
     0
  0
POLYLINE
  5
F4B
330
2
100
AcDbEntity
  8
GAIKEI
  6
Continuous
 62
     1
370
    13
100
AcDb2dPolyline
 66
     1
 10
0.0
 20
0.0
 30
0.0
  0
VERTEX
  5
F4C
330
F4B
100
AcDbEntity
  8
GAIKEI
  6
Continuous
 62
     1
370
     0
100
AcDbVertex
100
AcDb2dVertex
 10
-37.98717395482686
 20
28.26055496368517
 30
0.0
  0
VERTEX
  5
F4D
330
F4B
100
AcDbEntity
  8
GAIKEI
  6
Continuous
 62
     1
370
     0
100
AcDbVertex
100
AcDb2dVertex
 10
-37.98489149765271
 20
28.16848745745185
 30
0.0
  0
VERTEX
  5
F4E
330
F4B
100
AcDbEntity
  8
GAIKEI
  6
Continuous
 62
     1
370
     0
100
AcDbVertex
100
AcDb2dVertex
 10
-37.97783572090998
 20
28.07419789555749
 30
0.0
  0
VERTEX
  5
F4F
330
F4B
100
AcDbEntity
  8
GAIKEI
  6
Continuous
 62
     1
370
     0
100
AcDbVertex
100
AcDb2dVertex
 10
-37.96548181145226
 20
27.97635584467557
 30
0.0
  0
VERTEX
  5
F50
330
F4B
100
AcDbEntity
  8
GAIKEI
  6
Continuous
 62
     1
370
     0
100
AcDbVertex
100
AcDb2dVertex
 10
-37.94784816974072
 20
27.87728136292193
 30
0.0
  0
VERTEX
  5
F51
330
F4B
100
AcDbEntity
  8
GAIKEI
  6
Continuous
 62
     1
370
     0
100
AcDbVertex
100
AcDb2dVertex
 10
-37.91562696261963
 20
27.74064474026031
 30
0.0
  0
VERTEX
  5
F52
330
F4B
100
AcDbEntity
  8
GAIKEI
  6
Continuous
 62
     1
370
     0
100
AcDbVertex
100
AcDb2dVertex
 10
-37.87558075948732
 20
27.60286048885129
 30
0.0
  0
SEQEND
  5
F53
330
F4B
100
AcDbEntity
  8
GAIKEI
  6
Continuous
 62
     1
370
     0
  0
POLYLINE
  5
F54
330
2
100
AcDbEntity
  8
GAIKEI
  6
Continuous
 62
     1
370
    13
100
AcDb2dPolyline
 66
     1
 10
0.0
 20
0.0
 30
0.0
  0
VERTEX
  5
F55
330
F54
100
AcDbEntity
  8
GAIKEI
  6
Continuous
 62
     1
370
     0
100
AcDbVertex
100
AcDb2dVertex
 10
-37.87558075948732
 20
27.60286048885129
 30
0.0
  0
VERTEX
  5
F56
330
F54
100
AcDbEntity
  8
GAIKEI
  6
Continuous
 62
     1
370
     0
100
AcDbVertex
100
AcDb2dVertex
 10
-37.85506024546135
 20
27.54475343330589
 30
0.0
  0
VERTEX
  5
F57
330
F54
100
AcDbEntity
  8
GAIKEI
  6
Continuous
 62
     1
370
     0
100
AcDbVertex
100
AcDb2dVertex
 10
-37.82848477976268
 20
27.48494353510555
 30
0.0
  0
VERTEX
  5
F58
330
F54
100
AcDbEntity
  8
GAIKEI
  6
Continuous
 62
     1
370
     0
100
AcDbVertex
100
AcDb2dVertex
 10
-37.79351710384435
 20
27.42241756886935
 30
0.0
  0
VERTEX
  5
F59
330
F54
100
AcDbEntity
  8
GAIKEI
  6
Continuous
 62
     1
370
     0
100
AcDbVertex
100
AcDb2dVertex
 10
-37.75049202609307
 20
27.36119163519808
 30
0.0
  0
VERTEX
  5
F5A
330
F54
100
AcDbEntity
  8
GAIKEI
  6
Continuous
 62
     1
370
     0
100
AcDbVertex
100
AcDb2dVertex
 10
-37.69758550081781
 20
27.30110733012393
 30
0.0
  0
VERTEX
  5
F5B
330
F54
100
AcDbEntity
  8
GAIKEI
  6
Continuous
 62
     1
370
     0
100
AcDbVertex
100
AcDb2dVertex
 10
-37.63622556378994
 20
27.24614355331582
 30
0.0
  0
VERTEX
  5
F5C
330
F54
100
AcDbEntity
  8
GAIKEI
  6
Continuous
 62
     1
370
     0
100
AcDbVertex
100
AcDb2dVertex
 10
-37.56508098166273
 20
27.1967467159561
 30
0.0
  0
VERTEX
  5
F5D
330
F54
100
AcDbEntity
  8
GAIKEI
  6
Continuous
 62
     1
370
     0
100
AcDbVertex
100
AcDb2dVertex
 10
-37.4872350316706
 20
27.15630970303422
 30
0.0
  0
VERTEX
  5
F5E
330
F54
100
AcDbEntity
  8
GAIKEI
  6
Continuous
 62
     1
370
     0
100
AcDbVertex
100
AcDb2dVertex
 10
-37.4040297474304
 20
27.12582213933988
 30
0.0
  0
VERTEX
  5
F5F
330
F54
100
AcDbEntity
  8
GAIKEI
  6
Continuous
 62
     1
370
     0
100
AcDbVertex
100
AcDb2dVertex
 10
-37.31580713750941
 20
27.10569203509348
 30
0.0
  0
SEQEND
  5
F60
330
F54
100
AcDbEntity
  8
GAIKEI
  6
Continuous
 62
     1
370
     0
  0
POLYLINE
  5
F61
330
2
100
AcDbEntity
  8
GAIKEI
  6
Continuous
 62
     1
370
    13
100
AcDb2dPolyline
 66
     1
 10
0.0
 20
0.0
 30
0.0
  0
VERTEX
  5
F62
330
F61
100
AcDbEntity
  8
GAIKEI
  6
Continuous
 62
     1
370
     0
100
AcDbVertex
100
AcDb2dVertex
 10
-37.31580713750941
 20
27.10569203509348
 30
0.0
  0
VERTEX
  5
F63
330
F61
100
AcDbEntity
  8
GAIKEI
  6
Continuous
 62
     1
370
     0
100
AcDbVertex
100
AcDb2dVertex
 10
-37.14017433801791
 20
27.07888496359314
 30
0.0
  0
VERTEX
  5
F64
330
F61
100
AcDbEntity
  8
GAIKEI
  6
Continuous
 62
     1
370
     0
100
AcDbVertex
100
AcDb2dVertex
 10
-36.93980891898991
 20
27.0549155631746
 30
0.0
  0
VERTEX
  5
F65
330
F61
100
AcDbEntity
  8
GAIKEI
  6
Continuous
 62
     1
370
     0
100
AcDbVertex
100
AcDb2dVertex
 10
-36.66814691402715
 20
27.03454185282598
 30
0.0
  0
VERTEX
  5
F66
330
F61
100
AcDbEntity
  8
GAIKEI
  6
Continuous
 62
     1
370
     0
100
AcDbVertex
100
AcDb2dVertex
 10
-36.33230490139556
 20
27.01685340974163
 30
0.0
  0
SEQEND
  5
F67
330
F61
100
AcDbEntity
  8
GAIKEI
  6
Continuous
 62
     1
370
     0
  0
POLYLINE
  5
F68
330
2
100
AcDbEntity
  8
GAIKEI
  6
Continuous
 62
     1
370
    13
100
AcDb2dPolyline
 66
     1
 10
0.0
 20
0.0
 30
0.0
  0
VERTEX
  5
F69
330
F68
100
AcDbEntity
  8
GAIKEI
  6
Continuous
 62
     1
370
     0
100
AcDbVertex
100
AcDb2dVertex
 10
-36.33230490139556
 20
27.01685340974163
 30
0.0
  0
VERTEX
  5
F6A
330
F68
100
AcDbEntity
  8
GAIKEI
  6
Continuous
 62
     1
370
     0
100
AcDbVertex
100
AcDb2dVertex
 10
-36.25293251316703
 20
27.01636499750723
 30
0.0
  0
VERTEX
  5
F6B
330
F68
100
AcDbEntity
  8
GAIKEI
  6
Continuous
 62
     1
370
     0
100
AcDbVertex
100
AcDb2dVertex
 10
-36.17136326990863
 20
27.02470240635407
 30
0.0
  0
VERTEX
  5
F6C
330
F68
100
AcDbEntity
  8
GAIKEI
  6
Continuous
 62
     1
370
     0
100
AcDbVertex
100
AcDb2dVertex
 10
-36.11627749004447
 20
27.03572588248525
 30
0.0
  0
VERTEX
  5
F6D
330
F68
100
AcDbEntity
  8
GAIKEI
  6
Continuous
 62
     1
370
     0
100
AcDbVertex
100
AcDb2dVertex
 10
-36.06212573357686
 20
27.05127787205274
 30
0.0
  0
VERTEX
  5
F6E
330
F68
100
AcDbEntity
  8
GAIKEI
  6
Continuous
 62
     1
370
     0
100
AcDbVertex
100
AcDb2dVertex
 10
-35.98463379245243
 20
27.08237625104763
 30
0.0
  0
VERTEX
  5
F6F
330
F68
100
AcDbEntity
  8
GAIKEI
  6
Continuous
 62
     1
370
     0
100
AcDbVertex
100
AcDb2dVertex
 10
-35.91420362822101
 20
27.12076801273722
 30
0.0
  0
VERTEX
  5
F70
330
F68
100
AcDbEntity
  8
GAIKEI
  6
Continuous
 62
     1
370
     0
100
AcDbVertex
100
AcDb2dVertex
 10
-35.83541725467171
 20
27.17793504473545
 30
0.0
  0
VERTEX
  5
F71
330
F68
100
AcDbEntity
  8
GAIKEI
  6
Continuous
 62
     1
370
     0
100
AcDbVertex
100
AcDb2dVertex
 10
-35.76909479333574
 20
27.24243266036032
 30
0.0
  0
VERTEX
  5
F72
330
F68
100
AcDbEntity
  8
GAIKEI
  6
Continuous
 62
     1
370
     0
100
AcDbVertex
100
AcDb2dVertex
 10
-35.71092693626736
 20
27.31743453911028
 30
0.0
  0
VERTEX
  5
F73
330
F68
100
AcDbEntity
  8
GAIKEI
  6
Continuous
 62
     1
370
     0
100
AcDbVertex
100
AcDb2dVertex
 10
-35.66069967810609
 20
27.40594395621562
 30
0.0
  0
VERTEX
  5
F74
330
F68
100
AcDbEntity
  8
GAIKEI
  6
Continuous
 62
     1
370
     0
100
AcDbVertex
100
AcDb2dVertex
 10
-35.64045397096379
 20
27.45368075199244
 30
0.0
  0
VERTEX
  5
F75
330
F68
100
AcDbEntity
  8
GAIKEI
  6
Continuous
 62
     1
370
     0
100
AcDbVertex
100
AcDb2dVertex
 10
-35.62404715998355
 20
27.50282118292941
 30
0.0
  0
VERTEX
  5
F76
330
F68
100
AcDbEntity
  8
GAIKEI
  6
Continuous
 62
     1
370
     0
100
AcDbVertex
100
AcDb2dVertex
 10
-35.6033254409175
 20
27.59908839436261
 30
0.0
  0
SEQEND
  5
F77
330
F68
100
AcDbEntity
  8
GAIKEI
  6
Continuous
 62
     1
370
     0
  0
LINE
  5
F78
330
2
100
AcDbEntity
  8
GAIKEI
  6
Continuous
 62
     1
370
    13
100
AcDbLine
 10
-35.44795034886886
 20
25.93428229201445
 30
0.0
 11
-35.38832965540791
 21
25.94360252548038
 31
0.0
  0
POLYLINE
  5
F79
330
2
100
AcDbEntity
  8
GAIKEI
  6
Continuous
 62
     1
370
    13
100
AcDb2dPolyline
 66
     1
 10
0.0
 20
0.0
 30
0.0
  0
VERTEX
  5
F7A
330
F79
100
AcDbEntity
  8
GAIKEI
  6
Continuous
 62
     1
370
     0
100
AcDbVertex
100
AcDb2dVertex
 10
-35.93765981578372
 20
27.68115805015597
 30
0.0
  0
VERTEX
  5
F7B
330
F79
100
AcDbEntity
  8
GAIKEI
  6
Continuous
 62
     1
370
     0
100
AcDbVertex
100
AcDb2dVertex
 10
-35.89020382704098
 20
27.75962681574933
 30
0.0
  0
VERTEX
  5
F7C
330
F79
100
AcDbEntity
  8
GAIKEI
  6
Continuous
 62
     1
370
     0
100
AcDbVertex
100
AcDb2dVertex
 10
-35.84575071351844
 20
27.85038868927731
 30
0.0
  0
VERTEX
  5
F7D
330
F79
100
AcDbEntity
  8
GAIKEI
  6
Continuous
 62
     1
370
     0
100
AcDbVertex
100
AcDb2dVertex
 10
-35.80582051329202
 20
27.95889940740276
 30
0.0
  0
VERTEX
  5
F7E
330
F79
100
AcDbEntity
  8
GAIKEI
  6
Continuous
 62
     1
370
     0
100
AcDbVertex
100
AcDb2dVertex
 10
-35.77628497344517
 20
28.0825965059374
 30
0.0
  0
VERTEX
  5
F7F
330
F79
100
AcDbEntity
  8
GAIKEI
  6
Continuous
 62
     1
370
     0
100
AcDbVertex
100
AcDb2dVertex
 10
-35.7667571347788
 20
28.14908977155207
 30
0.0
  0
VERTEX
  5
F80
330
F79
100
AcDbEntity
  8
GAIKEI
  6
Continuous
 62
     1
370
     0
100
AcDbVertex
100
AcDb2dVertex
 10
-35.76143460145272
 20
28.21829310505208
 30
0.0
  0
VERTEX
  5
F81
330
F79
100
AcDbEntity
  8
GAIKEI
  6
Continuous
 62
     1
370
     0
100
AcDbVertex
100
AcDb2dVertex
 10
-35.76109899304595
 20
28.29360019144733
 30
0.0
  0
VERTEX
  5
F82
330
F79
100
AcDbEntity
  8
GAIKEI
  6
Continuous
 62
     1
370
     0
100
AcDbVertex
100
AcDb2dVertex
 10
-35.76619552071077
 20
28.3671252332035
 30
0.0
  0
VERTEX
  5
F83
330
F79
100
AcDbEntity
  8
GAIKEI
  6
Continuous
 62
     1
370
     0
100
AcDbVertex
100
AcDb2dVertex
 10
-35.77607136809457
 20
28.43764699972948
 30
0.0
  0
VERTEX
  5
F84
330
F79
100
AcDbEntity
  8
GAIKEI
  6
Continuous
 62
     1
370
     0
100
AcDbVertex
100
AcDb2dVertex
 10
-35.79043932800289
 20
28.5064719237507
 30
0.0
  0
VERTEX
  5
F85
330
F79
100
AcDbEntity
  8
GAIKEI
  6
Continuous
 62
     1
370
     0
100
AcDbVertex
100
AcDb2dVertex
 10
-35.80845137919346
 20
28.57109754258189
 30
0.0
  0
VERTEX
  5
F86
330
F79
100
AcDbEntity
  8
GAIKEI
  6
Continuous
 62
     1
370
     0
100
AcDbVertex
100
AcDb2dVertex
 10
-35.83027192578447
 20
28.63333070148346
 30
0.0
  0
VERTEX
  5
F87
330
F79
100
AcDbEntity
  8
GAIKEI
  6
Continuous
 62
     1
370
     0
100
AcDbVertex
100
AcDb2dVertex
 10
-35.85437532955962
 20
28.6904729328605
 30
0.0
  0
VERTEX
  5
F88
330
F79
100
AcDbEntity
  8
GAIKEI
  6
Continuous
 62
     1
370
     0
100
AcDbVertex
100
AcDb2dVertex
 10
-35.89279789202078
 20
28.76656123882478
 30
0.0
  0
VERTEX
  5
F89
330
F79
100
AcDbEntity
  8
GAIKEI
  6
Continuous
 62
     1
370
     0
100
AcDbVertex
100
AcDb2dVertex
 10
-35.93367411594443
 20
28.83428773533101
 30
0.0
  0
SEQEND
  5
F8A
330
F79
100
AcDbEntity
  8
GAIKEI
  6
Continuous
 62
     1
370
     0
  0
ARC
  5
F8B
330
2
100
AcDbEntity
  8
GAIKEI
  6
Continuous
 62
     1
370
    13
100
AcDbCircle
 10
-36.68318649075911
 20
28.16279851494741
 30
0.0
 40
0.8874126291295199
100
AcDbArc
 50
294.6962659999997
 51
327.1359759999981
  0
ARC
  5
F8C
330
2
100
AcDbEntity
  8
GAIKEI
  6
Continuous
 62
     1
370
    13
100
AcDbCircle
 10
-36.68592695940617
 20
28.35428291151138
 30
0.0
 40
0.8922523503615
100
AcDbArc
 50
32.5415710000002
 51
65.24899700000166
  0
POLYLINE
  5
F8D
330
2
100
AcDbEntity
  8
GAIKEI
  6
Continuous
 62
     1
370
    13
100
AcDb2dPolyline
 66
     1
 10
0.0
 20
0.0
 30
0.0
  0
VERTEX
  5
F8E
330
F8D
100
AcDbEntity
  8
GAIKEI
  6
Continuous
 62
     1
370
     0
100
AcDbVertex
100
AcDb2dVertex
 10
-37.22345882424213
 20
27.36057521975724
 30
0.0
  0
VERTEX
  5
F8F
330
F8D
100
AcDbEntity
  8
GAIKEI
  6
Continuous
 62
     1
370
     0
100
AcDbVertex
100
AcDb2dVertex
 10
-37.1507398026763
 20
27.32857361813726
 30
0.0
  0
VERTEX
  5
F90
330
F8D
100
AcDbEntity
  8
GAIKEI
  6
Continuous
 62
     1
370
     0
100
AcDbVertex
100
AcDb2dVertex
 10
-37.07366867209282
 20
27.30129653486344
 30
0.0
  0
VERTEX
  5
F91
330
F8D
100
AcDbEntity
  8
GAIKEI
  6
Continuous
 62
     1
370
     0
100
AcDbVertex
100
AcDb2dVertex
 10
-36.99021938174042
 20
27.27903637726044
 30
0.0
  0
VERTEX
  5
F92
330
F8D
100
AcDbEntity
  8
GAIKEI
  6
Continuous
 62
     1
370
     0
100
AcDbVertex
100
AcDb2dVertex
 10
-36.89662543727081
 20
27.26267236735222
 30
0.0
  0
VERTEX
  5
F93
330
F8D
100
AcDbEntity
  8
GAIKEI
  6
Continuous
 62
     1
370
     0
100
AcDbVertex
100
AcDb2dVertex
 10
-36.79540850185015
 20
27.25457896461759
 30
0.0
  0
VERTEX
  5
F94
330
F8D
100
AcDbEntity
  8
GAIKEI
  6
Continuous
 62
     1
370
     0
100
AcDbVertex
100
AcDb2dVertex
 10
-36.6893022439549
 20
27.25684342134079
 30
0.0
  0
VERTEX
  5
F95
330
F8D
100
AcDbEntity
  8
GAIKEI
  6
Continuous
 62
     1
370
     0
100
AcDbVertex
100
AcDb2dVertex
 10
-36.58357439553868
 20
27.26994814960605
 30
0.0
  0
VERTEX
  5
F96
330
F8D
100
AcDbEntity
  8
GAIKEI
  6
Continuous
 62
     1
370
     0
100
AcDbVertex
100
AcDb2dVertex
 10
-36.48305307754276
 20
27.29275112080618
 30
0.0
  0
VERTEX
  5
F97
330
F8D
100
AcDbEntity
  8
GAIKEI
  6
Continuous
 62
     1
370
     0
100
AcDbVertex
100
AcDb2dVertex
 10
-36.39278601640956
 20
27.32242106401961
 30
0.0
  0
VERTEX
  5
F98
330
F8D
100
AcDbEntity
  8
GAIKEI
  6
Continuous
 62
     1
370
     0
100
AcDbVertex
100
AcDb2dVertex
 10
-36.31239480266004
 20
27.35651031793404
 30
0.0
  0
SEQEND
  5
F99
330
F8D
100
AcDbEntity
  8
GAIKEI
  6
Continuous
 62
     1
370
     0
  0
POLYLINE
  5
F9A
330
2
100
AcDbEntity
  8
GAIKEI
  6
Continuous
 62
     1
370
    13
100
AcDb2dPolyline
 66
     1
 10
0.0
 20
0.0
 30
0.0
  0
VERTEX
  5
F9B
330
F9A
100
AcDbEntity
  8
GAIKEI
  6
Continuous
 62
     1
370
     0
100
AcDbVertex
100
AcDb2dVertex
 10
-36.3123520015879
 20
29.16458160898534
 30
0.0
  0
VERTEX
  5
F9C
330
F9A
100
AcDbEntity
  8
GAIKEI
  6
Continuous
 62
     1
370
     0
100
AcDbVertex
100
AcDb2dVertex
 10
-36.38594384501733
 20
29.19608879822064
 30
0.0
  0
VERTEX
  5
F9D
330
F9A
100
AcDbEntity
  8
GAIKEI
  6
Continuous
 62
     1
370
     0
100
AcDbVertex
100
AcDb2dVertex
 10
-36.46340538538038
 20
29.22265186360878
 30
0.0
  0
VERTEX
  5
F9E
330
F9A
100
AcDbEntity
  8
GAIKEI
  6
Continuous
 62
     1
370
     0
100
AcDbVertex
100
AcDb2dVertex
 10
-36.54689147665454
 20
29.24406359995927
 30
0.0
  0
VERTEX
  5
F9F
330
F9A
100
AcDbEntity
  8
GAIKEI
  6
Continuous
 62
     1
370
     0
100
AcDbVertex
100
AcDb2dVertex
 10
-36.63627971577387
 20
29.25905437546882
 30
0.0
  0
VERTEX
  5
FA0
330
F9A
100
AcDbEntity
  8
GAIKEI
  6
Continuous
 62
     1
370
     0
100
AcDbVertex
100
AcDb2dVertex
 10
-36.73588541083404
 20
29.2666225650473
 30
0.0
  0
VERTEX
  5
FA1
330
F9A
100
AcDbEntity
  8
GAIKEI
  6
Continuous
 62
     1
370
     0
100
AcDbVertex
100
AcDb2dVertex
 10
-36.8413080516051
 20
29.26408370145029
 30
0.0
  0
VERTEX
  5
FA2
330
F9A
100
AcDbEntity
  8
GAIKEI
  6
Continuous
 62
     1
370
     0
100
AcDbVertex
100
AcDb2dVertex
 10
-36.94700509924974
 20
29.250716566612
 30
0.0
  0
VERTEX
  5
FA3
330
F9A
100
AcDbEntity
  8
GAIKEI
  6
Continuous
 62
     1
370
     0
100
AcDbVertex
100
AcDb2dVertex
 10
-37.0490648557826
 20
29.22716877675461
 30
0.0
  0
VERTEX
  5
FA4
330
F9A
100
AcDbEntity
  8
GAIKEI
  6
Continuous
 62
     1
370
     0
100
AcDbVertex
100
AcDb2dVertex
 10
-37.14247519565299
 20
29.19578359057536
 30
0.0
  0
VERTEX
  5
FA5
330
F9A
100
AcDbEntity
  8
GAIKEI
  6
Continuous
 62
     1
370
     0
100
AcDbVertex
100
AcDb2dVertex
 10
-37.22345882424213
 20
29.1605287074627
 30
0.0
  0
SEQEND
  5
FA6
330
F9A
100
AcDbEntity
  8
GAIKEI
  6
Continuous
 62
     1
370
     0
  0
ARC
  5
FA7
330
2
100
AcDbEntity
  8
GAIKEI
  6
Continuous
 62
     1
370
    13
100
AcDbCircle
 10
-36.83258583311897
 20
28.34224661000959
 30
0.0
 40
0.9068527160914999
100
AcDbArc
 50
115.5326170000016
 51
143.014758000001
  0
POLYLINE
  5
FA8
330
2
100
AcDbEntity
  8
GAIKEI
  6
Continuous
 62
     1
370
    13
100
AcDb2dPolyline
 66
     1
 10
0.0
 20
0.0
 30
0.0
  0
VERTEX
  5
FA9
330
FA8
100
AcDbEntity
  8
GAIKEI
  6
Continuous
 62
     1
370
     0
100
AcDbVertex
100
AcDb2dVertex
 10
-37.55705478061145
 20
28.88787787773046
 30
0.0
  0
VERTEX
  5
FAA
330
FA8
100
AcDbEntity
  8
GAIKEI
  6
Continuous
 62
     1
370
     0
100
AcDbVertex
100
AcDb2dVertex
 10
-37.62145439378139
 20
28.79361271644731
 30
0.0
  0
VERTEX
  5
FAB
330
FA8
100
AcDbEntity
  8
GAIKEI
  6
Continuous
 62
     1
370
     0
100
AcDbVertex
100
AcDb2dVertex
 10
-37.66459507442835
 20
28.71553476064352
 30
0.0
  0
VERTEX
  5
FAC
330
FA8
100
AcDbEntity
  8
GAIKEI
  6
Continuous
 62
     1
370
     0
100
AcDbVertex
100
AcDb2dVertex
 10
-37.70339004621803
 20
28.62786176449001
 30
0.0
  0
VERTEX
  5
FAD
330
FA8
100
AcDbEntity
  8
GAIKEI
  6
Continuous
 62
     1
370
     0
100
AcDbVertex
100
AcDb2dVertex
 10
-37.72608981483302
 20
28.56219851966691
 30
0.0
  0
VERTEX
  5
FAE
330
FA8
100
AcDbEntity
  8
GAIKEI
  6
Continuous
 62
     1
370
     0
100
AcDbVertex
100
AcDb2dVertex
 10
-37.74449227580305
 20
28.49373960481407
 30
0.0
  0
VERTEX
  5
FAF
330
FA8
100
AcDbEntity
  8
GAIKEI
  6
Continuous
 62
     1
370
     0
100
AcDbVertex
100
AcDb2dVertex
 10
-37.75884183525056
 20
28.42036136673525
 30
0.0
  0
VERTEX
  5
FB0
330
FA8
100
AcDbEntity
  8
GAIKEI
  6
Continuous
 62
     1
370
     0
100
AcDbVertex
100
AcDb2dVertex
 10
-37.7684064748388
 20
28.34113578218407
 30
0.0
  0
VERTEX
  5
FB1
330
FA8
100
AcDbEntity
  8
GAIKEI
  6
Continuous
 62
     1
370
     0
100
AcDbVertex
100
AcDb2dVertex
 10
-37.77176975908697
 20
28.26055496368517
 30
0.0
  0
SEQEND
  5
FB2
330
FA8
100
AcDbEntity
  8
GAIKEI
  6
Continuous
 62
     1
370
     0
  0
POLYLINE
  5
FB3
330
2
100
AcDbEntity
  8
GAIKEI
  6
Continuous
 62
     1
370
    13
100
AcDb2dPolyline
 66
     1
 10
0.0
 20
0.0
 30
0.0
  0
VERTEX
  5
FB4
330
FB3
100
AcDbEntity
  8
GAIKEI
  6
Continuous
 62
     1
370
     0
100
AcDbVertex
100
AcDb2dVertex
 10
-37.77176335892659
 20
28.26055496368517
 30
0.0
  0
VERTEX
  5
FB5
330
FB3
100
AcDbEntity
  8
GAIKEI
  6
Continuous
 62
     1
370
     0
100
AcDbVertex
100
AcDb2dVertex
 10
-37.76786926138198
 20
28.17369998802244
 30
0.0
  0
VERTEX
  5
FB6
330
FB3
100
AcDbEntity
  8
GAIKEI
  6
Continuous
 62
     1
370
     0
100
AcDbVertex
100
AcDb2dVertex
 10
-37.75619896904846
 20
28.08494016464462
 30
0.0
  0
VERTEX
  5
FB7
330
FB3
100
AcDbEntity
  8
GAIKEI
  6
Continuous
 62
     1
370
     0
100
AcDbVertex
100
AcDb2dVertex
 10
-37.73188195992259
 20
27.97848029789177
 30
0.0
  0
VERTEX
  5
FB8
330
FB3
100
AcDbEntity
  8
GAIKEI
  6
Continuous
 62
     1
370
     0
100
AcDbVertex
100
AcDb2dVertex
 10
-37.70931059452403
 20
27.90902055796889
 30
0.0
  0
VERTEX
  5
FB9
330
FB3
100
AcDbEntity
  8
GAIKEI
  6
Continuous
 62
     1
370
     0
100
AcDbVertex
100
AcDb2dVertex
 10
-37.6815510991662
 20
27.84120845931838
 30
0.0
  0
VERTEX
  5
FBA
330
FB3
100
AcDbEntity
  8
GAIKEI
  6
Continuous
 62
     1
370
     0
100
AcDbVertex
100
AcDb2dVertex
 10
-37.63678677784799
 20
27.7535234628642
 30
0.0
  0
VERTEX
  5
FBB
330
FB3
100
AcDbEntity
  8
GAIKEI
  6
Continuous
 62
     1
370
     0
100
AcDbVertex
100
AcDb2dVertex
 10
-37.58811035853421
 20
27.67595791989604
 30
0.0
  0
VERTEX
  5
FBC
330
FB3
100
AcDbEntity
  8
GAIKEI
  6
Continuous
 62
     1
370
     0
100
AcDbVertex
100
AcDb2dVertex
 10
-37.55706078076173
 20
27.63323204963976
 30
0.0
  0
SEQEND
  5
FBD
330
FB3
100
AcDbEntity
  8
GAIKEI
  6
Continuous
 62
     1
370
     0
  0
ARC
  5
FBE
330
2
100
AcDbEntity
  8
GAIKEI
  6
Continuous
 62
     1
370
    13
100
AcDbCircle
 10
-36.83264063449167
 20
28.17881491614818
 30
0.0
 40
0.90677991426786
100
AcDbArc
 50
216.9840230000031
 51
244.4691579999991
  0
CIRCLE
  5
FBF
330
2
100
AcDbEntity
  8
GAIKEI
  6
Continuous
 62
     1
370
    40
100
AcDbCircle
 10
-36.76530534778499
 20
28.26055496368517
 30
0.0
 40
0.80002004
  0
ARC
  5
FC0
330
2
100
AcDbEntity
  8
GAIKEI
  6
Continuous
 62
     1
370
    40
100
AcDbCircle
 10
-36.34267476115395
 20
28.26055496368517
 30
0.0
 40
0.0440011022
100
AcDbArc
 50
270.000003000001
 51
89.99999699999904
  0
ARC
  5
FC1
330
2
100
AcDbEntity
  8
GAIKEI
  6
Continuous
 62
     1
370
    40
100
AcDbCircle
 10
-36.34267476115395
 20
28.50455547574481
 30
0.0
 40
0.20000501
100
AcDbArc
 50
149.9999989999971
 51
270.000003000001
  0
ARC
  5
FC2
330
2
100
AcDbEntity
  8
GAIKEI
  6
Continuous
 62
     1
370
    40
100
AcDbCircle
 10
-36.55399005446952
 20
28.62656773207536
 30
0.0
 40
0.0440011022
100
AcDbArc
 50
329.9999969999997
 51
149.9999989999971
  0
ARC
  5
FC3
330
2
100
AcDbEntity
  8
GAIKEI
  6
Continuous
 62
     1
370
    40
100
AcDbCircle
 10
-36.76530534778499
 20
28.74856758809514
 30
0.0
 40
0.20000501
100
AcDbArc
 50
210.0000010000028
 51
329.9999969999997
  0
ARC
  5
FC4
330
2
100
AcDbEntity
  8
GAIKEI
  6
Continuous
 62
     1
370
    40
100
AcDbCircle
 10
-36.97662024109047
 20
28.62656773207536
 30
0.0
 40
0.0440011022
100
AcDbArc
 50
30.00000300000026
 51
210.0000010000028
  0
ARC
  5
FC5
330
2
100
AcDbEntity
  8
GAIKEI
  6
Continuous
 62
     1
370
    40
100
AcDbCircle
 10
-37.18793553440594
 20
28.50455547574481
 30
0.0
 40
0.20000501
100
AcDbArc
 50
270.000003000001
 51
30.00000300000026
  0
ARC
  5
FC6
330
2
100
AcDbEntity
  8
GAIKEI
  6
Continuous
 62
     1
370
    40
100
AcDbCircle
 10
-37.18793553440594
 20
28.26055496368517
 30
0.0
 40
0.0440011022
100
AcDbArc
 50
89.99999699999904
 51
270.000003000001
  0
ARC
  5
FC7
330
2
100
AcDbEntity
  8
GAIKEI
  6
Continuous
 62
     1
370
    40
100
AcDbCircle
 10
-37.18793553440594
 20
28.01655485163539
 30
0.0
 40
0.20000501
100
AcDbArc
 50
329.9999969999997
 51
89.99999699999904
  0
ARC
  5
FC8
330
2
100
AcDbEntity
  8
GAIKEI
  6
Continuous
 62
     1
370
    40
100
AcDbCircle
 10
-36.97662024109047
 20
27.89454259530496
 30
0.0
 40
0.0440011022
100
AcDbArc
 50
149.9999989999971
 51
329.9999969999997
  0
ARC
  5
FC9
330
2
100
AcDbEntity
  8
GAIKEI
  6
Continuous
 62
     1
370
    40
100
AcDbCircle
 10
-36.76530534778499
 20
27.77254233927508
 30
0.0
 40
0.20000501
100
AcDbArc
 50
30.00000300000026
 51
149.9999989999971
  0
ARC
  5
FCA
330
2
100
AcDbEntity
  8
GAIKEI
  6
Continuous
 62
     1
370
    40
100
AcDbCircle
 10
-36.55399005446952
 20
27.89454259530496
 30
0.0
 40
0.0440011022
100
AcDbArc
 50
210.0000010000028
 51
30.00000300000026
  0
ARC
  5
FCB
330
2
100
AcDbEntity
  8
GAIKEI
  6
Continuous
 62
     1
370
    40
100
AcDbCircle
 10
-36.34267476115395
 20
28.01655485163539
 30
0.0
 40
0.20000501
100
AcDbArc
 50
89.99999699999904
 51
210.0000010000028
  0
CIRCLE
  5
FCC
330
2
100
AcDbEntity
  8
GAIKEI
  6
Continuous
 62
     1
370
    40
100
AcDbCircle
 10
-36.76530534778499
 20
28.26055496368517
 30
0.0
 40
0.1520038076
  0
LINE
  5
FCD
330
2
100
AcDbEntity
  8
WAKU
 62
     4
100
AcDbLine
 10
64.53556023809006
 20
-146.2327806708779
 30
0.0
 11
64.53556023809006
 21
-56.23278067087785
 31
0.0
  0
LINE
  5
FCE
330
2
100
AcDbEntity
  8
WAKU
 62
     4
100
AcDbLine
 10
-20.46443976190989
 20
-146.2327806708779
 30
0.0
 11
-20.46443976190989
 21
-56.23278067087785
 31
0.0
  0
TEXT
  5
FCF
330
2
100
AcDbEntity
  8
MOJI1
100
AcDbText
 10
-57.75885853139147
 20
-70.23278067087767
 30
0.0
 40
3.0
  1
有効画素数
100
AcDbText
  0
TEXT
  5
FD0
330
2
100
AcDbEntity
  8
MOJI1
100
AcDbText
 10
-57.75885853139147
 20
-140.2327806708776
 30
0.0
 40
3.0
  1
機　能
100
AcDbText
  0
TEXT
  5
FD1
330
2
100
AcDbEntity
  8
MOJI1
100
AcDbText
 10
-57.75885853139147
 20
-60.10766171976229
 30
0.0
 40
3.0
  1
電　源
  7
KANJI
100
AcDbText
  0
TEXT
  5
FD2
330
2
100
AcDbEntity
  8
MOJI1
100
AcDbText
 10
-57.75885853139147
 20
-75.10082423341964
 30
0.0
 40
3.0
  1
最低照度
  7
KANJI
100
AcDbText
  0
TEXT
  5
FD3
330
2
100
AcDbEntity
  8
MOJI1
100
AcDbText
 10
-57.75885853139147
 20
-65.10424297659096
 30
0.0
 40
3.0
  1
撮像素子
  7
KANJI
100
AcDbText
  0
TEXT
  5
FD4
330
2
100
AcDbEntity
  8
MOJI1
100
AcDbText
 10
-17.75885853139147
 20
-65.07692827599521
 30
0.0
 40
3.0
  1
１／３型ＭＯＳセンサー
  7
KANJI
100
AcDbText
  0
TEXT
  5
FD5
330
2
100
AcDbEntity
  8
MOJI1
100
AcDbText
 10
-17.82824415441877
 20
-60.17649476526185
 30
0.0
 40
3.0
  1
ＤＣ１２Ｖ、ＰｏＥ（ＩＥＥＥ８０２．３ａｆ準拠）
 41
0.95
  7
KANJI
100
AcDbText
  0
TEXT
  5
FD6
330
2
100
AcDbEntity
  8
MOJI1
100
AcDbText
 10
-17.82824415441877
 20
-75.1696572789192
 30
0.0
 40
3.0
  1
カラーモード：１．５ルクス（Ｆ２．４）
  7
KANJI
100
AcDbText
  0
TEXT
  5
FD7
330
2
100
AcDbEntity
  8
MOJI1
100
AcDbText
 10
-17.75885853139147
 20
-140.0769282759952
 30
0.0
 40
3.0
  1
暗部補正、簡易白黒切換、ＶＭＤ（４エリア）、
 41
0.88
  7
KANJI
100
AcDbText
  0
TEXT
  5
FD8
330
2
100
AcDbEntity
  8
MOJI1
100
AcDbText
 10
-17.82824415441877
 20
-80.16965727891919
 30
0.0
 40
3.0
  1
白黒モード：１。２ルクス（Ｆ２．４）
  7
KANJI
100
AcDbText
  0
TEXT
  5
FD9
330
2
100
AcDbEntity
  8
MOJI1
100
AcDbText
 10
-17.75885853139124
 20
-70.23278067087744
 30
0.0
 40
3.0
  1
約３１０万画素
 41
0.95
100
AcDbText
  0
LINE
  5
FDA
330
2
100
AcDbEntity
  8
WAKU
 62
     4
100
AcDbLine
 10
-60.46443976190989
 20
-56.23278067087785
 30
0.0
 11
-60.46443976190989
 21
-146.2327806708779
 31
0.0
  0
LINE
  5
FDB
330
2
100
AcDbEntity
  8
WAKU
 62
     4
100
AcDbLine
 10
-60.46443976190989
 20
-146.2327806708779
 30
0.0
 11
64.53556023809006
 21
-146.2327806708779
 31
0.0
  0
LINE
  5
FDC
330
2
100
AcDbEntity
  8
WAKU
 62
     1
100
AcDbLine
 10
-60.46443976190989
 20
-136.2327806708779
 30
0.0
 11
64.53556023809006
 21
-136.2327806708779
 31
0.0
  0
LINE
  5
FDD
330
2
100
AcDbEntity
  8
WAKU
 62
     1
100
AcDbLine
 10
-60.46443976190989
 20
-76.2327806708779
 30
0.0
 11
64.53556023809006
 21
-76.2327806708779
 31
0.0
  0
LINE
  5
FDE
330
2
100
AcDbEntity
  8
WAKU
 62
     1
100
AcDbLine
 10
-60.46443976190989
 20
-71.2327806708779
 30
0.0
 11
64.53556023809006
 21
-71.2327806708779
 31
0.0
  0
LINE
  5
FDF
330
2
100
AcDbEntity
  8
WAKU
 62
     1
100
AcDbLine
 10
-60.46443976190989
 20
-66.2327806708779
 30
0.0
 11
64.53556023809006
 21
-66.2327806708779
 31
0.0
  0
LINE
  5
FE0
330
2
100
AcDbEntity
  8
WAKU
 62
     1
100
AcDbLine
 10
-60.46443976190989
 20
-61.2327806708779
 30
0.0
 11
64.53556023809006
 21
-61.2327806708779
 31
0.0
  0
LINE
  5
FE1
330
2
100
AcDbEntity
  8
WAKU
100
AcDbLine
 10
-60.46443976190989
 20
-56.2327806708779
 30
0.0
 11
64.53556023809006
 21
-56.2327806708779
 31
0.0
  0
LINE
  5
FE2
330
2
100
AcDbEntity
  8
WAKU
 62
     1
100
AcDbLine
 10
-60.46443976190989
 20
-141.2327806708779
 30
0.0
 11
64.53556023809006
 21
-141.2327806708779
 31
0.0
  0
TEXT
  5
FE3
330
2
100
AcDbEntity
  8
MOJI1
100
AcDbText
 10
-17.75885853139147
 20
-145.0769282759952
 30
0.0
 40
3.0
  1
ＶＩＱＳ（２ヶ所）、ＳＤＸＣ／ＳＤＨＣ／ＳＤ対応
 41
0.73
  7
KANJI
100
AcDbText
  0
LINE
  5
FE4
330
2
100
AcDbEntity
  8
WAKU
 62
     1
100
AcDbLine
 10
-60.46443976190989
 20
-116.2327806708779
 30
0.0
 11
64.53556023809006
 21
-116.2327806708779
 31
0.0
  0
LINE
  5
FE5
330
2
100
AcDbEntity
  8
WAKU
 62
     1
100
AcDbLine
 10
-60.46443976190989
 20
-111.2327806708779
 30
0.0
 11
64.53556023809006
 21
-111.2327806708779
 31
0.0
  0
TEXT
  5
FE6
330
2
100
AcDbEntity
  8
MOJI1
100
AcDbText
 10
-57.75885853139147
 20
-115.1008242334196
 30
0.0
 40
3.0
  1
レンズ部
  7
KANJI
100
AcDbText
  0
TEXT
  5
FE7
330
2
100
AcDbEntity
  8
MOJI1
100
AcDbText
 10
-17.82824415441877
 20
-115.1696572789192
 30
0.0
 40
3.0
  1
ｆ＝０．８ｍｍ
 41
0.88
  7
KANJI
100
AcDbText
  0
TEXT
  5
FE8
330
2
100
AcDbEntity
  8
MOJI1
100
AcDbText
 10
-17.82824415441877
 20
-120.1696572789192
 30
0.0
 40
3.0
  1
画角　/水平：１８２°、垂直：１７６°
 41
0.9
  7
KANJI
100
AcDbText
  0
LINE
  5
FE9
330
2
100
AcDbEntity
  8
WAKU
 62
     1
100
AcDbLine
 10
-60.46443976190989
 20
-111.2327806708779
 30
0.0
 11
64.53556023809006
 21
-111.2327806708779
 31
0.0
  0
LINE
  5
FEA
330
2
100
AcDbEntity
  8
WAKU
 62
     1
100
AcDbLine
 10
-60.46443976190989
 20
-131.2327806708779
 30
0.0
 11
64.53556023809006
 21
-131.2327806708779
 31
0.0
  0
TEXT
  5
FEB
330
2
100
AcDbEntity
  8
MOJI1
100
AcDbText
 10
-57.75885853139147
 20
-135.1008242334196
 30
0.0
 40
3.0
  1
設置方法
  7
KANJI
100
AcDbText
  0
TEXT
  5
FEC
330
2
100
AcDbEntity
  8
MOJI1
100
AcDbText
 10
-17.82824415441877
 20
-135.1696572789192
 30
0.0
 40
3.0
  1
天井設置／壁設置
 41
0.9
  7
KANJI
100
AcDbText
  0
LINE
  5
FED
330
2
100
AcDbEntity
  8
WAKU
 62
     1
100
AcDbLine
 10
-60.46443976190989
 20
-91.2327806708779
 30
0.0
 11
64.53556023809006
 21
-91.2327806708779
 31
0.0
  0
LINE
  5
FEE
330
2
100
AcDbEntity
  8
WAKU
 62
     1
100
AcDbLine
 10
-60.46443976190989
 20
-86.2327806708779
 30
0.0
 11
64.53556023809006
 21
-86.2327806708779
 31
0.0
  0
LINE
  5
FEF
330
2
100
AcDbEntity
  8
WAKU
 62
     1
100
AcDbLine
 10
-60.46443976190989
 20
-81.2327806708779
 30
0.0
 11
64.53556023809006
 21
-81.2327806708779
 31
0.0
  0
TEXT
  5
FF0
330
2
100
AcDbEntity
  8
MOJI1
100
AcDbText
 10
-57.75885853139147
 20
-85.10082423341964
 30
0.0
 40
3.0
  1
ネットワーク
  7
KANJI
100
AcDbText
  0
TEXT
  5
FF1
330
2
100
AcDbEntity
  8
MOJI1
100
AcDbText
 10
-17.82824415441877
 20
-85.16965727891919
 30
0.0
 40
3.0
  1
１０ＢＡＳＥ-Ｔ／１００ＢＡＳＥ－ＴＸ，ＲＪ４５コネクター
 41
0.8
  7
KANJI
100
AcDbText
  0
TEXT
  5
FF2
330
2
100
AcDbEntity
  8
MOJI1
100
AcDbText
 10
-17.82824415441877
 20
-90.16965727891919
 30
0.0
 40
3.0
  1
Ｈ．２６４／ＪＰＥＧ（同方式による２ストリーム配信可）
 41
0.85
  7
KANJI
100
AcDbText
  0
TEXT
  5
FF3
330
2
100
AcDbEntity
  8
MOJI1
100
AcDbText
 10
-57.75885853139147
 20
-90.10082423341964
 30
0.0
 40
3.0
  1
画像圧縮方式
  7
KANJI
100
AcDbText
  0
TEXT
  5
FF4
330
2
100
AcDbEntity
  8
MOJI1
100
AcDbText
 10
-17.82824415441877
 20
-95.16965727891919
 30
0.0
 40
3.0
  1
２Ｍパノラマ／２Ｍダブルパノラマ／１．３Ｍ魚眼／３Ｍ魚眼
 41
0.8
  7
KANJI
100
AcDbText
  0
TEXT
  5
FF5
330
2
100
AcDbEntity
  8
MOJI1
100
AcDbText
 10
-57.75885853139147
 20
-95.10082423341964
 30
0.0
 40
3.0
  1
配信画像モード
  7
KANJI
100
AcDbText
  0
LINE
  5
FF6
330
2
100
AcDbEntity
  8
WAKU
 62
     1
100
AcDbLine
 10
-60.46443976190989
 20
-101.2327806708779
 30
0.0
 11
64.53556023809006
 21
-101.2327806708779
 31
0.0
  0
LINE
  5
FF7
330
2
100
AcDbEntity
  8
WAKU
 62
     1
100
AcDbLine
 10
-60.46443976190989
 20
-96.2327806708779
 30
0.0
 11
64.53556023809006
 21
-96.2327806708779
 31
0.0
  0
TEXT
  5
FF8
330
2
100
AcDbEntity
  8
MOJI1
100
AcDbText
 10
-17.82824415441877
 20
-100.1696572789192
 30
0.0
 40
3.0
  1
１．３Ｍ４画ＰＴＺ／１．３Ｍ１画ＰＴＺ／ＶＧＡ４ストリーム
 41
0.7800000000000001
  7
KANJI
100
AcDbText
  0
LINE
  5
FF9
330
2
100
AcDbEntity
  8
WAKU
 62
     1
100
AcDbLine
 10
-60.46443976190989
 20
-106.2327806708779
 30
0.0
 11
64.53556023809006
 21
-106.2327806708779
 31
0.0
  0
TEXT
  5
FFA
330
2
100
AcDbEntity
  8
MOJI1
100
AcDbText
 10
-5.234585349158749
 20
-110.4674024158057
 30
0.0
 40
3.0
  1
ＦＴＰ、ＳＭＴＰ、ＤＮＳ、ＮＴＰ、ＳＮＭＰ、ＤＨＣＰｖ６
 41
0.6800000000000001
100
AcDbText
  0
TEXT
  5
FFB
330
2
100
AcDbEntity
  8
MOJI1
100
AcDbText
 10
-17.43508888517266
 20
-105.4674024158056
 30
0.0
 40
3.0
  1
ＩＰｖ６：ＴＣＰ／ＩＰ、ＵＤＰ／ＩＰ、ＨＴＴＰ、ＨＴＴＰＳ、ＲＴＰ、
 41
0.6800000000000001
100
AcDbText
  0
LINE
  5
FFC
330
2
100
AcDbEntity
  8
WAKU
 62
     4
100
AcDbLine
 10
64.53556023809006
 20
-146.2327806708779
 30
0.0
 11
64.53556023809006
 21
-56.23278067087785
 31
0.0
  0
LINE
  5
FFD
330
2
100
AcDbEntity
  8
WAKU
 62
     4
100
AcDbLine
 10
-20.46443976190989
 20
-146.2327806708779
 30
0.0
 11
-20.46443976190989
 21
-56.23278067087785
 31
0.0
  0
TEXT
  5
FFE
330
2
100
AcDbEntity
  8
MOJI1
100
AcDbText
 10
-57.75885853139147
 20
-70.23278067087767
 30
0.0
 40
3.0
  1
有効画素数
100
AcDbText
  0
TEXT
  5
FFF
330
2
100
AcDbEntity
  8
MOJI1
100
AcDbText
 10
-57.75885853139147
 20
-140.2327806708776
 30
0.0
 40
3.0
  1
機　能
100
AcDbText
  0
TEXT
  5
1000
330
2
100
AcDbEntity
  8
MOJI1
100
AcDbText
 10
-57.75885853139147
 20
-60.10766171976229
 30
0.0
 40
3.0
  1
電　源
  7
KANJI
100
AcDbText
  0
TEXT
  5
1001
330
2
100
AcDbEntity
  8
MOJI1
100
AcDbText
 10
-57.75885853139147
 20
-75.10082423341964
 30
0.0
 40
3.0
  1
最低照度
  7
KANJI
100
AcDbText
  0
TEXT
  5
1002
330
2
100
AcDbEntity
  8
MOJI1
100
AcDbText
 10
-57.75885853139147
 20
-65.10424297659096
 30
0.0
 40
3.0
  1
撮像素子
  7
KANJI
100
AcDbText
  0
TEXT
  5
1003
330
2
100
AcDbEntity
  8
MOJI1
100
AcDbText
 10
-17.82824415441877
 20
-75.1696572789192
 30
0.0
 40
3.0
  1
カラーモード：１．５ルクス（Ｆ２．４）
  7
KANJI
100
AcDbText
  0
LINE
  5
1004
330
2
100
AcDbEntity
  8
WAKU
 62
     4
100
AcDbLine
 10
-60.46443976190989
 20
-56.23278067087785
 30
0.0
 11
-60.46443976190989
 21
-146.2327806708779
 31
0.0
  0
LINE
  5
1005
330
2
100
AcDbEntity
  8
WAKU
 62
     4
100
AcDbLine
 10
-60.46443976190989
 20
-146.2327806708779
 30
0.0
 11
64.53556023809006
 21
-146.2327806708779
 31
0.0
  0
LINE
  5
1006
330
2
100
AcDbEntity
  8
WAKU
 62
     1
100
AcDbLine
 10
-60.46443976190989
 20
-136.2327806708779
 30
0.0
 11
64.53556023809006
 21
-136.2327806708779
 31
0.0
  0
LINE
  5
1007
330
2
100
AcDbEntity
  8
WAKU
 62
     1
100
AcDbLine
 10
-60.46443976190989
 20
-76.2327806708779
 30
0.0
 11
64.53556023809006
 21
-76.2327806708779
 31
0.0
  0
LINE
  5
1008
330
2
100
AcDbEntity
  8
WAKU
 62
     1
100
AcDbLine
 10
-60.46443976190989
 20
-71.2327806708779
 30
0.0
 11
64.53556023809006
 21
-71.2327806708779
 31
0.0
  0
LINE
  5
1009
330
2
100
AcDbEntity
  8
WAKU
 62
     1
100
AcDbLine
 10
-60.46443976190989
 20
-66.2327806708779
 30
0.0
 11
64.53556023809006
 21
-66.2327806708779
 31
0.0
  0
LINE
  5
100A
330
2
100
AcDbEntity
  8
WAKU
 62
     1
100
AcDbLine
 10
-60.46443976190989
 20
-61.2327806708779
 30
0.0
 11
64.53556023809006
 21
-61.2327806708779
 31
0.0
  0
LINE
  5
100B
330
2
100
AcDbEntity
  8
WAKU
100
AcDbLine
 10
-60.46443976190989
 20
-56.2327806708779
 30
0.0
 11
64.53556023809006
 21
-56.2327806708779
 31
0.0
  0
LINE
  5
100C
330
2
100
AcDbEntity
  8
WAKU
 62
     1
100
AcDbLine
 10
-60.46443976190989
 20
-141.2327806708779
 30
0.0
 11
64.53556023809006
 21
-141.2327806708779
 31
0.0
  0
LINE
  5
100D
330
2
100
AcDbEntity
  8
WAKU
 62
     1
100
AcDbLine
 10
-60.46443976190989
 20
-116.2327806708779
 30
0.0
 11
64.53556023809006
 21
-116.2327806708779
 31
0.0
  0
LINE
  5
100E
330
2
100
AcDbEntity
  8
WAKU
 62
     1
100
AcDbLine
 10
-60.46443976190989
 20
-111.2327806708779
 30
0.0
 11
64.53556023809006
 21
-111.2327806708779
 31
0.0
  0
TEXT
  5
100F
330
2
100
AcDbEntity
  8
MOJI1
100
AcDbText
 10
-57.75885853139147
 20
-115.1008242334196
 30
0.0
 40
3.0
  1
レンズ部
  7
KANJI
100
AcDbText
  0
LINE
  5
1010
330
2
100
AcDbEntity
  8
WAKU
 62
     1
100
AcDbLine
 10
-60.46443976190989
 20
-111.2327806708779
 30
0.0
 11
64.53556023809006
 21
-111.2327806708779
 31
0.0
  0
LINE
  5
1011
330
2
100
AcDbEntity
  8
WAKU
 62
     1
100
AcDbLine
 10
-60.46443976190989
 20
-131.2327806708779
 30
0.0
 11
64.53556023809006
 21
-131.2327806708779
 31
0.0
  0
TEXT
  5
1012
330
2
100
AcDbEntity
  8
MOJI1
100
AcDbText
 10
-57.75885853139147
 20
-135.1008242334196
 30
0.0
 40
3.0
  1
設置方法
  7
KANJI
100
AcDbText
  0
LINE
  5
1013
330
2
100
AcDbEntity
  8
WAKU
 62
     1
100
AcDbLine
 10
-60.46443976190989
 20
-91.2327806708779
 30
0.0
 11
64.53556023809006
 21
-91.2327806708779
 31
0.0
  0
LINE
  5
1014
330
2
100
AcDbEntity
  8
WAKU
 62
     1
100
AcDbLine
 10
-60.46443976190989
 20
-86.2327806708779
 30
0.0
 11
64.53556023809006
 21
-86.2327806708779
 31
0.0
  0
LINE
  5
1015
330
2
100
AcDbEntity
  8
WAKU
 62
     1
100
AcDbLine
 10
-60.46443976190989
 20
-81.2327806708779
 30
0.0
 11
64.53556023809006
 21
-81.2327806708779
 31
0.0
  0
TEXT
  5
1016
330
2
100
AcDbEntity
  8
MOJI1
100
AcDbText
 10
-57.75885853139147
 20
-85.10082423341964
 30
0.0
 40
3.0
  1
ネットワーク
  7
KANJI
100
AcDbText
  0
TEXT
  5
1017
330
2
100
AcDbEntity
  8
MOJI1
100
AcDbText
 10
-57.75885853139147
 20
-90.10082423341964
 30
0.0
 40
3.0
  1
画像圧縮方式
  7
KANJI
100
AcDbText
  0
TEXT
  5
1018
330
2
100
AcDbEntity
  8
MOJI1
100
AcDbText
 10
-57.75885853139147
 20
-95.10082423341964
 30
0.0
 40
3.0
  1
配信画像モード
  7
KANJI
100
AcDbText
  0
LINE
  5
1019
330
2
100
AcDbEntity
  8
WAKU
 62
     1
100
AcDbLine
 10
-60.46443976190989
 20
-101.2327806708779
 30
0.0
 11
64.53556023809006
 21
-101.2327806708779
 31
0.0
  0
LINE
  5
101A
330
2
100
AcDbEntity
  8
WAKU
 62
     1
100
AcDbLine
 10
-60.46443976190989
 20
-96.2327806708779
 30
0.0
 11
64.53556023809006
 21
-96.2327806708779
 31
0.0
  0
LINE
  5
101B
330
2
100
AcDbEntity
  8
WAKU
 62
     1
100
AcDbLine
 10
-60.46443976190989
 20
-106.2327806708779
 30
0.0
 11
64.53556023809006
 21
-106.2327806708779
 31
0.0
  0
LINE
  5
101C
330
2
100
AcDbEntity
  8
WAKU
 62
     1
100
AcDbLine
 10
-60.46443976190989
 20
-126.2327806708779
 30
0.0
 11
64.53556023809006
 21
-126.2327806708779
 31
0.0
  0
LINE
  5
101D
330
2
100
AcDbEntity
  8
WAKU
 62
     1
100
AcDbLine
 10
-60.46443976190989
 20
-121.2327806708779
 30
0.0
 11
64.53556023809006
 21
-121.2327806708779
 31
0.0
  0
TEXT
  5
101E
330
2
100
AcDbEntity
  8
MOJI1
100
AcDbText
 10
-17.82824415441877
 20
-125.1696572789192
 30
0.0
 40
3.0
  1
ＩＰ６６（ＩＥＣ６０５２９／ＪＩＳ Ｃ ０９２０）
 41
0.9
  7
KANJI
100
AcDbText
  0
TEXT
  5
101F
330
2
100
AcDbEntity
  8
MOJI1
100
AcDbText
 10
-57.75885853139147
 20
-125.1008242334196
 30
0.0
 40
3.0
  1
防水性
  7
KANJI
100
AcDbText
  0
TEXT
  5
1020
330
2
100
AcDbEntity
  8
MOJI1
100
AcDbText
 10
-17.82824415441877
 20
-130.1696572789192
 30
0.0
 40
3.0
  1
５０Ｊ／ＩＫ１０　準拠
 41
0.9
  7
KANJI
100
AcDbText
  0
TEXT
  5
1021
330
2
100
AcDbEntity
  8
MOJI1
100
AcDbText
 10
-57.75885853139147
 20
-130.1008242334196
 30
0.0
 40
3.0
  1
耐衝撃性
  7
KANJI
100
AcDbText
  0
TEXT
  5
1022
330
2
100
AcDbEntity
  8
MOJI1
100
AcDbText
 10
-57.75885853139147
 20
-105.1008242334196
 30
0.0
 40
3.0
  1
対応プロトコル
  7
KANJI
100
AcDbText
  0
TEXT
  5
1023
330
2
100
AcDbEntity
  8
TOUROKU
100
AcDbText
 10
36.86510505884291
 20
11.26347739987039
 30
0.0
 40
1.5
  1
Ｓ＝１／５
 41
0.7
 72
     2
 11
42.74510505884291
 21
11.26347739987039
 31
0.0
100
AcDbText
  0
ENDSEC
  0
SECTION
  2
OBJECTS
  0
DICTIONARY
  5
9
330
0
100
AcDbDictionary
281
     1
  3
ACAD_COLOR
350
32
  3
ACAD_GROUP
350
2E
  3
ACAD_LAYOUT
350
D
  3
ACAD_MATERIAL
350
31
  3
ACAD_MLINESTYLE
350
2F
  3
ACAD_PLOTSETTINGS
350
30
  3
ACAD_PLOTSTYLENAME
350
8
  3
ACAD_TABLESTYLE
350
594
  3
ACDBHEADERROUNDTRIPXREC
350
1073
  3
AcDbVariableDictionary
350
583
  0
DICTIONARY
  5
15
330
14
100
AcDbDictionary
280
     1
281
     1
  3
ACAD_LAYERFILTERS
360
16
  3
ACAD_LAYERSTATES
360
18
  0
DICTIONARY
  5
3
330
2
100
AcDbDictionary
280
     1
281
     1
  3
ACAD_LAYOUTSELFREF
360
4
  0
DICTIONARY
  5
F
330
E
100
AcDbDictionary
280
     1
281
     1
  3
ACAD_LAYOUTSELFREF
360
10
  0
DICTIONARY
  5
32
102
{ACAD_REACTORS
330
9
102
}
330
9
100
AcDbDictionary
281
     1
  0
DICTIONARY
  5
2E
102
{ACAD_REACTORS
330
9
102
}
330
9
100
AcDbDictionary
281
     1
  0
DICTIONARY
  5
D
102
{ACAD_REACTORS
330
9
102
}
330
9
100
AcDbDictionary
281
     1
  3
Model
350
C
  3
ﾚｲｱｳﾄ1
350
13
  0
DICTIONARY
  5
31
102
{ACAD_REACTORS
330
9
102
}
330
9
100
AcDbDictionary
281
     1
  0
DICTIONARY
  5
2F
102
{ACAD_REACTORS
330
9
102
}
330
9
100
AcDbDictionary
281
     1
  3
STANDARD
350
34
  0
DICTIONARY
  5
30
102
{ACAD_REACTORS
330
9
102
}
330
9
100
AcDbDictionary
281
     1
  0
ACDBDICTIONARYWDFLT
  5
8
102
{ACAD_REACTORS
330
9
102
}
330
9
100
AcDbDictionary
281
     1
  3
Normal
350
7
100
AcDbDictionaryWithDefault
340
7
  0
DICTIONARY
  5
594
102
{ACAD_REACTORS
330
9
102
}
330
9
100
AcDbDictionary
281
     1
  3
Standard
350
595
  0
DICTIONARY
  5
1073
102
{ACAD_REACTORS
330
9
102
}
330
9
100
AcDbDictionary
281
     1
  3
COLORDICT
350
1075
  3
MATERIALDICT
350
1074
  0
DICTIONARY
  5
583
102
{ACAD_REACTORS
330
9
102
}
330
9
100
AcDbDictionary
281
     1
  3
CTABLESTYLE
350
5A7
  3
DIMASSOC
350
585
  3
HIDETEXT
350
584
  3
PROJECTNAME
350
586
  0
DICTIONARY
  5
16
102
{ACAD_REACTORS
330
15
102
}
330
15
100
AcDbDictionary
280
     1
281
     1
  3
ロック画層
360
17
  0
DICTIONARY
  5
18
102
{ACAD_REACTORS
330
15
102
}
330
15
100
AcDbDictionary
281
     1
  0
XRECORD
  5
4
102
{ACAD_REACTORS
330
3
102
}
330
3
100
AcDbXrecord
280
     1
340
2
  0
XRECORD
  5
10
102
{ACAD_REACTORS
330
F
102
}
330
F
100
AcDbXrecord
280
     1
340
E
  0
LAYOUT
  5
C
102
{ACAD_XDICTIONARY
360
1076
102
}
102
{ACAD_REACTORS
330
D
102
}
330
D
100
AcDbPlotSettings
  1

  2
\\MARS\NX800A(RPDL)
  4
A4
  6

 40
5.831416606903076
 41
4.942422866821289
 42
7.609405517578125
 43
5.789093017578125
 44
209.9733276367187
 45
296.9683227539062
 46
4.23
 47
0.0
 48
0.0
 49
0.0
140
0.0
141
0.0
142
1.0
143
1.377557041813
 70
 11956
 72
     1
 73
     0
 74
     1
  7
tmsacad.ctb
 75
     0
147
0.7259227528494222
148
0.5228791232484547
149
0.0333900090324306
100
AcDbLayout
  1
Model
 70
     1
 71
     0
 10
0.0
 20
0.0
 11
12.0
 21
9.0
 12
0.0
 22
0.0
 32
0.0
 14
0.0
 24
0.0
 34
0.0
 15
0.0
 25
0.0
 35
0.0
146
0.0
 13
0.0
 23
0.0
 33
0.0
 16
1.0
 26
0.0
 36
0.0
 17
0.0
 27
1.0
 37
0.0
 76
     0
330
2
  0
LAYOUT
  5
13
102
{ACAD_XDICTIONARY
360
1078
102
}
102
{ACAD_REACTORS
330
D
102
}
330
D
100
AcDbPlotSettings
  1

  2
C:\Program Files\ACAD2000\plotters\DWF ePlot.pc3
  4

  6

 40
0.0
 41
0.0
 42
0.0
 43
0.0
 44
0.0
 45
0.0
 46
0.0
 47
0.0
 48
0.0
 49
0.0
140
0.0
141
0.0
142
1.0
143
1.0
 70
   688
 72
     0
 73
     0
 74
     5
  7
全て黄色設定.ctb
 75
    16
147
1.0
148
0.0
149
0.0
100
AcDbLayout
  1
ﾚｲｱｳﾄ1
 70
     1
 71
     1
 10
0.0
 20
0.0
 11
12.0
 21
9.0
 12
0.0
 22
0.0
 32
0.0
 14
1.000000000000000E+20
 24
1.000000000000000E+20
 34
1.000000000000000E+20
 15
-1.000000000000000E+20
 25
-1.000000000000000E+20
 35
-1.000000000000000E+20
146
0.0
 13
0.0
 23
0.0
 33
0.0
 16
1.0
 26
0.0
 36
0.0
 17
0.0
 27
1.0
 37
0.0
 76
     0
330
E
  0
MLINESTYLE
  5
34
102
{ACAD_REACTORS
330
2F
102
}
330
2F
100
AcDbMlineStyle
  2
STANDARD
 70
     0
  3

 62
   256
 51
90.0
 52
90.0
 71
     2
 49
0.5
 62
   256
  6
BYLAYER
 49
-0.5
 62
   256
  6
BYLAYER
  0
ACDBPLACEHOLDER
  5
7
102
{ACAD_REACTORS
330
8
102
}
330
8
  0
ACAD_PROXY_OBJECT
  5
595
102
{ACAD_REACTORS
330
594
102
}
330
594
100
AcDbProxyObject
 90
      499
 91
      552
 95
   983063
 70
     0
 93
     1841
310
4214DD185B99185C9928B81E85EB51B8AE3F2E07A17AD46E2B8FC02B5E8DC0F42B1CFD028000000C1008070000C3001FDFF8000000C1003FBFF000000182007F7FE00000030400FEFFC00000060801FDFF8000000C1003FBFF00000018200000000000000681FA0B0000001820100E000186003FBFF000000182007F7FE000
310
00030400FEFFC00000060801FDFF8000000C1003FBFF000000182007F7FE000000304000AD7A3703D0AC73F4160000003040201C00030C007F7FE00000030400FEFFC00000060801FDFF8000000C1003FBFF000000182007F7FE00000030400FEFFC000000608000
340
1A
340
1A
340
1A
 94
        0
1001
ACAD
1000
AcRTDxfName
1000
TABLESTYLE
  0
XRECORD
  5
1075
102
{ACAD_REACTORS
330
1073
102
}
330
1073
100
AcDbXrecord
280
     1
340
32
  0
XRECORD
  5
1074
102
{ACAD_REACTORS
330
1073
102
}
330
1073
100
AcDbXrecord
280
     1
340
31
  0
DICTIONARYVAR
  5
5A7
102
{ACAD_REACTORS
330
583
102
}
330
583
100
DictionaryVariables
280
     0
  1
STANDARD
  0
DICTIONARYVAR
  5
585
102
{ACAD_REACTORS
330
583
102
}
330
583
100
DictionaryVariables
280
     0
  1
1
  0
DICTIONARYVAR
  5
584
102
{ACAD_REACTORS
330
583
102
}
330
583
100
DictionaryVariables
280
     0
  1
1
  0
DICTIONARYVAR
  5
586
102
{ACAD_REACTORS
330
583
102
}
330
583
100
DictionaryVariables
280
     0
  1

  0
XRECORD
  5
17
102
{ACAD_REACTORS
330
16
102
}
330
16
100
AcDbXrecord
280
     1
  1
ロック画層
  1
*
  1
*
  1
*
 70
   256
  1
*
  1
*
  0
DICTIONARY
  5
1076
330
C
100
AcDbDictionary
280
     1
281
     1
  3
ACAD_XREC_ROUNDTRIP
360
1077
  0
DICTIONARY
  5
1078
330
13
100
AcDbDictionary
280
     1
281
     1
  3
ACAD_XREC_ROUNDTRIP
360
1079
  0
XRECORD
  5
1077
102
{ACAD_REACTORS
330
1076
102
}
330
1076
100
AcDbXrecord
280
     1
102
SHADEPLOT
 70
     0
102
SHADEPLOTRESLEVEL
 70
     2
102
SHADEPLOTCUSTOMDPI
 70
   300
  0
XRECORD
  5
1079
102
{ACAD_REACTORS
330
1078
102
}
330
1078
100
AcDbXrecord
280
     1
102
SHADEPLOT
 70
     0
102
SHADEPLOTRESLEVEL
 70
     2
102
SHADEPLOTCUSTOMDPI
 70
   300
  0
ENDSEC
  0
EOF
