  0
SECTION
  2
HEADER
  9
$ACADVER
  1
AC1015
  9
$ACADMAINTVER
 70
    20
  9
$DWGCODEPAGE
  3
ANSI_932
  9
$INSBASE
 10
0.4999999440410648
 20
372.5008351249344
 30
0.0
  9
$EXTMIN
 10
-61.88873200431544
 20
-73.67445312961286
 30
-0.0015258207003583
  9
$EXTMAX
 10
63.14483698823585
 20
39.35014382418024
 30
0.0000000349246037
  9
$LIMMIN
 10
0.0
 20
0.0
  9
$LIMMAX
 10
420.0
 20
297.0
  9
$ORTHOMODE
 70
     1
  9
$REGENMODE
 70
     0
  9
$FILLMODE
 70
     1
  9
$QTEXTMODE
 70
     0
  9
$MIRRTEXT
 70
     0
  9
$LTSCALE
 40
1.0
  9
$ATTMODE
 70
     1
  9
$TEXTSIZE
 40
2.5
  9
$TRACEWID
 40
1.0
  9
$TEXTSTYLE
  7
Standard
  9
$CLAYER
  8
GAIKEI
  9
$CELTYPE
  6
ByLayer
  9
$CECOLOR
 62
   256
  9
$CELTSCALE
 40
1.0
  9
$DISPSILH
 70
     0
  9
$DIMSCALE
 40
1.0
  9
$DIMASZ
 40
2.0
  9
$DIMEXO
 40
2.0
  9
$DIMDLI
 40
8.0
  9
$DIMRND
 40
0.0
  9
$DIMDLE
 40
0.0
  9
$DIMEXE
 40
2.0
  9
$DIMTP
 40
0.0
  9
$DIMTM
 40
0.0
  9
$DIMTXT
 40
2.5
  9
$DIMCEN
 40
0.0
  9
$DIMTSZ
 40
0.0
  9
$DIMTOL
 70
     0
  9
$DIMLIM
 70
     0
  9
$DIMTIH
 70
     0
  9
$DIMTOH
 70
     0
  9
$DIMSE1
 70
     0
  9
$DIMSE2
 70
     0
  9
$DIMTAD
 70
     3
  9
$DIMZIN
 70
     0
  9
$DIMBLK
  1

  9
$DIMASO
 70
     1
  9
$DIMSHO
 70
     1
  9
$DIMPOST
  1

  9
$DIMAPOST
  1

  9
$DIMALT
 70
     0
  9
$DIMALTD
 70
     2
  9
$DIMALTF
 40
25.4
  9
$DIMLFAC
 40
1.0
  9
$DIMTOFL
 70
     1
  9
$DIMTVP
 40
0.0
  9
$DIMTIX
 70
     0
  9
$DIMSOXD
 70
     0
  9
$DIMSAH
 70
     1
  9
$DIMBLK1
  1
OPEN30
  9
$DIMBLK2
  1
OPEN30
  9
$DIMSTYLE
  2
STANDARD
  9
$DIMCLRD
 70
     0
  9
$DIMCLRE
 70
     0
  9
$DIMCLRT
 70
     0
  9
$DIMTFAC
 40
1.0
  9
$DIMGAP
 40
0.5
  9
$DIMJUST
 70
     0
  9
$DIMSD1
 70
     0
  9
$DIMSD2
 70
     0
  9
$DIMTOLJ
 70
     1
  9
$DIMTZIN
 70
     0
  9
$DIMALTZ
 70
     0
  9
$DIMALTTZ
 70
     0
  9
$DIMUPT
 70
     0
  9
$DIMDEC
 70
     4
  9
$DIMTDEC
 70
     4
  9
$DIMALTU
 70
     2
  9
$DIMALTTD
 70
     2
  9
$DIMTXSTY
  7
Standard
  9
$DIMAUNIT
 70
     0
  9
$DIMADEC
 70
     0
  9
$DIMALTRND
 40
0.0
  9
$DIMAZIN
 70
     0
  9
$DIMDSEP
 70
    46
  9
$DIMATFIT
 70
     3
  9
$DIMFRAC
 70
     0
  9
$DIMLDRBLK
  1
OPEN30
  9
$DIMLUNIT
 70
     2
  9
$DIMLWD
 70
    -2
  9
$DIMLWE
 70
    -2
  9
$DIMTMOVE
 70
     0
  9
$LUNITS
 70
     2
  9
$LUPREC
 70
     4
  9
$SKETCHINC
 40
1.0
  9
$FILLETRAD
 40
0.0
  9
$AUNITS
 70
     0
  9
$AUPREC
 70
     0
  9
$MENU
  1
.
  9
$ELEVATION
 40
0.0
  9
$PELEVATION
 40
0.0
  9
$THICKNESS
 40
0.0
  9
$LIMCHECK
 70
     0
  9
$CHAMFERA
 40
0.0
  9
$CHAMFERB
 40
0.0
  9
$CHAMFERC
 40
0.0
  9
$CHAMFERD
 40
0.0
  9
$SKPOLY
 70
     0
  9
$TDCREATE
 40
2454349.434269746
  9
$TDUCREATE
 40
2454349.059269746
  9
$TDUPDATE
 40
2455805.724530197
  9
$TDUUPDATE
 40
2455805.349530197
  9
$TDINDWG
 40
1.0787593056
  9
$TDUSRTIMER
 40
1.0787593056
  9
$USRTIMER
 70
     1
  9
$ANGBASE
 50
0.0
  9
$ANGDIR
 70
     0
  9
$PDMODE
 70
     0
  9
$PDSIZE
 40
0.0
  9
$PLINEWID
 40
0.0
  9
$SPLFRAME
 70
     0
  9
$SPLINETYPE
 70
     6
  9
$SPLINESEGS
 70
     8
  9
$HANDSEED
  5
1A8
  9
$SURFTAB1
 70
     6
  9
$SURFTAB2
 70
     6
  9
$SURFTYPE
 70
     6
  9
$SURFU
 70
     6
  9
$SURFV
 70
     6
  9
$UCSBASE
  2

  9
$UCSNAME
  2

  9
$UCSORG
 10
0.0
 20
0.0
 30
0.0
  9
$UCSXDIR
 10
1.0
 20
0.0
 30
0.0
  9
$UCSYDIR
 10
0.0
 20
1.0
 30
0.0
  9
$UCSORTHOREF
  2

  9
$UCSORTHOVIEW
 70
     0
  9
$UCSORGTOP
 10
0.0
 20
0.0
 30
0.0
  9
$UCSORGBOTTOM
 10
0.0
 20
0.0
 30
0.0
  9
$UCSORGLEFT
 10
0.0
 20
0.0
 30
0.0
  9
$UCSORGRIGHT
 10
0.0
 20
0.0
 30
0.0
  9
$UCSORGFRONT
 10
0.0
 20
0.0
 30
0.0
  9
$UCSORGBACK
 10
0.0
 20
0.0
 30
0.0
  9
$PUCSBASE
  2

  9
$PUCSNAME
  2

  9
$PUCSORG
 10
0.0
 20
0.0
 30
0.0
  9
$PUCSXDIR
 10
1.0
 20
0.0
 30
0.0
  9
$PUCSYDIR
 10
0.0
 20
1.0
 30
0.0
  9
$PUCSORTHOREF
  2

  9
$PUCSORTHOVIEW
 70
     0
  9
$PUCSORGTOP
 10
0.0
 20
0.0
 30
0.0
  9
$PUCSORGBOTTOM
 10
0.0
 20
0.0
 30
0.0
  9
$PUCSORGLEFT
 10
0.0
 20
0.0
 30
0.0
  9
$PUCSORGRIGHT
 10
0.0
 20
0.0
 30
0.0
  9
$PUCSORGFRONT
 10
0.0
 20
0.0
 30
0.0
  9
$PUCSORGBACK
 10
0.0
 20
0.0
 30
0.0
  9
$USERI1
 70
     0
  9
$USERI2
 70
     0
  9
$USERI3
 70
     0
  9
$USERI4
 70
     0
  9
$USERI5
 70
     0
  9
$USERR1
 40
0.0
  9
$USERR2
 40
0.0
  9
$USERR3
 40
0.0
  9
$USERR4
 40
0.0
  9
$USERR5
 40
0.0
  9
$WORLDVIEW
 70
     1
  9
$SHADEDGE
 70
     3
  9
$SHADEDIF
 70
    70
  9
$TILEMODE
 70
     1
  9
$MAXACTVP
 70
    64
  9
$PINSBASE
 10
0.0
 20
0.0
 30
0.0
  9
$PLIMCHECK
 70
     0
  9
$PEXTMIN
 10
0.0
 20
0.0
 30
0.0
  9
$PEXTMAX
 10
0.0
 20
0.0
 30
0.0
  9
$PLIMMIN
 10
0.0
 20
0.0
  9
$PLIMMAX
 10
12.0
 20
9.0
  9
$UNITMODE
 70
     0
  9
$VISRETAIN
 70
     1
  9
$PLINEGEN
 70
     0
  9
$PSLTSCALE
 70
     1
  9
$TREEDEPTH
 70
  3020
  9
$CMLSTYLE
  2
Standard
  9
$CMLJUST
 70
     0
  9
$CMLSCALE
 40
20.0
  9
$PROXYGRAPHICS
 70
     1
  9
$MEASUREMENT
 70
     1
  9
$CELWEIGHT
370
    -1
  9
$ENDCAPS
280
     0
  9
$JOINSTYLE
280
     0
  9
$LWDISPLAY
290
     0
  9
$INSUNITS
 70
     4
  9
$HYPERLINKBASE
  1

  9
$STYLESHEET
  1

  9
$XEDIT
290
     1
  9
$CEPSNTYPE
380
     0
  9
$PSTYLEMODE
290
     1
  9
$FINGERPRINTGUID
  2
{FDEAD578-A652-11D2-9A35-0060089B3A3F}
  9
$VERSIONGUID
  2
{D28E2B0C-3DC6-4C44-9C36-112A6F22552B}
  9
$EXTNAMES
290
     1
  9
$PSVPSCALE
 40
0.0
  9
$OLESTARTUP
290
     0
  0
ENDSEC
  0
SECTION
  2
CLASSES
  0
CLASS
  1
ACDBDICTIONARYWDFLT
  2
AcDbDictionaryWithDefault
  3
ObjectDBX Classes
 90
        0
280
     0
281
     0
  0
CLASS
  1
ACDBPLACEHOLDER
  2
AcDbPlaceHolder
  3
ObjectDBX Classes
 90
        0
280
     0
281
     0
  0
CLASS
  1
LAYOUT
  2
AcDbLayout
  3
ObjectDBX Classes
 90
        0
280
     0
281
     0
  0
CLASS
  1
DICTIONARYVAR
  2
AcDbDictionaryVar
  3
ObjectDBX Classes
 90
        0
280
     0
281
     0
  0
ENDSEC
  0
SECTION
  2
TABLES
  0
TABLE
  2
VPORT
  5
1B
330
0
100
AcDbSymbolTable
 70
     3
  0
VPORT
  5
1A0
330
1B
100
AcDbSymbolTableRecord
100
AcDbViewportTableRecord
  2
*Active
 70
     0
 10
0.0
 20
0.0
 11
1.0
 21
1.0
 12
0.6280524919602116
 22
-17.16215465271631
 13
0.0
 23
0.0
 14
10.0
 24
10.0
 15
10.0
 25
10.0
 16
0.0
 26
0.0
 36
1.0
 17
0.0
 27
0.0
 37
0.0
 40
113.8680640952393
 41
2.173100871731008
 42
50.0
 43
0.0
 44
0.0
 50
0.0
 51
0.0
 71
     0
 72
  1000
 73
     1
 74
     2
 75
     0
 76
     0
 77
     0
 78
     0
281
     0
 65
     1
110
0.0
120
0.0
130
0.0
111
1.0
121
0.0
131
0.0
112
0.0
122
1.0
132
0.0
 79
     0
146
0.0
  0
ENDTAB
  0
TABLE
  2
LTYPE
  5
16
330
0
100
AcDbSymbolTable
 70
     1
  0
LTYPE
  5
17
330
16
100
AcDbSymbolTableRecord
100
AcDbLinetypeTableRecord
  2
ByBlock
 70
     0
  3

 72
    65
 73
     0
 40
0.0
  0
LTYPE
  5
18
330
16
100
AcDbSymbolTableRecord
100
AcDbLinetypeTableRecord
  2
ByLayer
 70
     0
  3

 72
    65
 73
     0
 40
0.0
  0
LTYPE
  5
8
330
16
100
AcDbSymbolTableRecord
100
AcDbLinetypeTableRecord
  2
Continuous
 70
     0
  3
Solid line
 72
    65
 73
     0
 40
0.0
  0
ENDTAB
  0
TABLE
  2
LAYER
  5
10
102
{ACAD_XDICTIONARY
360
11
102
}
330
0
100
AcDbSymbolTable
 70
     7
  0
LAYER
  5
4
330
10
100
AcDbSymbolTableRecord
100
AcDbLayerTableRecord
  2
0
 70
     0
 62
     7
  6
Continuous
370
    -3
390
5
  0
LAYER
  5
146
330
10
100
AcDbSymbolTableRecord
100
AcDbLayerTableRecord
  2
WAKU
 70
     0
 62
     4
  6
Continuous
370
    -3
390
5
  0
LAYER
  5
30
330
10
100
AcDbSymbolTableRecord
100
AcDbLayerTableRecord
  2
MOJI1
 70
     0
 62
     2
  6
Continuous
370
    -3
390
5
  0
LAYER
  5
142
330
10
100
AcDbSymbolTableRecord
100
AcDbLayerTableRecord
  2
TOUROKU
 70
     0
 62
     1
  6
Continuous
370
    -3
390
5
  0
LAYER
  5
3C
330
10
100
AcDbSymbolTableRecord
100
AcDbLayerTableRecord
  2
DEFPOINTS
 70
     0
 62
     7
  6
Continuous
290
     0
370
    -3
390
5
  0
LAYER
  5
2D
330
10
100
AcDbSymbolTableRecord
100
AcDbLayerTableRecord
  2
GAIKEI
 70
     0
 62
     7
  6
Continuous
370
    -3
390
5
  0
LAYER
  5
32
330
10
100
AcDbSymbolTableRecord
100
AcDbLayerTableRecord
  2
SUNPO
 70
     0
 62
     3
  6
Continuous
370
    -3
390
5
  0
ENDTAB
  0
TABLE
  2
STYLE
  5
13
330
0
100
AcDbSymbolTable
 70
     1
  0
STYLE
  5
14
330
13
100
AcDbSymbolTableRecord
100
AcDbTextStyleTableRecord
  2
Standard
 70
     0
 40
0.0
 41
1.0
 50
0.0
 71
     0
 42
2.5
  3
MONOTXT.shx
  4
BIGFONT.shx
  0
ENDTAB
  0
TABLE
  2
VIEW
  5
19
330
0
100
AcDbSymbolTable
 70
     0
  0
ENDTAB
  0
TABLE
  2
UCS
  5
1A
330
0
100
AcDbSymbolTable
 70
     0
  0
ENDTAB
  0
TABLE
  2
APPID
  5
1D
330
0
100
AcDbSymbolTable
 70
     1
  0
APPID
  5
1E
330
1D
100
AcDbSymbolTableRecord
100
AcDbRegAppTableRecord
  2
ACAD
 70
     0
  0
ENDTAB
  0
TABLE
  2
DIMSTYLE
  5
1F
330
0
100
AcDbSymbolTable
 70
     1
100
AcDbDimStyleTable
 71
     1
340
20
  0
DIMSTYLE
105
20
102
{ACAD_REACTORS
330
4D
330
40
330
31
102
}
330
1F
100
AcDbSymbolTableRecord
100
AcDbDimStyleTableRecord
  2
STANDARD
 70
     0
 40
0.0
 41
2.0
 42
2.0
 43
8.0
 44
2.0
 73
     0
 74
     0
 77
     3
140
3.0
141
0.0
173
     1
279
     2
288
     1
340
14
341
21
343
21
344
21
  0
ENDTAB
  0
TABLE
  2
BLOCK_RECORD
  5
1
330
0
100
AcDbSymbolTable
 70
     7
  0
BLOCK_RECORD
  5
2
330
1
100
AcDbSymbolTableRecord
100
AcDbBlockTableRecord
  2
*Model_Space
340
A
  0
BLOCK_RECORD
  5
C
330
1
100
AcDbSymbolTableRecord
100
AcDbBlockTableRecord
  2
*Paper_Space
340
F
  0
BLOCK_RECORD
  5
21
330
1
100
AcDbSymbolTableRecord
100
AcDbBlockTableRecord
  2
_OPEN30
340
0
102
{BLKREFS
331
38
331
39
331
46
331
47
331
55
331
56
331
17C
331
17D
331
188
331
189
331
194
331
195
102
}
  0
BLOCK_RECORD
  5
4E
330
1
100
AcDbSymbolTableRecord
100
AcDbBlockTableRecord
  2
*D1
340
0
  0
BLOCK_RECORD
  5
41
330
1
100
AcDbSymbolTableRecord
100
AcDbBlockTableRecord
  2
*D2
340
0
  0
BLOCK_RECORD
  5
33
330
1
100
AcDbSymbolTableRecord
100
AcDbBlockTableRecord
  2
*D3
340
0
  0
BLOCK_RECORD
  5
176
330
1
100
AcDbSymbolTableRecord
100
AcDbBlockTableRecord
  2
*D4
340
0
  0
BLOCK_RECORD
  5
184
330
1
100
AcDbSymbolTableRecord
100
AcDbBlockTableRecord
  2
*D5
340
0
  0
BLOCK_RECORD
  5
190
330
1
100
AcDbSymbolTableRecord
100
AcDbBlockTableRecord
  2
*D6
340
0
  0
ENDTAB
  0
ENDSEC
  0
SECTION
  2
BLOCKS
  0
BLOCK
  5
3
330
2
100
AcDbEntity
  8
0
100
AcDbBlockBegin
  2
*Model_Space
 70
     0
 10
0.0
 20
0.0
 30
0.0
  3
*Model_Space
  1

  0
ENDBLK
  5
9
330
2
100
AcDbEntity
  8
0
100
AcDbBlockEnd
  0
BLOCK
  5
D
330
C
100
AcDbEntity
 67
     1
  8
0
100
AcDbBlockBegin
  2
*Paper_Space
 70
     0
 10
0.0
 20
0.0
 30
0.0
  3
*Paper_Space
  1

  0
ENDBLK
  5
E
330
C
100
AcDbEntity
 67
     1
  8
0
100
AcDbBlockEnd
  0
BLOCK
  5
22
330
21
100
AcDbEntity
  8
0
100
AcDbBlockBegin
  2
_OPEN30
 70
     0
 10
0.0
 20
0.0
 30
0.0
  3
_OPEN30
  1

  0
LINE
  5
23
330
21
100
AcDbEntity
  8
0
  6
ByBlock
 62
     0
100
AcDbLine
 10
-1.0
 20
0.26794919
 30
0.0
 11
0.0
 21
0.0
 31
0.0
  0
LINE
  5
24
330
21
100
AcDbEntity
  8
0
  6
ByBlock
 62
     0
100
AcDbLine
 10
0.0
 20
0.0
 30
0.0
 11
-1.0
 21
-0.26794919
 31
0.0
  0
LINE
  5
25
330
21
100
AcDbEntity
  8
0
  6
ByBlock
 62
     0
100
AcDbLine
 10
0.0
 20
0.0
 30
0.0
 11
-1.0
 21
0.0
 31
0.0
  0
ENDBLK
  5
26
330
21
100
AcDbEntity
  8
0
100
AcDbBlockEnd
  0
BLOCK
  5
4F
330
4E
100
AcDbEntity
  8
0
100
AcDbBlockBegin
  2
*D1
 70
     1
 10
0.0
 20
0.0
 30
0.0
  3
*D1
  1

  0
LINE
  5
50
330
4E
100
AcDbEntity
  8
SUNPO
 62
     0
370
    -2
100
AcDbLine
 10
71.92129480229929
 20
320.2037780947148
 30
0.0
 11
79.92129479730907
 21
320.2035782894222
 31
0.0
  0
LINE
  5
51
330
4E
100
AcDbEntity
  8
SUNPO
 62
     0
370
    -2
100
AcDbLine
 10
71.9213622367961
 20
322.9037865236295
 30
0.0
 11
79.92136223180589
 21
322.903586718337
 31
0.0
  0
LINE
  5
52
330
4E
100
AcDbEntity
  8
SUNPO
 62
     0
370
    -2
100
AcDbLine
 10
77.92124484660968
 20
318.2036282413691
 30
0.0
 11
77.92119489528651
 21
316.2036282419929
 31
0.0
  0
LINE
  5
53
330
4E
100
AcDbEntity
  8
SUNPO
 62
     0
370
    -2
100
AcDbLine
 10
77.92141218375282
 20
324.9036366690363
 30
0.0
 11
77.92166610297892
 21
335.0703033325321
 31
0.0
  0
LINE
  5
54
330
4E
100
AcDbEntity
  8
SUNPO
 62
     0
370
    -2
100
AcDbLine
 10
77.92129479793285
 20
320.2036282407453
 30
0.0
 11
77.92136223242966
 21
322.9036366696601
 31
0.0
  0
INSERT
  5
55
330
4E
100
AcDbEntity
  8
SUNPO
 62
     0
370
    -2
100
AcDbBlockReference
  2
_OPEN30
 10
77.92129479793285
 20
320.2036282407453
 30
0.0
 41
2.0
 42
2.0
 43
2.0
 50
89.99856900000054
  0
INSERT
  5
56
330
4E
100
AcDbEntity
  8
SUNPO
 62
     0
370
    -2
100
AcDbBlockReference
  2
_OPEN30
 10
77.92136223242966
 20
322.9036366696601
 30
0.0
 41
2.0
 42
2.0
 43
2.0
 50
269.9985690000006
  0
MTEXT
  5
57
330
4E
100
AcDbEntity
  8
SUNPO
 62
     0
100
AcDbMText
 10
76.17156411957328
 20
330.98701370788
 30
0.0
 40
2.5
 41
0.0
 71
     5
 72
     1
  1
\A1;約27
 11
0.0000249756615832
 21
0.9999999996881081
 31
0.0
 73
     1
 44
1.0
1001
ACAD
1000
MTEXTBEGIN
1070
    73
1070
     1
1070
    44
1040
1.0
1070
    74
1070
     0
1000
MTEXTEND
  0
POINT
  5
58
330
4E
100
AcDbEntity
  8
DEFPOINTS
 62
     0
100
AcDbPoint
 10
69.92129480292307
 20
320.2038280460379
 30
0.0
  0
POINT
  5
59
330
4E
100
AcDbEntity
  8
DEFPOINTS
 62
     0
100
AcDbPoint
 10
69.92136223741988
 20
322.9038364749527
 30
0.0
  0
POINT
  5
5A
330
4E
100
AcDbEntity
  8
DEFPOINTS
 62
     0
100
AcDbPoint
 10
77.92136223242966
 20
322.9036366696601
 30
0.0
  0
ENDBLK
  5
5B
330
4E
100
AcDbEntity
  8
0
100
AcDbBlockEnd
  0
BLOCK
  5
42
330
41
100
AcDbEntity
  8
0
100
AcDbBlockBegin
  2
*D2
 70
     1
 10
0.0
 20
0.0
 30
0.0
  3
*D2
  1

  0
LINE
  5
43
330
41
100
AcDbEntity
  8
SUNPO
 62
     0
370
    -2
100
AcDbLine
 10
58.38234240760455
 20
351.743213941309
 30
0.0
 11
58.38234240760455
 21
359.743213941309
 31
0.0
  0
LINE
  5
44
330
41
100
AcDbEntity
  8
SUNPO
 62
     0
370
    -2
100
AcDbLine
 10
70.38234053390334
 20
351.743213941309
 30
0.0
 11
70.38234053390334
 21
359.743213941309
 31
0.0
  0
LINE
  5
45
330
41
100
AcDbEntity
  8
SUNPO
 62
     0
370
    -2
100
AcDbLine
 10
60.38234240760455
 20
357.743213941309
 30
0.0
 11
68.38234053390334
 21
357.743213941309
 31
0.0
  0
INSERT
  5
46
330
41
100
AcDbEntity
  8
SUNPO
 62
     0
370
    -2
100
AcDbBlockReference
  2
_OPEN30
 10
58.38234240760455
 20
357.743213941309
 30
0.0
 41
2.0
 42
2.0
 43
2.0
 50
180.0
  0
INSERT
  5
47
330
41
100
AcDbEntity
  8
SUNPO
 62
     0
370
    -2
100
AcDbBlockReference
  2
_OPEN30
 10
70.38234053390334
 20
357.743213941309
 30
0.0
 41
2.0
 42
2.0
 43
2.0
  0
MTEXT
  5
48
330
41
100
AcDbEntity
  8
SUNPO
 62
     0
100
AcDbMText
 10
64.38234147075394
 20
359.493213941309
 30
0.0
 40
2.5
 41
0.0
 71
     5
 72
     1
  1
\A1;約120
 73
     1
 44
1.0
1001
ACAD
1000
MTEXTBEGIN
1070
    73
1070
     1
1070
    44
1040
1.0
1070
    74
1070
     0
1000
MTEXTEND
  0
POINT
  5
49
330
41
100
AcDbEntity
  8
DEFPOINTS
 62
     0
100
AcDbPoint
 10
58.38234240760455
 20
349.743213941309
 30
0.0
  0
POINT
  5
4A
330
41
100
AcDbEntity
  8
DEFPOINTS
 62
     0
100
AcDbPoint
 10
70.38234053390334
 20
349.743213941309
 30
0.0
  0
POINT
  5
4B
330
41
100
AcDbEntity
  8
DEFPOINTS
 62
     0
100
AcDbPoint
 10
70.38234053390334
 20
357.743213941309
 30
0.0
  0
ENDBLK
  5
4C
330
41
100
AcDbEntity
  8
0
100
AcDbBlockEnd
  0
BLOCK
  5
34
330
33
100
AcDbEntity
  8
0
100
AcDbBlockBegin
  2
*D3
 70
     1
 10
0.0
 20
0.0
 30
0.0
  3
*D3
  1

  0
LINE
  5
35
330
33
100
AcDbEntity
  8
SUNPO
 62
     0
370
    -2
100
AcDbLine
 10
72.34116546068952
 20
350.5674586471021
 30
0.0
 11
80.34116546068952
 21
350.5674586471021
 31
0.0
  0
LINE
  5
36
330
33
100
AcDbEntity
  8
SUNPO
 62
     0
370
    -2
100
AcDbLine
 10
72.34116546068952
 20
338.5674341051342
 30
0.0
 11
80.34116546068952
 21
338.5674341051342
 31
0.0
  0
LINE
  5
37
330
33
100
AcDbEntity
  8
SUNPO
 62
     0
370
    -2
100
AcDbLine
 10
78.34116546068952
 20
348.5674586471021
 30
0.0
 11
78.34116546068952
 21
340.5674341051342
 31
0.0
  0
INSERT
  5
38
330
33
100
AcDbEntity
  8
SUNPO
 62
     0
370
    -2
100
AcDbBlockReference
  2
_OPEN30
 10
78.34116546068952
 20
350.5674586471021
 30
0.0
 41
2.0
 42
2.0
 43
2.0
 50
90.0
  0
INSERT
  5
39
330
33
100
AcDbEntity
  8
SUNPO
 62
     0
370
    -2
100
AcDbBlockReference
  2
_OPEN30
 10
78.34116546068952
 20
338.5674341051342
 30
0.0
 41
2.0
 42
2.0
 43
2.0
 50
270.0
  0
MTEXT
  5
3A
330
33
100
AcDbEntity
  8
SUNPO
 62
     0
100
AcDbMText
 10
76.59116546068947
 20
344.5674463761181
 30
0.0
 40
2.5
 41
0.0
 71
     5
 72
     1
  1
\A1;約120
 11
0.0000000000000001
 21
1.0
 31
0.0
 73
     1
 44
1.0
1001
ACAD
1000
MTEXTBEGIN
1070
    73
1070
     1
1070
    44
1040
1.0
1070
    74
1070
     0
1000
MTEXTEND
  0
POINT
  5
3B
330
33
100
AcDbEntity
  8
DEFPOINTS
 62
     0
100
AcDbPoint
 10
70.34116546068952
 20
350.5674586471021
 30
0.0
  0
POINT
  5
3D
330
33
100
AcDbEntity
  8
DEFPOINTS
 62
     0
100
AcDbPoint
 10
70.34116546068952
 20
338.5674341051342
 30
0.0
  0
POINT
  5
3E
330
33
100
AcDbEntity
  8
DEFPOINTS
 62
     0
100
AcDbPoint
 10
78.34116546068952
 20
338.5674341051342
 30
0.0
  0
ENDBLK
  5
3F
330
33
100
AcDbEntity
  8
0
100
AcDbBlockEnd
  0
BLOCK
  5
182
330
176
100
AcDbEntity
  8
0
100
AcDbBlockBegin
  2
*D4
 70
     1
 10
0.0
 20
0.0
 30
0.0
  3
*D4
  1

  0
LINE
  5
177
330
176
100
AcDbEntity
  8
SUNPO
 62
     0
370
    -2
100
AcDbLine
 10
7.54441136320624
 20
-10.94920341158117
 30
0.0
 11
15.54441135821603
 21
-10.94940321687377
 31
0.0
  0
LINE
  5
178
330
176
100
AcDbEntity
  8
SUNPO
 62
     0
370
    -2
100
AcDbLine
 10
7.544478797703053
 20
-8.2491949826664
 30
0.0
 11
15.54447879271284
 21
-8.249394787959005
 31
0.0
  0
LINE
  5
179
330
176
100
AcDbEntity
  8
SUNPO
 62
     0
370
    -2
100
AcDbLine
 10
13.54436140751664
 20
-12.94935326492682
 30
0.0
 11
13.54431145619348
 21
-14.94935326430304
 31
0.0
  0
LINE
  5
17A
330
176
100
AcDbEntity
  8
SUNPO
 62
     0
370
    -2
100
AcDbLine
 10
13.54452874465979
 20
-6.249344837259622
 30
0.0
 11
13.54478266388589
 21
3.917321826236146
 31
0.0
  0
LINE
  5
17B
330
176
100
AcDbEntity
  8
SUNPO
 62
     0
370
    -2
100
AcDbLine
 10
13.54441135883981
 20
-10.94935326555061
 30
0.0
 11
13.54447879333662
 21
-8.249344836635838
 31
0.0
  0
INSERT
  5
17C
330
176
100
AcDbEntity
  8
SUNPO
 62
     0
370
    -2
100
AcDbBlockReference
  2
_OPEN30
 10
13.54441135883981
 20
-10.94935326555061
 30
0.0
 41
2.0
 42
2.0
 43
2.0
 50
89.99856900000054
  0
INSERT
  5
17D
330
176
100
AcDbEntity
  8
SUNPO
 62
     0
370
    -2
100
AcDbBlockReference
  2
_OPEN30
 10
13.54447879333662
 20
-8.249344836635838
 30
0.0
 41
2.0
 42
2.0
 43
2.0
 50
269.9985690000006
  0
MTEXT
  5
17E
330
176
100
AcDbEntity
  8
SUNPO
 62
     0
100
AcDbMText
 10
11.79468068048023
 20
-0.1659677984158592
 30
0.0
 40
2.5
 41
0.0
 71
     5
 72
     1
  1
\A1;約27
 11
0.0000249756615832
 21
0.9999999996881081
 31
0.0
 73
     1
 44
1.0
1001
ACAD
1000
MTEXTBEGIN
1070
    73
1070
     1
1070
    44
1040
1.0
1070
    74
1070
     0
1000
MTEXTEND
  0
POINT
  5
17F
330
176
100
AcDbEntity
  8
DEFPOINTS
 62
     0
100
AcDbPoint
 10
5.544411363830024
 20
-10.949153460258
 30
0.0
  0
POINT
  5
180
330
176
100
AcDbEntity
  8
DEFPOINTS
 62
     0
100
AcDbPoint
 10
5.544478798326837
 20
-8.249145031343235
 30
0.0
  0
POINT
  5
181
330
176
100
AcDbEntity
  8
DEFPOINTS
 62
     0
100
AcDbPoint
 10
13.54447879333662
 20
-8.249344836635838
 30
0.0
  0
ENDBLK
  5
183
330
176
100
AcDbEntity
  8
0
100
AcDbBlockEnd
  0
BLOCK
  5
18E
330
184
100
AcDbEntity
  8
0
100
AcDbBlockBegin
  2
*D5
 70
     1
 10
0.0
 20
0.0
 30
0.0
  3
*D5
  1

  0
LINE
  5
185
330
184
100
AcDbEntity
  8
SUNPO
 62
     0
370
    -2
100
AcDbLine
 10
-5.994541031488488
 20
20.59023243501315
 30
0.0
 11
-5.994541031488487
 21
28.59023243501315
 31
0.0
  0
LINE
  5
186
330
184
100
AcDbEntity
  8
SUNPO
 62
     0
370
    -2
100
AcDbLine
 10
6.00545709481031
 20
20.59023243501315
 30
0.0
 11
6.005457094810311
 21
28.59023243501315
 31
0.0
  0
LINE
  5
187
330
184
100
AcDbEntity
  8
SUNPO
 62
     0
370
    -2
100
AcDbLine
 10
-3.994541031488487
 20
26.59023243501315
 30
0.0
 11
4.005457094810311
 21
26.59023243501315
 31
0.0
  0
INSERT
  5
188
330
184
100
AcDbEntity
  8
SUNPO
 62
     0
370
    -2
100
AcDbBlockReference
  2
_OPEN30
 10
-5.994541031488487
 20
26.59023243501315
 30
0.0
 41
2.0
 42
2.0
 43
2.0
 50
180.0
  0
INSERT
  5
189
330
184
100
AcDbEntity
  8
SUNPO
 62
     0
370
    -2
100
AcDbBlockReference
  2
_OPEN30
 10
6.005457094810311
 20
26.59023243501315
 30
0.0
 41
2.0
 42
2.0
 43
2.0
  0
MTEXT
  5
18A
330
184
100
AcDbEntity
  8
SUNPO
 62
     0
100
AcDbMText
 10
0.0054580316609122
 20
28.34023243501315
 30
0.0
 40
2.5
 41
0.0
 71
     5
 72
     1
  1
\A1;約120
 73
     1
 44
1.0
1001
ACAD
1000
MTEXTBEGIN
1070
    73
1070
     1
1070
    44
1040
1.0
1070
    74
1070
     0
1000
MTEXTEND
  0
POINT
  5
18B
330
184
100
AcDbEntity
  8
DEFPOINTS
 62
     0
100
AcDbPoint
 10
-5.994541031488488
 20
18.59023243501315
 30
0.0
  0
POINT
  5
18C
330
184
100
AcDbEntity
  8
DEFPOINTS
 62
     0
100
AcDbPoint
 10
6.00545709481031
 20
18.59023243501315
 30
0.0
  0
POINT
  5
18D
330
184
100
AcDbEntity
  8
DEFPOINTS
 62
     0
100
AcDbPoint
 10
6.005457094810311
 20
26.59023243501315
 30
0.0
  0
ENDBLK
  5
18F
330
184
100
AcDbEntity
  8
0
100
AcDbBlockEnd
  0
BLOCK
  5
19A
330
190
100
AcDbEntity
  8
0
100
AcDbBlockBegin
  2
*D6
 70
     1
 10
0.0
 20
0.0
 30
0.0
  3
*D6
  1

  0
LINE
  5
191
330
190
100
AcDbEntity
  8
SUNPO
 62
     0
370
    -2
100
AcDbLine
 10
7.964282021596488
 20
19.41447714080624
 30
0.0
 11
15.96428202159649
 21
19.41447714080624
 31
0.0
  0
LINE
  5
192
330
190
100
AcDbEntity
  8
SUNPO
 62
     0
370
    -2
100
AcDbLine
 10
7.964282021596488
 20
7.414452598838351
 30
0.0
 11
15.96428202159649
 21
7.414452598838348
 31
0.0
  0
LINE
  5
193
330
190
100
AcDbEntity
  8
SUNPO
 62
     0
370
    -2
100
AcDbLine
 10
13.96428202159649
 20
17.41447714080624
 30
0.0
 11
13.96428202159649
 21
9.414452598838348
 31
0.0
  0
INSERT
  5
194
330
190
100
AcDbEntity
  8
SUNPO
 62
     0
370
    -2
100
AcDbBlockReference
  2
_OPEN30
 10
13.96428202159649
 20
19.41447714080624
 30
0.0
 41
2.0
 42
2.0
 43
2.0
 50
90.0
  0
INSERT
  5
195
330
190
100
AcDbEntity
  8
SUNPO
 62
     0
370
    -2
100
AcDbBlockReference
  2
_OPEN30
 10
13.96428202159649
 20
7.414452598838349
 30
0.0
 41
2.0
 42
2.0
 43
2.0
 50
270.0
  0
MTEXT
  5
196
330
190
100
AcDbEntity
  8
SUNPO
 62
     0
100
AcDbMText
 10
12.21428202159648
 20
13.4144648698223
 30
0.0
 40
2.5
 41
0.0
 71
     5
 72
     1
  1
\A1;約120
 11
0.0000000000000001
 21
1.0
 31
0.0
 73
     1
 44
1.0
1001
ACAD
1000
MTEXTBEGIN
1070
    73
1070
     1
1070
    44
1040
1.0
1070
    74
1070
     0
1000
MTEXTEND
  0
POINT
  5
197
330
190
100
AcDbEntity
  8
DEFPOINTS
 62
     0
100
AcDbPoint
 10
5.964282021596488
 20
19.41447714080624
 30
0.0
  0
POINT
  5
198
330
190
100
AcDbEntity
  8
DEFPOINTS
 62
     0
100
AcDbPoint
 10
5.964282021596488
 20
7.414452598838352
 30
0.0
  0
POINT
  5
199
330
190
100
AcDbEntity
  8
DEFPOINTS
 62
     0
100
AcDbPoint
 10
13.96428202159649
 20
7.414452598838349
 30
0.0
  0
ENDBLK
  5
19B
330
190
100
AcDbEntity
  8
0
100
AcDbBlockEnd
  0
ENDSEC
  0
SECTION
  2
ENTITIES
  0
TEXT
  5
2F
330
2
100
AcDbEntity
  8
MOJI1
100
AcDbText
 10
-34.87688349505209
 20
35.34785361863851
 30
0.0
 40
4.0
  1
バウンダリーマイクロホン（デジタル）
100
AcDbText
  0
DIMENSION
  5
31
330
2
100
AcDbEntity
  8
SUNPO
100
AcDbDimension
  2
*D6
 10
13.96428202159649
 20
7.414452598838349
 30
0.0
 11
12.21428202159648
 21
13.4144648698223
 31
0.0
 70
    33
  1
約120
 71
     5
 42
12.00002454196789
  3
STANDARD
100
AcDbAlignedDimension
 13
5.964282021596488
 23
19.41447714080624
 33
0.0
 14
5.964282021596488
 24
7.414452598838352
 34
0.0
1001
ACAD
1000
DSTYLE
1002
{
1070
    40
1040
1.0
1070
   140
1040
2.5
1070
   147
1040
0.5
1070
   172
1070
     1
1070
   279
1070
     0
1070
   288
1070
     0
1002
}
  0
DIMENSION
  5
40
330
2
100
AcDbEntity
  8
SUNPO
100
AcDbDimension
  2
*D5
 10
6.005457094810311
 20
26.59023243501315
 30
0.0
 11
0.0054580316609122
 21
28.34023243501315
 31
0.0
 70
    33
  1
約120
 71
     5
 42
11.9999981262988
  3
STANDARD
100
AcDbAlignedDimension
 13
-5.994541031488488
 23
18.59023243501315
 33
0.0
 14
6.00545709481031
 24
18.59023243501315
 34
0.0
1001
ACAD
1000
DSTYLE
1002
{
1070
    40
1040
1.0
1070
   140
1040
2.5
1070
   147
1040
0.5
1070
   172
1070
     1
1070
   279
1070
     0
1070
   288
1070
     0
1002
}
  0
DIMENSION
  5
4D
330
2
100
AcDbEntity
  8
SUNPO
100
AcDbDimension
  2
*D4
 10
13.54447879333662
 20
-8.249344836635838
 30
0.0
 11
11.79468068048023
 21
-0.1659677984158592
 31
0.0
 70
    33
  1
約27
 71
     5
 42
2.700008429756881
  3
STANDARD
100
AcDbAlignedDimension
 13
5.544411363830022
 23
-10.949153460258
 33
0.0
 14
5.544478798326835
 24
-8.249145031343232
 34
0.0
1001
ACAD
1000
DSTYLE
1002
{
1070
    40
1040
1.0
1070
   140
1040
2.5
1070
   147
1040
0.5
1070
   172
1070
     1
1070
   279
1070
     0
1070
   288
1070
     0
1002
}
  0
ARC
  5
5C
330
2
100
AcDbEntity
  8
0
 62
     1
370
    40
100
AcDbCircle
 10
4.815925185720232
 20
-10.41701700380702
 30
0.0
 40
0.602402764878292
100
AcDbArc
 50
282.5133140000005
 51
286.1904369999992
  0
ARC
  5
5D
330
2
100
AcDbEntity
  8
0
 62
     1
370
    40
100
AcDbCircle
 10
4.815989024762103
 20
-10.41701700380702
 30
0.0
 40
0.602402764878292
100
AcDbArc
 50
253.8095630000008
 51
257.4866859999996
  0
LINE
  5
5E
330
2
100
AcDbEntity
  8
0
 62
     1
 48
0.000523
370
    40
100
AcDbLine
 10
4.685468497641167
 20
-11.0051101872242
 30
0.0
 11
4.685760992873895
 21
-11.00302929543642
 31
0.0
  0
LINE
  5
5F
330
2
100
AcDbEntity
  8
0
 62
     1
 48
0.000523
370
    40
100
AcDbLine
 10
4.946445612465311
 20
-11.0051101872242
 30
0.0
 11
4.94615321760844
 21
-11.00302929543642
 31
0.0
  0
ARC
  5
60
330
2
100
AcDbEntity
  8
0
 62
     1
370
    40
100
AcDbCircle
 10
4.961501990265318
 20
-10.91841295407965
 30
0.0
 40
0.0803006816
100
AcDbArc
 50
286.19137
 51
337.4914830000007
  0
ARC
  5
61
330
2
100
AcDbEntity
  8
0
 62
     1
370
    40
100
AcDbCircle
 10
4.670412119841174
 20
-10.91841295407965
 30
0.0
 40
0.0803006816
100
AcDbArc
 50
202.5084489999997
 51
253.8086299999999
  0
SPLINE
  5
62
330
2
100
AcDbEntity
  8
0
 62
     1
370
    40
100
AcDbSpline
210
0.0
220
0.0
230
1.0
 70
     8
 71
     5
 72
    18
 73
    12
 74
     0
 42
0.0000000001
 43
0.0000000001
 40
0.0
 40
0.0
 40
0.0
 40
0.0
 40
0.0
 40
0.0
 40
0.5587535441717472
 40
0.5587535441717472
 40
0.5587535441717472
 40
2.294944331901586
 40
2.294944331901586
 40
2.294944331901586
 40
2.858414374617663
 40
2.858414374617663
 40
2.858414374617663
 40
2.858414374617663
 40
2.858414374617663
 40
2.858414374617663
 10
4.735387276313304
 20
-11.01188902858081
 30
0.0
 10
4.738449915606153
 20
-11.01230393287966
 30
0.0
 10
4.740824228898048
 20
-11.0125723699424
 30
0.0
 10
4.743189375745203
 20
-11.01281995889684
 30
0.0
 10
4.750870174228879
 20
-11.01351969741341
 30
0.0
 10
4.755696881315216
 20
-11.01364817979311
 30
0.0
 10
4.758529995808814
 20
-11.01364574244837
 30
0.0
 10
4.762422490806784
 20
-11.0135146560421
 30
0.0
 10
4.764912961096001
 20
-11.01279401648662
 30
0.0
 10
4.765337497273293
 20
-11.01258969785772
 30
0.0
 10
4.765769133853083
 20
-11.01232395635554
 30
0.0
 10
4.765769153936673
 20
-11.01188902230348
 30
0.0
  0
LINE
  5
63
330
2
100
AcDbEntity
  8
0
 62
     1
 48
0.002844
370
    40
100
AcDbLine
 10
4.735387315981952
 20
-11.01188907038903
 30
0.0
 11
4.724088708953274
 21
-11.0102488285915
 31
0.0
  0
LINE
  5
64
330
2
100
AcDbEntity
  8
0
 62
     1
 48
0.002223
370
    40
100
AcDbLine
 10
4.765769179241175
 20
-11.00296445263598
 30
0.0
 11
4.765769179241175
 21
-11.01188907038903
 31
0.0
  0
LINE
  5
65
330
2
100
AcDbEntity
  8
0
 62
     1
 48
0.002223
370
    40
100
AcDbLine
 10
4.866145031241174
 20
-11.01188897001316
 30
0.0
 11
4.866145031241174
 21
-11.00296445263598
 31
0.0
  0
ARC
  5
66
330
2
100
AcDbEntity
  8
0
 62
     1
370
    40
100
AcDbCircle
 10
4.815955398851684
 20
-10.41715241083136
 30
0.0
 40
0.6001695025471441
100
AcDbArc
 50
277.7151419999998
 51
282.5576799999994
  0
SPLINE
  5
67
330
2
100
AcDbEntity
  8
0
 62
     1
370
    40
100
AcDbSpline
210
0.0
220
0.0
230
1.0
 70
     8
 71
     5
 72
    15
 73
     9
 74
     0
 42
0.0000000001
 43
0.0000000001
 40
0.0
 40
0.0
 40
0.0
 40
0.0
 40
0.0
 40
0.0
 40
1.157634351268026
 40
1.157634351268026
 40
1.157634351268026
 40
1.435280945580858
 40
1.435280945580858
 40
1.435280945580858
 40
1.435280945580858
 40
1.435280945580858
 40
1.435280945580858
 10
4.875064539033331
 20
-11.01358484965953
 30
0.0
 10
4.872813683089233
 20
-11.01358449449469
 30
0.0
 10
4.870854575677157
 20
-11.0135048937625
 30
0.0
 10
4.869479452721165
 20
-11.0133591667232
 30
0.0
 10
4.867474890939462
 20
-11.01310079375452
 30
0.0
 10
4.866409319955792
 20
-11.01242672702858
 30
0.0
 10
4.866249791259662
 20
-11.01227654076348
 30
0.0
 10
4.866144996470595
 20
-11.01210330494098
 30
0.0
 10
4.866145002709203
 20
-11.01188898763911
 30
0.0
  0
ARC
  5
68
330
2
100
AcDbEntity
  8
0
 62
     1
370
    40
100
AcDbCircle
 10
4.815958209375537
 20
-10.41715572323449
 30
0.0
 40
0.6001660897681762
100
AcDbArc
 50
257.4423040000004
 51
261.1949230000006
  0
LINE
  5
69
330
2
100
AcDbEntity
  8
0
 62
     1
 48
0.000534
370
    40
100
AcDbLine
 10
4.685468497641167
 20
-11.00296445263598
 30
0.0
 11
4.685468497641167
 21
-11.00511038797589
 31
0.0
  0
ARC
  5
6A
330
2
100
AcDbEntity
  8
0
 62
     1
370
    40
100
AcDbCircle
 10
4.815957105241167
 20
-10.41716214728904
 30
0.0
 40
0.5879482406868841
100
AcDbArc
 50
265.1032119999999
 51
274.8967959999998
  0
LINE
  5
6B
330
2
100
AcDbEntity
  8
0
 62
     1
 48
0.000534
370
    40
100
AcDbLine
 10
4.946445712841168
 20
-11.00511038797589
 30
0.0
 11
4.946445712841168
 21
-11.00296445263598
 31
0.0
  0
ARC
  5
6C
330
2
100
AcDbEntity
  8
0
 62
     1
370
    40
100
AcDbCircle
 10
0.0054261121399577
 20
-10.41701700380702
 30
0.0
 40
0.602402764878292
100
AcDbArc
 50
282.5133140000005
 51
286.1904369999992
  0
ARC
  5
6D
330
2
100
AcDbEntity
  8
0
 62
     1
370
    40
100
AcDbCircle
 10
0.0054899511818576
 20
-10.41701700380702
 30
0.0
 40
0.602402764878292
100
AcDbArc
 50
253.8095630000008
 51
257.4866859999996
  0
LINE
  5
6E
330
2
100
AcDbEntity
  8
0
 62
     1
 48
0.000523
370
    40
100
AcDbLine
 10
-0.1250305759390926
 20
-11.0051101872242
 30
0.0
 11
-0.1247380807063791
 21
-11.00302929543642
 31
0.0
  0
LINE
  5
6F
330
2
100
AcDbEntity
  8
0
 62
     1
 48
0.000523
370
    40
100
AcDbLine
 10
0.1359466392609079
 20
-11.0051101872242
 30
0.0
 11
0.1356541440281944
 21
-11.00302929543642
 31
0.0
  0
ARC
  5
70
330
2
100
AcDbEntity
  8
0
 62
     1
370
    40
100
AcDbCircle
 10
0.1510030170609014
 20
-10.91841295407965
 30
0.0
 40
0.0803006816
100
AcDbArc
 50
286.19137
 51
337.4908530000001
  0
ARC
  5
71
330
2
100
AcDbEntity
  8
0
 62
     1
370
    40
100
AcDbCircle
 10
-0.1400869537390861
 20
-10.91841295407965
 30
0.0
 40
0.0803006816
100
AcDbArc
 50
202.5091469999999
 51
253.8086299999999
  0
SPLINE
  5
72
330
2
100
AcDbEntity
  8
0
 62
     1
370
    40
100
AcDbSpline
210
0.0
220
0.0
230
1.0
 70
     8
 71
     5
 72
    18
 73
    12
 74
     0
 42
0.0000000001
 43
0.0000000001
 40
0.0
 40
0.0
 40
0.0
 40
0.0
 40
0.0
 40
0.0
 40
0.5587535443389744
 40
0.5587535443389744
 40
0.5587535443389744
 40
2.294944326198936
 40
2.294944326198936
 40
2.294944326198936
 40
2.858414370314466
 40
2.858414370314466
 40
2.858414370314466
 40
2.858414370314466
 40
2.858414370314466
 40
2.858414370314466
 10
-0.0751117703486273
 20
-11.01188902858081
 30
0.0
 10
-0.0720491310548539
 20
-11.01230393287977
 30
0.0
 10
-0.0696748177624329
 20
-11.01257236994257
 30
0.0
 10
-0.0673096709178367
 20
-11.01281995889673
 30
0.0
 10
-0.0596288724530325
 20
-11.01351969741159
 30
0.0
 10
-0.0548021653713988
 20
-11.01364817979248
 30
0.0
 10
-0.0519690508332644
 20
-11.01364574244769
 30
0.0
 10
-0.0480765558463929
 20
-11.01351465604017
 30
0.0
 10
-0.0455860855628885
 20
-11.01279401648571
 30
0.0
 10
-0.0451615493907696
 20
-11.01258969785908
 30
0.0
 10
-0.0447299128088332
 20
-11.01232395635662
 30
0.0
 10
-0.0447298927252575
 20
-11.01188902230348
 30
0.0
  0
LINE
  5
73
330
2
100
AcDbEntity
  8
0
 62
     1
 48
0.002844
370
    40
100
AcDbLine
 10
-0.0751117575983074
 20
-11.01188907038903
 30
0.0
 11
-0.0864103646269712
 21
-11.0102488285915
 31
0.0
  0
LINE
  5
74
330
2
100
AcDbEntity
  8
0
 62
     1
 48
0.002223
370
    40
100
AcDbLine
 10
-0.044729894339099
 20
-11.00296445263598
 30
0.0
 11
-0.044729894339099
 21
-11.01188907038903
 31
0.0
  0
SPLINE
  5
75
330
2
100
AcDbEntity
  8
0
 62
     1
370
    40
100
AcDbSpline
210
0.0
220
0.0
230
1.0
 70
     8
 71
     5
 72
    18
 73
    12
 74
     0
 42
0.0000000001
 43
0.0000000001
 40
0.0
 40
0.0
 40
0.0
 40
0.0
 40
0.0
 40
0.0
 40
0.5244225635114317
 40
0.5244225635114317
 40
0.5244225635114317
 40
2.243191292779678
 40
2.243191292779678
 40
2.243191292779678
 40
2.869413905078368
 40
2.869413905078368
 40
2.869413905078368
 40
2.869413905078368
 40
2.869413905078368
 40
2.869413905078368
 10
0.0556459576600048
 20
-11.01188900398921
 30
0.0
 10
0.0556459487044663
 20
-11.0122938072397
 30
0.0
 10
0.0560198212372427
 20
-11.01255204180199
 30
0.0
 10
0.0563906530894087
 20
-11.01274436368578
 30
0.0
 10
0.0587534552763316
 20
-11.01349444173098
 30
0.0
 10
0.0625116838658357
 20
-11.01362997563478
 30
0.0
 10
0.0653206221221865
 20
-11.01365961760768
 30
0.0
 10
0.0703074808509428
 20
-11.01352877231613
 30
0.0
 10
0.0779082016184987
 20
-11.01285381249397
 30
0.0
 10
0.0800275239031692
 20
-11.01263506618647
 30
0.0
 10
0.0825954675171943
 20
-11.01235402517773
 30
0.0
 10
0.0860279801553929
 20
-11.0118890088213
 30
0.0
  0
LINE
  5
76
330
2
100
AcDbEntity
  8
0
 62
     1
 48
0.002223
370
    40
100
AcDbLine
 10
0.0556459576609143
 20
-11.01188897001316
 30
0.0
 11
0.0556459576609143
 21
-11.00296445263598
 31
0.0
  0
ARC
  5
77
330
2
100
AcDbEntity
  8
0
 62
     1
370
    40
100
AcDbCircle
 10
0.0054564256472816
 20
-10.41715241083136
 30
0.0
 40
0.6001695025471441
100
AcDbArc
 50
277.7151419999998
 51
282.5576799999994
  0
SPLINE
  5
78
330
2
100
AcDbEntity
  8
0
 62
     1
370
    40
100
AcDbSpline
210
0.0
220
0.0
230
1.0
 70
     8
 71
     5
 72
    15
 73
     9
 74
     0
 42
0.0000000001
 43
0.0000000001
 40
0.0
 40
0.0
 40
0.0
 40
0.0
 40
0.0
 40
0.0
 40
1.157634325524122
 40
1.157634325524122
 40
1.157634325524122
 40
1.435280919567389
 40
1.435280919567389
 40
1.435280919567389
 40
1.435280919567389
 40
1.435280919567389
 40
1.435280919567389
 10
0.0645654923582129
 20
-11.01358484965953
 30
0.0
 10
0.062314636465544
 20
-11.01358449449435
 30
0.0
 10
0.0603555290916518
 20
-11.01350489376534
 30
0.0
 10
0.058980405985551
 20
-11.01335916671371
 30
0.0
 10
0.0569758442570674
 20
-11.01310079374218
 30
0.0
 10
0.0559102732934207
 20
-11.01242672702813
 30
0.0
 10
0.0557507445975318
 20
-11.01227654076319
 30
0.0
 10
0.0556459498086781
 20
-11.01210330494081
 30
0.0
 10
0.0556459560472718
 20
-11.01188898763911
 30
0.0
  0
SPLINE
  5
79
330
2
100
AcDbEntity
  8
0
 62
     1
370
    40
100
AcDbSpline
210
0.0
220
0.0
230
1.0
 70
     8
 71
     5
 72
    15
 73
     9
 74
     0
 42
0.0000000001
 43
0.0000000001
 40
0.0
 40
0.0
 40
0.0
 40
0.0
 40
0.0
 40
0.0
 40
0.8060464941197555
 40
0.8060464941197555
 40
0.8060464941197555
 40
1.447228487128293
 40
1.447228487128293
 40
1.447228487128293
 40
1.447228487128293
 40
1.447228487128293
 40
1.447228487128293
 10
-0.044729894338218
 20
-11.01188900398915
 30
0.0
 10
-0.0447298805733567
 20
-11.01251119354316
 30
0.0
 10
-0.045613132601261
 20
-11.01278712602732
 30
0.0
 10
-0.0460821335420008
 20
-11.01299156946623
 30
0.0
 10
-0.0478983364171199
 20
-11.01334052978035
 30
0.0
 10
-0.0501745365235991
 20
-11.01351179093132
 30
0.0
 10
-0.0512616876144421
 20
-11.01356079077561
 30
0.0
 10
-0.0524213026733662
 20
-11.0135849843104
 30
0.0
 10
-0.0536691411457468
 20
-11.01358486788501
 30
0.0
  0
ARC
  5
7A
330
2
100
AcDbEntity
  8
0
 62
     1
370
    40
100
AcDbCircle
 10
0.0054591357952916
 20
-10.41715572323449
 30
0.0
 40
0.6001660897681762
100
AcDbArc
 50
257.4423040000004
 51
261.1949230000006
  0
LINE
  5
7B
330
2
100
AcDbEntity
  8
0
 62
     1
 48
0.000534
370
    40
100
AcDbLine
 10
-0.1250305759390926
 20
-11.00296445263598
 30
0.0
 11
-0.1250305759390926
 21
-11.00511038797589
 31
0.0
  0
ARC
  5
7C
330
2
100
AcDbEntity
  8
0
 62
     1
370
    40
100
AcDbCircle
 10
0.0054580316609076
 20
-10.41716214728904
 30
0.0
 40
0.5879482406868841
100
AcDbArc
 50
265.1032119999999
 51
274.8967959999998
  0
LINE
  5
7D
330
2
100
AcDbEntity
  8
0
 62
     1
 48
0.000534
370
    40
100
AcDbLine
 10
0.1359466392609079
 20
-11.00511038797589
 30
0.0
 11
0.1359466392609079
 21
-11.00296445263598
 31
0.0
  0
ARC
  5
7E
330
2
100
AcDbEntity
  8
0
 62
     1
370
    40
100
AcDbCircle
 10
-4.804226605263067
 20
-10.41701700380702
 30
0.0
 40
0.602402764878292
100
AcDbArc
 50
282.5133140000005
 51
286.1904369999992
  0
ARC
  5
7F
330
2
100
AcDbEntity
  8
0
 62
     1
370
    40
100
AcDbCircle
 10
-4.804162766221196
 20
-10.41701700380702
 30
0.0
 40
0.602402764878292
100
AcDbArc
 50
253.8095630000008
 51
257.4866859999996
  0
LINE
  5
80
330
2
100
AcDbEntity
  8
0
 62
     1
 48
0.000523
370
    40
100
AcDbLine
 10
-4.934683192966275
 20
-11.0051101872242
 30
0.0
 11
-4.934390798109404
 21
-11.00302929543642
 31
0.0
  0
LINE
  5
81
330
2
100
AcDbEntity
  8
0
 62
     1
 48
0.000523
370
    40
100
AcDbLine
 10
-4.673706078142117
 20
-11.0051101872242
 30
0.0
 11
-4.673998573374859
 21
-11.00302929543642
 31
0.0
  0
ARC
  5
82
330
2
100
AcDbEntity
  8
0
 62
     1
370
    40
100
AcDbCircle
 10
-4.658649700342124
 20
-10.91841295407965
 30
0.0
 40
0.0803006816
100
AcDbArc
 50
286.19137
 51
337.4915510000004
  0
ARC
  5
83
330
2
100
AcDbEntity
  8
0
 62
     1
370
    40
100
AcDbCircle
 10
-4.949739570766269
 20
-10.91841295407965
 30
0.0
 40
0.0803006816
100
AcDbArc
 50
202.5085179999995
 51
253.8086299999999
  0
SPLINE
  5
84
330
2
100
AcDbEntity
  8
0
 62
     1
370
    40
100
AcDbSpline
210
0.0
220
0.0
230
1.0
 70
     8
 71
     5
 72
    18
 73
    12
 74
     0
 42
0.0000000001
 43
0.0000000001
 40
0.0
 40
0.0
 40
0.0
 40
0.0
 40
0.0
 40
0.0
 40
0.5587535441717472
 40
0.5587535441717472
 40
0.5587535441717472
 40
2.29494434547938
 40
2.29494434547938
 40
2.29494434547938
 40
2.858414388198165
 40
2.858414388198165
 40
2.858414388198165
 40
2.858414388198165
 40
2.858414388198165
 40
2.858414388198165
 10
-4.884764460833309
 20
-11.01188902858081
 30
0.0
 10
-4.881701821540445
 20
-11.01230393287966
 30
0.0
 10
-4.879327508248536
 20
-11.0125723699424
 30
0.0
 10
-4.87696236140141
 20
-11.01281995889684
 30
0.0
 10
-4.869281562872288
 20
-11.01351969741756
 30
0.0
 10
-4.864454855774283
 20
-11.01364817979464
 30
0.0
 10
-4.8616217413838
 20
-11.01364574244991
 30
0.0
 10
-4.857729246354494
 20
-11.01351465604637
 30
0.0
 10
-4.855238776050583
 20
-11.01279401648662
 30
0.0
 10
-4.854814239873292
 20
-11.01258969785777
 30
0.0
 10
-4.854382603293515
 20
-11.01232395635554
 30
0.0
 10
-4.85438258320994
 20
-11.01188902230348
 30
0.0
  0
LINE
  5
85
330
2
100
AcDbEntity
  8
0
 62
     1
 48
0.002844
370
    40
100
AcDbLine
 10
-4.884764475001333
 20
-11.01188907038903
 30
0.0
 11
-4.896063082029996
 21
-11.0102488285915
 31
0.0
  0
LINE
  5
86
330
2
100
AcDbEntity
  8
0
 62
     1
 48
0.002223
370
    40
100
AcDbLine
 10
-4.854382611742124
 20
-11.00296445263598
 30
0.0
 11
-4.854382611742124
 21
-11.01188907038903
 31
0.0
  0
SPLINE
  5
87
330
2
100
AcDbEntity
  8
0
 62
     1
370
    40
100
AcDbSpline
210
0.0
220
0.0
230
1.0
 70
     8
 71
     5
 72
    18
 73
    12
 74
     0
 42
0.0000000001
 43
0.0000000001
 40
0.0
 40
0.0
 40
0.0
 40
0.0
 40
0.0
 40
0.0
 40
0.5244225650602306
 40
0.5244225650602306
 40
0.5244225650602306
 40
2.243191288173761
 40
2.243191288173761
 40
2.243191288173761
 40
2.869413900332552
 40
2.869413900332552
 40
2.869413900332552
 40
2.869413900332552
 40
2.869413900332552
 40
2.869413900332552
 10
-4.754006732824677
 20
-11.01188900398921
 30
0.0
 10
-4.754006741780216
 20
-11.01229380724089
 30
0.0
 10
-4.753632869245222
 20
-11.01255204180347
 30
0.0
 10
-4.753262037398542
 20
-11.01274436368476
 30
0.0
 10
-4.750899235217445
 20
-11.01349444172882
 30
0.0
 10
-4.747141006639481
 20
-11.01362997563404
 30
0.0
 10
-4.744332068336319
 20
-11.013659617607
 30
0.0
 10
-4.7393452096141
 20
-11.01352877231437
 30
0.0
 10
-4.731744488867093
 20
-11.01285381249408
 30
0.0
 10
-4.729625166580376
 20
-11.01263506618636
 30
0.0
 10
-4.72705722296672
 20
-11.01235402517761
 30
0.0
 10
-4.723624710329289
 20
-11.0118890088213
 30
0.0
  0
LINE
  5
88
330
2
100
AcDbEntity
  8
0
 62
     1
 48
0.002223
370
    40
100
AcDbLine
 10
-4.754006759742111
 20
-11.01188897001316
 30
0.0
 11
-4.754006759742111
 21
-11.00296445263598
 31
0.0
  0
ARC
  5
89
330
2
100
AcDbEntity
  8
0
 62
     1
370
    40
100
AcDbCircle
 10
-4.804196291755744
 20
-10.41715241083136
 30
0.0
 40
0.6001695025471441
100
AcDbArc
 50
277.7151419999998
 51
282.5576799999994
  0
SPLINE
  5
8A
330
2
100
AcDbEntity
  8
0
 62
     1
370
    40
100
AcDbSpline
210
0.0
220
0.0
230
1.0
 70
     8
 71
     5
 72
    15
 73
     9
 74
     0
 42
0.0000000001
 43
0.0000000001
 40
0.0
 40
0.0
 40
0.0
 40
0.0
 40
0.0
 40
0.0
 40
1.15763429488736
 40
1.15763429488736
 40
1.15763429488736
 40
1.435280889051713
 40
1.435280889051713
 40
1.435280889051713
 40
1.435280889051713
 40
1.435280889051713
 40
1.435280889051713
 10
-4.745087198120529
 20
-11.01358484965953
 30
0.0
 10
-4.747338053954251
 20
-11.01358449449452
 30
0.0
 10
-4.749297161284545
 20
-11.01350489376989
 30
0.0
 10
-4.750672284583885
 20
-11.01335916670274
 30
0.0
 10
-4.752676846249755
 20
-11.01310079372791
 30
0.0
 10
-4.753742417191062
 20
-11.01242672702835
 30
0.0
 10
-4.753901945887037
 20
-11.01227654076331
 30
0.0
 10
-4.754006740676004
 20
-11.01210330494086
 30
0.0
 10
-4.75400673443741
 20
-11.01188898763911
 30
0.0
  0
SPLINE
  5
8B
330
2
100
AcDbEntity
  8
0
 62
     1
370
    40
100
AcDbSpline
210
0.0
220
0.0
230
1.0
 70
     8
 71
     5
 72
    15
 73
     9
 74
     0
 42
0.0000000001
 43
0.0000000001
 40
0.0
 40
0.0
 40
0.0
 40
0.0
 40
0.0
 40
0.0
 40
0.8060465052986804
 40
0.8060465052986804
 40
0.8060465052986804
 40
1.447228498202807
 40
1.447228498202807
 40
1.447228498202807
 40
1.447228498202807
 40
1.447228498202807
 40
1.447228498202807
 10
-4.8543825848229
 20
-11.01188900398915
 30
0.0
 10
-4.854382571058039
 20
-11.0125111935518
 30
0.0
 10
-4.855265823110414
 20
-11.01278712603493
 30
0.0
 10
-4.85573482399792
 20
-11.01299156946066
 30
0.0
 10
-4.857551026883214
 20
-11.01334052977887
 30
0.0
 10
-4.859827227006945
 20
-11.01351179093126
 30
0.0
 10
-4.860914378097504
 20
-11.01356079077556
 30
0.0
 10
-4.862073993156172
 20
-11.0135849843104
 30
0.0
 10
-4.863321831628212
 20
-11.01358486788501
 30
0.0
  0
ARC
  5
8C
330
2
100
AcDbEntity
  8
0
 62
     1
370
    40
100
AcDbCircle
 10
-4.804193581607762
 20
-10.41715572323449
 30
0.0
 40
0.6001660897681762
100
AcDbArc
 50
257.4423040000004
 51
261.1949230000006
  0
LINE
  5
8D
330
2
100
AcDbEntity
  8
0
 62
     1
 48
0.000534
370
    40
100
AcDbLine
 10
-4.934683293342118
 20
-11.00296445263598
 30
0.0
 11
-4.934683293342118
 21
-11.00511038797589
 31
0.0
  0
ARC
  5
8E
330
2
100
AcDbEntity
  8
0
 62
     1
370
    40
100
AcDbCircle
 10
-4.804194585366275
 20
-10.41716214728904
 30
0.0
 40
0.5879482406868841
100
AcDbArc
 50
265.1032119999999
 51
274.8967959999998
  0
LINE
  5
8F
330
2
100
AcDbEntity
  8
0
 62
     1
 48
0.000534
370
    40
100
AcDbLine
 10
-4.673706078142117
 20
-11.00511038797589
 30
0.0
 11
-4.673706078142117
 21
-11.00296445263598
 31
0.0
  0
ARC
  5
90
330
2
100
AcDbEntity
  8
0
 62
     1
370
    40
100
AcDbCircle
 10
0.8586366131487466
 20
-9.413359763041682
 30
0.0
 40
0.5019174028237602
100
AcDbArc
 50
0.0053270000007532
 51
359.9762149999995
  0
ARC
  5
91
330
2
100
AcDbEntity
  8
0
 62
     1
370
    40
100
AcDbCircle
 10
0.858652773660907
 20
-9.413402924658043
 30
0.0
 40
0.5972363194000002
100
AcDbArc
 50
0.0
 51
359.9871849999998
  0
ARC
  5
92
330
2
100
AcDbEntity
  8
0
 62
     1
370
    40
100
AcDbCircle
 10
0.8586254714291499
 20
-9.413339888622999
 30
0.0
 40
0.7026895834975681
100
AcDbArc
 50
270.0022220000001
 51
359.9948590000003
  0
ARC
  5
93
330
2
100
AcDbEntity
  8
0
 62
     1
370
    40
100
AcDbCircle
 10
0.8586308917251699
 20
-9.413462447538279
 30
0.0
 40
0.7026834605705961
100
AcDbArc
 50
0.0048509999998637
 51
269.9982199999995
  0
ARC
  5
94
330
2
100
AcDbEntity
  8
0
 62
     1
370
    40
100
AcDbCircle
 10
-0.8477528708512522
 20
-9.413359763041682
 30
0.0
 40
0.5019174028237602
100
AcDbArc
 50
0.0053270000007532
 51
359.9762149999995
  0
ARC
  5
95
330
2
100
AcDbEntity
  8
0
 62
     1
370
    40
100
AcDbCircle
 10
-0.8477367103390918
 20
-9.413402924658043
 30
0.0
 40
0.5972363194000002
100
AcDbArc
 50
0.0
 51
359.9871849999998
  0
ARC
  5
96
330
2
100
AcDbEntity
  8
0
 62
     1
370
    40
100
AcDbCircle
 10
-0.8477640125708489
 20
-9.413339888622999
 30
0.0
 40
0.7026895834975681
100
AcDbArc
 50
270.0022220000001
 51
359.9948590000003
  0
ARC
  5
97
330
2
100
AcDbEntity
  8
0
 62
     1
370
    40
100
AcDbCircle
 10
-0.8477585922748289
 20
-9.413462447538279
 30
0.0
 40
0.7026834605705961
100
AcDbArc
 50
0.0048509999998637
 51
269.9982199999995
  0
ARC
  5
98
330
2
100
AcDbEntity
  8
0
 62
     7
370
    40
100
AcDbCircle
 10
-5.967581023553577
 20
-10.92907828985807
 30
0.0
 40
0.0200751704
100
AcDbArc
 50
180.0
 51
270.0
  0
ARC
  5
99
330
2
100
AcDbEntity
  8
0
 62
     7
370
    40
100
AcDbCircle
 10
5.979343443052613
 20
-10.92907828985807
 30
0.0
 40
0.0200751704
100
AcDbArc
 50
270.0
 51
0.0
  0
LINE
  5
9A
330
2
100
AcDbEntity
  8
0
 62
     7
 48
0.0025
370
    40
100
AcDbLine
 10
-5.987656193953569
 20
-10.92907828985807
 30
0.0
 11
-5.987656193953569
 21
-10.91904070465807
 31
0.0
  0
LINE
  5
9B
330
2
100
AcDbEntity
  8
0
 62
     7
 48
0.0025
370
    40
100
AcDbLine
 10
5.999418613452618
 20
-10.91904070465807
 30
0.0
 11
5.999418613452618
 21
-10.92907828985807
 31
0.0
  0
LINE
  5
9C
330
2
100
AcDbEntity
  8
0
 62
     1
 48
0.003788
370
    40
100
AcDbLine
 10
2.63853615160923
 20
-10.70956613836756
 30
0.0
 11
2.650993698225107
 21
-10.71828900065805
 31
0.0
  0
LINE
  5
9D
330
2
100
AcDbEntity
  8
0
 62
     7
 48
0.049389
370
    40
100
AcDbLine
 10
6.003969855334005
 20
-10.72077300186748
 30
0.0
 11
6.007430513583415
 21
-10.91904070465807
 31
0.0
  0
LINE
  5
9E
330
2
100
AcDbEntity
  8
0
 62
     7
 48
0.049389
370
    40
100
AcDbLine
 10
-5.992207435834956
 20
-10.72077300186748
 30
0.0
 11
-5.995668094084351
 21
-10.91904070465807
 31
0.0
  0
LINE
  5
9F
330
2
100
AcDbEntity
  8
0
 62
     7
 48
0.088251
370
    40
100
AcDbLine
 10
-5.701956807909368
 20
-10.51753729665807
 30
0.0
 11
-5.992207435834956
 21
-10.72077300186748
 31
0.0
  0
LINE
  5
A0
330
2
100
AcDbEntity
  8
0
 62
     7
 48
0.088251
370
    40
100
AcDbLine
 10
5.713719227408432
 20
-10.51753729665807
 30
0.0
 11
6.003969855334005
 21
-10.72077300186748
 31
0.0
  0
LINE
  5
A1
330
2
100
AcDbEntity
  8
0
 62
     7
370
    40
100
AcDbLine
 10
-5.967581023553577
 20
-10.94915346025806
 30
0.0
 11
5.979343443052613
 21
-10.94915346025806
 31
0.0
  0
LINE
  5
A2
330
2
100
AcDbEntity
  8
0
 62
     1
 48
0.000275
370
    13
100
AcDbLine
 10
2.157779383649
 20
-10.51773363182457
 30
0.0
 11
2.156691911668417
 21
-10.51753729665807
 31
0.0
  0
LINE
  5
A3
330
2
100
AcDbEntity
  8
0
 62
     1
 48
0.088251
370
    40
100
AcDbLine
 10
2.364290553660907
 20
-10.51753729665807
 30
0.0
 11
2.654541181586495
 21
-10.72077300186748
 31
0.0
  0
LINE
  5
A4
330
2
100
AcDbEntity
  8
0
 62
     1
 48
0.088251
370
    40
100
AcDbLine
 10
-2.353374490339092
 20
-10.51753729665807
 30
0.0
 11
-2.643625118264679
 21
-10.72077300186748
 31
0.0
  0
LINE
  5
A5
330
2
100
AcDbEntity
  8
0
 62
     1
370
    40
100
AcDbLine
 10
-2.643625118264679
 20
-10.72077300186748
 30
0.0
 11
-5.992207435834956
 21
-10.72077300186748
 31
0.0
  0
LINE
  5
A6
330
2
100
AcDbEntity
  8
0
 62
     1
370
    40
100
AcDbLine
 10
2.654541181586495
 20
-10.72077300186748
 30
0.0
 11
6.003969855334005
 21
-10.72077300186748
 31
0.0
  0
LINE
  5
A7
330
2
100
AcDbEntity
  8
0
 62
     1
 48
0.059826
370
    13
100
AcDbLine
 10
2.519100932831463
 20
-10.51753729665807
 30
0.0
 11
2.650993698225107
 21
-10.71828900065805
 31
0.0
  0
LINE
  5
A8
330
2
100
AcDbEntity
  8
0
 62
     1
 48
0.038558
370
    40
100
AcDbLine
 10
2.364290553660907
 20
-10.51753729665807
 30
0.0
 11
2.519100932831463
 21
-10.51753729665807
 31
0.0
  0
LINE
  5
A9
330
2
100
AcDbEntity
  8
0
 62
     7
370
    40
100
AcDbLine
 10
-5.701956807909368
 20
-10.51753729665807
 30
0.0
 11
5.713719227408432
 21
-10.51753729665807
 31
0.0
  0
LINE
  5
AA
330
2
100
AcDbEntity
  8
0
 62
     1
 48
0.144806
370
    40
100
AcDbLine
 10
-1.585499222539084
 20
-9.704102433393813
 30
0.0
 11
-1.585499222539084
 21
-9.122702914043088
 31
0.0
  0
LINE
  5
AB
330
2
100
AcDbEntity
  8
0
 62
     1
 48
0.144806
370
    40
100
AcDbLine
 10
1.596415285860899
 20
-9.122702914043088
 30
0.0
 11
1.596415285860899
 21
-9.704102533769628
 31
0.0
  0
LINE
  5
AC
330
2
100
AcDbEntity
  8
0
 62
     1
 48
0.047498
370
    40
100
AcDbLine
 10
2.241216107993039
 20
-11.13986757905809
 30
0.0
 11
2.241216107993039
 21
-10.94915958318506
 31
0.0
  0
LINE
  5
AD
330
2
100
AcDbEntity
  8
0
 62
     1
 48
0.0475
370
    40
100
AcDbLine
 10
4.484875588239034
 20
-11.13986757905809
 30
0.0
 11
4.484875588239034
 21
-10.94915386176149
 31
0.0
  0
LINE
  5
AE
330
2
100
AcDbEntity
  8
0
 62
     1
 48
0.282843
370
    40
100
AcDbLine
 10
3.376839187772247
 20
-11.13986757905809
 30
0.0
 11
4.484875588239034
 21
-11.13986757905809
 31
0.0
  0
LINE
  5
AF
330
2
100
AcDbEntity
  8
0
 62
     1
 48
0.0475
370
    40
100
AcDbLine
 10
3.376839187772247
 20
-11.13986757905809
 30
0.0
 11
3.376839187772247
 21
-10.94915376138561
 31
0.0
  0
LINE
  5
B0
330
2
100
AcDbEntity
  8
0
 62
     1
 48
0.282843
370
    40
100
AcDbLine
 10
2.241216107993039
 20
-11.13986757905809
 30
0.0
 11
3.376839187772247
 21
-11.13986757905809
 31
0.0
  0
LINE
  5
B1
330
2
100
AcDbEntity
  8
0
 62
     1
 48
0.0475
370
    40
100
AcDbLine
 10
2.241216107993039
 20
-11.13986757905809
 30
0.0
 11
2.241216107993039
 21
-10.94915496589584
 31
0.0
  0
LINE
  5
B2
330
2
100
AcDbEntity
  8
0
 62
     1
 48
0.282843
370
    40
100
AcDbLine
 10
-2.230300044671224
 20
-11.13986757905809
 30
0.0
 11
-3.365923124450432
 21
-11.13986757905809
 31
0.0
  0
LINE
  5
B3
330
2
100
AcDbEntity
  8
0
 62
     1
 48
0.0475
370
    40
100
AcDbLine
 10
-3.365923124450432
 20
-11.13986757905809
 30
0.0
 11
-3.365923124450432
 21
-10.94915376138561
 31
0.0
  0
LINE
  5
B4
330
2
100
AcDbEntity
  8
0
 62
     1
 48
0.282843
370
    40
100
AcDbLine
 10
-4.473113168739985
 20
-11.13986757905809
 30
0.0
 11
-3.365923124450432
 21
-11.13986757905809
 31
0.0
  0
LINE
  5
B5
330
2
100
AcDbEntity
  8
0
 62
     1
 48
0.0475
370
    40
100
AcDbLine
 10
-4.473113168739985
 20
-11.13986757905809
 30
0.0
 11
-4.473113168739985
 21
-10.94915386176149
 31
0.0
  0
LINE
  5
B6
330
2
100
AcDbEntity
  8
0
 62
     1
 48
0.0475
370
    40
100
AcDbLine
 10
-2.230300044671224
 20
-11.13986757905809
 30
0.0
 11
-2.230300044671224
 21
-10.94915496589584
 31
0.0
  0
LINE
  5
B7
330
2
100
AcDbEntity
  8
0
 62
     1
 48
0.047499
370
    40
100
AcDbLine
 10
-4.473113168739985
 20
-11.13986757905809
 30
0.0
 11
-4.473113168739985
 21
-10.94915847905065
 31
0.0
  0
LINE
  5
B8
330
2
100
AcDbEntity
  8
0
 62
     7
 48
0.277803
370
    40
100
AcDbLine
 10
-5.392016753983028
 20
-9.419093332083775
 30
0.0
 11
-5.585701897626393
 21
-10.51753649365122
 31
0.0
  0
ARC
  5
B9
330
2
100
AcDbEntity
  8
0
 62
     7
370
    40
100
AcDbCircle
 10
-4.848336673048606
 20
-9.514958795174152
 30
0.0
 40
0.5520671860000001
100
AcDbArc
 50
140.0000000000008
 51
170.0000000000003
  0
LINE
  5
BA
330
2
100
AcDbEntity
  8
0
 62
     7
 48
0.155223
370
    40
100
AcDbLine
 10
-4.870642897511004
 20
-8.682678164945173
 30
0.0
 11
-5.271244629232484
 21
-9.160096833571287
 31
0.0
  0
ARC
  5
BB
330
2
100
AcDbEntity
  8
0
 62
     7
370
    40
100
AcDbCircle
 10
-4.5246272604966
 20
-8.973019833768546
 30
0.0
 40
0.4516913340000001
100
AcDbArc
 50
92.8069399999998
 51
140.0000000000008
  0
ARC
  5
BC
330
2
100
AcDbEntity
  8
0
 62
     7
370
    40
100
AcDbCircle
 10
-0.0238044651109135
 20
-99.6086174430626
 30
0.0
 40
91.19897202969545
100
AcDbArc
 50
91.4408937333656
 51
92.84270608381666
  0
LINE
  5
BD
330
2
100
AcDbEntity
  8
0
 62
     7
 48
0.155223
370
    40
100
AcDbLine
 10
4.882405317010054
 20
-8.682678164945173
 30
0.0
 11
5.283007048731533
 21
-9.160096833571287
 31
0.0
  0
ARC
  5
BE
330
2
100
AcDbEntity
  8
0
 62
     7
370
    40
100
AcDbCircle
 10
0.0338553214809565
 20
-99.67768353831809
 30
0.0
 40
91.26803800950758
100
AcDbArc
 50
87.15837141755164
 51
88.55965363277201
  0
LINE
  5
BF
330
2
100
AcDbEntity
  8
0
 62
     7
 48
0.277803
370
    40
100
AcDbLine
 10
5.403779173482092
 20
-9.419093332083775
 30
0.0
 11
5.597464317125428
 21
-10.51753649365122
 31
0.0
  0
ARC
  5
C0
330
2
100
AcDbEntity
  8
0
 62
     7
370
    40
100
AcDbCircle
 10
4.860099092547656
 20
-9.514958795174152
 30
0.0
 40
0.5520671860000001
100
AcDbArc
 50
9.999999999999676
 51
39.9999999999992
  0
ARC
  5
C1
330
2
100
AcDbEntity
  8
0
 62
     7
370
    40
100
AcDbCircle
 10
4.53638967999565
 20
-8.973019833768546
 30
0.0
 40
0.4516913340000001
100
AcDbArc
 50
39.9999999999992
 51
87.19306000000017
  0
LINE
  5
C2
330
2
100
AcDbEntity
  8
0
 62
     1
370
    13
100
AcDbLine
 10
-2.334195575921597
 20
-9.419093332083775
 30
0.0
 11
-5.392016753983028
 21
-9.419093332083775
 31
0.0
  0
LINE
  5
C3
330
2
100
AcDbEntity
  8
0
 62
     1
370
    13
100
AcDbLine
 10
-2.329673041533879
 20
-9.160096833571287
 30
0.0
 11
-5.271244729608355
 21
-9.160096833571287
 31
0.0
  0
LINE
  5
C4
330
2
100
AcDbEntity
  8
0
 62
     1
370
    13
100
AcDbLine
 10
-2.321332611239512
 20
-8.682678164945173
 30
0.0
 11
-4.870642897511004
 21
-8.682678164945173
 31
0.0
  0
LINE
  5
C5
330
2
100
AcDbEntity
  8
0
 62
     1
 48
0.065171
370
    13
100
AcDbLine
 10
2.606776830533021
 20
-9.419093332083775
 30
0.0
 11
2.345111639243413
 21
-9.419093332083775
 31
0.0
  0
LINE
  5
C6
330
2
100
AcDbEntity
  8
0
 62
     1
 48
0.051877
370
    13
100
AcDbLine
 10
2.548875622561922
 20
-9.160096833571287
 30
0.0
 11
2.340589205231566
 21
-9.160096833571287
 31
0.0
  0
LINE
  5
C7
330
2
100
AcDbEntity
  8
0
 62
     1
 48
0.006119
370
    13
100
AcDbLine
 10
2.35681686884854
 20
-8.682678164945173
 30
0.0
 11
2.33224877493717
 21
-8.682678164945173
 31
0.0
  0
LINE
  5
C8
330
2
100
AcDbEntity
  8
0
 62
     1
370
    13
100
AcDbLine
 10
5.28300714910739
 20
-9.160096833571287
 30
0.0
 11
2.548875622561922
 21
-9.160096833571287
 31
0.0
  0
LINE
  5
C9
330
2
100
AcDbEntity
  8
0
 62
     1
370
    13
100
AcDbLine
 10
5.403779173482092
 20
-9.419093332083775
 30
0.0
 11
2.606776830533021
 21
-9.419093332083775
 31
0.0
  0
LINE
  5
CA
330
2
100
AcDbEntity
  8
0
 62
     1
370
    13
100
AcDbLine
 10
4.558509305749197
 20
-8.521870428993452
 30
0.0
 11
2.329435239805604
 21
-8.521870428993452
 31
0.0
  0
LINE
  5
CB
330
2
100
AcDbEntity
  8
0
 62
     1
370
    13
100
AcDbLine
 10
4.882405317010054
 20
-8.682678164945173
 30
0.0
 11
2.35681686884854
 21
-8.682678164945173
 31
0.0
  0
SPLINE
  5
CC
330
2
100
AcDbEntity
  8
0
 62
     1
370
    13
100
AcDbSpline
210
0.0
220
0.0
230
1.0
 70
     8
 71
     5
 72
    18
 73
    12
 74
     0
 42
0.0000000001
 43
0.0000000001
 40
0.0
 40
0.0
 40
0.0
 40
0.0
 40
0.0
 40
0.0
 40
1.845095389508799
 40
1.845095389508799
 40
1.845095389508799
 40
2.794248817593932
 40
2.794248817593932
 40
2.794248817593932
 40
2.833399515044446
 40
2.833399515044446
 40
2.833399515044446
 40
2.833399515044446
 40
2.833399515044446
 40
2.833399515044446
 10
2.200126460092036
 20
-8.372038762129932
 30
0.0
 10
2.225553080021484
 20
-8.373777315851782
 30
0.0
 10
2.249950415198441
 20
-8.376419266019127
 30
0.0
 10
2.272922195043491
 20
-8.380059557831657
 30
0.0
 10
2.302634194388218
 20
-8.387235567256141
 30
0.0
 10
2.3203256575093
 20
-8.396596100325041
 30
0.0
 10
2.324661749952468
 20
-8.399999670861006
 30
0.0
 10
2.327128116495856
 20
-8.403699827889795
 30
0.0
 10
2.327448682235427
 20
-8.407446960950892
 30
0.0
 10
2.327458013364122
 20
-8.407595475755783
 30
0.0
 10
2.327463975394834
 20
-8.407744040878128
 30
0.0
 10
2.327466569524176
 20
-8.407892658373953
 30
0.0
  0
LINE
  5
CD
330
2
100
AcDbEntity
  8
0
 62
     1
370
    40
100
AcDbLine
 10
-2.22703070279573
 20
-10.51753729665807
 30
0.0
 11
0.0054580316609076
 21
-10.51753729665807
 31
0.0
  0
LINE
  5
CE
330
2
100
AcDbEntity
  8
0
 62
     1
370
    40
100
AcDbLine
 10
2.237946766117545
 20
-10.51753729665807
 30
0.0
 11
0.0054580316609076
 21
-10.51753729665807
 31
0.0
  0
LINE
  5
CF
330
2
100
AcDbEntity
  8
0
 62
     1
 48
0.158829
370
    13
100
AcDbLine
 10
2.22604761036635
 20
-9.81490633265804
 30
0.0
 11
1.588343862849882
 21
-9.81490633265804
 31
0.0
  0
ARC
  5
D0
330
2
100
AcDbEntity
  8
0
 62
     1
370
    13
100
AcDbCircle
 10
-1683.272441578837
 20
-39.36935086678443
 30
0.0
 40
1685.757584056051
100
AcDbArc
 50
1.004551999999781
 51
1.053601000000495
  0
LINE
  5
D1
330
2
100
AcDbEntity
  8
0
 62
     1
 48
0.158829
370
    13
100
AcDbLine
 10
-1.577427799528066
 20
-9.81490633265804
 30
0.0
 11
-2.215131547044535
 21
-9.81490633265804
 31
0.0
  0
CIRCLE
  5
D2
330
2
100
AcDbEntity
  8
0
 62
     1
370
    40
100
AcDbCircle
 10
0.8586528740367498
 20
-9.413402924658043
 30
0.0
 40
0.7929689296724441
  0
CIRCLE
  5
D3
330
2
100
AcDbEntity
  8
0
 62
     1
370
    40
100
AcDbCircle
 10
-0.8477368107149345
 20
-9.413402924658043
 30
0.0
 40
0.7929689296724441
  0
LINE
  5
D4
330
2
100
AcDbEntity
  8
0
 62
     7
370
    40
100
AcDbLine
 10
2.227105973349836
 20
-8.309268552658068
 30
0.0
 11
-2.21618991002802
 21
-8.309268552658068
 31
0.0
  0
ELLIPSE
  5
D5
330
2
100
AcDbEntity
  8
0
 62
     1
370
    13
100
AcDbEllipse
 10
2.163749839701807
 20
-8.409644404658081
 30
0.0
 11
0.0
 21
0.100375852
 31
0.0
210
0.0
220
0.0
230
1.0
 40
0.390883
 41
5.096406848085825
 42
6.283185307179611
  0
LINE
  5
D6
330
2
100
AcDbEntity
  8
0
 62
     1
370
    13
100
AcDbLine
 10
2.200127554104398
 20
-8.372038692082128
 30
0.0
 11
-2.189211490782582
 21
-8.372038692082128
 31
0.0
  0
LINE
  5
D7
330
2
100
AcDbEntity
  8
0
 62
     1
 48
0.003763
370
    13
100
AcDbLine
 10
-0.8477368107149345
 20
-10.23201015557589
 30
0.0
 11
-0.8477367103390918
 21
-10.21690248571553
 31
0.0
  0
LINE
  5
D8
330
2
100
AcDbEntity
  8
0
 62
     1
 48
0.003763
370
    13
100
AcDbLine
 10
0.8586528740367498
 20
-10.23201015557589
 30
0.0
 11
0.858652773660907
 21
-10.21690248571553
 31
0.0
  0
LINE
  5
D9
330
2
100
AcDbEntity
  8
0
 62
     1
 48
0.00012
370
    13
100
AcDbLine
 10
-0.8477367103390918
 20
-8.609439326036806
 30
0.0
 11
-0.8477367103390918
 21
-8.609922736140049
 31
0.0
  0
LINE
  5
DA
330
2
100
AcDbEntity
  8
0
 62
     1
 48
0.00012
370
    13
100
AcDbLine
 10
0.858652773660907
 20
-8.609439326036806
 30
0.0
 11
0.858652773660907
 21
-8.609922736140049
 31
0.0
  0
LINE
  5
DB
330
2
100
AcDbEntity
  8
0
 62
     1
 48
0.425
370
    40
100
AcDbLine
 10
0.858652773660907
 20
-10.21690278684309
 30
0.0
 11
-0.8477367103390918
 21
-10.21690278684309
 31
0.0
  0
LINE
  5
DC
330
2
100
AcDbEntity
  8
0
 62
     1
 48
0.425
370
    40
100
AcDbLine
 10
0.858652773660907
 20
-8.609922334636621
 30
0.0
 11
-0.8477367103390918
 21
-8.609922334636621
 31
0.0
  0
ELLIPSE
  5
DD
330
2
100
AcDbEntity
  8
0
 62
     1
370
    13
100
AcDbEllipse
 10
-2.15283377638002
 20
-8.409644404658081
 30
0.0
 11
0.0
 21
0.100375852
 31
0.0
210
0.0
220
0.0
230
1.0
 40
0.390883
 41
6.283185307179547
 42
7.469963766273342
  0
ARC
  5
DE
330
2
100
AcDbEntity
  8
0
 62
     1
370
    13
100
AcDbCircle
 10
1683.283357642158
 20
-39.36935086678443
 30
0.0
 40
1685.757584056051
100
AcDbArc
 50
178.9463989999995
 51
178.9954480000002
  0
SPLINE
  5
DF
330
2
100
AcDbEntity
  8
0
 62
     1
370
    13
100
AcDbSpline
210
0.0
220
0.0
230
1.0
 70
     8
 71
     5
 72
    18
 73
    12
 74
     0
 42
0.0000000001
 43
0.0000000001
 40
0.0
 40
0.0
 40
0.0
 40
0.0
 40
0.0
 40
0.0
 40
1.845095389508799
 40
1.845095389508799
 40
1.845095389508799
 40
2.794248817593932
 40
2.794248817593932
 40
2.794248817593932
 40
2.833399515044446
 40
2.833399515044446
 40
2.833399515044446
 40
2.833399515044446
 40
2.833399515044446
 40
2.833399515044446
 10
-2.189210396770249
 20
-8.372038762129932
 30
0.0
 10
-2.214637016699668
 20
-8.373777315851782
 30
0.0
 10
-2.239034351876654
 20
-8.376419266019127
 30
0.0
 10
-2.262006131721676
 20
-8.380059557831657
 30
0.0
 10
-2.291718131066431
 20
-8.387235567256141
 30
0.0
 10
-2.309409594187513
 20
-8.396596100325041
 30
0.0
 10
-2.313745686630682
 20
-8.399999670861006
 30
0.0
 10
-2.316212053174069
 20
-8.403699827889795
 30
0.0
 10
-2.31653261891364
 20
-8.407446960950892
 30
0.0
 10
-2.316541950042335
 20
-8.407595475755783
 30
0.0
 10
-2.316547912073048
 20
-8.407744040878128
 30
0.0
 10
-2.316550506202389
 20
-8.407892658373953
 30
0.0
  0
ARC
  5
E0
330
2
100
AcDbEntity
  8
0
 62
     1
370
    13
100
AcDbCircle
 10
0.0033628865021171
 20
-118.0882535804913
 30
0.0
 40
109.50887170296
100
AcDbArc
 50
89.99890400000062
 51
90.4467950000002
  0
ELLIPSE
  5
E1
330
2
100
AcDbEntity
  8
0
 62
     1
370
    13
100
AcDbEllipse
 10
-0.8477367103390918
 20
-8.589391156740987
 30
0.0
 11
0.00015704047823
 21
-0.0200745559595589
 31
0.0
210
0.0
220
0.0
230
1.0
 40
0.147629
 41
4.372088343726102
 42
6.230244816865336
  0
ARC
  5
E2
330
2
100
AcDbEntity
  8
0
 62
     1
370
    13
100
AcDbCircle
 10
-0.8441845093126687
 20
-9.416996580911359
 30
0.0
 40
0.8342804183283799
100
AcDbArc
 50
90.43941299999925
 51
208.4873890000003
  0
ARC
  5
E3
330
2
100
AcDbEntity
  8
0
 62
     1
370
    13
100
AcDbCircle
 10
-0.8442063912484059
 20
-9.415304545174194
 30
0.0
 40
0.8350338394734922
100
AcDbArc
 50
208.5901480000002
 51
269.5619410000007
  0
ARC
  5
E4
330
2
100
AcDbEntity
  8
0
 62
     1
370
    13
100
AcDbCircle
 10
0.0034902634583034
 20
103.0488137202063
 30
0.0
 40
113.3023424509339
100
AcDbArc
 50
269.5680959999995
 51
270.000995
  0
ELLIPSE
  5
E5
330
2
100
AcDbEntity
  8
0
 62
     1
370
    13
100
AcDbEllipse
 10
-0.8477369110908057
 20
-10.25205782299247
 30
0.0
 11
-0.0001524616101596
 21
-0.0200745918567609
 31
0.0
210
0.0
220
0.0
230
1.0
 40
0.143341
 41
3.194499384180932
 42
4.626208688739824
  0
ARC
  5
E6
330
2
100
AcDbEntity
  8
0
 62
     7
370
    40
100
AcDbCircle
 10
-2.21618991002802
 20
-8.409644404658081
 30
0.0
 40
0.100375852
100
AcDbArc
 50
89.99997100000046
 51
178.9999839999995
  0
ELLIPSE
  5
E7
330
2
100
AcDbEntity
  8
0
 62
     1
370
    13
100
AcDbEllipse
 10
-2.140633091569412
 20
-9.832403048171897
 30
0.0
 11
0.2007211315496173
 21
-0.0035036001963542
 31
0.0
210
0.0
220
0.0
230
1.0
 40
0.086924
 41
1.952564292433608
 42
3.141592653589219
  0
LINE
  5
E8
330
2
100
AcDbEntity
  8
0
 62
     1
 48
0.175025
370
    13
100
AcDbLine
 10
-2.22703070279573
 20
-10.51753729665807
 30
0.0
 11
-2.215131547044535
 21
-9.81490633265804
 31
0.0
  0
LINE
  5
E9
330
2
100
AcDbEntity
  8
0
 62
     1
 48
0.031468
370
    40
100
AcDbLine
 10
-2.353374490339092
 20
-10.51753729665807
 30
0.0
 11
-2.22703070279573
 21
-10.51753729665807
 31
0.0
  0
LINE
  5
EA
330
2
100
AcDbEntity
  8
0
 62
     7
 48
0.171541
370
    40
100
AcDbLine
 10
-2.353374490339092
 20
-10.51753729665807
 30
0.0
 11
-2.341354281310401
 21
-9.828899429057855
 31
0.0
  0
LINE
  5
EB
330
2
100
AcDbEntity
  8
0
 62
     7
 48
0.353975
370
    40
100
AcDbLine
 10
-2.341354281310401
 20
-9.828899429057855
 30
0.0
 11
-2.316550504898515
 21
-8.407892645288939
 31
0.0
  0
ARC
  5
EC
330
2
100
AcDbEntity
  8
0
 62
     1
370
    13
100
AcDbCircle
 10
0.855100572634484
 20
-9.416996580911359
 30
0.0
 40
0.8342804183283799
100
AcDbArc
 50
331.5126109999996
 51
89.56058700000074
  0
ARC
  5
ED
330
2
100
AcDbEntity
  8
0
 62
     1
370
    13
100
AcDbCircle
 10
0.0075531768196981
 20
-118.0882535804913
 30
0.0
 40
109.50887170296
100
AcDbArc
 50
89.55320499999979
 51
90.00109599999936
  0
ELLIPSE
  5
EE
330
2
100
AcDbEntity
  8
0
 62
     1
370
    13
100
AcDbEllipse
 10
0.858652773660907
 20
-8.589391156740987
 30
0.0
 11
-0.00015704047823
 21
-0.0200745559595589
 31
0.0
210
0.0
220
0.0
230
1.0
 40
0.147629
 41
0.0529404903142525
 42
1.911096963453484
  0
ARC
  5
EF
330
2
100
AcDbEntity
  8
0
 62
     1
370
    13
100
AcDbCircle
 10
0.0074257998635119
 20
103.0488137202063
 30
0.0
 40
113.3023424509339
100
AcDbArc
 50
269.999005
 51
270.4319040000005
  0
ARC
  5
F0
330
2
100
AcDbEntity
  8
0
 62
     1
370
    13
100
AcDbCircle
 10
0.8551224545702211
 20
-9.415304545174194
 30
0.0
 40
0.8350338394734922
100
AcDbArc
 50
270.4380589999993
 51
331.4098519999998
  0
ELLIPSE
  5
F1
330
2
100
AcDbEntity
  8
0
 62
     1
370
    13
100
AcDbEllipse
 10
0.8586529744125925
 20
-10.25205782299247
 30
0.0
 11
0.0001524616101596
 21
-0.0200745918567609
 31
0.0
210
0.0
220
0.0
230
1.0
 40
0.143341
 41
1.656976618439763
 42
3.088685922998661
  0
ARC
  5
F2
330
2
100
AcDbEntity
  8
0
 62
     7
370
    40
100
AcDbCircle
 10
2.227105973349836
 20
-8.409644404658081
 30
0.0
 40
0.100375852
100
AcDbArc
 50
1.000016000000493
 51
90.00002899999953
  0
LINE
  5
F3
330
2
100
AcDbEntity
  8
0
 62
     1
 48
0.031468
370
    40
100
AcDbLine
 10
2.364290553660907
 20
-10.51753729665807
 30
0.0
 11
2.237946766117545
 21
-10.51753729665807
 31
0.0
  0
LINE
  5
F4
330
2
100
AcDbEntity
  8
0
 62
     1
 48
0.175025
370
    13
100
AcDbLine
 10
2.237946766117545
 20
-10.51753729665807
 30
0.0
 11
2.22604761036635
 21
-9.81490633265804
 31
0.0
  0
ELLIPSE
  5
F5
330
2
100
AcDbEntity
  8
0
 62
     1
370
    13
100
AcDbEllipse
 10
2.151549154891199
 20
-9.832403048171897
 30
0.0
 11
0.2007211315496173
 21
0.0035036001963542
 31
0.0
210
0.0
220
0.0
230
1.0
 40
0.086924
 41
0.0000000000005724
 42
1.189028361156184
  0
LINE
  5
F6
330
2
100
AcDbEntity
  8
0
 62
     7
 48
0.353975
370
    40
100
AcDbLine
 10
2.352270344632216
 20
-9.828899429057855
 30
0.0
 11
2.32746656822033
 21
-8.407892645288939
 31
0.0
  0
LINE
  5
F7
330
2
100
AcDbEntity
  8
0
 62
     7
 48
0.171541
370
    40
100
AcDbLine
 10
2.364290553660907
 20
-10.51753729665807
 30
0.0
 11
2.352270344632216
 21
-9.828899429057855
 31
0.0
  0
ARC
  5
F8
330
2
100
AcDbEntity
  8
0
 62
     1
370
    40
100
AcDbCircle
 10
-0.4182563441179355
 20
-8.148100567773553
 30
0.0
 40
0.050187926
100
AcDbArc
 50
100.6742509999999
 51
178.9999999999998
  0
ARC
  5
F9
330
2
100
AcDbEntity
  8
0
 62
     1
370
    40
100
AcDbCircle
 10
0.4291724074397508
 20
-8.148100567773553
 30
0.0
 40
0.050187926
100
AcDbArc
 50
1.000000000000184
 51
79.32574900000012
  0
LINE
  5
FA
330
2
100
AcDbEntity
  8
0
 62
     1
 48
0.025363
370
    40
100
AcDbLine
 10
0.4793526044991552
 20
-8.147224688088954
 30
0.0
 11
0.4811298593346578
 21
-8.249043944840707
 31
0.0
  0
LINE
  5
FB
330
2
100
AcDbEntity
  8
0
 62
     1
 48
0.025363
370
    40
100
AcDbLine
 10
-0.4684365411773399
 20
-8.147224688088954
 30
0.0
 11
-0.4702137960128426
 21
-8.249043944840707
 31
0.0
  0
ARC
  5
FC
330
2
100
AcDbEntity
  8
0
 62
     1
370
    40
100
AcDbCircle
 10
0.0054580316609076
 20
-10.39608251573804
 30
0.0
 40
2.337753593079999
100
AcDbArc
 50
90.0
 51
100.6742500000002
  0
ARC
  5
FD
330
2
100
AcDbEntity
  8
0
 62
     1
370
    40
100
AcDbCircle
 10
0.0054580316609076
 20
-10.39608251573804
 30
0.0
 40
2.337753593079999
100
AcDbArc
 50
79.32574999999973
 51
90.0
  0
LINE
  5
FE
330
2
100
AcDbEntity
  8
0
 62
     1
 48
0.174617
370
    13
100
AcDbLine
 10
-0.2217391961862631
 20
-8.147224688088954
 30
0.0
 11
0.4793526044991552
 21
-8.147224688088954
 31
0.0
  0
LINE
  5
FF
330
2
100
AcDbEntity
  8
0
 62
     1
 48
0.061443
370
    13
100
AcDbLine
 10
-0.4684365411773399
 20
-8.147224688088954
 30
0.0
 11
-0.2217391961862631
 21
-8.147224688088954
 31
0.0
  0
LINE
  5
100
330
2
100
AcDbEntity
  8
0
 62
     1
 48
0.057217
370
    40
100
AcDbLine
 10
0.1203229371454029
 20
-8.249043041458037
 30
0.0
 11
-0.1094068738235876
 21
-8.249043041458037
 31
0.0
  0
ARC
  5
101
330
2
100
AcDbEntity
  8
0
 62
     1
370
    40
100
AcDbCircle
 10
-1.449991822339086
 20
-8.34941889345805
 30
0.0
 40
0.100375852
100
AcDbArc
 50
90.00001600000015
 51
156.4222360000002
  0
ARC
  5
102
330
2
100
AcDbEntity
  8
0
 62
     1
370
    40
100
AcDbCircle
 10
1.460907885660901
 20
-8.34941889345805
 30
0.0
 40
0.100375852
100
AcDbArc
 50
23.57776399999981
 51
89.99998399999986
  0
LINE
  5
103
330
2
100
AcDbEntity
  8
0
 62
     1
 48
0.188708
370
    40
100
AcDbLine
 10
-1.449991822339086
 20
-8.249043041458037
 30
0.0
 11
-0.6923217674119258
 21
-8.249043041458037
 31
0.0
  0
LINE
  5
104
330
2
100
AcDbEntity
  8
0
 62
     1
370
    40
100
AcDbLine
 10
-0.6923217674119258
 20
-8.249043041458037
 30
0.0
 11
1.460907885660901
 21
-8.249043041458037
 31
0.0
  0
LINE
  5
105
330
2
100
AcDbEntity
  8
0
 62
     7
 48
0.14875
370
    40
100
AcDbLine
 10
0.2601616145107073
 20
7.421452598838357
 30
0.0
 11
1.448778334476344
 21
7.421452598838357
 31
0.0
  0
LINE
  5
106
330
2
100
AcDbEntity
  8
0
 62
     1
 48
0.083165
370
    40
100
AcDbLine
 10
0.2601616145107073
 20
7.421452598838357
 30
0.0
 11
0.2601616145107073
 21
7.753725808251886
 31
0.0
  0
LINE
  5
107
330
2
100
AcDbEntity
  8
0
 62
     7
 48
0.106853
370
    40
100
AcDbLine
 10
1.448778334476344
 20
7.421452598838357
 30
0.0
 11
1.448778334476344
 21
7.84836686754329
 31
0.0
  0
LINE
  5
108
330
2
100
AcDbEntity
  8
0
 62
     7
 48
0.14875
370
    40
100
AcDbLine
 10
-0.249245551188892
 20
7.421452598838357
 30
0.0
 11
-1.437862271154529
 21
7.421452598838357
 31
0.0
  0
LINE
  5
109
330
2
100
AcDbEntity
  8
0
 62
     7
 48
0.106853
370
    40
100
AcDbLine
 10
-1.437862271154529
 20
7.421452598838357
 30
0.0
 11
-1.437862271154529
 21
7.84836676765957
 31
0.0
  0
LINE
  5
10A
330
2
100
AcDbEntity
  8
0
 62
     1
 48
0.083165
370
    40
100
AcDbLine
 10
-0.249245551188892
 20
7.421452598838357
 30
0.0
 11
-0.249245551188892
 21
7.753725908135606
 31
0.0
  0
ARC
  5
10B
330
2
100
AcDbEntity
  8
0
 62
     7
370
    40
100
AcDbCircle
 10
0.0054580316609076
 20
13.41447807765684
 30
0.0
 40
5.999999063149396
100
AcDbArc
 50
283.9192139999996
 51
90.0
  0
ARC
  5
10C
330
2
100
AcDbEntity
  8
0
 62
     7
370
    40
100
AcDbCircle
 10
0.0054649236402042
 20
13.41443143194186
 30
0.0
 40
5.999952317550661
100
AcDbArc
 50
269.9999339999997
 51
272.7624629999993
  0
ARC
  5
10D
330
2
100
AcDbEntity
  8
0
 62
     7
370
    40
100
AcDbCircle
 10
0.0054580316609076
 20
13.41447807765684
 30
0.0
 40
5.999999063149396
100
AcDbArc
 50
90.0
 51
256.080807
  0
ARC
  5
10E
330
2
100
AcDbEntity
  8
0
 62
     7
370
    40
100
AcDbCircle
 10
0.005451139681611
 20
13.41443193136064
 30
0.0
 40
5.999952916853209
100
AcDbArc
 50
267.2726930000006
 51
270.0000650000008
  0
LINE
  5
10F
330
2
100
AcDbEntity
  8
0
 62
     7
 48
0.03436
370
    40
100
AcDbLine
 10
2.352726344198146
 20
8.037532222013112
 30
0.0
 11
2.352726344198146
 21
7.90025228469625
 31
0.0
  0
LINE
  5
110
330
2
100
AcDbEntity
  8
0
 62
     7
 48
0.03436
370
    40
100
AcDbLine
 10
-2.34181028087633
 20
8.037532222013112
 30
0.0
 11
-2.34181028087633
 21
7.90025228469625
 31
0.0
  0
ARC
  5
111
330
2
100
AcDbEntity
  8
0
 62
     1
370
    13
100
AcDbCircle
 10
0.0054580316609076
 20
13.41447807765684
 30
0.0
 40
5.279127394127166
100
AcDbArc
 50
296.0870370000009
 51
243.9129629999991
  0
ARC
  5
112
330
2
100
AcDbEntity
  8
0
 62
     1
370
    13
100
AcDbCircle
 10
0.0054580316609076
 20
13.41447807765684
 30
0.0
 40
5.399307331961557
100
AcDbArc
 50
295.4943310000003
 51
244.5056689999997
  0
ARC
  5
113
330
2
100
AcDbEntity
  8
0
 62
     1
370
    13
100
AcDbCircle
 10
0.0054580316609076
 20
13.41447807765684
 30
0.0
 40
4.558181411588999
100
AcDbArc
 50
299.7306970000001
 51
240.2693030000013
  0
ARC
  5
114
330
2
100
AcDbEntity
  8
0
 62
     1
370
    13
100
AcDbCircle
 10
0.0054580316609076
 20
13.41447807765684
 30
0.0
 40
4.880489518120113
100
AcDbArc
 50
298.2969440000005
 51
241.7030559999995
  0
ARC
  5
115
330
2
100
AcDbEntity
  8
0
 62
     1
370
    13
100
AcDbCircle
 10
2.115351894171624
 20
8.45839683114849
 30
0.0
 40
0.2007063234018731
100
AcDbArc
 50
291.6435719999999
 51
359.8683009999998
  0
ARC
  5
116
330
2
100
AcDbEntity
  8
0
 62
     1
370
    13
100
AcDbCircle
 10
-2.105436566221015
 20
9.320994363439012
 30
0.0
 40
0.0998611842510046
100
AcDbArc
 50
89.99606499999968
 51
180.0039310000007
  0
SPLINE
  5
117
330
2
100
AcDbEntity
  8
0
 62
     1
370
    13
100
AcDbSpline
210
0.0
220
0.0
230
1.0
 70
     8
 71
     5
 72
    18
 73
    12
 74
     0
 42
0.0000000001
 43
0.0000000001
 40
2.356622359094115
 40
2.356622359094115
 40
2.356622359094115
 40
2.356622359094115
 40
2.356622359094115
 40
2.356622359094115
 40
3.066575392401996
 40
3.066575392401996
 40
3.066575392401996
 40
4.039447752991568
 40
4.039447752991568
 40
4.039447752991568
 40
4.790700588841016
 40
4.790700588841016
 40
4.790700588841016
 40
4.790700588841016
 40
4.790700588841016
 40
4.790700588841016
 10
2.153167778981384
 20
8.357111469813503
 30
0.0
 10
2.159867796180634
 20
8.359956812405926
 30
0.0
 10
2.166300816752254
 20
8.36345081237664
 30
0.0
 10
2.172391008636822
 20
8.36754915488774
 30
0.0
 10
2.185866417244341
 20
8.378550769597325
 30
0.0
 10
2.196811906833744
 20
8.392228704853664
 30
0.0
 10
2.202180370227949
 20
8.400863152893919
 30
0.0
 10
2.209883107812117
 20
8.417120296740449
 30
0.0
 10
2.214291565438202
 20
8.4345545856753
 30
0.0
 10
2.215574233532805
 20
8.442299097989632
 30
0.0
 10
2.216214287798834
 20
8.450117040952477
 30
0.0
 10
2.216214293682639
 20
8.457935186419263
 30
0.0
  0
ARC
  5
118
330
2
100
AcDbEntity
  8
0
 62
     1
370
    13
100
AcDbCircle
 10
2.116352629542831
 20
9.320994363439012
 30
0.0
 40
0.0998611842510046
100
AcDbArc
 50
359.9960689999993
 51
90.00393500000031
  0
ARC
  5
119
330
2
100
AcDbEntity
  8
0
 62
     1
370
    13
100
AcDbCircle
 10
0.0054580316609076
 20
13.41447807765684
 30
0.0
 40
5.494507540530168
100
AcDbArc
 50
246.9905329999992
 51
293.0094670000008
  0
ARC
  5
11A
330
2
100
AcDbEntity
  8
0
 62
     1
370
    13
100
AcDbCircle
 10
0.0054580316609076
 20
13.41447807765684
 30
0.0
 40
5.587116464765497
100
AcDbArc
 50
246.9905329999992
 51
293.0094670000008
  0
LINE
  5
11B
330
2
100
AcDbEntity
  8
0
 62
     1
370
    13
100
AcDbLine
 10
-2.105429774125497
 20
9.420856047108827
 30
0.0
 11
2.116345837447312
 21
9.420856047108827
 31
0.0
  0
SPLINE
  5
11C
330
2
100
AcDbEntity
  8
0
 62
     1
370
    13
100
AcDbSpline
210
0.0
220
0.0
230
1.0
 70
     8
 71
     5
 72
    18
 73
    12
 74
     0
 42
0.0000000001
 43
0.0000000001
 40
2.356622359094115
 40
2.356622359094115
 40
2.356622359094115
 40
2.356622359094115
 40
2.356622359094115
 40
2.356622359094115
 40
3.066575392401996
 40
3.066575392401996
 40
3.066575392401996
 40
4.039447752991568
 40
4.039447752991568
 40
4.039447752991568
 40
4.790700588841016
 40
4.790700588841016
 40
4.790700588841016
 40
4.790700588841016
 40
4.790700588841016
 40
4.790700588841016
 10
-2.142251715659568
 20
8.357111469813503
 30
0.0
 10
-2.148951732858847
 20
8.359956812405926
 30
0.0
 10
-2.155384753430439
 20
8.36345081237664
 30
0.0
 10
-2.161474945315006
 20
8.36754915488774
 30
0.0
 10
-2.174950353922525
 20
8.378550769597325
 30
0.0
 10
-2.185895843511957
 20
8.392228704853664
 30
0.0
 10
-2.191264306906163
 20
8.400863152893919
 30
0.0
 10
-2.198967044490302
 20
8.417120296740449
 30
0.0
 10
-2.203375502116386
 20
8.4345545856753
 30
0.0
 10
-2.20465817021099
 20
8.442299097989632
 30
0.0
 10
-2.205298224477019
 20
8.450117040952477
 30
0.0
 10
-2.205298230360853
 20
8.457935186419263
 30
0.0
  0
ARC
  5
11D
330
2
100
AcDbEntity
  8
0
 62
     1
370
    13
100
AcDbCircle
 10
-2.104435830849809
 20
8.45839683114849
 30
0.0
 40
0.2007063234018731
100
AcDbArc
 50
180.1316990000001
 51
248.3564280000001
  0
ARC
  5
11E
330
2
100
AcDbEntity
  8
0
 62
     7
370
    40
100
AcDbCircle
 10
-1.947642402806422
 20
9.852763105340216
 30
0.0
 40
0.3311045694451653
100
AcDbArc
 50
267.5566699999999
 51
270.9417349999999
  0
SPLINE
  5
11F
330
2
100
AcDbEntity
  8
0
 62
     1
370
    13
100
AcDbSpline
210
0.0
220
0.0
230
1.0
 70
     8
 71
     5
 72
    21
 73
    15
 74
     0
 42
0.0000000001
 43
0.0000000001
 40
0.0
 40
0.0
 40
0.0
 40
0.0
 40
0.0
 40
0.0
 40
8.194321179586912
 40
8.194321179586912
 40
8.194321179586912
 40
18.27306077433521
 40
18.27306077433521
 40
18.27306077433521
 40
26.74425793877607
 40
26.74425793877607
 40
26.74425793877607
 40
29.20879539085752
 40
29.20879539085752
 40
29.20879539085752
 40
29.20879539085752
 40
29.20879539085752
 40
29.20879539085752
 10
-1.569667665846509
 20
7.695572756488218
 30
0.0
 10
-1.615441919345045
 20
7.715831423514714
 30
0.0
 10
-1.6490249540862
 20
7.735733581482975
 30
0.0
 10
-1.66914126029286
 20
7.754808476065363
 30
0.0
 10
-1.682736008637618
 20
7.794359117455428
 30
0.0
 10
-1.627772710095172
 20
7.824913747331834
 30
0.0
 10
-1.577000649909422
 20
7.838152198426371
 30
0.0
 10
-1.449843763368164
 20
7.854319116973158
 30
0.0
 10
-1.272346198351613
 20
7.853918633028229
 30
0.0
 10
-1.182806392910549
 20
7.850019161912484
 30
0.0
 10
-1.05991979576126
 20
7.840138762854451
 30
0.0
 10
-0.9328333391950422
 20
7.824601472463484
 30
0.0
 10
-0.9040535700574992
 20
7.820820977654591
 30
0.0
 10
-0.8752151982558302
 20
7.816773229819148
 30
0.0
 10
-0.8463861174036537
 20
7.812470016086876
 30
0.0
  0
LINE
  5
120
330
2
100
AcDbEntity
  8
0
 62
     7
 48
0.487481
370
    40
100
AcDbLine
 10
0.0054580316609076
 20
9.521304248205467
 30
0.0
 11
-1.942199736834055
 21
9.521659934267631
 31
0.0
  0
LINE
  5
121
330
2
100
AcDbEntity
  8
0
 62
     7
 48
0.000031
370
    40
100
AcDbLine
 10
-1.961755977809019
 20
9.522002435673755
 30
0.0
 11
-1.961844674586131
 21
9.522091132450839
 31
0.0
  0
LINE
  5
122
330
2
100
AcDbEntity
  8
0
 62
     7
 48
0.03628
370
    40
100
AcDbLine
 10
-1.961844674586131
 20
9.522091132450839
 30
0.0
 11
-2.106796383702175
 21
9.522091132450839
 31
0.0
  0
ARC
  5
123
330
2
100
AcDbEntity
  8
0
 62
     7
370
    40
100
AcDbCircle
 10
-2.106835937670325
 20
9.322201059119208
 30
0.0
 40
0.1998818828635036
100
AcDbArc
 50
90.00017700000023
 51
157.8588120000007
  0
ARC
  5
124
330
2
100
AcDbEntity
  8
0
 62
     1
370
    13
100
AcDbCircle
 10
-0.8935937761284549
 20
9.253891655757797
 30
0.0
 40
1.69869680254275
100
AcDbArc
 50
246.5464720000007
 51
251.3131619999999
  0
LINE
  5
125
330
2
100
AcDbEntity
  8
0
 62
     1
 48
0.216014
370
    13
100
AcDbLine
 10
-2.20529824989083
 20
8.457935468070388
 30
0.0
 11
-2.20529824989083
 21
9.320987471459716
 31
0.0
  0
ARC
  5
126
330
2
100
AcDbEntity
  8
0
 62
     7
370
    40
100
AcDbCircle
 10
-2.106203174063523
 20
9.321944957163736
 30
0.0
 40
0.2005606928827378
100
AcDbArc
 50
157.8512730000008
 51
179.8178769999989
  0
ARC
  5
127
330
2
100
AcDbEntity
  8
0
 62
     7
370
    40
100
AcDbCircle
 10
-23.552320162369
 20
9.356241144187606
 30
0.0
 40
21.24555299925871
100
AcDbArc
 50
359.0693929999988
 51
359.9092280000014
  0
LINE
  5
128
330
2
100
AcDbEntity
  8
0
 62
     7
 48
0.110143
370
    40
100
AcDbLine
 10
-2.309603462301879
 20
9.011183313171386
 30
0.0
 11
-2.317896011656927
 21
8.571202950433757
 31
0.0
  0
LINE
  5
129
330
2
100
AcDbEntity
  8
0
 62
     7
 48
0.047047
370
    40
100
AcDbLine
 10
-2.34181028087633
 20
8.034455702383525
 30
0.0
 11
-2.34181028087633
 21
8.222423550478936
 31
0.0
  0
SPLINE
  5
12A
330
2
100
AcDbEntity
  8
0
 62
     7
370
    40
100
AcDbSpline
210
0.0
220
0.0
230
1.0
 70
     8
 71
     5
 72
    12
 73
     6
 74
     0
 42
0.0000000001
 43
0.0000000001
 40
0.0
 40
0.0
 40
0.0
 40
0.0
 40
0.0
 40
0.0
 40
5.352227553899004
 40
5.352227553899004
 40
5.352227553899004
 40
5.352227553899004
 40
5.352227553899004
 40
5.352227553899004
 10
-2.317896025113412
 20
8.571202965216969
 30
0.0
 10
-2.318691122639336
 20
8.529360259179497
 30
0.0
 10
-2.319581334124023
 20
8.493489554299685
 30
0.0
 10
-2.32055254457299
 20
8.464816104087447
 30
0.0
 10
-2.321581798995168
 20
8.444431499873985
 30
0.0
 10
-2.322640042516923
 20
8.432781902844396
 30
0.0
  0
LINE
  5
12B
330
2
100
AcDbEntity
  8
0
 62
     7
 48
0.052869
370
    40
100
AcDbLine
 10
-2.322640090625952
 20
8.432781941065684
 30
0.0
 11
-2.34181028087633
 21
8.222423550478936
 31
0.0
  0
ARC
  5
12C
330
2
100
AcDbEntity
  8
0
 62
     7
370
    40
100
AcDbCircle
 10
1.958558466128238
 20
9.852763105340216
 30
0.0
 40
0.3311045694451653
100
AcDbArc
 50
269.058265
 51
272.4433300000001
  0
SPLINE
  5
12D
330
2
100
AcDbEntity
  8
0
 62
     1
370
    13
100
AcDbSpline
210
0.0
220
0.0
230
1.0
 70
     8
 71
     5
 72
    21
 73
    15
 74
     0
 42
0.0000000001
 43
0.0000000001
 40
0.0
 40
0.0
 40
0.0
 40
0.0
 40
0.0
 40
0.0
 40
8.194321178783727
 40
8.194321178783727
 40
8.194321178783727
 40
18.27306077242604
 40
18.27306077242604
 40
18.27306077242604
 40
26.74425793654948
 40
26.74425793654948
 40
26.74425793654948
 40
29.20879538878133
 40
29.20879538878133
 40
29.20879538878133
 40
29.20879538878133
 40
29.20879538878133
 40
29.20879538878133
 10
1.580583729168324
 20
7.695572756488218
 30
0.0
 10
1.626357982662398
 20
7.715831423512724
 30
0.0
 10
1.65994101740182
 20
7.735733581478484
 30
0.0
 10
1.68005732361496
 20
7.754808476067637
 30
0.0
 10
1.693652071956819
 20
7.794359117453268
 30
0.0
 10
1.638688773426054
 20
7.8249137473274
 30
0.0
 10
1.587916713218675
 20
7.838152198425689
 30
0.0
 10
1.460759826686995
 20
7.854319116974238
 30
0.0
 10
1.28326226168491
 20
7.853918633027035
 30
0.0
 10
1.193722456233558
 20
7.850019161915895
 30
0.0
 10
1.07083585908623
 20
7.840138762853655
 30
0.0
 10
0.9437494025221155
 20
7.824601472464451
 30
0.0
 10
0.9149696333827534
 20
7.820820977654932
 30
0.0
 10
0.8861312615794076
 20
7.816773229819432
 30
0.0
 10
0.857302180725469
 20
7.812470016086876
 30
0.0
  0
ARC
  5
12E
330
2
100
AcDbEntity
  8
0
 62
     1
370
    13
100
AcDbCircle
 10
0.0054650235239535
 20
13.51933524771448
 30
0.0
 40
5.77008972542682
100
AcDbArc
 50
261.5104070000004
 51
278.4897329999994
  0
LINE
  5
12F
330
2
100
AcDbEntity
  8
0
 62
     7
 48
0.487481
370
    40
100
AcDbLine
 10
0.0054580316609076
 20
9.521304248205467
 30
0.0
 11
1.95311580015587
 21
9.521659934267631
 31
0.0
  0
LINE
  5
130
330
2
100
AcDbEntity
  8
0
 62
     7
 48
0.000031
370
    40
100
AcDbLine
 10
1.972672041130834
 20
9.522002435673755
 30
0.0
 11
1.972760737907947
 21
9.522091132450839
 31
0.0
  0
ARC
  5
131
330
2
100
AcDbEntity
  8
0
 62
     7
370
    40
100
AcDbCircle
 10
2.117711747837688
 20
9.322133537698789
 30
0.0
 40
0.1999576946358107
100
AcDbArc
 50
22.14910499999881
 51
90.00773900000057
  0
LINE
  5
132
330
2
100
AcDbEntity
  8
0
 62
     7
 48
0.03628
370
    40
100
AcDbLine
 10
2.11771244702399
 20
9.522091132450839
 30
0.0
 11
1.972760737907947
 21
9.522091132450839
 31
0.0
  0
ARC
  5
133
330
2
100
AcDbEntity
  8
0
 62
     1
370
    13
100
AcDbCircle
 10
0.9045098394502701
 20
9.253891655757797
 30
0.0
 40
1.698696702658992
100
AcDbArc
 50
288.6868380000001
 51
293.4535279999993
  0
LINE
  5
134
330
2
100
AcDbEntity
  8
0
 62
     1
 48
0.216014
370
    13
100
AcDbLine
 10
2.216214313212645
 20
8.457935468070388
 30
0.0
 11
2.216214313212645
 21
9.320987471459716
 31
0.0
  0
ARC
  5
135
330
2
100
AcDbEntity
  8
0
 62
     7
370
    40
100
AcDbCircle
 10
2.117119237385338
 20
9.321944957163736
 30
0.0
 40
0.2005606928827378
100
AcDbArc
 50
0.1821230000010708
 51
22.14872699999919
  0
LINE
  5
136
330
2
100
AcDbEntity
  8
0
 62
     7
 48
0.047047
370
    40
100
AcDbLine
 10
2.352726344198146
 20
8.034455702383525
 30
0.0
 11
2.352726344198146
 21
8.222423550478936
 31
0.0
  0
SPLINE
  5
137
330
2
100
AcDbEntity
  8
0
 62
     7
370
    40
100
AcDbSpline
210
0.0
220
0.0
230
1.0
 70
     8
 71
     5
 72
    12
 73
     6
 74
     0
 42
0.0000000001
 43
0.0000000001
 40
0.0
 40
0.0
 40
0.0
 40
0.0
 40
0.0
 40
0.0
 40
5.352227553899004
 40
5.352227553899004
 40
5.352227553899004
 40
5.352227553899004
 40
5.352227553899004
 40
5.352227553899004
 10
2.328812088435199
 20
8.571202965216969
 30
0.0
 10
2.329607185961151
 20
8.529360259179497
 30
0.0
 10
2.33049739744581
 20
8.493489554299685
 30
0.0
 10
2.331468607894777
 20
8.464816104087447
 30
0.0
 10
2.332497862316955
 20
8.444431499873985
 30
0.0
 10
2.333556105838738
 20
8.432781902844396
 30
0.0
  0
LINE
  5
138
330
2
100
AcDbEntity
  8
0
 62
     7
 48
0.110143
370
    40
100
AcDbLine
 10
2.320519525623694
 20
9.011183313171386
 30
0.0
 11
2.328812074978742
 21
8.571202950433757
 31
0.0
  0
ARC
  5
139
330
2
100
AcDbEntity
  8
0
 62
     7
370
    40
100
AcDbCircle
 10
23.56323622569082
 20
9.356241144187606
 30
0.0
 40
21.24555299925871
100
AcDbArc
 50
180.0907719999985
 51
180.9306070000012
  0
LINE
  5
13A
330
2
100
AcDbEntity
  8
0
 62
     7
 48
0.052869
370
    40
100
AcDbLine
 10
2.333556153947768
 20
8.432781941065684
 30
0.0
 11
2.352726344198146
 21
8.222423550478936
 31
0.0
  0
CIRCLE
  5
13B
330
2
100
AcDbEntity
  8
0
 62
     1
370
    13
100
AcDbCircle
 10
0.0054580316609076
 20
14.46325753645004
 30
0.0
 40
0.4308875447136712
  0
CIRCLE
  5
13C
330
2
100
AcDbEntity
  8
0
 62
     1
370
    13
100
AcDbCircle
 10
0.0054580316609076
 20
13.46441995664696
 30
0.0
 40
0.1143017786772496
  0
CIRCLE
  5
13D
330
2
100
AcDbEntity
  8
0
 62
     1
370
    13
100
AcDbCircle
 10
0.0054580316609076
 20
13.46441995664696
 30
0.0
 40
0.1797907643645545
  0
CIRCLE
  5
13E
330
2
100
AcDbEntity
  8
0
 62
     1
370
    40
100
AcDbCircle
 10
0.0054580316609076
 20
14.46325753645004
 30
0.0
 40
0.6092909236798793
  0
CIRCLE
  5
13F
330
2
100
AcDbEntity
  8
0
 62
     1
370
    13
100
AcDbCircle
 10
0.0054580316609076
 20
14.46325753645004
 30
0.0
 40
1.448314490714467
  0
CIRCLE
  5
140
330
2
100
AcDbEntity
  8
0
 62
     1
370
    40
100
AcDbCircle
 10
0.0054580316609076
 20
14.46325753645004
 30
0.0
 40
1.548198248694775
  0
TEXT
  5
141
330
2
100
AcDbEntity
  8
TOUROKU
100
AcDbText
 10
45.2563998712086
 20
29.34785361863851
 30
0.0
 40
2.0
  1
ＫＸＶＣＡ００１
 72
     2
 11
63.12306653787527
 21
29.34785361863851
 31
0.0
100
AcDbText
  0
TEXT
  5
143
330
2
100
AcDbEntity
  8
MOJI1
100
AcDbText
 10
-20.37688349505194
 20
-72.65214638136114
 30
0.0
 40
3.0
  1
ＫＸ－ＶＣ４００、ＫＸ－ＶＣ５００、ＫＸ－ＶＣ６００
 41
0.8699999999999999
100
AcDbText
  0
TEXT
  5
144
330
2
100
AcDbEntity
  8
MOJI1
100
AcDbText
 10
-59.37688349505194
 20
-72.65214638136114
 30
0.0
 40
3.0
  1
適用機種（本体）
100
AcDbText
  0
LINE
  5
145
330
2
100
AcDbEntity
  8
WAKU
 62
     1
100
AcDbLine
 10
-61.87688349505194
 20
-68.65214638136115
 30
0.0
 11
63.12311650494803
 21
-68.65214638136115
 31
0.0
  0
TEXT
  5
147
330
2
100
AcDbEntity
  8
MOJI1
100
AcDbText
 10
-59.37688349505197
 20
-32.65214638136115
 30
0.0
 40
3.0
  1
電　源
100
AcDbText
  0
TEXT
  5
148
330
2
100
AcDbEntity
  8
MOJI1
100
AcDbText
 10
-59.37688349505194
 20
-62.65214638136114
 30
0.0
 40
3.0
  1
最大入力音圧
100
AcDbText
  0
TEXT
  5
149
330
2
100
AcDbEntity
  8
MOJI1
100
AcDbText
 10
-59.37688349505194
 20
-67.65214638136114
 30
0.0
 40
3.0
  1
マイクケーブル接続端子
 41
0.9
100
AcDbText
  0
TEXT
  5
14A
330
2
100
AcDbEntity
  8
MOJI1
100
AcDbText
 10
-20.37688349505194
 20
-67.65214638136114
 30
0.0
 40
3.0
  1
２個（カスケード接続）
100
AcDbText
  0
TEXT
  5
14B
330
2
100
AcDbEntity
  8
MOJI1
100
AcDbText
 10
-20.37688349505194
 20
-62.65214638136114
 30
0.0
 40
3.0
  1
１１０ｄＢ ＳＰＬ
100
AcDbText
  0
TEXT
  5
14C
330
2
100
AcDbEntity
  8
MOJI1
100
AcDbText
 10
-20.37688349505197
 20
-32.65214638136115
 30
0.0
 40
3.0
  1
本体から専用ケーブル経由で供給
100
AcDbText
  0
TEXT
  5
14D
330
2
100
AcDbEntity
  8
MOJI1
100
AcDbText
 10
-20.37688349505194
 20
-57.65214638136114
 30
0.0
 40
3.0
  1
最大４台
 41
0.95
100
AcDbText
  0
TEXT
  5
14E
330
2
100
AcDbEntity
  8
MOJI1
100
AcDbText
 10
-20.37688349505194
 20
-47.65214638136114
 30
0.0
 40
3.0
  1
ステレオ（１台接続時）、モノラル（２～４台接続時）
 41
0.9
100
AcDbText
  0
TEXT
  5
14F
330
2
100
AcDbEntity
  8
MOJI1
100
AcDbText
 10
-20.37688349505194
 20
-52.65214638136114
 30
0.0
 40
3.0
  1
単一指向性ＥＣＭマイク部品×４個
100
AcDbText
  0
TEXT
  5
150
330
2
100
AcDbEntity
  8
MOJI1
100
AcDbText
 10
-59.37688349505194
 20
-57.65214638136114
 30
0.0
 40
3.0
  1
接続可能台数
100
AcDbText
  0
TEXT
  5
151
330
2
100
AcDbEntity
  8
MOJI1
100
AcDbText
 10
-59.37688349505194
 20
-52.65214638136114
 30
0.0
 40
3.0
  1
マイクロホンユニット
 41
0.9
100
AcDbText
  0
TEXT
  5
152
330
2
100
AcDbEntity
  8
MOJI1
100
AcDbText
 10
-59.37688349505194
 20
-47.65214638136114
 30
0.0
 40
3.0
  1
集音方式
100
AcDbText
  0
TEXT
  5
153
330
2
100
AcDbEntity
  8
MOJI1
100
AcDbText
 10
-59.37688349505194
 20
-42.65214638136114
 30
0.0
 40
3.0
  1
最大集音範囲
100
AcDbText
  0
TEXT
  5
154
330
2
100
AcDbEntity
  8
MOJI1
100
AcDbText
 10
-20.37688349505194
 20
-37.65214638136115
 30
0.0
 40
3.0
  1
約 ２８０ｇ
100
AcDbText
  0
TEXT
  5
155
330
2
100
AcDbEntity
  8
MOJI1
100
AcDbText
 10
-59.37688349505194
 20
-37.65214638136115
 30
0.0
 40
3.0
  1
質　量
100
AcDbText
  0
TEXT
  5
156
330
2
100
AcDbEntity
  8
MOJI1
100
AcDbText
 10
-20.37688349505194
 20
-42.65214638136114
 30
0.0
 40
3.0
  1
半径約 ３ ｍ、３６０°
100
AcDbText
  0
LINE
  5
157
330
2
100
AcDbEntity
  8
WAKU
 62
     1
100
AcDbLine
 10
-61.87688349505194
 20
-33.65214638136115
 30
0.0
 11
63.12311650494803
 21
-33.65214638136115
 31
0.0
  0
LINE
  5
158
330
2
100
AcDbEntity
  8
WAKU
 62
     4
100
AcDbLine
 10
-61.87688349505194
 20
-28.65214638136115
 30
0.0
 11
63.12311650494803
 21
-28.65214638136115
 31
0.0
  0
LINE
  5
159
330
2
100
AcDbEntity
  8
WAKU
 62
     4
100
AcDbLine
 10
-22.87688349505194
 20
-73.65214638136115
 30
0.0
 11
-22.87688349505197
 21
-28.65214638136115
 31
0.0
  0
LINE
  5
15A
330
2
100
AcDbEntity
  8
WAKU
 62
     4
100
AcDbLine
 10
63.12311650494803
 20
-73.65214638136115
 30
0.0
 11
63.12311650494803
 21
-28.65214638136115
 31
0.0
  0
LINE
  5
15B
330
2
100
AcDbEntity
  8
WAKU
 62
     4
100
AcDbLine
 10
-61.87688349505197
 20
-28.65214638136115
 30
0.0
 11
-61.87688349505194
 21
-73.65214638136115
 31
0.0
  0
LINE
  5
15C
330
2
100
AcDbEntity
  8
WAKU
 62
     1
100
AcDbLine
 10
-61.87688349505194
 20
-43.65214638136115
 30
0.0
 11
63.12311650494803
 21
-43.65214638136115
 31
0.0
  0
LINE
  5
15D
330
2
100
AcDbEntity
  8
WAKU
 62
     1
100
AcDbLine
 10
-61.87688349505194
 20
-48.65214638136115
 30
0.0
 11
63.12311650494803
 21
-48.65214638136115
 31
0.0
  0
LINE
  5
15E
330
2
100
AcDbEntity
  8
WAKU
 62
     1
100
AcDbLine
 10
-61.87688349505194
 20
-53.65214638136115
 30
0.0
 11
63.12311650494803
 21
-53.65214638136115
 31
0.0
  0
LINE
  5
15F
330
2
100
AcDbEntity
  8
WAKU
 62
     1
100
AcDbLine
 10
-61.87688349505194
 20
-58.65214638136115
 30
0.0
 11
63.12311650494803
 21
-58.65214638136115
 31
0.0
  0
LINE
  5
160
330
2
100
AcDbEntity
  8
WAKU
 62
     1
100
AcDbLine
 10
-61.87688349505194
 20
-63.65214638136115
 30
0.0
 11
63.12311650494803
 21
-63.65214638136115
 31
0.0
  0
LINE
  5
161
330
2
100
AcDbEntity
  8
WAKU
 62
     1
100
AcDbLine
 10
63.12311650494803
 20
-38.65214638136115
 30
0.0
 11
-61.87688349505194
 21
-38.65214638136115
 31
0.0
  0
LINE
  5
162
330
2
100
AcDbEntity
  8
WAKU
 62
     4
100
AcDbLine
 10
-61.87688349505194
 20
-73.65214638136115
 30
0.0
 11
63.12311650494803
 21
-73.65214638136115
 31
0.0
  0
ENDSEC
  0
SECTION
  2
OBJECTS
  0
DICTIONARY
  5
7
330
0
100
AcDbDictionary
281
     1
  3
ACAD_COLOR
350
2C
  3
ACAD_GROUP
350
28
  3
ACAD_LAYOUT
350
B
  3
ACAD_MATERIAL
350
2B
  3
ACAD_MLINESTYLE
350
29
  3
ACAD_PLOTSETTINGS
350
2A
  3
ACAD_PLOTSTYLENAME
350
6
  3
ACDBHEADERROUNDTRIPXREC
350
1A1
  3
AcDbVariableDictionary
350
19C
  0
DICTIONARY
  5
11
330
10
100
AcDbDictionary
280
     1
281
     1
  3
ACAD_LAYERSTATES
360
12
  0
DICTIONARY
  5
2C
102
{ACAD_REACTORS
330
7
102
}
330
7
100
AcDbDictionary
281
     1
  0
DICTIONARY
  5
28
102
{ACAD_REACTORS
330
7
102
}
330
7
100
AcDbDictionary
281
     1
  0
DICTIONARY
  5
B
102
{ACAD_REACTORS
330
7
102
}
330
7
100
AcDbDictionary
281
     1
  3
Model
350
A
  3
レイアウト1
350
F
  0
DICTIONARY
  5
2B
102
{ACAD_REACTORS
330
7
102
}
330
7
100
AcDbDictionary
281
     1
  0
DICTIONARY
  5
29
102
{ACAD_REACTORS
330
7
102
}
330
7
100
AcDbDictionary
281
     1
  3
Standard
350
2E
  0
DICTIONARY
  5
2A
102
{ACAD_REACTORS
330
7
102
}
330
7
100
AcDbDictionary
281
     1
  0
ACDBDICTIONARYWDFLT
  5
6
102
{ACAD_REACTORS
330
7
102
}
330
7
100
AcDbDictionary
281
     1
  3
Normal
350
5
100
AcDbDictionaryWithDefault
340
5
  0
DICTIONARY
  5
1A1
102
{ACAD_REACTORS
330
7
102
}
330
7
100
AcDbDictionary
281
     1
  3
COLORDICT
350
1A3
  3
MATERIALDICT
350
1A2
  0
DICTIONARY
  5
19C
102
{ACAD_REACTORS
330
7
102
}
330
7
100
AcDbDictionary
281
     1
  3
DIMASSOC
350
19E
  3
HIDETEXT
350
19D
  3
PROJECTNAME
350
19F
  0
DICTIONARY
  5
12
102
{ACAD_REACTORS
330
11
102
}
330
11
100
AcDbDictionary
281
     1
  0
LAYOUT
  5
A
102
{ACAD_XDICTIONARY
360
1A4
102
}
102
{ACAD_REACTORS
330
B
102
}
330
B
100
AcDbPlotSettings
  1

  2
Acrobat PDFWriter
  4
A4
  6

 40
7.143749713897705
 41
7.143741130828857
 42
7.143768310546875
 43
7.143753051757812
 44
297.0530090332031
 45
209.9733276367187
 46
0.0
 47
4.95
 48
28.480184
 49
111.321191
140
353.779077
141
344.26463
142
1.0
143
1.394313187102225
 70
 11956
 72
     1
 73
     1
 74
     1
  7
tmsacad.ctb
 75
     0
147
0.7171989831626572
148
0.0195232452733762
149
0.0240539385804368
100
AcDbLayout
  1
Model
 70
     1
 71
     0
 10
0.0
 20
0.0
 11
12.0
 21
9.0
 12
0.0
 22
0.0
 32
0.0
 14
0.0
 24
0.0
 34
0.0
 15
0.0
 25
0.0
 35
0.0
146
0.0
 13
0.0
 23
0.0
 33
0.0
 16
1.0
 26
0.0
 36
0.0
 17
0.0
 27
1.0
 37
0.0
 76
     0
330
2
  0
LAYOUT
  5
F
102
{ACAD_XDICTIONARY
360
1A6
102
}
102
{ACAD_REACTORS
330
B
102
}
330
B
100
AcDbPlotSettings
  1

  2
None
  4

  6

 40
0.0
 41
0.0
 42
0.0
 43
0.0
 44
0.0
 45
0.0
 46
0.0
 47
0.0
 48
0.0
 49
0.0
140
0.0
141
0.0
142
1.0
143
1.0
 70
   688
 72
     0
 73
     0
 74
     5
  7
tmsacad.ctb
 75
    16
147
1.0
148
0.0
149
0.0
100
AcDbLayout
  1
レイアウト1
 70
     1
 71
     1
 10
0.0
 20
0.0
 11
12.0
 21
9.0
 12
0.0
 22
0.0
 32
0.0
 14
0.0
 24
0.0
 34
0.0
 15
0.0
 25
0.0
 35
0.0
146
0.0
 13
0.0
 23
0.0
 33
0.0
 16
1.0
 26
0.0
 36
0.0
 17
0.0
 27
1.0
 37
0.0
 76
     0
330
C
  0
MLINESTYLE
  5
2E
102
{ACAD_REACTORS
330
29
102
}
330
29
100
AcDbMlineStyle
  2
STANDARD
 70
     0
  3

 62
   256
 51
90.0
 52
90.0
 71
     2
 49
0.5
 62
   256
  6
BYLAYER
 49
-0.5
 62
   256
  6
BYLAYER
  0
ACDBPLACEHOLDER
  5
5
102
{ACAD_REACTORS
330
6
102
}
330
6
  0
XRECORD
  5
1A3
102
{ACAD_REACTORS
330
1A1
102
}
330
1A1
100
AcDbXrecord
280
     1
340
2C
  0
XRECORD
  5
1A2
102
{ACAD_REACTORS
330
1A1
102
}
330
1A1
100
AcDbXrecord
280
     1
340
2B
  0
DICTIONARYVAR
  5
19E
102
{ACAD_REACTORS
330
19C
102
}
330
19C
100
DictionaryVariables
280
     0
  1
1
  0
DICTIONARYVAR
  5
19D
102
{ACAD_REACTORS
330
19C
102
}
330
19C
100
DictionaryVariables
280
     0
  1
1
  0
DICTIONARYVAR
  5
19F
102
{ACAD_REACTORS
330
19C
102
}
330
19C
100
DictionaryVariables
280
     0
  1

  0
DICTIONARY
  5
1A4
330
A
100
AcDbDictionary
280
     1
281
     1
  3
ACAD_XREC_ROUNDTRIP
360
1A5
  0
DICTIONARY
  5
1A6
330
F
100
AcDbDictionary
280
     1
281
     1
  3
ACAD_XREC_ROUNDTRIP
360
1A7
  0
XRECORD
  5
1A5
102
{ACAD_REACTORS
330
1A4
102
}
330
1A4
100
AcDbXrecord
280
     1
102
SHADEPLOT
 70
     1
102
SHADEPLOTRESLEVEL
 70
     2
102
SHADEPLOTCUSTOMDPI
 70
   300
  0
XRECORD
  5
1A7
102
{ACAD_REACTORS
330
1A6
102
}
330
1A6
100
AcDbXrecord
280
     1
102
SHADEPLOT
 70
     0
102
SHADEPLOTRESLEVEL
 70
     2
102
SHADEPLOTCUSTOMDPI
 70
   300
  0
ENDSEC
  0
EOF
