  0
SECTION
  2
HEADER
  9
$ACADVER
  1
AC1015
  9
$ACADMAINTVER
 70
    20
  9
$DWGCODEPAGE
  3
ANSI_932
  9
$INSBASE
 10
0.4999999440410648
 20
246.5008351249344
 30
0.0
  9
$EXTMIN
 10
-62.27325348913814
 20
-67.62441955323379
 30
-0.0015258207003583
  9
$EXTMAX
 10
62.76031550341326
 20
45.40017740055941
 30
0.0000000349246037
  9
$LIMMIN
 10
0.0
 20
0.0
  9
$LIMMAX
 10
420.0
 20
297.0
  9
$ORTHOMODE
 70
     1
  9
$REGENMODE
 70
     0
  9
$FILLMODE
 70
     1
  9
$QTEXTMODE
 70
     0
  9
$MIRRTEXT
 70
     0
  9
$LTSCALE
 40
1.0
  9
$ATTMODE
 70
     1
  9
$TEXTSIZE
 40
2.5
  9
$TRACEWID
 40
1.0
  9
$TEXTSTYLE
  7
Standard
  9
$CLAYER
  8
GAIKEI
  9
$CELTYPE
  6
ByLayer
  9
$CECOLOR
 62
   256
  9
$CELTSCALE
 40
1.0
  9
$DISPSILH
 70
     0
  9
$DIMSCALE
 40
1.0
  9
$DIMASZ
 40
2.0
  9
$DIMEXO
 40
2.0
  9
$DIMDLI
 40
8.0
  9
$DIMRND
 40
0.0
  9
$DIMDLE
 40
0.0
  9
$DIMEXE
 40
2.0
  9
$DIMTP
 40
0.0
  9
$DIMTM
 40
0.0
  9
$DIMTXT
 40
2.5
  9
$DIMCEN
 40
0.0
  9
$DIMTSZ
 40
0.0
  9
$DIMTOL
 70
     0
  9
$DIMLIM
 70
     0
  9
$DIMTIH
 70
     0
  9
$DIMTOH
 70
     0
  9
$DIMSE1
 70
     0
  9
$DIMSE2
 70
     0
  9
$DIMTAD
 70
     3
  9
$DIMZIN
 70
     0
  9
$DIMBLK
  1

  9
$DIMASO
 70
     1
  9
$DIMSHO
 70
     1
  9
$DIMPOST
  1

  9
$DIMAPOST
  1

  9
$DIMALT
 70
     0
  9
$DIMALTD
 70
     2
  9
$DIMALTF
 40
25.4
  9
$DIMLFAC
 40
1.0
  9
$DIMTOFL
 70
     1
  9
$DIMTVP
 40
0.0
  9
$DIMTIX
 70
     0
  9
$DIMSOXD
 70
     0
  9
$DIMSAH
 70
     1
  9
$DIMBLK1
  1
OPEN30
  9
$DIMBLK2
  1
OPEN30
  9
$DIMSTYLE
  2
STANDARD
  9
$DIMCLRD
 70
     0
  9
$DIMCLRE
 70
     0
  9
$DIMCLRT
 70
     0
  9
$DIMTFAC
 40
1.0
  9
$DIMGAP
 40
0.5
  9
$DIMJUST
 70
     0
  9
$DIMSD1
 70
     0
  9
$DIMSD2
 70
     0
  9
$DIMTOLJ
 70
     1
  9
$DIMTZIN
 70
     0
  9
$DIMALTZ
 70
     0
  9
$DIMALTTZ
 70
     0
  9
$DIMUPT
 70
     0
  9
$DIMDEC
 70
     4
  9
$DIMTDEC
 70
     4
  9
$DIMALTU
 70
     2
  9
$DIMALTTD
 70
     2
  9
$DIMTXSTY
  7
Standard
  9
$DIMAUNIT
 70
     0
  9
$DIMADEC
 70
     0
  9
$DIMALTRND
 40
0.0
  9
$DIMAZIN
 70
     0
  9
$DIMDSEP
 70
    46
  9
$DIMATFIT
 70
     3
  9
$DIMFRAC
 70
     0
  9
$DIMLDRBLK
  1
OPEN30
  9
$DIMLUNIT
 70
     2
  9
$DIMLWD
 70
    -2
  9
$DIMLWE
 70
    -2
  9
$DIMTMOVE
 70
     0
  9
$LUNITS
 70
     2
  9
$LUPREC
 70
     4
  9
$SKETCHINC
 40
1.0
  9
$FILLETRAD
 40
0.0
  9
$AUNITS
 70
     0
  9
$AUPREC
 70
     0
  9
$MENU
  1
.
  9
$ELEVATION
 40
0.0
  9
$PELEVATION
 40
0.0
  9
$THICKNESS
 40
0.0
  9
$LIMCHECK
 70
     0
  9
$CHAMFERA
 40
0.0
  9
$CHAMFERB
 40
0.0
  9
$CHAMFERC
 40
0.0
  9
$CHAMFERD
 40
0.0
  9
$SKPOLY
 70
     0
  9
$TDCREATE
 40
2454349.434269746
  9
$TDUCREATE
 40
2454349.059269746
  9
$TDUPDATE
 40
2455805.724389688
  9
$TDUUPDATE
 40
2455805.349389688
  9
$TDINDWG
 40
1.0788424769
  9
$TDUSRTIMER
 40
1.0788424769
  9
$USRTIMER
 70
     1
  9
$ANGBASE
 50
0.0
  9
$ANGDIR
 70
     0
  9
$PDMODE
 70
     0
  9
$PDSIZE
 40
0.0
  9
$PLINEWID
 40
0.0
  9
$SPLFRAME
 70
     0
  9
$SPLINETYPE
 70
     6
  9
$SPLINESEGS
 70
     8
  9
$HANDSEED
  5
1C3
  9
$SURFTAB1
 70
     6
  9
$SURFTAB2
 70
     6
  9
$SURFTYPE
 70
     6
  9
$SURFU
 70
     6
  9
$SURFV
 70
     6
  9
$UCSBASE
  2

  9
$UCSNAME
  2

  9
$UCSORG
 10
0.0
 20
0.0
 30
0.0
  9
$UCSXDIR
 10
1.0
 20
0.0
 30
0.0
  9
$UCSYDIR
 10
0.0
 20
1.0
 30
0.0
  9
$UCSORTHOREF
  2

  9
$UCSORTHOVIEW
 70
     0
  9
$UCSORGTOP
 10
0.0
 20
0.0
 30
0.0
  9
$UCSORGBOTTOM
 10
0.0
 20
0.0
 30
0.0
  9
$UCSORGLEFT
 10
0.0
 20
0.0
 30
0.0
  9
$UCSORGRIGHT
 10
0.0
 20
0.0
 30
0.0
  9
$UCSORGFRONT
 10
0.0
 20
0.0
 30
0.0
  9
$UCSORGBACK
 10
0.0
 20
0.0
 30
0.0
  9
$PUCSBASE
  2

  9
$PUCSNAME
  2

  9
$PUCSORG
 10
0.0
 20
0.0
 30
0.0
  9
$PUCSXDIR
 10
1.0
 20
0.0
 30
0.0
  9
$PUCSYDIR
 10
0.0
 20
1.0
 30
0.0
  9
$PUCSORTHOREF
  2

  9
$PUCSORTHOVIEW
 70
     0
  9
$PUCSORGTOP
 10
0.0
 20
0.0
 30
0.0
  9
$PUCSORGBOTTOM
 10
0.0
 20
0.0
 30
0.0
  9
$PUCSORGLEFT
 10
0.0
 20
0.0
 30
0.0
  9
$PUCSORGRIGHT
 10
0.0
 20
0.0
 30
0.0
  9
$PUCSORGFRONT
 10
0.0
 20
0.0
 30
0.0
  9
$PUCSORGBACK
 10
0.0
 20
0.0
 30
0.0
  9
$USERI1
 70
     0
  9
$USERI2
 70
     0
  9
$USERI3
 70
     0
  9
$USERI4
 70
     0
  9
$USERI5
 70
     0
  9
$USERR1
 40
0.0
  9
$USERR2
 40
0.0
  9
$USERR3
 40
0.0
  9
$USERR4
 40
0.0
  9
$USERR5
 40
0.0
  9
$WORLDVIEW
 70
     1
  9
$SHADEDGE
 70
     3
  9
$SHADEDIF
 70
    70
  9
$TILEMODE
 70
     1
  9
$MAXACTVP
 70
    64
  9
$PINSBASE
 10
0.0
 20
0.0
 30
0.0
  9
$PLIMCHECK
 70
     0
  9
$PEXTMIN
 10
0.0
 20
0.0
 30
0.0
  9
$PEXTMAX
 10
0.0
 20
0.0
 30
0.0
  9
$PLIMMIN
 10
0.0
 20
0.0
  9
$PLIMMAX
 10
12.0
 20
9.0
  9
$UNITMODE
 70
     0
  9
$VISRETAIN
 70
     1
  9
$PLINEGEN
 70
     0
  9
$PSLTSCALE
 70
     1
  9
$TREEDEPTH
 70
  3020
  9
$CMLSTYLE
  2
Standard
  9
$CMLJUST
 70
     0
  9
$CMLSCALE
 40
20.0
  9
$PROXYGRAPHICS
 70
     1
  9
$MEASUREMENT
 70
     1
  9
$CELWEIGHT
370
    -1
  9
$ENDCAPS
280
     0
  9
$JOINSTYLE
280
     0
  9
$LWDISPLAY
290
     0
  9
$INSUNITS
 70
     4
  9
$HYPERLINKBASE
  1

  9
$STYLESHEET
  1

  9
$XEDIT
290
     1
  9
$CEPSNTYPE
380
     0
  9
$PSTYLEMODE
290
     1
  9
$FINGERPRINTGUID
  2
{FDEAD578-A652-11D2-9A35-0060089B3A3F}
  9
$VERSIONGUID
  2
{2C302005-944E-4111-9ED8-2F2CD1C964D2}
  9
$EXTNAMES
290
     1
  9
$PSVPSCALE
 40
0.0
  9
$OLESTARTUP
290
     0
  0
ENDSEC
  0
SECTION
  2
CLASSES
  0
CLASS
  1
ACDBDICTIONARYWDFLT
  2
AcDbDictionaryWithDefault
  3
ObjectDBX Classes
 90
        0
280
     0
281
     0
  0
CLASS
  1
ACDBPLACEHOLDER
  2
AcDbPlaceHolder
  3
ObjectDBX Classes
 90
        0
280
     0
281
     0
  0
CLASS
  1
LAYOUT
  2
AcDbLayout
  3
ObjectDBX Classes
 90
        0
280
     0
281
     0
  0
CLASS
  1
DICTIONARYVAR
  2
AcDbDictionaryVar
  3
ObjectDBX Classes
 90
        0
280
     0
281
     0
  0
ENDSEC
  0
SECTION
  2
TABLES
  0
TABLE
  2
VPORT
  5
1B
330
0
100
AcDbSymbolTable
 70
     3
  0
VPORT
  5
1BB
330
1B
100
AcDbSymbolTableRecord
100
AcDbViewportTableRecord
  2
*Active
 70
     0
 10
0.0
 20
0.0
 11
1.0
 21
1.0
 12
0.2435310071375696
 22
-11.11212107633719
 13
0.0
 23
0.0
 14
10.0
 24
10.0
 15
10.0
 25
10.0
 16
0.0
 26
0.0
 36
1.0
 17
0.0
 27
0.0
 37
0.0
 40
113.8680640952394
 41
2.173100871731008
 42
50.0
 43
0.0
 44
0.0
 50
0.0
 51
0.0
 71
     0
 72
  1000
 73
     1
 74
     2
 75
     0
 76
     0
 77
     0
 78
     0
281
     0
 65
     1
110
0.0
120
0.0
130
0.0
111
1.0
121
0.0
131
0.0
112
0.0
122
1.0
132
0.0
 79
     0
146
0.0
  0
ENDTAB
  0
TABLE
  2
LTYPE
  5
16
330
0
100
AcDbSymbolTable
 70
     1
  0
LTYPE
  5
17
330
16
100
AcDbSymbolTableRecord
100
AcDbLinetypeTableRecord
  2
ByBlock
 70
     0
  3

 72
    65
 73
     0
 40
0.0
  0
LTYPE
  5
18
330
16
100
AcDbSymbolTableRecord
100
AcDbLinetypeTableRecord
  2
ByLayer
 70
     0
  3

 72
    65
 73
     0
 40
0.0
  0
LTYPE
  5
8
330
16
100
AcDbSymbolTableRecord
100
AcDbLinetypeTableRecord
  2
Continuous
 70
     0
  3
Solid line
 72
    65
 73
     0
 40
0.0
  0
ENDTAB
  0
TABLE
  2
LAYER
  5
10
102
{ACAD_XDICTIONARY
360
11
102
}
330
0
100
AcDbSymbolTable
 70
     7
  0
LAYER
  5
4
330
10
100
AcDbSymbolTableRecord
100
AcDbLayerTableRecord
  2
0
 70
     0
 62
     7
  6
Continuous
370
    -3
390
5
  0
LAYER
  5
160
330
10
100
AcDbSymbolTableRecord
100
AcDbLayerTableRecord
  2
WAKU
 70
     0
 62
     4
  6
Continuous
370
    -3
390
5
  0
LAYER
  5
30
330
10
100
AcDbSymbolTableRecord
100
AcDbLayerTableRecord
  2
MOJI1
 70
     0
 62
     2
  6
Continuous
370
    -3
390
5
  0
LAYER
  5
32
330
10
100
AcDbSymbolTableRecord
100
AcDbLayerTableRecord
  2
TOUROKU
 70
     0
 62
     1
  6
Continuous
370
    -3
390
5
  0
LAYER
  5
3F
330
10
100
AcDbSymbolTableRecord
100
AcDbLayerTableRecord
  2
DEFPOINTS
 70
     0
 62
     7
  6
Continuous
290
     0
370
    -3
390
5
  0
LAYER
  5
2D
330
10
100
AcDbSymbolTableRecord
100
AcDbLayerTableRecord
  2
GAIKEI
 70
     0
 62
     7
  6
Continuous
370
    -3
390
5
  0
LAYER
  5
34
330
10
100
AcDbSymbolTableRecord
100
AcDbLayerTableRecord
  2
SUNPO
 70
     0
 62
     3
  6
Continuous
370
    -3
390
5
  0
ENDTAB
  0
TABLE
  2
STYLE
  5
13
330
0
100
AcDbSymbolTable
 70
     1
  0
STYLE
  5
14
330
13
100
AcDbSymbolTableRecord
100
AcDbTextStyleTableRecord
  2
Standard
 70
     0
 40
0.0
 41
1.0
 50
0.0
 71
     0
 42
2.5
  3
MONOTXT.shx
  4
BIGFONT.shx
  0
ENDTAB
  0
TABLE
  2
VIEW
  5
19
330
0
100
AcDbSymbolTable
 70
     0
  0
ENDTAB
  0
TABLE
  2
UCS
  5
1A
330
0
100
AcDbSymbolTable
 70
     0
  0
ENDTAB
  0
TABLE
  2
APPID
  5
1D
330
0
100
AcDbSymbolTable
 70
     1
  0
APPID
  5
1E
330
1D
100
AcDbSymbolTableRecord
100
AcDbRegAppTableRecord
  2
ACAD
 70
     0
  0
ENDTAB
  0
TABLE
  2
DIMSTYLE
  5
1F
330
0
100
AcDbSymbolTable
 70
     1
100
AcDbDimStyleTable
 71
     1
340
20
  0
DIMSTYLE
105
20
102
{ACAD_REACTORS
330
43
330
51
330
35
102
}
330
1F
100
AcDbSymbolTableRecord
100
AcDbDimStyleTableRecord
  2
STANDARD
 70
     0
 40
0.0
 41
2.0
 42
2.0
 43
8.0
 44
2.0
 73
     0
 74
     0
 77
     3
140
3.0
141
0.0
173
     1
279
     2
288
     1
340
14
341
21
343
21
344
21
  0
ENDTAB
  0
TABLE
  2
BLOCK_RECORD
  5
1
330
0
100
AcDbSymbolTable
 70
     7
  0
BLOCK_RECORD
  5
2
330
1
100
AcDbSymbolTableRecord
100
AcDbBlockTableRecord
  2
*Model_Space
340
A
  0
BLOCK_RECORD
  5
C
330
1
100
AcDbSymbolTableRecord
100
AcDbBlockTableRecord
  2
*Paper_Space
340
F
  0
BLOCK_RECORD
  5
21
330
1
100
AcDbSymbolTableRecord
100
AcDbBlockTableRecord
  2
_OPEN30
340
0
102
{BLKREFS
331
3B
331
3C
331
4A
331
4B
331
57
331
58
331
196
331
197
331
1A3
331
1A4
331
1AF
331
1B0
102
}
  0
BLOCK_RECORD
  5
44
330
1
100
AcDbSymbolTableRecord
100
AcDbBlockTableRecord
  2
*D1
340
0
  0
BLOCK_RECORD
  5
52
330
1
100
AcDbSymbolTableRecord
100
AcDbBlockTableRecord
  2
*D2
340
0
  0
BLOCK_RECORD
  5
36
330
1
100
AcDbSymbolTableRecord
100
AcDbBlockTableRecord
  2
*D3
340
0
  0
BLOCK_RECORD
  5
192
330
1
100
AcDbSymbolTableRecord
100
AcDbBlockTableRecord
  2
*D4
340
0
  0
BLOCK_RECORD
  5
19E
330
1
100
AcDbSymbolTableRecord
100
AcDbBlockTableRecord
  2
*D5
340
0
  0
BLOCK_RECORD
  5
1AB
330
1
100
AcDbSymbolTableRecord
100
AcDbBlockTableRecord
  2
*D6
340
0
  0
ENDTAB
  0
ENDSEC
  0
SECTION
  2
BLOCKS
  0
BLOCK
  5
3
330
2
100
AcDbEntity
  8
0
100
AcDbBlockBegin
  2
*Model_Space
 70
     0
 10
0.0
 20
0.0
 30
0.0
  3
*Model_Space
  1

  0
ENDBLK
  5
9
330
2
100
AcDbEntity
  8
0
100
AcDbBlockEnd
  0
BLOCK
  5
D
330
C
100
AcDbEntity
 67
     1
  8
0
100
AcDbBlockBegin
  2
*Paper_Space
 70
     0
 10
0.0
 20
0.0
 30
0.0
  3
*Paper_Space
  1

  0
ENDBLK
  5
E
330
C
100
AcDbEntity
 67
     1
  8
0
100
AcDbBlockEnd
  0
BLOCK
  5
22
330
21
100
AcDbEntity
  8
0
100
AcDbBlockBegin
  2
_OPEN30
 70
     0
 10
0.0
 20
0.0
 30
0.0
  3
_OPEN30
  1

  0
LINE
  5
23
330
21
100
AcDbEntity
  8
0
  6
ByBlock
 62
     0
100
AcDbLine
 10
-1.0
 20
0.26794919
 30
0.0
 11
0.0
 21
0.0
 31
0.0
  0
LINE
  5
24
330
21
100
AcDbEntity
  8
0
  6
ByBlock
 62
     0
100
AcDbLine
 10
0.0
 20
0.0
 30
0.0
 11
-1.0
 21
-0.26794919
 31
0.0
  0
LINE
  5
25
330
21
100
AcDbEntity
  8
0
  6
ByBlock
 62
     0
100
AcDbLine
 10
0.0
 20
0.0
 30
0.0
 11
-1.0
 21
0.0
 31
0.0
  0
ENDBLK
  5
26
330
21
100
AcDbEntity
  8
0
100
AcDbBlockEnd
  0
BLOCK
  5
45
330
44
100
AcDbEntity
  8
0
100
AcDbBlockBegin
  2
*D1
 70
     1
 10
0.0
 20
0.0
 30
0.0
  3
*D1
  1

  0
LINE
  5
46
330
44
100
AcDbEntity
  8
SUNPO
 62
     0
370
    -2
100
AcDbLine
 10
73.65528391723455
 20
183.930406886358
 30
0.0
 11
81.65528391347127
 21
183.9303198754558
 31
0.0
  0
LINE
  5
47
330
44
100
AcDbEntity
  8
SUNPO
 62
     0
370
    -2
100
AcDbLine
 10
73.65535135173136
 20
190.1305032020367
 30
0.0
 11
81.65535134796808
 21
190.1304161911345
 31
0.0
  0
LINE
  5
48
330
44
100
AcDbEntity
  8
SUNPO
 62
     0
370
    -2
100
AcDbLine
 10
79.65530566631511
 20
185.9303416280631
 30
0.0
 11
79.65532959536081
 21
188.1304379439783
 31
0.0
  0
LINE
  5
49
330
44
100
AcDbEntity
  8
SUNPO
 62
     0
370
    -2
100
AcDbLine
 10
79.65535134808637
 20
190.13043794386
 30
0.0
 11
79.65545739262349
 21
199.8804379432833
 31
0.0
  0
INSERT
  5
4A
330
44
100
AcDbEntity
  8
SUNPO
 62
     0
370
    -2
100
AcDbBlockReference
  2
_OPEN30
 10
79.65528391358955
 20
183.9303416281814
 30
0.0
 41
2.0
 42
2.0
 43
2.0
 50
269.9993768303162
  0
INSERT
  5
4B
330
44
100
AcDbEntity
  8
SUNPO
 62
     0
370
    -2
100
AcDbBlockReference
  2
_OPEN30
 10
79.65535134808637
 20
190.13043794386
 30
0.0
 41
2.0
 42
2.0
 43
2.0
 50
89.99937683031616
  0
MTEXT
  5
4C
330
44
100
AcDbEntity
  8
SUNPO
 62
     0
100
AcDbMText
 10
77.90541524682122
 20
196.0054569771474
 30
0.0
 40
2.5
 41
0.0
 71
     5
 72
     1
  1
\A1;約31
 11
0.0000108763627814
 21
0.9999999999408524
 31
0.0
 73
     1
 44
1.0
1001
ACAD
1000
MTEXTBEGIN
1070
    73
1070
     1
1070
    44
1040
1.0
1070
    74
1070
     0
1000
MTEXTEND
  0
POINT
  5
4D
330
44
100
AcDbEntity
  8
DEFPOINTS
 62
     0
100
AcDbPoint
 10
71.65528391735285
 20
183.9304286390836
 30
0.0
  0
POINT
  5
4E
330
44
100
AcDbEntity
  8
DEFPOINTS
 62
     0
100
AcDbPoint
 10
71.65535135184964
 20
190.1305249547622
 30
0.0
  0
POINT
  5
4F
330
44
100
AcDbEntity
  8
DEFPOINTS
 62
     0
100
AcDbPoint
 10
79.65535134808637
 20
190.13043794386
 30
0.0
  0
ENDBLK
  5
50
330
44
100
AcDbEntity
  8
0
100
AcDbBlockEnd
  0
BLOCK
  5
53
330
52
100
AcDbEntity
  8
0
100
AcDbBlockBegin
  2
*D2
 70
     1
 10
0.0
 20
0.0
 30
0.0
  3
*D2
  1

  0
LINE
  5
54
330
52
100
AcDbEntity
  8
SUNPO
 62
     0
370
    -2
100
AcDbLine
 10
56.63078689189037
 20
223.8250729769356
 30
0.0
 11
56.63078689189037
 21
231.8250729769356
 31
0.0
  0
LINE
  5
55
330
52
100
AcDbEntity
  8
SUNPO
 62
     0
370
    -2
100
AcDbLine
 10
71.63079600934278
 20
223.8250729769356
 30
0.0
 11
71.63079600934278
 21
231.8250729769356
 31
0.0
  0
LINE
  5
56
330
52
100
AcDbEntity
  8
SUNPO
 62
     0
370
    -2
100
AcDbLine
 10
58.63078689189038
 20
229.8250729769356
 30
0.0
 11
69.63079600934278
 21
229.8250729769356
 31
0.0
  0
INSERT
  5
57
330
52
100
AcDbEntity
  8
SUNPO
 62
     0
370
    -2
100
AcDbBlockReference
  2
_OPEN30
 10
56.63078689189037
 20
229.8250729769356
 30
0.0
 41
2.0
 42
2.0
 43
2.0
 50
180.0
  0
INSERT
  5
58
330
52
100
AcDbEntity
  8
SUNPO
 62
     0
370
    -2
100
AcDbBlockReference
  2
_OPEN30
 10
71.63079600934278
 20
229.8250729769356
 30
0.0
 41
2.0
 42
2.0
 43
2.0
  0
MTEXT
  5
59
330
52
100
AcDbEntity
  8
SUNPO
 62
     0
100
AcDbMText
 10
64.13079145061658
 20
231.5750729769356
 30
0.0
 40
2.5
 41
0.0
 71
     5
 72
     1
  1
\A1;約75
 73
     1
 44
1.0
1001
ACAD
1000
MTEXTBEGIN
1070
    73
1070
     1
1070
    44
1040
1.0
1070
    74
1070
     0
1000
MTEXTEND
  0
POINT
  5
5A
330
52
100
AcDbEntity
  8
DEFPOINTS
 62
     0
100
AcDbPoint
 10
56.63078689189037
 20
221.8250729769356
 30
0.0
  0
POINT
  5
5B
330
52
100
AcDbEntity
  8
DEFPOINTS
 62
     0
100
AcDbPoint
 10
71.63079600934278
 20
221.8250729769356
 30
0.0
  0
POINT
  5
5C
330
52
100
AcDbEntity
  8
DEFPOINTS
 62
     0
100
AcDbPoint
 10
71.63079600934278
 20
229.8250729769356
 30
0.0
  0
ENDBLK
  5
5D
330
52
100
AcDbEntity
  8
0
100
AcDbBlockEnd
  0
BLOCK
  5
37
330
36
100
AcDbEntity
  8
0
100
AcDbBlockBegin
  2
*D3
 70
     1
 10
0.0
 20
0.0
 30
0.0
  3
*D3
  1

  0
LINE
  5
38
330
36
100
AcDbEntity
  8
SUNPO
 62
     0
370
    -2
100
AcDbLine
 10
73.65528391733912
 20
203.7517780264925
 30
0.0
 11
81.65532837566528
 21
203.751748384698
 31
0.0
  0
LINE
  5
39
330
36
100
AcDbEntity
  8
SUNPO
 62
     0
370
    -2
100
AcDbLine
 10
73.65535135183593
 20
221.9517211065687
 30
0.0
 11
81.6553958101621
 21
221.9516914647742
 31
0.0
  0
LINE
  5
3A
330
36
100
AcDbEntity
  8
SUNPO
 62
     0
370
    -2
100
AcDbLine
 10
79.65533578608646
 20
205.7517557950917
 30
0.0
 11
79.65538839976838
 21
219.9516988751954
 31
0.0
  0
INSERT
  5
3B
330
36
100
AcDbEntity
  8
SUNPO
 62
     0
370
    -2
100
AcDbBlockReference
  2
_OPEN30
 10
79.655328375679
 20
203.7517557951054
 30
0.0
 41
2.0
 42
2.0
 43
2.0
 50
269.9997877074646
  0
INSERT
  5
3C
330
36
100
AcDbEntity
  8
SUNPO
 62
     0
370
    -2
100
AcDbBlockReference
  2
_OPEN30
 10
79.65539581017582
 20
221.9516988751816
 30
0.0
 41
2.0
 42
2.0
 43
2.0
 50
89.99978770746457
  0
MTEXT
  5
3D
330
36
100
AcDbEntity
  8
SUNPO
 62
     0
100
AcDbMText
 10
77.90536209293941
 20
212.85173381925
 30
0.0
 40
2.5
 41
0.0
 71
     5
 72
     1
  1
\A1;約91
 11
0.0000037052037206
 21
0.9999999999931358
 31
0.0
 73
     1
 44
1.0
1001
ACAD
1000
MTEXTBEGIN
1070
    73
1070
     1
1070
    44
1040
1.0
1070
    74
1070
     0
1000
MTEXTEND
  0
POINT
  5
3E
330
36
100
AcDbEntity
  8
DEFPOINTS
 62
     0
100
AcDbPoint
 10
71.65528391735285
 20
203.7517854368999
 30
0.0
  0
POINT
  5
40
330
36
100
AcDbEntity
  8
DEFPOINTS
 62
     0
100
AcDbPoint
 10
71.65535135184966
 20
221.9517285169761
 30
0.0
  0
POINT
  5
41
330
36
100
AcDbEntity
  8
DEFPOINTS
 62
     0
100
AcDbPoint
 10
79.65539581017582
 20
221.9516988751816
 30
0.0
  0
ENDBLK
  5
42
330
36
100
AcDbEntity
  8
0
100
AcDbBlockEnd
  0
BLOCK
  5
19C
330
192
100
AcDbEntity
  8
0
100
AcDbBlockBegin
  2
*D4
 70
     1
 10
0.0
 20
0.0
 30
0.0
  3
*D4
  1

  0
LINE
  5
193
330
192
100
AcDbEntity
  8
SUNPO
 62
     0
370
    -2
100
AcDbLine
 10
-8.136745551994046
 20
24.70600973751289
 30
0.0
 11
-8.136745551994046
 21
32.70600973751289
 31
0.0
  0
LINE
  5
194
330
192
100
AcDbEntity
  8
SUNPO
 62
     0
370
    -2
100
AcDbLine
 10
6.863263565458368
 20
24.70600973751289
 30
0.0
 11
6.863263565458368
 21
32.70600973751289
 31
0.0
  0
LINE
  5
195
330
192
100
AcDbEntity
  8
SUNPO
 62
     0
370
    -2
100
AcDbLine
 10
-6.136745551994046
 20
30.70600973751289
 30
0.0
 11
4.863263565458368
 21
30.70600973751289
 31
0.0
  0
INSERT
  5
196
330
192
100
AcDbEntity
  8
SUNPO
 62
     0
370
    -2
100
AcDbBlockReference
  2
_OPEN30
 10
-8.136745551994046
 20
30.70600973751289
 30
0.0
 41
2.0
 42
2.0
 43
2.0
 50
180.0
  0
INSERT
  5
197
330
192
100
AcDbEntity
  8
SUNPO
 62
     0
370
    -2
100
AcDbBlockReference
  2
_OPEN30
 10
6.863263565458368
 20
30.70600973751289
 30
0.0
 41
2.0
 42
2.0
 43
2.0
  0
MTEXT
  5
198
330
192
100
AcDbEntity
  8
SUNPO
 62
     0
100
AcDbMText
 10
-0.6367409932678387
 20
32.45600973751289
 30
0.0
 40
2.5
 41
0.0
 71
     5
 72
     1
  1
\A1;約75
 73
     1
 44
1.0
1001
ACAD
1000
MTEXTBEGIN
1070
    73
1070
     1
1070
    44
1040
1.0
1070
    74
1070
     0
1000
MTEXTEND
  0
POINT
  5
199
330
192
100
AcDbEntity
  8
DEFPOINTS
 62
     0
100
AcDbPoint
 10
-8.136745551994046
 20
22.70600973751289
 30
0.0
  0
POINT
  5
19A
330
192
100
AcDbEntity
  8
DEFPOINTS
 62
     0
100
AcDbPoint
 10
6.863263565458368
 20
22.70600973751289
 30
0.0
  0
POINT
  5
19B
330
192
100
AcDbEntity
  8
DEFPOINTS
 62
     0
100
AcDbPoint
 10
6.863263565458368
 20
30.70600973751289
 30
0.0
  0
ENDBLK
  5
19D
330
192
100
AcDbEntity
  8
0
100
AcDbBlockEnd
  0
BLOCK
  5
1A9
330
19E
100
AcDbEntity
  8
0
100
AcDbBlockBegin
  2
*D5
 70
     1
 10
0.0
 20
0.0
 30
0.0
  3
*D5
  1

  0
LINE
  5
19F
330
19E
100
AcDbEntity
  8
SUNPO
 62
     0
370
    -2
100
AcDbLine
 10
8.887751473350117
 20
-15.18865635306475
 30
0.0
 11
16.88775146958684
 21
-15.18874336396696
 31
0.0
  0
LINE
  5
1A0
330
19E
100
AcDbEntity
  8
SUNPO
 62
     0
370
    -2
100
AcDbLine
 10
8.887818907846932
 20
-8.98856003738607
 30
0.0
 11
16.88781890408365
 21
-8.988647048288285
 31
0.0
  0
LINE
  5
1A1
330
19E
100
AcDbEntity
  8
SUNPO
 62
     0
370
    -2
100
AcDbLine
 10
14.8877732224307
 20
-13.18872161135969
 30
0.0
 11
14.88779715147639
 21
-10.98862529544443
 31
0.0
  0
LINE
  5
1A2
330
19E
100
AcDbEntity
  8
SUNPO
 62
     0
370
    -2
100
AcDbLine
 10
14.88781890420195
 20
-8.988625295562723
 30
0.0
 11
14.88792494873907
 21
0.7613747038605883
 31
0.0
  0
INSERT
  5
1A3
330
19E
100
AcDbEntity
  8
SUNPO
 62
     0
370
    -2
100
AcDbBlockReference
  2
_OPEN30
 10
14.88775146970514
 20
-15.1887216112414
 30
0.0
 41
2.0
 42
2.0
 43
2.0
 50
269.9993768303162
  0
INSERT
  5
1A4
330
19E
100
AcDbEntity
  8
SUNPO
 62
     0
370
    -2
100
AcDbBlockReference
  2
_OPEN30
 10
14.88781890420195
 20
-8.988625295562723
 30
0.0
 41
2.0
 42
2.0
 43
2.0
 50
89.99937683031616
  0
MTEXT
  5
1A5
330
19E
100
AcDbEntity
  8
SUNPO
 62
     0
100
AcDbMText
 10
13.13788280293679
 20
-3.113606262275348
 30
0.0
 40
2.5
 41
0.0
 71
     5
 72
     1
  1
\A1;約31
 11
0.0000108763627814
 21
0.9999999999408524
 31
0.0
 73
     1
 44
1.0
1001
ACAD
1000
MTEXTBEGIN
1070
    73
1070
     1
1070
    44
1040
1.0
1070
    74
1070
     0
1000
MTEXTEND
  0
POINT
  5
1A6
330
19E
100
AcDbEntity
  8
DEFPOINTS
 62
     0
100
AcDbPoint
 10
6.887751473468412
 20
-15.18863460033919
 30
0.0
  0
POINT
  5
1A7
330
19E
100
AcDbEntity
  8
DEFPOINTS
 62
     0
100
AcDbPoint
 10
6.887818907965225
 20
-8.988538284660508
 30
0.0
  0
POINT
  5
1A8
330
19E
100
AcDbEntity
  8
DEFPOINTS
 62
     0
100
AcDbPoint
 10
14.88781890420195
 20
-8.988625295562723
 30
0.0
  0
ENDBLK
  5
1AA
330
19E
100
AcDbEntity
  8
0
100
AcDbBlockEnd
  0
BLOCK
  5
1B5
330
1AB
100
AcDbEntity
  8
0
100
AcDbBlockBegin
  2
*D6
 70
     1
 10
0.0
 20
0.0
 30
0.0
  3
*D6
  1

  0
LINE
  5
1AC
330
1AB
100
AcDbEntity
  8
SUNPO
 62
     0
370
    -2
100
AcDbLine
 10
8.887751473454686
 20
4.632714787069695
 30
0.0
 11
16.88779593178086
 21
4.632685145275202
 31
0.0
  0
LINE
  5
1AD
330
1AB
100
AcDbEntity
  8
SUNPO
 62
     0
370
    -2
100
AcDbLine
 10
8.887818907951498
 20
22.83265786714586
 30
0.0
 11
16.88786336627767
 21
22.83262822535137
 31
0.0
  0
LINE
  5
1AE
330
1AB
100
AcDbEntity
  8
SUNPO
 62
     0
370
    -2
100
AcDbLine
 10
14.88780334220203
 20
6.632692555668915
 30
0.0
 11
14.88785595588396
 21
20.83263563577254
 31
0.0
  0
INSERT
  5
1AF
330
1AB
100
AcDbEntity
  8
SUNPO
 62
     0
370
    -2
100
AcDbBlockReference
  2
_OPEN30
 10
14.88779593179458
 20
4.632692555682643
 30
0.0
 41
2.0
 42
2.0
 43
2.0
 50
269.9997877074646
  0
INSERT
  5
1B0
330
1AB
100
AcDbEntity
  8
SUNPO
 62
     0
370
    -2
100
AcDbBlockReference
  2
_OPEN30
 10
14.8878633662914
 20
22.83263563575881
 30
0.0
 41
2.0
 42
2.0
 43
2.0
 50
89.99978770746457
  0
MTEXT
  5
1B1
330
1AB
100
AcDbEntity
  8
SUNPO
 62
     0
100
AcDbMText
 10
13.137829649055
 20
13.73267057982723
 30
0.0
 40
2.5
 41
0.0
 71
     5
 72
     1
  1
\A1;約91
 11
0.0000037052037206
 21
0.9999999999931358
 31
0.0
 73
     1
 44
1.0
1001
ACAD
1000
MTEXTBEGIN
1070
    73
1070
     1
1070
    44
1040
1.0
1070
    74
1070
     0
1000
MTEXTEND
  0
POINT
  5
1B2
330
1AB
100
AcDbEntity
  8
DEFPOINTS
 62
     0
100
AcDbPoint
 10
6.887751473468413
 20
4.632722197477137
 30
0.0
  0
POINT
  5
1B3
330
1AB
100
AcDbEntity
  8
DEFPOINTS
 62
     0
100
AcDbPoint
 10
6.887818907965226
 20
22.83266527755331
 30
0.0
  0
POINT
  5
1B4
330
1AB
100
AcDbEntity
  8
DEFPOINTS
 62
     0
100
AcDbPoint
 10
14.8878633662914
 20
22.83263563575881
 30
0.0
  0
ENDBLK
  5
1B6
330
1AB
100
AcDbEntity
  8
0
100
AcDbBlockEnd
  0
ENDSEC
  0
SECTION
  2
ENTITIES
  0
TEXT
  5
2F
330
2
100
AcDbEntity
  8
MOJI1
100
AcDbText
 10
-35.26753249984336
 20
41.3817718855117
 30
0.0
 40
4.0
  1
バウンダリーマイクロホン（アナログ）
100
AcDbText
  0
TEXT
  5
31
330
2
100
AcDbEntity
  8
TOUROKU
100
AcDbText
 10
44.332417533084
 20
35.38177188551171
 30
0.0
 40
2.0
  1
ＫＸＶＣＡ００２
 72
     2
 11
62.73241753308401
 21
35.38177188551171
 31
0.0
100
AcDbText
  0
TEXT
  5
33
330
2
100
AcDbEntity
  8
SUNPO
 62
     1
100
AcDbText
 10
20.05617776615798
 20
-14.94403072233126
 30
0.0
 40
1.5
  1
Ｓ＝１／５
 41
0.7
 72
     2
 11
25.93617776615798
 21
-14.94403072233126
 31
0.0
100
AcDbText
  0
DIMENSION
  5
35
330
2
100
AcDbEntity
  8
SUNPO
100
AcDbDimension
  2
*D6
 10
14.8878633662914
 20
22.83263563575881
 30
0.0
 11
13.137829649055
 21
13.73267057982723
 31
0.0
 70
    33
  1
約91
 71
     5
 42
18.19994308020109
  3
STANDARD
100
AcDbAlignedDimension
 13
6.887751473468412
 23
4.632722197477136
 33
0.0
 14
6.887818907965225
 24
22.8326652775533
 34
0.0
1001
ACAD
1000
DSTYLE
1002
{
1070
    40
1040
1.0
1070
   140
1040
2.5
1070
   147
1040
0.5
1070
   172
1070
     1
1070
   279
1070
     0
1070
   288
1070
     0
1002
}
  0
DIMENSION
  5
43
330
2
100
AcDbEntity
  8
SUNPO
100
AcDbDimension
  2
*D5
 10
14.88781890420195
 20
-8.988625295562723
 30
0.0
 11
13.13788280293679
 21
-3.113606262275348
 31
0.0
 70
    33
  1
約31
 71
     5
 42
6.200096316045398
  3
STANDARD
100
AcDbAlignedDimension
 13
6.887751473468412
 23
-15.18863460033918
 33
0.0
 14
6.887818907965225
 24
-8.988538284660506
 34
0.0
1001
ACAD
1000
DSTYLE
1002
{
1070
    40
1040
1.0
1070
   140
1040
2.5
1070
   147
1040
0.5
1070
   172
1070
     1
1070
   279
1070
     0
1070
   288
1070
     0
1002
}
  0
DIMENSION
  5
51
330
2
100
AcDbEntity
  8
SUNPO
100
AcDbDimension
  2
*D4
 10
6.863263565458368
 20
30.70600973751289
 30
0.0
 11
-0.6367409932678387
 21
32.45600973751289
 31
0.0
 70
    33
  1
約75
 71
     5
 42
15.00000911745241
  3
STANDARD
100
AcDbAlignedDimension
 13
-8.136745551994046
 23
22.70600973751289
 33
0.0
 14
6.863263565458368
 24
22.70600973751289
 34
0.0
1001
ACAD
1000
DSTYLE
1002
{
1070
    40
1040
1.0
1070
   140
1040
2.5
1070
   147
1040
0.5
1070
   172
1070
     1
1070
   279
1070
     0
1070
   288
1070
     0
1002
}
  0
LINE
  5
5E
330
2
100
AcDbEntity
  8
GAIKEI
 62
     1
370
    40
100
AcDbLine
 10
2.330128840194774
 20
-10.38858241676544
 30
0.0
 11
2.557669775978467
 21
-14.30003398779013
 31
0.0
  0
LINE
  5
5F
330
2
100
AcDbEntity
  8
GAIKEI
 62
     1
370
    40
100
AcDbLine
 10
-3.603610652256627
 20
-10.38858241676536
 30
0.0
 11
-3.831151560559078
 21
-14.30003398779013
 31
0.0
  0
LINE
  5
60
330
2
100
AcDbEntity
  8
GAIKEI
 62
     1
 48
0.086525
370
    40
100
AcDbLine
 10
-3.719293501962056
 20
-15.3703967943654
 30
0.0
 11
-4.418259950778065
 21
-15.3703967943654
 31
0.0
  0
LINE
  5
61
330
2
100
AcDbEntity
  8
GAIKEI
 62
     1
 48
0.0225
370
    40
100
AcDbLine
 10
-4.418259950778065
 20
-15.3703967943654
 30
0.0
 11
-4.418259950778065
 21
-15.18863724396541
 31
0.0
  0
LINE
  5
62
330
2
100
AcDbEntity
  8
GAIKEI
 62
     1
 48
0.086525
370
    40
100
AcDbLine
 10
2.445811717381388
 20
-15.3703967943654
 30
0.0
 11
3.144778166197397
 21
-15.3703967943654
 31
0.0
  0
LINE
  5
63
330
2
100
AcDbEntity
  8
GAIKEI
 62
     1
 48
0.0225
370
    40
100
AcDbLine
 10
3.144778166197397
 20
-15.3703967943654
 30
0.0
 11
3.144778166197397
 21
-15.18863724396541
 31
0.0
  0
ARC
  5
64
330
2
100
AcDbEntity
  8
GAIKEI
 62
     1
370
    40
100
AcDbCircle
 10
-0.6367409932678357
 20
-12.1455914039654
 30
0.0
 40
0.8078202239999999
100
AcDbArc
 50
335.638021999999
 51
76.99672799999984
  0
ARC
  5
65
330
2
100
AcDbEntity
  8
GAIKEI
 62
     1
370
    40
100
AcDbCircle
 10
-0.6367409932678357
 20
-12.1455914039654
 30
0.0
 40
0.8078202239999999
100
AcDbArc
 50
103.0028780000004
 51
204.361978000001
  0
LINE
  5
66
330
2
100
AcDbEntity
  8
GAIKEI
 62
     1
 48
0.028596
370
    40
100
AcDbLine
 10
-1.141628633267885
 20
-12.47881724636539
 30
0.0
 11
-1.372630884972352
 21
-12.47881724636539
 31
0.0
  0
LINE
  5
67
330
2
100
AcDbEntity
  8
GAIKEI
 62
     1
 48
0.036812
370
    40
100
AcDbLine
 10
-1.141628633267885
 20
-12.77619586437035
 30
0.0
 11
-1.141628633267885
 21
-12.47881724636539
 31
0.0
  0
ARC
  5
68
330
2
100
AcDbEntity
  8
GAIKEI
 62
     1
370
    40
100
AcDbCircle
 10
-0.6367409932678357
 20
-12.1455914039654
 30
0.0
 40
0.8078202239999999
100
AcDbArc
 50
231.3178129999996
 51
308.6821870000004
  0
LINE
  5
69
330
2
100
AcDbEntity
  8
GAIKEI
 62
     1
 48
0.036812
370
    40
100
AcDbLine
 10
-0.131853353267843
 20
-12.47881724636539
 30
0.0
 11
-0.131853353267843
 21
-12.77619586437035
 31
0.0
  0
LINE
  5
6A
330
2
100
AcDbEntity
  8
GAIKEI
 62
     1
 48
0.028596
370
    40
100
AcDbLine
 10
0.0991491003916849
 20
-12.47881724636539
 30
0.0
 11
-0.131853353267843
 21
-12.47881724636539
 31
0.0
  0
LINE
  5
6B
330
2
100
AcDbEntity
  8
GAIKEI
 62
     1
 48
0.024936
370
    40
100
AcDbLine
 10
-0.4549814428678474
 20
-11.5599217415654
 30
0.0
 11
-0.4549814428678474
 21
-11.35848470028403
 31
0.0
  0
LINE
  5
6C
330
2
100
AcDbEntity
  8
GAIKEI
 62
     1
 48
0.045
370
    40
100
AcDbLine
 10
-0.8185005436678807
 20
-11.5599217415654
 30
0.0
 11
-0.4549814428678474
 21
-11.5599217415654
 31
0.0
  0
LINE
  5
6D
330
2
100
AcDbEntity
  8
GAIKEI
 62
     1
 48
0.024936
370
    40
100
AcDbLine
 10
-0.8185005436678807
 20
-11.35848470028403
 30
0.0
 11
-0.8185005436678807
 21
-11.5599217415654
 31
0.0
  0
LINE
  5
6E
330
2
100
AcDbEntity
  8
GAIKEI
 62
     1
 48
0.035
370
    40
100
AcDbLine
 10
-1.000260094067868
 20
-12.08500488716538
 30
0.0
 11
-1.282997172467844
 21
-12.08500488716538
 31
0.0
  0
LINE
  5
6F
330
2
100
AcDbEntity
  8
GAIKEI
 62
     1
 48
0.035
370
    40
100
AcDbLine
 10
-1.000260094067868
 20
-12.36774196556538
 30
0.0
 11
-1.000260094067868
 21
-12.08500488716538
 31
0.0
  0
LINE
  5
70
330
2
100
AcDbEntity
  8
GAIKEI
 62
     1
 48
0.035
370
    40
100
AcDbLine
 10
-1.282997172467844
 20
-12.36774196556538
 30
0.0
 11
-1.000260094067868
 21
-12.36774196556538
 31
0.0
  0
LINE
  5
71
330
2
100
AcDbEntity
  8
GAIKEI
 62
     1
 48
0.035
370
    40
100
AcDbLine
 10
-1.282997172467844
 20
-12.08500488716538
 30
0.0
 11
-1.282997172467844
 21
-12.36774196556538
 31
0.0
  0
LINE
  5
72
330
2
100
AcDbEntity
  8
GAIKEI
 62
     1
 48
0.035
370
    40
100
AcDbLine
 10
-0.3741994204678463
 20
-11.6810947751654
 30
0.0
 11
-0.3741994204678463
 21
-11.96383185356541
 31
0.0
  0
LINE
  5
73
330
2
100
AcDbEntity
  8
GAIKEI
 62
     1
 48
0.035
370
    40
100
AcDbLine
 10
-0.0914623420678709
 20
-11.6810947751654
 30
0.0
 11
-0.3741994204678463
 21
-11.6810947751654
 31
0.0
  0
LINE
  5
74
330
2
100
AcDbEntity
  8
GAIKEI
 62
     1
 48
0.035
370
    40
100
AcDbLine
 10
-0.0914623420678709
 20
-11.96383185356541
 30
0.0
 11
-0.0914623420678709
 21
-11.6810947751654
 31
0.0
  0
LINE
  5
75
330
2
100
AcDbEntity
  8
GAIKEI
 62
     1
 48
0.035
370
    40
100
AcDbLine
 10
-0.3741994204678463
 20
-11.96383185356541
 30
0.0
 11
-0.0914623420678709
 21
-11.96383185356541
 31
0.0
  0
LINE
  5
76
330
2
100
AcDbEntity
  8
GAIKEI
 62
     1
 48
0.035
370
    40
100
AcDbLine
 10
-0.2732218924678591
 20
-12.08500488716538
 30
0.0
 11
-0.2732218924678591
 21
-12.36774196556538
 31
0.0
  0
LINE
  5
77
330
2
100
AcDbEntity
  8
GAIKEI
 62
     1
 48
0.035
370
    40
100
AcDbLine
 10
0.0095151859321732
 20
-12.08500488716538
 30
0.0
 11
-0.2732218924678591
 21
-12.08500488716538
 31
0.0
  0
LINE
  5
78
330
2
100
AcDbEntity
  8
GAIKEI
 62
     1
 48
0.035
370
    40
100
AcDbLine
 10
0.0095151859321732
 20
-12.36774196556538
 30
0.0
 11
0.0095151859321732
 21
-12.08500488716538
 31
0.0
  0
LINE
  5
79
330
2
100
AcDbEntity
  8
GAIKEI
 62
     1
 48
0.035
370
    40
100
AcDbLine
 10
-0.2732218924678591
 20
-12.36774196556538
 30
0.0
 11
0.0095151859321732
 21
-12.36774196556538
 31
0.0
  0
LINE
  5
7A
330
2
100
AcDbEntity
  8
GAIKEI
 62
     1
 48
0.035
370
    40
100
AcDbLine
 10
-0.8992825660678818
 20
-11.6810947751654
 30
0.0
 11
-1.182019644467857
 21
-11.6810947751654
 31
0.0
  0
LINE
  5
7B
330
2
100
AcDbEntity
  8
GAIKEI
 62
     1
 48
0.035
370
    40
100
AcDbLine
 10
-0.8992825660678818
 20
-11.96383185356541
 30
0.0
 11
-0.8992825660678818
 21
-11.6810947751654
 31
0.0
  0
LINE
  5
7C
330
2
100
AcDbEntity
  8
GAIKEI
 62
     1
 48
0.035
370
    40
100
AcDbLine
 10
-1.182019644467857
 20
-11.96383185356541
 30
0.0
 11
-0.8992825660678818
 21
-11.96383185356541
 31
0.0
  0
LINE
  5
7D
330
2
100
AcDbEntity
  8
GAIKEI
 62
     1
 48
0.035
370
    40
100
AcDbLine
 10
-1.182019644467857
 20
-11.6810947751654
 30
0.0
 11
-1.182019644467857
 21
-11.96383185356541
 31
0.0
  0
LINE
  5
7E
330
2
100
AcDbEntity
  8
GAIKEI
 62
     1
 48
0.035
370
    40
100
AcDbLine
 10
-0.980064588467826
 20
-12.81204308876539
 30
0.0
 11
-0.980064588467826
 21
-12.52930601036539
 31
0.0
  0
LINE
  5
7F
330
2
100
AcDbEntity
  8
GAIKEI
 62
     1
 48
0.035
370
    40
100
AcDbLine
 10
-0.6973275100678507
 20
-12.52930601036539
 30
0.0
 11
-0.980064588467826
 21
-12.52930601036539
 31
0.0
  0
LINE
  5
80
330
2
100
AcDbEntity
  8
GAIKEI
 62
     1
 48
0.035
370
    40
100
AcDbLine
 10
-0.6973275100678507
 20
-12.52930601036539
 30
0.0
 11
-0.6973275100678507
 21
-12.81204308876539
 31
0.0
  0
LINE
  5
81
330
2
100
AcDbEntity
  8
GAIKEI
 62
     1
 48
0.035
370
    40
100
AcDbLine
 10
-0.980064588467826
 20
-12.81204308876539
 30
0.0
 11
-0.6973275100678507
 21
-12.81204308876539
 31
0.0
  0
LINE
  5
82
330
2
100
AcDbEntity
  8
GAIKEI
 62
     1
 48
0.035
370
    40
100
AcDbLine
 10
-0.2934173980678452
 20
-12.81204308876539
 30
0.0
 11
-0.5761544764678775
 21
-12.81204308876539
 31
0.0
  0
LINE
  5
83
330
2
100
AcDbEntity
  8
GAIKEI
 62
     1
 48
0.035
370
    40
100
AcDbLine
 10
-0.5761544764678775
 20
-12.52930601036539
 30
0.0
 11
-0.5761544764678775
 21
-12.81204308876539
 31
0.0
  0
LINE
  5
84
330
2
100
AcDbEntity
  8
GAIKEI
 62
     1
 48
0.035
370
    40
100
AcDbLine
 10
-0.5761544764678775
 20
-12.52930601036539
 30
0.0
 11
-0.2934173980678452
 21
-12.52930601036539
 31
0.0
  0
LINE
  5
85
330
2
100
AcDbEntity
  8
GAIKEI
 62
     1
 48
0.035
370
    40
100
AcDbLine
 10
-0.2934173980678452
 20
-12.52930601036539
 30
0.0
 11
-0.2934173980678452
 21
-12.81204308876539
 31
0.0
  0
LINE
  5
86
330
2
100
AcDbEntity
  8
GAIKEI
 62
     1
 48
0.035
370
    40
100
AcDbLine
 10
-0.7781095324678518
 20
-11.96383185356541
 30
0.0
 11
-0.7781095324678518
 21
-11.6810947751654
 31
0.0
  0
LINE
  5
87
330
2
100
AcDbEntity
  8
GAIKEI
 62
     1
 48
0.035
370
    40
100
AcDbLine
 10
-0.7781095324678518
 20
-11.6810947751654
 30
0.0
 11
-0.4953724540678764
 21
-11.6810947751654
 31
0.0
  0
LINE
  5
88
330
2
100
AcDbEntity
  8
GAIKEI
 62
     1
 48
0.035
370
    40
100
AcDbLine
 10
-0.4953724540678764
 20
-11.6810947751654
 30
0.0
 11
-0.4953724540678764
 21
-11.96383185356541
 31
0.0
  0
LINE
  5
89
330
2
100
AcDbEntity
  8
GAIKEI
 62
     1
 48
0.035
370
    40
100
AcDbLine
 10
-0.4953724540678764
 20
-11.96383185356541
 30
0.0
 11
-0.7781095324678518
 21
-11.96383185356541
 31
0.0
  0
LINE
  5
8A
330
2
100
AcDbEntity
  8
GAIKEI
 62
     1
 48
0.035
370
    40
100
AcDbLine
 10
-0.6771320044678646
 20
-12.36774196556538
 30
0.0
 11
-0.6771320044678646
 21
-12.08500488716538
 31
0.0
  0
LINE
  5
8B
330
2
100
AcDbEntity
  8
GAIKEI
 62
     1
 48
0.035
370
    40
100
AcDbLine
 10
-0.6771320044678646
 20
-12.08500488716538
 30
0.0
 11
-0.3943949260678323
 21
-12.08500488716538
 31
0.0
  0
LINE
  5
8C
330
2
100
AcDbEntity
  8
GAIKEI
 62
     1
 48
0.035
370
    40
100
AcDbLine
 10
-0.3943949260678323
 20
-12.08500488716538
 30
0.0
 11
-0.3943949260678323
 21
-12.36774196556538
 31
0.0
  0
LINE
  5
8D
330
2
100
AcDbEntity
  8
GAIKEI
 62
     1
 48
0.035
370
    40
100
AcDbLine
 10
-0.3943949260678323
 20
-12.36774196556538
 30
0.0
 11
-0.6771320044678646
 21
-12.36774196556538
 31
0.0
  0
LINE
  5
8E
330
2
100
AcDbEntity
  8
GAIKEI
 62
     1
 48
0.014067
370
    40
100
AcDbLine
 10
-0.8185005436678807
 20
-11.24485145674475
 30
0.0
 11
-0.8185005436678807
 21
-11.35848470028403
 31
0.0
  0
LINE
  5
8F
330
2
100
AcDbEntity
  8
GAIKEI
 62
     1
 48
0.014067
370
    40
100
AcDbLine
 10
-0.4549814428678474
 20
-11.35848470028403
 30
0.0
 11
-0.4549814428678474
 21
-11.24485145674475
 31
0.0
  0
ARC
  5
90
330
2
100
AcDbEntity
  8
GAIKEI
 62
     1
370
    40
100
AcDbCircle
 10
-0.6367409932678357
 20
-12.14558655704405
 30
0.0
 40
0.9188906578786559
100
AcDbArc
 50
41.40824400000027
 51
138.591681999998
  0
LINE
  5
91
330
2
100
AcDbEntity
  8
GAIKEI
 62
     1
 48
0.011456
370
    40
100
AcDbLine
 10
-1.406068785549337
 20
-11.49154198110943
 30
0.0
 11
-1.325924739171227
 21
-11.53781311571993
 31
0.0
  0
ARC
  5
92
330
2
100
AcDbEntity
  8
GAIKEI
 62
     1
370
    40
100
AcDbCircle
 10
-0.6367409932678357
 20
-12.1455914039654
 30
0.0
 40
1.009775279999999
100
AcDbArc
 50
139.6302400000002
 51
160.3697600000003
  0
LINE
  5
93
330
2
100
AcDbEntity
  8
GAIKEI
 62
     1
 48
0.011456
370
    40
100
AcDbLine
 10
-1.507684289571216
 20
-11.85262974499022
 30
0.0
 11
-1.587828335949325
 21
-11.80635861037973
 31
0.0
  0
ARC
  5
94
330
2
100
AcDbEntity
  8
GAIKEI
 62
     1
370
    40
100
AcDbCircle
 10
-0.6367426089083211
 20
-12.14559281765079
 30
0.0
 40
0.9188932832943839
100
AcDbArc
 50
161.4083459999998
 51
198.5914829999991
  0
LINE
  5
95
330
2
100
AcDbEntity
  8
GAIKEI
 62
     1
 48
0.011456
370
    40
100
AcDbLine
 10
-1.587828335949325
 20
-12.48482419755106
 30
0.0
 11
-1.507684289571216
 21
-12.43855306294057
 31
0.0
  0
ARC
  5
96
330
2
100
AcDbEntity
  8
GAIKEI
 62
     1
370
    40
100
AcDbCircle
 10
-0.6367365502566145
 20
-12.14558898050472
 30
0.0
 40
1.0097803288764
100
AcDbArc
 50
199.6302909999999
 51
220.3697089999995
  0
LINE
  5
97
330
2
100
AcDbEntity
  8
GAIKEI
 62
     1
 48
0.011456
370
    40
100
AcDbLine
 10
-1.325924739171227
 20
-12.75336969221089
 30
0.0
 11
-1.406068785549337
 21
-12.79964082682139
 31
0.0
  0
ARC
  5
98
330
2
100
AcDbEntity
  8
GAIKEI
 62
     1
370
    40
100
AcDbCircle
 10
-0.636699996391485
 20
-12.14554616603286
 30
0.0
 40
0.918955485451632
100
AcDbArc
 50
221.4088969999997
 51
258.5904739999985
  0
LINE
  5
99
330
2
100
AcDbEntity
  8
GAIKEI
 62
     1
 48
0.011456
370
    40
100
AcDbLine
 10
-0.8185005436678807
 20
-13.13887362040705
 30
0.0
 11
-0.8185005436678807
 21
-13.04633135118607
 31
0.0
  0
ARC
  5
9A
330
2
100
AcDbEntity
  8
GAIKEI
 62
     1
370
    40
100
AcDbCircle
 10
-0.6367409932678357
 20
-12.1455914039654
 30
0.0
 40
1.009775279999999
100
AcDbArc
 50
259.6302399999995
 51
280.3697600000004
  0
LINE
  5
9B
330
2
100
AcDbEntity
  8
GAIKEI
 62
     1
 48
0.011456
370
    40
100
AcDbLine
 10
-0.4549814428678474
 20
-13.04633135118607
 30
0.0
 11
-0.4549814428678474
 21
-13.13887362040705
 31
0.0
  0
ARC
  5
9C
330
2
100
AcDbEntity
  8
GAIKEI
 62
     1
370
    40
100
AcDbCircle
 10
-0.6367387717622251
 20
-12.14559221178561
 30
0.0
 40
0.9188932832943839
100
AcDbArc
 50
281.4083460000022
 51
318.5914829999996
  0
LINE
  5
9D
330
2
100
AcDbEntity
  8
GAIKEI
 62
     1
 48
0.011456
370
    40
100
AcDbLine
 10
0.1325870009686696
 20
-12.79964082682139
 30
0.0
 11
0.0524429545905605
 21
-12.75336969221089
 31
0.0
  0
ARC
  5
9E
330
2
100
AcDbEntity
  8
GAIKEI
 62
     1
370
    40
100
AcDbCircle
 10
-0.6367409932678357
 20
-12.1455914039654
 30
0.0
 40
1.009775279999999
100
AcDbArc
 50
319.6302400000002
 51
340.3697600000003
  0
LINE
  5
9F
330
2
100
AcDbEntity
  8
GAIKEI
 62
     1
 48
0.011456
370
    40
100
AcDbLine
 10
0.2342025049905487
 20
-12.43855306294057
 30
0.0
 11
0.3143465513686579
 21
-12.48482419755106
 31
0.0
  0
ARC
  5
A0
330
2
100
AcDbEntity
  8
GAIKEI
 62
     1
370
    40
100
AcDbCircle
 10
-0.6367391756723464
 20
-12.14558999028
 30
0.0
 40
0.9188932832943839
100
AcDbArc
 50
341.4083459999998
 51
18.59148299999917
  0
LINE
  5
A1
330
2
100
AcDbEntity
  8
GAIKEI
 62
     1
 48
0.011456
370
    40
100
AcDbLine
 10
0.3143465513686579
 20
-11.80635861037973
 30
0.0
 11
0.2342025049905487
 21
-11.85262974499022
 31
0.0
  0
ARC
  5
A2
330
2
100
AcDbEntity
  8
GAIKEI
 62
     1
370
    40
100
AcDbCircle
 10
-0.6367409932678357
 20
-12.1455914039654
 30
0.0
 40
1.009775279999999
100
AcDbArc
 50
19.63023999999969
 51
40.36975999999981
  0
LINE
  5
A3
330
2
100
AcDbEntity
  8
GAIKEI
 62
     1
 48
0.011456
370
    40
100
AcDbLine
 10
0.0524429545905605
 20
-11.53781311571993
 30
0.0
 11
0.1325870009686696
 21
-11.49154198110943
 31
0.0
  0
LINE
  5
A4
330
2
100
AcDbEntity
  8
GAIKEI
 62
     1
 48
0.104074
370
    40
100
AcDbLine
 10
3.937929994556782
 20
-15.3703967943654
 30
0.0
 11
4.778657785156667
 21
-15.3703967943654
 31
0.0
  0
LINE
  5
A5
330
2
100
AcDbEntity
  8
GAIKEI
 62
     1
 48
0.022501
370
    40
100
AcDbLine
 10
4.778657785156667
 20
-15.3703967943654
 30
0.0
 11
4.778657785156667
 21
-15.18863118531371
 31
0.0
  0
LINE
  5
A6
330
2
100
AcDbEntity
  8
GAIKEI
 62
     1
 48
0.0225
370
    40
100
AcDbLine
 10
2.445811717381388
 20
-15.3703967943654
 30
0.0
 11
2.445811717381388
 21
-15.18863340681935
 31
0.0
  0
LINE
  5
A7
330
2
100
AcDbEntity
  8
GAIKEI
 62
     1
 48
0.086532
370
    40
100
AcDbLine
 10
2.445811717381388
 20
-15.3703967943654
 30
0.0
 11
3.144831078422043
 21
-15.3703967943654
 31
0.0
  0
LINE
  5
A8
330
2
100
AcDbEntity
  8
GAIKEI
 62
     1
 48
0.0225
370
    40
100
AcDbLine
 10
3.144831078422043
 20
-15.3703967943654
 30
0.0
 11
3.144831078422043
 21
-15.18863684005529
 31
0.0
  0
LINE
  5
A9
330
2
100
AcDbEntity
  8
GAIKEI
 62
     1
 48
0.0225
370
    40
100
AcDbLine
 10
3.93793564929831
 20
-15.3703967943654
 30
0.0
 11
3.93793564929831
 21
-15.18863684005529
 31
0.0
  0
LINE
  5
AA
330
2
100
AcDbEntity
  8
GAIKEI
 62
     1
 48
0.022501
370
    40
100
AcDbLine
 10
-6.050911011123105
 20
-15.3703967943654
 30
0.0
 11
-6.050911011123105
 21
-15.18863118531374
 31
0.0
  0
LINE
  5
AB
330
2
100
AcDbEntity
  8
GAIKEI
 62
     1
 48
0.104072
370
    40
100
AcDbLine
 10
-5.210194328051272
 20
-15.3703967943654
 30
0.0
 11
-6.050911011123105
 21
-15.3703967943654
 31
0.0
  0
LINE
  5
AC
330
2
100
AcDbEntity
  8
GAIKEI
 62
     1
 48
0.0225
370
    40
100
AcDbLine
 10
-3.719293501962056
 20
-15.3703967943654
 30
0.0
 11
-3.719293501962056
 21
-15.18863340681935
 31
0.0
  0
LINE
  5
AD
330
2
100
AcDbEntity
  8
GAIKEI
 62
     1
 48
0.0225
370
    40
100
AcDbLine
 10
-5.210188875264748
 20
-15.3703967943654
 30
0.0
 11
-5.210188875264748
 21
-15.18863684005529
 31
0.0
  0
LINE
  5
AE
330
2
100
AcDbEntity
  8
GAIKEI
 62
     1
 48
0.0225
370
    40
100
AcDbLine
 10
-4.418312863002711
 20
-15.3703967943654
 30
0.0
 11
-4.418312863002711
 21
-15.18863684005529
 31
0.0
  0
LINE
  5
AF
330
2
100
AcDbEntity
  8
GAIKEI
 62
     1
 48
0.086532
370
    40
100
AcDbLine
 10
-3.719293501962056
 20
-15.3703967943654
 30
0.0
 11
-4.418312863002711
 21
-15.3703967943654
 31
0.0
  0
LINE
  5
B0
330
2
100
AcDbEntity
  8
GAIKEI
 62
     7
 48
0.08053
370
    40
100
AcDbLine
 10
-5.22893111228177
 20
-10.38858241676541
 30
0.0
 11
-5.879465507388033
 21
-10.38858241676541
 31
0.0
  0
LINE
  5
B1
330
2
100
AcDbEntity
  8
GAIKEI
 62
     1
 48
0.098613
370
    13
100
AcDbLine
 10
-6.27616925712482
 20
-11.38989800142462
 30
0.0
 11
-7.07278703416847
 21
-11.38989800142462
 31
0.0
  0
LINE
  5
B2
330
2
100
AcDbEntity
  8
GAIKEI
 62
     7
 48
0.209931
370
    40
100
AcDbLine
 10
-3.603610652256627
 20
-10.38858241676536
 30
0.0
 11
-5.22893111228177
 21
-10.38858241676541
 31
0.0
  0
LINE
  5
B3
330
2
100
AcDbEntity
  8
GAIKEI
 62
     7
 48
0.29046
370
    40
100
AcDbLine
 10
4.607212281421652
 20
-10.38858241676539
 30
0.0
 11
2.330128840194774
 21
-10.38858241676544
 31
0.0
  0
LINE
  5
B4
330
2
100
AcDbEntity
  8
GAIKEI
 62
     1
 48
0.332358
370
    13
100
AcDbLine
 10
-3.66265843778774
 20
-11.38989800142462
 30
0.0
 11
-6.27616925712482
 21
-11.38989800142462
 31
0.0
  0
LINE
  5
B5
330
2
100
AcDbEntity
  8
GAIKEI
 62
     1
 48
0.430971
370
    13
100
AcDbLine
 10
5.800533606247029
 20
-11.38989800142462
 30
0.0
 11
2.389176451252012
 21
-11.38989800142462
 31
0.0
  0
ARC
  5
B6
330
2
100
AcDbEntity
  8
GAIKEI
 62
     7
370
    40
100
AcDbCircle
 10
-5.879465507388033
 20
-11.6003127527654
 30
0.0
 40
1.211730336
100
AcDbArc
 50
90.0
 51
169.9999999999997
  0
ARC
  5
B7
330
2
100
AcDbEntity
  8
GAIKEI
 62
     7
370
    40
100
AcDbCircle
 10
4.607212281421652
 20
-11.6003127527654
 30
0.0
 40
1.211730336
100
AcDbArc
 50
10.00000000000021
 51
90.0
  0
LINE
  5
B8
330
2
100
AcDbEntity
  8
GAIKEI
 62
     7
 48
0.364078
370
    40
100
AcDbLine
 10
-7.07278703416847
 20
-11.38989800142462
 30
0.0
 11
-7.583503097084644
 21
-14.30003338192495
 31
0.0
  0
LINE
  5
B9
330
2
100
AcDbEntity
  8
GAIKEI
 62
     7
 48
0.364078
370
    40
100
AcDbLine
 10
5.800533606247029
 20
-11.38989800142462
 30
0.0
 11
6.311249871118263
 21
-14.30003338192495
 31
0.0
  0
CIRCLE
  5
BA
330
2
100
AcDbEntity
  8
GAIKEI
 62
     1
370
    40
100
AcDbCircle
 10
-0.6367409932678357
 20
-12.1455914039654
 30
0.0
 40
1.312707864
  0
LINE
  5
BB
330
2
100
AcDbEntity
  8
GAIKEI
 62
     1
 48
0.015002
370
    40
100
AcDbLine
 10
0.1703742056316742
 20
-15.06746400841035
 30
0.0
 11
0.1682591303301706
 21
-15.18863724396541
 31
0.0
  0
LINE
  5
BC
330
2
100
AcDbEntity
  8
GAIKEI
 62
     1
 48
0.015002
370
    40
100
AcDbLine
 10
-1.443856192167345
 20
-15.06746400841035
 30
0.0
 11
-1.441741116865898
 21
-15.18863724396541
 31
0.0
  0
LINE
  5
BD
330
2
100
AcDbEntity
  8
GAIKEI
 62
     1
 48
0.200698
370
    40
100
AcDbLine
 10
0.1682591303301706
 20
-15.18863724396541
 30
0.0
 11
1.789539779134145
 21
-15.18863724396541
 31
0.0
  0
LINE
  5
BE
330
2
100
AcDbEntity
  8
GAIKEI
 62
     1
 48
0.199302
370
    40
100
AcDbLine
 10
0.1682591303301706
 20
-15.18863724396541
 30
0.0
 11
-1.441741116865898
 21
-15.18863724396541
 31
0.0
  0
LINE
  5
BF
330
2
100
AcDbEntity
  8
GAIKEI
 62
     1
 48
0.0225
370
    13
100
AcDbLine
 10
1.796817431532133
 20
-15.18863724396541
 30
0.0
 11
1.796817431532133
 21
-15.00687749161034
 31
0.0
  0
LINE
  5
C0
330
2
100
AcDbEntity
  8
GAIKEI
 62
     1
 48
0.200698
370
    40
100
AcDbLine
 10
-3.063021765669873
 20
-15.18863724396541
 30
0.0
 11
-1.441741116865898
 21
-15.18863724396541
 31
0.0
  0
LINE
  5
C1
330
2
100
AcDbEntity
  8
GAIKEI
 62
     1
 48
0.000901
370
    40
100
AcDbLine
 10
-3.063021765669873
 20
-15.18863724396541
 30
0.0
 11
-3.070299418067861
 21
-15.18863724396541
 31
0.0
  0
LINE
  5
C2
330
2
100
AcDbEntity
  8
GAIKEI
 62
     1
 48
0.015
370
    13
100
AcDbLine
 10
-3.070299418067861
 20
-15.18863724396541
 30
0.0
 11
-3.070299418067861
 21
-15.06746400841035
 31
0.0
  0
LINE
  5
C3
330
2
100
AcDbEntity
  8
GAIKEI
 62
     7
 48
0.48125
370
    40
100
AcDbLine
 10
6.578039366566144
 20
-14.3000349975654
 30
0.0
 11
2.760518281146175
 21
-14.3000349975654
 31
0.0
  0
LINE
  5
C4
330
2
100
AcDbEntity
  8
GAIKEI
 62
     7
 48
0.48125
370
    40
100
AcDbLine
 10
-4.034002287232453
 20
-14.3000349975654
 30
0.0
 11
-7.850292794487586
 21
-14.3000349975654
 31
0.0
  0
LINE
  5
C5
330
2
100
AcDbEntity
  8
GAIKEI
 62
     7
 48
0.119296
370
    40
100
AcDbLine
 10
-3.0702992161128
 20
-14.3000349975654
 30
0.0
 11
-4.033999055951539
 21
-14.3000349975654
 31
0.0
  0
LINE
  5
C6
330
2
100
AcDbEntity
  8
GAIKEI
 62
     7
370
    40
100
AcDbLine
 10
-3.070299418067861
 20
-14.3000349975654
 30
0.0
 11
1.796817431532133
 21
-14.3000349975654
 31
0.0
  0
LINE
  5
C7
330
2
100
AcDbEntity
  8
GAIKEI
 62
     7
 48
0.119296
370
    40
100
AcDbLine
 10
2.760517069415868
 20
-14.3000349975654
 30
0.0
 11
1.796817431532133
 21
-14.3000349975654
 31
0.0
  0
LINE
  5
C8
330
2
100
AcDbEntity
  8
GAIKEI
 62
     1
 48
0.103829
370
    40
100
AcDbLine
 10
-3.070299418067861
 20
-15.18863724396541
 30
0.0
 11
-3.909047443253825
 21
-15.18863724396541
 31
0.0
  0
LINE
  5
C9
330
2
100
AcDbEntity
  8
GAIKEI
 62
     1
 48
0.103829
370
    40
100
AcDbLine
 10
2.635565658673158
 20
-15.18863724396541
 30
0.0
 11
1.796817431532133
 21
-15.18863724396541
 31
0.0
  0
LINE
  5
CA
330
2
100
AcDbEntity
  8
GAIKEI
 62
     1
 48
0.00696
370
    40
100
AcDbLine
 10
2.691667763454688
 20
-15.18863724396541
 30
0.0
 11
2.63544085044856
 21
-15.18863724396541
 31
0.0
  0
LINE
  5
CB
330
2
100
AcDbEntity
  8
GAIKEI
 62
     1
 48
0.4743050000000001
370
    40
100
AcDbLine
 10
-3.965149548035356
 20
-15.18863724396541
 30
0.0
 11
-7.725341181789872
 21
-15.18863724396541
 31
0.0
  0
LINE
  5
CC
330
2
100
AcDbEntity
  8
GAIKEI
 62
     1
 48
0.4743050000000001
370
    40
100
AcDbLine
 10
6.453087955823434
 20
-15.18863724396539
 30
0.0
 11
2.691667763454688
 21
-15.18863724396541
 31
0.0
  0
LINE
  5
CD
330
2
100
AcDbEntity
  8
GAIKEI
 62
     1
 48
0.00696
370
    40
100
AcDbLine
 10
-3.908927078040449
 20
-15.18863724396541
 30
0.0
 11
-3.965149548035356
 21
-15.18863724396541
 31
0.0
  0
LINE
  5
CE
330
2
100
AcDbEntity
  8
GAIKEI
 62
     1
 48
0.48125
370
    40
100
AcDbLine
 10
3.040016606313088
 20
-14.49574297781817
 30
0.0
 11
6.857539307373542
 21
-14.49574297781817
 31
0.0
  0
LINE
  5
CF
330
2
100
AcDbEntity
  8
GAIKEI
 62
     1
 48
0.48125
370
    40
100
AcDbLine
 10
-8.129792533339923
 20
-14.49574297781817
 30
0.0
 11
-4.313498592848816
 21
-14.49574297781817
 31
0.0
  0
LINE
  5
D0
330
2
100
AcDbEntity
  8
GAIKEI
 62
     1
 48
0.153896
370
    40
100
AcDbLine
 10
-3.070299418067861
 20
-14.49574297781817
 30
0.0
 11
-4.313498794803876
 21
-14.49574297781817
 31
0.0
  0
LINE
  5
D1
330
2
100
AcDbEntity
  8
GAIKEI
 62
     1
 48
0.024227
370
    13
100
AcDbLine
 10
-3.070299418067861
 20
-14.49574297781817
 30
0.0
 11
-3.070299418067861
 21
-14.3000349975654
 31
0.0
  0
LINE
  5
D2
330
2
100
AcDbEntity
  8
GAIKEI
 62
     1
 48
0.024227
370
    13
100
AcDbLine
 10
1.796817431532133
 20
-14.49574297781817
 30
0.0
 11
1.796817431532133
 21
-14.3000349975654
 31
0.0
  0
LINE
  5
D3
330
2
100
AcDbEntity
  8
GAIKEI
 62
     1
370
    40
100
AcDbLine
 10
-3.070299418067861
 20
-14.49574297781817
 30
0.0
 11
1.796817431532133
 21
-14.49574297781817
 31
0.0
  0
LINE
  5
D4
330
2
100
AcDbEntity
  8
GAIKEI
 62
     1
 48
0.153896
370
    40
100
AcDbLine
 10
1.796817431532133
 20
-14.49574297781817
 30
0.0
 11
3.040017010223209
 21
-14.49574297781817
 31
0.0
  0
LINE
  5
D5
330
2
100
AcDbEntity
  8
GAIKEI
 62
     1
 48
0.147456
370
    40
100
AcDbLine
 10
-3.070299418067861
 20
-15.06746421036541
 30
0.0
 11
-4.261475576288376
 21
-15.06746421036541
 31
0.0
  0
LINE
  5
D6
330
2
100
AcDbEntity
  8
GAIKEI
 62
     1
370
    40
100
AcDbLine
 10
1.796817431532133
 20
-15.06746421036541
 30
0.0
 11
-3.070299418067861
 21
-15.06746421036541
 31
0.0
  0
LINE
  5
D7
330
2
100
AcDbEntity
  8
GAIKEI
 62
     1
 48
0.147456
370
    40
100
AcDbLine
 10
2.987993589752704
 20
-15.06746421036541
 30
0.0
 11
1.796817633487194
 21
-15.06746421036541
 31
0.0
  0
LINE
  5
D8
330
2
100
AcDbEntity
  8
GAIKEI
 62
     1
 48
0.481248
370
    40
100
AcDbLine
 10
-4.261490520962524
 20
-15.06746421036541
 30
0.0
 11
-8.077769314824422
 21
-15.06746421036541
 31
0.0
  0
LINE
  5
D9
330
2
100
AcDbEntity
  8
GAIKEI
 62
     1
 48
0.4976510000000001
370
    40
100
AcDbLine
 10
6.805515886902981
 20
-15.06746421036541
 30
0.0
 11
2.855499359623422
 21
-15.06746421036541
 31
0.0
  0
LINE
  5
DA
330
2
100
AcDbEntity
  8
GAIKEI
 62
     7
 48
0.4812470000000001
370
    40
100
AcDbLine
 10
-8.138714503803896
 20
-15.0068776935654
 30
0.0
 11
6.866461075882455
 21
-15.0068776935654
 31
0.0
  0
LINE
  5
DB
330
2
100
AcDbEntity
  8
GAIKEI
 62
     1
 48
0.063273
370
    13
100
AcDbLine
 10
-3.070299418067861
 20
-14.49574297781817
 30
0.0
 11
-3.070299418067861
 21
-15.0068776935654
 31
0.0
  0
LINE
  5
DC
330
2
100
AcDbEntity
  8
GAIKEI
 62
     1
 48
0.063273
370
    13
100
AcDbLine
 10
1.796817431532133
 20
-14.49574297781817
 30
0.0
 11
1.796817431532133
 21
-15.0068776935654
 31
0.0
  0
LINE
  5
DD
330
2
100
AcDbEntity
  8
GAIKEI
 62
     1
 48
0.004913
370
    13
100
AcDbLine
 10
-3.070299418067861
 20
-15.06746421036541
 30
0.0
 11
-3.070299418067861
 21
-15.02777822426589
 31
0.0
  0
LINE
  5
DE
330
2
100
AcDbEntity
  8
GAIKEI
 62
     1
 48
0.004913
370
    13
100
AcDbLine
 10
1.796817431532133
 20
-15.06746421036541
 30
0.0
 11
1.796817431532133
 21
-15.02777822426589
 31
0.0
  0
LINE
  5
DF
330
2
100
AcDbEntity
  8
GAIKEI
 62
     1
 48
0.002587
370
    13
100
AcDbLine
 10
-3.070299418067861
 20
-15.02777822426589
 30
0.0
 11
-3.070299418067861
 21
-15.0068776935654
 31
0.0
  0
LINE
  5
E0
330
2
100
AcDbEntity
  8
GAIKEI
 62
     1
 48
0.002587
370
    13
100
AcDbLine
 10
1.796817431532133
 20
-15.02777822426589
 30
0.0
 11
1.796817431532133
 21
-15.0068776935654
 31
0.0
  0
LINE
  5
E1
330
2
100
AcDbEntity
  8
GAIKEI
 62
     1
 48
0.015231
370
    40
100
AcDbLine
 10
6.453087955823434
 20
-15.18863724396539
 30
0.0
 11
6.47445318510779
 21
-15.06746905728675
 31
0.0
  0
LINE
  5
E2
330
2
100
AcDbEntity
  8
GAIKEI
 62
     1
 48
0.015231
370
    40
100
AcDbLine
 10
-7.725341181789872
 20
-15.18863724396541
 30
0.0
 11
-7.746706411074228
 21
-15.06746905728675
 31
0.0
  0
ARC
  5
E3
330
2
100
AcDbEntity
  8
GAIKEI
 62
     1
370
    40
100
AcDbCircle
 10
2.190629790732145
 20
-14.97658443516539
 30
0.0
 40
0.2928348312
100
AcDbArc
 50
270.0
 51
313.6028189999993
  0
ARC
  5
E4
330
2
100
AcDbEntity
  8
GAIKEI
 62
     1
370
    40
100
AcDbCircle
 10
2.190629790732145
 20
-14.97658443516539
 30
0.0
 40
0.2928348312
100
AcDbArc
 50
226.3971810000007
 51
270.0
  0
ARC
  5
E5
330
2
100
AcDbEntity
  8
GAIKEI
 62
     1
370
    40
100
AcDbCircle
 10
-3.464111777267874
 20
-14.97658443516539
 30
0.0
 40
0.2928348312
100
AcDbArc
 50
226.3971810000007
 51
270.0
  0
ARC
  5
E6
330
2
100
AcDbEntity
  8
GAIKEI
 62
     1
370
    40
100
AcDbCircle
 10
-3.464111777267874
 20
-14.97658443516539
 30
0.0
 40
0.2928348312
100
AcDbArc
 50
270.0
 51
313.6028189999993
  0
ARC
  5
E7
330
2
100
AcDbEntity
  8
GAIKEI
 62
     1
370
    40
100
AcDbCircle
 10
6.07883635748243
 20
-14.97658443516539
 30
0.0
 40
0.2928348312
100
AcDbArc
 50
270.0
 51
313.6028189999993
  0
ARC
  5
E8
330
2
100
AcDbEntity
  8
GAIKEI
 62
     1
370
    40
100
AcDbCircle
 10
6.07883635748243
 20
-14.97658443516539
 30
0.0
 40
0.2928348312
100
AcDbArc
 50
226.3971810000007
 51
270.0
  0
ARC
  5
E9
330
2
100
AcDbEntity
  8
GAIKEI
 62
     1
370
    40
100
AcDbCircle
 10
-0.6367409932678357
 20
-14.97658443516539
 30
0.0
 40
0.2928348312
100
AcDbArc
 50
226.3971810000007
 51
270.0
  0
ARC
  5
EA
330
2
100
AcDbEntity
  8
GAIKEI
 62
     1
370
    40
100
AcDbCircle
 10
-0.6367409932678357
 20
-14.97658443516539
 30
0.0
 40
0.2928348312
100
AcDbArc
 50
270.0
 51
313.6028189999993
  0
ARC
  5
EB
330
2
100
AcDbEntity
  8
GAIKEI
 62
     1
370
    40
100
AcDbCircle
 10
-7.351089785403928
 20
-14.97658443516539
 30
0.0
 40
0.2928348312
100
AcDbArc
 50
270.0
 51
313.6028189999993
  0
ARC
  5
EC
330
2
100
AcDbEntity
  8
GAIKEI
 62
     1
370
    40
100
AcDbCircle
 10
-7.351089785403928
 20
-14.97658443516539
 30
0.0
 40
0.2928348312
100
AcDbArc
 50
226.3971810000007
 51
270.0
  0
LINE
  5
ED
330
2
100
AcDbEntity
  8
GAIKEI
 62
     7
 48
0.042238
370
    40
100
AcDbLine
 10
6.578039366566144
 20
-14.3000349975654
 30
0.0
 11
6.857539307373542
 21
-14.49574297781817
 31
0.0
  0
LINE
  5
EE
330
2
100
AcDbEntity
  8
GAIKEI
 62
     7
 48
0.042238
370
    40
100
AcDbLine
 10
-7.850292794487586
 20
-14.3000349975654
 30
0.0
 11
-8.129792533339923
 21
-14.49574297781817
 31
0.0
  0
LINE
  5
EF
330
2
100
AcDbEntity
  8
GAIKEI
 62
     1
 48
0.042238
370
    40
100
AcDbLine
 10
-4.033999055951539
 20
-14.3000349975654
 30
0.0
 11
-4.313498794803876
 21
-14.49574297781817
 31
0.0
  0
LINE
  5
F0
330
2
100
AcDbEntity
  8
GAIKEI
 62
     1
 48
0.042238
370
    40
100
AcDbLine
 10
2.760517069415868
 20
-14.3000349975654
 30
0.0
 11
3.040017010223209
 21
-14.49574297781817
 31
0.0
  0
LINE
  5
F1
330
2
100
AcDbEntity
  8
GAIKEI
 62
     7
 48
0.063283
370
    40
100
AcDbLine
 10
6.857539307373542
 20
-14.49574297781817
 30
0.0
 11
6.866461075882455
 21
-15.0068776935654
 31
0.0
  0
LINE
  5
F2
330
2
100
AcDbEntity
  8
GAIKEI
 62
     7
 48
0.063283
370
    40
100
AcDbLine
 10
-8.129792533339923
 20
-14.49574297781817
 30
0.0
 11
-8.138714503803896
 21
-15.0068776935654
 31
0.0
  0
LINE
  5
F3
330
2
100
AcDbEntity
  8
GAIKEI
 62
     1
 48
0.063283
370
    40
100
AcDbLine
 10
-4.313498794803876
 20
-14.49574297781817
 30
0.0
 11
-4.32242076526785
 21
-15.0068776935654
 31
0.0
  0
LINE
  5
F4
330
2
100
AcDbEntity
  8
GAIKEI
 62
     1
 48
0.063283
370
    40
100
AcDbLine
 10
3.040017010223209
 20
-14.49574297781817
 30
0.0
 11
3.048938778732122
 21
-15.0068776935654
 31
0.0
  0
ARC
  5
F5
330
2
100
AcDbEntity
  8
GAIKEI
 62
     1
370
    40
100
AcDbCircle
 10
6.805515886902981
 20
-15.02707319916538
 30
0.0
 40
0.0403910112
100
AcDbArc
 50
270.0000079999982
 51
358.9999999999998
  0
ARC
  5
F6
330
2
100
AcDbEntity
  8
GAIKEI
 62
     1
370
    40
100
AcDbCircle
 10
-8.077769314824422
 20
-15.02707319916541
 30
0.0
 40
0.0403910112
100
AcDbArc
 50
181.0000000000002
 51
269.9999919999986
  0
LINE
  5
F7
330
2
100
AcDbEntity
  8
GAIKEI
 62
     1
 48
0.002588
370
    40
100
AcDbLine
 10
6.845900839451303
 20
-15.02777822426589
 30
0.0
 11
6.846265570282412
 21
-15.0068776935654
 31
0.0
  0
LINE
  5
F8
330
2
100
AcDbEntity
  8
GAIKEI
 62
     1
 48
0.002588
370
    40
100
AcDbLine
 10
-8.118154065417741
 20
-15.02777822426589
 30
0.0
 11
-8.11851899820391
 21
-15.0068776935654
 31
0.0
  0
LINE
  5
F9
330
2
100
AcDbEntity
  8
GAIKEI
 62
     1
370
    13
100
AcDbLine
 10
-2.732144256661001
 20
-9.27569532904917
 30
0.0
 11
-3.024425125142386
 21
-14.30003479561034
 31
0.0
  0
SPLINE
  5
FA
330
2
100
AcDbEntity
  8
GAIKEI
 62
     1
370
    13
100
AcDbSpline
210
0.0
220
0.0
230
1.0
 70
     8
 71
     5
 72
    15
 73
     9
 74
     0
 42
0.0000000001
 43
0.0000000001
 40
0.0
 40
0.0
 40
0.0
 40
0.0
 40
0.0
 40
0.0
 40
4.87861473491224
 40
4.87861473491224
 40
4.87861473491224
 40
6.291877673417424
 40
6.291877673417424
 40
6.291877673417424
 40
6.291877673417424
 40
6.291877673417424
 40
6.291877673417424
 10
-3.450539520058669
 20
-9.268705428264411
 30
0.0
 10
-3.37968467404795
 20
-9.26752666198206
 30
0.0
 10
-3.27964557491731
 20
-9.267483154138687
 30
0.0
 10
-3.163057327809212
 20
-9.268400617961617
 30
0.0
 10
-3.005788813417211
 20
-9.270430445592779
 30
0.0
 10
-2.842754641980775
 20
-9.273417810254613
 30
0.0
 10
-2.805946272243431
 20
-9.274134409558882
 30
0.0
 10
-2.769045593028863
 20
-9.274894262256395
 30
0.0
 10
-2.732144196519925
 20
-9.27569536305836
 30
0.0
  0
SPLINE
  5
FB
330
2
100
AcDbEntity
  8
GAIKEI
 62
     1
370
    13
100
AcDbSpline
210
0.0
220
0.0
230
1.0
 70
     8
 71
     5
 72
    15
 73
     9
 74
     0
 42
0.0000000001
 43
0.0000000001
 40
0.0
 40
0.0
 40
0.0
 40
0.0
 40
0.0
 40
0.0
 40
2.121785749909319
 40
2.121785749909319
 40
2.121785749909319
 40
2.343068297907462
 40
2.343068297907462
 40
2.343068297907462
 40
2.343068297907462
 40
2.343068297907462
 40
2.343068297907462
 10
-3.539327953947918
 20
-9.283555699819999
 30
0.0
 10
-3.539039293548285
 20
-9.278498966401116
 30
0.0
 10
-3.531162644733967
 20
-9.274489992129019
 30
0.0
 10
-3.515681011162428
 20
-9.271667593036909
 30
0.0
 10
-3.491193259484873
 20
-9.269736782805125
 30
0.0
 10
-3.459794492126775
 20
-9.26888960096835
 30
0.0
 10
-3.45676812787957
 20
-9.26881903691617
 30
0.0
 10
-3.453682946746539
 20
-9.268757724855134
 30
0.0
 10
-3.450539584344312
 20
-9.268705430635975
 30
0.0
  0
LINE
  5
FC
330
2
100
AcDbEntity
  8
GAIKEI
 62
     1
370
    13
100
AcDbLine
 10
-2.732144256661001
 20
-9.27569532904917
 30
0.0
 11
1.458662270125273
 21
-9.27569532904917
 31
0.0
  0
LINE
  5
FD
330
2
100
AcDbEntity
  8
GAIKEI
 62
     1
370
    13
100
AcDbLine
 10
1.458662270125273
 20
-9.27569532904917
 30
0.0
 11
1.750943340561718
 21
-14.30003479561034
 31
0.0
  0
CIRCLE
  5
FE
330
2
100
AcDbEntity
  8
GAIKEI
 62
     1
370
    13
100
AcDbCircle
 10
-0.6367409932678357
 20
-12.14765801005345
 30
0.0
 40
1.519772180961743
  0
SPLINE
  5
FF
330
2
100
AcDbEntity
  8
GAIKEI
 62
     1
370
    13
100
AcDbSpline
210
0.0
220
0.0
230
1.0
 70
     8
 71
     5
 72
    15
 73
     9
 74
     0
 42
0.0000000001
 43
0.0000000001
 40
0.0
 40
0.0
 40
0.0
 40
0.0
 40
0.0
 40
0.0
 40
2.122297194509275
 40
2.122297194509275
 40
2.122297194509275
 40
2.342844283131816
 40
2.342844283131816
 40
2.342844283131816
 40
2.342844283131816
 40
2.342844283131816
 40
2.342844283131816
 10
2.177057750931226
 20
-9.268705430737099
 30
0.0
 10
2.20720539165336
 20
-9.269206980805506
 30
0.0
 10
2.232000996543206
 20
-9.27053807435135
 30
0.0
 10
2.250424988289864
 20
-9.27289477464086
 30
0.0
 10
2.262579772015158
 20
-9.276794770542267
 30
0.0
 10
2.26551026039317
 20
-9.282013238700642
 30
0.0
 10
2.265704254907802
 20
-9.28251621800473
 30
0.0
 10
2.265816188229109
 20
-9.283030515830148
 30
0.0
 10
2.265846144869328
 20
-9.283556130273154
 30
0.0
  0
SPLINE
  5
100
330
2
100
AcDbEntity
  8
GAIKEI
 62
     1
370
    13
100
AcDbSpline
210
0.0
220
0.0
230
1.0
 70
     8
 71
     5
 72
    12
 73
     6
 74
     0
 42
0.0000000001
 43
0.0000000001
 40
0.0
 40
0.0
 40
0.0
 40
0.0
 40
0.0
 40
0.0
 40
6.258850844266468
 40
6.258850844266468
 40
6.258850844266468
 40
6.258850844266468
 40
6.258850844266468
 40
6.258850844266468
 10
1.458662362937275
 20
-9.275695359572608
 30
0.0
 10
1.622092997505546
 20
-9.272147375393785
 30
0.0
 10
1.785539997848331
 20
-9.269407791033614
 30
0.0
 10
1.947194690651485
 20
-9.267549000170561
 30
0.0
 10
2.086155389066902
 20
-9.267193137654345
 30
0.0
 10
2.177057902630906
 20
-9.268705438226248
 30
0.0
  0
LINE
  5
101
330
2
100
AcDbEntity
  8
GAIKEI
 62
     1
 48
0.035537
370
    13
100
AcDbLine
 10
-2.732144256661001
 20
-9.27569532904917
 30
0.0
 11
-2.732144256661001
 21
-8.988617024765403
 31
0.0
  0
LINE
  5
102
330
2
100
AcDbEntity
  8
GAIKEI
 62
     7
 48
0.055613
370
    40
100
AcDbLine
 10
-3.181395500238636
 20
-8.988617024765403
 30
0.0
 11
-2.732144256661001
 21
-8.988617024765403
 31
0.0
  0
LINE
  5
103
330
2
100
AcDbEntity
  8
GAIKEI
 62
     1
 48
0.035537
370
    13
100
AcDbLine
 10
1.458662270125273
 20
-9.27569532904917
 30
0.0
 11
1.458662270125273
 21
-8.988617024765403
 31
0.0
  0
LINE
  5
104
330
2
100
AcDbEntity
  8
GAIKEI
 62
     7
370
    40
100
AcDbLine
 10
-2.732144256661001
 20
-8.988617024765403
 30
0.0
 11
1.458662270125273
 21
-8.988617024765403
 31
0.0
  0
LINE
  5
105
330
2
100
AcDbEntity
  8
GAIKEI
 62
     7
 48
0.055613
370
    40
100
AcDbLine
 10
1.458662472080391
 20
-8.988617024765403
 30
0.0
 11
1.907913715657969
 21
-8.988617024765403
 31
0.0
  0
LINE
  5
106
330
2
100
AcDbEntity
  8
GAIKEI
 62
     7
370
    40
100
AcDbLine
 10
-3.539327918324488
 20
-9.283555621783762
 30
0.0
 11
-3.60361065225662
 21
-10.38858241676539
 31
0.0
  0
LINE
  5
107
330
2
100
AcDbEntity
  8
GAIKEI
 62
     7
370
    40
100
AcDbLine
 10
2.265846133743877
 20
-9.283556227648915
 30
0.0
 11
2.33012884019476
 21
-10.38858241676544
 31
0.0
  0
SPLINE
  5
108
330
2
100
AcDbEntity
  8
GAIKEI
 62
     7
370
    40
100
AcDbSpline
210
0.0
220
0.0
230
1.0
 70
     8
 71
     3
 72
    33
 73
    29
 74
     0
 42
0.0000000001
 43
0.0000000001
 40
0.0
 40
0.0
 40
0.0
 40
0.0
 40
0.0393524276239494
 40
0.0791228791631167
 40
0.1195796563775778
 40
0.1610523475872971
 40
0.2039711228489745
 40
0.2488449405258909
 40
0.2963379713647971
 40
0.3472759722486619
 40
0.4008289572568388
 40
0.4598712871432483
 40
0.5257282855985606
 40
0.5999899471808782
 40
0.685330407002165
 40
0.7816411882601467
 40
0.8910539524872472
 40
1.012857445811842
 40
1.116164988405933
 40
1.225966792135267
 40
1.360966870648339
 40
1.500950147111677
 40
1.644404108002014
 40
1.790449070135661
 40
1.980673329937323
 40
2.172388248659905
 40
2.3647255655209
 40
2.556973075574553
 40
2.556973075574553
 40
2.556973075574553
 40
2.556973075574553
 10
-3.181395462602949
 20
-8.988617037032241
 30
0.0
 10
-3.184044619464202
 20
-8.988617037032241
 30
0.0
 10
-3.189371048081568
 20
-8.988637958173086
 30
0.0
 10
-3.197420415134843
 20
-8.98874144709606
 30
0.0
 10
-3.205611036977643
 20
-8.988930247659368
 30
0.0
 10
-3.214010770595507
 20
-8.989221896689542
 30
0.0
 10
-3.222702929957904
 20
-8.989640282826769
 30
0.0
 10
-3.231792173667429
 20
-8.990218558016863
 30
0.0
 10
-3.24140784519875
 20
-8.991003268356081
 30
0.0
 10
-3.251586555409176
 20
-8.992047941650582
 30
0.0
 10
-3.26250885816421
 20
-8.993434621029052
 30
0.0
 10
-3.274381505094197
 20
-8.995278118499896
 30
0.0
 10
-3.287558199811314
 20
-8.997768650338485
 30
0.0
 10
-3.302355578160813
 20
-9.001164239590139
 30
0.0
 10
-3.318958170214386
 20
-9.005789752928791
 30
0.0
 10
-3.337529797422348
 20
-9.0120712251462
 30
0.0
 10
-3.357942294158249
 20
-9.020450567038352
 30
0.0
 10
-3.378119307560552
 20
-9.030504131426823
 30
0.0
 10
-3.397538386296787
 20
-9.041990213858071
 30
0.0
 10
-3.416858962379421
 20
-9.055285951105815
 30
0.0
 10
-3.43699295943162
 20
-9.071637150449589
 30
0.0
 10
-3.457209571145028
 20
-9.091308187978398
 30
0.0
 10
-3.476002643657693
 20
-9.11333621664562
 30
0.0
 10
-3.494565309695644
 20
-9.139819674158474
 30
0.0
 10
-3.511675815743899
 20
-9.171083834668877
 30
0.0
 10
-3.525870073956184
 20
-9.207151333751909
 30
0.0
 10
-3.53543069494475
 20
-9.244863503229282
 30
0.0
 10
-3.538575535926952
 20
-9.270618262507582
 30
0.0
 10
-3.539327953947918
 20
-9.283555699819999
 30
0.0
  0
SPLINE
  5
109
330
2
100
AcDbEntity
  8
GAIKEI
 62
     7
370
    40
100
AcDbSpline
210
0.0
220
0.0
230
1.0
 70
     8
 71
     3
 72
    33
 73
    29
 74
     0
 42
0.0000000001
 43
0.0000000001
 40
0.0
 40
0.0
 40
0.0
 40
0.0
 40
0.192246628265072
 40
0.3845832121981646
 40
0.5762951278953862
 40
0.7665239789613625
 40
0.9125492684149993
 40
1.055983511676728
 40
1.195953575420318
 40
1.330943199899557
 40
1.440778420321421
 40
1.544117975458331
 40
1.665918214499458
 40
1.775329006868993
 40
1.871639794424867
 40
1.95698086056145
 40
2.031244356728616
 40
2.09710339294979
 40
2.156147110472138
 40
2.209701600726005
 40
2.260641358264162
 40
2.308135145375944
 40
2.353008866139972
 40
2.395926904178027
 40
2.437398464695345
 40
2.477854001763696
 40
2.517623398816532
 40
2.556975366792325
 40
2.556975366792325
 40
2.556975366792325
 40
2.556975366792325
 10
2.265846144869328
 20
-9.283556130273154
 30
0.0
 10
2.2650937157631
 20
-9.270618750229346
 30
0.0
 10
2.261949290371831
 20
-9.244864055710564
 30
0.0
 10
2.252388591706505
 20
-9.207152204573844
 30
0.0
 10
2.238194431566967
 20
-9.171084623319757
 30
0.0
 10
2.221084553516448
 20
-9.139821497840614
 30
0.0
 10
2.20252343196779
 20
-9.113339842102419
 30
0.0
 10
2.183733113543894
 20
-9.091314140967796
 30
0.0
 10
2.163519214428447
 20
-9.071644519279857
 30
0.0
 10
2.14338534729319
 20
-9.055292128465112
 30
0.0
 10
2.124062124397937
 20
-9.041993680719627
 30
0.0
 10
2.104639548033333
 20
-9.030505263478659
 30
0.0
 10
2.084460933885793
 20
-9.020450869996892
 30
0.0
 10
2.064048790157926
 20
-9.012071595522826
 30
0.0
 10
2.04547727571969
 20
-9.005790075998078
 30
0.0
 10
2.028874543695565
 20
-9.001164450626646
 30
0.0
 10
2.014076882400274
 20
-8.997768744813072
 30
0.0
 10
2.000899844424623
 20
-8.995278120843408
 30
0.0
 10
1.989026870639577
 20
-8.993434563924751
 30
0.0
 10
1.978104256603614
 20
-8.992047850084901
 30
0.0
 10
1.967925275486436
 20
-8.991003165823883
 30
0.0
 10
1.958309439886477
 20
-8.990218465865922
 30
0.0
 10
1.949220199870865
 20
-8.989640215232753
 30
0.0
 10
1.940528171652204
 20
-8.989221856177437
 30
0.0
 10
1.93212864665287
 20
-8.988930229274217
 30
0.0
 10
1.923938255172629
 20
-8.988741442292223
 30
0.0
 10
1.915889073503535
 20
-8.988637958310107
 30
0.0
 10
1.910562746817902
 20
-8.988617037142063
 30
0.0
 10
1.907913620900217
 20
-8.988617037032241
 30
0.0
  0
CIRCLE
  5
10A
330
2
100
AcDbEntity
  8
GAIKEI
 62
     1
370
    13
100
AcDbCircle
 10
-0.6367409932678357
 20
11.03259350849493
 30
0.0
 40
0.228869739113846
  0
CIRCLE
  5
10B
330
2
100
AcDbEntity
  8
GAIKEI
 62
     1
370
    13
100
AcDbCircle
 10
-0.6367409932678357
 20
13.03259472415524
 30
0.0
 40
0.8627785244224913
  0
ARC
  5
10C
330
2
100
AcDbEntity
  8
GAIKEI
 62
     7
370
    13
100
AcDbCircle
 10
-0.6367409932678357
 20
15.3325961221646
 30
0.0
 40
5.262625198780381
100
AcDbArc
 50
297.879675999999
 51
242.1203240000006
  0
ARC
  5
10D
330
2
100
AcDbEntity
  8
GAIKEI
 62
     1
370
    13
100
AcDbCircle
 10
-0.6367409932678357
 20
15.3325961221646
 30
0.0
 40
6.444395317095467
100
AcDbArc
 50
294.1035099999996
 51
245.8964900000001
  0
ARC
  5
10E
330
2
100
AcDbEntity
  8
GAIKEI
 62
     1
370
    40
100
AcDbCircle
 10
-0.6367409932678357
 20
15.3325961221646
 30
0.0
 40
7.000004254811132
100
AcDbArc
 50
293.9842930000009
 51
246.0157110000003
  0
LINE
  5
10F
330
2
100
AcDbEntity
  8
GAIKEI
 62
     1
 48
0.024961
370
    40
100
AcDbLine
 10
2.303477793884724
 20
8.231893606146087
 30
0.0
 11
2.324243006506435
 21
8.033289885428814
 31
0.0
  0
LINE
  5
110
330
2
100
AcDbEntity
  8
GAIKEI
 62
     1
 48
0.024961
370
    40
100
AcDbLine
 10
-3.576959780420452
 20
8.231893606146087
 30
0.0
 11
-3.597724793042004
 21
8.033289885428814
 31
0.0
  0
ARC
  5
111
330
2
100
AcDbEntity
  8
GAIKEI
 62
     1
370
    40
100
AcDbCircle
 10
-0.6367409932678357
 20
15.3325961221646
 30
0.0
 40
7.214374785111927
100
AcDbArc
 50
297.7015069999987
 51
242.298492000001
  0
ARC
  5
112
330
2
100
AcDbEntity
  8
GAIKEI
 62
     1
370
    40
100
AcDbCircle
 10
-4.216206168973428
 20
8.515155178320895
 30
0.0
 40
0.4856298951803183
100
AcDbArc
 50
354.0310879999997
 51
62.29849200000101
  0
LINE
  5
113
330
2
100
AcDbEntity
  8
GAIKEI
 62
     1
 48
0.315815
370
    40
100
AcDbLine
 10
-3.995939235088656
 20
5.971914420258173
 30
0.0
 11
-3.733209275393505
 21
8.464655147625478
 31
0.0
  0
ARC
  5
114
330
2
100
AcDbEntity
  8
GAIKEI
 62
     1
370
    40
100
AcDbCircle
 10
-3.046742458138567
 20
5.872670359934659
 30
0.0
 40
0.9543709800951148
100
AcDbArc
 50
174.0310820000001
 51
270.0000099999978
  0
LINE
  5
115
330
2
100
AcDbEntity
  8
GAIKEI
 62
     1
370
    40
100
AcDbLine
 10
-3.046742458138567
 20
4.918299379839567
 30
0.0
 11
1.773260471602839
 21
4.918299379839567
 31
0.0
  0
ARC
  5
116
330
2
100
AcDbEntity
  8
GAIKEI
 62
     1
370
    40
100
AcDbCircle
 10
1.773260471602839
 20
5.872670359934659
 30
0.0
 40
0.9543709800951148
100
AcDbArc
 50
270.0
 51
5.968928000000831
  0
LINE
  5
117
330
2
100
AcDbEntity
  8
GAIKEI
 62
     1
 48
0.315815
370
    40
100
AcDbLine
 10
2.722457448553029
 20
5.971914420258173
 30
0.0
 11
2.459727488857936
 21
8.464655147625478
 31
0.0
  0
ARC
  5
118
330
2
100
AcDbEntity
  8
GAIKEI
 62
     1
370
    40
100
AcDbCircle
 10
2.942724382437859
 20
8.515155178320895
 30
0.0
 40
0.4856298951803183
100
AcDbArc
 50
117.701514000001
 51
185.9689179999999
  0
ARC
  5
119
330
2
100
AcDbEntity
  8
GAIKEI
 62
     7
370
    40
100
AcDbCircle
 10
-0.6367409932678357
 20
15.3325961221646
 30
0.0
 40
7.500004558726212
100
AcDbArc
 50
297.701507999999
 51
242.298492000001
  0
LINE
  5
11A
330
2
100
AcDbEntity
  8
GAIKEI
 62
     1
 48
0.001104
370
    13
100
AcDbLine
 10
-4.119125709965032
 20
8.700054490708197
 30
0.0
 11
-4.123233112461662
 21
8.692231685953288
 31
0.0
  0
LINE
  5
11B
330
2
100
AcDbEntity
  8
GAIKEI
 62
     7
 48
0.001104
370
    13
100
AcDbLine
 10
-4.008502842725192
 20
8.493438765121027
 30
0.0
 11
-4.017290448066546
 21
8.494357365679377
 31
0.0
  0
ARC
  5
11C
330
2
100
AcDbEntity
  8
GAIKEI
 62
     7
370
    40
100
AcDbCircle
 10
-4.216206168973428
 20
8.515155178320895
 30
0.0
 40
0.2000001215660323
100
AcDbArc
 50
354.0310820000001
 51
62.29849200000101
  0
LINE
  5
11D
330
2
100
AcDbEntity
  8
GAIKEI
 62
     7
 48
0.315815
370
    40
100
AcDbLine
 10
-4.017290448066546
 20
8.494357365679377
 30
0.0
 11
-4.280020407761639
 21
6.001616638312071
 31
0.0
  0
LINE
  5
11E
330
2
100
AcDbEntity
  8
GAIKEI
 62
     1
 48
0.001104
370
    13
100
AcDbLine
 10
-4.271232802420229
 20
6.000697837753591
 30
0.0
 11
-4.280020407761639
 21
6.001616638312071
 31
0.0
  0
ARC
  5
11F
330
2
100
AcDbEntity
  8
GAIKEI
 62
     7
370
    40
100
AcDbCircle
 10
-3.046742458138567
 20
5.872670359934659
 30
0.0
 40
1.2400007537094
100
AcDbArc
 50
174.0310820000001
 51
270.0
  0
LINE
  5
120
330
2
100
AcDbEntity
  8
GAIKEI
 62
     7
370
    40
100
AcDbLine
 10
-3.046742458138567
 20
4.632669606225277
 30
0.0
 11
1.773260471602839
 21
4.632669606225277
 31
0.0
  0
LINE
  5
121
330
2
100
AcDbEntity
  8
GAIKEI
 62
     1
 48
0.001104
370
    13
100
AcDbLine
 10
2.997751015884659
 20
6.000697837753591
 30
0.0
 11
3.006538621226013
 21
6.001616638312071
 31
0.0
  0
ARC
  5
122
330
2
100
AcDbEntity
  8
GAIKEI
 62
     7
370
    40
100
AcDbCircle
 10
1.773260471602839
 20
5.872670359934659
 30
0.0
 40
1.2400007537094
100
AcDbArc
 50
270.0
 51
5.968917999999904
  0
LINE
  5
123
330
2
100
AcDbEntity
  8
GAIKEI
 62
     7
 48
0.315815
370
    40
100
AcDbLine
 10
3.006538621226013
 20
6.001616638312071
 30
0.0
 11
2.74380866153092
 21
8.494357365679377
 31
0.0
  0
ARC
  5
124
330
2
100
AcDbEntity
  8
GAIKEI
 62
     7
370
    40
100
AcDbCircle
 10
2.942724382437859
 20
8.515155178320895
 30
0.0
 40
0.2000001215660323
100
AcDbArc
 50
117.701507999999
 51
185.9689179999999
  0
LINE
  5
125
330
2
100
AcDbEntity
  8
GAIKEI
 62
     1
 48
0.003894
370
    40
100
AcDbLine
 10
2.461405489877847
 20
6.722670876590314
 30
0.0
 11
2.45299948476844
 21
6.752670894825229
 31
0.0
  0
LINE
  5
126
330
2
100
AcDbEntity
  8
GAIKEI
 62
     1
 48
0.367734
370
    40
100
AcDbLine
 10
-3.813336924097484
 20
5.972357220527328
 30
0.0
 11
-3.507414538148736
 21
8.878201398991194
 31
0.0
  0
ARC
  5
127
330
2
100
AcDbEntity
  8
GAIKEI
 62
     1
370
    40
100
AcDbCircle
 10
-3.019417441529583
 20
5.888691169672597
 30
0.0
 40
0.7982650852093012
100
AcDbArc
 50
173.9841820000004
 51
270.0468940000007
  0
LINE
  5
128
330
2
100
AcDbEntity
  8
GAIKEI
 62
     1
 48
0.010253
370
    40
100
AcDbLine
 10
-2.936742391277221
 20
5.090375884432802
 30
0.0
 11
-3.018764041132442
 21
5.090375884432802
 31
0.0
  0
LINE
  5
129
330
2
100
AcDbEntity
  8
GAIKEI
 62
     1
 48
0.225
370
    40
100
AcDbLine
 10
0.2632595537792781
 20
5.090375884432802
 30
0.0
 11
-1.536741540315006
 21
5.090375884432802
 31
0.0
  0
LINE
  5
12A
330
2
100
AcDbEntity
  8
GAIKEI
 62
     1
 48
0.010253
370
    40
100
AcDbLine
 10
1.745282254596816
 20
5.090375884432802
 30
0.0
 11
1.663260404741492
 21
5.090375884432802
 31
0.0
  0
ARC
  5
12B
330
2
100
AcDbEntity
  8
GAIKEI
 62
     1
370
    40
100
AcDbCircle
 10
1.745935654994013
 20
5.888691169672597
 30
0.0
 40
0.7982650852093012
100
AcDbArc
 50
269.9531059999994
 51
6.01581799999964
  0
LINE
  5
12C
330
2
100
AcDbEntity
  8
GAIKEI
 62
     1
 48
0.0943
370
    40
100
AcDbLine
 10
2.539855137561914
 20
5.972357220527328
 30
0.0
 11
2.461405489877847
 21
6.722670876590314
 31
0.0
  0
LINE
  5
12D
330
2
100
AcDbEntity
  8
GAIKEI
 62
     1
 48
0.003759
370
    40
100
AcDbLine
 10
2.350576222512529
 20
7.762591520890282
 30
0.0
 11
2.34844362121629
 21
7.732591502655367
 31
0.0
  0
LINE
  5
12E
330
2
100
AcDbEntity
  8
GAIKEI
 62
     1
 48
0.125681
370
    40
100
AcDbLine
 10
2.34844362121629
 20
7.732591502655367
 30
0.0
 11
2.45299948476844
 21
6.752670894825229
 31
0.0
  0
ARC
  5
12F
330
2
100
AcDbEntity
  8
GAIKEI
 62
     1
370
    13
100
AcDbCircle
 10
51.43520625761301
 20
11.12667395347458
 30
0.0
 40
49.44269485274295
100
AcDbArc
 50
185.2011999999996
 51
185.6626709999996
  0
LINE
  5
130
330
2
100
AcDbEntity
  8
GAIKEI
 62
     1
 48
0.24866
370
    13
100
AcDbLine
 10
2.196092928612983
 20
6.64452422909045
 30
0.0
 11
2.015892419081751
 21
8.605543433261573
 31
0.0
  0
ARC
  5
131
330
2
100
AcDbEntity
  8
GAIKEI
 62
     1
370
    13
100
AcDbCircle
 10
-152.6901434158559
 20
-5.490506734737664
 30
0.0
 40
155.3469052244771
100
AcDbArc
 50
5.206132999999713
 51
5.974609000000209
  0
LINE
  5
132
330
2
100
AcDbEntity
  8
GAIKEI
 62
     1
370
    40
100
AcDbLine
 10
1.378479031642882
 20
14.94329868553802
 30
0.0
 11
1.849129317718166
 21
10.44187094943612
 31
0.0
  0
SPLINE
  5
133
330
2
100
AcDbEntity
  8
GAIKEI
 62
     1
370
    40
100
AcDbSpline
210
0.0
220
0.0
230
1.0
 70
     8
 71
     5
 72
    21
 73
    15
 74
     0
 42
0.0000000001
 43
0.0000000001
 40
0.0
 40
0.0
 40
0.0
 40
0.0
 40
0.0
 40
0.0
 40
3.351215984241979
 40
3.351215984241979
 40
3.351215984241979
 40
6.743151400078028
 40
6.743151400078028
 40
6.743151400078028
 40
10.21562160745479
 40
10.21562160745479
 40
10.21562160745479
 40
11.09093805539316
 40
11.09093805539316
 40
11.09093805539316
 40
11.09093805539316
 40
11.09093805539316
 40
11.09093805539316
 10
2.012584342756099
 20
9.393204128420933
 30
0.0
 10
2.006084356609278
 20
9.408327490906344
 30
0.0
 10
1.998702541182751
 20
9.432667836336804
 30
0.0
 10
1.99052271421516
 20
9.466029741576505
 30
0.0
 10
1.972681453228801
 20
9.550334414322264
 30
0.0
 10
1.952562086319915
 20
9.666337582984397
 30
0.0
 10
1.941993990335959
 20
9.731979070365355
 30
0.0
 10
1.919985142724044
 20
9.877649726767913
 30
0.0
 10
1.897269310075159
 20
10.0450774880727
 30
0.0
 10
1.885741695050342
 20
10.13423999897409
 30
0.0
 10
1.871433571618865
 20
10.25000261461028
 30
0.0
 10
1.85746509641433
 20
10.36920954062799
 30
0.0
 10
1.854668535029873
 20
10.39333085003042
 30
0.0
 10
1.85188940160873
 20
10.41755689638424
 30
0.0
 10
1.849129410280511
 20
10.44187074760509
 30
0.0
  0
LINE
  5
134
330
2
100
AcDbEntity
  8
GAIKEI
 62
     1
 48
0.070069
370
    40
100
AcDbLine
 10
2.233932751613167
 20
8.878201398991194
 30
0.0
 11
2.012584417071025
 21
9.393204112025188
 31
0.0
  0
LINE
  5
135
330
2
100
AcDbEntity
  8
GAIKEI
 62
     1
 48
0.140211
370
    40
100
AcDbLine
 10
2.350576222512529
 20
7.762591520890282
 30
0.0
 11
2.233932751613167
 21
8.878201398991194
 31
0.0
  0
LINE
  5
136
330
2
100
AcDbEntity
  8
GAIKEI
 62
     1
 48
0.07007
370
    40
100
AcDbLine
 10
-3.286066003606549
 20
9.39320511202581
 30
0.0
 11
-3.507414538148736
 21
8.878201398991194
 31
0.0
  0
SPLINE
  5
137
330
2
100
AcDbEntity
  8
GAIKEI
 62
     1
370
    40
100
AcDbSpline
210
0.0
220
0.0
230
1.0
 70
     8
 71
     5
 72
    18
 73
    12
 74
     0
 42
0.0000000001
 43
0.0000000001
 40
0.0
 40
0.0
 40
0.0
 40
0.0
 40
0.0
 40
0.0
 40
4.753151516875902
 40
4.753151516875902
 40
4.753151516875902
 40
9.305629381444797
 40
9.305629381444797
 40
9.305629381444797
 40
11.09101045408368
 40
11.09101045408368
 40
11.09101045408368
 40
11.09101045408368
 40
11.09101045408368
 40
11.09101045408368
 10
-3.122611220348687
 20
10.4418709455528
 30
0.0
 10
-3.137598502926721
 20
10.30984211885464
 30
0.0
 10
-3.153150377565225
 20
10.18040099529097
 30
0.0
 10
-3.168993472983061
 20
10.05625298912986
 30
0.0
 10
-3.199894796478815
 20
9.829585111122725
 30
0.0
 10
-3.229132253817169
 20
9.645643466789408
 30
0.0
 10
-3.242708606005521
 20
9.568324255182432
 30
0.0
 10
-3.260123817800945
 20
9.481256737009573
 30
0.0
 10
-3.274939481205933
 20
9.42519301433569
 30
0.0
 10
-3.278890199822285
 20
9.411934244961514
 30
0.0
 10
-3.282603270603601
 20
9.401261807626042
 30
0.0
 10
-3.286066067941362
 20
9.393205150787082
 30
0.0
  0
LINE
  5
138
330
2
100
AcDbEntity
  8
GAIKEI
 62
     1
370
    40
100
AcDbLine
 10
-2.651960818178508
 20
14.94329868553802
 30
0.0
 11
-3.122611304253894
 21
10.44187094943612
 31
0.0
  0
ARC
  5
139
330
2
100
AcDbEntity
  8
GAIKEI
 62
     1
370
    13
100
AcDbCircle
 10
151.4441266460144
 20
-5.493571136600309
 30
0.0
 40
155.3745380412732
100
AcDbArc
 50
174.025321
 51
174.7936599999992
  0
LINE
  5
13A
330
2
100
AcDbEntity
  8
GAIKEI
 62
     1
 48
0.24866
370
    13
100
AcDbLine
 10
-3.46957471514861
 20
6.64452422909045
 30
0.0
 11
-3.289374205617377
 21
8.605543433261573
 31
0.0
  0
ARC
  5
13B
330
2
100
AcDbEntity
  8
GAIKEI
 62
     1
370
    13
100
AcDbCircle
 10
-52.70868804414863
 20
11.12667395347458
 30
0.0
 40
49.44269485274295
100
AcDbArc
 50
354.3373290000003
 51
354.7988000000004
  0
ARC
  5
13C
330
2
100
AcDbEntity
  8
GAIKEI
 62
     1
370
    13
100
AcDbCircle
 10
-2.711097654123648
 20
6.166478338519908
 30
0.0
 40
0.7996044860234287
100
AcDbArc
 50
207.0382530000004
 51
269.9453350000012
  0
ARC
  5
13D
330
2
100
AcDbEntity
  8
GAIKEI
 62
     1
370
    13
100
AcDbCircle
 10
-2.707407051880352
 20
6.168560539785545
 30
0.0
 40
0.8038204885860405
100
AcDbArc
 50
174.3216419999996
 51
207.0508529999993
  0
LINE
  5
13E
330
2
100
AcDbEntity
  8
GAIKEI
 62
     1
 48
0.000546
370
    40
100
AcDbLine
 10
-1.536741540315006
 20
5.090375884432802
 30
0.0
 11
-1.538122541154393
 21
5.08622888191212
 31
0.0
  0
LINE
  5
13F
330
2
100
AcDbEntity
  8
GAIKEI
 62
     1
 48
0.174655
370
    40
100
AcDbLine
 10
-2.935361190437674
 20
5.08622888191212
 30
0.0
 11
-1.538122541154393
 21
5.08622888191212
 31
0.0
  0
LINE
  5
140
330
2
100
AcDbEntity
  8
GAIKEI
 62
     1
 48
0.000546
370
    40
100
AcDbLine
 10
-2.936742391277221
 20
5.090375884432802
 30
0.0
 11
-2.935361190437674
 21
5.08622888191212
 31
0.0
  0
LINE
  5
141
330
2
100
AcDbEntity
  8
GAIKEI
 62
     1
370
    13
100
AcDbLine
 10
-2.711860654587439
 20
5.366863852490411
 30
0.0
 11
1.438378668051711
 21
5.366863852490411
 31
0.0
  0
LINE
  5
142
330
2
100
AcDbEntity
  8
GAIKEI
 62
     1
 48
0.000546
370
    40
100
AcDbLine
 10
1.663260404741492
 20
5.090375884432802
 30
0.0
 11
1.661879403902105
 21
5.08622888191212
 31
0.0
  0
LINE
  5
143
330
2
100
AcDbEntity
  8
GAIKEI
 62
     1
 48
0.174655
370
    40
100
AcDbLine
 10
0.2646407546188243
 20
5.08622888191212
 30
0.0
 11
1.661879403902105
 21
5.08622888191212
 31
0.0
  0
LINE
  5
144
330
2
100
AcDbEntity
  8
GAIKEI
 62
     1
 48
0.000546
370
    40
100
AcDbLine
 10
0.2632595537792781
 20
5.090375884432802
 30
0.0
 11
0.2646407546188243
 21
5.08622888191212
 31
0.0
  0
ELLIPSE
  5
145
330
2
100
AcDbEntity
  8
GAIKEI
 62
     1
370
    13
100
AcDbEllipse
 10
-0.6367409932678357
 20
5.217095761456903
 30
0.0
 11
1.505061832581029
 21
0.0
 31
0.0
210
0.0
220
0.0
230
1.0
 40
0.052408
 41
3.138846068845628
 42
9.422031376025215
  0
ARC
  5
146
330
2
100
AcDbEntity
  8
GAIKEI
 62
     1
370
    13
100
AcDbCircle
 10
1.43393926535333
 20
6.168551339779952
 30
0.0
 40
0.8038050885766804
100
AcDbArc
 50
332.9492830000004
 51
5.679120000000492
  0
ARC
  5
147
330
2
100
AcDbEntity
  8
GAIKEI
 62
     1
370
    13
100
AcDbCircle
 10
1.43761606758818
 20
6.166478338519908
 30
0.0
 40
0.7996042860233072
100
AcDbArc
 50
270.0546439999989
 51
332.9617830000001
  0
ARC
  5
148
330
2
100
AcDbEntity
  8
GAIKEI
 62
     1
370
    40
100
AcDbCircle
 10
-0.6367409932678357
 20
14.73259555746639
 30
0.0
 40
2.026204831587661
100
AcDbArc
 50
5.968922999999556
 51
174.0310770000004
  0
LINE
  5
149
330
2
100
AcDbEntity
  8
GAIKEI
 62
     1
370
    13
100
AcDbLine
 10
1.069271043697085
 20
14.91096926588724
 30
0.0
 11
1.514984314614878
 21
10.648046874756
 31
0.0
  0
LINE
  5
14A
330
2
100
AcDbEntity
  8
GAIKEI
 62
     7
 48
0.037449
370
    13
100
AcDbLine
 10
1.812949095726764
 20
10.67920069369222
 30
0.0
 11
1.514984314614878
 21
10.648046874756
 31
0.0
  0
ARC
  5
14B
330
2
100
AcDbEntity
  8
GAIKEI
 62
     1
370
    13
100
AcDbCircle
 10
-142.1504590095216
 20
-4.951529807131436
 30
0.0
 40
144.5098678374029
100
AcDbArc
 50
5.400514999999544
 51
6.197050000000436
  0
LINE
  5
14C
330
2
100
AcDbEntity
  8
GAIKEI
 62
     1
 48
0.24866
370
    13
100
AcDbLine
 10
1.898127947500995
 20
6.688321655711831
 30
0.0
 11
1.717927637969864
 21
8.649341059883084
 31
0.0
  0
ARC
  5
14D
330
2
100
AcDbEntity
  8
GAIKEI
 62
     1
370
    13
100
AcDbCircle
 10
62.58119443247671
 20
11.65982787754143
 30
0.0
 40
60.88637440855231
100
AcDbArc
 50
184.6835409999999
 51
185.0995600000009
  0
LINE
  5
14E
330
2
100
AcDbEntity
  8
GAIKEI
 62
     1
370
    13
100
AcDbLine
 10
-2.342753030232813
 20
14.91096926588724
 30
0.0
 11
-2.788466101150447
 21
10.648046874756
 31
0.0
  0
LINE
  5
14F
330
2
100
AcDbEntity
  8
GAIKEI
 62
     7
 48
0.037449
370
    13
100
AcDbLine
 10
-3.086431082262492
 20
10.67920069369222
 30
0.0
 11
-2.788466101150447
 21
10.648046874756
 31
0.0
  0
ARC
  5
150
330
2
100
AcDbEntity
  8
GAIKEI
 62
     1
370
    13
100
AcDbCircle
 10
140.8770242230147
 20
-4.951537607136174
 30
0.0
 40
144.5099152374317
100
AcDbArc
 50
173.8029489999994
 51
174.5994840000009
  0
LINE
  5
151
330
2
100
AcDbEntity
  8
GAIKEI
 62
     1
 48
0.24866
370
    13
100
AcDbLine
 10
-3.171609934036723
 20
6.688321655711831
 30
0.0
 11
-2.991409424505491
 21
8.649341059883084
 31
0.0
  0
ARC
  5
152
330
2
100
AcDbEntity
  8
GAIKEI
 62
     1
370
    13
100
AcDbCircle
 10
-63.85467501901155
 20
11.65982787754143
 30
0.0
 40
60.88637320855159
100
AcDbArc
 50
354.9004399999991
 51
355.316459
  0
ARC
  5
153
330
2
100
AcDbEntity
  8
GAIKEI
 62
     1
370
    13
100
AcDbCircle
 10
-2.712226854810012
 20
6.16549593792277
 30
0.0
 40
0.4990167033172192
100
AcDbArc
 50
207.0190739999999
 51
270.0420489999998
  0
ARC
  5
154
330
2
100
AcDbEntity
  8
GAIKEI
 62
     1
370
    13
100
AcDbCircle
 10
-2.598235185522469
 20
6.192552354368473
 30
0.0
 40
0.6135261729194865
100
AcDbArc
 50
174.8299560000002
 51
204.4328239999984
  0
LINE
  5
155
330
2
100
AcDbEntity
  8
GAIKEI
 62
     1
370
    13
100
AcDbLine
 10
-2.711860654587439
 20
5.666452834589534
 30
0.0
 11
1.438378668051711
 21
5.666452834589534
 31
0.0
  0
ARC
  5
156
330
2
100
AcDbEntity
  8
GAIKEI
 62
     1
370
    13
100
AcDbCircle
 10
1.324730598973019
 20
6.192557554371632
 30
0.0
 40
0.6135491729334664
100
AcDbArc
 50
335.5676250000012
 51
5.169373000000585
  0
ARC
  5
157
330
2
100
AcDbEntity
  8
GAIKEI
 62
     1
370
    13
100
AcDbCircle
 10
1.438744868274284
 20
6.1654961379229
 30
0.0
 40
0.4990169033173409
100
AcDbArc
 50
269.9579739999996
 51
332.9809149999992
  0
ARC
  5
158
330
2
100
AcDbEntity
  8
GAIKEI
 62
     1
370
    13
100
AcDbCircle
 10
-0.6367409932678357
 20
14.73259575746652
 30
0.0
 40
1.715311642617519
100
AcDbArc
 50
5.968921999999302
 51
174.0310820000001
  0
LINE
  5
159
330
2
100
AcDbEntity
  8
GAIKEI
 62
     7
370
    13
100
AcDbLine
 10
-2.788466301150606
 20
10.648046874756
 30
0.0
 11
1.514984314614878
 21
10.648046874756
 31
0.0
  0
CIRCLE
  5
15A
330
2
100
AcDbEntity
  8
GAIKEI
 62
     1
370
    13
100
AcDbCircle
 10
-0.6367409932678357
 20
11.03259350849493
 30
0.0
 40
0.3600002188188582
  0
CIRCLE
  5
15B
330
2
100
AcDbEntity
  8
GAIKEI
 62
     1
370
    40
100
AcDbCircle
 10
-0.6367409932678357
 20
13.03259472415524
 30
0.0
 40
1.235454150945839
  0
LINE
  5
15C
330
2
100
AcDbEntity
  8
GAIKEI
 62
     1
370
    13
100
AcDbLine
 10
-2.991409424505491
 20
8.649341059883084
 30
0.0
 11
1.717927637969864
 21
8.649341059883084
 31
0.0
  0
LINE
  5
15D
330
2
100
AcDbEntity
  8
GAIKEI
 62
     1
370
    13
100
AcDbLine
 10
-3.171609934036723
 20
6.688321655711831
 30
0.0
 11
1.898127947500995
 21
6.688321655711831
 31
0.0
  0
LINE
  5
15E
330
2
100
AcDbEntity
  8
GAIKEI
 62
     1
370
    13
100
AcDbLine
 10
-3.156763125012389
 20
5.938807000134488
 30
0.0
 11
1.88328133847682
 21
5.938807000134488
 31
0.0
  0
LINE
  5
15F
330
2
100
AcDbEntity
  8
WAKU
 62
     4
100
AcDbLine
 10
-62.26753249984321
 20
-67.61822811448792
 30
0.0
 11
62.73246750015676
 21
-67.61822811448792
 31
0.0
  0
LINE
  5
161
330
2
100
AcDbEntity
  8
WAKU
 62
     1
100
AcDbLine
 10
62.73246750015676
 20
-32.61822811448792
 30
0.0
 11
-62.26753249984321
 21
-32.61822811448792
 31
0.0
  0
LINE
  5
162
330
2
100
AcDbEntity
  8
WAKU
 62
     1
100
AcDbLine
 10
-62.26753249984321
 20
-57.61822811448792
 30
0.0
 11
62.73246750015676
 21
-57.61822811448792
 31
0.0
  0
LINE
  5
163
330
2
100
AcDbEntity
  8
WAKU
 62
     1
100
AcDbLine
 10
-62.26753249984321
 20
-52.61822811448792
 30
0.0
 11
62.73246750015676
 21
-52.61822811448792
 31
0.0
  0
LINE
  5
164
330
2
100
AcDbEntity
  8
WAKU
 62
     1
100
AcDbLine
 10
-62.26753249984321
 20
-47.61822811448792
 30
0.0
 11
62.73246750015676
 21
-47.61822811448792
 31
0.0
  0
LINE
  5
165
330
2
100
AcDbEntity
  8
WAKU
 62
     1
100
AcDbLine
 10
-62.26753249984321
 20
-42.61822811448792
 30
0.0
 11
62.73246750015676
 21
-42.61822811448792
 31
0.0
  0
LINE
  5
166
330
2
100
AcDbEntity
  8
WAKU
 62
     1
100
AcDbLine
 10
-62.26753249984321
 20
-37.61822811448792
 30
0.0
 11
62.73246750015676
 21
-37.61822811448792
 31
0.0
  0
LINE
  5
167
330
2
100
AcDbEntity
  8
WAKU
 62
     4
100
AcDbLine
 10
-62.26753249984324
 20
-22.61822811448792
 30
0.0
 11
-62.26753249984321
 21
-67.61822811448792
 31
0.0
  0
LINE
  5
168
330
2
100
AcDbEntity
  8
WAKU
 62
     4
100
AcDbLine
 10
62.73246750015676
 20
-67.61822811448792
 30
0.0
 11
62.73246750015676
 21
-22.61822811448792
 31
0.0
  0
LINE
  5
169
330
2
100
AcDbEntity
  8
WAKU
 62
     4
100
AcDbLine
 10
-23.26753249984321
 20
-67.61822811448792
 30
0.0
 11
-23.26753249984324
 21
-22.61822811448792
 31
0.0
  0
LINE
  5
16A
330
2
100
AcDbEntity
  8
WAKU
 62
     4
100
AcDbLine
 10
-62.26753249984321
 20
-22.61822811448792
 30
0.0
 11
62.73246750015676
 21
-22.61822811448792
 31
0.0
  0
LINE
  5
16B
330
2
100
AcDbEntity
  8
WAKU
 62
     1
100
AcDbLine
 10
-62.26753249984321
 20
-27.61822811448792
 30
0.0
 11
62.73246750015676
 21
-27.61822811448792
 31
0.0
  0
TEXT
  5
16C
330
2
100
AcDbEntity
  8
MOJI1
100
AcDbText
 10
-20.76753249984321
 20
-36.61822811448792
 30
0.0
 40
3.0
  1
半径約 ２ ｍ、３００°
100
AcDbText
  0
TEXT
  5
16D
330
2
100
AcDbEntity
  8
MOJI1
100
AcDbText
 10
-59.76753249984321
 20
-31.61822811448792
 30
0.0
 40
3.0
  1
質　量
100
AcDbText
  0
TEXT
  5
16E
330
2
100
AcDbEntity
  8
MOJI1
100
AcDbText
 10
-20.76753249984321
 20
-31.61822811448792
 30
0.0
 40
3.0
  1
約 ８０ｇ
100
AcDbText
  0
TEXT
  5
16F
330
2
100
AcDbEntity
  8
MOJI1
100
AcDbText
 10
-59.76753249984321
 20
-36.61822811448792
 30
0.0
 40
3.0
  1
最大集音範囲
100
AcDbText
  0
TEXT
  5
170
330
2
100
AcDbEntity
  8
MOJI1
100
AcDbText
 10
-59.76753249984321
 20
-41.61822811448792
 30
0.0
 40
3.0
  1
集音方式
100
AcDbText
  0
TEXT
  5
171
330
2
100
AcDbEntity
  8
MOJI1
100
AcDbText
 10
-59.76753249984321
 20
-46.61822811448792
 30
0.0
 40
3.0
  1
マイクロホンユニット
 41
0.9
100
AcDbText
  0
TEXT
  5
172
330
2
100
AcDbEntity
  8
MOJI1
100
AcDbText
 10
-59.76753249984321
 20
-51.61822811448792
 30
0.0
 40
3.0
  1
接続可能台数
100
AcDbText
  0
TEXT
  5
173
330
2
100
AcDbEntity
  8
MOJI1
100
AcDbText
 10
-20.76753249984321
 20
-46.61822811448792
 30
0.0
 40
3.0
  1
単一指向性ＥＣＭマイク部品×２個
100
AcDbText
  0
TEXT
  5
174
330
2
100
AcDbEntity
  8
MOJI1
100
AcDbText
 10
-20.76753249984321
 20
-41.61822811448792
 30
0.0
 40
3.0
  1
ステレオ（固定ステレオ集音）
 41
0.9
100
AcDbText
  0
TEXT
  5
175
330
2
100
AcDbEntity
  8
MOJI1
100
AcDbText
 10
-20.76753249984321
 20
-51.61822811448792
 30
0.0
 40
3.0
  1
最大１台
 41
0.95
100
AcDbText
  0
TEXT
  5
176
330
2
100
AcDbEntity
  8
MOJI1
100
AcDbText
 10
-20.76753249984324
 20
-26.61822811448792
 30
0.0
 40
3.0
  1
本体から専用ケーブル経由で供給
100
AcDbText
  0
TEXT
  5
177
330
2
100
AcDbEntity
  8
MOJI1
100
AcDbText
 10
-20.76753249984321
 20
-56.61822811448792
 30
0.0
 40
3.0
  1
１１０ｄＢ ＳＰＬ
100
AcDbText
  0
TEXT
  5
178
330
2
100
AcDbEntity
  8
MOJI1
100
AcDbText
 10
-20.76753249984321
 20
-61.61822811448792
 30
0.0
 40
3.0
  1
１個
100
AcDbText
  0
TEXT
  5
179
330
2
100
AcDbEntity
  8
MOJI1
100
AcDbText
 10
-59.76753249984321
 20
-61.61822811448792
 30
0.0
 40
3.0
  1
マイクケーブル接続端子
 41
0.9
100
AcDbText
  0
TEXT
  5
17A
330
2
100
AcDbEntity
  8
MOJI1
100
AcDbText
 10
-59.76753249984321
 20
-56.61822811448792
 30
0.0
 40
3.0
  1
最大入力音圧
100
AcDbText
  0
TEXT
  5
17B
330
2
100
AcDbEntity
  8
MOJI1
100
AcDbText
 10
-59.76753249984324
 20
-26.61822811448792
 30
0.0
 40
3.0
  1
電　源
100
AcDbText
  0
LINE
  5
17C
330
2
100
AcDbEntity
  8
WAKU
 62
     1
100
AcDbLine
 10
-62.26753249984321
 20
-62.61822811448792
 30
0.0
 11
62.73246750015676
 21
-62.61822811448792
 31
0.0
  0
TEXT
  5
17D
330
2
100
AcDbEntity
  8
MOJI1
100
AcDbText
 10
-59.76753249984321
 20
-66.61822811448792
 30
0.0
 40
3.0
  1
適用機種（本体）
100
AcDbText
  0
TEXT
  5
17E
330
2
100
AcDbEntity
  8
MOJI1
100
AcDbText
 10
-20.76753249984321
 20
-66.61822811448792
 30
0.0
 40
3.0
  1
ＫＸ－ＶＣ３００、ＫＸ－ＶＣ６００
 41
0.8699999999999999
100
AcDbText
  0
ENDSEC
  0
SECTION
  2
OBJECTS
  0
DICTIONARY
  5
7
330
0
100
AcDbDictionary
281
     1
  3
ACAD_COLOR
350
2C
  3
ACAD_GROUP
350
28
  3
ACAD_LAYOUT
350
B
  3
ACAD_MATERIAL
350
2B
  3
ACAD_MLINESTYLE
350
29
  3
ACAD_PLOTSETTINGS
350
2A
  3
ACAD_PLOTSTYLENAME
350
6
  3
ACDBHEADERROUNDTRIPXREC
350
1BC
  3
AcDbVariableDictionary
350
1B7
  0
DICTIONARY
  5
11
330
10
100
AcDbDictionary
280
     1
281
     1
  3
ACAD_LAYERSTATES
360
12
  0
DICTIONARY
  5
2C
102
{ACAD_REACTORS
330
7
102
}
330
7
100
AcDbDictionary
281
     1
  0
DICTIONARY
  5
28
102
{ACAD_REACTORS
330
7
102
}
330
7
100
AcDbDictionary
281
     1
  0
DICTIONARY
  5
B
102
{ACAD_REACTORS
330
7
102
}
330
7
100
AcDbDictionary
281
     1
  3
Model
350
A
  3
レイアウト1
350
F
  0
DICTIONARY
  5
2B
102
{ACAD_REACTORS
330
7
102
}
330
7
100
AcDbDictionary
281
     1
  0
DICTIONARY
  5
29
102
{ACAD_REACTORS
330
7
102
}
330
7
100
AcDbDictionary
281
     1
  3
Standard
350
2E
  0
DICTIONARY
  5
2A
102
{ACAD_REACTORS
330
7
102
}
330
7
100
AcDbDictionary
281
     1
  0
ACDBDICTIONARYWDFLT
  5
6
102
{ACAD_REACTORS
330
7
102
}
330
7
100
AcDbDictionary
281
     1
  3
Normal
350
5
100
AcDbDictionaryWithDefault
340
5
  0
DICTIONARY
  5
1BC
102
{ACAD_REACTORS
330
7
102
}
330
7
100
AcDbDictionary
281
     1
  3
COLORDICT
350
1BE
  3
MATERIALDICT
350
1BD
  0
DICTIONARY
  5
1B7
102
{ACAD_REACTORS
330
7
102
}
330
7
100
AcDbDictionary
281
     1
  3
DIMASSOC
350
1B9
  3
HIDETEXT
350
1B8
  3
PROJECTNAME
350
1BA
  0
DICTIONARY
  5
12
102
{ACAD_REACTORS
330
11
102
}
330
11
100
AcDbDictionary
281
     1
  0
LAYOUT
  5
A
102
{ACAD_XDICTIONARY
360
1BF
102
}
102
{ACAD_REACTORS
330
B
102
}
330
B
100
AcDbPlotSettings
  1

  2
Acrobat PDFWriter
  4
A4
  6

 40
7.143749713897705
 41
7.143741130828857
 42
7.143768310546875
 43
7.143753051757812
 44
297.0530090332031
 45
209.9733276367187
 46
0.0
 47
4.95
 48
28.480184
 49
111.321191
140
353.779077
141
344.26463
142
1.0
143
1.394313187102225
 70
 11956
 72
     1
 73
     1
 74
     1
  7
tmsacad.ctb
 75
     0
147
0.7171989831626572
148
0.0195232452733762
149
0.0240539385804368
100
AcDbLayout
  1
Model
 70
     1
 71
     0
 10
0.0
 20
0.0
 11
12.0
 21
9.0
 12
0.0
 22
0.0
 32
0.0
 14
0.0
 24
0.0
 34
0.0
 15
0.0
 25
0.0
 35
0.0
146
0.0
 13
0.0
 23
0.0
 33
0.0
 16
1.0
 26
0.0
 36
0.0
 17
0.0
 27
1.0
 37
0.0
 76
     0
330
2
  0
LAYOUT
  5
F
102
{ACAD_XDICTIONARY
360
1C1
102
}
102
{ACAD_REACTORS
330
B
102
}
330
B
100
AcDbPlotSettings
  1

  2
None
  4

  6

 40
0.0
 41
0.0
 42
0.0
 43
0.0
 44
0.0
 45
0.0
 46
0.0
 47
0.0
 48
0.0
 49
0.0
140
0.0
141
0.0
142
1.0
143
1.0
 70
   688
 72
     0
 73
     0
 74
     5
  7
tmsacad.ctb
 75
    16
147
1.0
148
0.0
149
0.0
100
AcDbLayout
  1
レイアウト1
 70
     1
 71
     1
 10
0.0
 20
0.0
 11
12.0
 21
9.0
 12
0.0
 22
0.0
 32
0.0
 14
0.0
 24
0.0
 34
0.0
 15
0.0
 25
0.0
 35
0.0
146
0.0
 13
0.0
 23
0.0
 33
0.0
 16
1.0
 26
0.0
 36
0.0
 17
0.0
 27
1.0
 37
0.0
 76
     0
330
C
  0
MLINESTYLE
  5
2E
102
{ACAD_REACTORS
330
29
102
}
330
29
100
AcDbMlineStyle
  2
STANDARD
 70
     0
  3

 62
   256
 51
90.0
 52
90.0
 71
     2
 49
0.5
 62
   256
  6
BYLAYER
 49
-0.5
 62
   256
  6
BYLAYER
  0
ACDBPLACEHOLDER
  5
5
102
{ACAD_REACTORS
330
6
102
}
330
6
  0
XRECORD
  5
1BE
102
{ACAD_REACTORS
330
1BC
102
}
330
1BC
100
AcDbXrecord
280
     1
340
2C
  0
XRECORD
  5
1BD
102
{ACAD_REACTORS
330
1BC
102
}
330
1BC
100
AcDbXrecord
280
     1
340
2B
  0
DICTIONARYVAR
  5
1B9
102
{ACAD_REACTORS
330
1B7
102
}
330
1B7
100
DictionaryVariables
280
     0
  1
1
  0
DICTIONARYVAR
  5
1B8
102
{ACAD_REACTORS
330
1B7
102
}
330
1B7
100
DictionaryVariables
280
     0
  1
1
  0
DICTIONARYVAR
  5
1BA
102
{ACAD_REACTORS
330
1B7
102
}
330
1B7
100
DictionaryVariables
280
     0
  1

  0
DICTIONARY
  5
1BF
330
A
100
AcDbDictionary
280
     1
281
     1
  3
ACAD_XREC_ROUNDTRIP
360
1C0
  0
DICTIONARY
  5
1C1
330
F
100
AcDbDictionary
280
     1
281
     1
  3
ACAD_XREC_ROUNDTRIP
360
1C2
  0
XRECORD
  5
1C0
102
{ACAD_REACTORS
330
1BF
102
}
330
1BF
100
AcDbXrecord
280
     1
102
SHADEPLOT
 70
     1
102
SHADEPLOTRESLEVEL
 70
     2
102
SHADEPLOTCUSTOMDPI
 70
   300
  0
XRECORD
  5
1C2
102
{ACAD_REACTORS
330
1C1
102
}
330
1C1
100
AcDbXrecord
280
     1
102
SHADEPLOT
 70
     0
102
SHADEPLOTRESLEVEL
 70
     2
102
SHADEPLOTCUSTOMDPI
 70
   300
  0
ENDSEC
  0
EOF
