  0
SECTION
  2
HEADER
  9
$ACADVER
  1
AC1015
  9
$ACADMAINTVER
 70
    20
  9
$DWGCODEPAGE
  3
ANSI_932
  9
$INSBASE
 10
129.499999944041
 20
246.5008351249345
 30
0.0
  9
$EXTMIN
 10
-62.75390534516645
 20
-61.82363829648079
 30
-0.0000000000112498
  9
$EXTMAX
 10
62.27966364738495
 20
51.20095865731241
 30
0.0000000000002956
  9
$LIMMIN
 10
0.0
 20
0.0
  9
$LIMMAX
 10
420.0
 20
297.0
  9
$ORTHOMODE
 70
     0
  9
$REGENMODE
 70
     0
  9
$FILLMODE
 70
     1
  9
$QTEXTMODE
 70
     0
  9
$MIRRTEXT
 70
     0
  9
$LTSCALE
 40
1.0
  9
$ATTMODE
 70
     1
  9
$TEXTSIZE
 40
2.5
  9
$TRACEWID
 40
1.0
  9
$TEXTSTYLE
  7
Standard
  9
$CLAYER
  8
GAIKEI
  9
$CELTYPE
  6
ByLayer
  9
$CECOLOR
 62
   256
  9
$CELTSCALE
 40
1.0
  9
$DISPSILH
 70
     0
  9
$DIMSCALE
 40
1.0
  9
$DIMASZ
 40
2.5
  9
$DIMEXO
 40
0.625
  9
$DIMDLI
 40
3.75
  9
$DIMRND
 40
0.0
  9
$DIMDLE
 40
0.0
  9
$DIMEXE
 40
1.25
  9
$DIMTP
 40
0.0
  9
$DIMTM
 40
0.0
  9
$DIMTXT
 40
2.5
  9
$DIMCEN
 40
2.5
  9
$DIMTSZ
 40
0.0
  9
$DIMTOL
 70
     0
  9
$DIMLIM
 70
     0
  9
$DIMTIH
 70
     0
  9
$DIMTOH
 70
     0
  9
$DIMSE1
 70
     0
  9
$DIMSE2
 70
     0
  9
$DIMTAD
 70
     1
  9
$DIMZIN
 70
     8
  9
$DIMBLK
  1

  9
$DIMASO
 70
     1
  9
$DIMSHO
 70
     1
  9
$DIMPOST
  1

  9
$DIMAPOST
  1

  9
$DIMALT
 70
     0
  9
$DIMALTD
 70
     3
  9
$DIMALTF
 40
0.03937007874016
  9
$DIMLFAC
 40
1.0
  9
$DIMTOFL
 70
     1
  9
$DIMTVP
 40
0.0
  9
$DIMTIX
 70
     0
  9
$DIMSOXD
 70
     0
  9
$DIMSAH
 70
     0
  9
$DIMBLK1
  1

  9
$DIMBLK2
  1

  9
$DIMSTYLE
  2
ISO-25
  9
$DIMCLRD
 70
     0
  9
$DIMCLRE
 70
     0
  9
$DIMCLRT
 70
     0
  9
$DIMTFAC
 40
1.0
  9
$DIMGAP
 40
0.625
  9
$DIMJUST
 70
     0
  9
$DIMSD1
 70
     0
  9
$DIMSD2
 70
     0
  9
$DIMTOLJ
 70
     0
  9
$DIMTZIN
 70
     8
  9
$DIMALTZ
 70
     0
  9
$DIMALTTZ
 70
     0
  9
$DIMUPT
 70
     0
  9
$DIMDEC
 70
     2
  9
$DIMTDEC
 70
     2
  9
$DIMALTU
 70
     2
  9
$DIMALTTD
 70
     3
  9
$DIMTXSTY
  7
Standard
  9
$DIMAUNIT
 70
     0
  9
$DIMADEC
 70
     0
  9
$DIMALTRND
 40
0.0
  9
$DIMAZIN
 70
     0
  9
$DIMDSEP
 70
    44
  9
$DIMATFIT
 70
     3
  9
$DIMFRAC
 70
     0
  9
$DIMLDRBLK
  1

  9
$DIMLUNIT
 70
     2
  9
$DIMLWD
 70
    -2
  9
$DIMLWE
 70
    -2
  9
$DIMTMOVE
 70
     0
  9
$LUNITS
 70
     2
  9
$LUPREC
 70
     4
  9
$SKETCHINC
 40
1.0
  9
$FILLETRAD
 40
0.0
  9
$AUNITS
 70
     0
  9
$AUPREC
 70
     0
  9
$MENU
  1
.
  9
$ELEVATION
 40
0.0
  9
$PELEVATION
 40
0.0
  9
$THICKNESS
 40
0.0
  9
$LIMCHECK
 70
     0
  9
$CHAMFERA
 40
0.0
  9
$CHAMFERB
 40
0.0
  9
$CHAMFERC
 40
0.0
  9
$CHAMFERD
 40
0.0
  9
$SKPOLY
 70
     0
  9
$TDCREATE
 40
2454349.434269746
  9
$TDUCREATE
 40
2454349.059269746
  9
$TDUPDATE
 40
2456162.601817755
  9
$TDUUPDATE
 40
2456162.226817755
  9
$TDINDWG
 40
0.2088417593
  9
$TDUSRTIMER
 40
0.2088417593
  9
$USRTIMER
 70
     1
  9
$ANGBASE
 50
0.0
  9
$ANGDIR
 70
     0
  9
$PDMODE
 70
     0
  9
$PDSIZE
 40
0.0
  9
$PLINEWID
 40
0.0
  9
$SPLFRAME
 70
     0
  9
$SPLINETYPE
 70
     6
  9
$SPLINESEGS
 70
     8
  9
$HANDSEED
  5
50F
  9
$SURFTAB1
 70
     6
  9
$SURFTAB2
 70
     6
  9
$SURFTYPE
 70
     6
  9
$SURFU
 70
     6
  9
$SURFV
 70
     6
  9
$UCSBASE
  2

  9
$UCSNAME
  2

  9
$UCSORG
 10
0.0
 20
0.0
 30
0.0
  9
$UCSXDIR
 10
1.0
 20
0.0
 30
0.0
  9
$UCSYDIR
 10
0.0
 20
1.0
 30
0.0
  9
$UCSORTHOREF
  2

  9
$UCSORTHOVIEW
 70
     0
  9
$UCSORGTOP
 10
0.0
 20
0.0
 30
0.0
  9
$UCSORGBOTTOM
 10
0.0
 20
0.0
 30
0.0
  9
$UCSORGLEFT
 10
0.0
 20
0.0
 30
0.0
  9
$UCSORGRIGHT
 10
0.0
 20
0.0
 30
0.0
  9
$UCSORGFRONT
 10
0.0
 20
0.0
 30
0.0
  9
$UCSORGBACK
 10
0.0
 20
0.0
 30
0.0
  9
$PUCSBASE
  2

  9
$PUCSNAME
  2

  9
$PUCSORG
 10
0.0
 20
0.0
 30
0.0
  9
$PUCSXDIR
 10
1.0
 20
0.0
 30
0.0
  9
$PUCSYDIR
 10
0.0
 20
1.0
 30
0.0
  9
$PUCSORTHOREF
  2

  9
$PUCSORTHOVIEW
 70
     0
  9
$PUCSORGTOP
 10
0.0
 20
0.0
 30
0.0
  9
$PUCSORGBOTTOM
 10
0.0
 20
0.0
 30
0.0
  9
$PUCSORGLEFT
 10
0.0
 20
0.0
 30
0.0
  9
$PUCSORGRIGHT
 10
0.0
 20
0.0
 30
0.0
  9
$PUCSORGFRONT
 10
0.0
 20
0.0
 30
0.0
  9
$PUCSORGBACK
 10
0.0
 20
0.0
 30
0.0
  9
$USERI1
 70
     0
  9
$USERI2
 70
     0
  9
$USERI3
 70
     0
  9
$USERI4
 70
     0
  9
$USERI5
 70
     0
  9
$USERR1
 40
0.0
  9
$USERR2
 40
0.0
  9
$USERR3
 40
0.0
  9
$USERR4
 40
0.0
  9
$USERR5
 40
0.0
  9
$WORLDVIEW
 70
     1
  9
$SHADEDGE
 70
     3
  9
$SHADEDIF
 70
    70
  9
$TILEMODE
 70
     1
  9
$MAXACTVP
 70
    48
  9
$PINSBASE
 10
0.0
 20
0.0
 30
0.0
  9
$PLIMCHECK
 70
     0
  9
$PEXTMIN
 10
0.0
 20
0.0
 30
0.0
  9
$PEXTMAX
 10
0.0
 20
0.0
 30
0.0
  9
$PLIMMIN
 10
0.0
 20
0.0
  9
$PLIMMAX
 10
12.0
 20
9.0
  9
$UNITMODE
 70
     0
  9
$VISRETAIN
 70
     1
  9
$PLINEGEN
 70
     0
  9
$PSLTSCALE
 70
     1
  9
$TREEDEPTH
 70
  3020
  9
$CMLSTYLE
  2
Standard
  9
$CMLJUST
 70
     0
  9
$CMLSCALE
 40
20.0
  9
$PROXYGRAPHICS
 70
     1
  9
$MEASUREMENT
 70
     1
  9
$CELWEIGHT
370
    -1
  9
$ENDCAPS
280
     0
  9
$JOINSTYLE
280
     0
  9
$LWDISPLAY
290
     0
  9
$INSUNITS
 70
     4
  9
$HYPERLINKBASE
  1

  9
$STYLESHEET
  1

  9
$XEDIT
290
     1
  9
$CEPSNTYPE
380
     0
  9
$PSTYLEMODE
290
     1
  9
$FINGERPRINTGUID
  2
{FDEAD578-A652-11D2-9A35-0060089B3A3F}
  9
$VERSIONGUID
  2
{25CDEB1E-0D7C-43FD-956A-345774B4574E}
  9
$EXTNAMES
290
     1
  9
$PSVPSCALE
 40
0.0
  9
$OLESTARTUP
290
     0
  0
ENDSEC
  0
SECTION
  2
CLASSES
  0
CLASS
  1
ACDBDICTIONARYWDFLT
  2
AcDbDictionaryWithDefault
  3
ObjectDBX Classes
 90
        0
280
     0
281
     0
  0
CLASS
  1
ACDBPLACEHOLDER
  2
AcDbPlaceHolder
  3
ObjectDBX Classes
 90
        0
280
     0
281
     0
  0
CLASS
  1
LAYOUT
  2
AcDbLayout
  3
ObjectDBX Classes
 90
        0
280
     0
281
     0
  0
CLASS
  1
DICTIONARYVAR
  2
AcDbDictionaryVar
  3
ObjectDBX Classes
 90
        0
280
     0
281
     0
  0
CLASS
  1
SORTENTSTABLE
  2
AcDbSortentsTable
  3
ObjectDBX Classes
 90
    32768
280
     0
281
     0
  0
ENDSEC
  0
SECTION
  2
TABLES
  0
TABLE
  2
VPORT
  5
1B
330
0
100
AcDbSymbolTable
 70
     3
  0
VPORT
  5
507
330
1B
100
AcDbSymbolTableRecord
100
AcDbViewportTableRecord
  2
*Active
 70
     0
 10
0.0
 20
0.0
 11
1.0
 21
1.0
 12
-0.2371208488907612
 22
-5.31133981958419
 13
0.0
 23
0.0
 14
10.0
 24
10.0
 15
10.0
 25
10.0
 16
0.0
 26
0.0
 36
1.0
 17
0.0
 27
0.0
 37
0.0
 40
113.881926387071
 41
2.193670886075949
 42
50.0
 43
0.0
 44
0.0
 50
0.0
 51
0.0
 71
     0
 72
  1000
 73
     1
 74
     2
 75
     0
 76
     0
 77
     0
 78
     0
281
     0
 65
     1
110
0.0
120
0.0
130
0.0
111
1.0
121
0.0
131
0.0
112
0.0
122
1.0
132
0.0
 79
     0
146
0.0
  0
ENDTAB
  0
TABLE
  2
LTYPE
  5
16
330
0
100
AcDbSymbolTable
 70
     3
  0
LTYPE
  5
17
330
16
100
AcDbSymbolTableRecord
100
AcDbLinetypeTableRecord
  2
ByBlock
 70
     0
  3

 72
    65
 73
     0
 40
0.0
  0
LTYPE
  5
18
330
16
100
AcDbSymbolTableRecord
100
AcDbLinetypeTableRecord
  2
ByLayer
 70
     0
  3

 72
    65
 73
     0
 40
0.0
  0
LTYPE
  5
8
330
16
100
AcDbSymbolTableRecord
100
AcDbLinetypeTableRecord
  2
Continuous
 70
     0
  3
Solid line
 72
    65
 73
     0
 40
0.0
  0
LTYPE
  5
373
330
16
100
AcDbSymbolTableRecord
100
AcDbLinetypeTableRecord
  2
CENTER
 70
     0
  3
Center ____ _ ____ _ ____ _ ____ _ ____ _ ____
 72
    65
 73
     4
 40
50.8
 49
31.75
 74
     0
 49
-6.349999999999999
 74
     0
 49
6.349999999999999
 74
     0
 49
-6.349999999999999
 74
     0
  0
LTYPE
  5
372
330
16
100
AcDbSymbolTableRecord
100
AcDbLinetypeTableRecord
  2
S50
 70
     0
  3
-------------- - ------------- 40,-1,1.5,-1
 72
    65
 73
     4
 40
43.5
 49
40.0
 74
     0
 49
-1.0
 74
     0
 49
1.5
 74
     0
 49
-1.0
 74
     0
  0
ENDTAB
  0
TABLE
  2
LAYER
  5
10
102
{ACAD_XDICTIONARY
360
11
102
}
330
0
100
AcDbSymbolTable
 70
     8
  0
LAYER
  5
4
330
10
100
AcDbSymbolTableRecord
100
AcDbLayerTableRecord
  2
0
 70
     0
 62
     7
  6
Continuous
370
    -3
390
5
  0
LAYER
  5
2D
330
10
100
AcDbSymbolTableRecord
100
AcDbLayerTableRecord
  2
WAKU
 70
     0
 62
     4
  6
Continuous
370
    -3
390
5
  0
LAYER
  5
2A
330
10
100
AcDbSymbolTableRecord
100
AcDbLayerTableRecord
  2
MOJI1
 70
     0
 62
     2
  6
Continuous
370
    -3
390
5
  0
LAYER
  5
445
330
10
100
AcDbSymbolTableRecord
100
AcDbLayerTableRecord
  2
TOUROKU
 70
     0
 62
     1
  6
Continuous
370
    -3
390
5
  0
LAYER
  5
26
330
10
100
AcDbSymbolTableRecord
100
AcDbLayerTableRecord
  2
GAIKEI
 70
     0
 62
     7
  6
Continuous
370
    -3
390
5
  0
LAYER
  5
415
330
10
100
AcDbSymbolTableRecord
100
AcDbLayerTableRecord
  2
SUNPO
 70
     0
 62
     3
  6
Continuous
370
    -3
390
5
  0
LAYER
  5
426
330
10
100
AcDbSymbolTableRecord
100
AcDbLayerTableRecord
  2
Defpoints
 70
     0
 62
     7
  6
Continuous
290
     0
370
    -3
390
5
  0
LAYER
  5
371
330
10
100
AcDbSymbolTableRecord
100
AcDbLayerTableRecord
  2
KIJUN
 70
     0
 62
    14
  6
S50
370
    -3
390
5
  0
ENDTAB
  0
TABLE
  2
STYLE
  5
13
330
0
100
AcDbSymbolTable
 70
     1
  0
STYLE
  5
14
330
13
100
AcDbSymbolTableRecord
100
AcDbTextStyleTableRecord
  2
Standard
 70
     0
 40
0.0
 41
1.0
 50
0.0
 71
     0
 42
2.5
  3
MONOTXT.shx
  4
BIGFONT.shx
  0
ENDTAB
  0
TABLE
  2
VIEW
  5
19
330
0
100
AcDbSymbolTable
 70
     0
  0
ENDTAB
  0
TABLE
  2
UCS
  5
1A
330
0
100
AcDbSymbolTable
 70
     0
  0
ENDTAB
  0
TABLE
  2
APPID
  5
1D
330
0
100
AcDbSymbolTable
 70
     1
  0
APPID
  5
1E
330
1D
100
AcDbSymbolTableRecord
100
AcDbRegAppTableRecord
  2
ACAD
 70
     0
  0
ENDTAB
  0
TABLE
  2
DIMSTYLE
  5
1F
330
0
100
AcDbSymbolTable
 70
     2
100
AcDbDimStyleTable
 71
     0
  0
DIMSTYLE
105
28
330
1F
100
AcDbSymbolTableRecord
100
AcDbDimStyleTableRecord
  2
ISO-25
 70
     0
 41
2.5
 42
0.625
 43
3.75
 44
1.25
 73
     0
 74
     0
 77
     1
 78
     8
140
2.5
141
2.5
143
0.03937007874016
147
0.625
171
     3
172
     1
271
     2
272
     2
274
     3
278
    44
283
     0
284
     8
340
14
  0
DIMSTYLE
105
41C
102
{ACAD_REACTORS
330
414
330
42A
330
437
102
}
330
1F
100
AcDbSymbolTableRecord
100
AcDbDimStyleTableRecord
  2
STANDARD
 70
     0
 40
0.0
 41
2.0
 42
2.0
 43
8.0
 44
2.0
 73
     0
 74
     0
 77
     3
140
3.0
141
0.0
173
     1
279
     2
288
     1
340
14
341
416
343
416
344
416
  0
ENDTAB
  0
TABLE
  2
BLOCK_RECORD
  5
1
330
0
100
AcDbSymbolTable
 70
     4
  0
BLOCK_RECORD
  5
2
102
{ACAD_XDICTIONARY
360
45F
102
}
330
1
100
AcDbSymbolTableRecord
100
AcDbBlockTableRecord
  2
*Model_Space
340
A
  0
BLOCK_RECORD
  5
C
102
{ACAD_XDICTIONARY
360
461
102
}
330
1
100
AcDbSymbolTableRecord
100
AcDbBlockTableRecord
  2
*Paper_Space
340
F
  0
BLOCK_RECORD
  5
416
330
1
100
AcDbSymbolTableRecord
100
AcDbBlockTableRecord
  2
_OPEN30
340
0
102
{BLKREFS
331
4EF
331
4F0
331
4F8
331
4F9
331
501
331
502
102
}
  0
BLOCK_RECORD
  5
49A
330
1
100
AcDbSymbolTableRecord
100
AcDbBlockTableRecord
  2
*D1
340
0
  0
BLOCK_RECORD
  5
4A8
330
1
100
AcDbSymbolTableRecord
100
AcDbBlockTableRecord
  2
*D2
340
0
  0
BLOCK_RECORD
  5
4B4
330
1
100
AcDbSymbolTableRecord
100
AcDbBlockTableRecord
  2
*D3
340
0
  0
ENDTAB
  0
ENDSEC
  0
SECTION
  2
BLOCKS
  0
BLOCK
  5
3
330
2
100
AcDbEntity
  8
0
100
AcDbBlockBegin
  2
*Model_Space
 70
     0
 10
0.0
 20
0.0
 30
0.0
  3
*Model_Space
  1

  0
ENDBLK
  5
9
330
2
100
AcDbEntity
  8
0
100
AcDbBlockEnd
  0
BLOCK
  5
D
330
C
100
AcDbEntity
 67
     1
  8
0
100
AcDbBlockBegin
  2
*Paper_Space
 70
     0
 10
0.0
 20
0.0
 30
0.0
  3
*Paper_Space
  1

  0
ENDBLK
  5
E
330
C
100
AcDbEntity
 67
     1
  8
0
100
AcDbBlockEnd
  0
BLOCK
  5
417
330
416
100
AcDbEntity
  8
0
100
AcDbBlockBegin
  2
_OPEN30
 70
     0
 10
0.0
 20
0.0
 30
0.0
  3
_OPEN30
  1

  0
LINE
  5
418
330
416
100
AcDbEntity
  8
0
  6
ByBlock
 62
     0
100
AcDbLine
 10
-1.0
 20
0.26794919
 30
0.0
 11
0.0
 21
0.0
 31
0.0
  0
LINE
  5
419
330
416
100
AcDbEntity
  8
0
  6
ByBlock
 62
     0
100
AcDbLine
 10
0.0
 20
0.0
 30
0.0
 11
-1.0
 21
-0.26794919
 31
0.0
  0
LINE
  5
41A
330
416
100
AcDbEntity
  8
0
  6
ByBlock
 62
     0
100
AcDbLine
 10
0.0
 20
0.0
 30
0.0
 11
-1.0
 21
0.0
 31
0.0
  0
ENDBLK
  5
41B
330
416
100
AcDbEntity
  8
0
100
AcDbBlockEnd
  0
BLOCK
  5
4A4
330
49A
100
AcDbEntity
  8
0
100
AcDbBlockBegin
  2
*D1
 70
     1
 10
0.0
 20
0.0
 30
0.0
  3
*D1
  1

  0
LINE
  5
4FE
330
49A
100
AcDbEntity
  8
SUNPO
 62
     0
370
    -2
100
AcDbLine
 10
-56.89177612357633
 20
20.54287836385725
 30
0.0
 11
-56.89177612357633
 21
28.54287836385726
 31
0.0
  0
LINE
  5
4FF
330
49A
100
AcDbEntity
  8
SUNPO
 62
     0
370
    -2
100
AcDbLine
 10
-7.091776123576323
 20
20.54287836385725
 30
0.0
 11
-7.091776123576322
 21
28.54287836385726
 31
0.0
  0
LINE
  5
500
330
49A
100
AcDbEntity
  8
SUNPO
 62
     0
370
    -2
100
AcDbLine
 10
-54.89177612357633
 20
26.54287836385726
 30
0.0
 11
-9.091776123576323
 21
26.54287836385726
 31
0.0
  0
INSERT
  5
501
330
49A
100
AcDbEntity
  8
SUNPO
 62
     0
370
    -2
100
AcDbBlockReference
  2
_OPEN30
 10
-56.89177612357633
 20
26.54287836385726
 30
0.0
 41
2.0
 42
2.0
 43
2.0
 50
180.0
  0
INSERT
  5
502
330
49A
100
AcDbEntity
  8
SUNPO
 62
     0
370
    -2
100
AcDbBlockReference
  2
_OPEN30
 10
-7.091776123576322
 20
26.54287836385726
 30
0.0
 41
2.0
 42
2.0
 43
2.0
  0
MTEXT
  5
503
330
49A
100
AcDbEntity
  8
SUNPO
 62
     0
100
AcDbMText
 10
-31.99177612357633
 20
28.29287836385726
 30
0.0
 40
2.5
 41
0.0
 71
     5
 72
     1
  1
\A1;498
 73
     1
 44
1.0
1001
ACAD
1000
MTEXTBEGIN
1070
    73
1070
     1
1070
    44
1040
1.0
1070
    74
1070
     0
1000
MTEXTEND
  0
POINT
  5
504
330
49A
100
AcDbEntity
  8
Defpoints
 62
     0
100
AcDbPoint
 10
-56.89177612357633
 20
18.54287836385725
 30
0.0
  0
POINT
  5
505
330
49A
100
AcDbEntity
  8
Defpoints
 62
     0
100
AcDbPoint
 10
-7.091776123576323
 20
18.54287836385725
 30
0.0
  0
POINT
  5
506
330
49A
100
AcDbEntity
  8
Defpoints
 62
     0
100
AcDbPoint
 10
-7.091776123576322
 20
26.54287836385726
 30
0.0
  0
ENDBLK
  5
4A5
330
49A
100
AcDbEntity
  8
0
100
AcDbBlockEnd
  0
BLOCK
  5
4B2
330
4A8
100
AcDbEntity
  8
0
100
AcDbBlockBegin
  2
*D2
 70
     1
 10
0.0
 20
0.0
 30
0.0
  3
*D2
  1

  0
LINE
  5
4F5
330
4A8
100
AcDbEntity
  8
SUNPO
 62
     0
370
    -2
100
AcDbLine
 10
-5.091776123576323
 20
1.01908188442411
 30
0.0
 11
2.908223876423673
 21
1.019081884424107
 31
0.0
  0
LINE
  5
4F6
330
4A8
100
AcDbEntity
  8
SUNPO
 62
     0
370
    -2
100
AcDbLine
 10
-5.091776123576323
 20
18.51908308442415
 30
0.0
 11
2.908223876423675
 21
18.51908308442415
 31
0.0
  0
LINE
  5
4F7
330
4A8
100
AcDbEntity
  8
SUNPO
 62
     0
370
    -2
100
AcDbLine
 10
0.9082238764236729
 20
3.019081884424108
 30
0.0
 11
0.9082238764236759
 21
16.51908308442415
 31
0.0
  0
INSERT
  5
4F8
330
4A8
100
AcDbEntity
  8
SUNPO
 62
     0
370
    -2
100
AcDbBlockReference
  2
_OPEN30
 10
0.9082238764236723
 20
1.019081884424108
 30
0.0
 41
2.0
 42
2.0
 43
2.0
 50
270.0
  0
INSERT
  5
4F9
330
4A8
100
AcDbEntity
  8
SUNPO
 62
     0
370
    -2
100
AcDbBlockReference
  2
_OPEN30
 10
0.9082238764236763
 20
18.51908308442415
 30
0.0
 41
2.0
 42
2.0
 43
2.0
 50
90.0
  0
MTEXT
  5
4FA
330
4A8
100
AcDbEntity
  8
SUNPO
 62
     0
100
AcDbMText
 10
-0.8417761235763274
 20
9.769082484424131
 30
0.0
 40
2.5
 41
0.0
 71
     5
 72
     1
  1
\A1;175
 11
0.0000000000000001
 21
1.0
 31
0.0
 73
     1
 44
1.0
1001
ACAD
1000
MTEXTBEGIN
1070
    73
1070
     1
1070
    44
1040
1.0
1070
    74
1070
     0
1000
MTEXTEND
  0
POINT
  5
4FB
330
4A8
100
AcDbEntity
  8
Defpoints
 62
     0
100
AcDbPoint
 10
-7.091776123576323
 20
1.01908188442411
 30
0.0
  0
POINT
  5
4FC
330
4A8
100
AcDbEntity
  8
Defpoints
 62
     0
100
AcDbPoint
 10
-7.091776123576323
 20
18.51908308442415
 30
0.0
  0
POINT
  5
4FD
330
4A8
100
AcDbEntity
  8
Defpoints
 62
     0
100
AcDbPoint
 10
0.9082238764236763
 20
18.51908308442415
 30
0.0
  0
ENDBLK
  5
4B3
330
4A8
100
AcDbEntity
  8
0
100
AcDbBlockEnd
  0
BLOCK
  5
4BE
330
4B4
100
AcDbEntity
  8
0
100
AcDbBlockBegin
  2
*D3
 70
     1
 10
0.0
 20
0.0
 30
0.0
  3
*D3
  1

  0
LINE
  5
4EC
330
4B4
100
AcDbEntity
  8
SUNPO
 62
     0
370
    -2
100
AcDbLine
 10
11.0143460047982
 20
20.54287836385725
 30
0.0
 11
11.0143460047982
 21
28.54287836385726
 31
0.0
  0
LINE
  5
4ED
330
4B4
100
AcDbEntity
  8
SUNPO
 62
     0
370
    -2
100
AcDbLine
 10
55.01434240479818
 20
20.54287836385725
 30
0.0
 11
55.01434240479818
 21
28.54287836385726
 31
0.0
  0
LINE
  5
4EE
330
4B4
100
AcDbEntity
  8
SUNPO
 62
     0
370
    -2
100
AcDbLine
 10
13.0143460047982
 20
26.54287836385726
 30
0.0
 11
53.01434240479818
 21
26.54287836385726
 31
0.0
  0
INSERT
  5
4EF
330
4B4
100
AcDbEntity
  8
SUNPO
 62
     0
370
    -2
100
AcDbBlockReference
  2
_OPEN30
 10
11.0143460047982
 20
26.54287836385726
 30
0.0
 41
2.0
 42
2.0
 43
2.0
 50
180.0
  0
INSERT
  5
4F0
330
4B4
100
AcDbEntity
  8
SUNPO
 62
     0
370
    -2
100
AcDbBlockReference
  2
_OPEN30
 10
55.01434240479818
 20
26.54287836385726
 30
0.0
 41
2.0
 42
2.0
 43
2.0
  0
MTEXT
  5
4F1
330
4B4
100
AcDbEntity
  8
SUNPO
 62
     0
100
AcDbMText
 10
33.01434420479819
 20
28.29287836385726
 30
0.0
 40
2.5
 41
0.0
 71
     5
 72
     1
  1
\A1;440
 73
     1
 44
1.0
1001
ACAD
1000
MTEXTBEGIN
1070
    73
1070
     1
1070
    44
1040
1.0
1070
    74
1070
     0
1000
MTEXTEND
  0
POINT
  5
4F2
330
4B4
100
AcDbEntity
  8
Defpoints
 62
     0
100
AcDbPoint
 10
11.0143460047982
 20
18.54287836385725
 30
0.0
  0
POINT
  5
4F3
330
4B4
100
AcDbEntity
  8
Defpoints
 62
     0
100
AcDbPoint
 10
55.01434240479818
 20
18.54287836385725
 30
0.0
  0
POINT
  5
4F4
330
4B4
100
AcDbEntity
  8
Defpoints
 62
     0
100
AcDbPoint
 10
55.01434240479818
 20
26.54287836385726
 30
0.0
  0
ENDBLK
  5
4BF
330
4B4
100
AcDbEntity
  8
0
100
AcDbBlockEnd
  0
ENDSEC
  0
SECTION
  2
ENTITIES
  0
TEXT
  5
29
330
2
100
AcDbEntity
  8
MOJI1
100
AcDbText
 10
-20.22282130090321
 20
-60.82134376014375
 30
0.0
 40
3.0
  1
デバイス液冷方式、オートクリーニングフィルター搭載
 41
0.9099999999999999
100
AcDbText
  0
TEXT
  5
2B
330
2
100
AcDbEntity
  8
MOJI1
100
AcDbText
 10
-60.22282130090321
 20
-60.82134376014375
 30
0.0
 40
3.0
  1
備　考
100
AcDbText
  0
LINE
  5
2C
330
2
100
AcDbEntity
  8
WAKU
 62
     1
100
AcDbLine
 10
-62.72282130090321
 20
-56.82134376014374
 30
0.0
 11
62.27717869909679
 21
-56.82134376014374
 31
0.0
  0
TEXT
  5
2E
330
2
100
AcDbEntity
  8
MOJI1
100
AcDbText
 10
-60.22282130090321
 20
-55.82134376014375
 30
0.0
 40
3.0
  1
その他
100
AcDbText
  0
TEXT
  5
2F
330
2
100
AcDbEntity
  8
MOJI1
100
AcDbText
 10
-20.22282130090321
 20
-55.82134376014375
 30
0.0
 40
3.0
  1
ランプ２灯式、液冷方式、ＡＣＦ搭載
100
AcDbText
  0
LINE
  5
30
330
2
100
AcDbEntity
  8
WAKU
 62
     1
100
AcDbLine
 10
-62.72282130090321
 20
-51.82134376014374
 30
0.0
 11
62.27717869909679
 21
-51.82134376014374
 31
0.0
  0
CIRCLE
  5
31
330
2
100
AcDbEntity
  8
GAIKEI
  6
Continuous
 62
     1
100
AcDbCircle
 10
-31.9917761235763
 20
10.7690815844241
 30
0.0
 40
7.1325439
  0
CIRCLE
  5
32
330
2
100
AcDbEntity
  8
GAIKEI
  6
Continuous
 62
     1
100
AcDbCircle
 10
-31.9917761235763
 20
10.7690815844241
 30
0.0
 40
6.95
  0
CIRCLE
  5
33
330
2
100
AcDbEntity
  8
GAIKEI
  6
Continuous
 62
     1
100
AcDbCircle
 10
-31.9917761235763
 20
10.7690815844241
 30
0.0
 40
5.4267624
  0
ARC
  5
34
330
2
100
AcDbEntity
  8
GAIKEI
  6
Continuous
100
AcDbCircle
 10
-55.25913452357639
 20
3.364032484424114
 30
0.0
 40
0.25
100
AcDbArc
 50
252.2294880000031
 51
257.0736759999987
  0
ARC
  5
35
330
2
100
AcDbEntity
  8
GAIKEI
  6
Continuous
 62
     1
100
AcDbCircle
 10
-38.21716672357633
 20
2.719081584424088
 30
0.0
 40
0.2
100
AcDbArc
 50
209.9999579999996
 51
270.0000009999949
  0
ARC
  5
36
330
2
100
AcDbEntity
  8
GAIKEI
  6
Continuous
 62
     1
100
AcDbCircle
 10
-25.76636112357636
 20
2.719081584424088
 30
0.0
 40
0.2
100
AcDbArc
 50
270.0000009999949
 51
329.9999889999929
  0
LINE
  5
37
330
2
100
AcDbEntity
  8
GAIKEI
  6
Continuous
 62
     1
100
AcDbLine
 10
-25.76636112357636
 20
2.5190815844241
 30
0.0
 11
-25.9917761235763
 21
2.5190815844241
 31
0.0
  0
LINE
  5
38
330
2
100
AcDbEntity
  8
GAIKEI
  6
Continuous
 62
     1
100
AcDbLine
 10
-25.9917761235763
 20
2.5190815844241
 30
0.0
 11
-37.99177612357636
 21
2.5190815844241
 31
0.0
  0
LINE
  5
39
330
2
100
AcDbEntity
  8
GAIKEI
  6
Continuous
 62
     1
100
AcDbLine
 10
-37.99177612357636
 20
2.5190815844241
 30
0.0
 11
-38.21716672357633
 21
2.5190815844241
 31
0.0
  0
LINE
  5
3A
330
2
100
AcDbEntity
  8
GAIKEI
  6
Continuous
 62
     1
100
AcDbLine
 10
-25.59315982357635
 20
2.619073984424119
 30
0.0
 11
-25.36221502357631
 21
3.019082184424121
 31
0.0
  0
LINE
  5
3B
330
2
100
AcDbEntity
  8
GAIKEI
  6
Continuous
 62
     1
100
AcDbLine
 10
-38.39037782357633
 20
2.619079084424072
 30
0.0
 11
-38.62131812357631
 21
3.019079284424094
 31
0.0
  0
ARC
  5
3C
330
2
100
AcDbEntity
  8
GAIKEI
  6
Continuous
 62
     1
100
AcDbCircle
 10
-29.08340212357632
 20
1.419081584424077
 30
0.0
 40
0.1
100
AcDbArc
 50
270.0000009999949
 51
355.0000110000001
  0
ARC
  5
3D
330
2
100
AcDbEntity
  8
GAIKEI
  6
Continuous
 62
     1
100
AcDbCircle
 10
-34.90012572357631
 20
1.419081584424077
 30
0.0
 40
0.1
100
AcDbArc
 50
184.9999899999993
 51
270.0000009999949
  0
LINE
  5
3E
330
2
100
AcDbEntity
  8
GAIKEI
  6
Continuous
 62
     1
100
AcDbLine
 10
-29.08340212357632
 20
1.319081584424111
 30
0.0
 11
-29.4917761235763
 21
1.319081584424111
 31
0.0
  0
LINE
  5
3F
330
2
100
AcDbEntity
  8
GAIKEI
  6
Continuous
 62
     1
100
AcDbLine
 10
-29.4917761235763
 20
1.319081584424111
 30
0.0
 11
-34.4917761235763
 21
1.319081584424111
 31
0.0
  0
LINE
  5
40
330
2
100
AcDbEntity
  8
GAIKEI
  6
Continuous
 62
     1
100
AcDbLine
 10
-34.4917761235763
 20
1.319081584424111
 30
0.0
 11
-34.90012572357631
 21
1.319081584424111
 31
0.0
  0
LINE
  5
41
330
2
100
AcDbEntity
  8
GAIKEI
  6
Continuous
 62
     1
100
AcDbLine
 10
-34.9997600235763
 20
1.410362984424125
 30
0.0
 11
-35.0967601235763
 21
2.519079584424105
 31
0.0
  0
LINE
  5
42
330
2
100
AcDbEntity
  8
GAIKEI
  6
Continuous
 62
     1
100
AcDbLine
 10
-28.98377392357634
 20
1.410369584424131
 30
0.0
 11
-28.88677402357632
 21
2.519084584424092
 31
0.0
  0
SPLINE
  5
43
330
2
100
AcDbEntity
  8
GAIKEI
  6
Continuous
100
AcDbSpline
210
0.0
220
0.0
230
1.0
 70
     8
 71
     3
 72
     9
 73
     5
 74
     3
 42
0.0000000001
 43
0.0000000001
 44
0.000001
 12
0.0000000000000001
 22
-1.0
 32
0.0
 13
-0.9510265476706667
 23
0.3091092131037396
 33
0.0
 40
0.0
 40
0.0
 40
0.0
 40
0.0
 40
0.0000012642815467
 40
0.0000016155083406
 40
0.0000016155083406
 40
0.0000016155083406
 40
0.0000016155083406
 10
-54.84617065482632
 20
3.027533427685796
 30
0.0
 10
-54.84617065482632
 20
3.027533006258607
 30
0.0
 10
-54.84617023053568
 20
3.027532635179568
 30
0.0
 10
-54.84617054348433
 20
3.027531865617788
 30
0.0
 10
-54.84617065482632
 20
3.027531901806923
 30
0.0
 11
-54.84617065482632
 21
3.027533427685796
 31
0.0
 11
-54.84617065482632
 21
3.027532474011479
 31
0.0
 11
-54.84617065482632
 21
3.027531901806923
 31
0.0
  0
SPLINE
  5
44
330
2
100
AcDbEntity
  8
GAIKEI
  6
Continuous
100
AcDbSpline
210
0.0
220
0.0
230
1.0
 70
     8
 71
     3
 72
     9
 73
     5
 74
     3
 42
0.0000000001
 43
0.0000000001
 44
0.000001
 12
-0.9736397745146724
 22
0.2280911867719086
 32
0.0
 13
-0.9510265476706667
 23
0.3091092131037396
 33
0.0
 40
0.0
 40
0.0
 40
0.0
 40
0.0
 40
0.0000260367799603
 40
0.000051167783229
 40
0.000051167783229
 40
0.000051167783229
 40
0.000051167783229
 10
-55.16379760795132
 20
3.078386393994435
 30
0.0
 10
-55.16380605809951
 20
3.078388373581105
 30
0.0
 10
-55.16382238774312
 20
3.078393396702608
 30
0.0
 10
-55.1638384693259
 20
3.078399063375286
 30
0.0
 10
-55.16384643607631
 20
3.078401652783497
 30
0.0
 11
-55.16379760795132
 21
3.078386393994435
 31
0.0
 11
-55.16382264372402
 21
3.078393607898817
 31
0.0
 11
-55.16384643607631
 21
3.078401652783497
 31
0.0
  0
SPLINE
  5
45
330
2
100
AcDbEntity
  8
GAIKEI
  6
Continuous
100
AcDbSpline
210
0.0
220
0.0
230
1.0
 70
     8
 71
     3
 72
     9
 73
     5
 74
     3
 42
0.0000000001
 43
0.0000000001
 44
0.000001
 12
0.9735788853902887
 22
0.2283509446492466
 32
0.0
 13
0.9771437995180457
 23
0.2125793853209601
 33
0.0
 40
0.0
 40
0.0
 40
0.0
 40
0.0
 40
0.0000263920890409
 40
0.0000503314087907
 40
0.0000503314087907
 40
0.0000503314087907
 40
0.0000503314087907
 10
-8.819193115763823
 20
3.078514567822537
 30
0.0
 10
-8.819184550836951
 20
3.078516576708693
 30
0.0
 10
-8.819168344041031
 20
3.078520919584946
 30
0.0
 10
-8.819152085024796
 20
3.078525078518509
 30
0.0
 10
-8.819144287638835
 20
3.078526774853798
 30
0.0
 11
-8.819193115763823
 21
3.078514567822537
 31
0.0
 11
-8.81916753180883
 21
3.078521038167593
 31
0.0
 11
-8.819144287638835
 21
3.078526774853798
 31
0.0
  0
SPLINE
  5
46
330
2
100
AcDbEntity
  8
GAIKEI
  6
Continuous
100
AcDbSpline
210
0.0
220
0.0
230
1.0
 70
     8
 71
     3
 72
     9
 73
     5
 74
     3
 42
0.0000000001
 43
0.0000000001
 44
0.000001
 12
0.9998651232485189
 22
-0.0164236205272784
 32
0.0
 13
0.2587396205779466
 23
-0.9659471045265265
 33
0.0
 40
0.0
 40
0.0
 40
0.0
 40
0.0
 40
0.0000128894870595
 40
0.0000248127609478
 40
0.0000248127609478
 40
0.0000248127609478
 40
0.0000248127609478
 10
-9.137357178263812
 20
3.027534953564725
 30
0.0
 10
-9.137352882347613
 20
3.027534883000697
 30
0.0
 10
-9.137345987489766
 20
3.027534572233008
 30
0.0
 10
-9.13733379254242
 20
3.027535740890897
 30
0.0
 10
-9.137332764201289
 20
3.027531901806923
 30
0.0
 11
-9.137357178263812
 21
3.027534953564725
 31
0.0
 11
-9.137345008505405
 21
3.027534265096619
 31
0.0
 11
-9.137332764201289
 21
3.027531901806923
 31
0.0
  0
LINE
  5
47
330
2
100
AcDbEntity
  8
GAIKEI
  6
Continuous
 62
     1
100
AcDbLine
 10
-37.99177612357636
 20
2.619081584424122
 30
0.0
 11
-37.99177612357636
 21
2.5190815844241
 31
0.0
  0
LINE
  5
48
330
2
100
AcDbEntity
  8
GAIKEI
  6
Continuous
 62
     1
100
AcDbLine
 10
-38.3903845235763
 20
2.619081584424122
 30
0.0
 11
-37.99177612357636
 21
2.619081584424122
 31
0.0
  0
LINE
  5
49
330
2
100
AcDbEntity
  8
GAIKEI
  6
Continuous
 62
     1
100
AcDbLine
 10
-25.9917761235763
 20
2.619081584424122
 30
0.0
 11
-25.9917761235763
 21
2.5190815844241
 31
0.0
  0
LINE
  5
4A
330
2
100
AcDbEntity
  8
GAIKEI
  6
Continuous
 62
     1
100
AcDbLine
 10
-37.99177612357636
 20
2.619081584424122
 30
0.0
 11
-25.9917761235763
 21
2.619081584424122
 31
0.0
  0
LINE
  5
4B
330
2
100
AcDbEntity
  8
GAIKEI
  6
Continuous
 62
     1
100
AcDbLine
 10
-25.9917761235763
 20
2.619081584424122
 30
0.0
 11
-25.59314332357633
 21
2.619081584424122
 31
0.0
  0
LINE
  5
4C
330
2
100
AcDbEntity
  8
GAIKEI
  6
Continuous
 62
     1
100
AcDbLine
 10
-25.9917761235763
 20
2.619081584424122
 30
0.0
 11
-25.9917761235763
 21
3.0190815844241
 31
0.0
  0
LINE
  5
4D
330
2
100
AcDbEntity
  8
GAIKEI
  6
Continuous
 62
     1
100
AcDbLine
 10
-37.99177612357636
 20
2.619081584424122
 30
0.0
 11
-37.99177612357636
 21
3.0190815844241
 31
0.0
  0
LINE
  5
4E
330
2
100
AcDbEntity
  8
GAIKEI
  6
Continuous
 62
     1
100
AcDbLine
 10
-29.4917761235763
 20
1.319081584424111
 30
0.0
 11
-29.4917761235763
 21
1.410365784424072
 31
0.0
  0
LINE
  5
4F
330
2
100
AcDbEntity
  8
GAIKEI
  6
Continuous
 62
     1
100
AcDbLine
 10
-29.4917761235763
 20
1.410365784424072
 30
0.0
 11
-28.98379272357636
 21
1.410365784424072
 31
0.0
  0
LINE
  5
50
330
2
100
AcDbEntity
  8
GAIKEI
  6
Continuous
 62
     1
100
AcDbLine
 10
-34.4917761235763
 20
1.319081584424111
 30
0.0
 11
-34.4917761235763
 21
1.410365784424072
 31
0.0
  0
LINE
  5
51
330
2
100
AcDbEntity
  8
GAIKEI
  6
Continuous
 62
     1
100
AcDbLine
 10
-34.4917761235763
 20
1.410365784424072
 30
0.0
 11
-29.4917761235763
 21
1.410365784424072
 31
0.0
  0
LINE
  5
52
330
2
100
AcDbEntity
  8
GAIKEI
  6
Continuous
 62
     1
100
AcDbLine
 10
-34.9997595235763
 20
1.410365784424072
 30
0.0
 11
-34.4917761235763
 21
1.410365784424072
 31
0.0
  0
LINE
  5
53
330
2
100
AcDbEntity
  8
GAIKEI
  6
Continuous
 62
     1
100
AcDbLine
 10
-34.4917761235763
 20
1.410365784424072
 30
0.0
 11
-34.4917761235763
 21
2.519076984424089
 31
0.0
  0
LINE
  5
54
330
2
100
AcDbEntity
  8
GAIKEI
  6
Continuous
 62
     1
100
AcDbLine
 10
-29.4917761235763
 20
1.410365784424072
 30
0.0
 11
-29.4917761235763
 21
2.519076984424089
 31
0.0
  0
ARC
  5
55
330
2
100
AcDbEntity
  8
GAIKEI
  6
Continuous
100
AcDbCircle
 10
-56.59602412357634
 20
16.8966953844241
 30
0.0
 40
0.2
100
AcDbArc
 50
162.3770379999985
 51
177.3539490000005
  0
LINE
  5
56
330
2
100
AcDbEntity
  8
GAIKEI
  6
Continuous
 62
     1
100
AcDbLine
 10
-45.28176632357634
 20
17.56908308442411
 30
0.0
 11
-45.70176152357634
 21
17.56908308442411
 31
0.0
  0
LINE
  5
57
330
2
100
AcDbEntity
  8
GAIKEI
  6
Continuous
 62
     1
100
AcDbLine
 10
-42.78176632357634
 20
17.56908308442411
 30
0.0
 11
-43.20176152357634
 21
17.56908308442411
 31
0.0
  0
LINE
  5
58
330
2
100
AcDbEntity
  8
GAIKEI
  6
Continuous
 62
     1
100
AcDbLine
 10
-47.78176632357634
 20
17.56908308442411
 30
0.0
 11
-48.20176152357635
 21
17.56908308442411
 31
0.0
  0
LINE
  5
59
330
2
100
AcDbEntity
  8
GAIKEI
  6
Continuous
 62
     1
100
AcDbLine
 10
-50.28176632357634
 20
17.56908308442411
 30
0.0
 11
-50.70176152357635
 21
17.56908308442411
 31
0.0
  0
LINE
  5
5A
330
2
100
AcDbEntity
  8
GAIKEI
  6
Continuous
 62
     1
100
AcDbLine
 10
-52.78176632357634
 20
17.56908308442411
 30
0.0
 11
-53.20176152357635
 21
17.56908308442411
 31
0.0
  0
LINE
  5
5B
330
2
100
AcDbEntity
  8
GAIKEI
  6
Continuous
 62
     1
100
AcDbLine
 10
-50.74370482357636
 20
18.36903728442411
 30
0.0
 11
-50.73398802357633
 21
18.36903728442411
 31
0.0
  0
LINE
  5
5C
330
2
100
AcDbEntity
  8
GAIKEI
  6
Continuous
 62
     1
100
AcDbLine
 10
-48.24370482357636
 20
18.36903728442411
 30
0.0
 11
-48.23398802357633
 21
18.36903728442411
 31
0.0
  0
LINE
  5
5D
330
2
100
AcDbEntity
  8
GAIKEI
  6
Continuous
 62
     1
100
AcDbLine
 10
-45.26072142357634
 20
18.36903728442411
 30
0.0
 11
-45.23984742357629
 21
18.36903728442411
 31
0.0
  0
LINE
  5
5E
330
2
100
AcDbEntity
  8
GAIKEI
  6
Continuous
 62
     1
100
AcDbLine
 10
-42.7502234235763
 20
18.36903728442411
 30
0.0
 11
-42.73984742357629
 21
18.36903728442411
 31
0.0
  0
LINE
  5
5F
330
2
100
AcDbEntity
  8
GAIKEI
  6
Continuous
 62
     1
100
AcDbLine
 10
-53.20177652357632
 20
17.56908138442412
 30
0.0
 11
-53.24108232357634
 21
18.31908058442411
 31
0.0
  0
LINE
  5
60
330
2
100
AcDbEntity
  8
GAIKEI
  6
Continuous
 62
     1
100
AcDbLine
 10
-53.24108232357634
 20
18.31908058442411
 30
0.0
 11
-53.25156382357636
 21
18.51908078442415
 31
0.0
  0
LINE
  5
61
330
2
100
AcDbEntity
  8
GAIKEI
  6
Continuous
 62
     1
100
AcDbLine
 10
-52.73197402357635
 20
18.51908228442409
 30
0.0
 11
-52.74245562357634
 21
18.31908208442411
 31
0.0
  0
LINE
  5
62
330
2
100
AcDbEntity
  8
GAIKEI
  6
Continuous
 62
     1
100
AcDbLine
 10
-52.74245562357634
 20
18.31908208442411
 30
0.0
 11
-52.78176142357631
 21
17.56908138442412
 31
0.0
  0
LINE
  5
63
330
2
100
AcDbEntity
  8
GAIKEI
  6
Continuous
 62
     1
100
AcDbLine
 10
-50.70176842357631
 20
17.56908218442407
 30
0.0
 11
-50.74107422357633
 21
18.31908138442412
 31
0.0
  0
LINE
  5
64
330
2
100
AcDbEntity
  8
GAIKEI
  6
Continuous
 62
     1
100
AcDbLine
 10
-50.74107422357633
 20
18.31908138442412
 30
0.0
 11
-50.7515557235763
 21
18.5190815844241
 31
0.0
  0
LINE
  5
65
330
2
100
AcDbEntity
  8
GAIKEI
  6
Continuous
 62
     1
100
AcDbLine
 10
-50.23199032357632
 20
18.51908278442414
 30
0.0
 11
-50.24247182357635
 21
18.31908258442411
 31
0.0
  0
LINE
  5
66
330
2
100
AcDbEntity
  8
GAIKEI
  6
Continuous
 62
     1
100
AcDbLine
 10
-50.24247182357635
 20
18.31908258442411
 30
0.0
 11
-50.28177762357632
 21
17.56908338442412
 31
0.0
  0
LINE
  5
67
330
2
100
AcDbEntity
  8
GAIKEI
  6
Continuous
 62
     1
100
AcDbLine
 10
-48.20176022357634
 20
17.56908148442409
 30
0.0
 11
-48.24106612357633
 21
18.31908218442407
 31
0.0
  0
LINE
  5
68
330
2
100
AcDbEntity
  8
GAIKEI
  6
Continuous
 62
     1
100
AcDbLine
 10
-48.24106612357633
 20
18.31908218442407
 30
0.0
 11
-48.2515476235763
 21
18.51908228442409
 31
0.0
  0
LINE
  5
69
330
2
100
AcDbEntity
  8
GAIKEI
  6
Continuous
 62
     1
100
AcDbLine
 10
-47.73198222357632
 20
18.51908198442407
 30
0.0
 11
-47.74246372357629
 21
18.3190817844241
 31
0.0
  0
LINE
  5
6A
330
2
100
AcDbEntity
  8
GAIKEI
  6
Continuous
 62
     1
100
AcDbLine
 10
-47.74246372357629
 20
18.3190817844241
 30
0.0
 11
-47.78176952357637
 21
17.56908268442413
 31
0.0
  0
LINE
  5
6B
330
2
100
AcDbEntity
  8
GAIKEI
  6
Continuous
 62
     1
100
AcDbLine
 10
-43.20176842357631
 20
17.56908168442413
 30
0.0
 11
-43.24107422357633
 21
18.31908238442412
 31
0.0
  0
LINE
  5
6C
330
2
100
AcDbEntity
  8
GAIKEI
  6
Continuous
 62
     1
100
AcDbLine
 10
-43.24107422357633
 20
18.31908238442412
 30
0.0
 11
-43.2515557235763
 21
18.5190810844241
 31
0.0
  0
LINE
  5
6D
330
2
100
AcDbEntity
  8
GAIKEI
  6
Continuous
 62
     1
100
AcDbLine
 10
-42.73199032357632
 20
18.51908328442408
 30
0.0
 11
-42.74247182357635
 21
18.31908308442411
 31
0.0
  0
LINE
  5
6E
330
2
100
AcDbEntity
  8
GAIKEI
  6
Continuous
 62
     1
100
AcDbLine
 10
-42.74247182357635
 20
18.31908308442411
 30
0.0
 11
-42.78177772357634
 21
17.56908238442412
 31
0.0
  0
LINE
  5
6F
330
2
100
AcDbEntity
  8
GAIKEI
  6
Continuous
 62
     1
100
AcDbLine
 10
-45.70177652357631
 20
17.56908098442415
 30
0.0
 11
-45.74108232357633
 21
18.31908168442413
 31
0.0
  0
LINE
  5
70
330
2
100
AcDbEntity
  8
GAIKEI
  6
Continuous
 62
     1
100
AcDbLine
 10
-45.74108232357633
 20
18.31908168442413
 30
0.0
 11
-45.75156392357633
 21
18.51908178442414
 31
0.0
  0
LINE
  5
71
330
2
100
AcDbEntity
  8
GAIKEI
  6
Continuous
 62
     1
100
AcDbLine
 10
-45.23197402357635
 20
18.51908278442414
 30
0.0
 11
-45.24245552357633
 21
18.31908258442411
 31
0.0
  0
LINE
  5
72
330
2
100
AcDbEntity
  8
GAIKEI
  6
Continuous
 62
     1
100
AcDbLine
 10
-45.24245552357633
 20
18.31908258442411
 30
0.0
 11
-45.28176142357631
 21
17.56908188442412
 31
0.0
  0
LINE
  5
73
330
2
100
AcDbEntity
  8
GAIKEI
  6
Continuous
100
AcDbLine
 10
-9.331766323576346
 20
3.0190815844241
 30
0.0
 11
-54.65176152357634
 21
3.0190815844241
 31
0.0
  0
ARC
  5
74
330
2
100
AcDbEntity
  8
GAIKEI
  6
Continuous
100
AcDbCircle
 10
-9.331766323576346
 20
5.259082484424141
 30
0.0
 40
2.239999399999999
100
AcDbArc
 50
270.0000009999949
 51
359.999982999999
  0
ARC
  5
75
330
2
100
AcDbEntity
  8
GAIKEI
  6
Continuous
100
AcDbCircle
 10
-54.65176152357634
 20
5.259082484424141
 30
0.0
 40
2.239999399999999
100
AcDbArc
 50
179.9999640000016
 51
270.0000009999949
  0
ARC
  5
76
330
2
100
AcDbEntity
  8
GAIKEI
  6
Continuous
100
AcDbCircle
 10
-54.65176152357634
 20
16.27908218442411
 30
0.0
 40
2.239999399999999
100
AcDbArc
 50
89.9999820000008
 51
179.9999640000016
  0
ARC
  5
77
330
2
100
AcDbEntity
  8
GAIKEI
  6
Continuous
100
AcDbCircle
 10
-9.331766323576346
 20
16.27908218442411
 30
0.0
 40
2.239999399999999
100
AcDbArc
 50
0.0
 51
89.9999820000008
  0
LINE
  5
78
330
2
100
AcDbEntity
  8
GAIKEI
  6
Continuous
100
AcDbLine
 10
-56.89177612357633
 20
5.259082484424141
 30
0.0
 11
-56.89177612357633
 21
16.27908218442411
 31
0.0
  0
LINE
  5
79
330
2
100
AcDbEntity
  8
GAIKEI
  6
Continuous
100
AcDbLine
 10
-7.13848022357638
 20
4.819081584424111
 30
0.0
 11
-7.135404023576313
 21
4.819081584424111
 31
0.0
  0
LINE
  5
7A
330
2
100
AcDbEntity
  8
GAIKEI
  6
Continuous
100
AcDbLine
 10
-56.84812382357631
 20
4.819081584424111
 30
0.0
 11
-56.84504762357637
 21
4.819081584424111
 31
0.0
  0
LINE
  5
7B
330
2
100
AcDbEntity
  8
GAIKEI
  6
Continuous
100
AcDbLine
 10
-50.75156612357637
 20
18.51908308442415
 30
0.0
 11
-54.65176152357634
 21
18.51908308442415
 31
0.0
  0
LINE
  5
7C
330
2
100
AcDbEntity
  8
GAIKEI
  6
Continuous
100
AcDbLine
 10
-50.75156612357637
 20
18.51908308442415
 30
0.0
 11
-50.73137572357632
 21
18.51908308442415
 31
0.0
  0
LINE
  5
7D
330
2
100
AcDbEntity
  8
GAIKEI
  6
Continuous
100
AcDbLine
 10
-50.25286012357634
 20
18.51908308442415
 30
0.0
 11
-50.23198612357635
 21
18.51908308442415
 31
0.0
  0
LINE
  5
7E
330
2
100
AcDbEntity
  8
GAIKEI
  6
Continuous
100
AcDbLine
 10
-50.23198612357635
 20
18.51908308442415
 30
0.0
 11
-48.25156612357637
 21
18.51908308442415
 31
0.0
  0
LINE
  5
7F
330
2
100
AcDbEntity
  8
GAIKEI
  6
Continuous
100
AcDbLine
 10
-48.25156612357637
 20
18.51908308442415
 30
0.0
 11
-48.23137572357632
 21
18.51908308442415
 31
0.0
  0
LINE
  5
80
330
2
100
AcDbEntity
  8
GAIKEI
  6
Continuous
100
AcDbLine
 10
-47.75286012357634
 20
18.51908308442415
 30
0.0
 11
-47.73198612357634
 21
18.51908308442415
 31
0.0
  0
LINE
  5
81
330
2
100
AcDbEntity
  8
GAIKEI
  6
Continuous
100
AcDbLine
 10
-47.73198612357634
 20
18.51908308442415
 30
0.0
 11
-45.75156612357637
 21
18.51908308442415
 31
0.0
  0
LINE
  5
82
330
2
100
AcDbEntity
  8
GAIKEI
  6
Continuous
100
AcDbLine
 10
-45.75156612357637
 20
18.51908308442415
 30
0.0
 11
-45.73137572357632
 21
18.51908308442415
 31
0.0
  0
LINE
  5
83
330
2
100
AcDbEntity
  8
GAIKEI
  6
Continuous
100
AcDbLine
 10
-45.25286012357634
 20
18.51908308442415
 30
0.0
 11
-45.23198612357634
 21
18.51908308442415
 31
0.0
  0
LINE
  5
84
330
2
100
AcDbEntity
  8
GAIKEI
  6
Continuous
100
AcDbLine
 10
-45.23198612357634
 20
18.51908308442415
 30
0.0
 11
-43.25156612357637
 21
18.51908308442415
 31
0.0
  0
LINE
  5
85
330
2
100
AcDbEntity
  8
GAIKEI
  6
Continuous
100
AcDbLine
 10
-43.25156612357637
 20
18.51908308442415
 30
0.0
 11
-43.23137572357632
 21
18.51908308442415
 31
0.0
  0
LINE
  5
86
330
2
100
AcDbEntity
  8
GAIKEI
  6
Continuous
100
AcDbLine
 10
-42.75286012357634
 20
18.51908308442415
 30
0.0
 11
-42.73198612357634
 21
18.51908308442415
 31
0.0
  0
LINE
  5
87
330
2
100
AcDbEntity
  8
GAIKEI
  6
Continuous
100
AcDbLine
 10
-42.73198612357634
 20
18.51908308442415
 30
0.0
 11
-9.331766323576346
 21
18.51908308442415
 31
0.0
  0
LINE
  5
88
330
2
100
AcDbEntity
  8
GAIKEI
  6
Continuous
100
AcDbLine
 10
-7.091776123576323
 20
16.27908218442411
 30
0.0
 11
-7.091776123576323
 21
5.259082484424141
 31
0.0
  0
SPLINE
  5
89
330
2
100
AcDbEntity
  8
GAIKEI
  6
Continuous
100
AcDbSpline
210
0.0
220
0.0
230
1.0
 70
     8
 71
     3
 72
     9
 73
     5
 74
     3
 42
0.0000000001
 43
0.0000000001
 44
0.000001
 12
0.0000000000000001
 22
-1.0
 32
0.0
 13
0.6460860784719182
 23
0.7632645538768185
 33
0.0
 40
0.0
 40
0.0
 40
0.0
 40
0.0
 40
0.0000038155187129
 40
0.0000046658859247
 40
0.0000046658859247
 40
0.0000046658859247
 40
0.0000046658859247
 10
-56.88769897513878
 20
16.41427353999052
 30
0.0
 10
-56.88769897513878
 20
16.41427226815094
 30
0.0
 10
-56.88769971851627
 20
16.41427168831259
 30
0.0
 10
-56.88769915827561
 20
16.41426874600208
 30
0.0
 10
-56.88769897513878
 20
16.41426896235379
 30
0.0
 11
-56.88769897513878
 21
16.41427353999052
 31
0.0
 11
-56.88769897513878
 21
16.41427067896757
 31
0.0
 11
-56.88769897513878
 21
16.41426896235379
 31
0.0
  0
LINE
  5
8A
330
2
100
AcDbEntity
  8
GAIKEI
  6
Continuous
100
AcDbLine
 10
-43.23225462357629
 20
18.46903728442413
 30
0.0
 11
-43.24892942357632
 21
18.46903728442413
 31
0.0
  0
LINE
  5
8B
330
2
100
AcDbEntity
  8
GAIKEI
  6
Continuous
100
AcDbLine
 10
-50.2345984235763
 20
18.46903728442413
 30
0.0
 11
-50.25198122357636
 21
18.46903728442413
 31
0.0
  0
LINE
  5
8C
330
2
100
AcDbEntity
  8
GAIKEI
  6
Continuous
 62
     1
100
AcDbLine
 10
-53.2322546235763
 20
18.46903728442413
 30
0.0
 11
-53.24892942357632
 21
18.46903728442413
 31
0.0
  0
CIRCLE
  5
8D
330
2
100
AcDbEntity
  8
GAIKEI
  6
Continuous
 62
     1
100
AcDbCircle
 10
-31.9917761235763
 20
10.7690815844241
 30
0.0
 40
7.301745600000002
  0
LINE
  5
8E
330
2
100
AcDbEntity
  8
GAIKEI
  6
Continuous
 62
     1
100
AcDbLine
 10
-35.67914422357637
 20
7.977039284424108
 30
0.0
 11
-35.67826832357634
 21
7.977702484424128
 31
0.0
  0
LINE
  5
8F
330
2
100
AcDbEntity
  8
GAIKEI
  6
Continuous
 62
     1
100
AcDbLine
 10
-28.66192462357634
 20
13.28651398442412
 30
0.0
 11
-28.66260622357629
 21
13.2859986844241
 31
0.0
  0
CIRCLE
  5
90
330
2
100
AcDbEntity
  8
GAIKEI
  6
Continuous
 62
     1
100
AcDbCircle
 10
-41.54177612357631
 20
14.40908248442412
 30
0.0
 40
1.2024445
  0
LINE
  5
91
330
2
100
AcDbEntity
  8
GAIKEI
  6
Continuous
 62
     1
100
AcDbLine
 10
-9.331766323576346
 20
18.31908308442411
 30
0.0
 11
-9.331766323576346
 21
18.51908308442415
 31
0.0
  0
ARC
  5
92
330
2
100
AcDbEntity
  8
GAIKEI
  6
Continuous
 62
     1
100
AcDbCircle
 10
-9.331766323576346
 20
16.27908218442411
 30
0.0
 40
2.0399994
100
AcDbArc
 50
0.0
 51
89.9999820000008
  0
LINE
  5
93
330
2
100
AcDbEntity
  8
GAIKEI
  6
Continuous
 62
     1
100
AcDbLine
 10
-7.291776123576369
 20
16.27908218442411
 30
0.0
 11
-7.091776123576323
 21
16.27908218442411
 31
0.0
  0
LINE
  5
94
330
2
100
AcDbEntity
  8
GAIKEI
  6
Continuous
 62
     1
100
AcDbLine
 10
-7.291776123576369
 20
5.259082484424141
 30
0.0
 11
-7.291776123576369
 21
16.27908218442411
 31
0.0
  0
LINE
  5
95
330
2
100
AcDbEntity
  8
GAIKEI
  6
Continuous
 62
     1
100
AcDbLine
 10
-7.291776123576369
 20
5.259082484424141
 30
0.0
 11
-7.091776123576323
 21
5.259082484424141
 31
0.0
  0
ARC
  5
96
330
2
100
AcDbEntity
  8
GAIKEI
  6
Continuous
 62
     1
100
AcDbCircle
 10
-9.331766323576346
 20
5.259082484424141
 30
0.0
 40
2.0399994
100
AcDbArc
 50
270.0000009999949
 51
359.999982999999
  0
LINE
  5
97
330
2
100
AcDbEntity
  8
GAIKEI
  6
Continuous
 62
     1
100
AcDbLine
 10
-9.331766423576311
 20
3.219082284424132
 30
0.0
 11
-9.331766423576311
 21
3.019082284424086
 31
0.0
  0
LINE
  5
98
330
2
100
AcDbEntity
  8
GAIKEI
  6
Continuous
 62
     1
100
AcDbLine
 10
-54.65176152357634
 20
3.219081584424088
 30
0.0
 11
-9.331766323576346
 21
3.219081584424088
 31
0.0
  0
LINE
  5
99
330
2
100
AcDbEntity
  8
GAIKEI
  6
Continuous
 62
     1
100
AcDbLine
 10
-54.65176152357634
 20
3.219081584424088
 30
0.0
 11
-54.65176152357634
 21
3.0190815844241
 31
0.0
  0
ARC
  5
9A
330
2
100
AcDbEntity
  8
GAIKEI
  6
Continuous
 62
     1
100
AcDbCircle
 10
-54.65176152357634
 20
5.259082484424141
 30
0.0
 40
2.0399994
100
AcDbArc
 50
179.9999640000016
 51
270.0000009999949
  0
LINE
  5
9B
330
2
100
AcDbEntity
  8
GAIKEI
  6
Continuous
 62
     1
100
AcDbLine
 10
-56.69177612357635
 20
5.259082484424141
 30
0.0
 11
-56.89177612357633
 21
5.259082484424141
 31
0.0
  0
LINE
  5
9C
330
2
100
AcDbEntity
  8
GAIKEI
  6
Continuous
 62
     1
100
AcDbLine
 10
-56.69177612357635
 20
16.27908218442411
 30
0.0
 11
-56.69177612357635
 21
5.259082484424141
 31
0.0
  0
LINE
  5
9D
330
2
100
AcDbEntity
  8
GAIKEI
  6
Continuous
 62
     1
100
AcDbLine
 10
-56.69177612357635
 20
16.27908218442411
 30
0.0
 11
-56.89177612357633
 21
16.27908218442411
 31
0.0
  0
ARC
  5
9E
330
2
100
AcDbEntity
  8
GAIKEI
  6
Continuous
 62
     1
100
AcDbCircle
 10
-54.65176152357634
 20
16.27908218442411
 30
0.0
 40
2.0399994
100
AcDbArc
 50
89.9999820000008
 51
179.9999640000016
  0
LINE
  5
9F
330
2
100
AcDbEntity
  8
GAIKEI
  6
Continuous
 62
     1
100
AcDbLine
 10
-54.65176152357634
 20
18.51908308442415
 30
0.0
 11
-54.65176152357634
 21
18.31908308442411
 31
0.0
  0
LINE
  5
A0
330
2
100
AcDbEntity
  8
GAIKEI
  6
Continuous
 62
     1
100
AcDbLine
 10
-53.24106812357633
 20
18.31908308442411
 30
0.0
 11
-54.65176152357634
 21
18.31908308442411
 31
0.0
  0
LINE
  5
A1
330
2
100
AcDbEntity
  8
GAIKEI
  6
Continuous
 62
     1
100
AcDbLine
 10
-9.331766323576346
 20
18.31908308442411
 30
0.0
 11
-42.74245972357635
 21
18.31908308442411
 31
0.0
  0
LINE
  5
A2
330
2
100
AcDbEntity
  8
GAIKEI
  6
Continuous
 62
     1
100
AcDbLine
 10
-43.24106812357633
 20
18.31908308442411
 30
0.0
 11
-45.24245972357635
 21
18.31908308442411
 31
0.0
  0
LINE
  5
A3
330
2
100
AcDbEntity
  8
GAIKEI
  6
Continuous
 62
     1
100
AcDbLine
 10
-45.74106812357633
 20
18.31908308442411
 30
0.0
 11
-47.74245972357635
 21
18.31908308442411
 31
0.0
  0
LINE
  5
A4
330
2
100
AcDbEntity
  8
GAIKEI
  6
Continuous
 62
     1
100
AcDbLine
 10
-48.24106812357633
 20
18.31908308442411
 30
0.0
 11
-50.24245972357636
 21
18.31908308442411
 31
0.0
  0
LINE
  5
A5
330
2
100
AcDbEntity
  8
GAIKEI
  6
Continuous
 62
     1
100
AcDbLine
 10
-50.74106812357633
 20
18.31908308442411
 30
0.0
 11
-52.74245972357636
 21
18.31908308442411
 31
0.0
  0
ARC
  5
A6
330
2
100
AcDbEntity
  8
GAIKEI
  6
Continuous
 62
     1
100
AcDbCircle
 10
-36.11387082357635
 20
12.79687238442415
 30
0.0
 40
0.0711757
100
AcDbArc
 50
126.2566480000056
 51
179.9999640000016
  0
LINE
  5
A7
330
2
100
AcDbEntity
  8
GAIKEI
  6
Continuous
 62
     1
100
AcDbLine
 10
-27.2417761235763
 20
10.5656956844241
 30
0.0
 11
-26.57058472357636
 21
10.5656956844241
 31
0.0
  0
LINE
  5
A8
330
2
100
AcDbEntity
  8
GAIKEI
  6
Continuous
 62
     1
100
AcDbLine
 10
-43.18210812357631
 20
17.57907608442411
 30
0.0
 11
-42.80212772357629
 21
17.57907608442411
 31
0.0
  0
LINE
  5
A9
330
2
100
AcDbEntity
  8
GAIKEI
  6
Continuous
 62
     1
100
AcDbLine
 10
-53.18210812357631
 20
17.57907608442411
 30
0.0
 11
-52.80212772357635
 21
17.57907608442411
 31
0.0
  0
LINE
  5
AA
330
2
100
AcDbEntity
  8
GAIKEI
  6
Continuous
 62
     1
100
AcDbLine
 10
-48.18210812357631
 20
17.57907608442411
 30
0.0
 11
-47.80212772357629
 21
17.57907608442411
 31
0.0
  0
LINE
  5
AB
330
2
100
AcDbEntity
  8
GAIKEI
  6
Continuous
 62
     1
100
AcDbLine
 10
-50.68210812357631
 20
17.57907608442411
 30
0.0
 11
-50.30212772357629
 21
17.57907608442411
 31
0.0
  0
LINE
  5
AC
330
2
100
AcDbEntity
  8
GAIKEI
  6
Continuous
 62
     1
100
AcDbLine
 10
-45.68210812357631
 20
17.57907608442411
 30
0.0
 11
-45.30212772357629
 21
17.57907608442411
 31
0.0
  0
LINE
  5
AD
330
2
100
AcDbEntity
  8
GAIKEI
  6
Continuous
 62
     1
100
AcDbLine
 10
-42.80212772357629
 20
17.57907608442411
 30
0.0
 11
-42.78125362357633
 21
17.57907608442411
 31
0.0
  0
LINE
  5
AE
330
2
100
AcDbEntity
  8
GAIKEI
  6
Continuous
 62
     1
100
AcDbLine
 10
-53.20229862357632
 20
17.57907608442411
 30
0.0
 11
-53.18210812357631
 21
17.57907608442411
 31
0.0
  0
LINE
  5
AF
330
2
100
AcDbEntity
  8
GAIKEI
  6
Continuous
100
AcDbLine
 10
-45.73137572357632
 20
18.51907698442409
 30
0.0
 11
-45.25286012357634
 21
18.51907698442409
 31
0.0
  0
LINE
  5
B0
330
2
100
AcDbEntity
  8
GAIKEI
  6
Continuous
100
AcDbLine
 10
-43.23137572357632
 20
18.51907698442409
 30
0.0
 11
-42.75286012357634
 21
18.51907698442409
 31
0.0
  0
LINE
  5
B1
330
2
100
AcDbEntity
  8
GAIKEI
  6
Continuous
100
AcDbLine
 10
-48.23137572357632
 20
18.51907698442409
 30
0.0
 11
-47.75286012357634
 21
18.51907698442409
 31
0.0
  0
LINE
  5
B2
330
2
100
AcDbEntity
  8
GAIKEI
  6
Continuous
100
AcDbLine
 10
-50.73137572357632
 20
18.51907698442409
 30
0.0
 11
-50.25286012357634
 21
18.51907698442409
 31
0.0
  0
LINE
  5
B3
330
2
100
AcDbEntity
  8
GAIKEI
  6
Continuous
 62
     1
100
AcDbLine
 10
-53.23641342357632
 20
18.23027598442411
 30
0.0
 11
-53.23137232357635
 21
18.5190762844241
 31
0.0
  0
LINE
  5
B4
330
2
100
AcDbEntity
  8
GAIKEI
  6
Continuous
 62
     1
100
AcDbLine
 10
-52.7528526235763
 20
18.5190767844241
 30
0.0
 11
-52.74763802357631
 21
18.22033228442416
 31
0.0
  0
LINE
  5
B5
330
2
100
AcDbEntity
  8
GAIKEI
  6
Continuous
 62
     1
100
AcDbLine
 10
-48.23643302357635
 20
18.23027628442412
 30
0.0
 11
-48.23139202357629
 21
18.51907658442411
 31
0.0
  0
LINE
  5
B6
330
2
100
AcDbEntity
  8
GAIKEI
  6
Continuous
 62
     1
100
AcDbLine
 10
-47.75284792357632
 20
18.51907688442412
 30
0.0
 11
-47.74763332357633
 21
18.22033238442412
 31
0.0
  0
LINE
  5
B7
330
2
100
AcDbEntity
  8
GAIKEI
  6
Continuous
 62
     1
100
AcDbLine
 10
-50.73642322357631
 20
18.2302761844241
 30
0.0
 11
-50.73138222357631
 21
18.51907648442415
 31
0.0
  0
LINE
  5
B8
330
2
100
AcDbEntity
  8
GAIKEI
  6
Continuous
 62
     1
100
AcDbLine
 10
-50.25286252357637
 20
18.51907658442411
 30
0.0
 11
-50.24764792357633
 21
18.22033208442411
 31
0.0
  0
LINE
  5
B9
330
2
100
AcDbEntity
  8
GAIKEI
  6
Continuous
 62
     1
100
AcDbLine
 10
-43.23642832357632
 20
18.2302761844241
 30
0.0
 11
-43.23138722357635
 21
18.51907648442415
 31
0.0
  0
LINE
  5
BA
330
2
100
AcDbEntity
  8
GAIKEI
  6
Continuous
 62
     1
100
AcDbLine
 10
-42.75284312357633
 20
18.51907698442409
 30
0.0
 11
-42.74762852357634
 21
18.22033258442411
 31
0.0
  0
LINE
  5
BB
330
2
100
AcDbEntity
  8
GAIKEI
  6
Continuous
 62
     1
100
AcDbLine
 10
-45.73641842357637
 20
18.23027598442411
 30
0.0
 11
-45.7313774235763
 21
18.5190762844241
 31
0.0
  0
LINE
  5
BC
330
2
100
AcDbEntity
  8
GAIKEI
  6
Continuous
 62
     1
100
AcDbLine
 10
-45.25285772357631
 20
18.51907668442408
 30
0.0
 11
-45.24764312357632
 21
18.22033228442416
 31
0.0
  0
LINE
  5
BD
330
2
100
AcDbEntity
  8
GAIKEI
  6
Continuous
 62
     1
100
AcDbLine
 10
-50.7209046235763
 20
18.31907488442408
 30
0.0
 11
-50.68212282357638
 21
17.57907488442407
 31
0.0
  0
LINE
  5
BE
330
2
100
AcDbEntity
  8
GAIKEI
  6
Continuous
 62
     1
100
AcDbLine
 10
-50.72090512357636
 20
18.3190749844241
 30
0.0
 11
-50.73138672357629
 21
18.51907518442414
 31
0.0
  0
LINE
  5
BF
330
2
100
AcDbEntity
  8
GAIKEI
  6
Continuous
 62
     1
100
AcDbLine
 10
-50.2528435235763
 20
18.51907548442415
 30
0.0
 11
-50.26332512357635
 21
18.31907538442414
 31
0.0
  0
LINE
  5
C0
330
2
100
AcDbEntity
  8
GAIKEI
  6
Continuous
 62
     1
100
AcDbLine
 10
-50.30210772357634
 20
17.57907528442411
 30
0.0
 11
-50.26332602357633
 21
18.31907538442414
 31
0.0
  0
LINE
  5
C1
330
2
100
AcDbEntity
  8
GAIKEI
  6
Continuous
 62
     1
100
AcDbLine
 10
-48.22089652357636
 20
18.31907568442415
 30
0.0
 11
-48.18211472357631
 21
17.57907568442414
 31
0.0
  0
LINE
  5
C2
330
2
100
AcDbEntity
  8
GAIKEI
  6
Continuous
 62
     1
100
AcDbLine
 10
-48.22089702357629
 20
18.31907588442408
 30
0.0
 11
-48.23137862357635
 21
18.51907608442411
 31
0.0
  0
LINE
  5
C3
330
2
100
AcDbEntity
  8
GAIKEI
  6
Continuous
 62
     1
100
AcDbLine
 10
-47.75285982357632
 20
18.51907588442412
 30
0.0
 11
-47.76334132357635
 21
18.31907728442411
 31
0.0
  0
LINE
  5
C4
330
2
100
AcDbEntity
  8
GAIKEI
  6
Continuous
 62
     1
100
AcDbLine
 10
-47.80212392357634
 20
17.5790772844241
 30
0.0
 11
-47.76334222357633
 21
18.31907738442413
 31
0.0
  0
LINE
  5
C5
330
2
100
AcDbEntity
  8
GAIKEI
  6
Continuous
 62
     1
100
AcDbLine
 10
-52.75285172357633
 20
18.51907638442412
 30
0.0
 11
-52.76333322357629
 21
18.31907618442409
 31
0.0
  0
LINE
  5
C6
330
2
100
AcDbEntity
  8
GAIKEI
  6
Continuous
 62
     1
100
AcDbLine
 10
-52.80211582357634
 20
17.57907608442411
 30
0.0
 11
-52.76333412357633
 21
18.31907618442409
 31
0.0
  0
LINE
  5
C7
330
2
100
AcDbEntity
  8
GAIKEI
  6
Continuous
 62
     1
100
AcDbLine
 10
-43.2209046235763
 20
18.31907448442411
 30
0.0
 11
-43.18212292357634
 21
17.57907588442407
 31
0.0
  0
LINE
  5
C8
330
2
100
AcDbEntity
  8
GAIKEI
  6
Continuous
 62
     1
100
AcDbLine
 10
-43.22090512357635
 20
18.31907488442408
 30
0.0
 11
-43.23138672357629
 21
18.51907498442409
 31
0.0
  0
LINE
  5
C9
330
2
100
AcDbEntity
  8
GAIKEI
  6
Continuous
 62
     1
100
AcDbLine
 10
-45.72088842357629
 20
18.3190764844241
 30
0.0
 11
-45.68210662357631
 21
17.57907638442413
 31
0.0
  0
LINE
  5
CA
330
2
100
AcDbEntity
  8
GAIKEI
  6
Continuous
 62
     1
100
AcDbLine
 10
-45.72088892357635
 20
18.31907678442411
 30
0.0
 11
-45.73137042357632
 21
18.51907538442407
 31
0.0
  0
LINE
  5
CB
330
2
100
AcDbEntity
  8
GAIKEI
  6
Continuous
 62
     1
100
AcDbLine
 10
-45.2528516235763
 20
18.51907658442411
 30
0.0
 11
-45.26333322357629
 21
18.31907638442413
 31
0.0
  0
LINE
  5
CC
330
2
100
AcDbEntity
  8
GAIKEI
  6
Continuous
 62
     1
100
AcDbLine
 10
-45.30211582357634
 20
17.57907658442411
 30
0.0
 11
-45.26333412357632
 21
18.31907658442412
 31
0.0
  0
LINE
  5
CD
330
2
100
AcDbEntity
  8
GAIKEI
  6
Continuous
 62
     1
100
AcDbLine
 10
-53.22088832357633
 20
18.31907538442414
 30
0.0
 11
-53.18210652357629
 21
17.57907538442413
 31
0.0
  0
LINE
  5
CE
330
2
100
AcDbEntity
  8
GAIKEI
  6
Continuous
 62
     1
100
AcDbLine
 10
-53.22090722357632
 20
18.31907558442407
 30
0.0
 11
-53.2313887235764
 21
18.51907578442416
 31
0.0
  0
LINE
  5
CF
330
2
100
AcDbEntity
  8
GAIKEI
  6
Continuous
 62
     1
100
AcDbLine
 10
-53.18210712357632
 20
17.57907598442415
 30
0.0
 11
-53.18175812357634
 21
17.56908298442414
 31
0.0
  0
LINE
  5
D0
330
2
100
AcDbEntity
  8
GAIKEI
  6
Continuous
 62
     1
100
AcDbLine
 10
-42.7528435235763
 20
18.51907568442413
 30
0.0
 11
-42.76332512357635
 21
18.3190754844241
 31
0.0
  0
LINE
  5
D1
330
2
100
AcDbEntity
  8
GAIKEI
  6
Continuous
 62
     1
100
AcDbLine
 10
-42.80210772357634
 20
17.5790757844241
 30
0.0
 11
-42.76332602357633
 21
18.31907588442408
 31
0.0
  0
LINE
  5
D2
330
2
100
AcDbEntity
  8
GAIKEI
  6
Continuous
 62
     1
100
AcDbLine
 10
-42.80247802357632
 20
17.56908318442407
 30
0.0
 11
-42.80212892357633
 21
17.5790777844241
 31
0.0
  0
LINE
  5
D3
330
2
100
AcDbEntity
  8
GAIKEI
  6
Continuous
 62
     1
100
AcDbLine
 10
-52.78125362357633
 20
17.57907608442411
 30
0.0
 11
-52.80212772357635
 21
17.57907608442411
 31
0.0
  0
LINE
  5
D4
330
2
100
AcDbEntity
  8
GAIKEI
  6
Continuous
 62
     1
100
AcDbLine
 10
-47.78125362357633
 20
17.57907608442411
 30
0.0
 11
-47.80212772357629
 21
17.57907608442411
 31
0.0
  0
LINE
  5
D5
330
2
100
AcDbEntity
  8
GAIKEI
  6
Continuous
 62
     1
100
AcDbLine
 10
-48.18210812357631
 20
17.57907608442411
 30
0.0
 11
-48.20229862357632
 21
17.57907608442411
 31
0.0
  0
LINE
  5
D6
330
2
100
AcDbEntity
  8
GAIKEI
  6
Continuous
 62
     1
100
AcDbLine
 10
-50.28125362357633
 20
17.57907608442411
 30
0.0
 11
-50.30212772357629
 21
17.57907608442411
 31
0.0
  0
LINE
  5
D7
330
2
100
AcDbEntity
  8
GAIKEI
  6
Continuous
 62
     1
100
AcDbLine
 10
-50.68210812357631
 20
17.57907608442411
 30
0.0
 11
-50.70229862357632
 21
17.57907608442411
 31
0.0
  0
LINE
  5
D8
330
2
100
AcDbEntity
  8
GAIKEI
  6
Continuous
 62
     1
100
AcDbLine
 10
-43.18210812357631
 20
17.57907608442411
 30
0.0
 11
-43.20229862357632
 21
17.57907608442411
 31
0.0
  0
LINE
  5
D9
330
2
100
AcDbEntity
  8
GAIKEI
  6
Continuous
 62
     1
100
AcDbLine
 10
-45.28125362357633
 20
17.57907608442411
 30
0.0
 11
-45.30212772357629
 21
17.57907608442411
 31
0.0
  0
LINE
  5
DA
330
2
100
AcDbEntity
  8
GAIKEI
  6
Continuous
 62
     1
100
AcDbLine
 10
-45.68210812357631
 20
17.57907608442411
 30
0.0
 11
-45.70229862357632
 21
17.57907608442411
 31
0.0
  0
LINE
  5
DB
330
2
100
AcDbEntity
  8
GAIKEI
  6
Continuous
 62
     1
100
AcDbLine
 10
-45.26333372357635
 20
18.3190769844241
 30
0.0
 11
-45.72090212357636
 21
18.3190769844241
 31
0.0
  0
LINE
  5
DC
330
2
100
AcDbEntity
  8
GAIKEI
  6
Continuous
 62
     1
100
AcDbLine
 10
-42.76333372357635
 20
18.3190769844241
 30
0.0
 11
-43.22090212357636
 21
18.3190769844241
 31
0.0
  0
LINE
  5
DD
330
2
100
AcDbEntity
  8
GAIKEI
  6
Continuous
 62
     1
100
AcDbLine
 10
-52.76333372357635
 20
18.3190769844241
 30
0.0
 11
-53.22090212357636
 21
18.3190769844241
 31
0.0
  0
LINE
  5
DE
330
2
100
AcDbEntity
  8
GAIKEI
  6
Continuous
 62
     1
100
AcDbLine
 10
-47.76333372357635
 20
18.3190769844241
 30
0.0
 11
-48.22090212357636
 21
18.3190769844241
 31
0.0
  0
LINE
  5
DF
330
2
100
AcDbEntity
  8
GAIKEI
  6
Continuous
 62
     1
100
AcDbLine
 10
-50.26333372357635
 20
18.3190769844241
 30
0.0
 11
-50.72090212357636
 21
18.3190769844241
 31
0.0
  0
ARC
  5
E0
330
2
100
AcDbEntity
  8
GAIKEI
  6
Continuous
 62
     1
100
AcDbCircle
 10
-31.9917761235763
 20
10.56908158442411
 30
0.0
 40
3.3512482
100
AcDbArc
 50
149.9999699999972
 51
329.9999889999929
  0
ARC
  5
E1
330
2
100
AcDbEntity
  8
GAIKEI
  6
Continuous
 62
     1
100
AcDbCircle
 10
-31.9917761235763
 20
10.56908158442411
 30
0.0
 40
3.3512482
100
AcDbArc
 50
329.9999989999973
 51
149.9999699999972
  0
ARC
  5
E2
330
2
100
AcDbEntity
  8
GAIKEI
  6
Continuous
 62
     1
100
AcDbCircle
 10
-31.9917761235763
 20
10.56908158442411
 30
0.0
 40
3.719999699999999
100
AcDbArc
 50
329.9999989999973
 51
149.9999699999972
  0
ARC
  5
E3
330
2
100
AcDbEntity
  8
GAIKEI
  6
Continuous
 62
     1
100
AcDbCircle
 10
-31.9917761235763
 20
10.56908158442411
 30
0.0
 40
3.719999699999999
100
AcDbArc
 50
149.9999699999972
 51
329.9999889999929
  0
ARC
  5
E4
330
2
100
AcDbEntity
  8
GAIKEI
  6
Continuous
 62
     1
100
AcDbCircle
 10
-31.9917761235763
 20
10.56908158442411
 30
0.0
 40
4.35
100
AcDbArc
 50
149.9999699999972
 51
329.9999889999929
  0
ARC
  5
E5
330
2
100
AcDbEntity
  8
GAIKEI
  6
Continuous
 62
     1
100
AcDbCircle
 10
-31.9917761235763
 20
10.56908158442411
 30
0.0
 40
4.35
100
AcDbArc
 50
329.9999989999973
 51
149.9999699999972
  0
ARC
  5
E6
330
2
100
AcDbEntity
  8
GAIKEI
  6
Continuous
 62
     1
100
AcDbCircle
 10
-31.9917761235763
 20
10.56908158442411
 30
0.0
 40
4.75
100
AcDbArc
 50
329.9999989999973
 51
149.9999699999972
  0
ARC
  5
E7
330
2
100
AcDbEntity
  8
GAIKEI
  6
Continuous
 62
     1
100
AcDbCircle
 10
-31.9917761235763
 20
10.56908158442411
 30
0.0
 40
4.75
100
AcDbArc
 50
149.9999699999972
 51
329.9999889999929
  0
ARC
  5
E8
330
2
100
AcDbEntity
  8
GAIKEI
  6
Continuous
 62
     1
100
AcDbCircle
 10
-31.9917761235763
 20
10.56908158442411
 30
0.0
 40
4.65
100
AcDbArc
 50
329.9999989999973
 51
149.9999699999972
  0
ARC
  5
E9
330
2
100
AcDbEntity
  8
GAIKEI
  6
Continuous
 62
     1
100
AcDbCircle
 10
-31.9917761235763
 20
10.56908158442411
 30
0.0
 40
4.65
100
AcDbArc
 50
149.9999699999972
 51
329.9999889999929
  0
ARC
  5
EA
330
2
100
AcDbEntity
  8
GAIKEI
  6
Continuous
 62
     1
100
AcDbCircle
 10
-31.9917761235763
 20
10.56908158442411
 30
0.0
 40
4.4
100
AcDbArc
 50
149.9999699999972
 51
329.9999889999929
  0
ARC
  5
EB
330
2
100
AcDbEntity
  8
GAIKEI
  6
Continuous
 62
     1
100
AcDbCircle
 10
-31.9917761235763
 20
10.56908158442411
 30
0.0
 40
4.4
100
AcDbArc
 50
329.9999989999973
 51
149.9999699999972
  0
LINE
  5
EC
330
2
100
AcDbEntity
  8
GAIKEI
  6
Continuous
 62
     1
100
AcDbLine
 10
-35.80228082357633
 20
12.76907218442415
 30
0.0
 11
-35.75897952357633
 21
12.74407218442411
 31
0.0
  0
LINE
  5
ED
330
2
100
AcDbEntity
  8
GAIKEI
  6
Continuous
 62
     1
100
AcDbLine
 10
-27.9647510235763
 20
8.244072184424112
 30
0.0
 11
-27.87814852357633
 21
8.194072184424101
 31
0.0
  0
LINE
  5
EE
330
2
100
AcDbEntity
  8
GAIKEI
  6
Continuous
 62
     1
100
AcDbLine
 10
-36.10538972357637
 20
12.9440721844241
 30
0.0
 11
-36.01878722357634
 21
12.89407218442415
 31
0.0
  0
LINE
  5
EF
330
2
100
AcDbEntity
  8
GAIKEI
  6
Continuous
100
AcDbLine
 10
-54.77231812357633
 20
2.919081584424077
 30
0.0
 11
-54.78689332357635
 21
2.919081584424077
 31
0.0
  0
LINE
  5
F0
330
2
100
AcDbEntity
  8
GAIKEI
  6
Continuous
100
AcDbLine
 10
-54.74416872357636
 20
2.919081584424077
 30
0.0
 11
-54.77231812357633
 21
2.919081584424077
 31
0.0
  0
LINE
  5
F1
330
2
100
AcDbEntity
  8
GAIKEI
  6
Continuous
100
AcDbLine
 10
-54.71426152357634
 20
2.919084684424092
 30
0.0
 11
-54.74416872357636
 21
2.919084684424092
 31
0.0
  0
LINE
  5
F2
330
2
100
AcDbEntity
  8
GAIKEI
  6
Continuous
100
AcDbLine
 10
-54.67119502357639
 20
2.919081584424077
 30
0.0
 11
-54.71426152357634
 21
2.919081584424077
 31
0.0
  0
LINE
  5
F3
330
2
100
AcDbEntity
  8
GAIKEI
  6
Continuous
100
AcDbLine
 10
-54.64206912357633
 20
2.919081584424077
 30
0.0
 11
-54.6711706235763
 21
2.919081584424077
 31
0.0
  0
LINE
  5
F4
330
2
100
AcDbEntity
  8
GAIKEI
  6
Continuous
100
AcDbLine
 10
-54.55762082357637
 20
2.919084684424092
 30
0.0
 11
-54.64206912357633
 21
2.919084684424092
 31
0.0
  0
LINE
  5
F5
330
2
100
AcDbEntity
  8
GAIKEI
  6
Continuous
100
AcDbLine
 10
-54.4879187235764
 20
2.919081584424077
 30
0.0
 11
-54.55762082357637
 21
2.919081584424077
 31
0.0
  0
LINE
  5
F6
330
2
100
AcDbEntity
  8
GAIKEI
  6
Continuous
100
AcDbLine
 10
-54.45911012357635
 20
2.919081584424077
 30
0.0
 11
-54.48789432357632
 21
2.919081584424077
 31
0.0
  0
LINE
  5
F7
330
2
100
AcDbEntity
  8
GAIKEI
  6
Continuous
100
AcDbLine
 10
-54.32380742357634
 20
2.919084684424092
 30
0.0
 11
-54.45911012357635
 21
2.919084684424092
 31
0.0
  0
LINE
  5
F8
330
2
100
AcDbEntity
  8
GAIKEI
  6
Continuous
100
AcDbLine
 10
-54.23052122357631
 20
2.919081584424077
 30
0.0
 11
-54.32380742357634
 21
2.919081584424077
 31
0.0
  0
LINE
  5
F9
330
2
100
AcDbEntity
  8
GAIKEI
  6
Continuous
100
AcDbLine
 10
-54.20327512357636
 20
2.919081584424077
 30
0.0
 11
-54.23049682357635
 21
2.919081584424077
 31
0.0
  0
LINE
  5
FA
330
2
100
AcDbEntity
  8
GAIKEI
  6
Continuous
100
AcDbLine
 10
-54.02302612357636
 20
2.919084684424092
 30
0.0
 11
-54.20329952357628
 21
2.919084684424092
 31
0.0
  0
LINE
  5
FB
330
2
100
AcDbEntity
  8
GAIKEI
  6
Continuous
100
AcDbLine
 10
-53.91023312357629
 20
2.919081584424077
 30
0.0
 11
-54.02302612357636
 21
2.919081584424077
 31
0.0
  0
LINE
  5
FC
330
2
100
AcDbEntity
  8
GAIKEI
  6
Continuous
100
AcDbLine
 10
-53.88577022357634
 20
2.919081584424077
 30
0.0
 11
-53.91023312357629
 21
2.919081584424077
 31
0.0
  0
LINE
  5
FD
330
2
100
AcDbEntity
  8
GAIKEI
  6
Continuous
100
AcDbLine
 10
-53.66842972357637
 20
2.919082284424064
 30
0.0
 11
-53.88576362357634
 21
2.919085684424089
 31
0.0
  0
LINE
  5
FE
330
2
100
AcDbEntity
  8
GAIKEI
  6
Continuous
100
AcDbLine
 10
-53.54106812357639
 20
2.919081584424077
 30
0.0
 11
-53.66843632357632
 21
2.919081584424077
 31
0.0
  0
LINE
  5
FF
330
2
100
AcDbEntity
  8
GAIKEI
  6
Continuous
100
AcDbLine
 10
-53.52041382357629
 20
2.919081584424077
 30
0.0
 11
-53.54104372357631
 21
2.919081584424077
 31
0.0
  0
LINE
  5
100
330
2
100
AcDbEntity
  8
GAIKEI
  6
Continuous
100
AcDbLine
 10
-53.28010622357635
 20
2.919081584424077
 30
0.0
 11
-53.52043822357632
 21
2.919081584424077
 31
0.0
  0
LINE
  5
101
330
2
100
AcDbEntity
  8
GAIKEI
  6
Continuous
100
AcDbLine
 10
-53.27551632357631
 20
2.919081584424077
 30
0.0
 11
-53.28010622357635
 21
2.919081584424077
 31
0.0
  0
LINE
  5
102
330
2
100
AcDbEntity
  8
GAIKEI
  6
Continuous
100
AcDbLine
 10
-53.13916382357632
 20
2.919081584424077
 30
0.0
 11
-53.27551632357631
 21
2.919081584424077
 31
0.0
  0
LINE
  5
103
330
2
100
AcDbEntity
  8
GAIKEI
  6
Continuous
100
AcDbLine
 10
-53.12327022357635
 20
2.919081584424077
 30
0.0
 11
-53.13916382357632
 21
2.919081584424077
 31
0.0
  0
LINE
  5
104
330
2
100
AcDbEntity
  8
GAIKEI
  6
Continuous
100
AcDbLine
 10
-52.87195192357632
 20
2.919081584424077
 30
0.0
 11
-53.12327022357635
 21
2.919081584424077
 31
0.0
  0
LINE
  5
105
330
2
100
AcDbEntity
  8
GAIKEI
  6
Continuous
100
AcDbLine
 10
-52.86147822357634
 20
2.919081584424077
 30
0.0
 11
-52.87195192357632
 21
2.919081584424077
 31
0.0
  0
LINE
  5
106
330
2
100
AcDbEntity
  8
GAIKEI
  6
Continuous
100
AcDbLine
 10
-52.72204952357629
 20
2.919081584424077
 30
0.0
 11
-52.86147822357634
 21
2.919081584424077
 31
0.0
  0
LINE
  5
107
330
2
100
AcDbEntity
  8
GAIKEI
  6
Continuous
100
AcDbLine
 10
-52.71160032357631
 20
2.919081584424077
 30
0.0
 11
-52.72204952357629
 21
2.919081584424077
 31
0.0
  0
LINE
  5
108
330
2
100
AcDbEntity
  8
GAIKEI
  6
Continuous
100
AcDbLine
 10
-52.46028202357632
 20
2.919081584424077
 30
0.0
 11
-52.71160032357631
 21
2.919081584424077
 31
0.0
  0
LINE
  5
109
330
2
100
AcDbEntity
  8
GAIKEI
  6
Continuous
100
AcDbLine
 10
-52.44438842357635
 20
2.919081584424077
 30
0.0
 11
-52.46028202357632
 21
2.919081584424077
 31
0.0
  0
LINE
  5
10A
330
2
100
AcDbEntity
  8
GAIKEI
  6
Continuous
100
AcDbLine
 10
-52.30801152357634
 20
2.919081584424077
 30
0.0
 11
-52.44438842357635
 21
2.919081584424077
 31
0.0
  0
LINE
  5
10B
330
2
100
AcDbEntity
  8
GAIKEI
  6
Continuous
100
AcDbLine
 10
-52.30342162357629
 20
2.919081584424077
 30
0.0
 11
-52.30801152357634
 21
2.919081584424077
 31
0.0
  0
LINE
  5
10C
330
2
100
AcDbEntity
  8
GAIKEI
  6
Continuous
100
AcDbLine
 10
-52.06308962357633
 20
2.919081584424077
 30
0.0
 11
-52.30344602357632
 21
2.919081584424077
 31
0.0
  0
LINE
  5
10D
330
2
100
AcDbEntity
  8
GAIKEI
  6
Continuous
100
AcDbLine
 10
-52.04245972357637
 20
2.919081584424077
 30
0.0
 11
-52.06308962357633
 21
2.919081584424077
 31
0.0
  0
LINE
  5
10E
330
2
100
AcDbEntity
  8
GAIKEI
  6
Continuous
100
AcDbLine
 10
-51.91511592357636
 20
2.919081584424077
 30
0.0
 11
-52.04248412357628
 21
2.919081584424077
 31
0.0
  0
LINE
  5
10F
330
2
100
AcDbEntity
  8
GAIKEI
  6
Continuous
100
AcDbLine
 10
-51.69778202357633
 20
2.919084684424092
 30
0.0
 11
-51.91509152357633
 21
2.919084684424092
 31
0.0
  0
LINE
  5
110
330
2
100
AcDbEntity
  8
GAIKEI
  6
Continuous
100
AcDbLine
 10
-51.67331912357633
 20
2.919081584424077
 30
0.0
 11
-51.69778202357633
 21
2.919081584424077
 31
0.0
  0
LINE
  5
111
330
2
100
AcDbEntity
  8
GAIKEI
  6
Continuous
100
AcDbLine
 10
-51.56052612357632
 20
2.919081584424077
 30
0.0
 11
-51.67331912357633
 21
2.919081584424077
 31
0.0
  0
LINE
  5
112
330
2
100
AcDbEntity
  8
GAIKEI
  6
Continuous
100
AcDbLine
 10
-51.3802462235763
 20
2.919085584424067
 30
0.0
 11
-51.56049522357631
 21
2.919082084424132
 31
0.0
  0
LINE
  5
113
330
2
100
AcDbEntity
  8
GAIKEI
  6
Continuous
100
AcDbLine
 10
-51.35300662357633
 20
2.919081584424077
 30
0.0
 11
-51.38025272357634
 21
2.919081584424077
 31
0.0
  0
LINE
  5
114
330
2
100
AcDbEntity
  8
GAIKEI
  6
Continuous
100
AcDbLine
 10
-51.25974492357631
 20
2.919081584424077
 30
0.0
 11
-51.35303102357631
 21
2.919081584424077
 31
0.0
  0
LINE
  5
115
330
2
100
AcDbEntity
  8
GAIKEI
  6
Continuous
100
AcDbLine
 10
-51.12440192357633
 20
2.919081884424088
 30
0.0
 11
-51.25972912357633
 21
2.919085284424113
 31
0.0
  0
LINE
  5
116
330
2
100
AcDbEntity
  8
GAIKEI
  6
Continuous
100
AcDbLine
 10
-51.09560912357631
 20
2.919081584424077
 30
0.0
 11
-51.12441772357636
 21
2.919081584424077
 31
0.0
  0
LINE
  5
117
330
2
100
AcDbEntity
  8
GAIKEI
  6
Continuous
100
AcDbLine
 10
-51.02590702357634
 20
2.919081584424077
 30
0.0
 11
-51.09563352357634
 21
2.919081584424077
 31
0.0
  0
LINE
  5
118
330
2
100
AcDbEntity
  8
GAIKEI
  6
Continuous
100
AcDbLine
 10
-50.94145872357632
 20
2.919084684424092
 30
0.0
 11
-51.02590702357634
 21
2.919084684424092
 31
0.0
  0
LINE
  5
119
330
2
100
AcDbEntity
  8
GAIKEI
  6
Continuous
100
AcDbLine
 10
-50.91233272357635
 20
2.919081584424077
 30
0.0
 11
-50.94145872357632
 21
2.919081584424077
 31
0.0
  0
LINE
  5
11A
330
2
100
AcDbEntity
  8
GAIKEI
  6
Continuous
100
AcDbLine
 10
-50.86926632357637
 20
2.919081584424077
 30
0.0
 11
-50.91235722357635
 21
2.919081584424077
 31
0.0
  0
LINE
  5
11B
330
2
100
AcDbEntity
  8
GAIKEI
  6
Continuous
100
AcDbLine
 10
-50.83938352357638
 20
2.919084684424092
 30
0.0
 11
-50.86926632357637
 21
2.919084684424092
 31
0.0
  0
LINE
  5
11C
330
2
100
AcDbEntity
  8
GAIKEI
  6
Continuous
100
AcDbLine
 10
-50.8112341235763
 20
2.919081584424077
 30
0.0
 11
-50.83938352357638
 21
2.919081584424077
 31
0.0
  0
LINE
  5
11D
330
2
100
AcDbEntity
  8
GAIKEI
  6
Continuous
100
AcDbLine
 10
-50.79665892357633
 20
2.919081584424077
 30
0.0
 11
-50.81120972357632
 21
2.919081584424077
 31
0.0
  0
LINE
  5
11E
330
2
100
AcDbEntity
  8
GAIKEI
  6
Continuous
 62
     1
100
AcDbLine
 10
-51.91511592357636
 20
2.919081584424077
 30
0.0
 11
-51.91511592357636
 21
1.319081584424111
 31
0.0
  0
LINE
  5
11F
330
2
100
AcDbEntity
  8
GAIKEI
  6
Continuous
100
AcDbLine
 10
-52.0236609235763
 20
1.01908188442411
 30
0.0
 11
-53.55989132357638
 21
1.01908188442411
 31
0.0
  0
LINE
  5
120
330
2
100
AcDbEntity
  8
GAIKEI
  6
Continuous
100
AcDbLine
 10
-50.81120972357632
 20
1.319081584424111
 30
0.0
 11
-50.79665892357633
 21
1.319081584424111
 31
0.0
  0
LINE
  5
121
330
2
100
AcDbEntity
  8
GAIKEI
  6
Continuous
100
AcDbLine
 10
-50.83938352357638
 20
1.319081584424111
 30
0.0
 11
-50.8112341235763
 21
1.319081584424111
 31
0.0
  0
LINE
  5
122
330
2
100
AcDbEntity
  8
GAIKEI
  6
Continuous
100
AcDbLine
 10
-50.86926632357637
 20
1.319080084424115
 30
0.0
 11
-50.83938352357638
 21
1.319080084424115
 31
0.0
  0
LINE
  5
123
330
2
100
AcDbEntity
  8
GAIKEI
  6
Continuous
100
AcDbLine
 10
-50.91235722357635
 20
1.319081584424111
 30
0.0
 11
-50.86926632357637
 21
1.319081584424111
 31
0.0
  0
LINE
  5
124
330
2
100
AcDbEntity
  8
GAIKEI
  6
Continuous
100
AcDbLine
 10
-50.94145872357632
 20
1.319081584424111
 30
0.0
 11
-50.91233272357635
 21
1.319081584424111
 31
0.0
  0
LINE
  5
125
330
2
100
AcDbEntity
  8
GAIKEI
  6
Continuous
100
AcDbLine
 10
-51.02590702357634
 20
1.319080084424115
 30
0.0
 11
-50.94145872357632
 21
1.319080084424115
 31
0.0
  0
LINE
  5
126
330
2
100
AcDbEntity
  8
GAIKEI
  6
Continuous
100
AcDbLine
 10
-51.09563352357634
 20
1.319081584424111
 30
0.0
 11
-51.02590702357634
 21
1.319081584424111
 31
0.0
  0
LINE
  5
127
330
2
100
AcDbEntity
  8
GAIKEI
  6
Continuous
100
AcDbLine
 10
-51.12441772357636
 20
1.319081584424111
 30
0.0
 11
-51.09560912357631
 21
1.319081584424111
 31
0.0
  0
LINE
  5
128
330
2
100
AcDbEntity
  8
GAIKEI
  6
Continuous
100
AcDbLine
 10
-51.25972042357637
 20
1.319080084424115
 30
0.0
 11
-51.12441772357636
 21
1.319080084424115
 31
0.0
  0
LINE
  5
129
330
2
100
AcDbEntity
  8
GAIKEI
  6
Continuous
100
AcDbLine
 10
-51.35303102357631
 20
1.319081584424111
 30
0.0
 11
-51.25974492357631
 21
1.319081584424111
 31
0.0
  0
LINE
  5
12A
330
2
100
AcDbEntity
  8
GAIKEI
  6
Continuous
100
AcDbLine
 10
-51.38025272357634
 20
1.319081584424111
 30
0.0
 11
-51.35300662357633
 21
1.319081584424111
 31
0.0
  0
LINE
  5
12B
330
2
100
AcDbEntity
  8
GAIKEI
  6
Continuous
100
AcDbLine
 10
-51.56050802357635
 20
1.319081784424099
 30
0.0
 11
-51.38023462357637
 21
1.319080084424115
 31
0.0
  0
LINE
  5
12C
330
2
100
AcDbEntity
  8
GAIKEI
  6
Continuous
100
AcDbLine
 10
-51.67331912357633
 20
1.319081584424111
 30
0.0
 11
-51.56052612357632
 21
1.319081584424111
 31
0.0
  0
LINE
  5
12D
330
2
100
AcDbEntity
  8
GAIKEI
  6
Continuous
100
AcDbLine
 10
-51.69778202357633
 20
1.319081584424111
 30
0.0
 11
-51.67331912357633
 21
1.319081584424111
 31
0.0
  0
LINE
  5
12E
330
2
100
AcDbEntity
  8
GAIKEI
  6
Continuous
100
AcDbLine
 10
-51.91509152357633
 20
1.319080084424115
 30
0.0
 11
-51.69778202357633
 21
1.319080084424115
 31
0.0
  0
LINE
  5
12F
330
2
100
AcDbEntity
  8
GAIKEI
  6
Continuous
100
AcDbLine
 10
-52.04248412357628
 20
1.319081584424111
 30
0.0
 11
-51.91511592357636
 21
1.319081584424111
 31
0.0
  0
LINE
  5
130
330
2
100
AcDbEntity
  8
GAIKEI
  6
Continuous
100
AcDbLine
 10
-52.06308962357633
 20
1.319081584424111
 30
0.0
 11
-52.04245972357637
 21
1.319081584424111
 31
0.0
  0
LINE
  5
131
330
2
100
AcDbEntity
  8
GAIKEI
  6
Continuous
100
AcDbLine
 10
-52.30344602357632
 20
1.319081584424111
 30
0.0
 11
-52.06308962357633
 21
1.319081584424111
 31
0.0
  0
LINE
  5
132
330
2
100
AcDbEntity
  8
GAIKEI
  6
Continuous
100
AcDbLine
 10
-52.30801152357634
 20
1.319081584424111
 30
0.0
 11
-52.30342162357629
 21
1.319081584424111
 31
0.0
  0
LINE
  5
133
330
2
100
AcDbEntity
  8
GAIKEI
  6
Continuous
100
AcDbLine
 10
-52.44438842357635
 20
1.319081584424111
 30
0.0
 11
-52.30801152357634
 21
1.319081584424111
 31
0.0
  0
LINE
  5
134
330
2
100
AcDbEntity
  8
GAIKEI
  6
Continuous
100
AcDbLine
 10
-52.46028202357632
 20
1.319081584424111
 30
0.0
 11
-52.44438842357635
 21
1.319081584424111
 31
0.0
  0
LINE
  5
135
330
2
100
AcDbEntity
  8
GAIKEI
  6
Continuous
100
AcDbLine
 10
-52.71160032357631
 20
1.319081584424111
 30
0.0
 11
-52.46028202357632
 21
1.319081584424111
 31
0.0
  0
LINE
  5
136
330
2
100
AcDbEntity
  8
GAIKEI
  6
Continuous
100
AcDbLine
 10
-52.72204952357629
 20
1.319081584424111
 30
0.0
 11
-52.71160032357631
 21
1.319081584424111
 31
0.0
  0
LINE
  5
137
330
2
100
AcDbEntity
  8
GAIKEI
  6
Continuous
100
AcDbLine
 10
-52.86147822357634
 20
1.319081584424111
 30
0.0
 11
-52.72204952357629
 21
1.319081584424111
 31
0.0
  0
LINE
  5
138
330
2
100
AcDbEntity
  8
GAIKEI
  6
Continuous
100
AcDbLine
 10
-52.87195192357632
 20
1.319081584424111
 30
0.0
 11
-52.86147822357634
 21
1.319081584424111
 31
0.0
  0
LINE
  5
139
330
2
100
AcDbEntity
  8
GAIKEI
  6
Continuous
100
AcDbLine
 10
-53.12327022357635
 20
1.319081584424111
 30
0.0
 11
-52.87195192357632
 21
1.319081584424111
 31
0.0
  0
LINE
  5
13A
330
2
100
AcDbEntity
  8
GAIKEI
  6
Continuous
100
AcDbLine
 10
-53.13916382357632
 20
1.319081584424111
 30
0.0
 11
-53.12327022357635
 21
1.319081584424111
 31
0.0
  0
LINE
  5
13B
330
2
100
AcDbEntity
  8
GAIKEI
  6
Continuous
100
AcDbLine
 10
-53.27551632357631
 20
1.319081584424111
 30
0.0
 11
-53.13916382357632
 21
1.319081584424111
 31
0.0
  0
LINE
  5
13C
330
2
100
AcDbEntity
  8
GAIKEI
  6
Continuous
100
AcDbLine
 10
-53.28010622357635
 20
1.319081584424111
 30
0.0
 11
-53.27551632357631
 21
1.319081584424111
 31
0.0
  0
LINE
  5
13D
330
2
100
AcDbEntity
  8
GAIKEI
  6
Continuous
100
AcDbLine
 10
-53.52043822357632
 20
1.319081584424111
 30
0.0
 11
-53.28010622357635
 21
1.319081584424111
 31
0.0
  0
LINE
  5
13E
330
2
100
AcDbEntity
  8
GAIKEI
  6
Continuous
100
AcDbLine
 10
-53.54104372357631
 20
1.319081584424111
 30
0.0
 11
-53.52041382357629
 21
1.319081584424111
 31
0.0
  0
LINE
  5
13F
330
2
100
AcDbEntity
  8
GAIKEI
  6
Continuous
100
AcDbLine
 10
-53.66843632357632
 20
1.319081584424111
 30
0.0
 11
-53.54106812357639
 21
1.319081584424111
 31
0.0
  0
LINE
  5
140
330
2
100
AcDbEntity
  8
GAIKEI
  6
Continuous
100
AcDbLine
 10
-53.88577022357634
 20
1.319080084424115
 30
0.0
 11
-53.66843632357632
 21
1.319080084424115
 31
0.0
  0
LINE
  5
141
330
2
100
AcDbEntity
  8
GAIKEI
  6
Continuous
100
AcDbLine
 10
-53.91023312357629
 20
1.319081584424111
 30
0.0
 11
-53.88577022357634
 21
1.319081584424111
 31
0.0
  0
LINE
  5
142
330
2
100
AcDbEntity
  8
GAIKEI
  6
Continuous
100
AcDbLine
 10
-54.02302612357636
 20
1.319081584424111
 30
0.0
 11
-53.91023312357629
 21
1.319081584424111
 31
0.0
  0
LINE
  5
143
330
2
100
AcDbEntity
  8
GAIKEI
  6
Continuous
100
AcDbLine
 10
-54.02300172357633
 20
1.319081584424111
 30
0.0
 11
-54.02302612357636
 21
1.319081584424111
 31
0.0
  0
LINE
  5
144
330
2
100
AcDbEntity
  8
GAIKEI
  6
Continuous
100
AcDbLine
 10
-54.20329952357628
 20
1.319080084424115
 30
0.0
 11
-54.02302612357636
 21
1.319080084424115
 31
0.0
  0
LINE
  5
145
330
2
100
AcDbEntity
  8
GAIKEI
  6
Continuous
100
AcDbLine
 10
-54.23049682357635
 20
1.319081584424111
 30
0.0
 11
-54.20327512357636
 21
1.319081584424111
 31
0.0
  0
LINE
  5
146
330
2
100
AcDbEntity
  8
GAIKEI
  6
Continuous
100
AcDbLine
 10
-54.32380742357634
 20
1.319081584424111
 30
0.0
 11
-54.23052122357631
 21
1.319081584424111
 31
0.0
  0
LINE
  5
147
330
2
100
AcDbEntity
  8
GAIKEI
  6
Continuous
100
AcDbLine
 10
-54.32378292357634
 20
1.319081584424111
 30
0.0
 11
-54.32380742357634
 21
1.319081584424111
 31
0.0
  0
LINE
  5
148
330
2
100
AcDbEntity
  8
GAIKEI
  6
Continuous
100
AcDbLine
 10
-54.45911012357635
 20
1.319080084424115
 30
0.0
 11
-54.32380742357634
 21
1.319080084424115
 31
0.0
  0
LINE
  5
149
330
2
100
AcDbEntity
  8
GAIKEI
  6
Continuous
100
AcDbLine
 10
-54.48789432357632
 20
1.319081584424111
 30
0.0
 11
-54.45911012357635
 21
1.319081584424111
 31
0.0
  0
LINE
  5
14A
330
2
100
AcDbEntity
  8
GAIKEI
  6
Continuous
100
AcDbLine
 10
-54.55762082357637
 20
1.319081584424111
 30
0.0
 11
-54.4879187235764
 21
1.319081584424111
 31
0.0
  0
LINE
  5
14B
330
2
100
AcDbEntity
  8
GAIKEI
  6
Continuous
100
AcDbLine
 10
-54.64206912357633
 20
1.319080084424115
 30
0.0
 11
-54.55762082357637
 21
1.319080084424115
 31
0.0
  0
LINE
  5
14C
330
2
100
AcDbEntity
  8
GAIKEI
  6
Continuous
100
AcDbLine
 10
-54.6711706235763
 20
1.319081584424111
 30
0.0
 11
-54.64206912357633
 21
1.319081584424111
 31
0.0
  0
LINE
  5
14D
330
2
100
AcDbEntity
  8
GAIKEI
  6
Continuous
100
AcDbLine
 10
-54.71426152357634
 20
1.319081584424111
 30
0.0
 11
-54.67119502357639
 21
1.319081584424111
 31
0.0
  0
LINE
  5
14E
330
2
100
AcDbEntity
  8
GAIKEI
  6
Continuous
100
AcDbLine
 10
-54.74415732357631
 20
1.319081184424078
 30
0.0
 11
-54.7142745235763
 21
1.319079384424128
 31
0.0
  0
LINE
  5
14F
330
2
100
AcDbEntity
  8
GAIKEI
  6
Continuous
100
AcDbLine
 10
-54.77231812357633
 20
1.319081584424111
 30
0.0
 11
-54.74416872357636
 21
1.319081584424111
 31
0.0
  0
LINE
  5
150
330
2
100
AcDbEntity
  8
GAIKEI
  6
Continuous
100
AcDbLine
 10
-54.78689332357635
 20
1.319081584424111
 30
0.0
 11
-54.77231812357633
 21
1.319081584424111
 31
0.0
  0
LINE
  5
151
330
2
100
AcDbEntity
  8
GAIKEI
  6
Continuous
100
AcDbLine
 10
-53.55989132357638
 20
3.0190815844241
 30
0.0
 11
-53.55989132357638
 21
2.919081584424077
 31
0.0
  0
LINE
  5
152
330
2
100
AcDbEntity
  8
GAIKEI
  6
Continuous
100
AcDbLine
 10
-52.0236609235763
 20
2.919081584424077
 30
0.0
 11
-52.0236609235763
 21
3.0190815844241
 31
0.0
  0
LINE
  5
153
330
2
100
AcDbEntity
  8
GAIKEI
  6
Continuous
100
AcDbLine
 10
-50.79665892357633
 20
2.919081584424077
 30
0.0
 11
-50.79665892357633
 21
1.319081584424111
 31
0.0
  0
LINE
  5
154
330
2
100
AcDbEntity
  8
GAIKEI
  6
Continuous
 62
     1
100
AcDbLine
 10
-50.81120972357632
 20
2.919081584424077
 30
0.0
 11
-50.81120972357632
 21
1.319081584424111
 31
0.0
  0
LINE
  5
155
330
2
100
AcDbEntity
  8
GAIKEI
  6
Continuous
 62
     1
100
AcDbLine
 10
-50.83938352357638
 20
2.919081584424077
 30
0.0
 11
-50.83938352357638
 21
1.319081584424111
 31
0.0
  0
LINE
  5
156
330
2
100
AcDbEntity
  8
GAIKEI
  6
Continuous
 62
     1
100
AcDbLine
 10
-50.86926632357637
 20
2.919081584424077
 30
0.0
 11
-50.86926632357637
 21
1.319081584424111
 31
0.0
  0
LINE
  5
157
330
2
100
AcDbEntity
  8
GAIKEI
  6
Continuous
 62
     1
100
AcDbLine
 10
-50.91235722357635
 20
2.919081584424077
 30
0.0
 11
-50.91235722357635
 21
1.319081584424111
 31
0.0
  0
LINE
  5
158
330
2
100
AcDbEntity
  8
GAIKEI
  6
Continuous
 62
     1
100
AcDbLine
 10
-50.94145872357632
 20
2.919081584424077
 30
0.0
 11
-50.94145872357632
 21
1.319081584424111
 31
0.0
  0
LINE
  5
159
330
2
100
AcDbEntity
  8
GAIKEI
  6
Continuous
 62
     1
100
AcDbLine
 10
-51.02590702357634
 20
2.919081584424077
 30
0.0
 11
-51.02590702357634
 21
1.319081584424111
 31
0.0
  0
LINE
  5
15A
330
2
100
AcDbEntity
  8
GAIKEI
  6
Continuous
 62
     1
100
AcDbLine
 10
-51.09563352357634
 20
2.919081584424077
 30
0.0
 11
-51.09563352357634
 21
1.319081584424111
 31
0.0
  0
LINE
  5
15B
330
2
100
AcDbEntity
  8
GAIKEI
  6
Continuous
 62
     1
100
AcDbLine
 10
-51.12441772357636
 20
2.919081584424077
 30
0.0
 11
-51.12441772357636
 21
1.319081584424111
 31
0.0
  0
LINE
  5
15C
330
2
100
AcDbEntity
  8
GAIKEI
  6
Continuous
 62
     1
100
AcDbLine
 10
-51.25972042357637
 20
2.919081584424077
 30
0.0
 11
-51.25972042357637
 21
1.319081584424111
 31
0.0
  0
LINE
  5
15D
330
2
100
AcDbEntity
  8
GAIKEI
  6
Continuous
 62
     1
100
AcDbLine
 10
-51.35303102357631
 20
2.919081584424077
 30
0.0
 11
-51.35303102357631
 21
1.319081584424111
 31
0.0
  0
LINE
  5
15E
330
2
100
AcDbEntity
  8
GAIKEI
  6
Continuous
 62
     1
100
AcDbLine
 10
-51.38025272357634
 20
2.919081584424077
 30
0.0
 11
-51.38025272357634
 21
1.319081584424111
 31
0.0
  0
LINE
  5
15F
330
2
100
AcDbEntity
  8
GAIKEI
  6
Continuous
 62
     1
100
AcDbLine
 10
-51.56050172357629
 20
2.919081584424077
 30
0.0
 11
-51.56050172357629
 21
1.319081584424111
 31
0.0
  0
LINE
  5
160
330
2
100
AcDbEntity
  8
GAIKEI
  6
Continuous
 62
     1
100
AcDbLine
 10
-51.67331912357633
 20
2.919081584424077
 30
0.0
 11
-51.67331912357633
 21
1.319081584424111
 31
0.0
  0
LINE
  5
161
330
2
100
AcDbEntity
  8
GAIKEI
  6
Continuous
 62
     1
100
AcDbLine
 10
-51.69778202357633
 20
2.919081584424077
 30
0.0
 11
-51.69778202357633
 21
1.319081584424111
 31
0.0
  0
LINE
  5
162
330
2
100
AcDbEntity
  8
GAIKEI
  6
Continuous
 62
     1
100
AcDbLine
 10
-52.04248412357628
 20
2.919081584424077
 30
0.0
 11
-52.04248412357628
 21
1.319081584424111
 31
0.0
  0
LINE
  5
163
330
2
100
AcDbEntity
  8
GAIKEI
  6
Continuous
 62
     1
100
AcDbLine
 10
-52.06308962357633
 20
2.919081584424077
 30
0.0
 11
-52.06308962357633
 21
1.319081584424111
 31
0.0
  0
LINE
  5
164
330
2
100
AcDbEntity
  8
GAIKEI
  6
Continuous
 62
     1
100
AcDbLine
 10
-52.30344602357632
 20
2.919081584424077
 30
0.0
 11
-52.30344602357632
 21
1.319081584424111
 31
0.0
  0
LINE
  5
165
330
2
100
AcDbEntity
  8
GAIKEI
  6
Continuous
 62
     1
100
AcDbLine
 10
-52.30801152357634
 20
2.919081584424077
 30
0.0
 11
-52.30801152357634
 21
1.319081584424111
 31
0.0
  0
LINE
  5
166
330
2
100
AcDbEntity
  8
GAIKEI
  6
Continuous
 62
     1
100
AcDbLine
 10
-52.44438842357635
 20
2.919081584424077
 30
0.0
 11
-52.44438842357635
 21
1.319081584424111
 31
0.0
  0
LINE
  5
167
330
2
100
AcDbEntity
  8
GAIKEI
  6
Continuous
 62
     1
100
AcDbLine
 10
-52.46028202357632
 20
2.919081584424077
 30
0.0
 11
-52.46028202357632
 21
1.319081584424111
 31
0.0
  0
LINE
  5
168
330
2
100
AcDbEntity
  8
GAIKEI
  6
Continuous
 62
     1
100
AcDbLine
 10
-52.71160032357631
 20
2.919081584424077
 30
0.0
 11
-52.71160032357631
 21
1.319081584424111
 31
0.0
  0
LINE
  5
169
330
2
100
AcDbEntity
  8
GAIKEI
  6
Continuous
 62
     1
100
AcDbLine
 10
-52.72204952357629
 20
2.919081584424077
 30
0.0
 11
-52.72204952357629
 21
1.319081584424111
 31
0.0
  0
LINE
  5
16A
330
2
100
AcDbEntity
  8
GAIKEI
  6
Continuous
 62
     1
100
AcDbLine
 10
-52.86147822357634
 20
2.919081584424077
 30
0.0
 11
-52.86147822357634
 21
1.319081584424111
 31
0.0
  0
LINE
  5
16B
330
2
100
AcDbEntity
  8
GAIKEI
  6
Continuous
 62
     1
100
AcDbLine
 10
-52.87195192357632
 20
2.919081584424077
 30
0.0
 11
-52.87195192357632
 21
1.319081584424111
 31
0.0
  0
LINE
  5
16C
330
2
100
AcDbEntity
  8
GAIKEI
  6
Continuous
 62
     1
100
AcDbLine
 10
-53.12327022357635
 20
2.919081584424077
 30
0.0
 11
-53.12327022357635
 21
1.319081584424111
 31
0.0
  0
LINE
  5
16D
330
2
100
AcDbEntity
  8
GAIKEI
  6
Continuous
 62
     1
100
AcDbLine
 10
-53.13916382357632
 20
2.919081584424077
 30
0.0
 11
-53.13916382357632
 21
1.319081584424111
 31
0.0
  0
LINE
  5
16E
330
2
100
AcDbEntity
  8
GAIKEI
  6
Continuous
 62
     1
100
AcDbLine
 10
-53.27551632357631
 20
2.919081584424077
 30
0.0
 11
-53.27551632357631
 21
1.319081584424111
 31
0.0
  0
LINE
  5
16F
330
2
100
AcDbEntity
  8
GAIKEI
  6
Continuous
 62
     1
100
AcDbLine
 10
-53.28010622357635
 20
2.919081584424077
 30
0.0
 11
-53.28010622357635
 21
1.319081584424111
 31
0.0
  0
LINE
  5
170
330
2
100
AcDbEntity
  8
GAIKEI
  6
Continuous
 62
     1
100
AcDbLine
 10
-53.52043822357632
 20
2.919081584424077
 30
0.0
 11
-53.52043822357632
 21
1.319081584424111
 31
0.0
  0
LINE
  5
171
330
2
100
AcDbEntity
  8
GAIKEI
  6
Continuous
 62
     1
100
AcDbLine
 10
-53.54104372357631
 20
2.919081584424077
 30
0.0
 11
-53.54104372357631
 21
1.319081584424111
 31
0.0
  0
LINE
  5
172
330
2
100
AcDbEntity
  8
GAIKEI
  6
Continuous
 62
     1
100
AcDbLine
 10
-53.66843632357632
 20
2.919081584424077
 30
0.0
 11
-53.66843632357632
 21
1.319081584424111
 31
0.0
  0
LINE
  5
173
330
2
100
AcDbEntity
  8
GAIKEI
  6
Continuous
 62
     1
100
AcDbLine
 10
-53.88577022357634
 20
2.919081584424077
 30
0.0
 11
-53.88577022357634
 21
1.319081584424111
 31
0.0
  0
LINE
  5
174
330
2
100
AcDbEntity
  8
GAIKEI
  6
Continuous
 62
     1
100
AcDbLine
 10
-53.91023312357629
 20
2.919081584424077
 30
0.0
 11
-53.91023312357629
 21
1.319081584424111
 31
0.0
  0
LINE
  5
175
330
2
100
AcDbEntity
  8
GAIKEI
  6
Continuous
 62
     1
100
AcDbLine
 10
-54.02302612357636
 20
2.919081584424077
 30
0.0
 11
-54.02302612357636
 21
1.319081584424111
 31
0.0
  0
LINE
  5
176
330
2
100
AcDbEntity
  8
GAIKEI
  6
Continuous
 62
     1
100
AcDbLine
 10
-54.20329952357628
 20
2.919081584424077
 30
0.0
 11
-54.20329952357628
 21
1.319081584424111
 31
0.0
  0
LINE
  5
177
330
2
100
AcDbEntity
  8
GAIKEI
  6
Continuous
 62
     1
100
AcDbLine
 10
-54.23049682357635
 20
2.919081584424077
 30
0.0
 11
-54.23049682357635
 21
1.319081584424111
 31
0.0
  0
LINE
  5
178
330
2
100
AcDbEntity
  8
GAIKEI
  6
Continuous
 62
     1
100
AcDbLine
 10
-54.32380742357634
 20
2.919081584424077
 30
0.0
 11
-54.32380742357634
 21
1.319081584424111
 31
0.0
  0
LINE
  5
179
330
2
100
AcDbEntity
  8
GAIKEI
  6
Continuous
 62
     1
100
AcDbLine
 10
-54.45911012357635
 20
2.919081584424077
 30
0.0
 11
-54.45911012357635
 21
1.319081584424111
 31
0.0
  0
LINE
  5
17A
330
2
100
AcDbEntity
  8
GAIKEI
  6
Continuous
 62
     1
100
AcDbLine
 10
-54.48789432357632
 20
2.919081584424077
 30
0.0
 11
-54.48789432357632
 21
1.319081584424111
 31
0.0
  0
LINE
  5
17B
330
2
100
AcDbEntity
  8
GAIKEI
  6
Continuous
 62
     1
100
AcDbLine
 10
-54.55762082357637
 20
2.919081584424077
 30
0.0
 11
-54.55762082357637
 21
1.319081584424111
 31
0.0
  0
LINE
  5
17C
330
2
100
AcDbEntity
  8
GAIKEI
  6
Continuous
 62
     1
100
AcDbLine
 10
-54.64206912357633
 20
2.919081584424077
 30
0.0
 11
-54.64206912357633
 21
1.319081584424111
 31
0.0
  0
LINE
  5
17D
330
2
100
AcDbEntity
  8
GAIKEI
  6
Continuous
 62
     1
100
AcDbLine
 10
-54.6711706235763
 20
2.919081584424077
 30
0.0
 11
-54.6711706235763
 21
1.319081584424111
 31
0.0
  0
LINE
  5
17E
330
2
100
AcDbEntity
  8
GAIKEI
  6
Continuous
 62
     1
100
AcDbLine
 10
-54.71426152357634
 20
2.919081584424077
 30
0.0
 11
-54.71426152357634
 21
1.319081584424111
 31
0.0
  0
LINE
  5
17F
330
2
100
AcDbEntity
  8
GAIKEI
  6
Continuous
 62
     1
100
AcDbLine
 10
-54.74416872357636
 20
2.919081584424077
 30
0.0
 11
-54.74416872357636
 21
1.319081584424111
 31
0.0
  0
LINE
  5
180
330
2
100
AcDbEntity
  8
GAIKEI
  6
Continuous
 62
     1
100
AcDbLine
 10
-54.77231812357633
 20
2.919081584424077
 30
0.0
 11
-54.77231812357633
 21
1.319081584424111
 31
0.0
  0
LINE
  5
181
330
2
100
AcDbEntity
  8
GAIKEI
  6
Continuous
100
AcDbLine
 10
-54.78689332357635
 20
2.919081584424077
 30
0.0
 11
-54.78689332357635
 21
1.319081584424111
 31
0.0
  0
ARC
  5
182
330
2
100
AcDbEntity
  8
GAIKEI
  6
Continuous
100
AcDbCircle
 10
-52.79177612357631
 20
3.919081584424077
 30
0.0
 40
3.0
100
AcDbArc
 50
284.8351169999978
 51
299.9264469999951
  0
ARC
  5
183
330
2
100
AcDbEntity
  8
GAIKEI
  6
Continuous
100
AcDbCircle
 10
-52.79177612357631
 20
3.919081584424077
 30
0.0
 40
3.0
100
AcDbArc
 50
240.0734999999937
 51
255.1648300000048
  0
LINE
  5
184
330
2
100
AcDbEntity
  8
GAIKEI
  6
Continuous
100
AcDbLine
 10
-13.1723181235763
 20
2.919081584424077
 30
0.0
 11
-13.18689332357633
 21
2.919081584424077
 31
0.0
  0
LINE
  5
185
330
2
100
AcDbEntity
  8
GAIKEI
  6
Continuous
100
AcDbLine
 10
-13.14416872357634
 20
2.919081584424077
 30
0.0
 11
-13.1723181235763
 21
2.919081584424077
 31
0.0
  0
LINE
  5
186
330
2
100
AcDbEntity
  8
GAIKEI
  6
Continuous
100
AcDbLine
 10
-13.11426152357637
 20
2.919084684424092
 30
0.0
 11
-13.14416872357634
 21
2.919084684424092
 31
0.0
  0
LINE
  5
187
330
2
100
AcDbEntity
  8
GAIKEI
  6
Continuous
100
AcDbLine
 10
-13.07119502357636
 20
2.919081584424077
 30
0.0
 11
-13.11426152357637
 21
2.919081584424077
 31
0.0
  0
LINE
  5
188
330
2
100
AcDbEntity
  8
GAIKEI
  6
Continuous
100
AcDbLine
 10
-13.04206912357637
 20
2.919081584424077
 30
0.0
 11
-13.07117062357633
 21
2.919081584424077
 31
0.0
  0
LINE
  5
189
330
2
100
AcDbEntity
  8
GAIKEI
  6
Continuous
100
AcDbLine
 10
-12.95762462357629
 20
2.919082384424086
 30
0.0
 11
-13.04207282357629
 21
2.919085884424077
 31
0.0
  0
LINE
  5
18A
330
2
100
AcDbEntity
  8
GAIKEI
  6
Continuous
100
AcDbLine
 10
-12.88791872357637
 20
2.919081584424077
 30
0.0
 11
-12.95762082357635
 21
2.919081584424077
 31
0.0
  0
LINE
  5
18B
330
2
100
AcDbEntity
  8
GAIKEI
  6
Continuous
100
AcDbLine
 10
-12.85911012357633
 20
2.919081584424077
 30
0.0
 11
-12.88789432357634
 21
2.919081584424077
 31
0.0
  0
LINE
  5
18C
330
2
100
AcDbEntity
  8
GAIKEI
  6
Continuous
100
AcDbLine
 10
-12.72378292357632
 20
2.919084684424092
 30
0.0
 11
-12.85911012357633
 21
2.919084684424092
 31
0.0
  0
LINE
  5
18D
330
2
100
AcDbEntity
  8
GAIKEI
  6
Continuous
100
AcDbLine
 10
-12.63052122357635
 20
2.919081584424077
 30
0.0
 11
-12.72380732357635
 21
2.919081584424077
 31
0.0
  0
LINE
  5
18E
330
2
100
AcDbEntity
  8
GAIKEI
  6
Continuous
100
AcDbLine
 10
-12.60327512357634
 20
2.919081584424077
 30
0.0
 11
-12.63049682357632
 21
2.919081584424077
 31
0.0
  0
LINE
  5
18F
330
2
100
AcDbEntity
  8
GAIKEI
  6
Continuous
100
AcDbLine
 10
-12.42302612357633
 20
2.919084684424092
 30
0.0
 11
-12.60329952357637
 21
2.919084684424092
 31
0.0
  0
LINE
  5
190
330
2
100
AcDbEntity
  8
GAIKEI
  6
Continuous
100
AcDbLine
 10
-12.31023312357632
 20
2.919081584424077
 30
0.0
 11
-12.42302612357633
 21
2.919081584424077
 31
0.0
  0
LINE
  5
191
330
2
100
AcDbEntity
  8
GAIKEI
  6
Continuous
100
AcDbLine
 10
-12.28577022357638
 20
2.919081584424077
 30
0.0
 11
-12.31023312357632
 21
2.919081584424077
 31
0.0
  0
LINE
  5
192
330
2
100
AcDbEntity
  8
GAIKEI
  6
Continuous
100
AcDbLine
 10
-12.06842972357629
 20
2.919081784424122
 30
0.0
 11
-12.28576362357631
 21
2.919085284424113
 31
0.0
  0
LINE
  5
193
330
2
100
AcDbEntity
  8
GAIKEI
  6
Continuous
100
AcDbLine
 10
-11.94106812357631
 20
2.919081584424077
 30
0.0
 11
-12.06843632357629
 21
2.919081584424077
 31
0.0
  0
LINE
  5
194
330
2
100
AcDbEntity
  8
GAIKEI
  6
Continuous
100
AcDbLine
 10
-11.92041382357632
 20
2.919081584424077
 30
0.0
 11
-11.94104372357634
 21
2.919081584424077
 31
0.0
  0
LINE
  5
195
330
2
100
AcDbEntity
  8
GAIKEI
  6
Continuous
100
AcDbLine
 10
-11.68008182357636
 20
2.919081584424077
 30
0.0
 11
-11.92043822357629
 21
2.919081584424077
 31
0.0
  0
LINE
  5
196
330
2
100
AcDbEntity
  8
GAIKEI
  6
Continuous
100
AcDbLine
 10
-11.67551632357634
 20
2.919081584424077
 30
0.0
 11
-11.68008182357636
 21
2.919081584424077
 31
0.0
  0
LINE
  5
197
330
2
100
AcDbEntity
  8
GAIKEI
  6
Continuous
100
AcDbLine
 10
-11.53913942357633
 20
2.919081584424077
 30
0.0
 11
-11.67551632357634
 21
2.919081584424077
 31
0.0
  0
LINE
  5
198
330
2
100
AcDbEntity
  8
GAIKEI
  6
Continuous
100
AcDbLine
 10
-11.5232458235763
 20
2.919081584424077
 30
0.0
 11
-11.53913942357633
 21
2.919081584424077
 31
0.0
  0
LINE
  5
199
330
2
100
AcDbEntity
  8
GAIKEI
  6
Continuous
100
AcDbLine
 10
-11.27195192357635
 20
2.919081584424077
 30
0.0
 11
-11.52327022357633
 21
2.919081584424077
 31
0.0
  0
LINE
  5
19A
330
2
100
AcDbEntity
  8
GAIKEI
  6
Continuous
100
AcDbLine
 10
-11.26147822357632
 20
2.919081584424077
 30
0.0
 11
-11.27195192357635
 21
2.919081584424077
 31
0.0
  0
LINE
  5
19B
330
2
100
AcDbEntity
  8
GAIKEI
  6
Continuous
100
AcDbLine
 10
-11.12204952357638
 20
2.919081584424077
 30
0.0
 11
-11.26147822357632
 21
2.919081584424077
 31
0.0
  0
LINE
  5
19C
330
2
100
AcDbEntity
  8
GAIKEI
  6
Continuous
100
AcDbLine
 10
-11.11160032357634
 20
2.919081584424077
 30
0.0
 11
-11.12204952357638
 21
2.919081584424077
 31
0.0
  0
LINE
  5
19D
330
2
100
AcDbEntity
  8
GAIKEI
  6
Continuous
100
AcDbLine
 10
-10.8602820235763
 20
2.919081584424077
 30
0.0
 11
-11.11160032357634
 21
2.919081584424077
 31
0.0
  0
LINE
  5
19E
330
2
100
AcDbEntity
  8
GAIKEI
  6
Continuous
100
AcDbLine
 10
-10.84438842357633
 20
2.919081584424077
 30
0.0
 11
-10.8602820235763
 21
2.919081584424077
 31
0.0
  0
LINE
  5
19F
330
2
100
AcDbEntity
  8
GAIKEI
  6
Continuous
100
AcDbLine
 10
-10.70801152357637
 20
2.919081584424077
 30
0.0
 11
-10.84438842357633
 21
2.919081584424077
 31
0.0
  0
LINE
  5
1A0
330
2
100
AcDbEntity
  8
GAIKEI
  6
Continuous
100
AcDbLine
 10
-10.70342162357633
 20
2.919081584424077
 30
0.0
 11
-10.70798702357638
 21
2.919081584424077
 31
0.0
  0
LINE
  5
1A1
330
2
100
AcDbEntity
  8
GAIKEI
  6
Continuous
100
AcDbLine
 10
-10.46308962357631
 20
2.919081584424077
 30
0.0
 11
-10.7034460235763
 21
2.919081584424077
 31
0.0
  0
LINE
  5
1A2
330
2
100
AcDbEntity
  8
GAIKEI
  6
Continuous
100
AcDbLine
 10
-10.44245972357635
 20
2.919081584424077
 30
0.0
 11
-10.46308962357631
 21
2.919081584424077
 31
0.0
  0
LINE
  5
1A3
330
2
100
AcDbEntity
  8
GAIKEI
  6
Continuous
100
AcDbLine
 10
-10.31511592357634
 20
2.919081584424077
 30
0.0
 11
-10.44248412357638
 21
2.919081584424077
 31
0.0
  0
LINE
  5
1A4
330
2
100
AcDbEntity
  8
GAIKEI
  6
Continuous
100
AcDbLine
 10
-10.09778202357631
 20
2.919084684424092
 30
0.0
 11
-10.31511592357634
 21
2.919084684424092
 31
0.0
  0
LINE
  5
1A5
330
2
100
AcDbEntity
  8
GAIKEI
  6
Continuous
100
AcDbLine
 10
-10.07331912357637
 20
2.919081584424077
 30
0.0
 11
-10.09775752357632
 21
2.919081584424077
 31
0.0
  0
LINE
  5
1A6
330
2
100
AcDbEntity
  8
GAIKEI
  6
Continuous
100
AcDbLine
 10
-9.9605261235763
 20
2.919081584424077
 30
0.0
 11
-10.07331912357637
 21
2.919081584424077
 31
0.0
  0
LINE
  5
1A7
330
2
100
AcDbEntity
  8
GAIKEI
  6
Continuous
100
AcDbLine
 10
-9.780252723576325
 20
2.919084684424092
 30
0.0
 11
-9.960501723576328
 21
2.919084684424092
 31
0.0
  0
LINE
  5
1A8
330
2
100
AcDbEntity
  8
GAIKEI
  6
Continuous
100
AcDbLine
 10
-9.753006623576368
 20
2.919081584424077
 30
0.0
 11
-9.78022822357633
 21
2.919081584424077
 31
0.0
  0
LINE
  5
1A9
330
2
100
AcDbEntity
  8
GAIKEI
  6
Continuous
100
AcDbLine
 10
-9.659744823576318
 20
2.919081584424077
 30
0.0
 11
-9.75303102357634
 21
2.919081584424077
 31
0.0
  0
LINE
  5
1AA
330
2
100
AcDbEntity
  8
GAIKEI
  6
Continuous
100
AcDbLine
 10
-9.524417723576334
 20
2.919081584424077
 30
0.0
 11
-9.659720423576345
 21
2.919081584424077
 31
0.0
  0
LINE
  5
1AB
330
2
100
AcDbEntity
  8
GAIKEI
  6
Continuous
100
AcDbLine
 10
-9.495609123576343
 20
2.919081584424077
 30
0.0
 11
-9.524417723576334
 21
2.919081584424077
 31
0.0
  0
LINE
  5
1AC
330
2
100
AcDbEntity
  8
GAIKEI
  6
Continuous
100
AcDbLine
 10
-9.425907023576314
 20
2.919081584424077
 30
0.0
 11
-9.495633523576316
 21
2.919081584424077
 31
0.0
  0
LINE
  5
1AD
330
2
100
AcDbEntity
  8
GAIKEI
  6
Continuous
100
AcDbLine
 10
-9.341454723576305
 20
2.919084684424092
 30
0.0
 11
-9.425902923576302
 21
2.919081284424066
 31
0.0
  0
LINE
  5
1AE
330
2
100
AcDbEntity
  8
GAIKEI
  6
Continuous
100
AcDbLine
 10
-9.312332723576332
 20
2.919081584424077
 30
0.0
 11
-9.341458723576351
 21
2.919081584424077
 31
0.0
  0
LINE
  5
1AF
330
2
100
AcDbEntity
  8
GAIKEI
  6
Continuous
100
AcDbLine
 10
-9.269266323576346
 20
2.919081584424077
 30
0.0
 11
-9.312357223576327
 21
2.919081584424077
 31
0.0
  0
LINE
  5
1B0
330
2
100
AcDbEntity
  8
GAIKEI
  6
Continuous
100
AcDbLine
 10
-9.239383523576293
 20
2.919084684424092
 30
0.0
 11
-9.269266323576346
 21
2.919084684424092
 31
0.0
  0
LINE
  5
1B1
330
2
100
AcDbEntity
  8
GAIKEI
  6
Continuous
100
AcDbLine
 10
-9.211234123576332
 20
2.919081584424077
 30
0.0
 11
-9.239383523576293
 21
2.919081584424077
 31
0.0
  0
LINE
  5
1B2
330
2
100
AcDbEntity
  8
GAIKEI
  6
Continuous
100
AcDbLine
 10
-9.196634523576335
 20
2.919081584424077
 30
0.0
 11
-9.211209723576359
 21
2.919081584424077
 31
0.0
  0
LINE
  5
1B3
330
2
100
AcDbEntity
  8
GAIKEI
  6
Continuous
 62
     1
100
AcDbLine
 10
-10.31511592357634
 20
2.919081584424077
 30
0.0
 11
-10.31511592357634
 21
1.319081584424111
 31
0.0
  0
LINE
  5
1B4
330
2
100
AcDbEntity
  8
GAIKEI
  6
Continuous
100
AcDbLine
 10
-10.42366092357633
 20
1.01908188442411
 30
0.0
 11
-11.95989132357635
 21
1.01908188442411
 31
0.0
  0
LINE
  5
1B5
330
2
100
AcDbEntity
  8
GAIKEI
  6
Continuous
100
AcDbLine
 10
-9.211209723576359
 20
1.319081584424111
 30
0.0
 11
-9.196634523576335
 21
1.319081584424111
 31
0.0
  0
LINE
  5
1B6
330
2
100
AcDbEntity
  8
GAIKEI
  6
Continuous
100
AcDbLine
 10
-9.239383523576293
 20
1.319081584424111
 30
0.0
 11
-9.211234123576332
 21
1.319081584424111
 31
0.0
  0
LINE
  5
1B7
330
2
100
AcDbEntity
  8
GAIKEI
  6
Continuous
100
AcDbLine
 10
-9.269266323576346
 20
1.319080084424115
 30
0.0
 11
-9.239383523576293
 21
1.319080084424115
 31
0.0
  0
LINE
  5
1B8
330
2
100
AcDbEntity
  8
GAIKEI
  6
Continuous
100
AcDbLine
 10
-9.312357223576327
 20
1.319081584424111
 30
0.0
 11
-9.269266323576346
 21
1.319081584424111
 31
0.0
  0
LINE
  5
1B9
330
2
100
AcDbEntity
  8
GAIKEI
  6
Continuous
100
AcDbLine
 10
-9.341458723576351
 20
1.319081584424111
 30
0.0
 11
-9.312332723576332
 21
1.319081584424111
 31
0.0
  0
LINE
  5
1BA
330
2
100
AcDbEntity
  8
GAIKEI
  6
Continuous
100
AcDbLine
 10
-9.425892823576305
 20
1.319081184424078
 30
0.0
 11
-9.341469023576337
 21
1.319079484424094
 31
0.0
  0
LINE
  5
1BB
330
2
100
AcDbEntity
  8
GAIKEI
  6
Continuous
100
AcDbLine
 10
-9.495633523576316
 20
1.319081584424111
 30
0.0
 11
-9.425907023576314
 21
1.319081584424111
 31
0.0
  0
LINE
  5
1BC
330
2
100
AcDbEntity
  8
GAIKEI
  6
Continuous
100
AcDbLine
 10
-9.524417723576334
 20
1.319081584424111
 30
0.0
 11
-9.495609123576343
 21
1.319081584424111
 31
0.0
  0
LINE
  5
1BD
330
2
100
AcDbEntity
  8
GAIKEI
  6
Continuous
100
AcDbLine
 10
-9.659720823576321
 20
1.31908208442411
 30
0.0
 11
-9.52441812357631
 21
1.319080384424125
 31
0.0
  0
LINE
  5
1BE
330
2
100
AcDbEntity
  8
GAIKEI
  6
Continuous
100
AcDbLine
 10
-9.75303102357634
 20
1.319081584424111
 30
0.0
 11
-9.659744823576318
 21
1.319081584424111
 31
0.0
  0
LINE
  5
1BF
330
2
100
AcDbEntity
  8
GAIKEI
  6
Continuous
100
AcDbLine
 10
-9.78022822357633
 20
1.319081584424111
 30
0.0
 11
-9.753006623576368
 21
1.319081584424111
 31
0.0
  0
LINE
  5
1C0
330
2
100
AcDbEntity
  8
GAIKEI
  6
Continuous
100
AcDbLine
 10
-9.96050802357638
 20
1.319082184424075
 30
0.0
 11
-9.780234623576347
 21
1.319080484424091
 31
0.0
  0
LINE
  5
1C1
330
2
100
AcDbEntity
  8
GAIKEI
  6
Continuous
100
AcDbLine
 10
-9.960501723576328
 20
1.319081584424111
 30
0.0
 11
-9.9605261235763
 21
1.319081584424111
 31
0.0
  0
LINE
  5
1C2
330
2
100
AcDbEntity
  8
GAIKEI
  6
Continuous
100
AcDbLine
 10
-10.07331912357637
 20
1.319081584424111
 30
0.0
 11
-9.9605261235763
 21
1.319081584424111
 31
0.0
  0
LINE
  5
1C3
330
2
100
AcDbEntity
  8
GAIKEI
  6
Continuous
100
AcDbLine
 10
-10.09775752357632
 20
1.319081584424111
 30
0.0
 11
-10.07331912357637
 21
1.319081584424111
 31
0.0
  0
LINE
  5
1C4
330
2
100
AcDbEntity
  8
GAIKEI
  6
Continuous
100
AcDbLine
 10
-10.31511592357634
 20
1.319080084424115
 30
0.0
 11
-10.09778202357631
 21
1.319080084424115
 31
0.0
  0
LINE
  5
1C5
330
2
100
AcDbEntity
  8
GAIKEI
  6
Continuous
100
AcDbLine
 10
-10.44248412357638
 20
1.319081584424111
 30
0.0
 11
-10.31511592357634
 21
1.319081584424111
 31
0.0
  0
LINE
  5
1C6
330
2
100
AcDbEntity
  8
GAIKEI
  6
Continuous
100
AcDbLine
 10
-10.46308962357631
 20
1.319081584424111
 30
0.0
 11
-10.44245972357635
 21
1.319081584424111
 31
0.0
  0
LINE
  5
1C7
330
2
100
AcDbEntity
  8
GAIKEI
  6
Continuous
100
AcDbLine
 10
-10.7034460235763
 20
1.319081584424111
 30
0.0
 11
-10.46308962357631
 21
1.319081584424111
 31
0.0
  0
LINE
  5
1C8
330
2
100
AcDbEntity
  8
GAIKEI
  6
Continuous
100
AcDbLine
 10
-10.70798702357638
 20
1.319081584424111
 30
0.0
 11
-10.70342162357633
 21
1.319081584424111
 31
0.0
  0
LINE
  5
1C9
330
2
100
AcDbEntity
  8
GAIKEI
  6
Continuous
100
AcDbLine
 10
-10.84438842357633
 20
1.319081584424111
 30
0.0
 11
-10.70801152357637
 21
1.319081584424111
 31
0.0
  0
LINE
  5
1CA
330
2
100
AcDbEntity
  8
GAIKEI
  6
Continuous
100
AcDbLine
 10
-10.8602820235763
 20
1.319081584424111
 30
0.0
 11
-10.84438842357633
 21
1.319081584424111
 31
0.0
  0
LINE
  5
1CB
330
2
100
AcDbEntity
  8
GAIKEI
  6
Continuous
100
AcDbLine
 10
-11.11160032357634
 20
1.319081584424111
 30
0.0
 11
-10.8602820235763
 21
1.319081584424111
 31
0.0
  0
LINE
  5
1CC
330
2
100
AcDbEntity
  8
GAIKEI
  6
Continuous
100
AcDbLine
 10
-11.12204952357638
 20
1.319081584424111
 30
0.0
 11
-11.11160032357634
 21
1.319081584424111
 31
0.0
  0
LINE
  5
1CD
330
2
100
AcDbEntity
  8
GAIKEI
  6
Continuous
100
AcDbLine
 10
-11.26147822357632
 20
1.319081584424111
 30
0.0
 11
-11.12204952357638
 21
1.319081584424111
 31
0.0
  0
LINE
  5
1CE
330
2
100
AcDbEntity
  8
GAIKEI
  6
Continuous
100
AcDbLine
 10
-11.27195192357635
 20
1.319081584424111
 30
0.0
 11
-11.26147822357632
 21
1.319081584424111
 31
0.0
  0
LINE
  5
1CF
330
2
100
AcDbEntity
  8
GAIKEI
  6
Continuous
100
AcDbLine
 10
-11.52327022357633
 20
1.319081584424111
 30
0.0
 11
-11.27195192357635
 21
1.319081584424111
 31
0.0
  0
LINE
  5
1D0
330
2
100
AcDbEntity
  8
GAIKEI
  6
Continuous
100
AcDbLine
 10
-11.53913942357633
 20
1.319081584424111
 30
0.0
 11
-11.5232458235763
 21
1.319081584424111
 31
0.0
  0
LINE
  5
1D1
330
2
100
AcDbEntity
  8
GAIKEI
  6
Continuous
100
AcDbLine
 10
-11.67551632357634
 20
1.319081584424111
 30
0.0
 11
-11.53913942357633
 21
1.319081584424111
 31
0.0
  0
LINE
  5
1D2
330
2
100
AcDbEntity
  8
GAIKEI
  6
Continuous
100
AcDbLine
 10
-11.68008182357636
 20
1.319081584424111
 30
0.0
 11
-11.67551632357634
 21
1.319081584424111
 31
0.0
  0
LINE
  5
1D3
330
2
100
AcDbEntity
  8
GAIKEI
  6
Continuous
100
AcDbLine
 10
-11.92043822357629
 20
1.319081584424111
 30
0.0
 11
-11.68008182357636
 21
1.319081584424111
 31
0.0
  0
LINE
  5
1D4
330
2
100
AcDbEntity
  8
GAIKEI
  6
Continuous
100
AcDbLine
 10
-11.94104372357634
 20
1.319081584424111
 30
0.0
 11
-11.92041382357632
 21
1.319081584424111
 31
0.0
  0
LINE
  5
1D5
330
2
100
AcDbEntity
  8
GAIKEI
  6
Continuous
100
AcDbLine
 10
-12.06843632357629
 20
1.319081584424111
 30
0.0
 11
-11.94106812357631
 21
1.319081584424111
 31
0.0
  0
LINE
  5
1D6
330
2
100
AcDbEntity
  8
GAIKEI
  6
Continuous
100
AcDbLine
 10
-12.28577022357638
 20
1.319080084424115
 30
0.0
 11
-12.06843632357629
 21
1.319080084424115
 31
0.0
  0
LINE
  5
1D7
330
2
100
AcDbEntity
  8
GAIKEI
  6
Continuous
100
AcDbLine
 10
-12.31023312357632
 20
1.319081584424111
 30
0.0
 11
-12.28577022357638
 21
1.319081584424111
 31
0.0
  0
LINE
  5
1D8
330
2
100
AcDbEntity
  8
GAIKEI
  6
Continuous
100
AcDbLine
 10
-12.42302612357633
 20
1.319081584424111
 30
0.0
 11
-12.31023312357632
 21
1.319081584424111
 31
0.0
  0
LINE
  5
1D9
330
2
100
AcDbEntity
  8
GAIKEI
  6
Continuous
100
AcDbLine
 10
-12.4230017235763
 20
1.319081584424111
 30
0.0
 11
-12.42302612357633
 21
1.319081584424111
 31
0.0
  0
LINE
  5
1DA
330
2
100
AcDbEntity
  8
GAIKEI
  6
Continuous
100
AcDbLine
 10
-12.60329952357637
 20
1.319080084424115
 30
0.0
 11
-12.42302612357633
 21
1.319080084424115
 31
0.0
  0
LINE
  5
1DB
330
2
100
AcDbEntity
  8
GAIKEI
  6
Continuous
100
AcDbLine
 10
-12.63049682357632
 20
1.319081584424111
 30
0.0
 11
-12.60327512357634
 21
1.319081584424111
 31
0.0
  0
LINE
  5
1DC
330
2
100
AcDbEntity
  8
GAIKEI
  6
Continuous
100
AcDbLine
 10
-12.72380732357635
 20
1.319081584424111
 30
0.0
 11
-12.63052122357635
 21
1.319081584424111
 31
0.0
  0
LINE
  5
1DD
330
2
100
AcDbEntity
  8
GAIKEI
  6
Continuous
100
AcDbLine
 10
-12.72378292357632
 20
1.319081584424111
 30
0.0
 11
-12.72380732357635
 21
1.319081584424111
 31
0.0
  0
LINE
  5
1DE
330
2
100
AcDbEntity
  8
GAIKEI
  6
Continuous
100
AcDbLine
 10
-12.85910972357635
 20
1.319080284424103
 30
0.0
 11
-12.72380702357634
 21
1.319081984424087
 31
0.0
  0
LINE
  5
1DF
330
2
100
AcDbEntity
  8
GAIKEI
  6
Continuous
100
AcDbLine
 10
-12.88789432357634
 20
1.319081584424111
 30
0.0
 11
-12.85911012357633
 21
1.319081584424111
 31
0.0
  0
LINE
  5
1E0
330
2
100
AcDbEntity
  8
GAIKEI
  6
Continuous
100
AcDbLine
 10
-12.95762082357635
 20
1.319081584424111
 30
0.0
 11
-12.88791872357637
 21
1.319081584424111
 31
0.0
  0
LINE
  5
1E1
330
2
100
AcDbEntity
  8
GAIKEI
  6
Continuous
100
AcDbLine
 10
-12.95759642357632
 20
1.319081584424111
 30
0.0
 11
-12.95762082357635
 21
1.319081584424111
 31
0.0
  0
LINE
  5
1E2
330
2
100
AcDbEntity
  8
GAIKEI
  6
Continuous
100
AcDbLine
 10
-13.04206912357637
 20
1.319081584424111
 30
0.0
 11
-12.95762082357635
 21
1.319081584424111
 31
0.0
  0
LINE
  5
1E3
330
2
100
AcDbEntity
  8
GAIKEI
  6
Continuous
100
AcDbLine
 10
-13.07117062357633
 20
1.319081584424111
 30
0.0
 11
-13.04206912357637
 21
1.319081584424111
 31
0.0
  0
LINE
  5
1E4
330
2
100
AcDbEntity
  8
GAIKEI
  6
Continuous
100
AcDbLine
 10
-13.11426152357637
 20
1.319081584424111
 30
0.0
 11
-13.07119502357636
 21
1.319081584424111
 31
0.0
  0
LINE
  5
1E5
330
2
100
AcDbEntity
  8
GAIKEI
  6
Continuous
100
AcDbLine
 10
-13.14416872357634
 20
1.319080084424115
 30
0.0
 11
-13.11426152357637
 21
1.319080084424115
 31
0.0
  0
LINE
  5
1E6
330
2
100
AcDbEntity
  8
GAIKEI
  6
Continuous
100
AcDbLine
 10
-13.1723181235763
 20
1.319081584424111
 30
0.0
 11
-13.14416872357634
 21
1.319081584424111
 31
0.0
  0
LINE
  5
1E7
330
2
100
AcDbEntity
  8
GAIKEI
  6
Continuous
100
AcDbLine
 10
-13.18689332357633
 20
1.319081584424111
 30
0.0
 11
-13.1723181235763
 21
1.319081584424111
 31
0.0
  0
LINE
  5
1E8
330
2
100
AcDbEntity
  8
GAIKEI
  6
Continuous
100
AcDbLine
 10
-11.95989132357635
 20
3.0190815844241
 30
0.0
 11
-11.95989132357635
 21
2.919081584424077
 31
0.0
  0
LINE
  5
1E9
330
2
100
AcDbEntity
  8
GAIKEI
  6
Continuous
100
AcDbLine
 10
-10.42366092357633
 20
2.919081584424077
 30
0.0
 11
-10.42366092357633
 21
3.0190815844241
 31
0.0
  0
LINE
  5
1EA
330
2
100
AcDbEntity
  8
GAIKEI
  6
Continuous
100
AcDbLine
 10
-9.196634523576335
 20
2.919081584424077
 30
0.0
 11
-9.196634523576335
 21
1.319081584424111
 31
0.0
  0
LINE
  5
1EB
330
2
100
AcDbEntity
  8
GAIKEI
  6
Continuous
 62
     1
100
AcDbLine
 10
-9.211209723576359
 20
2.919081584424077
 30
0.0
 11
-9.211209723576359
 21
1.319081584424111
 31
0.0
  0
LINE
  5
1EC
330
2
100
AcDbEntity
  8
GAIKEI
  6
Continuous
 62
     1
100
AcDbLine
 10
-9.239383523576293
 20
2.919081584424077
 30
0.0
 11
-9.239383523576293
 21
1.319081584424111
 31
0.0
  0
LINE
  5
1ED
330
2
100
AcDbEntity
  8
GAIKEI
  6
Continuous
 62
     1
100
AcDbLine
 10
-9.269266323576346
 20
2.919081584424077
 30
0.0
 11
-9.269266323576346
 21
1.319081584424111
 31
0.0
  0
LINE
  5
1EE
330
2
100
AcDbEntity
  8
GAIKEI
  6
Continuous
 62
     1
100
AcDbLine
 10
-9.312357223576327
 20
2.919081584424077
 30
0.0
 11
-9.312357223576327
 21
1.319081584424111
 31
0.0
  0
LINE
  5
1EF
330
2
100
AcDbEntity
  8
GAIKEI
  6
Continuous
 62
     1
100
AcDbLine
 10
-9.341458723576351
 20
2.919081584424077
 30
0.0
 11
-9.341458723576351
 21
1.319081584424111
 31
0.0
  0
LINE
  5
1F0
330
2
100
AcDbEntity
  8
GAIKEI
  6
Continuous
 62
     1
100
AcDbLine
 10
-9.425907023576314
 20
2.919081584424077
 30
0.0
 11
-9.425907023576314
 21
1.319081584424111
 31
0.0
  0
LINE
  5
1F1
330
2
100
AcDbEntity
  8
GAIKEI
  6
Continuous
 62
     1
100
AcDbLine
 10
-9.495633523576316
 20
2.919081584424077
 30
0.0
 11
-9.495633523576316
 21
1.319081584424111
 31
0.0
  0
LINE
  5
1F2
330
2
100
AcDbEntity
  8
GAIKEI
  6
Continuous
 62
     1
100
AcDbLine
 10
-9.524417723576334
 20
2.919081584424077
 30
0.0
 11
-9.524417723576334
 21
1.319081584424111
 31
0.0
  0
LINE
  5
1F3
330
2
100
AcDbEntity
  8
GAIKEI
  6
Continuous
 62
     1
100
AcDbLine
 10
-9.659720423576345
 20
2.919081584424077
 30
0.0
 11
-9.659720423576345
 21
1.319081584424111
 31
0.0
  0
LINE
  5
1F4
330
2
100
AcDbEntity
  8
GAIKEI
  6
Continuous
 62
     1
100
AcDbLine
 10
-9.75303102357634
 20
2.919081584424077
 30
0.0
 11
-9.75303102357634
 21
1.319081584424111
 31
0.0
  0
LINE
  5
1F5
330
2
100
AcDbEntity
  8
GAIKEI
  6
Continuous
 62
     1
100
AcDbLine
 10
-9.78022822357633
 20
2.919081584424077
 30
0.0
 11
-9.78022822357633
 21
1.319081584424111
 31
0.0
  0
LINE
  5
1F6
330
2
100
AcDbEntity
  8
GAIKEI
  6
Continuous
 62
     1
100
AcDbLine
 10
-9.960501723576328
 20
2.919081584424077
 30
0.0
 11
-9.960501723576328
 21
1.319081584424111
 31
0.0
  0
LINE
  5
1F7
330
2
100
AcDbEntity
  8
GAIKEI
  6
Continuous
 62
     1
100
AcDbLine
 10
-10.07331912357637
 20
2.919081584424077
 30
0.0
 11
-10.07331912357637
 21
1.319081584424111
 31
0.0
  0
LINE
  5
1F8
330
2
100
AcDbEntity
  8
GAIKEI
  6
Continuous
 62
     1
100
AcDbLine
 10
-10.09775752357632
 20
2.919081584424077
 30
0.0
 11
-10.09775752357632
 21
1.319081584424111
 31
0.0
  0
LINE
  5
1F9
330
2
100
AcDbEntity
  8
GAIKEI
  6
Continuous
 62
     1
100
AcDbLine
 10
-10.44248412357638
 20
2.919081584424077
 30
0.0
 11
-10.44248412357638
 21
1.319081584424111
 31
0.0
  0
LINE
  5
1FA
330
2
100
AcDbEntity
  8
GAIKEI
  6
Continuous
 62
     1
100
AcDbLine
 10
-10.46308962357631
 20
2.919081584424077
 30
0.0
 11
-10.46308962357631
 21
1.319081584424111
 31
0.0
  0
LINE
  5
1FB
330
2
100
AcDbEntity
  8
GAIKEI
  6
Continuous
 62
     1
100
AcDbLine
 10
-10.7034460235763
 20
2.919081584424077
 30
0.0
 11
-10.7034460235763
 21
1.319081584424111
 31
0.0
  0
LINE
  5
1FC
330
2
100
AcDbEntity
  8
GAIKEI
  6
Continuous
 62
     1
100
AcDbLine
 10
-10.70798702357638
 20
2.919081584424077
 30
0.0
 11
-10.70798702357638
 21
1.319081584424111
 31
0.0
  0
LINE
  5
1FD
330
2
100
AcDbEntity
  8
GAIKEI
  6
Continuous
 62
     1
100
AcDbLine
 10
-10.84438842357633
 20
2.919081584424077
 30
0.0
 11
-10.84438842357633
 21
1.319081584424111
 31
0.0
  0
LINE
  5
1FE
330
2
100
AcDbEntity
  8
GAIKEI
  6
Continuous
 62
     1
100
AcDbLine
 10
-10.8602820235763
 20
2.919081584424077
 30
0.0
 11
-10.8602820235763
 21
1.319081584424111
 31
0.0
  0
LINE
  5
1FF
330
2
100
AcDbEntity
  8
GAIKEI
  6
Continuous
 62
     1
100
AcDbLine
 10
-11.11160032357634
 20
2.919081584424077
 30
0.0
 11
-11.11160032357634
 21
1.319081584424111
 31
0.0
  0
LINE
  5
200
330
2
100
AcDbEntity
  8
GAIKEI
  6
Continuous
 62
     1
100
AcDbLine
 10
-11.12204952357638
 20
2.919081584424077
 30
0.0
 11
-11.12204952357638
 21
1.319081584424111
 31
0.0
  0
LINE
  5
201
330
2
100
AcDbEntity
  8
GAIKEI
  6
Continuous
 62
     1
100
AcDbLine
 10
-11.26147822357632
 20
2.919081584424077
 30
0.0
 11
-11.26147822357632
 21
1.319081584424111
 31
0.0
  0
LINE
  5
202
330
2
100
AcDbEntity
  8
GAIKEI
  6
Continuous
 62
     1
100
AcDbLine
 10
-11.27195192357635
 20
2.919081584424077
 30
0.0
 11
-11.27195192357635
 21
1.319081584424111
 31
0.0
  0
LINE
  5
203
330
2
100
AcDbEntity
  8
GAIKEI
  6
Continuous
 62
     1
100
AcDbLine
 10
-11.52327022357633
 20
2.919081584424077
 30
0.0
 11
-11.52327022357633
 21
1.319081584424111
 31
0.0
  0
LINE
  5
204
330
2
100
AcDbEntity
  8
GAIKEI
  6
Continuous
 62
     1
100
AcDbLine
 10
-11.53913942357633
 20
2.919081584424077
 30
0.0
 11
-11.53913942357633
 21
1.319081584424111
 31
0.0
  0
LINE
  5
205
330
2
100
AcDbEntity
  8
GAIKEI
  6
Continuous
 62
     1
100
AcDbLine
 10
-11.67551632357634
 20
2.919081584424077
 30
0.0
 11
-11.67551632357634
 21
1.319081584424111
 31
0.0
  0
LINE
  5
206
330
2
100
AcDbEntity
  8
GAIKEI
  6
Continuous
 62
     1
100
AcDbLine
 10
-11.68008182357636
 20
2.919081584424077
 30
0.0
 11
-11.68008182357636
 21
1.319081584424111
 31
0.0
  0
LINE
  5
207
330
2
100
AcDbEntity
  8
GAIKEI
  6
Continuous
 62
     1
100
AcDbLine
 10
-11.92043822357629
 20
2.919081584424077
 30
0.0
 11
-11.92043822357629
 21
1.319081584424111
 31
0.0
  0
LINE
  5
208
330
2
100
AcDbEntity
  8
GAIKEI
  6
Continuous
 62
     1
100
AcDbLine
 10
-11.94104372357634
 20
2.919081584424077
 30
0.0
 11
-11.94104372357634
 21
1.319081584424111
 31
0.0
  0
LINE
  5
209
330
2
100
AcDbEntity
  8
GAIKEI
  6
Continuous
 62
     1
100
AcDbLine
 10
-12.06843632357629
 20
2.919081584424077
 30
0.0
 11
-12.06843632357629
 21
1.319081584424111
 31
0.0
  0
LINE
  5
20A
330
2
100
AcDbEntity
  8
GAIKEI
  6
Continuous
 62
     1
100
AcDbLine
 10
-12.28577022357638
 20
2.919081584424077
 30
0.0
 11
-12.28577022357638
 21
1.319081584424111
 31
0.0
  0
LINE
  5
20B
330
2
100
AcDbEntity
  8
GAIKEI
  6
Continuous
 62
     1
100
AcDbLine
 10
-12.31023312357632
 20
2.919081584424077
 30
0.0
 11
-12.31023312357632
 21
1.319081584424111
 31
0.0
  0
LINE
  5
20C
330
2
100
AcDbEntity
  8
GAIKEI
  6
Continuous
 62
     1
100
AcDbLine
 10
-12.42302612357633
 20
2.919081584424077
 30
0.0
 11
-12.42302612357633
 21
1.319081584424111
 31
0.0
  0
LINE
  5
20D
330
2
100
AcDbEntity
  8
GAIKEI
  6
Continuous
 62
     1
100
AcDbLine
 10
-12.60329952357637
 20
2.919081584424077
 30
0.0
 11
-12.60329952357637
 21
1.319081584424111
 31
0.0
  0
LINE
  5
20E
330
2
100
AcDbEntity
  8
GAIKEI
  6
Continuous
 62
     1
100
AcDbLine
 10
-12.63049682357632
 20
2.919081584424077
 30
0.0
 11
-12.63049682357632
 21
1.319081584424111
 31
0.0
  0
LINE
  5
20F
330
2
100
AcDbEntity
  8
GAIKEI
  6
Continuous
 62
     1
100
AcDbLine
 10
-12.72380732357635
 20
2.919081584424077
 30
0.0
 11
-12.72380732357635
 21
1.319081584424111
 31
0.0
  0
LINE
  5
210
330
2
100
AcDbEntity
  8
GAIKEI
  6
Continuous
 62
     1
100
AcDbLine
 10
-12.85911012357633
 20
2.919081584424077
 30
0.0
 11
-12.85911012357633
 21
1.319081584424111
 31
0.0
  0
LINE
  5
211
330
2
100
AcDbEntity
  8
GAIKEI
  6
Continuous
 62
     1
100
AcDbLine
 10
-12.88789432357634
 20
2.919081584424077
 30
0.0
 11
-12.88789432357634
 21
1.319081584424111
 31
0.0
  0
LINE
  5
212
330
2
100
AcDbEntity
  8
GAIKEI
  6
Continuous
 62
     1
100
AcDbLine
 10
-12.95762082357635
 20
2.919081584424077
 30
0.0
 11
-12.95762082357635
 21
1.319081584424111
 31
0.0
  0
LINE
  5
213
330
2
100
AcDbEntity
  8
GAIKEI
  6
Continuous
 62
     1
100
AcDbLine
 10
-13.04206912357637
 20
2.919081584424077
 30
0.0
 11
-13.04206912357637
 21
1.319081584424111
 31
0.0
  0
LINE
  5
214
330
2
100
AcDbEntity
  8
GAIKEI
  6
Continuous
 62
     1
100
AcDbLine
 10
-13.07117062357633
 20
2.919081584424077
 30
0.0
 11
-13.07117062357633
 21
1.319081584424111
 31
0.0
  0
LINE
  5
215
330
2
100
AcDbEntity
  8
GAIKEI
  6
Continuous
 62
     1
100
AcDbLine
 10
-13.11426152357637
 20
2.919081584424077
 30
0.0
 11
-13.11426152357637
 21
1.319081584424111
 31
0.0
  0
LINE
  5
216
330
2
100
AcDbEntity
  8
GAIKEI
  6
Continuous
 62
     1
100
AcDbLine
 10
-13.14416872357634
 20
2.919081584424077
 30
0.0
 11
-13.14416872357634
 21
1.319081584424111
 31
0.0
  0
LINE
  5
217
330
2
100
AcDbEntity
  8
GAIKEI
  6
Continuous
 62
     1
100
AcDbLine
 10
-13.1723181235763
 20
2.919081584424077
 30
0.0
 11
-13.1723181235763
 21
1.319081584424111
 31
0.0
  0
LINE
  5
218
330
2
100
AcDbEntity
  8
GAIKEI
  6
Continuous
100
AcDbLine
 10
-13.18689332357633
 20
2.919081584424077
 30
0.0
 11
-13.18689332357633
 21
1.319081584424111
 31
0.0
  0
ARC
  5
219
330
2
100
AcDbEntity
  8
GAIKEI
  6
Continuous
100
AcDbCircle
 10
-11.19177612357634
 20
3.919081584424077
 30
0.0
 40
3.0
100
AcDbArc
 50
284.8351169999978
 51
299.9264469999951
  0
ARC
  5
21A
330
2
100
AcDbEntity
  8
GAIKEI
  6
Continuous
100
AcDbCircle
 10
-11.19177612357634
 20
3.919081584424077
 30
0.0
 40
3.0
100
AcDbArc
 50
240.0734999999937
 51
255.1648300000048
  0
LINE
  5
21B
330
2
100
AcDbEntity
  8
GAIKEI
  6
Continuous
 62
     1
100
AcDbLine
 10
-29.69177612357635
 20
0.9190825844240748
 30
0.0
 11
-34.29177612357631
 21
0.9190825844240748
 31
0.0
  0
LINE
  5
21C
330
2
100
AcDbEntity
  8
GAIKEI
  6
Continuous
 62
     1
100
AcDbLine
 10
-34.4917761235763
 20
1.119081584424122
 30
0.0
 11
-34.4917761235763
 21
1.319080084424115
 31
0.0
  0
LINE
  5
21D
330
2
100
AcDbEntity
  8
GAIKEI
  6
Continuous
 62
     1
100
AcDbLine
 10
-29.4917761235763
 20
1.319080084424115
 30
0.0
 11
-29.4917761235763
 21
1.119081584424122
 31
0.0
  0
ARC
  5
21E
330
2
100
AcDbEntity
  8
GAIKEI
  6
Continuous
 62
     1
100
AcDbCircle
 10
-29.69177612357635
 20
1.119081584424122
 30
0.0
 40
0.2
100
AcDbArc
 50
270.0000009999949
 51
359.999982999999
  0
ARC
  5
21F
330
2
100
AcDbEntity
  8
GAIKEI
  6
Continuous
 62
     1
100
AcDbCircle
 10
-34.29177612357631
 20
1.119081584424122
 30
0.0
 40
0.2
100
AcDbArc
 50
179.9999640000016
 51
270.0000009999949
  0
LINE
  5
220
330
2
100
AcDbEntity
  8
GAIKEI
  6
Continuous
 62
     1
100
AcDbLine
 10
-34.29177612357631
 20
1.319081584424111
 30
0.0
 11
-34.29177612357631
 21
1.119081584424122
 31
0.0
  0
LINE
  5
221
330
2
100
AcDbEntity
  8
GAIKEI
  6
Continuous
 62
     1
100
AcDbLine
 10
-34.29177612357631
 20
1.119081584424122
 30
0.0
 11
-29.69177612357635
 21
1.119081584424122
 31
0.0
  0
LINE
  5
222
330
2
100
AcDbEntity
  8
GAIKEI
  6
Continuous
 62
     1
100
AcDbLine
 10
-29.69177612357635
 20
1.119081584424122
 30
0.0
 11
-29.69177612357635
 21
1.319081584424111
 31
0.0
  0
LINE
  5
223
330
2
100
AcDbEntity
  8
GAIKEI
  6
Continuous
 62
     1
100
AcDbLine
 10
-29.69177612357635
 20
1.119081584424122
 30
0.0
 11
-29.4917761235763
 21
1.119081584424122
 31
0.0
  0
LINE
  5
224
330
2
100
AcDbEntity
  8
GAIKEI
  6
Continuous
 62
     1
100
AcDbLine
 10
-29.69177612357635
 20
0.9190825844240748
 30
0.0
 11
-29.69177612357635
 21
1.119081584424122
 31
0.0
  0
LINE
  5
225
330
2
100
AcDbEntity
  8
GAIKEI
  6
Continuous
 62
     1
100
AcDbLine
 10
-34.29177612357631
 20
1.119081584424122
 30
0.0
 11
-34.29177612357631
 21
0.9190825844240748
 31
0.0
  0
LINE
  5
226
330
2
100
AcDbEntity
  8
GAIKEI
  6
Continuous
 62
     1
100
AcDbLine
 10
-34.4917761235763
 20
1.119081584424122
 30
0.0
 11
-34.29177612357631
 21
1.119081584424122
 31
0.0
  0
SPLINE
  5
227
330
2
100
AcDbEntity
  8
GAIKEI
  6
Continuous
 62
     1
100
AcDbSpline
210
0.0
220
0.0
230
1.0
 70
     8
 71
     3
 72
     9
 73
     5
 74
     3
 42
0.0000000001
 43
0.0000000001
 44
0.000001
 12
-0.0000359801859974
 22
-0.9999999993527131
 32
0.0
 13
0.9999999098410434
 23
0.0004246385583656
 33
0.0
 40
0.0
 40
0.0
 40
0.0
 40
0.0
 40
0.0228091183271754
 40
0.0456250117216387
 40
0.0456250117216387
 40
0.0456250117216387
 40
0.0456250117216387
 10
16.81539127423178
 20
2.999062329736602
 30
0.0
 10
16.815391000673
 20
2.991459290299133
 30
0.0
 10
16.82230824026527
 20
2.975983684101805
 30
0.0
 10
16.837787808174
 20
2.96907863148391
 30
0.0
 10
16.84539310528646
 20
2.969081860986591
 30
0.0
 11
16.81539127423178
 21
2.999062329736602
 31
0.0
 11
16.82444645510617
 21
2.978127274427208
 31
0.0
 11
16.84539310528646
 21
2.969081860986591
 31
0.0
  0
SPLINE
  5
228
330
2
100
AcDbEntity
  8
GAIKEI
  6
Continuous
 62
     1
100
AcDbSpline
210
0.0
220
0.0
230
1.0
 70
     8
 71
     3
 72
     9
 73
     5
 74
     3
 42
0.0000000001
 43
0.0000000001
 44
0.000001
 12
0.9999999097983575
 22
-0.0004247390692515
 32
0.0
 13
0.0001999441164461
 23
0.999999980011175
 33
0.0
 40
0.0
 40
0.0
 40
0.0
 40
0.0
 40
0.022814713321308
 40
0.0456255157913758
 40
0.0456255157913758
 40
0.0456255157913758
 40
0.0456255157913758
 10
18.18538181378255
 20
2.969081860986591
 30
0.0
 10
18.19298671753702
 20
2.969078630886571
 30
0.0
 10
18.20846503728304
 20
2.975985472520306
 30
0.0
 10
18.21538517629977
 20
2.991458729065243
 30
0.0
 10
18.21538669659503
 20
2.999062329736602
 30
0.0
 11
18.18538181378255
 21
2.969081860986591
 31
0.0
 11
18.20632715740862
 21
2.978127326591277
 31
0.0
 11
18.21538669659503
 21
2.999062329736602
 31
0.0
  0
LINE
  5
229
330
2
100
AcDbEntity
  8
GAIKEI
  6
Continuous
 62
     1
100
AcDbLine
 10
16.81539130479814
 20
3.01908188442411
 30
0.0
 11
16.81539130479814
 21
2.999062284424098
 31
0.0
  0
LINE
  5
22A
330
2
100
AcDbEntity
  8
GAIKEI
  6
Continuous
 62
     1
100
AcDbLine
 10
18.21538670479816
 20
2.999062284424098
 30
0.0
 11
18.21538670479816
 21
3.01908188442411
 31
0.0
  0
LINE
  5
22B
330
2
100
AcDbEntity
  8
GAIKEI
  6
Continuous
 62
     1
100
AcDbLine
 10
17.85828980479817
 20
2.619081884424133
 30
0.0
 11
17.85828980479817
 21
2.51908188442411
 31
0.0
  0
LINE
  5
22C
330
2
100
AcDbEntity
  8
GAIKEI
  6
Continuous
 62
     1
100
AcDbLine
 10
17.54828920479815
 20
2.619081884424133
 30
0.0
 11
17.85828980479817
 21
2.619081884424133
 31
0.0
  0
LINE
  5
22D
330
2
100
AcDbEntity
  8
GAIKEI
  6
Continuous
 62
     1
100
AcDbLine
 10
22.05828210479814
 20
2.61908178442411
 30
0.0
 11
22.05828210479814
 21
2.519081784424145
 31
0.0
  0
LINE
  5
22E
330
2
100
AcDbEntity
  8
GAIKEI
  6
Continuous
 62
     1
100
AcDbLine
 10
17.85828980479817
 20
2.619081884424133
 30
0.0
 11
22.05828210479814
 21
2.619081884424133
 31
0.0
  0
LINE
  5
22F
330
2
100
AcDbEntity
  8
GAIKEI
  6
Continuous
 62
     1
100
AcDbLine
 10
22.05828210479814
 20
2.619081884424133
 30
0.0
 11
22.45689050479814
 21
2.619081884424133
 31
0.0
  0
LINE
  5
230
330
2
100
AcDbEntity
  8
GAIKEI
  6
Continuous
 62
     1
100
AcDbLine
 10
22.05828210479814
 20
2.619081884424133
 30
0.0
 11
22.05828210479814
 21
3.01908188442411
 31
0.0
  0
LINE
  5
231
330
2
100
AcDbEntity
  8
GAIKEI
  6
Continuous
 62
     1
100
AcDbLine
 10
17.85828970479815
 20
2.619081884424133
 30
0.0
 11
17.85828970479815
 21
2.969081884424099
 31
0.0
  0
LINE
  5
232
330
2
100
AcDbEntity
  8
GAIKEI
  6
Continuous
 62
     1
100
AcDbLine
 10
49.04827240479818
 20
1.319081884424122
 30
0.0
 11
49.04827240479818
 21
1.410366084424083
 31
0.0
  0
LINE
  5
233
330
2
100
AcDbEntity
  8
GAIKEI
  6
Continuous
 62
     1
100
AcDbLine
 10
49.04827240479818
 20
1.410366084424083
 30
0.0
 11
49.55625580479818
 21
1.410366084424083
 31
0.0
  0
LINE
  5
234
330
2
100
AcDbEntity
  8
GAIKEI
  6
Continuous
 62
     1
100
AcDbLine
 10
48.54827240479818
 20
1.319081884424122
 30
0.0
 11
48.54827240479818
 21
1.410366084424083
 31
0.0
  0
LINE
  5
235
330
2
100
AcDbEntity
  8
GAIKEI
  6
Continuous
 62
     1
100
AcDbLine
 10
48.54827240479818
 20
1.410366084424083
 30
0.0
 11
49.04827240479818
 21
1.410366084424083
 31
0.0
  0
LINE
  5
236
330
2
100
AcDbEntity
  8
GAIKEI
  6
Continuous
 62
     1
100
AcDbLine
 10
48.04028900479818
 20
1.410366084424083
 30
0.0
 11
48.54827240479818
 21
1.410366084424083
 31
0.0
  0
LINE
  5
237
330
2
100
AcDbEntity
  8
GAIKEI
  6
Continuous
 62
     1
100
AcDbLine
 10
48.54827240479818
 20
1.410366084424083
 30
0.0
 11
48.54827240479818
 21
3.01908188442411
 31
0.0
  0
LINE
  5
238
330
2
100
AcDbEntity
  8
GAIKEI
  6
Continuous
 62
     1
100
AcDbLine
 10
49.04827240479818
 20
1.410366084424083
 30
0.0
 11
49.04827240479818
 21
3.01908188442411
 31
0.0
  0
CIRCLE
  5
239
330
2
100
AcDbEntity
  8
GAIKEI
  6
Continuous
 62
     1
100
AcDbCircle
 10
15.09828920479816
 20
6.059072084424144
 30
0.0
 40
0.2299999000000001
  0
CIRCLE
  5
23A
330
2
100
AcDbEntity
  8
GAIKEI
  6
Continuous
 62
     1
100
AcDbCircle
 10
49.69827240479816
 20
6.059072084424144
 30
0.0
 40
0.2299999000000001
  0
LINE
  5
23B
330
2
100
AcDbEntity
  8
GAIKEI
  6
Continuous
100
AcDbLine
 10
12.99828920479814
 20
3.01908188442411
 30
0.0
 11
12.89828920479817
 21
3.01908188442411
 31
0.0
  0
LINE
  5
23C
330
2
100
AcDbEntity
  8
GAIKEI
  6
Continuous
100
AcDbLine
 10
55.01434240479818
 20
18.36908188442413
 30
0.0
 11
55.01434240479818
 21
16.27906718442409
 31
0.0
  0
LINE
  5
23D
330
2
100
AcDbEntity
  8
GAIKEI
  6
Continuous
100
AcDbLine
 10
55.01434240479818
 20
16.27906718442409
 30
0.0
 11
55.01434240479818
 21
3.219081884424099
 31
0.0
  0
ARC
  5
23E
330
2
100
AcDbEntity
  8
GAIKEI
  6
Continuous
100
AcDbCircle
 10
12.89828920479817
 20
3.219081884424099
 30
0.0
 40
0.2
100
AcDbArc
 50
180.0000009999949
 51
269.999982999999
  0
LINE
  5
23F
330
2
100
AcDbEntity
  8
GAIKEI
  6
Continuous
100
AcDbLine
 10
12.69828920479813
 20
3.219081884424099
 30
0.0
 11
12.69828920479813
 21
5.259072084424133
 31
0.0
  0
LINE
  5
240
330
2
100
AcDbEntity
  8
GAIKEI
  6
Continuous
100
AcDbLine
 10
12.69828920479813
 20
5.259072084424133
 30
0.0
 11
12.69828920479813
 21
16.27906718442409
 31
0.0
  0
LINE
  5
241
330
2
100
AcDbEntity
  8
GAIKEI
  6
Continuous
100
AcDbLine
 10
12.69828920479813
 20
16.27906718442409
 30
0.0
 11
12.69828920479813
 21
18.31908188442412
 31
0.0
  0
ARC
  5
242
330
2
100
AcDbEntity
  8
GAIKEI
  6
Continuous
100
AcDbCircle
 10
12.89828920479817
 20
18.31908188442406
 30
0.0
 40
0.2
100
AcDbArc
 50
89.99996400000156
 51
180.0000009999949
  0
LINE
  5
243
330
2
100
AcDbEntity
  8
GAIKEI
  6
Continuous
 62
     1
100
AcDbLine
 10
13.01399810479813
 20
4.819081884424122
 30
0.0
 11
55.01434240479821
 21
4.819081884424178
 31
0.0
  0
LINE
  5
244
330
2
100
AcDbEntity
  8
GAIKEI
  6
Continuous
100
AcDbLine
 10
12.89828920479817
 20
18.51908188442411
 30
0.0
 11
54.8643424047982
 21
18.51908188442411
 31
0.0
  0
LINE
  5
245
330
2
100
AcDbEntity
  8
GAIKEI
  6
Continuous
 62
     1
100
AcDbLine
 10
12.99828950479815
 20
3.019079084424106
 30
0.0
 11
13.01399790479814
 21
4.819083784424094
 31
0.0
  0
CIRCLE
  5
246
330
2
100
AcDbEntity
  8
GAIKEI
  6
Continuous
 62
     1
100
AcDbCircle
 10
49.69827240479816
 20
6.059072084424144
 30
0.0
 40
0.4406187
  0
CIRCLE
  5
247
330
2
100
AcDbEntity
  8
GAIKEI
  6
Continuous
 62
     1
100
AcDbCircle
 10
49.69827240479816
 20
6.059072084424144
 30
0.0
 40
0.4905501
  0
CIRCLE
  5
248
330
2
100
AcDbEntity
  8
GAIKEI
  6
Continuous
 62
     1
100
AcDbCircle
 10
15.09828920479816
 20
6.059072084424144
 30
0.0
 40
0.4905501
  0
CIRCLE
  5
249
330
2
100
AcDbEntity
  8
GAIKEI
  6
Continuous
 62
     1
100
AcDbCircle
 10
15.09828920479816
 20
6.059072084424144
 30
0.0
 40
0.4299999999999998
  0
LINE
  5
24A
330
2
100
AcDbEntity
  8
GAIKEI
  6
Continuous
 62
     1
100
AcDbLine
 10
12.89828920479817
 20
5.259072084424133
 30
0.0
 11
55.01434240479821
 21
5.25907208442419
 31
0.0
  0
LINE
  5
24B
330
2
100
AcDbEntity
  8
GAIKEI
  6
Continuous
 62
     1
100
AcDbLine
 10
12.89828920479817
 20
16.27906718442409
 30
0.0
 11
55.01434240479818
 21
16.27906718442409
 31
0.0
  0
LINE
  5
24C
330
2
100
AcDbEntity
  8
GAIKEI
  6
Continuous
 62
     1
100
AcDbLine
 10
12.89828920479817
 20
18.51908188442411
 30
0.0
 11
12.89828920479817
 21
3.01908188442411
 31
0.0
  0
ARC
  5
24D
330
2
100
AcDbEntity
  8
GAIKEI
  6
Continuous
100
AcDbCircle
 10
54.86434240479815
 20
18.36908188442413
 30
0.0
 40
0.15
100
AcDbArc
 50
359.9999820000008
 51
89.99996400000156
  0
LINE
  5
24E
330
2
100
AcDbEntity
  8
GAIKEI
  6
Continuous
 62
     1
100
AcDbLine
 10
40.27876560479813
 20
8.621645384424084
 30
0.0
 11
39.54827240479819
 21
8.621645384424084
 31
0.0
  0
LINE
  5
24F
330
2
100
AcDbEntity
  8
GAIKEI
  6
Continuous
 62
     1
100
AcDbLine
 10
40.27876560479813
 20
8.32181628442413
 30
0.0
 11
40.27876560479813
 21
8.621645384424084
 31
0.0
  0
LINE
  5
250
330
2
100
AcDbEntity
  8
GAIKEI
  6
Continuous
 62
     1
100
AcDbLine
 10
40.27876560479813
 20
12.91651838442414
 30
0.0
 11
40.27876560479813
 21
13.21632308442412
 31
0.0
  0
LINE
  5
251
330
2
100
AcDbEntity
  8
GAIKEI
  6
Continuous
 62
     1
100
AcDbLine
 10
39.54827240479819
 20
12.91651838442414
 30
0.0
 11
40.27876560479813
 21
12.91651838442414
 31
0.0
  0
LINE
  5
252
330
2
100
AcDbEntity
  8
GAIKEI
  6
Continuous
 62
     1
100
AcDbLine
 10
40.27876560479813
 20
12.91651838442414
 30
0.0
 11
40.27876560479813
 21
8.621645384424084
 31
0.0
  0
LINE
  5
253
330
2
100
AcDbEntity
  8
GAIKEI
  6
Continuous
 62
     1
100
AcDbLine
 10
39.6370419047982
 20
8.093398284424097
 30
0.0
 11
39.6370419047982
 21
6.119081884424133
 31
0.0
  0
ARC
  5
254
330
2
100
AcDbEntity
  8
GAIKEI
  6
Continuous
 62
     1
100
AcDbCircle
 10
39.25828220479815
 20
6.119081884424133
 30
0.0
 40
0.3787605999999998
100
AcDbArc
 50
270.0
 51
359.9999820000008
  0
LINE
  5
255
330
2
100
AcDbEntity
  8
GAIKEI
  6
Continuous
 62
     1
100
AcDbLine
 10
39.25828220479821
 20
5.740322084424121
 30
0.0
 11
17.64828920479817
 21
5.740322084424121
 31
0.0
  0
ARC
  5
256
330
2
100
AcDbEntity
  8
GAIKEI
  6
Continuous
 62
     1
100
AcDbCircle
 10
17.64828920479817
 20
6.119081884424133
 30
0.0
 40
0.3787605999999998
100
AcDbArc
 50
180.0000009999949
 51
269.999982999999
  0
LINE
  5
257
330
2
100
AcDbEntity
  8
GAIKEI
  6
Continuous
 62
     1
100
AcDbLine
 10
17.26948060479816
 20
6.119081884424133
 30
0.0
 11
17.26948060479816
 21
15.41908188442409
 31
0.0
  0
ARC
  5
258
330
2
100
AcDbEntity
  8
GAIKEI
  6
Continuous
 62
     1
100
AcDbCircle
 10
17.64828920479817
 20
15.41908188442409
 30
0.0
 40
0.3787605999999998
100
AcDbArc
 50
89.99996400000156
 51
180.0000009999949
  0
LINE
  5
259
330
2
100
AcDbEntity
  8
GAIKEI
  6
Continuous
 62
     1
100
AcDbLine
 10
17.64828920479817
 20
15.79784158442413
 30
0.0
 11
39.25828220479821
 21
15.79784158442413
 31
0.0
  0
ARC
  5
25A
330
2
100
AcDbEntity
  8
GAIKEI
  6
Continuous
 62
     1
100
AcDbCircle
 10
39.25828220479815
 20
15.41908188442409
 30
0.0
 40
0.3787605999999998
100
AcDbArc
 50
359.9999820000008
 51
89.99996400000156
  0
LINE
  5
25B
330
2
100
AcDbEntity
  8
GAIKEI
  6
Continuous
 62
     1
100
AcDbLine
 10
39.6370419047982
 20
15.41908188442409
 30
0.0
 11
39.6370419047982
 21
13.44474098442413
 31
0.0
  0
LINE
  5
25C
330
2
100
AcDbEntity
  8
GAIKEI
  6
Continuous
 62
     1
100
AcDbLine
 10
39.63704200479816
 20
13.44474108442409
 30
0.0
 11
41.48587010479815
 21
13.44474108442409
 31
0.0
  0
SPLINE
  5
25D
330
2
100
AcDbEntity
  8
GAIKEI
  6
Continuous
 62
     1
100
AcDbSpline
210
0.0
220
0.0
230
1.0
 70
     8
 71
     3
 72
     9
 73
     5
 74
     3
 42
0.0000000001
 43
0.0000000001
 44
0.000001
 12
0.9999999945136631
 22
-0.0001047505321455
 32
0.0
 13
-0.0000507765463937
 23
-0.9999999987108711
 33
0.0
 40
0.0
 40
0.0
 40
0.0
 40
0.0
 40
0.2250236102898508
 40
0.7670415735727283
 40
0.7670415735727283
 40
0.7670415735727283
 40
0.7670415735727283
 10
41.48587009503256
 20
13.44476545473662
 30
0.0
 10
41.56087796471766
 20
13.44475759762232
 30
0.0
 10
41.81889920385771
 20
13.40135473884405
 30
0.0
 10
42.00792516740349
 20
13.12997912455631
 30
0.0
 10
42.00791599347008
 20
12.94930647036159
 30
0.0
 11
41.48587009503256
 21
13.44476545473662
 31
0.0
 11
41.70632907940756
 21
13.39967268129913
 31
0.0
 11
42.00791599347008
 21
12.94930647036159
 31
0.0
  0
LINE
  5
25E
330
2
100
AcDbEntity
  8
GAIKEI
  6
Continuous
 62
     1
100
AcDbLine
 10
42.00791600479817
 20
12.94925768442414
 30
0.0
 11
42.00791600479817
 21
8.588881684424109
 31
0.0
  0
SPLINE
  5
25F
330
2
100
AcDbEntity
  8
GAIKEI
  6
Continuous
 62
     1
100
AcDbSpline
210
0.0
220
0.0
230
1.0
 70
     8
 71
     3
 72
     9
 73
     5
 74
     3
 42
0.0000000001
 43
0.0000000001
 44
0.000001
 12
-0.0006415001725412
 22
-0.9999997942387432
 32
0.0
 13
-0.9999999997546614
 23
0.0000221512341493
 33
0.0
 40
0.0
 40
0.0
 40
0.0
 40
0.0
 40
0.4107842435658897
 40
0.7796081822822263
 40
0.7796081822822263
 40
0.7796081822822263
 40
0.7796081822822263
 10
42.00791599347008
 20
8.588881665674136
 30
0.0
 10
42.00782815408238
 20
8.451953612659991
 30
0.0
 10
41.8800741900416
 20
8.180420596647707
 30
0.0
 10
41.60881140790784
 20
8.093395543934832
 30
0.0
 10
41.48587009503256
 20
8.093398267236636
 30
0.0
 11
42.00791599347008
 21
8.588881665674136
 31
0.0
 11
41.83335544659508
 21
8.217031079736614
 31
0.0
 11
41.48587009503256
 21
8.093398267236636
 31
0.0
  0
LINE
  5
260
330
2
100
AcDbEntity
  8
GAIKEI
  6
Continuous
 62
     1
100
AcDbLine
 10
41.48587010479815
 20
8.093398284424097
 30
0.0
 11
39.63704200479816
 21
8.093398284424097
 31
0.0
  0
SPLINE
  5
261
330
2
100
AcDbEntity
  8
GAIKEI
  6
Continuous
 62
     1
100
AcDbSpline
210
0.0
220
0.0
230
1.0
 70
     8
 71
     3
 72
     9
 73
     5
 74
     3
 42
0.0000000001
 43
0.0000000001
 44
0.000001
 12
0.0030894571282124
 22
-0.9999952276159385
 32
0.0
 13
-0.9999739602529967
 23
0.0072165653837817
 33
0.0
 40
0.0
 40
0.0
 40
0.0
 40
0.0
 40
0.2475566093563242
 40
0.4810702892459933
 40
0.4810702892459933
 40
0.4810702892459933
 40
0.4810702892459933
 10
41.81577732159508
 20
8.588881665674136
 30
0.0
 10
41.81603226010554
 20
8.506363189700437
 30
0.0
 10
41.73297421764985
 20
8.338952465238918
 30
0.0
 10
41.56370596145007
 20
8.292714474677808
 30
0.0
 10
41.48587009503256
 20
8.293276196924125
 30
0.0
 11
41.81577732159508
 21
8.588881665674136
 31
0.0
 11
41.70772068097005
 21
8.366152173486625
 31
0.0
 11
41.48587009503256
 21
8.293276196924125
 31
0.0
  0
SPLINE
  5
262
330
2
100
AcDbEntity
  8
GAIKEI
  6
Continuous
 62
     1
100
AcDbSpline
210
0.0
220
0.0
230
1.0
 70
     8
 71
     3
 72
     9
 73
     5
 74
     3
 42
0.0000000001
 43
0.0000000001
 44
0.000001
 12
0.9999999994390073
 22
-0.0000334960536252
 32
0.0
 13
0.9954472565751583
 23
-0.0953140040969372
 33
0.0
 40
0.0
 40
0.0
 40
0.0
 40
0.0
 40
0.9606391395049048
 40
1.537517925658127
 40
1.537517925658127
 40
1.537517925658127
 40
1.537517925658127
 10
40.27876560284505
 20
8.621645337549125
 30
0.0
 10
40.59897864916706
 20
8.621634611675744
 30
0.0
 10
41.11106980780118
 20
8.612692235365386
 30
0.0
 10
41.62435985324418
 20
8.607209874669763
 30
0.0
 10
41.81577732159508
 20
8.588881665674136
 30
0.0
 11
40.27876560284505
 21
8.621645337549125
 31
0.0
 11
41.23935432030566
 21
8.611809943484672
 31
0.0
 11
41.81577732159508
 21
8.588881665674136
 31
0.0
  0
SPLINE
  5
263
330
2
100
AcDbEntity
  8
GAIKEI
  6
Continuous
 62
     1
100
AcDbSpline
210
0.0
220
0.0
230
1.0
 70
     8
 71
     3
 72
     9
 73
     5
 74
     3
 42
0.0000000001
 43
0.0000000001
 44
0.000001
 12
0.9999722406974347
 22
0.0074510290934466
 32
0.0
 13
-0.0044982697799815
 23
-0.9999898827333137
 33
0.0
 40
0.0
 40
0.0
 40
0.0
 40
0.0
 40
0.1442554629914342
 40
0.4728156950081893
 40
0.4728156950081893
 40
0.4728156950081893
 40
0.4728156950081893
 10
41.48587009503256
 20
13.24486311098661
 30
0.0
 10
41.53395391455271
 20
13.2452213948705
 30
0.0
 10
41.69315839500893
 20
13.22368595161535
 30
0.0
 10
41.81626997244928
 20
13.05882543965668
 30
0.0
 10
41.81577732159508
 20
12.94930647036159
 30
0.0
 11
41.48587009503256
 21
13.24486311098661
 31
0.0
 11
41.62774021222003
 21
13.21874006411161
 31
0.0
 11
41.81577732159508
 21
12.94930647036159
 31
0.0
  0
SPLINE
  5
264
330
2
100
AcDbEntity
  8
GAIKEI
  6
Continuous
 62
     1
100
AcDbSpline
210
0.0
220
0.0
230
1.0
 70
     8
 71
     3
 72
     9
 73
     5
 74
     3
 42
0.0000000001
 43
0.0000000001
 44
0.000001
 12
-0.9952301696868319
 22
-0.097554647993419
 32
0.0
 13
-0.9999999999075649
 23
0.0000135966960827
 33
0.0
 40
0.0
 40
0.0
 40
0.0
 40
0.0
 40
0.5769208660303464
 40
1.537523536493255
 40
1.537523536493255
 40
1.537523536493255
 40
1.537523536493255
 10
41.81577732159508
 20
12.94930647036159
 30
0.0
 10
41.62438763779667
 20
12.93054603302639
 30
0.0
 10
41.11103281241375
 20
12.92548197593095
 30
0.0
 10
40.59896649296976
 20
12.91651403074993
 30
0.0
 10
40.27876560284505
 20
12.91651838442414
 30
0.0
 11
41.81577732159508
 21
12.94930647036159
 31
0.0
 11
41.23931943966761
 21
12.92619703411111
 31
0.0
 11
40.27876560284505
 21
12.91651838442414
 31
0.0
  0
SPLINE
  5
265
330
2
100
AcDbEntity
  8
GAIKEI
  6
Continuous
 62
     1
100
AcDbSpline
210
0.0
220
0.0
230
1.0
 70
     8
 71
     3
 72
     9
 73
     5
 74
     3
 42
0.0000000001
 43
0.0000000001
 44
0.000001
 12
-0.9962219214731836
 22
-0.0868440163527577
 32
0.0
 13
-0.9999999997571146
 23
-0.0000220402098375
 33
0.0
 40
0.0
 40
0.0
 40
0.0
 40
0.0
 40
0.4790974923049448
 40
1.207583632153768
 40
1.207583632153768
 40
1.207583632153768
 40
1.207583632153768
 10
41.48587009503256
 20
13.24486311098661
 30
0.0
 10
41.32677428691354
 20
13.23099419416786
 30
0.0
 10
40.92393210938626
 20
13.22222943234456
 30
0.0
 10
40.52159431606901
 20
13.21632842391992
 30
0.0
 10
40.27876560284505
 20
13.21632307192414
 30
0.0
 11
41.48587009503256
 21
13.24486311098661
 31
0.0
 11
41.00720587565314
 21
13.22449128015068
 31
0.0
 11
40.27876560284505
 21
13.21632307192414
 31
0.0
  0
LINE
  5
266
330
2
100
AcDbEntity
  8
GAIKEI
  6
Continuous
 62
     1
100
AcDbLine
 10
41.81577730479818
 20
8.588881684424109
 30
0.0
 11
41.81577730479818
 21
12.94925768442414
 31
0.0
  0
LINE
  5
267
330
2
100
AcDbEntity
  8
GAIKEI
  6
Continuous
 62
     1
100
AcDbLine
 10
41.48587010479815
 20
8.293276184424087
 30
0.0
 11
39.63198830479814
 21
8.293276184424087
 31
0.0
  0
LINE
  5
268
330
2
100
AcDbEntity
  8
GAIKEI
  6
Continuous
 62
     1
100
AcDbLine
 10
39.63198830479814
 20
13.24486308442414
 30
0.0
 11
41.48587010479815
 21
13.24486308442414
 31
0.0
  0
SPLINE
  5
269
330
2
100
AcDbEntity
  8
GAIKEI
  6
Continuous
 62
     1
100
AcDbSpline
210
0.0
220
0.0
230
1.0
 70
     8
 71
     3
 72
     9
 73
     5
 74
     3
 42
0.0000000001
 43
0.0000000001
 44
0.000001
 12
0.0001272526161599
 22
-0.9999999919033857
 32
0.0
 13
-0.6010462563449485
 23
-0.7992142376945763
 33
0.0
 40
0.0
 40
0.0
 40
0.0
 40
0.0
 40
0.1385590750849553
 40
0.200000313512155
 40
0.200000313512155
 40
0.200000313512155
 40
0.200000313512155
 10
39.63704197003256
 20
13.44476545473662
 30
0.0
 10
39.63704784736748
 20
13.39857909674893
 30
0.0
 10
39.62463409345961
 20
13.33646605792569
 30
0.0
 10
39.64429793454235
 20
13.26123134849749
 30
0.0
 10
39.63198825909507
 20
13.24486311098661
 30
0.0
 11
39.63704197003256
 21
13.44476545473662
 31
0.0
 11
39.63524264394232
 21
13.30621840229361
 31
0.0
 11
39.63198825909507
 21
13.24486311098661
 31
0.0
  0
LINE
  5
26A
330
2
100
AcDbEntity
  8
GAIKEI
  6
Continuous
 62
     1
100
AcDbLine
 10
41.48587010479815
 20
13.24486308442414
 30
0.0
 11
41.48587010479815
 21
13.44474108442409
 31
0.0
  0
LINE
  5
26B
330
2
100
AcDbEntity
  8
GAIKEI
  6
Continuous
 62
     1
100
AcDbLine
 10
41.81577960479819
 20
12.9492951844241
 30
0.0
 11
42.00791830479817
 21
12.94929488442409
 31
0.0
  0
LINE
  5
26C
330
2
100
AcDbEntity
  8
GAIKEI
  6
Continuous
 62
     1
100
AcDbLine
 10
41.81577730479818
 20
8.588881684424109
 30
0.0
 11
42.00791600479817
 21
8.588881684424109
 31
0.0
  0
LINE
  5
26D
330
2
100
AcDbEntity
  8
GAIKEI
  6
Continuous
 62
     1
100
AcDbLine
 10
41.48587010479815
 20
8.293276184424087
 30
0.0
 11
41.48587010479815
 21
8.093398284424097
 31
0.0
  0
SPLINE
  5
26E
330
2
100
AcDbEntity
  8
GAIKEI
  6
Continuous
 62
     1
100
AcDbSpline
210
0.0
220
0.0
230
1.0
 70
     8
 71
     3
 72
     9
 73
     5
 74
     3
 42
0.0000000001
 43
0.0000000001
 44
0.000001
 12
0.6039334252767212
 22
-0.797034765762151
 32
0.0
 13
-0.0001271828479802
 23
-0.9999999919122616
 33
0.0
 40
0.0
 40
0.0
 40
0.0
 40
0.0
 40
0.0614280083452533
 40
0.1999759866734408
 40
0.1999759866734408
 40
0.1999759866734408
 40
0.1999759866734408
 10
39.63198825909507
 20
8.293276196924125
 30
0.0
 10
39.64435440159102
 20
8.276956110843229
 30
0.0
 10
39.62457305231396
 20
8.201636061742277
 30
0.0
 10
39.63704784367471
 20
8.139580926305853
 30
0.0
 10
39.63704197003256
 20
8.093398267236636
 30
0.0
 11
39.63198825909507
 21
8.293276196924125
 31
0.0
 11
39.63524433197608
 21
8.231934242156398
 31
0.0
 11
39.63704197003256
 21
8.093398267236636
 31
0.0
  0
LINE
  5
26F
330
2
100
AcDbEntity
  8
GAIKEI
  6
Continuous
 62
     1
100
AcDbLine
 10
17.41146060479815
 20
15.41908188442409
 30
0.0
 11
17.41146060479815
 21
6.119081884424133
 31
0.0
  0
SPLINE
  5
270
330
2
100
AcDbEntity
  8
GAIKEI
  6
Continuous
 62
     1
100
AcDbSpline
210
0.0
220
0.0
230
1.0
 70
     8
 71
     3
 72
     9
 73
     5
 74
     3
 42
0.0000000001
 43
0.0000000001
 44
0.000001
 12
0.0001736743318964
 22
-0.9999999849186131
 32
0.0
 13
0.9999999893378511
 23
0.0001460284141218
 33
0.0
 40
0.0
 40
0.0
 40
0.0
 40
0.0
 40
0.1809125820784042
 40
0.3618144121603755
 40
0.3618144121603755
 40
0.3618144121603755
 40
0.3618144121603755
 10
17.41145450665363
 20
6.119081860986625
 30
0.0
 10
17.41146497994424
 20
6.058777667869975
 30
0.0
 10
17.46324875160798
 20
5.934050487754689
 30
0.0
 10
17.58798403642941
 20
5.882232235071654
 30
0.0
 10
17.64828464581382
 20
5.882241040674102
 30
0.0
 11
17.41145450665363
 21
6.119081860986625
 31
0.0
 11
17.48148854378246
 21
5.952274391159164
 31
0.0
 11
17.64828464581382
 21
5.882241040674102
 31
0.0
  0
LINE
  5
271
330
2
100
AcDbEntity
  8
GAIKEI
  6
Continuous
 62
     1
100
AcDbLine
 10
17.64828920479817
 20
5.882241084424094
 30
0.0
 11
39.24827240479817
 21
5.882241084424094
 31
0.0
  0
SPLINE
  5
272
330
2
100
AcDbEntity
  8
GAIKEI
  6
Continuous
 62
     1
100
AcDbSpline
210
0.0
220
0.0
230
1.0
 70
     8
 71
     3
 72
     9
 73
     5
 74
     3
 42
0.0000000001
 43
0.0000000001
 44
0.000001
 12
0.9999999907799267
 22
-0.0001357945011297
 32
0.0
 13
-0.0001426622183006
 23
0.9999999898237458
 33
0.0
 40
0.0
 40
0.0
 40
0.0
 40
0.0
 40
0.1809116358628979
 40
0.3618310285305651
 40
0.3618310285305651
 40
0.3618310285305651
 40
0.3618310285305651
 10
39.24827243878258
 20
5.882241040674102
 30
0.0
 10
39.30857631684754
 20
5.88223285173899
 30
0.0
 10
39.43331913817016
 20
5.934031966112911
 30
0.0
 10
39.48512186254908
 20
6.058775397377758
 30
0.0
 10
39.4851132590951
 20
6.119081860986625
 30
0.0
 11
39.24827243878258
 21
5.882241040674102
 31
0.0
 11
39.41508292860977
 21
5.952265445846535
 31
0.0
 11
39.4851132590951
 21
6.119081860986625
 31
0.0
  0
LINE
  5
273
330
2
100
AcDbEntity
  8
GAIKEI
  6
Continuous
 62
     1
100
AcDbLine
 10
39.48511330479817
 20
6.119081884424133
 30
0.0
 11
39.48511330479817
 21
15.41908188442409
 31
0.0
  0
SPLINE
  5
274
330
2
100
AcDbEntity
  8
GAIKEI
  6
Continuous
 62
     1
100
AcDbSpline
210
0.0
220
0.0
230
1.0
 70
     8
 71
     3
 72
     9
 73
     5
 74
     3
 42
0.0000000001
 43
0.0000000001
 44
0.000001
 12
0.0001602853249288
 22
0.9999999871543073
 32
0.0
 13
-0.9999999999910924
 23
-0.0000042207988632
 33
0.0
 40
0.0
 40
0.0
 40
0.0
 40
0.0
 40
0.1808922013790344
 40
0.361809872320551
 40
0.361809872320551
 40
0.361809872320551
 40
0.361809872320551
 10
39.4851132590951
 20
15.41908186098664
 30
0.0
 10
39.48512292388353
 20
15.47937926067175
 30
0.0
 10
39.43331210636697
 20
15.60411419157384
 30
0.0
 10
39.30857832909587
 20
15.65589852177567
 30
0.0
 10
39.24827243878258
 20
15.65589826723664
 30
0.0
 11
39.4851132590951
 21
15.41908186098664
 31
0.0
 11
39.41508828610398
 21
15.58587103664541
 31
0.0
 11
39.24827243878258
 21
15.65589826723664
 31
0.0
  0
LINE
  5
275
330
2
100
AcDbEntity
  8
GAIKEI
  6
Continuous
 62
     1
100
AcDbLine
 10
39.24827240479817
 20
15.6558982844241
 30
0.0
 11
17.64828920479817
 21
15.6558982844241
 31
0.0
  0
SPLINE
  5
276
330
2
100
AcDbEntity
  8
GAIKEI
  6
Continuous
 62
     1
100
AcDbSpline
210
0.0
220
0.0
230
1.0
 70
     8
 71
     3
 72
     9
 73
     5
 74
     3
 42
0.0000000001
 43
0.0000000001
 44
0.000001
 12
-0.9999999999922298
 22
0.0000039421808572
 32
0.0
 13
-0.0001546433183978
 23
-0.9999999880427219
 33
0.0
 40
0.0
 40
0.0
 40
0.0
 40
0.0
 40
0.1808914546835169
 40
0.3617971649710581
 40
0.3617971649710581
 40
0.3617971649710581
 40
0.3617971649710581
 10
17.64828464581382
 20
15.65589826723664
 30
0.0
 10
17.58798749425313
 20
15.6558985049389
 30
0.0
 10
17.46325591882927
 20
15.60411004354998
 30
0.0
 10
17.41146383194012
 20
15.47938376369478
 30
0.0
 10
17.41145450665368
 20
15.41908186098664
 30
0.0
 11
17.64828464581382
 21
15.65589826723664
 31
0.0
 11
17.48149356115766
 21
15.58587977310907
 31
0.0
 11
17.41145450665368
 21
15.41908186098664
 31
0.0
  0
LINE
  5
277
330
2
100
AcDbEntity
  8
GAIKEI
  6
Continuous
 62
     1
100
AcDbLine
 10
19.93711530479817
 20
8.174941284424107
 30
0.0
 11
19.93711530479817
 21
8.743202984424101
 31
0.0
  0
LINE
  5
278
330
2
100
AcDbEntity
  8
GAIKEI
  6
Continuous
 62
     1
100
AcDbLine
 10
34.25945410479818
 20
8.743202984424101
 30
0.0
 11
34.25945410479818
 21
8.174941284424107
 31
0.0
  0
LINE
  5
279
330
2
100
AcDbEntity
  8
GAIKEI
  6
Continuous
 62
     1
100
AcDbLine
 10
19.93711530479817
 20
8.944936384424124
 30
0.0
 11
19.93711530479817
 21
9.513198084424118
 31
0.0
  0
LINE
  5
27A
330
2
100
AcDbEntity
  8
GAIKEI
  6
Continuous
 62
     1
100
AcDbLine
 10
34.25945410479818
 20
9.513198084424118
 30
0.0
 11
34.25945410479818
 21
8.944936384424124
 31
0.0
  0
LINE
  5
27B
330
2
100
AcDbEntity
  8
GAIKEI
  6
Continuous
 62
     1
100
AcDbLine
 10
19.93711530479817
 20
9.714931484424141
 30
0.0
 11
19.93711530479817
 21
10.28321758442411
 31
0.0
  0
LINE
  5
27C
330
2
100
AcDbEntity
  8
GAIKEI
  6
Continuous
 62
     1
100
AcDbLine
 10
34.25945410479818
 20
10.28321758442411
 30
0.0
 11
34.25945410479818
 21
9.714931484424141
 31
0.0
  0
LINE
  5
27D
330
2
100
AcDbEntity
  8
GAIKEI
  6
Continuous
 62
     1
100
AcDbLine
 10
19.93711530479817
 20
10.48495098442407
 30
0.0
 11
19.93711530479817
 21
11.05321268442412
 31
0.0
  0
LINE
  5
27E
330
2
100
AcDbEntity
  8
GAIKEI
  6
Continuous
 62
     1
100
AcDbLine
 10
34.25945410479818
 20
11.05321268442412
 30
0.0
 11
34.25945410479818
 21
10.48495098442407
 31
0.0
  0
LINE
  5
27F
330
2
100
AcDbEntity
  8
GAIKEI
  6
Continuous
 62
     1
100
AcDbLine
 10
19.93711530479817
 20
11.25494608442409
 30
0.0
 11
19.93711530479817
 21
11.8232078844241
 31
0.0
  0
LINE
  5
280
330
2
100
AcDbEntity
  8
GAIKEI
  6
Continuous
 62
     1
100
AcDbLine
 10
34.25945410479818
 20
11.8232078844241
 30
0.0
 11
34.25945410479818
 21
11.25494608442409
 31
0.0
  0
LINE
  5
281
330
2
100
AcDbEntity
  8
GAIKEI
  6
Continuous
 62
     1
100
AcDbLine
 10
19.93711530479817
 20
12.02494128442413
 30
0.0
 11
19.93711530479817
 21
12.59320298442412
 31
0.0
  0
LINE
  5
282
330
2
100
AcDbEntity
  8
GAIKEI
  6
Continuous
 62
     1
100
AcDbLine
 10
34.25945410479818
 20
12.59320298442412
 30
0.0
 11
34.25945410479818
 21
12.02494128442413
 31
0.0
  0
LINE
  5
283
330
2
100
AcDbEntity
  8
GAIKEI
  6
Continuous
 62
     1
100
AcDbLine
 10
19.93711530479817
 20
12.79493638442409
 30
0.0
 11
19.93711530479817
 21
13.36319808442414
 31
0.0
  0
LINE
  5
284
330
2
100
AcDbEntity
  8
GAIKEI
  6
Continuous
 62
     1
100
AcDbLine
 10
34.25945410479818
 20
13.36319808442414
 30
0.0
 11
34.25945410479818
 21
12.79493638442409
 31
0.0
  0
LINE
  5
285
330
2
100
AcDbEntity
  8
GAIKEI
  6
Continuous
 62
     1
100
AcDbLine
 10
19.93711530479817
 20
7.404946084424125
 30
0.0
 11
19.93711530479817
 21
7.973207884424084
 31
0.0
  0
LINE
  5
286
330
2
100
AcDbEntity
  8
GAIKEI
  6
Continuous
 62
     1
100
AcDbLine
 10
34.25945410479818
 20
7.973207884424084
 30
0.0
 11
34.25945410479818
 21
7.404946084424125
 31
0.0
  0
LINE
  5
287
330
2
100
AcDbEntity
  8
GAIKEI
  6
Continuous
 62
     1
100
AcDbLine
 10
19.93711530479817
 20
13.5649314844241
 30
0.0
 11
19.93711530479817
 21
14.13321758442413
 31
0.0
  0
LINE
  5
288
330
2
100
AcDbEntity
  8
GAIKEI
  6
Continuous
 62
     1
100
AcDbLine
 10
34.25945410479818
 20
14.13321758442413
 30
0.0
 11
34.25945410479818
 21
13.5649314844241
 31
0.0
  0
CIRCLE
  5
289
330
2
100
AcDbEntity
  8
GAIKEI
  6
Continuous
 62
     1
100
AcDbCircle
 10
37.94827240479816
 20
10.76908188442411
 30
0.0
 40
0.4799330999999998
  0
CIRCLE
  5
28A
330
2
100
AcDbEntity
  8
GAIKEI
  6
Continuous
 62
     1
100
AcDbCircle
 10
37.94827240479816
 20
10.76908188442411
 30
0.0
 40
0.2054729999999998
  0
CIRCLE
  5
28B
330
2
100
AcDbEntity
  8
GAIKEI
  6
Continuous
 62
     1
100
AcDbCircle
 10
37.94827240479816
 20
10.76908188442411
 30
0.0
 40
0.2028547999999998
  0
CIRCLE
  5
28C
330
2
100
AcDbEntity
  8
GAIKEI
  6
Continuous
 62
     1
100
AcDbCircle
 10
37.94827240479816
 20
10.76908188442411
 30
0.0
 40
0.8
  0
LINE
  5
28D
330
2
100
AcDbEntity
  8
GAIKEI
  6
Continuous
 62
     1
100
AcDbLine
 10
34.25945410479818
 20
13.5649314844241
 30
0.0
 11
19.93711530479817
 21
13.5649314844241
 31
0.0
  0
LINE
  5
28E
330
2
100
AcDbEntity
  8
GAIKEI
  6
Continuous
 62
     1
100
AcDbLine
 10
19.93711530479817
 20
14.13321758442413
 30
0.0
 11
34.25945410479818
 21
14.13321758442413
 31
0.0
  0
LINE
  5
28F
330
2
100
AcDbEntity
  8
GAIKEI
  6
Continuous
 62
     1
100
AcDbLine
 10
34.25945410479818
 20
12.79493638442409
 30
0.0
 11
19.93711530479817
 21
12.79493638442409
 31
0.0
  0
LINE
  5
290
330
2
100
AcDbEntity
  8
GAIKEI
  6
Continuous
 62
     1
100
AcDbLine
 10
19.93711530479817
 20
13.36319808442414
 30
0.0
 11
34.25945410479818
 21
13.36319808442414
 31
0.0
  0
LINE
  5
291
330
2
100
AcDbEntity
  8
GAIKEI
  6
Continuous
 62
     1
100
AcDbLine
 10
34.25945410479818
 20
12.02494128442413
 30
0.0
 11
19.93711530479817
 21
12.02494128442413
 31
0.0
  0
LINE
  5
292
330
2
100
AcDbEntity
  8
GAIKEI
  6
Continuous
 62
     1
100
AcDbLine
 10
19.93711530479817
 20
12.59320298442412
 30
0.0
 11
34.25945410479818
 21
12.59320298442412
 31
0.0
  0
LINE
  5
293
330
2
100
AcDbEntity
  8
GAIKEI
  6
Continuous
 62
     1
100
AcDbLine
 10
34.25945410479818
 20
11.25494618442411
 30
0.0
 11
19.93711530479817
 21
11.25494608442409
 31
0.0
  0
LINE
  5
294
330
2
100
AcDbEntity
  8
GAIKEI
  6
Continuous
 62
     1
100
AcDbLine
 10
19.93711530479817
 20
11.8232078844241
 30
0.0
 11
34.25945410479818
 21
11.8232078844241
 31
0.0
  0
LINE
  5
295
330
2
100
AcDbEntity
  8
GAIKEI
  6
Continuous
 62
     1
100
AcDbLine
 10
34.25945410479818
 20
10.48495098442407
 30
0.0
 11
19.93711530479817
 21
10.48495098442407
 31
0.0
  0
LINE
  5
296
330
2
100
AcDbEntity
  8
GAIKEI
  6
Continuous
 62
     1
100
AcDbLine
 10
19.93711530479817
 20
11.05321268442412
 30
0.0
 11
34.25945410479818
 21
11.05321278442409
 31
0.0
  0
LINE
  5
297
330
2
100
AcDbEntity
  8
GAIKEI
  6
Continuous
 62
     1
100
AcDbLine
 10
34.25945410479818
 20
9.714931484424141
 30
0.0
 11
19.93711530479817
 21
9.714931484424141
 31
0.0
  0
LINE
  5
298
330
2
100
AcDbEntity
  8
GAIKEI
  6
Continuous
 62
     1
100
AcDbLine
 10
19.93711530479817
 20
10.28321758442411
 30
0.0
 11
34.25945410479818
 21
10.28321758442411
 31
0.0
  0
LINE
  5
299
330
2
100
AcDbEntity
  8
GAIKEI
  6
Continuous
 62
     1
100
AcDbLine
 10
34.25945410479818
 20
8.944936384424124
 30
0.0
 11
19.93711530479817
 21
8.944936384424124
 31
0.0
  0
LINE
  5
29A
330
2
100
AcDbEntity
  8
GAIKEI
  6
Continuous
 62
     1
100
AcDbLine
 10
19.93711530479817
 20
9.513198084424118
 30
0.0
 11
34.25945410479818
 21
9.513198084424118
 31
0.0
  0
LINE
  5
29B
330
2
100
AcDbEntity
  8
GAIKEI
  6
Continuous
 62
     1
100
AcDbLine
 10
34.25945410479818
 20
8.174941284424107
 30
0.0
 11
19.93711530479817
 21
8.174941284424107
 31
0.0
  0
LINE
  5
29C
330
2
100
AcDbEntity
  8
GAIKEI
  6
Continuous
 62
     1
100
AcDbLine
 10
19.93711530479817
 20
8.743202984424101
 30
0.0
 11
34.25945410479818
 21
8.743202984424101
 31
0.0
  0
LINE
  5
29D
330
2
100
AcDbEntity
  8
GAIKEI
  6
Continuous
 62
     1
100
AcDbLine
 10
34.25945410479818
 20
7.40494618442409
 30
0.0
 11
19.93711530479817
 21
7.404946084424125
 31
0.0
  0
LINE
  5
29E
330
2
100
AcDbEntity
  8
GAIKEI
  6
Continuous
 62
     1
100
AcDbLine
 10
19.93711530479817
 20
7.973207884424084
 30
0.0
 11
34.25945410479818
 21
7.973207884424084
 31
0.0
  0
LINE
  5
29F
330
2
100
AcDbEntity
  8
GAIKEI
  6
Continuous
 62
     1
100
AcDbLine
 10
11.11434600479816
 20
8.194081884424122
 30
0.0
 11
11.11434600479816
 21
15.31908188442412
 31
0.0
  0
LINE
  5
2A0
330
2
100
AcDbEntity
  8
GAIKEI
  6
Continuous
100
AcDbLine
 10
11.11434590479814
 20
15.31906568442406
 30
0.0
 11
11.01435650479817
 21
15.21907638442411
 31
0.0
  0
LINE
  5
2A1
330
2
100
AcDbEntity
  8
GAIKEI
  6
Continuous
100
AcDbLine
 10
11.0143460047982
 20
8.244081884424133
 30
0.0
 11
11.0143460047982
 21
15.2190818844241
 31
0.0
  0
LINE
  5
2A2
330
2
100
AcDbEntity
  8
GAIKEI
  6
Continuous
 62
     1
100
AcDbLine
 10
11.01433450479817
 20
8.244076584424078
 30
0.0
 11
11.11434610479818
 21
8.194070684424104
 31
0.0
  0
LINE
  5
2A3
330
2
100
AcDbEntity
  8
GAIKEI
  6
Continuous
100
AcDbLine
 10
11.01434600479814
 20
5.919081884424088
 30
0.0
 11
11.0143460047982
 21
8.244081884424133
 31
0.0
  0
LINE
  5
2A4
330
2
100
AcDbEntity
  8
GAIKEI
  6
Continuous
100
AcDbLine
 10
11.01433930479817
 20
5.9190859844241
 30
0.0
 11
11.11434590479814
 21
5.819079384424128
 31
0.0
  0
LINE
  5
2A5
330
2
100
AcDbEntity
  8
GAIKEI
  6
Continuous
 62
     1
100
AcDbLine
 10
11.11434600479816
 20
5.819081884424122
 30
0.0
 11
11.11434600479816
 21
8.194081884424122
 31
0.0
  0
LINE
  5
2A6
330
2
100
AcDbEntity
  8
GAIKEI
  6
Continuous
100
AcDbLine
 10
11.79828920479815
 20
15.31908188442412
 30
0.0
 11
11.11434600479816
 21
15.31908188442412
 31
0.0
  0
LINE
  5
2A7
330
2
100
AcDbEntity
  8
GAIKEI
  6
Continuous
 62
     1
100
AcDbLine
 10
11.11434600479816
 20
8.194081884424122
 30
0.0
 11
11.79828920479815
 21
8.194081884424122
 31
0.0
  0
LINE
  5
2A8
330
2
100
AcDbEntity
  8
GAIKEI
  6
Continuous
100
AcDbLine
 10
11.11434600479816
 20
5.819081884424122
 30
0.0
 11
11.79828920479815
 21
5.819081884424122
 31
0.0
  0
LINE
  5
2A9
330
2
100
AcDbEntity
  8
GAIKEI
  6
Continuous
100
AcDbLine
 10
13.54950530479817
 20
2.919081884424088
 30
0.0
 11
13.54828920479815
 21
2.919081884424088
 31
0.0
  0
LINE
  5
2AA
330
2
100
AcDbEntity
  8
GAIKEI
  6
Continuous
100
AcDbLine
 10
13.57671330479815
 20
2.919081884424088
 30
0.0
 11
13.54950380479818
 21
2.919081884424088
 31
0.0
  0
LINE
  5
2AB
330
2
100
AcDbEntity
  8
GAIKEI
  6
Continuous
100
AcDbLine
 10
13.57868630479817
 20
2.919081884424088
 30
0.0
 11
13.57671020479813
 21
2.919081884424088
 31
0.0
  0
LINE
  5
2AC
330
2
100
AcDbEntity
  8
GAIKEI
  6
Continuous
100
AcDbLine
 10
13.60767640479815
 20
2.919081884424088
 30
0.0
 11
13.57868930479816
 21
2.919081884424088
 31
0.0
  0
LINE
  5
2AD
330
2
100
AcDbEntity
  8
GAIKEI
  6
Continuous
100
AcDbLine
 10
13.63646670479818
 20
2.919081884424088
 30
0.0
 11
13.60767640479815
 21
2.919081884424088
 31
0.0
  0
LINE
  5
2AE
330
2
100
AcDbEntity
  8
GAIKEI
  6
Continuous
100
AcDbLine
 10
13.69396030479817
 20
2.919081884424088
 30
0.0
 11
13.63647130479813
 21
2.919081884424088
 31
0.0
  0
LINE
  5
2AF
330
2
100
AcDbEntity
  8
GAIKEI
  6
Continuous
100
AcDbLine
 10
13.75066350479818
 20
2.919081884424088
 30
0.0
 11
13.69395570479815
 21
2.919081884424088
 31
0.0
  0
LINE
  5
2B0
330
2
100
AcDbEntity
  8
GAIKEI
  6
Continuous
100
AcDbLine
 10
13.77977570479817
 20
2.919081884424088
 30
0.0
 11
13.75066200479819
 21
2.919081884424088
 31
0.0
  0
LINE
  5
2B1
330
2
100
AcDbEntity
  8
GAIKEI
  6
Continuous
100
AcDbLine
 10
13.89026280479817
 20
2.919071884424113
 30
0.0
 11
13.77977240479816
 21
2.919072984424076
 31
0.0
  0
LINE
  5
2B2
330
2
100
AcDbEntity
  8
GAIKEI
  6
Continuous
100
AcDbLine
 10
13.97221350479816
 20
2.919081884424088
 30
0.0
 11
13.89026310479812
 21
2.919081884424088
 31
0.0
  0
LINE
  5
2B3
330
2
100
AcDbEntity
  8
GAIKEI
  6
Continuous
100
AcDbLine
 10
14.00037510479819
 20
2.919081884424088
 30
0.0
 11
13.97221190479814
 21
2.919081884424088
 31
0.0
  0
LINE
  5
2B4
330
2
100
AcDbEntity
  8
GAIKEI
  6
Continuous
100
AcDbLine
 10
14.15903580479818
 20
2.919066384424127
 30
0.0
 11
14.00037490479815
 21
2.919067584424112
 31
0.0
  0
LINE
  5
2B5
330
2
100
AcDbEntity
  8
GAIKEI
  6
Continuous
100
AcDbLine
 10
14.26264620479816
 20
2.919081884424088
 30
0.0
 11
14.15903600479817
 21
2.919081884424088
 31
0.0
  0
LINE
  5
2B6
330
2
100
AcDbEntity
  8
GAIKEI
  6
Continuous
100
AcDbLine
 10
14.28862890479814
 20
2.919081884424088
 30
0.0
 11
14.26264620479816
 21
2.919081884424088
 31
0.0
  0
LINE
  5
2B7
330
2
100
AcDbEntity
  8
GAIKEI
  6
Continuous
100
AcDbLine
 10
14.48852660479815
 20
2.919081884424088
 30
0.0
 11
14.28863190479819
 21
2.919081884424088
 31
0.0
  0
LINE
  5
2B8
330
2
100
AcDbEntity
  8
GAIKEI
  6
Continuous
100
AcDbLine
 10
14.60926790479817
 20
2.919081884424088
 30
0.0
 11
14.48852510479816
 21
2.919081884424088
 31
0.0
  0
LINE
  5
2B9
330
2
100
AcDbEntity
  8
GAIKEI
  6
Continuous
100
AcDbLine
 10
14.63193480479816
 20
2.919081884424088
 30
0.0
 11
14.60926790479817
 21
2.919081884424088
 31
0.0
  0
LINE
  5
2BA
330
2
100
AcDbEntity
  8
GAIKEI
  6
Continuous
100
AcDbLine
 10
14.86278660479814
 20
2.919081884424088
 30
0.0
 11
14.63193480479816
 21
2.919081884424088
 31
0.0
  0
LINE
  5
2BB
330
2
100
AcDbEntity
  8
GAIKEI
  6
Continuous
100
AcDbLine
 10
14.86447880479818
 20
2.919081884424088
 30
0.0
 11
14.86278660479814
 21
2.919081884424088
 31
0.0
  0
LINE
  5
2BC
330
2
100
AcDbEntity
  8
GAIKEI
  6
Continuous
100
AcDbLine
 10
14.99692970479816
 20
2.919081884424088
 30
0.0
 11
14.86433230479815
 21
2.919081884424088
 31
0.0
  0
LINE
  5
2BD
330
2
100
AcDbEntity
  8
GAIKEI
  6
Continuous
100
AcDbLine
 10
15.01529060479817
 20
2.919081884424088
 30
0.0
 11
14.99692970479816
 21
2.919081884424088
 31
0.0
  0
LINE
  5
2BE
330
2
100
AcDbEntity
  8
GAIKEI
  6
Continuous
100
AcDbLine
 10
15.26246770479815
 20
2.919081884424088
 30
0.0
 11
15.01529060479817
 21
2.919081884424088
 31
0.0
  0
LINE
  5
2BF
330
2
100
AcDbEntity
  8
GAIKEI
  6
Continuous
100
AcDbLine
 10
15.27002990479815
 20
2.919081884424088
 30
0.0
 11
15.26246770479815
 21
2.919081884424088
 31
0.0
  0
LINE
  5
2C0
330
2
100
AcDbEntity
  8
GAIKEI
  6
Continuous
100
AcDbLine
 10
15.40868810479816
 20
2.919081884424088
 30
0.0
 11
15.27002990479815
 21
2.919081884424088
 31
0.0
  0
LINE
  5
2C1
330
2
100
AcDbEntity
  8
GAIKEI
  6
Continuous
100
AcDbLine
 10
15.42194030479817
 20
2.919081884424088
 30
0.0
 11
15.40868810479816
 21
2.919081884424088
 31
0.0
  0
LINE
  5
2C2
330
2
100
AcDbEntity
  8
GAIKEI
  6
Continuous
100
AcDbLine
 10
15.67463810479813
 20
2.919081884424088
 30
0.0
 11
15.42193880479817
 21
2.919081884424088
 31
0.0
  0
LINE
  5
2C3
330
2
100
AcDbEntity
  8
GAIKEI
  6
Continuous
100
AcDbLine
 10
15.68789040479817
 20
2.919081884424088
 30
0.0
 11
15.67463810479813
 21
2.919081884424088
 31
0.0
  0
LINE
  5
2C4
330
2
100
AcDbEntity
  8
GAIKEI
  6
Continuous
100
AcDbLine
 10
15.82655000479815
 20
2.919081884424088
 30
0.0
 11
15.68789190479816
 21
2.919081884424088
 31
0.0
  0
LINE
  5
2C5
330
2
100
AcDbEntity
  8
GAIKEI
  6
Continuous
100
AcDbLine
 10
15.83411080479817
 20
2.919081884424088
 30
0.0
 11
15.82654700479816
 21
2.919081884424088
 31
0.0
  0
LINE
  5
2C6
330
2
100
AcDbEntity
  8
GAIKEI
  6
Continuous
100
AcDbLine
 10
16.08128640479816
 20
2.919081884424088
 30
0.0
 11
15.83411080479817
 21
2.919081884424088
 31
0.0
  0
LINE
  5
2C7
330
2
100
AcDbEntity
  8
GAIKEI
  6
Continuous
100
AcDbLine
 10
16.09964730479816
 20
2.919081884424088
 30
0.0
 11
16.08128640479816
 21
2.919081884424088
 31
0.0
  0
LINE
  5
2C8
330
2
100
AcDbEntity
  8
GAIKEI
  6
Continuous
100
AcDbLine
 10
16.23224770479817
 20
2.919081884424088
 30
0.0
 11
16.09965030479816
 21
2.919081884424088
 31
0.0
  0
LINE
  5
2C9
330
2
100
AcDbEntity
  8
GAIKEI
  6
Continuous
100
AcDbLine
 10
16.23379030479816
 20
2.919081884424088
 30
0.0
 11
16.23209810479818
 21
2.919081884424088
 31
0.0
  0
LINE
  5
2CA
330
2
100
AcDbEntity
  8
GAIKEI
  6
Continuous
100
AcDbLine
 10
16.46464210479814
 20
2.919081884424088
 30
0.0
 11
16.23379030479816
 21
2.919081884424088
 31
0.0
  0
LINE
  5
2CB
330
2
100
AcDbEntity
  8
GAIKEI
  6
Continuous
100
AcDbLine
 10
16.48730900479813
 20
2.919081884424088
 30
0.0
 11
16.46464210479814
 21
2.919081884424088
 31
0.0
  0
LINE
  5
2CC
330
2
100
AcDbEntity
  8
GAIKEI
  6
Continuous
100
AcDbLine
 10
16.60805330479815
 20
2.919081884424088
 30
0.0
 11
16.48731050479819
 21
2.919081884424088
 31
0.0
  0
LINE
  5
2CD
330
2
100
AcDbEntity
  8
GAIKEI
  6
Continuous
100
AcDbLine
 10
16.80795110479812
 20
2.919081884424088
 30
0.0
 11
16.60805640479816
 21
2.919081884424088
 31
0.0
  0
LINE
  5
2CE
330
2
100
AcDbEntity
  8
GAIKEI
  6
Continuous
100
AcDbLine
 10
16.83393220479814
 20
2.919081884424088
 30
0.0
 11
16.80794800479816
 21
2.919081884424088
 31
0.0
  0
LINE
  5
2CF
330
2
100
AcDbEntity
  8
GAIKEI
  6
Continuous
100
AcDbLine
 10
16.93754250479816
 20
2.919081884424088
 30
0.0
 11
16.83393220479814
 21
2.919081884424088
 31
0.0
  0
LINE
  5
2D0
330
2
100
AcDbEntity
  8
GAIKEI
  6
Continuous
100
AcDbLine
 10
17.09619740479815
 20
2.919070384424117
 30
0.0
 11
16.93754260479818
 21
2.919069284424097
 31
0.0
  0
LINE
  5
2D1
330
2
100
AcDbEntity
  8
GAIKEI
  6
Continuous
100
AcDbLine
 10
17.12436500479816
 20
2.919081884424088
 30
0.0
 11
17.09620180479817
 21
2.919081884424088
 31
0.0
  0
LINE
  5
2D2
330
2
100
AcDbEntity
  8
GAIKEI
  6
Continuous
100
AcDbLine
 10
17.20631530479818
 20
2.919081884424088
 30
0.0
 11
17.12436500479816
 21
2.919081884424088
 31
0.0
  0
LINE
  5
2D3
330
2
100
AcDbEntity
  8
GAIKEI
  6
Continuous
100
AcDbLine
 10
17.31679970479814
 20
2.919081884424088
 30
0.0
 11
17.20631690479814
 21
2.919081884424088
 31
0.0
  0
LINE
  5
2D4
330
2
100
AcDbEntity
  8
GAIKEI
  6
Continuous
100
AcDbLine
 10
17.34591500479814
 20
2.919081884424088
 30
0.0
 11
17.31680120479814
 21
2.919081884424088
 31
0.0
  0
LINE
  5
2D5
330
2
100
AcDbEntity
  8
GAIKEI
  6
Continuous
100
AcDbLine
 10
17.40262420479814
 20
2.919081884424088
 30
0.0
 11
17.3459165047982
 21
2.919081884424088
 31
0.0
  0
LINE
  5
2D6
330
2
100
AcDbEntity
  8
GAIKEI
  6
Continuous
100
AcDbLine
 10
17.46011170479818
 20
2.919081884424088
 30
0.0
 11
17.40262420479814
 21
2.919081884424088
 31
0.0
  0
LINE
  5
2D7
330
2
100
AcDbEntity
  8
GAIKEI
  6
Continuous
100
AcDbLine
 10
17.48890200479815
 20
2.919081884424088
 30
0.0
 11
17.46011170479818
 21
2.919081884424088
 31
0.0
  0
LINE
  5
2D8
330
2
100
AcDbEntity
  8
GAIKEI
  6
Continuous
100
AcDbLine
 10
17.51788910479814
 20
2.919081884424088
 30
0.0
 11
17.48890200479815
 21
2.919081884424088
 31
0.0
  0
LINE
  5
2D9
330
2
100
AcDbEntity
  8
GAIKEI
  6
Continuous
100
AcDbLine
 10
17.51986360479816
 20
2.919081884424088
 30
0.0
 11
17.51788760479815
 21
2.919081884424088
 31
0.0
  0
LINE
  5
2DA
330
2
100
AcDbEntity
  8
GAIKEI
  6
Continuous
100
AcDbLine
 10
17.54707310479818
 20
2.919081884424088
 30
0.0
 11
17.51986510479816
 21
2.919081884424088
 31
0.0
  0
LINE
  5
2DB
330
2
100
AcDbEntity
  8
GAIKEI
  6
Continuous
100
AcDbLine
 10
17.54828920479815
 20
2.919081884424088
 30
0.0
 11
17.54707460479813
 21
2.919081884424088
 31
0.0
  0
LINE
  5
2DC
330
2
100
AcDbEntity
  8
GAIKEI
  6
Continuous
 62
     1
100
AcDbLine
 10
14.86433230479815
 20
2.919081884424088
 30
0.0
 11
14.86433230479815
 21
1.319081884424122
 31
0.0
  0
LINE
  5
2DD
330
2
100
AcDbEntity
  8
GAIKEI
  6
Continuous
100
AcDbLine
 10
15.54829230479817
 20
1.01908188442411
 30
0.0
 11
14.78017400479814
 21
1.01908188442411
 31
0.0
  0
LINE
  5
2DE
330
2
100
AcDbEntity
  8
GAIKEI
  6
Continuous
100
AcDbLine
 10
16.31640450479813
 20
1.01908188442411
 30
0.0
 11
15.54829230479817
 21
1.01908188442411
 31
0.0
  0
LINE
  5
2DF
330
2
100
AcDbEntity
  8
GAIKEI
  6
Continuous
100
AcDbLine
 10
17.54707460479813
 20
1.319081884424122
 30
0.0
 11
17.54828920479815
 21
1.319081884424122
 31
0.0
  0
LINE
  5
2E0
330
2
100
AcDbEntity
  8
GAIKEI
  6
Continuous
100
AcDbLine
 10
17.51986510479816
 20
1.319081884424122
 30
0.0
 11
17.54707310479818
 21
1.319081884424122
 31
0.0
  0
LINE
  5
2E1
330
2
100
AcDbEntity
  8
GAIKEI
  6
Continuous
100
AcDbLine
 10
17.51788760479815
 20
1.319081884424122
 30
0.0
 11
17.51986360479816
 21
1.319081884424122
 31
0.0
  0
LINE
  5
2E2
330
2
100
AcDbEntity
  8
GAIKEI
  6
Continuous
100
AcDbLine
 10
17.48890200479815
 20
1.319081884424122
 30
0.0
 11
17.51788910479814
 21
1.319081884424122
 31
0.0
  0
LINE
  5
2E3
330
2
100
AcDbEntity
  8
GAIKEI
  6
Continuous
100
AcDbLine
 10
17.46011170479818
 20
1.319081884424122
 30
0.0
 11
17.48890200479815
 21
1.319081884424122
 31
0.0
  0
LINE
  5
2E4
330
2
100
AcDbEntity
  8
GAIKEI
  6
Continuous
100
AcDbLine
 10
17.40262420479814
 20
1.319081884424122
 30
0.0
 11
17.46011170479818
 21
1.319081884424122
 31
0.0
  0
LINE
  5
2E5
330
2
100
AcDbEntity
  8
GAIKEI
  6
Continuous
100
AcDbLine
 10
17.3459165047982
 20
1.319081884424122
 30
0.0
 11
17.40262420479814
 21
1.319081884424122
 31
0.0
  0
LINE
  5
2E6
330
2
100
AcDbEntity
  8
GAIKEI
  6
Continuous
100
AcDbLine
 10
17.31680120479814
 20
1.319081884424122
 30
0.0
 11
17.34591500479814
 21
1.319081884424122
 31
0.0
  0
LINE
  5
2E7
330
2
100
AcDbEntity
  8
GAIKEI
  6
Continuous
100
AcDbLine
 10
17.20631690479814
 20
1.319081884424122
 30
0.0
 11
17.31679970479814
 21
1.319081884424122
 31
0.0
  0
LINE
  5
2E8
330
2
100
AcDbEntity
  8
GAIKEI
  6
Continuous
100
AcDbLine
 10
17.12436500479816
 20
1.319081884424122
 30
0.0
 11
17.20631530479818
 21
1.319081884424122
 31
0.0
  0
LINE
  5
2E9
330
2
100
AcDbEntity
  8
GAIKEI
  6
Continuous
100
AcDbLine
 10
17.09620180479817
 20
1.319081884424122
 30
0.0
 11
17.12436500479816
 21
1.319081884424122
 31
0.0
  0
LINE
  5
2EA
330
2
100
AcDbEntity
  8
GAIKEI
  6
Continuous
100
AcDbLine
 10
16.93754250479816
 20
1.319081884424122
 30
0.0
 11
17.09619720479816
 21
1.319081884424122
 31
0.0
  0
LINE
  5
2EB
330
2
100
AcDbEntity
  8
GAIKEI
  6
Continuous
100
AcDbLine
 10
16.83393220479814
 20
1.319081884424122
 30
0.0
 11
16.93754250479816
 21
1.319081884424122
 31
0.0
  0
LINE
  5
2EC
330
2
100
AcDbEntity
  8
GAIKEI
  6
Continuous
100
AcDbLine
 10
16.80794800479816
 20
1.319081884424122
 30
0.0
 11
16.83393220479814
 21
1.319081884424122
 31
0.0
  0
LINE
  5
2ED
330
2
100
AcDbEntity
  8
GAIKEI
  6
Continuous
100
AcDbLine
 10
16.60805640479816
 20
1.319081884424122
 30
0.0
 11
16.80795110479812
 21
1.319081884424122
 31
0.0
  0
LINE
  5
2EE
330
2
100
AcDbEntity
  8
GAIKEI
  6
Continuous
100
AcDbLine
 10
16.48731050479819
 20
1.319081884424122
 30
0.0
 11
16.60805330479815
 21
1.319081884424122
 31
0.0
  0
LINE
  5
2EF
330
2
100
AcDbEntity
  8
GAIKEI
  6
Continuous
100
AcDbLine
 10
16.46464210479814
 20
1.319081884424122
 30
0.0
 11
16.48730900479813
 21
1.319081884424122
 31
0.0
  0
LINE
  5
2F0
330
2
100
AcDbEntity
  8
GAIKEI
  6
Continuous
100
AcDbLine
 10
16.23379030479816
 20
1.319081884424122
 30
0.0
 11
16.46464210479814
 21
1.319081884424122
 31
0.0
  0
LINE
  5
2F1
330
2
100
AcDbEntity
  8
GAIKEI
  6
Continuous
100
AcDbLine
 10
16.23209810479818
 20
1.319081884424122
 30
0.0
 11
16.23379030479816
 21
1.319081884424122
 31
0.0
  0
LINE
  5
2F2
330
2
100
AcDbEntity
  8
GAIKEI
  6
Continuous
100
AcDbLine
 10
16.09965030479816
 20
1.319081884424122
 30
0.0
 11
16.23224770479817
 21
1.319081884424122
 31
0.0
  0
LINE
  5
2F3
330
2
100
AcDbEntity
  8
GAIKEI
  6
Continuous
100
AcDbLine
 10
16.08128640479816
 20
1.319081884424122
 30
0.0
 11
16.09964730479816
 21
1.319081884424122
 31
0.0
  0
LINE
  5
2F4
330
2
100
AcDbEntity
  8
GAIKEI
  6
Continuous
100
AcDbLine
 10
15.83411080479817
 20
1.319081884424122
 30
0.0
 11
16.08128640479816
 21
1.319081884424122
 31
0.0
  0
LINE
  5
2F5
330
2
100
AcDbEntity
  8
GAIKEI
  6
Continuous
100
AcDbLine
 10
15.82654700479816
 20
1.319081884424122
 30
0.0
 11
15.83411080479817
 21
1.319081884424122
 31
0.0
  0
LINE
  5
2F6
330
2
100
AcDbEntity
  8
GAIKEI
  6
Continuous
100
AcDbLine
 10
15.68789190479816
 20
1.319081884424122
 30
0.0
 11
15.82655000479815
 21
1.319081884424122
 31
0.0
  0
LINE
  5
2F7
330
2
100
AcDbEntity
  8
GAIKEI
  6
Continuous
100
AcDbLine
 10
15.67463810479813
 20
1.319081884424122
 30
0.0
 11
15.68789040479817
 21
1.319081884424122
 31
0.0
  0
LINE
  5
2F8
330
2
100
AcDbEntity
  8
GAIKEI
  6
Continuous
100
AcDbLine
 10
15.42193880479817
 20
1.319081884424122
 30
0.0
 11
15.67463810479813
 21
1.319081884424122
 31
0.0
  0
LINE
  5
2F9
330
2
100
AcDbEntity
  8
GAIKEI
  6
Continuous
100
AcDbLine
 10
15.40868810479816
 20
1.319081884424122
 30
0.0
 11
15.42194030479817
 21
1.319081884424122
 31
0.0
  0
LINE
  5
2FA
330
2
100
AcDbEntity
  8
GAIKEI
  6
Continuous
100
AcDbLine
 10
15.27002990479815
 20
1.319081884424122
 30
0.0
 11
15.40868810479816
 21
1.319081884424122
 31
0.0
  0
LINE
  5
2FB
330
2
100
AcDbEntity
  8
GAIKEI
  6
Continuous
100
AcDbLine
 10
15.26246770479815
 20
1.319081884424122
 30
0.0
 11
15.27002990479815
 21
1.319081884424122
 31
0.0
  0
LINE
  5
2FC
330
2
100
AcDbEntity
  8
GAIKEI
  6
Continuous
100
AcDbLine
 10
15.01529060479817
 20
1.319081884424122
 30
0.0
 11
15.26246770479815
 21
1.319081884424122
 31
0.0
  0
LINE
  5
2FD
330
2
100
AcDbEntity
  8
GAIKEI
  6
Continuous
100
AcDbLine
 10
14.99692970479816
 20
1.319081884424122
 30
0.0
 11
15.01529060479817
 21
1.319081884424122
 31
0.0
  0
LINE
  5
2FE
330
2
100
AcDbEntity
  8
GAIKEI
  6
Continuous
100
AcDbLine
 10
14.86433230479815
 20
1.319081884424122
 30
0.0
 11
14.99692970479816
 21
1.319081884424122
 31
0.0
  0
LINE
  5
2FF
330
2
100
AcDbEntity
  8
GAIKEI
  6
Continuous
100
AcDbLine
 10
14.63193480479816
 20
1.319081884424122
 30
0.0
 11
14.86278660479814
 21
1.319081884424122
 31
0.0
  0
LINE
  5
300
330
2
100
AcDbEntity
  8
GAIKEI
  6
Continuous
100
AcDbLine
 10
14.60926790479817
 20
1.319081884424122
 30
0.0
 11
14.63193480479816
 21
1.319081884424122
 31
0.0
  0
LINE
  5
301
330
2
100
AcDbEntity
  8
GAIKEI
  6
Continuous
100
AcDbLine
 10
14.48852510479816
 20
1.319081884424122
 30
0.0
 11
14.60926790479817
 21
1.319081884424122
 31
0.0
  0
LINE
  5
302
330
2
100
AcDbEntity
  8
GAIKEI
  6
Continuous
100
AcDbLine
 10
14.28863190479819
 20
1.319081884424122
 30
0.0
 11
14.48852660479815
 21
1.319081884424122
 31
0.0
  0
LINE
  5
303
330
2
100
AcDbEntity
  8
GAIKEI
  6
Continuous
100
AcDbLine
 10
14.26264620479816
 20
1.319081884424122
 30
0.0
 11
14.28862890479814
 21
1.319081884424122
 31
0.0
  0
LINE
  5
304
330
2
100
AcDbEntity
  8
GAIKEI
  6
Continuous
100
AcDbLine
 10
14.15903600479817
 20
1.319081884424122
 30
0.0
 11
14.26264620479816
 21
1.319081884424122
 31
0.0
  0
LINE
  5
305
330
2
100
AcDbEntity
  8
GAIKEI
  6
Continuous
100
AcDbLine
 10
14.00037740479814
 20
1.319081184424078
 30
0.0
 11
14.15903060479815
 21
1.31908638442411
 31
0.0
  0
LINE
  5
306
330
2
100
AcDbEntity
  8
GAIKEI
  6
Continuous
100
AcDbLine
 10
13.97221190479814
 20
1.319081884424122
 30
0.0
 11
14.00037510479819
 21
1.319081884424122
 31
0.0
  0
LINE
  5
307
330
2
100
AcDbEntity
  8
GAIKEI
  6
Continuous
100
AcDbLine
 10
13.89026310479812
 20
1.319081884424122
 30
0.0
 11
13.97221350479816
 21
1.319081884424122
 31
0.0
  0
LINE
  5
308
330
2
100
AcDbEntity
  8
GAIKEI
  6
Continuous
100
AcDbLine
 10
13.77977270479817
 20
1.319081884424122
 30
0.0
 11
13.89026770479813
 21
1.319081884424122
 31
0.0
  0
LINE
  5
309
330
2
100
AcDbEntity
  8
GAIKEI
  6
Continuous
100
AcDbLine
 10
13.75066200479819
 20
1.319081884424122
 30
0.0
 11
13.77977570479817
 21
1.319081884424122
 31
0.0
  0
LINE
  5
30A
330
2
100
AcDbEntity
  8
GAIKEI
  6
Continuous
100
AcDbLine
 10
13.69395570479815
 20
1.319081884424122
 30
0.0
 11
13.75066350479818
 21
1.319081884424122
 31
0.0
  0
LINE
  5
30B
330
2
100
AcDbEntity
  8
GAIKEI
  6
Continuous
100
AcDbLine
 10
13.63647130479813
 20
1.319081884424122
 30
0.0
 11
13.69396030479817
 21
1.319081884424122
 31
0.0
  0
LINE
  5
30C
330
2
100
AcDbEntity
  8
GAIKEI
  6
Continuous
100
AcDbLine
 10
13.60767640479815
 20
1.319081884424122
 30
0.0
 11
13.63646670479818
 21
1.319081884424122
 31
0.0
  0
LINE
  5
30D
330
2
100
AcDbEntity
  8
GAIKEI
  6
Continuous
100
AcDbLine
 10
13.57868930479816
 20
1.319081884424122
 30
0.0
 11
13.60767640479815
 21
1.319081884424122
 31
0.0
  0
LINE
  5
30E
330
2
100
AcDbEntity
  8
GAIKEI
  6
Continuous
100
AcDbLine
 10
13.57671020479813
 20
1.319081884424122
 30
0.0
 11
13.57868630479817
 21
1.319081884424122
 31
0.0
  0
LINE
  5
30F
330
2
100
AcDbEntity
  8
GAIKEI
  6
Continuous
100
AcDbLine
 10
13.54950380479818
 20
1.319081884424122
 30
0.0
 11
13.57671330479815
 21
1.319081884424122
 31
0.0
  0
LINE
  5
310
330
2
100
AcDbEntity
  8
GAIKEI
  6
Continuous
100
AcDbLine
 10
13.54828920479815
 20
1.319081884424122
 30
0.0
 11
13.54950530479817
 21
1.319081884424122
 31
0.0
  0
LINE
  5
311
330
2
100
AcDbEntity
  8
GAIKEI
  6
Continuous
100
AcDbLine
 10
16.31640450479813
 20
2.919081884424088
 30
0.0
 11
16.31640450479813
 21
3.01908188442411
 31
0.0
  0
LINE
  5
312
330
2
100
AcDbEntity
  8
GAIKEI
  6
Continuous
100
AcDbLine
 10
14.78017550479814
 20
3.01908188442411
 30
0.0
 11
14.78017550479814
 21
2.919081884424088
 31
0.0
  0
LINE
  5
313
330
2
100
AcDbEntity
  8
GAIKEI
  6
Continuous
100
AcDbLine
 10
17.54828920479815
 20
1.319081884424122
 30
0.0
 11
17.54828920479815
 21
2.919081884424088
 31
0.0
  0
LINE
  5
314
330
2
100
AcDbEntity
  8
GAIKEI
  6
Continuous
 62
     1
100
AcDbLine
 10
17.51986510479816
 20
2.919081884424088
 30
0.0
 11
17.51986510479816
 21
1.319081884424122
 31
0.0
  0
LINE
  5
315
330
2
100
AcDbEntity
  8
GAIKEI
  6
Continuous
 62
     1
100
AcDbLine
 10
17.51788910479814
 20
2.919081884424088
 30
0.0
 11
17.51788910479814
 21
1.319081884424122
 31
0.0
  0
LINE
  5
316
330
2
100
AcDbEntity
  8
GAIKEI
  6
Continuous
 62
     1
100
AcDbLine
 10
17.48890200479815
 20
2.919081884424088
 30
0.0
 11
17.48890200479815
 21
1.319081884424122
 31
0.0
  0
LINE
  5
317
330
2
100
AcDbEntity
  8
GAIKEI
  6
Continuous
 62
     1
100
AcDbLine
 10
17.46011170479818
 20
2.919081884424088
 30
0.0
 11
17.46011170479818
 21
1.319081884424122
 31
0.0
  0
LINE
  5
318
330
2
100
AcDbEntity
  8
GAIKEI
  6
Continuous
 62
     1
100
AcDbLine
 10
17.40262420479814
 20
2.919081884424088
 30
0.0
 11
17.40262420479814
 21
1.319081884424122
 31
0.0
  0
LINE
  5
319
330
2
100
AcDbEntity
  8
GAIKEI
  6
Continuous
 62
     1
100
AcDbLine
 10
17.3459165047982
 20
2.919081884424088
 30
0.0
 11
17.3459165047982
 21
1.319081884424122
 31
0.0
  0
LINE
  5
31A
330
2
100
AcDbEntity
  8
GAIKEI
  6
Continuous
 62
     1
100
AcDbLine
 10
17.31680120479814
 20
2.919081884424088
 30
0.0
 11
17.31680120479814
 21
1.319081884424122
 31
0.0
  0
LINE
  5
31B
330
2
100
AcDbEntity
  8
GAIKEI
  6
Continuous
 62
     1
100
AcDbLine
 10
17.20631380479813
 20
2.919081884424088
 30
0.0
 11
17.20631380479813
 21
1.319081884424122
 31
0.0
  0
LINE
  5
31C
330
2
100
AcDbEntity
  8
GAIKEI
  6
Continuous
 62
     1
100
AcDbLine
 10
17.12436500479816
 20
2.919081884424088
 30
0.0
 11
17.12436500479816
 21
1.319081884424122
 31
0.0
  0
LINE
  5
31D
330
2
100
AcDbEntity
  8
GAIKEI
  6
Continuous
 62
     1
100
AcDbLine
 10
17.09620180479817
 20
2.919081884424088
 30
0.0
 11
17.09620180479817
 21
1.319081884424122
 31
0.0
  0
LINE
  5
31E
330
2
100
AcDbEntity
  8
GAIKEI
  6
Continuous
 62
     1
100
AcDbLine
 10
16.93754250479816
 20
2.919081884424088
 30
0.0
 11
16.93754250479816
 21
1.319081884424122
 31
0.0
  0
LINE
  5
31F
330
2
100
AcDbEntity
  8
GAIKEI
  6
Continuous
 62
     1
100
AcDbLine
 10
16.83393220479814
 20
2.919081884424088
 30
0.0
 11
16.83393220479814
 21
1.319081884424122
 31
0.0
  0
LINE
  5
320
330
2
100
AcDbEntity
  8
GAIKEI
  6
Continuous
 62
     1
100
AcDbLine
 10
16.80794800479816
 20
2.919081884424088
 30
0.0
 11
16.80794800479816
 21
1.319081884424122
 31
0.0
  0
LINE
  5
321
330
2
100
AcDbEntity
  8
GAIKEI
  6
Continuous
 62
     1
100
AcDbLine
 10
16.60805180479815
 20
2.919081884424088
 30
0.0
 11
16.60805180479815
 21
1.319081884424122
 31
0.0
  0
LINE
  5
322
330
2
100
AcDbEntity
  8
GAIKEI
  6
Continuous
 62
     1
100
AcDbLine
 10
16.48731050479819
 20
2.919081884424088
 30
0.0
 11
16.48731050479819
 21
1.319081884424122
 31
0.0
  0
LINE
  5
323
330
2
100
AcDbEntity
  8
GAIKEI
  6
Continuous
 62
     1
100
AcDbLine
 10
16.46464210479814
 20
2.919081884424088
 30
0.0
 11
16.46464210479814
 21
1.319081884424122
 31
0.0
  0
LINE
  5
324
330
2
100
AcDbEntity
  8
GAIKEI
  6
Continuous
 62
     1
100
AcDbLine
 10
16.23379030479816
 20
2.919081884424088
 30
0.0
 11
16.23379030479816
 21
1.319081884424122
 31
0.0
  0
LINE
  5
325
330
2
100
AcDbEntity
  8
GAIKEI
  6
Continuous
 62
     1
100
AcDbLine
 10
16.23224610479815
 20
2.919081884424088
 30
0.0
 11
16.23224610479815
 21
1.319081884424122
 31
0.0
  0
LINE
  5
326
330
2
100
AcDbEntity
  8
GAIKEI
  6
Continuous
 62
     1
100
AcDbLine
 10
16.09965030479816
 20
2.919081884424088
 30
0.0
 11
16.09965030479816
 21
1.319081884424122
 31
0.0
  0
LINE
  5
327
330
2
100
AcDbEntity
  8
GAIKEI
  6
Continuous
 62
     1
100
AcDbLine
 10
16.08128640479816
 20
2.919081884424088
 30
0.0
 11
16.08128640479816
 21
1.319081884424122
 31
0.0
  0
LINE
  5
328
330
2
100
AcDbEntity
  8
GAIKEI
  6
Continuous
 62
     1
100
AcDbLine
 10
15.83411080479817
 20
2.919081884424088
 30
0.0
 11
15.83411080479817
 21
1.319081884424122
 31
0.0
  0
LINE
  5
329
330
2
100
AcDbEntity
  8
GAIKEI
  6
Continuous
 62
     1
100
AcDbLine
 10
15.82654700479816
 20
2.919081884424088
 30
0.0
 11
15.82654700479816
 21
1.319081884424122
 31
0.0
  0
LINE
  5
32A
330
2
100
AcDbEntity
  8
GAIKEI
  6
Continuous
 62
     1
100
AcDbLine
 10
15.68789190479816
 20
2.919081884424088
 30
0.0
 11
15.68789190479816
 21
1.319081884424122
 31
0.0
  0
LINE
  5
32B
330
2
100
AcDbEntity
  8
GAIKEI
  6
Continuous
 62
     1
100
AcDbLine
 10
15.67463810479813
 20
2.919081884424088
 30
0.0
 11
15.67463810479813
 21
1.319081884424122
 31
0.0
  0
LINE
  5
32C
330
2
100
AcDbEntity
  8
GAIKEI
  6
Continuous
 62
     1
100
AcDbLine
 10
15.42193880479817
 20
2.919081884424088
 30
0.0
 11
15.42193880479817
 21
1.319081884424122
 31
0.0
  0
LINE
  5
32D
330
2
100
AcDbEntity
  8
GAIKEI
  6
Continuous
 62
     1
100
AcDbLine
 10
15.40868810479816
 20
2.919081884424088
 30
0.0
 11
15.40868810479816
 21
1.319081884424122
 31
0.0
  0
LINE
  5
32E
330
2
100
AcDbEntity
  8
GAIKEI
  6
Continuous
 62
     1
100
AcDbLine
 10
15.27002990479815
 20
2.919081884424088
 30
0.0
 11
15.27002990479815
 21
1.319081884424122
 31
0.0
  0
LINE
  5
32F
330
2
100
AcDbEntity
  8
GAIKEI
  6
Continuous
 62
     1
100
AcDbLine
 10
15.26246770479815
 20
2.919081884424088
 30
0.0
 11
15.26246770479815
 21
1.319081884424122
 31
0.0
  0
LINE
  5
330
330
2
100
AcDbEntity
  8
GAIKEI
  6
Continuous
 62
     1
100
AcDbLine
 10
15.01529060479817
 20
2.919081884424088
 30
0.0
 11
15.01529060479817
 21
1.319081884424122
 31
0.0
  0
LINE
  5
331
330
2
100
AcDbEntity
  8
GAIKEI
  6
Continuous
 62
     1
100
AcDbLine
 10
14.99692970479816
 20
2.919081884424088
 30
0.0
 11
14.99692970479816
 21
1.319081884424122
 31
0.0
  0
LINE
  5
332
330
2
100
AcDbEntity
  8
GAIKEI
  6
Continuous
 62
     1
100
AcDbLine
 10
14.63193480479816
 20
2.919081884424088
 30
0.0
 11
14.63193480479816
 21
1.319081884424122
 31
0.0
  0
LINE
  5
333
330
2
100
AcDbEntity
  8
GAIKEI
  6
Continuous
 62
     1
100
AcDbLine
 10
14.60926790479817
 20
2.919081884424088
 30
0.0
 11
14.60926790479817
 21
1.319081884424122
 31
0.0
  0
LINE
  5
334
330
2
100
AcDbEntity
  8
GAIKEI
  6
Continuous
 62
     1
100
AcDbLine
 10
14.48852510479816
 20
2.919081884424088
 30
0.0
 11
14.48852510479816
 21
1.319081884424122
 31
0.0
  0
LINE
  5
335
330
2
100
AcDbEntity
  8
GAIKEI
  6
Continuous
 62
     1
100
AcDbLine
 10
14.28862890479814
 20
2.919081884424088
 30
0.0
 11
14.28862890479814
 21
1.319081884424122
 31
0.0
  0
LINE
  5
336
330
2
100
AcDbEntity
  8
GAIKEI
  6
Continuous
 62
     1
100
AcDbLine
 10
14.26264620479816
 20
2.919081884424088
 30
0.0
 11
14.26264620479816
 21
1.319081884424122
 31
0.0
  0
LINE
  5
337
330
2
100
AcDbEntity
  8
GAIKEI
  6
Continuous
 62
     1
100
AcDbLine
 10
14.15903600479817
 20
2.919081884424088
 30
0.0
 11
14.15903600479817
 21
1.319081884424122
 31
0.0
  0
LINE
  5
338
330
2
100
AcDbEntity
  8
GAIKEI
  6
Continuous
 62
     1
100
AcDbLine
 10
14.00037660479813
 20
2.919081884424088
 30
0.0
 11
14.00037660479813
 21
1.319081884424122
 31
0.0
  0
LINE
  5
339
330
2
100
AcDbEntity
  8
GAIKEI
  6
Continuous
 62
     1
100
AcDbLine
 10
13.97221190479814
 20
2.919081884424088
 30
0.0
 11
13.97221190479814
 21
1.319081884424122
 31
0.0
  0
LINE
  5
33A
330
2
100
AcDbEntity
  8
GAIKEI
  6
Continuous
 62
     1
100
AcDbLine
 10
13.89026310479812
 20
2.919081884424088
 30
0.0
 11
13.89026310479812
 21
1.319081884424122
 31
0.0
  0
LINE
  5
33B
330
2
100
AcDbEntity
  8
GAIKEI
  6
Continuous
 62
     1
100
AcDbLine
 10
13.77977420479817
 20
2.919081884424088
 30
0.0
 11
13.77977420479817
 21
1.319081884424122
 31
0.0
  0
LINE
  5
33C
330
2
100
AcDbEntity
  8
GAIKEI
  6
Continuous
 62
     1
100
AcDbLine
 10
13.75066200479819
 20
2.919081884424088
 30
0.0
 11
13.75066200479819
 21
1.319081884424122
 31
0.0
  0
LINE
  5
33D
330
2
100
AcDbEntity
  8
GAIKEI
  6
Continuous
 62
     1
100
AcDbLine
 10
13.69395570479815
 20
2.919081884424088
 30
0.0
 11
13.69395570479815
 21
1.319081884424122
 31
0.0
  0
LINE
  5
33E
330
2
100
AcDbEntity
  8
GAIKEI
  6
Continuous
 62
     1
100
AcDbLine
 10
13.63646670479818
 20
2.919081884424088
 30
0.0
 11
13.63646670479818
 21
1.319081884424122
 31
0.0
  0
LINE
  5
33F
330
2
100
AcDbEntity
  8
GAIKEI
  6
Continuous
 62
     1
100
AcDbLine
 10
13.60767640479815
 20
2.919081884424088
 30
0.0
 11
13.60767640479815
 21
1.319081884424122
 31
0.0
  0
LINE
  5
340
330
2
100
AcDbEntity
  8
GAIKEI
  6
Continuous
100
AcDbLine
 10
13.57868930479816
 20
2.919081884424088
 30
0.0
 11
13.57868930479816
 21
1.319081884424122
 31
0.0
  0
LINE
  5
341
330
2
100
AcDbEntity
  8
GAIKEI
  6
Continuous
 62
     1
100
AcDbLine
 10
13.57671330479815
 20
2.919081884424088
 30
0.0
 11
13.57671330479815
 21
1.319081884424122
 31
0.0
  0
LINE
  5
342
330
2
100
AcDbEntity
  8
GAIKEI
  6
Continuous
100
AcDbLine
 10
13.54950380479818
 20
2.919081884424088
 30
0.0
 11
13.54950380479818
 21
1.319081884424122
 31
0.0
  0
LINE
  5
343
330
2
100
AcDbEntity
  8
GAIKEI
  6
Continuous
100
AcDbLine
 10
13.54828920479815
 20
2.919081884424088
 30
0.0
 11
13.54828920479815
 21
1.319081884424122
 31
0.0
  0
LINE
  5
344
330
2
100
AcDbEntity
  8
GAIKEI
  6
Continuous
 62
     1
100
AcDbLine
 10
15.14828920479817
 20
6.276674584424142
 30
0.0
 11
15.14828920479817
 21
5.834584784424123
 31
0.0
  0
ARC
  5
345
330
2
100
AcDbEntity
  8
GAIKEI
  6
Continuous
100
AcDbCircle
 10
15.54828920479815
 20
3.919081884424088
 30
0.0
 40
3.0
100
AcDbArc
 50
240.0735359999973
 51
255.1648660000001
  0
ARC
  5
346
330
2
100
AcDbEntity
  8
GAIKEI
  6
Continuous
100
AcDbCircle
 10
15.54828920479815
 20
3.919081884424088
 30
0.0
 40
3.0
100
AcDbArc
 50
284.8351329999996
 51
299.9264640000027
  0
LINE
  5
347
330
2
100
AcDbEntity
  8
GAIKEI
  6
Continuous
100
AcDbLine
 10
49.09827240479819
 20
0.919081884424088
 30
0.0
 11
48.49827240479817
 21
0.919081884424088
 31
0.0
  0
LINE
  5
348
330
2
100
AcDbEntity
  8
GAIKEI
  6
Continuous
100
AcDbLine
 10
48.29827240479819
 20
1.119081884424133
 30
0.0
 11
48.29827240479819
 21
1.319081884424122
 31
0.0
  0
LINE
  5
349
330
2
100
AcDbEntity
  8
GAIKEI
  6
Continuous
100
AcDbLine
 10
49.29827240479818
 20
1.319081884424122
 30
0.0
 11
49.29827240479818
 21
1.119081884424133
 31
0.0
  0
ARC
  5
34A
330
2
100
AcDbEntity
  8
GAIKEI
  6
Continuous
100
AcDbCircle
 10
49.09827240479819
 20
1.119081884424133
 30
0.0
 40
0.2
100
AcDbArc
 50
270.0
 51
359.9999820000008
  0
ARC
  5
34B
330
2
100
AcDbEntity
  8
GAIKEI
  6
Continuous
100
AcDbCircle
 10
48.49827240479817
 20
1.119081884424133
 30
0.0
 40
0.2
100
AcDbArc
 50
180.0000009999949
 51
269.999982999999
  0
LINE
  5
34C
330
2
100
AcDbEntity
  8
GAIKEI
  6
Continuous
 62
     1
100
AcDbLine
 10
48.49827240479817
 20
1.319081884424122
 30
0.0
 11
48.49827240479817
 21
1.119081884424133
 31
0.0
  0
LINE
  5
34D
330
2
100
AcDbEntity
  8
GAIKEI
  6
Continuous
 62
     1
100
AcDbLine
 10
48.49827240479817
 20
1.119081884424133
 30
0.0
 11
49.09827240479819
 21
1.119081884424133
 31
0.0
  0
LINE
  5
34E
330
2
100
AcDbEntity
  8
GAIKEI
  6
Continuous
 62
     1
100
AcDbLine
 10
49.09827240479819
 20
1.119081884424133
 30
0.0
 11
49.09827240479819
 21
1.319081884424122
 31
0.0
  0
LINE
  5
34F
330
2
100
AcDbEntity
  8
GAIKEI
  6
Continuous
 62
     1
100
AcDbLine
 10
49.09827240479819
 20
1.119081884424133
 30
0.0
 11
49.29827240479818
 21
1.119081884424133
 31
0.0
  0
LINE
  5
350
330
2
100
AcDbEntity
  8
GAIKEI
  6
Continuous
 62
     1
100
AcDbLine
 10
49.09827240479819
 20
0.919081884424088
 30
0.0
 11
49.09827240479819
 21
1.119081884424133
 31
0.0
  0
LINE
  5
351
330
2
100
AcDbEntity
  8
GAIKEI
  6
Continuous
 62
     1
100
AcDbLine
 10
48.49827240479817
 20
1.119081884424133
 30
0.0
 11
48.49827240479817
 21
0.919081884424088
 31
0.0
  0
LINE
  5
352
330
2
100
AcDbEntity
  8
GAIKEI
  6
Continuous
 62
     1
100
AcDbLine
 10
48.29827240479819
 20
1.119081884424133
 30
0.0
 11
48.49827240479817
 21
1.119081884424133
 31
0.0
  0
LINE
  5
353
330
2
100
AcDbEntity
  8
GAIKEI
  6
Continuous
100
AcDbLine
 10
11.79829630479815
 20
3.636536984424139
 30
0.0
 11
11.89781915027203
 21
3.535261790954962
 31
0.0
  0
LINE
  5
354
330
2
100
AcDbEntity
  8
GAIKEI
  6
Continuous
100
AcDbLine
 10
11.79828920479815
 20
10.14742658442407
 30
0.0
 11
11.79828920479815
 21
3.636537884424114
 31
0.0
  0
LINE
  5
355
330
2
100
AcDbEntity
  8
GAIKEI
  6
Continuous
100
AcDbLine
 10
11.79828920479815
 20
17.90162578442414
 30
0.0
 11
11.79828920479815
 21
10.14742658442407
 31
0.0
  0
LINE
  5
356
330
2
100
AcDbEntity
  8
GAIKEI
  6
Continuous
100
AcDbLine
 10
11.89778922880197
 20
18.00288304087115
 30
0.0
 11
11.79828430479819
 21
17.90162608442409
 31
0.0
  0
ARC
  5
357
330
2
100
AcDbEntity
  8
GAIKEI
  6
Continuous
100
AcDbCircle
 10
54.81434240479813
 20
3.219081884424099
 30
0.0
 40
0.2
100
AcDbArc
 50
270.0
 51
359.9999820000008
  0
LINE
  5
358
330
2
100
AcDbEntity
  8
GAIKEI
  6
Continuous
 62
     1
100
AcDbLine
 10
18.18538180479817
 20
2.969081884424099
 30
0.0
 11
16.84539160479812
 21
2.969081884424099
 31
0.0
  0
LINE
  5
359
330
2
100
AcDbEntity
  8
GAIKEI
  6
Continuous
100
AcDbLine
 10
13.03399940479812
 20
3.01908188442411
 30
0.0
 11
54.8143424047982
 21
3.01908188442411
 31
0.0
  0
ARC
  5
35A
330
2
100
AcDbEntity
  8
GAIKEI
  6
Continuous
 62
     1
100
AcDbCircle
 10
17.63288090479818
 20
2.719081884424099
 30
0.0
 40
0.2
100
AcDbArc
 50
244.4976960000003
 51
269.999982999999
  0
LINE
  5
35B
330
2
100
AcDbEntity
  8
GAIKEI
  6
Continuous
 62
     1
100
AcDbLine
 10
22.28369720479816
 20
2.51908188442411
 30
0.0
 11
22.05828210479814
 21
2.51908188442411
 31
0.0
  0
LINE
  5
35C
330
2
100
AcDbEntity
  8
GAIKEI
  6
Continuous
 62
     1
100
AcDbLine
 10
22.05828210479814
 20
2.51908188442411
 30
0.0
 11
17.85828980479817
 21
2.51908188442411
 31
0.0
  0
LINE
  5
35D
330
2
100
AcDbEntity
  8
GAIKEI
  6
Continuous
 62
     1
100
AcDbLine
 10
17.85828980479817
 20
2.51908188442411
 30
0.0
 11
17.63288080479816
 21
2.51908188442411
 31
0.0
  0
ARC
  5
35E
330
2
100
AcDbEntity
  8
GAIKEI
  6
Continuous
 62
     1
100
AcDbCircle
 10
22.28369720479816
 20
2.719081884424099
 30
0.0
 40
0.2
100
AcDbArc
 50
270.0
 51
329.9999880000052
  0
LINE
  5
35F
330
2
100
AcDbEntity
  8
GAIKEI
  6
Continuous
 62
     1
100
AcDbLine
 10
22.45689280479814
 20
2.619091184424121
 30
0.0
 11
22.68782550479818
 21
3.019078184424131
 31
0.0
  0
LINE
  5
360
330
2
100
AcDbEntity
  8
GAIKEI
  6
Continuous
 62
     1
100
AcDbLine
 10
17.28648150479813
 20
2.91907368442412
 30
0.0
 11
17.25761190479818
 21
2.969077284424088
 31
0.0
  0
ARC
  5
361
330
2
100
AcDbEntity
  8
GAIKEI
  6
Continuous
100
AcDbCircle
 10
49.45664650479819
 20
1.419081884424088
 30
0.0
 40
0.1
100
AcDbArc
 50
270.0
 51
354.9999559999989
  0
ARC
  5
362
330
2
100
AcDbEntity
  8
GAIKEI
  6
Continuous
100
AcDbCircle
 10
48.13992280479817
 20
1.419081884424088
 30
0.0
 40
0.1
100
AcDbArc
 50
184.9999720000041
 51
269.999982999999
  0
LINE
  5
363
330
2
100
AcDbEntity
  8
GAIKEI
  6
Continuous
100
AcDbLine
 10
49.45664650479819
 20
1.319081884424122
 30
0.0
 11
49.04827240479818
 21
1.319081884424122
 31
0.0
  0
LINE
  5
364
330
2
100
AcDbEntity
  8
GAIKEI
  6
Continuous
100
AcDbLine
 10
49.04827240479818
 20
1.319081884424122
 30
0.0
 11
48.54827240479818
 21
1.319081884424122
 31
0.0
  0
LINE
  5
365
330
2
100
AcDbEntity
  8
GAIKEI
  6
Continuous
100
AcDbLine
 10
48.54827240479818
 20
1.319081884424122
 30
0.0
 11
48.13992280479817
 21
1.319081884424122
 31
0.0
  0
LINE
  5
366
330
2
100
AcDbEntity
  8
GAIKEI
  6
Continuous
100
AcDbLine
 10
48.04028840479816
 20
1.410340184424114
 30
0.0
 11
47.8995435047982
 21
3.019063284424134
 31
0.0
  0
LINE
  5
367
330
2
100
AcDbEntity
  8
GAIKEI
  6
Continuous
100
AcDbLine
 10
49.55626740479818
 20
1.41037008442413
 30
0.0
 11
49.69701020479817
 21
3.019068884424143
 31
0.0
  0
LINE
  5
368
330
2
100
AcDbEntity
  8
GAIKEI
  6
Continuous
 62
     1
100
AcDbLine
 10
13.04970780479817
 20
4.819065084424096
 30
0.0
 11
13.03399960479817
 21
3.019084784424137
 31
0.0
  0
SPLINE
  5
369
330
2
100
AcDbEntity
  8
GAIKEI
  6
Continuous
 62
     1
100
AcDbSpline
210
0.0
220
0.0
230
1.0
 70
     8
 71
     3
 72
     9
 73
     5
 74
     3
 42
0.0000000001
 43
0.0000000001
 44
0.000001
 12
0.0777981690539094
 22
0.9969691293575039
 32
0.0
 13
0.9576507596180521
 23
0.287932322956225
 33
0.0
 40
0.0
 40
0.0
 40
0.0
 40
0.0
 40
0.0052961563262035
 40
0.0084729461998152
 40
0.0084729461998152
 40
0.0084729461998152
 40
0.0084729461998152
 10
28.84194919659507
 20
3.019081860986602
 30
0.0
 10
28.84208654035012
 20
3.02084189577377
 30
0.0
 10
28.84308115140257
 20
3.023031926367139
 30
0.0
 10
28.84159429120402
 20
3.027224226449021
 30
0.0
 10
28.84260837628256
 20
3.027529126611625
 30
0.0
 11
28.84194919659507
 21
3.019081860986602
 31
0.0
 11
28.84236118389976
 21
3.024361402002227
 31
0.0
 11
28.84260837628256
 21
3.027529126611625
 31
0.0
  0
SPLINE
  5
36A
330
2
100
AcDbEntity
  8
GAIKEI
  6
Continuous
 62
     1
100
AcDbSpline
210
0.0
220
0.0
230
1.0
 70
     8
 71
     3
 72
     9
 73
     5
 74
     3
 42
0.0000000001
 43
0.0000000001
 44
0.000001
 12
0.0776478495003114
 22
0.9969808480948755
 32
0.0
 13
0.9576507596180521
 23
0.287932322956225
 33
0.0
 40
0.0
 40
0.0
 40
0.0
 40
0.0
 40
0.035875924541753
 40
0.1205747385412194
 40
0.1205747385412194
 40
0.1205747385412194
 40
0.1205747385412194
 10
28.84260837628256
 20
3.027529126611625
 30
0.0
 10
28.84353693907906
 20
3.03945166317024
 30
0.0
 10
28.89300254438087
 20
3.055868764432801
 30
0.0
 10
28.92367655051078
 20
3.070400927751933
 30
0.0
 10
28.95071384503257
 20
3.078530103174102
 30
0.0
 11
28.84260837628256
 21
3.027529126611625
 31
0.0
 11
28.87131031729962
 21
3.04905392175641
 31
0.0
 11
28.95071384503257
 21
3.078530103174102
 31
0.0
  0
SPLINE
  5
36B
330
2
100
AcDbEntity
  8
GAIKEI
  6
Continuous
 62
     1
100
AcDbSpline
210
0.0
220
0.0
230
1.0
 70
     8
 71
     3
 72
     9
 73
     5
 74
     3
 42
0.0000000001
 43
0.0000000001
 44
0.000001
 12
0.9577435112851738
 22
0.2876236544360463
 32
0.0
 13
0.9999999992061841
 23
-0.0000398450949805
 33
0.0
 40
0.0
 40
0.0
 40
0.0
 40
0.0
 40
0.1576136686687682
 40
0.3465120701109691
 40
0.3465120701109691
 40
0.3465120701109691
 40
0.3465120701109691
 10
28.95071384503257
 20
3.078530103174102
 30
0.0
 10
29.00103166785169
 20
3.093641242964622
 30
0.0
 10
29.1146363710549
 20
3.116728137130365
 30
0.0
 10
29.23017935189344
 20
3.125969135503197
 30
0.0
 10
29.29314548565753
 20
3.125966626611614
 30
0.0
 11
28.95071384503257
 21
3.078530103174102
 31
0.0
 11
29.10478088452232
 21
3.11177812447346
 31
0.0
 11
29.29314548565753
 21
3.125966626611614
 31
0.0
  0
LINE
  5
36C
330
2
100
AcDbEntity
  8
GAIKEI
  6
Continuous
 62
     1
100
AcDbLine
 10
29.29314540479817
 20
3.125966584424133
 30
0.0
 11
38.30342380479817
 21
3.125966584424133
 31
0.0
  0
SPLINE
  5
36D
330
2
100
AcDbEntity
  8
GAIKEI
  6
Continuous
 62
     1
100
AcDbSpline
210
0.0
220
0.0
230
1.0
 70
     8
 71
     3
 72
     9
 73
     5
 74
     3
 42
0.0000000001
 43
0.0000000001
 44
0.000001
 12
0.9999999990889968
 22
0.0000426849692171
 32
0.0
 13
0.9577349185293522
 23
-0.2876522654692205
 33
0.0
 40
0.0
 40
0.0
 40
0.0
 40
0.0
 40
0.188898314493089
 40
0.3465127069518362
 40
0.3465127069518362
 40
0.3465127069518362
 40
0.3465127069518362
 10
38.30342380597006
 20
3.125966626611614
 30
0.0
 10
38.36638991074372
 20
3.12596931431787
 30
0.0
 10
38.48193390917547
 20
3.116736409704941
 30
0.0
 10
38.59553784415491
 20
3.093642815527886
 30
0.0
 10
38.64585544659508
 20
3.078530103174102
 30
0.0
 11
38.30342380597006
 21
3.125966626611614
 31
0.0
 11
38.49178866936575
 21
3.111782773613924
 31
0.0
 11
38.64585544659508
 21
3.078530103174102
 31
0.0
  0
SPLINE
  5
36E
330
2
100
AcDbEntity
  8
GAIKEI
  6
Continuous
 62
     1
100
AcDbSpline
210
0.0
220
0.0
230
1.0
 70
     8
 71
     3
 72
     9
 73
     5
 74
     3
 42
0.0000000001
 43
0.0000000001
 44
0.000001
 12
0.9576600301241045
 22
-0.2879014878438448
 32
0.0
 13
0.0770595663473882
 23
-0.9970264907385121
 33
0.0
 40
0.0
 40
0.0
 40
0.0
 40
0.0
 40
0.0847010630831044
 40
0.120574441378545
 40
0.120574441378545
 40
0.120574441378545
 40
0.120574441378545
 10
38.64585544659508
 20
3.078530103174102
 30
0.0
 10
38.67289372080299
 20
3.070401582479576
 30
0.0
 10
38.703557779801
 20
3.055865576693378
 30
0.0
 10
38.75303945302008
 20
3.039451362769227
 30
0.0
 10
38.75396091534503
 20
3.027529126611625
 30
0.0
 11
38.64585544659508
 21
3.078530103174102
 31
0.0
 11
38.72526060516697
 21
3.049051852730201
 31
0.0
 11
38.75396091534503
 21
3.027529126611625
 31
0.0
  0
SPLINE
  5
36F
330
2
100
AcDbEntity
  8
GAIKEI
  6
Continuous
 62
     1
100
AcDbSpline
210
0.0
220
0.0
230
1.0
 70
     8
 71
     3
 72
     9
 73
     5
 74
     3
 42
0.0000000001
 43
0.0000000001
 44
0.000001
 12
0.0775485507434491
 22
-0.9969885768039626
 32
0.0
 13
0.0775485507434491
 23
-0.9969885768039626
 33
0.0
 40
0.0
 40
0.0
 40
0.0
 40
0.0
 40
0.0042364730141995
 40
0.0084729460283991
 40
0.0084729460283991
 40
0.0084729460283991
 40
0.0084729460283991
 10
38.75396091534503
 20
3.027529126611625
 30
0.0
 10
38.75407042612588
 20
3.026121221544599
 30
0.0
 10
38.75429050518881
 20
3.023305493799142
 30
0.0
 10
38.75451058425174
 20
3.020489766053628
 30
0.0
 10
38.75462009503258
 20
3.019081860986602
 30
0.0
 11
38.75396091534503
 21
3.027529126611625
 31
0.0
 11
38.75429050518881
 21
3.023305493799114
 31
0.0
 11
38.75462009503258
 21
3.019081860986602
 31
0.0
  0
LINE
  5
370
330
2
100
AcDbEntity
  8
KIJUN
  6
CENTER
100
AcDbLine
 10
-39.44177612357634
 20
10.76907498442409
 30
0.0
 11
-24.54177612357637
 21
10.7690881844241
 31
0.0
  0
LINE
  5
374
330
2
100
AcDbEntity
  8
KIJUN
  6
CENTER
100
AcDbLine
 10
-31.9917695235763
 20
3.319081584424111
 30
0.0
 11
-31.99178272357637
 21
18.21908158442414
 31
0.0
  0
ARC
  5
375
330
2
100
AcDbEntity
  8
GAIKEI
  6
Continuous
 62
     1
100
AcDbCircle
 10
-31.96548222357638
 20
10.58208508442413
 30
0.0
 40
7.462889100000002
100
AcDbArc
 50
178.5987920000013
 51
187.4126319999991
  0
LINE
  5
376
330
2
100
AcDbEntity
  8
GAIKEI
  6
Continuous
 62
     1
100
AcDbLine
 10
-39.47612292357633
 20
10.76640908442408
 30
0.0
 11
-39.42615662357633
 21
10.76457488442412
 31
0.0
  0
ARC
  5
377
330
2
100
AcDbEntity
  8
GAIKEI
  6
Continuous
 62
     1
100
AcDbCircle
 10
-32.00183472357634
 20
10.58146108442412
 30
0.0
 40
7.4765701
100
AcDbArc
 50
178.5825090000005
 51
184.8464480000011
  0
LINE
  5
378
330
2
100
AcDbEntity
  8
GAIKEI
  6
Continuous
 62
     1
100
AcDbLine
 10
-39.58247852357636
 20
9.945501084424108
 30
0.0
 11
-39.45166512357634
 21
9.949794484424103
 31
0.0
  0
LINE
  5
379
330
2
100
AcDbEntity
  8
GAIKEI
  6
Continuous
 62
     1
100
AcDbLine
 10
-39.3660053235763
 20
9.61926008442407
 30
0.0
 11
-39.58246762357635
 21
9.945500084424111
 31
0.0
  0
LINE
  5
37A
330
2
100
AcDbEntity
  8
GAIKEI
  6
Continuous
 62
     1
100
AcDbLine
 10
42.53520640479814
 20
14.9887727844241
 30
0.0
 11
42.53520640479814
 21
15.54873878442413
 31
0.0
  0
LINE
  5
37B
330
2
100
AcDbEntity
  8
GAIKEI
  6
Continuous
 62
     1
100
AcDbLine
 10
42.53522840479814
 20
15.54873878442413
 30
0.0
 11
46.10650040479817
 21
15.54873878442413
 31
0.0
  0
LINE
  5
37C
330
2
100
AcDbEntity
  8
GAIKEI
  6
Continuous
 62
     1
100
AcDbLine
 10
46.10652340479816
 20
15.54873878442413
 30
0.0
 11
46.10652340479816
 21
14.9887727844241
 31
0.0
  0
LINE
  5
37D
330
2
100
AcDbEntity
  8
GAIKEI
  6
Continuous
 62
     1
100
AcDbLine
 10
46.10650140479816
 20
14.9887727844241
 30
0.0
 11
42.53522840479814
 21
14.9887727844241
 31
0.0
  0
LINE
  5
37E
330
2
100
AcDbEntity
  8
GAIKEI
  6
Continuous
 62
     1
100
AcDbLine
 10
42.53520640479814
 20
14.2387727844241
 30
0.0
 11
42.53520640479814
 21
14.79873878442413
 31
0.0
  0
LINE
  5
37F
330
2
100
AcDbEntity
  8
GAIKEI
  6
Continuous
 62
     1
100
AcDbLine
 10
42.5352274047982
 20
14.79873878442413
 30
0.0
 11
46.10650140479816
 21
14.79873878442413
 31
0.0
  0
LINE
  5
380
330
2
100
AcDbEntity
  8
GAIKEI
  6
Continuous
 62
     1
100
AcDbLine
 10
46.10652340479816
 20
14.79873878442413
 30
0.0
 11
46.10652340479816
 21
14.2387727844241
 31
0.0
  0
LINE
  5
381
330
2
100
AcDbEntity
  8
GAIKEI
  6
Continuous
 62
     1
100
AcDbLine
 10
46.10650240479822
 20
14.2387727844241
 30
0.0
 11
42.53522640479815
 21
14.2387727844241
 31
0.0
  0
LINE
  5
382
330
2
100
AcDbEntity
  8
GAIKEI
  6
Continuous
 62
     1
100
AcDbLine
 10
42.53520640479814
 20
13.4887727844241
 30
0.0
 11
42.53520640479814
 21
14.04873878442407
 31
0.0
  0
LINE
  5
383
330
2
100
AcDbEntity
  8
GAIKEI
  6
Continuous
 62
     1
100
AcDbLine
 10
42.53522640479815
 20
14.04873878442407
 30
0.0
 11
46.10650340479816
 21
14.04873878442407
 31
0.0
  0
LINE
  5
384
330
2
100
AcDbEntity
  8
GAIKEI
  6
Continuous
 62
     1
100
AcDbLine
 10
46.10652340479816
 20
14.04873878442407
 30
0.0
 11
46.10652340479816
 21
13.4887727844241
 31
0.0
  0
LINE
  5
385
330
2
100
AcDbEntity
  8
GAIKEI
  6
Continuous
 62
     1
100
AcDbLine
 10
46.10650440479815
 20
13.4887727844241
 30
0.0
 11
42.53522540479821
 21
13.4887727844241
 31
0.0
  0
LINE
  5
386
330
2
100
AcDbEntity
  8
GAIKEI
  6
Continuous
 62
     1
100
AcDbLine
 10
42.53520640479814
 20
12.7387727844241
 30
0.0
 11
42.53520640479814
 21
13.29873878442413
 31
0.0
  0
LINE
  5
387
330
2
100
AcDbEntity
  8
GAIKEI
  6
Continuous
 62
     1
100
AcDbLine
 10
42.53522540479821
 20
13.29873878442413
 30
0.0
 11
46.10650440479815
 21
13.29873878442413
 31
0.0
  0
LINE
  5
388
330
2
100
AcDbEntity
  8
GAIKEI
  6
Continuous
 62
     1
100
AcDbLine
 10
46.10652340479816
 20
13.29873878442413
 30
0.0
 11
46.10652340479816
 21
12.7387727844241
 31
0.0
  0
LINE
  5
389
330
2
100
AcDbEntity
  8
GAIKEI
  6
Continuous
 62
     1
100
AcDbLine
 10
46.10650540479816
 20
12.7387727844241
 30
0.0
 11
42.53522440479815
 21
12.7387727844241
 31
0.0
  0
LINE
  5
38A
330
2
100
AcDbEntity
  8
GAIKEI
  6
Continuous
 62
     1
100
AcDbLine
 10
42.53520640479814
 20
11.9887727844241
 30
0.0
 11
42.53520640479814
 21
12.54873878442413
 31
0.0
  0
LINE
  5
38B
330
2
100
AcDbEntity
  8
GAIKEI
  6
Continuous
 62
     1
100
AcDbLine
 10
42.53522440479815
 20
12.54873878442413
 30
0.0
 11
46.10650540479816
 21
12.54873878442413
 31
0.0
  0
LINE
  5
38C
330
2
100
AcDbEntity
  8
GAIKEI
  6
Continuous
 62
     1
100
AcDbLine
 10
46.10652340479816
 20
12.54873878442413
 30
0.0
 11
46.10652340479816
 21
11.9887727844241
 31
0.0
  0
LINE
  5
38D
330
2
100
AcDbEntity
  8
GAIKEI
  6
Continuous
 62
     1
100
AcDbLine
 10
46.1065064047982
 20
11.9887727844241
 30
0.0
 11
42.53522340479821
 21
11.9887727844241
 31
0.0
  0
LINE
  5
38E
330
2
100
AcDbEntity
  8
GAIKEI
  6
Continuous
 62
     1
100
AcDbLine
 10
42.53520640479814
 20
11.2387727844241
 30
0.0
 11
42.53520640479814
 21
11.79873878442413
 31
0.0
  0
LINE
  5
38F
330
2
100
AcDbEntity
  8
GAIKEI
  6
Continuous
 62
     1
100
AcDbLine
 10
42.53522240479816
 20
11.79873878442413
 30
0.0
 11
46.10650740479814
 21
11.79873878442413
 31
0.0
  0
LINE
  5
390
330
2
100
AcDbEntity
  8
GAIKEI
  6
Continuous
 62
     1
100
AcDbLine
 10
46.10652340479816
 20
11.79873878442413
 30
0.0
 11
46.10652340479816
 21
11.2387727844241
 31
0.0
  0
LINE
  5
391
330
2
100
AcDbEntity
  8
GAIKEI
  6
Continuous
 62
     1
100
AcDbLine
 10
46.1065084047982
 20
11.2387727844241
 30
0.0
 11
42.53522140479816
 21
11.2387727844241
 31
0.0
  0
LINE
  5
392
330
2
100
AcDbEntity
  8
GAIKEI
  6
Continuous
 62
     1
100
AcDbLine
 10
42.53520640479814
 20
10.4887727844241
 30
0.0
 11
42.53520640479814
 21
11.04873878442413
 31
0.0
  0
LINE
  5
393
330
2
100
AcDbEntity
  8
GAIKEI
  6
Continuous
 62
     1
100
AcDbLine
 10
42.53522140479816
 20
11.04873878442413
 30
0.0
 11
46.1065084047982
 21
11.04873878442413
 31
0.0
  0
LINE
  5
394
330
2
100
AcDbEntity
  8
GAIKEI
  6
Continuous
 62
     1
100
AcDbLine
 10
46.10652340479816
 20
11.04873878442413
 30
0.0
 11
46.10652340479816
 21
10.4887727844241
 31
0.0
  0
LINE
  5
395
330
2
100
AcDbEntity
  8
GAIKEI
  6
Continuous
 62
     1
100
AcDbLine
 10
46.10650940479814
 20
10.4887727844241
 30
0.0
 11
42.53521940479816
 21
10.4887727844241
 31
0.0
  0
LINE
  5
396
330
2
100
AcDbEntity
  8
GAIKEI
  6
Continuous
 62
     1
100
AcDbLine
 10
42.53520640479814
 20
9.738772784424099
 30
0.0
 11
42.53520640479814
 21
10.29873878442407
 31
0.0
  0
LINE
  5
397
330
2
100
AcDbEntity
  8
GAIKEI
  6
Continuous
 62
     1
100
AcDbLine
 10
42.53521940479816
 20
10.29873878442407
 30
0.0
 11
46.1065104047982
 21
10.29873878442407
 31
0.0
  0
LINE
  5
398
330
2
100
AcDbEntity
  8
GAIKEI
  6
Continuous
 62
     1
100
AcDbLine
 10
46.10652340479816
 20
10.29873878442407
 30
0.0
 11
46.10652340479816
 21
9.738772784424099
 31
0.0
  0
LINE
  5
399
330
2
100
AcDbEntity
  8
GAIKEI
  6
Continuous
 62
     1
100
AcDbLine
 10
46.10651140479814
 20
9.738772784424099
 30
0.0
 11
42.53521740479818
 21
9.738772784424099
 31
0.0
  0
LINE
  5
39A
330
2
100
AcDbEntity
  8
GAIKEI
  6
Continuous
 62
     1
100
AcDbLine
 10
42.53520640479814
 20
8.988772784424099
 30
0.0
 11
42.53520640479814
 21
9.548738784424131
 31
0.0
  0
LINE
  5
39B
330
2
100
AcDbEntity
  8
GAIKEI
  6
Continuous
 62
     1
100
AcDbLine
 10
42.53521740479818
 20
9.548738784424131
 30
0.0
 11
46.10651240479819
 21
9.548738784424131
 31
0.0
  0
LINE
  5
39C
330
2
100
AcDbEntity
  8
GAIKEI
  6
Continuous
 62
     1
100
AcDbLine
 10
46.10652340479816
 20
9.548738784424131
 30
0.0
 11
46.10652340479816
 21
8.988772784424099
 31
0.0
  0
LINE
  5
39D
330
2
100
AcDbEntity
  8
GAIKEI
  6
Continuous
 62
     1
100
AcDbLine
 10
46.10651440479819
 20
8.988772784424099
 30
0.0
 11
42.53521540479818
 21
8.988772784424099
 31
0.0
  0
LINE
  5
39E
330
2
100
AcDbEntity
  8
GAIKEI
  6
Continuous
 62
     1
100
AcDbLine
 10
42.53520640479814
 20
8.238772784424099
 30
0.0
 11
42.53520640479814
 21
8.798738784424131
 31
0.0
  0
LINE
  5
39F
330
2
100
AcDbEntity
  8
GAIKEI
  6
Continuous
 62
     1
100
AcDbLine
 10
42.53521540479818
 20
8.798738784424131
 30
0.0
 11
46.10651440479819
 21
8.798738784424131
 31
0.0
  0
LINE
  5
3A0
330
2
100
AcDbEntity
  8
GAIKEI
  6
Continuous
 62
     1
100
AcDbLine
 10
46.10652340479816
 20
8.798738784424131
 30
0.0
 11
46.10652340479816
 21
8.238772784424099
 31
0.0
  0
LINE
  5
3A1
330
2
100
AcDbEntity
  8
GAIKEI
  6
Continuous
 62
     1
100
AcDbLine
 10
46.10651740479818
 20
8.238772784424099
 30
0.0
 11
42.53521240479819
 21
8.238772784424099
 31
0.0
  0
LINE
  5
3A2
330
2
100
AcDbEntity
  8
GAIKEI
  6
Continuous
 62
     1
100
AcDbLine
 10
42.53520640479814
 20
7.488772784424099
 30
0.0
 11
42.53520640479814
 21
8.048738784424131
 31
0.0
  0
LINE
  5
3A3
330
2
100
AcDbEntity
  8
GAIKEI
  6
Continuous
 62
     1
100
AcDbLine
 10
42.53521140479818
 20
8.048738784424131
 30
0.0
 11
46.10651840479818
 21
8.048738784424131
 31
0.0
  0
LINE
  5
3A4
330
2
100
AcDbEntity
  8
GAIKEI
  6
Continuous
 62
     1
100
AcDbLine
 10
46.10652340479816
 20
8.048738784424131
 30
0.0
 11
46.10652340479816
 21
7.488772784424099
 31
0.0
  0
LINE
  5
3A5
330
2
100
AcDbEntity
  8
GAIKEI
  6
Continuous
 62
     1
100
AcDbLine
 10
46.10652340479816
 20
7.488772784424099
 30
0.0
 11
42.53520640479814
 21
7.488772784424099
 31
0.0
  0
LINE
  5
3A6
330
2
100
AcDbEntity
  8
GAIKEI
  6
Continuous
 62
     1
100
AcDbLine
 10
42.53520640479814
 20
6.738772784424099
 30
0.0
 11
42.53520640479814
 21
7.298738784424131
 31
0.0
  0
LINE
  5
3A7
330
2
100
AcDbEntity
  8
GAIKEI
  6
Continuous
 62
     1
100
AcDbLine
 10
42.53520640479814
 20
7.298738784424131
 30
0.0
 11
46.10652340479816
 21
7.298738784424131
 31
0.0
  0
LINE
  5
3A8
330
2
100
AcDbEntity
  8
GAIKEI
  6
Continuous
 62
     1
100
AcDbLine
 10
46.10652340479816
 20
7.298738784424131
 30
0.0
 11
46.10652340479816
 21
6.738772784424099
 31
0.0
  0
LINE
  5
3A9
330
2
100
AcDbEntity
  8
GAIKEI
  6
Continuous
 62
     1
100
AcDbLine
 10
46.10652340479816
 20
6.738772784424099
 30
0.0
 11
42.53520640479814
 21
6.738772784424099
 31
0.0
  0
LINE
  5
3AA
330
2
100
AcDbEntity
  8
GAIKEI
  6
Continuous
 62
     1
100
AcDbLine
 10
42.53520640479814
 20
5.988772784424099
 30
0.0
 11
42.53520640479814
 21
6.548738784424131
 31
0.0
  0
LINE
  5
3AB
330
2
100
AcDbEntity
  8
GAIKEI
  6
Continuous
 62
     1
100
AcDbLine
 10
42.53520640479814
 20
6.548738784424131
 30
0.0
 11
46.10652340479816
 21
6.548738784424131
 31
0.0
  0
LINE
  5
3AC
330
2
100
AcDbEntity
  8
GAIKEI
  6
Continuous
 62
     1
100
AcDbLine
 10
46.10652340479816
 20
6.548738784424131
 30
0.0
 11
46.10652340479816
 21
5.988772784424099
 31
0.0
  0
LINE
  5
3AD
330
2
100
AcDbEntity
  8
GAIKEI
  6
Continuous
 62
     1
100
AcDbLine
 10
46.10652340479816
 20
5.988772784424099
 30
0.0
 11
42.53520640479814
 21
5.988772784424099
 31
0.0
  0
LINE
  5
3AE
330
2
100
AcDbEntity
  8
GAIKEI
  6
Continuous
 62
     1
100
AcDbLine
 10
44.60485840479816
 20
6.548738784424131
 30
0.0
 11
44.60485840479816
 21
5.988772784424099
 31
0.0
  0
LINE
  5
3AF
330
2
100
AcDbEntity
  8
GAIKEI
  6
Continuous
 62
     1
100
AcDbLine
 10
44.03687140479815
 20
5.988772784424099
 30
0.0
 11
44.03687140479812
 21
6.548738784424131
 31
0.0
  0
POINT
  5
3B0
330
2
100
AcDbEntity
  8
GAIKEI
  6
Continuous
 62
     1
100
AcDbPoint
 10
49.69827240479822
 20
5.618453384424128
 30
0.0
  0
LINE
  5
3B1
330
2
100
AcDbEntity
  8
WAKU
 62
     1
100
AcDbLine
 10
-62.72282130090321
 20
-21.82134376014375
 30
0.0
 11
62.27717869909679
 21
-21.82134376014375
 31
0.0
  0
LINE
  5
3B2
330
2
100
AcDbEntity
  8
WAKU
 62
     1
100
AcDbLine
 10
-62.72282130090321
 20
-26.82134376014375
 30
0.0
 11
62.27717869909679
 21
-26.82134376014375
 31
0.0
  0
LINE
  5
3B3
330
2
100
AcDbEntity
  8
WAKU
 62
     1
100
AcDbLine
 10
-62.72282130090321
 20
-31.82134376014375
 30
0.0
 11
62.27717869909679
 21
-31.82134376014375
 31
0.0
  0
LINE
  5
3B4
330
2
100
AcDbEntity
  8
WAKU
 62
     1
100
AcDbLine
 10
-62.72282130090321
 20
-36.82134376014375
 30
0.0
 11
62.27717869909679
 21
-36.82134376014375
 31
0.0
  0
LINE
  5
3B5
330
2
100
AcDbEntity
  8
WAKU
 62
     1
100
AcDbLine
 10
-62.72282130090321
 20
-41.82134376014374
 30
0.0
 11
62.27717869909679
 21
-41.82134376014374
 31
0.0
  0
LINE
  5
3B6
330
2
100
AcDbEntity
  8
WAKU
 62
     4
100
AcDbLine
 10
62.27717869909679
 20
-11.82134376014374
 30
0.0
 11
-62.72282130090321
 21
-11.82134376014374
 31
0.0
  0
LINE
  5
3B7
330
2
100
AcDbEntity
  8
WAKU
 62
     4
100
AcDbLine
 10
-62.72282130090321
 20
-61.82134376014374
 30
0.0
 11
62.27717869909679
 21
-61.82134376014374
 31
0.0
  0
LINE
  5
3B8
330
2
100
AcDbEntity
  8
WAKU
 62
     1
100
AcDbLine
 10
-62.72282130090321
 20
-16.82134376014374
 30
0.0
 11
62.27717869909679
 21
-16.82134376014374
 31
0.0
  0
LINE
  5
3B9
330
2
100
AcDbEntity
  8
WAKU
 62
     1
100
AcDbLine
 10
-62.72282130090321
 20
-46.82134376014374
 30
0.0
 11
62.27717869909679
 21
-46.82134376014374
 31
0.0
  0
LINE
  5
3BA
330
2
100
AcDbEntity
  8
WAKU
 62
     4
100
AcDbLine
 10
-62.72282130090321
 20
-11.82134376014374
 30
0.0
 11
-62.72282130090321
 21
-61.82134376014374
 31
0.0
  0
TEXT
  5
3BB
330
2
100
AcDbEntity
  8
MOJI1
100
AcDbText
 10
-20.22282130090321
 20
-45.82134376014375
 30
0.0
 40
3.0
  1
１０２４×７６８ドット（ＲＧＢ信号時）
100
AcDbText
  0
TEXT
  5
3BC
330
2
100
AcDbEntity
  8
MOJI1
100
AcDbText
 10
-20.22282130090321
 20
-35.82134376014375
 30
0.0
 40
3.0
  1
５０～６００型（アスペクト比４：３）
100
AcDbText
  0
TEXT
  5
3BD
330
2
100
AcDbEntity
  8
MOJI1
100
AcDbText
 10
-20.22282130090321
 20
-15.82134376014375
 30
0.0
 40
3.0
  1
ＡＣ１００Ｖ／９．５Ａ　５０／６０Ｈｚ
100
AcDbText
  0
TEXT
  5
3BE
330
2
100
AcDbEntity
  8
MOJI1
100
AcDbText
 10
-20.22282130090321
 20
-40.82134376014375
 30
0.0
 40
3.0
  1
５０００ルーメン（ランプ２灯、ハイモード時）
 41
0.9
100
AcDbText
  0
TEXT
  5
3BF
330
2
100
AcDbEntity
  8
MOJI1
100
AcDbText
 10
-20.22282130090321
 20
-20.82134376014375
 30
0.0
 40
3.0
  1
１チップ　ＤＬＰ方式
100
AcDbText
  0
TEXT
  5
3C0
330
2
100
AcDbEntity
  8
MOJI1
100
AcDbText
 10
-20.22282130090321
 20
-50.82134376014375
 30
0.0
 40
3.0
  1
ビデオ／Ｓビデオ、ＲＧＢ、ＤＶＩ－Ｄ、ＬＡＮ
100
AcDbText
  0
TEXT
  5
3C1
330
2
100
AcDbEntity
  8
MOJI1
100
AcDbText
 10
-20.22282130090321
 20
-30.82134376014352
 30
0.0
 40
3.0
  1
電動ズーム・電動フォーカスレンズ
100
AcDbText
  0
TEXT
  5
3C2
330
2
100
AcDbEntity
  8
MOJI1
100
AcDbText
 10
-60.22282130090321
 20
-50.82134376014375
 30
0.0
 40
3.0
  1
接続端子
100
AcDbText
  0
TEXT
  5
3C3
330
2
100
AcDbEntity
  8
MOJI1
100
AcDbText
 10
-60.22282130090321
 20
-20.82134376014375
 30
0.0
 40
3.0
  1
表示デバイス
100
AcDbText
  0
TEXT
  5
3C4
330
2
100
AcDbEntity
  8
MOJI1
100
AcDbText
 10
-60.22282130090321
 20
-35.82134376014375
 30
0.0
 40
3.0
  1
投写画面サイズ
100
AcDbText
  0
TEXT
  5
3C5
330
2
100
AcDbEntity
  8
MOJI1
100
AcDbText
 10
-60.22282130090321
 20
-15.953300197602
 30
0.0
 40
3.0
  1
電　源
100
AcDbText
  0
TEXT
  5
3C6
330
2
100
AcDbEntity
  8
MOJI1
100
AcDbText
 10
-60.22282130090321
 20
-30.82134376014375
 30
0.0
 40
3.0
  1
レンズ
100
AcDbText
  0
TEXT
  5
3C7
330
2
100
AcDbEntity
  8
MOJI1
100
AcDbText
 10
-60.22282130090321
 20
-45.82134376014375
 30
0.0
 40
3.0
  1
解像度
100
AcDbText
  0
TEXT
  5
3C8
330
2
100
AcDbEntity
  8
MOJI1
100
AcDbText
 10
-60.22282130090321
 20
-40.82134376014375
 30
0.0
 40
3.0
  1
光出力
100
AcDbText
  0
LINE
  5
3C9
330
2
100
AcDbEntity
  8
WAKU
 62
     4
100
AcDbLine
 10
-22.72282130090321
 20
-61.82134376014374
 30
0.0
 11
-22.72282130090321
 21
-11.82134376014374
 31
0.0
  0
LINE
  5
3CA
330
2
100
AcDbEntity
  8
WAKU
 62
     4
100
AcDbLine
 10
62.27717869909679
 20
-61.82134376014374
 30
0.0
 11
62.27717869909679
 21
-11.82134376014374
 31
0.0
  0
TEXT
  5
3CB
330
2
100
AcDbEntity
  8
MOJI1
100
AcDbText
 10
-60.22282130090321
 20
-25.82134376014375
 30
0.0
 40
3.0
  1
ランプ
100
AcDbText
  0
TEXT
  5
3CC
330
2
100
AcDbEntity
  8
MOJI1
100
AcDbText
 10
-20.22282130090321
 20
-25.82134376014375
 30
0.0
 40
3.0
  1
２４０Ｗ（ＵＨＭランプ　２灯式）　
100
AcDbText
  0
LINE
  5
3CD
330
2
100
AcDbEntity
  8
GAIKEI
 62
     1
100
AcDbLine
 10
12.09828920479816
 20
3.531646560943556
 30
0.0
 11
12.09828920479816
 21
18.00649931348477
 31
0.0
  0
LINE
  5
3CE
330
2
100
AcDbEntity
  8
GAIKEI
100
AcDbLine
 10
11.89781915027203
 20
3.535261790954962
 30
0.0
 11
12.69828460479817
 21
3.520826384424083
 31
0.0
  0
LINE
  5
3CF
330
2
100
AcDbEntity
  8
GAIKEI
100
AcDbLine
 10
11.89778922880197
 20
18.00288304087115
 30
0.0
 11
12.69828400479815
 21
18.01732098442409
 31
0.0
  0
LINE
  5
3D0
330
2
100
AcDbEntity
  8
GAIKEI
  6
Continuous
 62
     1
100
AcDbLine
 10
26.35150362785675
 20
7.404946084424125
 30
0.0
 11
26.35150362785675
 21
7.973207884424084
 31
0.0
  0
LINE
  5
3D1
330
2
100
AcDbEntity
  8
GAIKEI
  6
Continuous
 62
     1
100
AcDbLine
 10
27.84865202672239
 20
7.404946084424125
 30
0.0
 11
27.84865202672239
 21
7.973207884424084
 31
0.0
  0
LINE
  5
3D2
330
2
100
AcDbEntity
  8
GAIKEI
  6
Continuous
 62
     1
100
AcDbLine
 10
27.84865202672239
 20
8.17494122580706
 30
0.0
 11
27.84865202672239
 21
8.743203025807076
 31
0.0
  0
LINE
  5
3D3
330
2
100
AcDbEntity
  8
GAIKEI
  6
Continuous
 62
     1
100
AcDbLine
 10
26.35150362785675
 20
8.17494122580706
 30
0.0
 11
26.35150362785675
 21
8.743203025807076
 31
0.0
  0
LINE
  5
3D4
330
2
100
AcDbEntity
  8
GAIKEI
  6
Continuous
 62
     1
100
AcDbLine
 10
26.35150362785675
 20
9.714931467633903
 30
0.0
 11
26.35150362785675
 21
10.28319326763392
 31
0.0
  0
LINE
  5
3D5
330
2
100
AcDbEntity
  8
GAIKEI
  6
Continuous
 62
     1
100
AcDbLine
 10
27.84865202672239
 20
9.714931467633903
 30
0.0
 11
27.84865202672239
 21
10.28319326763392
 31
0.0
  0
LINE
  5
3D6
330
2
100
AcDbEntity
  8
GAIKEI
  6
Continuous
 62
     1
100
AcDbLine
 10
27.84865202672239
 20
8.944936326251024
 30
0.0
 11
27.84865202672239
 21
9.513198126250983
 31
0.0
  0
LINE
  5
3D7
330
2
100
AcDbEntity
  8
GAIKEI
  6
Continuous
 62
     1
100
AcDbLine
 10
26.35150362785675
 20
8.944936326251024
 30
0.0
 11
26.35150362785675
 21
9.513198126250983
 31
0.0
  0
LINE
  5
3D8
330
2
100
AcDbEntity
  8
GAIKEI
  6
Continuous
 62
     1
100
AcDbLine
 10
26.35150362785675
 20
12.02494116704201
 30
0.0
 11
26.35150362785675
 21
12.59320296704203
 31
0.0
  0
LINE
  5
3D9
330
2
100
AcDbEntity
  8
GAIKEI
  6
Continuous
 62
     1
100
AcDbLine
 10
27.84865202672239
 20
12.02494116704201
 30
0.0
 11
27.84865202672239
 21
12.59320296704203
 31
0.0
  0
LINE
  5
3DA
330
2
100
AcDbEntity
  8
GAIKEI
  6
Continuous
 62
     1
100
AcDbLine
 10
27.84865202672239
 20
12.79493630842495
 30
0.0
 11
27.84865202672239
 21
13.36319810842491
 31
0.0
  0
LINE
  5
3DB
330
2
100
AcDbEntity
  8
GAIKEI
  6
Continuous
 62
     1
100
AcDbLine
 10
26.35150362785675
 20
12.79493630842495
 30
0.0
 11
26.35150362785675
 21
13.36319810842491
 31
0.0
  0
LINE
  5
3DC
330
2
100
AcDbEntity
  8
GAIKEI
  6
Continuous
 62
     1
100
AcDbLine
 10
26.35150362785675
 20
11.25494606659805
 30
0.0
 11
26.35150362785675
 21
11.82320786659807
 31
0.0
  0
LINE
  5
3DD
330
2
100
AcDbEntity
  8
GAIKEI
  6
Continuous
 62
     1
100
AcDbLine
 10
27.84865202672239
 20
11.25494606659805
 30
0.0
 11
27.84865202672239
 21
11.82320786659807
 31
0.0
  0
LINE
  5
3DE
330
2
100
AcDbEntity
  8
GAIKEI
  6
Continuous
 62
     1
100
AcDbLine
 10
27.84865202672239
 20
10.48495092521517
 30
0.0
 11
27.84865202672239
 21
11.05321272521513
 31
0.0
  0
LINE
  5
3DF
330
2
100
AcDbEntity
  8
GAIKEI
  6
Continuous
 62
     1
100
AcDbLine
 10
26.35150362785675
 20
10.48495092521517
 30
0.0
 11
26.35150362785675
 21
11.05321272521513
 31
0.0
  0
LINE
  5
3E0
330
2
100
AcDbEntity
  8
GAIKEI
  6
Continuous
 62
     1
100
AcDbLine
 10
26.35150362785675
 20
13.56493140842491
 30
0.0
 11
26.35150362785675
 21
14.13319320842487
 31
0.0
  0
LINE
  5
3E1
330
2
100
AcDbEntity
  8
GAIKEI
  6
Continuous
 62
     1
100
AcDbLine
 10
27.84865202672239
 20
13.56493140842491
 30
0.0
 11
27.84865202672239
 21
14.13319320842487
 31
0.0
  0
LINE
  5
3E2
330
2
100
AcDbEntity
  8
GAIKEI
  6
Continuous
 62
     1
100
AcDbLine
 10
45.64009540209872
 20
6.547149963416188
 30
0.0
 11
45.64009540209872
 21
5.987183963416157
 31
0.0
  0
LINE
  5
3E3
330
2
100
AcDbEntity
  8
GAIKEI
  6
Continuous
 62
     1
100
AcDbLine
 10
43.00163440749758
 20
6.547149963416188
 30
0.0
 11
43.00163440749758
 21
5.987183963416157
 31
0.0
  0
LINE
  5
3E4
330
2
100
AcDbEntity
  8
GAIKEI
  6
Continuous
 62
     1
100
AcDbLine
 10
43.00163440749758
 20
7.297149963416188
 30
0.0
 11
43.00163440749758
 21
6.737183963416157
 31
0.0
  0
LINE
  5
3E5
330
2
100
AcDbEntity
  8
GAIKEI
  6
Continuous
 62
     1
100
AcDbLine
 10
45.64009540209872
 20
7.297149963416188
 30
0.0
 11
45.64009540209872
 21
6.737183963416157
 31
0.0
  0
LINE
  5
3E6
330
2
100
AcDbEntity
  8
GAIKEI
  6
Continuous
 62
     1
100
AcDbLine
 10
44.03687140479815
 20
6.738772784424099
 30
0.0
 11
44.03687140479812
 21
7.298738784424131
 31
0.0
  0
LINE
  5
3E7
330
2
100
AcDbEntity
  8
GAIKEI
  6
Continuous
 62
     1
100
AcDbLine
 10
44.60485840479816
 20
7.298738784424131
 30
0.0
 11
44.60485840479816
 21
6.738772784424099
 31
0.0
  0
LINE
  5
3E8
330
2
100
AcDbEntity
  8
GAIKEI
  6
Continuous
 62
     1
100
AcDbLine
 10
44.60485840479816
 20
8.798738784424074
 30
0.0
 11
44.60485840479816
 21
8.238772784424043
 31
0.0
  0
LINE
  5
3E9
330
2
100
AcDbEntity
  8
GAIKEI
  6
Continuous
 62
     1
100
AcDbLine
 10
44.03687140479815
 20
8.238772784424043
 30
0.0
 11
44.03687140479812
 21
8.798738784424074
 31
0.0
  0
LINE
  5
3EA
330
2
100
AcDbEntity
  8
GAIKEI
  6
Continuous
 62
     1
100
AcDbLine
 10
45.64009540209872
 20
8.797149963416188
 30
0.0
 11
45.64009540209872
 21
8.237183963416157
 31
0.0
  0
LINE
  5
3EB
330
2
100
AcDbEntity
  8
GAIKEI
  6
Continuous
 62
     1
100
AcDbLine
 10
43.00163440749758
 20
8.797149963416188
 30
0.0
 11
43.00163440749758
 21
8.237183963416157
 31
0.0
  0
LINE
  5
3EC
330
2
100
AcDbEntity
  8
GAIKEI
  6
Continuous
 62
     1
100
AcDbLine
 10
43.00163440749758
 20
8.047149963416188
 30
0.0
 11
43.00163440749758
 21
7.487183963416157
 31
0.0
  0
LINE
  5
3ED
330
2
100
AcDbEntity
  8
GAIKEI
  6
Continuous
 62
     1
100
AcDbLine
 10
45.64009540209872
 20
8.047149963416188
 30
0.0
 11
45.64009540209872
 21
7.487183963416157
 31
0.0
  0
LINE
  5
3EE
330
2
100
AcDbEntity
  8
GAIKEI
  6
Continuous
 62
     1
100
AcDbLine
 10
44.03687140479815
 20
7.488772784424043
 30
0.0
 11
44.03687140479812
 21
8.048738784424074
 31
0.0
  0
LINE
  5
3EF
330
2
100
AcDbEntity
  8
GAIKEI
  6
Continuous
 62
     1
100
AcDbLine
 10
44.60485840479816
 20
8.048738784424074
 30
0.0
 11
44.60485840479816
 21
7.488772784424043
 31
0.0
  0
LINE
  5
3F0
330
2
100
AcDbEntity
  8
GAIKEI
  6
Continuous
 62
     1
100
AcDbLine
 10
44.60485840479816
 20
11.04873878442407
 30
0.0
 11
44.60485840479816
 21
10.48877278442404
 31
0.0
  0
LINE
  5
3F1
330
2
100
AcDbEntity
  8
GAIKEI
  6
Continuous
 62
     1
100
AcDbLine
 10
44.03687140479815
 20
10.48877278442404
 30
0.0
 11
44.03687140479815
 21
11.04873878442407
 31
0.0
  0
LINE
  5
3F2
330
2
100
AcDbEntity
  8
GAIKEI
  6
Continuous
 62
     1
100
AcDbLine
 10
45.64009540209872
 20
11.04714996341619
 30
0.0
 11
45.64009540209872
 21
10.48718396341616
 31
0.0
  0
LINE
  5
3F3
330
2
100
AcDbEntity
  8
GAIKEI
  6
Continuous
 62
     1
100
AcDbLine
 10
43.00163440749758
 20
11.04714996341619
 30
0.0
 11
43.00163440749758
 21
10.48718396341616
 31
0.0
  0
LINE
  5
3F4
330
2
100
AcDbEntity
  8
GAIKEI
  6
Continuous
 62
     1
100
AcDbLine
 10
43.00163440749758
 20
11.79714996341619
 30
0.0
 11
43.00163440749758
 21
11.23718396341615
 31
0.0
  0
LINE
  5
3F5
330
2
100
AcDbEntity
  8
GAIKEI
  6
Continuous
 62
     1
100
AcDbLine
 10
45.64009540209872
 20
11.79714996341619
 30
0.0
 11
45.64009540209872
 21
11.23718396341615
 31
0.0
  0
LINE
  5
3F6
330
2
100
AcDbEntity
  8
GAIKEI
  6
Continuous
 62
     1
100
AcDbLine
 10
44.03687140479815
 20
11.23877278442404
 30
0.0
 11
44.03687140479815
 21
11.79873878442407
 31
0.0
  0
LINE
  5
3F7
330
2
100
AcDbEntity
  8
GAIKEI
  6
Continuous
 62
     1
100
AcDbLine
 10
44.60485840479816
 20
11.79873878442407
 30
0.0
 11
44.60485840479816
 21
11.23877278442404
 31
0.0
  0
LINE
  5
3F8
330
2
100
AcDbEntity
  8
GAIKEI
  6
Continuous
 62
     1
100
AcDbLine
 10
44.60485840479816
 20
10.29873878442413
 30
0.0
 11
44.60485840479816
 21
9.738772784424099
 31
0.0
  0
LINE
  5
3F9
330
2
100
AcDbEntity
  8
GAIKEI
  6
Continuous
 62
     1
100
AcDbLine
 10
44.03687140479815
 20
9.738772784424099
 30
0.0
 11
44.03687140479815
 21
10.29873878442413
 31
0.0
  0
LINE
  5
3FA
330
2
100
AcDbEntity
  8
GAIKEI
  6
Continuous
 62
     1
100
AcDbLine
 10
45.64009540209872
 20
10.29714996341619
 30
0.0
 11
45.64009540209872
 21
9.737183963416157
 31
0.0
  0
LINE
  5
3FB
330
2
100
AcDbEntity
  8
GAIKEI
  6
Continuous
 62
     1
100
AcDbLine
 10
43.00163440749758
 20
10.29714996341619
 30
0.0
 11
43.00163440749758
 21
9.737183963416157
 31
0.0
  0
LINE
  5
3FC
330
2
100
AcDbEntity
  8
GAIKEI
  6
Continuous
 62
     1
100
AcDbLine
 10
43.00163440749758
 20
9.547149963416188
 30
0.0
 11
43.00163440749758
 21
8.987183963416157
 31
0.0
  0
LINE
  5
3FD
330
2
100
AcDbEntity
  8
GAIKEI
  6
Continuous
 62
     1
100
AcDbLine
 10
45.64009540209872
 20
9.547149963416188
 30
0.0
 11
45.64009540209872
 21
8.987183963416157
 31
0.0
  0
LINE
  5
3FE
330
2
100
AcDbEntity
  8
GAIKEI
  6
Continuous
 62
     1
100
AcDbLine
 10
44.03687140479815
 20
8.988772784424099
 30
0.0
 11
44.03687140479815
 21
9.548738784424131
 31
0.0
  0
LINE
  5
3FF
330
2
100
AcDbEntity
  8
GAIKEI
  6
Continuous
 62
     1
100
AcDbLine
 10
44.60485840479816
 20
9.548738784424131
 30
0.0
 11
44.60485840479816
 21
8.988772784424099
 31
0.0
  0
LINE
  5
400
330
2
100
AcDbEntity
  8
GAIKEI
  6
Continuous
 62
     1
100
AcDbLine
 10
44.60485840479816
 20
13.29873878442413
 30
0.0
 11
44.60485840479816
 21
12.7387727844241
 31
0.0
  0
LINE
  5
401
330
2
100
AcDbEntity
  8
GAIKEI
  6
Continuous
 62
     1
100
AcDbLine
 10
44.03687140479815
 20
12.7387727844241
 30
0.0
 11
44.03687140479815
 21
13.29873878442413
 31
0.0
  0
LINE
  5
402
330
2
100
AcDbEntity
  8
GAIKEI
  6
Continuous
 62
     1
100
AcDbLine
 10
45.64009540209872
 20
13.29714996341619
 30
0.0
 11
45.64009540209872
 21
12.73718396341616
 31
0.0
  0
LINE
  5
403
330
2
100
AcDbEntity
  8
GAIKEI
  6
Continuous
 62
     1
100
AcDbLine
 10
43.00163440749758
 20
13.29714996341619
 30
0.0
 11
43.00163440749758
 21
12.73718396341616
 31
0.0
  0
LINE
  5
404
330
2
100
AcDbEntity
  8
GAIKEI
  6
Continuous
 62
     1
100
AcDbLine
 10
43.00163440749758
 20
14.04714996341619
 30
0.0
 11
43.00163440749758
 21
13.48718396341616
 31
0.0
  0
LINE
  5
405
330
2
100
AcDbEntity
  8
GAIKEI
  6
Continuous
 62
     1
100
AcDbLine
 10
45.64009540209872
 20
14.04714996341619
 30
0.0
 11
45.64009540209872
 21
13.48718396341616
 31
0.0
  0
LINE
  5
406
330
2
100
AcDbEntity
  8
GAIKEI
  6
Continuous
 62
     1
100
AcDbLine
 10
44.03687140479815
 20
13.4887727844241
 30
0.0
 11
44.03687140479815
 21
14.04873878442413
 31
0.0
  0
LINE
  5
407
330
2
100
AcDbEntity
  8
GAIKEI
  6
Continuous
 62
     1
100
AcDbLine
 10
44.60485840479816
 20
14.04873878442413
 30
0.0
 11
44.60485840479816
 21
13.4887727844241
 31
0.0
  0
LINE
  5
408
330
2
100
AcDbEntity
  8
GAIKEI
  6
Continuous
 62
     1
100
AcDbLine
 10
44.60485840479816
 20
15.54873878442407
 30
0.0
 11
44.60485840479816
 21
14.98877278442404
 31
0.0
  0
LINE
  5
409
330
2
100
AcDbEntity
  8
GAIKEI
  6
Continuous
 62
     1
100
AcDbLine
 10
44.03687140479815
 20
14.98877278442404
 30
0.0
 11
44.03687140479815
 21
15.54873878442407
 31
0.0
  0
LINE
  5
40A
330
2
100
AcDbEntity
  8
GAIKEI
  6
Continuous
 62
     1
100
AcDbLine
 10
45.64009540209872
 20
15.54714996341619
 30
0.0
 11
45.64009540209872
 21
14.98718396341615
 31
0.0
  0
LINE
  5
40B
330
2
100
AcDbEntity
  8
GAIKEI
  6
Continuous
 62
     1
100
AcDbLine
 10
43.00163440749758
 20
15.54714996341619
 30
0.0
 11
43.00163440749758
 21
14.98718396341615
 31
0.0
  0
LINE
  5
40C
330
2
100
AcDbEntity
  8
GAIKEI
  6
Continuous
 62
     1
100
AcDbLine
 10
43.00163440749758
 20
14.79714996341619
 30
0.0
 11
43.00163440749758
 21
14.23718396341616
 31
0.0
  0
LINE
  5
40D
330
2
100
AcDbEntity
  8
GAIKEI
  6
Continuous
 62
     1
100
AcDbLine
 10
45.64009540209872
 20
14.79714996341619
 30
0.0
 11
45.64009540209872
 21
14.23718396341616
 31
0.0
  0
LINE
  5
40E
330
2
100
AcDbEntity
  8
GAIKEI
  6
Continuous
 62
     1
100
AcDbLine
 10
44.03687140479815
 20
14.23877278442404
 30
0.0
 11
44.03687140479815
 21
14.79873878442407
 31
0.0
  0
LINE
  5
40F
330
2
100
AcDbEntity
  8
GAIKEI
  6
Continuous
 62
     1
100
AcDbLine
 10
44.60485840479816
 20
14.79873878442407
 30
0.0
 11
44.60485840479816
 21
14.23877278442404
 31
0.0
  0
LINE
  5
410
330
2
100
AcDbEntity
  8
GAIKEI
  6
Continuous
 62
     1
100
AcDbLine
 10
43.00163440749758
 20
12.54714996341619
 30
0.0
 11
43.00163440749758
 21
11.98718396341615
 31
0.0
  0
LINE
  5
411
330
2
100
AcDbEntity
  8
GAIKEI
  6
Continuous
 62
     1
100
AcDbLine
 10
45.64009540209872
 20
12.54714996341619
 30
0.0
 11
45.64009540209872
 21
11.98718396341615
 31
0.0
  0
LINE
  5
412
330
2
100
AcDbEntity
  8
GAIKEI
  6
Continuous
 62
     1
100
AcDbLine
 10
44.03687140479815
 20
11.98877278442404
 30
0.0
 11
44.03687140479812
 21
12.54873878442407
 31
0.0
  0
LINE
  5
413
330
2
100
AcDbEntity
  8
GAIKEI
  6
Continuous
 62
     1
100
AcDbLine
 10
44.60485840479816
 20
12.54873878442407
 30
0.0
 11
44.60485840479816
 21
11.98877278442404
 31
0.0
  0
DIMENSION
  5
414
330
2
100
AcDbEntity
  8
SUNPO
100
AcDbDimension
  2
*D1
 10
-7.091776123576322
 20
26.54287836385726
 30
0.0
 11
-31.99177612357633
 21
28.29287836385726
 31
0.0
 70
    33
  1
498
 71
     5
 42
49.80000000000001
  3
STANDARD
100
AcDbAlignedDimension
 13
-56.89177612357633
 23
18.54287836385725
 33
0.0
 14
-7.091776123576323
 24
18.54287836385725
 34
0.0
1001
ACAD
1000
DSTYLE
1002
{
1070
   287
1070
     3
1070
    40
1040
1.0
1070
   140
1040
2.5
1070
   147
1040
0.5
1070
   172
1070
     1
1070
   279
1070
     0
1070
   288
1070
     0
1002
}
  0
DIMENSION
  5
42A
330
2
100
AcDbEntity
  8
SUNPO
100
AcDbDimension
  2
*D2
 10
0.9082238764236763
 20
18.51908308442415
 30
0.0
 11
-0.8417761235763274
 21
9.769082484424131
 31
0.0
 70
    33
  1
175
 71
     5
 42
17.50000120000004
  3
STANDARD
100
AcDbAlignedDimension
 13
-7.091776123576323
 23
1.01908188442411
 33
0.0
 14
-7.091776123576323
 24
18.51908308442415
 34
0.0
1001
ACAD
1000
DSTYLE
1002
{
1070
   287
1070
     3
1070
    40
1040
1.0
1070
   140
1040
2.5
1070
   147
1040
0.5
1070
   172
1070
     1
1070
   279
1070
     0
1070
   288
1070
     0
1002
}
  0
DIMENSION
  5
437
330
2
100
AcDbEntity
  8
SUNPO
100
AcDbDimension
  2
*D3
 10
55.01434240479818
 20
26.54287836385726
 30
0.0
 11
33.01434420479819
 21
28.29287836385726
 31
0.0
 70
    33
  1
440
 71
     5
 42
43.99999639999998
  3
STANDARD
100
AcDbAlignedDimension
 13
11.0143460047982
 23
18.54287836385725
 33
0.0
 14
55.01434240479818
 24
18.54287836385725
 34
0.0
1001
ACAD
1000
DSTYLE
1002
{
1070
   287
1070
     3
1070
    40
1040
1.0
1070
   140
1040
2.5
1070
   147
1040
0.5
1070
   172
1070
     1
1070
   279
1070
     0
1070
   288
1070
     0
1002
}
  0
TEXT
  5
444
330
2
100
AcDbEntity
  8
TOUROKU
100
AcDbText
 10
43.87712873202445
 20
41.17865623985625
 30
0.0
 40
2.0
  1
ＰＴＤ５０００Ｓ
 72
     2
 11
62.27712873202444
 21
41.17865623985625
 31
0.0
100
AcDbText
  0
TEXT
  5
446
330
2
100
AcDbEntity
  8
MOJI1
100
AcDbText
 10
-35.72282130090275
 20
47.17865623985625
 30
0.0
 40
4.0
  1
ＤＬＰ方式プロジェクター
100
AcDbText
  0
ENDSEC
  0
SECTION
  2
OBJECTS
  0
DICTIONARY
  5
7
330
0
100
AcDbDictionary
281
     1
  3
ACAD_COLOR
350
25
  3
ACAD_GROUP
350
21
  3
ACAD_LAYOUT
350
B
  3
ACAD_MATERIAL
350
24
  3
ACAD_MLINESTYLE
350
22
  3
ACAD_PLOTSETTINGS
350
23
  3
ACAD_PLOTSTYLENAME
350
6
  3
ACDBHEADERROUNDTRIPXREC
350
508
  3
AcDbVariableDictionary
350
456
  0
DICTIONARY
  5
11
330
10
100
AcDbDictionary
280
     1
281
     1
  3
ACAD_LAYERSTATES
360
12
  0
DICTIONARY
  5
45F
330
2
100
AcDbDictionary
280
     1
281
     1
  3
ACAD_LAYOUTSELFREF
360
490
  0
DICTIONARY
  5
461
330
C
100
AcDbDictionary
280
     1
281
     1
  3
ACAD_LAYOUTSELFREF
360
495
  0
DICTIONARY
  5
25
102
{ACAD_REACTORS
330
7
102
}
330
7
100
AcDbDictionary
281
     1
  0
DICTIONARY
  5
21
102
{ACAD_REACTORS
330
7
102
}
330
7
100
AcDbDictionary
281
     1
  0
DICTIONARY
  5
B
102
{ACAD_REACTORS
330
7
102
}
330
7
100
AcDbDictionary
281
     1
  3
Model
350
A
  3
レイアウト1
350
F
  0
DICTIONARY
  5
24
102
{ACAD_REACTORS
330
7
102
}
330
7
100
AcDbDictionary
281
     1
  0
DICTIONARY
  5
22
102
{ACAD_REACTORS
330
7
102
}
330
7
100
AcDbDictionary
281
     1
  3
Standard
350
27
  0
DICTIONARY
  5
23
102
{ACAD_REACTORS
330
7
102
}
330
7
100
AcDbDictionary
281
     1
  0
ACDBDICTIONARYWDFLT
  5
6
102
{ACAD_REACTORS
330
7
102
}
330
7
100
AcDbDictionary
281
     1
  3
Normal
350
5
100
AcDbDictionaryWithDefault
340
5
  0
DICTIONARY
  5
508
102
{ACAD_REACTORS
330
7
102
}
330
7
100
AcDbDictionary
281
     1
  3
COLORDICT
350
50A
  3
MATERIALDICT
350
509
  0
DICTIONARY
  5
456
102
{ACAD_REACTORS
330
7
102
}
330
7
100
AcDbDictionary
281
     1
  3
DIMASSOC
350
458
  3
HIDETEXT
350
457
  3
PROJECTNAME
350
459
  0
DICTIONARY
  5
12
102
{ACAD_REACTORS
330
11
102
}
330
11
100
AcDbDictionary
281
     1
  0
XRECORD
  5
490
102
{ACAD_REACTORS
330
45F
102
}
330
45F
100
AcDbXrecord
280
     1
340
2
  0
XRECORD
  5
495
102
{ACAD_REACTORS
330
461
102
}
330
461
100
AcDbXrecord
280
     1
340
C
  0
LAYOUT
  5
A
102
{ACAD_XDICTIONARY
360
50B
102
}
102
{ACAD_REACTORS
330
B
102
}
330
B
100
AcDbPlotSettings
  1

  2
Ａ４－縦3FRIM01.pc3
  4
A4
  6

 40
5.873749732971191
 41
5.873747825622558
 42
5.873748779296875
 43
5.873748779296875
 44
209.9733276367187
 45
296.9259948730469
 46
5.429999999999999
 47
0.0
 48
0.0
 49
0.0
140
0.0
141
0.0
142
1.0
143
1.382515355699284
 70
 11956
 72
     1
 73
     0
 74
     1
  7
tmsacad.ctb
 75
     0
147
0.723319271556441
148
0.0204471568255258
149
0.0240539385804368
100
AcDbLayout
  1
Model
 70
     1
 71
     0
 10
0.0
 20
0.0
 11
12.0
 21
9.0
 12
0.0
 22
0.0
 32
0.0
 14
0.0
 24
0.0
 34
0.0
 15
0.0
 25
0.0
 35
0.0
146
0.0
 13
0.0
 23
0.0
 33
0.0
 16
1.0
 26
0.0
 36
0.0
 17
0.0
 27
1.0
 37
0.0
 76
     0
330
2
  0
LAYOUT
  5
F
102
{ACAD_XDICTIONARY
360
50D
102
}
102
{ACAD_REACTORS
330
B
102
}
330
B
100
AcDbPlotSettings
  1

  2
None
  4

  6

 40
0.0
 41
0.0
 42
0.0
 43
0.0
 44
0.0
 45
0.0
 46
0.0
 47
0.0
 48
0.0
 49
0.0
140
0.0
141
0.0
142
1.0
143
1.0
 70
   688
 72
     0
 73
     0
 74
     5
  7
tmsacad.ctb
 75
    16
147
1.0
148
0.0
149
0.0
100
AcDbLayout
  1
レイアウト1
 70
     1
 71
     1
 10
0.0
 20
0.0
 11
12.0
 21
9.0
 12
0.0
 22
0.0
 32
0.0
 14
0.0
 24
0.0
 34
0.0
 15
0.0
 25
0.0
 35
0.0
146
0.0
 13
0.0
 23
0.0
 33
0.0
 16
1.0
 26
0.0
 36
0.0
 17
0.0
 27
1.0
 37
0.0
 76
     0
330
C
  0
MLINESTYLE
  5
27
102
{ACAD_REACTORS
330
22
102
}
330
22
100
AcDbMlineStyle
  2
STANDARD
 70
     0
  3

 62
   256
 51
90.0
 52
90.0
 71
     2
 49
0.5
 62
   256
  6
BYLAYER
 49
-0.5
 62
   256
  6
BYLAYER
  0
ACDBPLACEHOLDER
  5
5
102
{ACAD_REACTORS
330
6
102
}
330
6
  0
XRECORD
  5
50A
102
{ACAD_REACTORS
330
508
102
}
330
508
100
AcDbXrecord
280
     1
340
25
  0
XRECORD
  5
509
102
{ACAD_REACTORS
330
508
102
}
330
508
100
AcDbXrecord
280
     1
340
24
  0
DICTIONARYVAR
  5
458
102
{ACAD_REACTORS
330
456
102
}
330
456
100
DictionaryVariables
280
     0
  1
2
  0
DICTIONARYVAR
  5
457
102
{ACAD_REACTORS
330
456
102
}
330
456
100
DictionaryVariables
280
     0
  1
1
  0
DICTIONARYVAR
  5
459
102
{ACAD_REACTORS
330
456
102
}
330
456
100
DictionaryVariables
280
     0
  1

  0
DICTIONARY
  5
50B
330
A
100
AcDbDictionary
280
     1
281
     1
  3
ACAD_XREC_ROUNDTRIP
360
50C
  0
DICTIONARY
  5
50D
330
F
100
AcDbDictionary
280
     1
281
     1
  3
ACAD_XREC_ROUNDTRIP
360
50E
  0
XRECORD
  5
50C
102
{ACAD_REACTORS
330
50B
102
}
330
50B
100
AcDbXrecord
280
     1
102
SHADEPLOT
 70
     0
102
SHADEPLOTRESLEVEL
 70
     2
102
SHADEPLOTCUSTOMDPI
 70
   300
  0
XRECORD
  5
50E
102
{ACAD_REACTORS
330
50D
102
}
330
50D
100
AcDbXrecord
280
     1
102
SHADEPLOT
 70
     0
102
SHADEPLOTRESLEVEL
 70
     2
102
SHADEPLOTCUSTOMDPI
 70
   300
  0
ENDSEC
  0
EOF
