  0
SECTION
  2
HEADER
  9
$ACADVER
  1
AC1015
  9
$ACADMAINTVER
 70
    20
  9
$DWGCODEPAGE
  3
ANSI_932
  9
$INSBASE
 10
129.499999944041
 20
246.5008351249345
 30
0.0
  9
$EXTMIN
 10
-62.62573151689219
 20
-52.82789548815685
 30
-0.0015258207003583
  9
$EXTMAX
 10
62.40783747565922
 20
60.19670146563635
 30
0.0000000349246037
  9
$LIMMIN
 10
0.0
 20
0.0
  9
$LIMMAX
 10
420.0
 20
297.0
  9
$ORTHOMODE
 70
     0
  9
$REGENMODE
 70
     0
  9
$FILLMODE
 70
     1
  9
$QTEXTMODE
 70
     0
  9
$MIRRTEXT
 70
     0
  9
$LTSCALE
 40
1.0
  9
$ATTMODE
 70
     1
  9
$TEXTSIZE
 40
2.5
  9
$TRACEWID
 40
1.0
  9
$TEXTSTYLE
  7
Standard
  9
$CLAYER
  8
GAIKEI
  9
$CELTYPE
  6
ByLayer
  9
$CECOLOR
 62
   256
  9
$CELTSCALE
 40
1.0
  9
$DISPSILH
 70
     0
  9
$DIMSCALE
 40
1.0
  9
$DIMASZ
 40
2.5
  9
$DIMEXO
 40
0.625
  9
$DIMDLI
 40
3.75
  9
$DIMRND
 40
0.0
  9
$DIMDLE
 40
0.0
  9
$DIMEXE
 40
1.25
  9
$DIMTP
 40
0.0
  9
$DIMTM
 40
0.0
  9
$DIMTXT
 40
2.5
  9
$DIMCEN
 40
2.5
  9
$DIMTSZ
 40
0.0
  9
$DIMTOL
 70
     0
  9
$DIMLIM
 70
     0
  9
$DIMTIH
 70
     0
  9
$DIMTOH
 70
     0
  9
$DIMSE1
 70
     0
  9
$DIMSE2
 70
     0
  9
$DIMTAD
 70
     1
  9
$DIMZIN
 70
     8
  9
$DIMBLK
  1

  9
$DIMASO
 70
     1
  9
$DIMSHO
 70
     1
  9
$DIMPOST
  1

  9
$DIMAPOST
  1

  9
$DIMALT
 70
     0
  9
$DIMALTD
 70
     3
  9
$DIMALTF
 40
0.03937007874016
  9
$DIMLFAC
 40
1.0
  9
$DIMTOFL
 70
     1
  9
$DIMTVP
 40
0.0
  9
$DIMTIX
 70
     0
  9
$DIMSOXD
 70
     0
  9
$DIMSAH
 70
     0
  9
$DIMBLK1
  1

  9
$DIMBLK2
  1

  9
$DIMSTYLE
  2
ISO-25
  9
$DIMCLRD
 70
     0
  9
$DIMCLRE
 70
     0
  9
$DIMCLRT
 70
     0
  9
$DIMTFAC
 40
1.0
  9
$DIMGAP
 40
0.625
  9
$DIMJUST
 70
     0
  9
$DIMSD1
 70
     0
  9
$DIMSD2
 70
     0
  9
$DIMTOLJ
 70
     0
  9
$DIMTZIN
 70
     8
  9
$DIMALTZ
 70
     0
  9
$DIMALTTZ
 70
     0
  9
$DIMUPT
 70
     0
  9
$DIMDEC
 70
     2
  9
$DIMTDEC
 70
     2
  9
$DIMALTU
 70
     2
  9
$DIMALTTD
 70
     3
  9
$DIMTXSTY
  7
Standard
  9
$DIMAUNIT
 70
     0
  9
$DIMADEC
 70
     0
  9
$DIMALTRND
 40
0.0
  9
$DIMAZIN
 70
     0
  9
$DIMDSEP
 70
    44
  9
$DIMATFIT
 70
     3
  9
$DIMFRAC
 70
     0
  9
$DIMLDRBLK
  1

  9
$DIMLUNIT
 70
     2
  9
$DIMLWD
 70
    -2
  9
$DIMLWE
 70
    -2
  9
$DIMTMOVE
 70
     0
  9
$LUNITS
 70
     2
  9
$LUPREC
 70
     4
  9
$SKETCHINC
 40
1.0
  9
$FILLETRAD
 40
0.0
  9
$AUNITS
 70
     0
  9
$AUPREC
 70
     0
  9
$MENU
  1
.
  9
$ELEVATION
 40
0.0
  9
$PELEVATION
 40
0.0
  9
$THICKNESS
 40
0.0
  9
$LIMCHECK
 70
     0
  9
$CHAMFERA
 40
0.0
  9
$CHAMFERB
 40
0.0
  9
$CHAMFERC
 40
0.0
  9
$CHAMFERD
 40
0.0
  9
$SKPOLY
 70
     0
  9
$TDCREATE
 40
2454349.434269746
  9
$TDUCREATE
 40
2454349.059269746
  9
$TDUPDATE
 40
2454988.406219028
  9
$TDUUPDATE
 40
2454988.031219028
  9
$TDINDWG
 40
0.2050622801
  9
$TDUSRTIMER
 40
0.2050622801
  9
$USRTIMER
 70
     1
  9
$ANGBASE
 50
0.0
  9
$ANGDIR
 70
     0
  9
$PDMODE
 70
     0
  9
$PDSIZE
 40
0.0
  9
$PLINEWID
 40
0.0
  9
$SPLFRAME
 70
     0
  9
$SPLINETYPE
 70
     6
  9
$SPLINESEGS
 70
     8
  9
$HANDSEED
  5
48A
  9
$SURFTAB1
 70
     6
  9
$SURFTAB2
 70
     6
  9
$SURFTYPE
 70
     6
  9
$SURFU
 70
     6
  9
$SURFV
 70
     6
  9
$UCSBASE
  2

  9
$UCSNAME
  2

  9
$UCSORG
 10
0.0
 20
0.0
 30
0.0
  9
$UCSXDIR
 10
1.0
 20
0.0
 30
0.0
  9
$UCSYDIR
 10
0.0
 20
1.0
 30
0.0
  9
$UCSORTHOREF
  2

  9
$UCSORTHOVIEW
 70
     0
  9
$UCSORGTOP
 10
0.0
 20
0.0
 30
0.0
  9
$UCSORGBOTTOM
 10
0.0
 20
0.0
 30
0.0
  9
$UCSORGLEFT
 10
0.0
 20
0.0
 30
0.0
  9
$UCSORGRIGHT
 10
0.0
 20
0.0
 30
0.0
  9
$UCSORGFRONT
 10
0.0
 20
0.0
 30
0.0
  9
$UCSORGBACK
 10
0.0
 20
0.0
 30
0.0
  9
$PUCSBASE
  2

  9
$PUCSNAME
  2

  9
$PUCSORG
 10
0.0
 20
0.0
 30
0.0
  9
$PUCSXDIR
 10
1.0
 20
0.0
 30
0.0
  9
$PUCSYDIR
 10
0.0
 20
1.0
 30
0.0
  9
$PUCSORTHOREF
  2

  9
$PUCSORTHOVIEW
 70
     0
  9
$PUCSORGTOP
 10
0.0
 20
0.0
 30
0.0
  9
$PUCSORGBOTTOM
 10
0.0
 20
0.0
 30
0.0
  9
$PUCSORGLEFT
 10
0.0
 20
0.0
 30
0.0
  9
$PUCSORGRIGHT
 10
0.0
 20
0.0
 30
0.0
  9
$PUCSORGFRONT
 10
0.0
 20
0.0
 30
0.0
  9
$PUCSORGBACK
 10
0.0
 20
0.0
 30
0.0
  9
$USERI1
 70
     0
  9
$USERI2
 70
     0
  9
$USERI3
 70
     0
  9
$USERI4
 70
     0
  9
$USERI5
 70
     0
  9
$USERR1
 40
0.0
  9
$USERR2
 40
0.0
  9
$USERR3
 40
0.0
  9
$USERR4
 40
0.0
  9
$USERR5
 40
0.0
  9
$WORLDVIEW
 70
     1
  9
$SHADEDGE
 70
     3
  9
$SHADEDIF
 70
    70
  9
$TILEMODE
 70
     1
  9
$MAXACTVP
 70
    64
  9
$PINSBASE
 10
0.0
 20
0.0
 30
0.0
  9
$PLIMCHECK
 70
     0
  9
$PEXTMIN
 10
0.0
 20
0.0
 30
0.0
  9
$PEXTMAX
 10
0.0
 20
0.0
 30
0.0
  9
$PLIMMIN
 10
0.0
 20
0.0
  9
$PLIMMAX
 10
12.0
 20
9.0
  9
$UNITMODE
 70
     0
  9
$VISRETAIN
 70
     1
  9
$PLINEGEN
 70
     0
  9
$PSLTSCALE
 70
     1
  9
$TREEDEPTH
 70
  3020
  9
$CMLSTYLE
  2
Standard
  9
$CMLJUST
 70
     0
  9
$CMLSCALE
 40
20.0
  9
$PROXYGRAPHICS
 70
     1
  9
$MEASUREMENT
 70
     1
  9
$CELWEIGHT
370
    -1
  9
$ENDCAPS
280
     0
  9
$JOINSTYLE
280
     0
  9
$LWDISPLAY
290
     0
  9
$INSUNITS
 70
     4
  9
$HYPERLINKBASE
  1

  9
$STYLESHEET
  1

  9
$XEDIT
290
     1
  9
$CEPSNTYPE
380
     0
  9
$PSTYLEMODE
290
     1
  9
$FINGERPRINTGUID
  2
{FDEAD578-A652-11D2-9A35-0060089B3A3F}
  9
$VERSIONGUID
  2
{ABF3126C-682A-4197-A264-631A4538046D}
  9
$EXTNAMES
290
     1
  9
$PSVPSCALE
 40
0.0
  9
$OLESTARTUP
290
     0
  0
ENDSEC
  0
SECTION
  2
CLASSES
  0
CLASS
  1
ACDBDICTIONARYWDFLT
  2
AcDbDictionaryWithDefault
  3
ObjectDBX Classes
 90
        0
280
     0
281
     0
  0
CLASS
  1
ACDBPLACEHOLDER
  2
AcDbPlaceHolder
  3
ObjectDBX Classes
 90
        0
280
     0
281
     0
  0
CLASS
  1
LAYOUT
  2
AcDbLayout
  3
ObjectDBX Classes
 90
        0
280
     0
281
     0
  0
CLASS
  1
DICTIONARYVAR
  2
AcDbDictionaryVar
  3
ObjectDBX Classes
 90
        0
280
     0
281
     0
  0
CLASS
  1
SORTENTSTABLE
  2
AcDbSortentsTable
  3
ObjectDBX Classes
 90
    32768
280
     0
281
     0
  0
ENDSEC
  0
SECTION
  2
TABLES
  0
TABLE
  2
VPORT
  5
1B
330
0
100
AcDbSymbolTable
 70
     3
  0
VPORT
  5
482
330
1B
100
AcDbSymbolTableRecord
100
AcDbViewportTableRecord
  2
*Active
 70
     0
 10
0.0
 20
0.0
 11
1.0
 21
1.0
 12
-0.1089470206164798
 22
3.684402988739748
 13
0.0
 23
0.0
 14
10.0
 24
10.0
 15
10.0
 25
10.0
 16
0.0
 26
0.0
 36
1.0
 17
0.0
 27
0.0
 37
0.0
 40
113.8906858193395
 41
1.428388746803069
 42
50.0
 43
0.0
 44
0.0
 50
0.0
 51
0.0
 71
     0
 72
  1000
 73
     1
 74
     2
 75
     0
 76
     0
 77
     0
 78
     0
281
     0
 65
     1
110
0.0
120
0.0
130
0.0
111
1.0
121
0.0
131
0.0
112
0.0
122
1.0
132
0.0
 79
     0
146
0.0
  0
ENDTAB
  0
TABLE
  2
LTYPE
  5
16
330
0
100
AcDbSymbolTable
 70
     3
  0
LTYPE
  5
17
330
16
100
AcDbSymbolTableRecord
100
AcDbLinetypeTableRecord
  2
ByBlock
 70
     0
  3

 72
    65
 73
     0
 40
0.0
  0
LTYPE
  5
18
330
16
100
AcDbSymbolTableRecord
100
AcDbLinetypeTableRecord
  2
ByLayer
 70
     0
  3

 72
    65
 73
     0
 40
0.0
  0
LTYPE
  5
8
330
16
100
AcDbSymbolTableRecord
100
AcDbLinetypeTableRecord
  2
Continuous
 70
     0
  3
Solid line
 72
    65
 73
     0
 40
0.0
  0
LTYPE
  5
373
330
16
100
AcDbSymbolTableRecord
100
AcDbLinetypeTableRecord
  2
CENTER
 70
     0
  3
Center ____ _ ____ _ ____ _ ____ _ ____ _ ____
 72
    65
 73
     4
 40
50.8
 49
31.75
 74
     0
 49
-6.349999999999999
 74
     0
 49
6.349999999999999
 74
     0
 49
-6.349999999999999
 74
     0
  0
LTYPE
  5
372
330
16
100
AcDbSymbolTableRecord
100
AcDbLinetypeTableRecord
  2
S50
 70
     0
  3
-------------- - ------------- 40,-1,1.5,-1
 72
    65
 73
     4
 40
43.5
 49
40.0
 74
     0
 49
-1.0
 74
     0
 49
1.5
 74
     0
 49
-1.0
 74
     0
  0
ENDTAB
  0
TABLE
  2
LAYER
  5
10
102
{ACAD_XDICTIONARY
360
11
102
}
330
0
100
AcDbSymbolTable
 70
     8
  0
LAYER
  5
4
330
10
100
AcDbSymbolTableRecord
100
AcDbLayerTableRecord
  2
0
 70
     0
 62
     7
  6
Continuous
370
    -3
390
5
  0
LAYER
  5
2D
330
10
100
AcDbSymbolTableRecord
100
AcDbLayerTableRecord
  2
WAKU
 70
     0
 62
     4
  6
Continuous
370
    -3
390
5
  0
LAYER
  5
2A
330
10
100
AcDbSymbolTableRecord
100
AcDbLayerTableRecord
  2
MOJI1
 70
     0
 62
     2
  6
Continuous
370
    -3
390
5
  0
LAYER
  5
445
330
10
100
AcDbSymbolTableRecord
100
AcDbLayerTableRecord
  2
TOUROKU
 70
     0
 62
     1
  6
Continuous
370
    -3
390
5
  0
LAYER
  5
26
330
10
100
AcDbSymbolTableRecord
100
AcDbLayerTableRecord
  2
GAIKEI
 70
     0
 62
     7
  6
Continuous
370
    -3
390
5
  0
LAYER
  5
415
330
10
100
AcDbSymbolTableRecord
100
AcDbLayerTableRecord
  2
SUNPO
 70
     0
 62
     3
  6
Continuous
370
    -3
390
5
  0
LAYER
  5
426
330
10
100
AcDbSymbolTableRecord
100
AcDbLayerTableRecord
  2
Defpoints
 70
     0
 62
     7
  6
Continuous
290
     0
370
    -3
390
5
  0
LAYER
  5
371
330
10
100
AcDbSymbolTableRecord
100
AcDbLayerTableRecord
  2
KIJUN
 70
     0
 62
    14
  6
S50
370
    -3
390
5
  0
ENDTAB
  0
TABLE
  2
STYLE
  5
13
330
0
100
AcDbSymbolTable
 70
     1
  0
STYLE
  5
14
330
13
100
AcDbSymbolTableRecord
100
AcDbTextStyleTableRecord
  2
Standard
 70
     0
 40
0.0
 41
1.0
 50
0.0
 71
     0
 42
2.5
  3
MONOTXT.shx
  4
BIGFONT.shx
  0
ENDTAB
  0
TABLE
  2
VIEW
  5
19
330
0
100
AcDbSymbolTable
 70
     0
  0
ENDTAB
  0
TABLE
  2
UCS
  5
1A
330
0
100
AcDbSymbolTable
 70
     0
  0
ENDTAB
  0
TABLE
  2
APPID
  5
1D
330
0
100
AcDbSymbolTable
 70
     1
  0
APPID
  5
1E
330
1D
100
AcDbSymbolTableRecord
100
AcDbRegAppTableRecord
  2
ACAD
 70
     0
  0
ENDTAB
  0
TABLE
  2
DIMSTYLE
  5
1F
330
0
100
AcDbSymbolTable
 70
     2
100
AcDbDimStyleTable
 71
     0
  0
DIMSTYLE
105
28
330
1F
100
AcDbSymbolTableRecord
100
AcDbDimStyleTableRecord
  2
ISO-25
 70
     0
 41
2.5
 42
0.625
 43
3.75
 44
1.25
 73
     0
 74
     0
 77
     1
 78
     8
140
2.5
141
2.5
143
0.03937007874016
147
0.625
171
     3
172
     1
271
     2
272
     2
274
     3
278
    44
283
     0
284
     8
340
14
  0
DIMSTYLE
105
41C
102
{ACAD_REACTORS
330
414
330
42A
330
437
102
}
330
1F
100
AcDbSymbolTableRecord
100
AcDbDimStyleTableRecord
  2
STANDARD
 70
     0
 40
0.0
 41
2.0
 42
2.0
 43
8.0
 44
2.0
 73
     0
 74
     0
 77
     3
140
3.0
141
0.0
173
     1
279
     2
288
     1
340
14
341
416
343
416
344
416
  0
ENDTAB
  0
TABLE
  2
BLOCK_RECORD
  5
1
330
0
100
AcDbSymbolTable
 70
     7
  0
BLOCK_RECORD
  5
2
330
1
100
AcDbSymbolTableRecord
100
AcDbBlockTableRecord
  2
*Model_Space
340
A
  0
BLOCK_RECORD
  5
C
330
1
100
AcDbSymbolTableRecord
100
AcDbBlockTableRecord
  2
*Paper_Space
340
F
  0
BLOCK_RECORD
  5
416
330
1
100
AcDbSymbolTableRecord
100
AcDbBlockTableRecord
  2
_OPEN30
340
0
102
{BLKREFS
331
422
331
423
331
430
331
431
331
43D
331
43E
331
45E
331
45F
331
46A
331
46B
331
476
331
477
102
}
  0
BLOCK_RECORD
  5
41D
330
1
100
AcDbSymbolTableRecord
100
AcDbBlockTableRecord
  2
*D1
340
0
  0
BLOCK_RECORD
  5
42B
330
1
100
AcDbSymbolTableRecord
100
AcDbBlockTableRecord
  2
*D2
340
0
  0
BLOCK_RECORD
  5
438
330
1
100
AcDbSymbolTableRecord
100
AcDbBlockTableRecord
  2
*D3
340
0
  0
BLOCK_RECORD
  5
45A
330
1
100
AcDbSymbolTableRecord
100
AcDbBlockTableRecord
  2
*D4
340
0
  0
BLOCK_RECORD
  5
466
330
1
100
AcDbSymbolTableRecord
100
AcDbBlockTableRecord
  2
*D5
340
0
  0
BLOCK_RECORD
  5
472
330
1
100
AcDbSymbolTableRecord
100
AcDbBlockTableRecord
  2
*D6
340
0
  0
ENDTAB
  0
ENDSEC
  0
SECTION
  2
BLOCKS
  0
BLOCK
  5
3
330
2
100
AcDbEntity
  8
0
100
AcDbBlockBegin
  2
*Model_Space
 70
     0
 10
0.0
 20
0.0
 30
0.0
  3
*Model_Space
  1

  0
ENDBLK
  5
9
330
2
100
AcDbEntity
  8
0
100
AcDbBlockEnd
  0
BLOCK
  5
D
330
C
100
AcDbEntity
 67
     1
  8
0
100
AcDbBlockBegin
  2
*Paper_Space
 70
     0
 10
0.0
 20
0.0
 30
0.0
  3
*Paper_Space
  1

  0
ENDBLK
  5
E
330
C
100
AcDbEntity
 67
     1
  8
0
100
AcDbBlockEnd
  0
BLOCK
  5
417
330
416
100
AcDbEntity
  8
0
100
AcDbBlockBegin
  2
_OPEN30
 70
     0
 10
0.0
 20
0.0
 30
0.0
  3
_OPEN30
  1

  0
LINE
  5
418
330
416
100
AcDbEntity
  8
0
  6
ByBlock
 62
     0
100
AcDbLine
 10
-1.0
 20
0.26794919
 30
0.0
 11
0.0
 21
0.0
 31
0.0
  0
LINE
  5
419
330
416
100
AcDbEntity
  8
0
  6
ByBlock
 62
     0
100
AcDbLine
 10
0.0
 20
0.0
 30
0.0
 11
-1.0
 21
-0.26794919
 31
0.0
  0
LINE
  5
41A
330
416
100
AcDbEntity
  8
0
  6
ByBlock
 62
     0
100
AcDbLine
 10
0.0
 20
0.0
 30
0.0
 11
-1.0
 21
0.0
 31
0.0
  0
ENDBLK
  5
41B
330
416
100
AcDbEntity
  8
0
100
AcDbBlockEnd
  0
BLOCK
  5
41E
330
41D
100
AcDbEntity
  8
0
100
AcDbBlockBegin
  2
*D1
 70
     1
 10
0.0
 20
0.0
 30
0.0
  3
*D1
  1

  0
LINE
  5
41F
330
41D
100
AcDbEntity
  8
SUNPO
 62
     0
370
    -2
100
AcDbLine
 10
137.3310451213677
 20
213.8650572489394
 30
0.0
 11
137.3310451213677
 21
221.8650572489394
 31
0.0
  0
LINE
  5
420
330
41D
100
AcDbEntity
  8
SUNPO
 62
     0
370
    -2
100
AcDbLine
 10
187.1310451213677
 20
213.8650572489394
 30
0.0
 11
187.1310451213677
 21
221.8650572489394
 31
0.0
  0
LINE
  5
421
330
41D
100
AcDbEntity
  8
SUNPO
 62
     0
370
    -2
100
AcDbLine
 10
139.3310451213677
 20
219.8650572489394
 30
0.0
 11
185.1310451213677
 21
219.8650572489394
 31
0.0
  0
INSERT
  5
422
330
41D
100
AcDbEntity
  8
SUNPO
 62
     0
370
    -2
100
AcDbBlockReference
  2
_OPEN30
 10
137.3310451213677
 20
219.8650572489394
 30
0.0
 41
2.0
 42
2.0
 43
2.0
 50
180.0
  0
INSERT
  5
423
330
41D
100
AcDbEntity
  8
SUNPO
 62
     0
370
    -2
100
AcDbBlockReference
  2
_OPEN30
 10
187.1310451213677
 20
219.8650572489394
 30
0.0
 41
2.0
 42
2.0
 43
2.0
  0
MTEXT
  5
424
330
41D
100
AcDbEntity
  8
SUNPO
 62
     0
100
AcDbMText
 10
162.2310451213677
 20
221.6150572489393
 30
0.0
 40
2.5
 41
0.0
 71
     5
 72
     1
  1
\A1;498
 73
     1
 44
1.0
1001
ACAD
1000
MTEXTBEGIN
1070
    73
1070
     1
1070
    44
1040
1.0
1070
    74
1070
     0
1000
MTEXTEND
  0
POINT
  5
425
330
41D
100
AcDbEntity
  8
Defpoints
 62
     0
100
AcDbPoint
 10
137.3310451213677
 20
211.8650572489394
 30
0.0
  0
POINT
  5
427
330
41D
100
AcDbEntity
  8
Defpoints
 62
     0
100
AcDbPoint
 10
187.1310451213677
 20
211.8650572489394
 30
0.0
  0
POINT
  5
428
330
41D
100
AcDbEntity
  8
Defpoints
 62
     0
100
AcDbPoint
 10
187.1310451213677
 20
219.8650572489394
 30
0.0
  0
ENDBLK
  5
429
330
41D
100
AcDbEntity
  8
0
100
AcDbBlockEnd
  0
BLOCK
  5
42C
330
42B
100
AcDbEntity
  8
0
100
AcDbBlockBegin
  2
*D2
 70
     1
 10
0.0
 20
0.0
 30
0.0
  3
*D2
  1

  0
LINE
  5
42D
330
42B
100
AcDbEntity
  8
SUNPO
 62
     0
370
    -2
100
AcDbLine
 10
189.1310451213677
 20
194.3412607695062
 30
0.0
 11
197.1310451213677
 21
194.3412607695062
 31
0.0
  0
LINE
  5
42E
330
42B
100
AcDbEntity
  8
SUNPO
 62
     0
370
    -2
100
AcDbLine
 10
189.1310451213677
 20
211.8412619695063
 30
0.0
 11
197.1310451213677
 21
211.8412619695063
 31
0.0
  0
LINE
  5
42F
330
42B
100
AcDbEntity
  8
SUNPO
 62
     0
370
    -2
100
AcDbLine
 10
195.1310451213677
 20
196.3412607695062
 30
0.0
 11
195.1310451213677
 21
209.8412619695062
 31
0.0
  0
INSERT
  5
430
330
42B
100
AcDbEntity
  8
SUNPO
 62
     0
370
    -2
100
AcDbBlockReference
  2
_OPEN30
 10
195.1310451213677
 20
194.3412607695062
 30
0.0
 41
2.0
 42
2.0
 43
2.0
 50
270.0
  0
INSERT
  5
431
330
42B
100
AcDbEntity
  8
SUNPO
 62
     0
370
    -2
100
AcDbBlockReference
  2
_OPEN30
 10
195.1310451213677
 20
211.8412619695063
 30
0.0
 41
2.0
 42
2.0
 43
2.0
 50
90.0
  0
MTEXT
  5
432
330
42B
100
AcDbEntity
  8
SUNPO
 62
     0
100
AcDbMText
 10
193.3810451213676
 20
203.0912613695063
 30
0.0
 40
2.5
 41
0.0
 71
     5
 72
     1
  1
\A1;175
 11
0.0000000000000001
 21
1.0
 31
0.0
 73
     1
 44
1.0
1001
ACAD
1000
MTEXTBEGIN
1070
    73
1070
     1
1070
    44
1040
1.0
1070
    74
1070
     0
1000
MTEXTEND
  0
POINT
  5
433
330
42B
100
AcDbEntity
  8
Defpoints
 62
     0
100
AcDbPoint
 10
187.1310451213677
 20
194.3412607695062
 30
0.0
  0
POINT
  5
434
330
42B
100
AcDbEntity
  8
Defpoints
 62
     0
100
AcDbPoint
 10
187.1310451213677
 20
211.8412619695063
 30
0.0
  0
POINT
  5
435
330
42B
100
AcDbEntity
  8
Defpoints
 62
     0
100
AcDbPoint
 10
195.1310451213677
 20
211.8412619695063
 30
0.0
  0
ENDBLK
  5
436
330
42B
100
AcDbEntity
  8
0
100
AcDbBlockEnd
  0
BLOCK
  5
439
330
438
100
AcDbEntity
  8
0
100
AcDbBlockBegin
  2
*D3
 70
     1
 10
0.0
 20
0.0
 30
0.0
  3
*D3
  1

  0
LINE
  5
43A
330
438
100
AcDbEntity
  8
SUNPO
 62
     0
370
    -2
100
AcDbLine
 10
205.2371672497423
 20
213.8650572489394
 30
0.0
 11
205.2371672497423
 21
221.8650572489394
 31
0.0
  0
LINE
  5
43B
330
438
100
AcDbEntity
  8
SUNPO
 62
     0
370
    -2
100
AcDbLine
 10
249.2371636497422
 20
213.8650572489394
 30
0.0
 11
249.2371636497422
 21
221.8650572489394
 31
0.0
  0
LINE
  5
43C
330
438
100
AcDbEntity
  8
SUNPO
 62
     0
370
    -2
100
AcDbLine
 10
207.2371672497423
 20
219.8650572489394
 30
0.0
 11
247.2371636497422
 21
219.8650572489394
 31
0.0
  0
INSERT
  5
43D
330
438
100
AcDbEntity
  8
SUNPO
 62
     0
370
    -2
100
AcDbBlockReference
  2
_OPEN30
 10
205.2371672497423
 20
219.8650572489394
 30
0.0
 41
2.0
 42
2.0
 43
2.0
 50
180.0
  0
INSERT
  5
43E
330
438
100
AcDbEntity
  8
SUNPO
 62
     0
370
    -2
100
AcDbBlockReference
  2
_OPEN30
 10
249.2371636497422
 20
219.8650572489394
 30
0.0
 41
2.0
 42
2.0
 43
2.0
  0
MTEXT
  5
43F
330
438
100
AcDbEntity
  8
SUNPO
 62
     0
100
AcDbMText
 10
227.2371654497423
 20
221.6150572489393
 30
0.0
 40
2.5
 41
0.0
 71
     5
 72
     1
  1
\A1;440
 73
     1
 44
1.0
1001
ACAD
1000
MTEXTBEGIN
1070
    73
1070
     1
1070
    44
1040
1.0
1070
    74
1070
     0
1000
MTEXTEND
  0
POINT
  5
440
330
438
100
AcDbEntity
  8
Defpoints
 62
     0
100
AcDbPoint
 10
205.2371672497423
 20
211.8650572489394
 30
0.0
  0
POINT
  5
441
330
438
100
AcDbEntity
  8
Defpoints
 62
     0
100
AcDbPoint
 10
249.2371636497422
 20
211.8650572489394
 30
0.0
  0
POINT
  5
442
330
438
100
AcDbEntity
  8
Defpoints
 62
     0
100
AcDbPoint
 10
249.2371636497422
 20
219.8650572489394
 30
0.0
  0
ENDBLK
  5
443
330
438
100
AcDbEntity
  8
0
100
AcDbBlockEnd
  0
BLOCK
  5
464
330
45A
100
AcDbEntity
  8
0
100
AcDbBlockBegin
  2
*D4
 70
     1
 10
0.0
 20
0.0
 30
0.0
  3
*D4
  1

  0
LINE
  5
45B
330
45A
100
AcDbEntity
  8
SUNPO
 62
     0
370
    -2
100
AcDbLine
 10
11.13199696837705
 20
29.54434779870303
 30
0.0
 11
11.13199696837705
 21
37.54434779870303
 31
0.0
  0
LINE
  5
45C
330
45A
100
AcDbEntity
  8
SUNPO
 62
     0
370
    -2
100
AcDbLine
 10
55.13199336837704
 20
29.54434779870303
 30
0.0
 11
55.13199336837704
 21
37.54434779870303
 31
0.0
  0
LINE
  5
45D
330
45A
100
AcDbEntity
  8
SUNPO
 62
     0
370
    -2
100
AcDbLine
 10
13.13199696837705
 20
35.54434779870303
 30
0.0
 11
53.13199336837704
 21
35.54434779870303
 31
0.0
  0
INSERT
  5
45E
330
45A
100
AcDbEntity
  8
SUNPO
 62
     0
370
    -2
100
AcDbBlockReference
  2
_OPEN30
 10
11.13199696837705
 20
35.54434779870303
 30
0.0
 41
2.0
 42
2.0
 43
2.0
 50
180.0
  0
INSERT
  5
45F
330
45A
100
AcDbEntity
  8
SUNPO
 62
     0
370
    -2
100
AcDbBlockReference
  2
_OPEN30
 10
55.13199336837704
 20
35.54434779870303
 30
0.0
 41
2.0
 42
2.0
 43
2.0
  0
MTEXT
  5
460
330
45A
100
AcDbEntity
  8
SUNPO
 62
     0
100
AcDbMText
 10
33.13199516837705
 20
37.29434779870303
 30
0.0
 40
2.5
 41
0.0
 71
     5
 72
     1
  1
\A1;440
 73
     1
 44
1.0
1001
ACAD
1000
MTEXTBEGIN
1070
    73
1070
     1
1070
    44
1040
1.0
1070
    74
1070
     0
1000
MTEXTEND
  0
POINT
  5
461
330
45A
100
AcDbEntity
  8
Defpoints
 62
     0
100
AcDbPoint
 10
11.13199696837705
 20
27.54434779870303
 30
0.0
  0
POINT
  5
462
330
45A
100
AcDbEntity
  8
Defpoints
 62
     0
100
AcDbPoint
 10
55.13199336837704
 20
27.54434779870303
 30
0.0
  0
POINT
  5
463
330
45A
100
AcDbEntity
  8
Defpoints
 62
     0
100
AcDbPoint
 10
55.13199336837704
 20
35.54434779870303
 30
0.0
  0
ENDBLK
  5
465
330
45A
100
AcDbEntity
  8
0
100
AcDbBlockEnd
  0
BLOCK
  5
470
330
466
100
AcDbEntity
  8
0
100
AcDbBlockBegin
  2
*D5
 70
     1
 10
0.0
 20
0.0
 30
0.0
  3
*D5
  1

  0
LINE
  5
467
330
466
100
AcDbEntity
  8
SUNPO
 62
     0
370
    -2
100
AcDbLine
 10
-4.97412515999747
 20
10.02055131926988
 30
0.0
 11
3.025874840002525
 21
10.02055131926988
 31
0.0
  0
LINE
  5
468
330
466
100
AcDbEntity
  8
SUNPO
 62
     0
370
    -2
100
AcDbLine
 10
-4.97412515999747
 20
27.52055251926993
 30
0.0
 11
3.025874840002529
 21
27.52055251926993
 31
0.0
  0
LINE
  5
469
330
466
100
AcDbEntity
  8
SUNPO
 62
     0
370
    -2
100
AcDbLine
 10
1.025874840002526
 20
12.02055131926988
 30
0.0
 11
1.025874840002529
 21
25.52055251926993
 31
0.0
  0
INSERT
  5
46A
330
466
100
AcDbEntity
  8
SUNPO
 62
     0
370
    -2
100
AcDbBlockReference
  2
_OPEN30
 10
1.025874840002525
 20
10.02055131926988
 30
0.0
 41
2.0
 42
2.0
 43
2.0
 50
270.0
  0
INSERT
  5
46B
330
466
100
AcDbEntity
  8
SUNPO
 62
     0
370
    -2
100
AcDbBlockReference
  2
_OPEN30
 10
1.025874840002529
 20
27.52055251926993
 30
0.0
 41
2.0
 42
2.0
 43
2.0
 50
90.0
  0
MTEXT
  5
46C
330
466
100
AcDbEntity
  8
SUNPO
 62
     0
100
AcDbMText
 10
-0.7241251599974757
 20
18.7705519192699
 30
0.0
 40
2.5
 41
0.0
 71
     5
 72
     1
  1
\A1;175
 11
0.0000000000000001
 21
1.0
 31
0.0
 73
     1
 44
1.0
1001
ACAD
1000
MTEXTBEGIN
1070
    73
1070
     1
1070
    44
1040
1.0
1070
    74
1070
     0
1000
MTEXTEND
  0
POINT
  5
46D
330
466
100
AcDbEntity
  8
Defpoints
 62
     0
100
AcDbPoint
 10
-6.97412515999747
 20
10.02055131926988
 30
0.0
  0
POINT
  5
46E
330
466
100
AcDbEntity
  8
Defpoints
 62
     0
100
AcDbPoint
 10
-6.97412515999747
 20
27.52055251926993
 30
0.0
  0
POINT
  5
46F
330
466
100
AcDbEntity
  8
Defpoints
 62
     0
100
AcDbPoint
 10
1.025874840002529
 20
27.52055251926993
 30
0.0
  0
ENDBLK
  5
471
330
466
100
AcDbEntity
  8
0
100
AcDbBlockEnd
  0
BLOCK
  5
47C
330
472
100
AcDbEntity
  8
0
100
AcDbBlockBegin
  2
*D6
 70
     1
 10
0.0
 20
0.0
 30
0.0
  3
*D6
  1

  0
LINE
  5
473
330
472
100
AcDbEntity
  8
SUNPO
 62
     0
370
    -2
100
AcDbLine
 10
-56.77412515999748
 20
29.54434779870303
 30
0.0
 11
-56.77412515999748
 21
37.54434779870303
 31
0.0
  0
LINE
  5
474
330
472
100
AcDbEntity
  8
SUNPO
 62
     0
370
    -2
100
AcDbLine
 10
-6.97412515999747
 20
29.54434779870303
 30
0.0
 11
-6.974125159997469
 21
37.54434779870303
 31
0.0
  0
LINE
  5
475
330
472
100
AcDbEntity
  8
SUNPO
 62
     0
370
    -2
100
AcDbLine
 10
-54.77412515999748
 20
35.54434779870303
 30
0.0
 11
-8.97412515999747
 21
35.54434779870303
 31
0.0
  0
INSERT
  5
476
330
472
100
AcDbEntity
  8
SUNPO
 62
     0
370
    -2
100
AcDbBlockReference
  2
_OPEN30
 10
-56.77412515999748
 20
35.54434779870303
 30
0.0
 41
2.0
 42
2.0
 43
2.0
 50
180.0
  0
INSERT
  5
477
330
472
100
AcDbEntity
  8
SUNPO
 62
     0
370
    -2
100
AcDbBlockReference
  2
_OPEN30
 10
-6.974125159997469
 20
35.54434779870303
 30
0.0
 41
2.0
 42
2.0
 43
2.0
  0
MTEXT
  5
478
330
472
100
AcDbEntity
  8
SUNPO
 62
     0
100
AcDbMText
 10
-31.87412515999748
 20
37.29434779870303
 30
0.0
 40
2.5
 41
0.0
 71
     5
 72
     1
  1
\A1;498
 73
     1
 44
1.0
1001
ACAD
1000
MTEXTBEGIN
1070
    73
1070
     1
1070
    44
1040
1.0
1070
    74
1070
     0
1000
MTEXTEND
  0
POINT
  5
479
330
472
100
AcDbEntity
  8
Defpoints
 62
     0
100
AcDbPoint
 10
-56.77412515999748
 20
27.54434779870303
 30
0.0
  0
POINT
  5
47A
330
472
100
AcDbEntity
  8
Defpoints
 62
     0
100
AcDbPoint
 10
-6.97412515999747
 20
27.54434779870303
 30
0.0
  0
POINT
  5
47B
330
472
100
AcDbEntity
  8
Defpoints
 62
     0
100
AcDbPoint
 10
-6.974125159997469
 20
35.54434779870303
 30
0.0
  0
ENDBLK
  5
47D
330
472
100
AcDbEntity
  8
0
100
AcDbBlockEnd
  0
ENDSEC
  0
SECTION
  2
ENTITIES
  0
TEXT
  5
29
330
2
100
AcDbEntity
  8
MOJI1
100
AcDbText
 10
-20.10517033732435
 20
-51.81987432529798
 30
0.0
 40
3.0
  1
デバイス液冷方式、オートクリーニングフィルター搭載
 41
0.9099999999999999
100
AcDbText
  0
TEXT
  5
2B
330
2
100
AcDbEntity
  8
MOJI1
100
AcDbText
 10
-60.10517033732435
 20
-51.81987432529798
 30
0.0
 40
3.0
  1
備　考
100
AcDbText
  0
LINE
  5
2C
330
2
100
AcDbEntity
  8
WAKU
 62
     1
100
AcDbLine
 10
-62.60517033732435
 20
-47.81987432529797
 30
0.0
 11
62.39482966267565
 21
-47.81987432529797
 31
0.0
  0
TEXT
  5
2E
330
2
100
AcDbEntity
  8
MOJI1
100
AcDbText
 10
-60.10517033732435
 20
-46.81987432529797
 30
0.0
 40
3.0
  1
その他
100
AcDbText
  0
TEXT
  5
2F
330
2
100
AcDbEntity
  8
MOJI1
100
AcDbText
 10
-20.10517033732435
 20
-46.81987432529797
 30
0.0
 40
3.0
  1
ランプ２灯式、液冷方式、ＡＣＦ搭載
100
AcDbText
  0
LINE
  5
30
330
2
100
AcDbEntity
  8
WAKU
 62
     1
100
AcDbLine
 10
-62.60517033732435
 20
-42.81987432529797
 30
0.0
 11
62.39482966267565
 21
-42.81987432529797
 31
0.0
  0
CIRCLE
  5
31
330
2
100
AcDbEntity
  8
GAIKEI
  6
Continuous
 62
     1
100
AcDbCircle
 10
-31.87412515999745
 20
19.77055101926987
 30
0.0
 40
7.1325439
  0
CIRCLE
  5
32
330
2
100
AcDbEntity
  8
GAIKEI
  6
Continuous
 62
     1
100
AcDbCircle
 10
-31.87412515999745
 20
19.77055101926987
 30
0.0
 40
6.95
  0
CIRCLE
  5
33
330
2
100
AcDbEntity
  8
GAIKEI
  6
Continuous
 62
     1
100
AcDbCircle
 10
-31.87412515999745
 20
19.77055101926987
 30
0.0
 40
5.4267624
  0
ARC
  5
34
330
2
100
AcDbEntity
  8
GAIKEI
  6
Continuous
100
AcDbCircle
 10
-55.14148355999754
 20
12.36550191926989
 30
0.0
 40
0.25
100
AcDbArc
 50
252.2294880000031
 51
257.0736759999987
  0
ARC
  5
35
330
2
100
AcDbEntity
  8
GAIKEI
  6
Continuous
 62
     1
100
AcDbCircle
 10
-38.09951575999747
 20
11.72055101926986
 30
0.0
 40
0.2
100
AcDbArc
 50
209.9999579999996
 51
270.0000009999949
  0
ARC
  5
36
330
2
100
AcDbEntity
  8
GAIKEI
  6
Continuous
 62
     1
100
AcDbCircle
 10
-25.64871015999751
 20
11.72055101926986
 30
0.0
 40
0.2
100
AcDbArc
 50
270.0000009999949
 51
329.9999889999929
  0
LINE
  5
37
330
2
100
AcDbEntity
  8
GAIKEI
  6
Continuous
 62
     1
100
AcDbLine
 10
-25.64871015999751
 20
11.52055101926987
 30
0.0
 11
-25.87412515999745
 21
11.52055101926987
 31
0.0
  0
LINE
  5
38
330
2
100
AcDbEntity
  8
GAIKEI
  6
Continuous
 62
     1
100
AcDbLine
 10
-25.87412515999745
 20
11.52055101926987
 30
0.0
 11
-37.87412515999751
 21
11.52055101926987
 31
0.0
  0
LINE
  5
39
330
2
100
AcDbEntity
  8
GAIKEI
  6
Continuous
 62
     1
100
AcDbLine
 10
-37.87412515999751
 20
11.52055101926987
 30
0.0
 11
-38.09951575999747
 21
11.52055101926987
 31
0.0
  0
LINE
  5
3A
330
2
100
AcDbEntity
  8
GAIKEI
  6
Continuous
 62
     1
100
AcDbLine
 10
-25.47550885999749
 20
11.62054341926989
 30
0.0
 11
-25.24456405999746
 21
12.02055161926989
 31
0.0
  0
LINE
  5
3B
330
2
100
AcDbEntity
  8
GAIKEI
  6
Continuous
 62
     1
100
AcDbLine
 10
-38.27272685999748
 20
11.62054851926984
 30
0.0
 11
-38.50366715999746
 21
12.02054871926987
 31
0.0
  0
ARC
  5
3C
330
2
100
AcDbEntity
  8
GAIKEI
  6
Continuous
 62
     1
100
AcDbCircle
 10
-28.96575115999747
 20
10.42055101926985
 30
0.0
 40
0.1
100
AcDbArc
 50
270.0000009999949
 51
355.0000110000001
  0
ARC
  5
3D
330
2
100
AcDbEntity
  8
GAIKEI
  6
Continuous
 62
     1
100
AcDbCircle
 10
-34.78247475999746
 20
10.42055101926985
 30
0.0
 40
0.1
100
AcDbArc
 50
184.9999899999993
 51
270.0000009999949
  0
LINE
  5
3E
330
2
100
AcDbEntity
  8
GAIKEI
  6
Continuous
 62
     1
100
AcDbLine
 10
-28.96575115999747
 20
10.32055101926988
 30
0.0
 11
-29.37412515999745
 21
10.32055101926988
 31
0.0
  0
LINE
  5
3F
330
2
100
AcDbEntity
  8
GAIKEI
  6
Continuous
 62
     1
100
AcDbLine
 10
-29.37412515999745
 20
10.32055101926988
 30
0.0
 11
-34.37412515999745
 21
10.32055101926988
 31
0.0
  0
LINE
  5
40
330
2
100
AcDbEntity
  8
GAIKEI
  6
Continuous
 62
     1
100
AcDbLine
 10
-34.37412515999745
 20
10.32055101926988
 30
0.0
 11
-34.78247475999746
 21
10.32055101926988
 31
0.0
  0
LINE
  5
41
330
2
100
AcDbEntity
  8
GAIKEI
  6
Continuous
 62
     1
100
AcDbLine
 10
-34.88210905999745
 20
10.4118324192699
 30
0.0
 11
-34.97910915999745
 21
11.52054901926988
 31
0.0
  0
LINE
  5
42
330
2
100
AcDbEntity
  8
GAIKEI
  6
Continuous
 62
     1
100
AcDbLine
 10
-28.86612295999749
 20
10.4118390192699
 30
0.0
 11
-28.76912305999747
 21
11.52055401926986
 31
0.0
  0
SPLINE
  5
43
330
2
100
AcDbEntity
  8
GAIKEI
  6
Continuous
100
AcDbSpline
210
0.0
220
0.0
230
1.0
 70
     8
 71
     3
 72
     9
 73
     5
 74
     3
 42
0.0000000001
 43
0.0000000001
 44
0.000001
 12
0.0000000000000001
 22
-1.0
 32
0.0
 13
-0.9510265476706667
 23
0.3091092131037396
 33
0.0
 40
0.0
 40
0.0
 40
0.0
 40
0.0
 40
0.0000012642815467
 40
0.0000016155083406
 40
0.0000016155083406
 40
0.0000016155083406
 40
0.0000016155083406
 10
-54.72851969124747
 20
12.02900286253157
 30
0.0
 10
-54.72851969124747
 20
12.02900244110438
 30
0.0
 10
-54.72851926695682
 20
12.02900207002534
 30
0.0
 10
-54.72851957990548
 20
12.02900130046356
 30
0.0
 10
-54.72851969124747
 20
12.0290013366527
 30
0.0
 11
-54.72851969124747
 21
12.02900286253157
 31
0.0
 11
-54.72851969124747
 21
12.02900190885725
 31
0.0
 11
-54.72851969124747
 21
12.0290013366527
 31
0.0
  0
SPLINE
  5
44
330
2
100
AcDbEntity
  8
GAIKEI
  6
Continuous
100
AcDbSpline
210
0.0
220
0.0
230
1.0
 70
     8
 71
     3
 72
     9
 73
     5
 74
     3
 42
0.0000000001
 43
0.0000000001
 44
0.000001
 12
-0.9736397745146724
 22
0.2280911867719086
 32
0.0
 13
-0.9510265476706667
 23
0.3091092131037396
 33
0.0
 40
0.0
 40
0.0
 40
0.0
 40
0.0
 40
0.0000260367799603
 40
0.000051167783229
 40
0.000051167783229
 40
0.000051167783229
 40
0.000051167783229
 10
-55.04614664437247
 20
12.07985582884021
 30
0.0
 10
-55.04615509452065
 20
12.07985780842688
 30
0.0
 10
-55.04617142416427
 20
12.07986283154838
 30
0.0
 10
-55.04618750574704
 20
12.07986849822106
 30
0.0
 10
-55.04619547249745
 20
12.07987108762927
 30
0.0
 11
-55.04614664437247
 21
12.07985582884021
 31
0.0
 11
-55.04617168014516
 21
12.07986304274459
 31
0.0
 11
-55.04619547249745
 21
12.07987108762927
 31
0.0
  0
SPLINE
  5
45
330
2
100
AcDbEntity
  8
GAIKEI
  6
Continuous
100
AcDbSpline
210
0.0
220
0.0
230
1.0
 70
     8
 71
     3
 72
     9
 73
     5
 74
     3
 42
0.0000000001
 43
0.0000000001
 44
0.000001
 12
0.9735788853902887
 22
0.2283509446492466
 32
0.0
 13
0.9771437995180457
 23
0.2125793853209601
 33
0.0
 40
0.0
 40
0.0
 40
0.0
 40
0.0
 40
0.0000263920890409
 40
0.0000503314087907
 40
0.0000503314087907
 40
0.0000503314087907
 40
0.0000503314087907
 10
-8.70154215218497
 20
12.07998400266831
 30
0.0
 10
-8.701533587258097
 20
12.07998601155447
 30
0.0
 10
-8.701517380462178
 20
12.07999035443072
 30
0.0
 10
-8.701501121445943
 20
12.07999451336428
 30
0.0
 10
-8.701493324059981
 20
12.07999620969957
 30
0.0
 11
-8.70154215218497
 21
12.07998400266831
 31
0.0
 11
-8.701516568229976
 21
12.07999047301337
 31
0.0
 11
-8.701493324059981
 21
12.07999620969957
 31
0.0
  0
SPLINE
  5
46
330
2
100
AcDbEntity
  8
GAIKEI
  6
Continuous
100
AcDbSpline
210
0.0
220
0.0
230
1.0
 70
     8
 71
     3
 72
     9
 73
     5
 74
     3
 42
0.0000000001
 43
0.0000000001
 44
0.000001
 12
0.9998651232485189
 22
-0.0164236205272784
 32
0.0
 13
0.2587396205779466
 23
-0.9659471045265265
 33
0.0
 40
0.0
 40
0.0
 40
0.0
 40
0.0
 40
0.0000128894870595
 40
0.0000248127609478
 40
0.0000248127609478
 40
0.0000248127609478
 40
0.0000248127609478
 10
-9.019706214684958
 20
12.0290043884105
 30
0.0
 10
-9.01970191876876
 20
12.02900431784647
 30
0.0
 10
-9.019695023910912
 20
12.02900400707878
 30
0.0
 10
-9.019682828963567
 20
12.02900517573667
 30
0.0
 10
-9.019681800622436
 20
12.0290013366527
 30
0.0
 11
-9.019706214684958
 21
12.0290043884105
 31
0.0
 11
-9.019694044926552
 21
12.02900369994239
 31
0.0
 11
-9.019681800622436
 21
12.0290013366527
 31
0.0
  0
LINE
  5
47
330
2
100
AcDbEntity
  8
GAIKEI
  6
Continuous
 62
     1
100
AcDbLine
 10
-37.87412515999751
 20
11.6205510192699
 30
0.0
 11
-37.87412515999751
 21
11.52055101926987
 31
0.0
  0
LINE
  5
48
330
2
100
AcDbEntity
  8
GAIKEI
  6
Continuous
 62
     1
100
AcDbLine
 10
-38.27273355999745
 20
11.6205510192699
 30
0.0
 11
-37.87412515999751
 21
11.6205510192699
 31
0.0
  0
LINE
  5
49
330
2
100
AcDbEntity
  8
GAIKEI
  6
Continuous
 62
     1
100
AcDbLine
 10
-25.87412515999745
 20
11.6205510192699
 30
0.0
 11
-25.87412515999745
 21
11.52055101926987
 31
0.0
  0
LINE
  5
4A
330
2
100
AcDbEntity
  8
GAIKEI
  6
Continuous
 62
     1
100
AcDbLine
 10
-37.87412515999751
 20
11.6205510192699
 30
0.0
 11
-25.87412515999745
 21
11.6205510192699
 31
0.0
  0
LINE
  5
4B
330
2
100
AcDbEntity
  8
GAIKEI
  6
Continuous
 62
     1
100
AcDbLine
 10
-25.87412515999745
 20
11.6205510192699
 30
0.0
 11
-25.47549235999748
 21
11.6205510192699
 31
0.0
  0
LINE
  5
4C
330
2
100
AcDbEntity
  8
GAIKEI
  6
Continuous
 62
     1
100
AcDbLine
 10
-25.87412515999745
 20
11.6205510192699
 30
0.0
 11
-25.87412515999745
 21
12.02055101926987
 31
0.0
  0
LINE
  5
4D
330
2
100
AcDbEntity
  8
GAIKEI
  6
Continuous
 62
     1
100
AcDbLine
 10
-37.87412515999751
 20
11.6205510192699
 30
0.0
 11
-37.87412515999751
 21
12.02055101926987
 31
0.0
  0
LINE
  5
4E
330
2
100
AcDbEntity
  8
GAIKEI
  6
Continuous
 62
     1
100
AcDbLine
 10
-29.37412515999745
 20
10.32055101926988
 30
0.0
 11
-29.37412515999745
 21
10.41183521926984
 31
0.0
  0
LINE
  5
4F
330
2
100
AcDbEntity
  8
GAIKEI
  6
Continuous
 62
     1
100
AcDbLine
 10
-29.37412515999745
 20
10.41183521926984
 30
0.0
 11
-28.86614175999751
 21
10.41183521926984
 31
0.0
  0
LINE
  5
50
330
2
100
AcDbEntity
  8
GAIKEI
  6
Continuous
 62
     1
100
AcDbLine
 10
-34.37412515999745
 20
10.32055101926988
 30
0.0
 11
-34.37412515999745
 21
10.41183521926984
 31
0.0
  0
LINE
  5
51
330
2
100
AcDbEntity
  8
GAIKEI
  6
Continuous
 62
     1
100
AcDbLine
 10
-34.37412515999745
 20
10.41183521926984
 30
0.0
 11
-29.37412515999745
 21
10.41183521926984
 31
0.0
  0
LINE
  5
52
330
2
100
AcDbEntity
  8
GAIKEI
  6
Continuous
 62
     1
100
AcDbLine
 10
-34.88210855999745
 20
10.41183521926984
 30
0.0
 11
-34.37412515999745
 21
10.41183521926984
 31
0.0
  0
LINE
  5
53
330
2
100
AcDbEntity
  8
GAIKEI
  6
Continuous
 62
     1
100
AcDbLine
 10
-34.37412515999745
 20
10.41183521926984
 30
0.0
 11
-34.37412515999745
 21
11.52054641926986
 31
0.0
  0
LINE
  5
54
330
2
100
AcDbEntity
  8
GAIKEI
  6
Continuous
 62
     1
100
AcDbLine
 10
-29.37412515999745
 20
10.41183521926984
 30
0.0
 11
-29.37412515999745
 21
11.52054641926986
 31
0.0
  0
ARC
  5
55
330
2
100
AcDbEntity
  8
GAIKEI
  6
Continuous
100
AcDbCircle
 10
-56.47837315999749
 20
25.89816481926988
 30
0.0
 40
0.2
100
AcDbArc
 50
162.3770379999985
 51
177.3539490000005
  0
LINE
  5
56
330
2
100
AcDbEntity
  8
GAIKEI
  6
Continuous
 62
     1
100
AcDbLine
 10
-45.16411535999748
 20
26.57055251926988
 30
0.0
 11
-45.5841105599975
 21
26.57055251926988
 31
0.0
  0
LINE
  5
57
330
2
100
AcDbEntity
  8
GAIKEI
  6
Continuous
 62
     1
100
AcDbLine
 10
-42.66411535999748
 20
26.57055251926988
 30
0.0
 11
-43.0841105599975
 21
26.57055251926988
 31
0.0
  0
LINE
  5
58
330
2
100
AcDbEntity
  8
GAIKEI
  6
Continuous
 62
     1
100
AcDbLine
 10
-47.66411535999748
 20
26.57055251926988
 30
0.0
 11
-48.0841105599975
 21
26.57055251926988
 31
0.0
  0
LINE
  5
59
330
2
100
AcDbEntity
  8
GAIKEI
  6
Continuous
 62
     1
100
AcDbLine
 10
-50.16411535999748
 20
26.57055251926988
 30
0.0
 11
-50.5841105599975
 21
26.57055251926988
 31
0.0
  0
LINE
  5
5A
330
2
100
AcDbEntity
  8
GAIKEI
  6
Continuous
 62
     1
100
AcDbLine
 10
-52.66411535999748
 20
26.57055251926988
 30
0.0
 11
-53.0841105599975
 21
26.57055251926988
 31
0.0
  0
LINE
  5
5B
330
2
100
AcDbEntity
  8
GAIKEI
  6
Continuous
 62
     1
100
AcDbLine
 10
-50.62605385999751
 20
27.37050671926989
 30
0.0
 11
-50.61633705999748
 21
27.37050671926989
 31
0.0
  0
LINE
  5
5C
330
2
100
AcDbEntity
  8
GAIKEI
  6
Continuous
 62
     1
100
AcDbLine
 10
-48.12605385999751
 20
27.37050671926989
 30
0.0
 11
-48.11633705999748
 21
27.37050671926989
 31
0.0
  0
LINE
  5
5D
330
2
100
AcDbEntity
  8
GAIKEI
  6
Continuous
 62
     1
100
AcDbLine
 10
-45.14307045999749
 20
27.37050671926989
 30
0.0
 11
-45.12219645999744
 21
27.37050671926989
 31
0.0
  0
LINE
  5
5E
330
2
100
AcDbEntity
  8
GAIKEI
  6
Continuous
 62
     1
100
AcDbLine
 10
-42.63257245999745
 20
27.37050671926989
 30
0.0
 11
-42.62219645999744
 21
27.37050671926989
 31
0.0
  0
LINE
  5
5F
330
2
100
AcDbEntity
  8
GAIKEI
  6
Continuous
 62
     1
100
AcDbLine
 10
-53.08412555999746
 20
26.5705508192699
 30
0.0
 11
-53.12343135999748
 21
27.32055001926989
 31
0.0
  0
LINE
  5
60
330
2
100
AcDbEntity
  8
GAIKEI
  6
Continuous
 62
     1
100
AcDbLine
 10
-53.12343135999748
 20
27.32055001926989
 30
0.0
 11
-53.13391285999751
 21
27.52055021926992
 31
0.0
  0
LINE
  5
61
330
2
100
AcDbEntity
  8
GAIKEI
  6
Continuous
 62
     1
100
AcDbLine
 10
-52.6143230599975
 20
27.52055171926986
 30
0.0
 11
-52.62480465999749
 21
27.32055151926989
 31
0.0
  0
LINE
  5
62
330
2
100
AcDbEntity
  8
GAIKEI
  6
Continuous
 62
     1
100
AcDbLine
 10
-52.62480465999749
 20
27.32055151926989
 30
0.0
 11
-52.66411045999745
 21
26.5705508192699
 31
0.0
  0
LINE
  5
63
330
2
100
AcDbEntity
  8
GAIKEI
  6
Continuous
 62
     1
100
AcDbLine
 10
-50.58411745999745
 20
26.57055161926985
 30
0.0
 11
-50.62342325999748
 21
27.3205508192699
 31
0.0
  0
LINE
  5
64
330
2
100
AcDbEntity
  8
GAIKEI
  6
Continuous
 62
     1
100
AcDbLine
 10
-50.62342325999748
 20
27.3205508192699
 30
0.0
 11
-50.63390475999745
 21
27.52055101926988
 31
0.0
  0
LINE
  5
65
330
2
100
AcDbEntity
  8
GAIKEI
  6
Continuous
 62
     1
100
AcDbLine
 10
-50.11433935999747
 20
27.52055221926992
 30
0.0
 11
-50.12482085999749
 21
27.32055201926988
 31
0.0
  0
LINE
  5
66
330
2
100
AcDbEntity
  8
GAIKEI
  6
Continuous
 62
     1
100
AcDbLine
 10
-50.12482085999749
 20
27.32055201926988
 30
0.0
 11
-50.16412665999746
 21
26.57055281926989
 31
0.0
  0
LINE
  5
67
330
2
100
AcDbEntity
  8
GAIKEI
  6
Continuous
 62
     1
100
AcDbLine
 10
-48.08410925999749
 20
26.57055091926987
 30
0.0
 11
-48.12341515999747
 21
27.32055161926985
 31
0.0
  0
LINE
  5
68
330
2
100
AcDbEntity
  8
GAIKEI
  6
Continuous
 62
     1
100
AcDbLine
 10
-48.12341515999747
 20
27.32055161926985
 30
0.0
 11
-48.13389665999745
 21
27.52055171926986
 31
0.0
  0
LINE
  5
69
330
2
100
AcDbEntity
  8
GAIKEI
  6
Continuous
 62
     1
100
AcDbLine
 10
-47.61433125999746
 20
27.52055141926985
 30
0.0
 11
-47.62481275999744
 21
27.32055121926987
 31
0.0
  0
LINE
  5
6A
330
2
100
AcDbEntity
  8
GAIKEI
  6
Continuous
 62
     1
100
AcDbLine
 10
-47.62481275999744
 20
27.32055121926987
 30
0.0
 11
-47.66411855999751
 21
26.57055211926991
 31
0.0
  0
LINE
  5
6B
330
2
100
AcDbEntity
  8
GAIKEI
  6
Continuous
 62
     1
100
AcDbLine
 10
-43.08411745999745
 20
26.57055111926991
 30
0.0
 11
-43.12342325999748
 21
27.3205518192699
 31
0.0
  0
LINE
  5
6C
330
2
100
AcDbEntity
  8
GAIKEI
  6
Continuous
 62
     1
100
AcDbLine
 10
-43.12342325999748
 20
27.3205518192699
 30
0.0
 11
-43.13390475999745
 21
27.52055051926987
 31
0.0
  0
LINE
  5
6D
330
2
100
AcDbEntity
  8
GAIKEI
  6
Continuous
 62
     1
100
AcDbLine
 10
-42.61433935999747
 20
27.52055271926986
 30
0.0
 11
-42.62482085999749
 21
27.32055251926988
 31
0.0
  0
LINE
  5
6E
330
2
100
AcDbEntity
  8
GAIKEI
  6
Continuous
 62
     1
100
AcDbLine
 10
-42.62482085999749
 20
27.32055251926988
 30
0.0
 11
-42.66412675999748
 21
26.5705518192699
 31
0.0
  0
LINE
  5
6F
330
2
100
AcDbEntity
  8
GAIKEI
  6
Continuous
 62
     1
100
AcDbLine
 10
-45.58412555999746
 20
26.57055041926992
 30
0.0
 11
-45.62343135999748
 21
27.32055111926991
 31
0.0
  0
LINE
  5
70
330
2
100
AcDbEntity
  8
GAIKEI
  6
Continuous
 62
     1
100
AcDbLine
 10
-45.62343135999748
 20
27.32055111926991
 30
0.0
 11
-45.63391295999747
 21
27.52055121926992
 31
0.0
  0
LINE
  5
71
330
2
100
AcDbEntity
  8
GAIKEI
  6
Continuous
 62
     1
100
AcDbLine
 10
-45.1143230599975
 20
27.52055221926992
 30
0.0
 11
-45.12480455999747
 21
27.32055201926988
 31
0.0
  0
LINE
  5
72
330
2
100
AcDbEntity
  8
GAIKEI
  6
Continuous
 62
     1
100
AcDbLine
 10
-45.12480455999747
 20
27.32055201926988
 30
0.0
 11
-45.16411045999745
 21
26.5705513192699
 31
0.0
  0
LINE
  5
73
330
2
100
AcDbEntity
  8
GAIKEI
  6
Continuous
100
AcDbLine
 10
-9.214115359997492
 20
12.02055101926987
 30
0.0
 11
-54.53411055999748
 21
12.02055101926987
 31
0.0
  0
ARC
  5
74
330
2
100
AcDbEntity
  8
GAIKEI
  6
Continuous
100
AcDbCircle
 10
-9.214115359997492
 20
14.26055191926991
 30
0.0
 40
2.239999399999999
100
AcDbArc
 50
270.0000009999949
 51
359.999982999999
  0
ARC
  5
75
330
2
100
AcDbEntity
  8
GAIKEI
  6
Continuous
100
AcDbCircle
 10
-54.53411055999748
 20
14.26055191926991
 30
0.0
 40
2.239999399999999
100
AcDbArc
 50
179.9999640000016
 51
270.0000009999949
  0
ARC
  5
76
330
2
100
AcDbEntity
  8
GAIKEI
  6
Continuous
100
AcDbCircle
 10
-54.53411055999748
 20
25.28055161926989
 30
0.0
 40
2.239999399999999
100
AcDbArc
 50
89.9999820000008
 51
179.9999640000016
  0
ARC
  5
77
330
2
100
AcDbEntity
  8
GAIKEI
  6
Continuous
100
AcDbCircle
 10
-9.214115359997492
 20
25.28055161926989
 30
0.0
 40
2.239999399999999
100
AcDbArc
 50
0.0
 51
89.9999820000008
  0
LINE
  5
78
330
2
100
AcDbEntity
  8
GAIKEI
  6
Continuous
100
AcDbLine
 10
-56.77412515999748
 20
14.26055191926991
 30
0.0
 11
-56.77412515999748
 21
25.28055161926989
 31
0.0
  0
LINE
  5
79
330
2
100
AcDbEntity
  8
GAIKEI
  6
Continuous
100
AcDbLine
 10
-7.020829259997526
 20
13.82055101926988
 30
0.0
 11
-7.01775305999746
 21
13.82055101926988
 31
0.0
  0
LINE
  5
7A
330
2
100
AcDbEntity
  8
GAIKEI
  6
Continuous
100
AcDbLine
 10
-56.73047285999746
 20
13.82055101926988
 30
0.0
 11
-56.72739665999751
 21
13.82055101926988
 31
0.0
  0
LINE
  5
7B
330
2
100
AcDbEntity
  8
GAIKEI
  6
Continuous
100
AcDbLine
 10
-50.63391515999751
 20
27.52055251926993
 30
0.0
 11
-54.53411055999748
 21
27.52055251926993
 31
0.0
  0
LINE
  5
7C
330
2
100
AcDbEntity
  8
GAIKEI
  6
Continuous
100
AcDbLine
 10
-50.63391515999751
 20
27.52055251926993
 30
0.0
 11
-50.61372475999746
 21
27.52055251926993
 31
0.0
  0
LINE
  5
7D
330
2
100
AcDbEntity
  8
GAIKEI
  6
Continuous
100
AcDbLine
 10
-50.13520915999748
 20
27.52055251926993
 30
0.0
 11
-50.11433515999749
 21
27.52055251926993
 31
0.0
  0
LINE
  5
7E
330
2
100
AcDbEntity
  8
GAIKEI
  6
Continuous
100
AcDbLine
 10
-50.11433515999749
 20
27.52055251926993
 30
0.0
 11
-48.13391515999751
 21
27.52055251926993
 31
0.0
  0
LINE
  5
7F
330
2
100
AcDbEntity
  8
GAIKEI
  6
Continuous
100
AcDbLine
 10
-48.13391515999751
 20
27.52055251926993
 30
0.0
 11
-48.11372475999746
 21
27.52055251926993
 31
0.0
  0
LINE
  5
80
330
2
100
AcDbEntity
  8
GAIKEI
  6
Continuous
100
AcDbLine
 10
-47.63520915999748
 20
27.52055251926993
 30
0.0
 11
-47.61433515999749
 21
27.52055251926993
 31
0.0
  0
LINE
  5
81
330
2
100
AcDbEntity
  8
GAIKEI
  6
Continuous
100
AcDbLine
 10
-47.61433515999749
 20
27.52055251926993
 30
0.0
 11
-45.63391515999751
 21
27.52055251926993
 31
0.0
  0
LINE
  5
82
330
2
100
AcDbEntity
  8
GAIKEI
  6
Continuous
100
AcDbLine
 10
-45.63391515999751
 20
27.52055251926993
 30
0.0
 11
-45.61372475999746
 21
27.52055251926993
 31
0.0
  0
LINE
  5
83
330
2
100
AcDbEntity
  8
GAIKEI
  6
Continuous
100
AcDbLine
 10
-45.13520915999748
 20
27.52055251926993
 30
0.0
 11
-45.11433515999749
 21
27.52055251926993
 31
0.0
  0
LINE
  5
84
330
2
100
AcDbEntity
  8
GAIKEI
  6
Continuous
100
AcDbLine
 10
-45.11433515999749
 20
27.52055251926993
 30
0.0
 11
-43.13391515999751
 21
27.52055251926993
 31
0.0
  0
LINE
  5
85
330
2
100
AcDbEntity
  8
GAIKEI
  6
Continuous
100
AcDbLine
 10
-43.13391515999751
 20
27.52055251926993
 30
0.0
 11
-43.11372475999746
 21
27.52055251926993
 31
0.0
  0
LINE
  5
86
330
2
100
AcDbEntity
  8
GAIKEI
  6
Continuous
100
AcDbLine
 10
-42.63520915999748
 20
27.52055251926993
 30
0.0
 11
-42.61433515999749
 21
27.52055251926993
 31
0.0
  0
LINE
  5
87
330
2
100
AcDbEntity
  8
GAIKEI
  6
Continuous
100
AcDbLine
 10
-42.61433515999749
 20
27.52055251926993
 30
0.0
 11
-9.214115359997492
 21
27.52055251926993
 31
0.0
  0
LINE
  5
88
330
2
100
AcDbEntity
  8
GAIKEI
  6
Continuous
100
AcDbLine
 10
-6.97412515999747
 20
25.28055161926989
 30
0.0
 11
-6.97412515999747
 21
14.26055191926991
 31
0.0
  0
SPLINE
  5
89
330
2
100
AcDbEntity
  8
GAIKEI
  6
Continuous
100
AcDbSpline
210
0.0
220
0.0
230
1.0
 70
     8
 71
     3
 72
     9
 73
     5
 74
     3
 42
0.0000000001
 43
0.0000000001
 44
0.000001
 12
0.0000000000000001
 22
-1.0
 32
0.0
 13
0.6460860784719182
 23
0.7632645538768185
 33
0.0
 40
0.0
 40
0.0
 40
0.0
 40
0.0
 40
0.0000038155187129
 40
0.0000046658859247
 40
0.0000046658859247
 40
0.0000046658859247
 40
0.0000046658859247
 10
-56.77004801155994
 20
25.41574297483629
 30
0.0
 10
-56.77004801155994
 20
25.41574170299671
 30
0.0
 10
-56.77004875493742
 20
25.41574112315837
 30
0.0
 10
-56.77004819469676
 20
25.41573818084785
 30
0.0
 10
-56.77004801155994
 20
25.41573839719956
 30
0.0
 11
-56.77004801155994
 21
25.41574297483629
 31
0.0
 11
-56.77004801155994
 21
25.41574011381334
 31
0.0
 11
-56.77004801155994
 21
25.41573839719956
 31
0.0
  0
LINE
  5
8A
330
2
100
AcDbEntity
  8
GAIKEI
  6
Continuous
100
AcDbLine
 10
-43.11460365999744
 20
27.47050671926991
 30
0.0
 11
-43.13127845999747
 21
27.47050671926991
 31
0.0
  0
LINE
  5
8B
330
2
100
AcDbEntity
  8
GAIKEI
  6
Continuous
100
AcDbLine
 10
-50.11694745999744
 20
27.47050671926991
 30
0.0
 11
-50.13433025999751
 21
27.47050671926991
 31
0.0
  0
LINE
  5
8C
330
2
100
AcDbEntity
  8
GAIKEI
  6
Continuous
 62
     1
100
AcDbLine
 10
-53.11460365999744
 20
27.47050671926991
 30
0.0
 11
-53.13127845999748
 21
27.47050671926991
 31
0.0
  0
CIRCLE
  5
8D
330
2
100
AcDbEntity
  8
GAIKEI
  6
Continuous
 62
     1
100
AcDbCircle
 10
-31.87412515999745
 20
19.77055101926987
 30
0.0
 40
7.301745600000002
  0
LINE
  5
8E
330
2
100
AcDbEntity
  8
GAIKEI
  6
Continuous
 62
     1
100
AcDbLine
 10
-35.56149325999752
 20
16.97850871926988
 30
0.0
 11
-35.56061735999748
 21
16.9791719192699
 31
0.0
  0
LINE
  5
8F
330
2
100
AcDbEntity
  8
GAIKEI
  6
Continuous
 62
     1
100
AcDbLine
 10
-28.54427365999749
 20
22.28798341926989
 30
0.0
 11
-28.54495525999744
 21
22.28746811926987
 31
0.0
  0
CIRCLE
  5
90
330
2
100
AcDbEntity
  8
GAIKEI
  6
Continuous
 62
     1
100
AcDbCircle
 10
-41.42412515999746
 20
23.41055191926989
 30
0.0
 40
1.2024445
  0
LINE
  5
91
330
2
100
AcDbEntity
  8
GAIKEI
  6
Continuous
 62
     1
100
AcDbLine
 10
-9.214115359997492
 20
27.32055251926988
 30
0.0
 11
-9.214115359997492
 21
27.52055251926993
 31
0.0
  0
ARC
  5
92
330
2
100
AcDbEntity
  8
GAIKEI
  6
Continuous
 62
     1
100
AcDbCircle
 10
-9.214115359997492
 20
25.28055161926989
 30
0.0
 40
2.0399994
100
AcDbArc
 50
0.0
 51
89.9999820000008
  0
LINE
  5
93
330
2
100
AcDbEntity
  8
GAIKEI
  6
Continuous
 62
     1
100
AcDbLine
 10
-7.174125159997515
 20
25.28055161926989
 30
0.0
 11
-6.97412515999747
 21
25.28055161926989
 31
0.0
  0
LINE
  5
94
330
2
100
AcDbEntity
  8
GAIKEI
  6
Continuous
 62
     1
100
AcDbLine
 10
-7.174125159997515
 20
14.26055191926991
 30
0.0
 11
-7.174125159997515
 21
25.28055161926989
 31
0.0
  0
LINE
  5
95
330
2
100
AcDbEntity
  8
GAIKEI
  6
Continuous
 62
     1
100
AcDbLine
 10
-7.174125159997515
 20
14.26055191926991
 30
0.0
 11
-6.97412515999747
 21
14.26055191926991
 31
0.0
  0
ARC
  5
96
330
2
100
AcDbEntity
  8
GAIKEI
  6
Continuous
 62
     1
100
AcDbCircle
 10
-9.214115359997492
 20
14.26055191926991
 30
0.0
 40
2.0399994
100
AcDbArc
 50
270.0000009999949
 51
359.999982999999
  0
LINE
  5
97
330
2
100
AcDbEntity
  8
GAIKEI
  6
Continuous
 62
     1
100
AcDbLine
 10
-9.214115459997458
 20
12.2205517192699
 30
0.0
 11
-9.214115459997458
 21
12.02055171926986
 31
0.0
  0
LINE
  5
98
330
2
100
AcDbEntity
  8
GAIKEI
  6
Continuous
 62
     1
100
AcDbLine
 10
-54.53411055999748
 20
12.22055101926986
 30
0.0
 11
-9.214115359997492
 21
12.22055101926986
 31
0.0
  0
LINE
  5
99
330
2
100
AcDbEntity
  8
GAIKEI
  6
Continuous
 62
     1
100
AcDbLine
 10
-54.53411055999748
 20
12.22055101926986
 30
0.0
 11
-54.53411055999748
 21
12.02055101926987
 31
0.0
  0
ARC
  5
9A
330
2
100
AcDbEntity
  8
GAIKEI
  6
Continuous
 62
     1
100
AcDbCircle
 10
-54.53411055999748
 20
14.26055191926991
 30
0.0
 40
2.0399994
100
AcDbArc
 50
179.9999640000016
 51
270.0000009999949
  0
LINE
  5
9B
330
2
100
AcDbEntity
  8
GAIKEI
  6
Continuous
 62
     1
100
AcDbLine
 10
-56.57412515999749
 20
14.26055191926991
 30
0.0
 11
-56.77412515999748
 21
14.26055191926991
 31
0.0
  0
LINE
  5
9C
330
2
100
AcDbEntity
  8
GAIKEI
  6
Continuous
 62
     1
100
AcDbLine
 10
-56.57412515999749
 20
25.28055161926989
 30
0.0
 11
-56.57412515999749
 21
14.26055191926991
 31
0.0
  0
LINE
  5
9D
330
2
100
AcDbEntity
  8
GAIKEI
  6
Continuous
 62
     1
100
AcDbLine
 10
-56.57412515999749
 20
25.28055161926989
 30
0.0
 11
-56.77412515999748
 21
25.28055161926989
 31
0.0
  0
ARC
  5
9E
330
2
100
AcDbEntity
  8
GAIKEI
  6
Continuous
 62
     1
100
AcDbCircle
 10
-54.53411055999748
 20
25.28055161926989
 30
0.0
 40
2.0399994
100
AcDbArc
 50
89.9999820000008
 51
179.9999640000016
  0
LINE
  5
9F
330
2
100
AcDbEntity
  8
GAIKEI
  6
Continuous
 62
     1
100
AcDbLine
 10
-54.53411055999748
 20
27.52055251926993
 30
0.0
 11
-54.53411055999748
 21
27.32055251926988
 31
0.0
  0
LINE
  5
A0
330
2
100
AcDbEntity
  8
GAIKEI
  6
Continuous
 62
     1
100
AcDbLine
 10
-53.12341715999747
 20
27.32055251926988
 30
0.0
 11
-54.53411055999748
 21
27.32055251926988
 31
0.0
  0
LINE
  5
A1
330
2
100
AcDbEntity
  8
GAIKEI
  6
Continuous
 62
     1
100
AcDbLine
 10
-9.214115359997492
 20
27.32055251926988
 30
0.0
 11
-42.62480875999751
 21
27.32055251926988
 31
0.0
  0
LINE
  5
A2
330
2
100
AcDbEntity
  8
GAIKEI
  6
Continuous
 62
     1
100
AcDbLine
 10
-43.12341715999747
 20
27.32055251926988
 30
0.0
 11
-45.12480875999751
 21
27.32055251926988
 31
0.0
  0
LINE
  5
A3
330
2
100
AcDbEntity
  8
GAIKEI
  6
Continuous
 62
     1
100
AcDbLine
 10
-45.62341715999747
 20
27.32055251926988
 30
0.0
 11
-47.62480875999751
 21
27.32055251926988
 31
0.0
  0
LINE
  5
A4
330
2
100
AcDbEntity
  8
GAIKEI
  6
Continuous
 62
     1
100
AcDbLine
 10
-48.12341715999747
 20
27.32055251926988
 30
0.0
 11
-50.12480875999751
 21
27.32055251926988
 31
0.0
  0
LINE
  5
A5
330
2
100
AcDbEntity
  8
GAIKEI
  6
Continuous
 62
     1
100
AcDbLine
 10
-50.62341715999747
 20
27.32055251926988
 30
0.0
 11
-52.62480875999751
 21
27.32055251926988
 31
0.0
  0
ARC
  5
A6
330
2
100
AcDbEntity
  8
GAIKEI
  6
Continuous
 62
     1
100
AcDbCircle
 10
-35.9962198599975
 20
21.79834181926992
 30
0.0
 40
0.0711757
100
AcDbArc
 50
126.2566480000056
 51
179.9999640000016
  0
LINE
  5
A7
330
2
100
AcDbEntity
  8
GAIKEI
  6
Continuous
 62
     1
100
AcDbLine
 10
-27.12412515999745
 20
19.56716511926987
 30
0.0
 11
-26.45293375999751
 21
19.56716511926987
 31
0.0
  0
LINE
  5
A8
330
2
100
AcDbEntity
  8
GAIKEI
  6
Continuous
 62
     1
100
AcDbLine
 10
-43.06445715999745
 20
26.58054551926989
 30
0.0
 11
-42.68447675999744
 21
26.58054551926989
 31
0.0
  0
LINE
  5
A9
330
2
100
AcDbEntity
  8
GAIKEI
  6
Continuous
 62
     1
100
AcDbLine
 10
-53.06445715999746
 20
26.58054551926989
 30
0.0
 11
-52.68447675999749
 21
26.58054551926989
 31
0.0
  0
LINE
  5
AA
330
2
100
AcDbEntity
  8
GAIKEI
  6
Continuous
 62
     1
100
AcDbLine
 10
-48.06445715999746
 20
26.58054551926989
 30
0.0
 11
-47.68447675999744
 21
26.58054551926989
 31
0.0
  0
LINE
  5
AB
330
2
100
AcDbEntity
  8
GAIKEI
  6
Continuous
 62
     1
100
AcDbLine
 10
-50.56445715999746
 20
26.58054551926989
 30
0.0
 11
-50.18447675999744
 21
26.58054551926989
 31
0.0
  0
LINE
  5
AC
330
2
100
AcDbEntity
  8
GAIKEI
  6
Continuous
 62
     1
100
AcDbLine
 10
-45.56445715999745
 20
26.58054551926989
 30
0.0
 11
-45.18447675999744
 21
26.58054551926989
 31
0.0
  0
LINE
  5
AD
330
2
100
AcDbEntity
  8
GAIKEI
  6
Continuous
 62
     1
100
AcDbLine
 10
-42.68447675999744
 20
26.58054551926989
 30
0.0
 11
-42.66360265999748
 21
26.58054551926989
 31
0.0
  0
LINE
  5
AE
330
2
100
AcDbEntity
  8
GAIKEI
  6
Continuous
 62
     1
100
AcDbLine
 10
-53.08464765999747
 20
26.58054551926989
 30
0.0
 11
-53.06445715999746
 21
26.58054551926989
 31
0.0
  0
LINE
  5
AF
330
2
100
AcDbEntity
  8
GAIKEI
  6
Continuous
100
AcDbLine
 10
-45.61372475999746
 20
27.52054641926986
 30
0.0
 11
-45.13520915999748
 21
27.52054641926986
 31
0.0
  0
LINE
  5
B0
330
2
100
AcDbEntity
  8
GAIKEI
  6
Continuous
100
AcDbLine
 10
-43.11372475999746
 20
27.52054641926986
 30
0.0
 11
-42.63520915999748
 21
27.52054641926986
 31
0.0
  0
LINE
  5
B1
330
2
100
AcDbEntity
  8
GAIKEI
  6
Continuous
100
AcDbLine
 10
-48.11372475999746
 20
27.52054641926986
 30
0.0
 11
-47.63520915999748
 21
27.52054641926986
 31
0.0
  0
LINE
  5
B2
330
2
100
AcDbEntity
  8
GAIKEI
  6
Continuous
100
AcDbLine
 10
-50.61372475999746
 20
27.52054641926986
 30
0.0
 11
-50.13520915999748
 21
27.52054641926986
 31
0.0
  0
LINE
  5
B3
330
2
100
AcDbEntity
  8
GAIKEI
  6
Continuous
 62
     1
100
AcDbLine
 10
-53.11876245999747
 20
27.23174541926989
 30
0.0
 11
-53.1137213599975
 21
27.52054571926988
 31
0.0
  0
LINE
  5
B4
330
2
100
AcDbEntity
  8
GAIKEI
  6
Continuous
 62
     1
100
AcDbLine
 10
-52.63520165999745
 20
27.52054621926987
 30
0.0
 11
-52.62998705999746
 21
27.22180171926993
 31
0.0
  0
LINE
  5
B5
330
2
100
AcDbEntity
  8
GAIKEI
  6
Continuous
 62
     1
100
AcDbLine
 10
-48.1187820599975
 20
27.23174571926989
 30
0.0
 11
-48.11374105999743
 21
27.52054601926989
 31
0.0
  0
LINE
  5
B6
330
2
100
AcDbEntity
  8
GAIKEI
  6
Continuous
 62
     1
100
AcDbLine
 10
-47.63519695999747
 20
27.5205463192699
 30
0.0
 11
-47.62998235999748
 21
27.2218018192699
 31
0.0
  0
LINE
  5
B7
330
2
100
AcDbEntity
  8
GAIKEI
  6
Continuous
 62
     1
100
AcDbLine
 10
-50.61877225999745
 20
27.23174561926987
 30
0.0
 11
-50.61373125999745
 21
27.52054591926992
 31
0.0
  0
LINE
  5
B8
330
2
100
AcDbEntity
  8
GAIKEI
  6
Continuous
 62
     1
100
AcDbLine
 10
-50.13521155999751
 20
27.52054601926989
 30
0.0
 11
-50.12999695999747
 21
27.22180151926989
 31
0.0
  0
LINE
  5
B9
330
2
100
AcDbEntity
  8
GAIKEI
  6
Continuous
 62
     1
100
AcDbLine
 10
-43.11877735999746
 20
27.23174561926987
 30
0.0
 11
-43.11373625999749
 21
27.52054591926992
 31
0.0
  0
LINE
  5
BA
330
2
100
AcDbEntity
  8
GAIKEI
  6
Continuous
 62
     1
100
AcDbLine
 10
-42.63519215999747
 20
27.52054641926986
 30
0.0
 11
-42.62997755999748
 21
27.22180201926989
 31
0.0
  0
LINE
  5
BB
330
2
100
AcDbEntity
  8
GAIKEI
  6
Continuous
 62
     1
100
AcDbLine
 10
-45.61876745999751
 20
27.23174541926989
 30
0.0
 11
-45.61372645999745
 21
27.52054571926988
 31
0.0
  0
LINE
  5
BC
330
2
100
AcDbEntity
  8
GAIKEI
  6
Continuous
 62
     1
100
AcDbLine
 10
-45.13520675999745
 20
27.52054611926985
 30
0.0
 11
-45.12999215999747
 21
27.22180171926993
 31
0.0
  0
LINE
  5
BD
330
2
100
AcDbEntity
  8
GAIKEI
  6
Continuous
 62
     1
100
AcDbLine
 10
-50.60325365999744
 20
27.32054431926986
 30
0.0
 11
-50.56447185999752
 21
26.58054431926985
 31
0.0
  0
LINE
  5
BE
330
2
100
AcDbEntity
  8
GAIKEI
  6
Continuous
 62
     1
100
AcDbLine
 10
-50.6032541599975
 20
27.32054441926988
 30
0.0
 11
-50.61373575999744
 21
27.52054461926991
 31
0.0
  0
LINE
  5
BF
330
2
100
AcDbEntity
  8
GAIKEI
  6
Continuous
 62
     1
100
AcDbLine
 10
-50.13519255999745
 20
27.52054491926993
 30
0.0
 11
-50.14567415999749
 21
27.32054481926991
 31
0.0
  0
LINE
  5
C0
330
2
100
AcDbEntity
  8
GAIKEI
  6
Continuous
 62
     1
100
AcDbLine
 10
-50.18445675999749
 20
26.58054471926988
 30
0.0
 11
-50.14567505999747
 21
27.32054481926991
 31
0.0
  0
LINE
  5
C1
330
2
100
AcDbEntity
  8
GAIKEI
  6
Continuous
 62
     1
100
AcDbLine
 10
-48.1032455599975
 20
27.32054511926993
 30
0.0
 11
-48.06446375999747
 21
26.58054511926991
 31
0.0
  0
LINE
  5
C2
330
2
100
AcDbEntity
  8
GAIKEI
  6
Continuous
 62
     1
100
AcDbLine
 10
-48.10324605999745
 20
27.32054531926986
 30
0.0
 11
-48.11372765999749
 21
27.52054551926989
 31
0.0
  0
LINE
  5
C3
330
2
100
AcDbEntity
  8
GAIKEI
  6
Continuous
 62
     1
100
AcDbLine
 10
-47.63520885999747
 20
27.5205453192699
 30
0.0
 11
-47.6456903599975
 21
27.32054671926988
 31
0.0
  0
LINE
  5
C4
330
2
100
AcDbEntity
  8
GAIKEI
  6
Continuous
 62
     1
100
AcDbLine
 10
-47.68447295999749
 20
26.58054671926988
 30
0.0
 11
-47.64569125999748
 21
27.32054681926991
 31
0.0
  0
LINE
  5
C5
330
2
100
AcDbEntity
  8
GAIKEI
  6
Continuous
 62
     1
100
AcDbLine
 10
-52.63520075999747
 20
27.5205458192699
 30
0.0
 11
-52.64568225999744
 21
27.32054561926986
 31
0.0
  0
LINE
  5
C6
330
2
100
AcDbEntity
  8
GAIKEI
  6
Continuous
 62
     1
100
AcDbLine
 10
-52.68446485999749
 20
26.58054551926989
 30
0.0
 11
-52.64568315999747
 21
27.32054561926986
 31
0.0
  0
LINE
  5
C7
330
2
100
AcDbEntity
  8
GAIKEI
  6
Continuous
 62
     1
100
AcDbLine
 10
-43.10325365999744
 20
27.32054391926988
 30
0.0
 11
-43.06447195999749
 21
26.58054531926985
 31
0.0
  0
LINE
  5
C8
330
2
100
AcDbEntity
  8
GAIKEI
  6
Continuous
 62
     1
100
AcDbLine
 10
-43.1032541599975
 20
27.32054431926986
 30
0.0
 11
-43.11373575999744
 21
27.52054441926987
 31
0.0
  0
LINE
  5
C9
330
2
100
AcDbEntity
  8
GAIKEI
  6
Continuous
 62
     1
100
AcDbLine
 10
-45.60323745999744
 20
27.32054591926988
 30
0.0
 11
-45.56445565999746
 21
26.5805458192699
 31
0.0
  0
LINE
  5
CA
330
2
100
AcDbEntity
  8
GAIKEI
  6
Continuous
 62
     1
100
AcDbLine
 10
-45.6032379599975
 20
27.32054621926989
 30
0.0
 11
-45.61371945999747
 21
27.52054481926985
 31
0.0
  0
LINE
  5
CB
330
2
100
AcDbEntity
  8
GAIKEI
  6
Continuous
 62
     1
100
AcDbLine
 10
-45.13520065999744
 20
27.52054601926989
 30
0.0
 11
-45.14568225999744
 21
27.32054581926991
 31
0.0
  0
LINE
  5
CC
330
2
100
AcDbEntity
  8
GAIKEI
  6
Continuous
 62
     1
100
AcDbLine
 10
-45.18446485999748
 20
26.58054601926989
 30
0.0
 11
-45.14568315999747
 21
27.3205460192699
 31
0.0
  0
LINE
  5
CD
330
2
100
AcDbEntity
  8
GAIKEI
  6
Continuous
 62
     1
100
AcDbLine
 10
-53.10323735999748
 20
27.32054481926991
 30
0.0
 11
-53.06445555999744
 21
26.58054481926991
 31
0.0
  0
LINE
  5
CE
330
2
100
AcDbEntity
  8
GAIKEI
  6
Continuous
 62
     1
100
AcDbLine
 10
-53.10325625999746
 20
27.32054501926985
 30
0.0
 11
-53.11373775999754
 21
27.52054521926993
 31
0.0
  0
LINE
  5
CF
330
2
100
AcDbEntity
  8
GAIKEI
  6
Continuous
 62
     1
100
AcDbLine
 10
-53.06445615999746
 20
26.58054541926992
 30
0.0
 11
-53.06410715999749
 21
26.57055241926992
 31
0.0
  0
LINE
  5
D0
330
2
100
AcDbEntity
  8
GAIKEI
  6
Continuous
 62
     1
100
AcDbLine
 10
-42.63519255999745
 20
27.52054511926991
 30
0.0
 11
-42.64567415999749
 21
27.32054491926988
 31
0.0
  0
LINE
  5
D1
330
2
100
AcDbEntity
  8
GAIKEI
  6
Continuous
 62
     1
100
AcDbLine
 10
-42.68445675999749
 20
26.58054521926988
 30
0.0
 11
-42.64567505999747
 21
27.32054531926986
 31
0.0
  0
LINE
  5
D2
330
2
100
AcDbEntity
  8
GAIKEI
  6
Continuous
 62
     1
100
AcDbLine
 10
-42.68482705999747
 20
26.57055261926985
 30
0.0
 11
-42.68447795999747
 21
26.58054721926987
 31
0.0
  0
LINE
  5
D3
330
2
100
AcDbEntity
  8
GAIKEI
  6
Continuous
 62
     1
100
AcDbLine
 10
-52.66360265999748
 20
26.58054551926989
 30
0.0
 11
-52.68447675999749
 21
26.58054551926989
 31
0.0
  0
LINE
  5
D4
330
2
100
AcDbEntity
  8
GAIKEI
  6
Continuous
 62
     1
100
AcDbLine
 10
-47.66360265999748
 20
26.58054551926989
 30
0.0
 11
-47.68447675999744
 21
26.58054551926989
 31
0.0
  0
LINE
  5
D5
330
2
100
AcDbEntity
  8
GAIKEI
  6
Continuous
 62
     1
100
AcDbLine
 10
-48.06445715999746
 20
26.58054551926989
 30
0.0
 11
-48.08464765999747
 21
26.58054551926989
 31
0.0
  0
LINE
  5
D6
330
2
100
AcDbEntity
  8
GAIKEI
  6
Continuous
 62
     1
100
AcDbLine
 10
-50.16360265999748
 20
26.58054551926989
 30
0.0
 11
-50.18447675999744
 21
26.58054551926989
 31
0.0
  0
LINE
  5
D7
330
2
100
AcDbEntity
  8
GAIKEI
  6
Continuous
 62
     1
100
AcDbLine
 10
-50.56445715999746
 20
26.58054551926989
 30
0.0
 11
-50.58464765999747
 21
26.58054551926989
 31
0.0
  0
LINE
  5
D8
330
2
100
AcDbEntity
  8
GAIKEI
  6
Continuous
 62
     1
100
AcDbLine
 10
-43.06445715999745
 20
26.58054551926989
 30
0.0
 11
-43.08464765999747
 21
26.58054551926989
 31
0.0
  0
LINE
  5
D9
330
2
100
AcDbEntity
  8
GAIKEI
  6
Continuous
 62
     1
100
AcDbLine
 10
-45.16360265999748
 20
26.58054551926989
 30
0.0
 11
-45.18447675999744
 21
26.58054551926989
 31
0.0
  0
LINE
  5
DA
330
2
100
AcDbEntity
  8
GAIKEI
  6
Continuous
 62
     1
100
AcDbLine
 10
-45.56445715999745
 20
26.58054551926989
 30
0.0
 11
-45.58464765999747
 21
26.58054551926989
 31
0.0
  0
LINE
  5
DB
330
2
100
AcDbEntity
  8
GAIKEI
  6
Continuous
 62
     1
100
AcDbLine
 10
-45.14568275999749
 20
27.32054641926988
 30
0.0
 11
-45.60325115999751
 21
27.32054641926988
 31
0.0
  0
LINE
  5
DC
330
2
100
AcDbEntity
  8
GAIKEI
  6
Continuous
 62
     1
100
AcDbLine
 10
-42.64568275999749
 20
27.32054641926988
 30
0.0
 11
-43.10325115999751
 21
27.32054641926988
 31
0.0
  0
LINE
  5
DD
330
2
100
AcDbEntity
  8
GAIKEI
  6
Continuous
 62
     1
100
AcDbLine
 10
-52.64568275999749
 20
27.32054641926988
 30
0.0
 11
-53.10325115999751
 21
27.32054641926988
 31
0.0
  0
LINE
  5
DE
330
2
100
AcDbEntity
  8
GAIKEI
  6
Continuous
 62
     1
100
AcDbLine
 10
-47.64568275999749
 20
27.32054641926988
 30
0.0
 11
-48.10325115999751
 21
27.32054641926988
 31
0.0
  0
LINE
  5
DF
330
2
100
AcDbEntity
  8
GAIKEI
  6
Continuous
 62
     1
100
AcDbLine
 10
-50.14568275999749
 20
27.32054641926988
 30
0.0
 11
-50.60325115999751
 21
27.32054641926988
 31
0.0
  0
ARC
  5
E0
330
2
100
AcDbEntity
  8
GAIKEI
  6
Continuous
 62
     1
100
AcDbCircle
 10
-31.87412515999745
 20
19.57055101926988
 30
0.0
 40
3.3512482
100
AcDbArc
 50
149.9999699999972
 51
329.9999889999929
  0
ARC
  5
E1
330
2
100
AcDbEntity
  8
GAIKEI
  6
Continuous
 62
     1
100
AcDbCircle
 10
-31.87412515999745
 20
19.57055101926988
 30
0.0
 40
3.3512482
100
AcDbArc
 50
329.9999989999973
 51
149.9999699999972
  0
ARC
  5
E2
330
2
100
AcDbEntity
  8
GAIKEI
  6
Continuous
 62
     1
100
AcDbCircle
 10
-31.87412515999745
 20
19.57055101926988
 30
0.0
 40
3.719999699999999
100
AcDbArc
 50
329.9999989999973
 51
149.9999699999972
  0
ARC
  5
E3
330
2
100
AcDbEntity
  8
GAIKEI
  6
Continuous
 62
     1
100
AcDbCircle
 10
-31.87412515999745
 20
19.57055101926988
 30
0.0
 40
3.719999699999999
100
AcDbArc
 50
149.9999699999972
 51
329.9999889999929
  0
ARC
  5
E4
330
2
100
AcDbEntity
  8
GAIKEI
  6
Continuous
 62
     1
100
AcDbCircle
 10
-31.87412515999745
 20
19.57055101926988
 30
0.0
 40
4.35
100
AcDbArc
 50
149.9999699999972
 51
329.9999889999929
  0
ARC
  5
E5
330
2
100
AcDbEntity
  8
GAIKEI
  6
Continuous
 62
     1
100
AcDbCircle
 10
-31.87412515999745
 20
19.57055101926988
 30
0.0
 40
4.35
100
AcDbArc
 50
329.9999989999973
 51
149.9999699999972
  0
ARC
  5
E6
330
2
100
AcDbEntity
  8
GAIKEI
  6
Continuous
 62
     1
100
AcDbCircle
 10
-31.87412515999745
 20
19.57055101926988
 30
0.0
 40
4.75
100
AcDbArc
 50
329.9999989999973
 51
149.9999699999972
  0
ARC
  5
E7
330
2
100
AcDbEntity
  8
GAIKEI
  6
Continuous
 62
     1
100
AcDbCircle
 10
-31.87412515999745
 20
19.57055101926988
 30
0.0
 40
4.75
100
AcDbArc
 50
149.9999699999972
 51
329.9999889999929
  0
ARC
  5
E8
330
2
100
AcDbEntity
  8
GAIKEI
  6
Continuous
 62
     1
100
AcDbCircle
 10
-31.87412515999745
 20
19.57055101926988
 30
0.0
 40
4.65
100
AcDbArc
 50
329.9999989999973
 51
149.9999699999972
  0
ARC
  5
E9
330
2
100
AcDbEntity
  8
GAIKEI
  6
Continuous
 62
     1
100
AcDbCircle
 10
-31.87412515999745
 20
19.57055101926988
 30
0.0
 40
4.65
100
AcDbArc
 50
149.9999699999972
 51
329.9999889999929
  0
ARC
  5
EA
330
2
100
AcDbEntity
  8
GAIKEI
  6
Continuous
 62
     1
100
AcDbCircle
 10
-31.87412515999745
 20
19.57055101926988
 30
0.0
 40
4.4
100
AcDbArc
 50
149.9999699999972
 51
329.9999889999929
  0
ARC
  5
EB
330
2
100
AcDbEntity
  8
GAIKEI
  6
Continuous
 62
     1
100
AcDbCircle
 10
-31.87412515999745
 20
19.57055101926988
 30
0.0
 40
4.4
100
AcDbArc
 50
329.9999989999973
 51
149.9999699999972
  0
LINE
  5
EC
330
2
100
AcDbEntity
  8
GAIKEI
  6
Continuous
 62
     1
100
AcDbLine
 10
-35.68462985999747
 20
21.77054161926992
 30
0.0
 11
-35.64132855999748
 21
21.74554161926989
 31
0.0
  0
LINE
  5
ED
330
2
100
AcDbEntity
  8
GAIKEI
  6
Continuous
 62
     1
100
AcDbLine
 10
-27.84710005999745
 20
17.24554161926988
 30
0.0
 11
-27.76049755999748
 21
17.19554161926987
 31
0.0
  0
LINE
  5
EE
330
2
100
AcDbEntity
  8
GAIKEI
  6
Continuous
 62
     1
100
AcDbLine
 10
-35.98773875999751
 20
21.94554161926987
 30
0.0
 11
-35.90113625999749
 21
21.89554161926992
 31
0.0
  0
LINE
  5
EF
330
2
100
AcDbEntity
  8
GAIKEI
  6
Continuous
100
AcDbLine
 10
-54.65466715999747
 20
11.92055101926985
 30
0.0
 11
-54.6692423599975
 21
11.92055101926985
 31
0.0
  0
LINE
  5
F0
330
2
100
AcDbEntity
  8
GAIKEI
  6
Continuous
100
AcDbLine
 10
-54.62651775999751
 20
11.92055101926985
 30
0.0
 11
-54.65466715999747
 21
11.92055101926985
 31
0.0
  0
LINE
  5
F1
330
2
100
AcDbEntity
  8
GAIKEI
  6
Continuous
100
AcDbLine
 10
-54.59661055999749
 20
11.92055411926986
 30
0.0
 11
-54.62651775999751
 21
11.92055411926986
 31
0.0
  0
LINE
  5
F2
330
2
100
AcDbEntity
  8
GAIKEI
  6
Continuous
100
AcDbLine
 10
-54.55354405999753
 20
11.92055101926985
 30
0.0
 11
-54.59661055999749
 21
11.92055101926985
 31
0.0
  0
LINE
  5
F3
330
2
100
AcDbEntity
  8
GAIKEI
  6
Continuous
100
AcDbLine
 10
-54.52441815999748
 20
11.92055101926985
 30
0.0
 11
-54.55351965999745
 21
11.92055101926985
 31
0.0
  0
LINE
  5
F4
330
2
100
AcDbEntity
  8
GAIKEI
  6
Continuous
100
AcDbLine
 10
-54.43996985999752
 20
11.92055411926986
 30
0.0
 11
-54.52441815999748
 21
11.92055411926986
 31
0.0
  0
LINE
  5
F5
330
2
100
AcDbEntity
  8
GAIKEI
  6
Continuous
100
AcDbLine
 10
-54.37026775999754
 20
11.92055101926985
 30
0.0
 11
-54.43996985999752
 21
11.92055101926985
 31
0.0
  0
LINE
  5
F6
330
2
100
AcDbEntity
  8
GAIKEI
  6
Continuous
100
AcDbLine
 10
-54.34145915999749
 20
11.92055101926985
 30
0.0
 11
-54.37024335999746
 21
11.92055101926985
 31
0.0
  0
LINE
  5
F7
330
2
100
AcDbEntity
  8
GAIKEI
  6
Continuous
100
AcDbLine
 10
-54.20615645999749
 20
11.92055411926986
 30
0.0
 11
-54.34145915999749
 21
11.92055411926986
 31
0.0
  0
LINE
  5
F8
330
2
100
AcDbEntity
  8
GAIKEI
  6
Continuous
100
AcDbLine
 10
-54.11287025999746
 20
11.92055101926985
 30
0.0
 11
-54.20615645999749
 21
11.92055101926985
 31
0.0
  0
LINE
  5
F9
330
2
100
AcDbEntity
  8
GAIKEI
  6
Continuous
100
AcDbLine
 10
-54.0856241599975
 20
11.92055101926985
 30
0.0
 11
-54.11284585999749
 21
11.92055101926985
 31
0.0
  0
LINE
  5
FA
330
2
100
AcDbEntity
  8
GAIKEI
  6
Continuous
100
AcDbLine
 10
-53.9053751599975
 20
11.92055411926986
 30
0.0
 11
-54.08564855999742
 21
11.92055411926986
 31
0.0
  0
LINE
  5
FB
330
2
100
AcDbEntity
  8
GAIKEI
  6
Continuous
100
AcDbLine
 10
-53.79258215999744
 20
11.92055101926985
 30
0.0
 11
-53.9053751599975
 21
11.92055101926985
 31
0.0
  0
LINE
  5
FC
330
2
100
AcDbEntity
  8
GAIKEI
  6
Continuous
100
AcDbLine
 10
-53.76811925999749
 20
11.92055101926985
 30
0.0
 11
-53.79258215999744
 21
11.92055101926985
 31
0.0
  0
LINE
  5
FD
330
2
100
AcDbEntity
  8
GAIKEI
  6
Continuous
100
AcDbLine
 10
-53.55077875999751
 20
11.92055171926984
 30
0.0
 11
-53.76811265999748
 21
11.92055511926986
 31
0.0
  0
LINE
  5
FE
330
2
100
AcDbEntity
  8
GAIKEI
  6
Continuous
100
AcDbLine
 10
-53.42341715999754
 20
11.92055101926985
 30
0.0
 11
-53.55078535999746
 21
11.92055101926985
 31
0.0
  0
LINE
  5
FF
330
2
100
AcDbEntity
  8
GAIKEI
  6
Continuous
100
AcDbLine
 10
-53.40276285999744
 20
11.92055101926985
 30
0.0
 11
-53.42339275999745
 21
11.92055101926985
 31
0.0
  0
LINE
  5
100
330
2
100
AcDbEntity
  8
GAIKEI
  6
Continuous
100
AcDbLine
 10
-53.1624552599975
 20
11.92055101926985
 30
0.0
 11
-53.40278725999747
 21
11.92055101926985
 31
0.0
  0
LINE
  5
101
330
2
100
AcDbEntity
  8
GAIKEI
  6
Continuous
100
AcDbLine
 10
-53.15786535999746
 20
11.92055101926985
 30
0.0
 11
-53.1624552599975
 21
11.92055101926985
 31
0.0
  0
LINE
  5
102
330
2
100
AcDbEntity
  8
GAIKEI
  6
Continuous
100
AcDbLine
 10
-53.02151285999747
 20
11.92055101926985
 30
0.0
 11
-53.15786535999746
 21
11.92055101926985
 31
0.0
  0
LINE
  5
103
330
2
100
AcDbEntity
  8
GAIKEI
  6
Continuous
100
AcDbLine
 10
-53.0056192599975
 20
11.92055101926985
 30
0.0
 11
-53.02151285999747
 21
11.92055101926985
 31
0.0
  0
LINE
  5
104
330
2
100
AcDbEntity
  8
GAIKEI
  6
Continuous
100
AcDbLine
 10
-52.75430095999746
 20
11.92055101926985
 30
0.0
 11
-53.0056192599975
 21
11.92055101926985
 31
0.0
  0
LINE
  5
105
330
2
100
AcDbEntity
  8
GAIKEI
  6
Continuous
100
AcDbLine
 10
-52.74382725999749
 20
11.92055101926985
 30
0.0
 11
-52.75430095999746
 21
11.92055101926985
 31
0.0
  0
LINE
  5
106
330
2
100
AcDbEntity
  8
GAIKEI
  6
Continuous
100
AcDbLine
 10
-52.60439855999743
 20
11.92055101926985
 30
0.0
 11
-52.74382725999749
 21
11.92055101926985
 31
0.0
  0
LINE
  5
107
330
2
100
AcDbEntity
  8
GAIKEI
  6
Continuous
100
AcDbLine
 10
-52.59394935999745
 20
11.92055101926985
 30
0.0
 11
-52.60439855999743
 21
11.92055101926985
 31
0.0
  0
LINE
  5
108
330
2
100
AcDbEntity
  8
GAIKEI
  6
Continuous
100
AcDbLine
 10
-52.34263105999747
 20
11.92055101926985
 30
0.0
 11
-52.59394935999745
 21
11.92055101926985
 31
0.0
  0
LINE
  5
109
330
2
100
AcDbEntity
  8
GAIKEI
  6
Continuous
100
AcDbLine
 10
-52.3267374599975
 20
11.92055101926985
 30
0.0
 11
-52.34263105999747
 21
11.92055101926985
 31
0.0
  0
LINE
  5
10A
330
2
100
AcDbEntity
  8
GAIKEI
  6
Continuous
100
AcDbLine
 10
-52.19036055999748
 20
11.92055101926985
 30
0.0
 11
-52.3267374599975
 21
11.92055101926985
 31
0.0
  0
LINE
  5
10B
330
2
100
AcDbEntity
  8
GAIKEI
  6
Continuous
100
AcDbLine
 10
-52.18577065999745
 20
11.92055101926985
 30
0.0
 11
-52.19036055999748
 21
11.92055101926985
 31
0.0
  0
LINE
  5
10C
330
2
100
AcDbEntity
  8
GAIKEI
  6
Continuous
100
AcDbLine
 10
-51.94543865999747
 20
11.92055101926985
 30
0.0
 11
-52.18579505999747
 21
11.92055101926985
 31
0.0
  0
LINE
  5
10D
330
2
100
AcDbEntity
  8
GAIKEI
  6
Continuous
100
AcDbLine
 10
-51.92480875999752
 20
11.92055101926985
 30
0.0
 11
-51.94543865999747
 21
11.92055101926985
 31
0.0
  0
LINE
  5
10E
330
2
100
AcDbEntity
  8
GAIKEI
  6
Continuous
100
AcDbLine
 10
-51.79746495999751
 20
11.92055101926985
 30
0.0
 11
-51.92483315999743
 21
11.92055101926985
 31
0.0
  0
LINE
  5
10F
330
2
100
AcDbEntity
  8
GAIKEI
  6
Continuous
100
AcDbLine
 10
-51.58013105999748
 20
11.92055411926986
 30
0.0
 11
-51.79744055999748
 21
11.92055411926986
 31
0.0
  0
LINE
  5
110
330
2
100
AcDbEntity
  8
GAIKEI
  6
Continuous
100
AcDbLine
 10
-51.55566815999748
 20
11.92055101926985
 30
0.0
 11
-51.58013105999748
 21
11.92055101926985
 31
0.0
  0
LINE
  5
111
330
2
100
AcDbEntity
  8
GAIKEI
  6
Continuous
100
AcDbLine
 10
-51.44287515999747
 20
11.92055101926985
 30
0.0
 11
-51.55566815999748
 21
11.92055101926985
 31
0.0
  0
LINE
  5
112
330
2
100
AcDbEntity
  8
GAIKEI
  6
Continuous
100
AcDbLine
 10
-51.26259525999746
 20
11.92055501926984
 30
0.0
 11
-51.44284425999746
 21
11.9205515192699
 31
0.0
  0
LINE
  5
113
330
2
100
AcDbEntity
  8
GAIKEI
  6
Continuous
100
AcDbLine
 10
-51.23535565999748
 20
11.92055101926985
 30
0.0
 11
-51.2626017599975
 21
11.92055101926985
 31
0.0
  0
LINE
  5
114
330
2
100
AcDbEntity
  8
GAIKEI
  6
Continuous
100
AcDbLine
 10
-51.14209395999745
 20
11.92055101926985
 30
0.0
 11
-51.23538005999745
 21
11.92055101926985
 31
0.0
  0
LINE
  5
115
330
2
100
AcDbEntity
  8
GAIKEI
  6
Continuous
100
AcDbLine
 10
-51.00675095999747
 20
11.92055131926986
 30
0.0
 11
-51.14207815999748
 21
11.92055471926988
 31
0.0
  0
LINE
  5
116
330
2
100
AcDbEntity
  8
GAIKEI
  6
Continuous
100
AcDbLine
 10
-50.97795815999745
 20
11.92055101926985
 30
0.0
 11
-51.0067667599975
 21
11.92055101926985
 31
0.0
  0
LINE
  5
117
330
2
100
AcDbEntity
  8
GAIKEI
  6
Continuous
100
AcDbLine
 10
-50.90825605999748
 20
11.92055101926985
 30
0.0
 11
-50.97798255999748
 21
11.92055101926985
 31
0.0
  0
LINE
  5
118
330
2
100
AcDbEntity
  8
GAIKEI
  6
Continuous
100
AcDbLine
 10
-50.82380775999746
 20
11.92055411926986
 30
0.0
 11
-50.90825605999748
 21
11.92055411926986
 31
0.0
  0
LINE
  5
119
330
2
100
AcDbEntity
  8
GAIKEI
  6
Continuous
100
AcDbLine
 10
-50.7946817599975
 20
11.92055101926985
 30
0.0
 11
-50.82380775999746
 21
11.92055101926985
 31
0.0
  0
LINE
  5
11A
330
2
100
AcDbEntity
  8
GAIKEI
  6
Continuous
100
AcDbLine
 10
-50.75161535999751
 20
11.92055101926985
 30
0.0
 11
-50.7947062599975
 21
11.92055101926985
 31
0.0
  0
LINE
  5
11B
330
2
100
AcDbEntity
  8
GAIKEI
  6
Continuous
100
AcDbLine
 10
-50.72173255999752
 20
11.92055411926986
 30
0.0
 11
-50.75161535999751
 21
11.92055411926986
 31
0.0
  0
LINE
  5
11C
330
2
100
AcDbEntity
  8
GAIKEI
  6
Continuous
100
AcDbLine
 10
-50.69358315999744
 20
11.92055101926985
 30
0.0
 11
-50.72173255999752
 21
11.92055101926985
 31
0.0
  0
LINE
  5
11D
330
2
100
AcDbEntity
  8
GAIKEI
  6
Continuous
100
AcDbLine
 10
-50.67900795999747
 20
11.92055101926985
 30
0.0
 11
-50.69355875999747
 21
11.92055101926985
 31
0.0
  0
LINE
  5
11E
330
2
100
AcDbEntity
  8
GAIKEI
  6
Continuous
 62
     1
100
AcDbLine
 10
-51.79746495999751
 20
11.92055101926985
 30
0.0
 11
-51.79746495999751
 21
10.32055101926988
 31
0.0
  0
LINE
  5
11F
330
2
100
AcDbEntity
  8
GAIKEI
  6
Continuous
100
AcDbLine
 10
-51.90600995999744
 20
10.02055131926988
 30
0.0
 11
-53.44224035999753
 21
10.02055131926988
 31
0.0
  0
LINE
  5
120
330
2
100
AcDbEntity
  8
GAIKEI
  6
Continuous
100
AcDbLine
 10
-50.69355875999747
 20
10.32055101926988
 30
0.0
 11
-50.67900795999747
 21
10.32055101926988
 31
0.0
  0
LINE
  5
121
330
2
100
AcDbEntity
  8
GAIKEI
  6
Continuous
100
AcDbLine
 10
-50.72173255999752
 20
10.32055101926988
 30
0.0
 11
-50.69358315999744
 21
10.32055101926988
 31
0.0
  0
LINE
  5
122
330
2
100
AcDbEntity
  8
GAIKEI
  6
Continuous
100
AcDbLine
 10
-50.75161535999751
 20
10.32054951926989
 30
0.0
 11
-50.72173255999752
 21
10.32054951926989
 31
0.0
  0
LINE
  5
123
330
2
100
AcDbEntity
  8
GAIKEI
  6
Continuous
100
AcDbLine
 10
-50.7947062599975
 20
10.32055101926988
 30
0.0
 11
-50.75161535999751
 21
10.32055101926988
 31
0.0
  0
LINE
  5
124
330
2
100
AcDbEntity
  8
GAIKEI
  6
Continuous
100
AcDbLine
 10
-50.82380775999746
 20
10.32055101926988
 30
0.0
 11
-50.7946817599975
 21
10.32055101926988
 31
0.0
  0
LINE
  5
125
330
2
100
AcDbEntity
  8
GAIKEI
  6
Continuous
100
AcDbLine
 10
-50.90825605999748
 20
10.32054951926989
 30
0.0
 11
-50.82380775999746
 21
10.32054951926989
 31
0.0
  0
LINE
  5
126
330
2
100
AcDbEntity
  8
GAIKEI
  6
Continuous
100
AcDbLine
 10
-50.97798255999748
 20
10.32055101926988
 30
0.0
 11
-50.90825605999748
 21
10.32055101926988
 31
0.0
  0
LINE
  5
127
330
2
100
AcDbEntity
  8
GAIKEI
  6
Continuous
100
AcDbLine
 10
-51.0067667599975
 20
10.32055101926988
 30
0.0
 11
-50.97795815999745
 21
10.32055101926988
 31
0.0
  0
LINE
  5
128
330
2
100
AcDbEntity
  8
GAIKEI
  6
Continuous
100
AcDbLine
 10
-51.14206945999751
 20
10.32054951926989
 30
0.0
 11
-51.0067667599975
 21
10.32054951926989
 31
0.0
  0
LINE
  5
129
330
2
100
AcDbEntity
  8
GAIKEI
  6
Continuous
100
AcDbLine
 10
-51.23538005999745
 20
10.32055101926988
 30
0.0
 11
-51.14209395999745
 21
10.32055101926988
 31
0.0
  0
LINE
  5
12A
330
2
100
AcDbEntity
  8
GAIKEI
  6
Continuous
100
AcDbLine
 10
-51.2626017599975
 20
10.32055101926988
 30
0.0
 11
-51.23535565999748
 21
10.32055101926988
 31
0.0
  0
LINE
  5
12B
330
2
100
AcDbEntity
  8
GAIKEI
  6
Continuous
100
AcDbLine
 10
-51.44285705999749
 20
10.32055121926987
 30
0.0
 11
-51.26258365999752
 21
10.32054951926989
 31
0.0
  0
LINE
  5
12C
330
2
100
AcDbEntity
  8
GAIKEI
  6
Continuous
100
AcDbLine
 10
-51.55566815999748
 20
10.32055101926988
 30
0.0
 11
-51.44287515999747
 21
10.32055101926988
 31
0.0
  0
LINE
  5
12D
330
2
100
AcDbEntity
  8
GAIKEI
  6
Continuous
100
AcDbLine
 10
-51.58013105999748
 20
10.32055101926988
 30
0.0
 11
-51.55566815999748
 21
10.32055101926988
 31
0.0
  0
LINE
  5
12E
330
2
100
AcDbEntity
  8
GAIKEI
  6
Continuous
100
AcDbLine
 10
-51.79744055999748
 20
10.32054951926989
 30
0.0
 11
-51.58013105999748
 21
10.32054951926989
 31
0.0
  0
LINE
  5
12F
330
2
100
AcDbEntity
  8
GAIKEI
  6
Continuous
100
AcDbLine
 10
-51.92483315999743
 20
10.32055101926988
 30
0.0
 11
-51.79746495999751
 21
10.32055101926988
 31
0.0
  0
LINE
  5
130
330
2
100
AcDbEntity
  8
GAIKEI
  6
Continuous
100
AcDbLine
 10
-51.94543865999747
 20
10.32055101926988
 30
0.0
 11
-51.92480875999752
 21
10.32055101926988
 31
0.0
  0
LINE
  5
131
330
2
100
AcDbEntity
  8
GAIKEI
  6
Continuous
100
AcDbLine
 10
-52.18579505999747
 20
10.32055101926988
 30
0.0
 11
-51.94543865999747
 21
10.32055101926988
 31
0.0
  0
LINE
  5
132
330
2
100
AcDbEntity
  8
GAIKEI
  6
Continuous
100
AcDbLine
 10
-52.19036055999748
 20
10.32055101926988
 30
0.0
 11
-52.18577065999745
 21
10.32055101926988
 31
0.0
  0
LINE
  5
133
330
2
100
AcDbEntity
  8
GAIKEI
  6
Continuous
100
AcDbLine
 10
-52.3267374599975
 20
10.32055101926988
 30
0.0
 11
-52.19036055999748
 21
10.32055101926988
 31
0.0
  0
LINE
  5
134
330
2
100
AcDbEntity
  8
GAIKEI
  6
Continuous
100
AcDbLine
 10
-52.34263105999747
 20
10.32055101926988
 30
0.0
 11
-52.3267374599975
 21
10.32055101926988
 31
0.0
  0
LINE
  5
135
330
2
100
AcDbEntity
  8
GAIKEI
  6
Continuous
100
AcDbLine
 10
-52.59394935999745
 20
10.32055101926988
 30
0.0
 11
-52.34263105999747
 21
10.32055101926988
 31
0.0
  0
LINE
  5
136
330
2
100
AcDbEntity
  8
GAIKEI
  6
Continuous
100
AcDbLine
 10
-52.60439855999743
 20
10.32055101926988
 30
0.0
 11
-52.59394935999745
 21
10.32055101926988
 31
0.0
  0
LINE
  5
137
330
2
100
AcDbEntity
  8
GAIKEI
  6
Continuous
100
AcDbLine
 10
-52.74382725999749
 20
10.32055101926988
 30
0.0
 11
-52.60439855999743
 21
10.32055101926988
 31
0.0
  0
LINE
  5
138
330
2
100
AcDbEntity
  8
GAIKEI
  6
Continuous
100
AcDbLine
 10
-52.75430095999746
 20
10.32055101926988
 30
0.0
 11
-52.74382725999749
 21
10.32055101926988
 31
0.0
  0
LINE
  5
139
330
2
100
AcDbEntity
  8
GAIKEI
  6
Continuous
100
AcDbLine
 10
-53.0056192599975
 20
10.32055101926988
 30
0.0
 11
-52.75430095999746
 21
10.32055101926988
 31
0.0
  0
LINE
  5
13A
330
2
100
AcDbEntity
  8
GAIKEI
  6
Continuous
100
AcDbLine
 10
-53.02151285999747
 20
10.32055101926988
 30
0.0
 11
-53.0056192599975
 21
10.32055101926988
 31
0.0
  0
LINE
  5
13B
330
2
100
AcDbEntity
  8
GAIKEI
  6
Continuous
100
AcDbLine
 10
-53.15786535999746
 20
10.32055101926988
 30
0.0
 11
-53.02151285999747
 21
10.32055101926988
 31
0.0
  0
LINE
  5
13C
330
2
100
AcDbEntity
  8
GAIKEI
  6
Continuous
100
AcDbLine
 10
-53.1624552599975
 20
10.32055101926988
 30
0.0
 11
-53.15786535999746
 21
10.32055101926988
 31
0.0
  0
LINE
  5
13D
330
2
100
AcDbEntity
  8
GAIKEI
  6
Continuous
100
AcDbLine
 10
-53.40278725999747
 20
10.32055101926988
 30
0.0
 11
-53.1624552599975
 21
10.32055101926988
 31
0.0
  0
LINE
  5
13E
330
2
100
AcDbEntity
  8
GAIKEI
  6
Continuous
100
AcDbLine
 10
-53.42339275999745
 20
10.32055101926988
 30
0.0
 11
-53.40276285999744
 21
10.32055101926988
 31
0.0
  0
LINE
  5
13F
330
2
100
AcDbEntity
  8
GAIKEI
  6
Continuous
100
AcDbLine
 10
-53.55078535999746
 20
10.32055101926988
 30
0.0
 11
-53.42341715999754
 21
10.32055101926988
 31
0.0
  0
LINE
  5
140
330
2
100
AcDbEntity
  8
GAIKEI
  6
Continuous
100
AcDbLine
 10
-53.76811925999749
 20
10.32054951926989
 30
0.0
 11
-53.55078535999746
 21
10.32054951926989
 31
0.0
  0
LINE
  5
141
330
2
100
AcDbEntity
  8
GAIKEI
  6
Continuous
100
AcDbLine
 10
-53.79258215999744
 20
10.32055101926988
 30
0.0
 11
-53.76811925999749
 21
10.32055101926988
 31
0.0
  0
LINE
  5
142
330
2
100
AcDbEntity
  8
GAIKEI
  6
Continuous
100
AcDbLine
 10
-53.9053751599975
 20
10.32055101926988
 30
0.0
 11
-53.79258215999744
 21
10.32055101926988
 31
0.0
  0
LINE
  5
143
330
2
100
AcDbEntity
  8
GAIKEI
  6
Continuous
100
AcDbLine
 10
-53.90535075999747
 20
10.32055101926988
 30
0.0
 11
-53.9053751599975
 21
10.32055101926988
 31
0.0
  0
LINE
  5
144
330
2
100
AcDbEntity
  8
GAIKEI
  6
Continuous
100
AcDbLine
 10
-54.08564855999742
 20
10.32054951926989
 30
0.0
 11
-53.9053751599975
 21
10.32054951926989
 31
0.0
  0
LINE
  5
145
330
2
100
AcDbEntity
  8
GAIKEI
  6
Continuous
100
AcDbLine
 10
-54.11284585999749
 20
10.32055101926988
 30
0.0
 11
-54.0856241599975
 21
10.32055101926988
 31
0.0
  0
LINE
  5
146
330
2
100
AcDbEntity
  8
GAIKEI
  6
Continuous
100
AcDbLine
 10
-54.20615645999749
 20
10.32055101926988
 30
0.0
 11
-54.11287025999746
 21
10.32055101926988
 31
0.0
  0
LINE
  5
147
330
2
100
AcDbEntity
  8
GAIKEI
  6
Continuous
100
AcDbLine
 10
-54.20613195999749
 20
10.32055101926988
 30
0.0
 11
-54.20615645999749
 21
10.32055101926988
 31
0.0
  0
LINE
  5
148
330
2
100
AcDbEntity
  8
GAIKEI
  6
Continuous
100
AcDbLine
 10
-54.34145915999749
 20
10.32054951926989
 30
0.0
 11
-54.20615645999749
 21
10.32054951926989
 31
0.0
  0
LINE
  5
149
330
2
100
AcDbEntity
  8
GAIKEI
  6
Continuous
100
AcDbLine
 10
-54.37024335999746
 20
10.32055101926988
 30
0.0
 11
-54.34145915999749
 21
10.32055101926988
 31
0.0
  0
LINE
  5
14A
330
2
100
AcDbEntity
  8
GAIKEI
  6
Continuous
100
AcDbLine
 10
-54.43996985999752
 20
10.32055101926988
 30
0.0
 11
-54.37026775999754
 21
10.32055101926988
 31
0.0
  0
LINE
  5
14B
330
2
100
AcDbEntity
  8
GAIKEI
  6
Continuous
100
AcDbLine
 10
-54.52441815999748
 20
10.32054951926989
 30
0.0
 11
-54.43996985999752
 21
10.32054951926989
 31
0.0
  0
LINE
  5
14C
330
2
100
AcDbEntity
  8
GAIKEI
  6
Continuous
100
AcDbLine
 10
-54.55351965999745
 20
10.32055101926988
 30
0.0
 11
-54.52441815999748
 21
10.32055101926988
 31
0.0
  0
LINE
  5
14D
330
2
100
AcDbEntity
  8
GAIKEI
  6
Continuous
100
AcDbLine
 10
-54.59661055999749
 20
10.32055101926988
 30
0.0
 11
-54.55354405999753
 21
10.32055101926988
 31
0.0
  0
LINE
  5
14E
330
2
100
AcDbEntity
  8
GAIKEI
  6
Continuous
100
AcDbLine
 10
-54.62650635999745
 20
10.32055061926985
 30
0.0
 11
-54.59662355999745
 21
10.3205488192699
 31
0.0
  0
LINE
  5
14F
330
2
100
AcDbEntity
  8
GAIKEI
  6
Continuous
100
AcDbLine
 10
-54.65466715999747
 20
10.32055101926988
 30
0.0
 11
-54.62651775999751
 21
10.32055101926988
 31
0.0
  0
LINE
  5
150
330
2
100
AcDbEntity
  8
GAIKEI
  6
Continuous
100
AcDbLine
 10
-54.6692423599975
 20
10.32055101926988
 30
0.0
 11
-54.65466715999747
 21
10.32055101926988
 31
0.0
  0
LINE
  5
151
330
2
100
AcDbEntity
  8
GAIKEI
  6
Continuous
100
AcDbLine
 10
-53.44224035999753
 20
12.02055101926987
 30
0.0
 11
-53.44224035999753
 21
11.92055101926985
 31
0.0
  0
LINE
  5
152
330
2
100
AcDbEntity
  8
GAIKEI
  6
Continuous
100
AcDbLine
 10
-51.90600995999744
 20
11.92055101926985
 30
0.0
 11
-51.90600995999744
 21
12.02055101926987
 31
0.0
  0
LINE
  5
153
330
2
100
AcDbEntity
  8
GAIKEI
  6
Continuous
100
AcDbLine
 10
-50.67900795999747
 20
11.92055101926985
 30
0.0
 11
-50.67900795999747
 21
10.32055101926988
 31
0.0
  0
LINE
  5
154
330
2
100
AcDbEntity
  8
GAIKEI
  6
Continuous
 62
     1
100
AcDbLine
 10
-50.69355875999747
 20
11.92055101926985
 30
0.0
 11
-50.69355875999747
 21
10.32055101926988
 31
0.0
  0
LINE
  5
155
330
2
100
AcDbEntity
  8
GAIKEI
  6
Continuous
 62
     1
100
AcDbLine
 10
-50.72173255999752
 20
11.92055101926985
 30
0.0
 11
-50.72173255999752
 21
10.32055101926988
 31
0.0
  0
LINE
  5
156
330
2
100
AcDbEntity
  8
GAIKEI
  6
Continuous
 62
     1
100
AcDbLine
 10
-50.75161535999751
 20
11.92055101926985
 30
0.0
 11
-50.75161535999751
 21
10.32055101926988
 31
0.0
  0
LINE
  5
157
330
2
100
AcDbEntity
  8
GAIKEI
  6
Continuous
 62
     1
100
AcDbLine
 10
-50.7947062599975
 20
11.92055101926985
 30
0.0
 11
-50.7947062599975
 21
10.32055101926988
 31
0.0
  0
LINE
  5
158
330
2
100
AcDbEntity
  8
GAIKEI
  6
Continuous
 62
     1
100
AcDbLine
 10
-50.82380775999746
 20
11.92055101926985
 30
0.0
 11
-50.82380775999746
 21
10.32055101926988
 31
0.0
  0
LINE
  5
159
330
2
100
AcDbEntity
  8
GAIKEI
  6
Continuous
 62
     1
100
AcDbLine
 10
-50.90825605999748
 20
11.92055101926985
 30
0.0
 11
-50.90825605999748
 21
10.32055101926988
 31
0.0
  0
LINE
  5
15A
330
2
100
AcDbEntity
  8
GAIKEI
  6
Continuous
 62
     1
100
AcDbLine
 10
-50.97798255999748
 20
11.92055101926985
 30
0.0
 11
-50.97798255999748
 21
10.32055101926988
 31
0.0
  0
LINE
  5
15B
330
2
100
AcDbEntity
  8
GAIKEI
  6
Continuous
 62
     1
100
AcDbLine
 10
-51.0067667599975
 20
11.92055101926985
 30
0.0
 11
-51.0067667599975
 21
10.32055101926988
 31
0.0
  0
LINE
  5
15C
330
2
100
AcDbEntity
  8
GAIKEI
  6
Continuous
 62
     1
100
AcDbLine
 10
-51.14206945999751
 20
11.92055101926985
 30
0.0
 11
-51.14206945999751
 21
10.32055101926988
 31
0.0
  0
LINE
  5
15D
330
2
100
AcDbEntity
  8
GAIKEI
  6
Continuous
 62
     1
100
AcDbLine
 10
-51.23538005999745
 20
11.92055101926985
 30
0.0
 11
-51.23538005999745
 21
10.32055101926988
 31
0.0
  0
LINE
  5
15E
330
2
100
AcDbEntity
  8
GAIKEI
  6
Continuous
 62
     1
100
AcDbLine
 10
-51.2626017599975
 20
11.92055101926985
 30
0.0
 11
-51.2626017599975
 21
10.32055101926988
 31
0.0
  0
LINE
  5
15F
330
2
100
AcDbEntity
  8
GAIKEI
  6
Continuous
 62
     1
100
AcDbLine
 10
-51.44285075999744
 20
11.92055101926985
 30
0.0
 11
-51.44285075999744
 21
10.32055101926988
 31
0.0
  0
LINE
  5
160
330
2
100
AcDbEntity
  8
GAIKEI
  6
Continuous
 62
     1
100
AcDbLine
 10
-51.55566815999748
 20
11.92055101926985
 30
0.0
 11
-51.55566815999748
 21
10.32055101926988
 31
0.0
  0
LINE
  5
161
330
2
100
AcDbEntity
  8
GAIKEI
  6
Continuous
 62
     1
100
AcDbLine
 10
-51.58013105999748
 20
11.92055101926985
 30
0.0
 11
-51.58013105999748
 21
10.32055101926988
 31
0.0
  0
LINE
  5
162
330
2
100
AcDbEntity
  8
GAIKEI
  6
Continuous
 62
     1
100
AcDbLine
 10
-51.92483315999743
 20
11.92055101926985
 30
0.0
 11
-51.92483315999743
 21
10.32055101926988
 31
0.0
  0
LINE
  5
163
330
2
100
AcDbEntity
  8
GAIKEI
  6
Continuous
 62
     1
100
AcDbLine
 10
-51.94543865999747
 20
11.92055101926985
 30
0.0
 11
-51.94543865999747
 21
10.32055101926988
 31
0.0
  0
LINE
  5
164
330
2
100
AcDbEntity
  8
GAIKEI
  6
Continuous
 62
     1
100
AcDbLine
 10
-52.18579505999747
 20
11.92055101926985
 30
0.0
 11
-52.18579505999747
 21
10.32055101926988
 31
0.0
  0
LINE
  5
165
330
2
100
AcDbEntity
  8
GAIKEI
  6
Continuous
 62
     1
100
AcDbLine
 10
-52.19036055999748
 20
11.92055101926985
 30
0.0
 11
-52.19036055999748
 21
10.32055101926988
 31
0.0
  0
LINE
  5
166
330
2
100
AcDbEntity
  8
GAIKEI
  6
Continuous
 62
     1
100
AcDbLine
 10
-52.3267374599975
 20
11.92055101926985
 30
0.0
 11
-52.3267374599975
 21
10.32055101926988
 31
0.0
  0
LINE
  5
167
330
2
100
AcDbEntity
  8
GAIKEI
  6
Continuous
 62
     1
100
AcDbLine
 10
-52.34263105999747
 20
11.92055101926985
 30
0.0
 11
-52.34263105999747
 21
10.32055101926988
 31
0.0
  0
LINE
  5
168
330
2
100
AcDbEntity
  8
GAIKEI
  6
Continuous
 62
     1
100
AcDbLine
 10
-52.59394935999745
 20
11.92055101926985
 30
0.0
 11
-52.59394935999745
 21
10.32055101926988
 31
0.0
  0
LINE
  5
169
330
2
100
AcDbEntity
  8
GAIKEI
  6
Continuous
 62
     1
100
AcDbLine
 10
-52.60439855999743
 20
11.92055101926985
 30
0.0
 11
-52.60439855999743
 21
10.32055101926988
 31
0.0
  0
LINE
  5
16A
330
2
100
AcDbEntity
  8
GAIKEI
  6
Continuous
 62
     1
100
AcDbLine
 10
-52.74382725999749
 20
11.92055101926985
 30
0.0
 11
-52.74382725999749
 21
10.32055101926988
 31
0.0
  0
LINE
  5
16B
330
2
100
AcDbEntity
  8
GAIKEI
  6
Continuous
 62
     1
100
AcDbLine
 10
-52.75430095999746
 20
11.92055101926985
 30
0.0
 11
-52.75430095999746
 21
10.32055101926988
 31
0.0
  0
LINE
  5
16C
330
2
100
AcDbEntity
  8
GAIKEI
  6
Continuous
 62
     1
100
AcDbLine
 10
-53.0056192599975
 20
11.92055101926985
 30
0.0
 11
-53.0056192599975
 21
10.32055101926988
 31
0.0
  0
LINE
  5
16D
330
2
100
AcDbEntity
  8
GAIKEI
  6
Continuous
 62
     1
100
AcDbLine
 10
-53.02151285999747
 20
11.92055101926985
 30
0.0
 11
-53.02151285999747
 21
10.32055101926988
 31
0.0
  0
LINE
  5
16E
330
2
100
AcDbEntity
  8
GAIKEI
  6
Continuous
 62
     1
100
AcDbLine
 10
-53.15786535999746
 20
11.92055101926985
 30
0.0
 11
-53.15786535999746
 21
10.32055101926988
 31
0.0
  0
LINE
  5
16F
330
2
100
AcDbEntity
  8
GAIKEI
  6
Continuous
 62
     1
100
AcDbLine
 10
-53.1624552599975
 20
11.92055101926985
 30
0.0
 11
-53.1624552599975
 21
10.32055101926988
 31
0.0
  0
LINE
  5
170
330
2
100
AcDbEntity
  8
GAIKEI
  6
Continuous
 62
     1
100
AcDbLine
 10
-53.40278725999747
 20
11.92055101926985
 30
0.0
 11
-53.40278725999747
 21
10.32055101926988
 31
0.0
  0
LINE
  5
171
330
2
100
AcDbEntity
  8
GAIKEI
  6
Continuous
 62
     1
100
AcDbLine
 10
-53.42339275999745
 20
11.92055101926985
 30
0.0
 11
-53.42339275999745
 21
10.32055101926988
 31
0.0
  0
LINE
  5
172
330
2
100
AcDbEntity
  8
GAIKEI
  6
Continuous
 62
     1
100
AcDbLine
 10
-53.55078535999746
 20
11.92055101926985
 30
0.0
 11
-53.55078535999746
 21
10.32055101926988
 31
0.0
  0
LINE
  5
173
330
2
100
AcDbEntity
  8
GAIKEI
  6
Continuous
 62
     1
100
AcDbLine
 10
-53.76811925999749
 20
11.92055101926985
 30
0.0
 11
-53.76811925999749
 21
10.32055101926988
 31
0.0
  0
LINE
  5
174
330
2
100
AcDbEntity
  8
GAIKEI
  6
Continuous
 62
     1
100
AcDbLine
 10
-53.79258215999744
 20
11.92055101926985
 30
0.0
 11
-53.79258215999744
 21
10.32055101926988
 31
0.0
  0
LINE
  5
175
330
2
100
AcDbEntity
  8
GAIKEI
  6
Continuous
 62
     1
100
AcDbLine
 10
-53.9053751599975
 20
11.92055101926985
 30
0.0
 11
-53.9053751599975
 21
10.32055101926988
 31
0.0
  0
LINE
  5
176
330
2
100
AcDbEntity
  8
GAIKEI
  6
Continuous
 62
     1
100
AcDbLine
 10
-54.08564855999742
 20
11.92055101926985
 30
0.0
 11
-54.08564855999742
 21
10.32055101926988
 31
0.0
  0
LINE
  5
177
330
2
100
AcDbEntity
  8
GAIKEI
  6
Continuous
 62
     1
100
AcDbLine
 10
-54.11284585999749
 20
11.92055101926985
 30
0.0
 11
-54.11284585999749
 21
10.32055101926988
 31
0.0
  0
LINE
  5
178
330
2
100
AcDbEntity
  8
GAIKEI
  6
Continuous
 62
     1
100
AcDbLine
 10
-54.20615645999749
 20
11.92055101926985
 30
0.0
 11
-54.20615645999749
 21
10.32055101926988
 31
0.0
  0
LINE
  5
179
330
2
100
AcDbEntity
  8
GAIKEI
  6
Continuous
 62
     1
100
AcDbLine
 10
-54.34145915999749
 20
11.92055101926985
 30
0.0
 11
-54.34145915999749
 21
10.32055101926988
 31
0.0
  0
LINE
  5
17A
330
2
100
AcDbEntity
  8
GAIKEI
  6
Continuous
 62
     1
100
AcDbLine
 10
-54.37024335999746
 20
11.92055101926985
 30
0.0
 11
-54.37024335999746
 21
10.32055101926988
 31
0.0
  0
LINE
  5
17B
330
2
100
AcDbEntity
  8
GAIKEI
  6
Continuous
 62
     1
100
AcDbLine
 10
-54.43996985999752
 20
11.92055101926985
 30
0.0
 11
-54.43996985999752
 21
10.32055101926988
 31
0.0
  0
LINE
  5
17C
330
2
100
AcDbEntity
  8
GAIKEI
  6
Continuous
 62
     1
100
AcDbLine
 10
-54.52441815999748
 20
11.92055101926985
 30
0.0
 11
-54.52441815999748
 21
10.32055101926988
 31
0.0
  0
LINE
  5
17D
330
2
100
AcDbEntity
  8
GAIKEI
  6
Continuous
 62
     1
100
AcDbLine
 10
-54.55351965999745
 20
11.92055101926985
 30
0.0
 11
-54.55351965999745
 21
10.32055101926988
 31
0.0
  0
LINE
  5
17E
330
2
100
AcDbEntity
  8
GAIKEI
  6
Continuous
 62
     1
100
AcDbLine
 10
-54.59661055999749
 20
11.92055101926985
 30
0.0
 11
-54.59661055999749
 21
10.32055101926988
 31
0.0
  0
LINE
  5
17F
330
2
100
AcDbEntity
  8
GAIKEI
  6
Continuous
 62
     1
100
AcDbLine
 10
-54.62651775999751
 20
11.92055101926985
 30
0.0
 11
-54.62651775999751
 21
10.32055101926988
 31
0.0
  0
LINE
  5
180
330
2
100
AcDbEntity
  8
GAIKEI
  6
Continuous
 62
     1
100
AcDbLine
 10
-54.65466715999747
 20
11.92055101926985
 30
0.0
 11
-54.65466715999747
 21
10.32055101926988
 31
0.0
  0
LINE
  5
181
330
2
100
AcDbEntity
  8
GAIKEI
  6
Continuous
100
AcDbLine
 10
-54.6692423599975
 20
11.92055101926985
 30
0.0
 11
-54.6692423599975
 21
10.32055101926988
 31
0.0
  0
ARC
  5
182
330
2
100
AcDbEntity
  8
GAIKEI
  6
Continuous
100
AcDbCircle
 10
-52.67412515999746
 20
12.92055101926985
 30
0.0
 40
3.0
100
AcDbArc
 50
284.8351169999978
 51
299.9264469999951
  0
ARC
  5
183
330
2
100
AcDbEntity
  8
GAIKEI
  6
Continuous
100
AcDbCircle
 10
-52.67412515999746
 20
12.92055101926985
 30
0.0
 40
3.0
100
AcDbArc
 50
240.0734999999937
 51
255.1648300000048
  0
LINE
  5
184
330
2
100
AcDbEntity
  8
GAIKEI
  6
Continuous
100
AcDbLine
 10
-13.05466715999745
 20
11.92055101926985
 30
0.0
 11
-13.06924235999747
 21
11.92055101926985
 31
0.0
  0
LINE
  5
185
330
2
100
AcDbEntity
  8
GAIKEI
  6
Continuous
100
AcDbLine
 10
-13.02651775999749
 20
11.92055101926985
 30
0.0
 11
-13.05466715999745
 21
11.92055101926985
 31
0.0
  0
LINE
  5
186
330
2
100
AcDbEntity
  8
GAIKEI
  6
Continuous
100
AcDbLine
 10
-12.99661055999752
 20
11.92055411926986
 30
0.0
 11
-13.02651775999749
 21
11.92055411926986
 31
0.0
  0
LINE
  5
187
330
2
100
AcDbEntity
  8
GAIKEI
  6
Continuous
100
AcDbLine
 10
-12.95354405999751
 20
11.92055101926985
 30
0.0
 11
-12.99661055999752
 21
11.92055101926985
 31
0.0
  0
LINE
  5
188
330
2
100
AcDbEntity
  8
GAIKEI
  6
Continuous
100
AcDbLine
 10
-12.92441815999751
 20
11.92055101926985
 30
0.0
 11
-12.95351965999748
 21
11.92055101926985
 31
0.0
  0
LINE
  5
189
330
2
100
AcDbEntity
  8
GAIKEI
  6
Continuous
100
AcDbLine
 10
-12.83997365999744
 20
11.92055181926986
 30
0.0
 11
-12.92442185999744
 21
11.92055531926985
 31
0.0
  0
LINE
  5
18A
330
2
100
AcDbEntity
  8
GAIKEI
  6
Continuous
100
AcDbLine
 10
-12.77026775999752
 20
11.92055101926985
 30
0.0
 11
-12.83996985999749
 21
11.92055101926985
 31
0.0
  0
LINE
  5
18B
330
2
100
AcDbEntity
  8
GAIKEI
  6
Continuous
100
AcDbLine
 10
-12.74145915999747
 20
11.92055101926985
 30
0.0
 11
-12.77024335999749
 21
11.92055101926985
 31
0.0
  0
LINE
  5
18C
330
2
100
AcDbEntity
  8
GAIKEI
  6
Continuous
100
AcDbLine
 10
-12.60613195999747
 20
11.92055411926986
 30
0.0
 11
-12.74145915999747
 21
11.92055411926986
 31
0.0
  0
LINE
  5
18D
330
2
100
AcDbEntity
  8
GAIKEI
  6
Continuous
100
AcDbLine
 10
-12.5128702599975
 20
11.92055101926985
 30
0.0
 11
-12.6061563599975
 21
11.92055101926985
 31
0.0
  0
LINE
  5
18E
330
2
100
AcDbEntity
  8
GAIKEI
  6
Continuous
100
AcDbLine
 10
-12.48562415999748
 20
11.92055101926985
 30
0.0
 11
-12.51284585999747
 21
11.92055101926985
 31
0.0
  0
LINE
  5
18F
330
2
100
AcDbEntity
  8
GAIKEI
  6
Continuous
100
AcDbLine
 10
-12.30537515999748
 20
11.92055411926986
 30
0.0
 11
-12.48564855999751
 21
11.92055411926986
 31
0.0
  0
LINE
  5
190
330
2
100
AcDbEntity
  8
GAIKEI
  6
Continuous
100
AcDbLine
 10
-12.19258215999747
 20
11.92055101926985
 30
0.0
 11
-12.30537515999748
 21
11.92055101926985
 31
0.0
  0
LINE
  5
191
330
2
100
AcDbEntity
  8
GAIKEI
  6
Continuous
100
AcDbLine
 10
-12.16811925999752
 20
11.92055101926985
 30
0.0
 11
-12.19258215999747
 21
11.92055101926985
 31
0.0
  0
LINE
  5
192
330
2
100
AcDbEntity
  8
GAIKEI
  6
Continuous
100
AcDbLine
 10
-11.95077875999743
 20
11.92055121926989
 30
0.0
 11
-12.16811265999746
 21
11.92055471926988
 31
0.0
  0
LINE
  5
193
330
2
100
AcDbEntity
  8
GAIKEI
  6
Continuous
100
AcDbLine
 10
-11.82341715999746
 20
11.92055101926985
 30
0.0
 11
-11.95078535999744
 21
11.92055101926985
 31
0.0
  0
LINE
  5
194
330
2
100
AcDbEntity
  8
GAIKEI
  6
Continuous
100
AcDbLine
 10
-11.80276285999747
 20
11.92055101926985
 30
0.0
 11
-11.82339275999749
 21
11.92055101926985
 31
0.0
  0
LINE
  5
195
330
2
100
AcDbEntity
  8
GAIKEI
  6
Continuous
100
AcDbLine
 10
-11.5624308599975
 20
11.92055101926985
 30
0.0
 11
-11.80278725999744
 21
11.92055101926985
 31
0.0
  0
LINE
  5
196
330
2
100
AcDbEntity
  8
GAIKEI
  6
Continuous
100
AcDbLine
 10
-11.55786535999749
 20
11.92055101926985
 30
0.0
 11
-11.5624308599975
 21
11.92055101926985
 31
0.0
  0
LINE
  5
197
330
2
100
AcDbEntity
  8
GAIKEI
  6
Continuous
100
AcDbLine
 10
-11.42148845999747
 20
11.92055101926985
 30
0.0
 11
-11.55786535999749
 21
11.92055101926985
 31
0.0
  0
LINE
  5
198
330
2
100
AcDbEntity
  8
GAIKEI
  6
Continuous
100
AcDbLine
 10
-11.40559485999745
 20
11.92055101926985
 30
0.0
 11
-11.42148845999747
 21
11.92055101926985
 31
0.0
  0
LINE
  5
199
330
2
100
AcDbEntity
  8
GAIKEI
  6
Continuous
100
AcDbLine
 10
-11.1543009599975
 20
11.92055101926985
 30
0.0
 11
-11.40561925999748
 21
11.92055101926985
 31
0.0
  0
LINE
  5
19A
330
2
100
AcDbEntity
  8
GAIKEI
  6
Continuous
100
AcDbLine
 10
-11.14382725999746
 20
11.92055101926985
 30
0.0
 11
-11.1543009599975
 21
11.92055101926985
 31
0.0
  0
LINE
  5
19B
330
2
100
AcDbEntity
  8
GAIKEI
  6
Continuous
100
AcDbLine
 10
-11.00439855999752
 20
11.92055101926985
 30
0.0
 11
-11.14382725999746
 21
11.92055101926985
 31
0.0
  0
LINE
  5
19C
330
2
100
AcDbEntity
  8
GAIKEI
  6
Continuous
100
AcDbLine
 10
-10.99394935999749
 20
11.92055101926985
 30
0.0
 11
-11.00439855999752
 21
11.92055101926985
 31
0.0
  0
LINE
  5
19D
330
2
100
AcDbEntity
  8
GAIKEI
  6
Continuous
100
AcDbLine
 10
-10.74263105999745
 20
11.92055101926985
 30
0.0
 11
-10.99394935999749
 21
11.92055101926985
 31
0.0
  0
LINE
  5
19E
330
2
100
AcDbEntity
  8
GAIKEI
  6
Continuous
100
AcDbLine
 10
-10.72673745999748
 20
11.92055101926985
 30
0.0
 11
-10.74263105999745
 21
11.92055101926985
 31
0.0
  0
LINE
  5
19F
330
2
100
AcDbEntity
  8
GAIKEI
  6
Continuous
100
AcDbLine
 10
-10.59036055999752
 20
11.92055101926985
 30
0.0
 11
-10.72673745999748
 21
11.92055101926985
 31
0.0
  0
LINE
  5
1A0
330
2
100
AcDbEntity
  8
GAIKEI
  6
Continuous
100
AcDbLine
 10
-10.58577065999748
 20
11.92055101926985
 30
0.0
 11
-10.59033605999752
 21
11.92055101926985
 31
0.0
  0
LINE
  5
1A1
330
2
100
AcDbEntity
  8
GAIKEI
  6
Continuous
100
AcDbLine
 10
-10.34543865999745
 20
11.92055101926985
 30
0.0
 11
-10.58579505999745
 21
11.92055101926985
 31
0.0
  0
LINE
  5
1A2
330
2
100
AcDbEntity
  8
GAIKEI
  6
Continuous
100
AcDbLine
 10
-10.32480875999749
 20
11.92055101926985
 30
0.0
 11
-10.34543865999745
 21
11.92055101926985
 31
0.0
  0
LINE
  5
1A3
330
2
100
AcDbEntity
  8
GAIKEI
  6
Continuous
100
AcDbLine
 10
-10.19746495999749
 20
11.92055101926985
 30
0.0
 11
-10.32483315999752
 21
11.92055101926985
 31
0.0
  0
LINE
  5
1A4
330
2
100
AcDbEntity
  8
GAIKEI
  6
Continuous
100
AcDbLine
 10
-9.980131059997461
 20
11.92055411926986
 30
0.0
 11
-10.19746495999749
 21
11.92055411926986
 31
0.0
  0
LINE
  5
1A5
330
2
100
AcDbEntity
  8
GAIKEI
  6
Continuous
100
AcDbLine
 10
-9.955668159997514
 20
11.92055101926985
 30
0.0
 11
-9.980106559997466
 21
11.92055101926985
 31
0.0
  0
LINE
  5
1A6
330
2
100
AcDbEntity
  8
GAIKEI
  6
Continuous
100
AcDbLine
 10
-9.842875159997447
 20
11.92055101926985
 30
0.0
 11
-9.955668159997514
 21
11.92055101926985
 31
0.0
  0
LINE
  5
1A7
330
2
100
AcDbEntity
  8
GAIKEI
  6
Continuous
100
AcDbLine
 10
-9.662601759997471
 20
11.92055411926986
 30
0.0
 11
-9.842850759997475
 21
11.92055411926986
 31
0.0
  0
LINE
  5
1A8
330
2
100
AcDbEntity
  8
GAIKEI
  6
Continuous
100
AcDbLine
 10
-9.635355659997514
 20
11.92055101926985
 30
0.0
 11
-9.662577259997476
 21
11.92055101926985
 31
0.0
  0
LINE
  5
1A9
330
2
100
AcDbEntity
  8
GAIKEI
  6
Continuous
100
AcDbLine
 10
-9.542093859997464
 20
11.92055101926985
 30
0.0
 11
-9.635380059997487
 21
11.92055101926985
 31
0.0
  0
LINE
  5
1AA
330
2
100
AcDbEntity
  8
GAIKEI
  6
Continuous
100
AcDbLine
 10
-9.406766759997481
 20
11.92055101926985
 30
0.0
 11
-9.542069459997492
 21
11.92055101926985
 31
0.0
  0
LINE
  5
1AB
330
2
100
AcDbEntity
  8
GAIKEI
  6
Continuous
100
AcDbLine
 10
-9.37795815999749
 20
11.92055101926985
 30
0.0
 11
-9.406766759997481
 21
11.92055101926985
 31
0.0
  0
LINE
  5
1AC
330
2
100
AcDbEntity
  8
GAIKEI
  6
Continuous
100
AcDbLine
 10
-9.308256059997461
 20
11.92055101926985
 30
0.0
 11
-9.377982559997462
 21
11.92055101926985
 31
0.0
  0
LINE
  5
1AD
330
2
100
AcDbEntity
  8
GAIKEI
  6
Continuous
100
AcDbLine
 10
-9.223803759997451
 20
11.92055411926986
 30
0.0
 11
-9.308251959997448
 21
11.92055071926984
 31
0.0
  0
LINE
  5
1AE
330
2
100
AcDbEntity
  8
GAIKEI
  6
Continuous
100
AcDbLine
 10
-9.194681759997479
 20
11.92055101926985
 30
0.0
 11
-9.223807759997498
 21
11.92055101926985
 31
0.0
  0
LINE
  5
1AF
330
2
100
AcDbEntity
  8
GAIKEI
  6
Continuous
100
AcDbLine
 10
-9.151615359997492
 20
11.92055101926985
 30
0.0
 11
-9.194706259997474
 21
11.92055101926985
 31
0.0
  0
LINE
  5
1B0
330
2
100
AcDbEntity
  8
GAIKEI
  6
Continuous
100
AcDbLine
 10
-9.12173255999744
 20
11.92055411926986
 30
0.0
 11
-9.151615359997492
 21
11.92055411926986
 31
0.0
  0
LINE
  5
1B1
330
2
100
AcDbEntity
  8
GAIKEI
  6
Continuous
100
AcDbLine
 10
-9.093583159997479
 20
11.92055101926985
 30
0.0
 11
-9.12173255999744
 21
11.92055101926985
 31
0.0
  0
LINE
  5
1B2
330
2
100
AcDbEntity
  8
GAIKEI
  6
Continuous
100
AcDbLine
 10
-9.078983559997482
 20
11.92055101926985
 30
0.0
 11
-9.093558759997506
 21
11.92055101926985
 31
0.0
  0
LINE
  5
1B3
330
2
100
AcDbEntity
  8
GAIKEI
  6
Continuous
 62
     1
100
AcDbLine
 10
-10.19746495999749
 20
11.92055101926985
 30
0.0
 11
-10.19746495999749
 21
10.32055101926988
 31
0.0
  0
LINE
  5
1B4
330
2
100
AcDbEntity
  8
GAIKEI
  6
Continuous
100
AcDbLine
 10
-10.30600995999748
 20
10.02055131926988
 30
0.0
 11
-11.8422403599975
 21
10.02055131926988
 31
0.0
  0
LINE
  5
1B5
330
2
100
AcDbEntity
  8
GAIKEI
  6
Continuous
100
AcDbLine
 10
-9.093558759997506
 20
10.32055101926988
 30
0.0
 11
-9.078983559997482
 21
10.32055101926988
 31
0.0
  0
LINE
  5
1B6
330
2
100
AcDbEntity
  8
GAIKEI
  6
Continuous
100
AcDbLine
 10
-9.12173255999744
 20
10.32055101926988
 30
0.0
 11
-9.093583159997479
 21
10.32055101926988
 31
0.0
  0
LINE
  5
1B7
330
2
100
AcDbEntity
  8
GAIKEI
  6
Continuous
100
AcDbLine
 10
-9.151615359997492
 20
10.32054951926989
 30
0.0
 11
-9.12173255999744
 21
10.32054951926989
 31
0.0
  0
LINE
  5
1B8
330
2
100
AcDbEntity
  8
GAIKEI
  6
Continuous
100
AcDbLine
 10
-9.194706259997474
 20
10.32055101926988
 30
0.0
 11
-9.151615359997492
 21
10.32055101926988
 31
0.0
  0
LINE
  5
1B9
330
2
100
AcDbEntity
  8
GAIKEI
  6
Continuous
100
AcDbLine
 10
-9.223807759997498
 20
10.32055101926988
 30
0.0
 11
-9.194681759997479
 21
10.32055101926988
 31
0.0
  0
LINE
  5
1BA
330
2
100
AcDbEntity
  8
GAIKEI
  6
Continuous
100
AcDbLine
 10
-9.308241859997451
 20
10.32055061926985
 30
0.0
 11
-9.223818059997483
 21
10.32054891926986
 31
0.0
  0
LINE
  5
1BB
330
2
100
AcDbEntity
  8
GAIKEI
  6
Continuous
100
AcDbLine
 10
-9.377982559997462
 20
10.32055101926988
 30
0.0
 11
-9.308256059997461
 21
10.32055101926988
 31
0.0
  0
LINE
  5
1BC
330
2
100
AcDbEntity
  8
GAIKEI
  6
Continuous
100
AcDbLine
 10
-9.406766759997481
 20
10.32055101926988
 30
0.0
 11
-9.37795815999749
 21
10.32055101926988
 31
0.0
  0
LINE
  5
1BD
330
2
100
AcDbEntity
  8
GAIKEI
  6
Continuous
100
AcDbLine
 10
-9.542069859997468
 20
10.32055151926988
 30
0.0
 11
-9.406767159997457
 21
10.3205498192699
 31
0.0
  0
LINE
  5
1BE
330
2
100
AcDbEntity
  8
GAIKEI
  6
Continuous
100
AcDbLine
 10
-9.635380059997487
 20
10.32055101926988
 30
0.0
 11
-9.542093859997464
 21
10.32055101926988
 31
0.0
  0
LINE
  5
1BF
330
2
100
AcDbEntity
  8
GAIKEI
  6
Continuous
100
AcDbLine
 10
-9.662577259997476
 20
10.32055101926988
 30
0.0
 11
-9.635355659997514
 21
10.32055101926988
 31
0.0
  0
LINE
  5
1C0
330
2
100
AcDbEntity
  8
GAIKEI
  6
Continuous
100
AcDbLine
 10
-9.842857059997527
 20
10.32055161926985
 30
0.0
 11
-9.662583659997494
 21
10.32054991926986
 31
0.0
  0
LINE
  5
1C1
330
2
100
AcDbEntity
  8
GAIKEI
  6
Continuous
100
AcDbLine
 10
-9.842850759997475
 20
10.32055101926988
 30
0.0
 11
-9.842875159997447
 21
10.32055101926988
 31
0.0
  0
LINE
  5
1C2
330
2
100
AcDbEntity
  8
GAIKEI
  6
Continuous
100
AcDbLine
 10
-9.955668159997514
 20
10.32055101926988
 30
0.0
 11
-9.842875159997447
 21
10.32055101926988
 31
0.0
  0
LINE
  5
1C3
330
2
100
AcDbEntity
  8
GAIKEI
  6
Continuous
100
AcDbLine
 10
-9.980106559997466
 20
10.32055101926988
 30
0.0
 11
-9.955668159997514
 21
10.32055101926988
 31
0.0
  0
LINE
  5
1C4
330
2
100
AcDbEntity
  8
GAIKEI
  6
Continuous
100
AcDbLine
 10
-10.19746495999749
 20
10.32054951926989
 30
0.0
 11
-9.980131059997461
 21
10.32054951926989
 31
0.0
  0
LINE
  5
1C5
330
2
100
AcDbEntity
  8
GAIKEI
  6
Continuous
100
AcDbLine
 10
-10.32483315999752
 20
10.32055101926988
 30
0.0
 11
-10.19746495999749
 21
10.32055101926988
 31
0.0
  0
LINE
  5
1C6
330
2
100
AcDbEntity
  8
GAIKEI
  6
Continuous
100
AcDbLine
 10
-10.34543865999745
 20
10.32055101926988
 30
0.0
 11
-10.32480875999749
 21
10.32055101926988
 31
0.0
  0
LINE
  5
1C7
330
2
100
AcDbEntity
  8
GAIKEI
  6
Continuous
100
AcDbLine
 10
-10.58579505999745
 20
10.32055101926988
 30
0.0
 11
-10.34543865999745
 21
10.32055101926988
 31
0.0
  0
LINE
  5
1C8
330
2
100
AcDbEntity
  8
GAIKEI
  6
Continuous
100
AcDbLine
 10
-10.59033605999752
 20
10.32055101926988
 30
0.0
 11
-10.58577065999748
 21
10.32055101926988
 31
0.0
  0
LINE
  5
1C9
330
2
100
AcDbEntity
  8
GAIKEI
  6
Continuous
100
AcDbLine
 10
-10.72673745999748
 20
10.32055101926988
 30
0.0
 11
-10.59036055999752
 21
10.32055101926988
 31
0.0
  0
LINE
  5
1CA
330
2
100
AcDbEntity
  8
GAIKEI
  6
Continuous
100
AcDbLine
 10
-10.74263105999745
 20
10.32055101926988
 30
0.0
 11
-10.72673745999748
 21
10.32055101926988
 31
0.0
  0
LINE
  5
1CB
330
2
100
AcDbEntity
  8
GAIKEI
  6
Continuous
100
AcDbLine
 10
-10.99394935999749
 20
10.32055101926988
 30
0.0
 11
-10.74263105999745
 21
10.32055101926988
 31
0.0
  0
LINE
  5
1CC
330
2
100
AcDbEntity
  8
GAIKEI
  6
Continuous
100
AcDbLine
 10
-11.00439855999752
 20
10.32055101926988
 30
0.0
 11
-10.99394935999749
 21
10.32055101926988
 31
0.0
  0
LINE
  5
1CD
330
2
100
AcDbEntity
  8
GAIKEI
  6
Continuous
100
AcDbLine
 10
-11.14382725999746
 20
10.32055101926988
 30
0.0
 11
-11.00439855999752
 21
10.32055101926988
 31
0.0
  0
LINE
  5
1CE
330
2
100
AcDbEntity
  8
GAIKEI
  6
Continuous
100
AcDbLine
 10
-11.1543009599975
 20
10.32055101926988
 30
0.0
 11
-11.14382725999746
 21
10.32055101926988
 31
0.0
  0
LINE
  5
1CF
330
2
100
AcDbEntity
  8
GAIKEI
  6
Continuous
100
AcDbLine
 10
-11.40561925999748
 20
10.32055101926988
 30
0.0
 11
-11.1543009599975
 21
10.32055101926988
 31
0.0
  0
LINE
  5
1D0
330
2
100
AcDbEntity
  8
GAIKEI
  6
Continuous
100
AcDbLine
 10
-11.42148845999747
 20
10.32055101926988
 30
0.0
 11
-11.40559485999745
 21
10.32055101926988
 31
0.0
  0
LINE
  5
1D1
330
2
100
AcDbEntity
  8
GAIKEI
  6
Continuous
100
AcDbLine
 10
-11.55786535999749
 20
10.32055101926988
 30
0.0
 11
-11.42148845999747
 21
10.32055101926988
 31
0.0
  0
LINE
  5
1D2
330
2
100
AcDbEntity
  8
GAIKEI
  6
Continuous
100
AcDbLine
 10
-11.5624308599975
 20
10.32055101926988
 30
0.0
 11
-11.55786535999749
 21
10.32055101926988
 31
0.0
  0
LINE
  5
1D3
330
2
100
AcDbEntity
  8
GAIKEI
  6
Continuous
100
AcDbLine
 10
-11.80278725999744
 20
10.32055101926988
 30
0.0
 11
-11.5624308599975
 21
10.32055101926988
 31
0.0
  0
LINE
  5
1D4
330
2
100
AcDbEntity
  8
GAIKEI
  6
Continuous
100
AcDbLine
 10
-11.82339275999749
 20
10.32055101926988
 30
0.0
 11
-11.80276285999747
 21
10.32055101926988
 31
0.0
  0
LINE
  5
1D5
330
2
100
AcDbEntity
  8
GAIKEI
  6
Continuous
100
AcDbLine
 10
-11.95078535999744
 20
10.32055101926988
 30
0.0
 11
-11.82341715999746
 21
10.32055101926988
 31
0.0
  0
LINE
  5
1D6
330
2
100
AcDbEntity
  8
GAIKEI
  6
Continuous
100
AcDbLine
 10
-12.16811925999752
 20
10.32054951926989
 30
0.0
 11
-11.95078535999744
 21
10.32054951926989
 31
0.0
  0
LINE
  5
1D7
330
2
100
AcDbEntity
  8
GAIKEI
  6
Continuous
100
AcDbLine
 10
-12.19258215999747
 20
10.32055101926988
 30
0.0
 11
-12.16811925999752
 21
10.32055101926988
 31
0.0
  0
LINE
  5
1D8
330
2
100
AcDbEntity
  8
GAIKEI
  6
Continuous
100
AcDbLine
 10
-12.30537515999748
 20
10.32055101926988
 30
0.0
 11
-12.19258215999747
 21
10.32055101926988
 31
0.0
  0
LINE
  5
1D9
330
2
100
AcDbEntity
  8
GAIKEI
  6
Continuous
100
AcDbLine
 10
-12.30535075999745
 20
10.32055101926988
 30
0.0
 11
-12.30537515999748
 21
10.32055101926988
 31
0.0
  0
LINE
  5
1DA
330
2
100
AcDbEntity
  8
GAIKEI
  6
Continuous
100
AcDbLine
 10
-12.48564855999751
 20
10.32054951926989
 30
0.0
 11
-12.30537515999748
 21
10.32054951926989
 31
0.0
  0
LINE
  5
1DB
330
2
100
AcDbEntity
  8
GAIKEI
  6
Continuous
100
AcDbLine
 10
-12.51284585999747
 20
10.32055101926988
 30
0.0
 11
-12.48562415999748
 21
10.32055101926988
 31
0.0
  0
LINE
  5
1DC
330
2
100
AcDbEntity
  8
GAIKEI
  6
Continuous
100
AcDbLine
 10
-12.6061563599975
 20
10.32055101926988
 30
0.0
 11
-12.5128702599975
 21
10.32055101926988
 31
0.0
  0
LINE
  5
1DD
330
2
100
AcDbEntity
  8
GAIKEI
  6
Continuous
100
AcDbLine
 10
-12.60613195999747
 20
10.32055101926988
 30
0.0
 11
-12.6061563599975
 21
10.32055101926988
 31
0.0
  0
LINE
  5
1DE
330
2
100
AcDbEntity
  8
GAIKEI
  6
Continuous
100
AcDbLine
 10
-12.7414587599975
 20
10.32054971926988
 30
0.0
 11
-12.60615605999749
 21
10.32055141926986
 31
0.0
  0
LINE
  5
1DF
330
2
100
AcDbEntity
  8
GAIKEI
  6
Continuous
100
AcDbLine
 10
-12.77024335999749
 20
10.32055101926988
 30
0.0
 11
-12.74145915999747
 21
10.32055101926988
 31
0.0
  0
LINE
  5
1E0
330
2
100
AcDbEntity
  8
GAIKEI
  6
Continuous
100
AcDbLine
 10
-12.83996985999749
 20
10.32055101926988
 30
0.0
 11
-12.77026775999752
 21
10.32055101926988
 31
0.0
  0
LINE
  5
1E1
330
2
100
AcDbEntity
  8
GAIKEI
  6
Continuous
100
AcDbLine
 10
-12.83994545999746
 20
10.32055101926988
 30
0.0
 11
-12.83996985999749
 21
10.32055101926988
 31
0.0
  0
LINE
  5
1E2
330
2
100
AcDbEntity
  8
GAIKEI
  6
Continuous
100
AcDbLine
 10
-12.92441815999751
 20
10.32055101926988
 30
0.0
 11
-12.83996985999749
 21
10.32055101926988
 31
0.0
  0
LINE
  5
1E3
330
2
100
AcDbEntity
  8
GAIKEI
  6
Continuous
100
AcDbLine
 10
-12.95351965999748
 20
10.32055101926988
 30
0.0
 11
-12.92441815999751
 21
10.32055101926988
 31
0.0
  0
LINE
  5
1E4
330
2
100
AcDbEntity
  8
GAIKEI
  6
Continuous
100
AcDbLine
 10
-12.99661055999752
 20
10.32055101926988
 30
0.0
 11
-12.95354405999751
 21
10.32055101926988
 31
0.0
  0
LINE
  5
1E5
330
2
100
AcDbEntity
  8
GAIKEI
  6
Continuous
100
AcDbLine
 10
-13.02651775999749
 20
10.32054951926989
 30
0.0
 11
-12.99661055999752
 21
10.32054951926989
 31
0.0
  0
LINE
  5
1E6
330
2
100
AcDbEntity
  8
GAIKEI
  6
Continuous
100
AcDbLine
 10
-13.05466715999745
 20
10.32055101926988
 30
0.0
 11
-13.02651775999749
 21
10.32055101926988
 31
0.0
  0
LINE
  5
1E7
330
2
100
AcDbEntity
  8
GAIKEI
  6
Continuous
100
AcDbLine
 10
-13.06924235999747
 20
10.32055101926988
 30
0.0
 11
-13.05466715999745
 21
10.32055101926988
 31
0.0
  0
LINE
  5
1E8
330
2
100
AcDbEntity
  8
GAIKEI
  6
Continuous
100
AcDbLine
 10
-11.8422403599975
 20
12.02055101926987
 30
0.0
 11
-11.8422403599975
 21
11.92055101926985
 31
0.0
  0
LINE
  5
1E9
330
2
100
AcDbEntity
  8
GAIKEI
  6
Continuous
100
AcDbLine
 10
-10.30600995999748
 20
11.92055101926985
 30
0.0
 11
-10.30600995999748
 21
12.02055101926987
 31
0.0
  0
LINE
  5
1EA
330
2
100
AcDbEntity
  8
GAIKEI
  6
Continuous
100
AcDbLine
 10
-9.078983559997482
 20
11.92055101926985
 30
0.0
 11
-9.078983559997482
 21
10.32055101926988
 31
0.0
  0
LINE
  5
1EB
330
2
100
AcDbEntity
  8
GAIKEI
  6
Continuous
 62
     1
100
AcDbLine
 10
-9.093558759997506
 20
11.92055101926985
 30
0.0
 11
-9.093558759997506
 21
10.32055101926988
 31
0.0
  0
LINE
  5
1EC
330
2
100
AcDbEntity
  8
GAIKEI
  6
Continuous
 62
     1
100
AcDbLine
 10
-9.12173255999744
 20
11.92055101926985
 30
0.0
 11
-9.12173255999744
 21
10.32055101926988
 31
0.0
  0
LINE
  5
1ED
330
2
100
AcDbEntity
  8
GAIKEI
  6
Continuous
 62
     1
100
AcDbLine
 10
-9.151615359997492
 20
11.92055101926985
 30
0.0
 11
-9.151615359997492
 21
10.32055101926988
 31
0.0
  0
LINE
  5
1EE
330
2
100
AcDbEntity
  8
GAIKEI
  6
Continuous
 62
     1
100
AcDbLine
 10
-9.194706259997474
 20
11.92055101926985
 30
0.0
 11
-9.194706259997474
 21
10.32055101926988
 31
0.0
  0
LINE
  5
1EF
330
2
100
AcDbEntity
  8
GAIKEI
  6
Continuous
 62
     1
100
AcDbLine
 10
-9.223807759997498
 20
11.92055101926985
 30
0.0
 11
-9.223807759997498
 21
10.32055101926988
 31
0.0
  0
LINE
  5
1F0
330
2
100
AcDbEntity
  8
GAIKEI
  6
Continuous
 62
     1
100
AcDbLine
 10
-9.308256059997461
 20
11.92055101926985
 30
0.0
 11
-9.308256059997461
 21
10.32055101926988
 31
0.0
  0
LINE
  5
1F1
330
2
100
AcDbEntity
  8
GAIKEI
  6
Continuous
 62
     1
100
AcDbLine
 10
-9.377982559997462
 20
11.92055101926985
 30
0.0
 11
-9.377982559997462
 21
10.32055101926988
 31
0.0
  0
LINE
  5
1F2
330
2
100
AcDbEntity
  8
GAIKEI
  6
Continuous
 62
     1
100
AcDbLine
 10
-9.406766759997481
 20
11.92055101926985
 30
0.0
 11
-9.406766759997481
 21
10.32055101926988
 31
0.0
  0
LINE
  5
1F3
330
2
100
AcDbEntity
  8
GAIKEI
  6
Continuous
 62
     1
100
AcDbLine
 10
-9.542069459997492
 20
11.92055101926985
 30
0.0
 11
-9.542069459997492
 21
10.32055101926988
 31
0.0
  0
LINE
  5
1F4
330
2
100
AcDbEntity
  8
GAIKEI
  6
Continuous
 62
     1
100
AcDbLine
 10
-9.635380059997487
 20
11.92055101926985
 30
0.0
 11
-9.635380059997487
 21
10.32055101926988
 31
0.0
  0
LINE
  5
1F5
330
2
100
AcDbEntity
  8
GAIKEI
  6
Continuous
 62
     1
100
AcDbLine
 10
-9.662577259997476
 20
11.92055101926985
 30
0.0
 11
-9.662577259997476
 21
10.32055101926988
 31
0.0
  0
LINE
  5
1F6
330
2
100
AcDbEntity
  8
GAIKEI
  6
Continuous
 62
     1
100
AcDbLine
 10
-9.842850759997475
 20
11.92055101926985
 30
0.0
 11
-9.842850759997475
 21
10.32055101926988
 31
0.0
  0
LINE
  5
1F7
330
2
100
AcDbEntity
  8
GAIKEI
  6
Continuous
 62
     1
100
AcDbLine
 10
-9.955668159997514
 20
11.92055101926985
 30
0.0
 11
-9.955668159997514
 21
10.32055101926988
 31
0.0
  0
LINE
  5
1F8
330
2
100
AcDbEntity
  8
GAIKEI
  6
Continuous
 62
     1
100
AcDbLine
 10
-9.980106559997466
 20
11.92055101926985
 30
0.0
 11
-9.980106559997466
 21
10.32055101926988
 31
0.0
  0
LINE
  5
1F9
330
2
100
AcDbEntity
  8
GAIKEI
  6
Continuous
 62
     1
100
AcDbLine
 10
-10.32483315999752
 20
11.92055101926985
 30
0.0
 11
-10.32483315999752
 21
10.32055101926988
 31
0.0
  0
LINE
  5
1FA
330
2
100
AcDbEntity
  8
GAIKEI
  6
Continuous
 62
     1
100
AcDbLine
 10
-10.34543865999745
 20
11.92055101926985
 30
0.0
 11
-10.34543865999745
 21
10.32055101926988
 31
0.0
  0
LINE
  5
1FB
330
2
100
AcDbEntity
  8
GAIKEI
  6
Continuous
 62
     1
100
AcDbLine
 10
-10.58579505999745
 20
11.92055101926985
 30
0.0
 11
-10.58579505999745
 21
10.32055101926988
 31
0.0
  0
LINE
  5
1FC
330
2
100
AcDbEntity
  8
GAIKEI
  6
Continuous
 62
     1
100
AcDbLine
 10
-10.59033605999752
 20
11.92055101926985
 30
0.0
 11
-10.59033605999752
 21
10.32055101926988
 31
0.0
  0
LINE
  5
1FD
330
2
100
AcDbEntity
  8
GAIKEI
  6
Continuous
 62
     1
100
AcDbLine
 10
-10.72673745999748
 20
11.92055101926985
 30
0.0
 11
-10.72673745999748
 21
10.32055101926988
 31
0.0
  0
LINE
  5
1FE
330
2
100
AcDbEntity
  8
GAIKEI
  6
Continuous
 62
     1
100
AcDbLine
 10
-10.74263105999745
 20
11.92055101926985
 30
0.0
 11
-10.74263105999745
 21
10.32055101926988
 31
0.0
  0
LINE
  5
1FF
330
2
100
AcDbEntity
  8
GAIKEI
  6
Continuous
 62
     1
100
AcDbLine
 10
-10.99394935999749
 20
11.92055101926985
 30
0.0
 11
-10.99394935999749
 21
10.32055101926988
 31
0.0
  0
LINE
  5
200
330
2
100
AcDbEntity
  8
GAIKEI
  6
Continuous
 62
     1
100
AcDbLine
 10
-11.00439855999752
 20
11.92055101926985
 30
0.0
 11
-11.00439855999752
 21
10.32055101926988
 31
0.0
  0
LINE
  5
201
330
2
100
AcDbEntity
  8
GAIKEI
  6
Continuous
 62
     1
100
AcDbLine
 10
-11.14382725999746
 20
11.92055101926985
 30
0.0
 11
-11.14382725999746
 21
10.32055101926988
 31
0.0
  0
LINE
  5
202
330
2
100
AcDbEntity
  8
GAIKEI
  6
Continuous
 62
     1
100
AcDbLine
 10
-11.1543009599975
 20
11.92055101926985
 30
0.0
 11
-11.1543009599975
 21
10.32055101926988
 31
0.0
  0
LINE
  5
203
330
2
100
AcDbEntity
  8
GAIKEI
  6
Continuous
 62
     1
100
AcDbLine
 10
-11.40561925999748
 20
11.92055101926985
 30
0.0
 11
-11.40561925999748
 21
10.32055101926988
 31
0.0
  0
LINE
  5
204
330
2
100
AcDbEntity
  8
GAIKEI
  6
Continuous
 62
     1
100
AcDbLine
 10
-11.42148845999747
 20
11.92055101926985
 30
0.0
 11
-11.42148845999747
 21
10.32055101926988
 31
0.0
  0
LINE
  5
205
330
2
100
AcDbEntity
  8
GAIKEI
  6
Continuous
 62
     1
100
AcDbLine
 10
-11.55786535999749
 20
11.92055101926985
 30
0.0
 11
-11.55786535999749
 21
10.32055101926988
 31
0.0
  0
LINE
  5
206
330
2
100
AcDbEntity
  8
GAIKEI
  6
Continuous
 62
     1
100
AcDbLine
 10
-11.5624308599975
 20
11.92055101926985
 30
0.0
 11
-11.5624308599975
 21
10.32055101926988
 31
0.0
  0
LINE
  5
207
330
2
100
AcDbEntity
  8
GAIKEI
  6
Continuous
 62
     1
100
AcDbLine
 10
-11.80278725999744
 20
11.92055101926985
 30
0.0
 11
-11.80278725999744
 21
10.32055101926988
 31
0.0
  0
LINE
  5
208
330
2
100
AcDbEntity
  8
GAIKEI
  6
Continuous
 62
     1
100
AcDbLine
 10
-11.82339275999749
 20
11.92055101926985
 30
0.0
 11
-11.82339275999749
 21
10.32055101926988
 31
0.0
  0
LINE
  5
209
330
2
100
AcDbEntity
  8
GAIKEI
  6
Continuous
 62
     1
100
AcDbLine
 10
-11.95078535999744
 20
11.92055101926985
 30
0.0
 11
-11.95078535999744
 21
10.32055101926988
 31
0.0
  0
LINE
  5
20A
330
2
100
AcDbEntity
  8
GAIKEI
  6
Continuous
 62
     1
100
AcDbLine
 10
-12.16811925999752
 20
11.92055101926985
 30
0.0
 11
-12.16811925999752
 21
10.32055101926988
 31
0.0
  0
LINE
  5
20B
330
2
100
AcDbEntity
  8
GAIKEI
  6
Continuous
 62
     1
100
AcDbLine
 10
-12.19258215999747
 20
11.92055101926985
 30
0.0
 11
-12.19258215999747
 21
10.32055101926988
 31
0.0
  0
LINE
  5
20C
330
2
100
AcDbEntity
  8
GAIKEI
  6
Continuous
 62
     1
100
AcDbLine
 10
-12.30537515999748
 20
11.92055101926985
 30
0.0
 11
-12.30537515999748
 21
10.32055101926988
 31
0.0
  0
LINE
  5
20D
330
2
100
AcDbEntity
  8
GAIKEI
  6
Continuous
 62
     1
100
AcDbLine
 10
-12.48564855999751
 20
11.92055101926985
 30
0.0
 11
-12.48564855999751
 21
10.32055101926988
 31
0.0
  0
LINE
  5
20E
330
2
100
AcDbEntity
  8
GAIKEI
  6
Continuous
 62
     1
100
AcDbLine
 10
-12.51284585999747
 20
11.92055101926985
 30
0.0
 11
-12.51284585999747
 21
10.32055101926988
 31
0.0
  0
LINE
  5
20F
330
2
100
AcDbEntity
  8
GAIKEI
  6
Continuous
 62
     1
100
AcDbLine
 10
-12.6061563599975
 20
11.92055101926985
 30
0.0
 11
-12.6061563599975
 21
10.32055101926988
 31
0.0
  0
LINE
  5
210
330
2
100
AcDbEntity
  8
GAIKEI
  6
Continuous
 62
     1
100
AcDbLine
 10
-12.74145915999747
 20
11.92055101926985
 30
0.0
 11
-12.74145915999747
 21
10.32055101926988
 31
0.0
  0
LINE
  5
211
330
2
100
AcDbEntity
  8
GAIKEI
  6
Continuous
 62
     1
100
AcDbLine
 10
-12.77024335999749
 20
11.92055101926985
 30
0.0
 11
-12.77024335999749
 21
10.32055101926988
 31
0.0
  0
LINE
  5
212
330
2
100
AcDbEntity
  8
GAIKEI
  6
Continuous
 62
     1
100
AcDbLine
 10
-12.83996985999749
 20
11.92055101926985
 30
0.0
 11
-12.83996985999749
 21
10.32055101926988
 31
0.0
  0
LINE
  5
213
330
2
100
AcDbEntity
  8
GAIKEI
  6
Continuous
 62
     1
100
AcDbLine
 10
-12.92441815999751
 20
11.92055101926985
 30
0.0
 11
-12.92441815999751
 21
10.32055101926988
 31
0.0
  0
LINE
  5
214
330
2
100
AcDbEntity
  8
GAIKEI
  6
Continuous
 62
     1
100
AcDbLine
 10
-12.95351965999748
 20
11.92055101926985
 30
0.0
 11
-12.95351965999748
 21
10.32055101926988
 31
0.0
  0
LINE
  5
215
330
2
100
AcDbEntity
  8
GAIKEI
  6
Continuous
 62
     1
100
AcDbLine
 10
-12.99661055999752
 20
11.92055101926985
 30
0.0
 11
-12.99661055999752
 21
10.32055101926988
 31
0.0
  0
LINE
  5
216
330
2
100
AcDbEntity
  8
GAIKEI
  6
Continuous
 62
     1
100
AcDbLine
 10
-13.02651775999749
 20
11.92055101926985
 30
0.0
 11
-13.02651775999749
 21
10.32055101926988
 31
0.0
  0
LINE
  5
217
330
2
100
AcDbEntity
  8
GAIKEI
  6
Continuous
 62
     1
100
AcDbLine
 10
-13.05466715999745
 20
11.92055101926985
 30
0.0
 11
-13.05466715999745
 21
10.32055101926988
 31
0.0
  0
LINE
  5
218
330
2
100
AcDbEntity
  8
GAIKEI
  6
Continuous
100
AcDbLine
 10
-13.06924235999747
 20
11.92055101926985
 30
0.0
 11
-13.06924235999747
 21
10.32055101926988
 31
0.0
  0
ARC
  5
219
330
2
100
AcDbEntity
  8
GAIKEI
  6
Continuous
100
AcDbCircle
 10
-11.07412515999749
 20
12.92055101926985
 30
0.0
 40
3.0
100
AcDbArc
 50
284.8351169999978
 51
299.9264469999951
  0
ARC
  5
21A
330
2
100
AcDbEntity
  8
GAIKEI
  6
Continuous
100
AcDbCircle
 10
-11.07412515999749
 20
12.92055101926985
 30
0.0
 40
3.0
100
AcDbArc
 50
240.0734999999937
 51
255.1648300000048
  0
LINE
  5
21B
330
2
100
AcDbEntity
  8
GAIKEI
  6
Continuous
 62
     1
100
AcDbLine
 10
-29.57412515999749
 20
9.920552019269848
 30
0.0
 11
-34.17412515999746
 21
9.920552019269848
 31
0.0
  0
LINE
  5
21C
330
2
100
AcDbEntity
  8
GAIKEI
  6
Continuous
 62
     1
100
AcDbLine
 10
-34.37412515999745
 20
10.12055101926989
 30
0.0
 11
-34.37412515999745
 21
10.32054951926989
 31
0.0
  0
LINE
  5
21D
330
2
100
AcDbEntity
  8
GAIKEI
  6
Continuous
 62
     1
100
AcDbLine
 10
-29.37412515999745
 20
10.32054951926989
 30
0.0
 11
-29.37412515999745
 21
10.12055101926989
 31
0.0
  0
ARC
  5
21E
330
2
100
AcDbEntity
  8
GAIKEI
  6
Continuous
 62
     1
100
AcDbCircle
 10
-29.57412515999749
 20
10.12055101926989
 30
0.0
 40
0.2
100
AcDbArc
 50
270.0000009999949
 51
359.999982999999
  0
ARC
  5
21F
330
2
100
AcDbEntity
  8
GAIKEI
  6
Continuous
 62
     1
100
AcDbCircle
 10
-34.17412515999746
 20
10.12055101926989
 30
0.0
 40
0.2
100
AcDbArc
 50
179.9999640000016
 51
270.0000009999949
  0
LINE
  5
220
330
2
100
AcDbEntity
  8
GAIKEI
  6
Continuous
 62
     1
100
AcDbLine
 10
-34.17412515999746
 20
10.32055101926988
 30
0.0
 11
-34.17412515999746
 21
10.12055101926989
 31
0.0
  0
LINE
  5
221
330
2
100
AcDbEntity
  8
GAIKEI
  6
Continuous
 62
     1
100
AcDbLine
 10
-34.17412515999746
 20
10.12055101926989
 30
0.0
 11
-29.57412515999749
 21
10.12055101926989
 31
0.0
  0
LINE
  5
222
330
2
100
AcDbEntity
  8
GAIKEI
  6
Continuous
 62
     1
100
AcDbLine
 10
-29.57412515999749
 20
10.12055101926989
 30
0.0
 11
-29.57412515999749
 21
10.32055101926988
 31
0.0
  0
LINE
  5
223
330
2
100
AcDbEntity
  8
GAIKEI
  6
Continuous
 62
     1
100
AcDbLine
 10
-29.57412515999749
 20
10.12055101926989
 30
0.0
 11
-29.37412515999745
 21
10.12055101926989
 31
0.0
  0
LINE
  5
224
330
2
100
AcDbEntity
  8
GAIKEI
  6
Continuous
 62
     1
100
AcDbLine
 10
-29.57412515999749
 20
9.920552019269848
 30
0.0
 11
-29.57412515999749
 21
10.12055101926989
 31
0.0
  0
LINE
  5
225
330
2
100
AcDbEntity
  8
GAIKEI
  6
Continuous
 62
     1
100
AcDbLine
 10
-34.17412515999746
 20
10.12055101926989
 30
0.0
 11
-34.17412515999746
 21
9.920552019269848
 31
0.0
  0
LINE
  5
226
330
2
100
AcDbEntity
  8
GAIKEI
  6
Continuous
 62
     1
100
AcDbLine
 10
-34.37412515999745
 20
10.12055101926989
 30
0.0
 11
-34.17412515999746
 21
10.12055101926989
 31
0.0
  0
SPLINE
  5
227
330
2
100
AcDbEntity
  8
GAIKEI
  6
Continuous
 62
     1
100
AcDbSpline
210
0.0
220
0.0
230
1.0
 70
     8
 71
     3
 72
     9
 73
     5
 74
     3
 42
0.0000000001
 43
0.0000000001
 44
0.000001
 12
-0.0000359801859974
 22
-0.9999999993527131
 32
0.0
 13
0.9999999098410434
 23
0.0004246385583656
 33
0.0
 40
0.0
 40
0.0
 40
0.0
 40
0.0
 40
0.0228091183271754
 40
0.0456250117216387
 40
0.0456250117216387
 40
0.0456250117216387
 40
0.0456250117216387
 10
16.93304223781064
 20
12.00053176458238
 30
0.0
 10
16.93304196425185
 20
11.9929287251449
 30
0.0
 10
16.93995920384412
 20
11.97745311894758
 30
0.0
 10
16.95543877175285
 20
11.97054806632968
 30
0.0
 10
16.96304406886531
 20
11.97055129583236
 30
0.0
 11
16.93304223781064
 21
12.00053176458238
 31
0.0
 11
16.94209741868502
 21
11.97959670927298
 31
0.0
 11
16.96304406886531
 21
11.97055129583236
 31
0.0
  0
SPLINE
  5
228
330
2
100
AcDbEntity
  8
GAIKEI
  6
Continuous
 62
     1
100
AcDbSpline
210
0.0
220
0.0
230
1.0
 70
     8
 71
     3
 72
     9
 73
     5
 74
     3
 42
0.0000000001
 43
0.0000000001
 44
0.000001
 12
0.9999999097983575
 22
-0.0004247390692515
 32
0.0
 13
0.0001999441164461
 23
0.999999980011175
 33
0.0
 40
0.0
 40
0.0
 40
0.0
 40
0.0
 40
0.022814713321308
 40
0.0456255157913758
 40
0.0456255157913758
 40
0.0456255157913758
 40
0.0456255157913758
 10
18.30303277736141
 20
11.97055129583236
 30
0.0
 10
18.31063768111588
 20
11.97054806573234
 30
0.0
 10
18.3261160008619
 20
11.97745490736608
 30
0.0
 10
18.33303613987863
 20
11.99292816391102
 30
0.0
 10
18.33303766017388
 20
12.00053176458238
 30
0.0
 11
18.30303277736141
 21
11.97055129583236
 31
0.0
 11
18.32397812098747
 21
11.97959676143705
 31
0.0
 11
18.33303766017388
 21
12.00053176458238
 31
0.0
  0
LINE
  5
229
330
2
100
AcDbEntity
  8
GAIKEI
  6
Continuous
 62
     1
100
AcDbLine
 10
16.93304226837699
 20
12.02055131926988
 30
0.0
 11
16.93304226837699
 21
12.00053171926987
 31
0.0
  0
LINE
  5
22A
330
2
100
AcDbEntity
  8
GAIKEI
  6
Continuous
 62
     1
100
AcDbLine
 10
18.33303766837701
 20
12.00053171926987
 30
0.0
 11
18.33303766837701
 21
12.02055131926988
 31
0.0
  0
LINE
  5
22B
330
2
100
AcDbEntity
  8
GAIKEI
  6
Continuous
 62
     1
100
AcDbLine
 10
17.97594076837703
 20
11.6205513192699
 30
0.0
 11
17.97594076837703
 21
11.52055131926988
 31
0.0
  0
LINE
  5
22C
330
2
100
AcDbEntity
  8
GAIKEI
  6
Continuous
 62
     1
100
AcDbLine
 10
17.665940168377
 20
11.6205513192699
 30
0.0
 11
17.97594076837703
 21
11.6205513192699
 31
0.0
  0
LINE
  5
22D
330
2
100
AcDbEntity
  8
GAIKEI
  6
Continuous
 62
     1
100
AcDbLine
 10
22.17593306837699
 20
11.62055121926988
 30
0.0
 11
22.17593306837699
 21
11.52055121926992
 31
0.0
  0
LINE
  5
22E
330
2
100
AcDbEntity
  8
GAIKEI
  6
Continuous
 62
     1
100
AcDbLine
 10
17.97594076837703
 20
11.6205513192699
 30
0.0
 11
22.17593306837699
 21
11.6205513192699
 31
0.0
  0
LINE
  5
22F
330
2
100
AcDbEntity
  8
GAIKEI
  6
Continuous
 62
     1
100
AcDbLine
 10
22.17593306837699
 20
11.6205513192699
 30
0.0
 11
22.57454146837699
 21
11.6205513192699
 31
0.0
  0
LINE
  5
230
330
2
100
AcDbEntity
  8
GAIKEI
  6
Continuous
 62
     1
100
AcDbLine
 10
22.17593306837699
 20
11.6205513192699
 30
0.0
 11
22.17593306837699
 21
12.02055131926988
 31
0.0
  0
LINE
  5
231
330
2
100
AcDbEntity
  8
GAIKEI
  6
Continuous
 62
     1
100
AcDbLine
 10
17.97594066837701
 20
11.6205513192699
 30
0.0
 11
17.97594066837701
 21
11.97055131926987
 31
0.0
  0
LINE
  5
232
330
2
100
AcDbEntity
  8
GAIKEI
  6
Continuous
 62
     1
100
AcDbLine
 10
49.16592336837704
 20
10.32055131926989
 30
0.0
 11
49.16592336837704
 21
10.41183551926986
 31
0.0
  0
LINE
  5
233
330
2
100
AcDbEntity
  8
GAIKEI
  6
Continuous
 62
     1
100
AcDbLine
 10
49.16592336837704
 20
10.41183551926986
 30
0.0
 11
49.67390676837704
 21
10.41183551926986
 31
0.0
  0
LINE
  5
234
330
2
100
AcDbEntity
  8
GAIKEI
  6
Continuous
 62
     1
100
AcDbLine
 10
48.66592336837704
 20
10.32055131926989
 30
0.0
 11
48.66592336837704
 21
10.41183551926986
 31
0.0
  0
LINE
  5
235
330
2
100
AcDbEntity
  8
GAIKEI
  6
Continuous
 62
     1
100
AcDbLine
 10
48.66592336837704
 20
10.41183551926986
 30
0.0
 11
49.16592336837704
 21
10.41183551926986
 31
0.0
  0
LINE
  5
236
330
2
100
AcDbEntity
  8
GAIKEI
  6
Continuous
 62
     1
100
AcDbLine
 10
48.15793996837704
 20
10.41183551926986
 30
0.0
 11
48.66592336837704
 21
10.41183551926986
 31
0.0
  0
LINE
  5
237
330
2
100
AcDbEntity
  8
GAIKEI
  6
Continuous
 62
     1
100
AcDbLine
 10
48.66592336837704
 20
10.41183551926986
 30
0.0
 11
48.66592336837704
 21
12.02055131926988
 31
0.0
  0
LINE
  5
238
330
2
100
AcDbEntity
  8
GAIKEI
  6
Continuous
 62
     1
100
AcDbLine
 10
49.16592336837704
 20
10.41183551926986
 30
0.0
 11
49.16592336837704
 21
12.02055131926988
 31
0.0
  0
CIRCLE
  5
239
330
2
100
AcDbEntity
  8
GAIKEI
  6
Continuous
 62
     1
100
AcDbCircle
 10
15.21594016837702
 20
15.06054151926992
 30
0.0
 40
0.2299999000000001
  0
CIRCLE
  5
23A
330
2
100
AcDbEntity
  8
GAIKEI
  6
Continuous
 62
     1
100
AcDbCircle
 10
49.81592336837701
 20
15.06054151926992
 30
0.0
 40
0.2299999000000001
  0
LINE
  5
23B
330
2
100
AcDbEntity
  8
GAIKEI
  6
Continuous
100
AcDbLine
 10
13.11594016837699
 20
12.02055131926988
 30
0.0
 11
13.01594016837703
 21
12.02055131926988
 31
0.0
  0
LINE
  5
23C
330
2
100
AcDbEntity
  8
GAIKEI
  6
Continuous
100
AcDbLine
 10
55.13199336837704
 20
27.37055131926991
 30
0.0
 11
55.13199336837704
 21
25.28053661926987
 31
0.0
  0
LINE
  5
23D
330
2
100
AcDbEntity
  8
GAIKEI
  6
Continuous
100
AcDbLine
 10
55.13199336837704
 20
25.28053661926987
 30
0.0
 11
55.13199336837704
 21
12.22055131926987
 31
0.0
  0
ARC
  5
23E
330
2
100
AcDbEntity
  8
GAIKEI
  6
Continuous
100
AcDbCircle
 10
13.01594016837703
 20
12.22055131926987
 30
0.0
 40
0.2
100
AcDbArc
 50
180.0000009999949
 51
269.999982999999
  0
LINE
  5
23F
330
2
100
AcDbEntity
  8
GAIKEI
  6
Continuous
100
AcDbLine
 10
12.81594016837698
 20
12.22055131926987
 30
0.0
 11
12.81594016837698
 21
14.2605415192699
 31
0.0
  0
LINE
  5
240
330
2
100
AcDbEntity
  8
GAIKEI
  6
Continuous
100
AcDbLine
 10
12.81594016837698
 20
14.2605415192699
 30
0.0
 11
12.81594016837698
 21
25.28053661926987
 31
0.0
  0
LINE
  5
241
330
2
100
AcDbEntity
  8
GAIKEI
  6
Continuous
100
AcDbLine
 10
12.81594016837698
 20
25.28053661926987
 30
0.0
 11
12.81594016837698
 21
27.3205513192699
 31
0.0
  0
ARC
  5
242
330
2
100
AcDbEntity
  8
GAIKEI
  6
Continuous
100
AcDbCircle
 10
13.01594016837703
 20
27.32055131926984
 30
0.0
 40
0.2
100
AcDbArc
 50
89.99996400000156
 51
180.0000009999949
  0
LINE
  5
243
330
2
100
AcDbEntity
  8
GAIKEI
  6
Continuous
 62
     1
100
AcDbLine
 10
13.13164906837698
 20
13.82055131926989
 30
0.0
 11
55.13199336837707
 21
13.82055131926995
 31
0.0
  0
LINE
  5
244
330
2
100
AcDbEntity
  8
GAIKEI
  6
Continuous
100
AcDbLine
 10
13.01594016837703
 20
27.52055131926989
 30
0.0
 11
54.98199336837706
 21
27.52055131926989
 31
0.0
  0
LINE
  5
245
330
2
100
AcDbEntity
  8
GAIKEI
  6
Continuous
 62
     1
100
AcDbLine
 10
13.115940468377
 20
12.02054851926988
 30
0.0
 11
13.131648868377
 21
13.82055321926987
 31
0.0
  0
CIRCLE
  5
246
330
2
100
AcDbEntity
  8
GAIKEI
  6
Continuous
 62
     1
100
AcDbCircle
 10
49.81592336837701
 20
15.06054151926992
 30
0.0
 40
0.4406187
  0
CIRCLE
  5
247
330
2
100
AcDbEntity
  8
GAIKEI
  6
Continuous
 62
     1
100
AcDbCircle
 10
49.81592336837701
 20
15.06054151926992
 30
0.0
 40
0.4905501
  0
CIRCLE
  5
248
330
2
100
AcDbEntity
  8
GAIKEI
  6
Continuous
 62
     1
100
AcDbCircle
 10
15.21594016837702
 20
15.06054151926992
 30
0.0
 40
0.4905501
  0
CIRCLE
  5
249
330
2
100
AcDbEntity
  8
GAIKEI
  6
Continuous
 62
     1
100
AcDbCircle
 10
15.21594016837702
 20
15.06054151926992
 30
0.0
 40
0.4299999999999998
  0
LINE
  5
24A
330
2
100
AcDbEntity
  8
GAIKEI
  6
Continuous
 62
     1
100
AcDbLine
 10
13.01594016837703
 20
14.2605415192699
 30
0.0
 11
55.13199336837707
 21
14.26054151926996
 31
0.0
  0
LINE
  5
24B
330
2
100
AcDbEntity
  8
GAIKEI
  6
Continuous
 62
     1
100
AcDbLine
 10
13.01594016837703
 20
25.28053661926987
 30
0.0
 11
55.13199336837704
 21
25.28053661926987
 31
0.0
  0
LINE
  5
24C
330
2
100
AcDbEntity
  8
GAIKEI
  6
Continuous
 62
     1
100
AcDbLine
 10
13.01594016837703
 20
27.52055131926989
 30
0.0
 11
13.01594016837703
 21
12.02055131926988
 31
0.0
  0
ARC
  5
24D
330
2
100
AcDbEntity
  8
GAIKEI
  6
Continuous
100
AcDbCircle
 10
54.981993368377
 20
27.37055131926991
 30
0.0
 40
0.15
100
AcDbArc
 50
359.9999820000008
 51
89.99996400000156
  0
LINE
  5
24E
330
2
100
AcDbEntity
  8
GAIKEI
  6
Continuous
 62
     1
100
AcDbLine
 10
40.39641656837699
 20
17.62311481926986
 30
0.0
 11
39.66592336837704
 21
17.62311481926986
 31
0.0
  0
LINE
  5
24F
330
2
100
AcDbEntity
  8
GAIKEI
  6
Continuous
 62
     1
100
AcDbLine
 10
40.39641656837699
 20
17.3232857192699
 30
0.0
 11
40.39641656837699
 21
17.62311481926986
 31
0.0
  0
LINE
  5
250
330
2
100
AcDbEntity
  8
GAIKEI
  6
Continuous
 62
     1
100
AcDbLine
 10
40.39641656837699
 20
21.91798781926991
 30
0.0
 11
40.39641656837699
 21
22.21779251926989
 31
0.0
  0
LINE
  5
251
330
2
100
AcDbEntity
  8
GAIKEI
  6
Continuous
 62
     1
100
AcDbLine
 10
39.66592336837704
 20
21.91798781926991
 30
0.0
 11
40.39641656837699
 21
21.91798781926991
 31
0.0
  0
LINE
  5
252
330
2
100
AcDbEntity
  8
GAIKEI
  6
Continuous
 62
     1
100
AcDbLine
 10
40.39641656837699
 20
21.91798781926991
 30
0.0
 11
40.39641656837699
 21
17.62311481926986
 31
0.0
  0
LINE
  5
253
330
2
100
AcDbEntity
  8
GAIKEI
  6
Continuous
 62
     1
100
AcDbLine
 10
39.75469286837705
 20
17.09486771926987
 30
0.0
 11
39.75469286837705
 21
15.12055131926991
 31
0.0
  0
ARC
  5
254
330
2
100
AcDbEntity
  8
GAIKEI
  6
Continuous
 62
     1
100
AcDbCircle
 10
39.375933168377
 20
15.12055131926991
 30
0.0
 40
0.3787605999999998
100
AcDbArc
 50
270.0
 51
359.9999820000008
  0
LINE
  5
255
330
2
100
AcDbEntity
  8
GAIKEI
  6
Continuous
 62
     1
100
AcDbLine
 10
39.37593316837706
 20
14.74179151926989
 30
0.0
 11
17.76594016837703
 21
14.74179151926989
 31
0.0
  0
ARC
  5
256
330
2
100
AcDbEntity
  8
GAIKEI
  6
Continuous
 62
     1
100
AcDbCircle
 10
17.76594016837703
 20
15.12055131926991
 30
0.0
 40
0.3787605999999998
100
AcDbArc
 50
180.0000009999949
 51
269.999982999999
  0
LINE
  5
257
330
2
100
AcDbEntity
  8
GAIKEI
  6
Continuous
 62
     1
100
AcDbLine
 10
17.38713156837701
 20
15.12055131926991
 30
0.0
 11
17.38713156837701
 21
24.42055131926986
 31
0.0
  0
ARC
  5
258
330
2
100
AcDbEntity
  8
GAIKEI
  6
Continuous
 62
     1
100
AcDbCircle
 10
17.76594016837703
 20
24.42055131926986
 30
0.0
 40
0.3787605999999998
100
AcDbArc
 50
89.99996400000156
 51
180.0000009999949
  0
LINE
  5
259
330
2
100
AcDbEntity
  8
GAIKEI
  6
Continuous
 62
     1
100
AcDbLine
 10
17.76594016837703
 20
24.79931101926991
 30
0.0
 11
39.37593316837706
 21
24.79931101926991
 31
0.0
  0
ARC
  5
25A
330
2
100
AcDbEntity
  8
GAIKEI
  6
Continuous
 62
     1
100
AcDbCircle
 10
39.375933168377
 20
24.42055131926986
 30
0.0
 40
0.3787605999999998
100
AcDbArc
 50
359.9999820000008
 51
89.99996400000156
  0
LINE
  5
25B
330
2
100
AcDbEntity
  8
GAIKEI
  6
Continuous
 62
     1
100
AcDbLine
 10
39.75469286837705
 20
24.42055131926986
 30
0.0
 11
39.75469286837705
 21
22.4462104192699
 31
0.0
  0
LINE
  5
25C
330
2
100
AcDbEntity
  8
GAIKEI
  6
Continuous
 62
     1
100
AcDbLine
 10
39.75469296837701
 20
22.44621051926987
 30
0.0
 11
41.603521068377
 21
22.44621051926987
 31
0.0
  0
SPLINE
  5
25D
330
2
100
AcDbEntity
  8
GAIKEI
  6
Continuous
 62
     1
100
AcDbSpline
210
0.0
220
0.0
230
1.0
 70
     8
 71
     3
 72
     9
 73
     5
 74
     3
 42
0.0000000001
 43
0.0000000001
 44
0.000001
 12
0.9999999945136631
 22
-0.0001047505321455
 32
0.0
 13
-0.0000507765463937
 23
-0.9999999987108711
 33
0.0
 40
0.0
 40
0.0
 40
0.0
 40
0.0
 40
0.2250236102898508
 40
0.7670415735727283
 40
0.7670415735727283
 40
0.7670415735727283
 40
0.7670415735727283
 10
41.60352105861142
 20
22.4462348895824
 30
0.0
 10
41.67852892829651
 20
22.4462270324681
 30
0.0
 10
41.93655016743656
 20
22.40282417368982
 30
0.0
 10
42.12557613098235
 20
22.13144855940209
 30
0.0
 10
42.12556695704892
 20
21.95077590520737
 30
0.0
 11
41.60352105861142
 21
22.4462348895824
 31
0.0
 11
41.82398004298642
 21
22.40114211614491
 31
0.0
 11
42.12556695704892
 21
21.95077590520737
 31
0.0
  0
LINE
  5
25E
330
2
100
AcDbEntity
  8
GAIKEI
  6
Continuous
 62
     1
100
AcDbLine
 10
42.12556696837703
 20
21.95072711926991
 30
0.0
 11
42.12556696837703
 21
17.59035111926988
 31
0.0
  0
SPLINE
  5
25F
330
2
100
AcDbEntity
  8
GAIKEI
  6
Continuous
 62
     1
100
AcDbSpline
210
0.0
220
0.0
230
1.0
 70
     8
 71
     3
 72
     9
 73
     5
 74
     3
 42
0.0000000001
 43
0.0000000001
 44
0.000001
 12
-0.0006415001725412
 22
-0.9999997942387432
 32
0.0
 13
-0.9999999997546614
 23
0.0000221512341493
 33
0.0
 40
0.0
 40
0.0
 40
0.0
 40
0.0
 40
0.4107842435658897
 40
0.7796081822822263
 40
0.7796081822822263
 40
0.7796081822822263
 40
0.7796081822822263
 10
42.12556695704892
 20
17.59035110051991
 30
0.0
 10
42.12547911766122
 20
17.45342304750576
 30
0.0
 10
41.99772515362044
 20
17.18189003149348
 30
0.0
 10
41.72646237148669
 20
17.0948649787806
 30
0.0
 10
41.60352105861142
 20
17.09486770208241
 30
0.0
 11
42.12556695704892
 21
17.59035110051991
 31
0.0
 11
41.95100641017392
 21
17.21850051458239
 31
0.0
 11
41.60352105861142
 21
17.09486770208241
 31
0.0
  0
LINE
  5
260
330
2
100
AcDbEntity
  8
GAIKEI
  6
Continuous
 62
     1
100
AcDbLine
 10
41.603521068377
 20
17.09486771926987
 30
0.0
 11
39.75469296837701
 21
17.09486771926987
 31
0.0
  0
SPLINE
  5
261
330
2
100
AcDbEntity
  8
GAIKEI
  6
Continuous
 62
     1
100
AcDbSpline
210
0.0
220
0.0
230
1.0
 70
     8
 71
     3
 72
     9
 73
     5
 74
     3
 42
0.0000000001
 43
0.0000000001
 44
0.000001
 12
0.0030894571282124
 22
-0.9999952276159385
 32
0.0
 13
-0.9999739602529967
 23
0.0072165653837817
 33
0.0
 40
0.0
 40
0.0
 40
0.0
 40
0.0
 40
0.2475566093563242
 40
0.4810702892459933
 40
0.4810702892459933
 40
0.4810702892459933
 40
0.4810702892459933
 10
41.93342828517393
 20
17.59035110051991
 30
0.0
 10
41.93368322368439
 20
17.50783262454621
 30
0.0
 10
41.85062518122871
 20
17.34042190008469
 30
0.0
 10
41.68135692502892
 20
17.29418390952358
 30
0.0
 10
41.60352105861142
 20
17.2947456317699
 30
0.0
 11
41.93342828517393
 21
17.59035110051991
 31
0.0
 11
41.82537164454891
 21
17.3676216083324
 31
0.0
 11
41.60352105861142
 21
17.2947456317699
 31
0.0
  0
SPLINE
  5
262
330
2
100
AcDbEntity
  8
GAIKEI
  6
Continuous
 62
     1
100
AcDbSpline
210
0.0
220
0.0
230
1.0
 70
     8
 71
     3
 72
     9
 73
     5
 74
     3
 42
0.0000000001
 43
0.0000000001
 44
0.000001
 12
0.9999999994390073
 22
-0.0000334960536252
 32
0.0
 13
0.9954472565751583
 23
-0.0953140040969372
 33
0.0
 40
0.0
 40
0.0
 40
0.0
 40
0.0
 40
0.9606391395049048
 40
1.537517925658127
 40
1.537517925658127
 40
1.537517925658127
 40
1.537517925658127
 10
40.3964165664239
 20
17.6231147723949
 30
0.0
 10
40.71662961274592
 20
17.62310404652152
 30
0.0
 10
41.22872077138004
 20
17.61416167021116
 30
0.0
 10
41.74201081682304
 20
17.60867930951554
 30
0.0
 10
41.93342828517393
 20
17.59035110051991
 30
0.0
 11
40.3964165664239
 21
17.6231147723949
 31
0.0
 11
41.35700528388452
 21
17.61327937833044
 31
0.0
 11
41.93342828517393
 21
17.59035110051991
 31
0.0
  0
SPLINE
  5
263
330
2
100
AcDbEntity
  8
GAIKEI
  6
Continuous
 62
     1
100
AcDbSpline
210
0.0
220
0.0
230
1.0
 70
     8
 71
     3
 72
     9
 73
     5
 74
     3
 42
0.0000000001
 43
0.0000000001
 44
0.000001
 12
0.9999722406974347
 22
0.0074510290934466
 32
0.0
 13
-0.0044982697799815
 23
-0.9999898827333137
 33
0.0
 40
0.0
 40
0.0
 40
0.0
 40
0.0
 40
0.1442554629914342
 40
0.4728156950081893
 40
0.4728156950081893
 40
0.4728156950081893
 40
0.4728156950081893
 10
41.60352105861142
 20
22.24633254583239
 30
0.0
 10
41.65160487813156
 20
22.24669082971627
 30
0.0
 10
41.81080935858779
 20
22.22515538646113
 30
0.0
 10
41.93392093602812
 20
22.06029487450246
 30
0.0
 10
41.93342828517393
 20
21.95077590520737
 30
0.0
 11
41.60352105861142
 21
22.24633254583239
 31
0.0
 11
41.74539117579889
 21
22.22020949895739
 31
0.0
 11
41.93342828517393
 21
21.95077590520737
 31
0.0
  0
SPLINE
  5
264
330
2
100
AcDbEntity
  8
GAIKEI
  6
Continuous
 62
     1
100
AcDbSpline
210
0.0
220
0.0
230
1.0
 70
     8
 71
     3
 72
     9
 73
     5
 74
     3
 42
0.0000000001
 43
0.0000000001
 44
0.000001
 12
-0.9952301696868319
 22
-0.097554647993419
 32
0.0
 13
-0.9999999999075649
 23
0.0000135966960827
 33
0.0
 40
0.0
 40
0.0
 40
0.0
 40
0.0
 40
0.5769208660303464
 40
1.537523536493255
 40
1.537523536493255
 40
1.537523536493255
 40
1.537523536493255
 10
41.93342828517393
 20
21.95077590520737
 30
0.0
 10
41.74203860137552
 20
21.93201546787216
 30
0.0
 10
41.2286837759926
 20
21.92695141077672
 30
0.0
 10
40.71661745654862
 20
21.91798346559571
 30
0.0
 10
40.3964165664239
 20
21.91798781926991
 30
0.0
 11
41.93342828517393
 21
21.95077590520737
 31
0.0
 11
41.35697040324646
 21
21.92766646895689
 31
0.0
 11
40.3964165664239
 21
21.91798781926991
 31
0.0
  0
SPLINE
  5
265
330
2
100
AcDbEntity
  8
GAIKEI
  6
Continuous
 62
     1
100
AcDbSpline
210
0.0
220
0.0
230
1.0
 70
     8
 71
     3
 72
     9
 73
     5
 74
     3
 42
0.0000000001
 43
0.0000000001
 44
0.000001
 12
-0.9962219214731836
 22
-0.0868440163527577
 32
0.0
 13
-0.9999999997571146
 23
-0.0000220402098375
 33
0.0
 40
0.0
 40
0.0
 40
0.0
 40
0.0
 40
0.4790974923049448
 40
1.207583632153768
 40
1.207583632153768
 40
1.207583632153768
 40
1.207583632153768
 10
41.60352105861142
 20
22.24633254583239
 30
0.0
 10
41.4444252504924
 20
22.23246362901364
 30
0.0
 10
41.04158307296512
 20
22.22369886719034
 30
0.0
 10
40.63924527964786
 20
22.21779785876569
 30
0.0
 10
40.3964165664239
 20
22.21779250676991
 30
0.0
 11
41.60352105861142
 21
22.24633254583239
 31
0.0
 11
41.12485683923199
 21
22.22596071499646
 31
0.0
 11
40.3964165664239
 21
22.21779250676991
 31
0.0
  0
LINE
  5
266
330
2
100
AcDbEntity
  8
GAIKEI
  6
Continuous
 62
     1
100
AcDbLine
 10
41.93342826837704
 20
17.59035111926988
 30
0.0
 11
41.93342826837704
 21
21.95072711926991
 31
0.0
  0
LINE
  5
267
330
2
100
AcDbEntity
  8
GAIKEI
  6
Continuous
 62
     1
100
AcDbLine
 10
41.603521068377
 20
17.29474561926986
 30
0.0
 11
39.749639268377
 21
17.29474561926986
 31
0.0
  0
LINE
  5
268
330
2
100
AcDbEntity
  8
GAIKEI
  6
Continuous
 62
     1
100
AcDbLine
 10
39.749639268377
 20
22.24633251926992
 30
0.0
 11
41.603521068377
 21
22.24633251926992
 31
0.0
  0
SPLINE
  5
269
330
2
100
AcDbEntity
  8
GAIKEI
  6
Continuous
 62
     1
100
AcDbSpline
210
0.0
220
0.0
230
1.0
 70
     8
 71
     3
 72
     9
 73
     5
 74
     3
 42
0.0000000001
 43
0.0000000001
 44
0.000001
 12
0.0001272526161599
 22
-0.9999999919033857
 32
0.0
 13
-0.6010462563449485
 23
-0.7992142376945763
 33
0.0
 40
0.0
 40
0.0
 40
0.0
 40
0.0
 40
0.1385590750849553
 40
0.200000313512155
 40
0.200000313512155
 40
0.200000313512155
 40
0.200000313512155
 10
39.75469293361141
 20
22.4462348895824
 30
0.0
 10
39.75469881094634
 20
22.4000485315947
 30
0.0
 10
39.74228505703846
 20
22.33793549277146
 30
0.0
 10
39.7619488981212
 20
22.26270078334326
 30
0.0
 10
39.74963922267392
 20
22.24633254583239
 30
0.0
 11
39.75469293361141
 21
22.4462348895824
 31
0.0
 11
39.75289360752118
 21
22.30768783713938
 31
0.0
 11
39.74963922267392
 21
22.24633254583239
 31
0.0
  0
LINE
  5
26A
330
2
100
AcDbEntity
  8
GAIKEI
  6
Continuous
 62
     1
100
AcDbLine
 10
41.603521068377
 20
22.24633251926992
 30
0.0
 11
41.603521068377
 21
22.44621051926987
 31
0.0
  0
LINE
  5
26B
330
2
100
AcDbEntity
  8
GAIKEI
  6
Continuous
 62
     1
100
AcDbLine
 10
41.93343056837704
 20
21.95076461926988
 30
0.0
 11
42.12556926837703
 21
21.95076431926986
 31
0.0
  0
LINE
  5
26C
330
2
100
AcDbEntity
  8
GAIKEI
  6
Continuous
 62
     1
100
AcDbLine
 10
41.93342826837704
 20
17.59035111926988
 30
0.0
 11
42.12556696837703
 21
17.59035111926988
 31
0.0
  0
LINE
  5
26D
330
2
100
AcDbEntity
  8
GAIKEI
  6
Continuous
 62
     1
100
AcDbLine
 10
41.603521068377
 20
17.29474561926986
 30
0.0
 11
41.603521068377
 21
17.09486771926987
 31
0.0
  0
SPLINE
  5
26E
330
2
100
AcDbEntity
  8
GAIKEI
  6
Continuous
 62
     1
100
AcDbSpline
210
0.0
220
0.0
230
1.0
 70
     8
 71
     3
 72
     9
 73
     5
 74
     3
 42
0.0000000001
 43
0.0000000001
 44
0.000001
 12
0.6039334252767212
 22
-0.797034765762151
 32
0.0
 13
-0.0001271828479802
 23
-0.9999999919122616
 33
0.0
 40
0.0
 40
0.0
 40
0.0
 40
0.0
 40
0.0614280083452533
 40
0.1999759866734408
 40
0.1999759866734408
 40
0.1999759866734408
 40
0.1999759866734408
 10
39.74963922267392
 20
17.2947456317699
 30
0.0
 10
39.76200536516987
 20
17.278425545689
 30
0.0
 10
39.74222401589282
 20
17.20310549658805
 30
0.0
 10
39.75469880725356
 20
17.14105036115163
 30
0.0
 10
39.75469293361141
 20
17.09486770208241
 30
0.0
 11
39.74963922267392
 21
17.2947456317699
 31
0.0
 11
39.75289529555494
 21
17.23340367700217
 31
0.0
 11
39.75469293361141
 21
17.09486770208241
 31
0.0
  0
LINE
  5
26F
330
2
100
AcDbEntity
  8
GAIKEI
  6
Continuous
 62
     1
100
AcDbLine
 10
17.529111568377
 20
24.42055131926986
 30
0.0
 11
17.529111568377
 21
15.12055131926991
 31
0.0
  0
SPLINE
  5
270
330
2
100
AcDbEntity
  8
GAIKEI
  6
Continuous
 62
     1
100
AcDbSpline
210
0.0
220
0.0
230
1.0
 70
     8
 71
     3
 72
     9
 73
     5
 74
     3
 42
0.0000000001
 43
0.0000000001
 44
0.000001
 12
0.0001736743318964
 22
-0.9999999849186131
 32
0.0
 13
0.9999999893378511
 23
0.0001460284141218
 33
0.0
 40
0.0
 40
0.0
 40
0.0
 40
0.0
 40
0.1809125820784042
 40
0.3618144121603755
 40
0.3618144121603755
 40
0.3618144121603755
 40
0.3618144121603755
 10
17.52910547023248
 20
15.1205512958324
 30
0.0
 10
17.52911594352309
 20
15.06024710271575
 30
0.0
 10
17.58089971518683
 20
14.93551992260046
 30
0.0
 10
17.70563500000827
 20
14.88370166991743
 30
0.0
 10
17.76593560939267
 20
14.88371047551988
 30
0.0
 11
17.52910547023248
 21
15.1205512958324
 31
0.0
 11
17.59913950736131
 21
14.95374382600494
 31
0.0
 11
17.76593560939267
 21
14.88371047551988
 31
0.0
  0
LINE
  5
271
330
2
100
AcDbEntity
  8
GAIKEI
  6
Continuous
 62
     1
100
AcDbLine
 10
17.76594016837703
 20
14.88371051926987
 30
0.0
 11
39.36592336837703
 21
14.88371051926987
 31
0.0
  0
SPLINE
  5
272
330
2
100
AcDbEntity
  8
GAIKEI
  6
Continuous
 62
     1
100
AcDbSpline
210
0.0
220
0.0
230
1.0
 70
     8
 71
     3
 72
     9
 73
     5
 74
     3
 42
0.0000000001
 43
0.0000000001
 44
0.000001
 12
0.9999999907799267
 22
-0.0001357945011297
 32
0.0
 13
-0.0001426622183006
 23
0.9999999898237458
 33
0.0
 40
0.0
 40
0.0
 40
0.0
 40
0.0
 40
0.1809116358628979
 40
0.3618310285305651
 40
0.3618310285305651
 40
0.3618310285305651
 40
0.3618310285305651
 10
39.36592340236143
 20
14.88371047551988
 30
0.0
 10
39.42622728042639
 20
14.88370228658476
 30
0.0
 10
39.55097010174902
 20
14.93550140095868
 30
0.0
 10
39.60277282612793
 20
15.06024483222353
 30
0.0
 10
39.60276422267396
 20
15.1205512958324
 30
0.0
 11
39.36592340236143
 21
14.88371047551988
 31
0.0
 11
39.53273389218862
 21
14.95373488069231
 31
0.0
 11
39.60276422267396
 21
15.1205512958324
 31
0.0
  0
LINE
  5
273
330
2
100
AcDbEntity
  8
GAIKEI
  6
Continuous
 62
     1
100
AcDbLine
 10
39.60276426837703
 20
15.12055131926991
 30
0.0
 11
39.60276426837703
 21
24.42055131926986
 31
0.0
  0
SPLINE
  5
274
330
2
100
AcDbEntity
  8
GAIKEI
  6
Continuous
 62
     1
100
AcDbSpline
210
0.0
220
0.0
230
1.0
 70
     8
 71
     3
 72
     9
 73
     5
 74
     3
 42
0.0000000001
 43
0.0000000001
 44
0.000001
 12
0.0001602853249288
 22
0.9999999871543073
 32
0.0
 13
-0.9999999999910924
 23
-0.0000042207988632
 33
0.0
 40
0.0
 40
0.0
 40
0.0
 40
0.0
 40
0.1808922013790344
 40
0.361809872320551
 40
0.361809872320551
 40
0.361809872320551
 40
0.361809872320551
 10
39.60276422267396
 20
24.42055129583241
 30
0.0
 10
39.60277388746238
 20
24.48084869551752
 30
0.0
 10
39.55096306994582
 20
24.60558362641962
 30
0.0
 10
39.42622929267472
 20
24.65736795662144
 30
0.0
 10
39.36592340236143
 20
24.65736770208241
 30
0.0
 11
39.60276422267396
 21
24.42055129583241
 31
0.0
 11
39.53273924968284
 21
24.58734047149119
 31
0.0
 11
39.36592340236143
 21
24.65736770208241
 31
0.0
  0
LINE
  5
275
330
2
100
AcDbEntity
  8
GAIKEI
  6
Continuous
 62
     1
100
AcDbLine
 10
39.36592336837703
 20
24.65736771926987
 30
0.0
 11
17.76594016837703
 21
24.65736771926987
 31
0.0
  0
SPLINE
  5
276
330
2
100
AcDbEntity
  8
GAIKEI
  6
Continuous
 62
     1
100
AcDbSpline
210
0.0
220
0.0
230
1.0
 70
     8
 71
     3
 72
     9
 73
     5
 74
     3
 42
0.0000000001
 43
0.0000000001
 44
0.000001
 12
-0.9999999999922298
 22
0.0000039421808572
 32
0.0
 13
-0.0001546433183978
 23
-0.9999999880427219
 33
0.0
 40
0.0
 40
0.0
 40
0.0
 40
0.0
 40
0.1808914546835169
 40
0.3617971649710581
 40
0.3617971649710581
 40
0.3617971649710581
 40
0.3617971649710581
 10
17.76593560939267
 20
24.65736770208241
 30
0.0
 10
17.70563845783198
 20
24.65736793978468
 30
0.0
 10
17.58090688240813
 20
24.60557947839575
 30
0.0
 10
17.52911479551898
 20
24.48085319854056
 30
0.0
 10
17.52910547023254
 20
24.42055129583241
 30
0.0
 11
17.76593560939267
 21
24.65736770208241
 31
0.0
 11
17.59914452473651
 21
24.58734920795484
 31
0.0
 11
17.52910547023254
 21
24.42055129583241
 31
0.0
  0
LINE
  5
277
330
2
100
AcDbEntity
  8
GAIKEI
  6
Continuous
 62
     1
100
AcDbLine
 10
20.05476626837702
 20
17.17641071926988
 30
0.0
 11
20.05476626837702
 21
17.74467241926987
 31
0.0
  0
LINE
  5
278
330
2
100
AcDbEntity
  8
GAIKEI
  6
Continuous
 62
     1
100
AcDbLine
 10
34.37710506837703
 20
17.74467241926987
 30
0.0
 11
34.37710506837703
 21
17.17641071926988
 31
0.0
  0
LINE
  5
279
330
2
100
AcDbEntity
  8
GAIKEI
  6
Continuous
 62
     1
100
AcDbLine
 10
20.05476626837702
 20
17.9464058192699
 30
0.0
 11
20.05476626837702
 21
18.51466751926989
 31
0.0
  0
LINE
  5
27A
330
2
100
AcDbEntity
  8
GAIKEI
  6
Continuous
 62
     1
100
AcDbLine
 10
34.37710506837703
 20
18.51466751926989
 30
0.0
 11
34.37710506837703
 21
17.9464058192699
 31
0.0
  0
LINE
  5
27B
330
2
100
AcDbEntity
  8
GAIKEI
  6
Continuous
 62
     1
100
AcDbLine
 10
20.05476626837702
 20
18.71640091926991
 30
0.0
 11
20.05476626837702
 21
19.28468701926988
 31
0.0
  0
LINE
  5
27C
330
2
100
AcDbEntity
  8
GAIKEI
  6
Continuous
 62
     1
100
AcDbLine
 10
34.37710506837703
 20
19.28468701926988
 30
0.0
 11
34.37710506837703
 21
18.71640091926991
 31
0.0
  0
LINE
  5
27D
330
2
100
AcDbEntity
  8
GAIKEI
  6
Continuous
 62
     1
100
AcDbLine
 10
20.05476626837702
 20
19.48642041926985
 30
0.0
 11
20.05476626837702
 21
20.0546821192699
 31
0.0
  0
LINE
  5
27E
330
2
100
AcDbEntity
  8
GAIKEI
  6
Continuous
 62
     1
100
AcDbLine
 10
34.37710506837703
 20
20.0546821192699
 30
0.0
 11
34.37710506837703
 21
19.48642041926985
 31
0.0
  0
LINE
  5
27F
330
2
100
AcDbEntity
  8
GAIKEI
  6
Continuous
 62
     1
100
AcDbLine
 10
20.05476626837702
 20
20.25641551926987
 30
0.0
 11
20.05476626837702
 21
20.82467731926988
 31
0.0
  0
LINE
  5
280
330
2
100
AcDbEntity
  8
GAIKEI
  6
Continuous
 62
     1
100
AcDbLine
 10
34.37710506837703
 20
20.82467731926988
 30
0.0
 11
34.37710506837703
 21
20.25641551926987
 31
0.0
  0
LINE
  5
281
330
2
100
AcDbEntity
  8
GAIKEI
  6
Continuous
 62
     1
100
AcDbLine
 10
20.05476626837702
 20
21.0264107192699
 30
0.0
 11
20.05476626837702
 21
21.5946724192699
 31
0.0
  0
LINE
  5
282
330
2
100
AcDbEntity
  8
GAIKEI
  6
Continuous
 62
     1
100
AcDbLine
 10
34.37710506837703
 20
21.5946724192699
 30
0.0
 11
34.37710506837703
 21
21.0264107192699
 31
0.0
  0
LINE
  5
283
330
2
100
AcDbEntity
  8
GAIKEI
  6
Continuous
 62
     1
100
AcDbLine
 10
20.05476626837702
 20
21.79640581926987
 30
0.0
 11
20.05476626837702
 21
22.36466751926991
 31
0.0
  0
LINE
  5
284
330
2
100
AcDbEntity
  8
GAIKEI
  6
Continuous
 62
     1
100
AcDbLine
 10
34.37710506837703
 20
22.36466751926991
 30
0.0
 11
34.37710506837703
 21
21.79640581926987
 31
0.0
  0
LINE
  5
285
330
2
100
AcDbEntity
  8
GAIKEI
  6
Continuous
 62
     1
100
AcDbLine
 10
20.05476626837702
 20
16.4064155192699
 30
0.0
 11
20.05476626837702
 21
16.97467731926986
 31
0.0
  0
LINE
  5
286
330
2
100
AcDbEntity
  8
GAIKEI
  6
Continuous
 62
     1
100
AcDbLine
 10
34.37710506837703
 20
16.97467731926986
 30
0.0
 11
34.37710506837703
 21
16.4064155192699
 31
0.0
  0
LINE
  5
287
330
2
100
AcDbEntity
  8
GAIKEI
  6
Continuous
 62
     1
100
AcDbLine
 10
20.05476626837702
 20
22.56640091926988
 30
0.0
 11
20.05476626837702
 21
23.13468701926991
 31
0.0
  0
LINE
  5
288
330
2
100
AcDbEntity
  8
GAIKEI
  6
Continuous
 62
     1
100
AcDbLine
 10
34.37710506837703
 20
23.13468701926991
 30
0.0
 11
34.37710506837703
 21
22.56640091926988
 31
0.0
  0
CIRCLE
  5
289
330
2
100
AcDbEntity
  8
GAIKEI
  6
Continuous
 62
     1
100
AcDbCircle
 10
38.06592336837701
 20
19.77055131926988
 30
0.0
 40
0.4799330999999998
  0
CIRCLE
  5
28A
330
2
100
AcDbEntity
  8
GAIKEI
  6
Continuous
 62
     1
100
AcDbCircle
 10
38.06592336837701
 20
19.77055131926988
 30
0.0
 40
0.2054729999999998
  0
CIRCLE
  5
28B
330
2
100
AcDbEntity
  8
GAIKEI
  6
Continuous
 62
     1
100
AcDbCircle
 10
38.06592336837701
 20
19.77055131926988
 30
0.0
 40
0.2028547999999998
  0
CIRCLE
  5
28C
330
2
100
AcDbEntity
  8
GAIKEI
  6
Continuous
 62
     1
100
AcDbCircle
 10
38.06592336837701
 20
19.77055131926988
 30
0.0
 40
0.8
  0
LINE
  5
28D
330
2
100
AcDbEntity
  8
GAIKEI
  6
Continuous
 62
     1
100
AcDbLine
 10
34.37710506837703
 20
22.56640091926988
 30
0.0
 11
20.05476626837702
 21
22.56640091926988
 31
0.0
  0
LINE
  5
28E
330
2
100
AcDbEntity
  8
GAIKEI
  6
Continuous
 62
     1
100
AcDbLine
 10
20.05476626837702
 20
23.13468701926991
 30
0.0
 11
34.37710506837703
 21
23.13468701926991
 31
0.0
  0
LINE
  5
28F
330
2
100
AcDbEntity
  8
GAIKEI
  6
Continuous
 62
     1
100
AcDbLine
 10
34.37710506837703
 20
21.79640581926987
 30
0.0
 11
20.05476626837702
 21
21.79640581926987
 31
0.0
  0
LINE
  5
290
330
2
100
AcDbEntity
  8
GAIKEI
  6
Continuous
 62
     1
100
AcDbLine
 10
20.05476626837702
 20
22.36466751926991
 30
0.0
 11
34.37710506837703
 21
22.36466751926991
 31
0.0
  0
LINE
  5
291
330
2
100
AcDbEntity
  8
GAIKEI
  6
Continuous
 62
     1
100
AcDbLine
 10
34.37710506837703
 20
21.0264107192699
 30
0.0
 11
20.05476626837702
 21
21.0264107192699
 31
0.0
  0
LINE
  5
292
330
2
100
AcDbEntity
  8
GAIKEI
  6
Continuous
 62
     1
100
AcDbLine
 10
20.05476626837702
 20
21.5946724192699
 30
0.0
 11
34.37710506837703
 21
21.5946724192699
 31
0.0
  0
LINE
  5
293
330
2
100
AcDbEntity
  8
GAIKEI
  6
Continuous
 62
     1
100
AcDbLine
 10
34.37710506837703
 20
20.25641561926989
 30
0.0
 11
20.05476626837702
 21
20.25641551926987
 31
0.0
  0
LINE
  5
294
330
2
100
AcDbEntity
  8
GAIKEI
  6
Continuous
 62
     1
100
AcDbLine
 10
20.05476626837702
 20
20.82467731926988
 30
0.0
 11
34.37710506837703
 21
20.82467731926988
 31
0.0
  0
LINE
  5
295
330
2
100
AcDbEntity
  8
GAIKEI
  6
Continuous
 62
     1
100
AcDbLine
 10
34.37710506837703
 20
19.48642041926985
 30
0.0
 11
20.05476626837702
 21
19.48642041926985
 31
0.0
  0
LINE
  5
296
330
2
100
AcDbEntity
  8
GAIKEI
  6
Continuous
 62
     1
100
AcDbLine
 10
20.05476626837702
 20
20.0546821192699
 30
0.0
 11
34.37710506837703
 21
20.05468221926987
 31
0.0
  0
LINE
  5
297
330
2
100
AcDbEntity
  8
GAIKEI
  6
Continuous
 62
     1
100
AcDbLine
 10
34.37710506837703
 20
18.71640091926991
 30
0.0
 11
20.05476626837702
 21
18.71640091926991
 31
0.0
  0
LINE
  5
298
330
2
100
AcDbEntity
  8
GAIKEI
  6
Continuous
 62
     1
100
AcDbLine
 10
20.05476626837702
 20
19.28468701926988
 30
0.0
 11
34.37710506837703
 21
19.28468701926988
 31
0.0
  0
LINE
  5
299
330
2
100
AcDbEntity
  8
GAIKEI
  6
Continuous
 62
     1
100
AcDbLine
 10
34.37710506837703
 20
17.9464058192699
 30
0.0
 11
20.05476626837702
 21
17.9464058192699
 31
0.0
  0
LINE
  5
29A
330
2
100
AcDbEntity
  8
GAIKEI
  6
Continuous
 62
     1
100
AcDbLine
 10
20.05476626837702
 20
18.51466751926989
 30
0.0
 11
34.37710506837703
 21
18.51466751926989
 31
0.0
  0
LINE
  5
29B
330
2
100
AcDbEntity
  8
GAIKEI
  6
Continuous
 62
     1
100
AcDbLine
 10
34.37710506837703
 20
17.17641071926988
 30
0.0
 11
20.05476626837702
 21
17.17641071926988
 31
0.0
  0
LINE
  5
29C
330
2
100
AcDbEntity
  8
GAIKEI
  6
Continuous
 62
     1
100
AcDbLine
 10
20.05476626837702
 20
17.74467241926987
 30
0.0
 11
34.37710506837703
 21
17.74467241926987
 31
0.0
  0
LINE
  5
29D
330
2
100
AcDbEntity
  8
GAIKEI
  6
Continuous
 62
     1
100
AcDbLine
 10
34.37710506837703
 20
16.40641561926986
 30
0.0
 11
20.05476626837702
 21
16.4064155192699
 31
0.0
  0
LINE
  5
29E
330
2
100
AcDbEntity
  8
GAIKEI
  6
Continuous
 62
     1
100
AcDbLine
 10
20.05476626837702
 20
16.97467731926986
 30
0.0
 11
34.37710506837703
 21
16.97467731926986
 31
0.0
  0
LINE
  5
29F
330
2
100
AcDbEntity
  8
GAIKEI
  6
Continuous
 62
     1
100
AcDbLine
 10
11.23199696837702
 20
17.19555131926989
 30
0.0
 11
11.23199696837702
 21
24.3205513192699
 31
0.0
  0
LINE
  5
2A0
330
2
100
AcDbEntity
  8
GAIKEI
  6
Continuous
100
AcDbLine
 10
11.23199686837699
 20
24.32053511926984
 30
0.0
 11
11.13200746837702
 21
24.22054581926989
 31
0.0
  0
LINE
  5
2A1
330
2
100
AcDbEntity
  8
GAIKEI
  6
Continuous
100
AcDbLine
 10
11.13199696837705
 20
17.2455513192699
 30
0.0
 11
11.13199696837705
 21
24.22055131926987
 31
0.0
  0
LINE
  5
2A2
330
2
100
AcDbEntity
  8
GAIKEI
  6
Continuous
 62
     1
100
AcDbLine
 10
11.13198546837702
 20
17.24554601926985
 30
0.0
 11
11.23199706837704
 21
17.19554011926988
 31
0.0
  0
LINE
  5
2A3
330
2
100
AcDbEntity
  8
GAIKEI
  6
Continuous
100
AcDbLine
 10
11.13199696837699
 20
14.92055131926986
 30
0.0
 11
11.13199696837705
 21
17.2455513192699
 31
0.0
  0
LINE
  5
2A4
330
2
100
AcDbEntity
  8
GAIKEI
  6
Continuous
100
AcDbLine
 10
11.13199026837702
 20
14.92055541926987
 30
0.0
 11
11.23199686837699
 21
14.8205488192699
 31
0.0
  0
LINE
  5
2A5
330
2
100
AcDbEntity
  8
GAIKEI
  6
Continuous
 62
     1
100
AcDbLine
 10
11.23199696837702
 20
14.82055131926989
 30
0.0
 11
11.23199696837702
 21
17.19555131926989
 31
0.0
  0
LINE
  5
2A6
330
2
100
AcDbEntity
  8
GAIKEI
  6
Continuous
100
AcDbLine
 10
11.915940168377
 20
24.3205513192699
 30
0.0
 11
11.23199696837702
 21
24.3205513192699
 31
0.0
  0
LINE
  5
2A7
330
2
100
AcDbEntity
  8
GAIKEI
  6
Continuous
 62
     1
100
AcDbLine
 10
11.23199696837702
 20
17.19555131926989
 30
0.0
 11
11.915940168377
 21
17.19555131926989
 31
0.0
  0
LINE
  5
2A8
330
2
100
AcDbEntity
  8
GAIKEI
  6
Continuous
100
AcDbLine
 10
11.23199696837702
 20
14.82055131926989
 30
0.0
 11
11.915940168377
 21
14.82055131926989
 31
0.0
  0
LINE
  5
2A9
330
2
100
AcDbEntity
  8
GAIKEI
  6
Continuous
100
AcDbLine
 10
13.66715626837702
 20
11.92055131926986
 30
0.0
 11
13.665940168377
 21
11.92055131926986
 31
0.0
  0
LINE
  5
2AA
330
2
100
AcDbEntity
  8
GAIKEI
  6
Continuous
100
AcDbLine
 10
13.694364268377
 20
11.92055131926986
 30
0.0
 11
13.66715476837703
 21
11.92055131926986
 31
0.0
  0
LINE
  5
2AB
330
2
100
AcDbEntity
  8
GAIKEI
  6
Continuous
100
AcDbLine
 10
13.69633726837702
 20
11.92055131926986
 30
0.0
 11
13.69436116837698
 21
11.92055131926986
 31
0.0
  0
LINE
  5
2AC
330
2
100
AcDbEntity
  8
GAIKEI
  6
Continuous
100
AcDbLine
 10
13.72532736837701
 20
11.92055131926986
 30
0.0
 11
13.69634026837701
 21
11.92055131926986
 31
0.0
  0
LINE
  5
2AD
330
2
100
AcDbEntity
  8
GAIKEI
  6
Continuous
100
AcDbLine
 10
13.75411766837703
 20
11.92055131926986
 30
0.0
 11
13.72532736837701
 21
11.92055131926986
 31
0.0
  0
LINE
  5
2AE
330
2
100
AcDbEntity
  8
GAIKEI
  6
Continuous
100
AcDbLine
 10
13.81161126837702
 20
11.92055131926986
 30
0.0
 11
13.75412226837699
 21
11.92055131926986
 31
0.0
  0
LINE
  5
2AF
330
2
100
AcDbEntity
  8
GAIKEI
  6
Continuous
100
AcDbLine
 10
13.86831446837703
 20
11.92055131926986
 30
0.0
 11
13.81160666837701
 21
11.92055131926986
 31
0.0
  0
LINE
  5
2B0
330
2
100
AcDbEntity
  8
GAIKEI
  6
Continuous
100
AcDbLine
 10
13.89742666837702
 20
11.92055131926986
 30
0.0
 11
13.86831296837704
 21
11.92055131926986
 31
0.0
  0
LINE
  5
2B1
330
2
100
AcDbEntity
  8
GAIKEI
  6
Continuous
100
AcDbLine
 10
14.00791376837702
 20
11.92054131926989
 30
0.0
 11
13.89742336837702
 21
11.92054241926985
 31
0.0
  0
LINE
  5
2B2
330
2
100
AcDbEntity
  8
GAIKEI
  6
Continuous
100
AcDbLine
 10
14.08986446837701
 20
11.92055131926986
 30
0.0
 11
14.00791406837697
 21
11.92055131926986
 31
0.0
  0
LINE
  5
2B3
330
2
100
AcDbEntity
  8
GAIKEI
  6
Continuous
100
AcDbLine
 10
14.11802606837705
 20
11.92055131926986
 30
0.0
 11
14.089862868377
 21
11.92055131926986
 31
0.0
  0
LINE
  5
2B4
330
2
100
AcDbEntity
  8
GAIKEI
  6
Continuous
100
AcDbLine
 10
14.27668676837703
 20
11.9205358192699
 30
0.0
 11
14.118025868377
 21
11.92053701926989
 31
0.0
  0
LINE
  5
2B5
330
2
100
AcDbEntity
  8
GAIKEI
  6
Continuous
100
AcDbLine
 10
14.38029716837701
 20
11.92055131926986
 30
0.0
 11
14.27668696837702
 21
11.92055131926986
 31
0.0
  0
LINE
  5
2B6
330
2
100
AcDbEntity
  8
GAIKEI
  6
Continuous
100
AcDbLine
 10
14.406279868377
 20
11.92055131926986
 30
0.0
 11
14.38029716837701
 21
11.92055131926986
 31
0.0
  0
LINE
  5
2B7
330
2
100
AcDbEntity
  8
GAIKEI
  6
Continuous
100
AcDbLine
 10
14.60617756837701
 20
11.92055131926986
 30
0.0
 11
14.40628286837705
 21
11.92055131926986
 31
0.0
  0
LINE
  5
2B8
330
2
100
AcDbEntity
  8
GAIKEI
  6
Continuous
100
AcDbLine
 10
14.72691886837703
 20
11.92055131926986
 30
0.0
 11
14.60617606837701
 21
11.92055131926986
 31
0.0
  0
LINE
  5
2B9
330
2
100
AcDbEntity
  8
GAIKEI
  6
Continuous
100
AcDbLine
 10
14.74958576837702
 20
11.92055131926986
 30
0.0
 11
14.72691886837703
 21
11.92055131926986
 31
0.0
  0
LINE
  5
2BA
330
2
100
AcDbEntity
  8
GAIKEI
  6
Continuous
100
AcDbLine
 10
14.980437568377
 20
11.92055131926986
 30
0.0
 11
14.74958576837702
 21
11.92055131926986
 31
0.0
  0
LINE
  5
2BB
330
2
100
AcDbEntity
  8
GAIKEI
  6
Continuous
100
AcDbLine
 10
14.98212976837703
 20
11.92055131926986
 30
0.0
 11
14.980437568377
 21
11.92055131926986
 31
0.0
  0
LINE
  5
2BC
330
2
100
AcDbEntity
  8
GAIKEI
  6
Continuous
100
AcDbLine
 10
15.11458066837701
 20
11.92055131926986
 30
0.0
 11
14.98198326837701
 21
11.92055131926986
 31
0.0
  0
LINE
  5
2BD
330
2
100
AcDbEntity
  8
GAIKEI
  6
Continuous
100
AcDbLine
 10
15.13294156837702
 20
11.92055131926986
 30
0.0
 11
15.11458066837701
 21
11.92055131926986
 31
0.0
  0
LINE
  5
2BE
330
2
100
AcDbEntity
  8
GAIKEI
  6
Continuous
100
AcDbLine
 10
15.38011866837701
 20
11.92055131926986
 30
0.0
 11
15.13294156837702
 21
11.92055131926986
 31
0.0
  0
LINE
  5
2BF
330
2
100
AcDbEntity
  8
GAIKEI
  6
Continuous
100
AcDbLine
 10
15.387680868377
 20
11.92055131926986
 30
0.0
 11
15.38011866837701
 21
11.92055131926986
 31
0.0
  0
LINE
  5
2C0
330
2
100
AcDbEntity
  8
GAIKEI
  6
Continuous
100
AcDbLine
 10
15.52633906837701
 20
11.92055131926986
 30
0.0
 11
15.387680868377
 21
11.92055131926986
 31
0.0
  0
LINE
  5
2C1
330
2
100
AcDbEntity
  8
GAIKEI
  6
Continuous
100
AcDbLine
 10
15.53959126837702
 20
11.92055131926986
 30
0.0
 11
15.52633906837701
 21
11.92055131926986
 31
0.0
  0
LINE
  5
2C2
330
2
100
AcDbEntity
  8
GAIKEI
  6
Continuous
100
AcDbLine
 10
15.79228906837698
 20
11.92055131926986
 30
0.0
 11
15.53958976837703
 21
11.92055131926986
 31
0.0
  0
LINE
  5
2C3
330
2
100
AcDbEntity
  8
GAIKEI
  6
Continuous
100
AcDbLine
 10
15.80554136837702
 20
11.92055131926986
 30
0.0
 11
15.79228906837698
 21
11.92055131926986
 31
0.0
  0
LINE
  5
2C4
330
2
100
AcDbEntity
  8
GAIKEI
  6
Continuous
100
AcDbLine
 10
15.944200968377
 20
11.92055131926986
 30
0.0
 11
15.80554286837702
 21
11.92055131926986
 31
0.0
  0
LINE
  5
2C5
330
2
100
AcDbEntity
  8
GAIKEI
  6
Continuous
100
AcDbLine
 10
15.95176176837702
 20
11.92055131926986
 30
0.0
 11
15.94419796837701
 21
11.92055131926986
 31
0.0
  0
LINE
  5
2C6
330
2
100
AcDbEntity
  8
GAIKEI
  6
Continuous
100
AcDbLine
 10
16.19893736837702
 20
11.92055131926986
 30
0.0
 11
15.95176176837702
 21
11.92055131926986
 31
0.0
  0
LINE
  5
2C7
330
2
100
AcDbEntity
  8
GAIKEI
  6
Continuous
100
AcDbLine
 10
16.21729826837702
 20
11.92055131926986
 30
0.0
 11
16.19893736837702
 21
11.92055131926986
 31
0.0
  0
LINE
  5
2C8
330
2
100
AcDbEntity
  8
GAIKEI
  6
Continuous
100
AcDbLine
 10
16.34989866837702
 20
11.92055131926986
 30
0.0
 11
16.21730126837701
 21
11.92055131926986
 31
0.0
  0
LINE
  5
2C9
330
2
100
AcDbEntity
  8
GAIKEI
  6
Continuous
100
AcDbLine
 10
16.35144126837701
 20
11.92055131926986
 30
0.0
 11
16.34974906837704
 21
11.92055131926986
 31
0.0
  0
LINE
  5
2CA
330
2
100
AcDbEntity
  8
GAIKEI
  6
Continuous
100
AcDbLine
 10
16.582293068377
 20
11.92055131926986
 30
0.0
 11
16.35144126837701
 21
11.92055131926986
 31
0.0
  0
LINE
  5
2CB
330
2
100
AcDbEntity
  8
GAIKEI
  6
Continuous
100
AcDbLine
 10
16.60495996837699
 20
11.92055131926986
 30
0.0
 11
16.582293068377
 21
11.92055131926986
 31
0.0
  0
LINE
  5
2CC
330
2
100
AcDbEntity
  8
GAIKEI
  6
Continuous
100
AcDbLine
 10
16.725704268377
 20
11.92055131926986
 30
0.0
 11
16.60496146837704
 21
11.92055131926986
 31
0.0
  0
LINE
  5
2CD
330
2
100
AcDbEntity
  8
GAIKEI
  6
Continuous
100
AcDbLine
 10
16.92560206837697
 20
11.92055131926986
 30
0.0
 11
16.72570736837701
 21
11.92055131926986
 31
0.0
  0
LINE
  5
2CE
330
2
100
AcDbEntity
  8
GAIKEI
  6
Continuous
100
AcDbLine
 10
16.951583168377
 20
11.92055131926986
 30
0.0
 11
16.92559896837702
 21
11.92055131926986
 31
0.0
  0
LINE
  5
2CF
330
2
100
AcDbEntity
  8
GAIKEI
  6
Continuous
100
AcDbLine
 10
17.05519346837701
 20
11.92055131926986
 30
0.0
 11
16.951583168377
 21
11.92055131926986
 31
0.0
  0
LINE
  5
2D0
330
2
100
AcDbEntity
  8
GAIKEI
  6
Continuous
100
AcDbLine
 10
17.213848368377
 20
11.92053981926989
 30
0.0
 11
17.05519356837703
 21
11.92053871926987
 31
0.0
  0
LINE
  5
2D1
330
2
100
AcDbEntity
  8
GAIKEI
  6
Continuous
100
AcDbLine
 10
17.24201596837701
 20
11.92055131926986
 30
0.0
 11
17.21385276837702
 21
11.92055131926986
 31
0.0
  0
LINE
  5
2D2
330
2
100
AcDbEntity
  8
GAIKEI
  6
Continuous
100
AcDbLine
 10
17.32396626837703
 20
11.92055131926986
 30
0.0
 11
17.24201596837701
 21
11.92055131926986
 31
0.0
  0
LINE
  5
2D3
330
2
100
AcDbEntity
  8
GAIKEI
  6
Continuous
100
AcDbLine
 10
17.43445066837699
 20
11.92055131926986
 30
0.0
 11
17.32396786837699
 21
11.92055131926986
 31
0.0
  0
LINE
  5
2D4
330
2
100
AcDbEntity
  8
GAIKEI
  6
Continuous
100
AcDbLine
 10
17.46356596837699
 20
11.92055131926986
 30
0.0
 11
17.43445216837699
 21
11.92055131926986
 31
0.0
  0
LINE
  5
2D5
330
2
100
AcDbEntity
  8
GAIKEI
  6
Continuous
100
AcDbLine
 10
17.52027516837699
 20
11.92055131926986
 30
0.0
 11
17.46356746837705
 21
11.92055131926986
 31
0.0
  0
LINE
  5
2D6
330
2
100
AcDbEntity
  8
GAIKEI
  6
Continuous
100
AcDbLine
 10
17.57776266837703
 20
11.92055131926986
 30
0.0
 11
17.52027516837699
 21
11.92055131926986
 31
0.0
  0
LINE
  5
2D7
330
2
100
AcDbEntity
  8
GAIKEI
  6
Continuous
100
AcDbLine
 10
17.606552968377
 20
11.92055131926986
 30
0.0
 11
17.57776266837703
 21
11.92055131926986
 31
0.0
  0
LINE
  5
2D8
330
2
100
AcDbEntity
  8
GAIKEI
  6
Continuous
100
AcDbLine
 10
17.635540068377
 20
11.92055131926986
 30
0.0
 11
17.606552968377
 21
11.92055131926986
 31
0.0
  0
LINE
  5
2D9
330
2
100
AcDbEntity
  8
GAIKEI
  6
Continuous
100
AcDbLine
 10
17.63751456837701
 20
11.92055131926986
 30
0.0
 11
17.635538568377
 21
11.92055131926986
 31
0.0
  0
LINE
  5
2DA
330
2
100
AcDbEntity
  8
GAIKEI
  6
Continuous
100
AcDbLine
 10
17.66472406837704
 20
11.92055131926986
 30
0.0
 11
17.63751606837701
 21
11.92055131926986
 31
0.0
  0
LINE
  5
2DB
330
2
100
AcDbEntity
  8
GAIKEI
  6
Continuous
100
AcDbLine
 10
17.665940168377
 20
11.92055131926986
 30
0.0
 11
17.66472556837698
 21
11.92055131926986
 31
0.0
  0
LINE
  5
2DC
330
2
100
AcDbEntity
  8
GAIKEI
  6
Continuous
 62
     1
100
AcDbLine
 10
14.98198326837701
 20
11.92055131926986
 30
0.0
 11
14.98198326837701
 21
10.32055131926989
 31
0.0
  0
LINE
  5
2DD
330
2
100
AcDbEntity
  8
GAIKEI
  6
Continuous
100
AcDbLine
 10
15.66594326837702
 20
10.02055131926988
 30
0.0
 11
14.89782496837699
 21
10.02055131926988
 31
0.0
  0
LINE
  5
2DE
330
2
100
AcDbEntity
  8
GAIKEI
  6
Continuous
100
AcDbLine
 10
16.43405546837698
 20
10.02055131926988
 30
0.0
 11
15.66594326837702
 21
10.02055131926988
 31
0.0
  0
LINE
  5
2DF
330
2
100
AcDbEntity
  8
GAIKEI
  6
Continuous
100
AcDbLine
 10
17.66472556837698
 20
10.32055131926989
 30
0.0
 11
17.665940168377
 21
10.32055131926989
 31
0.0
  0
LINE
  5
2E0
330
2
100
AcDbEntity
  8
GAIKEI
  6
Continuous
100
AcDbLine
 10
17.63751606837701
 20
10.32055131926989
 30
0.0
 11
17.66472406837704
 21
10.32055131926989
 31
0.0
  0
LINE
  5
2E1
330
2
100
AcDbEntity
  8
GAIKEI
  6
Continuous
100
AcDbLine
 10
17.635538568377
 20
10.32055131926989
 30
0.0
 11
17.63751456837701
 21
10.32055131926989
 31
0.0
  0
LINE
  5
2E2
330
2
100
AcDbEntity
  8
GAIKEI
  6
Continuous
100
AcDbLine
 10
17.606552968377
 20
10.32055131926989
 30
0.0
 11
17.635540068377
 21
10.32055131926989
 31
0.0
  0
LINE
  5
2E3
330
2
100
AcDbEntity
  8
GAIKEI
  6
Continuous
100
AcDbLine
 10
17.57776266837703
 20
10.32055131926989
 30
0.0
 11
17.606552968377
 21
10.32055131926989
 31
0.0
  0
LINE
  5
2E4
330
2
100
AcDbEntity
  8
GAIKEI
  6
Continuous
100
AcDbLine
 10
17.52027516837699
 20
10.32055131926989
 30
0.0
 11
17.57776266837703
 21
10.32055131926989
 31
0.0
  0
LINE
  5
2E5
330
2
100
AcDbEntity
  8
GAIKEI
  6
Continuous
100
AcDbLine
 10
17.46356746837705
 20
10.32055131926989
 30
0.0
 11
17.52027516837699
 21
10.32055131926989
 31
0.0
  0
LINE
  5
2E6
330
2
100
AcDbEntity
  8
GAIKEI
  6
Continuous
100
AcDbLine
 10
17.43445216837699
 20
10.32055131926989
 30
0.0
 11
17.46356596837699
 21
10.32055131926989
 31
0.0
  0
LINE
  5
2E7
330
2
100
AcDbEntity
  8
GAIKEI
  6
Continuous
100
AcDbLine
 10
17.32396786837699
 20
10.32055131926989
 30
0.0
 11
17.43445066837699
 21
10.32055131926989
 31
0.0
  0
LINE
  5
2E8
330
2
100
AcDbEntity
  8
GAIKEI
  6
Continuous
100
AcDbLine
 10
17.24201596837701
 20
10.32055131926989
 30
0.0
 11
17.32396626837703
 21
10.32055131926989
 31
0.0
  0
LINE
  5
2E9
330
2
100
AcDbEntity
  8
GAIKEI
  6
Continuous
100
AcDbLine
 10
17.21385276837702
 20
10.32055131926989
 30
0.0
 11
17.24201596837701
 21
10.32055131926989
 31
0.0
  0
LINE
  5
2EA
330
2
100
AcDbEntity
  8
GAIKEI
  6
Continuous
100
AcDbLine
 10
17.05519346837701
 20
10.32055131926989
 30
0.0
 11
17.21384816837701
 21
10.32055131926989
 31
0.0
  0
LINE
  5
2EB
330
2
100
AcDbEntity
  8
GAIKEI
  6
Continuous
100
AcDbLine
 10
16.951583168377
 20
10.32055131926989
 30
0.0
 11
17.05519346837701
 21
10.32055131926989
 31
0.0
  0
LINE
  5
2EC
330
2
100
AcDbEntity
  8
GAIKEI
  6
Continuous
100
AcDbLine
 10
16.92559896837702
 20
10.32055131926989
 30
0.0
 11
16.951583168377
 21
10.32055131926989
 31
0.0
  0
LINE
  5
2ED
330
2
100
AcDbEntity
  8
GAIKEI
  6
Continuous
100
AcDbLine
 10
16.72570736837701
 20
10.32055131926989
 30
0.0
 11
16.92560206837697
 21
10.32055131926989
 31
0.0
  0
LINE
  5
2EE
330
2
100
AcDbEntity
  8
GAIKEI
  6
Continuous
100
AcDbLine
 10
16.60496146837704
 20
10.32055131926989
 30
0.0
 11
16.725704268377
 21
10.32055131926989
 31
0.0
  0
LINE
  5
2EF
330
2
100
AcDbEntity
  8
GAIKEI
  6
Continuous
100
AcDbLine
 10
16.582293068377
 20
10.32055131926989
 30
0.0
 11
16.60495996837699
 21
10.32055131926989
 31
0.0
  0
LINE
  5
2F0
330
2
100
AcDbEntity
  8
GAIKEI
  6
Continuous
100
AcDbLine
 10
16.35144126837701
 20
10.32055131926989
 30
0.0
 11
16.582293068377
 21
10.32055131926989
 31
0.0
  0
LINE
  5
2F1
330
2
100
AcDbEntity
  8
GAIKEI
  6
Continuous
100
AcDbLine
 10
16.34974906837704
 20
10.32055131926989
 30
0.0
 11
16.35144126837701
 21
10.32055131926989
 31
0.0
  0
LINE
  5
2F2
330
2
100
AcDbEntity
  8
GAIKEI
  6
Continuous
100
AcDbLine
 10
16.21730126837701
 20
10.32055131926989
 30
0.0
 11
16.34989866837702
 21
10.32055131926989
 31
0.0
  0
LINE
  5
2F3
330
2
100
AcDbEntity
  8
GAIKEI
  6
Continuous
100
AcDbLine
 10
16.19893736837702
 20
10.32055131926989
 30
0.0
 11
16.21729826837702
 21
10.32055131926989
 31
0.0
  0
LINE
  5
2F4
330
2
100
AcDbEntity
  8
GAIKEI
  6
Continuous
100
AcDbLine
 10
15.95176176837702
 20
10.32055131926989
 30
0.0
 11
16.19893736837702
 21
10.32055131926989
 31
0.0
  0
LINE
  5
2F5
330
2
100
AcDbEntity
  8
GAIKEI
  6
Continuous
100
AcDbLine
 10
15.94419796837701
 20
10.32055131926989
 30
0.0
 11
15.95176176837702
 21
10.32055131926989
 31
0.0
  0
LINE
  5
2F6
330
2
100
AcDbEntity
  8
GAIKEI
  6
Continuous
100
AcDbLine
 10
15.80554286837702
 20
10.32055131926989
 30
0.0
 11
15.944200968377
 21
10.32055131926989
 31
0.0
  0
LINE
  5
2F7
330
2
100
AcDbEntity
  8
GAIKEI
  6
Continuous
100
AcDbLine
 10
15.79228906837698
 20
10.32055131926989
 30
0.0
 11
15.80554136837702
 21
10.32055131926989
 31
0.0
  0
LINE
  5
2F8
330
2
100
AcDbEntity
  8
GAIKEI
  6
Continuous
100
AcDbLine
 10
15.53958976837703
 20
10.32055131926989
 30
0.0
 11
15.79228906837698
 21
10.32055131926989
 31
0.0
  0
LINE
  5
2F9
330
2
100
AcDbEntity
  8
GAIKEI
  6
Continuous
100
AcDbLine
 10
15.52633906837701
 20
10.32055131926989
 30
0.0
 11
15.53959126837702
 21
10.32055131926989
 31
0.0
  0
LINE
  5
2FA
330
2
100
AcDbEntity
  8
GAIKEI
  6
Continuous
100
AcDbLine
 10
15.387680868377
 20
10.32055131926989
 30
0.0
 11
15.52633906837701
 21
10.32055131926989
 31
0.0
  0
LINE
  5
2FB
330
2
100
AcDbEntity
  8
GAIKEI
  6
Continuous
100
AcDbLine
 10
15.38011866837701
 20
10.32055131926989
 30
0.0
 11
15.387680868377
 21
10.32055131926989
 31
0.0
  0
LINE
  5
2FC
330
2
100
AcDbEntity
  8
GAIKEI
  6
Continuous
100
AcDbLine
 10
15.13294156837702
 20
10.32055131926989
 30
0.0
 11
15.38011866837701
 21
10.32055131926989
 31
0.0
  0
LINE
  5
2FD
330
2
100
AcDbEntity
  8
GAIKEI
  6
Continuous
100
AcDbLine
 10
15.11458066837701
 20
10.32055131926989
 30
0.0
 11
15.13294156837702
 21
10.32055131926989
 31
0.0
  0
LINE
  5
2FE
330
2
100
AcDbEntity
  8
GAIKEI
  6
Continuous
100
AcDbLine
 10
14.98198326837701
 20
10.32055131926989
 30
0.0
 11
15.11458066837701
 21
10.32055131926989
 31
0.0
  0
LINE
  5
2FF
330
2
100
AcDbEntity
  8
GAIKEI
  6
Continuous
100
AcDbLine
 10
14.74958576837702
 20
10.32055131926989
 30
0.0
 11
14.980437568377
 21
10.32055131926989
 31
0.0
  0
LINE
  5
300
330
2
100
AcDbEntity
  8
GAIKEI
  6
Continuous
100
AcDbLine
 10
14.72691886837703
 20
10.32055131926989
 30
0.0
 11
14.74958576837702
 21
10.32055131926989
 31
0.0
  0
LINE
  5
301
330
2
100
AcDbEntity
  8
GAIKEI
  6
Continuous
100
AcDbLine
 10
14.60617606837701
 20
10.32055131926989
 30
0.0
 11
14.72691886837703
 21
10.32055131926989
 31
0.0
  0
LINE
  5
302
330
2
100
AcDbEntity
  8
GAIKEI
  6
Continuous
100
AcDbLine
 10
14.40628286837705
 20
10.32055131926989
 30
0.0
 11
14.60617756837701
 21
10.32055131926989
 31
0.0
  0
LINE
  5
303
330
2
100
AcDbEntity
  8
GAIKEI
  6
Continuous
100
AcDbLine
 10
14.38029716837701
 20
10.32055131926989
 30
0.0
 11
14.406279868377
 21
10.32055131926989
 31
0.0
  0
LINE
  5
304
330
2
100
AcDbEntity
  8
GAIKEI
  6
Continuous
100
AcDbLine
 10
14.27668696837702
 20
10.32055131926989
 30
0.0
 11
14.38029716837701
 21
10.32055131926989
 31
0.0
  0
LINE
  5
305
330
2
100
AcDbEntity
  8
GAIKEI
  6
Continuous
100
AcDbLine
 10
14.118028368377
 20
10.32055061926985
 30
0.0
 11
14.276681568377
 21
10.32055581926988
 31
0.0
  0
LINE
  5
306
330
2
100
AcDbEntity
  8
GAIKEI
  6
Continuous
100
AcDbLine
 10
14.089862868377
 20
10.32055131926989
 30
0.0
 11
14.11802606837705
 21
10.32055131926989
 31
0.0
  0
LINE
  5
307
330
2
100
AcDbEntity
  8
GAIKEI
  6
Continuous
100
AcDbLine
 10
14.00791406837697
 20
10.32055131926989
 30
0.0
 11
14.08986446837701
 21
10.32055131926989
 31
0.0
  0
LINE
  5
308
330
2
100
AcDbEntity
  8
GAIKEI
  6
Continuous
100
AcDbLine
 10
13.89742366837703
 20
10.32055131926989
 30
0.0
 11
14.00791866837699
 21
10.32055131926989
 31
0.0
  0
LINE
  5
309
330
2
100
AcDbEntity
  8
GAIKEI
  6
Continuous
100
AcDbLine
 10
13.86831296837704
 20
10.32055131926989
 30
0.0
 11
13.89742666837702
 21
10.32055131926989
 31
0.0
  0
LINE
  5
30A
330
2
100
AcDbEntity
  8
GAIKEI
  6
Continuous
100
AcDbLine
 10
13.81160666837701
 20
10.32055131926989
 30
0.0
 11
13.86831446837703
 21
10.32055131926989
 31
0.0
  0
LINE
  5
30B
330
2
100
AcDbEntity
  8
GAIKEI
  6
Continuous
100
AcDbLine
 10
13.75412226837699
 20
10.32055131926989
 30
0.0
 11
13.81161126837702
 21
10.32055131926989
 31
0.0
  0
LINE
  5
30C
330
2
100
AcDbEntity
  8
GAIKEI
  6
Continuous
100
AcDbLine
 10
13.72532736837701
 20
10.32055131926989
 30
0.0
 11
13.75411766837703
 21
10.32055131926989
 31
0.0
  0
LINE
  5
30D
330
2
100
AcDbEntity
  8
GAIKEI
  6
Continuous
100
AcDbLine
 10
13.69634026837701
 20
10.32055131926989
 30
0.0
 11
13.72532736837701
 21
10.32055131926989
 31
0.0
  0
LINE
  5
30E
330
2
100
AcDbEntity
  8
GAIKEI
  6
Continuous
100
AcDbLine
 10
13.69436116837698
 20
10.32055131926989
 30
0.0
 11
13.69633726837702
 21
10.32055131926989
 31
0.0
  0
LINE
  5
30F
330
2
100
AcDbEntity
  8
GAIKEI
  6
Continuous
100
AcDbLine
 10
13.66715476837703
 20
10.32055131926989
 30
0.0
 11
13.694364268377
 21
10.32055131926989
 31
0.0
  0
LINE
  5
310
330
2
100
AcDbEntity
  8
GAIKEI
  6
Continuous
100
AcDbLine
 10
13.665940168377
 20
10.32055131926989
 30
0.0
 11
13.66715626837702
 21
10.32055131926989
 31
0.0
  0
LINE
  5
311
330
2
100
AcDbEntity
  8
GAIKEI
  6
Continuous
100
AcDbLine
 10
16.43405546837698
 20
11.92055131926986
 30
0.0
 11
16.43405546837698
 21
12.02055131926988
 31
0.0
  0
LINE
  5
312
330
2
100
AcDbEntity
  8
GAIKEI
  6
Continuous
100
AcDbLine
 10
14.89782646837699
 20
12.02055131926988
 30
0.0
 11
14.89782646837699
 21
11.92055131926986
 31
0.0
  0
LINE
  5
313
330
2
100
AcDbEntity
  8
GAIKEI
  6
Continuous
100
AcDbLine
 10
17.665940168377
 20
10.32055131926989
 30
0.0
 11
17.665940168377
 21
11.92055131926986
 31
0.0
  0
LINE
  5
314
330
2
100
AcDbEntity
  8
GAIKEI
  6
Continuous
 62
     1
100
AcDbLine
 10
17.63751606837701
 20
11.92055131926986
 30
0.0
 11
17.63751606837701
 21
10.32055131926989
 31
0.0
  0
LINE
  5
315
330
2
100
AcDbEntity
  8
GAIKEI
  6
Continuous
 62
     1
100
AcDbLine
 10
17.635540068377
 20
11.92055131926986
 30
0.0
 11
17.635540068377
 21
10.32055131926989
 31
0.0
  0
LINE
  5
316
330
2
100
AcDbEntity
  8
GAIKEI
  6
Continuous
 62
     1
100
AcDbLine
 10
17.606552968377
 20
11.92055131926986
 30
0.0
 11
17.606552968377
 21
10.32055131926989
 31
0.0
  0
LINE
  5
317
330
2
100
AcDbEntity
  8
GAIKEI
  6
Continuous
 62
     1
100
AcDbLine
 10
17.57776266837703
 20
11.92055131926986
 30
0.0
 11
17.57776266837703
 21
10.32055131926989
 31
0.0
  0
LINE
  5
318
330
2
100
AcDbEntity
  8
GAIKEI
  6
Continuous
 62
     1
100
AcDbLine
 10
17.52027516837699
 20
11.92055131926986
 30
0.0
 11
17.52027516837699
 21
10.32055131926989
 31
0.0
  0
LINE
  5
319
330
2
100
AcDbEntity
  8
GAIKEI
  6
Continuous
 62
     1
100
AcDbLine
 10
17.46356746837705
 20
11.92055131926986
 30
0.0
 11
17.46356746837705
 21
10.32055131926989
 31
0.0
  0
LINE
  5
31A
330
2
100
AcDbEntity
  8
GAIKEI
  6
Continuous
 62
     1
100
AcDbLine
 10
17.43445216837699
 20
11.92055131926986
 30
0.0
 11
17.43445216837699
 21
10.32055131926989
 31
0.0
  0
LINE
  5
31B
330
2
100
AcDbEntity
  8
GAIKEI
  6
Continuous
 62
     1
100
AcDbLine
 10
17.32396476837698
 20
11.92055131926986
 30
0.0
 11
17.32396476837698
 21
10.32055131926989
 31
0.0
  0
LINE
  5
31C
330
2
100
AcDbEntity
  8
GAIKEI
  6
Continuous
 62
     1
100
AcDbLine
 10
17.24201596837701
 20
11.92055131926986
 30
0.0
 11
17.24201596837701
 21
10.32055131926989
 31
0.0
  0
LINE
  5
31D
330
2
100
AcDbEntity
  8
GAIKEI
  6
Continuous
 62
     1
100
AcDbLine
 10
17.21385276837702
 20
11.92055131926986
 30
0.0
 11
17.21385276837702
 21
10.32055131926989
 31
0.0
  0
LINE
  5
31E
330
2
100
AcDbEntity
  8
GAIKEI
  6
Continuous
 62
     1
100
AcDbLine
 10
17.05519346837701
 20
11.92055131926986
 30
0.0
 11
17.05519346837701
 21
10.32055131926989
 31
0.0
  0
LINE
  5
31F
330
2
100
AcDbEntity
  8
GAIKEI
  6
Continuous
 62
     1
100
AcDbLine
 10
16.951583168377
 20
11.92055131926986
 30
0.0
 11
16.951583168377
 21
10.32055131926989
 31
0.0
  0
LINE
  5
320
330
2
100
AcDbEntity
  8
GAIKEI
  6
Continuous
 62
     1
100
AcDbLine
 10
16.92559896837702
 20
11.92055131926986
 30
0.0
 11
16.92559896837702
 21
10.32055131926989
 31
0.0
  0
LINE
  5
321
330
2
100
AcDbEntity
  8
GAIKEI
  6
Continuous
 62
     1
100
AcDbLine
 10
16.725702768377
 20
11.92055131926986
 30
0.0
 11
16.725702768377
 21
10.32055131926989
 31
0.0
  0
LINE
  5
322
330
2
100
AcDbEntity
  8
GAIKEI
  6
Continuous
 62
     1
100
AcDbLine
 10
16.60496146837704
 20
11.92055131926986
 30
0.0
 11
16.60496146837704
 21
10.32055131926989
 31
0.0
  0
LINE
  5
323
330
2
100
AcDbEntity
  8
GAIKEI
  6
Continuous
 62
     1
100
AcDbLine
 10
16.582293068377
 20
11.92055131926986
 30
0.0
 11
16.582293068377
 21
10.32055131926989
 31
0.0
  0
LINE
  5
324
330
2
100
AcDbEntity
  8
GAIKEI
  6
Continuous
 62
     1
100
AcDbLine
 10
16.35144126837701
 20
11.92055131926986
 30
0.0
 11
16.35144126837701
 21
10.32055131926989
 31
0.0
  0
LINE
  5
325
330
2
100
AcDbEntity
  8
GAIKEI
  6
Continuous
 62
     1
100
AcDbLine
 10
16.349897068377
 20
11.92055131926986
 30
0.0
 11
16.349897068377
 21
10.32055131926989
 31
0.0
  0
LINE
  5
326
330
2
100
AcDbEntity
  8
GAIKEI
  6
Continuous
 62
     1
100
AcDbLine
 10
16.21730126837701
 20
11.92055131926986
 30
0.0
 11
16.21730126837701
 21
10.32055131926989
 31
0.0
  0
LINE
  5
327
330
2
100
AcDbEntity
  8
GAIKEI
  6
Continuous
 62
     1
100
AcDbLine
 10
16.19893736837702
 20
11.92055131926986
 30
0.0
 11
16.19893736837702
 21
10.32055131926989
 31
0.0
  0
LINE
  5
328
330
2
100
AcDbEntity
  8
GAIKEI
  6
Continuous
 62
     1
100
AcDbLine
 10
15.95176176837702
 20
11.92055131926986
 30
0.0
 11
15.95176176837702
 21
10.32055131926989
 31
0.0
  0
LINE
  5
329
330
2
100
AcDbEntity
  8
GAIKEI
  6
Continuous
 62
     1
100
AcDbLine
 10
15.94419796837701
 20
11.92055131926986
 30
0.0
 11
15.94419796837701
 21
10.32055131926989
 31
0.0
  0
LINE
  5
32A
330
2
100
AcDbEntity
  8
GAIKEI
  6
Continuous
 62
     1
100
AcDbLine
 10
15.80554286837702
 20
11.92055131926986
 30
0.0
 11
15.80554286837702
 21
10.32055131926989
 31
0.0
  0
LINE
  5
32B
330
2
100
AcDbEntity
  8
GAIKEI
  6
Continuous
 62
     1
100
AcDbLine
 10
15.79228906837698
 20
11.92055131926986
 30
0.0
 11
15.79228906837698
 21
10.32055131926989
 31
0.0
  0
LINE
  5
32C
330
2
100
AcDbEntity
  8
GAIKEI
  6
Continuous
 62
     1
100
AcDbLine
 10
15.53958976837703
 20
11.92055131926986
 30
0.0
 11
15.53958976837703
 21
10.32055131926989
 31
0.0
  0
LINE
  5
32D
330
2
100
AcDbEntity
  8
GAIKEI
  6
Continuous
 62
     1
100
AcDbLine
 10
15.52633906837701
 20
11.92055131926986
 30
0.0
 11
15.52633906837701
 21
10.32055131926989
 31
0.0
  0
LINE
  5
32E
330
2
100
AcDbEntity
  8
GAIKEI
  6
Continuous
 62
     1
100
AcDbLine
 10
15.387680868377
 20
11.92055131926986
 30
0.0
 11
15.387680868377
 21
10.32055131926989
 31
0.0
  0
LINE
  5
32F
330
2
100
AcDbEntity
  8
GAIKEI
  6
Continuous
 62
     1
100
AcDbLine
 10
15.38011866837701
 20
11.92055131926986
 30
0.0
 11
15.38011866837701
 21
10.32055131926989
 31
0.0
  0
LINE
  5
330
330
2
100
AcDbEntity
  8
GAIKEI
  6
Continuous
 62
     1
100
AcDbLine
 10
15.13294156837702
 20
11.92055131926986
 30
0.0
 11
15.13294156837702
 21
10.32055131926989
 31
0.0
  0
LINE
  5
331
330
2
100
AcDbEntity
  8
GAIKEI
  6
Continuous
 62
     1
100
AcDbLine
 10
15.11458066837701
 20
11.92055131926986
 30
0.0
 11
15.11458066837701
 21
10.32055131926989
 31
0.0
  0
LINE
  5
332
330
2
100
AcDbEntity
  8
GAIKEI
  6
Continuous
 62
     1
100
AcDbLine
 10
14.74958576837702
 20
11.92055131926986
 30
0.0
 11
14.74958576837702
 21
10.32055131926989
 31
0.0
  0
LINE
  5
333
330
2
100
AcDbEntity
  8
GAIKEI
  6
Continuous
 62
     1
100
AcDbLine
 10
14.72691886837703
 20
11.92055131926986
 30
0.0
 11
14.72691886837703
 21
10.32055131926989
 31
0.0
  0
LINE
  5
334
330
2
100
AcDbEntity
  8
GAIKEI
  6
Continuous
 62
     1
100
AcDbLine
 10
14.60617606837701
 20
11.92055131926986
 30
0.0
 11
14.60617606837701
 21
10.32055131926989
 31
0.0
  0
LINE
  5
335
330
2
100
AcDbEntity
  8
GAIKEI
  6
Continuous
 62
     1
100
AcDbLine
 10
14.406279868377
 20
11.92055131926986
 30
0.0
 11
14.406279868377
 21
10.32055131926989
 31
0.0
  0
LINE
  5
336
330
2
100
AcDbEntity
  8
GAIKEI
  6
Continuous
 62
     1
100
AcDbLine
 10
14.38029716837701
 20
11.92055131926986
 30
0.0
 11
14.38029716837701
 21
10.32055131926989
 31
0.0
  0
LINE
  5
337
330
2
100
AcDbEntity
  8
GAIKEI
  6
Continuous
 62
     1
100
AcDbLine
 10
14.27668696837702
 20
11.92055131926986
 30
0.0
 11
14.27668696837702
 21
10.32055131926989
 31
0.0
  0
LINE
  5
338
330
2
100
AcDbEntity
  8
GAIKEI
  6
Continuous
 62
     1
100
AcDbLine
 10
14.11802756837699
 20
11.92055131926986
 30
0.0
 11
14.11802756837699
 21
10.32055131926989
 31
0.0
  0
LINE
  5
339
330
2
100
AcDbEntity
  8
GAIKEI
  6
Continuous
 62
     1
100
AcDbLine
 10
14.089862868377
 20
11.92055131926986
 30
0.0
 11
14.089862868377
 21
10.32055131926989
 31
0.0
  0
LINE
  5
33A
330
2
100
AcDbEntity
  8
GAIKEI
  6
Continuous
 62
     1
100
AcDbLine
 10
14.00791406837697
 20
11.92055131926986
 30
0.0
 11
14.00791406837697
 21
10.32055131926989
 31
0.0
  0
LINE
  5
33B
330
2
100
AcDbEntity
  8
GAIKEI
  6
Continuous
 62
     1
100
AcDbLine
 10
13.89742516837702
 20
11.92055131926986
 30
0.0
 11
13.89742516837702
 21
10.32055131926989
 31
0.0
  0
LINE
  5
33C
330
2
100
AcDbEntity
  8
GAIKEI
  6
Continuous
 62
     1
100
AcDbLine
 10
13.86831296837704
 20
11.92055131926986
 30
0.0
 11
13.86831296837704
 21
10.32055131926989
 31
0.0
  0
LINE
  5
33D
330
2
100
AcDbEntity
  8
GAIKEI
  6
Continuous
 62
     1
100
AcDbLine
 10
13.81160666837701
 20
11.92055131926986
 30
0.0
 11
13.81160666837701
 21
10.32055131926989
 31
0.0
  0
LINE
  5
33E
330
2
100
AcDbEntity
  8
GAIKEI
  6
Continuous
 62
     1
100
AcDbLine
 10
13.75411766837703
 20
11.92055131926986
 30
0.0
 11
13.75411766837703
 21
10.32055131926989
 31
0.0
  0
LINE
  5
33F
330
2
100
AcDbEntity
  8
GAIKEI
  6
Continuous
 62
     1
100
AcDbLine
 10
13.72532736837701
 20
11.92055131926986
 30
0.0
 11
13.72532736837701
 21
10.32055131926989
 31
0.0
  0
LINE
  5
340
330
2
100
AcDbEntity
  8
GAIKEI
  6
Continuous
100
AcDbLine
 10
13.69634026837701
 20
11.92055131926986
 30
0.0
 11
13.69634026837701
 21
10.32055131926989
 31
0.0
  0
LINE
  5
341
330
2
100
AcDbEntity
  8
GAIKEI
  6
Continuous
 62
     1
100
AcDbLine
 10
13.694364268377
 20
11.92055131926986
 30
0.0
 11
13.694364268377
 21
10.32055131926989
 31
0.0
  0
LINE
  5
342
330
2
100
AcDbEntity
  8
GAIKEI
  6
Continuous
100
AcDbLine
 10
13.66715476837703
 20
11.92055131926986
 30
0.0
 11
13.66715476837703
 21
10.32055131926989
 31
0.0
  0
LINE
  5
343
330
2
100
AcDbEntity
  8
GAIKEI
  6
Continuous
100
AcDbLine
 10
13.665940168377
 20
11.92055131926986
 30
0.0
 11
13.665940168377
 21
10.32055131926989
 31
0.0
  0
LINE
  5
344
330
2
100
AcDbEntity
  8
GAIKEI
  6
Continuous
 62
     1
100
AcDbLine
 10
15.26594016837703
 20
15.27814401926991
 30
0.0
 11
15.26594016837703
 21
14.8360542192699
 31
0.0
  0
ARC
  5
345
330
2
100
AcDbEntity
  8
GAIKEI
  6
Continuous
100
AcDbCircle
 10
15.665940168377
 20
12.92055131926986
 30
0.0
 40
3.0
100
AcDbArc
 50
240.0735359999973
 51
255.1648660000001
  0
ARC
  5
346
330
2
100
AcDbEntity
  8
GAIKEI
  6
Continuous
100
AcDbCircle
 10
15.665940168377
 20
12.92055131926986
 30
0.0
 40
3.0
100
AcDbArc
 50
284.8351329999996
 51
299.9264640000027
  0
LINE
  5
347
330
2
100
AcDbEntity
  8
GAIKEI
  6
Continuous
100
AcDbLine
 10
49.21592336837704
 20
9.920551319269861
 30
0.0
 11
48.61592336837702
 21
9.920551319269861
 31
0.0
  0
LINE
  5
348
330
2
100
AcDbEntity
  8
GAIKEI
  6
Continuous
100
AcDbLine
 10
48.41592336837703
 20
10.12055131926991
 30
0.0
 11
48.41592336837703
 21
10.32055131926989
 31
0.0
  0
LINE
  5
349
330
2
100
AcDbEntity
  8
GAIKEI
  6
Continuous
100
AcDbLine
 10
49.41592336837704
 20
10.32055131926989
 30
0.0
 11
49.41592336837704
 21
10.12055131926991
 31
0.0
  0
ARC
  5
34A
330
2
100
AcDbEntity
  8
GAIKEI
  6
Continuous
100
AcDbCircle
 10
49.21592336837704
 20
10.12055131926991
 30
0.0
 40
0.2
100
AcDbArc
 50
270.0
 51
359.9999820000008
  0
ARC
  5
34B
330
2
100
AcDbEntity
  8
GAIKEI
  6
Continuous
100
AcDbCircle
 10
48.61592336837702
 20
10.12055131926991
 30
0.0
 40
0.2
100
AcDbArc
 50
180.0000009999949
 51
269.999982999999
  0
LINE
  5
34C
330
2
100
AcDbEntity
  8
GAIKEI
  6
Continuous
 62
     1
100
AcDbLine
 10
48.61592336837702
 20
10.32055131926989
 30
0.0
 11
48.61592336837702
 21
10.12055131926991
 31
0.0
  0
LINE
  5
34D
330
2
100
AcDbEntity
  8
GAIKEI
  6
Continuous
 62
     1
100
AcDbLine
 10
48.61592336837702
 20
10.12055131926991
 30
0.0
 11
49.21592336837704
 21
10.12055131926991
 31
0.0
  0
LINE
  5
34E
330
2
100
AcDbEntity
  8
GAIKEI
  6
Continuous
 62
     1
100
AcDbLine
 10
49.21592336837704
 20
10.12055131926991
 30
0.0
 11
49.21592336837704
 21
10.32055131926989
 31
0.0
  0
LINE
  5
34F
330
2
100
AcDbEntity
  8
GAIKEI
  6
Continuous
 62
     1
100
AcDbLine
 10
49.21592336837704
 20
10.12055131926991
 30
0.0
 11
49.41592336837704
 21
10.12055131926991
 31
0.0
  0
LINE
  5
350
330
2
100
AcDbEntity
  8
GAIKEI
  6
Continuous
 62
     1
100
AcDbLine
 10
49.21592336837704
 20
9.920551319269861
 30
0.0
 11
49.21592336837704
 21
10.12055131926991
 31
0.0
  0
LINE
  5
351
330
2
100
AcDbEntity
  8
GAIKEI
  6
Continuous
 62
     1
100
AcDbLine
 10
48.61592336837702
 20
10.12055131926991
 30
0.0
 11
48.61592336837702
 21
9.920551319269861
 31
0.0
  0
LINE
  5
352
330
2
100
AcDbEntity
  8
GAIKEI
  6
Continuous
 62
     1
100
AcDbLine
 10
48.41592336837703
 20
10.12055131926991
 30
0.0
 11
48.61592336837702
 21
10.12055131926991
 31
0.0
  0
LINE
  5
353
330
2
100
AcDbEntity
  8
GAIKEI
  6
Continuous
100
AcDbLine
 10
11.91594726837701
 20
12.63800641926991
 30
0.0
 11
12.01547011385088
 21
12.53673122580073
 31
0.0
  0
LINE
  5
354
330
2
100
AcDbEntity
  8
GAIKEI
  6
Continuous
100
AcDbLine
 10
11.915940168377
 20
19.14889601926984
 30
0.0
 11
11.915940168377
 21
12.63800731926989
 31
0.0
  0
LINE
  5
355
330
2
100
AcDbEntity
  8
GAIKEI
  6
Continuous
100
AcDbLine
 10
11.915940168377
 20
26.90309521926991
 30
0.0
 11
11.915940168377
 21
19.14889601926984
 31
0.0
  0
LINE
  5
356
330
2
100
AcDbEntity
  8
GAIKEI
  6
Continuous
100
AcDbLine
 10
12.01544019238082
 20
27.00435247571693
 30
0.0
 11
11.91593526837704
 21
26.90309551926987
 31
0.0
  0
ARC
  5
357
330
2
100
AcDbEntity
  8
GAIKEI
  6
Continuous
100
AcDbCircle
 10
54.93199336837699
 20
12.22055131926987
 30
0.0
 40
0.2
100
AcDbArc
 50
270.0
 51
359.9999820000008
  0
LINE
  5
358
330
2
100
AcDbEntity
  8
GAIKEI
  6
Continuous
 62
     1
100
AcDbLine
 10
18.30303276837702
 20
11.97055131926987
 30
0.0
 11
16.96304256837698
 21
11.97055131926987
 31
0.0
  0
LINE
  5
359
330
2
100
AcDbEntity
  8
GAIKEI
  6
Continuous
100
AcDbLine
 10
13.15165036837697
 20
12.02055131926988
 30
0.0
 11
54.93199336837705
 21
12.02055131926988
 31
0.0
  0
ARC
  5
35A
330
2
100
AcDbEntity
  8
GAIKEI
  6
Continuous
 62
     1
100
AcDbCircle
 10
17.75053186837704
 20
11.72055131926987
 30
0.0
 40
0.2
100
AcDbArc
 50
244.4976960000003
 51
269.999982999999
  0
LINE
  5
35B
330
2
100
AcDbEntity
  8
GAIKEI
  6
Continuous
 62
     1
100
AcDbLine
 10
22.40134816837701
 20
11.52055131926988
 30
0.0
 11
22.17593306837699
 21
11.52055131926988
 31
0.0
  0
LINE
  5
35C
330
2
100
AcDbEntity
  8
GAIKEI
  6
Continuous
 62
     1
100
AcDbLine
 10
22.17593306837699
 20
11.52055131926988
 30
0.0
 11
17.97594076837703
 21
11.52055131926988
 31
0.0
  0
LINE
  5
35D
330
2
100
AcDbEntity
  8
GAIKEI
  6
Continuous
 62
     1
100
AcDbLine
 10
17.97594076837703
 20
11.52055131926988
 30
0.0
 11
17.75053176837701
 21
11.52055131926988
 31
0.0
  0
ARC
  5
35E
330
2
100
AcDbEntity
  8
GAIKEI
  6
Continuous
 62
     1
100
AcDbCircle
 10
22.40134816837701
 20
11.72055131926987
 30
0.0
 40
0.2
100
AcDbArc
 50
270.0
 51
329.9999880000052
  0
LINE
  5
35F
330
2
100
AcDbEntity
  8
GAIKEI
  6
Continuous
 62
     1
100
AcDbLine
 10
22.574543768377
 20
11.62056061926989
 30
0.0
 11
22.80547646837704
 21
12.0205476192699
 31
0.0
  0
LINE
  5
360
330
2
100
AcDbEntity
  8
GAIKEI
  6
Continuous
 62
     1
100
AcDbLine
 10
17.40413246837698
 20
11.92054311926989
 30
0.0
 11
17.37526286837703
 21
11.97054671926986
 31
0.0
  0
ARC
  5
361
330
2
100
AcDbEntity
  8
GAIKEI
  6
Continuous
100
AcDbCircle
 10
49.57429746837703
 20
10.42055131926986
 30
0.0
 40
0.1
100
AcDbArc
 50
270.0
 51
354.9999559999989
  0
ARC
  5
362
330
2
100
AcDbEntity
  8
GAIKEI
  6
Continuous
100
AcDbCircle
 10
48.25757376837703
 20
10.42055131926986
 30
0.0
 40
0.1
100
AcDbArc
 50
184.9999720000041
 51
269.999982999999
  0
LINE
  5
363
330
2
100
AcDbEntity
  8
GAIKEI
  6
Continuous
100
AcDbLine
 10
49.57429746837703
 20
10.32055131926989
 30
0.0
 11
49.16592336837704
 21
10.32055131926989
 31
0.0
  0
LINE
  5
364
330
2
100
AcDbEntity
  8
GAIKEI
  6
Continuous
100
AcDbLine
 10
49.16592336837704
 20
10.32055131926989
 30
0.0
 11
48.66592336837704
 21
10.32055131926989
 31
0.0
  0
LINE
  5
365
330
2
100
AcDbEntity
  8
GAIKEI
  6
Continuous
100
AcDbLine
 10
48.66592336837704
 20
10.32055131926989
 30
0.0
 11
48.25757376837703
 21
10.32055131926989
 31
0.0
  0
LINE
  5
366
330
2
100
AcDbEntity
  8
GAIKEI
  6
Continuous
100
AcDbLine
 10
48.15793936837701
 20
10.41180961926989
 30
0.0
 11
48.01719446837705
 21
12.02053271926991
 31
0.0
  0
LINE
  5
367
330
2
100
AcDbEntity
  8
GAIKEI
  6
Continuous
100
AcDbLine
 10
49.67391836837703
 20
10.4118395192699
 30
0.0
 11
49.81466116837703
 21
12.02053831926992
 31
0.0
  0
LINE
  5
368
330
2
100
AcDbEntity
  8
GAIKEI
  6
Continuous
 62
     1
100
AcDbLine
 10
13.16735876837703
 20
13.82053451926987
 30
0.0
 11
13.15165056837702
 21
12.02055421926991
 31
0.0
  0
SPLINE
  5
369
330
2
100
AcDbEntity
  8
GAIKEI
  6
Continuous
 62
     1
100
AcDbSpline
210
0.0
220
0.0
230
1.0
 70
     8
 71
     3
 72
     9
 73
     5
 74
     3
 42
0.0000000001
 43
0.0000000001
 44
0.000001
 12
0.0777981690539094
 22
0.9969691293575039
 32
0.0
 13
0.9576507596180521
 23
0.287932322956225
 33
0.0
 40
0.0
 40
0.0
 40
0.0
 40
0.0
 40
0.0052961563262035
 40
0.0084729461998152
 40
0.0084729461998152
 40
0.0084729461998152
 40
0.0084729461998152
 10
28.95960016017392
 20
12.02055129583238
 30
0.0
 10
28.95973750392898
 20
12.02231133061954
 30
0.0
 10
28.96073211498143
 20
12.02450136121291
 30
0.0
 10
28.95924525478287
 20
12.02869366129479
 30
0.0
 10
28.96025933986141
 20
12.0289985614574
 30
0.0
 11
28.95960016017392
 21
12.02055129583238
 31
0.0
 11
28.96001214747861
 21
12.025830836848
 31
0.0
 11
28.96025933986141
 21
12.0289985614574
 31
0.0
  0
SPLINE
  5
36A
330
2
100
AcDbEntity
  8
GAIKEI
  6
Continuous
 62
     1
100
AcDbSpline
210
0.0
220
0.0
230
1.0
 70
     8
 71
     3
 72
     9
 73
     5
 74
     3
 42
0.0000000001
 43
0.0000000001
 44
0.000001
 12
0.0776478495003114
 22
0.9969808480948755
 32
0.0
 13
0.9576507596180521
 23
0.287932322956225
 33
0.0
 40
0.0
 40
0.0
 40
0.0
 40
0.0
 40
0.035875924541753
 40
0.1205747385412194
 40
0.1205747385412194
 40
0.1205747385412194
 40
0.1205747385412194
 10
28.96025933986141
 20
12.0289985614574
 30
0.0
 10
28.96118790265791
 20
12.04092109801601
 30
0.0
 10
29.01065350795972
 20
12.05733819927857
 30
0.0
 10
29.04132751408963
 20
12.0718703625977
 30
0.0
 10
29.06836480861142
 20
12.07999953801987
 30
0.0
 11
28.96025933986141
 21
12.0289985614574
 31
0.0
 11
28.98896128087847
 21
12.05052335660218
 31
0.0
 11
29.06836480861142
 21
12.07999953801987
 31
0.0
  0
SPLINE
  5
36B
330
2
100
AcDbEntity
  8
GAIKEI
  6
Continuous
 62
     1
100
AcDbSpline
210
0.0
220
0.0
230
1.0
 70
     8
 71
     3
 72
     9
 73
     5
 74
     3
 42
0.0000000001
 43
0.0000000001
 44
0.000001
 12
0.9577435112851738
 22
0.2876236544360463
 32
0.0
 13
0.9999999992061841
 23
-0.0000398450949805
 33
0.0
 40
0.0
 40
0.0
 40
0.0
 40
0.0
 40
0.1576136686687682
 40
0.3465120701109691
 40
0.3465120701109691
 40
0.3465120701109691
 40
0.3465120701109691
 10
29.06836480861142
 20
12.07999953801987
 30
0.0
 10
29.11868263143055
 20
12.09511067781039
 30
0.0
 10
29.23228733463375
 20
12.11819757197614
 30
0.0
 10
29.3478303154723
 20
12.12743857034897
 30
0.0
 10
29.41079644923639
 20
12.12743606145739
 30
0.0
 11
29.06836480861142
 21
12.07999953801987
 31
0.0
 11
29.22243184810117
 21
12.11324755931923
 31
0.0
 11
29.41079644923639
 21
12.12743606145739
 31
0.0
  0
LINE
  5
36C
330
2
100
AcDbEntity
  8
GAIKEI
  6
Continuous
 62
     1
100
AcDbLine
 10
29.41079636837702
 20
12.12743601926991
 30
0.0
 11
38.42107476837703
 21
12.12743601926991
 31
0.0
  0
SPLINE
  5
36D
330
2
100
AcDbEntity
  8
GAIKEI
  6
Continuous
 62
     1
100
AcDbSpline
210
0.0
220
0.0
230
1.0
 70
     8
 71
     3
 72
     9
 73
     5
 74
     3
 42
0.0000000001
 43
0.0000000001
 44
0.000001
 12
0.9999999990889968
 22
0.0000426849692171
 32
0.0
 13
0.9577349185293522
 23
-0.2876522654692205
 33
0.0
 40
0.0
 40
0.0
 40
0.0
 40
0.0
 40
0.188898314493089
 40
0.3465127069518362
 40
0.3465127069518362
 40
0.3465127069518362
 40
0.3465127069518362
 10
38.42107476954891
 20
12.12743606145739
 30
0.0
 10
38.48404087432257
 20
12.12743874916364
 30
0.0
 10
38.59958487275432
 20
12.11820584455071
 30
0.0
 10
38.71318880773376
 20
12.09511225037366
 30
0.0
 10
38.76350641017393
 20
12.07999953801987
 30
0.0
 11
38.42107476954891
 21
12.12743606145739
 31
0.0
 11
38.6094396329446
 21
12.1132522084597
 31
0.0
 11
38.76350641017393
 21
12.07999953801987
 31
0.0
  0
SPLINE
  5
36E
330
2
100
AcDbEntity
  8
GAIKEI
  6
Continuous
 62
     1
100
AcDbSpline
210
0.0
220
0.0
230
1.0
 70
     8
 71
     3
 72
     9
 73
     5
 74
     3
 42
0.0000000001
 43
0.0000000001
 44
0.000001
 12
0.9576600301241045
 22
-0.2879014878438448
 32
0.0
 13
0.0770595663473882
 23
-0.9970264907385121
 33
0.0
 40
0.0
 40
0.0
 40
0.0
 40
0.0
 40
0.0847010630831044
 40
0.120574441378545
 40
0.120574441378545
 40
0.120574441378545
 40
0.120574441378545
 10
38.76350641017393
 20
12.07999953801987
 30
0.0
 10
38.79054468438184
 20
12.07187101732535
 30
0.0
 10
38.82120874337985
 20
12.05733501153915
 30
0.0
 10
38.87069041659893
 20
12.040920797615
 30
0.0
 10
38.87161187892388
 20
12.0289985614574
 30
0.0
 11
38.76350641017393
 21
12.07999953801987
 31
0.0
 11
38.84291156874582
 21
12.05052128757597
 31
0.0
 11
38.87161187892388
 21
12.0289985614574
 31
0.0
  0
SPLINE
  5
36F
330
2
100
AcDbEntity
  8
GAIKEI
  6
Continuous
 62
     1
100
AcDbSpline
210
0.0
220
0.0
230
1.0
 70
     8
 71
     3
 72
     9
 73
     5
 74
     3
 42
0.0000000001
 43
0.0000000001
 44
0.000001
 12
0.0775485507434491
 22
-0.9969885768039626
 32
0.0
 13
0.0775485507434491
 23
-0.9969885768039626
 33
0.0
 40
0.0
 40
0.0
 40
0.0
 40
0.0
 40
0.0042364730141995
 40
0.0084729460283991
 40
0.0084729460283991
 40
0.0084729460283991
 40
0.0084729460283991
 10
38.87161187892388
 20
12.0289985614574
 30
0.0
 10
38.87172138970473
 20
12.02759065639037
 30
0.0
 10
38.87194146876766
 20
12.02477492864491
 30
0.0
 10
38.87216154783059
 20
12.0219592008994
 30
0.0
 10
38.87227105861143
 20
12.02055129583238
 30
0.0
 11
38.87161187892388
 21
12.0289985614574
 31
0.0
 11
38.87194146876766
 21
12.02477492864489
 31
0.0
 11
38.87227105861143
 21
12.02055129583238
 31
0.0
  0
LINE
  5
370
330
2
100
AcDbEntity
  8
KIJUN
  6
CENTER
100
AcDbLine
 10
-39.32412515999749
 20
19.77054441926987
 30
0.0
 11
-24.42412515999752
 21
19.77055761926988
 31
0.0
  0
LINE
  5
374
330
2
100
AcDbEntity
  8
KIJUN
  6
CENTER
100
AcDbLine
 10
-31.87411855999744
 20
12.32055101926988
 30
0.0
 11
-31.87413175999751
 21
27.22055101926992
 31
0.0
  0
ARC
  5
375
330
2
100
AcDbEntity
  8
GAIKEI
  6
Continuous
 62
     1
100
AcDbCircle
 10
-31.84783125999752
 20
19.58355451926991
 30
0.0
 40
7.462889100000002
100
AcDbArc
 50
178.5987920000013
 51
187.4126319999991
  0
LINE
  5
376
330
2
100
AcDbEntity
  8
GAIKEI
  6
Continuous
 62
     1
100
AcDbLine
 10
-39.35847195999747
 20
19.76787851926985
 30
0.0
 11
-39.30850565999748
 21
19.76604431926989
 31
0.0
  0
ARC
  5
377
330
2
100
AcDbEntity
  8
GAIKEI
  6
Continuous
 62
     1
100
AcDbCircle
 10
-31.88418375999749
 20
19.58293051926989
 30
0.0
 40
7.4765701
100
AcDbArc
 50
178.5825090000005
 51
184.8464480000011
  0
LINE
  5
378
330
2
100
AcDbEntity
  8
GAIKEI
  6
Continuous
 62
     1
100
AcDbLine
 10
-39.4648275599975
 20
18.94697051926988
 30
0.0
 11
-39.33401415999748
 21
18.95126391926988
 31
0.0
  0
LINE
  5
379
330
2
100
AcDbEntity
  8
GAIKEI
  6
Continuous
 62
     1
100
AcDbLine
 10
-39.24835435999745
 20
18.62072951926984
 30
0.0
 11
-39.4648166599975
 21
18.94696951926988
 31
0.0
  0
LINE
  5
37A
330
2
100
AcDbEntity
  8
GAIKEI
  6
Continuous
 62
     1
100
AcDbLine
 10
42.65285736837699
 20
23.99024221926987
 30
0.0
 11
42.65285736837699
 21
24.55020821926991
 31
0.0
  0
LINE
  5
37B
330
2
100
AcDbEntity
  8
GAIKEI
  6
Continuous
 62
     1
100
AcDbLine
 10
42.652879368377
 20
24.55020821926991
 30
0.0
 11
46.22415136837702
 21
24.55020821926991
 31
0.0
  0
LINE
  5
37C
330
2
100
AcDbEntity
  8
GAIKEI
  6
Continuous
 62
     1
100
AcDbLine
 10
46.22417436837702
 20
24.55020821926991
 30
0.0
 11
46.22417436837702
 21
23.99024221926987
 31
0.0
  0
LINE
  5
37D
330
2
100
AcDbEntity
  8
GAIKEI
  6
Continuous
 62
     1
100
AcDbLine
 10
46.22415236837702
 20
23.99024221926987
 30
0.0
 11
42.652879368377
 21
23.99024221926987
 31
0.0
  0
LINE
  5
37E
330
2
100
AcDbEntity
  8
GAIKEI
  6
Continuous
 62
     1
100
AcDbLine
 10
42.65285736837699
 20
23.24024221926987
 30
0.0
 11
42.65285736837699
 21
23.8002082192699
 31
0.0
  0
LINE
  5
37F
330
2
100
AcDbEntity
  8
GAIKEI
  6
Continuous
 62
     1
100
AcDbLine
 10
42.65287836837706
 20
23.8002082192699
 30
0.0
 11
46.22415236837702
 21
23.8002082192699
 31
0.0
  0
LINE
  5
380
330
2
100
AcDbEntity
  8
GAIKEI
  6
Continuous
 62
     1
100
AcDbLine
 10
46.22417436837702
 20
23.8002082192699
 30
0.0
 11
46.22417436837702
 21
23.24024221926987
 31
0.0
  0
LINE
  5
381
330
2
100
AcDbEntity
  8
GAIKEI
  6
Continuous
 62
     1
100
AcDbLine
 10
46.22415336837707
 20
23.24024221926987
 30
0.0
 11
42.652877368377
 21
23.24024221926987
 31
0.0
  0
LINE
  5
382
330
2
100
AcDbEntity
  8
GAIKEI
  6
Continuous
 62
     1
100
AcDbLine
 10
42.65285736837699
 20
22.49024221926987
 30
0.0
 11
42.65285736837699
 21
23.05020821926985
 31
0.0
  0
LINE
  5
383
330
2
100
AcDbEntity
  8
GAIKEI
  6
Continuous
 62
     1
100
AcDbLine
 10
42.652877368377
 20
23.05020821926985
 30
0.0
 11
46.22415436837701
 21
23.05020821926985
 31
0.0
  0
LINE
  5
384
330
2
100
AcDbEntity
  8
GAIKEI
  6
Continuous
 62
     1
100
AcDbLine
 10
46.22417436837702
 20
23.05020821926985
 30
0.0
 11
46.22417436837702
 21
22.49024221926987
 31
0.0
  0
LINE
  5
385
330
2
100
AcDbEntity
  8
GAIKEI
  6
Continuous
 62
     1
100
AcDbLine
 10
46.22415536837701
 20
22.49024221926987
 30
0.0
 11
42.65287636837706
 21
22.49024221926987
 31
0.0
  0
LINE
  5
386
330
2
100
AcDbEntity
  8
GAIKEI
  6
Continuous
 62
     1
100
AcDbLine
 10
42.65285736837699
 20
21.74024221926988
 30
0.0
 11
42.65285736837699
 21
22.30020821926991
 31
0.0
  0
LINE
  5
387
330
2
100
AcDbEntity
  8
GAIKEI
  6
Continuous
 62
     1
100
AcDbLine
 10
42.65287636837706
 20
22.30020821926991
 30
0.0
 11
46.22415536837701
 21
22.30020821926991
 31
0.0
  0
LINE
  5
388
330
2
100
AcDbEntity
  8
GAIKEI
  6
Continuous
 62
     1
100
AcDbLine
 10
46.22417436837702
 20
22.30020821926991
 30
0.0
 11
46.22417436837702
 21
21.74024221926988
 31
0.0
  0
LINE
  5
389
330
2
100
AcDbEntity
  8
GAIKEI
  6
Continuous
 62
     1
100
AcDbLine
 10
46.224156368377
 20
21.74024221926988
 30
0.0
 11
42.65287536837701
 21
21.74024221926988
 31
0.0
  0
LINE
  5
38A
330
2
100
AcDbEntity
  8
GAIKEI
  6
Continuous
 62
     1
100
AcDbLine
 10
42.65285736837699
 20
20.99024221926987
 30
0.0
 11
42.65285736837699
 21
21.5502082192699
 31
0.0
  0
LINE
  5
38B
330
2
100
AcDbEntity
  8
GAIKEI
  6
Continuous
 62
     1
100
AcDbLine
 10
42.65287536837701
 20
21.5502082192699
 30
0.0
 11
46.224156368377
 21
21.5502082192699
 31
0.0
  0
LINE
  5
38C
330
2
100
AcDbEntity
  8
GAIKEI
  6
Continuous
 62
     1
100
AcDbLine
 10
46.22417436837702
 20
21.5502082192699
 30
0.0
 11
46.22417436837702
 21
20.99024221926987
 31
0.0
  0
LINE
  5
38D
330
2
100
AcDbEntity
  8
GAIKEI
  6
Continuous
 62
     1
100
AcDbLine
 10
46.22415736837706
 20
20.99024221926987
 30
0.0
 11
42.65287436837707
 21
20.99024221926987
 31
0.0
  0
LINE
  5
38E
330
2
100
AcDbEntity
  8
GAIKEI
  6
Continuous
 62
     1
100
AcDbLine
 10
42.65285736837699
 20
20.24024221926987
 30
0.0
 11
42.65285736837699
 21
20.80020821926991
 31
0.0
  0
LINE
  5
38F
330
2
100
AcDbEntity
  8
GAIKEI
  6
Continuous
 62
     1
100
AcDbLine
 10
42.65287336837701
 20
20.80020821926991
 30
0.0
 11
46.224158368377
 21
20.80020821926991
 31
0.0
  0
LINE
  5
390
330
2
100
AcDbEntity
  8
GAIKEI
  6
Continuous
 62
     1
100
AcDbLine
 10
46.22417436837702
 20
20.80020821926991
 30
0.0
 11
46.22417436837702
 21
20.24024221926987
 31
0.0
  0
LINE
  5
391
330
2
100
AcDbEntity
  8
GAIKEI
  6
Continuous
 62
     1
100
AcDbLine
 10
46.22415936837706
 20
20.24024221926987
 30
0.0
 11
42.65287236837702
 21
20.24024221926987
 31
0.0
  0
LINE
  5
392
330
2
100
AcDbEntity
  8
GAIKEI
  6
Continuous
 62
     1
100
AcDbLine
 10
42.65285736837699
 20
19.49024221926987
 30
0.0
 11
42.65285736837699
 21
20.0502082192699
 31
0.0
  0
LINE
  5
393
330
2
100
AcDbEntity
  8
GAIKEI
  6
Continuous
 62
     1
100
AcDbLine
 10
42.65287236837702
 20
20.0502082192699
 30
0.0
 11
46.22415936837706
 21
20.0502082192699
 31
0.0
  0
LINE
  5
394
330
2
100
AcDbEntity
  8
GAIKEI
  6
Continuous
 62
     1
100
AcDbLine
 10
46.22417436837702
 20
20.0502082192699
 30
0.0
 11
46.22417436837702
 21
19.49024221926987
 31
0.0
  0
LINE
  5
395
330
2
100
AcDbEntity
  8
GAIKEI
  6
Continuous
 62
     1
100
AcDbLine
 10
46.224160368377
 20
19.49024221926987
 30
0.0
 11
42.65287036837702
 21
19.49024221926987
 31
0.0
  0
LINE
  5
396
330
2
100
AcDbEntity
  8
GAIKEI
  6
Continuous
 62
     1
100
AcDbLine
 10
42.65285736837699
 20
18.74024221926987
 30
0.0
 11
42.65285736837699
 21
19.30020821926985
 31
0.0
  0
LINE
  5
397
330
2
100
AcDbEntity
  8
GAIKEI
  6
Continuous
 62
     1
100
AcDbLine
 10
42.65287036837702
 20
19.30020821926985
 30
0.0
 11
46.22416136837705
 21
19.30020821926985
 31
0.0
  0
LINE
  5
398
330
2
100
AcDbEntity
  8
GAIKEI
  6
Continuous
 62
     1
100
AcDbLine
 10
46.22417436837702
 20
19.30020821926985
 30
0.0
 11
46.22417436837702
 21
18.74024221926987
 31
0.0
  0
LINE
  5
399
330
2
100
AcDbEntity
  8
GAIKEI
  6
Continuous
 62
     1
100
AcDbLine
 10
46.22416236837699
 20
18.74024221926987
 30
0.0
 11
42.65286836837702
 21
18.74024221926987
 31
0.0
  0
LINE
  5
39A
330
2
100
AcDbEntity
  8
GAIKEI
  6
Continuous
 62
     1
100
AcDbLine
 10
42.65285736837699
 20
17.99024221926987
 30
0.0
 11
42.65285736837699
 21
18.5502082192699
 31
0.0
  0
LINE
  5
39B
330
2
100
AcDbEntity
  8
GAIKEI
  6
Continuous
 62
     1
100
AcDbLine
 10
42.65286836837702
 20
18.5502082192699
 30
0.0
 11
46.22416336837704
 21
18.5502082192699
 31
0.0
  0
LINE
  5
39C
330
2
100
AcDbEntity
  8
GAIKEI
  6
Continuous
 62
     1
100
AcDbLine
 10
46.22417436837702
 20
18.5502082192699
 30
0.0
 11
46.22417436837702
 21
17.99024221926987
 31
0.0
  0
LINE
  5
39D
330
2
100
AcDbEntity
  8
GAIKEI
  6
Continuous
 62
     1
100
AcDbLine
 10
46.22416536837704
 20
17.99024221926987
 30
0.0
 11
42.65286636837703
 21
17.99024221926987
 31
0.0
  0
LINE
  5
39E
330
2
100
AcDbEntity
  8
GAIKEI
  6
Continuous
 62
     1
100
AcDbLine
 10
42.65285736837699
 20
17.24024221926987
 30
0.0
 11
42.65285736837699
 21
17.8002082192699
 31
0.0
  0
LINE
  5
39F
330
2
100
AcDbEntity
  8
GAIKEI
  6
Continuous
 62
     1
100
AcDbLine
 10
42.65286636837703
 20
17.8002082192699
 30
0.0
 11
46.22416536837704
 21
17.8002082192699
 31
0.0
  0
LINE
  5
3A0
330
2
100
AcDbEntity
  8
GAIKEI
  6
Continuous
 62
     1
100
AcDbLine
 10
46.22417436837702
 20
17.8002082192699
 30
0.0
 11
46.22417436837702
 21
17.24024221926987
 31
0.0
  0
LINE
  5
3A1
330
2
100
AcDbEntity
  8
GAIKEI
  6
Continuous
 62
     1
100
AcDbLine
 10
46.22416836837703
 20
17.24024221926987
 30
0.0
 11
42.65286336837704
 21
17.24024221926987
 31
0.0
  0
LINE
  5
3A2
330
2
100
AcDbEntity
  8
GAIKEI
  6
Continuous
 62
     1
100
AcDbLine
 10
42.65285736837699
 20
16.49024221926987
 30
0.0
 11
42.65285736837699
 21
17.0502082192699
 31
0.0
  0
LINE
  5
3A3
330
2
100
AcDbEntity
  8
GAIKEI
  6
Continuous
 62
     1
100
AcDbLine
 10
42.65286236837704
 20
17.0502082192699
 30
0.0
 11
46.22416936837703
 21
17.0502082192699
 31
0.0
  0
LINE
  5
3A4
330
2
100
AcDbEntity
  8
GAIKEI
  6
Continuous
 62
     1
100
AcDbLine
 10
46.22417436837702
 20
17.0502082192699
 30
0.0
 11
46.22417436837702
 21
16.49024221926987
 31
0.0
  0
LINE
  5
3A5
330
2
100
AcDbEntity
  8
GAIKEI
  6
Continuous
 62
     1
100
AcDbLine
 10
46.22417436837702
 20
16.49024221926987
 30
0.0
 11
42.65285736837699
 21
16.49024221926987
 31
0.0
  0
LINE
  5
3A6
330
2
100
AcDbEntity
  8
GAIKEI
  6
Continuous
 62
     1
100
AcDbLine
 10
42.65285736837699
 20
15.74024221926987
 30
0.0
 11
42.65285736837699
 21
16.3002082192699
 31
0.0
  0
LINE
  5
3A7
330
2
100
AcDbEntity
  8
GAIKEI
  6
Continuous
 62
     1
100
AcDbLine
 10
42.65285736837699
 20
16.3002082192699
 30
0.0
 11
46.22417436837702
 21
16.3002082192699
 31
0.0
  0
LINE
  5
3A8
330
2
100
AcDbEntity
  8
GAIKEI
  6
Continuous
 62
     1
100
AcDbLine
 10
46.22417436837702
 20
16.3002082192699
 30
0.0
 11
46.22417436837702
 21
15.74024221926987
 31
0.0
  0
LINE
  5
3A9
330
2
100
AcDbEntity
  8
GAIKEI
  6
Continuous
 62
     1
100
AcDbLine
 10
46.22417436837702
 20
15.74024221926987
 30
0.0
 11
42.65285736837699
 21
15.74024221926987
 31
0.0
  0
LINE
  5
3AA
330
2
100
AcDbEntity
  8
GAIKEI
  6
Continuous
 62
     1
100
AcDbLine
 10
42.65285736837699
 20
14.99024221926987
 30
0.0
 11
42.65285736837699
 21
15.5502082192699
 31
0.0
  0
LINE
  5
3AB
330
2
100
AcDbEntity
  8
GAIKEI
  6
Continuous
 62
     1
100
AcDbLine
 10
42.65285736837699
 20
15.5502082192699
 30
0.0
 11
46.22417436837702
 21
15.5502082192699
 31
0.0
  0
LINE
  5
3AC
330
2
100
AcDbEntity
  8
GAIKEI
  6
Continuous
 62
     1
100
AcDbLine
 10
46.22417436837702
 20
15.5502082192699
 30
0.0
 11
46.22417436837702
 21
14.99024221926987
 31
0.0
  0
LINE
  5
3AD
330
2
100
AcDbEntity
  8
GAIKEI
  6
Continuous
 62
     1
100
AcDbLine
 10
46.22417436837702
 20
14.99024221926987
 30
0.0
 11
42.65285736837699
 21
14.99024221926987
 31
0.0
  0
LINE
  5
3AE
330
2
100
AcDbEntity
  8
GAIKEI
  6
Continuous
 62
     1
100
AcDbLine
 10
44.72250936837702
 20
15.5502082192699
 30
0.0
 11
44.72250936837702
 21
14.99024221926987
 31
0.0
  0
LINE
  5
3AF
330
2
100
AcDbEntity
  8
GAIKEI
  6
Continuous
 62
     1
100
AcDbLine
 10
44.154522368377
 20
14.99024221926987
 30
0.0
 11
44.15452236837697
 21
15.5502082192699
 31
0.0
  0
POINT
  5
3B0
330
2
100
AcDbEntity
  8
GAIKEI
  6
Continuous
 62
     1
100
AcDbPoint
 10
49.81592336837707
 20
14.6199228192699
 30
0.0
  0
LINE
  5
3B1
330
2
100
AcDbEntity
  8
WAKU
 62
     1
100
AcDbLine
 10
-62.60517033732435
 20
-12.81987432529797
 30
0.0
 11
62.39482966267565
 21
-12.81987432529797
 31
0.0
  0
LINE
  5
3B2
330
2
100
AcDbEntity
  8
WAKU
 62
     1
100
AcDbLine
 10
-62.60517033732435
 20
-17.81987432529797
 30
0.0
 11
62.39482966267565
 21
-17.81987432529797
 31
0.0
  0
LINE
  5
3B3
330
2
100
AcDbEntity
  8
WAKU
 62
     1
100
AcDbLine
 10
-62.60517033732435
 20
-22.81987432529797
 30
0.0
 11
62.39482966267565
 21
-22.81987432529797
 31
0.0
  0
LINE
  5
3B4
330
2
100
AcDbEntity
  8
WAKU
 62
     1
100
AcDbLine
 10
-62.60517033732435
 20
-27.81987432529798
 30
0.0
 11
62.39482966267565
 21
-27.81987432529798
 31
0.0
  0
LINE
  5
3B5
330
2
100
AcDbEntity
  8
WAKU
 62
     1
100
AcDbLine
 10
-62.60517033732435
 20
-32.81987432529798
 30
0.0
 11
62.39482966267565
 21
-32.81987432529798
 31
0.0
  0
LINE
  5
3B6
330
2
100
AcDbEntity
  8
WAKU
 62
     4
100
AcDbLine
 10
62.39482966267565
 20
-2.819874325297973
 30
0.0
 11
-62.60517033732435
 21
-2.819874325297973
 31
0.0
  0
LINE
  5
3B7
330
2
100
AcDbEntity
  8
WAKU
 62
     4
100
AcDbLine
 10
-62.60517033732435
 20
-52.81987432529797
 30
0.0
 11
62.39482966267565
 21
-52.81987432529797
 31
0.0
  0
LINE
  5
3B8
330
2
100
AcDbEntity
  8
WAKU
 62
     1
100
AcDbLine
 10
-62.60517033732435
 20
-7.819874325297973
 30
0.0
 11
62.39482966267565
 21
-7.819874325297973
 31
0.0
  0
LINE
  5
3B9
330
2
100
AcDbEntity
  8
WAKU
 62
     1
100
AcDbLine
 10
-62.60517033732435
 20
-37.81987432529798
 30
0.0
 11
62.39482966267565
 21
-37.81987432529798
 31
0.0
  0
LINE
  5
3BA
330
2
100
AcDbEntity
  8
WAKU
 62
     4
100
AcDbLine
 10
-62.60517033732435
 20
-2.819874325297973
 30
0.0
 11
-62.60517033732435
 21
-52.81987432529797
 31
0.0
  0
TEXT
  5
3BB
330
2
100
AcDbEntity
  8
MOJI1
100
AcDbText
 10
-20.10517033732435
 20
-36.81987432529798
 30
0.0
 40
3.0
  1
１０２４×７６８ドット（ＲＧＢ信号時）
100
AcDbText
  0
TEXT
  5
3BC
330
2
100
AcDbEntity
  8
MOJI1
100
AcDbText
 10
-20.10517033732435
 20
-26.81987432529798
 30
0.0
 40
3.0
  1
５０～６００型（アスペクト比４：３）
100
AcDbText
  0
TEXT
  5
3BD
330
2
100
AcDbEntity
  8
MOJI1
100
AcDbText
 10
-20.10517033732435
 20
-6.819874325297973
 30
0.0
 40
3.0
  1
ＡＣ１００Ｖ／９．５Ａ　５０／６０Ｈｚ
100
AcDbText
  0
TEXT
  5
3BE
330
2
100
AcDbEntity
  8
MOJI1
100
AcDbText
 10
-20.10517033732435
 20
-31.81987432529798
 30
0.0
 40
3.0
  1
６５００ルーメン（ランプ２灯、ハイモード時）
 41
0.9
100
AcDbText
  0
TEXT
  5
3BF
330
2
100
AcDbEntity
  8
MOJI1
100
AcDbText
 10
-20.10517033732435
 20
-11.81987432529797
 30
0.0
 40
3.0
  1
１チップ　ＤＬＰ方式
100
AcDbText
  0
TEXT
  5
3C0
330
2
100
AcDbEntity
  8
MOJI1
100
AcDbText
 10
-20.10517033732435
 20
-41.81987432529797
 30
0.0
 40
3.0
  1
ビデオ／Ｓビデオ、ＲＧＢ、ＤＶＩ－Ｄ、ＬＡＮ
100
AcDbText
  0
TEXT
  5
3C1
330
2
100
AcDbEntity
  8
MOJI1
100
AcDbText
 10
-20.10517033732435
 20
-21.81987432529775
 30
0.0
 40
3.0
  1
電動ズーム・電動フォーカスレンズ
100
AcDbText
  0
TEXT
  5
3C2
330
2
100
AcDbEntity
  8
MOJI1
100
AcDbText
 10
-60.10517033732435
 20
-41.81987432529797
 30
0.0
 40
3.0
  1
接続端子
100
AcDbText
  0
TEXT
  5
3C3
330
2
100
AcDbEntity
  8
MOJI1
100
AcDbText
 10
-60.10517033732435
 20
-11.81987432529797
 30
0.0
 40
3.0
  1
表示デバイス
100
AcDbText
  0
TEXT
  5
3C4
330
2
100
AcDbEntity
  8
MOJI1
100
AcDbText
 10
-60.10517033732435
 20
-26.81987432529798
 30
0.0
 40
3.0
  1
投写画面サイズ
100
AcDbText
  0
TEXT
  5
3C5
330
2
100
AcDbEntity
  8
MOJI1
100
AcDbText
 10
-60.10517033732435
 20
-6.95183076275623
 30
0.0
 40
3.0
  1
電　源
100
AcDbText
  0
TEXT
  5
3C6
330
2
100
AcDbEntity
  8
MOJI1
100
AcDbText
 10
-60.10517033732435
 20
-21.81987432529798
 30
0.0
 40
3.0
  1
レンズ
100
AcDbText
  0
TEXT
  5
3C7
330
2
100
AcDbEntity
  8
MOJI1
100
AcDbText
 10
-60.10517033732435
 20
-36.81987432529798
 30
0.0
 40
3.0
  1
解像度
100
AcDbText
  0
TEXT
  5
3C8
330
2
100
AcDbEntity
  8
MOJI1
100
AcDbText
 10
-60.10517033732435
 20
-31.81987432529798
 30
0.0
 40
3.0
  1
光出力
100
AcDbText
  0
LINE
  5
3C9
330
2
100
AcDbEntity
  8
WAKU
 62
     4
100
AcDbLine
 10
-22.60517033732435
 20
-52.81987432529797
 30
0.0
 11
-22.60517033732435
 21
-2.819874325297973
 31
0.0
  0
LINE
  5
3CA
330
2
100
AcDbEntity
  8
WAKU
 62
     4
100
AcDbLine
 10
62.39482966267565
 20
-52.81987432529797
 30
0.0
 11
62.39482966267565
 21
-2.819874325297973
 31
0.0
  0
TEXT
  5
3CB
330
2
100
AcDbEntity
  8
MOJI1
100
AcDbText
 10
-60.10517033732435
 20
-16.81987432529797
 30
0.0
 40
3.0
  1
ランプ
100
AcDbText
  0
TEXT
  5
3CC
330
2
100
AcDbEntity
  8
MOJI1
100
AcDbText
 10
-20.10517033732435
 20
-16.81987432529797
 30
0.0
 40
3.0
  1
３００Ｗ（ＵＨＭランプ　２灯式）　
100
AcDbText
  0
LINE
  5
3CD
330
2
100
AcDbEntity
  8
GAIKEI
 62
     1
100
AcDbLine
 10
12.21594016837701
 20
12.53311599578933
 30
0.0
 11
12.21594016837701
 21
27.00796874833054
 31
0.0
  0
LINE
  5
3CE
330
2
100
AcDbEntity
  8
GAIKEI
100
AcDbLine
 10
12.01547011385088
 20
12.53673122580073
 30
0.0
 11
12.81593556837703
 21
12.52229581926985
 31
0.0
  0
LINE
  5
3CF
330
2
100
AcDbEntity
  8
GAIKEI
100
AcDbLine
 10
12.01544019238082
 20
27.00435247571693
 30
0.0
 11
12.815934968377
 21
27.01879041926986
 31
0.0
  0
LINE
  5
3D0
330
2
100
AcDbEntity
  8
GAIKEI
  6
Continuous
 62
     1
100
AcDbLine
 10
26.4691545914356
 20
16.4064155192699
 30
0.0
 11
26.4691545914356
 21
16.97467731926986
 31
0.0
  0
LINE
  5
3D1
330
2
100
AcDbEntity
  8
GAIKEI
  6
Continuous
 62
     1
100
AcDbLine
 10
27.96630299030125
 20
16.4064155192699
 30
0.0
 11
27.96630299030125
 21
16.97467731926986
 31
0.0
  0
LINE
  5
3D2
330
2
100
AcDbEntity
  8
GAIKEI
  6
Continuous
 62
     1
100
AcDbLine
 10
27.96630299030125
 20
17.17641066065283
 30
0.0
 11
27.96630299030125
 21
17.74467246065285
 31
0.0
  0
LINE
  5
3D3
330
2
100
AcDbEntity
  8
GAIKEI
  6
Continuous
 62
     1
100
AcDbLine
 10
26.4691545914356
 20
17.17641066065283
 30
0.0
 11
26.4691545914356
 21
17.74467246065285
 31
0.0
  0
LINE
  5
3D4
330
2
100
AcDbEntity
  8
GAIKEI
  6
Continuous
 62
     1
100
AcDbLine
 10
26.4691545914356
 20
18.71640090247968
 30
0.0
 11
26.4691545914356
 21
19.28466270247969
 31
0.0
  0
LINE
  5
3D5
330
2
100
AcDbEntity
  8
GAIKEI
  6
Continuous
 62
     1
100
AcDbLine
 10
27.96630299030125
 20
18.71640090247968
 30
0.0
 11
27.96630299030125
 21
19.28466270247969
 31
0.0
  0
LINE
  5
3D6
330
2
100
AcDbEntity
  8
GAIKEI
  6
Continuous
 62
     1
100
AcDbLine
 10
27.96630299030125
 20
17.9464057610968
 30
0.0
 11
27.96630299030125
 21
18.51466756109676
 31
0.0
  0
LINE
  5
3D7
330
2
100
AcDbEntity
  8
GAIKEI
  6
Continuous
 62
     1
100
AcDbLine
 10
26.4691545914356
 20
17.9464057610968
 30
0.0
 11
26.4691545914356
 21
18.51466756109676
 31
0.0
  0
LINE
  5
3D8
330
2
100
AcDbEntity
  8
GAIKEI
  6
Continuous
 62
     1
100
AcDbLine
 10
26.4691545914356
 20
21.02641060188779
 30
0.0
 11
26.4691545914356
 21
21.59467240188781
 31
0.0
  0
LINE
  5
3D9
330
2
100
AcDbEntity
  8
GAIKEI
  6
Continuous
 62
     1
100
AcDbLine
 10
27.96630299030125
 20
21.02641060188779
 30
0.0
 11
27.96630299030125
 21
21.59467240188781
 31
0.0
  0
LINE
  5
3DA
330
2
100
AcDbEntity
  8
GAIKEI
  6
Continuous
 62
     1
100
AcDbLine
 10
27.96630299030125
 20
21.79640574327073
 30
0.0
 11
27.96630299030125
 21
22.36466754327068
 31
0.0
  0
LINE
  5
3DB
330
2
100
AcDbEntity
  8
GAIKEI
  6
Continuous
 62
     1
100
AcDbLine
 10
26.4691545914356
 20
21.79640574327073
 30
0.0
 11
26.4691545914356
 21
22.36466754327068
 31
0.0
  0
LINE
  5
3DC
330
2
100
AcDbEntity
  8
GAIKEI
  6
Continuous
 62
     1
100
AcDbLine
 10
26.4691545914356
 20
20.25641550144383
 30
0.0
 11
26.4691545914356
 21
20.82467730144384
 31
0.0
  0
LINE
  5
3DD
330
2
100
AcDbEntity
  8
GAIKEI
  6
Continuous
 62
     1
100
AcDbLine
 10
27.96630299030125
 20
20.25641550144383
 30
0.0
 11
27.96630299030125
 21
20.82467730144384
 31
0.0
  0
LINE
  5
3DE
330
2
100
AcDbEntity
  8
GAIKEI
  6
Continuous
 62
     1
100
AcDbLine
 10
27.96630299030125
 20
19.48642036006095
 30
0.0
 11
27.96630299030125
 21
20.05468216006091
 31
0.0
  0
LINE
  5
3DF
330
2
100
AcDbEntity
  8
GAIKEI
  6
Continuous
 62
     1
100
AcDbLine
 10
26.4691545914356
 20
19.48642036006095
 30
0.0
 11
26.4691545914356
 21
20.05468216006091
 31
0.0
  0
LINE
  5
3E0
330
2
100
AcDbEntity
  8
GAIKEI
  6
Continuous
 62
     1
100
AcDbLine
 10
26.4691545914356
 20
22.56640084327068
 30
0.0
 11
26.4691545914356
 21
23.13466264327065
 31
0.0
  0
LINE
  5
3E1
330
2
100
AcDbEntity
  8
GAIKEI
  6
Continuous
 62
     1
100
AcDbLine
 10
27.96630299030125
 20
22.56640084327068
 30
0.0
 11
27.96630299030125
 21
23.13466264327065
 31
0.0
  0
LINE
  5
3E2
330
2
100
AcDbEntity
  8
GAIKEI
  6
Continuous
 62
     1
100
AcDbLine
 10
45.75774636567757
 20
15.54861939826196
 30
0.0
 11
45.75774636567757
 21
14.98865339826193
 31
0.0
  0
LINE
  5
3E3
330
2
100
AcDbEntity
  8
GAIKEI
  6
Continuous
 62
     1
100
AcDbLine
 10
43.11928537107644
 20
15.54861939826196
 30
0.0
 11
43.11928537107644
 21
14.98865339826193
 31
0.0
  0
LINE
  5
3E4
330
2
100
AcDbEntity
  8
GAIKEI
  6
Continuous
 62
     1
100
AcDbLine
 10
43.11928537107644
 20
16.29861939826196
 30
0.0
 11
43.11928537107644
 21
15.73865339826193
 31
0.0
  0
LINE
  5
3E5
330
2
100
AcDbEntity
  8
GAIKEI
  6
Continuous
 62
     1
100
AcDbLine
 10
45.75774636567757
 20
16.29861939826196
 30
0.0
 11
45.75774636567757
 21
15.73865339826193
 31
0.0
  0
LINE
  5
3E6
330
2
100
AcDbEntity
  8
GAIKEI
  6
Continuous
 62
     1
100
AcDbLine
 10
44.154522368377
 20
15.74024221926987
 30
0.0
 11
44.15452236837697
 21
16.3002082192699
 31
0.0
  0
LINE
  5
3E7
330
2
100
AcDbEntity
  8
GAIKEI
  6
Continuous
 62
     1
100
AcDbLine
 10
44.72250936837702
 20
16.3002082192699
 30
0.0
 11
44.72250936837702
 21
15.74024221926987
 31
0.0
  0
LINE
  5
3E8
330
2
100
AcDbEntity
  8
GAIKEI
  6
Continuous
 62
     1
100
AcDbLine
 10
44.72250936837702
 20
17.80020821926985
 30
0.0
 11
44.72250936837702
 21
17.24024221926981
 31
0.0
  0
LINE
  5
3E9
330
2
100
AcDbEntity
  8
GAIKEI
  6
Continuous
 62
     1
100
AcDbLine
 10
44.154522368377
 20
17.24024221926981
 30
0.0
 11
44.15452236837697
 21
17.80020821926985
 31
0.0
  0
LINE
  5
3EA
330
2
100
AcDbEntity
  8
GAIKEI
  6
Continuous
 62
     1
100
AcDbLine
 10
45.75774636567757
 20
17.79861939826196
 30
0.0
 11
45.75774636567757
 21
17.23865339826193
 31
0.0
  0
LINE
  5
3EB
330
2
100
AcDbEntity
  8
GAIKEI
  6
Continuous
 62
     1
100
AcDbLine
 10
43.11928537107644
 20
17.79861939826196
 30
0.0
 11
43.11928537107644
 21
17.23865339826193
 31
0.0
  0
LINE
  5
3EC
330
2
100
AcDbEntity
  8
GAIKEI
  6
Continuous
 62
     1
100
AcDbLine
 10
43.11928537107644
 20
17.04861939826196
 30
0.0
 11
43.11928537107644
 21
16.48865339826193
 31
0.0
  0
LINE
  5
3ED
330
2
100
AcDbEntity
  8
GAIKEI
  6
Continuous
 62
     1
100
AcDbLine
 10
45.75774636567757
 20
17.04861939826196
 30
0.0
 11
45.75774636567757
 21
16.48865339826193
 31
0.0
  0
LINE
  5
3EE
330
2
100
AcDbEntity
  8
GAIKEI
  6
Continuous
 62
     1
100
AcDbLine
 10
44.154522368377
 20
16.49024221926981
 30
0.0
 11
44.15452236837697
 21
17.05020821926985
 31
0.0
  0
LINE
  5
3EF
330
2
100
AcDbEntity
  8
GAIKEI
  6
Continuous
 62
     1
100
AcDbLine
 10
44.72250936837702
 20
17.05020821926985
 30
0.0
 11
44.72250936837702
 21
16.49024221926981
 31
0.0
  0
LINE
  5
3F0
330
2
100
AcDbEntity
  8
GAIKEI
  6
Continuous
 62
     1
100
AcDbLine
 10
44.72250936837702
 20
20.05020821926985
 30
0.0
 11
44.72250936837702
 21
19.49024221926982
 31
0.0
  0
LINE
  5
3F1
330
2
100
AcDbEntity
  8
GAIKEI
  6
Continuous
 62
     1
100
AcDbLine
 10
44.154522368377
 20
19.49024221926982
 30
0.0
 11
44.154522368377
 21
20.05020821926985
 31
0.0
  0
LINE
  5
3F2
330
2
100
AcDbEntity
  8
GAIKEI
  6
Continuous
 62
     1
100
AcDbLine
 10
45.75774636567757
 20
20.04861939826196
 30
0.0
 11
45.75774636567757
 21
19.48865339826193
 31
0.0
  0
LINE
  5
3F3
330
2
100
AcDbEntity
  8
GAIKEI
  6
Continuous
 62
     1
100
AcDbLine
 10
43.11928537107644
 20
20.04861939826196
 30
0.0
 11
43.11928537107644
 21
19.48865339826193
 31
0.0
  0
LINE
  5
3F4
330
2
100
AcDbEntity
  8
GAIKEI
  6
Continuous
 62
     1
100
AcDbLine
 10
43.11928537107644
 20
20.79861939826196
 30
0.0
 11
43.11928537107644
 21
20.23865339826193
 31
0.0
  0
LINE
  5
3F5
330
2
100
AcDbEntity
  8
GAIKEI
  6
Continuous
 62
     1
100
AcDbLine
 10
45.75774636567757
 20
20.79861939826196
 30
0.0
 11
45.75774636567757
 21
20.23865339826193
 31
0.0
  0
LINE
  5
3F6
330
2
100
AcDbEntity
  8
GAIKEI
  6
Continuous
 62
     1
100
AcDbLine
 10
44.154522368377
 20
20.24024221926982
 30
0.0
 11
44.154522368377
 21
20.80020821926985
 31
0.0
  0
LINE
  5
3F7
330
2
100
AcDbEntity
  8
GAIKEI
  6
Continuous
 62
     1
100
AcDbLine
 10
44.72250936837702
 20
20.80020821926985
 30
0.0
 11
44.72250936837702
 21
20.24024221926982
 31
0.0
  0
LINE
  5
3F8
330
2
100
AcDbEntity
  8
GAIKEI
  6
Continuous
 62
     1
100
AcDbLine
 10
44.72250936837702
 20
19.3002082192699
 30
0.0
 11
44.72250936837702
 21
18.74024221926987
 31
0.0
  0
LINE
  5
3F9
330
2
100
AcDbEntity
  8
GAIKEI
  6
Continuous
 62
     1
100
AcDbLine
 10
44.154522368377
 20
18.74024221926987
 30
0.0
 11
44.154522368377
 21
19.3002082192699
 31
0.0
  0
LINE
  5
3FA
330
2
100
AcDbEntity
  8
GAIKEI
  6
Continuous
 62
     1
100
AcDbLine
 10
45.75774636567757
 20
19.29861939826196
 30
0.0
 11
45.75774636567757
 21
18.73865339826193
 31
0.0
  0
LINE
  5
3FB
330
2
100
AcDbEntity
  8
GAIKEI
  6
Continuous
 62
     1
100
AcDbLine
 10
43.11928537107644
 20
19.29861939826196
 30
0.0
 11
43.11928537107644
 21
18.73865339826193
 31
0.0
  0
LINE
  5
3FC
330
2
100
AcDbEntity
  8
GAIKEI
  6
Continuous
 62
     1
100
AcDbLine
 10
43.11928537107644
 20
18.54861939826196
 30
0.0
 11
43.11928537107644
 21
17.98865339826193
 31
0.0
  0
LINE
  5
3FD
330
2
100
AcDbEntity
  8
GAIKEI
  6
Continuous
 62
     1
100
AcDbLine
 10
45.75774636567757
 20
18.54861939826196
 30
0.0
 11
45.75774636567757
 21
17.98865339826193
 31
0.0
  0
LINE
  5
3FE
330
2
100
AcDbEntity
  8
GAIKEI
  6
Continuous
 62
     1
100
AcDbLine
 10
44.154522368377
 20
17.99024221926987
 30
0.0
 11
44.154522368377
 21
18.5502082192699
 31
0.0
  0
LINE
  5
3FF
330
2
100
AcDbEntity
  8
GAIKEI
  6
Continuous
 62
     1
100
AcDbLine
 10
44.72250936837702
 20
18.5502082192699
 30
0.0
 11
44.72250936837702
 21
17.99024221926987
 31
0.0
  0
LINE
  5
400
330
2
100
AcDbEntity
  8
GAIKEI
  6
Continuous
 62
     1
100
AcDbLine
 10
44.72250936837702
 20
22.30020821926991
 30
0.0
 11
44.72250936837702
 21
21.74024221926988
 31
0.0
  0
LINE
  5
401
330
2
100
AcDbEntity
  8
GAIKEI
  6
Continuous
 62
     1
100
AcDbLine
 10
44.154522368377
 20
21.74024221926988
 30
0.0
 11
44.154522368377
 21
22.30020821926991
 31
0.0
  0
LINE
  5
402
330
2
100
AcDbEntity
  8
GAIKEI
  6
Continuous
 62
     1
100
AcDbLine
 10
45.75774636567757
 20
22.29861939826196
 30
0.0
 11
45.75774636567757
 21
21.73865339826193
 31
0.0
  0
LINE
  5
403
330
2
100
AcDbEntity
  8
GAIKEI
  6
Continuous
 62
     1
100
AcDbLine
 10
43.11928537107644
 20
22.29861939826196
 30
0.0
 11
43.11928537107644
 21
21.73865339826193
 31
0.0
  0
LINE
  5
404
330
2
100
AcDbEntity
  8
GAIKEI
  6
Continuous
 62
     1
100
AcDbLine
 10
43.11928537107644
 20
23.04861939826196
 30
0.0
 11
43.11928537107644
 21
22.48865339826193
 31
0.0
  0
LINE
  5
405
330
2
100
AcDbEntity
  8
GAIKEI
  6
Continuous
 62
     1
100
AcDbLine
 10
45.75774636567757
 20
23.04861939826196
 30
0.0
 11
45.75774636567757
 21
22.48865339826193
 31
0.0
  0
LINE
  5
406
330
2
100
AcDbEntity
  8
GAIKEI
  6
Continuous
 62
     1
100
AcDbLine
 10
44.154522368377
 20
22.49024221926987
 30
0.0
 11
44.154522368377
 21
23.05020821926991
 31
0.0
  0
LINE
  5
407
330
2
100
AcDbEntity
  8
GAIKEI
  6
Continuous
 62
     1
100
AcDbLine
 10
44.72250936837702
 20
23.05020821926991
 30
0.0
 11
44.72250936837702
 21
22.49024221926987
 31
0.0
  0
LINE
  5
408
330
2
100
AcDbEntity
  8
GAIKEI
  6
Continuous
 62
     1
100
AcDbLine
 10
44.72250936837702
 20
24.55020821926985
 30
0.0
 11
44.72250936837702
 21
23.99024221926982
 31
0.0
  0
LINE
  5
409
330
2
100
AcDbEntity
  8
GAIKEI
  6
Continuous
 62
     1
100
AcDbLine
 10
44.154522368377
 20
23.99024221926982
 30
0.0
 11
44.154522368377
 21
24.55020821926985
 31
0.0
  0
LINE
  5
40A
330
2
100
AcDbEntity
  8
GAIKEI
  6
Continuous
 62
     1
100
AcDbLine
 10
45.75774636567757
 20
24.54861939826197
 30
0.0
 11
45.75774636567757
 21
23.98865339826193
 31
0.0
  0
LINE
  5
40B
330
2
100
AcDbEntity
  8
GAIKEI
  6
Continuous
 62
     1
100
AcDbLine
 10
43.11928537107644
 20
24.54861939826197
 30
0.0
 11
43.11928537107644
 21
23.98865339826193
 31
0.0
  0
LINE
  5
40C
330
2
100
AcDbEntity
  8
GAIKEI
  6
Continuous
 62
     1
100
AcDbLine
 10
43.11928537107644
 20
23.79861939826196
 30
0.0
 11
43.11928537107644
 21
23.23865339826193
 31
0.0
  0
LINE
  5
40D
330
2
100
AcDbEntity
  8
GAIKEI
  6
Continuous
 62
     1
100
AcDbLine
 10
45.75774636567757
 20
23.79861939826196
 30
0.0
 11
45.75774636567757
 21
23.23865339826193
 31
0.0
  0
LINE
  5
40E
330
2
100
AcDbEntity
  8
GAIKEI
  6
Continuous
 62
     1
100
AcDbLine
 10
44.154522368377
 20
23.24024221926982
 30
0.0
 11
44.154522368377
 21
23.80020821926985
 31
0.0
  0
LINE
  5
40F
330
2
100
AcDbEntity
  8
GAIKEI
  6
Continuous
 62
     1
100
AcDbLine
 10
44.72250936837702
 20
23.80020821926985
 30
0.0
 11
44.72250936837702
 21
23.24024221926982
 31
0.0
  0
LINE
  5
410
330
2
100
AcDbEntity
  8
GAIKEI
  6
Continuous
 62
     1
100
AcDbLine
 10
43.11928537107644
 20
21.54861939826196
 30
0.0
 11
43.11928537107644
 21
20.98865339826193
 31
0.0
  0
LINE
  5
411
330
2
100
AcDbEntity
  8
GAIKEI
  6
Continuous
 62
     1
100
AcDbLine
 10
45.75774636567757
 20
21.54861939826196
 30
0.0
 11
45.75774636567757
 21
20.98865339826193
 31
0.0
  0
LINE
  5
412
330
2
100
AcDbEntity
  8
GAIKEI
  6
Continuous
 62
     1
100
AcDbLine
 10
44.154522368377
 20
20.99024221926982
 30
0.0
 11
44.15452236837697
 21
21.55020821926985
 31
0.0
  0
LINE
  5
413
330
2
100
AcDbEntity
  8
GAIKEI
  6
Continuous
 62
     1
100
AcDbLine
 10
44.72250936837702
 20
21.55020821926985
 30
0.0
 11
44.72250936837702
 21
20.99024221926982
 31
0.0
  0
DIMENSION
  5
414
330
2
100
AcDbEntity
  8
SUNPO
100
AcDbDimension
  2
*D6
 10
-6.974125159997469
 20
35.54434779870303
 30
0.0
 11
-31.87412515999748
 21
37.29434779870303
 31
0.0
 70
    33
  1
498
 71
     5
 42
49.80000000000001
  3
STANDARD
100
AcDbAlignedDimension
 13
-56.77412515999748
 23
27.54434779870303
 33
0.0
 14
-6.97412515999747
 24
27.54434779870303
 34
0.0
1001
ACAD
1000
DSTYLE
1002
{
1070
    40
1040
1.0
1070
   140
1040
2.5
1070
   147
1040
0.5
1070
   172
1070
     1
1070
   279
1070
     0
1070
   288
1070
     0
1002
}
  0
DIMENSION
  5
42A
330
2
100
AcDbEntity
  8
SUNPO
100
AcDbDimension
  2
*D5
 10
1.025874840002529
 20
27.52055251926993
 30
0.0
 11
-0.7241251599974757
 21
18.7705519192699
 31
0.0
 70
    33
  1
175
 71
     5
 42
17.50000120000004
  3
STANDARD
100
AcDbAlignedDimension
 13
-6.97412515999747
 23
10.02055131926988
 33
0.0
 14
-6.97412515999747
 24
27.52055251926993
 34
0.0
1001
ACAD
1000
DSTYLE
1002
{
1070
    40
1040
1.0
1070
   140
1040
2.5
1070
   147
1040
0.5
1070
   172
1070
     1
1070
   279
1070
     0
1070
   288
1070
     0
1002
}
  0
DIMENSION
  5
437
330
2
100
AcDbEntity
  8
SUNPO
100
AcDbDimension
  2
*D4
 10
55.13199336837704
 20
35.54434779870303
 30
0.0
 11
33.13199516837705
 21
37.29434779870303
 31
0.0
 70
    33
  1
440
 71
     5
 42
43.99999639999998
  3
STANDARD
100
AcDbAlignedDimension
 13
11.13199696837705
 23
27.54434779870303
 33
0.0
 14
55.13199336837704
 24
27.54434779870303
 34
0.0
1001
ACAD
1000
DSTYLE
1002
{
1070
    40
1040
1.0
1070
   140
1040
2.5
1070
   147
1040
0.5
1070
   172
1070
     1
1070
   279
1070
     0
1070
   288
1070
     0
1002
}
  0
TEXT
  5
444
330
2
100
AcDbEntity
  8
TOUROKU
100
AcDbText
 10
43.99477969560328
 20
50.18012567470202
 30
0.0
 40
2.0
  1
ＰＴＤ６０００Ｓ
 72
     2
 11
62.39477969560329
 21
50.18012567470202
 31
0.0
100
AcDbText
  0
TEXT
  5
446
330
2
100
AcDbEntity
  8
MOJI1
100
AcDbText
 10
-35.6051703373239
 20
56.18012567470202
 30
0.0
 40
4.0
  1
ＤＬＰ方式プロジェクター
100
AcDbText
  0
ENDSEC
  0
SECTION
  2
OBJECTS
  0
DICTIONARY
  5
7
330
0
100
AcDbDictionary
281
     1
  3
ACAD_COLOR
350
25
  3
ACAD_GROUP
350
21
  3
ACAD_LAYOUT
350
B
  3
ACAD_MATERIAL
350
24
  3
ACAD_MLINESTYLE
350
22
  3
ACAD_PLOTSETTINGS
350
23
  3
ACAD_PLOTSTYLENAME
350
6
  3
ACDBHEADERROUNDTRIPXREC
350
483
  3
AcDbVariableDictionary
350
47E
  0
DICTIONARY
  5
11
330
10
100
AcDbDictionary
280
     1
281
     1
  3
ACAD_LAYERSTATES
360
12
  0
DICTIONARY
  5
25
102
{ACAD_REACTORS
330
7
102
}
330
7
100
AcDbDictionary
281
     1
  0
DICTIONARY
  5
21
102
{ACAD_REACTORS
330
7
102
}
330
7
100
AcDbDictionary
281
     1
  0
DICTIONARY
  5
B
102
{ACAD_REACTORS
330
7
102
}
330
7
100
AcDbDictionary
281
     1
  3
Model
350
A
  3
レイアウト1
350
F
  0
DICTIONARY
  5
24
102
{ACAD_REACTORS
330
7
102
}
330
7
100
AcDbDictionary
281
     1
  0
DICTIONARY
  5
22
102
{ACAD_REACTORS
330
7
102
}
330
7
100
AcDbDictionary
281
     1
  3
Standard
350
27
  0
DICTIONARY
  5
23
102
{ACAD_REACTORS
330
7
102
}
330
7
100
AcDbDictionary
281
     1
  0
ACDBDICTIONARYWDFLT
  5
6
102
{ACAD_REACTORS
330
7
102
}
330
7
100
AcDbDictionary
281
     1
  3
Normal
350
5
100
AcDbDictionaryWithDefault
340
5
  0
DICTIONARY
  5
483
102
{ACAD_REACTORS
330
7
102
}
330
7
100
AcDbDictionary
281
     1
  3
COLORDICT
350
485
  3
MATERIALDICT
350
484
  0
DICTIONARY
  5
47E
102
{ACAD_REACTORS
330
7
102
}
330
7
100
AcDbDictionary
281
     1
  3
DIMASSOC
350
480
  3
HIDETEXT
350
47F
  3
PROJECTNAME
350
481
  0
DICTIONARY
  5
12
102
{ACAD_REACTORS
330
11
102
}
330
11
100
AcDbDictionary
281
     1
  0
LAYOUT
  5
A
102
{ACAD_XDICTIONARY
360
486
102
}
102
{ACAD_REACTORS
330
B
102
}
330
B
100
AcDbPlotSettings
  1

  2
Ａ４－縦3FRIM01.pc3
  4
A4
  6

 40
5.873749732971191
 41
5.873747825622558
 42
5.873748779296875
 43
5.873748779296875
 44
209.9733276367187
 45
296.9259948730469
 46
5.429999999999999
 47
0.0
 48
0.0
 49
0.0
140
0.0
141
0.0
142
1.0
143
1.382515355699284
 70
 11956
 72
     1
 73
     0
 74
     1
  7
tmsacad.ctb
 75
     0
147
0.723319271556441
148
0.0204471568255258
149
0.0240539385804368
100
AcDbLayout
  1
Model
 70
     1
 71
     0
 10
0.0
 20
0.0
 11
12.0
 21
9.0
 12
0.0
 22
0.0
 32
0.0
 14
0.0
 24
0.0
 34
0.0
 15
0.0
 25
0.0
 35
0.0
146
0.0
 13
0.0
 23
0.0
 33
0.0
 16
1.0
 26
0.0
 36
0.0
 17
0.0
 27
1.0
 37
0.0
 76
     0
330
2
  0
LAYOUT
  5
F
102
{ACAD_XDICTIONARY
360
488
102
}
102
{ACAD_REACTORS
330
B
102
}
330
B
100
AcDbPlotSettings
  1

  2
None
  4

  6

 40
0.0
 41
0.0
 42
0.0
 43
0.0
 44
0.0
 45
0.0
 46
0.0
 47
0.0
 48
0.0
 49
0.0
140
0.0
141
0.0
142
1.0
143
1.0
 70
   688
 72
     0
 73
     0
 74
     5
  7
tmsacad.ctb
 75
    16
147
1.0
148
0.0
149
0.0
100
AcDbLayout
  1
レイアウト1
 70
     1
 71
     1
 10
0.0
 20
0.0
 11
12.0
 21
9.0
 12
0.0
 22
0.0
 32
0.0
 14
0.0
 24
0.0
 34
0.0
 15
0.0
 25
0.0
 35
0.0
146
0.0
 13
0.0
 23
0.0
 33
0.0
 16
1.0
 26
0.0
 36
0.0
 17
0.0
 27
1.0
 37
0.0
 76
     0
330
C
  0
MLINESTYLE
  5
27
102
{ACAD_REACTORS
330
22
102
}
330
22
100
AcDbMlineStyle
  2
STANDARD
 70
     0
  3

 62
   256
 51
90.0
 52
90.0
 71
     2
 49
0.5
 62
   256
  6
BYLAYER
 49
-0.5
 62
   256
  6
BYLAYER
  0
ACDBPLACEHOLDER
  5
5
102
{ACAD_REACTORS
330
6
102
}
330
6
  0
XRECORD
  5
485
102
{ACAD_REACTORS
330
483
102
}
330
483
100
AcDbXrecord
280
     1
340
25
  0
XRECORD
  5
484
102
{ACAD_REACTORS
330
483
102
}
330
483
100
AcDbXrecord
280
     1
340
24
  0
DICTIONARYVAR
  5
480
102
{ACAD_REACTORS
330
47E
102
}
330
47E
100
DictionaryVariables
280
     0
  1
2
  0
DICTIONARYVAR
  5
47F
102
{ACAD_REACTORS
330
47E
102
}
330
47E
100
DictionaryVariables
280
     0
  1
1
  0
DICTIONARYVAR
  5
481
102
{ACAD_REACTORS
330
47E
102
}
330
47E
100
DictionaryVariables
280
     0
  1

  0
DICTIONARY
  5
486
330
A
100
AcDbDictionary
280
     1
281
     1
  3
ACAD_XREC_ROUNDTRIP
360
487
  0
DICTIONARY
  5
488
330
F
100
AcDbDictionary
280
     1
281
     1
  3
ACAD_XREC_ROUNDTRIP
360
489
  0
XRECORD
  5
487
102
{ACAD_REACTORS
330
486
102
}
330
486
100
AcDbXrecord
280
     1
102
SHADEPLOT
 70
     0
102
SHADEPLOTRESLEVEL
 70
     2
102
SHADEPLOTCUSTOMDPI
 70
   300
  0
XRECORD
  5
489
102
{ACAD_REACTORS
330
488
102
}
330
488
100
AcDbXrecord
280
     1
102
SHADEPLOT
 70
     0
102
SHADEPLOTRESLEVEL
 70
     2
102
SHADEPLOTCUSTOMDPI
 70
   300
  0
ENDSEC
  0
EOF
