  0
SECTION
  2
HEADER
  9
$ACADVER
  1
AC1015
  9
$ACADMAINTVER
 70
    20
  9
$DWGCODEPAGE
  3
ANSI_932
  9
$INSBASE
 10
0.4999999440410648
 20
372.5008351249344
 30
0.0
  9
$EXTMIN
 10
-63.36273102946893
 20
-60.60003600013442
 30
-0.0015258207003583
  9
$EXTMAX
 10
61.67083796308247
 20
52.42456095365878
 30
0.0000000349246037
  9
$LIMMIN
 10
0.0
 20
0.0
  9
$LIMMAX
 10
420.0
 20
297.0
  9
$ORTHOMODE
 70
     1
  9
$REGENMODE
 70
     0
  9
$FILLMODE
 70
     1
  9
$QTEXTMODE
 70
     0
  9
$MIRRTEXT
 70
     0
  9
$LTSCALE
 40
1.0
  9
$ATTMODE
 70
     1
  9
$TEXTSIZE
 40
2.5
  9
$TRACEWID
 40
1.0
  9
$TEXTSTYLE
  7
Standard
  9
$CLAYER
  8
GAIKEI
  9
$CELTYPE
  6
ByLayer
  9
$CECOLOR
 62
   256
  9
$CELTSCALE
 40
1.0
  9
$DISPSILH
 70
     0
  9
$DIMSCALE
 40
1.0
  9
$DIMASZ
 40
2.0
  9
$DIMEXO
 40
2.0
  9
$DIMDLI
 40
8.0
  9
$DIMRND
 40
0.0
  9
$DIMDLE
 40
0.0
  9
$DIMEXE
 40
2.0
  9
$DIMTP
 40
0.0
  9
$DIMTM
 40
0.0
  9
$DIMTXT
 40
2.5
  9
$DIMCEN
 40
0.0
  9
$DIMTSZ
 40
0.0
  9
$DIMTOL
 70
     0
  9
$DIMLIM
 70
     0
  9
$DIMTIH
 70
     0
  9
$DIMTOH
 70
     0
  9
$DIMSE1
 70
     0
  9
$DIMSE2
 70
     0
  9
$DIMTAD
 70
     3
  9
$DIMZIN
 70
     0
  9
$DIMBLK
  1

  9
$DIMASO
 70
     1
  9
$DIMSHO
 70
     1
  9
$DIMPOST
  1

  9
$DIMAPOST
  1

  9
$DIMALT
 70
     0
  9
$DIMALTD
 70
     2
  9
$DIMALTF
 40
25.4
  9
$DIMLFAC
 40
1.0
  9
$DIMTOFL
 70
     1
  9
$DIMTVP
 40
0.0
  9
$DIMTIX
 70
     0
  9
$DIMSOXD
 70
     0
  9
$DIMSAH
 70
     1
  9
$DIMBLK1
  1
OPEN30
  9
$DIMBLK2
  1
OPEN30
  9
$DIMSTYLE
  2
STANDARD
  9
$DIMCLRD
 70
     0
  9
$DIMCLRE
 70
     0
  9
$DIMCLRT
 70
     0
  9
$DIMTFAC
 40
1.0
  9
$DIMGAP
 40
0.5
  9
$DIMJUST
 70
     0
  9
$DIMSD1
 70
     0
  9
$DIMSD2
 70
     0
  9
$DIMTOLJ
 70
     1
  9
$DIMTZIN
 70
     0
  9
$DIMALTZ
 70
     0
  9
$DIMALTTZ
 70
     0
  9
$DIMUPT
 70
     0
  9
$DIMDEC
 70
     4
  9
$DIMTDEC
 70
     4
  9
$DIMALTU
 70
     2
  9
$DIMALTTD
 70
     2
  9
$DIMTXSTY
  7
Standard
  9
$DIMAUNIT
 70
     0
  9
$DIMADEC
 70
     0
  9
$DIMALTRND
 40
0.0
  9
$DIMAZIN
 70
     0
  9
$DIMDSEP
 70
    46
  9
$DIMATFIT
 70
     3
  9
$DIMFRAC
 70
     0
  9
$DIMLDRBLK
  1
OPEN30
  9
$DIMLUNIT
 70
     2
  9
$DIMLWD
 70
    -2
  9
$DIMLWE
 70
    -2
  9
$DIMTMOVE
 70
     0
  9
$LUNITS
 70
     2
  9
$LUPREC
 70
     4
  9
$SKETCHINC
 40
1.0
  9
$FILLETRAD
 40
0.0
  9
$AUNITS
 70
     0
  9
$AUPREC
 70
     0
  9
$MENU
  1
.
  9
$ELEVATION
 40
0.0
  9
$PELEVATION
 40
0.0
  9
$THICKNESS
 40
0.0
  9
$LIMCHECK
 70
     0
  9
$CHAMFERA
 40
0.0
  9
$CHAMFERB
 40
0.0
  9
$CHAMFERC
 40
0.0
  9
$CHAMFERD
 40
0.0
  9
$SKPOLY
 70
     0
  9
$TDCREATE
 40
2454349.434269746
  9
$TDUCREATE
 40
2454349.059269746
  9
$TDUPDATE
 40
2455797.315193785
  9
$TDUUPDATE
 40
2455796.940193785
  9
$TDINDWG
 40
0.9048760995
  9
$TDUSRTIMER
 40
0.9048760995
  9
$USRTIMER
 70
     1
  9
$ANGBASE
 50
0.0
  9
$ANGDIR
 70
     0
  9
$PDMODE
 70
     0
  9
$PDSIZE
 40
0.0
  9
$PLINEWID
 40
0.0
  9
$SPLFRAME
 70
     0
  9
$SPLINETYPE
 70
     6
  9
$SPLINESEGS
 70
     8
  9
$HANDSEED
  5
46F
  9
$SURFTAB1
 70
     6
  9
$SURFTAB2
 70
     6
  9
$SURFTYPE
 70
     6
  9
$SURFU
 70
     6
  9
$SURFV
 70
     6
  9
$UCSBASE
  2

  9
$UCSNAME
  2

  9
$UCSORG
 10
0.0
 20
0.0
 30
0.0
  9
$UCSXDIR
 10
1.0
 20
0.0
 30
0.0
  9
$UCSYDIR
 10
0.0
 20
1.0
 30
0.0
  9
$UCSORTHOREF
  2

  9
$UCSORTHOVIEW
 70
     0
  9
$UCSORGTOP
 10
0.0
 20
0.0
 30
0.0
  9
$UCSORGBOTTOM
 10
0.0
 20
0.0
 30
0.0
  9
$UCSORGLEFT
 10
0.0
 20
0.0
 30
0.0
  9
$UCSORGRIGHT
 10
0.0
 20
0.0
 30
0.0
  9
$UCSORGFRONT
 10
0.0
 20
0.0
 30
0.0
  9
$UCSORGBACK
 10
0.0
 20
0.0
 30
0.0
  9
$PUCSBASE
  2

  9
$PUCSNAME
  2

  9
$PUCSORG
 10
0.0
 20
0.0
 30
0.0
  9
$PUCSXDIR
 10
1.0
 20
0.0
 30
0.0
  9
$PUCSYDIR
 10
0.0
 20
1.0
 30
0.0
  9
$PUCSORTHOREF
  2

  9
$PUCSORTHOVIEW
 70
     0
  9
$PUCSORGTOP
 10
0.0
 20
0.0
 30
0.0
  9
$PUCSORGBOTTOM
 10
0.0
 20
0.0
 30
0.0
  9
$PUCSORGLEFT
 10
0.0
 20
0.0
 30
0.0
  9
$PUCSORGRIGHT
 10
0.0
 20
0.0
 30
0.0
  9
$PUCSORGFRONT
 10
0.0
 20
0.0
 30
0.0
  9
$PUCSORGBACK
 10
0.0
 20
0.0
 30
0.0
  9
$USERI1
 70
     0
  9
$USERI2
 70
     0
  9
$USERI3
 70
     0
  9
$USERI4
 70
     0
  9
$USERI5
 70
     0
  9
$USERR1
 40
0.0
  9
$USERR2
 40
0.0
  9
$USERR3
 40
0.0
  9
$USERR4
 40
0.0
  9
$USERR5
 40
0.0
  9
$WORLDVIEW
 70
     1
  9
$SHADEDGE
 70
     3
  9
$SHADEDIF
 70
    70
  9
$TILEMODE
 70
     1
  9
$MAXACTVP
 70
    64
  9
$PINSBASE
 10
0.0
 20
0.0
 30
0.0
  9
$PLIMCHECK
 70
     0
  9
$PEXTMIN
 10
0.0
 20
0.0
 30
0.0
  9
$PEXTMAX
 10
0.0
 20
0.0
 30
0.0
  9
$PLIMMIN
 10
0.0
 20
0.0
  9
$PLIMMAX
 10
12.0
 20
9.0
  9
$UNITMODE
 70
     0
  9
$VISRETAIN
 70
     1
  9
$PLINEGEN
 70
     0
  9
$PSLTSCALE
 70
     1
  9
$TREEDEPTH
 70
  3020
  9
$CMLSTYLE
  2
Standard
  9
$CMLJUST
 70
     0
  9
$CMLSCALE
 40
20.0
  9
$PROXYGRAPHICS
 70
     1
  9
$MEASUREMENT
 70
     1
  9
$CELWEIGHT
370
    -1
  9
$ENDCAPS
280
     0
  9
$JOINSTYLE
280
     0
  9
$LWDISPLAY
290
     0
  9
$INSUNITS
 70
     4
  9
$HYPERLINKBASE
  1

  9
$STYLESHEET
  1

  9
$XEDIT
290
     1
  9
$CEPSNTYPE
380
     0
  9
$PSTYLEMODE
290
     1
  9
$FINGERPRINTGUID
  2
{FDEAD578-A652-11D2-9A35-0060089B3A3F}
  9
$VERSIONGUID
  2
{BADBB657-6CED-477B-A896-4A1159D1DEEE}
  9
$EXTNAMES
290
     1
  9
$PSVPSCALE
 40
0.0
  9
$OLESTARTUP
290
     0
  0
ENDSEC
  0
SECTION
  2
CLASSES
  0
CLASS
  1
ACDBDICTIONARYWDFLT
  2
AcDbDictionaryWithDefault
  3
ObjectDBX Classes
 90
        0
280
     0
281
     0
  0
CLASS
  1
ACDBPLACEHOLDER
  2
AcDbPlaceHolder
  3
ObjectDBX Classes
 90
        0
280
     0
281
     0
  0
CLASS
  1
LAYOUT
  2
AcDbLayout
  3
ObjectDBX Classes
 90
        0
280
     0
281
     0
  0
CLASS
  1
DICTIONARYVAR
  2
AcDbDictionaryVar
  3
ObjectDBX Classes
 90
        0
280
     0
281
     0
  0
ENDSEC
  0
SECTION
  2
TABLES
  0
TABLE
  2
VPORT
  5
1B
330
0
100
AcDbSymbolTable
 70
     3
  0
VPORT
  5
467
330
1B
100
AcDbSymbolTableRecord
100
AcDbViewportTableRecord
  2
*Active
 70
     0
 10
0.0
 20
0.0
 11
1.0
 21
1.0
 12
-0.8459465331932278
 22
-4.087737523237819
 13
0.0
 23
0.0
 14
10.0
 24
10.0
 15
10.0
 25
10.0
 16
0.0
 26
0.0
 36
1.0
 17
0.0
 27
0.0
 37
0.0
 40
113.8680640952394
 41
2.166874221668741
 42
50.0
 43
0.0
 44
0.0
 50
0.0
 51
0.0
 71
     0
 72
  1000
 73
     1
 74
     2
 75
     0
 76
     0
 77
     0
 78
     0
281
     0
 65
     1
110
0.0
120
0.0
130
0.0
111
1.0
121
0.0
131
0.0
112
0.0
122
1.0
132
0.0
 79
     0
146
0.0
  0
ENDTAB
  0
TABLE
  2
LTYPE
  5
16
330
0
100
AcDbSymbolTable
 70
     3
  0
LTYPE
  5
17
330
16
100
AcDbSymbolTableRecord
100
AcDbLinetypeTableRecord
  2
ByBlock
 70
     0
  3

 72
    65
 73
     0
 40
0.0
  0
LTYPE
  5
18
330
16
100
AcDbSymbolTableRecord
100
AcDbLinetypeTableRecord
  2
ByLayer
 70
     0
  3

 72
    65
 73
     0
 40
0.0
  0
LTYPE
  5
8
330
16
100
AcDbSymbolTableRecord
100
AcDbLinetypeTableRecord
  2
Continuous
 70
     0
  3
Solid line
 72
    65
 73
     0
 40
0.0
  0
LTYPE
  5
D7
330
16
100
AcDbSymbolTableRecord
100
AcDbLinetypeTableRecord
  2
CENTER
 70
     0
  3
Center ____ _ ____ _ ____ _ ____ _ ____ _ ____
 72
    65
 73
     4
 40
50.8
 49
31.75
 74
     0
 49
-6.349999999999999
 74
     0
 49
6.349999999999999
 74
     0
 49
-6.349999999999999
 74
     0
  0
LTYPE
  5
D6
330
16
100
AcDbSymbolTableRecord
100
AcDbLinetypeTableRecord
  2
S50
 70
     0
  3
-------------- - ------------- 40,-1,1.5,-1
 72
    65
 73
     4
 40
43.5
 49
40.0
 74
     0
 49
-1.0
 74
     0
 49
1.5
 74
     0
 49
-1.0
 74
     0
  0
ENDTAB
  0
TABLE
  2
LAYER
  5
10
102
{ACAD_XDICTIONARY
360
11
102
}
330
0
100
AcDbSymbolTable
 70
     8
  0
LAYER
  5
4
330
10
100
AcDbSymbolTableRecord
100
AcDbLayerTableRecord
  2
0
 70
     0
 62
     7
  6
Continuous
370
    -3
390
5
  0
LAYER
  5
40A
330
10
100
AcDbSymbolTableRecord
100
AcDbLayerTableRecord
  2
WAKU
 70
     0
 62
     4
  6
Continuous
370
    -3
390
5
  0
LAYER
  5
30
330
10
100
AcDbSymbolTableRecord
100
AcDbLayerTableRecord
  2
MOJI1
 70
     0
 62
     2
  6
Continuous
370
    -3
390
5
  0
LAYER
  5
32
330
10
100
AcDbSymbolTableRecord
100
AcDbLayerTableRecord
  2
TOUROKU
 70
     0
 62
     1
  6
Continuous
370
    -3
390
5
  0
LAYER
  5
3E
330
10
100
AcDbSymbolTableRecord
100
AcDbLayerTableRecord
  2
DEFPOINTS
 70
     0
 62
     7
  6
Continuous
290
     0
370
    -3
390
5
  0
LAYER
  5
2D
330
10
100
AcDbSymbolTableRecord
100
AcDbLayerTableRecord
  2
GAIKEI
 70
     0
 62
     7
  6
Continuous
370
    -3
390
5
  0
LAYER
  5
34
330
10
100
AcDbSymbolTableRecord
100
AcDbLayerTableRecord
  2
SUNPO
 70
     0
 62
     3
  6
Continuous
370
    -3
390
5
  0
LAYER
  5
D5
330
10
100
AcDbSymbolTableRecord
100
AcDbLayerTableRecord
  2
KIJUN
 70
     0
 62
    14
  6
S50
370
    -3
390
5
  0
ENDTAB
  0
TABLE
  2
STYLE
  5
13
330
0
100
AcDbSymbolTable
 70
     1
  0
STYLE
  5
14
330
13
100
AcDbSymbolTableRecord
100
AcDbTextStyleTableRecord
  2
Standard
 70
     0
 40
0.0
 41
1.0
 50
0.0
 71
     0
 42
2.5
  3
MONOTXT.shx
  4
BIGFONT.shx
  0
ENDTAB
  0
TABLE
  2
VIEW
  5
19
330
0
100
AcDbSymbolTable
 70
     0
  0
ENDTAB
  0
TABLE
  2
UCS
  5
1A
330
0
100
AcDbSymbolTable
 70
     0
  0
ENDTAB
  0
TABLE
  2
APPID
  5
1D
330
0
100
AcDbSymbolTable
 70
     1
  0
APPID
  5
1E
330
1D
100
AcDbSymbolTableRecord
100
AcDbRegAppTableRecord
  2
ACAD
 70
     0
  0
ENDTAB
  0
TABLE
  2
DIMSTYLE
  5
1F
330
0
100
AcDbSymbolTable
 70
     1
100
AcDbDimStyleTable
 71
     1
340
20
  0
DIMSTYLE
105
20
102
{ACAD_REACTORS
330
4F
330
42
330
33
102
}
330
1F
100
AcDbSymbolTableRecord
100
AcDbDimStyleTableRecord
  2
STANDARD
 70
     0
 40
0.0
 41
2.0
 42
2.0
 43
8.0
 44
2.0
 73
     0
 74
     0
 77
     3
140
3.0
141
0.0
173
     1
279
     2
288
     1
340
14
341
21
343
21
344
21
  0
ENDTAB
  0
TABLE
  2
BLOCK_RECORD
  5
1
330
0
100
AcDbSymbolTable
 70
     7
  0
BLOCK_RECORD
  5
2
330
1
100
AcDbSymbolTableRecord
100
AcDbBlockTableRecord
  2
*Model_Space
340
A
  0
BLOCK_RECORD
  5
C
330
1
100
AcDbSymbolTableRecord
100
AcDbBlockTableRecord
  2
*Paper_Space
340
F
  0
BLOCK_RECORD
  5
21
330
1
100
AcDbSymbolTableRecord
100
AcDbBlockTableRecord
  2
_OPEN30
340
0
102
{BLKREFS
331
55
331
56
331
48
331
49
331
3A
331
3B
331
443
331
444
331
44F
331
450
331
45B
331
45C
102
}
  0
BLOCK_RECORD
  5
50
330
1
100
AcDbSymbolTableRecord
100
AcDbBlockTableRecord
  2
*D1
340
0
  0
BLOCK_RECORD
  5
43
330
1
100
AcDbSymbolTableRecord
100
AcDbBlockTableRecord
  2
*D2
340
0
  0
BLOCK_RECORD
  5
35
330
1
100
AcDbSymbolTableRecord
100
AcDbBlockTableRecord
  2
*D3
340
0
  0
BLOCK_RECORD
  5
43F
330
1
100
AcDbSymbolTableRecord
100
AcDbBlockTableRecord
  2
*D4
340
0
  0
BLOCK_RECORD
  5
44B
330
1
100
AcDbSymbolTableRecord
100
AcDbBlockTableRecord
  2
*D5
340
0
  0
BLOCK_RECORD
  5
457
330
1
100
AcDbSymbolTableRecord
100
AcDbBlockTableRecord
  2
*D6
340
0
  0
ENDTAB
  0
ENDSEC
  0
SECTION
  2
BLOCKS
  0
BLOCK
  5
3
330
2
100
AcDbEntity
  8
0
100
AcDbBlockBegin
  2
*Model_Space
 70
     0
 10
0.0
 20
0.0
 30
0.0
  3
*Model_Space
  1

  0
ENDBLK
  5
9
330
2
100
AcDbEntity
  8
0
100
AcDbBlockEnd
  0
BLOCK
  5
D
330
C
100
AcDbEntity
 67
     1
  8
0
100
AcDbBlockBegin
  2
*Paper_Space
 70
     0
 10
0.0
 20
0.0
 30
0.0
  3
*Paper_Space
  1

  0
ENDBLK
  5
E
330
C
100
AcDbEntity
 67
     1
  8
0
100
AcDbBlockEnd
  0
BLOCK
  5
22
330
21
100
AcDbEntity
  8
0
100
AcDbBlockBegin
  2
_OPEN30
 70
     0
 10
0.0
 20
0.0
 30
0.0
  3
_OPEN30
  1

  0
LINE
  5
23
330
21
100
AcDbEntity
  8
0
  6
ByBlock
 62
     0
100
AcDbLine
 10
-1.0
 20
0.26794919
 30
0.0
 11
0.0
 21
0.0
 31
0.0
  0
LINE
  5
24
330
21
100
AcDbEntity
  8
0
  6
ByBlock
 62
     0
100
AcDbLine
 10
0.0
 20
0.0
 30
0.0
 11
-1.0
 21
-0.26794919
 31
0.0
  0
LINE
  5
25
330
21
100
AcDbEntity
  8
0
  6
ByBlock
 62
     0
100
AcDbLine
 10
0.0
 20
0.0
 30
0.0
 11
-1.0
 21
0.0
 31
0.0
  0
ENDBLK
  5
26
330
21
100
AcDbEntity
  8
0
100
AcDbBlockEnd
  0
BLOCK
  5
51
330
50
100
AcDbEntity
  8
0
100
AcDbBlockBegin
  2
*D1
 70
     1
 10
0.0
 20
0.0
 30
0.0
  3
*D1
  1

  0
LINE
  5
52
330
50
100
AcDbEntity
  8
SUNPO
 62
     0
370
    -2
100
AcDbLine
 10
8.331045121367594
 20
339.865057248939
 30
0.0
 11
8.331045121367594
 21
347.865057248939
 31
0.0
  0
LINE
  5
53
330
50
100
AcDbEntity
  8
SUNPO
 62
     0
370
    -2
100
AcDbLine
 10
58.1310451213676
 20
339.865057248939
 30
0.0
 11
58.1310451213676
 21
347.865057248939
 31
0.0
  0
LINE
  5
54
330
50
100
AcDbEntity
  8
SUNPO
 62
     0
370
    -2
100
AcDbLine
 10
10.33104512136759
 20
345.865057248939
 30
0.0
 11
56.13104512136761
 21
345.865057248939
 31
0.0
  0
INSERT
  5
55
330
50
100
AcDbEntity
  8
SUNPO
 62
     0
370
    -2
100
AcDbBlockReference
  2
_OPEN30
 10
8.331045121367594
 20
345.865057248939
 30
0.0
 41
2.0
 42
2.0
 43
2.0
 50
180.0
  0
INSERT
  5
56
330
50
100
AcDbEntity
  8
SUNPO
 62
     0
370
    -2
100
AcDbBlockReference
  2
_OPEN30
 10
58.1310451213676
 20
345.865057248939
 30
0.0
 41
2.0
 42
2.0
 43
2.0
  0
MTEXT
  5
57
330
50
100
AcDbEntity
  8
SUNPO
 62
     0
100
AcDbMText
 10
33.2310451213676
 20
347.615057248939
 30
0.0
 40
2.5
 41
0.0
 71
     5
 72
     1
  1
\A1;498
 73
     1
 44
1.0
1001
ACAD
1000
MTEXTBEGIN
1070
    73
1070
     1
1070
    44
1040
1.0
1070
    74
1070
     0
1000
MTEXTEND
  0
POINT
  5
58
330
50
100
AcDbEntity
  8
DEFPOINTS
 62
     0
100
AcDbPoint
 10
8.331045121367594
 20
337.865057248939
 30
0.0
  0
POINT
  5
59
330
50
100
AcDbEntity
  8
DEFPOINTS
 62
     0
100
AcDbPoint
 10
58.1310451213676
 20
337.865057248939
 30
0.0
  0
POINT
  5
5A
330
50
100
AcDbEntity
  8
DEFPOINTS
 62
     0
100
AcDbPoint
 10
58.1310451213676
 20
345.865057248939
 30
0.0
  0
ENDBLK
  5
5B
330
50
100
AcDbEntity
  8
0
100
AcDbBlockEnd
  0
BLOCK
  5
44
330
43
100
AcDbEntity
  8
0
100
AcDbBlockBegin
  2
*D2
 70
     1
 10
0.0
 20
0.0
 30
0.0
  3
*D2
  1

  0
LINE
  5
45
330
43
100
AcDbEntity
  8
SUNPO
 62
     0
370
    -2
100
AcDbLine
 10
60.1310451213676
 20
320.3412607695059
 30
0.0
 11
68.1310451213676
 21
320.3412607695059
 31
0.0
  0
LINE
  5
46
330
43
100
AcDbEntity
  8
SUNPO
 62
     0
370
    -2
100
AcDbLine
 10
60.1310451213676
 20
337.8412619695059
 30
0.0
 11
68.1310451213676
 21
337.8412619695059
 31
0.0
  0
LINE
  5
47
330
43
100
AcDbEntity
  8
SUNPO
 62
     0
370
    -2
100
AcDbLine
 10
66.13104512136761
 20
322.3412607695059
 30
0.0
 11
66.13104512136761
 21
335.8412619695059
 31
0.0
  0
INSERT
  5
48
330
43
100
AcDbEntity
  8
SUNPO
 62
     0
370
    -2
100
AcDbBlockReference
  2
_OPEN30
 10
66.13104512136761
 20
320.3412607695059
 30
0.0
 41
2.0
 42
2.0
 43
2.0
 50
270.0
  0
INSERT
  5
49
330
43
100
AcDbEntity
  8
SUNPO
 62
     0
370
    -2
100
AcDbBlockReference
  2
_OPEN30
 10
66.13104512136761
 20
337.8412619695059
 30
0.0
 41
2.0
 42
2.0
 43
2.0
 50
90.0
  0
MTEXT
  5
4A
330
43
100
AcDbEntity
  8
SUNPO
 62
     0
100
AcDbMText
 10
64.38104512136755
 20
329.0912613695059
 30
0.0
 40
2.5
 41
0.0
 71
     5
 72
     1
  1
\A1;175
 11
0.0000000000000001
 21
1.0
 31
0.0
 73
     1
 44
1.0
1001
ACAD
1000
MTEXTBEGIN
1070
    73
1070
     1
1070
    44
1040
1.0
1070
    74
1070
     0
1000
MTEXTEND
  0
POINT
  5
4B
330
43
100
AcDbEntity
  8
DEFPOINTS
 62
     0
100
AcDbPoint
 10
58.1310451213676
 20
320.3412607695059
 30
0.0
  0
POINT
  5
4C
330
43
100
AcDbEntity
  8
DEFPOINTS
 62
     0
100
AcDbPoint
 10
58.1310451213676
 20
337.8412619695059
 30
0.0
  0
POINT
  5
4D
330
43
100
AcDbEntity
  8
DEFPOINTS
 62
     0
100
AcDbPoint
 10
66.13104512136761
 20
337.8412619695059
 30
0.0
  0
ENDBLK
  5
4E
330
43
100
AcDbEntity
  8
0
100
AcDbBlockEnd
  0
BLOCK
  5
36
330
35
100
AcDbEntity
  8
0
100
AcDbBlockBegin
  2
*D3
 70
     1
 10
0.0
 20
0.0
 30
0.0
  3
*D3
  1

  0
LINE
  5
37
330
35
100
AcDbEntity
  8
SUNPO
 62
     0
370
    -2
100
AcDbLine
 10
77.02111044974209
 20
339.865057248939
 30
0.0
 11
77.02111044974209
 21
347.865057248939
 31
0.0
  0
LINE
  5
38
330
35
100
AcDbEntity
  8
SUNPO
 62
     0
370
    -2
100
AcDbLine
 10
120.2371636497421
 20
339.865057248939
 30
0.0
 11
120.2371636497421
 21
347.865057248939
 31
0.0
  0
LINE
  5
39
330
35
100
AcDbEntity
  8
SUNPO
 62
     0
370
    -2
100
AcDbLine
 10
79.02111044974209
 20
345.865057248939
 30
0.0
 11
118.2371636497421
 21
345.865057248939
 31
0.0
  0
INSERT
  5
3A
330
35
100
AcDbEntity
  8
SUNPO
 62
     0
370
    -2
100
AcDbBlockReference
  2
_OPEN30
 10
77.02111044974209
 20
345.865057248939
 30
0.0
 41
2.0
 42
2.0
 43
2.0
 50
180.0
  0
INSERT
  5
3B
330
35
100
AcDbEntity
  8
SUNPO
 62
     0
370
    -2
100
AcDbBlockReference
  2
_OPEN30
 10
120.2371636497421
 20
345.865057248939
 30
0.0
 41
2.0
 42
2.0
 43
2.0
  0
MTEXT
  5
3C
330
35
100
AcDbEntity
  8
SUNPO
 62
     0
100
AcDbMText
 10
98.62913704974211
 20
347.615057248939
 30
0.0
 40
2.5
 41
0.0
 71
     5
 72
     1
  1
\A1;432
 73
     1
 44
1.0
1001
ACAD
1000
MTEXTBEGIN
1070
    73
1070
     1
1070
    44
1040
1.0
1070
    74
1070
     0
1000
MTEXTEND
  0
POINT
  5
3D
330
35
100
AcDbEntity
  8
DEFPOINTS
 62
     0
100
AcDbPoint
 10
77.02111044974209
 20
337.865057248939
 30
0.0
  0
POINT
  5
3F
330
35
100
AcDbEntity
  8
DEFPOINTS
 62
     0
100
AcDbPoint
 10
120.2371636497421
 20
337.865057248939
 30
0.0
  0
POINT
  5
40
330
35
100
AcDbEntity
  8
DEFPOINTS
 62
     0
100
AcDbPoint
 10
120.2371636497421
 20
345.865057248939
 30
0.0
  0
ENDBLK
  5
41
330
35
100
AcDbEntity
  8
0
100
AcDbBlockEnd
  0
BLOCK
  5
449
330
43F
100
AcDbEntity
  8
0
100
AcDbBlockBegin
  2
*D4
 70
     1
 10
0.0
 20
0.0
 30
0.0
  3
*D4
  1

  0
LINE
  5
440
330
43F
100
AcDbEntity
  8
SUNPO
 62
     0
370
    -2
100
AcDbLine
 10
-57.51696496053483
 20
21.77195314057974
 30
0.0
 11
-57.51696496053483
 21
29.77195314057974
 31
0.0
  0
LINE
  5
441
330
43F
100
AcDbEntity
  8
SUNPO
 62
     0
370
    -2
100
AcDbLine
 10
-7.716964960534824
 20
21.77195314057974
 30
0.0
 11
-7.716964960534823
 21
29.77195314057974
 31
0.0
  0
LINE
  5
442
330
43F
100
AcDbEntity
  8
SUNPO
 62
     0
370
    -2
100
AcDbLine
 10
-55.51696496053484
 20
27.77195314057974
 30
0.0
 11
-9.716964960534824
 21
27.77195314057974
 31
0.0
  0
INSERT
  5
443
330
43F
100
AcDbEntity
  8
SUNPO
 62
     0
370
    -2
100
AcDbBlockReference
  2
_OPEN30
 10
-57.51696496053483
 20
27.77195314057974
 30
0.0
 41
2.0
 42
2.0
 43
2.0
 50
180.0
  0
INSERT
  5
444
330
43F
100
AcDbEntity
  8
SUNPO
 62
     0
370
    -2
100
AcDbBlockReference
  2
_OPEN30
 10
-7.716964960534823
 20
27.77195314057974
 30
0.0
 41
2.0
 42
2.0
 43
2.0
  0
MTEXT
  5
445
330
43F
100
AcDbEntity
  8
SUNPO
 62
     0
100
AcDbMText
 10
-32.61696496053483
 20
29.52195314057974
 30
0.0
 40
2.5
 41
0.0
 71
     5
 72
     1
  1
\A1;498
 73
     1
 44
1.0
1001
ACAD
1000
MTEXTBEGIN
1070
    73
1070
     1
1070
    44
1040
1.0
1070
    74
1070
     0
1000
MTEXTEND
  0
POINT
  5
446
330
43F
100
AcDbEntity
  8
DEFPOINTS
 62
     0
100
AcDbPoint
 10
-57.51696496053483
 20
19.77195314057974
 30
0.0
  0
POINT
  5
447
330
43F
100
AcDbEntity
  8
DEFPOINTS
 62
     0
100
AcDbPoint
 10
-7.716964960534824
 20
19.77195314057974
 30
0.0
  0
POINT
  5
448
330
43F
100
AcDbEntity
  8
DEFPOINTS
 62
     0
100
AcDbPoint
 10
-7.716964960534823
 20
27.77195314057974
 30
0.0
  0
ENDBLK
  5
44A
330
43F
100
AcDbEntity
  8
0
100
AcDbBlockEnd
  0
BLOCK
  5
455
330
44B
100
AcDbEntity
  8
0
100
AcDbBlockBegin
  2
*D5
 70
     1
 10
0.0
 20
0.0
 30
0.0
  3
*D5
  1

  0
LINE
  5
44C
330
44B
100
AcDbEntity
  8
SUNPO
 62
     0
370
    -2
100
AcDbLine
 10
-5.716964960534824
 20
2.248156661146594
 30
0.0
 11
2.283035039465171
 21
2.248156661146592
 31
0.0
  0
LINE
  5
44D
330
44B
100
AcDbEntity
  8
SUNPO
 62
     0
370
    -2
100
AcDbLine
 10
-5.716964960534824
 20
19.74815786114664
 30
0.0
 11
2.283035039465175
 21
19.74815786114664
 31
0.0
  0
LINE
  5
44E
330
44B
100
AcDbEntity
  8
SUNPO
 62
     0
370
    -2
100
AcDbLine
 10
0.2830350394651725
 20
4.248156661146593
 30
0.0
 11
0.2830350394651755
 21
17.74815786114664
 31
0.0
  0
INSERT
  5
44F
330
44B
100
AcDbEntity
  8
SUNPO
 62
     0
370
    -2
100
AcDbBlockReference
  2
_OPEN30
 10
0.283035039465172
 20
2.248156661146592
 30
0.0
 41
2.0
 42
2.0
 43
2.0
 50
270.0
  0
INSERT
  5
450
330
44B
100
AcDbEntity
  8
SUNPO
 62
     0
370
    -2
100
AcDbBlockReference
  2
_OPEN30
 10
0.2830350394651759
 20
19.74815786114664
 30
0.0
 41
2.0
 42
2.0
 43
2.0
 50
90.0
  0
MTEXT
  5
451
330
44B
100
AcDbEntity
  8
SUNPO
 62
     0
100
AcDbMText
 10
-1.466964960534828
 20
10.99815726114661
 30
0.0
 40
2.5
 41
0.0
 71
     5
 72
     1
  1
\A1;175
 11
0.0000000000000001
 21
1.0
 31
0.0
 73
     1
 44
1.0
1001
ACAD
1000
MTEXTBEGIN
1070
    73
1070
     1
1070
    44
1040
1.0
1070
    74
1070
     0
1000
MTEXTEND
  0
POINT
  5
452
330
44B
100
AcDbEntity
  8
DEFPOINTS
 62
     0
100
AcDbPoint
 10
-7.716964960534824
 20
2.248156661146595
 30
0.0
  0
POINT
  5
453
330
44B
100
AcDbEntity
  8
DEFPOINTS
 62
     0
100
AcDbPoint
 10
-7.716964960534824
 20
19.74815786114664
 30
0.0
  0
POINT
  5
454
330
44B
100
AcDbEntity
  8
DEFPOINTS
 62
     0
100
AcDbPoint
 10
0.2830350394651759
 20
19.74815786114664
 30
0.0
  0
ENDBLK
  5
456
330
44B
100
AcDbEntity
  8
0
100
AcDbBlockEnd
  0
BLOCK
  5
461
330
457
100
AcDbEntity
  8
0
100
AcDbBlockBegin
  2
*D6
 70
     1
 10
0.0
 20
0.0
 30
0.0
  3
*D6
  1

  0
LINE
  5
458
330
457
100
AcDbEntity
  8
SUNPO
 62
     0
370
    -2
100
AcDbLine
 10
11.17310036783966
 20
21.77195314057974
 30
0.0
 11
11.17310036783966
 21
29.77195314057974
 31
0.0
  0
LINE
  5
459
330
457
100
AcDbEntity
  8
SUNPO
 62
     0
370
    -2
100
AcDbLine
 10
54.38915356783969
 20
21.77195314057974
 30
0.0
 11
54.38915356783969
 21
29.77195314057974
 31
0.0
  0
LINE
  5
45A
330
457
100
AcDbEntity
  8
SUNPO
 62
     0
370
    -2
100
AcDbLine
 10
13.17310036783966
 20
27.77195314057974
 30
0.0
 11
52.38915356783969
 21
27.77195314057974
 31
0.0
  0
INSERT
  5
45B
330
457
100
AcDbEntity
  8
SUNPO
 62
     0
370
    -2
100
AcDbBlockReference
  2
_OPEN30
 10
11.17310036783966
 20
27.77195314057974
 30
0.0
 41
2.0
 42
2.0
 43
2.0
 50
180.0
  0
INSERT
  5
45C
330
457
100
AcDbEntity
  8
SUNPO
 62
     0
370
    -2
100
AcDbBlockReference
  2
_OPEN30
 10
54.38915356783969
 20
27.77195314057974
 30
0.0
 41
2.0
 42
2.0
 43
2.0
  0
MTEXT
  5
45D
330
457
100
AcDbEntity
  8
SUNPO
 62
     0
100
AcDbMText
 10
32.78112696783967
 20
29.52195314057974
 30
0.0
 40
2.5
 41
0.0
 71
     5
 72
     1
  1
\A1;432
 73
     1
 44
1.0
1001
ACAD
1000
MTEXTBEGIN
1070
    73
1070
     1
1070
    44
1040
1.0
1070
    74
1070
     0
1000
MTEXTEND
  0
POINT
  5
45E
330
457
100
AcDbEntity
  8
DEFPOINTS
 62
     0
100
AcDbPoint
 10
11.17310036783966
 20
19.77195314057974
 30
0.0
  0
POINT
  5
45F
330
457
100
AcDbEntity
  8
DEFPOINTS
 62
     0
100
AcDbPoint
 10
54.38915356783969
 20
19.77195314057974
 30
0.0
  0
POINT
  5
460
330
457
100
AcDbEntity
  8
DEFPOINTS
 62
     0
100
AcDbPoint
 10
54.38915356783969
 20
27.77195314057974
 30
0.0
  0
ENDBLK
  5
462
330
457
100
AcDbEntity
  8
0
100
AcDbBlockEnd
  0
ENDSEC
  0
SECTION
  2
ENTITIES
  0
TEXT
  5
2F
330
2
100
AcDbEntity
  8
MOJI1
100
AcDbText
 10
-36.34801013786125
 20
48.40773101657873
 30
0.0
 40
4.0
  1
ＤＬＰ方式プロジェクター
100
AcDbText
  0
TEXT
  5
31
330
2
100
AcDbEntity
  8
TOUROKU
100
AcDbText
 10
40.85193989506594
 20
42.40773101657874
 30
0.0
 40
2.0
  1
ＰＴＤＸ７３０ＬＳ
 72
     2
 11
61.65193989506594
 21
42.40773101657874
 31
0.0
100
AcDbText
  0
DIMENSION
  5
33
330
2
100
AcDbEntity
  8
SUNPO
100
AcDbDimension
  2
*D6
 10
54.38915356783969
 20
27.77195314057974
 30
0.0
 11
32.78112696783967
 21
29.52195314057974
 31
0.0
 70
    33
  1
432
 71
     5
 42
43.21605320000002
  3
STANDARD
100
AcDbAlignedDimension
 13
11.17310036783966
 23
19.77195314057974
 33
0.0
 14
54.38915356783969
 24
19.77195314057974
 34
0.0
1001
ACAD
1000
DSTYLE
1002
{
1070
   287
1070
     3
1070
    40
1040
1.0
1070
   140
1040
2.5
1070
   147
1040
0.5
1070
   172
1070
     1
1070
   279
1070
     0
1070
   288
1070
     0
1002
}
  0
DIMENSION
  5
42
330
2
100
AcDbEntity
  8
SUNPO
100
AcDbDimension
  2
*D5
 10
0.2830350394651759
 20
19.74815786114664
 30
0.0
 11
-1.466964960534828
 21
10.99815726114661
 31
0.0
 70
    33
  1
175
 71
     5
 42
17.50000120000004
  3
STANDARD
100
AcDbAlignedDimension
 13
-7.716964960534824
 23
2.248156661146595
 33
0.0
 14
-7.716964960534824
 24
19.74815786114664
 34
0.0
1001
ACAD
1000
DSTYLE
1002
{
1070
   287
1070
     3
1070
    40
1040
1.0
1070
   140
1040
2.5
1070
   147
1040
0.5
1070
   172
1070
     1
1070
   279
1070
     0
1070
   288
1070
     0
1002
}
  0
DIMENSION
  5
4F
330
2
100
AcDbEntity
  8
SUNPO
100
AcDbDimension
  2
*D4
 10
-7.716964960534823
 20
27.77195314057974
 30
0.0
 11
-32.61696496053483
 21
29.52195314057974
 31
0.0
 70
    33
  1
498
 71
     5
 42
49.80000000000001
  3
STANDARD
100
AcDbAlignedDimension
 13
-57.51696496053483
 23
19.77195314057974
 33
0.0
 14
-7.716964960534824
 24
19.77195314057974
 34
0.0
1001
ACAD
1000
DSTYLE
1002
{
1070
   287
1070
     3
1070
    40
1040
1.0
1070
   140
1040
2.5
1070
   147
1040
0.5
1070
   172
1070
     1
1070
   279
1070
     0
1070
   288
1070
     0
1002
}
  0
LINE
  5
5C
330
2
100
AcDbEntity
  8
GAIKEI
  6
Continuous
 62
     1
100
AcDbLine
 10
43.97966956783965
 20
13.77781356114656
 30
0.0
 11
43.97966956783965
 21
13.21784756114652
 31
0.0
  0
LINE
  5
5D
330
2
100
AcDbEntity
  8
GAIKEI
  6
Continuous
 62
     1
100
AcDbLine
 10
43.41168256783963
 20
13.21784756114652
 30
0.0
 11
43.41168256783961
 21
13.77781356114656
 31
0.0
  0
LINE
  5
5E
330
2
100
AcDbEntity
  8
GAIKEI
  6
Continuous
 62
     1
100
AcDbLine
 10
45.01490656514022
 20
13.77622474013867
 30
0.0
 11
45.01490656514022
 21
13.21625874013864
 31
0.0
  0
LINE
  5
5F
330
2
100
AcDbEntity
  8
GAIKEI
  6
Continuous
 62
     1
100
AcDbLine
 10
42.37644557053909
 20
13.77622474013867
 30
0.0
 11
42.37644557053909
 21
13.21625874013864
 31
0.0
  0
LINE
  5
60
330
2
100
AcDbEntity
  8
GAIKEI
  6
Continuous
 62
     1
100
AcDbLine
 10
43.97966956783966
 20
16.02781356114656
 30
0.0
 11
43.97966956783966
 21
15.46784756114653
 31
0.0
  0
LINE
  5
61
330
2
100
AcDbEntity
  8
GAIKEI
  6
Continuous
 62
     1
100
AcDbLine
 10
43.41168256783965
 20
15.46784756114653
 30
0.0
 11
43.41168256783963
 21
16.02781356114656
 31
0.0
  0
LINE
  5
62
330
2
100
AcDbEntity
  8
GAIKEI
  6
Continuous
 62
     1
100
AcDbLine
 10
45.01490656514024
 20
16.02622474013867
 30
0.0
 11
45.01490656514024
 21
15.46625874013864
 31
0.0
  0
LINE
  5
63
330
2
100
AcDbEntity
  8
GAIKEI
  6
Continuous
 62
     1
100
AcDbLine
 10
42.3764455705391
 20
16.02622474013867
 30
0.0
 11
42.3764455705391
 21
15.46625874013864
 31
0.0
  0
LINE
  5
64
330
2
100
AcDbEntity
  8
GAIKEI
  6
Continuous
 62
     1
100
AcDbLine
 10
42.3764455705391
 20
16.77622474013867
 30
0.0
 11
42.3764455705391
 21
16.21625874013864
 31
0.0
  0
LINE
  5
65
330
2
100
AcDbEntity
  8
GAIKEI
  6
Continuous
 62
     1
100
AcDbLine
 10
45.01490656514024
 20
16.77622474013867
 30
0.0
 11
45.01490656514024
 21
16.21625874013864
 31
0.0
  0
LINE
  5
66
330
2
100
AcDbEntity
  8
GAIKEI
  6
Continuous
 62
     1
100
AcDbLine
 10
43.41168256783965
 20
16.21784756114653
 30
0.0
 11
43.41168256783963
 21
16.77781356114656
 31
0.0
  0
LINE
  5
67
330
2
100
AcDbEntity
  8
GAIKEI
  6
Continuous
 62
     1
100
AcDbLine
 10
43.97966956783966
 20
16.77781356114656
 30
0.0
 11
43.97966956783966
 21
16.21784756114653
 31
0.0
  0
LINE
  5
68
330
2
100
AcDbEntity
  8
GAIKEI
  6
Continuous
 62
     1
100
AcDbLine
 10
43.97966956783966
 20
15.27781356114661
 30
0.0
 11
43.97966956783966
 21
14.71784756114658
 31
0.0
  0
LINE
  5
69
330
2
100
AcDbEntity
  8
GAIKEI
  6
Continuous
 62
     1
100
AcDbLine
 10
43.41168256783965
 20
14.71784756114658
 30
0.0
 11
43.41168256783963
 21
15.27781356114661
 31
0.0
  0
LINE
  5
6A
330
2
100
AcDbEntity
  8
GAIKEI
  6
Continuous
 62
     1
100
AcDbLine
 10
45.01490656514024
 20
15.27622474013867
 30
0.0
 11
45.01490656514024
 21
14.71625874013864
 31
0.0
  0
LINE
  5
6B
330
2
100
AcDbEntity
  8
GAIKEI
  6
Continuous
 62
     1
100
AcDbLine
 10
42.3764455705391
 20
15.27622474013867
 30
0.0
 11
42.3764455705391
 21
14.71625874013864
 31
0.0
  0
LINE
  5
6C
330
2
100
AcDbEntity
  8
GAIKEI
  6
Continuous
 62
     1
100
AcDbLine
 10
42.3764455705391
 20
14.52622474013867
 30
0.0
 11
42.3764455705391
 21
13.96625874013864
 31
0.0
  0
LINE
  5
6D
330
2
100
AcDbEntity
  8
GAIKEI
  6
Continuous
 62
     1
100
AcDbLine
 10
45.01490656514024
 20
14.52622474013867
 30
0.0
 11
45.01490656514024
 21
13.96625874013864
 31
0.0
  0
LINE
  5
6E
330
2
100
AcDbEntity
  8
GAIKEI
  6
Continuous
 62
     1
100
AcDbLine
 10
43.41168256783965
 20
13.96784756114658
 30
0.0
 11
43.41168256783963
 21
14.52781356114661
 31
0.0
  0
LINE
  5
6F
330
2
100
AcDbEntity
  8
GAIKEI
  6
Continuous
 62
     1
100
AcDbLine
 10
43.97966956783966
 20
14.52781356114661
 30
0.0
 11
43.97966956783966
 21
13.96784756114658
 31
0.0
  0
LINE
  5
70
330
2
100
AcDbEntity
  8
GAIKEI
  6
Continuous
 62
     1
100
AcDbLine
 10
43.97966956783966
 20
10.77781356114661
 30
0.0
 11
43.97966956783966
 21
10.21784756114658
 31
0.0
  0
LINE
  5
71
330
2
100
AcDbEntity
  8
GAIKEI
  6
Continuous
 62
     1
100
AcDbLine
 10
43.41168256783965
 20
10.21784756114658
 30
0.0
 11
43.41168256783963
 21
10.77781356114661
 31
0.0
  0
LINE
  5
72
330
2
100
AcDbEntity
  8
GAIKEI
  6
Continuous
 62
     1
100
AcDbLine
 10
45.01490656514024
 20
10.77622474013867
 30
0.0
 11
45.01490656514024
 21
10.21625874013864
 31
0.0
  0
LINE
  5
73
330
2
100
AcDbEntity
  8
GAIKEI
  6
Continuous
 62
     1
100
AcDbLine
 10
42.3764455705391
 20
10.77622474013867
 30
0.0
 11
42.3764455705391
 21
10.21625874013864
 31
0.0
  0
LINE
  5
74
330
2
100
AcDbEntity
  8
GAIKEI
  6
Continuous
 62
     1
100
AcDbLine
 10
42.3764455705391
 20
11.52622474013867
 30
0.0
 11
42.3764455705391
 21
10.96625874013864
 31
0.0
  0
LINE
  5
75
330
2
100
AcDbEntity
  8
GAIKEI
  6
Continuous
 62
     1
100
AcDbLine
 10
45.01490656514024
 20
11.52622474013867
 30
0.0
 11
45.01490656514024
 21
10.96625874013864
 31
0.0
  0
LINE
  5
76
330
2
100
AcDbEntity
  8
GAIKEI
  6
Continuous
 62
     1
100
AcDbLine
 10
43.41168256783965
 20
10.96784756114658
 30
0.0
 11
43.41168256783963
 21
11.52781356114661
 31
0.0
  0
LINE
  5
77
330
2
100
AcDbEntity
  8
GAIKEI
  6
Continuous
 62
     1
100
AcDbLine
 10
43.97966956783966
 20
11.52781356114661
 30
0.0
 11
43.97966956783966
 21
10.96784756114658
 31
0.0
  0
LINE
  5
78
330
2
100
AcDbEntity
  8
GAIKEI
  6
Continuous
 62
     1
100
AcDbLine
 10
43.97966956783966
 20
13.02781356114656
 30
0.0
 11
43.97966956783966
 21
12.46784756114653
 31
0.0
  0
LINE
  5
79
330
2
100
AcDbEntity
  8
GAIKEI
  6
Continuous
 62
     1
100
AcDbLine
 10
43.41168256783965
 20
12.46784756114653
 30
0.0
 11
43.41168256783963
 21
13.02781356114656
 31
0.0
  0
LINE
  5
7A
330
2
100
AcDbEntity
  8
GAIKEI
  6
Continuous
 62
     1
100
AcDbLine
 10
45.01490656514024
 20
13.02622474013867
 30
0.0
 11
45.01490656514024
 21
12.46625874013864
 31
0.0
  0
LINE
  5
7B
330
2
100
AcDbEntity
  8
GAIKEI
  6
Continuous
 62
     1
100
AcDbLine
 10
42.3764455705391
 20
13.02622474013867
 30
0.0
 11
42.3764455705391
 21
12.46625874013864
 31
0.0
  0
LINE
  5
7C
330
2
100
AcDbEntity
  8
GAIKEI
  6
Continuous
 62
     1
100
AcDbLine
 10
42.3764455705391
 20
12.27622474013867
 30
0.0
 11
42.3764455705391
 21
11.71625874013864
 31
0.0
  0
LINE
  5
7D
330
2
100
AcDbEntity
  8
GAIKEI
  6
Continuous
 62
     1
100
AcDbLine
 10
45.01490656514024
 20
12.27622474013867
 30
0.0
 11
45.01490656514024
 21
11.71625874013864
 31
0.0
  0
LINE
  5
7E
330
2
100
AcDbEntity
  8
GAIKEI
  6
Continuous
 62
     1
100
AcDbLine
 10
43.41168256783965
 20
11.71784756114653
 30
0.0
 11
43.41168256783963
 21
12.27781356114656
 31
0.0
  0
LINE
  5
7F
330
2
100
AcDbEntity
  8
GAIKEI
  6
Continuous
 62
     1
100
AcDbLine
 10
43.97966956783966
 20
12.27781356114656
 30
0.0
 11
43.97966956783966
 21
11.71784756114653
 31
0.0
  0
LINE
  5
80
330
2
100
AcDbEntity
  8
GAIKEI
  6
Continuous
 62
     1
100
AcDbLine
 10
43.97966956783965
 20
9.277813561146558
 30
0.0
 11
43.97966956783965
 21
8.717847561146527
 31
0.0
  0
LINE
  5
81
330
2
100
AcDbEntity
  8
GAIKEI
  6
Continuous
 62
     1
100
AcDbLine
 10
43.41168256783963
 20
8.717847561146527
 30
0.0
 11
43.41168256783961
 21
9.277813561146558
 31
0.0
  0
LINE
  5
82
330
2
100
AcDbEntity
  8
GAIKEI
  6
Continuous
 62
     1
100
AcDbLine
 10
45.01490656514022
 20
9.276224740138673
 30
0.0
 11
45.01490656514022
 21
8.716258740138641
 31
0.0
  0
LINE
  5
83
330
2
100
AcDbEntity
  8
GAIKEI
  6
Continuous
 62
     1
100
AcDbLine
 10
42.37644557053909
 20
9.276224740138673
 30
0.0
 11
42.37644557053909
 21
8.716258740138641
 31
0.0
  0
LINE
  5
84
330
2
100
AcDbEntity
  8
GAIKEI
  6
Continuous
 62
     1
100
AcDbLine
 10
42.37644557053909
 20
10.02622474013867
 30
0.0
 11
42.37644557053909
 21
9.466258740138641
 31
0.0
  0
LINE
  5
85
330
2
100
AcDbEntity
  8
GAIKEI
  6
Continuous
 62
     1
100
AcDbLine
 10
45.01490656514022
 20
10.02622474013867
 30
0.0
 11
45.01490656514022
 21
9.466258740138641
 31
0.0
  0
LINE
  5
86
330
2
100
AcDbEntity
  8
GAIKEI
  6
Continuous
 62
     1
100
AcDbLine
 10
43.41168256783963
 20
9.467847561146527
 30
0.0
 11
43.41168256783961
 21
10.02781356114656
 31
0.0
  0
LINE
  5
87
330
2
100
AcDbEntity
  8
GAIKEI
  6
Continuous
 62
     1
100
AcDbLine
 10
43.97966956783965
 20
10.02781356114656
 30
0.0
 11
43.97966956783965
 21
9.467847561146527
 31
0.0
  0
LINE
  5
88
330
2
100
AcDbEntity
  8
GAIKEI
  6
Continuous
 62
     1
100
AcDbLine
 10
43.97966956783965
 20
8.527813561146615
 30
0.0
 11
43.97966956783965
 21
7.967847561146584
 31
0.0
  0
LINE
  5
89
330
2
100
AcDbEntity
  8
GAIKEI
  6
Continuous
 62
     1
100
AcDbLine
 10
43.41168256783963
 20
7.967847561146584
 30
0.0
 11
43.41168256783961
 21
8.527813561146615
 31
0.0
  0
LINE
  5
8A
330
2
100
AcDbEntity
  8
GAIKEI
  6
Continuous
 62
     1
100
AcDbLine
 10
45.01490656514022
 20
8.526224740138673
 30
0.0
 11
45.01490656514022
 21
7.966258740138641
 31
0.0
  0
LINE
  5
8B
330
2
100
AcDbEntity
  8
GAIKEI
  6
Continuous
 62
     1
100
AcDbLine
 10
42.37644557053909
 20
8.526224740138673
 30
0.0
 11
42.37644557053909
 21
7.966258740138641
 31
0.0
  0
LINE
  5
8C
330
2
100
AcDbEntity
  8
GAIKEI
  6
Continuous
 62
     1
100
AcDbLine
 10
42.37644557053909
 20
7.776224740138673
 30
0.0
 11
42.37644557053909
 21
7.216258740138641
 31
0.0
  0
LINE
  5
8D
330
2
100
AcDbEntity
  8
GAIKEI
  6
Continuous
 62
     1
100
AcDbLine
 10
45.01490656514022
 20
7.776224740138673
 30
0.0
 11
45.01490656514022
 21
7.216258740138641
 31
0.0
  0
LINE
  5
8E
330
2
100
AcDbEntity
  8
GAIKEI
  6
Continuous
 62
     1
100
AcDbLine
 10
24.70018794082607
 20
13.61020624911305
 30
0.0
 11
24.70018794082607
 21
14.17846804911301
 31
0.0
  0
LINE
  5
8F
330
2
100
AcDbEntity
  8
GAIKEI
  6
Continuous
 62
     1
100
AcDbLine
 10
24.33766645216274
 20
13.61020624911305
 30
0.0
 11
24.33766645216274
 21
14.17846804911301
 31
0.0
  0
LINE
  5
90
330
2
100
AcDbEntity
  8
GAIKEI
  6
Continuous
 62
     1
100
AcDbLine
 10
24.33766645216275
 20
10.53022576590331
 30
0.0
 11
24.33766645216275
 21
11.09848756590327
 31
0.0
  0
LINE
  5
91
330
2
100
AcDbEntity
  8
GAIKEI
  6
Continuous
 62
     1
100
AcDbLine
 10
24.70018794082609
 20
10.53022576590331
 30
0.0
 11
24.70018794082609
 21
11.09848756590327
 31
0.0
  0
LINE
  5
92
330
2
100
AcDbEntity
  8
GAIKEI
  6
Continuous
 62
     1
100
AcDbLine
 10
24.70018794082609
 20
11.30022090728619
 30
0.0
 11
24.70018794082609
 21
11.8684827072862
 31
0.0
  0
LINE
  5
93
330
2
100
AcDbEntity
  8
GAIKEI
  6
Continuous
 62
     1
100
AcDbLine
 10
24.33766645216275
 20
11.30022090728619
 30
0.0
 11
24.33766645216275
 21
11.8684827072862
 31
0.0
  0
LINE
  5
94
330
2
100
AcDbEntity
  8
GAIKEI
  6
Continuous
 62
     1
100
AcDbLine
 10
24.33766645216274
 20
12.84021114911309
 30
0.0
 11
24.33766645216274
 21
13.40847294911305
 31
0.0
  0
LINE
  5
95
330
2
100
AcDbEntity
  8
GAIKEI
  6
Continuous
 62
     1
100
AcDbLine
 10
24.70018794082607
 20
12.84021114911309
 30
0.0
 11
24.70018794082607
 21
13.40847294911305
 31
0.0
  0
LINE
  5
96
330
2
100
AcDbEntity
  8
GAIKEI
  6
Continuous
 62
     1
100
AcDbLine
 10
24.70018794082607
 20
12.07021600773015
 30
0.0
 11
24.70018794082607
 21
12.63847780773017
 31
0.0
  0
LINE
  5
97
330
2
100
AcDbEntity
  8
GAIKEI
  6
Continuous
 62
     1
100
AcDbLine
 10
24.33766645216274
 20
12.07021600773015
 30
0.0
 11
24.33766645216274
 21
12.63847780773017
 31
0.0
  0
LINE
  5
98
330
2
100
AcDbEntity
  8
GAIKEI
  6
Continuous
 62
     1
100
AcDbLine
 10
24.70018794082607
 20
9.76020630832204
 30
0.0
 11
24.70018794082607
 21
10.32846810832205
 31
0.0
  0
LINE
  5
99
330
2
100
AcDbEntity
  8
GAIKEI
  6
Continuous
 62
     1
100
AcDbLine
 10
24.33766645216274
 20
9.76020630832204
 30
0.0
 11
24.33766645216274
 21
10.32846810832205
 31
0.0
  0
LINE
  5
9A
330
2
100
AcDbEntity
  8
GAIKEI
100
AcDbLine
 10
11.27260039184345
 20
19.23195781759364
 30
0.0
 11
12.07309516783965
 21
19.24639576114657
 31
0.0
  0
LINE
  5
9B
330
2
100
AcDbEntity
  8
GAIKEI
100
AcDbLine
 10
11.27263031331352
 20
4.764336567677446
 30
0.0
 11
12.07309576783967
 21
4.749901161146567
 31
0.0
  0
LINE
  5
9C
330
2
100
AcDbEntity
  8
GAIKEI
 62
     1
100
AcDbLine
 10
11.47310036783966
 20
4.760721337666041
 30
0.0
 11
11.47310036783967
 21
19.23557409020725
 31
0.0
  0
POINT
  5
9D
330
2
100
AcDbEntity
  8
GAIKEI
  6
Continuous
 62
     1
100
AcDbPoint
 10
49.07308356783971
 20
6.847528161146613
 30
0.0
  0
LINE
  5
9E
330
2
100
AcDbEntity
  8
GAIKEI
  6
Continuous
 62
     1
100
AcDbLine
 10
43.41168256783963
 20
7.217847561146584
 30
0.0
 11
43.41168256783961
 21
7.777813561146615
 31
0.0
  0
LINE
  5
9F
330
2
100
AcDbEntity
  8
GAIKEI
  6
Continuous
 62
     1
100
AcDbLine
 10
43.97966956783965
 20
7.777813561146615
 30
0.0
 11
43.97966956783965
 21
7.217847561146584
 31
0.0
  0
LINE
  5
A0
330
2
100
AcDbEntity
  8
GAIKEI
  6
Continuous
 62
     1
100
AcDbLine
 10
45.48133456783967
 20
7.217847561146584
 30
0.0
 11
41.91001756783964
 21
7.217847561146584
 31
0.0
  0
LINE
  5
A1
330
2
100
AcDbEntity
  8
GAIKEI
  6
Continuous
 62
     1
100
AcDbLine
 10
45.48133456783967
 20
7.777813561146615
 30
0.0
 11
45.48133456783967
 21
7.217847561146584
 31
0.0
  0
LINE
  5
A2
330
2
100
AcDbEntity
  8
GAIKEI
  6
Continuous
 62
     1
100
AcDbLine
 10
41.91001756783964
 20
7.777813561146615
 30
0.0
 11
45.48133456783967
 21
7.777813561146615
 31
0.0
  0
LINE
  5
A3
330
2
100
AcDbEntity
  8
GAIKEI
  6
Continuous
 62
     1
100
AcDbLine
 10
41.91001756783964
 20
7.217847561146584
 30
0.0
 11
41.91001756783964
 21
7.777813561146615
 31
0.0
  0
LINE
  5
A4
330
2
100
AcDbEntity
  8
GAIKEI
  6
Continuous
 62
     1
100
AcDbLine
 10
45.48133456783967
 20
7.967847561146584
 30
0.0
 11
41.91001756783964
 21
7.967847561146584
 31
0.0
  0
LINE
  5
A5
330
2
100
AcDbEntity
  8
GAIKEI
  6
Continuous
 62
     1
100
AcDbLine
 10
45.48133456783967
 20
8.527813561146615
 30
0.0
 11
45.48133456783967
 21
7.967847561146584
 31
0.0
  0
LINE
  5
A6
330
2
100
AcDbEntity
  8
GAIKEI
  6
Continuous
 62
     1
100
AcDbLine
 10
41.91001756783964
 20
8.527813561146615
 30
0.0
 11
45.48133456783967
 21
8.527813561146615
 31
0.0
  0
LINE
  5
A7
330
2
100
AcDbEntity
  8
GAIKEI
  6
Continuous
 62
     1
100
AcDbLine
 10
41.91001756783964
 20
7.967847561146584
 30
0.0
 11
41.91001756783964
 21
8.527813561146615
 31
0.0
  0
LINE
  5
A8
330
2
100
AcDbEntity
  8
GAIKEI
  6
Continuous
 62
     1
100
AcDbLine
 10
45.48133456783967
 20
8.717847561146584
 30
0.0
 11
41.91001756783964
 21
8.717847561146584
 31
0.0
  0
LINE
  5
A9
330
2
100
AcDbEntity
  8
GAIKEI
  6
Continuous
 62
     1
100
AcDbLine
 10
45.48133456783967
 20
9.277813561146615
 30
0.0
 11
45.48133456783967
 21
8.717847561146584
 31
0.0
  0
LINE
  5
AA
330
2
100
AcDbEntity
  8
GAIKEI
  6
Continuous
 62
     1
100
AcDbLine
 10
41.91002256783969
 20
9.277813561146615
 30
0.0
 11
45.48132956783968
 21
9.277813561146615
 31
0.0
  0
LINE
  5
AB
330
2
100
AcDbEntity
  8
GAIKEI
  6
Continuous
 62
     1
100
AcDbLine
 10
41.91001756783964
 20
8.717847561146584
 30
0.0
 11
41.91001756783964
 21
9.277813561146615
 31
0.0
  0
LINE
  5
AC
330
2
100
AcDbEntity
  8
GAIKEI
  6
Continuous
 62
     1
100
AcDbLine
 10
45.48132856783968
 20
9.467847561146584
 30
0.0
 11
41.91002356783968
 21
9.467847561146584
 31
0.0
  0
LINE
  5
AD
330
2
100
AcDbEntity
  8
GAIKEI
  6
Continuous
 62
     1
100
AcDbLine
 10
45.48133456783967
 20
10.02781356114661
 30
0.0
 11
45.48133456783967
 21
9.467847561146584
 31
0.0
  0
LINE
  5
AE
330
2
100
AcDbEntity
  8
GAIKEI
  6
Continuous
 62
     1
100
AcDbLine
 10
41.91002656783967
 20
10.02781356114661
 30
0.0
 11
45.48132556783968
 21
10.02781356114661
 31
0.0
  0
LINE
  5
AF
330
2
100
AcDbEntity
  8
GAIKEI
  6
Continuous
 62
     1
100
AcDbLine
 10
41.91001756783964
 20
9.467847561146584
 30
0.0
 11
41.91001756783964
 21
10.02781356114661
 31
0.0
  0
LINE
  5
B0
330
2
100
AcDbEntity
  8
GAIKEI
  6
Continuous
 62
     1
100
AcDbLine
 10
45.48132556783968
 20
10.21784756114658
 30
0.0
 11
41.91002656783967
 21
10.21784756114658
 31
0.0
  0
LINE
  5
B1
330
2
100
AcDbEntity
  8
GAIKEI
  6
Continuous
 62
     1
100
AcDbLine
 10
45.48133456783967
 20
10.77781356114661
 30
0.0
 11
45.48133456783967
 21
10.21784756114658
 31
0.0
  0
LINE
  5
B2
330
2
100
AcDbEntity
  8
GAIKEI
  6
Continuous
 62
     1
100
AcDbLine
 10
41.91002856783967
 20
10.77781356114661
 30
0.0
 11
45.48132356783969
 21
10.77781356114661
 31
0.0
  0
LINE
  5
B3
330
2
100
AcDbEntity
  8
GAIKEI
  6
Continuous
 62
     1
100
AcDbLine
 10
41.91001756783964
 20
10.21784756114658
 30
0.0
 11
41.91001756783964
 21
10.77781356114661
 31
0.0
  0
LINE
  5
B4
330
2
100
AcDbEntity
  8
GAIKEI
  6
Continuous
 62
     1
100
AcDbLine
 10
45.48132256783964
 20
10.96784756114658
 30
0.0
 11
41.91002856783967
 21
10.96784756114658
 31
0.0
  0
LINE
  5
B5
330
2
100
AcDbEntity
  8
GAIKEI
  6
Continuous
 62
     1
100
AcDbLine
 10
45.48133456783967
 20
11.52781356114656
 30
0.0
 11
45.48133456783967
 21
10.96784756114658
 31
0.0
  0
LINE
  5
B6
330
2
100
AcDbEntity
  8
GAIKEI
  6
Continuous
 62
     1
100
AcDbLine
 10
41.91003056783967
 20
11.52781356114656
 30
0.0
 11
45.4813215678397
 21
11.52781356114656
 31
0.0
  0
LINE
  5
B7
330
2
100
AcDbEntity
  8
GAIKEI
  6
Continuous
 62
     1
100
AcDbLine
 10
41.91001756783964
 20
10.96784756114658
 30
0.0
 11
41.91001756783964
 21
11.52781356114656
 31
0.0
  0
LINE
  5
B8
330
2
100
AcDbEntity
  8
GAIKEI
  6
Continuous
 62
     1
100
AcDbLine
 10
45.48132056783964
 20
11.71784756114658
 30
0.0
 11
41.91003056783967
 21
11.71784756114658
 31
0.0
  0
LINE
  5
B9
330
2
100
AcDbEntity
  8
GAIKEI
  6
Continuous
 62
     1
100
AcDbLine
 10
45.48133456783967
 20
12.27781356114661
 30
0.0
 11
45.48133456783967
 21
11.71784756114658
 31
0.0
  0
LINE
  5
BA
330
2
100
AcDbEntity
  8
GAIKEI
  6
Continuous
 62
     1
100
AcDbLine
 10
41.91003256783966
 20
12.27781356114661
 30
0.0
 11
45.4813195678397
 21
12.27781356114661
 31
0.0
  0
LINE
  5
BB
330
2
100
AcDbEntity
  8
GAIKEI
  6
Continuous
 62
     1
100
AcDbLine
 10
41.91001756783964
 20
11.71784756114658
 30
0.0
 11
41.91001756783964
 21
12.27781356114661
 31
0.0
  0
LINE
  5
BC
330
2
100
AcDbEntity
  8
GAIKEI
  6
Continuous
 62
     1
100
AcDbLine
 10
45.4813195678397
 20
12.46784756114658
 30
0.0
 11
41.91003256783966
 21
12.46784756114658
 31
0.0
  0
LINE
  5
BD
330
2
100
AcDbEntity
  8
GAIKEI
  6
Continuous
 62
     1
100
AcDbLine
 10
45.48133456783967
 20
13.02781356114661
 30
0.0
 11
45.48133456783967
 21
12.46784756114658
 31
0.0
  0
LINE
  5
BE
330
2
100
AcDbEntity
  8
GAIKEI
  6
Continuous
 62
     1
100
AcDbLine
 10
41.91003356783966
 20
13.02781356114661
 30
0.0
 11
45.48131856783965
 21
13.02781356114661
 31
0.0
  0
LINE
  5
BF
330
2
100
AcDbEntity
  8
GAIKEI
  6
Continuous
 62
     1
100
AcDbLine
 10
41.91001756783964
 20
12.46784756114658
 30
0.0
 11
41.91001756783964
 21
13.02781356114661
 31
0.0
  0
LINE
  5
C0
330
2
100
AcDbEntity
  8
GAIKEI
  6
Continuous
 62
     1
100
AcDbLine
 10
45.48131756783971
 20
13.21784756114658
 30
0.0
 11
41.91003456783971
 21
13.21784756114658
 31
0.0
  0
LINE
  5
C1
330
2
100
AcDbEntity
  8
GAIKEI
  6
Continuous
 62
     1
100
AcDbLine
 10
45.48133456783967
 20
13.77781356114661
 30
0.0
 11
45.48133456783967
 21
13.21784756114658
 31
0.0
  0
LINE
  5
C2
330
2
100
AcDbEntity
  8
GAIKEI
  6
Continuous
 62
     1
100
AcDbLine
 10
41.91003556783965
 20
13.77781356114661
 30
0.0
 11
45.48131656783965
 21
13.77781356114661
 31
0.0
  0
LINE
  5
C3
330
2
100
AcDbEntity
  8
GAIKEI
  6
Continuous
 62
     1
100
AcDbLine
 10
41.91001756783964
 20
13.21784756114658
 30
0.0
 11
41.91001756783964
 21
13.77781356114661
 31
0.0
  0
LINE
  5
C4
330
2
100
AcDbEntity
  8
GAIKEI
  6
Continuous
 62
     1
100
AcDbLine
 10
45.48131656783965
 20
13.96784756114658
 30
0.0
 11
41.91003556783965
 21
13.96784756114658
 31
0.0
  0
LINE
  5
C5
330
2
100
AcDbEntity
  8
GAIKEI
  6
Continuous
 62
     1
100
AcDbLine
 10
45.48133456783967
 20
14.52781356114661
 30
0.0
 11
45.48133456783967
 21
13.96784756114658
 31
0.0
  0
LINE
  5
C6
330
2
100
AcDbEntity
  8
GAIKEI
  6
Continuous
 62
     1
100
AcDbLine
 10
41.91003656783971
 20
14.52781356114661
 30
0.0
 11
45.48131556783966
 21
14.52781356114661
 31
0.0
  0
LINE
  5
C7
330
2
100
AcDbEntity
  8
GAIKEI
  6
Continuous
 62
     1
100
AcDbLine
 10
41.91001756783964
 20
13.96784756114658
 30
0.0
 11
41.91001756783964
 21
14.52781356114661
 31
0.0
  0
LINE
  5
C8
330
2
100
AcDbEntity
  8
GAIKEI
  6
Continuous
 62
     1
100
AcDbLine
 10
45.48131556783966
 20
14.71784756114658
 30
0.0
 11
41.91003656783971
 21
14.71784756114658
 31
0.0
  0
LINE
  5
C9
330
2
100
AcDbEntity
  8
GAIKEI
  6
Continuous
 62
     1
100
AcDbLine
 10
45.48133456783967
 20
15.27781356114656
 30
0.0
 11
45.48133456783967
 21
14.71784756114658
 31
0.0
  0
LINE
  5
CA
330
2
100
AcDbEntity
  8
GAIKEI
  6
Continuous
 62
     1
100
AcDbLine
 10
41.91003756783965
 20
15.27781356114656
 30
0.0
 11
45.48131456783965
 21
15.27781356114656
 31
0.0
  0
LINE
  5
CB
330
2
100
AcDbEntity
  8
GAIKEI
  6
Continuous
 62
     1
100
AcDbLine
 10
41.91001756783964
 20
14.71784756114658
 30
0.0
 11
41.91001756783964
 21
15.27781356114656
 31
0.0
  0
LINE
  5
CC
330
2
100
AcDbEntity
  8
GAIKEI
  6
Continuous
 62
     1
100
AcDbLine
 10
45.48131356783971
 20
15.46784756114658
 30
0.0
 11
41.91003756783965
 21
15.46784756114658
 31
0.0
  0
LINE
  5
CD
330
2
100
AcDbEntity
  8
GAIKEI
  6
Continuous
 62
     1
100
AcDbLine
 10
45.48133456783967
 20
16.02781356114661
 30
0.0
 11
45.48133456783967
 21
15.46784756114658
 31
0.0
  0
LINE
  5
CE
330
2
100
AcDbEntity
  8
GAIKEI
  6
Continuous
 62
     1
100
AcDbLine
 10
41.91003856783971
 20
16.02781356114661
 30
0.0
 11
45.48131256783967
 21
16.02781356114661
 31
0.0
  0
LINE
  5
CF
330
2
100
AcDbEntity
  8
GAIKEI
  6
Continuous
 62
     1
100
AcDbLine
 10
41.91001756783964
 20
15.46784756114658
 30
0.0
 11
41.91001756783964
 21
16.02781356114661
 31
0.0
  0
LINE
  5
D0
330
2
100
AcDbEntity
  8
GAIKEI
  6
Continuous
 62
     1
100
AcDbLine
 10
45.48131256783967
 20
16.21784756114658
 30
0.0
 11
41.91003956783965
 21
16.21784756114658
 31
0.0
  0
LINE
  5
D1
330
2
100
AcDbEntity
  8
GAIKEI
  6
Continuous
 62
     1
100
AcDbLine
 10
45.48133456783967
 20
16.77781356114661
 30
0.0
 11
45.48133456783967
 21
16.21784756114658
 31
0.0
  0
LINE
  5
D2
330
2
100
AcDbEntity
  8
GAIKEI
  6
Continuous
 62
     1
100
AcDbLine
 10
41.91003956783965
 20
16.77781356114661
 30
0.0
 11
45.48131156783966
 21
16.77781356114661
 31
0.0
  0
LINE
  5
D3
330
2
100
AcDbEntity
  8
GAIKEI
  6
Continuous
 62
     1
100
AcDbLine
 10
41.91001756783964
 20
16.21784756114658
 30
0.0
 11
41.91001756783964
 21
16.77781356114661
 31
0.0
  0
LINE
  5
D4
330
2
100
AcDbEntity
  8
KIJUN
  6
CENTER
100
AcDbLine
 10
-32.6169583605348
 20
4.548156361146595
 30
0.0
 11
-32.61697156053486
 21
19.44815636114663
 31
0.0
  0
LINE
  5
D8
330
2
100
AcDbEntity
  8
KIJUN
  6
CENTER
100
AcDbLine
 10
-40.06696496053485
 20
11.99814976114658
 30
0.0
 11
-25.16696496053487
 21
11.99816296114659
 31
0.0
  0
SPLINE
  5
D9
330
2
100
AcDbEntity
  8
GAIKEI
  6
Continuous
 62
     1
100
AcDbSpline
210
0.0
220
0.0
230
1.0
 70
     8
 71
     3
 72
     9
 73
     5
 74
     3
 42
0.0000000001
 43
0.0000000001
 44
0.000001
 12
0.0775485507434491
 22
-0.9969885768039624
 32
0.0
 13
0.0775485507434491
 23
-0.9969885768039624
 33
0.0
 40
0.0
 40
0.0
 40
0.0
 40
0.0
 40
0.0042364730141995
 40
0.0084729460283991
 40
0.0084729460283991
 40
0.0084729460283991
 40
0.0084729460283991
 10
38.12877207838653
 20
4.256603903334109
 30
0.0
 10
38.12888158916738
 20
4.255195998267083
 30
0.0
 10
38.12910166823029
 20
4.252380270521598
 30
0.0
 10
38.12932174729323
 20
4.249564542776113
 30
0.0
 10
38.12943125807408
 20
4.248156637709087
 30
0.0
 11
38.12877207838653
 21
4.256603903334109
 31
0.0
 11
38.1291016682303
 21
4.252380270521598
 31
0.0
 11
38.12943125807408
 21
4.248156637709087
 31
0.0
  0
SPLINE
  5
DA
330
2
100
AcDbEntity
  8
GAIKEI
  6
Continuous
 62
     1
100
AcDbSpline
210
0.0
220
0.0
230
1.0
 70
     8
 71
     3
 72
     9
 73
     5
 74
     3
 42
0.0000000001
 43
0.0000000001
 44
0.000001
 12
0.9576600301241045
 22
-0.2879014878438448
 32
0.0
 13
0.0770595663473882
 23
-0.9970264907385121
 33
0.0
 40
0.0
 40
0.0
 40
0.0
 40
0.0
 40
0.0847010630830945
 40
0.1205744413785522
 40
0.1205744413785522
 40
0.1205744413785522
 40
0.1205744413785522
 10
38.02066660963658
 20
4.307604879896587
 30
0.0
 10
38.04770488384447
 20
4.29947635920206
 30
0.0
 10
38.07836894284257
 20
4.284940353415834
 30
0.0
 10
38.12785061606158
 20
4.268526139491712
 30
0.0
 10
38.12877207838653
 20
4.256603903334109
 30
0.0
 11
38.02066660963658
 21
4.307604879896587
 31
0.0
 11
38.10007176820846
 21
4.278126629452685
 31
0.0
 11
38.12877207838653
 21
4.256603903334109
 31
0.0
  0
SPLINE
  5
DB
330
2
100
AcDbEntity
  8
GAIKEI
  6
Continuous
 62
     1
100
AcDbSpline
210
0.0
220
0.0
230
1.0
 70
     8
 71
     3
 72
     9
 73
     5
 74
     3
 42
0.0000000001
 43
0.0000000001
 44
0.000001
 12
0.9999999990889968
 22
0.0000426849692171
 32
0.0
 13
0.9577349185293522
 23
-0.2876522654692205
 33
0.0
 40
0.0
 40
0.0
 40
0.0
 40
0.0
 40
0.1888983144931032
 40
0.3465127069518366
 40
0.3465127069518366
 40
0.3465127069518366
 40
0.3465127069518366
 10
37.67823496901156
 20
4.355041403334098
 30
0.0
 10
37.74120107378524
 20
4.355044091040326
 30
0.0
 10
37.85674507221691
 20
4.345811186427397
 30
0.0
 10
37.97034900719641
 20
4.322717592250342
 30
0.0
 10
38.02066660963658
 20
4.307604879896587
 30
0.0
 11
37.67823496901156
 21
4.355041403334098
 31
0.0
 11
37.86659983240725
 21
4.340857550336409
 31
0.0
 11
38.02066660963658
 21
4.307604879896587
 31
0.0
  0
LINE
  5
DC
330
2
100
AcDbEntity
  8
GAIKEI
  6
Continuous
 62
     1
100
AcDbLine
 10
28.66795656783967
 20
4.355041361146618
 30
0.0
 11
37.67823496783967
 21
4.355041361146618
 31
0.0
  0
SPLINE
  5
DD
330
2
100
AcDbEntity
  8
GAIKEI
  6
Continuous
 62
     1
100
AcDbSpline
210
0.0
220
0.0
230
1.0
 70
     8
 71
     3
 72
     9
 73
     5
 74
     3
 42
0.0000000001
 43
0.0000000001
 44
0.000001
 12
0.9577435112851738
 22
0.2876236544360463
 32
0.0
 13
0.9999999992061841
 23
-0.0000398450949805
 33
0.0
 40
0.0
 40
0.0
 40
0.0
 40
0.0
 40
0.1576136686687622
 40
0.3465120701109653
 40
0.3465120701109653
 40
0.3465120701109653
 40
0.3465120701109653
 10
28.32552500807407
 20
4.307604879896587
 30
0.0
 10
28.37584283089319
 20
4.322716019687106
 30
0.0
 10
28.48944753409644
 20
4.345802913852878
 30
0.0
 10
28.60499051493496
 20
4.355043912225653
 30
0.0
 10
28.66795664869903
 20
4.355041403334098
 30
0.0
 11
28.32552500807407
 21
4.307604879896587
 31
0.0
 11
28.47959204756381
 21
4.340852901195944
 31
0.0
 11
28.66795664869903
 21
4.355041403334098
 31
0.0
  0
SPLINE
  5
DE
330
2
100
AcDbEntity
  8
GAIKEI
  6
Continuous
 62
     1
100
AcDbSpline
210
0.0
220
0.0
230
1.0
 70
     8
 71
     3
 72
     9
 73
     5
 74
     3
 42
0.0000000001
 43
0.0000000001
 44
0.000001
 12
0.0776478495003114
 22
0.9969808480948755
 32
0.0
 13
0.9576507596180521
 23
0.287932322956225
 33
0.0
 40
0.0
 40
0.0
 40
0.0
 40
0.0
 40
0.035875924541753
 40
0.1205747385412194
 40
0.1205747385412194
 40
0.1205747385412194
 40
0.1205747385412194
 10
28.21741953932406
 20
4.256603903334109
 30
0.0
 10
28.21834810212056
 20
4.268526439892696
 30
0.0
 10
28.26781370742234
 20
4.284943541155257
 30
0.0
 10
28.29848771355229
 20
4.299475704474446
 30
0.0
 10
28.32552500807407
 20
4.307604879896587
 30
0.0
 11
28.21741953932406
 21
4.256603903334109
 31
0.0
 11
28.24612148034112
 21
4.278128698478894
 31
0.0
 11
28.32552500807407
 21
4.307604879896587
 31
0.0
  0
SPLINE
  5
DF
330
2
100
AcDbEntity
  8
GAIKEI
  6
Continuous
 62
     1
100
AcDbSpline
210
0.0
220
0.0
230
1.0
 70
     8
 71
     3
 72
     9
 73
     5
 74
     3
 42
0.0000000001
 43
0.0000000001
 44
0.000001
 12
0.0777981690539094
 22
0.9969691293575039
 32
0.0
 13
0.9576507596180521
 23
0.287932322956225
 33
0.0
 40
0.0
 40
0.0
 40
0.0
 40
0.0
 40
0.005296156326174
 40
0.0084729461998152
 40
0.0084729461998152
 40
0.0084729461998152
 40
0.0084729461998152
 10
28.21676035963657
 20
4.248156637709087
 30
0.0
 10
28.21689770339164
 20
4.249916672496226
 30
0.0
 10
28.217892314444
 20
4.252106703089623
 30
0.0
 10
28.2164054542455
 20
4.256299003171477
 30
0.0
 10
28.21741953932406
 20
4.256603903334109
 30
0.0
 11
28.21676035963657
 21
4.248156637709087
 31
0.0
 11
28.21717234694125
 21
4.253436178724712
 31
0.0
 11
28.21741953932406
 21
4.256603903334109
 31
0.0
  0
LINE
  5
E0
330
2
100
AcDbEntity
  8
GAIKEI
  6
Continuous
 62
     1
100
AcDbLine
 10
12.42451896783967
 20
6.04813986114658
 30
0.0
 11
12.40881076783967
 21
4.248159561146621
 31
0.0
  0
LINE
  5
E1
330
2
100
AcDbEntity
  8
GAIKEI
  6
Continuous
100
AcDbLine
 10
48.93107856783967
 20
2.639444861146614
 30
0.0
 11
49.07182136783967
 21
4.248143661146627
 31
0.0
  0
LINE
  5
E2
330
2
100
AcDbEntity
  8
GAIKEI
  6
Continuous
100
AcDbLine
 10
47.41509956783966
 20
2.639414961146599
 30
0.0
 11
47.2743546678397
 21
4.248138061146619
 31
0.0
  0
LINE
  5
E3
330
2
100
AcDbEntity
  8
GAIKEI
  6
Continuous
100
AcDbLine
 10
47.92308356783968
 20
2.548156661146606
 30
0.0
 11
47.51473396783967
 21
2.548156661146606
 31
0.0
  0
LINE
  5
E4
330
2
100
AcDbEntity
  8
GAIKEI
  6
Continuous
100
AcDbLine
 10
48.42308356783968
 20
2.548156661146606
 30
0.0
 11
47.92308356783968
 21
2.548156661146606
 31
0.0
  0
LINE
  5
E5
330
2
100
AcDbEntity
  8
GAIKEI
  6
Continuous
100
AcDbLine
 10
48.83145766783968
 20
2.548156661146606
 30
0.0
 11
48.42308356783968
 21
2.548156661146606
 31
0.0
  0
ARC
  5
E6
330
2
100
AcDbEntity
  8
GAIKEI
  6
Continuous
100
AcDbCircle
 10
47.51473396783967
 20
2.648156661146572
 30
0.0
 40
0.1
100
AcDbArc
 50
184.9999720000041
 51
269.999982999999
  0
ARC
  5
E7
330
2
100
AcDbEntity
  8
GAIKEI
  6
Continuous
100
AcDbCircle
 10
48.83145766783968
 20
2.648156661146572
 30
0.0
 40
0.1
100
AcDbArc
 50
270.0
 51
354.9999559999989
  0
LINE
  5
E8
330
2
100
AcDbEntity
  8
GAIKEI
  6
Continuous
 62
     1
100
AcDbLine
 10
16.66129266783963
 20
4.148148461146604
 30
0.0
 11
16.63242306783968
 21
4.198152061146572
 31
0.0
  0
LINE
  5
E9
330
2
100
AcDbEntity
  8
GAIKEI
  6
Continuous
 62
     1
100
AcDbLine
 10
21.83170396783964
 20
3.848165961146605
 30
0.0
 11
22.06263666783968
 21
4.248152961146615
 31
0.0
  0
ARC
  5
EA
330
2
100
AcDbEntity
  8
GAIKEI
  6
Continuous
 62
     1
100
AcDbCircle
 10
21.65850836783966
 20
3.948156661146583
 30
0.0
 40
0.2
100
AcDbArc
 50
270.0
 51
329.9999880000052
  0
LINE
  5
EB
330
2
100
AcDbEntity
  8
GAIKEI
  6
Continuous
 62
     1
100
AcDbLine
 10
17.23310096783967
 20
3.748156661146595
 30
0.0
 11
17.00769196783966
 21
3.748156661146595
 31
0.0
  0
LINE
  5
EC
330
2
100
AcDbEntity
  8
GAIKEI
  6
Continuous
 62
     1
100
AcDbLine
 10
21.43309326783964
 20
3.748156661146595
 30
0.0
 11
17.23310096783967
 21
3.748156661146595
 31
0.0
  0
LINE
  5
ED
330
2
100
AcDbEntity
  8
GAIKEI
  6
Continuous
 62
     1
100
AcDbLine
 10
21.65850836783966
 20
3.748156661146595
 30
0.0
 11
21.43309326783964
 21
3.748156661146595
 31
0.0
  0
ARC
  5
EE
330
2
100
AcDbEntity
  8
GAIKEI
  6
Continuous
 62
     1
100
AcDbCircle
 10
17.00769206783968
 20
3.948156661146583
 30
0.0
 40
0.2
100
AcDbArc
 50
244.4976960000015
 51
269.999982999999
  0
LINE
  5
EF
330
2
100
AcDbEntity
  8
GAIKEI
  6
Continuous
100
AcDbLine
 10
12.40881056783962
 20
4.248156661146595
 30
0.0
 11
54.18915356783969
 21
4.248156661146595
 31
0.0
  0
LINE
  5
F0
330
2
100
AcDbEntity
  8
GAIKEI
  6
Continuous
 62
     1
100
AcDbLine
 10
17.56019296783967
 20
4.198156661146583
 30
0.0
 11
16.22020276783962
 21
4.198156661146583
 31
0.0
  0
ARC
  5
F1
330
2
100
AcDbEntity
  8
GAIKEI
  6
Continuous
100
AcDbCircle
 10
54.18915356783964
 20
4.448156661146583
 30
0.0
 40
0.2
100
AcDbArc
 50
270.0
 51
359.9999820000008
  0
LINE
  5
F2
330
2
100
AcDbEntity
  8
GAIKEI
  6
Continuous
100
AcDbLine
 10
11.27260039184345
 20
19.23195781759364
 30
0.0
 11
11.17309546783968
 21
19.13070086114658
 31
0.0
  0
LINE
  5
F3
330
2
100
AcDbEntity
  8
GAIKEI
  6
Continuous
100
AcDbLine
 10
11.17310036783965
 20
19.13070056114662
 30
0.0
 11
11.17310036783965
 21
11.37650136114655
 31
0.0
  0
LINE
  5
F4
330
2
100
AcDbEntity
  8
GAIKEI
  6
Continuous
100
AcDbLine
 10
11.17310036783965
 20
11.37650136114655
 30
0.0
 11
11.17310036783965
 21
4.865612661146599
 31
0.0
  0
LINE
  5
F5
330
2
100
AcDbEntity
  8
GAIKEI
  6
Continuous
100
AcDbLine
 10
11.17310746783966
 20
4.865611761146624
 30
0.0
 11
11.27263031331352
 21
4.764336567677446
 31
0.0
  0
LINE
  5
F6
330
2
100
AcDbEntity
  8
GAIKEI
  6
Continuous
 62
     1
100
AcDbLine
 10
47.67308356783968
 20
2.348156661146617
 30
0.0
 11
47.87308356783967
 21
2.348156661146617
 31
0.0
  0
LINE
  5
F7
330
2
100
AcDbEntity
  8
GAIKEI
  6
Continuous
 62
     1
100
AcDbLine
 10
47.87308356783967
 20
2.348156661146617
 30
0.0
 11
47.87308356783967
 21
2.148156661146572
 31
0.0
  0
LINE
  5
F8
330
2
100
AcDbEntity
  8
GAIKEI
  6
Continuous
 62
     1
100
AcDbLine
 10
48.47308356783969
 20
2.148156661146572
 30
0.0
 11
48.47308356783969
 21
2.348156661146617
 31
0.0
  0
LINE
  5
F9
330
2
100
AcDbEntity
  8
GAIKEI
  6
Continuous
 62
     1
100
AcDbLine
 10
48.47308356783969
 20
2.348156661146617
 30
0.0
 11
48.67308356783969
 21
2.348156661146617
 31
0.0
  0
LINE
  5
FA
330
2
100
AcDbEntity
  8
GAIKEI
  6
Continuous
 62
     1
100
AcDbLine
 10
48.47308356783969
 20
2.348156661146617
 30
0.0
 11
48.47308356783969
 21
2.548156661146606
 31
0.0
  0
LINE
  5
FB
330
2
100
AcDbEntity
  8
GAIKEI
  6
Continuous
 62
     1
100
AcDbLine
 10
47.87308356783967
 20
2.348156661146617
 30
0.0
 11
48.47308356783969
 21
2.348156661146617
 31
0.0
  0
LINE
  5
FC
330
2
100
AcDbEntity
  8
GAIKEI
  6
Continuous
 62
     1
100
AcDbLine
 10
47.87308356783967
 20
2.548156661146606
 30
0.0
 11
47.87308356783967
 21
2.348156661146617
 31
0.0
  0
ARC
  5
FD
330
2
100
AcDbEntity
  8
GAIKEI
  6
Continuous
100
AcDbCircle
 10
47.87308356783967
 20
2.348156661146617
 30
0.0
 40
0.2
100
AcDbArc
 50
180.0000009999949
 51
269.999982999999
  0
ARC
  5
FE
330
2
100
AcDbEntity
  8
GAIKEI
  6
Continuous
100
AcDbCircle
 10
48.47308356783969
 20
2.348156661146617
 30
0.0
 40
0.2
100
AcDbArc
 50
270.0
 51
359.9999820000008
  0
LINE
  5
FF
330
2
100
AcDbEntity
  8
GAIKEI
  6
Continuous
100
AcDbLine
 10
48.67308356783969
 20
2.548156661146606
 30
0.0
 11
48.67308356783969
 21
2.348156661146617
 31
0.0
  0
LINE
  5
100
330
2
100
AcDbEntity
  8
GAIKEI
  6
Continuous
100
AcDbLine
 10
47.67308356783968
 20
2.348156661146617
 30
0.0
 11
47.67308356783968
 21
2.548156661146606
 31
0.0
  0
LINE
  5
101
330
2
100
AcDbEntity
  8
GAIKEI
  6
Continuous
100
AcDbLine
 10
48.47308356783969
 20
2.148156661146572
 30
0.0
 11
47.87308356783967
 21
2.148156661146572
 31
0.0
  0
ARC
  5
102
330
2
100
AcDbEntity
  8
GAIKEI
  6
Continuous
100
AcDbCircle
 10
14.92310036783965
 20
5.148156661146572
 30
0.0
 40
3.0
100
AcDbArc
 50
284.8351329999993
 51
299.9264640000041
  0
ARC
  5
103
330
2
100
AcDbEntity
  8
GAIKEI
  6
Continuous
100
AcDbCircle
 10
14.92310036783965
 20
5.148156661146572
 30
0.0
 40
3.0
100
AcDbArc
 50
240.0735359999957
 51
255.1648659999991
  0
LINE
  5
104
330
2
100
AcDbEntity
  8
GAIKEI
  6
Continuous
 62
     1
100
AcDbLine
 10
14.52310036783967
 20
7.505749361146627
 30
0.0
 11
14.52310036783967
 21
7.063659561146607
 31
0.0
  0
LINE
  5
105
330
2
100
AcDbEntity
  8
GAIKEI
  6
Continuous
100
AcDbLine
 10
12.92310036783965
 20
4.148156661146572
 30
0.0
 11
12.92310036783965
 21
2.548156661146606
 31
0.0
  0
LINE
  5
106
330
2
100
AcDbEntity
  8
GAIKEI
  6
Continuous
100
AcDbLine
 10
12.92431496783968
 20
4.148156661146572
 30
0.0
 11
12.92431496783968
 21
2.548156661146606
 31
0.0
  0
LINE
  5
107
330
2
100
AcDbEntity
  8
GAIKEI
  6
Continuous
 62
     1
100
AcDbLine
 10
12.95152446783965
 20
4.148156661146572
 30
0.0
 11
12.95152446783965
 21
2.548156661146606
 31
0.0
  0
LINE
  5
108
330
2
100
AcDbEntity
  8
GAIKEI
  6
Continuous
100
AcDbLine
 10
12.95350046783966
 20
4.148156661146572
 30
0.0
 11
12.95350046783966
 21
2.548156661146606
 31
0.0
  0
LINE
  5
109
330
2
100
AcDbEntity
  8
GAIKEI
  6
Continuous
 62
     1
100
AcDbLine
 10
12.98248756783965
 20
4.148156661146572
 30
0.0
 11
12.98248756783965
 21
2.548156661146606
 31
0.0
  0
LINE
  5
10A
330
2
100
AcDbEntity
  8
GAIKEI
  6
Continuous
 62
     1
100
AcDbLine
 10
13.01127786783968
 20
4.148156661146572
 30
0.0
 11
13.01127786783968
 21
2.548156661146606
 31
0.0
  0
LINE
  5
10B
330
2
100
AcDbEntity
  8
GAIKEI
  6
Continuous
 62
     1
100
AcDbLine
 10
13.06876686783965
 20
4.148156661146572
 30
0.0
 11
13.06876686783965
 21
2.548156661146606
 31
0.0
  0
LINE
  5
10C
330
2
100
AcDbEntity
  8
GAIKEI
  6
Continuous
 62
     1
100
AcDbLine
 10
13.12547316783968
 20
4.148156661146572
 30
0.0
 11
13.12547316783968
 21
2.548156661146606
 31
0.0
  0
LINE
  5
10D
330
2
100
AcDbEntity
  8
GAIKEI
  6
Continuous
 62
     1
100
AcDbLine
 10
13.15458536783967
 20
4.148156661146572
 30
0.0
 11
13.15458536783967
 21
2.548156661146606
 31
0.0
  0
LINE
  5
10E
330
2
100
AcDbEntity
  8
GAIKEI
  6
Continuous
 62
     1
100
AcDbLine
 10
13.26507426783962
 20
4.148156661146572
 30
0.0
 11
13.26507426783962
 21
2.548156661146606
 31
0.0
  0
LINE
  5
10F
330
2
100
AcDbEntity
  8
GAIKEI
  6
Continuous
 62
     1
100
AcDbLine
 10
13.34702306783964
 20
4.148156661146572
 30
0.0
 11
13.34702306783964
 21
2.548156661146606
 31
0.0
  0
LINE
  5
110
330
2
100
AcDbEntity
  8
GAIKEI
  6
Continuous
 62
     1
100
AcDbLine
 10
13.37518776783963
 20
4.148156661146572
 30
0.0
 11
13.37518776783963
 21
2.548156661146606
 31
0.0
  0
LINE
  5
111
330
2
100
AcDbEntity
  8
GAIKEI
  6
Continuous
 62
     1
100
AcDbLine
 10
13.53384716783966
 20
4.148156661146572
 30
0.0
 11
13.53384716783966
 21
2.548156661146606
 31
0.0
  0
LINE
  5
112
330
2
100
AcDbEntity
  8
GAIKEI
  6
Continuous
 62
     1
100
AcDbLine
 10
13.63745736783966
 20
4.148156661146572
 30
0.0
 11
13.63745736783966
 21
2.548156661146606
 31
0.0
  0
LINE
  5
113
330
2
100
AcDbEntity
  8
GAIKEI
  6
Continuous
 62
     1
100
AcDbLine
 10
13.66344006783964
 20
4.148156661146572
 30
0.0
 11
13.66344006783964
 21
2.548156661146606
 31
0.0
  0
LINE
  5
114
330
2
100
AcDbEntity
  8
GAIKEI
  6
Continuous
 62
     1
100
AcDbLine
 10
13.86333626783965
 20
4.148156661146572
 30
0.0
 11
13.86333626783965
 21
2.548156661146606
 31
0.0
  0
LINE
  5
115
330
2
100
AcDbEntity
  8
GAIKEI
  6
Continuous
 62
     1
100
AcDbLine
 10
13.98407906783967
 20
4.148156661146572
 30
0.0
 11
13.98407906783967
 21
2.548156661146606
 31
0.0
  0
LINE
  5
116
330
2
100
AcDbEntity
  8
GAIKEI
  6
Continuous
 62
     1
100
AcDbLine
 10
14.00674596783966
 20
4.148156661146572
 30
0.0
 11
14.00674596783966
 21
2.548156661146606
 31
0.0
  0
LINE
  5
117
330
2
100
AcDbEntity
  8
GAIKEI
  6
Continuous
 62
     1
100
AcDbLine
 10
14.37174086783966
 20
4.148156661146572
 30
0.0
 11
14.37174086783966
 21
2.548156661146606
 31
0.0
  0
LINE
  5
118
330
2
100
AcDbEntity
  8
GAIKEI
  6
Continuous
 62
     1
100
AcDbLine
 10
14.39010176783966
 20
4.148156661146572
 30
0.0
 11
14.39010176783966
 21
2.548156661146606
 31
0.0
  0
LINE
  5
119
330
2
100
AcDbEntity
  8
GAIKEI
  6
Continuous
 62
     1
100
AcDbLine
 10
14.63727886783965
 20
4.148156661146572
 30
0.0
 11
14.63727886783965
 21
2.548156661146606
 31
0.0
  0
LINE
  5
11A
330
2
100
AcDbEntity
  8
GAIKEI
  6
Continuous
 62
     1
100
AcDbLine
 10
14.64484106783965
 20
4.148156661146572
 30
0.0
 11
14.64484106783965
 21
2.548156661146606
 31
0.0
  0
LINE
  5
11B
330
2
100
AcDbEntity
  8
GAIKEI
  6
Continuous
 62
     1
100
AcDbLine
 10
14.78349926783966
 20
4.148156661146572
 30
0.0
 11
14.78349926783966
 21
2.548156661146606
 31
0.0
  0
LINE
  5
11C
330
2
100
AcDbEntity
  8
GAIKEI
  6
Continuous
 62
     1
100
AcDbLine
 10
14.79674996783967
 20
4.148156661146572
 30
0.0
 11
14.79674996783967
 21
2.548156661146606
 31
0.0
  0
LINE
  5
11D
330
2
100
AcDbEntity
  8
GAIKEI
  6
Continuous
 62
     1
100
AcDbLine
 10
15.04944926783963
 20
4.148156661146572
 30
0.0
 11
15.04944926783963
 21
2.548156661146606
 31
0.0
  0
LINE
  5
11E
330
2
100
AcDbEntity
  8
GAIKEI
  6
Continuous
 62
     1
100
AcDbLine
 10
15.06270306783966
 20
4.148156661146572
 30
0.0
 11
15.06270306783966
 21
2.548156661146606
 31
0.0
  0
LINE
  5
11F
330
2
100
AcDbEntity
  8
GAIKEI
  6
Continuous
 62
     1
100
AcDbLine
 10
15.20135816783966
 20
4.148156661146572
 30
0.0
 11
15.20135816783966
 21
2.548156661146606
 31
0.0
  0
LINE
  5
120
330
2
100
AcDbEntity
  8
GAIKEI
  6
Continuous
 62
     1
100
AcDbLine
 10
15.20892196783967
 20
4.148156661146572
 30
0.0
 11
15.20892196783967
 21
2.548156661146606
 31
0.0
  0
LINE
  5
121
330
2
100
AcDbEntity
  8
GAIKEI
  6
Continuous
 62
     1
100
AcDbLine
 10
15.45609756783966
 20
4.148156661146572
 30
0.0
 11
15.45609756783966
 21
2.548156661146606
 31
0.0
  0
LINE
  5
122
330
2
100
AcDbEntity
  8
GAIKEI
  6
Continuous
 62
     1
100
AcDbLine
 10
15.47446146783966
 20
4.148156661146572
 30
0.0
 11
15.47446146783966
 21
2.548156661146606
 31
0.0
  0
LINE
  5
123
330
2
100
AcDbEntity
  8
GAIKEI
  6
Continuous
 62
     1
100
AcDbLine
 10
15.60705726783965
 20
4.148156661146572
 30
0.0
 11
15.60705726783965
 21
2.548156661146606
 31
0.0
  0
LINE
  5
124
330
2
100
AcDbEntity
  8
GAIKEI
  6
Continuous
 62
     1
100
AcDbLine
 10
15.60860146783966
 20
4.148156661146572
 30
0.0
 11
15.60860146783966
 21
2.548156661146606
 31
0.0
  0
LINE
  5
125
330
2
100
AcDbEntity
  8
GAIKEI
  6
Continuous
 62
     1
100
AcDbLine
 10
15.83945326783964
 20
4.148156661146572
 30
0.0
 11
15.83945326783964
 21
2.548156661146606
 31
0.0
  0
LINE
  5
126
330
2
100
AcDbEntity
  8
GAIKEI
  6
Continuous
 62
     1
100
AcDbLine
 10
15.86212166783969
 20
4.148156661146572
 30
0.0
 11
15.86212166783969
 21
2.548156661146606
 31
0.0
  0
LINE
  5
127
330
2
100
AcDbEntity
  8
GAIKEI
  6
Continuous
 62
     1
100
AcDbLine
 10
15.98286296783965
 20
4.148156661146572
 30
0.0
 11
15.98286296783965
 21
2.548156661146606
 31
0.0
  0
LINE
  5
128
330
2
100
AcDbEntity
  8
GAIKEI
  6
Continuous
 62
     1
100
AcDbLine
 10
16.18275916783966
 20
4.148156661146572
 30
0.0
 11
16.18275916783966
 21
2.548156661146606
 31
0.0
  0
LINE
  5
129
330
2
100
AcDbEntity
  8
GAIKEI
  6
Continuous
 62
     1
100
AcDbLine
 10
16.20874336783964
 20
4.148156661146572
 30
0.0
 11
16.20874336783964
 21
2.548156661146606
 31
0.0
  0
LINE
  5
12A
330
2
100
AcDbEntity
  8
GAIKEI
  6
Continuous
 62
     1
100
AcDbLine
 10
16.31235366783966
 20
4.148156661146572
 30
0.0
 11
16.31235366783966
 21
2.548156661146606
 31
0.0
  0
LINE
  5
12B
330
2
100
AcDbEntity
  8
GAIKEI
  6
Continuous
 62
     1
100
AcDbLine
 10
16.47101296783967
 20
4.148156661146572
 30
0.0
 11
16.47101296783967
 21
2.548156661146606
 31
0.0
  0
LINE
  5
12C
330
2
100
AcDbEntity
  8
GAIKEI
  6
Continuous
 62
     1
100
AcDbLine
 10
16.49917616783966
 20
4.148156661146572
 30
0.0
 11
16.49917616783966
 21
2.548156661146606
 31
0.0
  0
LINE
  5
12D
330
2
100
AcDbEntity
  8
GAIKEI
  6
Continuous
 62
     1
100
AcDbLine
 10
16.58112496783963
 20
4.148156661146572
 30
0.0
 11
16.58112496783963
 21
2.548156661146606
 31
0.0
  0
LINE
  5
12E
330
2
100
AcDbEntity
  8
GAIKEI
  6
Continuous
 62
     1
100
AcDbLine
 10
16.69161236783964
 20
4.148156661146572
 30
0.0
 11
16.69161236783964
 21
2.548156661146606
 31
0.0
  0
LINE
  5
12F
330
2
100
AcDbEntity
  8
GAIKEI
  6
Continuous
 62
     1
100
AcDbLine
 10
16.72072766783969
 20
4.148156661146572
 30
0.0
 11
16.72072766783969
 21
2.548156661146606
 31
0.0
  0
LINE
  5
130
330
2
100
AcDbEntity
  8
GAIKEI
  6
Continuous
 62
     1
100
AcDbLine
 10
16.77743536783964
 20
4.148156661146572
 30
0.0
 11
16.77743536783964
 21
2.548156661146606
 31
0.0
  0
LINE
  5
131
330
2
100
AcDbEntity
  8
GAIKEI
  6
Continuous
 62
     1
100
AcDbLine
 10
16.83492286783968
 20
4.148156661146572
 30
0.0
 11
16.83492286783968
 21
2.548156661146606
 31
0.0
  0
LINE
  5
132
330
2
100
AcDbEntity
  8
GAIKEI
  6
Continuous
 62
     1
100
AcDbLine
 10
16.86371316783965
 20
4.148156661146572
 30
0.0
 11
16.86371316783965
 21
2.548156661146606
 31
0.0
  0
LINE
  5
133
330
2
100
AcDbEntity
  8
GAIKEI
  6
Continuous
 62
     1
100
AcDbLine
 10
16.89270026783964
 20
4.148156661146572
 30
0.0
 11
16.89270026783964
 21
2.548156661146606
 31
0.0
  0
LINE
  5
134
330
2
100
AcDbEntity
  8
GAIKEI
  6
Continuous
 62
     1
100
AcDbLine
 10
16.89467626783965
 20
4.148156661146572
 30
0.0
 11
16.89467626783965
 21
2.548156661146606
 31
0.0
  0
LINE
  5
135
330
2
100
AcDbEntity
  8
GAIKEI
  6
Continuous
100
AcDbLine
 10
16.92310036783965
 20
2.548156661146606
 30
0.0
 11
16.92310036783965
 21
4.148156661146572
 31
0.0
  0
LINE
  5
136
330
2
100
AcDbEntity
  8
GAIKEI
  6
Continuous
100
AcDbLine
 10
14.15498666783963
 20
4.248156661146595
 30
0.0
 11
14.15498666783963
 21
4.148156661146572
 31
0.0
  0
LINE
  5
137
330
2
100
AcDbEntity
  8
GAIKEI
  6
Continuous
100
AcDbLine
 10
15.69121566783963
 20
4.148156661146572
 30
0.0
 11
15.69121566783963
 21
4.248156661146595
 31
0.0
  0
LINE
  5
138
330
2
100
AcDbEntity
  8
GAIKEI
  6
Continuous
100
AcDbLine
 10
12.92310036783965
 20
2.548156661146606
 30
0.0
 11
12.92431646783967
 21
2.548156661146606
 31
0.0
  0
LINE
  5
139
330
2
100
AcDbEntity
  8
GAIKEI
  6
Continuous
100
AcDbLine
 10
12.92431496783968
 20
2.548156661146606
 30
0.0
 11
12.95152446783965
 21
2.548156661146606
 31
0.0
  0
LINE
  5
13A
330
2
100
AcDbEntity
  8
GAIKEI
  6
Continuous
100
AcDbLine
 10
12.95152136783963
 20
2.548156661146606
 30
0.0
 11
12.95349746783967
 21
2.548156661146606
 31
0.0
  0
LINE
  5
13B
330
2
100
AcDbEntity
  8
GAIKEI
  6
Continuous
100
AcDbLine
 10
12.95350046783966
 20
2.548156661146606
 30
0.0
 11
12.98248756783965
 21
2.548156661146606
 31
0.0
  0
LINE
  5
13C
330
2
100
AcDbEntity
  8
GAIKEI
  6
Continuous
100
AcDbLine
 10
12.98248756783965
 20
2.548156661146606
 30
0.0
 11
13.01127786783968
 21
2.548156661146606
 31
0.0
  0
LINE
  5
13D
330
2
100
AcDbEntity
  8
GAIKEI
  6
Continuous
100
AcDbLine
 10
13.01128246783963
 20
2.548156661146606
 30
0.0
 11
13.06877146783967
 21
2.548156661146606
 31
0.0
  0
LINE
  5
13E
330
2
100
AcDbEntity
  8
GAIKEI
  6
Continuous
100
AcDbLine
 10
13.06876686783965
 20
2.548156661146606
 30
0.0
 11
13.12547466783968
 21
2.548156661146606
 31
0.0
  0
LINE
  5
13F
330
2
100
AcDbEntity
  8
GAIKEI
  6
Continuous
100
AcDbLine
 10
13.12547316783968
 20
2.548156661146606
 30
0.0
 11
13.15458686783967
 21
2.548156661146606
 31
0.0
  0
LINE
  5
140
330
2
100
AcDbEntity
  8
GAIKEI
  6
Continuous
100
AcDbLine
 10
13.15458386783967
 20
2.548156661146606
 30
0.0
 11
13.26507886783963
 21
2.548156661146606
 31
0.0
  0
LINE
  5
141
330
2
100
AcDbEntity
  8
GAIKEI
  6
Continuous
100
AcDbLine
 10
13.26507426783962
 20
2.548156661146606
 30
0.0
 11
13.34702466783966
 21
2.548156661146606
 31
0.0
  0
LINE
  5
142
330
2
100
AcDbEntity
  8
GAIKEI
  6
Continuous
100
AcDbLine
 10
13.34702306783964
 20
2.548156661146606
 30
0.0
 11
13.37518626783969
 21
2.548156661146606
 31
0.0
  0
LINE
  5
143
330
2
100
AcDbEntity
  8
GAIKEI
  6
Continuous
100
AcDbLine
 10
13.37518856783964
 20
2.548155961146562
 30
0.0
 11
13.53384176783964
 21
2.548161161146595
 31
0.0
  0
LINE
  5
144
330
2
100
AcDbEntity
  8
GAIKEI
  6
Continuous
100
AcDbLine
 10
13.53384716783966
 20
2.548156661146606
 30
0.0
 11
13.63745736783966
 21
2.548156661146606
 31
0.0
  0
LINE
  5
145
330
2
100
AcDbEntity
  8
GAIKEI
  6
Continuous
100
AcDbLine
 10
13.63745736783966
 20
2.548156661146606
 30
0.0
 11
13.66344006783964
 21
2.548156661146606
 31
0.0
  0
LINE
  5
146
330
2
100
AcDbEntity
  8
GAIKEI
  6
Continuous
100
AcDbLine
 10
13.66344306783969
 20
2.548156661146606
 30
0.0
 11
13.86333776783965
 21
2.548156661146606
 31
0.0
  0
LINE
  5
147
330
2
100
AcDbEntity
  8
GAIKEI
  6
Continuous
100
AcDbLine
 10
13.86333626783965
 20
2.548156661146606
 30
0.0
 11
13.98407906783967
 21
2.548156661146606
 31
0.0
  0
LINE
  5
148
330
2
100
AcDbEntity
  8
GAIKEI
  6
Continuous
100
AcDbLine
 10
13.98407906783967
 20
2.548156661146606
 30
0.0
 11
14.00674596783966
 21
2.548156661146606
 31
0.0
  0
LINE
  5
149
330
2
100
AcDbEntity
  8
GAIKEI
  6
Continuous
100
AcDbLine
 10
14.00674596783966
 20
2.548156661146606
 30
0.0
 11
14.23759776783964
 21
2.548156661146606
 31
0.0
  0
LINE
  5
14A
330
2
100
AcDbEntity
  8
GAIKEI
  6
Continuous
100
AcDbLine
 10
14.23914346783965
 20
2.548156661146606
 30
0.0
 11
14.37174086783966
 21
2.548156661146606
 31
0.0
  0
LINE
  5
14B
330
2
100
AcDbEntity
  8
GAIKEI
  6
Continuous
100
AcDbLine
 10
14.37174086783966
 20
2.548156661146606
 30
0.0
 11
14.39010176783966
 21
2.548156661146606
 31
0.0
  0
LINE
  5
14C
330
2
100
AcDbEntity
  8
GAIKEI
  6
Continuous
100
AcDbLine
 10
14.39010176783966
 20
2.548156661146606
 30
0.0
 11
14.63727886783965
 21
2.548156661146606
 31
0.0
  0
LINE
  5
14D
330
2
100
AcDbEntity
  8
GAIKEI
  6
Continuous
100
AcDbLine
 10
14.63727886783965
 20
2.548156661146606
 30
0.0
 11
14.64484106783965
 21
2.548156661146606
 31
0.0
  0
LINE
  5
14E
330
2
100
AcDbEntity
  8
GAIKEI
  6
Continuous
100
AcDbLine
 10
14.64484106783965
 20
2.548156661146606
 30
0.0
 11
14.78349926783966
 21
2.548156661146606
 31
0.0
  0
LINE
  5
14F
330
2
100
AcDbEntity
  8
GAIKEI
  6
Continuous
100
AcDbLine
 10
14.78349926783966
 20
2.548156661146606
 30
0.0
 11
14.79675146783967
 21
2.548156661146606
 31
0.0
  0
LINE
  5
150
330
2
100
AcDbEntity
  8
GAIKEI
  6
Continuous
100
AcDbLine
 10
14.79674996783967
 20
2.548156661146606
 30
0.0
 11
15.04944926783963
 21
2.548156661146606
 31
0.0
  0
LINE
  5
151
330
2
100
AcDbEntity
  8
GAIKEI
  6
Continuous
100
AcDbLine
 10
15.04944926783963
 20
2.548156661146606
 30
0.0
 11
15.06270156783967
 21
2.548156661146606
 31
0.0
  0
LINE
  5
152
330
2
100
AcDbEntity
  8
GAIKEI
  6
Continuous
100
AcDbLine
 10
15.06270306783966
 20
2.548156661146606
 30
0.0
 11
15.20136116783965
 21
2.548156661146606
 31
0.0
  0
LINE
  5
153
330
2
100
AcDbEntity
  8
GAIKEI
  6
Continuous
100
AcDbLine
 10
15.20135816783966
 20
2.548156661146606
 30
0.0
 11
15.20892196783967
 21
2.548156661146606
 31
0.0
  0
LINE
  5
154
330
2
100
AcDbEntity
  8
GAIKEI
  6
Continuous
100
AcDbLine
 10
15.20892196783967
 20
2.548156661146606
 30
0.0
 11
15.45609756783966
 21
2.548156661146606
 31
0.0
  0
LINE
  5
155
330
2
100
AcDbEntity
  8
GAIKEI
  6
Continuous
100
AcDbLine
 10
15.45609756783966
 20
2.548156661146606
 30
0.0
 11
15.47445846783967
 21
2.548156661146606
 31
0.0
  0
LINE
  5
156
330
2
100
AcDbEntity
  8
GAIKEI
  6
Continuous
100
AcDbLine
 10
15.47446146783966
 20
2.548156661146606
 30
0.0
 11
15.60705886783967
 21
2.548156661146606
 31
0.0
  0
LINE
  5
157
330
2
100
AcDbEntity
  8
GAIKEI
  6
Continuous
100
AcDbLine
 10
15.60690926783968
 20
2.548156661146606
 30
0.0
 11
15.60860146783966
 21
2.548156661146606
 31
0.0
  0
LINE
  5
158
330
2
100
AcDbEntity
  8
GAIKEI
  6
Continuous
100
AcDbLine
 10
15.60860146783966
 20
2.548156661146606
 30
0.0
 11
15.83945326783964
 21
2.548156661146606
 31
0.0
  0
LINE
  5
159
330
2
100
AcDbEntity
  8
GAIKEI
  6
Continuous
100
AcDbLine
 10
15.83945326783964
 20
2.548156661146606
 30
0.0
 11
15.86212016783963
 21
2.548156661146606
 31
0.0
  0
LINE
  5
15A
330
2
100
AcDbEntity
  8
GAIKEI
  6
Continuous
100
AcDbLine
 10
15.86212166783969
 20
2.548156661146606
 30
0.0
 11
15.98286446783965
 21
2.548156661146606
 31
0.0
  0
LINE
  5
15B
330
2
100
AcDbEntity
  8
GAIKEI
  6
Continuous
100
AcDbLine
 10
15.98286756783966
 20
2.548156661146606
 30
0.0
 11
16.18276226783962
 21
2.548156661146606
 31
0.0
  0
LINE
  5
15C
330
2
100
AcDbEntity
  8
GAIKEI
  6
Continuous
100
AcDbLine
 10
16.18275916783966
 20
2.548156661146606
 30
0.0
 11
16.20874336783964
 21
2.548156661146606
 31
0.0
  0
LINE
  5
15D
330
2
100
AcDbEntity
  8
GAIKEI
  6
Continuous
100
AcDbLine
 10
16.20874336783964
 20
2.548156661146606
 30
0.0
 11
16.31235366783966
 21
2.548156661146606
 31
0.0
  0
LINE
  5
15E
330
2
100
AcDbEntity
  8
GAIKEI
  6
Continuous
100
AcDbLine
 10
16.31235366783966
 20
2.548156661146606
 30
0.0
 11
16.47100836783966
 21
2.548156661146606
 31
0.0
  0
LINE
  5
15F
330
2
100
AcDbEntity
  8
GAIKEI
  6
Continuous
100
AcDbLine
 10
16.47101296783967
 20
2.548156661146606
 30
0.0
 11
16.49917616783966
 21
2.548156661146606
 31
0.0
  0
LINE
  5
160
330
2
100
AcDbEntity
  8
GAIKEI
  6
Continuous
100
AcDbLine
 10
16.49917616783966
 20
2.548156661146606
 30
0.0
 11
16.58112646783968
 21
2.548156661146606
 31
0.0
  0
LINE
  5
161
330
2
100
AcDbEntity
  8
GAIKEI
  6
Continuous
100
AcDbLine
 10
16.58112806783964
 20
2.548156661146606
 30
0.0
 11
16.69161086783964
 21
2.548156661146606
 31
0.0
  0
LINE
  5
162
330
2
100
AcDbEntity
  8
GAIKEI
  6
Continuous
100
AcDbLine
 10
16.69161236783964
 20
2.548156661146606
 30
0.0
 11
16.72072616783964
 21
2.548156661146606
 31
0.0
  0
LINE
  5
163
330
2
100
AcDbEntity
  8
GAIKEI
  6
Continuous
100
AcDbLine
 10
16.72072766783969
 20
2.548156661146606
 30
0.0
 11
16.77743536783964
 21
2.548156661146606
 31
0.0
  0
LINE
  5
164
330
2
100
AcDbEntity
  8
GAIKEI
  6
Continuous
100
AcDbLine
 10
16.77743536783964
 20
2.548156661146606
 30
0.0
 11
16.83492286783968
 21
2.548156661146606
 31
0.0
  0
LINE
  5
165
330
2
100
AcDbEntity
  8
GAIKEI
  6
Continuous
100
AcDbLine
 10
16.83492286783968
 20
2.548156661146606
 30
0.0
 11
16.86371316783965
 21
2.548156661146606
 31
0.0
  0
LINE
  5
166
330
2
100
AcDbEntity
  8
GAIKEI
  6
Continuous
100
AcDbLine
 10
16.86371316783965
 20
2.548156661146606
 30
0.0
 11
16.89270026783964
 21
2.548156661146606
 31
0.0
  0
LINE
  5
167
330
2
100
AcDbEntity
  8
GAIKEI
  6
Continuous
100
AcDbLine
 10
16.89269876783965
 20
2.548156661146606
 30
0.0
 11
16.89467476783966
 21
2.548156661146606
 31
0.0
  0
LINE
  5
168
330
2
100
AcDbEntity
  8
GAIKEI
  6
Continuous
100
AcDbLine
 10
16.89467626783965
 20
2.548156661146606
 30
0.0
 11
16.92188426783969
 21
2.548156661146606
 31
0.0
  0
LINE
  5
169
330
2
100
AcDbEntity
  8
GAIKEI
  6
Continuous
100
AcDbLine
 10
16.92188576783962
 20
2.548156661146606
 30
0.0
 11
16.92310036783965
 21
2.548156661146606
 31
0.0
  0
LINE
  5
16A
330
2
100
AcDbEntity
  8
GAIKEI
  6
Continuous
100
AcDbLine
 10
15.69121566783963
 20
2.248156661146595
 30
0.0
 11
14.92310346783966
 21
2.248156661146595
 31
0.0
  0
LINE
  5
16B
330
2
100
AcDbEntity
  8
GAIKEI
  6
Continuous
100
AcDbLine
 10
14.92310346783966
 20
2.248156661146595
 30
0.0
 11
14.15498516783964
 21
2.248156661146595
 31
0.0
  0
LINE
  5
16C
330
2
100
AcDbEntity
  8
GAIKEI
  6
Continuous
 62
     1
100
AcDbLine
 10
14.23914346783965
 20
4.148156661146572
 30
0.0
 11
14.23914346783965
 21
2.548156661146606
 31
0.0
  0
LINE
  5
16D
330
2
100
AcDbEntity
  8
GAIKEI
  6
Continuous
100
AcDbLine
 10
16.92310036783965
 20
4.148156661146572
 30
0.0
 11
16.92188576783962
 21
4.148156661146572
 31
0.0
  0
LINE
  5
16E
330
2
100
AcDbEntity
  8
GAIKEI
  6
Continuous
100
AcDbLine
 10
16.92188426783969
 20
4.148156661146572
 30
0.0
 11
16.89467626783965
 21
4.148156661146572
 31
0.0
  0
LINE
  5
16F
330
2
100
AcDbEntity
  8
GAIKEI
  6
Continuous
100
AcDbLine
 10
16.89467476783966
 20
4.148156661146572
 30
0.0
 11
16.89269876783965
 21
4.148156661146572
 31
0.0
  0
LINE
  5
170
330
2
100
AcDbEntity
  8
GAIKEI
  6
Continuous
100
AcDbLine
 10
16.89270026783964
 20
4.148156661146572
 30
0.0
 11
16.86371316783965
 21
4.148156661146572
 31
0.0
  0
LINE
  5
171
330
2
100
AcDbEntity
  8
GAIKEI
  6
Continuous
100
AcDbLine
 10
16.86371316783965
 20
4.148156661146572
 30
0.0
 11
16.83492286783968
 21
4.148156661146572
 31
0.0
  0
LINE
  5
172
330
2
100
AcDbEntity
  8
GAIKEI
  6
Continuous
100
AcDbLine
 10
16.83492286783968
 20
4.148156661146572
 30
0.0
 11
16.77743536783964
 21
4.148156661146572
 31
0.0
  0
LINE
  5
173
330
2
100
AcDbEntity
  8
GAIKEI
  6
Continuous
100
AcDbLine
 10
16.77743536783964
 20
4.148156661146572
 30
0.0
 11
16.72072766783969
 21
4.148156661146572
 31
0.0
  0
LINE
  5
174
330
2
100
AcDbEntity
  8
GAIKEI
  6
Continuous
100
AcDbLine
 10
16.72072616783964
 20
4.148156661146572
 30
0.0
 11
16.69161236783964
 21
4.148156661146572
 31
0.0
  0
LINE
  5
175
330
2
100
AcDbEntity
  8
GAIKEI
  6
Continuous
100
AcDbLine
 10
16.69161086783964
 20
4.148156661146572
 30
0.0
 11
16.58112806783964
 21
4.148156661146572
 31
0.0
  0
LINE
  5
176
330
2
100
AcDbEntity
  8
GAIKEI
  6
Continuous
100
AcDbLine
 10
16.58112646783968
 20
4.148156661146572
 30
0.0
 11
16.49917616783966
 21
4.148156661146572
 31
0.0
  0
LINE
  5
177
330
2
100
AcDbEntity
  8
GAIKEI
  6
Continuous
100
AcDbLine
 10
16.49917616783966
 20
4.148156661146572
 30
0.0
 11
16.47101296783967
 21
4.148156661146572
 31
0.0
  0
LINE
  5
178
330
2
100
AcDbEntity
  8
GAIKEI
  6
Continuous
100
AcDbLine
 10
16.47100856783964
 20
4.148145161146601
 30
0.0
 11
16.31235376783968
 21
4.148144061146581
 31
0.0
  0
LINE
  5
179
330
2
100
AcDbEntity
  8
GAIKEI
  6
Continuous
100
AcDbLine
 10
16.31235366783966
 20
4.148156661146572
 30
0.0
 11
16.20874336783964
 21
4.148156661146572
 31
0.0
  0
LINE
  5
17A
330
2
100
AcDbEntity
  8
GAIKEI
  6
Continuous
100
AcDbLine
 10
16.20874336783964
 20
4.148156661146572
 30
0.0
 11
16.18275916783966
 21
4.148156661146572
 31
0.0
  0
LINE
  5
17B
330
2
100
AcDbEntity
  8
GAIKEI
  6
Continuous
100
AcDbLine
 10
16.18276226783962
 20
4.148156661146572
 30
0.0
 11
15.98286756783966
 21
4.148156661146572
 31
0.0
  0
LINE
  5
17C
330
2
100
AcDbEntity
  8
GAIKEI
  6
Continuous
100
AcDbLine
 10
15.98286446783965
 20
4.148156661146572
 30
0.0
 11
15.86212166783969
 21
4.148156661146572
 31
0.0
  0
LINE
  5
17D
330
2
100
AcDbEntity
  8
GAIKEI
  6
Continuous
100
AcDbLine
 10
15.86212016783963
 20
4.148156661146572
 30
0.0
 11
15.83945326783964
 21
4.148156661146572
 31
0.0
  0
LINE
  5
17E
330
2
100
AcDbEntity
  8
GAIKEI
  6
Continuous
100
AcDbLine
 10
15.83945326783964
 20
4.148156661146572
 30
0.0
 11
15.60860146783966
 21
4.148156661146572
 31
0.0
  0
LINE
  5
17F
330
2
100
AcDbEntity
  8
GAIKEI
  6
Continuous
100
AcDbLine
 10
15.60860146783966
 20
4.148156661146572
 30
0.0
 11
15.60690926783968
 21
4.148156661146572
 31
0.0
  0
LINE
  5
180
330
2
100
AcDbEntity
  8
GAIKEI
  6
Continuous
100
AcDbLine
 10
15.60705886783967
 20
4.148156661146572
 30
0.0
 11
15.47446146783966
 21
4.148156661146572
 31
0.0
  0
LINE
  5
181
330
2
100
AcDbEntity
  8
GAIKEI
  6
Continuous
100
AcDbLine
 10
15.47445846783967
 20
4.148156661146572
 30
0.0
 11
15.45609756783966
 21
4.148156661146572
 31
0.0
  0
LINE
  5
182
330
2
100
AcDbEntity
  8
GAIKEI
  6
Continuous
100
AcDbLine
 10
15.45609756783966
 20
4.148156661146572
 30
0.0
 11
15.20892196783967
 21
4.148156661146572
 31
0.0
  0
LINE
  5
183
330
2
100
AcDbEntity
  8
GAIKEI
  6
Continuous
100
AcDbLine
 10
15.20892196783967
 20
4.148156661146572
 30
0.0
 11
15.20135816783966
 21
4.148156661146572
 31
0.0
  0
LINE
  5
184
330
2
100
AcDbEntity
  8
GAIKEI
  6
Continuous
100
AcDbLine
 10
15.20136116783965
 20
4.148156661146572
 30
0.0
 11
15.06270306783966
 21
4.148156661146572
 31
0.0
  0
LINE
  5
185
330
2
100
AcDbEntity
  8
GAIKEI
  6
Continuous
100
AcDbLine
 10
15.06270156783967
 20
4.148156661146572
 30
0.0
 11
15.04944926783963
 21
4.148156661146572
 31
0.0
  0
LINE
  5
186
330
2
100
AcDbEntity
  8
GAIKEI
  6
Continuous
100
AcDbLine
 10
15.04944926783963
 20
4.148156661146572
 30
0.0
 11
14.79674996783967
 21
4.148156661146572
 31
0.0
  0
LINE
  5
187
330
2
100
AcDbEntity
  8
GAIKEI
  6
Continuous
100
AcDbLine
 10
14.79675146783967
 20
4.148156661146572
 30
0.0
 11
14.78349926783966
 21
4.148156661146572
 31
0.0
  0
LINE
  5
188
330
2
100
AcDbEntity
  8
GAIKEI
  6
Continuous
100
AcDbLine
 10
14.78349926783966
 20
4.148156661146572
 30
0.0
 11
14.64484106783965
 21
4.148156661146572
 31
0.0
  0
LINE
  5
189
330
2
100
AcDbEntity
  8
GAIKEI
  6
Continuous
100
AcDbLine
 10
14.64484106783965
 20
4.148156661146572
 30
0.0
 11
14.63727886783965
 21
4.148156661146572
 31
0.0
  0
LINE
  5
18A
330
2
100
AcDbEntity
  8
GAIKEI
  6
Continuous
100
AcDbLine
 10
14.63727886783965
 20
4.148156661146572
 30
0.0
 11
14.39010176783966
 21
4.148156661146572
 31
0.0
  0
LINE
  5
18B
330
2
100
AcDbEntity
  8
GAIKEI
  6
Continuous
100
AcDbLine
 10
14.39010176783966
 20
4.148156661146572
 30
0.0
 11
14.37174086783966
 21
4.148156661146572
 31
0.0
  0
LINE
  5
18C
330
2
100
AcDbEntity
  8
GAIKEI
  6
Continuous
100
AcDbLine
 10
14.37174086783966
 20
4.148156661146572
 30
0.0
 11
14.23914346783965
 21
4.148156661146572
 31
0.0
  0
LINE
  5
18D
330
2
100
AcDbEntity
  8
GAIKEI
  6
Continuous
100
AcDbLine
 10
14.23928996783968
 20
4.148156661146572
 30
0.0
 11
14.23759776783964
 21
4.148156661146572
 31
0.0
  0
LINE
  5
18E
330
2
100
AcDbEntity
  8
GAIKEI
  6
Continuous
100
AcDbLine
 10
14.23759776783964
 20
4.148156661146572
 30
0.0
 11
14.00674596783966
 21
4.148156661146572
 31
0.0
  0
LINE
  5
18F
330
2
100
AcDbEntity
  8
GAIKEI
  6
Continuous
100
AcDbLine
 10
14.00674596783966
 20
4.148156661146572
 30
0.0
 11
13.98407906783967
 21
4.148156661146572
 31
0.0
  0
LINE
  5
190
330
2
100
AcDbEntity
  8
GAIKEI
  6
Continuous
100
AcDbLine
 10
13.98407906783967
 20
4.148156661146572
 30
0.0
 11
13.86333626783965
 21
4.148156661146572
 31
0.0
  0
LINE
  5
191
330
2
100
AcDbEntity
  8
GAIKEI
  6
Continuous
100
AcDbLine
 10
13.86333776783965
 20
4.148156661146572
 30
0.0
 11
13.66344306783969
 21
4.148156661146572
 31
0.0
  0
LINE
  5
192
330
2
100
AcDbEntity
  8
GAIKEI
  6
Continuous
100
AcDbLine
 10
13.66344006783964
 20
4.148156661146572
 30
0.0
 11
13.63745736783966
 21
4.148156661146572
 31
0.0
  0
LINE
  5
193
330
2
100
AcDbEntity
  8
GAIKEI
  6
Continuous
100
AcDbLine
 10
13.63745736783966
 20
4.148156661146572
 30
0.0
 11
13.53384716783966
 21
4.148156661146572
 31
0.0
  0
LINE
  5
194
330
2
100
AcDbEntity
  8
GAIKEI
  6
Continuous
100
AcDbLine
 10
13.53384696783968
 20
4.148141161146611
 30
0.0
 11
13.37518606783965
 21
4.148142361146597
 31
0.0
  0
LINE
  5
195
330
2
100
AcDbEntity
  8
GAIKEI
  6
Continuous
100
AcDbLine
 10
13.37518626783969
 20
4.148156661146572
 30
0.0
 11
13.34702306783964
 21
4.148156661146572
 31
0.0
  0
LINE
  5
196
330
2
100
AcDbEntity
  8
GAIKEI
  6
Continuous
100
AcDbLine
 10
13.34702466783966
 20
4.148156661146572
 30
0.0
 11
13.26507426783962
 21
4.148156661146572
 31
0.0
  0
LINE
  5
197
330
2
100
AcDbEntity
  8
GAIKEI
  6
Continuous
100
AcDbLine
 10
13.26507396783967
 20
4.148146661146597
 30
0.0
 11
13.15458356783966
 21
4.14814776114656
 31
0.0
  0
LINE
  5
198
330
2
100
AcDbEntity
  8
GAIKEI
  6
Continuous
100
AcDbLine
 10
13.15458686783967
 20
4.148156661146572
 30
0.0
 11
13.12547316783968
 21
4.148156661146572
 31
0.0
  0
LINE
  5
199
330
2
100
AcDbEntity
  8
GAIKEI
  6
Continuous
100
AcDbLine
 10
13.12547466783968
 20
4.148156661146572
 30
0.0
 11
13.06876686783965
 21
4.148156661146572
 31
0.0
  0
LINE
  5
19A
330
2
100
AcDbEntity
  8
GAIKEI
  6
Continuous
100
AcDbLine
 10
13.06877146783967
 20
4.148156661146572
 30
0.0
 11
13.01128246783963
 21
4.148156661146572
 31
0.0
  0
LINE
  5
19B
330
2
100
AcDbEntity
  8
GAIKEI
  6
Continuous
100
AcDbLine
 10
13.01127786783968
 20
4.148156661146572
 30
0.0
 11
12.98248756783965
 21
4.148156661146572
 31
0.0
  0
LINE
  5
19C
330
2
100
AcDbEntity
  8
GAIKEI
  6
Continuous
100
AcDbLine
 10
12.98248756783965
 20
4.148156661146572
 30
0.0
 11
12.95350046783966
 21
4.148156661146572
 31
0.0
  0
LINE
  5
19D
330
2
100
AcDbEntity
  8
GAIKEI
  6
Continuous
100
AcDbLine
 10
12.95349746783967
 20
4.148156661146572
 30
0.0
 11
12.95152136783963
 21
4.148156661146572
 31
0.0
  0
LINE
  5
19E
330
2
100
AcDbEntity
  8
GAIKEI
  6
Continuous
100
AcDbLine
 10
12.95152446783965
 20
4.148156661146572
 30
0.0
 11
12.92431496783968
 21
4.148156661146572
 31
0.0
  0
LINE
  5
19F
330
2
100
AcDbEntity
  8
GAIKEI
  6
Continuous
100
AcDbLine
 10
12.92431646783967
 20
4.148156661146572
 30
0.0
 11
12.92310036783965
 21
4.148156661146572
 31
0.0
  0
LINE
  5
1A0
330
2
100
AcDbEntity
  8
GAIKEI
  6
Continuous
 62
     1
100
AcDbLine
 10
19.31192646783967
 20
10.32849242511224
 30
0.0
 11
35.56914042587249
 21
10.32849242511224
 31
0.0
  0
LINE
  5
1A1
330
2
100
AcDbEntity
  8
GAIKEI
  6
Continuous
 62
     1
100
AcDbLine
 10
35.56914042587249
 20
9.760206325112278
 30
0.0
 11
19.31192646783967
 21
9.760206325112278
 31
0.0
  0
LINE
  5
1A2
330
2
100
AcDbEntity
  8
GAIKEI
  6
Continuous
 62
     1
100
AcDbLine
 10
19.31192646783967
 20
11.09848752511226
 30
0.0
 11
35.56914042587249
 21
11.09848762511222
 31
0.0
  0
LINE
  5
1A3
330
2
100
AcDbEntity
  8
GAIKEI
  6
Continuous
 62
     1
100
AcDbLine
 10
35.56914042587249
 20
10.53022582511221
 30
0.0
 11
19.31192646783967
 21
10.53022582511221
 31
0.0
  0
LINE
  5
1A4
330
2
100
AcDbEntity
  8
GAIKEI
  6
Continuous
 62
     1
100
AcDbLine
 10
19.31192646783967
 20
11.86848272511224
 30
0.0
 11
35.56914042587249
 21
11.86848272511224
 31
0.0
  0
LINE
  5
1A5
330
2
100
AcDbEntity
  8
GAIKEI
  6
Continuous
 62
     1
100
AcDbLine
 10
35.56914042587249
 20
11.30022102511225
 30
0.0
 11
19.31192646783967
 21
11.30022092511222
 31
0.0
  0
LINE
  5
1A6
330
2
100
AcDbEntity
  8
GAIKEI
  6
Continuous
 62
     1
100
AcDbLine
 10
19.31192646783967
 20
12.63847782511226
 30
0.0
 11
35.56914042587249
 21
12.63847782511226
 31
0.0
  0
LINE
  5
1A7
330
2
100
AcDbEntity
  8
GAIKEI
  6
Continuous
 62
     1
100
AcDbLine
 10
35.56914042587249
 20
12.07021612511226
 30
0.0
 11
19.31192646783967
 21
12.07021612511226
 31
0.0
  0
LINE
  5
1A8
330
2
100
AcDbEntity
  8
GAIKEI
  6
Continuous
 62
     1
100
AcDbLine
 10
19.31192646783967
 20
13.40847292511228
 30
0.0
 11
35.56914042587249
 21
13.40847292511228
 31
0.0
  0
LINE
  5
1A9
330
2
100
AcDbEntity
  8
GAIKEI
  6
Continuous
 62
     1
100
AcDbLine
 10
35.56914042587249
 20
12.84021122511223
 30
0.0
 11
19.31192646783967
 21
12.84021122511223
 31
0.0
  0
LINE
  5
1AA
330
2
100
AcDbEntity
  8
GAIKEI
  6
Continuous
 62
     1
100
AcDbLine
 10
19.31192646783967
 20
14.17849242511227
 30
0.0
 11
35.56914042587249
 21
14.17849242511227
 31
0.0
  0
LINE
  5
1AB
330
2
100
AcDbEntity
  8
GAIKEI
  6
Continuous
 62
     1
100
AcDbLine
 10
35.56914042587249
 20
13.61020632511224
 30
0.0
 11
19.31192646783967
 21
13.61020632511224
 31
0.0
  0
CIRCLE
  5
1AC
330
2
100
AcDbEntity
  8
GAIKEI
  6
Continuous
 62
     1
100
AcDbCircle
 10
37.32308356783966
 20
11.99815666114659
 30
0.0
 40
0.8
  0
CIRCLE
  5
1AD
330
2
100
AcDbEntity
  8
GAIKEI
  6
Continuous
 62
     1
100
AcDbCircle
 10
37.32308356783966
 20
11.99815666114659
 30
0.0
 40
0.2028547999999998
  0
CIRCLE
  5
1AE
330
2
100
AcDbEntity
  8
GAIKEI
  6
Continuous
 62
     1
100
AcDbCircle
 10
37.32308356783966
 20
11.99815666114659
 30
0.0
 40
0.2054729999999998
  0
CIRCLE
  5
1AF
330
2
100
AcDbEntity
  8
GAIKEI
  6
Continuous
 62
     1
100
AcDbCircle
 10
37.32308356783966
 20
11.99815666114659
 30
0.0
 40
0.4799330999999998
  0
LINE
  5
1B0
330
2
100
AcDbEntity
  8
GAIKEI
  6
Continuous
 62
     1
100
AcDbLine
 10
35.56914042587249
 20
14.17849242511227
 30
0.0
 11
35.56914042587249
 21
13.61020632511224
 31
0.0
  0
LINE
  5
1B1
330
2
100
AcDbEntity
  8
GAIKEI
  6
Continuous
 62
     1
100
AcDbLine
 10
19.31192646783967
 20
13.61020632511224
 30
0.0
 11
19.31192646783967
 21
14.17849242511227
 31
0.0
  0
LINE
  5
1B2
330
2
100
AcDbEntity
  8
GAIKEI
  6
Continuous
 62
     1
100
AcDbLine
 10
35.56914042587249
 20
13.40847292511228
 30
0.0
 11
35.56914042587249
 21
12.84021122511223
 31
0.0
  0
LINE
  5
1B3
330
2
100
AcDbEntity
  8
GAIKEI
  6
Continuous
 62
     1
100
AcDbLine
 10
19.31192646783967
 20
12.84021122511223
 30
0.0
 11
19.31192646783967
 21
13.40847292511228
 31
0.0
  0
LINE
  5
1B4
330
2
100
AcDbEntity
  8
GAIKEI
  6
Continuous
 62
     1
100
AcDbLine
 10
35.56914042587249
 20
12.63847782511226
 30
0.0
 11
35.56914042587249
 21
12.07021612511226
 31
0.0
  0
LINE
  5
1B5
330
2
100
AcDbEntity
  8
GAIKEI
  6
Continuous
 62
     1
100
AcDbLine
 10
19.31192646783967
 20
12.07021612511226
 30
0.0
 11
19.31192646783967
 21
12.63847782511226
 31
0.0
  0
LINE
  5
1B6
330
2
100
AcDbEntity
  8
GAIKEI
  6
Continuous
 62
     1
100
AcDbLine
 10
35.56914042587249
 20
11.86848272511224
 30
0.0
 11
35.56914042587249
 21
11.30022092511222
 31
0.0
  0
LINE
  5
1B7
330
2
100
AcDbEntity
  8
GAIKEI
  6
Continuous
 62
     1
100
AcDbLine
 10
19.31192646783967
 20
11.30022092511222
 30
0.0
 11
19.31192646783967
 21
11.86848272511224
 31
0.0
  0
LINE
  5
1B8
330
2
100
AcDbEntity
  8
GAIKEI
  6
Continuous
 62
     1
100
AcDbLine
 10
35.56914042587249
 20
11.09848752511226
 30
0.0
 11
35.56914042587249
 21
10.53022582511221
 31
0.0
  0
LINE
  5
1B9
330
2
100
AcDbEntity
  8
GAIKEI
  6
Continuous
 62
     1
100
AcDbLine
 10
19.31192646783967
 20
10.53022582511221
 30
0.0
 11
19.31192646783967
 21
11.09848752511226
 31
0.0
  0
LINE
  5
1BA
330
2
100
AcDbEntity
  8
GAIKEI
  6
Continuous
 62
     1
100
AcDbLine
 10
35.56914042587249
 20
10.32849242511224
 30
0.0
 11
35.56914042587249
 21
9.760206325112278
 31
0.0
  0
LINE
  5
1BB
330
2
100
AcDbEntity
  8
GAIKEI
  6
Continuous
 62
     1
100
AcDbLine
 10
19.31192646783967
 20
9.760206325112278
 30
0.0
 11
19.31192646783967
 21
10.32849242511224
 31
0.0
  0
SPLINE
  5
1BC
330
2
100
AcDbEntity
  8
GAIKEI
  6
Continuous
 62
     1
100
AcDbSpline
210
0.0
220
0.0
230
1.0
 70
     8
 71
     3
 72
     9
 73
     5
 74
     3
 42
0.0000000001
 43
0.0000000001
 44
0.000001
 12
-0.9999999999922298
 22
0.0000039421808572
 32
0.0
 13
-0.0001546433183978
 23
-0.9999999880427221
 33
0.0
 40
0.0
 40
0.0
 40
0.0
 40
0.0
 40
0.1808914546835059
 40
0.3617971649710733
 40
0.3617971649710733
 40
0.3617971649710733
 40
0.3617971649710733
 10
17.49888356680077
 20
16.88497304395912
 30
0.0
 10
17.43858641524006
 20
16.88497328166141
 30
0.0
 10
17.31385483981617
 20
16.8331848202726
 30
0.0
 10
17.26206275292709
 20
16.70845854041727
 30
0.0
 10
17.26205342764064
 20
16.64815663770912
 30
0.0
 11
17.49888356680077
 21
16.88497304395912
 31
0.0
 11
17.33209248214462
 21
16.81495454983155
 31
0.0
 11
17.26205342764064
 21
16.64815663770912
 31
0.0
  0
LINE
  5
1BD
330
2
100
AcDbEntity
  8
GAIKEI
  6
Continuous
 62
     1
100
AcDbLine
 10
38.62308356783967
 20
16.88497306114658
 30
0.0
 11
17.49888812578513
 21
16.88497306114658
 31
0.0
  0
SPLINE
  5
1BE
330
2
100
AcDbEntity
  8
GAIKEI
  6
Continuous
 62
     1
100
AcDbSpline
210
0.0
220
0.0
230
1.0
 70
     8
 71
     3
 72
     9
 73
     5
 74
     3
 42
0.0000000001
 43
0.0000000001
 44
0.000001
 12
0.0001602853249288
 22
0.9999999871543073
 32
0.0
 13
-0.9999999999910924
 23
-0.0000042207988632
 33
0.0
 40
0.0
 40
0.0
 40
0.0
 40
0.0
 40
0.1808922013790606
 40
0.3618098723205662
 40
0.3618098723205662
 40
0.3618098723205662
 40
0.3618098723205662
 10
38.8599244221366
 20
16.64815663770912
 30
0.0
 10
38.85993408692502
 20
16.70845403739423
 30
0.0
 10
38.80812326940841
 20
16.83318896829632
 30
0.0
 10
38.68338949213738
 20
16.88497329849815
 30
0.0
 10
38.62308360182408
 20
16.88497304395912
 30
0.0
 11
38.8599244221366
 21
16.64815663770912
 31
0.0
 11
38.78989944914548
 21
16.8149458133679
 31
0.0
 11
38.62308360182408
 21
16.88497304395912
 31
0.0
  0
LINE
  5
1BF
330
2
100
AcDbEntity
  8
GAIKEI
  6
Continuous
 62
     1
100
AcDbLine
 10
38.85992446783968
 20
7.348156661146617
 30
0.0
 11
38.85992446783968
 21
16.64815666114657
 31
0.0
  0
SPLINE
  5
1C0
330
2
100
AcDbEntity
  8
GAIKEI
  6
Continuous
 62
     1
100
AcDbSpline
210
0.0
220
0.0
230
1.0
 70
     8
 71
     3
 72
     9
 73
     5
 74
     3
 42
0.0000000001
 43
0.0000000001
 44
0.000001
 12
0.9999999907799267
 22
-0.0001357945011297
 32
0.0
 13
-0.0001426622183006
 23
0.9999999898237458
 33
0.0
 40
0.0
 40
0.0
 40
0.0
 40
0.0
 40
0.1809116358628848
 40
0.3618310285305576
 40
0.3618310285305576
 40
0.3618310285305576
 40
0.3618310285305576
 10
38.62308360182408
 20
7.111315817396587
 30
0.0
 10
38.68338747988904
 20
7.111307628461474
 30
0.0
 10
38.80813030121164
 20
7.163106742835452
 30
0.0
 10
38.85993302559056
 20
7.287850174100242
 30
0.0
 10
38.8599244221366
 20
7.348156637709109
 30
0.0
 11
38.62308360182408
 21
7.111315817396587
 31
0.0
 11
38.78989409165127
 21
7.181340222569019
 31
0.0
 11
38.8599244221366
 21
7.348156637709109
 31
0.0
  0
LINE
  5
1C1
330
2
100
AcDbEntity
  8
GAIKEI
  6
Continuous
 62
     1
100
AcDbLine
 10
17.49888812578513
 20
7.111315861146579
 30
0.0
 11
38.62308356783967
 21
7.111315861146579
 31
0.0
  0
SPLINE
  5
1C2
330
2
100
AcDbEntity
  8
GAIKEI
  6
Continuous
 62
     1
100
AcDbSpline
210
0.0
220
0.0
230
1.0
 70
     8
 71
     3
 72
     9
 73
     5
 74
     3
 42
0.0000000001
 43
0.0000000001
 44
0.000001
 12
0.0001736743318964
 22
-0.9999999849186131
 32
0.0
 13
0.9999999893378511
 23
0.0001460284141218
 33
0.0
 40
0.0
 40
0.0
 40
0.0
 40
0.0
 40
0.1809125820783835
 40
0.3618144121603527
 40
0.3618144121603527
 40
0.3618144121603527
 40
0.3618144121603527
 10
17.26205342764058
 20
7.348156637709109
 30
0.0
 10
17.26206390093118
 20
7.287852444592431
 30
0.0
 10
17.31384767259496
 20
7.163125264477287
 30
0.0
 10
17.43858295741638
 20
7.11130701179411
 30
0.0
 10
17.49888356680077
 20
7.111315817396587
 30
0.0
 11
17.26205342764058
 21
7.348156637709109
 31
0.0
 11
17.33208746476941
 21
7.181349167881649
 31
0.0
 11
17.49888356680077
 21
7.111315817396587
 31
0.0
  0
LINE
  5
1C3
330
2
100
AcDbEntity
  8
GAIKEI
  6
Continuous
 62
     1
100
AcDbLine
 10
17.2620595257851
 20
16.64815666114657
 30
0.0
 11
17.2620595257851
 21
7.348156661146617
 31
0.0
  0
SPLINE
  5
1C4
330
2
100
AcDbEntity
  8
GAIKEI
  6
Continuous
 62
     1
100
AcDbSpline
210
0.0
220
0.0
230
1.0
 70
     8
 71
     3
 72
     9
 73
     5
 74
     3
 42
0.0000000001
 43
0.0000000001
 44
0.000001
 12
0.6039334252767214
 22
-0.7970347657621512
 32
0.0
 13
-0.0001271828479802
 23
-0.9999999919122616
 33
0.0
 40
0.0
 40
0.0
 40
0.0
 40
0.0
 40
0.0614280083452541
 40
0.1999759866734414
 40
0.1999759866734414
 40
0.1999759866734414
 40
0.1999759866734414
 10
39.00679942213657
 20
9.522350973646609
 30
0.0
 10
39.01916556463253
 20
9.506030887565714
 30
0.0
 10
38.99938421535546
 20
9.43071083846479
 30
0.0
 10
39.01185900671621
 20
9.368655703028309
 30
0.0
 10
39.01185313307406
 20
9.322473043959121
 30
0.0
 11
39.00679942213657
 21
9.522350973646609
 31
0.0
 11
39.01005549501758
 21
9.461009018878883
 31
0.0
 11
39.01185313307406
 21
9.322473043959121
 31
0.0
  0
LINE
  5
1C5
330
2
100
AcDbEntity
  8
GAIKEI
  6
Continuous
 62
     1
100
AcDbLine
 10
40.86068126783965
 20
9.522350961146571
 30
0.0
 11
40.86068126783965
 21
9.322473061146581
 31
0.0
  0
LINE
  5
1C6
330
2
100
AcDbEntity
  8
GAIKEI
  6
Continuous
 62
     1
100
AcDbLine
 10
41.19058846783969
 20
9.817956461146593
 30
0.0
 11
41.38272716783967
 21
9.817956461146593
 31
0.0
  0
LINE
  5
1C7
330
2
100
AcDbEntity
  8
GAIKEI
  6
Continuous
 62
     1
100
AcDbLine
 10
41.19059076783969
 20
14.17836996114658
 30
0.0
 11
41.38272946783968
 21
14.17836966114657
 31
0.0
  0
LINE
  5
1C8
330
2
100
AcDbEntity
  8
GAIKEI
  6
Continuous
 62
     1
100
AcDbLine
 10
40.86068126783965
 20
14.47393786114662
 30
0.0
 11
40.86068126783965
 21
14.67381586114658
 31
0.0
  0
SPLINE
  5
1C9
330
2
100
AcDbEntity
  8
GAIKEI
  6
Continuous
 62
     1
100
AcDbSpline
210
0.0
220
0.0
230
1.0
 70
     8
 71
     3
 72
     9
 73
     5
 74
     3
 42
0.0000000001
 43
0.0000000001
 44
0.000001
 12
0.0001272526161599
 22
-0.9999999919033857
 32
0.0
 13
-0.6010462563449485
 23
-0.7992142376945763
 33
0.0
 40
0.0
 40
0.0
 40
0.0
 40
0.0
 40
0.1385590750849553
 40
0.200000313512155
 40
0.200000313512155
 40
0.200000313512155
 40
0.200000313512155
 10
39.01185313307406
 20
14.67384023145911
 30
0.0
 10
39.01185901040899
 20
14.62765387347139
 30
0.0
 10
38.99944525650111
 20
14.56554083464823
 30
0.0
 10
39.01910909758385
 20
14.49030612521994
 30
0.0
 10
39.00679942213657
 20
14.4739378877091
 30
0.0
 11
39.01185313307406
 21
14.67384023145911
 31
0.0
 11
39.01005380698382
 21
14.53529317901609
 31
0.0
 11
39.00679942213657
 21
14.4739378877091
 31
0.0
  0
LINE
  5
1CA
330
2
100
AcDbEntity
  8
GAIKEI
  6
Continuous
 62
     1
100
AcDbLine
 10
39.00679946783964
 20
14.47393786114662
 30
0.0
 11
40.86068126783965
 21
14.47393786114662
 31
0.0
  0
LINE
  5
1CB
330
2
100
AcDbEntity
  8
GAIKEI
  6
Continuous
 62
     1
100
AcDbLine
 10
40.86068126783965
 20
9.522350961146571
 30
0.0
 11
39.00679946783964
 21
9.522350961146571
 31
0.0
  0
LINE
  5
1CC
330
2
100
AcDbEntity
  8
GAIKEI
  6
Continuous
 62
     1
100
AcDbLine
 10
41.19058846783969
 20
9.817956461146593
 30
0.0
 11
41.19058846783969
 21
14.17833246114662
 31
0.0
  0
SPLINE
  5
1CD
330
2
100
AcDbEntity
  8
GAIKEI
  6
Continuous
 62
     1
100
AcDbSpline
210
0.0
220
0.0
230
1.0
 70
     8
 71
     3
 72
     9
 73
     5
 74
     3
 42
0.0000000001
 43
0.0000000001
 44
0.000001
 12
0.9999722406974347
 22
0.0074510290934466
 32
0.0
 13
-0.0044982697799815
 23
-0.9999898827333137
 33
0.0
 40
0.0
 40
0.0
 40
0.0
 40
0.0
 40
0.1442554629914533
 40
0.4728156950081769
 40
0.4728156950081769
 40
0.4728156950081769
 40
0.4728156950081769
 10
40.86068125807407
 20
14.4739378877091
 30
0.0
 10
40.9087650775942
 20
14.47429617159298
 30
0.0
 10
41.06796955805046
 20
14.45276072833769
 30
0.0
 10
41.19108113549077
 20
14.28790021637917
 30
0.0
 10
41.19058848463658
 20
14.17838124708407
 30
0.0
 11
40.86068125807407
 21
14.4739378877091
 31
0.0
 11
41.00255137526153
 21
14.4478148408341
 31
0.0
 11
41.19058848463658
 21
14.17838124708407
 31
0.0
  0
SPLINE
  5
1CE
330
2
100
AcDbEntity
  8
GAIKEI
  6
Continuous
 62
     1
100
AcDbSpline
210
0.0
220
0.0
230
1.0
 70
     8
 71
     3
 72
     9
 73
     5
 74
     3
 42
0.0000000001
 43
0.0000000001
 44
0.000001
 12
0.0030894571282124
 22
-0.9999952276159385
 32
0.0
 13
-0.9999739602529967
 23
0.0072165653837817
 33
0.0
 40
0.0
 40
0.0
 40
0.0
 40
0.0
 40
0.2475566093563242
 40
0.4810702892459933
 40
0.4810702892459933
 40
0.4810702892459933
 40
0.4810702892459933
 10
41.19058848463658
 20
9.817956442396621
 30
0.0
 10
41.19084342314704
 20
9.735437966422921
 30
0.0
 10
41.1077853806914
 20
9.568027241961374
 30
0.0
 10
40.93851712449157
 20
9.521789251400321
 30
0.0
 10
40.86068125807407
 20
9.522350973646609
 30
0.0
 11
41.19058848463658
 21
9.817956442396621
 31
0.0
 11
41.08253184401156
 21
9.595226950209109
 31
0.0
 11
40.86068125807407
 21
9.522350973646609
 31
0.0
  0
LINE
  5
1CF
330
2
100
AcDbEntity
  8
GAIKEI
  6
Continuous
 62
     1
100
AcDbLine
 10
40.86068126783965
 20
9.322473061146581
 30
0.0
 11
39.01185316783966
 21
9.322473061146581
 31
0.0
  0
SPLINE
  5
1D0
330
2
100
AcDbEntity
  8
GAIKEI
  6
Continuous
 62
     1
100
AcDbSpline
210
0.0
220
0.0
230
1.0
 70
     8
 71
     3
 72
     9
 73
     5
 74
     3
 42
0.0000000001
 43
0.0000000001
 44
0.000001
 12
-0.0006415001725412
 22
-0.9999997942387432
 32
0.0
 13
-0.9999999997546614
 23
0.0000221512341493
 33
0.0
 40
0.0
 40
0.0
 40
0.0
 40
0.0
 40
0.4107842435658897
 40
0.7796081822822263
 40
0.7796081822822263
 40
0.7796081822822263
 40
0.7796081822822263
 10
41.38272715651157
 20
9.817956442396621
 30
0.0
 10
41.38263931712387
 20
9.681028389382504
 30
0.0
 10
41.25488535308311
 20
9.409495373370248
 30
0.0
 10
40.98362257094935
 20
9.322470320657316
 30
0.0
 10
40.86068125807407
 20
9.322473043959121
 30
0.0
 11
41.38272715651157
 21
9.817956442396621
 31
0.0
 11
41.20816660963657
 21
9.446105856459098
 31
0.0
 11
40.86068125807407
 21
9.322473043959121
 31
0.0
  0
LINE
  5
1D1
330
2
100
AcDbEntity
  8
GAIKEI
  6
Continuous
 62
     1
100
AcDbLine
 10
41.38272716783967
 20
14.17833246114662
 30
0.0
 11
41.38272716783967
 21
9.817956461146593
 31
0.0
  0
SPLINE
  5
1D2
330
2
100
AcDbEntity
  8
GAIKEI
  6
Continuous
 62
     1
100
AcDbSpline
210
0.0
220
0.0
230
1.0
 70
     8
 71
     3
 72
     9
 73
     5
 74
     3
 42
0.0000000001
 43
0.0000000001
 44
0.000001
 12
0.9999999945136631
 22
-0.0001047505321455
 32
0.0
 13
-0.0000507765463937
 23
-0.9999999987108711
 33
0.0
 40
0.0
 40
0.0
 40
0.0
 40
0.0
 40
0.2250236102898451
 40
0.7670415735727462
 40
0.7670415735727462
 40
0.7670415735727462
 40
0.7670415735727462
 10
40.86068125807407
 20
14.67384023145911
 30
0.0
 10
40.93568912775916
 20
14.67383237434478
 30
0.0
 10
41.19371036689929
 20
14.63042951556656
 30
0.0
 10
41.382736330445
 20
14.3590539012788
 30
0.0
 10
41.38272715651157
 20
14.17838124708407
 30
0.0
 11
40.86068125807407
 21
14.67384023145911
 31
0.0
 11
41.08114024244907
 21
14.62874745802162
 31
0.0
 11
41.38272715651157
 21
14.17838124708407
 31
0.0
  0
LINE
  5
1D3
330
2
100
AcDbEntity
  8
GAIKEI
  6
Continuous
 62
     1
100
AcDbLine
 10
39.01185316783966
 20
14.67381586114658
 30
0.0
 11
40.86068126783965
 21
14.67381586114658
 31
0.0
  0
LINE
  5
1D4
330
2
100
AcDbEntity
  8
GAIKEI
  6
Continuous
 62
     1
100
AcDbLine
 10
39.0118530678397
 20
16.64815666114657
 30
0.0
 11
39.0118530678397
 21
14.67381576114661
 31
0.0
  0
ARC
  5
1D5
330
2
100
AcDbEntity
  8
GAIKEI
  6
Continuous
 62
     1
100
AcDbCircle
 10
38.63309336783965
 20
16.64815666114657
 30
0.0
 40
0.3787605999999998
100
AcDbArc
 50
359.9999820000008
 51
89.99996400000158
  0
LINE
  5
1D6
330
2
100
AcDbEntity
  8
GAIKEI
  6
Continuous
 62
     1
100
AcDbLine
 10
17.49888812578513
 20
17.02691636114662
 30
0.0
 11
38.6330933678397
 21
17.02691636114662
 31
0.0
  0
ARC
  5
1D7
330
2
100
AcDbEntity
  8
GAIKEI
  6
Continuous
 62
     1
100
AcDbCircle
 10
17.49888812578513
 20
16.64815666114657
 30
0.0
 40
0.3787605999999998
100
AcDbArc
 50
89.99996400000158
 51
180.0000009999949
  0
LINE
  5
1D8
330
2
100
AcDbEntity
  8
GAIKEI
  6
Continuous
 62
     1
100
AcDbLine
 10
17.12007952578511
 20
7.348156661146617
 30
0.0
 11
17.12007952578511
 21
16.64815666114657
 31
0.0
  0
ARC
  5
1D9
330
2
100
AcDbEntity
  8
GAIKEI
  6
Continuous
 62
     1
100
AcDbCircle
 10
17.49888812578513
 20
7.348156661146617
 30
0.0
 40
0.3787605999999998
100
AcDbArc
 50
180.0000009999949
 51
269.999982999999
  0
LINE
  5
1DA
330
2
100
AcDbEntity
  8
GAIKEI
  6
Continuous
 62
     1
100
AcDbLine
 10
38.6330933678397
 20
6.969396861146606
 30
0.0
 11
17.49888812578513
 21
6.969396861146606
 31
0.0
  0
ARC
  5
1DB
330
2
100
AcDbEntity
  8
GAIKEI
  6
Continuous
 62
     1
100
AcDbCircle
 10
38.63309336783965
 20
7.348156661146617
 30
0.0
 40
0.3787605999999998
100
AcDbArc
 50
270.0
 51
359.9999820000008
  0
LINE
  5
1DC
330
2
100
AcDbEntity
  8
GAIKEI
  6
Continuous
 62
     1
100
AcDbLine
 10
39.0118530678397
 20
9.322473061146581
 30
0.0
 11
39.0118530678397
 21
7.348156661146617
 31
0.0
  0
ARC
  5
1DD
330
2
100
AcDbEntity
  8
GAIKEI
  6
Continuous
100
AcDbCircle
 10
54.23915356783965
 20
19.59815666114662
 30
0.0
 40
0.15
100
AcDbArc
 50
359.9999820000008
 51
89.99996400000158
  0
LINE
  5
1DE
330
2
100
AcDbEntity
  8
GAIKEI
  6
Continuous
 62
     1
100
AcDbLine
 10
12.27310036783967
 20
19.74815666114659
 30
0.0
 11
12.27310036783967
 21
4.248156661146595
 31
0.0
  0
CIRCLE
  5
1DF
330
2
100
AcDbEntity
  8
GAIKEI
  6
Continuous
 62
     1
100
AcDbCircle
 10
14.47310036783966
 20
7.288146861146628
 30
0.0
 40
0.4299999999999998
  0
CIRCLE
  5
1E0
330
2
100
AcDbEntity
  8
GAIKEI
  6
Continuous
 62
     1
100
AcDbCircle
 10
14.47310036783966
 20
7.288146861146628
 30
0.0
 40
0.4905501
  0
CIRCLE
  5
1E1
330
2
100
AcDbEntity
  8
GAIKEI
  6
Continuous
 62
     1
100
AcDbCircle
 10
49.07308356783966
 20
7.288146861146628
 30
0.0
 40
0.4905501
  0
CIRCLE
  5
1E2
330
2
100
AcDbEntity
  8
GAIKEI
  6
Continuous
 62
     1
100
AcDbCircle
 10
49.07308356783966
 20
7.288146861146628
 30
0.0
 40
0.4406187
  0
LINE
  5
1E3
330
2
100
AcDbEntity
  8
GAIKEI
  6
Continuous
 62
     1
100
AcDbLine
 10
12.37310066783965
 20
4.24815386114659
 30
0.0
 11
12.38880906783964
 21
6.048158561146578
 31
0.0
  0
LINE
  5
1E4
330
2
100
AcDbEntity
  8
GAIKEI
  6
Continuous
100
AcDbLine
 10
12.27310036783967
 20
19.74815666114659
 30
0.0
 11
54.23915356783971
 21
19.74815666114659
 31
0.0
  0
LINE
  5
1E5
330
2
100
AcDbEntity
  8
GAIKEI
  6
Continuous
 62
     1
100
AcDbLine
 10
12.38880926783963
 20
6.048156661146606
 30
0.0
 11
54.38915356783971
 21
6.048156661146663
 31
0.0
  0
ARC
  5
1E6
330
2
100
AcDbEntity
  8
GAIKEI
  6
Continuous
100
AcDbCircle
 10
12.27310036783967
 20
19.54815666114655
 30
0.0
 40
0.2
100
AcDbArc
 50
89.99996400000158
 51
180.0000009999949
  0
LINE
  5
1E7
330
2
100
AcDbEntity
  8
GAIKEI
  6
Continuous
100
AcDbLine
 10
12.07310036783963
 20
17.50814196114658
 30
0.0
 11
12.07310036783963
 21
19.5481566611466
 31
0.0
  0
LINE
  5
1E8
330
2
100
AcDbEntity
  8
GAIKEI
  6
Continuous
100
AcDbLine
 10
12.07310036783963
 20
6.488146861146617
 30
0.0
 11
12.07310036783963
 21
17.50814196114658
 31
0.0
  0
LINE
  5
1E9
330
2
100
AcDbEntity
  8
GAIKEI
  6
Continuous
100
AcDbLine
 10
12.07310036783963
 20
4.448156661146583
 30
0.0
 11
12.07310036783963
 21
6.488146861146617
 31
0.0
  0
ARC
  5
1EA
330
2
100
AcDbEntity
  8
GAIKEI
  6
Continuous
100
AcDbCircle
 10
12.27310036783967
 20
4.448156661146583
 30
0.0
 40
0.2
100
AcDbArc
 50
180.0000009999949
 51
269.999982999999
  0
LINE
  5
1EB
330
2
100
AcDbEntity
  8
GAIKEI
  6
Continuous
100
AcDbLine
 10
54.38915356783969
 20
17.50814196114658
 30
0.0
 11
54.38915356783969
 21
4.448156661146583
 31
0.0
  0
LINE
  5
1EC
330
2
100
AcDbEntity
  8
GAIKEI
  6
Continuous
100
AcDbLine
 10
54.38915356783969
 20
19.59815666114662
 30
0.0
 11
54.38915356783969
 21
17.50814196114658
 31
0.0
  0
LINE
  5
1ED
330
2
100
AcDbEntity
  8
GAIKEI
  6
Continuous
100
AcDbLine
 10
12.37310036783964
 20
4.248156661146595
 30
0.0
 11
12.27310036783967
 21
4.248156661146595
 31
0.0
  0
CIRCLE
  5
1EE
330
2
100
AcDbEntity
  8
GAIKEI
  6
Continuous
 62
     1
100
AcDbCircle
 10
49.07308356783966
 20
7.288146861146628
 30
0.0
 40
0.2299999000000001
  0
CIRCLE
  5
1EF
330
2
100
AcDbEntity
  8
GAIKEI
  6
Continuous
 62
     1
100
AcDbCircle
 10
14.47310036783966
 20
7.288146861146628
 30
0.0
 40
0.2299999000000001
  0
LINE
  5
1F0
330
2
100
AcDbEntity
  8
GAIKEI
  6
Continuous
 62
     1
100
AcDbLine
 10
48.42308356783968
 20
2.639440861146567
 30
0.0
 11
48.42308356783968
 21
4.248156661146595
 31
0.0
  0
LINE
  5
1F1
330
2
100
AcDbEntity
  8
GAIKEI
  6
Continuous
 62
     1
100
AcDbLine
 10
47.92308356783968
 20
2.639440861146567
 30
0.0
 11
47.92308356783968
 21
4.248156661146595
 31
0.0
  0
LINE
  5
1F2
330
2
100
AcDbEntity
  8
GAIKEI
  6
Continuous
 62
     1
100
AcDbLine
 10
47.41510016783968
 20
2.639440861146567
 30
0.0
 11
47.92308356783968
 21
2.639440861146567
 31
0.0
  0
LINE
  5
1F3
330
2
100
AcDbEntity
  8
GAIKEI
  6
Continuous
 62
     1
100
AcDbLine
 10
47.92308356783968
 20
2.639440861146567
 30
0.0
 11
48.42308356783968
 21
2.639440861146567
 31
0.0
  0
LINE
  5
1F4
330
2
100
AcDbEntity
  8
GAIKEI
  6
Continuous
 62
     1
100
AcDbLine
 10
47.92308356783968
 20
2.548156661146606
 30
0.0
 11
47.92308356783968
 21
2.639440861146567
 31
0.0
  0
LINE
  5
1F5
330
2
100
AcDbEntity
  8
GAIKEI
  6
Continuous
 62
     1
100
AcDbLine
 10
48.42308356783968
 20
2.639440861146567
 30
0.0
 11
48.93106696783968
 21
2.639440861146567
 31
0.0
  0
LINE
  5
1F6
330
2
100
AcDbEntity
  8
GAIKEI
  6
Continuous
 62
     1
100
AcDbLine
 10
48.42308356783968
 20
2.548156661146606
 30
0.0
 11
48.42308356783968
 21
2.639440861146567
 31
0.0
  0
LINE
  5
1F7
330
2
100
AcDbEntity
  8
GAIKEI
  6
Continuous
 62
     1
100
AcDbLine
 10
17.23310086783965
 20
3.848156661146617
 30
0.0
 11
17.23310086783965
 21
4.198156661146583
 31
0.0
  0
LINE
  5
1F8
330
2
100
AcDbEntity
  8
GAIKEI
  6
Continuous
 62
     1
100
AcDbLine
 10
21.43309326783964
 20
3.848156661146617
 30
0.0
 11
21.43309326783964
 21
4.248156661146595
 31
0.0
  0
LINE
  5
1F9
330
2
100
AcDbEntity
  8
GAIKEI
  6
Continuous
 62
     1
100
AcDbLine
 10
21.43309326783964
 20
3.848156661146617
 30
0.0
 11
21.83170166783964
 21
3.848156661146617
 31
0.0
  0
LINE
  5
1FA
330
2
100
AcDbEntity
  8
GAIKEI
  6
Continuous
 62
     1
100
AcDbLine
 10
17.23310096783967
 20
3.848156661146617
 30
0.0
 11
21.43309326783964
 21
3.848156661146617
 31
0.0
  0
LINE
  5
1FB
330
2
100
AcDbEntity
  8
GAIKEI
  6
Continuous
 62
     1
100
AcDbLine
 10
21.43309326783964
 20
3.848156561146595
 30
0.0
 11
21.43309326783964
 21
3.748156561146629
 31
0.0
  0
LINE
  5
1FC
330
2
100
AcDbEntity
  8
GAIKEI
  6
Continuous
 62
     1
100
AcDbLine
 10
16.92310036783965
 20
3.848156661146617
 30
0.0
 11
17.23310096783967
 21
3.848156661146617
 31
0.0
  0
LINE
  5
1FD
330
2
100
AcDbEntity
  8
GAIKEI
  6
Continuous
 62
     1
100
AcDbLine
 10
17.23310096783967
 20
3.848156661146617
 30
0.0
 11
17.23310096783967
 21
3.748156661146595
 31
0.0
  0
LINE
  5
1FE
330
2
100
AcDbEntity
  8
GAIKEI
  6
Continuous
 62
     1
100
AcDbLine
 10
17.59019786783966
 20
4.228137061146583
 30
0.0
 11
17.59019786783966
 21
4.248156661146595
 31
0.0
  0
LINE
  5
1FF
330
2
100
AcDbEntity
  8
GAIKEI
  6
Continuous
 62
     1
100
AcDbLine
 10
16.19020246783964
 20
4.248156661146595
 30
0.0
 11
16.19020246783964
 21
4.228137061146583
 31
0.0
  0
SPLINE
  5
200
330
2
100
AcDbEntity
  8
GAIKEI
  6
Continuous
 62
     1
100
AcDbSpline
210
0.0
220
0.0
230
1.0
 70
     8
 71
     3
 72
     9
 73
     5
 74
     3
 42
0.0000000001
 43
0.0000000001
 44
0.000001
 12
0.9999999097983575
 22
-0.0004247390692515
 32
0.0
 13
0.0001999441164461
 23
0.999999980011175
 33
0.0
 40
0.0
 40
0.0
 40
0.0
 40
0.0
 40
0.022814713321308
 40
0.0456255157913758
 40
0.0456255157913758
 40
0.0456255157913758
 40
0.0456255157913758
 10
17.56019297682405
 20
4.198156637709075
 30
0.0
 10
17.56779788057851
 20
4.198153407609026
 30
0.0
 10
17.58327620032452
 20
4.205060249242762
 30
0.0
 10
17.59019633934129
 20
4.220533505787727
 30
0.0
 10
17.59019785963653
 20
4.228137106459087
 30
0.0
 11
17.56019297682405
 21
4.198156637709075
 31
0.0
 11
17.58113832045012
 21
4.207202103313761
 31
0.0
 11
17.59019785963653
 21
4.228137106459087
 31
0.0
  0
SPLINE
  5
201
330
2
100
AcDbEntity
  8
GAIKEI
  6
Continuous
 62
     1
100
AcDbSpline
210
0.0
220
0.0
230
1.0
 70
     8
 71
     3
 72
     9
 73
     5
 74
     3
 42
0.0000000001
 43
0.0000000001
 44
0.000001
 12
-0.0000359801859974
 22
-0.9999999993527131
 32
0.0
 13
0.9999999098410434
 23
0.0004246385583656
 33
0.0
 40
0.0
 40
0.0
 40
0.0
 40
0.0
 40
0.0228091183272015
 40
0.0456250117216535
 40
0.0456250117216535
 40
0.0456250117216535
 40
0.0456250117216535
 10
16.19020243727328
 20
4.228137106459087
 30
0.0
 10
16.19020216371452
 20
4.220534067021617
 30
0.0
 10
16.19711940330676
 20
4.205058460824375
 30
0.0
 10
16.2125989712155
 20
4.198153408206394
 30
0.0
 10
16.22020426832796
 20
4.198156637709075
 30
0.0
 11
16.19020243727328
 21
4.228137106459087
 31
0.0
 11
16.19925761814767
 21
4.207202051149693
 31
0.0
 11
16.22020426832796
 21
4.198156637709075
 31
0.0
  0
LINE
  5
202
330
2
100
AcDbEntity
  8
GAIKEI
  6
Continuous
 62
     1
100
AcDbLine
 10
-35.1169649605348
 20
2.348156361146607
 30
0.0
 11
-34.91696496053481
 21
2.348156361146607
 31
0.0
  0
LINE
  5
203
330
2
100
AcDbEntity
  8
GAIKEI
  6
Continuous
 62
     1
100
AcDbLine
 10
-34.91696496053481
 20
2.348156361146607
 30
0.0
 11
-34.91696496053481
 21
2.148157361146559
 31
0.0
  0
LINE
  5
204
330
2
100
AcDbEntity
  8
GAIKEI
  6
Continuous
 62
     1
100
AcDbLine
 10
-30.31696496053485
 20
2.148157361146559
 30
0.0
 11
-30.31696496053485
 21
2.348156361146607
 31
0.0
  0
LINE
  5
205
330
2
100
AcDbEntity
  8
GAIKEI
  6
Continuous
 62
     1
100
AcDbLine
 10
-30.31696496053485
 20
2.348156361146607
 30
0.0
 11
-30.1169649605348
 21
2.348156361146607
 31
0.0
  0
LINE
  5
206
330
2
100
AcDbEntity
  8
GAIKEI
  6
Continuous
 62
     1
100
AcDbLine
 10
-30.31696496053485
 20
2.348156361146607
 30
0.0
 11
-30.31696496053485
 21
2.548156361146595
 31
0.0
  0
LINE
  5
207
330
2
100
AcDbEntity
  8
GAIKEI
  6
Continuous
 62
     1
100
AcDbLine
 10
-34.91696496053481
 20
2.348156361146607
 30
0.0
 11
-30.31696496053485
 21
2.348156361146607
 31
0.0
  0
LINE
  5
208
330
2
100
AcDbEntity
  8
GAIKEI
  6
Continuous
 62
     1
100
AcDbLine
 10
-34.91696496053481
 20
2.548156361146595
 30
0.0
 11
-34.91696496053481
 21
2.348156361146607
 31
0.0
  0
ARC
  5
209
330
2
100
AcDbEntity
  8
GAIKEI
  6
Continuous
 62
     1
100
AcDbCircle
 10
-34.91696496053481
 20
2.348156361146607
 30
0.0
 40
0.2
100
AcDbArc
 50
179.9999640000016
 51
270.0000009999949
  0
ARC
  5
20A
330
2
100
AcDbEntity
  8
GAIKEI
  6
Continuous
 62
     1
100
AcDbCircle
 10
-30.31696496053485
 20
2.348156361146607
 30
0.0
 40
0.2
100
AcDbArc
 50
270.0000009999949
 51
359.999982999999
  0
LINE
  5
20B
330
2
100
AcDbEntity
  8
GAIKEI
  6
Continuous
 62
     1
100
AcDbLine
 10
-30.1169649605348
 20
2.548154861146599
 30
0.0
 11
-30.1169649605348
 21
2.348156361146607
 31
0.0
  0
LINE
  5
20C
330
2
100
AcDbEntity
  8
GAIKEI
  6
Continuous
 62
     1
100
AcDbLine
 10
-35.1169649605348
 20
2.348156361146607
 30
0.0
 11
-35.1169649605348
 21
2.548154861146599
 31
0.0
  0
LINE
  5
20D
330
2
100
AcDbEntity
  8
GAIKEI
  6
Continuous
 62
     1
100
AcDbLine
 10
-30.31696496053485
 20
2.148157361146559
 30
0.0
 11
-34.91696496053481
 21
2.148157361146559
 31
0.0
  0
ARC
  5
20E
330
2
100
AcDbEntity
  8
GAIKEI
  6
Continuous
100
AcDbCircle
 10
-11.81696496053485
 20
5.148156361146561
 30
0.0
 40
3.0
100
AcDbArc
 50
240.0734999999936
 51
255.1648300000048
  0
ARC
  5
20F
330
2
100
AcDbEntity
  8
GAIKEI
  6
Continuous
100
AcDbCircle
 10
-11.81696496053485
 20
5.148156361146561
 30
0.0
 40
3.0
100
AcDbArc
 50
284.8351169999978
 51
299.9264469999964
  0
LINE
  5
210
330
2
100
AcDbEntity
  8
GAIKEI
  6
Continuous
100
AcDbLine
 10
-13.81208216053483
 20
4.148156361146561
 30
0.0
 11
-13.81208216053483
 21
2.548156361146595
 31
0.0
  0
LINE
  5
211
330
2
100
AcDbEntity
  8
GAIKEI
  6
Continuous
 62
     1
100
AcDbLine
 10
-13.7975069605348
 20
4.148156361146561
 30
0.0
 11
-13.7975069605348
 21
2.548156361146595
 31
0.0
  0
LINE
  5
212
330
2
100
AcDbEntity
  8
GAIKEI
  6
Continuous
 62
     1
100
AcDbLine
 10
-13.76935756053484
 20
4.148156361146561
 30
0.0
 11
-13.76935756053484
 21
2.548156361146595
 31
0.0
  0
LINE
  5
213
330
2
100
AcDbEntity
  8
GAIKEI
  6
Continuous
 62
     1
100
AcDbLine
 10
-13.73945036053487
 20
4.148156361146561
 30
0.0
 11
-13.73945036053487
 21
2.548156361146595
 31
0.0
  0
LINE
  5
214
330
2
100
AcDbEntity
  8
GAIKEI
  6
Continuous
 62
     1
100
AcDbLine
 10
-13.69635946053483
 20
4.148156361146561
 30
0.0
 11
-13.69635946053483
 21
2.548156361146595
 31
0.0
  0
LINE
  5
215
330
2
100
AcDbEntity
  8
GAIKEI
  6
Continuous
 62
     1
100
AcDbLine
 10
-13.66725796053487
 20
4.148156361146561
 30
0.0
 11
-13.66725796053487
 21
2.548156361146595
 31
0.0
  0
LINE
  5
216
330
2
100
AcDbEntity
  8
GAIKEI
  6
Continuous
 62
     1
100
AcDbLine
 10
-13.58280966053485
 20
4.148156361146561
 30
0.0
 11
-13.58280966053485
 21
2.548156361146595
 31
0.0
  0
LINE
  5
217
330
2
100
AcDbEntity
  8
GAIKEI
  6
Continuous
 62
     1
100
AcDbLine
 10
-13.51308316053485
 20
4.148156361146561
 30
0.0
 11
-13.51308316053485
 21
2.548156361146595
 31
0.0
  0
LINE
  5
218
330
2
100
AcDbEntity
  8
GAIKEI
  6
Continuous
 62
     1
100
AcDbLine
 10
-13.48429896053483
 20
4.148156361146561
 30
0.0
 11
-13.48429896053483
 21
2.548156361146595
 31
0.0
  0
LINE
  5
219
330
2
100
AcDbEntity
  8
GAIKEI
  6
Continuous
 62
     1
100
AcDbLine
 10
-13.34899616053485
 20
4.148156361146561
 30
0.0
 11
-13.34899616053485
 21
2.548156361146595
 31
0.0
  0
LINE
  5
21A
330
2
100
AcDbEntity
  8
GAIKEI
  6
Continuous
 62
     1
100
AcDbLine
 10
-13.25568566053482
 20
4.148156361146561
 30
0.0
 11
-13.25568566053482
 21
2.548156361146595
 31
0.0
  0
LINE
  5
21B
330
2
100
AcDbEntity
  8
GAIKEI
  6
Continuous
 62
     1
100
AcDbLine
 10
-13.22848836053487
 20
4.148156361146561
 30
0.0
 11
-13.22848836053487
 21
2.548156361146595
 31
0.0
  0
LINE
  5
21C
330
2
100
AcDbEntity
  8
GAIKEI
  6
Continuous
 62
     1
100
AcDbLine
 10
-13.04821496053483
 20
4.148156361146561
 30
0.0
 11
-13.04821496053483
 21
2.548156361146595
 31
0.0
  0
LINE
  5
21D
330
2
100
AcDbEntity
  8
GAIKEI
  6
Continuous
 62
     1
100
AcDbLine
 10
-12.93542196053482
 20
4.148156361146561
 30
0.0
 11
-12.93542196053482
 21
2.548156361146595
 31
0.0
  0
LINE
  5
21E
330
2
100
AcDbEntity
  8
GAIKEI
  6
Continuous
 62
     1
100
AcDbLine
 10
-12.91095906053488
 20
4.148156361146561
 30
0.0
 11
-12.91095906053488
 21
2.548156361146595
 31
0.0
  0
LINE
  5
21F
330
2
100
AcDbEntity
  8
GAIKEI
  6
Continuous
 62
     1
100
AcDbLine
 10
-12.69362516053479
 20
4.148156361146561
 30
0.0
 11
-12.69362516053479
 21
2.548156361146595
 31
0.0
  0
LINE
  5
220
330
2
100
AcDbEntity
  8
GAIKEI
  6
Continuous
 62
     1
100
AcDbLine
 10
-12.56623256053484
 20
4.148156361146561
 30
0.0
 11
-12.56623256053484
 21
2.548156361146595
 31
0.0
  0
LINE
  5
221
330
2
100
AcDbEntity
  8
GAIKEI
  6
Continuous
 62
     1
100
AcDbLine
 10
-12.5456270605348
 20
4.148156361146561
 30
0.0
 11
-12.5456270605348
 21
2.548156361146595
 31
0.0
  0
LINE
  5
222
330
2
100
AcDbEntity
  8
GAIKEI
  6
Continuous
 62
     1
100
AcDbLine
 10
-12.30527066053486
 20
4.148156361146561
 30
0.0
 11
-12.30527066053486
 21
2.548156361146595
 31
0.0
  0
LINE
  5
223
330
2
100
AcDbEntity
  8
GAIKEI
  6
Continuous
 62
     1
100
AcDbLine
 10
-12.30070516053485
 20
4.148156361146561
 30
0.0
 11
-12.30070516053485
 21
2.548156361146595
 31
0.0
  0
LINE
  5
224
330
2
100
AcDbEntity
  8
GAIKEI
  6
Continuous
 62
     1
100
AcDbLine
 10
-12.16432826053483
 20
4.148156361146561
 30
0.0
 11
-12.16432826053483
 21
2.548156361146595
 31
0.0
  0
LINE
  5
225
330
2
100
AcDbEntity
  8
GAIKEI
  6
Continuous
 62
     1
100
AcDbLine
 10
-12.14845906053483
 20
4.148156361146561
 30
0.0
 11
-12.14845906053483
 21
2.548156361146595
 31
0.0
  0
LINE
  5
226
330
2
100
AcDbEntity
  8
GAIKEI
  6
Continuous
 62
     1
100
AcDbLine
 10
-11.89714076053485
 20
4.148156361146561
 30
0.0
 11
-11.89714076053485
 21
2.548156361146595
 31
0.0
  0
LINE
  5
227
330
2
100
AcDbEntity
  8
GAIKEI
  6
Continuous
 62
     1
100
AcDbLine
 10
-11.88666706053482
 20
4.148156361146561
 30
0.0
 11
-11.88666706053482
 21
2.548156361146595
 31
0.0
  0
LINE
  5
228
330
2
100
AcDbEntity
  8
GAIKEI
  6
Continuous
 62
     1
100
AcDbLine
 10
-11.74723836053488
 20
4.148156361146561
 30
0.0
 11
-11.74723836053488
 21
2.548156361146595
 31
0.0
  0
LINE
  5
229
330
2
100
AcDbEntity
  8
GAIKEI
  6
Continuous
 62
     1
100
AcDbLine
 10
-11.73678916053484
 20
4.148156361146561
 30
0.0
 11
-11.73678916053484
 21
2.548156361146595
 31
0.0
  0
LINE
  5
22A
330
2
100
AcDbEntity
  8
GAIKEI
  6
Continuous
 62
     1
100
AcDbLine
 10
-11.4854708605348
 20
4.148156361146561
 30
0.0
 11
-11.4854708605348
 21
2.548156361146595
 31
0.0
  0
LINE
  5
22B
330
2
100
AcDbEntity
  8
GAIKEI
  6
Continuous
 62
     1
100
AcDbLine
 10
-11.46957726053483
 20
4.148156361146561
 30
0.0
 11
-11.46957726053483
 21
2.548156361146595
 31
0.0
  0
LINE
  5
22C
330
2
100
AcDbEntity
  8
GAIKEI
  6
Continuous
 62
     1
100
AcDbLine
 10
-11.33317586053488
 20
4.148156361146561
 30
0.0
 11
-11.33317586053488
 21
2.548156361146595
 31
0.0
  0
LINE
  5
22D
330
2
100
AcDbEntity
  8
GAIKEI
  6
Continuous
 62
     1
100
AcDbLine
 10
-11.3286348605348
 20
4.148156361146561
 30
0.0
 11
-11.3286348605348
 21
2.548156361146595
 31
0.0
  0
LINE
  5
22E
330
2
100
AcDbEntity
  8
GAIKEI
  6
Continuous
 62
     1
100
AcDbLine
 10
-11.08827846053481
 20
4.148156361146561
 30
0.0
 11
-11.08827846053481
 21
2.548156361146595
 31
0.0
  0
LINE
  5
22F
330
2
100
AcDbEntity
  8
GAIKEI
  6
Continuous
 62
     1
100
AcDbLine
 10
-11.06767296053488
 20
4.148156361146561
 30
0.0
 11
-11.06767296053488
 21
2.548156361146595
 31
0.0
  0
LINE
  5
230
330
2
100
AcDbEntity
  8
GAIKEI
  6
Continuous
 62
     1
100
AcDbLine
 10
-10.72294636053482
 20
4.148156361146561
 30
0.0
 11
-10.72294636053482
 21
2.548156361146595
 31
0.0
  0
LINE
  5
231
330
2
100
AcDbEntity
  8
GAIKEI
  6
Continuous
 62
     1
100
AcDbLine
 10
-10.69850796053487
 20
4.148156361146561
 30
0.0
 11
-10.69850796053487
 21
2.548156361146595
 31
0.0
  0
LINE
  5
232
330
2
100
AcDbEntity
  8
GAIKEI
  6
Continuous
 62
     1
100
AcDbLine
 10
-10.58569056053483
 20
4.148156361146561
 30
0.0
 11
-10.58569056053483
 21
2.548156361146595
 31
0.0
  0
LINE
  5
233
330
2
100
AcDbEntity
  8
GAIKEI
  6
Continuous
 62
     1
100
AcDbLine
 10
-10.40541706053483
 20
4.148156361146561
 30
0.0
 11
-10.40541706053483
 21
2.548156361146595
 31
0.0
  0
LINE
  5
234
330
2
100
AcDbEntity
  8
GAIKEI
  6
Continuous
 62
     1
100
AcDbLine
 10
-10.37821986053484
 20
4.148156361146561
 30
0.0
 11
-10.37821986053484
 21
2.548156361146595
 31
0.0
  0
LINE
  5
235
330
2
100
AcDbEntity
  8
GAIKEI
  6
Continuous
 62
     1
100
AcDbLine
 10
-10.28490926053484
 20
4.148156361146561
 30
0.0
 11
-10.28490926053484
 21
2.548156361146595
 31
0.0
  0
LINE
  5
236
330
2
100
AcDbEntity
  8
GAIKEI
  6
Continuous
 62
     1
100
AcDbLine
 10
-10.14960656053483
 20
4.148156361146561
 30
0.0
 11
-10.14960656053483
 21
2.548156361146595
 31
0.0
  0
LINE
  5
237
330
2
100
AcDbEntity
  8
GAIKEI
  6
Continuous
 62
     1
100
AcDbLine
 10
-10.12082236053482
 20
4.148156361146561
 30
0.0
 11
-10.12082236053482
 21
2.548156361146595
 31
0.0
  0
LINE
  5
238
330
2
100
AcDbEntity
  8
GAIKEI
  6
Continuous
 62
     1
100
AcDbLine
 10
-10.05109586053481
 20
4.148156361146561
 30
0.0
 11
-10.05109586053481
 21
2.548156361146595
 31
0.0
  0
LINE
  5
239
330
2
100
AcDbEntity
  8
GAIKEI
  6
Continuous
 62
     1
100
AcDbLine
 10
-9.966647560534852
 20
4.148156361146561
 30
0.0
 11
-9.966647560534852
 21
2.548156361146595
 31
0.0
  0
LINE
  5
23A
330
2
100
AcDbEntity
  8
GAIKEI
  6
Continuous
 62
     1
100
AcDbLine
 10
-9.937546060534828
 20
4.148156361146561
 30
0.0
 11
-9.937546060534828
 21
2.548156361146595
 31
0.0
  0
LINE
  5
23B
330
2
100
AcDbEntity
  8
GAIKEI
  6
Continuous
 62
     1
100
AcDbLine
 10
-9.894455160534846
 20
4.148156361146561
 30
0.0
 11
-9.894455160534846
 21
2.548156361146595
 31
0.0
  0
LINE
  5
23C
330
2
100
AcDbEntity
  8
GAIKEI
  6
Continuous
 62
     1
100
AcDbLine
 10
-9.864572360534793
 20
4.148156361146561
 30
0.0
 11
-9.864572360534793
 21
2.548156361146595
 31
0.0
  0
LINE
  5
23D
330
2
100
AcDbEntity
  8
GAIKEI
  6
Continuous
 62
     1
100
AcDbLine
 10
-9.83639856053486
 20
4.148156361146561
 30
0.0
 11
-9.83639856053486
 21
2.548156361146595
 31
0.0
  0
LINE
  5
23E
330
2
100
AcDbEntity
  8
GAIKEI
  6
Continuous
100
AcDbLine
 10
-9.821823360534835
 20
4.148156361146561
 30
0.0
 11
-9.821823360534835
 21
2.548156361146595
 31
0.0
  0
LINE
  5
23F
330
2
100
AcDbEntity
  8
GAIKEI
  6
Continuous
100
AcDbLine
 10
-11.04884976053483
 20
4.148156361146561
 30
0.0
 11
-11.04884976053483
 21
4.248156361146584
 31
0.0
  0
LINE
  5
240
330
2
100
AcDbEntity
  8
GAIKEI
  6
Continuous
100
AcDbLine
 10
-12.58508016053486
 20
4.248156361146584
 30
0.0
 11
-12.58508016053486
 21
4.148156361146561
 31
0.0
  0
LINE
  5
241
330
2
100
AcDbEntity
  8
GAIKEI
  6
Continuous
100
AcDbLine
 10
-13.81208216053483
 20
2.548156361146595
 30
0.0
 11
-13.7975069605348
 21
2.548156361146595
 31
0.0
  0
LINE
  5
242
330
2
100
AcDbEntity
  8
GAIKEI
  6
Continuous
100
AcDbLine
 10
-13.7975069605348
 20
2.548156361146595
 30
0.0
 11
-13.76935756053484
 21
2.548156361146595
 31
0.0
  0
LINE
  5
243
330
2
100
AcDbEntity
  8
GAIKEI
  6
Continuous
100
AcDbLine
 10
-13.76935756053484
 20
2.548154861146599
 30
0.0
 11
-13.73945036053487
 21
2.548154861146599
 31
0.0
  0
LINE
  5
244
330
2
100
AcDbEntity
  8
GAIKEI
  6
Continuous
100
AcDbLine
 10
-13.73945036053487
 20
2.548156361146595
 30
0.0
 11
-13.69638386053486
 21
2.548156361146595
 31
0.0
  0
LINE
  5
245
330
2
100
AcDbEntity
  8
GAIKEI
  6
Continuous
100
AcDbLine
 10
-13.69635946053483
 20
2.548156361146595
 30
0.0
 11
-13.66725796053487
 21
2.548156361146595
 31
0.0
  0
LINE
  5
246
330
2
100
AcDbEntity
  8
GAIKEI
  6
Continuous
100
AcDbLine
 10
-13.66725796053487
 20
2.548156361146595
 30
0.0
 11
-13.58280966053485
 21
2.548156361146595
 31
0.0
  0
LINE
  5
247
330
2
100
AcDbEntity
  8
GAIKEI
  6
Continuous
100
AcDbLine
 10
-13.58278526053482
 20
2.548156361146595
 30
0.0
 11
-13.58280966053485
 21
2.548156361146595
 31
0.0
  0
LINE
  5
248
330
2
100
AcDbEntity
  8
GAIKEI
  6
Continuous
100
AcDbLine
 10
-13.58280966053485
 20
2.548156361146595
 30
0.0
 11
-13.51310756053488
 21
2.548156361146595
 31
0.0
  0
LINE
  5
249
330
2
100
AcDbEntity
  8
GAIKEI
  6
Continuous
100
AcDbLine
 10
-13.51308316053485
 20
2.548156361146595
 30
0.0
 11
-13.48429896053483
 21
2.548156361146595
 31
0.0
  0
LINE
  5
24A
330
2
100
AcDbEntity
  8
GAIKEI
  6
Continuous
100
AcDbLine
 10
-13.48429856053485
 20
2.548155061146587
 30
0.0
 11
-13.34899586053484
 21
2.548156761146572
 31
0.0
  0
LINE
  5
24B
330
2
100
AcDbEntity
  8
GAIKEI
  6
Continuous
100
AcDbLine
 10
-13.34897176053482
 20
2.548156361146595
 30
0.0
 11
-13.34899616053485
 21
2.548156361146595
 31
0.0
  0
LINE
  5
24C
330
2
100
AcDbEntity
  8
GAIKEI
  6
Continuous
100
AcDbLine
 10
-13.34899616053485
 20
2.548156361146595
 30
0.0
 11
-13.25571006053485
 21
2.548156361146595
 31
0.0
  0
LINE
  5
24D
330
2
100
AcDbEntity
  8
GAIKEI
  6
Continuous
100
AcDbLine
 10
-13.25568566053482
 20
2.548156361146595
 30
0.0
 11
-13.22846396053484
 21
2.548156361146595
 31
0.0
  0
LINE
  5
24E
330
2
100
AcDbEntity
  8
GAIKEI
  6
Continuous
100
AcDbLine
 10
-13.22848836053487
 20
2.548154861146599
 30
0.0
 11
-13.04821496053483
 21
2.548154861146599
 31
0.0
  0
LINE
  5
24F
330
2
100
AcDbEntity
  8
GAIKEI
  6
Continuous
100
AcDbLine
 10
-13.0481905605348
 20
2.548156361146595
 30
0.0
 11
-13.04821496053483
 21
2.548156361146595
 31
0.0
  0
LINE
  5
250
330
2
100
AcDbEntity
  8
GAIKEI
  6
Continuous
100
AcDbLine
 10
-13.04821496053483
 20
2.548156361146595
 30
0.0
 11
-12.93542196053482
 21
2.548156361146595
 31
0.0
  0
LINE
  5
251
330
2
100
AcDbEntity
  8
GAIKEI
  6
Continuous
100
AcDbLine
 10
-12.93542196053482
 20
2.548156361146595
 30
0.0
 11
-12.91095906053488
 21
2.548156361146595
 31
0.0
  0
LINE
  5
252
330
2
100
AcDbEntity
  8
GAIKEI
  6
Continuous
100
AcDbLine
 10
-12.91095906053488
 20
2.548154861146599
 30
0.0
 11
-12.69362516053479
 21
2.548154861146599
 31
0.0
  0
LINE
  5
253
330
2
100
AcDbEntity
  8
GAIKEI
  6
Continuous
100
AcDbLine
 10
-12.69362516053479
 20
2.548156361146595
 30
0.0
 11
-12.56625696053481
 21
2.548156361146595
 31
0.0
  0
LINE
  5
254
330
2
100
AcDbEntity
  8
GAIKEI
  6
Continuous
100
AcDbLine
 10
-12.56623256053484
 20
2.548156361146595
 30
0.0
 11
-12.54560266053482
 21
2.548156361146595
 31
0.0
  0
LINE
  5
255
330
2
100
AcDbEntity
  8
GAIKEI
  6
Continuous
100
AcDbLine
 10
-12.5456270605348
 20
2.548156361146595
 30
0.0
 11
-12.30527066053486
 21
2.548156361146595
 31
0.0
  0
LINE
  5
256
330
2
100
AcDbEntity
  8
GAIKEI
  6
Continuous
100
AcDbLine
 10
-12.30527066053486
 20
2.548156361146595
 30
0.0
 11
-12.30070516053485
 21
2.548156361146595
 31
0.0
  0
LINE
  5
257
330
2
100
AcDbEntity
  8
GAIKEI
  6
Continuous
100
AcDbLine
 10
-12.30070516053485
 20
2.548156361146595
 30
0.0
 11
-12.16432826053483
 21
2.548156361146595
 31
0.0
  0
LINE
  5
258
330
2
100
AcDbEntity
  8
GAIKEI
  6
Continuous
100
AcDbLine
 10
-12.16432826053483
 20
2.548156361146595
 30
0.0
 11
-12.1484346605348
 21
2.548156361146595
 31
0.0
  0
LINE
  5
259
330
2
100
AcDbEntity
  8
GAIKEI
  6
Continuous
100
AcDbLine
 10
-12.14845906053483
 20
2.548156361146595
 30
0.0
 11
-11.89714076053485
 21
2.548156361146595
 31
0.0
  0
LINE
  5
25A
330
2
100
AcDbEntity
  8
GAIKEI
  6
Continuous
100
AcDbLine
 10
-11.89714076053485
 20
2.548156361146595
 30
0.0
 11
-11.88666706053482
 21
2.548156361146595
 31
0.0
  0
LINE
  5
25B
330
2
100
AcDbEntity
  8
GAIKEI
  6
Continuous
100
AcDbLine
 10
-11.88666706053482
 20
2.548156361146595
 30
0.0
 11
-11.74723836053488
 21
2.548156361146595
 31
0.0
  0
LINE
  5
25C
330
2
100
AcDbEntity
  8
GAIKEI
  6
Continuous
100
AcDbLine
 10
-11.74723836053488
 20
2.548156361146595
 30
0.0
 11
-11.73678916053484
 21
2.548156361146595
 31
0.0
  0
LINE
  5
25D
330
2
100
AcDbEntity
  8
GAIKEI
  6
Continuous
100
AcDbLine
 10
-11.73678916053484
 20
2.548156361146595
 30
0.0
 11
-11.4854708605348
 21
2.548156361146595
 31
0.0
  0
LINE
  5
25E
330
2
100
AcDbEntity
  8
GAIKEI
  6
Continuous
100
AcDbLine
 10
-11.4854708605348
 20
2.548156361146595
 30
0.0
 11
-11.46957726053483
 21
2.548156361146595
 31
0.0
  0
LINE
  5
25F
330
2
100
AcDbEntity
  8
GAIKEI
  6
Continuous
100
AcDbLine
 10
-11.46957726053483
 20
2.548156361146595
 30
0.0
 11
-11.33320036053487
 21
2.548156361146595
 31
0.0
  0
LINE
  5
260
330
2
100
AcDbEntity
  8
GAIKEI
  6
Continuous
100
AcDbLine
 10
-11.33317586053488
 20
2.548156361146595
 30
0.0
 11
-11.32861046053483
 21
2.548156361146595
 31
0.0
  0
LINE
  5
261
330
2
100
AcDbEntity
  8
GAIKEI
  6
Continuous
100
AcDbLine
 10
-11.3286348605348
 20
2.548156361146595
 30
0.0
 11
-11.08827846053481
 21
2.548156361146595
 31
0.0
  0
LINE
  5
262
330
2
100
AcDbEntity
  8
GAIKEI
  6
Continuous
100
AcDbLine
 10
-11.08827846053481
 20
2.548156361146595
 30
0.0
 11
-11.06764856053485
 21
2.548156361146595
 31
0.0
  0
LINE
  5
263
330
2
100
AcDbEntity
  8
GAIKEI
  6
Continuous
100
AcDbLine
 10
-11.06767296053488
 20
2.548156361146595
 30
0.0
 11
-10.94030476053484
 21
2.548156361146595
 31
0.0
  0
LINE
  5
264
330
2
100
AcDbEntity
  8
GAIKEI
  6
Continuous
100
AcDbLine
 10
-10.94030476053484
 20
2.548154861146599
 30
0.0
 11
-10.72297086053481
 21
2.548154861146599
 31
0.0
  0
LINE
  5
265
330
2
100
AcDbEntity
  8
GAIKEI
  6
Continuous
100
AcDbLine
 10
-10.72294636053482
 20
2.548156361146595
 30
0.0
 11
-10.69850796053487
 21
2.548156361146595
 31
0.0
  0
LINE
  5
266
330
2
100
AcDbEntity
  8
GAIKEI
  6
Continuous
100
AcDbLine
 10
-10.69850796053487
 20
2.548156361146595
 30
0.0
 11
-10.5857149605348
 21
2.548156361146595
 31
0.0
  0
LINE
  5
267
330
2
100
AcDbEntity
  8
GAIKEI
  6
Continuous
100
AcDbLine
 10
-10.58569056053483
 20
2.548156361146595
 30
0.0
 11
-10.5857149605348
 21
2.548156361146595
 31
0.0
  0
LINE
  5
268
330
2
100
AcDbEntity
  8
GAIKEI
  6
Continuous
100
AcDbLine
 10
-10.58569686053488
 20
2.54815696114656
 30
0.0
 11
-10.40542346053485
 21
2.548155261146575
 31
0.0
  0
LINE
  5
269
330
2
100
AcDbEntity
  8
GAIKEI
  6
Continuous
100
AcDbLine
 10
-10.40541706053483
 20
2.548156361146595
 30
0.0
 11
-10.37819546053487
 21
2.548156361146595
 31
0.0
  0
LINE
  5
26A
330
2
100
AcDbEntity
  8
GAIKEI
  6
Continuous
100
AcDbLine
 10
-10.37821986053484
 20
2.548156361146595
 30
0.0
 11
-10.28493366053482
 21
2.548156361146595
 31
0.0
  0
LINE
  5
26B
330
2
100
AcDbEntity
  8
GAIKEI
  6
Continuous
100
AcDbLine
 10
-10.28490966053482
 20
2.548156861146594
 30
0.0
 11
-10.14960696053481
 21
2.54815516114661
 31
0.0
  0
LINE
  5
26C
330
2
100
AcDbEntity
  8
GAIKEI
  6
Continuous
100
AcDbLine
 10
-10.14960656053483
 20
2.548156361146595
 30
0.0
 11
-10.12079796053484
 21
2.548156361146595
 31
0.0
  0
LINE
  5
26D
330
2
100
AcDbEntity
  8
GAIKEI
  6
Continuous
100
AcDbLine
 10
-10.12082236053482
 20
2.548156361146595
 30
0.0
 11
-10.05109586053481
 21
2.548156361146595
 31
0.0
  0
LINE
  5
26E
330
2
100
AcDbEntity
  8
GAIKEI
  6
Continuous
100
AcDbLine
 10
-10.0510816605348
 20
2.548155961146562
 30
0.0
 11
-9.966657860534837
 21
2.548154261146578
 31
0.0
  0
LINE
  5
26F
330
2
100
AcDbEntity
  8
GAIKEI
  6
Continuous
100
AcDbLine
 10
-9.966647560534852
 20
2.548156361146595
 30
0.0
 11
-9.937521560534833
 21
2.548156361146595
 31
0.0
  0
LINE
  5
270
330
2
100
AcDbEntity
  8
GAIKEI
  6
Continuous
100
AcDbLine
 10
-9.937546060534828
 20
2.548156361146595
 30
0.0
 11
-9.894455160534846
 21
2.548156361146595
 31
0.0
  0
LINE
  5
271
330
2
100
AcDbEntity
  8
GAIKEI
  6
Continuous
100
AcDbLine
 10
-9.894455160534846
 20
2.548154861146599
 30
0.0
 11
-9.864572360534793
 21
2.548154861146599
 31
0.0
  0
LINE
  5
272
330
2
100
AcDbEntity
  8
GAIKEI
  6
Continuous
100
AcDbLine
 10
-9.864572360534793
 20
2.548156361146595
 30
0.0
 11
-9.836422960534832
 21
2.548156361146595
 31
0.0
  0
LINE
  5
273
330
2
100
AcDbEntity
  8
GAIKEI
  6
Continuous
100
AcDbLine
 10
-9.83639856053486
 20
2.548156361146595
 30
0.0
 11
-9.821823360534835
 21
2.548156361146595
 31
0.0
  0
LINE
  5
274
330
2
100
AcDbEntity
  8
GAIKEI
  6
Continuous
100
AcDbLine
 10
-11.04884976053483
 20
2.248156661146595
 30
0.0
 11
-12.58508016053486
 21
2.248156661146595
 31
0.0
  0
LINE
  5
275
330
2
100
AcDbEntity
  8
GAIKEI
  6
Continuous
 62
     1
100
AcDbLine
 10
-10.94030476053484
 20
4.148156361146561
 30
0.0
 11
-10.94030476053484
 21
2.548156361146595
 31
0.0
  0
LINE
  5
276
330
2
100
AcDbEntity
  8
GAIKEI
  6
Continuous
100
AcDbLine
 10
-9.821823360534835
 20
4.148156361146561
 30
0.0
 11
-9.83639856053486
 21
4.148156361146561
 31
0.0
  0
LINE
  5
277
330
2
100
AcDbEntity
  8
GAIKEI
  6
Continuous
100
AcDbLine
 10
-9.836422960534832
 20
4.148156361146561
 30
0.0
 11
-9.864572360534793
 21
4.148156361146561
 31
0.0
  0
LINE
  5
278
330
2
100
AcDbEntity
  8
GAIKEI
  6
Continuous
100
AcDbLine
 10
-9.864572360534793
 20
4.148159461146576
 30
0.0
 11
-9.894455160534846
 21
4.148159461146576
 31
0.0
  0
LINE
  5
279
330
2
100
AcDbEntity
  8
GAIKEI
  6
Continuous
100
AcDbLine
 10
-9.894455160534846
 20
4.148156361146561
 30
0.0
 11
-9.937546060534828
 21
4.148156361146561
 31
0.0
  0
LINE
  5
27A
330
2
100
AcDbEntity
  8
GAIKEI
  6
Continuous
100
AcDbLine
 10
-9.937521560534833
 20
4.148156361146561
 30
0.0
 11
-9.966647560534852
 21
4.148156361146561
 31
0.0
  0
LINE
  5
27B
330
2
100
AcDbEntity
  8
GAIKEI
  6
Continuous
100
AcDbLine
 10
-9.966643560534805
 20
4.148159461146576
 30
0.0
 11
-10.0510917605348
 21
4.148156061146551
 31
0.0
  0
LINE
  5
27C
330
2
100
AcDbEntity
  8
GAIKEI
  6
Continuous
100
AcDbLine
 10
-10.05109586053481
 20
4.148156361146561
 30
0.0
 11
-10.12082236053482
 21
4.148156361146561
 31
0.0
  0
LINE
  5
27D
330
2
100
AcDbEntity
  8
GAIKEI
  6
Continuous
100
AcDbLine
 10
-10.12079796053484
 20
4.148156361146561
 30
0.0
 11
-10.14960656053483
 21
4.148156361146561
 31
0.0
  0
LINE
  5
27E
330
2
100
AcDbEntity
  8
GAIKEI
  6
Continuous
100
AcDbLine
 10
-10.14960656053483
 20
4.148156361146561
 30
0.0
 11
-10.28490926053484
 21
4.148156361146561
 31
0.0
  0
LINE
  5
27F
330
2
100
AcDbEntity
  8
GAIKEI
  6
Continuous
100
AcDbLine
 10
-10.28493366053482
 20
4.148156361146561
 30
0.0
 11
-10.37821986053484
 21
4.148156361146561
 31
0.0
  0
LINE
  5
280
330
2
100
AcDbEntity
  8
GAIKEI
  6
Continuous
100
AcDbLine
 10
-10.37819546053487
 20
4.148156361146561
 30
0.0
 11
-10.40541706053483
 21
4.148156361146561
 31
0.0
  0
LINE
  5
281
330
2
100
AcDbEntity
  8
GAIKEI
  6
Continuous
100
AcDbLine
 10
-10.40544156053482
 20
4.148159461146576
 30
0.0
 11
-10.58569056053483
 21
4.148159461146576
 31
0.0
  0
LINE
  5
282
330
2
100
AcDbEntity
  8
GAIKEI
  6
Continuous
100
AcDbLine
 10
-10.5857149605348
 20
4.148156361146561
 30
0.0
 11
-10.69850796053487
 21
4.148156361146561
 31
0.0
  0
LINE
  5
283
330
2
100
AcDbEntity
  8
GAIKEI
  6
Continuous
100
AcDbLine
 10
-10.69850796053487
 20
4.148156361146561
 30
0.0
 11
-10.72294636053482
 21
4.148156361146561
 31
0.0
  0
LINE
  5
284
330
2
100
AcDbEntity
  8
GAIKEI
  6
Continuous
100
AcDbLine
 10
-10.72297086053481
 20
4.148159461146576
 30
0.0
 11
-10.94030476053484
 21
4.148159461146576
 31
0.0
  0
LINE
  5
285
330
2
100
AcDbEntity
  8
GAIKEI
  6
Continuous
100
AcDbLine
 10
-10.94030476053484
 20
4.148156361146561
 30
0.0
 11
-11.06767296053488
 21
4.148156361146561
 31
0.0
  0
LINE
  5
286
330
2
100
AcDbEntity
  8
GAIKEI
  6
Continuous
100
AcDbLine
 10
-11.06764856053485
 20
4.148156361146561
 30
0.0
 11
-11.08827846053481
 21
4.148156361146561
 31
0.0
  0
LINE
  5
287
330
2
100
AcDbEntity
  8
GAIKEI
  6
Continuous
100
AcDbLine
 10
-11.08827846053481
 20
4.148156361146561
 30
0.0
 11
-11.3286348605348
 21
4.148156361146561
 31
0.0
  0
LINE
  5
288
330
2
100
AcDbEntity
  8
GAIKEI
  6
Continuous
100
AcDbLine
 10
-11.32861046053483
 20
4.148156361146561
 30
0.0
 11
-11.33317586053488
 21
4.148156361146561
 31
0.0
  0
LINE
  5
289
330
2
100
AcDbEntity
  8
GAIKEI
  6
Continuous
100
AcDbLine
 10
-11.33320036053487
 20
4.148156361146561
 30
0.0
 11
-11.46957726053483
 21
4.148156361146561
 31
0.0
  0
LINE
  5
28A
330
2
100
AcDbEntity
  8
GAIKEI
  6
Continuous
100
AcDbLine
 10
-11.46957726053483
 20
4.148156361146561
 30
0.0
 11
-11.4854708605348
 21
4.148156361146561
 31
0.0
  0
LINE
  5
28B
330
2
100
AcDbEntity
  8
GAIKEI
  6
Continuous
100
AcDbLine
 10
-11.4854708605348
 20
4.148156361146561
 30
0.0
 11
-11.73678916053484
 21
4.148156361146561
 31
0.0
  0
LINE
  5
28C
330
2
100
AcDbEntity
  8
GAIKEI
  6
Continuous
100
AcDbLine
 10
-11.73678916053484
 20
4.148156361146561
 30
0.0
 11
-11.74723836053488
 21
4.148156361146561
 31
0.0
  0
LINE
  5
28D
330
2
100
AcDbEntity
  8
GAIKEI
  6
Continuous
100
AcDbLine
 10
-11.74723836053488
 20
4.148156361146561
 30
0.0
 11
-11.88666706053482
 21
4.148156361146561
 31
0.0
  0
LINE
  5
28E
330
2
100
AcDbEntity
  8
GAIKEI
  6
Continuous
100
AcDbLine
 10
-11.88666706053482
 20
4.148156361146561
 30
0.0
 11
-11.89714076053485
 21
4.148156361146561
 31
0.0
  0
LINE
  5
28F
330
2
100
AcDbEntity
  8
GAIKEI
  6
Continuous
100
AcDbLine
 10
-11.89714076053485
 20
4.148156361146561
 30
0.0
 11
-12.14845906053483
 21
4.148156361146561
 31
0.0
  0
LINE
  5
290
330
2
100
AcDbEntity
  8
GAIKEI
  6
Continuous
100
AcDbLine
 10
-12.1484346605348
 20
4.148156361146561
 30
0.0
 11
-12.16432826053483
 21
4.148156361146561
 31
0.0
  0
LINE
  5
291
330
2
100
AcDbEntity
  8
GAIKEI
  6
Continuous
100
AcDbLine
 10
-12.16432826053483
 20
4.148156361146561
 30
0.0
 11
-12.30070516053485
 21
4.148156361146561
 31
0.0
  0
LINE
  5
292
330
2
100
AcDbEntity
  8
GAIKEI
  6
Continuous
100
AcDbLine
 10
-12.30070516053485
 20
4.148156361146561
 30
0.0
 11
-12.30527066053486
 21
4.148156361146561
 31
0.0
  0
LINE
  5
293
330
2
100
AcDbEntity
  8
GAIKEI
  6
Continuous
100
AcDbLine
 10
-12.30527066053486
 20
4.148156361146561
 30
0.0
 11
-12.5456270605348
 21
4.148156361146561
 31
0.0
  0
LINE
  5
294
330
2
100
AcDbEntity
  8
GAIKEI
  6
Continuous
100
AcDbLine
 10
-12.54560266053482
 20
4.148156361146561
 30
0.0
 11
-12.56623256053484
 21
4.148156361146561
 31
0.0
  0
LINE
  5
295
330
2
100
AcDbEntity
  8
GAIKEI
  6
Continuous
100
AcDbLine
 10
-12.56625696053481
 20
4.148156361146561
 30
0.0
 11
-12.69362516053479
 21
4.148156361146561
 31
0.0
  0
LINE
  5
296
330
2
100
AcDbEntity
  8
GAIKEI
  6
Continuous
100
AcDbLine
 10
-12.69361856053478
 20
4.148156561146606
 30
0.0
 11
-12.91095246053481
 21
4.148160061146597
 31
0.0
  0
LINE
  5
297
330
2
100
AcDbEntity
  8
GAIKEI
  6
Continuous
100
AcDbLine
 10
-12.91095906053488
 20
4.148156361146561
 30
0.0
 11
-12.93542196053482
 21
4.148156361146561
 31
0.0
  0
LINE
  5
298
330
2
100
AcDbEntity
  8
GAIKEI
  6
Continuous
100
AcDbLine
 10
-12.93542196053482
 20
4.148156361146561
 30
0.0
 11
-13.04821496053483
 21
4.148156361146561
 31
0.0
  0
LINE
  5
299
330
2
100
AcDbEntity
  8
GAIKEI
  6
Continuous
100
AcDbLine
 10
-13.04821496053483
 20
4.148159461146576
 30
0.0
 11
-13.22848836053487
 21
4.148159461146576
 31
0.0
  0
LINE
  5
29A
330
2
100
AcDbEntity
  8
GAIKEI
  6
Continuous
100
AcDbLine
 10
-13.22846396053484
 20
4.148156361146561
 30
0.0
 11
-13.25568566053482
 21
4.148156361146561
 31
0.0
  0
LINE
  5
29B
330
2
100
AcDbEntity
  8
GAIKEI
  6
Continuous
100
AcDbLine
 10
-13.25571006053485
 20
4.148156361146561
 30
0.0
 11
-13.34899616053485
 21
4.148156361146561
 31
0.0
  0
LINE
  5
29C
330
2
100
AcDbEntity
  8
GAIKEI
  6
Continuous
100
AcDbLine
 10
-13.34897176053482
 20
4.148159461146576
 30
0.0
 11
-13.48429896053483
 21
4.148159461146576
 31
0.0
  0
LINE
  5
29D
330
2
100
AcDbEntity
  8
GAIKEI
  6
Continuous
100
AcDbLine
 10
-13.48429896053483
 20
4.148156361146561
 30
0.0
 11
-13.51308316053485
 21
4.148156361146561
 31
0.0
  0
LINE
  5
29E
330
2
100
AcDbEntity
  8
GAIKEI
  6
Continuous
100
AcDbLine
 10
-13.51310756053488
 20
4.148156361146561
 30
0.0
 11
-13.58280966053485
 21
4.148156361146561
 31
0.0
  0
LINE
  5
29F
330
2
100
AcDbEntity
  8
GAIKEI
  6
Continuous
100
AcDbLine
 10
-13.58281346053479
 20
4.148157161146571
 30
0.0
 11
-13.66726166053479
 21
4.148160661146562
 31
0.0
  0
LINE
  5
2A0
330
2
100
AcDbEntity
  8
GAIKEI
  6
Continuous
100
AcDbLine
 10
-13.66725796053487
 20
4.148156361146561
 30
0.0
 11
-13.69635946053483
 21
4.148156361146561
 31
0.0
  0
LINE
  5
2A1
330
2
100
AcDbEntity
  8
GAIKEI
  6
Continuous
100
AcDbLine
 10
-13.69638386053486
 20
4.148156361146561
 30
0.0
 11
-13.73945036053487
 21
4.148156361146561
 31
0.0
  0
LINE
  5
2A2
330
2
100
AcDbEntity
  8
GAIKEI
  6
Continuous
100
AcDbLine
 10
-13.73945036053487
 20
4.148159461146576
 30
0.0
 11
-13.76935756053484
 21
4.148159461146576
 31
0.0
  0
LINE
  5
2A3
330
2
100
AcDbEntity
  8
GAIKEI
  6
Continuous
100
AcDbLine
 10
-13.76935756053484
 20
4.148156361146561
 30
0.0
 11
-13.7975069605348
 21
4.148156361146561
 31
0.0
  0
LINE
  5
2A4
330
2
100
AcDbEntity
  8
GAIKEI
  6
Continuous
100
AcDbLine
 10
-13.7975069605348
 20
4.148156361146561
 30
0.0
 11
-13.81208216053483
 21
4.148156361146561
 31
0.0
  0
ARC
  5
2A5
330
2
100
AcDbEntity
  8
GAIKEI
  6
Continuous
100
AcDbCircle
 10
-53.41696496053481
 20
5.148156361146561
 30
0.0
 40
3.0
100
AcDbArc
 50
240.0734999999936
 51
255.1648300000048
  0
ARC
  5
2A6
330
2
100
AcDbEntity
  8
GAIKEI
  6
Continuous
100
AcDbCircle
 10
-53.41696496053481
 20
5.148156361146561
 30
0.0
 40
3.0
100
AcDbArc
 50
284.8351169999978
 51
299.9264469999964
  0
LINE
  5
2A7
330
2
100
AcDbEntity
  8
GAIKEI
  6
Continuous
100
AcDbLine
 10
-55.41208216053485
 20
4.148156361146561
 30
0.0
 11
-55.41208216053485
 21
2.548156361146595
 31
0.0
  0
LINE
  5
2A8
330
2
100
AcDbEntity
  8
GAIKEI
  6
Continuous
 62
     1
100
AcDbLine
 10
-55.39750696053483
 20
4.148156361146561
 30
0.0
 11
-55.39750696053483
 21
2.548156361146595
 31
0.0
  0
LINE
  5
2A9
330
2
100
AcDbEntity
  8
GAIKEI
  6
Continuous
 62
     1
100
AcDbLine
 10
-55.36935756053487
 20
4.148156361146561
 30
0.0
 11
-55.36935756053487
 21
2.548156361146595
 31
0.0
  0
LINE
  5
2AA
330
2
100
AcDbEntity
  8
GAIKEI
  6
Continuous
 62
     1
100
AcDbLine
 10
-55.33945036053484
 20
4.148156361146561
 30
0.0
 11
-55.33945036053484
 21
2.548156361146595
 31
0.0
  0
LINE
  5
2AB
330
2
100
AcDbEntity
  8
GAIKEI
  6
Continuous
 62
     1
100
AcDbLine
 10
-55.2963594605348
 20
4.148156361146561
 30
0.0
 11
-55.2963594605348
 21
2.548156361146595
 31
0.0
  0
LINE
  5
2AC
330
2
100
AcDbEntity
  8
GAIKEI
  6
Continuous
 62
     1
100
AcDbLine
 10
-55.26725796053483
 20
4.148156361146561
 30
0.0
 11
-55.26725796053483
 21
2.548156361146595
 31
0.0
  0
LINE
  5
2AD
330
2
100
AcDbEntity
  8
GAIKEI
  6
Continuous
 62
     1
100
AcDbLine
 10
-55.18280966053487
 20
4.148156361146561
 30
0.0
 11
-55.18280966053487
 21
2.548156361146595
 31
0.0
  0
LINE
  5
2AE
330
2
100
AcDbEntity
  8
GAIKEI
  6
Continuous
 62
     1
100
AcDbLine
 10
-55.11308316053481
 20
4.148156361146561
 30
0.0
 11
-55.11308316053481
 21
2.548156361146595
 31
0.0
  0
LINE
  5
2AF
330
2
100
AcDbEntity
  8
GAIKEI
  6
Continuous
 62
     1
100
AcDbLine
 10
-55.08429896053485
 20
4.148156361146561
 30
0.0
 11
-55.08429896053485
 21
2.548156361146595
 31
0.0
  0
LINE
  5
2B0
330
2
100
AcDbEntity
  8
GAIKEI
  6
Continuous
 62
     1
100
AcDbLine
 10
-54.94899626053484
 20
4.148156361146561
 30
0.0
 11
-54.94899626053484
 21
2.548156361146595
 31
0.0
  0
LINE
  5
2B1
330
2
100
AcDbEntity
  8
GAIKEI
  6
Continuous
 62
     1
100
AcDbLine
 10
-54.85568566053484
 20
4.148156361146561
 30
0.0
 11
-54.85568566053484
 21
2.548156361146595
 31
0.0
  0
LINE
  5
2B2
330
2
100
AcDbEntity
  8
GAIKEI
  6
Continuous
 62
     1
100
AcDbLine
 10
-54.82848836053477
 20
4.148156361146561
 30
0.0
 11
-54.82848836053477
 21
2.548156361146595
 31
0.0
  0
LINE
  5
2B3
330
2
100
AcDbEntity
  8
GAIKEI
  6
Continuous
 62
     1
100
AcDbLine
 10
-54.64821496053485
 20
4.148156361146561
 30
0.0
 11
-54.64821496053485
 21
2.548156361146595
 31
0.0
  0
LINE
  5
2B4
330
2
100
AcDbEntity
  8
GAIKEI
  6
Continuous
 62
     1
100
AcDbLine
 10
-54.53542196053479
 20
4.148156361146561
 30
0.0
 11
-54.53542196053479
 21
2.548156361146595
 31
0.0
  0
LINE
  5
2B5
330
2
100
AcDbEntity
  8
GAIKEI
  6
Continuous
 62
     1
100
AcDbLine
 10
-54.51095906053485
 20
4.148156361146561
 30
0.0
 11
-54.51095906053485
 21
2.548156361146595
 31
0.0
  0
LINE
  5
2B6
330
2
100
AcDbEntity
  8
GAIKEI
  6
Continuous
 62
     1
100
AcDbLine
 10
-54.29362516053481
 20
4.148156361146561
 30
0.0
 11
-54.29362516053481
 21
2.548156361146595
 31
0.0
  0
LINE
  5
2B7
330
2
100
AcDbEntity
  8
GAIKEI
  6
Continuous
 62
     1
100
AcDbLine
 10
-54.16623256053481
 20
4.148156361146561
 30
0.0
 11
-54.16623256053481
 21
2.548156361146595
 31
0.0
  0
LINE
  5
2B8
330
2
100
AcDbEntity
  8
GAIKEI
  6
Continuous
 62
     1
100
AcDbLine
 10
-54.14562706053482
 20
4.148156361146561
 30
0.0
 11
-54.14562706053482
 21
2.548156361146595
 31
0.0
  0
LINE
  5
2B9
330
2
100
AcDbEntity
  8
GAIKEI
  6
Continuous
 62
     1
100
AcDbLine
 10
-53.90529506053486
 20
4.148156361146561
 30
0.0
 11
-53.90529506053486
 21
2.548156361146595
 31
0.0
  0
LINE
  5
2BA
330
2
100
AcDbEntity
  8
GAIKEI
  6
Continuous
 62
     1
100
AcDbLine
 10
-53.90070516053481
 20
4.148156361146561
 30
0.0
 11
-53.90070516053481
 21
2.548156361146595
 31
0.0
  0
LINE
  5
2BB
330
2
100
AcDbEntity
  8
GAIKEI
  6
Continuous
 62
     1
100
AcDbLine
 10
-53.76435266053483
 20
4.148156361146561
 30
0.0
 11
-53.76435266053483
 21
2.548156361146595
 31
0.0
  0
LINE
  5
2BC
330
2
100
AcDbEntity
  8
GAIKEI
  6
Continuous
 62
     1
100
AcDbLine
 10
-53.74845906053486
 20
4.148156361146561
 30
0.0
 11
-53.74845906053486
 21
2.548156361146595
 31
0.0
  0
LINE
  5
2BD
330
2
100
AcDbEntity
  8
GAIKEI
  6
Continuous
 62
     1
100
AcDbLine
 10
-53.49714076053482
 20
4.148156361146561
 30
0.0
 11
-53.49714076053482
 21
2.548156361146595
 31
0.0
  0
LINE
  5
2BE
330
2
100
AcDbEntity
  8
GAIKEI
  6
Continuous
 62
     1
100
AcDbLine
 10
-53.48666706053484
 20
4.148156361146561
 30
0.0
 11
-53.48666706053484
 21
2.548156361146595
 31
0.0
  0
LINE
  5
2BF
330
2
100
AcDbEntity
  8
GAIKEI
  6
Continuous
 62
     1
100
AcDbLine
 10
-53.34723836053479
 20
4.148156361146561
 30
0.0
 11
-53.34723836053479
 21
2.548156361146595
 31
0.0
  0
LINE
  5
2C0
330
2
100
AcDbEntity
  8
GAIKEI
  6
Continuous
 62
     1
100
AcDbLine
 10
-53.3367891605348
 20
4.148156361146561
 30
0.0
 11
-53.3367891605348
 21
2.548156361146595
 31
0.0
  0
LINE
  5
2C1
330
2
100
AcDbEntity
  8
GAIKEI
  6
Continuous
 62
     1
100
AcDbLine
 10
-53.08547086053483
 20
4.148156361146561
 30
0.0
 11
-53.08547086053483
 21
2.548156361146595
 31
0.0
  0
LINE
  5
2C2
330
2
100
AcDbEntity
  8
GAIKEI
  6
Continuous
 62
     1
100
AcDbLine
 10
-53.06957726053486
 20
4.148156361146561
 30
0.0
 11
-53.06957726053486
 21
2.548156361146595
 31
0.0
  0
LINE
  5
2C3
330
2
100
AcDbEntity
  8
GAIKEI
  6
Continuous
 62
     1
100
AcDbLine
 10
-52.93320036053484
 20
4.148156361146561
 30
0.0
 11
-52.93320036053484
 21
2.548156361146595
 31
0.0
  0
LINE
  5
2C4
330
2
100
AcDbEntity
  8
GAIKEI
  6
Continuous
 62
     1
100
AcDbLine
 10
-52.92863486053483
 20
4.148156361146561
 30
0.0
 11
-52.92863486053483
 21
2.548156361146595
 31
0.0
  0
LINE
  5
2C5
330
2
100
AcDbEntity
  8
GAIKEI
  6
Continuous
 62
     1
100
AcDbLine
 10
-52.68827846053483
 20
4.148156361146561
 30
0.0
 11
-52.68827846053483
 21
2.548156361146595
 31
0.0
  0
LINE
  5
2C6
330
2
100
AcDbEntity
  8
GAIKEI
  6
Continuous
 62
     1
100
AcDbLine
 10
-52.66767296053479
 20
4.148156361146561
 30
0.0
 11
-52.66767296053479
 21
2.548156361146595
 31
0.0
  0
LINE
  5
2C7
330
2
100
AcDbEntity
  8
GAIKEI
  6
Continuous
 62
     1
100
AcDbLine
 10
-52.32297086053484
 20
4.148156361146561
 30
0.0
 11
-52.32297086053484
 21
2.548156361146595
 31
0.0
  0
LINE
  5
2C8
330
2
100
AcDbEntity
  8
GAIKEI
  6
Continuous
 62
     1
100
AcDbLine
 10
-52.29850796053483
 20
4.148156361146561
 30
0.0
 11
-52.29850796053483
 21
2.548156361146595
 31
0.0
  0
LINE
  5
2C9
330
2
100
AcDbEntity
  8
GAIKEI
  6
Continuous
 62
     1
100
AcDbLine
 10
-52.18569056053479
 20
4.148156361146561
 30
0.0
 11
-52.18569056053479
 21
2.548156361146595
 31
0.0
  0
LINE
  5
2CA
330
2
100
AcDbEntity
  8
GAIKEI
  6
Continuous
 62
     1
100
AcDbLine
 10
-52.00544156053485
 20
4.148156361146561
 30
0.0
 11
-52.00544156053485
 21
2.548156361146595
 31
0.0
  0
LINE
  5
2CB
330
2
100
AcDbEntity
  8
GAIKEI
  6
Continuous
 62
     1
100
AcDbLine
 10
-51.9782198605348
 20
4.148156361146561
 30
0.0
 11
-51.9782198605348
 21
2.548156361146595
 31
0.0
  0
LINE
  5
2CC
330
2
100
AcDbEntity
  8
GAIKEI
  6
Continuous
 62
     1
100
AcDbLine
 10
-51.88490926053487
 20
4.148156361146561
 30
0.0
 11
-51.88490926053487
 21
2.548156361146595
 31
0.0
  0
LINE
  5
2CD
330
2
100
AcDbEntity
  8
GAIKEI
  6
Continuous
 62
     1
100
AcDbLine
 10
-51.74960656053485
 20
4.148156361146561
 30
0.0
 11
-51.74960656053485
 21
2.548156361146595
 31
0.0
  0
LINE
  5
2CE
330
2
100
AcDbEntity
  8
GAIKEI
  6
Continuous
 62
     1
100
AcDbLine
 10
-51.72082236053483
 20
4.148156361146561
 30
0.0
 11
-51.72082236053483
 21
2.548156361146595
 31
0.0
  0
LINE
  5
2CF
330
2
100
AcDbEntity
  8
GAIKEI
  6
Continuous
 62
     1
100
AcDbLine
 10
-51.65109586053484
 20
4.148156361146561
 30
0.0
 11
-51.65109586053484
 21
2.548156361146595
 31
0.0
  0
LINE
  5
2D0
330
2
100
AcDbEntity
  8
GAIKEI
  6
Continuous
 62
     1
100
AcDbLine
 10
-51.56664756053482
 20
4.148156361146561
 30
0.0
 11
-51.56664756053482
 21
2.548156361146595
 31
0.0
  0
LINE
  5
2D1
330
2
100
AcDbEntity
  8
GAIKEI
  6
Continuous
 62
     1
100
AcDbLine
 10
-51.53754606053485
 20
4.148156361146561
 30
0.0
 11
-51.53754606053485
 21
2.548156361146595
 31
0.0
  0
LINE
  5
2D2
330
2
100
AcDbEntity
  8
GAIKEI
  6
Continuous
 62
     1
100
AcDbLine
 10
-51.49445516053487
 20
4.148156361146561
 30
0.0
 11
-51.49445516053487
 21
2.548156361146595
 31
0.0
  0
LINE
  5
2D3
330
2
100
AcDbEntity
  8
GAIKEI
  6
Continuous
 62
     1
100
AcDbLine
 10
-51.46457236053487
 20
4.148156361146561
 30
0.0
 11
-51.46457236053487
 21
2.548156361146595
 31
0.0
  0
LINE
  5
2D4
330
2
100
AcDbEntity
  8
GAIKEI
  6
Continuous
 62
     1
100
AcDbLine
 10
-51.43639856053482
 20
4.148156361146561
 30
0.0
 11
-51.43639856053482
 21
2.548156361146595
 31
0.0
  0
LINE
  5
2D5
330
2
100
AcDbEntity
  8
GAIKEI
  6
Continuous
100
AcDbLine
 10
-51.42184776053483
 20
4.148156361146561
 30
0.0
 11
-51.42184776053483
 21
2.548156361146595
 31
0.0
  0
LINE
  5
2D6
330
2
100
AcDbEntity
  8
GAIKEI
  6
Continuous
100
AcDbLine
 10
-52.6488497605348
 20
4.148156361146561
 30
0.0
 11
-52.6488497605348
 21
4.248156361146584
 31
0.0
  0
LINE
  5
2D7
330
2
100
AcDbEntity
  8
GAIKEI
  6
Continuous
100
AcDbLine
 10
-54.18508016053488
 20
4.248156361146584
 30
0.0
 11
-54.18508016053488
 21
4.148156361146561
 31
0.0
  0
LINE
  5
2D8
330
2
100
AcDbEntity
  8
GAIKEI
  6
Continuous
100
AcDbLine
 10
-55.41208216053485
 20
2.548156361146595
 30
0.0
 11
-55.39750696053483
 21
2.548156361146595
 31
0.0
  0
LINE
  5
2D9
330
2
100
AcDbEntity
  8
GAIKEI
  6
Continuous
100
AcDbLine
 10
-55.39750696053483
 20
2.548156361146595
 30
0.0
 11
-55.36935756053487
 21
2.548156361146595
 31
0.0
  0
LINE
  5
2DA
330
2
100
AcDbEntity
  8
GAIKEI
  6
Continuous
100
AcDbLine
 10
-55.3693461605348
 20
2.548155961146562
 30
0.0
 11
-55.33946336053481
 21
2.548154161146612
 31
0.0
  0
LINE
  5
2DB
330
2
100
AcDbEntity
  8
GAIKEI
  6
Continuous
100
AcDbLine
 10
-55.33945036053484
 20
2.548156361146595
 30
0.0
 11
-55.29638386053489
 21
2.548156361146595
 31
0.0
  0
LINE
  5
2DC
330
2
100
AcDbEntity
  8
GAIKEI
  6
Continuous
100
AcDbLine
 10
-55.2963594605348
 20
2.548156361146595
 30
0.0
 11
-55.26725796053483
 21
2.548156361146595
 31
0.0
  0
LINE
  5
2DD
330
2
100
AcDbEntity
  8
GAIKEI
  6
Continuous
100
AcDbLine
 10
-55.26725796053483
 20
2.548154861146599
 30
0.0
 11
-55.18280966053487
 21
2.548154861146599
 31
0.0
  0
LINE
  5
2DE
330
2
100
AcDbEntity
  8
GAIKEI
  6
Continuous
100
AcDbLine
 10
-55.18280966053487
 20
2.548156361146595
 30
0.0
 11
-55.11310756053489
 21
2.548156361146595
 31
0.0
  0
LINE
  5
2DF
330
2
100
AcDbEntity
  8
GAIKEI
  6
Continuous
100
AcDbLine
 10
-55.11308316053481
 20
2.548156361146595
 30
0.0
 11
-55.08429896053485
 21
2.548156361146595
 31
0.0
  0
LINE
  5
2E0
330
2
100
AcDbEntity
  8
GAIKEI
  6
Continuous
100
AcDbLine
 10
-55.08429896053485
 20
2.548154861146599
 30
0.0
 11
-54.94899626053484
 21
2.548154861146599
 31
0.0
  0
LINE
  5
2E1
330
2
100
AcDbEntity
  8
GAIKEI
  6
Continuous
100
AcDbLine
 10
-54.94897176053484
 20
2.548156361146595
 30
0.0
 11
-54.94899626053484
 21
2.548156361146595
 31
0.0
  0
LINE
  5
2E2
330
2
100
AcDbEntity
  8
GAIKEI
  6
Continuous
100
AcDbLine
 10
-54.94899626053484
 20
2.548156361146595
 30
0.0
 11
-54.85571006053482
 21
2.548156361146595
 31
0.0
  0
LINE
  5
2E3
330
2
100
AcDbEntity
  8
GAIKEI
  6
Continuous
100
AcDbLine
 10
-54.85568566053484
 20
2.548156361146595
 30
0.0
 11
-54.82846396053486
 21
2.548156361146595
 31
0.0
  0
LINE
  5
2E4
330
2
100
AcDbEntity
  8
GAIKEI
  6
Continuous
100
AcDbLine
 10
-54.82848836053477
 20
2.548154861146599
 30
0.0
 11
-54.64821496053485
 21
2.548154861146599
 31
0.0
  0
LINE
  5
2E5
330
2
100
AcDbEntity
  8
GAIKEI
  6
Continuous
100
AcDbLine
 10
-54.64819056053483
 20
2.548156361146595
 30
0.0
 11
-54.64821496053485
 21
2.548156361146595
 31
0.0
  0
LINE
  5
2E6
330
2
100
AcDbEntity
  8
GAIKEI
  6
Continuous
100
AcDbLine
 10
-54.64821496053485
 20
2.548156361146595
 30
0.0
 11
-54.53542196053479
 21
2.548156361146595
 31
0.0
  0
LINE
  5
2E7
330
2
100
AcDbEntity
  8
GAIKEI
  6
Continuous
100
AcDbLine
 10
-54.53542196053479
 20
2.548156361146595
 30
0.0
 11
-54.51095906053485
 21
2.548156361146595
 31
0.0
  0
LINE
  5
2E8
330
2
100
AcDbEntity
  8
GAIKEI
  6
Continuous
100
AcDbLine
 10
-54.51095906053485
 20
2.548154861146599
 30
0.0
 11
-54.29362516053481
 21
2.548154861146599
 31
0.0
  0
LINE
  5
2E9
330
2
100
AcDbEntity
  8
GAIKEI
  6
Continuous
100
AcDbLine
 10
-54.29362516053481
 20
2.548156361146595
 30
0.0
 11
-54.1662569605349
 21
2.548156361146595
 31
0.0
  0
LINE
  5
2EA
330
2
100
AcDbEntity
  8
GAIKEI
  6
Continuous
100
AcDbLine
 10
-54.16623256053481
 20
2.548156361146595
 30
0.0
 11
-54.14560266053479
 21
2.548156361146595
 31
0.0
  0
LINE
  5
2EB
330
2
100
AcDbEntity
  8
GAIKEI
  6
Continuous
100
AcDbLine
 10
-54.14562706053482
 20
2.548156361146595
 30
0.0
 11
-53.90529506053486
 21
2.548156361146595
 31
0.0
  0
LINE
  5
2EC
330
2
100
AcDbEntity
  8
GAIKEI
  6
Continuous
100
AcDbLine
 10
-53.90529506053486
 20
2.548156361146595
 30
0.0
 11
-53.90070516053481
 21
2.548156361146595
 31
0.0
  0
LINE
  5
2ED
330
2
100
AcDbEntity
  8
GAIKEI
  6
Continuous
100
AcDbLine
 10
-53.90070516053481
 20
2.548156361146595
 30
0.0
 11
-53.76435266053483
 21
2.548156361146595
 31
0.0
  0
LINE
  5
2EE
330
2
100
AcDbEntity
  8
GAIKEI
  6
Continuous
100
AcDbLine
 10
-53.76435266053483
 20
2.548156361146595
 30
0.0
 11
-53.74845906053486
 21
2.548156361146595
 31
0.0
  0
LINE
  5
2EF
330
2
100
AcDbEntity
  8
GAIKEI
  6
Continuous
100
AcDbLine
 10
-53.74845906053486
 20
2.548156361146595
 30
0.0
 11
-53.49714076053482
 21
2.548156361146595
 31
0.0
  0
LINE
  5
2F0
330
2
100
AcDbEntity
  8
GAIKEI
  6
Continuous
100
AcDbLine
 10
-53.49714076053482
 20
2.548156361146595
 30
0.0
 11
-53.48666706053484
 21
2.548156361146595
 31
0.0
  0
LINE
  5
2F1
330
2
100
AcDbEntity
  8
GAIKEI
  6
Continuous
100
AcDbLine
 10
-53.48666706053484
 20
2.548156361146595
 30
0.0
 11
-53.34723836053479
 21
2.548156361146595
 31
0.0
  0
LINE
  5
2F2
330
2
100
AcDbEntity
  8
GAIKEI
  6
Continuous
100
AcDbLine
 10
-53.34723836053479
 20
2.548156361146595
 30
0.0
 11
-53.3367891605348
 21
2.548156361146595
 31
0.0
  0
LINE
  5
2F3
330
2
100
AcDbEntity
  8
GAIKEI
  6
Continuous
100
AcDbLine
 10
-53.3367891605348
 20
2.548156361146595
 30
0.0
 11
-53.08547086053483
 21
2.548156361146595
 31
0.0
  0
LINE
  5
2F4
330
2
100
AcDbEntity
  8
GAIKEI
  6
Continuous
100
AcDbLine
 10
-53.08547086053483
 20
2.548156361146595
 30
0.0
 11
-53.06957726053486
 21
2.548156361146595
 31
0.0
  0
LINE
  5
2F5
330
2
100
AcDbEntity
  8
GAIKEI
  6
Continuous
100
AcDbLine
 10
-53.06957726053486
 20
2.548156361146595
 30
0.0
 11
-52.93320036053484
 21
2.548156361146595
 31
0.0
  0
LINE
  5
2F6
330
2
100
AcDbEntity
  8
GAIKEI
  6
Continuous
100
AcDbLine
 10
-52.93320036053484
 20
2.548156361146595
 30
0.0
 11
-52.9286104605348
 21
2.548156361146595
 31
0.0
  0
LINE
  5
2F7
330
2
100
AcDbEntity
  8
GAIKEI
  6
Continuous
100
AcDbLine
 10
-52.92863486053483
 20
2.548156361146595
 30
0.0
 11
-52.68827846053483
 21
2.548156361146595
 31
0.0
  0
LINE
  5
2F8
330
2
100
AcDbEntity
  8
GAIKEI
  6
Continuous
100
AcDbLine
 10
-52.68827846053483
 20
2.548156361146595
 30
0.0
 11
-52.66764856053487
 21
2.548156361146595
 31
0.0
  0
LINE
  5
2F9
330
2
100
AcDbEntity
  8
GAIKEI
  6
Continuous
100
AcDbLine
 10
-52.66767296053479
 20
2.548156361146595
 30
0.0
 11
-52.54030476053486
 21
2.548156361146595
 31
0.0
  0
LINE
  5
2FA
330
2
100
AcDbEntity
  8
GAIKEI
  6
Continuous
100
AcDbLine
 10
-52.54028036053483
 20
2.548154861146599
 30
0.0
 11
-52.32297086053484
 21
2.548154861146599
 31
0.0
  0
LINE
  5
2FB
330
2
100
AcDbEntity
  8
GAIKEI
  6
Continuous
100
AcDbLine
 10
-52.32297086053484
 20
2.548156361146595
 30
0.0
 11
-52.29850796053483
 21
2.548156361146595
 31
0.0
  0
LINE
  5
2FC
330
2
100
AcDbEntity
  8
GAIKEI
  6
Continuous
100
AcDbLine
 10
-52.29850796053483
 20
2.548156361146595
 30
0.0
 11
-52.18571496053482
 21
2.548156361146595
 31
0.0
  0
LINE
  5
2FD
330
2
100
AcDbEntity
  8
GAIKEI
  6
Continuous
100
AcDbLine
 10
-52.18569686053484
 20
2.548156561146583
 30
0.0
 11
-52.00542346053487
 21
2.548154861146599
 31
0.0
  0
LINE
  5
2FE
330
2
100
AcDbEntity
  8
GAIKEI
  6
Continuous
100
AcDbLine
 10
-52.00544156053485
 20
2.548156361146595
 30
0.0
 11
-51.97819546053484
 21
2.548156361146595
 31
0.0
  0
LINE
  5
2FF
330
2
100
AcDbEntity
  8
GAIKEI
  6
Continuous
100
AcDbLine
 10
-51.9782198605348
 20
2.548156361146595
 30
0.0
 11
-51.88493376053481
 21
2.548156361146595
 31
0.0
  0
LINE
  5
300
330
2
100
AcDbEntity
  8
GAIKEI
  6
Continuous
100
AcDbLine
 10
-51.88490926053487
 20
2.548154861146599
 30
0.0
 11
-51.74960656053485
 21
2.548154861146599
 31
0.0
  0
LINE
  5
301
330
2
100
AcDbEntity
  8
GAIKEI
  6
Continuous
100
AcDbLine
 10
-51.74960656053485
 20
2.548156361146595
 30
0.0
 11
-51.72079796053481
 21
2.548156361146595
 31
0.0
  0
LINE
  5
302
330
2
100
AcDbEntity
  8
GAIKEI
  6
Continuous
100
AcDbLine
 10
-51.72082236053483
 20
2.548156361146595
 30
0.0
 11
-51.65109586053484
 21
2.548156361146595
 31
0.0
  0
LINE
  5
303
330
2
100
AcDbEntity
  8
GAIKEI
  6
Continuous
100
AcDbLine
 10
-51.65109586053484
 20
2.548154861146599
 30
0.0
 11
-51.56664756053482
 21
2.548154861146599
 31
0.0
  0
LINE
  5
304
330
2
100
AcDbEntity
  8
GAIKEI
  6
Continuous
100
AcDbLine
 10
-51.56664756053482
 20
2.548156361146595
 30
0.0
 11
-51.53752156053485
 21
2.548156361146595
 31
0.0
  0
LINE
  5
305
330
2
100
AcDbEntity
  8
GAIKEI
  6
Continuous
100
AcDbLine
 10
-51.53754606053485
 20
2.548156361146595
 30
0.0
 11
-51.49445516053487
 21
2.548156361146595
 31
0.0
  0
LINE
  5
306
330
2
100
AcDbEntity
  8
GAIKEI
  6
Continuous
100
AcDbLine
 10
-51.49445516053487
 20
2.548154861146599
 30
0.0
 11
-51.46457236053487
 21
2.548154861146599
 31
0.0
  0
LINE
  5
307
330
2
100
AcDbEntity
  8
GAIKEI
  6
Continuous
100
AcDbLine
 10
-51.46457236053487
 20
2.548156361146595
 30
0.0
 11
-51.4364229605348
 21
2.548156361146595
 31
0.0
  0
LINE
  5
308
330
2
100
AcDbEntity
  8
GAIKEI
  6
Continuous
100
AcDbLine
 10
-51.43639856053482
 20
2.548156361146595
 30
0.0
 11
-51.42184776053483
 21
2.548156361146595
 31
0.0
  0
LINE
  5
309
330
2
100
AcDbEntity
  8
GAIKEI
  6
Continuous
100
AcDbLine
 10
-52.6488497605348
 20
2.248156661146595
 30
0.0
 11
-54.18508016053488
 21
2.248156661146595
 31
0.0
  0
LINE
  5
30A
330
2
100
AcDbEntity
  8
GAIKEI
  6
Continuous
 62
     1
100
AcDbLine
 10
-52.54030476053486
 20
4.148156361146561
 30
0.0
 11
-52.54030476053486
 21
2.548156361146595
 31
0.0
  0
LINE
  5
30B
330
2
100
AcDbEntity
  8
GAIKEI
  6
Continuous
100
AcDbLine
 10
-51.42184776053483
 20
4.148156361146561
 30
0.0
 11
-51.43639856053482
 21
4.148156361146561
 31
0.0
  0
LINE
  5
30C
330
2
100
AcDbEntity
  8
GAIKEI
  6
Continuous
100
AcDbLine
 10
-51.4364229605348
 20
4.148156361146561
 30
0.0
 11
-51.46457236053487
 21
4.148156361146561
 31
0.0
  0
LINE
  5
30D
330
2
100
AcDbEntity
  8
GAIKEI
  6
Continuous
100
AcDbLine
 10
-51.46457236053487
 20
4.148159461146576
 30
0.0
 11
-51.49445516053487
 21
4.148159461146576
 31
0.0
  0
LINE
  5
30E
330
2
100
AcDbEntity
  8
GAIKEI
  6
Continuous
100
AcDbLine
 10
-51.49445516053487
 20
4.148156361146561
 30
0.0
 11
-51.53754606053485
 21
4.148156361146561
 31
0.0
  0
LINE
  5
30F
330
2
100
AcDbEntity
  8
GAIKEI
  6
Continuous
100
AcDbLine
 10
-51.53752156053485
 20
4.148156361146561
 30
0.0
 11
-51.56664756053482
 21
4.148156361146561
 31
0.0
  0
LINE
  5
310
330
2
100
AcDbEntity
  8
GAIKEI
  6
Continuous
100
AcDbLine
 10
-51.56664756053482
 20
4.148159461146576
 30
0.0
 11
-51.65109586053484
 21
4.148159461146576
 31
0.0
  0
LINE
  5
311
330
2
100
AcDbEntity
  8
GAIKEI
  6
Continuous
100
AcDbLine
 10
-51.65109586053484
 20
4.148156361146561
 30
0.0
 11
-51.72082236053483
 21
4.148156361146561
 31
0.0
  0
LINE
  5
312
330
2
100
AcDbEntity
  8
GAIKEI
  6
Continuous
100
AcDbLine
 10
-51.72079796053481
 20
4.148156361146561
 30
0.0
 11
-51.74960656053485
 21
4.148156361146561
 31
0.0
  0
LINE
  5
313
330
2
100
AcDbEntity
  8
GAIKEI
  6
Continuous
100
AcDbLine
 10
-51.74959076053482
 20
4.148156661146572
 30
0.0
 11
-51.88491796053483
 21
4.148160061146597
 31
0.0
  0
LINE
  5
314
330
2
100
AcDbEntity
  8
GAIKEI
  6
Continuous
100
AcDbLine
 10
-51.88493376053481
 20
4.148156361146561
 30
0.0
 11
-51.9782198605348
 21
4.148156361146561
 31
0.0
  0
LINE
  5
315
330
2
100
AcDbEntity
  8
GAIKEI
  6
Continuous
100
AcDbLine
 10
-51.97819546053484
 20
4.148156361146561
 30
0.0
 11
-52.00544156053485
 21
4.148156361146561
 31
0.0
  0
LINE
  5
316
330
2
100
AcDbEntity
  8
GAIKEI
  6
Continuous
100
AcDbLine
 10
-52.00543506053481
 20
4.148160361146551
 30
0.0
 11
-52.18568406053481
 21
4.148156861146617
 31
0.0
  0
LINE
  5
317
330
2
100
AcDbEntity
  8
GAIKEI
  6
Continuous
100
AcDbLine
 10
-52.18571496053482
 20
4.148156361146561
 30
0.0
 11
-52.29850796053483
 21
4.148156361146561
 31
0.0
  0
LINE
  5
318
330
2
100
AcDbEntity
  8
GAIKEI
  6
Continuous
100
AcDbLine
 10
-52.29850796053483
 20
4.148156361146561
 30
0.0
 11
-52.32297086053484
 21
4.148156361146561
 31
0.0
  0
LINE
  5
319
330
2
100
AcDbEntity
  8
GAIKEI
  6
Continuous
100
AcDbLine
 10
-52.32297086053484
 20
4.148159461146576
 30
0.0
 11
-52.54028036053483
 21
4.148159461146576
 31
0.0
  0
LINE
  5
31A
330
2
100
AcDbEntity
  8
GAIKEI
  6
Continuous
100
AcDbLine
 10
-52.54030476053486
 20
4.148156361146561
 30
0.0
 11
-52.66767296053479
 21
4.148156361146561
 31
0.0
  0
LINE
  5
31B
330
2
100
AcDbEntity
  8
GAIKEI
  6
Continuous
100
AcDbLine
 10
-52.66764856053487
 20
4.148156361146561
 30
0.0
 11
-52.68827846053483
 21
4.148156361146561
 31
0.0
  0
LINE
  5
31C
330
2
100
AcDbEntity
  8
GAIKEI
  6
Continuous
100
AcDbLine
 10
-52.68827846053483
 20
4.148156361146561
 30
0.0
 11
-52.92863486053483
 21
4.148156361146561
 31
0.0
  0
LINE
  5
31D
330
2
100
AcDbEntity
  8
GAIKEI
  6
Continuous
100
AcDbLine
 10
-52.9286104605348
 20
4.148156361146561
 30
0.0
 11
-52.93320036053484
 21
4.148156361146561
 31
0.0
  0
LINE
  5
31E
330
2
100
AcDbEntity
  8
GAIKEI
  6
Continuous
100
AcDbLine
 10
-52.93320036053484
 20
4.148156361146561
 30
0.0
 11
-53.06957726053486
 21
4.148156361146561
 31
0.0
  0
LINE
  5
31F
330
2
100
AcDbEntity
  8
GAIKEI
  6
Continuous
100
AcDbLine
 10
-53.06957726053486
 20
4.148156361146561
 30
0.0
 11
-53.08547086053483
 21
4.148156361146561
 31
0.0
  0
LINE
  5
320
330
2
100
AcDbEntity
  8
GAIKEI
  6
Continuous
100
AcDbLine
 10
-53.08547086053483
 20
4.148156361146561
 30
0.0
 11
-53.3367891605348
 21
4.148156361146561
 31
0.0
  0
LINE
  5
321
330
2
100
AcDbEntity
  8
GAIKEI
  6
Continuous
100
AcDbLine
 10
-53.3367891605348
 20
4.148156361146561
 30
0.0
 11
-53.34723836053479
 21
4.148156361146561
 31
0.0
  0
LINE
  5
322
330
2
100
AcDbEntity
  8
GAIKEI
  6
Continuous
100
AcDbLine
 10
-53.34723836053479
 20
4.148156361146561
 30
0.0
 11
-53.48666706053484
 21
4.148156361146561
 31
0.0
  0
LINE
  5
323
330
2
100
AcDbEntity
  8
GAIKEI
  6
Continuous
100
AcDbLine
 10
-53.48666706053484
 20
4.148156361146561
 30
0.0
 11
-53.49714076053482
 21
4.148156361146561
 31
0.0
  0
LINE
  5
324
330
2
100
AcDbEntity
  8
GAIKEI
  6
Continuous
100
AcDbLine
 10
-53.49714076053482
 20
4.148156361146561
 30
0.0
 11
-53.74845906053486
 21
4.148156361146561
 31
0.0
  0
LINE
  5
325
330
2
100
AcDbEntity
  8
GAIKEI
  6
Continuous
100
AcDbLine
 10
-53.74845906053486
 20
4.148156361146561
 30
0.0
 11
-53.76435266053483
 21
4.148156361146561
 31
0.0
  0
LINE
  5
326
330
2
100
AcDbEntity
  8
GAIKEI
  6
Continuous
100
AcDbLine
 10
-53.76435266053483
 20
4.148156361146561
 30
0.0
 11
-53.90070516053481
 21
4.148156361146561
 31
0.0
  0
LINE
  5
327
330
2
100
AcDbEntity
  8
GAIKEI
  6
Continuous
100
AcDbLine
 10
-53.90070516053481
 20
4.148156361146561
 30
0.0
 11
-53.90529506053486
 21
4.148156361146561
 31
0.0
  0
LINE
  5
328
330
2
100
AcDbEntity
  8
GAIKEI
  6
Continuous
100
AcDbLine
 10
-53.90529506053486
 20
4.148156361146561
 30
0.0
 11
-54.14562706053482
 21
4.148156361146561
 31
0.0
  0
LINE
  5
329
330
2
100
AcDbEntity
  8
GAIKEI
  6
Continuous
100
AcDbLine
 10
-54.14560266053479
 20
4.148156361146561
 30
0.0
 11
-54.16623256053481
 21
4.148156361146561
 31
0.0
  0
LINE
  5
32A
330
2
100
AcDbEntity
  8
GAIKEI
  6
Continuous
100
AcDbLine
 10
-54.1662569605349
 20
4.148156361146561
 30
0.0
 11
-54.29362516053481
 21
4.148156361146561
 31
0.0
  0
LINE
  5
32B
330
2
100
AcDbEntity
  8
GAIKEI
  6
Continuous
100
AcDbLine
 10
-54.29361856053486
 20
4.148157061146548
 30
0.0
 11
-54.51095246053483
 21
4.148160461146574
 31
0.0
  0
LINE
  5
32C
330
2
100
AcDbEntity
  8
GAIKEI
  6
Continuous
100
AcDbLine
 10
-54.51095906053485
 20
4.148156361146561
 30
0.0
 11
-54.53542196053479
 21
4.148156361146561
 31
0.0
  0
LINE
  5
32D
330
2
100
AcDbEntity
  8
GAIKEI
  6
Continuous
100
AcDbLine
 10
-54.53542196053479
 20
4.148156361146561
 30
0.0
 11
-54.64821496053485
 21
4.148156361146561
 31
0.0
  0
LINE
  5
32E
330
2
100
AcDbEntity
  8
GAIKEI
  6
Continuous
100
AcDbLine
 10
-54.64821496053485
 20
4.148159461146576
 30
0.0
 11
-54.82848836053477
 21
4.148159461146576
 31
0.0
  0
LINE
  5
32F
330
2
100
AcDbEntity
  8
GAIKEI
  6
Continuous
100
AcDbLine
 10
-54.82846396053486
 20
4.148156361146561
 30
0.0
 11
-54.85568566053484
 21
4.148156361146561
 31
0.0
  0
LINE
  5
330
330
2
100
AcDbEntity
  8
GAIKEI
  6
Continuous
100
AcDbLine
 10
-54.85571006053482
 20
4.148156361146561
 30
0.0
 11
-54.94899626053484
 21
4.148156361146561
 31
0.0
  0
LINE
  5
331
330
2
100
AcDbEntity
  8
GAIKEI
  6
Continuous
100
AcDbLine
 10
-54.94899626053484
 20
4.148159461146576
 30
0.0
 11
-55.08429896053485
 21
4.148159461146576
 31
0.0
  0
LINE
  5
332
330
2
100
AcDbEntity
  8
GAIKEI
  6
Continuous
100
AcDbLine
 10
-55.08429896053485
 20
4.148156361146561
 30
0.0
 11
-55.11308316053481
 21
4.148156361146561
 31
0.0
  0
LINE
  5
333
330
2
100
AcDbEntity
  8
GAIKEI
  6
Continuous
100
AcDbLine
 10
-55.11310756053489
 20
4.148156361146561
 30
0.0
 11
-55.18280966053487
 21
4.148156361146561
 31
0.0
  0
LINE
  5
334
330
2
100
AcDbEntity
  8
GAIKEI
  6
Continuous
100
AcDbLine
 10
-55.18280966053487
 20
4.148159461146576
 30
0.0
 11
-55.26725796053483
 21
4.148159461146576
 31
0.0
  0
LINE
  5
335
330
2
100
AcDbEntity
  8
GAIKEI
  6
Continuous
100
AcDbLine
 10
-55.26725796053483
 20
4.148156361146561
 30
0.0
 11
-55.2963594605348
 21
4.148156361146561
 31
0.0
  0
LINE
  5
336
330
2
100
AcDbEntity
  8
GAIKEI
  6
Continuous
100
AcDbLine
 10
-55.29638386053489
 20
4.148156361146561
 30
0.0
 11
-55.33945036053484
 21
4.148156361146561
 31
0.0
  0
LINE
  5
337
330
2
100
AcDbEntity
  8
GAIKEI
  6
Continuous
100
AcDbLine
 10
-55.33945036053484
 20
4.148159461146576
 30
0.0
 11
-55.36935756053487
 21
4.148159461146576
 31
0.0
  0
LINE
  5
338
330
2
100
AcDbEntity
  8
GAIKEI
  6
Continuous
100
AcDbLine
 10
-55.36935756053487
 20
4.148156361146561
 30
0.0
 11
-55.39750696053483
 21
4.148156361146561
 31
0.0
  0
LINE
  5
339
330
2
100
AcDbEntity
  8
GAIKEI
  6
Continuous
100
AcDbLine
 10
-55.39750696053483
 20
4.148156361146561
 30
0.0
 11
-55.41208216053485
 21
4.148156361146561
 31
0.0
  0
LINE
  5
33A
330
2
100
AcDbEntity
  8
GAIKEI
  6
Continuous
 62
     1
100
AcDbLine
 10
-50.88852256053485
 20
19.54815176114658
 30
0.0
 11
-51.34609096053487
 21
19.54815176114658
 31
0.0
  0
LINE
  5
33B
330
2
100
AcDbEntity
  8
GAIKEI
  6
Continuous
 62
     1
100
AcDbLine
 10
-48.38852256053485
 20
19.54815176114658
 30
0.0
 11
-48.84609096053487
 21
19.54815176114658
 31
0.0
  0
LINE
  5
33C
330
2
100
AcDbEntity
  8
GAIKEI
  6
Continuous
 62
     1
100
AcDbLine
 10
-53.38852256053485
 20
19.54815176114658
 30
0.0
 11
-53.84609096053487
 21
19.54815176114658
 31
0.0
  0
LINE
  5
33D
330
2
100
AcDbEntity
  8
GAIKEI
  6
Continuous
 62
     1
100
AcDbLine
 10
-43.38852256053485
 20
19.54815176114658
 30
0.0
 11
-43.84609096053487
 21
19.54815176114658
 31
0.0
  0
LINE
  5
33E
330
2
100
AcDbEntity
  8
GAIKEI
  6
Continuous
 62
     1
100
AcDbLine
 10
-45.88852256053485
 20
19.54815176114658
 30
0.0
 11
-46.34609096053487
 21
19.54815176114658
 31
0.0
  0
LINE
  5
33F
330
2
100
AcDbEntity
  8
GAIKEI
  6
Continuous
 62
     1
100
AcDbLine
 10
-46.30729696053481
 20
18.8081508611466
 30
0.0
 11
-46.32748746053482
 21
18.8081508611466
 31
0.0
  0
LINE
  5
340
330
2
100
AcDbEntity
  8
GAIKEI
  6
Continuous
 62
     1
100
AcDbLine
 10
-45.90644246053483
 20
18.8081508611466
 30
0.0
 11
-45.92731656053479
 21
18.8081508611466
 31
0.0
  0
LINE
  5
341
330
2
100
AcDbEntity
  8
GAIKEI
  6
Continuous
 62
     1
100
AcDbLine
 10
-43.80729696053481
 20
18.8081508611466
 30
0.0
 11
-43.82748746053482
 21
18.8081508611466
 31
0.0
  0
LINE
  5
342
330
2
100
AcDbEntity
  8
GAIKEI
  6
Continuous
 62
     1
100
AcDbLine
 10
-51.30729696053482
 20
18.8081508611466
 30
0.0
 11
-51.32748746053483
 21
18.8081508611466
 31
0.0
  0
LINE
  5
343
330
2
100
AcDbEntity
  8
GAIKEI
  6
Continuous
 62
     1
100
AcDbLine
 10
-50.90644246053483
 20
18.8081508611466
 30
0.0
 11
-50.92731656053479
 21
18.8081508611466
 31
0.0
  0
LINE
  5
344
330
2
100
AcDbEntity
  8
GAIKEI
  6
Continuous
 62
     1
100
AcDbLine
 10
-48.80729696053482
 20
18.8081508611466
 30
0.0
 11
-48.82748746053483
 21
18.8081508611466
 31
0.0
  0
LINE
  5
345
330
2
100
AcDbEntity
  8
GAIKEI
  6
Continuous
 62
     1
100
AcDbLine
 10
-48.40644246053483
 20
18.8081508611466
 30
0.0
 11
-48.42731656053479
 21
18.8081508611466
 31
0.0
  0
LINE
  5
346
330
2
100
AcDbEntity
  8
GAIKEI
  6
Continuous
 62
     1
100
AcDbLine
 10
-53.40644246053483
 20
18.8081508611466
 30
0.0
 11
-53.42731656053484
 21
18.8081508611466
 31
0.0
  0
LINE
  5
347
330
2
100
AcDbEntity
  8
GAIKEI
  6
Continuous
 62
     1
100
AcDbLine
 10
-43.42766686053482
 20
18.79815796114655
 30
0.0
 11
-43.42731776053483
 21
18.80815256114658
 31
0.0
  0
LINE
  5
348
330
2
100
AcDbEntity
  8
GAIKEI
  6
Continuous
 62
     1
100
AcDbLine
 10
-43.42729656053484
 20
18.80815056114659
 30
0.0
 11
-43.38851486053482
 21
19.54815066114656
 31
0.0
  0
LINE
  5
349
330
2
100
AcDbEntity
  8
GAIKEI
  6
Continuous
 62
     1
100
AcDbLine
 10
-43.3780323605348
 20
19.74815046114662
 30
0.0
 11
-43.38851396053485
 21
19.54815026114659
 31
0.0
  0
LINE
  5
34A
330
2
100
AcDbEntity
  8
GAIKEI
  6
Continuous
 62
     1
100
AcDbLine
 10
-53.80729596053481
 20
18.80815076114663
 30
0.0
 11
-53.80694696053485
 21
18.79815776114662
 31
0.0
  0
LINE
  5
34B
330
2
100
AcDbEntity
  8
GAIKEI
  6
Continuous
 62
     1
100
AcDbLine
 10
-53.84609606053482
 20
19.54815036114655
 30
0.0
 11
-53.8565775605349
 21
19.74815056114664
 31
0.0
  0
LINE
  5
34C
330
2
100
AcDbEntity
  8
GAIKEI
  6
Continuous
 62
     1
100
AcDbLine
 10
-53.84607716053483
 20
19.54815016114662
 30
0.0
 11
-53.80729536053479
 21
18.80815016114661
 31
0.0
  0
LINE
  5
34D
330
2
100
AcDbEntity
  8
GAIKEI
  6
Continuous
 62
     1
100
AcDbLine
 10
-45.92730466053484
 20
18.8081513611466
 30
0.0
 11
-45.88852296053483
 21
19.54815136114661
 31
0.0
  0
LINE
  5
34E
330
2
100
AcDbEntity
  8
GAIKEI
  6
Continuous
 62
     1
100
AcDbLine
 10
-45.8780404605348
 20
19.7481513611466
 30
0.0
 11
-45.8885220605348
 21
19.54815116114662
 31
0.0
  0
LINE
  5
34F
330
2
100
AcDbEntity
  8
GAIKEI
  6
Continuous
 62
     1
100
AcDbLine
 10
-46.34607776053485
 20
19.5481515611466
 30
0.0
 11
-46.35655926053482
 21
19.74815016114655
 31
0.0
  0
LINE
  5
350
330
2
100
AcDbEntity
  8
GAIKEI
  6
Continuous
 62
     1
100
AcDbLine
 10
-46.3460772605348
 20
19.54815126114658
 30
0.0
 11
-46.30729546053482
 21
18.80815116114661
 31
0.0
  0
LINE
  5
351
330
2
100
AcDbEntity
  8
GAIKEI
  6
Continuous
 62
     1
100
AcDbLine
 10
-43.84609396053486
 20
19.54814966114657
 30
0.0
 11
-43.85657556053479
 21
19.74814976114658
 31
0.0
  0
LINE
  5
352
330
2
100
AcDbEntity
  8
GAIKEI
  6
Continuous
 62
     1
100
AcDbLine
 10
-43.8460934605348
 20
19.54814926114659
 30
0.0
 11
-43.80731176053484
 21
18.80815066114655
 31
0.0
  0
LINE
  5
353
330
2
100
AcDbEntity
  8
GAIKEI
  6
Continuous
 62
     1
100
AcDbLine
 10
-53.42730466053485
 20
18.8081508611466
 30
0.0
 11
-53.38852296053483
 21
19.54815096114657
 31
0.0
  0
LINE
  5
354
330
2
100
AcDbEntity
  8
GAIKEI
  6
Continuous
 62
     1
100
AcDbLine
 10
-53.37804056053482
 20
19.74815116114661
 30
0.0
 11
-53.3885220605348
 21
19.54815096114657
 31
0.0
  0
LINE
  5
355
330
2
100
AcDbEntity
  8
GAIKEI
  6
Continuous
 62
     1
100
AcDbLine
 10
-48.42731276053484
 20
18.80815206114658
 30
0.0
 11
-48.38853106053483
 21
19.54815216114662
 31
0.0
  0
LINE
  5
356
330
2
100
AcDbEntity
  8
GAIKEI
  6
Continuous
 62
     1
100
AcDbLine
 10
-48.37804866053483
 20
19.74815066114661
 30
0.0
 11
-48.38853016053485
 21
19.54815206114659
 31
0.0
  0
LINE
  5
357
330
2
100
AcDbEntity
  8
GAIKEI
  6
Continuous
 62
     1
100
AcDbLine
 10
-48.8460858605348
 20
19.54815066114656
 30
0.0
 11
-48.85656746053484
 21
19.7481508611466
 31
0.0
  0
LINE
  5
358
330
2
100
AcDbEntity
  8
GAIKEI
  6
Continuous
 62
     1
100
AcDbLine
 10
-48.84608536053486
 20
19.54815046114663
 30
0.0
 11
-48.80730356053482
 21
18.80815046114662
 31
0.0
  0
LINE
  5
359
330
2
100
AcDbEntity
  8
GAIKEI
  6
Continuous
 62
     1
100
AcDbLine
 10
-50.92729656053484
 20
18.80815006114659
 30
0.0
 11
-50.88851486053482
 21
19.54815016114662
 31
0.0
  0
LINE
  5
35A
330
2
100
AcDbEntity
  8
GAIKEI
  6
Continuous
 62
     1
100
AcDbLine
 10
-50.8780323605348
 20
19.74815026114663
 30
0.0
 11
-50.88851396053485
 21
19.54815016114662
 31
0.0
  0
LINE
  5
35B
330
2
100
AcDbEntity
  8
GAIKEI
  6
Continuous
 62
     1
100
AcDbLine
 10
-51.34609396053486
 20
19.54814976114659
 30
0.0
 11
-51.35657556053479
 21
19.74814996114662
 31
0.0
  0
LINE
  5
35C
330
2
100
AcDbEntity
  8
GAIKEI
  6
Continuous
 62
     1
100
AcDbLine
 10
-51.3460934605348
 20
19.54814966114657
 30
0.0
 11
-51.30731166053488
 21
18.80814966114655
 31
0.0
  0
LINE
  5
35D
330
2
100
AcDbEntity
  8
GAIKEI
  6
Continuous
 62
     1
100
AcDbLine
 10
-45.87804656053481
 20
19.74815146114656
 30
0.0
 11
-45.87283196053483
 21
19.44940706114664
 31
0.0
  0
LINE
  5
35E
330
2
100
AcDbEntity
  8
GAIKEI
  6
Continuous
 62
     1
100
AcDbLine
 10
-46.36160726053486
 20
19.45935076114659
 30
0.0
 11
-46.35656626053481
 21
19.74815106114659
 31
0.0
  0
LINE
  5
35F
330
2
100
AcDbEntity
  8
GAIKEI
  6
Continuous
 62
     1
100
AcDbLine
 10
-43.37803196053482
 20
19.74815176114657
 30
0.0
 11
-43.37281736053483
 21
19.44940736114659
 31
0.0
  0
LINE
  5
360
330
2
100
AcDbEntity
  8
GAIKEI
  6
Continuous
 62
     1
100
AcDbLine
 10
-43.86161716053481
 20
19.45935096114658
 30
0.0
 11
-43.85657606053484
 21
19.74815126114663
 31
0.0
  0
LINE
  5
361
330
2
100
AcDbEntity
  8
GAIKEI
  6
Continuous
 62
     1
100
AcDbLine
 10
-50.87805136053487
 20
19.7481513611466
 30
0.0
 11
-50.87283676053482
 21
19.4494068611466
 31
0.0
  0
LINE
  5
362
330
2
100
AcDbEntity
  8
GAIKEI
  6
Continuous
 62
     1
100
AcDbLine
 10
-51.36161206053481
 20
19.45935096114658
 30
0.0
 11
-51.3565710605348
 21
19.74815126114663
 31
0.0
  0
LINE
  5
363
330
2
100
AcDbEntity
  8
GAIKEI
  6
Continuous
 62
     1
100
AcDbLine
 10
-48.37803676053482
 20
19.74815166114661
 30
0.0
 11
-48.37282216053484
 21
19.44940716114661
 31
0.0
  0
LINE
  5
364
330
2
100
AcDbEntity
  8
GAIKEI
  6
Continuous
 62
     1
100
AcDbLine
 10
-48.86162186053486
 20
19.4593510611466
 30
0.0
 11
-48.85658086053479
 21
19.7481513611466
 31
0.0
  0
LINE
  5
365
330
2
100
AcDbEntity
  8
GAIKEI
  6
Continuous
 62
     1
100
AcDbLine
 10
-53.3780414605348
 20
19.74815156114658
 30
0.0
 11
-53.37282686053481
 21
19.44940706114664
 31
0.0
  0
LINE
  5
366
330
2
100
AcDbEntity
  8
GAIKEI
  6
Continuous
 62
     1
100
AcDbLine
 10
-53.86160226053482
 20
19.45935076114659
 30
0.0
 11
-53.85656116053485
 21
19.74815106114659
 31
0.0
  0
LINE
  5
367
330
2
100
AcDbEntity
  8
GAIKEI
  6
Continuous
100
AcDbLine
 10
-51.35656456053482
 20
19.74815176114657
 30
0.0
 11
-50.87804896053484
 21
19.74815176114657
 31
0.0
  0
LINE
  5
368
330
2
100
AcDbEntity
  8
GAIKEI
  6
Continuous
100
AcDbLine
 10
-48.85656456053482
 20
19.74815176114657
 30
0.0
 11
-48.37804896053484
 21
19.74815176114657
 31
0.0
  0
LINE
  5
369
330
2
100
AcDbEntity
  8
GAIKEI
  6
Continuous
100
AcDbLine
 10
-43.85656456053482
 20
19.74815176114657
 30
0.0
 11
-43.37804896053484
 21
19.74815176114657
 31
0.0
  0
LINE
  5
36A
330
2
100
AcDbEntity
  8
GAIKEI
  6
Continuous
100
AcDbLine
 10
-46.35656456053482
 20
19.74815176114657
 30
0.0
 11
-45.87804896053484
 21
19.74815176114657
 31
0.0
  0
LINE
  5
36B
330
2
100
AcDbEntity
  8
GAIKEI
  6
Continuous
 62
     1
100
AcDbLine
 10
-53.82748746053483
 20
18.8081508611466
 30
0.0
 11
-53.80729696053482
 21
18.8081508611466
 31
0.0
  0
LINE
  5
36C
330
2
100
AcDbEntity
  8
GAIKEI
  6
Continuous
 62
     1
100
AcDbLine
 10
-43.42731656053479
 20
18.8081508611466
 30
0.0
 11
-43.40644246053483
 21
18.8081508611466
 31
0.0
  0
LINE
  5
36D
330
2
100
AcDbEntity
  8
GAIKEI
  6
Continuous
 62
     1
100
AcDbLine
 10
-46.30729696053481
 20
18.8081508611466
 30
0.0
 11
-45.92731656053479
 21
18.8081508611466
 31
0.0
  0
LINE
  5
36E
330
2
100
AcDbEntity
  8
GAIKEI
  6
Continuous
 62
     1
100
AcDbLine
 10
-51.30729696053482
 20
18.8081508611466
 30
0.0
 11
-50.92731656053479
 21
18.8081508611466
 31
0.0
  0
LINE
  5
36F
330
2
100
AcDbEntity
  8
GAIKEI
  6
Continuous
 62
     1
100
AcDbLine
 10
-48.80729696053482
 20
18.8081508611466
 30
0.0
 11
-48.42731656053479
 21
18.8081508611466
 31
0.0
  0
LINE
  5
370
330
2
100
AcDbEntity
  8
GAIKEI
  6
Continuous
 62
     1
100
AcDbLine
 10
-53.80729696053482
 20
18.8081508611466
 30
0.0
 11
-53.42731656053484
 21
18.8081508611466
 31
0.0
  0
LINE
  5
371
330
2
100
AcDbEntity
  8
GAIKEI
  6
Continuous
 62
     1
100
AcDbLine
 10
-43.80729696053481
 20
18.8081508611466
 30
0.0
 11
-43.42731656053479
 21
18.8081508611466
 31
0.0
  0
LINE
  5
372
330
2
100
AcDbEntity
  8
GAIKEI
  6
Continuous
 62
     1
100
AcDbLine
 10
-51.36625696053482
 20
19.54815786114659
 30
0.0
 11
-53.36764856053486
 21
19.54815786114659
 31
0.0
  0
LINE
  5
373
330
2
100
AcDbEntity
  8
GAIKEI
  6
Continuous
 62
     1
100
AcDbLine
 10
-48.86625696053482
 20
19.54815786114659
 30
0.0
 11
-50.86764856053486
 21
19.54815786114659
 31
0.0
  0
LINE
  5
374
330
2
100
AcDbEntity
  8
GAIKEI
  6
Continuous
 62
     1
100
AcDbLine
 10
-46.36625696053482
 20
19.54815786114659
 30
0.0
 11
-48.36764856053486
 21
19.54815786114659
 31
0.0
  0
LINE
  5
375
330
2
100
AcDbEntity
  8
GAIKEI
  6
Continuous
 62
     1
100
AcDbLine
 10
-43.86625696053482
 20
19.54815786114659
 30
0.0
 11
-45.86764856053486
 21
19.54815786114659
 31
0.0
  0
LINE
  5
376
330
2
100
AcDbEntity
  8
GAIKEI
  6
Continuous
 62
     1
100
AcDbLine
 10
-9.956955160534846
 20
19.54815786114659
 30
0.0
 11
-43.36764856053486
 21
19.54815786114659
 31
0.0
  0
LINE
  5
377
330
2
100
AcDbEntity
  8
GAIKEI
  6
Continuous
 62
     1
100
AcDbLine
 10
-53.86625696053482
 20
19.54815786114659
 30
0.0
 11
-55.27695036053484
 21
19.54815786114659
 31
0.0
  0
LINE
  5
378
330
2
100
AcDbEntity
  8
GAIKEI
  6
Continuous
 62
     1
100
AcDbLine
 10
-55.27695036053484
 20
19.74815786114664
 30
0.0
 11
-55.27695036053484
 21
19.54815786114659
 31
0.0
  0
ARC
  5
379
330
2
100
AcDbEntity
  8
GAIKEI
  6
Continuous
 62
     1
100
AcDbCircle
 10
-55.27695036053484
 20
17.50815696114659
 30
0.0
 40
2.0399994
100
AcDbArc
 50
89.9999820000008
 51
179.9999640000016
  0
LINE
  5
37A
330
2
100
AcDbEntity
  8
GAIKEI
  6
Continuous
 62
     1
100
AcDbLine
 10
-57.31696496053484
 20
17.50815696114659
 30
0.0
 11
-57.51696496053483
 21
17.50815696114659
 31
0.0
  0
LINE
  5
37B
330
2
100
AcDbEntity
  8
GAIKEI
  6
Continuous
 62
     1
100
AcDbLine
 10
-57.31696496053484
 20
17.50815696114659
 30
0.0
 11
-57.31696496053484
 21
6.488157261146625
 31
0.0
  0
LINE
  5
37C
330
2
100
AcDbEntity
  8
GAIKEI
  6
Continuous
 62
     1
100
AcDbLine
 10
-57.31696496053484
 20
6.488157261146625
 30
0.0
 11
-57.51696496053483
 21
6.488157261146625
 31
0.0
  0
ARC
  5
37D
330
2
100
AcDbEntity
  8
GAIKEI
  6
Continuous
 62
     1
100
AcDbCircle
 10
-55.27695036053484
 20
6.488157261146625
 30
0.0
 40
2.0399994
100
AcDbArc
 50
179.9999640000016
 51
270.0000009999949
  0
LINE
  5
37E
330
2
100
AcDbEntity
  8
GAIKEI
  6
Continuous
 62
     1
100
AcDbLine
 10
-55.27695036053484
 20
4.448156361146573
 30
0.0
 11
-55.27695036053484
 21
4.248156361146584
 31
0.0
  0
LINE
  5
37F
330
2
100
AcDbEntity
  8
GAIKEI
  6
Continuous
 62
     1
100
AcDbLine
 10
-55.27695036053484
 20
4.448156361146573
 30
0.0
 11
-9.956955160534846
 21
4.448156361146573
 31
0.0
  0
LINE
  5
380
330
2
100
AcDbEntity
  8
GAIKEI
  6
Continuous
 62
     1
100
AcDbLine
 10
-9.956955260534812
 20
4.448157061146616
 30
0.0
 11
-9.956955260534812
 21
4.248157061146571
 31
0.0
  0
ARC
  5
381
330
2
100
AcDbEntity
  8
GAIKEI
  6
Continuous
 62
     1
100
AcDbCircle
 10
-9.956955160534846
 20
6.488157261146625
 30
0.0
 40
2.0399994
100
AcDbArc
 50
270.0000009999949
 51
359.999982999999
  0
LINE
  5
382
330
2
100
AcDbEntity
  8
GAIKEI
  6
Continuous
 62
     1
100
AcDbLine
 10
-7.916964960534869
 20
6.488157261146625
 30
0.0
 11
-7.716964960534824
 21
6.488157261146625
 31
0.0
  0
LINE
  5
383
330
2
100
AcDbEntity
  8
GAIKEI
  6
Continuous
 62
     1
100
AcDbLine
 10
-7.916964960534869
 20
6.488157261146625
 30
0.0
 11
-7.916964960534869
 21
17.50815696114659
 31
0.0
  0
LINE
  5
384
330
2
100
AcDbEntity
  8
GAIKEI
  6
Continuous
 62
     1
100
AcDbLine
 10
-7.916964960534869
 20
17.50815696114659
 30
0.0
 11
-7.716964960534824
 21
17.50815696114659
 31
0.0
  0
ARC
  5
385
330
2
100
AcDbEntity
  8
GAIKEI
  6
Continuous
 62
     1
100
AcDbCircle
 10
-9.956955160534846
 20
17.50815696114659
 30
0.0
 40
2.0399994
100
AcDbArc
 50
0.0
 51
89.9999820000008
  0
LINE
  5
386
330
2
100
AcDbEntity
  8
GAIKEI
  6
Continuous
 62
     1
100
AcDbLine
 10
-9.956955160534846
 20
19.54815786114659
 30
0.0
 11
-9.956955160534846
 21
19.74815786114664
 31
0.0
  0
CIRCLE
  5
387
330
2
100
AcDbEntity
  8
GAIKEI
  6
Continuous
 62
     1
100
AcDbCircle
 10
-42.16696496053481
 20
15.6381572611466
 30
0.0
 40
1.2024445
  0
LINE
  5
388
330
2
100
AcDbEntity
  8
GAIKEI
  6
Continuous
 62
     1
100
AcDbLine
 10
-36.30433306053487
 20
9.206114061146593
 30
0.0
 11
-36.30345716053483
 21
9.206777261146612
 31
0.0
  0
CIRCLE
  5
389
330
2
100
AcDbEntity
  8
GAIKEI
  6
Continuous
 62
     1
100
AcDbCircle
 10
-32.6169649605348
 20
11.99815636114658
 30
0.0
 40
7.301745600000002
  0
LINE
  5
38A
330
2
100
AcDbEntity
  8
GAIKEI
  6
Continuous
 62
     1
100
AcDbLine
 10
-53.85744346053479
 20
19.69811206114662
 30
0.0
 11
-53.87411826053483
 21
19.69811206114662
 31
0.0
  0
LINE
  5
38B
330
2
100
AcDbEntity
  8
GAIKEI
  6
Continuous
100
AcDbLine
 10
-50.8597872605348
 20
19.69811206114662
 30
0.0
 11
-50.87717006053487
 21
19.69811206114662
 31
0.0
  0
LINE
  5
38C
330
2
100
AcDbEntity
  8
GAIKEI
  6
Continuous
100
AcDbLine
 10
-43.85744346053479
 20
19.69811206114662
 30
0.0
 11
-43.87411826053482
 21
19.69811206114662
 31
0.0
  0
SPLINE
  5
38D
330
2
100
AcDbEntity
  8
GAIKEI
  6
Continuous
100
AcDbSpline
210
0.0
220
0.0
230
1.0
 70
     8
 71
     3
 72
     9
 73
     5
 74
     3
 42
0.0000000001
 43
0.0000000001
 44
0.000001
 12
0.0000000000000001
 22
-1.0
 32
0.0
 13
0.6460860784719182
 23
0.7632645538768185
 33
0.0
 40
0.0
 40
0.0
 40
0.0
 40
0.0
 40
0.0000038155187419
 40
0.0000046658859305
 40
0.0000046658859305
 40
0.0000046658859305
 40
0.0000046658859305
 10
-57.51288781209729
 20
17.643348316713
 30
0.0
 10
-57.51288781209729
 20
17.64334704487339
 30
0.0
 10
-57.51288855547485
 20
17.64334646503505
 30
0.0
 10
-57.51288799523408
 20
17.64334352272453
 30
0.0
 10
-57.51288781209729
 20
17.64334373907627
 30
0.0
 11
-57.51288781209729
 21
17.643348316713
 31
0.0
 11
-57.51288781209729
 21
17.64334545569005
 31
0.0
 11
-57.51288781209729
 21
17.64334373907627
 31
0.0
  0
LINE
  5
38E
330
2
100
AcDbEntity
  8
GAIKEI
  6
Continuous
100
AcDbLine
 10
-7.716964960534824
 20
17.50815696114659
 30
0.0
 11
-7.716964960534824
 21
6.488157261146625
 31
0.0
  0
LINE
  5
38F
330
2
100
AcDbEntity
  8
GAIKEI
  6
Continuous
100
AcDbLine
 10
-43.35717496053485
 20
19.74815786114664
 30
0.0
 11
-9.956955160534846
 21
19.74815786114664
 31
0.0
  0
LINE
  5
390
330
2
100
AcDbEntity
  8
GAIKEI
  6
Continuous
100
AcDbLine
 10
-43.37804896053484
 20
19.74815786114664
 30
0.0
 11
-43.35717496053485
 21
19.74815786114664
 31
0.0
  0
LINE
  5
391
330
2
100
AcDbEntity
  8
GAIKEI
  6
Continuous
100
AcDbLine
 10
-43.87675496053486
 20
19.74815786114664
 30
0.0
 11
-43.85656456053482
 21
19.74815786114664
 31
0.0
  0
LINE
  5
392
330
2
100
AcDbEntity
  8
GAIKEI
  6
Continuous
100
AcDbLine
 10
-45.85717496053485
 20
19.74815786114664
 30
0.0
 11
-43.87675496053486
 21
19.74815786114664
 31
0.0
  0
LINE
  5
393
330
2
100
AcDbEntity
  8
GAIKEI
  6
Continuous
100
AcDbLine
 10
-45.87804896053484
 20
19.74815786114664
 30
0.0
 11
-45.85717496053485
 21
19.74815786114664
 31
0.0
  0
LINE
  5
394
330
2
100
AcDbEntity
  8
GAIKEI
  6
Continuous
100
AcDbLine
 10
-46.37675496053486
 20
19.74815786114664
 30
0.0
 11
-46.35656456053482
 21
19.74815786114664
 31
0.0
  0
LINE
  5
395
330
2
100
AcDbEntity
  8
GAIKEI
  6
Continuous
100
AcDbLine
 10
-48.35717496053485
 20
19.74815786114664
 30
0.0
 11
-46.37675496053486
 21
19.74815786114664
 31
0.0
  0
LINE
  5
396
330
2
100
AcDbEntity
  8
GAIKEI
  6
Continuous
100
AcDbLine
 10
-48.37804896053484
 20
19.74815786114664
 30
0.0
 11
-48.35717496053485
 21
19.74815786114664
 31
0.0
  0
LINE
  5
397
330
2
100
AcDbEntity
  8
GAIKEI
  6
Continuous
100
AcDbLine
 10
-48.87675496053486
 20
19.74815786114664
 30
0.0
 11
-48.85656456053482
 21
19.74815786114664
 31
0.0
  0
LINE
  5
398
330
2
100
AcDbEntity
  8
GAIKEI
  6
Continuous
100
AcDbLine
 10
-50.85717496053485
 20
19.74815786114664
 30
0.0
 11
-48.87675496053486
 21
19.74815786114664
 31
0.0
  0
LINE
  5
399
330
2
100
AcDbEntity
  8
GAIKEI
  6
Continuous
100
AcDbLine
 10
-50.87804896053484
 20
19.74815786114664
 30
0.0
 11
-50.85717496053485
 21
19.74815786114664
 31
0.0
  0
LINE
  5
39A
330
2
100
AcDbEntity
  8
GAIKEI
  6
Continuous
100
AcDbLine
 10
-51.37675496053486
 20
19.74815786114664
 30
0.0
 11
-51.35656456053482
 21
19.74815786114664
 31
0.0
  0
LINE
  5
39B
330
2
100
AcDbEntity
  8
GAIKEI
  6
Continuous
100
AcDbLine
 10
-51.37675496053486
 20
19.74815786114664
 30
0.0
 11
-55.27695036053484
 21
19.74815786114664
 31
0.0
  0
LINE
  5
39C
330
2
100
AcDbEntity
  8
GAIKEI
  6
Continuous
100
AcDbLine
 10
-57.47331266053482
 20
6.048156361146595
 30
0.0
 11
-57.47023646053486
 21
6.048156361146595
 31
0.0
  0
LINE
  5
39D
330
2
100
AcDbEntity
  8
GAIKEI
  6
Continuous
100
AcDbLine
 10
-7.76366906053488
 20
6.048156361146595
 30
0.0
 11
-7.760592860534814
 21
6.048156361146595
 31
0.0
  0
LINE
  5
39E
330
2
100
AcDbEntity
  8
GAIKEI
  6
Continuous
100
AcDbLine
 10
-57.51696496053483
 20
6.488157261146625
 30
0.0
 11
-57.51696496053483
 21
17.50815696114659
 31
0.0
  0
ARC
  5
39F
330
2
100
AcDbEntity
  8
GAIKEI
  6
Continuous
100
AcDbCircle
 10
-9.956955160534846
 20
17.50815696114659
 30
0.0
 40
2.239999399999999
100
AcDbArc
 50
0.0
 51
89.9999820000008
  0
ARC
  5
3A0
330
2
100
AcDbEntity
  8
GAIKEI
  6
Continuous
100
AcDbCircle
 10
-55.27695036053484
 20
17.50815696114659
 30
0.0
 40
2.239999399999999
100
AcDbArc
 50
89.9999820000008
 51
179.9999640000016
  0
ARC
  5
3A1
330
2
100
AcDbEntity
  8
GAIKEI
  6
Continuous
100
AcDbCircle
 10
-55.27695036053484
 20
6.488157261146625
 30
0.0
 40
2.239999399999999
100
AcDbArc
 50
179.9999640000016
 51
270.0000009999949
  0
ARC
  5
3A2
330
2
100
AcDbEntity
  8
GAIKEI
  6
Continuous
100
AcDbCircle
 10
-9.956955160534846
 20
6.488157261146625
 30
0.0
 40
2.239999399999999
100
AcDbArc
 50
270.0000009999949
 51
359.999982999999
  0
LINE
  5
3A3
330
2
100
AcDbEntity
  8
GAIKEI
  6
Continuous
100
AcDbLine
 10
-9.956955160534846
 20
4.248156361146584
 30
0.0
 11
-55.27695036053484
 21
4.248156361146584
 31
0.0
  0
LINE
  5
3A4
330
2
100
AcDbEntity
  8
GAIKEI
  6
Continuous
 62
     1
100
AcDbLine
 10
-45.86764436053482
 20
19.54815736114659
 30
0.0
 11
-45.90695026053481
 21
18.7981566611466
 31
0.0
  0
LINE
  5
3A5
330
2
100
AcDbEntity
  8
GAIKEI
  6
Continuous
 62
     1
100
AcDbLine
 10
-45.85716286053485
 20
19.74815756114663
 30
0.0
 11
-45.86764436053482
 21
19.54815736114659
 31
0.0
  0
LINE
  5
3A6
330
2
100
AcDbEntity
  8
GAIKEI
  6
Continuous
 62
     1
100
AcDbLine
 10
-46.36627116053483
 20
19.54815646114662
 30
0.0
 11
-46.37675276053482
 21
19.74815656114663
 31
0.0
  0
LINE
  5
3A7
330
2
100
AcDbEntity
  8
GAIKEI
  6
Continuous
 62
     1
100
AcDbLine
 10
-46.32696536053481
 20
18.79815576114663
 30
0.0
 11
-46.36627116053483
 21
19.54815646114662
 31
0.0
  0
LINE
  5
3A8
330
2
100
AcDbEntity
  8
GAIKEI
  6
Continuous
 62
     1
100
AcDbLine
 10
-43.36766066053485
 20
19.54815786114659
 30
0.0
 11
-43.40696656053483
 21
18.7981571611466
 31
0.0
  0
LINE
  5
3A9
330
2
100
AcDbEntity
  8
GAIKEI
  6
Continuous
 62
     1
100
AcDbLine
 10
-43.35717916053482
 20
19.74815806114657
 30
0.0
 11
-43.36766066053485
 21
19.54815786114659
 31
0.0
  0
LINE
  5
3AA
330
2
100
AcDbEntity
  8
GAIKEI
  6
Continuous
 62
     1
100
AcDbLine
 10
-43.86626306053483
 20
19.5481571611466
 30
0.0
 11
-43.8767445605348
 21
19.74815586114658
 31
0.0
  0
LINE
  5
3AB
330
2
100
AcDbEntity
  8
GAIKEI
  6
Continuous
 62
     1
100
AcDbLine
 10
-43.82695726053481
 20
18.79815646114662
 30
0.0
 11
-43.86626306053483
 21
19.5481571611466
 31
0.0
  0
LINE
  5
3AC
330
2
100
AcDbEntity
  8
GAIKEI
  6
Continuous
 62
     1
100
AcDbLine
 10
-48.36765256053479
 20
19.54815656114658
 30
0.0
 11
-48.40695836053487
 21
18.79815746114661
 31
0.0
  0
LINE
  5
3AD
330
2
100
AcDbEntity
  8
GAIKEI
  6
Continuous
 62
     1
100
AcDbLine
 10
-48.35717106053483
 20
19.74815676114656
 30
0.0
 11
-48.36765256053479
 21
19.54815656114658
 31
0.0
  0
LINE
  5
3AE
330
2
100
AcDbEntity
  8
GAIKEI
  6
Continuous
 62
     1
100
AcDbLine
 10
-48.86625496053483
 20
19.54815696114656
 30
0.0
 11
-48.8767364605348
 21
19.74815706114657
 31
0.0
  0
LINE
  5
3AF
330
2
100
AcDbEntity
  8
GAIKEI
  6
Continuous
 62
     1
100
AcDbLine
 10
-48.82694906053484
 20
18.79815626114657
 30
0.0
 11
-48.86625496053483
 21
19.54815696114656
 31
0.0
  0
LINE
  5
3B0
330
2
100
AcDbEntity
  8
GAIKEI
  6
Continuous
 62
     1
100
AcDbLine
 10
-50.86766066053485
 20
19.54815736114659
 30
0.0
 11
-50.90696646053482
 21
18.7981581611466
 31
0.0
  0
LINE
  5
3B1
330
2
100
AcDbEntity
  8
GAIKEI
  6
Continuous
 62
     1
100
AcDbLine
 10
-50.85717916053482
 20
19.74815756114663
 30
0.0
 11
-50.86766066053485
 21
19.54815736114659
 31
0.0
  0
LINE
  5
3B2
330
2
100
AcDbEntity
  8
GAIKEI
  6
Continuous
 62
     1
100
AcDbLine
 10
-51.36626306053483
 20
19.54815616114661
 30
0.0
 11
-51.3767445605348
 21
19.74815636114658
 31
0.0
  0
LINE
  5
3B3
330
2
100
AcDbEntity
  8
GAIKEI
  6
Continuous
 62
     1
100
AcDbLine
 10
-51.32695726053481
 20
18.79815696114656
 30
0.0
 11
-51.36626306053483
 21
19.54815616114661
 31
0.0
  0
LINE
  5
3B4
330
2
100
AcDbEntity
  8
GAIKEI
  6
Continuous
 62
     1
100
AcDbLine
 10
-53.36764446053485
 20
19.54815686114659
 30
0.0
 11
-53.40695026053481
 21
18.79815616114661
 31
0.0
  0
LINE
  5
3B5
330
2
100
AcDbEntity
  8
GAIKEI
  6
Continuous
 62
     1
100
AcDbLine
 10
-53.35716286053486
 20
19.74815706114657
 30
0.0
 11
-53.36764446053485
 21
19.54815686114659
 31
0.0
  0
LINE
  5
3B6
330
2
100
AcDbEntity
  8
GAIKEI
  6
Continuous
 62
     1
100
AcDbLine
 10
-53.86627116053483
 20
19.5481553611466
 30
0.0
 11
-53.87675266053486
 21
19.74815556114663
 31
0.0
  0
LINE
  5
3B7
330
2
100
AcDbEntity
  8
GAIKEI
  6
Continuous
 62
     1
100
AcDbLine
 10
-53.82696536053481
 20
18.79815616114661
 30
0.0
 11
-53.86627116053483
 21
19.5481553611466
 31
0.0
  0
LINE
  5
3B8
330
2
100
AcDbEntity
  8
GAIKEI
  6
Continuous
 62
     1
100
AcDbLine
 10
-43.3754122605348
 20
19.59811206114659
 30
0.0
 11
-43.36503626053479
 21
19.59811206114659
 31
0.0
  0
LINE
  5
3B9
330
2
100
AcDbEntity
  8
GAIKEI
  6
Continuous
 62
     1
100
AcDbLine
 10
-45.88591026053484
 20
19.59811206114659
 30
0.0
 11
-45.86503626053479
 21
19.59811206114659
 31
0.0
  0
LINE
  5
3BA
330
2
100
AcDbEntity
  8
GAIKEI
  6
Continuous
 62
     1
100
AcDbLine
 10
-48.86889366053487
 20
19.59811206114659
 30
0.0
 11
-48.85917686053483
 21
19.59811206114659
 31
0.0
  0
LINE
  5
3BB
330
2
100
AcDbEntity
  8
GAIKEI
  6
Continuous
 62
     1
100
AcDbLine
 10
-51.36889366053487
 20
19.59811206114659
 30
0.0
 11
-51.35917686053483
 21
19.59811206114659
 31
0.0
  0
LINE
  5
3BC
330
2
100
AcDbEntity
  8
GAIKEI
  6
Continuous
 62
     1
100
AcDbLine
 10
-53.40695516053483
 20
18.79815786114659
 30
0.0
 11
-53.82695036053485
 21
18.79815786114659
 31
0.0
  0
LINE
  5
3BD
330
2
100
AcDbEntity
  8
GAIKEI
  6
Continuous
 62
     1
100
AcDbLine
 10
-50.90695516053483
 20
18.79815786114659
 30
0.0
 11
-51.32695036053485
 21
18.79815786114659
 31
0.0
  0
LINE
  5
3BE
330
2
100
AcDbEntity
  8
GAIKEI
  6
Continuous
 62
     1
100
AcDbLine
 10
-48.40695516053483
 20
18.79815786114659
 30
0.0
 11
-48.82695036053485
 21
18.79815786114659
 31
0.0
  0
LINE
  5
3BF
330
2
100
AcDbEntity
  8
GAIKEI
  6
Continuous
 62
     1
100
AcDbLine
 10
-43.40695516053483
 20
18.79815786114659
 30
0.0
 11
-43.82695036053485
 21
18.79815786114659
 31
0.0
  0
LINE
  5
3C0
330
2
100
AcDbEntity
  8
GAIKEI
  6
Continuous
 62
     1
100
AcDbLine
 10
-45.90695516053483
 20
18.79815786114659
 30
0.0
 11
-46.32695036053485
 21
18.79815786114659
 31
0.0
  0
ARC
  5
3C1
330
2
100
AcDbEntity
  8
GAIKEI
  6
Continuous
100
AcDbCircle
 10
-57.22121296053484
 20
18.12577016114659
 30
0.0
 40
0.2
100
AcDbArc
 50
162.3770379999985
 51
177.3539490000005
  0
LINE
  5
3C2
330
2
100
AcDbEntity
  8
GAIKEI
  6
Continuous
 62
     1
100
AcDbLine
 10
-30.1169649605348
 20
2.639440561146557
 30
0.0
 11
-30.1169649605348
 21
3.748151761146573
 31
0.0
  0
LINE
  5
3C3
330
2
100
AcDbEntity
  8
GAIKEI
  6
Continuous
 62
     1
100
AcDbLine
 10
-35.1169649605348
 20
2.639440561146557
 30
0.0
 11
-35.1169649605348
 21
3.748151761146573
 31
0.0
  0
LINE
  5
3C4
330
2
100
AcDbEntity
  8
GAIKEI
  6
Continuous
 62
     1
100
AcDbLine
 10
-35.6249483605348
 20
2.639440561146557
 30
0.0
 11
-35.1169649605348
 21
2.639440561146557
 31
0.0
  0
LINE
  5
3C5
330
2
100
AcDbEntity
  8
GAIKEI
  6
Continuous
 62
     1
100
AcDbLine
 10
-35.1169649605348
 20
2.639440561146557
 30
0.0
 11
-30.1169649605348
 21
2.639440561146557
 31
0.0
  0
LINE
  5
3C6
330
2
100
AcDbEntity
  8
GAIKEI
  6
Continuous
 62
     1
100
AcDbLine
 10
-35.1169649605348
 20
2.548156361146595
 30
0.0
 11
-35.1169649605348
 21
2.639440561146557
 31
0.0
  0
LINE
  5
3C7
330
2
100
AcDbEntity
  8
GAIKEI
  6
Continuous
 62
     1
100
AcDbLine
 10
-30.1169649605348
 20
2.639440561146557
 30
0.0
 11
-29.60898156053486
 21
2.639440561146557
 31
0.0
  0
LINE
  5
3C8
330
2
100
AcDbEntity
  8
GAIKEI
  6
Continuous
 62
     1
100
AcDbLine
 10
-30.1169649605348
 20
2.548156361146595
 30
0.0
 11
-30.1169649605348
 21
2.639440561146557
 31
0.0
  0
LINE
  5
3C9
330
2
100
AcDbEntity
  8
GAIKEI
  6
Continuous
 62
     1
100
AcDbLine
 10
-38.61696496053486
 20
3.848156361146607
 30
0.0
 11
-38.61696496053486
 21
4.248156361146584
 31
0.0
  0
LINE
  5
3CA
330
2
100
AcDbEntity
  8
GAIKEI
  6
Continuous
 62
     1
100
AcDbLine
 10
-26.6169649605348
 20
3.848156361146607
 30
0.0
 11
-26.6169649605348
 21
4.248156361146584
 31
0.0
  0
LINE
  5
3CB
330
2
100
AcDbEntity
  8
GAIKEI
  6
Continuous
 62
     1
100
AcDbLine
 10
-26.6169649605348
 20
3.848156361146607
 30
0.0
 11
-26.21833216053483
 21
3.848156361146607
 31
0.0
  0
LINE
  5
3CC
330
2
100
AcDbEntity
  8
GAIKEI
  6
Continuous
 62
     1
100
AcDbLine
 10
-38.61696496053486
 20
3.848156361146607
 30
0.0
 11
-26.6169649605348
 21
3.848156361146607
 31
0.0
  0
LINE
  5
3CD
330
2
100
AcDbEntity
  8
GAIKEI
  6
Continuous
 62
     1
100
AcDbLine
 10
-26.6169649605348
 20
3.848156361146607
 30
0.0
 11
-26.6169649605348
 21
3.748156361146584
 31
0.0
  0
LINE
  5
3CE
330
2
100
AcDbEntity
  8
GAIKEI
  6
Continuous
 62
     1
100
AcDbLine
 10
-39.0155733605348
 20
3.848156361146607
 30
0.0
 11
-38.61696496053486
 21
3.848156361146607
 31
0.0
  0
LINE
  5
3CF
330
2
100
AcDbEntity
  8
GAIKEI
  6
Continuous
 62
     1
100
AcDbLine
 10
-38.61696496053486
 20
3.848156361146607
 30
0.0
 11
-38.61696496053486
 21
3.748156361146584
 31
0.0
  0
SPLINE
  5
3D0
330
2
100
AcDbEntity
  8
GAIKEI
  6
Continuous
100
AcDbSpline
210
0.0
220
0.0
230
1.0
 70
     8
 71
     3
 72
     9
 73
     5
 74
     3
 42
0.0000000001
 43
0.0000000001
 44
0.000001
 12
0.9998651232485189
 22
-0.0164236205272784
 32
0.0
 13
0.2587396205779466
 23
-0.9659471045265265
 33
0.0
 40
0.0
 40
0.0
 40
0.0
 40
0.0
 40
0.0000128894870524
 40
0.0000248127609475
 40
0.0000248127609475
 40
0.0000248127609475
 40
0.0000248127609475
 10
-9.762546015222312
 20
4.256609730287209
 30
0.0
 10
-9.762541719306128
 20
4.25660965972321
 30
0.0
 10
-9.762534824448245
 20
4.256609348955464
 30
0.0
 10
-9.762522629500914
 20
4.256610517613353
 30
0.0
 10
-9.762521601159789
 20
4.256606678529408
 30
0.0
 11
-9.762546015222312
 21
4.256609730287209
 31
0.0
 11
-9.762533845463906
 21
4.256609041819103
 31
0.0
 11
-9.762521601159789
 21
4.256606678529408
 31
0.0
  0
SPLINE
  5
3D1
330
2
100
AcDbEntity
  8
GAIKEI
  6
Continuous
100
AcDbSpline
210
0.0
220
0.0
230
1.0
 70
     8
 71
     3
 72
     9
 73
     5
 74
     3
 42
0.0000000001
 43
0.0000000001
 44
0.000001
 12
0.9735788853902887
 22
0.2283509446492466
 32
0.0
 13
0.9771437995180457
 23
0.2125793853209601
 33
0.0
 40
0.0
 40
0.0
 40
0.0
 40
0.0
 40
0.0000263920890201
 40
0.0000503314087905
 40
0.0000503314087905
 40
0.0000503314087905
 40
0.0000503314087905
 10
-9.444381952722324
 20
4.307589344545021
 30
0.0
 10
-9.444373387795451
 20
4.307591353431178
 30
0.0
 10
-9.444357180999531
 20
4.30759569630743
 30
0.0
 10
-9.444340921983297
 20
4.307599855240994
 30
0.0
 10
-9.444333124597335
 20
4.307601551576283
 30
0.0
 11
-9.444381952722324
 21
4.307589344545021
 31
0.0
 11
-9.44435636876733
 21
4.307595814890078
 31
0.0
 11
-9.444333124597335
 21
4.307601551576283
 31
0.0
  0
SPLINE
  5
3D2
330
2
100
AcDbEntity
  8
GAIKEI
  6
Continuous
100
AcDbSpline
210
0.0
220
0.0
230
1.0
 70
     8
 71
     3
 72
     9
 73
     5
 74
     3
 42
0.0000000001
 43
0.0000000001
 44
0.000001
 12
-0.9736397745146724
 22
0.2280911867719086
 32
0.0
 13
-0.9510265476706667
 23
0.3091092131037396
 33
0.0
 40
0.0
 40
0.0
 40
0.0
 40
0.0
 40
0.0000260367799336
 40
0.0000511677832298
 40
0.0000511677832298
 40
0.0000511677832298
 40
0.0000511677832298
 10
-55.78898644490982
 20
4.307461170716919
 30
0.0
 10
-55.78899489505801
 20
4.30746315030359
 30
0.0
 10
-55.78901122470163
 20
4.307468173425093
 30
0.0
 10
-55.78902730628438
 20
4.30747384009777
 30
0.0
 10
-55.78903527303481
 20
4.307476429505982
 30
0.0
 11
-55.78898644490982
 21
4.307461170716919
 31
0.0
 11
-55.78901148068251
 21
4.307468384621301
 31
0.0
 11
-55.78903527303481
 21
4.307476429505982
 31
0.0
  0
SPLINE
  5
3D3
330
2
100
AcDbEntity
  8
GAIKEI
  6
Continuous
100
AcDbSpline
210
0.0
220
0.0
230
1.0
 70
     8
 71
     3
 72
     9
 73
     5
 74
     3
 42
0.0000000001
 43
0.0000000001
 44
0.000001
 12
0.0000000000000001
 22
-1.0
 32
0.0
 13
-0.9510265476706667
 23
0.3091092131037396
 33
0.0
 40
0.0
 40
0.0
 40
0.0
 40
0.0
 40
0.0000012642815467
 40
0.0000016155083406
 40
0.0000016155083406
 40
0.0000016155083406
 40
0.0000016155083406
 10
-55.47135949178482
 20
4.25660820440828
 30
0.0
 10
-55.47135949178482
 20
4.25660778298112
 30
0.0
 10
-55.47135906749418
 20
4.256607411902052
 30
0.0
 10
-55.47135938044282
 20
4.256606642340273
 30
0.0
 10
-55.47135949178482
 20
4.256606678529408
 30
0.0
 11
-55.47135949178482
 21
4.25660820440828
 31
0.0
 11
-55.47135949178482
 21
4.256607250733964
 31
0.0
 11
-55.47135949178482
 21
4.256606678529408
 31
0.0
  0
LINE
  5
3D4
330
2
100
AcDbEntity
  8
GAIKEI
  6
Continuous
 62
     1
100
AcDbLine
 10
-29.60896276053484
 20
2.639444361146615
 30
0.0
 11
-29.51196286053482
 21
3.748159361146576
 31
0.0
  0
LINE
  5
3D5
330
2
100
AcDbEntity
  8
GAIKEI
  6
Continuous
 62
     1
100
AcDbLine
 10
-35.6249488605348
 20
2.639437761146609
 30
0.0
 11
-35.7219489605348
 21
3.748154361146589
 31
0.0
  0
LINE
  5
3D6
330
2
100
AcDbEntity
  8
GAIKEI
  6
Continuous
 62
     1
100
AcDbLine
 10
-35.1169649605348
 20
2.548156361146595
 30
0.0
 11
-35.52531456053481
 21
2.548156361146595
 31
0.0
  0
LINE
  5
3D7
330
2
100
AcDbEntity
  8
GAIKEI
  6
Continuous
 62
     1
100
AcDbLine
 10
-30.1169649605348
 20
2.548156361146595
 30
0.0
 11
-35.1169649605348
 21
2.548156361146595
 31
0.0
  0
LINE
  5
3D8
330
2
100
AcDbEntity
  8
GAIKEI
  6
Continuous
 62
     1
100
AcDbLine
 10
-29.70859096053482
 20
2.548156361146595
 30
0.0
 11
-30.1169649605348
 21
2.548156361146595
 31
0.0
  0
ARC
  5
3D9
330
2
100
AcDbEntity
  8
GAIKEI
  6
Continuous
 62
     1
100
AcDbCircle
 10
-35.52531456053481
 20
2.648156361146561
 30
0.0
 40
0.1
100
AcDbArc
 50
184.9999899999993
 51
270.0000009999949
  0
ARC
  5
3DA
330
2
100
AcDbEntity
  8
GAIKEI
  6
Continuous
 62
     1
100
AcDbCircle
 10
-29.70859096053482
 20
2.648156361146561
 30
0.0
 40
0.1
100
AcDbArc
 50
270.0000009999949
 51
355.0000110000001
  0
LINE
  5
3DB
330
2
100
AcDbEntity
  8
GAIKEI
  6
Continuous
 62
     1
100
AcDbLine
 10
-39.01556666053483
 20
3.848153861146556
 30
0.0
 11
-39.24650696053482
 21
4.248154061146578
 31
0.0
  0
LINE
  5
3DC
330
2
100
AcDbEntity
  8
GAIKEI
  6
Continuous
 62
     1
100
AcDbLine
 10
-26.21834866053485
 20
3.848148761146603
 30
0.0
 11
-25.98740386053481
 21
4.248156961146605
 31
0.0
  0
LINE
  5
3DD
330
2
100
AcDbEntity
  8
GAIKEI
  6
Continuous
 62
     1
100
AcDbLine
 10
-38.61696496053486
 20
3.748156361146584
 30
0.0
 11
-38.84235556053483
 21
3.748156361146584
 31
0.0
  0
LINE
  5
3DE
330
2
100
AcDbEntity
  8
GAIKEI
  6
Continuous
 62
     1
100
AcDbLine
 10
-26.6169649605348
 20
3.748156361146584
 30
0.0
 11
-38.61696496053486
 21
3.748156361146584
 31
0.0
  0
LINE
  5
3DF
330
2
100
AcDbEntity
  8
GAIKEI
  6
Continuous
 62
     1
100
AcDbLine
 10
-26.39154996053486
 20
3.748156361146584
 30
0.0
 11
-26.6169649605348
 21
3.748156361146584
 31
0.0
  0
ARC
  5
3E0
330
2
100
AcDbEntity
  8
GAIKEI
  6
Continuous
 62
     1
100
AcDbCircle
 10
-26.39154996053486
 20
3.948156361146573
 30
0.0
 40
0.2
100
AcDbArc
 50
270.0000009999949
 51
329.9999889999911
  0
ARC
  5
3E1
330
2
100
AcDbEntity
  8
GAIKEI
  6
Continuous
 62
     1
100
AcDbCircle
 10
-38.84235556053483
 20
3.948156361146573
 30
0.0
 40
0.2
100
AcDbArc
 50
209.9999579999996
 51
270.0000009999949
  0
ARC
  5
3E2
330
2
100
AcDbEntity
  8
GAIKEI
  6
Continuous
100
AcDbCircle
 10
-55.88432336053489
 20
4.593107261146599
 30
0.0
 40
0.25
100
AcDbArc
 50
252.2294880000027
 51
257.0736759999994
  0
CIRCLE
  5
3E3
330
2
100
AcDbEntity
  8
GAIKEI
  6
Continuous
 62
     1
100
AcDbCircle
 10
-32.6169649605348
 20
11.99815636114658
 30
0.0
 40
7.1325439
  0
CIRCLE
  5
3E4
330
2
100
AcDbEntity
  8
GAIKEI
  6
Continuous
 62
     1
100
AcDbCircle
 10
22.21260099997272
 20
8.334173022460731
 30
0.0
 40
0.2299999000000001
  0
LINE
  5
3E5
330
2
100
AcDbEntity
  8
GAIKEI
  6
Continuous
 62
     1
100
AcDbLine
 10
19.90076497836325
 20
9.76020630832204
 30
0.0
 11
19.90076497836325
 21
10.32846810832205
 31
0.0
  0
LINE
  5
3E6
330
2
100
AcDbEntity
  8
GAIKEI
  6
Continuous
 62
     1
100
AcDbLine
 10
19.90076497836325
 20
12.07021600773015
 30
0.0
 11
19.90076497836325
 21
12.63847780773017
 31
0.0
  0
LINE
  5
3E7
330
2
100
AcDbEntity
  8
GAIKEI
  6
Continuous
 62
     1
100
AcDbLine
 10
19.90076497836325
 20
12.84021114911309
 30
0.0
 11
19.90076497836325
 21
13.40847294911305
 31
0.0
  0
LINE
  5
3E8
330
2
100
AcDbEntity
  8
GAIKEI
  6
Continuous
 62
     1
100
AcDbLine
 10
19.90076497836327
 20
11.30022090728619
 30
0.0
 11
19.90076497836327
 21
11.8684827072862
 31
0.0
  0
LINE
  5
3E9
330
2
100
AcDbEntity
  8
GAIKEI
  6
Continuous
 62
     1
100
AcDbLine
 10
19.90076497836327
 20
10.53022576590331
 30
0.0
 11
19.90076497836327
 21
11.09848756590327
 31
0.0
  0
LINE
  5
3EA
330
2
100
AcDbEntity
  8
GAIKEI
  6
Continuous
 62
     1
100
AcDbLine
 10
19.90076497836325
 20
13.61020624911305
 30
0.0
 11
19.90076497836325
 21
14.17846804911301
 31
0.0
  0
LINE
  5
3EB
330
2
100
AcDbEntity
  8
GAIKEI
  6
Continuous
 62
     1
100
AcDbLine
 10
34.98030191534892
 20
13.61020624911305
 30
0.0
 11
34.98030191534892
 21
14.17846804911301
 31
0.0
  0
LINE
  5
3EC
330
2
100
AcDbEntity
  8
GAIKEI
  6
Continuous
 62
     1
100
AcDbLine
 10
34.98030191534891
 20
10.53022576590331
 30
0.0
 11
34.98030191534891
 21
11.09848756590327
 31
0.0
  0
LINE
  5
3ED
330
2
100
AcDbEntity
  8
GAIKEI
  6
Continuous
 62
     1
100
AcDbLine
 10
34.98030191534891
 20
11.30022090728619
 30
0.0
 11
34.98030191534891
 21
11.8684827072862
 31
0.0
  0
LINE
  5
3EE
330
2
100
AcDbEntity
  8
GAIKEI
  6
Continuous
 62
     1
100
AcDbLine
 10
34.98030191534892
 20
12.84021114911309
 30
0.0
 11
34.98030191534892
 21
13.40847294911305
 31
0.0
  0
LINE
  5
3EF
330
2
100
AcDbEntity
  8
GAIKEI
  6
Continuous
 62
     1
100
AcDbLine
 10
34.98030191534892
 20
12.07021600773015
 30
0.0
 11
34.98030191534892
 21
12.63847780773017
 31
0.0
  0
LINE
  5
3F0
330
2
100
AcDbEntity
  8
GAIKEI
  6
Continuous
 62
     1
100
AcDbLine
 10
34.98030191534892
 20
9.76020630832204
 30
0.0
 11
34.98030191534892
 21
10.32846810832205
 31
0.0
  0
LINE
  5
3F1
330
2
100
AcDbEntity
  8
GAIKEI
  6
Continuous
 62
     1
100
AcDbLine
 10
29.35723878137132
 20
9.76020630832204
 30
0.0
 11
29.35723878137132
 21
10.32846810832205
 31
0.0
  0
LINE
  5
3F2
330
2
100
AcDbEntity
  8
GAIKEI
  6
Continuous
 62
     1
100
AcDbLine
 10
29.35723878137132
 20
12.07021600773015
 30
0.0
 11
29.35723878137132
 21
12.63847780773017
 31
0.0
  0
LINE
  5
3F3
330
2
100
AcDbEntity
  8
GAIKEI
  6
Continuous
 62
     1
100
AcDbLine
 10
29.35723878137132
 20
12.84021114911309
 30
0.0
 11
29.35723878137132
 21
13.40847294911305
 31
0.0
  0
LINE
  5
3F4
330
2
100
AcDbEntity
  8
GAIKEI
  6
Continuous
 62
     1
100
AcDbLine
 10
29.35723878137134
 20
11.30022090728619
 30
0.0
 11
29.35723878137134
 21
11.8684827072862
 31
0.0
  0
LINE
  5
3F5
330
2
100
AcDbEntity
  8
GAIKEI
  6
Continuous
 62
     1
100
AcDbLine
 10
29.35723878137134
 20
10.53022576590331
 30
0.0
 11
29.35723878137134
 21
11.09848756590327
 31
0.0
  0
LINE
  5
3F6
330
2
100
AcDbEntity
  8
GAIKEI
  6
Continuous
 62
     1
100
AcDbLine
 10
29.35723878137132
 20
13.61020624911305
 30
0.0
 11
29.35723878137132
 21
14.17846804911301
 31
0.0
  0
LINE
  5
3F7
330
2
100
AcDbEntity
  8
GAIKEI
  6
Continuous
 62
     1
100
AcDbLine
 10
29.76367346775969
 20
13.61020624911305
 30
0.0
 11
29.76367346775969
 21
14.17846804911301
 31
0.0
  0
LINE
  5
3F8
330
2
100
AcDbEntity
  8
GAIKEI
  6
Continuous
 62
     1
100
AcDbLine
 10
29.7636734677597
 20
10.53022576590331
 30
0.0
 11
29.7636734677597
 21
11.09848756590327
 31
0.0
  0
LINE
  5
3F9
330
2
100
AcDbEntity
  8
GAIKEI
  6
Continuous
 62
     1
100
AcDbLine
 10
29.7636734677597
 20
11.30022090728619
 30
0.0
 11
29.7636734677597
 21
11.8684827072862
 31
0.0
  0
LINE
  5
3FA
330
2
100
AcDbEntity
  8
GAIKEI
  6
Continuous
 62
     1
100
AcDbLine
 10
29.76367346775969
 20
12.84021114911309
 30
0.0
 11
29.76367346775969
 21
13.40847294911305
 31
0.0
  0
LINE
  5
3FB
330
2
100
AcDbEntity
  8
GAIKEI
  6
Continuous
 62
     1
100
AcDbLine
 10
29.76367346775969
 20
12.07021600773015
 30
0.0
 11
29.76367346775969
 21
12.63847780773017
 31
0.0
  0
LINE
  5
3FC
330
2
100
AcDbEntity
  8
GAIKEI
  6
Continuous
 62
     1
100
AcDbLine
 10
29.76367346775969
 20
9.76020630832204
 30
0.0
 11
29.76367346775969
 21
10.32846810832205
 31
0.0
  0
LINE
  5
3FD
330
2
100
AcDbEntity
  8
GAIKEI
  6
Continuous
 62
     1
100
AcDbLine
 10
25.3029470791228
 20
9.76020630832204
 30
0.0
 11
25.3029470791228
 21
10.32846810832205
 31
0.0
  0
LINE
  5
3FE
330
2
100
AcDbEntity
  8
GAIKEI
  6
Continuous
 62
     1
100
AcDbLine
 10
25.66546856778614
 20
9.76020630832204
 30
0.0
 11
25.66546856778614
 21
10.32846810832205
 31
0.0
  0
LINE
  5
3FF
330
2
100
AcDbEntity
  8
GAIKEI
  6
Continuous
 62
     1
100
AcDbLine
 10
25.3029470791228
 20
12.07021600773015
 30
0.0
 11
25.3029470791228
 21
12.63847780773017
 31
0.0
  0
LINE
  5
400
330
2
100
AcDbEntity
  8
GAIKEI
  6
Continuous
 62
     1
100
AcDbLine
 10
25.66546856778614
 20
12.07021600773015
 30
0.0
 11
25.66546856778614
 21
12.63847780773017
 31
0.0
  0
LINE
  5
401
330
2
100
AcDbEntity
  8
GAIKEI
  6
Continuous
 62
     1
100
AcDbLine
 10
25.66546856778614
 20
12.84021114911309
 30
0.0
 11
25.66546856778614
 21
13.40847294911305
 31
0.0
  0
LINE
  5
402
330
2
100
AcDbEntity
  8
GAIKEI
  6
Continuous
 62
     1
100
AcDbLine
 10
25.3029470791228
 20
12.84021114911309
 30
0.0
 11
25.3029470791228
 21
13.40847294911305
 31
0.0
  0
LINE
  5
403
330
2
100
AcDbEntity
  8
GAIKEI
  6
Continuous
 62
     1
100
AcDbLine
 10
25.30294707912282
 20
11.30022090728619
 30
0.0
 11
25.30294707912282
 21
11.8684827072862
 31
0.0
  0
LINE
  5
404
330
2
100
AcDbEntity
  8
GAIKEI
  6
Continuous
 62
     1
100
AcDbLine
 10
25.66546856778615
 20
11.30022090728619
 30
0.0
 11
25.66546856778615
 21
11.8684827072862
 31
0.0
  0
LINE
  5
405
330
2
100
AcDbEntity
  8
GAIKEI
  6
Continuous
 62
     1
100
AcDbLine
 10
25.66546856778615
 20
10.53022576590331
 30
0.0
 11
25.66546856778615
 21
11.09848756590327
 31
0.0
  0
LINE
  5
406
330
2
100
AcDbEntity
  8
GAIKEI
  6
Continuous
 62
     1
100
AcDbLine
 10
25.30294707912282
 20
10.53022576590331
 30
0.0
 11
25.30294707912282
 21
11.09848756590327
 31
0.0
  0
LINE
  5
407
330
2
100
AcDbEntity
  8
GAIKEI
  6
Continuous
 62
     1
100
AcDbLine
 10
25.3029470791228
 20
13.61020624911305
 30
0.0
 11
25.3029470791228
 21
14.17846804911301
 31
0.0
  0
LINE
  5
408
330
2
100
AcDbEntity
  8
GAIKEI
  6
Continuous
 62
     1
100
AcDbLine
 10
25.66546856778614
 20
13.61020624911305
 30
0.0
 11
25.66546856778614
 21
14.17846804911301
 31
0.0
  0
LINE
  5
409
330
2
100
AcDbEntity
  8
WAKU
 62
     1
100
AcDbLine
 10
-63.3480101378617
 20
-20.59226898342126
 30
0.0
 11
61.65198986213829
 21
-20.59226898342126
 31
0.0
  0
LINE
  5
40B
330
2
100
AcDbEntity
  8
WAKU
 62
     1
100
AcDbLine
 10
-63.3480101378617
 20
-25.59226898342127
 30
0.0
 11
61.65198986213829
 21
-25.59226898342127
 31
0.0
  0
LINE
  5
40C
330
2
100
AcDbEntity
  8
WAKU
 62
     1
100
AcDbLine
 10
-63.3480101378617
 20
-30.59226898342127
 30
0.0
 11
61.65198986213829
 21
-30.59226898342127
 31
0.0
  0
LINE
  5
40D
330
2
100
AcDbEntity
  8
WAKU
 62
     1
100
AcDbLine
 10
-63.3480101378617
 20
-35.59226898342127
 30
0.0
 11
61.65198986213829
 21
-35.59226898342127
 31
0.0
  0
LINE
  5
40E
330
2
100
AcDbEntity
  8
WAKU
 62
     1
100
AcDbLine
 10
-63.3480101378617
 20
-40.59226898342126
 30
0.0
 11
61.65198986213829
 21
-40.59226898342126
 31
0.0
  0
LINE
  5
40F
330
2
100
AcDbEntity
  8
WAKU
 62
     4
100
AcDbLine
 10
61.65198986213829
 20
-10.59226898342126
 30
0.0
 11
-63.3480101378617
 21
-10.59226898342126
 31
0.0
  0
LINE
  5
410
330
2
100
AcDbEntity
  8
WAKU
 62
     4
100
AcDbLine
 10
-63.3480101378617
 20
-60.59226898342126
 30
0.0
 11
61.65198986213829
 21
-60.59226898342126
 31
0.0
  0
LINE
  5
411
330
2
100
AcDbEntity
  8
WAKU
 62
     1
100
AcDbLine
 10
-63.3480101378617
 20
-15.59226898342126
 30
0.0
 11
61.65198986213829
 21
-15.59226898342126
 31
0.0
  0
LINE
  5
412
330
2
100
AcDbEntity
  8
WAKU
 62
     1
100
AcDbLine
 10
-63.3480101378617
 20
-45.59226898342126
 30
0.0
 11
61.65198986213829
 21
-45.59226898342126
 31
0.0
  0
LINE
  5
413
330
2
100
AcDbEntity
  8
WAKU
 62
     4
100
AcDbLine
 10
-63.3480101378617
 20
-10.59226898342126
 30
0.0
 11
-63.3480101378617
 21
-60.59226898342126
 31
0.0
  0
TEXT
  5
414
330
2
100
AcDbEntity
  8
MOJI1
100
AcDbText
 10
-20.8480101378617
 20
-44.59226898342126
 30
0.0
 40
3.0
  1
１２８０×８００ドット
100
AcDbText
  0
TEXT
  5
415
330
2
100
AcDbEntity
  8
MOJI1
100
AcDbText
 10
-20.8480101378617
 20
-34.59226898342127
 30
0.0
 40
3.0
  1
５０～６００型（アスペクト比１６：１０）
100
AcDbText
  0
TEXT
  5
416
330
2
100
AcDbEntity
  8
MOJI1
100
AcDbText
 10
-20.8480101378617
 20
-14.59226898342126
 30
0.0
 40
3.0
  1
ＡＣ１００Ｖ　５０／６０Ｈｚ
100
AcDbText
  0
TEXT
  5
417
330
2
100
AcDbEntity
  8
MOJI1
100
AcDbText
 10
-20.8480101378617
 20
-39.59226898342127
 30
0.0
 40
3.0
  1
７０００ルーメン（ランプ２灯、ハイモード時）
 41
0.9
100
AcDbText
  0
TEXT
  5
418
330
2
100
AcDbEntity
  8
MOJI1
100
AcDbText
 10
-20.8480101378617
 20
-19.59226898342126
 30
0.0
 40
3.0
  1
１チップ　ＤＬＰ方式
100
AcDbText
  0
TEXT
  5
419
330
2
100
AcDbEntity
  8
MOJI1
100
AcDbText
 10
-20.8480101378617
 20
-49.59226898342127
 30
0.0
 40
3.0
  1
ビデオ／Ｓビデオ、ＲＧＢ、ＤＶＩ－Ｄ、ＬＡＮ
100
AcDbText
  0
TEXT
  5
41A
330
2
100
AcDbEntity
  8
MOJI1
100
AcDbText
 10
-20.8480101378617
 20
-29.59226898342104
 30
0.0
 40
3.0
  1
オプション（別売品）
100
AcDbText
  0
TEXT
  5
41B
330
2
100
AcDbEntity
  8
MOJI1
100
AcDbText
 10
-60.8480101378617
 20
-49.59226898342127
 30
0.0
 40
3.0
  1
接続端子
100
AcDbText
  0
TEXT
  5
41C
330
2
100
AcDbEntity
  8
MOJI1
100
AcDbText
 10
-60.8480101378617
 20
-19.59226898342126
 30
0.0
 40
3.0
  1
表示デバイス
100
AcDbText
  0
TEXT
  5
41D
330
2
100
AcDbEntity
  8
MOJI1
100
AcDbText
 10
-60.8480101378617
 20
-34.59226898342127
 30
0.0
 40
3.0
  1
投写画面サイズ
100
AcDbText
  0
TEXT
  5
41E
330
2
100
AcDbEntity
  8
MOJI1
100
AcDbText
 10
-60.8480101378617
 20
-14.72422542087952
 30
0.0
 40
3.0
  1
電　源
100
AcDbText
  0
TEXT
  5
41F
330
2
100
AcDbEntity
  8
MOJI1
100
AcDbText
 10
-60.8480101378617
 20
-29.59226898342127
 30
0.0
 40
3.0
  1
レンズ
100
AcDbText
  0
TEXT
  5
420
330
2
100
AcDbEntity
  8
MOJI1
100
AcDbText
 10
-60.8480101378617
 20
-44.59226898342126
 30
0.0
 40
3.0
  1
解像度
100
AcDbText
  0
TEXT
  5
421
330
2
100
AcDbEntity
  8
MOJI1
100
AcDbText
 10
-60.8480101378617
 20
-39.59226898342127
 30
0.0
 40
3.0
  1
光出力
100
AcDbText
  0
LINE
  5
422
330
2
100
AcDbEntity
  8
WAKU
 62
     4
100
AcDbLine
 10
-23.3480101378617
 20
-60.59226898342126
 30
0.0
 11
-23.3480101378617
 21
-10.59226898342126
 31
0.0
  0
LINE
  5
423
330
2
100
AcDbEntity
  8
WAKU
 62
     4
100
AcDbLine
 10
61.65198986213829
 20
-60.59226898342126
 30
0.0
 11
61.65198986213829
 21
-10.59226898342126
 31
0.0
  0
TEXT
  5
424
330
2
100
AcDbEntity
  8
MOJI1
100
AcDbText
 10
-60.8480101378617
 20
-24.59226898342127
 30
0.0
 40
3.0
  1
ランプ
100
AcDbText
  0
TEXT
  5
425
330
2
100
AcDbEntity
  8
MOJI1
100
AcDbText
 10
-20.8480101378617
 20
-24.59226898342127
 30
0.0
 40
3.0
  1
３００Ｗ（ＵＨＭランプ　２灯式）　
100
AcDbText
  0
LINE
  5
426
330
2
100
AcDbEntity
  8
WAKU
 62
     1
100
AcDbLine
 10
-63.3480101378617
 20
-50.59226898342126
 30
0.0
 11
61.65198986213829
 21
-50.59226898342126
 31
0.0
  0
TEXT
  5
427
330
2
100
AcDbEntity
  8
MOJI1
100
AcDbText
 10
-60.8480101378617
 20
-54.59226898342127
 30
0.0
 40
3.0
  1
その他
100
AcDbText
  0
TEXT
  5
428
330
2
100
AcDbEntity
  8
MOJI1
100
AcDbText
 10
-20.8480101378617
 20
-54.59226898342127
 30
0.0
 40
3.0
  1
ランプ２灯式、液冷方式
100
AcDbText
  0
LINE
  5
429
330
2
100
AcDbEntity
  8
WAKU
 62
     1
100
AcDbLine
 10
-63.3480101378617
 20
-55.59226898342126
 30
0.0
 11
61.65198986213829
 21
-55.59226898342126
 31
0.0
  0
TEXT
  5
42A
330
2
100
AcDbEntity
  8
MOJI1
100
AcDbText
 10
-20.8480101378617
 20
-59.59226898342127
 30
0.0
 40
3.0
  1
デバイス液冷方式
 41
0.9099999999999999
100
AcDbText
  0
TEXT
  5
42B
330
2
100
AcDbEntity
  8
MOJI1
100
AcDbText
 10
-60.8480101378617
 20
-59.59226898342127
 30
0.0
 40
3.0
  1
備　考
100
AcDbText
  0
ENDSEC
  0
SECTION
  2
OBJECTS
  0
DICTIONARY
  5
7
330
0
100
AcDbDictionary
281
     1
  3
ACAD_COLOR
350
2C
  3
ACAD_GROUP
350
28
  3
ACAD_LAYOUT
350
B
  3
ACAD_MATERIAL
350
2B
  3
ACAD_MLINESTYLE
350
29
  3
ACAD_PLOTSETTINGS
350
2A
  3
ACAD_PLOTSTYLENAME
350
6
  3
ACDBHEADERROUNDTRIPXREC
350
468
  3
AcDbVariableDictionary
350
463
  0
DICTIONARY
  5
11
330
10
100
AcDbDictionary
280
     1
281
     1
  3
ACAD_LAYERSTATES
360
12
  0
DICTIONARY
  5
2C
102
{ACAD_REACTORS
330
7
102
}
330
7
100
AcDbDictionary
281
     1
  0
DICTIONARY
  5
28
102
{ACAD_REACTORS
330
7
102
}
330
7
100
AcDbDictionary
281
     1
  0
DICTIONARY
  5
B
102
{ACAD_REACTORS
330
7
102
}
330
7
100
AcDbDictionary
281
     1
  3
Model
350
A
  3
レイアウト1
350
F
  0
DICTIONARY
  5
2B
102
{ACAD_REACTORS
330
7
102
}
330
7
100
AcDbDictionary
281
     1
  0
DICTIONARY
  5
29
102
{ACAD_REACTORS
330
7
102
}
330
7
100
AcDbDictionary
281
     1
  3
Standard
350
2E
  0
DICTIONARY
  5
2A
102
{ACAD_REACTORS
330
7
102
}
330
7
100
AcDbDictionary
281
     1
  0
ACDBDICTIONARYWDFLT
  5
6
102
{ACAD_REACTORS
330
7
102
}
330
7
100
AcDbDictionary
281
     1
  3
Normal
350
5
100
AcDbDictionaryWithDefault
340
5
  0
DICTIONARY
  5
468
102
{ACAD_REACTORS
330
7
102
}
330
7
100
AcDbDictionary
281
     1
  3
COLORDICT
350
46A
  3
MATERIALDICT
350
469
  0
DICTIONARY
  5
463
102
{ACAD_REACTORS
330
7
102
}
330
7
100
AcDbDictionary
281
     1
  3
DIMASSOC
350
465
  3
HIDETEXT
350
464
  3
PROJECTNAME
350
466
  0
DICTIONARY
  5
12
102
{ACAD_REACTORS
330
11
102
}
330
11
100
AcDbDictionary
281
     1
  0
LAYOUT
  5
A
102
{ACAD_XDICTIONARY
360
46B
102
}
102
{ACAD_REACTORS
330
B
102
}
330
B
100
AcDbPlotSettings
  1

  2
10F06M_RICOH_SP-8100
  4
A4
  6

 40
5.873749732971191
 41
5.873747825622558
 42
5.873748779296875
 43
5.873748779296875
 44
209.9733276367187
 45
296.9259948730469
 46
5.419999999999999
 47
0.0
 48
0.0
 49
0.0
140
0.0
141
0.0
142
1.0
143
1.38245207335299
 70
 11444
 72
     1
 73
     0
 74
     1
  7
SSC.ctb
 75
     0
147
0.7233523818114045
148
0.0320386232301644
149
0.0300716685512725
100
AcDbLayout
  1
Model
 70
     1
 71
     0
 10
0.0
 20
0.0
 11
12.0
 21
9.0
 12
0.0
 22
0.0
 32
0.0
 14
0.0
 24
0.0
 34
0.0
 15
0.0
 25
0.0
 35
0.0
146
0.0
 13
0.0
 23
0.0
 33
0.0
 16
1.0
 26
0.0
 36
0.0
 17
0.0
 27
1.0
 37
0.0
 76
     0
330
2
  0
LAYOUT
  5
F
102
{ACAD_XDICTIONARY
360
46D
102
}
102
{ACAD_REACTORS
330
B
102
}
330
B
100
AcDbPlotSettings
  1

  2
None
  4

  6

 40
0.0
 41
0.0
 42
0.0
 43
0.0
 44
0.0
 45
0.0
 46
0.0
 47
0.0
 48
0.0
 49
0.0
140
0.0
141
0.0
142
1.0
143
1.0
 70
   688
 72
     0
 73
     0
 74
     5
  7
tmsacad.ctb
 75
    16
147
1.0
148
0.0
149
0.0
100
AcDbLayout
  1
レイアウト1
 70
     1
 71
     1
 10
0.0
 20
0.0
 11
12.0
 21
9.0
 12
0.0
 22
0.0
 32
0.0
 14
0.0
 24
0.0
 34
0.0
 15
0.0
 25
0.0
 35
0.0
146
0.0
 13
0.0
 23
0.0
 33
0.0
 16
1.0
 26
0.0
 36
0.0
 17
0.0
 27
1.0
 37
0.0
 76
     0
330
C
  0
MLINESTYLE
  5
2E
102
{ACAD_REACTORS
330
29
102
}
330
29
100
AcDbMlineStyle
  2
STANDARD
 70
     0
  3

 62
   256
 51
90.0
 52
90.0
 71
     2
 49
0.5
 62
   256
  6
BYLAYER
 49
-0.5
 62
   256
  6
BYLAYER
  0
ACDBPLACEHOLDER
  5
5
102
{ACAD_REACTORS
330
6
102
}
330
6
  0
XRECORD
  5
46A
102
{ACAD_REACTORS
330
468
102
}
330
468
100
AcDbXrecord
280
     1
340
2C
  0
XRECORD
  5
469
102
{ACAD_REACTORS
330
468
102
}
330
468
100
AcDbXrecord
280
     1
340
2B
  0
DICTIONARYVAR
  5
465
102
{ACAD_REACTORS
330
463
102
}
330
463
100
DictionaryVariables
280
     0
  1
1
  0
DICTIONARYVAR
  5
464
102
{ACAD_REACTORS
330
463
102
}
330
463
100
DictionaryVariables
280
     0
  1
1
  0
DICTIONARYVAR
  5
466
102
{ACAD_REACTORS
330
463
102
}
330
463
100
DictionaryVariables
280
     0
  1

  0
DICTIONARY
  5
46B
330
A
100
AcDbDictionary
280
     1
281
     1
  3
ACAD_XREC_ROUNDTRIP
360
46C
  0
DICTIONARY
  5
46D
330
F
100
AcDbDictionary
280
     1
281
     1
  3
ACAD_XREC_ROUNDTRIP
360
46E
  0
XRECORD
  5
46C
102
{ACAD_REACTORS
330
46B
102
}
330
46B
100
AcDbXrecord
280
     1
102
SHADEPLOT
 70
     1
102
SHADEPLOTRESLEVEL
 70
     2
102
SHADEPLOTCUSTOMDPI
 70
   300
  0
XRECORD
  5
46E
102
{ACAD_REACTORS
330
46D
102
}
330
46D
100
AcDbXrecord
280
     1
102
SHADEPLOT
 70
     0
102
SHADEPLOTRESLEVEL
 70
     2
102
SHADEPLOTCUSTOMDPI
 70
   300
  0
ENDSEC
  0
EOF
