  0
SECTION
  2
HEADER
  9
$ACADVER
  1
AC1015
  9
$ACADMAINTVER
 70
    13
  9
$DWGCODEPAGE
  3
ANSI_932
  9
$INSBASE
 10
0.0
 20
246.4992141396417
 30
0.0
  9
$EXTMIN
 10
-58.05147490236641
 20
-57.17998633751176
 30
-0.0015258207003583
  9
$EXTMAX
 10
67.02903406759833
 20
55.95109557811338
 30
0.0000000349246037
  9
$LIMMIN
 10
-1101.784450318844
 20
-1579.160531687243
  9
$LIMMAX
 10
-508.2420711400536
 20
-1161.440814074914
  9
$ORTHOMODE
 70
     0
  9
$REGENMODE
 70
     1
  9
$FILLMODE
 70
     1
  9
$QTEXTMODE
 70
     0
  9
$MIRRTEXT
 70
     1
  9
$LTSCALE
 40
1.0
  9
$ATTMODE
 70
     1
  9
$TEXTSIZE
 40
3.0
  9
$TRACEWID
 40
0.5
  9
$TEXTSTYLE
  7
STANDARD
  9
$CLAYER
  8
0
  9
$CELTYPE
  6
BYLAYER
  9
$CECOLOR
 62
   256
  9
$CELTSCALE
 40
1.0
  9
$DISPSILH
 70
     0
  9
$DIMSCALE
 40
1.0
  9
$DIMASZ
 40
2.0
  9
$DIMEXO
 40
2.0
  9
$DIMDLI
 40
8.0
  9
$DIMRND
 40
0.0
  9
$DIMDLE
 40
0.0
  9
$DIMEXE
 40
2.0
  9
$DIMTP
 40
0.0
  9
$DIMTM
 40
0.0
  9
$DIMTXT
 40
2.5
  9
$DIMCEN
 40
0.0
  9
$DIMTSZ
 40
0.0
  9
$DIMTOL
 70
     0
  9
$DIMLIM
 70
     0
  9
$DIMTIH
 70
     0
  9
$DIMTOH
 70
     0
  9
$DIMSE1
 70
     0
  9
$DIMSE2
 70
     0
  9
$DIMTAD
 70
     3
  9
$DIMZIN
 70
     0
  9
$DIMBLK
  1

  9
$DIMASO
 70
     1
  9
$DIMSHO
 70
     1
  9
$DIMPOST
  1

  9
$DIMAPOST
  1

  9
$DIMALT
 70
     0
  9
$DIMALTD
 70
     2
  9
$DIMALTF
 40
25.4
  9
$DIMLFAC
 40
1.0
  9
$DIMTOFL
 70
     1
  9
$DIMTVP
 40
0.0
  9
$DIMTIX
 70
     0
  9
$DIMSOXD
 70
     0
  9
$DIMSAH
 70
     1
  9
$DIMBLK1
  1
OPEN30
  9
$DIMBLK2
  1
OPEN30
  9
$DIMSTYLE
  2
STANDARD
  9
$DIMCLRD
 70
     0
  9
$DIMCLRE
 70
     0
  9
$DIMCLRT
 70
     0
  9
$DIMTFAC
 40
1.0
  9
$DIMGAP
 40
0.5
  9
$DIMJUST
 70
     0
  9
$DIMSD1
 70
     0
  9
$DIMSD2
 70
     0
  9
$DIMTOLJ
 70
     1
  9
$DIMTZIN
 70
     0
  9
$DIMALTZ
 70
     0
  9
$DIMALTTZ
 70
     0
  9
$DIMUPT
 70
     0
  9
$DIMDEC
 70
     4
  9
$DIMTDEC
 70
     4
  9
$DIMALTU
 70
     2
  9
$DIMALTTD
 70
     2
  9
$DIMTXSTY
  7
STANDARD
  9
$DIMAUNIT
 70
     0
  9
$DIMADEC
 70
     0
  9
$DIMALTRND
 40
0.0
  9
$DIMAZIN
 70
     0
  9
$DIMDSEP
 70
    46
  9
$DIMATFIT
 70
     3
  9
$DIMFRAC
 70
     0
  9
$DIMLDRBLK
  1
OPEN30
  9
$DIMLUNIT
 70
     2
  9
$DIMLWD
 70
    -2
  9
$DIMLWE
 70
    -2
  9
$DIMTMOVE
 70
     0
  9
$LUNITS
 70
     2
  9
$LUPREC
 70
     4
  9
$SKETCHINC
 40
0.1
  9
$FILLETRAD
 40
0.0
  9
$AUNITS
 70
     0
  9
$AUPREC
 70
     0
  9
$MENU
  1
ACAD
  9
$ELEVATION
 40
0.0
  9
$PELEVATION
 40
0.0
  9
$THICKNESS
 40
0.0
  9
$LIMCHECK
 70
     0
  9
$CHAMFERA
 40
0.0
  9
$CHAMFERB
 40
0.0
  9
$CHAMFERC
 40
0.0
  9
$CHAMFERD
 40
0.0
  9
$SKPOLY
 70
     0
  9
$TDCREATE
 40
2451815.565532581
  9
$TDUCREATE
 40
2451815.190532581
  9
$TDUPDATE
 40
2453928.734380960
  9
$TDUUPDATE
 40
2453928.359380960
  9
$TDINDWG
 40
1.1264717940
  9
$TDUSRTIMER
 40
1.1264717940
  9
$USRTIMER
 70
     1
  9
$ANGBASE
 50
0.0
  9
$ANGDIR
 70
     0
  9
$PDMODE
 70
     0
  9
$PDSIZE
 40
0.0
  9
$PLINEWID
 40
0.0
  9
$SPLFRAME
 70
     0
  9
$SPLINETYPE
 70
     6
  9
$SPLINESEGS
 70
     8
  9
$HANDSEED
  5
23B
  9
$SURFTAB1
 70
     6
  9
$SURFTAB2
 70
     6
  9
$SURFTYPE
 70
     6
  9
$SURFU
 70
     6
  9
$SURFV
 70
     6
  9
$UCSBASE
  2

  9
$UCSNAME
  2

  9
$UCSORG
 10
0.0
 20
0.0
 30
0.0
  9
$UCSXDIR
 10
1.0
 20
0.0
 30
0.0
  9
$UCSYDIR
 10
0.0
 20
1.0
 30
0.0
  9
$UCSORTHOREF
  2

  9
$UCSORTHOVIEW
 70
     0
  9
$UCSORGTOP
 10
0.0
 20
0.0
 30
0.0
  9
$UCSORGBOTTOM
 10
0.0
 20
0.0
 30
0.0
  9
$UCSORGLEFT
 10
0.0
 20
0.0
 30
0.0
  9
$UCSORGRIGHT
 10
0.0
 20
0.0
 30
0.0
  9
$UCSORGFRONT
 10
0.0
 20
0.0
 30
0.0
  9
$UCSORGBACK
 10
0.0
 20
0.0
 30
0.0
  9
$PUCSBASE
  2

  9
$PUCSNAME
  2

  9
$PUCSORG
 10
0.0
 20
0.0
 30
0.0
  9
$PUCSXDIR
 10
1.0
 20
0.0
 30
0.0
  9
$PUCSYDIR
 10
0.0
 20
1.0
 30
0.0
  9
$PUCSORTHOREF
  2

  9
$PUCSORTHOVIEW
 70
     0
  9
$PUCSORGTOP
 10
0.0
 20
0.0
 30
0.0
  9
$PUCSORGBOTTOM
 10
0.0
 20
0.0
 30
0.0
  9
$PUCSORGLEFT
 10
0.0
 20
0.0
 30
0.0
  9
$PUCSORGRIGHT
 10
0.0
 20
0.0
 30
0.0
  9
$PUCSORGFRONT
 10
0.0
 20
0.0
 30
0.0
  9
$PUCSORGBACK
 10
0.0
 20
0.0
 30
0.0
  9
$USERI1
 70
     0
  9
$USERI2
 70
     0
  9
$USERI3
 70
     0
  9
$USERI4
 70
     0
  9
$USERI5
 70
     0
  9
$USERR1
 40
0.0
  9
$USERR2
 40
0.0
  9
$USERR3
 40
0.0
  9
$USERR4
 40
0.0
  9
$USERR5
 40
0.0
  9
$WORLDVIEW
 70
     1
  9
$SHADEDGE
 70
     3
  9
$SHADEDIF
 70
    70
  9
$TILEMODE
 70
     1
  9
$MAXACTVP
 70
    48
  9
$PINSBASE
 10
0.0
 20
0.0
 30
0.0
  9
$PLIMCHECK
 70
     0
  9
$PEXTMIN
 10
1.000000000000000E+20
 20
1.000000000000000E+20
 30
1.000000000000000E+20
  9
$PEXTMAX
 10
-1.000000000000000E+20
 20
-1.000000000000000E+20
 30
-1.000000000000000E+20
  9
$PLIMMIN
 10
0.0
 20
0.0
  9
$PLIMMAX
 10
12.0
 20
9.0
  9
$UNITMODE
 70
     0
  9
$VISRETAIN
 70
     1
  9
$PLINEGEN
 70
     0
  9
$PSLTSCALE
 70
     1
  9
$TREEDEPTH
 70
  3020
  9
$CMLSTYLE
  2
STANDARD
  9
$CMLJUST
 70
     0
  9
$CMLSCALE
 40
1.0
  9
$PROXYGRAPHICS
 70
     1
  9
$MEASUREMENT
 70
     0
  9
$CELWEIGHT
370
    -1
  9
$ENDCAPS
280
     0
  9
$JOINSTYLE
280
     0
  9
$LWDISPLAY
290
     0
  9
$INSUNITS
 70
     0
  9
$HYPERLINKBASE
  1

  9
$STYLESHEET
  1

  9
$XEDIT
290
     1
  9
$CEPSNTYPE
380
     0
  9
$PSTYLEMODE
290
     1
  9
$FINGERPRINTGUID
  2
{1754B7AB-9B3C-11D4-AD9E-00104B1004F2}
  9
$VERSIONGUID
  2
{5180DEF9-4B09-4D4A-BC86-B1623F2D97F3}
  9
$EXTNAMES
290
     1
  9
$PSVPSCALE
 40
0.0
  9
$OLESTARTUP
290
     0
  0
ENDSEC
  0
SECTION
  2
CLASSES
  0
CLASS
  1
ACDBDICTIONARYWDFLT
  2
AcDbDictionaryWithDefault
  3
AutoCAD 2000
 90
        0
280
     0
281
     0
  0
CLASS
  1
ACDBPLACEHOLDER
  2
AcDbPlaceHolder
  3
AutoCAD 2000
 90
        0
280
     0
281
     0
  0
CLASS
  1
LAYOUT
  2
AcDbLayout
  3
AutoCAD 2000
 90
        0
280
     0
281
     0
  0
CLASS
  1
LONG_TRANSACTION
  2
AcDbLongTransaction
  3
AutoCAD 2000
 90
    32768
280
     0
281
     0
  0
CLASS
  1
LWPOLYLINE
  2
AcDbPolyline
  3
AutoCAD 2000
 90
    32768
280
     0
281
     1
  0
CLASS
  1
HATCH
  2
AcDbHatch
  3
AutoCAD 2000
 90
    32768
280
     0
281
     1
  0
CLASS
  1
XRECORD
  2
AcDbXrecord
  3
AutoCAD 2000
 90
    32768
280
     0
281
     0
  0
CLASS
  1
LONG_TRANSACTION
  2
AcDbLongTransaction
  3
AutoCAD 2000
 90
    32768
280
     0
281
     0
  0
CLASS
  1
LWPOLYLINE
  2
AcDbPolyline
  3
AutoCAD 2000
 90
    32768
280
     0
281
     1
  0
CLASS
  1
HATCH
  2
AcDbHatch
  3
AutoCAD 2000
 90
    32768
280
     0
281
     1
  0
CLASS
  1
XRECORD
  2
AcDbXrecord
  3
AutoCAD 2000
 90
    32768
280
     0
281
     0
  0
CLASS
  1
LONG_TRANSACTION
  2
AcDbLongTransaction
  3
AutoCAD 2000
 90
    32768
280
     0
281
     0
  0
CLASS
  1
LWPOLYLINE
  2
AcDbPolyline
  3
AutoCAD 2000
 90
    32768
280
     0
281
     1
  0
CLASS
  1
HATCH
  2
AcDbHatch
  3
AutoCAD 2000
 90
    32768
280
     0
281
     1
  0
CLASS
  1
XRECORD
  2
AcDbXrecord
  3
AutoCAD 2000
 90
    32768
280
     0
281
     0
  0
CLASS
  1
LONG_TRANSACTION
  2
AcDbLongTransaction
  3
AutoCAD 2000
 90
    32768
280
     0
281
     0
  0
CLASS
  1
LWPOLYLINE
  2
AcDbPolyline
  3
AutoCAD 2000
 90
    32768
280
     0
281
     1
  0
CLASS
  1
HATCH
  2
AcDbHatch
  3
AutoCAD 2000
 90
    32768
280
     0
281
     1
  0
CLASS
  1
XRECORD
  2
AcDbXrecord
  3
AutoCAD 2000
 90
    32768
280
     0
281
     0
  0
CLASS
  1
LONG_TRANSACTION
  2
AcDbLongTransaction
  3
AutoCAD 2000
 90
    32768
280
     0
281
     0
  0
CLASS
  1
LWPOLYLINE
  2
AcDbPolyline
  3
AutoCAD 2000
 90
    32768
280
     0
281
     1
  0
CLASS
  1
HATCH
  2
AcDbHatch
  3
AutoCAD 2000
 90
    32768
280
     0
281
     1
  0
CLASS
  1
XRECORD
  2
AcDbXrecord
  3
AutoCAD 2000
 90
    32768
280
     0
281
     0
  0
CLASS
  1
LONG_TRANSACTION
  2
AcDbLongTransaction
  3
AutoCAD 2000
 90
    32768
280
     0
281
     0
  0
CLASS
  1
LWPOLYLINE
  2
AcDbPolyline
  3
AutoCAD 2000
 90
    32768
280
     0
281
     1
  0
CLASS
  1
HATCH
  2
AcDbHatch
  3
AutoCAD 2000
 90
    32768
280
     0
281
     1
  0
CLASS
  1
XRECORD
  2
AcDbXrecord
  3
AutoCAD 2000
 90
    32768
280
     0
281
     0
  0
CLASS
  1
LONG_TRANSACTION
  2
AcDbLongTransaction
  3
AutoCAD 2000
 90
    32768
280
     0
281
     0
  0
CLASS
  1
LWPOLYLINE
  2
AcDbPolyline
  3
AutoCAD 2000
 90
    32768
280
     0
281
     1
  0
CLASS
  1
HATCH
  2
AcDbHatch
  3
AutoCAD 2000
 90
    32768
280
     0
281
     1
  0
CLASS
  1
XRECORD
  2
AcDbXrecord
  3
AutoCAD 2000
 90
    32768
280
     0
281
     0
  0
CLASS
  1
LONG_TRANSACTION
  2
AcDbLongTransaction
  3
AutoCAD 2000
 90
    32768
280
     0
281
     0
  0
CLASS
  1
LWPOLYLINE
  2
AcDbPolyline
  3
AutoCAD 2000
 90
    32768
280
     0
281
     1
  0
CLASS
  1
HATCH
  2
AcDbHatch
  3
AutoCAD 2000
 90
    32768
280
     0
281
     1
  0
CLASS
  1
XRECORD
  2
AcDbXrecord
  3
AutoCAD 2000
 90
    32768
280
     0
281
     0
  0
CLASS
  1
DICTIONARYVAR
  2
AcDbDictionaryVar
  3
AutoCAD 2000
 90
        0
280
     0
281
     0
  0
CLASS
  1
LONG_TRANSACTION
  2
AcDbLongTransaction
  3
AutoCAD 2000
 90
    32768
280
     0
281
     0
  0
CLASS
  1
LWPOLYLINE
  2
AcDbPolyline
  3
AutoCAD 2000
 90
    32768
280
     0
281
     1
  0
CLASS
  1
HATCH
  2
AcDbHatch
  3
AutoCAD 2000
 90
    32768
280
     0
281
     1
  0
CLASS
  1
XRECORD
  2
AcDbXrecord
  3
AutoCAD 2000
 90
    32768
280
     0
281
     0
  0
CLASS
  1
LONG_TRANSACTION
  2
AcDbLongTransaction
  3
AutoCAD 2000
 90
    32768
280
     0
281
     0
  0
CLASS
  1
LWPOLYLINE
  2
AcDbPolyline
  3
AutoCAD 2000
 90
    32768
280
     0
281
     1
  0
CLASS
  1
HATCH
  2
AcDbHatch
  3
AutoCAD 2000
 90
    32768
280
     0
281
     1
  0
CLASS
  1
XRECORD
  2
AcDbXrecord
  3
AutoCAD 2000
 90
    32768
280
     0
281
     0
  0
CLASS
  1
LONG_TRANSACTION
  2
AcDbLongTransaction
  3
AutoCAD 2000
 90
    32768
280
     0
281
     0
  0
CLASS
  1
LWPOLYLINE
  2
AcDbPolyline
  3
AutoCAD 2000
 90
    32768
280
     0
281
     1
  0
CLASS
  1
HATCH
  2
AcDbHatch
  3
AutoCAD 2000
 90
    32768
280
     0
281
     1
  0
CLASS
  1
XRECORD
  2
AcDbXrecord
  3
AutoCAD 2000
 90
    32768
280
     0
281
     0
  0
CLASS
  1
LONG_TRANSACTION
  2
AcDbLongTransaction
  3
AutoCAD 2000
 90
    32768
280
     0
281
     0
  0
CLASS
  1
LWPOLYLINE
  2
AcDbPolyline
  3
AutoCAD 2000
 90
    32768
280
     0
281
     1
  0
CLASS
  1
HATCH
  2
AcDbHatch
  3
AutoCAD 2000
 90
    32768
280
     0
281
     1
  0
CLASS
  1
XRECORD
  2
AcDbXrecord
  3
AutoCAD 2000
 90
    32768
280
     0
281
     0
  0
CLASS
  1
SORTENTSTABLE
  2
AcDbSortentsTable
  3
AutoCAD 2000
 90
        0
280
     0
281
     0
  0
ENDSEC
  0
SECTION
  2
TABLES
  0
TABLE
  2
VPORT
  5
25
330
0
100
AcDbSymbolTable
 70
     3
  0
VPORT
  5
23A
330
25
100
AcDbSymbolTableRecord
100
AcDbViewportTableRecord
  2
*Active
 70
     0
 10
0.0
 20
0.0
 11
1.0
 21
1.0
 12
4.488779582615958
 22
-0.6144453796991911
 13
0.0
 23
0.0
 14
1.0
 24
1.0
 15
0.0
 25
0.0
 16
0.0
 26
0.0
 36
1.0
 17
0.0
 27
0.0
 37
0.0
 40
113.9946779607825
 41
1.361783439490445
 42
50.0
 43
0.0
 44
0.0
 50
0.0
 51
0.0
 71
     0
 72
 10000
 73
     1
 74
     0
 75
     0
 76
     0
 77
     0
 78
     0
281
     0
 65
     1
110
0.0
120
0.0
130
0.0
111
1.0
121
0.0
131
0.0
112
0.0
122
1.0
132
0.0
 79
     0
146
0.0
  0
ENDTAB
  0
TABLE
  2
LTYPE
  5
20
330
0
100
AcDbSymbolTable
 70
     3
  0
LTYPE
  5
21
330
20
100
AcDbSymbolTableRecord
100
AcDbLinetypeTableRecord
  2
BYBLOCK
 70
     0
  3

 72
    65
 73
     0
 40
0.0
  0
LTYPE
  5
22
330
20
100
AcDbSymbolTableRecord
100
AcDbLinetypeTableRecord
  2
BYLAYER
 70
     0
  3

 72
    65
 73
     0
 40
0.0
  0
LTYPE
  5
B
330
20
100
AcDbSymbolTableRecord
100
AcDbLinetypeTableRecord
  2
CONTINUOUS
 70
     0
  3
Solid line
 72
    65
 73
     0
 40
0.0
  0
LTYPE
  5
B8
330
20
100
AcDbSymbolTableRecord
100
AcDbLinetypeTableRecord
  2
Phantom
 70
     0
  3
Phantom
 72
    65
 73
     6
 40
45.0
 49
40.0
 74
     0
 49
-1.0
 74
     0
 49
1.0
 74
     0
 49
-1.0
 74
     0
 49
1.0
 74
     0
 49
-1.0
 74
     0
  0
LTYPE
  5
55
330
20
100
AcDbSymbolTableRecord
100
AcDbLinetypeTableRecord
  2
HIDDEN2
 70
     0
  3
Hidden (.5x) _ _ _ _ _ _ _ _ _ _ _ _ _ _ _ _ _
 72
    65
 73
     2
 40
1.399999999999999
 49
0.7
 74
     0
 49
-0.7
 74
     0
  0
ENDTAB
  0
TABLE
  2
LAYER
  5
19
102
{ACAD_XDICTIONARY
360
1A
102
}
330
0
100
AcDbSymbolTable
 70
     7
  0
LAYER
  5
7
330
19
100
AcDbSymbolTableRecord
100
AcDbLayerTableRecord
  2
0
 70
     0
 62
     7
  6
CONTINUOUS
370
    -3
390
8
  0
LAYER
  5
40
330
19
100
AcDbSymbolTableRecord
100
AcDbLayerTableRecord
  2
DEFPOINTS
 70
     0
 62
     7
  6
CONTINUOUS
290
     0
370
    -3
390
8
  0
LAYER
  5
103
330
19
100
AcDbSymbolTableRecord
100
AcDbLayerTableRecord
  2
WAKU
 70
     0
 62
     4
  6
CONTINUOUS
370
    -3
390
8
  0
LAYER
  5
FA
330
19
100
AcDbSymbolTableRecord
100
AcDbLayerTableRecord
  2
MOJI1
 70
     0
 62
     2
  6
CONTINUOUS
370
    -3
390
8
  0
LAYER
  5
46
330
19
100
AcDbSymbolTableRecord
100
AcDbLayerTableRecord
  2
GAIKEI
 70
     0
 62
     7
  6
CONTINUOUS
370
    -3
390
8
  0
LAYER
  5
177
330
19
100
AcDbSymbolTableRecord
100
AcDbLayerTableRecord
  2
TOUROKU
 70
     0
 62
     1
  6
CONTINUOUS
370
    -3
390
8
  0
LAYER
  5
37
330
19
100
AcDbSymbolTableRecord
100
AcDbLayerTableRecord
  2
SUNPO
 70
     0
 62
     3
  6
CONTINUOUS
370
    -3
390
8
  0
ENDTAB
  0
TABLE
  2
STYLE
  5
1D
330
0
100
AcDbSymbolTable
 70
     1
  0
STYLE
  5
1E
330
1D
100
AcDbSymbolTableRecord
100
AcDbTextStyleTableRecord
  2
STANDARD
 70
     0
 40
0.0
 41
1.0
 50
0.0
 71
     0
 42
3.0
  3
MONOTXT.shx
  4
BIGFONT.shx
  0
ENDTAB
  0
TABLE
  2
VIEW
  5
23
330
0
100
AcDbSymbolTable
 70
     0
  0
ENDTAB
  0
TABLE
  2
UCS
  5
24
330
0
100
AcDbSymbolTable
 70
     0
  0
ENDTAB
  0
TABLE
  2
APPID
  5
27
330
0
100
AcDbSymbolTable
 70
     1
  0
APPID
  5
28
330
27
100
AcDbSymbolTableRecord
100
AcDbRegAppTableRecord
  2
ACAD
 70
     0
  0
ENDTAB
  0
TABLE
  2
DIMSTYLE
  5
29
330
0
100
AcDbSymbolTable
 70
     1
100
AcDbDimStyleTable
 71
     1
340
2A
  0
DIMSTYLE
105
2A
102
{ACAD_REACTORS
330
5B
330
68
330
36
102
}
330
29
100
AcDbSymbolTableRecord
100
AcDbDimStyleTableRecord
  2
STANDARD
 70
     0
 40
0.0
 41
2.0
 42
2.0
 43
8.0
 44
2.0
 73
     0
 74
     0
 77
     3
140
3.0
141
0.0
173
     1
279
     2
288
     1
340
1E
341
2B
343
2B
344
2B
  0
ENDTAB
  0
TABLE
  2
BLOCK_RECORD
  5
1
330
0
100
AcDbSymbolTable
 70
     7
  0
BLOCK_RECORD
  5
2
102
{ACAD_XDICTIONARY
360
3
102
}
330
1
100
AcDbSymbolTableRecord
100
AcDbBlockTableRecord
  2
*MODEL_SPACE
340
D
  0
BLOCK_RECORD
  5
11
102
{ACAD_XDICTIONARY
360
12
102
}
330
1
100
AcDbSymbolTableRecord
100
AcDbBlockTableRecord
  2
*PAPER_SPACE
340
16
  0
BLOCK_RECORD
  5
2B
330
1
100
AcDbSymbolTableRecord
100
AcDbBlockTableRecord
  2
_OPEN30
340
0
102
{BLKREFS
331
6D
331
6E
331
60
331
61
331
3C
331
3D
331
21A
331
21B
331
226
331
227
331
232
331
233
102
}
  0
BLOCK_RECORD
  5
5C
330
1
100
AcDbSymbolTableRecord
100
AcDbBlockTableRecord
  2
*D1
340
0
  0
BLOCK_RECORD
  5
69
330
1
100
AcDbSymbolTableRecord
100
AcDbBlockTableRecord
  2
*D2
340
0
  0
BLOCK_RECORD
  5
38
330
1
100
AcDbSymbolTableRecord
100
AcDbBlockTableRecord
  2
*D3
340
0
  0
BLOCK_RECORD
  5
216
330
1
100
AcDbSymbolTableRecord
100
AcDbBlockTableRecord
  2
*D4
340
0
  0
BLOCK_RECORD
  5
222
330
1
100
AcDbSymbolTableRecord
100
AcDbBlockTableRecord
  2
*D5
340
0
  0
BLOCK_RECORD
  5
22E
330
1
100
AcDbSymbolTableRecord
100
AcDbBlockTableRecord
  2
*D6
340
0
  0
ENDTAB
  0
ENDSEC
  0
SECTION
  2
BLOCKS
  0
BLOCK
  5
6
330
2
100
AcDbEntity
  8
0
100
AcDbBlockBegin
  2
*MODEL_SPACE
 70
     0
 10
0.0
 20
0.0
 30
0.0
  3
*MODEL_SPACE
  1

  0
ENDBLK
  5
C
330
2
100
AcDbEntity
  8
0
100
AcDbBlockEnd
  0
BLOCK
  5
14
330
11
100
AcDbEntity
 67
     1
  8
0
100
AcDbBlockBegin
  2
*PAPER_SPACE
 70
     0
 10
0.0
 20
0.0
 30
0.0
  3
*PAPER_SPACE
  1

  0
ENDBLK
  5
15
330
11
100
AcDbEntity
 67
     1
  8
0
100
AcDbBlockEnd
  0
BLOCK
  5
2F
330
2B
100
AcDbEntity
  8
0
100
AcDbBlockBegin
  2
_OPEN30
 70
     0
 10
0.0
 20
0.0
 30
0.0
  3
_OPEN30
  1

  0
LINE
  5
2C
330
2B
100
AcDbEntity
  8
0
  6
ByBlock
 62
     0
100
AcDbLine
 10
-1.0
 20
0.26794919
 30
0.0
 11
0.0
 21
0.0
 31
0.0
  0
LINE
  5
2D
330
2B
100
AcDbEntity
  8
0
  6
ByBlock
 62
     0
100
AcDbLine
 10
0.0
 20
0.0
 30
0.0
 11
-1.0
 21
-0.26794919
 31
0.0
  0
LINE
  5
2E
330
2B
100
AcDbEntity
  8
0
  6
ByBlock
 62
     0
100
AcDbLine
 10
0.0
 20
0.0
 30
0.0
 11
-1.0
 21
0.0
 31
0.0
  0
ENDBLK
  5
30
330
2B
100
AcDbEntity
  8
0
100
AcDbBlockEnd
  0
BLOCK
  5
66
330
5C
100
AcDbEntity
  8
0
100
AcDbBlockBegin
  2
*D1
 70
     1
 10
0.0
 20
0.0
 30
0.0
  3
*D1
  1

  0
LINE
  5
5D
330
5C
100
AcDbEntity
  8
SUNPO
 62
     0
370
    -2
100
AcDbLine
 10
41.92995948300728
 20
213.289392662839
 30
0.0
 11
49.92995948300729
 21
213.289392662839
 31
0.0
  0
LINE
  5
5E
330
5C
100
AcDbEntity
  8
SUNPO
 62
     0
370
    -2
100
AcDbLine
 10
41.92995948300728
 20
196.6893919113163
 30
0.0
 11
49.92995948300728
 21
196.6893919113163
 31
0.0
  0
LINE
  5
5F
330
5C
100
AcDbEntity
  8
SUNPO
 62
     0
370
    -2
100
AcDbLine
 10
47.92995948300728
 20
211.289392662839
 30
0.0
 11
47.92995948300728
 21
198.6893919113163
 31
0.0
  0
INSERT
  5
60
330
5C
100
AcDbEntity
  8
SUNPO
 62
     0
370
    -2
100
AcDbBlockReference
  2
_OPEN30
 10
47.92995948300728
 20
213.289392662839
 30
0.0
 41
2.0
 42
2.0
 43
2.0
 50
90.0
  0
INSERT
  5
61
330
5C
100
AcDbEntity
  8
SUNPO
 62
     0
370
    -2
100
AcDbBlockReference
  2
_OPEN30
 10
47.92995948300728
 20
196.6893919113163
 30
0.0
 41
2.0
 42
2.0
 43
2.0
 50
270.0
  0
MTEXT
  5
62
330
5C
100
AcDbEntity
  8
SUNPO
 62
     0
100
AcDbMText
 10
46.17995948300725
 20
204.9893922870777
 30
0.0
 40
2.5
 41
0.0
 71
     5
 72
     1
  1
\A1;83
 11
0.0000000000000001
 21
1.0
 31
0.0
 73
     1
 44
1.0
  0
POINT
  5
63
330
5C
100
AcDbEntity
  8
DEFPOINTS
 62
     0
100
AcDbPoint
 10
39.92995948300728
 20
213.289392662839
 30
0.0
  0
POINT
  5
64
330
5C
100
AcDbEntity
  8
DEFPOINTS
 62
     0
100
AcDbPoint
 10
39.92995948300728
 20
196.6893919113163
 30
0.0
  0
POINT
  5
65
330
5C
100
AcDbEntity
  8
DEFPOINTS
 62
     0
100
AcDbPoint
 10
47.92995948300728
 20
196.6893919113163
 30
0.0
  0
ENDBLK
  5
67
330
5C
100
AcDbEntity
  8
0
100
AcDbBlockEnd
  0
BLOCK
  5
73
330
69
100
AcDbEntity
  8
0
100
AcDbBlockBegin
  2
*D2
 70
     1
 10
0.0
 20
0.0
 30
0.0
  3
*D2
  1

  0
LINE
  5
6A
330
69
100
AcDbEntity
  8
SUNPO
 62
     0
370
    -2
100
AcDbLine
 10
23.12995948300985
 20
215.2826921980034
 30
0.0
 11
23.12995948300985
 21
223.2826921980034
 31
0.0
  0
LINE
  5
6B
330
69
100
AcDbEntity
  8
SUNPO
 62
     0
370
    -2
100
AcDbLine
 10
39.92995948300728
 20
215.2826921980034
 30
0.0
 11
39.92995948300728
 21
223.2826921980034
 31
0.0
  0
LINE
  5
6C
330
69
100
AcDbEntity
  8
SUNPO
 62
     0
370
    -2
100
AcDbLine
 10
25.12995948300985
 20
221.2826921980034
 30
0.0
 11
37.92995948300728
 21
221.2826921980034
 31
0.0
  0
INSERT
  5
6D
330
69
100
AcDbEntity
  8
SUNPO
 62
     0
370
    -2
100
AcDbBlockReference
  2
_OPEN30
 10
23.12995948300985
 20
221.2826921980034
 30
0.0
 41
2.0
 42
2.0
 43
2.0
 50
180.0
  0
INSERT
  5
6E
330
69
100
AcDbEntity
  8
SUNPO
 62
     0
370
    -2
100
AcDbBlockReference
  2
_OPEN30
 10
39.92995948300728
 20
221.2826921980034
 30
0.0
 41
2.0
 42
2.0
 43
2.0
  0
MTEXT
  5
6F
330
69
100
AcDbEntity
  8
SUNPO
 62
     0
100
AcDbMText
 10
31.52995948300857
 20
223.0326921980034
 30
0.0
 40
2.5
 41
0.0
 71
     5
 72
     1
  1
\A1;84
 73
     1
 44
1.0
  0
POINT
  5
70
330
69
100
AcDbEntity
  8
DEFPOINTS
 62
     0
100
AcDbPoint
 10
23.12995948300985
 20
213.2826921980034
 30
0.0
  0
POINT
  5
71
330
69
100
AcDbEntity
  8
DEFPOINTS
 62
     0
100
AcDbPoint
 10
39.92995948300728
 20
213.2826921980034
 30
0.0
  0
POINT
  5
72
330
69
100
AcDbEntity
  8
DEFPOINTS
 62
     0
100
AcDbPoint
 10
39.92995948300728
 20
221.2826921980034
 30
0.0
  0
ENDBLK
  5
74
330
69
100
AcDbEntity
  8
0
100
AcDbBlockEnd
  0
BLOCK
  5
43
330
38
100
AcDbEntity
  8
0
100
AcDbBlockBegin
  2
*D3
 70
     1
 10
0.0
 20
0.0
 30
0.0
  3
*D3
  1

  0
LINE
  5
39
330
38
100
AcDbEntity
  8
SUNPO
 62
     0
370
    -2
100
AcDbLine
 10
73.62563372593415
 20
214.6068957359001
 30
0.0
 11
73.62563372593415
 21
222.6068957359001
 31
0.0
  0
LINE
  5
3A
330
38
100
AcDbEntity
  8
SUNPO
 62
     0
370
    -2
100
AcDbLine
 10
113.1254298715871
 20
214.6068957359001
 30
0.0
 11
113.1254298715871
 21
222.6068957359001
 31
0.0
  0
LINE
  5
3B
330
38
100
AcDbEntity
  8
SUNPO
 62
     0
370
    -2
100
AcDbLine
 10
75.62563372593415
 20
220.6068957359001
 30
0.0
 11
111.1254298715871
 21
220.6068957359001
 31
0.0
  0
INSERT
  5
3C
330
38
100
AcDbEntity
  8
SUNPO
 62
     0
370
    -2
100
AcDbBlockReference
  2
_OPEN30
 10
73.62563372593415
 20
220.6068957359001
 30
0.0
 41
2.0
 42
2.0
 43
2.0
 50
180.0
  0
INSERT
  5
3D
330
38
100
AcDbEntity
  8
SUNPO
 62
     0
370
    -2
100
AcDbBlockReference
  2
_OPEN30
 10
113.1254298715871
 20
220.6068957359001
 30
0.0
 41
2.0
 42
2.0
 43
2.0
  0
MTEXT
  5
3E
330
38
100
AcDbEntity
  8
SUNPO
 62
     0
100
AcDbMText
 10
93.37553179876065
 20
222.3568957359001
 30
0.0
 40
2.5
 41
0.0
 71
     5
 72
     1
  1
\A1;197.5
 73
     1
 44
1.0
  0
POINT
  5
3F
330
38
100
AcDbEntity
  8
DEFPOINTS
 62
     0
100
AcDbPoint
 10
73.62563372593415
 20
212.6068957359001
 30
0.0
  0
POINT
  5
41
330
38
100
AcDbEntity
  8
DEFPOINTS
 62
     0
100
AcDbPoint
 10
113.1254298715871
 20
212.6068957359001
 30
0.0
  0
POINT
  5
42
330
38
100
AcDbEntity
  8
DEFPOINTS
 62
     0
100
AcDbPoint
 10
113.1254298715871
 20
220.6068957359001
 30
0.0
  0
ENDBLK
  5
44
330
38
100
AcDbEntity
  8
0
100
AcDbBlockEnd
  0
BLOCK
  5
220
330
216
100
AcDbEntity
  8
0
100
AcDbBlockBegin
  2
*D4
 70
     1
 10
0.0
 20
0.0
 30
0.0
  3
*D4
  1

  0
LINE
  5
217
330
216
100
AcDbEntity
  8
SUNPO
 62
     0
370
    -2
100
AcDbLine
 10
13.60751613495669
 20
25.97053203088299
 30
0.0
 11
13.60751613495669
 21
33.97053203088299
 31
0.0
  0
LINE
  5
218
330
216
100
AcDbEntity
  8
SUNPO
 62
     0
370
    -2
100
AcDbLine
 10
53.10731228060972
 20
25.97053203088299
 30
0.0
 11
53.10731228060972
 21
33.97053203088299
 31
0.0
  0
LINE
  5
219
330
216
100
AcDbEntity
  8
SUNPO
 62
     0
370
    -2
100
AcDbLine
 10
15.60751613495669
 20
31.97053203088299
 30
0.0
 11
51.10731228060972
 21
31.97053203088299
 31
0.0
  0
INSERT
  5
21A
330
216
100
AcDbEntity
  8
SUNPO
 62
     0
370
    -2
100
AcDbBlockReference
  2
_OPEN30
 10
13.60751613495669
 20
31.97053203088299
 30
0.0
 41
2.0
 42
2.0
 43
2.0
 50
180.0
  0
INSERT
  5
21B
330
216
100
AcDbEntity
  8
SUNPO
 62
     0
370
    -2
100
AcDbBlockReference
  2
_OPEN30
 10
53.10731228060972
 20
31.97053203088299
 30
0.0
 41
2.0
 42
2.0
 43
2.0
  0
MTEXT
  5
21C
330
216
100
AcDbEntity
  8
SUNPO
 62
     0
100
AcDbMText
 10
33.35741420778321
 20
33.72053203088299
 30
0.0
 40
2.5
 41
0.0
 71
     5
 72
     1
  1
\A1;197.5
 73
     1
 44
1.0
  0
POINT
  5
21D
330
216
100
AcDbEntity
  8
DEFPOINTS
 62
     0
100
AcDbPoint
 10
13.60751613495669
 20
23.97053203088299
 30
0.0
  0
POINT
  5
21E
330
216
100
AcDbEntity
  8
DEFPOINTS
 62
     0
100
AcDbPoint
 10
53.10731228060972
 20
23.97053203088299
 30
0.0
  0
POINT
  5
21F
330
216
100
AcDbEntity
  8
DEFPOINTS
 62
     0
100
AcDbPoint
 10
53.10731228060972
 20
31.97053203088299
 30
0.0
  0
ENDBLK
  5
221
330
216
100
AcDbEntity
  8
0
100
AcDbBlockEnd
  0
BLOCK
  5
22C
330
222
100
AcDbEntity
  8
0
100
AcDbBlockBegin
  2
*D5
 70
     1
 10
0.0
 20
0.0
 30
0.0
  3
*D5
  1

  0
LINE
  5
223
330
222
100
AcDbEntity
  8
SUNPO
 62
     0
370
    -2
100
AcDbLine
 10
-18.08815810797017
 20
24.6530289578219
 30
0.0
 11
-10.08815810797017
 21
24.6530289578219
 31
0.0
  0
LINE
  5
224
330
222
100
AcDbEntity
  8
SUNPO
 62
     0
370
    -2
100
AcDbLine
 10
-18.08815810797017
 20
8.05302820629913
 30
0.0
 11
-10.08815810797017
 21
8.053028206299128
 31
0.0
  0
LINE
  5
225
330
222
100
AcDbEntity
  8
SUNPO
 62
     0
370
    -2
100
AcDbLine
 10
-12.08815810797017
 20
22.6530289578219
 30
0.0
 11
-12.08815810797017
 21
10.05302820629913
 31
0.0
  0
INSERT
  5
226
330
222
100
AcDbEntity
  8
SUNPO
 62
     0
370
    -2
100
AcDbBlockReference
  2
_OPEN30
 10
-12.08815810797017
 20
24.6530289578219
 30
0.0
 41
2.0
 42
2.0
 43
2.0
 50
90.0
  0
INSERT
  5
227
330
222
100
AcDbEntity
  8
SUNPO
 62
     0
370
    -2
100
AcDbBlockReference
  2
_OPEN30
 10
-12.08815810797017
 20
8.05302820629913
 30
0.0
 41
2.0
 42
2.0
 43
2.0
 50
270.0
  0
MTEXT
  5
228
330
222
100
AcDbEntity
  8
SUNPO
 62
     0
100
AcDbMText
 10
-13.83815810797017
 20
16.35302858206051
 30
0.0
 40
2.5
 41
0.0
 71
     5
 72
     1
  1
\A1;83
 11
0.0000000000000001
 21
1.0
 31
0.0
 73
     1
 44
1.0
  0
POINT
  5
229
330
222
100
AcDbEntity
  8
DEFPOINTS
 62
     0
100
AcDbPoint
 10
-20.08815810797017
 20
24.6530289578219
 30
0.0
  0
POINT
  5
22A
330
222
100
AcDbEntity
  8
DEFPOINTS
 62
     0
100
AcDbPoint
 10
-20.08815810797017
 20
8.053028206299131
 30
0.0
  0
POINT
  5
22B
330
222
100
AcDbEntity
  8
DEFPOINTS
 62
     0
100
AcDbPoint
 10
-12.08815810797017
 20
8.05302820629913
 30
0.0
  0
ENDBLK
  5
22D
330
222
100
AcDbEntity
  8
0
100
AcDbBlockEnd
  0
BLOCK
  5
238
330
22E
100
AcDbEntity
  8
0
100
AcDbBlockBegin
  2
*D6
 70
     1
 10
0.0
 20
0.0
 30
0.0
  3
*D6
  1

  0
LINE
  5
22F
330
22E
100
AcDbEntity
  8
SUNPO
 62
     0
370
    -2
100
AcDbLine
 10
-36.88815810796759
 20
26.6463284929863
 30
0.0
 11
-36.88815810796759
 21
34.6463284929863
 31
0.0
  0
LINE
  5
230
330
22E
100
AcDbEntity
  8
SUNPO
 62
     0
370
    -2
100
AcDbLine
 10
-20.08815810797017
 20
26.6463284929863
 30
0.0
 11
-20.08815810797017
 21
34.6463284929863
 31
0.0
  0
LINE
  5
231
330
22E
100
AcDbEntity
  8
SUNPO
 62
     0
370
    -2
100
AcDbLine
 10
-34.8881581079676
 20
32.6463284929863
 30
0.0
 11
-22.08815810797017
 21
32.6463284929863
 31
0.0
  0
INSERT
  5
232
330
22E
100
AcDbEntity
  8
SUNPO
 62
     0
370
    -2
100
AcDbBlockReference
  2
_OPEN30
 10
-36.88815810796759
 20
32.6463284929863
 30
0.0
 41
2.0
 42
2.0
 43
2.0
 50
180.0
  0
INSERT
  5
233
330
22E
100
AcDbEntity
  8
SUNPO
 62
     0
370
    -2
100
AcDbBlockReference
  2
_OPEN30
 10
-20.08815810797017
 20
32.6463284929863
 30
0.0
 41
2.0
 42
2.0
 43
2.0
  0
MTEXT
  5
234
330
22E
100
AcDbEntity
  8
SUNPO
 62
     0
100
AcDbMText
 10
-28.48815810796888
 20
34.3963284929863
 30
0.0
 40
2.5
 41
0.0
 71
     5
 72
     1
  1
\A1;84
 73
     1
 44
1.0
  0
POINT
  5
235
330
22E
100
AcDbEntity
  8
DEFPOINTS
 62
     0
100
AcDbPoint
 10
-36.88815810796759
 20
24.6463284929863
 30
0.0
  0
POINT
  5
236
330
22E
100
AcDbEntity
  8
DEFPOINTS
 62
     0
100
AcDbPoint
 10
-20.08815810797017
 20
24.6463284929863
 30
0.0
  0
POINT
  5
237
330
22E
100
AcDbEntity
  8
DEFPOINTS
 62
     0
100
AcDbPoint
 10
-20.08815810797017
 20
32.6463284929863
 30
0.0
  0
ENDBLK
  5
239
330
22E
100
AcDbEntity
  8
0
100
AcDbBlockEnd
  0
ENDSEC
  0
SECTION
  2
ENTITIES
  0
DIMENSION
  5
36
330
2
100
AcDbEntity
  8
SUNPO
100
AcDbDimension
  2
*D4
 10
53.10731228060972
 20
31.97053203088299
 30
0.0
 11
33.35741420778321
 21
33.72053203088299
 31
0.0
 70
    33
  1
197.5
 71
     5
 42
39.49979614565302
  3
STANDARD
100
AcDbAlignedDimension
 13
13.60751613495669
 23
23.97053203088299
 33
0.0
 14
53.10731228060972
 24
23.97053203088299
 34
0.0
1001
ACAD
1000
DSTYLE
1002
{
1070
   287
1070
     3
1070
    40
1040
1.0
1070
   140
1040
2.5
1070
   147
1040
0.5
1070
   172
1070
     1
1070
   279
1070
     0
1070
   288
1070
     0
1070
   341
1005
0
1002
}
  0
ARC
  5
45
330
2
100
AcDbEntity
  8
GAIKEI
  6
Continuous
100
AcDbCircle
 10
-33.96932081493398
 20
8.853028206299143
 30
0.0
 40
0.8
100
AcDbArc
 50
259.9492941888135
 51
270.0
  0
LINE
  5
47
330
2
100
AcDbEntity
  8
GAIKEI
  6
Continuous
 62
     1
100
AcDbLine
 10
-36.64592986024615
 20
11.96968576402019
 30
0.0
 11
-36.39800181568983
 21
12.02153738656346
 31
0.0
  0
LINE
  5
48
330
2
100
AcDbEntity
  8
GAIKEI
  6
Continuous
 62
     1
100
AcDbLine
 10
-37.5817992448697
 20
11.77395822473312
 30
0.0
 11
-37.42950391442221
 21
11.8058092402307
 31
0.0
  0
LINE
  5
49
330
2
100
AcDbEntity
  8
GAIKEI
  6
Continuous
 62
     1
100
AcDbLine
 10
-36.68259138082223
 20
13.46777981335492
 30
0.0
 11
-37.88351692739178
 21
13.21661848041839
 31
0.0
  0
LINE
  5
4A
330
2
100
AcDbEntity
  8
GAIKEI
  6
Continuous
 62
     1
100
AcDbLine
 10
-37.88351692739178
 20
13.21661848041839
 30
0.0
 11
-37.5817992448697
 21
11.77395822473312
 31
0.0
  0
ARC
  5
4B
330
2
100
AcDbEntity
  8
GAIKEI
  6
Continuous
 62
     1
100
AcDbCircle
 10
-15.69138697065219
 20
17.12301998570893
 30
0.0
 40
20.7
100
AcDbArc
 50
200.7480688588696
 51
201.5585139883888
  0
ARC
  5
4C
330
2
100
AcDbEntity
  8
GAIKEI
  6
Continuous
 62
     1
100
AcDbCircle
 10
-34.81666698267753
 20
11.78232043811482
 30
0.0
 40
2.0
100
AcDbArc
 50
272.2187195370537
 51
314.9999999999995
  0
ARC
  5
4D
330
2
100
AcDbEntity
  8
GAIKEI
  6
Continuous
 62
     1
100
AcDbCircle
 10
-34.84234382509814
 20
12.44506272687146
 30
0.0
 40
2.663239505420146
100
AcDbArc
 50
233.8650269124412
 51
272.2187195370537
  0
ARC
  5
4E
330
2
100
AcDbEntity
  8
GAIKEI
  6
Continuous
 62
     1
100
AcDbCircle
 10
-34.84234382509814
 20
12.44506272687146
 30
0.0
 40
1.863239505420146
100
AcDbArc
 50
233.8650269124412
 51
289.8633644857899
  0
ARC
  5
4F
330
2
100
AcDbEntity
  8
GAIKEI
  6
Continuous
 62
     1
100
AcDbCircle
 10
-37.08809508468959
 20
12.66869296413358
 30
0.0
 40
0.4
100
AcDbArc
 50
353.5172037169404
 51
173.5172037169404
  0
ARC
  5
50
330
2
100
AcDbEntity
  8
GAIKEI
  6
Continuous
 62
     1
100
AcDbCircle
 10
-34.8862808604095
 20
12.41849760049672
 30
0.0
 40
2.615983663799756
100
AcDbArc
 50
173.5172037169371
 51
237.9304954258885
  0
ARC
  5
51
330
2
100
AcDbEntity
  8
GAIKEI
  6
Continuous
 62
     1
100
AcDbCircle
 10
-34.8862808604095
 20
12.41849760049672
 30
0.0
 40
1.815983663799756
100
AcDbArc
 50
173.5172037169371
 51
234.4903670925362
  0
LINE
  5
52
330
2
100
AcDbEntity
  8
GAIKEI
  6
Continuous
 62
     1
100
AcDbLine
 10
-37.46568248027406
 20
11.95148821369252
 30
0.0
 11
-37.46044006598703
 21
11.9525846111868
 31
0.0
  0
ARC
  5
53
330
2
100
AcDbEntity
  8
GAIKEI
  6
Continuous
 62
     1
100
AcDbCircle
 10
-34.04240548532655
 20
8.52443761146651
 30
0.0
 40
0.3
100
AcDbArc
 50
217.2875502362187
 51
270.0
  0
ARC
  5
54
330
2
100
AcDbEntity
  8
GAIKEI
  6
HIDDEN2
 62
     1
100
AcDbCircle
 10
-32.38685935120233
 20
11.383700944844
 30
0.0
 40
0.4
100
AcDbArc
 50
225.0000000000049
 51
289.6019535739982
  0
ARC
  5
56
330
2
100
AcDbEntity
  8
GAIKEI
  6
HIDDEN2
 62
     1
100
AcDbCircle
 10
-32.95254477620233
 20
11.94938636984386
 30
0.0
 40
0.4
100
AcDbArc
 50
160.5418625369995
 51
225.0000000000049
  0
LINE
  5
57
330
2
100
AcDbEntity
  8
GAIKEI
  6
HIDDEN2
 62
     1
100
AcDbLine
 10
-33.23538748860233
 20
11.66654365744386
 30
0.0
 11
-32.66970206360233
 21
11.10085823244378
 31
0.0
  0
LINE
  5
58
330
2
100
AcDbEntity
  8
GAIKEI
  6
Continuous
 62
     1
100
AcDbLine
 10
-34.20925556528163
 20
10.69267558076455
 30
0.0
 11
-33.23538748860233
 21
11.66654365744386
 31
0.0
  0
LINE
  5
59
330
2
100
AcDbEntity
  8
GAIKEI
  6
Continuous
 62
     1
100
AcDbLine
 10
-32.66970206360233
 20
11.10085823244378
 30
0.0
 11
-33.40245342030439
 21
10.36810687574166
 31
0.0
  0
LINE
  5
5A
330
2
100
AcDbEntity
  8
GAIKEI
  6
HIDDEN2
 62
     1
100
AcDbLine
 10
-25.57143678300232
 20
18.76480893784389
 30
0.0
 11
-25.59264998660234
 21
18.74359573444382
 31
0.0
  0
DIMENSION
  5
5B
330
2
100
AcDbEntity
  8
SUNPO
100
AcDbDimension
  2
*D5
 10
-12.08815810797017
 20
8.05302820629913
 30
0.0
 11
-13.83815810797017
 21
16.35302858206051
 31
0.0
 70
    33
  1
83
 71
     5
 42
16.60000075152277
  3
STANDARD
100
AcDbAlignedDimension
 13
-20.08815810797017
 23
24.6530289578219
 33
0.0
 14
-20.08815810797017
 24
8.053028206299131
 34
0.0
1001
ACAD
1000
DSTYLE
1002
{
1070
   287
1070
     3
1070
    40
1040
1.0
1070
   140
1040
2.5
1070
   147
1040
0.5
1070
   172
1070
     1
1070
   279
1070
     0
1070
   288
1070
     0
1070
   341
1005
0
1002
}
  0
DIMENSION
  5
68
330
2
100
AcDbEntity
  8
SUNPO
100
AcDbDimension
  2
*D6
 10
-20.08815810797017
 20
32.6463284929863
 30
0.0
 11
-28.48815810796888
 21
34.3963284929863
 31
0.0
 70
    33
  1
84
 71
     5
 42
16.79999999999742
  3
STANDARD
100
AcDbAlignedDimension
 13
-36.88815810796759
 23
24.6463284929863
 33
0.0
 14
-20.08815810797017
 24
24.6463284929863
 34
0.0
1001
ACAD
1000
DSTYLE
1002
{
1070
   287
1070
     3
1070
    40
1040
1.0
1070
   140
1040
2.5
1070
   147
1040
0.5
1070
   172
1070
     1
1070
   279
1070
     0
1070
   288
1070
     0
1070
   341
1005
0
1002
}
  0
ARC
  5
75
330
2
100
AcDbEntity
  8
GAIKEI
  6
Continuous
 62
     1
100
AcDbCircle
 10
-34.04240548532658
 20
8.52443761146651
 30
0.0
 40
0.3
100
AcDbArc
 50
217.2875502362228
 51
270.0
  0
ARC
  5
76
330
2
100
AcDbEntity
  8
GAIKEI
  6
Continuous
 62
     1
100
AcDbCircle
 10
-22.93391073061121
 20
8.52443761146651
 30
0.0
 40
0.3
100
AcDbArc
 50
270.0
 51
322.7124497637812
  0
ARC
  5
77
330
2
100
AcDbEntity
  8
GAIKEI
  6
Continuous
100
AcDbCircle
 10
-34.979448720996
 20
22.1530289692385
 30
0.0
 40
0.5
100
AcDbArc
 50
90.0
 51
137.1701220195258
  0
ARC
  5
78
330
2
100
AcDbEntity
  8
GAIKEI
  6
Continuous
100
AcDbCircle
 10
-21.99686749494179
 20
22.1530289692385
 30
0.0
 40
0.5
100
AcDbArc
 50
42.82987798048738
 51
90.0
  0
ARC
  5
79
330
2
100
AcDbEntity
  8
GAIKEI
  6
Continuous
100
AcDbCircle
 10
-33.94378435556106
 20
8.917002226352451
 30
0.0
 40
0.8675615115162987
100
AcDbArc
 50
237.453281578456
 51
259.0259927231446
  0
ARC
  5
7A
330
2
100
AcDbEntity
  8
GAIKEI
  6
Continuous
100
AcDbCircle
 10
-23.00699540100379
 20
8.853028206299143
 30
0.0
 40
0.8
100
AcDbArc
 50
270.0
 51
303.4700198872565
  0
ARC
  5
7B
330
2
100
AcDbEntity
  8
GAIKEI
  6
Continuous
 62
     1
100
AcDbCircle
 10
-34.63289555722062
 20
21.98162023164371
 30
0.0
 40
0.5
100
AcDbArc
 50
90.0
 51
145.7904993465521
  0
ARC
  5
7C
330
2
100
AcDbEntity
  8
GAIKEI
  6
Continuous
 62
     1
100
AcDbCircle
 10
-22.34342065871698
 20
21.98162023164371
 30
0.0
 40
0.4999999999998
100
AcDbArc
 50
34.20950065345569
 51
90.0
  0
ARC
  5
7D
330
2
100
AcDbEntity
  8
GAIKEI
  6
Continuous
100
AcDbCircle
 10
-24.02288287784938
 20
24.55302895782193
 30
0.0
 40
0.1
100
AcDbArc
 50
51.4476587367569
 51
90.0
  0
ARC
  5
7E
330
2
100
AcDbEntity
  8
GAIKEI
  6
Continuous
100
AcDbCircle
 10
-32.95343333808841
 20
24.55302895782193
 30
0.0
 40
0.1
100
AcDbArc
 50
90.0
 51
128.5523412632377
  0
ARC
  5
7F
330
2
100
AcDbEntity
  8
GAIKEI
  6
Continuous
100
AcDbCircle
 10
-28.0381581079688
 20
23.55302895782193
 30
0.0
 40
0.1
100
AcDbArc
 50
270.0
 51
0.0
  0
ARC
  5
80
330
2
100
AcDbEntity
  8
GAIKEI
  6
Continuous
100
AcDbCircle
 10
-28.9381581079688
 20
23.55302895782193
 30
0.0
 40
0.1
100
AcDbArc
 50
180.0
 51
270.0
  0
ARC
  5
81
330
2
100
AcDbEntity
  8
GAIKEI
  6
Continuous
 62
     1
100
AcDbCircle
 10
-37.01637958455958
 20
16.00303039974994
 30
0.0
 40
0.1
100
AcDbArc
 50
90.0
 51
149.2222468774714
  0
ARC
  5
82
330
2
100
AcDbEntity
  8
GAIKEI
  6
Continuous
 62
     1
100
AcDbCircle
 10
-35.54007649392241
 20
9.303028873871141
 30
0.0
 40
0.0999999999998
100
AcDbArc
 50
240.8500852311695
 51
270.0
  0
ARC
  5
83
330
2
100
AcDbEntity
  8
GAIKEI
  6
Continuous
100
AcDbCircle
 10
52.90731268221513
 20
21.77723255938079
 30
0.0
 40
0.2
100
AcDbArc
 50
359.8851787271993
 51
90.00000013733478
  0
ARC
  5
84
330
2
100
AcDbEntity
  8
GAIKEI
  6
Continuous
100
AcDbCircle
 10
50.60237806028213
 20
7.577232411767994
 30
0.0
 40
0.2
100
AcDbArc
 50
270.0
 51
334.2482405878985
  0
ARC
  5
85
330
2
100
AcDbEntity
  8
GAIKEI
  6
Continuous
100
AcDbCircle
 10
14.10751613495669
 20
7.941720054609191
 30
0.0
 40
0.4
100
AcDbArc
 50
180.0
 51
268.9999999999916
  0
ARC
  5
86
330
2
100
AcDbEntity
  8
GAIKEI
  6
Continuous
100
AcDbCircle
 10
14.10751613495669
 20
21.41274486429401
 30
0.0
 40
0.4000000000002001
100
AcDbArc
 50
91.00000000000823
 51
180.0
  0
ARC
  5
87
330
2
100
AcDbEntity
  8
GAIKEI
  6
Continuous
 62
     1
100
AcDbCircle
 10
22.52751613495651
 20
14.17723250713518
 30
0.0
 40
0.1
100
AcDbArc
 50
0.0
 51
90.0
  0
ARC
  5
88
330
2
100
AcDbEntity
  8
GAIKEI
  6
Continuous
 62
     1
100
AcDbCircle
 10
22.52751613495651
 20
12.97723250713519
 30
0.0
 40
0.1
100
AcDbArc
 50
270.0
 51
0.0
  0
ARC
  5
89
330
2
100
AcDbEntity
  8
GAIKEI
  6
Continuous
 62
     1
100
AcDbCircle
 10
15.02751613495651
 20
12.97723250713519
 30
0.0
 40
0.1
100
AcDbArc
 50
180.0
 51
270.0
  0
ARC
  5
8A
330
2
100
AcDbEntity
  8
GAIKEI
  6
Continuous
 62
     1
100
AcDbCircle
 10
15.02751613495651
 20
14.17723250713518
 30
0.0
 40
0.1
100
AcDbArc
 50
90.0
 51
180.0
  0
ARC
  5
8B
330
2
100
AcDbEntity
  8
GAIKEI
  6
Continuous
 62
     1
100
AcDbCircle
 10
22.54751613495652
 20
14.33723250713521
 30
0.0
 40
0.24
100
AcDbArc
 50
0.0
 51
90.0
  0
ARC
  5
8C
330
2
100
AcDbEntity
  8
GAIKEI
  6
Continuous
 62
     1
100
AcDbCircle
 10
22.54751613495652
 20
12.81723250713523
 30
0.0
 40
0.24
100
AcDbArc
 50
270.0
 51
0.0
  0
ARC
  5
8D
330
2
100
AcDbEntity
  8
GAIKEI
  6
Continuous
 62
     1
100
AcDbCircle
 10
15.0075161349565
 20
12.81723250713523
 30
0.0
 40
0.24
100
AcDbArc
 50
180.0
 51
270.0
  0
ARC
  5
8E
330
2
100
AcDbEntity
  8
GAIKEI
  6
Continuous
 62
     1
100
AcDbCircle
 10
15.0075161349565
 20
14.33723250713521
 30
0.0
 40
0.24
100
AcDbArc
 50
90.0
 51
180.0
  0
ARC
  5
8F
330
2
100
AcDbEntity
  8
GAIKEI
  6
Continuous
100
AcDbCircle
 10
30.9021862440713
 20
23.87723249571862
 30
0.0
 40
0.1000000000002
100
AcDbArc
 50
61.6081468434222
 51
90.0
  0
ARC
  5
90
330
2
100
AcDbEntity
  8
GAIKEI
  6
Continuous
100
AcDbCircle
 10
-46.89248691680127
 20
21.97723254981761
 30
0.0
 40
99.99999999999982
100
AcDbArc
 50
357.7075572296916
 51
359.8851787272026
  0
ARC
  5
91
330
2
100
AcDbEntity
  8
GAIKEI
  6
Continuous
 62
     1
100
AcDbCircle
 10
-35.3839781517918
 20
15.03078271407594
 30
0.0
 40
2.0000000000002
100
AcDbArc
 50
149.2222468774714
 51
180.0
  0
ARC
  5
92
330
2
100
AcDbEntity
  8
GAIKEI
  6
Continuous
 62
     1
100
AcDbCircle
 10
-25.80079844126518
 20
19.63115054909735
 30
0.0
 40
4.680689998054
100
AcDbArc
 50
20.04199584276564
 51
34.20950065345962
  0
ARC
  5
93
330
2
100
AcDbEntity
  8
GAIKEI
  6
Continuous
100
AcDbCircle
 10
-22.89029037577938
 20
16.60869527911654
 30
0.0
 40
13.9999999999986
100
AcDbArc
 50
160.7027427004914
 51
182.0699119001425
  0
ARC
  5
94
330
2
100
AcDbEntity
  8
GAIKEI
  6
Continuous
 62
     7
100
AcDbCircle
 10
-15.69138697065219
 20
17.12301998570893
 30
0.0
 40
21.1999999999998
100
AcDbArc
 50
199.9239347040908
 51
201.0255933150847
  0
ARC
  5
95
330
2
100
AcDbEntity
  8
GAIKEI
  6
Continuous
100
AcDbCircle
 10
-32.70598480401921
 20
20.04557509828333
 30
0.0
 40
3.6
100
AcDbArc
 50
137.170122019517
 51
160.7027427004914
  0
ARC
  5
96
330
2
100
AcDbEntity
  8
GAIKEI
  6
Continuous
100
AcDbCircle
 10
-32.86631965969678
 20
10.52137722600252
 30
0.0
 40
2.8
100
AcDbArc
 50
201.0255933150847
 51
236.5299801127444
  0
ARC
  5
97
330
2
100
AcDbEntity
  8
GAIKEI
  6
Continuous
100
AcDbCircle
 10
-24.27033141191861
 20
20.04557509828333
 30
0.0
 40
3.5999999999998
100
AcDbArc
 50
19.29725729950857
 51
42.82987798048292
  0
ARC
  5
98
330
2
100
AcDbEntity
  8
GAIKEI
  6
Continuous
100
AcDbCircle
 10
-34.08602584015841
 20
16.60869527911654
 30
0.0
 40
13.9999999999988
100
AcDbArc
 50
1.000000000001775
 51
19.29725729950512
  0
ARC
  5
99
330
2
100
AcDbEntity
  8
GAIKEI
  6
Continuous
100
AcDbCircle
 10
-41.28492924528578
 20
17.12301998570893
 30
0.0
 40
21.2000000000002
100
AcDbArc
 50
349.0025272711241
 51
358.9999999999982
  0
ARC
  5
9A
330
2
100
AcDbEntity
  8
GAIKEI
  6
Continuous
100
AcDbCircle
 10
-24.10999655624101
 20
10.52137722600252
 30
0.0
 40
2.8
100
AcDbArc
 50
303.4700198872555
 51
338.9744066849153
  0
ARC
  5
9B
330
2
100
AcDbEntity
  8
GAIKEI
  6
Continuous
 62
     1
100
AcDbCircle
 10
-9.282104560329976
 20
18.35493748387898
 30
0.0
 40
27.15308833300862
100
AcDbArc
 50
183.3728754779872
 51
196.4993840796274
  0
ARC
  5
9C
330
2
100
AcDbEntity
  8
GAIKEI
  6
Continuous
 62
     1
100
AcDbCircle
 10
-30.36225684994218
 20
11.32669607127434
 30
0.0
 40
4.9255968754406
100
AcDbArc
 50
201.5585139883888
 51
217.2875502362269
  0
ARC
  5
9D
330
2
100
AcDbEntity
  8
GAIKEI
  6
Continuous
 62
     1
100
AcDbCircle
 10
-41.28492924528578
 20
17.12301998570893
 30
0.0
 40
20.7000000000002
100
AcDbArc
 50
349.0025272711274
 51
358.9758449801706
  0
ARC
  5
9E
330
2
100
AcDbEntity
  8
GAIKEI
  6
Continuous
 62
     1
100
AcDbCircle
 10
-26.61405936599561
 20
11.32669607127434
 30
0.0
 40
4.9255968754406
100
AcDbArc
 50
322.7124497637771
 51
338.4414860116111
  0
ARC
  5
9F
330
2
100
AcDbEntity
  8
GAIKEI
  6
Continuous
 62
     1
100
AcDbCircle
 10
-22.89029037577938
 20
16.60869527911654
 30
0.0
 40
13.4999999999986
100
AcDbArc
 50
159.9580041572343
 51
178.9816493668135
  0
ARC
  5
A0
330
2
100
AcDbEntity
  8
GAIKEI
  6
Continuous
 62
     1
100
AcDbCircle
 10
-34.08602584015841
 20
16.60869527911654
 30
0.0
 40
13.4999999999986
100
AcDbArc
 50
1.037044248323896
 51
20.04199584276564
  0
ARC
  5
A1
330
2
100
AcDbEntity
  8
GAIKEI
  6
Continuous
100
AcDbCircle
 10
-41.28492924528578
 20
17.12301998570893
 30
0.0
 40
21.2000000000002
100
AcDbArc
 50
338.9744066849153
 51
349.0025272711241
  0
ARC
  5
A2
330
2
100
AcDbEntity
  8
GAIKEI
  6
Continuous
 62
     1
100
AcDbCircle
 10
-41.28492924528578
 20
17.12301998570893
 30
0.0
 40
20.7
100
AcDbArc
 50
338.4414860116111
 51
349.0025272711274
  0
ARC
  5
A3
330
2
100
AcDbEntity
  8
GAIKEI
  6
Continuous
 62
     1
100
AcDbCircle
 10
-31.17551777467241
 20
19.63115054909735
 30
0.0
 40
4.680689998053799
100
AcDbArc
 50
145.7904993465403
 51
159.9580041572343
  0
ARC
  5
A4
330
2
100
AcDbEntity
  8
GAIKEI
  6
Continuous
100
AcDbCircle
 10
-26.4534771898198
 20
21.50307628759611
 30
0.0
 40
4.0
100
AcDbArc
 50
19.7239133534885
 51
51.4476587367569
  0
ARC
  5
A5
330
2
100
AcDbEntity
  8
GAIKEI
  6
Continuous
100
AcDbCircle
 10
-30.52283902611799
 20
21.50307628759611
 30
0.0
 40
4.0
100
AcDbArc
 50
128.0486074449322
 51
128.552341263243
  0
ARC
  5
A6
330
2
100
AcDbEntity
  8
GAIKEI
  6
Continuous
100
AcDbCircle
 10
-30.52283902611799
 20
21.50307628759611
 30
0.0
 40
4.0
100
AcDbArc
 50
128.552341263243
 51
160.2760866465114
  0
ARC
  5
A7
330
2
100
AcDbEntity
  8
GAIKEI
  6
Continuous
 62
     7
100
AcDbCircle
 10
-15.71797002335159
 20
17.15128366717914
 30
0.0
 40
21.1799999999998
100
AcDbArc
 50
182.8368760633003
 51
192.7133438141908
  0
ARC
  5
A8
330
2
100
AcDbEntity
  8
GAIKEI
  6
Continuous
 62
     1
100
AcDbCircle
 10
-15.71797002335159
 20
17.15128366717914
 30
0.0
 40
21.2799999999998
100
AcDbArc
 50
190.6773130258526
 51
192.7133438141908
  0
ARC
  5
A9
330
2
100
AcDbEntity
  8
GAIKEI
  6
Continuous
 62
     1
100
AcDbCircle
 10
-37.7968241743944
 20
11.9641265096431
 30
0.0
 40
1.4000000000002
100
AcDbArc
 50
341.7308809797193
 51
13.22117321123651
  0
ARC
  5
AA
330
2
100
AcDbEntity
  8
GAIKEI
  6
Continuous
 62
     1
100
AcDbCircle
 10
-15.71797002335159
 20
17.15128366717914
 30
0.0
 40
21.28
100
AcDbArc
 50
192.7133438141908
 51
193.2211732112499
  0
ARC
  5
AB
330
2
100
AcDbEntity
  8
GAIKEI
  6
Continuous
 62
     1
100
AcDbCircle
 10
-38.00529386738779
 20
12.94918944274195
 30
0.0
 40
1.4
100
AcDbArc
 50
10.67731302585262
 51
59.30370771322589
  0
ARC
  5
AC
330
2
100
AcDbEntity
  8
GAIKEI
  6
Continuous
 62
     7
100
AcDbCircle
 10
10.79841693886541
 20
24.85093579436863
 30
0.0
 40
48.76956563581479
100
AcDbArc
 50
194.6819543305994
 51
196.5681930927908
  0
ARC
  5
AD
330
2
100
AcDbEntity
  8
GAIKEI
  6
Continuous
 62
     1
100
AcDbCircle
 10
-35.3839781517918
 20
15.03078271407594
 30
0.0
 40
2.0000000000002
100
AcDbArc
 50
180.0
 51
186.1541803442946
  0
ARC
  5
AE
330
2
100
AcDbEntity
  8
GAIKEI
  6
Continuous
 62
     1
100
AcDbCircle
 10
-34.8094318847792
 20
10.6130511847997
 30
0.0
 40
1.6000000000002
100
AcDbArc
 50
198.9047386517217
 51
240.8500852310217
  0
ARC
  5
AF
330
2
100
AcDbEntity
  8
GAIKEI
  6
Continuous
 62
     1
100
AcDbCircle
 10
-15.71797002335159
 20
17.15128366717914
 30
0.0
 40
21.78
100
AcDbArc
 50
198.4087315133263
 51
198.9047386517321
  0
ARC
  5
B0
330
2
100
AcDbEntity
  8
GAIKEI
  6
Continuous
 62
     1
100
AcDbCircle
 10
-15.71797002335159
 20
17.15128366717914
 30
0.0
 40
21.78
100
AcDbArc
 50
187.9125161715321
 51
190.0071439004703
  0
ARC
  5
B1
330
2
100
AcDbEntity
  8
GAIKEI
  6
Continuous
 62
     1
100
AcDbCircle
 10
-15.71797002335159
 20
17.15128366717914
 30
0.0
 40
21.78
100
AcDbArc
 50
186.154180344298
 51
187.9125161715321
  0
ARC
  5
B2
330
2
100
AcDbEntity
  8
GAIKEI
  6
Continuous
100
AcDbCircle
 10
-46.89248691680127
 20
21.97723254981761
 30
0.0
 40
100.0
100
AcDbArc
 50
359.9206634616125
 51
0.0000000057549211
  0
ARC
  5
B3
330
2
100
AcDbEntity
  8
GAIKEI
  6
Continuous
100
AcDbCircle
 10
13.0594938680599
 20
19.57723255572844
 30
0.0
 40
40.0
100
AcDbArc
 50
355.1239751345068
 51
357.7075572296916
  0
ARC
  5
B4
330
2
100
AcDbEntity
  8
GAIKEI
  6
Continuous
100
AcDbCircle
 10
32.7688170768031
 20
16.17979613710841
 30
0.0
 40
20.00000000000019
100
AcDbArc
 50
334.248240587913
 51
350.219631561631
  0
ARC
  5
B5
330
2
100
AcDbEntity
  8
GAIKEI
  6
Continuous
100
AcDbCircle
 10
13.05949386806013
 20
19.57723320838764
 30
0.0
 40
39.9999999999998
100
AcDbArc
 50
350.219631561631
 51
354.9801988599826
  0
ARC
  5
B6
330
2
100
AcDbEntity
  8
GAIKEI
  6
Continuous
100
AcDbCircle
 10
40.45971871083149
 20
41.55952796737122
 30
0.0
 40
20.0
100
AcDbArc
 50
241.6081468434164
 51
255.7229926802865
  0
ARC
  5
B7
330
2
100
AcDbEntity
  8
GAIKEI
  6
Phantom
100
AcDbCircle
 10
40.45971871083149
 20
41.55952796737122
 30
0.0
 40
20.0
100
AcDbArc
 50
241.5357627809446
 51
241.6081468434164
  0
LINE
  5
B9
330
2
100
AcDbEntity
  8
GAIKEI
  6
Continuous
100
AcDbLine
 10
52.90731268173572
 20
21.97723255938083
 30
0.0
 11
23.6275130831987
 21
21.9772324891924
 31
0.0
  0
LINE
  5
BA
330
2
100
AcDbEntity
  8
GAIKEI
  6
Continuous
100
AcDbLine
 10
-36.3881581079676
 20
16.84862586141133
 30
0.0
 11
-36.3881581079676
 21
16.75741844087252
 31
0.0
  0
LINE
  5
BB
330
2
100
AcDbEntity
  8
GAIKEI
  6
Continuous
100
AcDbLine
 10
-20.58815810797017
 20
16.75302896923852
 30
0.0
 11
-20.58815810797017
 21
16.85302896923849
 31
0.0
  0
LINE
  5
BC
330
2
100
AcDbEntity
  8
GAIKEI
  6
Continuous
 62
     1
100
AcDbLine
 10
-34.04240548532658
 20
8.224437611466555
 30
0.0
 11
-22.93391073061121
 21
8.224437611466555
 31
0.0
  0
LINE
  5
BD
330
2
100
AcDbEntity
  8
GAIKEI
  6
Continuous
100
AcDbLine
 10
-34.979448720996
 20
22.6530289692385
 30
0.0
 11
-28.48815810796901
 21
22.6530289692385
 31
0.0
  0
LINE
  5
BE
330
2
100
AcDbEntity
  8
GAIKEI
  6
Continuous
100
AcDbLine
 10
-33.96932081493398
 20
8.053028206299075
 30
0.0
 11
-28.48815810796901
 21
8.053028206299131
 31
0.0
  0
LINE
  5
BF
330
2
100
AcDbEntity
  8
GAIKEI
  6
Continuous
100
AcDbLine
 10
-28.48815810796901
 20
22.6530289692385
 30
0.0
 11
-21.99686749494179
 21
22.6530289692385
 31
0.0
  0
LINE
  5
C0
330
2
100
AcDbEntity
  8
GAIKEI
  6
Continuous
100
AcDbLine
 10
-28.48815810796901
 20
8.053028206299131
 30
0.0
 11
-23.00699540100379
 21
8.053028206299131
 31
0.0
  0
LINE
  5
C1
330
2
100
AcDbEntity
  8
GAIKEI
  6
Continuous
100
AcDbLine
 10
-36.88815810796759
 20
16.85302896923849
 30
0.0
 11
-36.88815810796759
 21
16.75302896923852
 31
0.0
  0
LINE
  5
C2
330
2
100
AcDbEntity
  8
GAIKEI
  6
Continuous
100
AcDbLine
 10
-20.08815810797017
 20
16.75302896923852
 30
0.0
 11
-20.08815810797017
 21
16.85302896923849
 31
0.0
  0
LINE
  5
C3
330
2
100
AcDbEntity
  8
GAIKEI
  6
Continuous
100
AcDbLine
 10
-35.088158107969
 20
22.48162023164371
 30
0.0
 11
-35.08815620640541
 21
22.48162023164371
 31
0.0
  0
LINE
  5
C4
330
2
100
AcDbEntity
  8
GAIKEI
  6
Continuous
 62
     1
100
AcDbLine
 10
-34.63289555722062
 20
22.48162023164371
 30
0.0
 11
-22.34342065871698
 21
22.48162023164371
 31
0.0
  0
LINE
  5
C5
330
2
100
AcDbEntity
  8
GAIKEI
  6
Continuous
100
AcDbLine
 10
-32.95343333808841
 20
24.6530289578219
 30
0.0
 11
-32.98815810796878
 21
24.6530289578219
 31
0.0
  0
LINE
  5
C6
330
2
100
AcDbEntity
  8
GAIKEI
  6
Continuous
100
AcDbLine
 10
-22.6881581079688
 20
22.6530289578219
 30
0.0
 11
-22.6881581079688
 21
22.85302895782194
 31
0.0
  0
LINE
  5
C7
330
2
100
AcDbEntity
  8
GAIKEI
  6
Continuous
100
AcDbLine
 10
-28.0381581079688
 20
23.45302895782191
 30
0.0
 11
-28.9381581079688
 21
23.45302895782191
 31
0.0
  0
LINE
  5
C8
330
2
100
AcDbEntity
  8
GAIKEI
  6
Continuous
100
AcDbLine
 10
-29.0381581079688
 20
24.6530289578219
 30
0.0
 11
-29.0381581079688
 21
23.55302895782193
 31
0.0
  0
LINE
  5
C9
330
2
100
AcDbEntity
  8
GAIKEI
  6
Continuous
100
AcDbLine
 10
-27.9381581079688
 20
24.6530289578219
 30
0.0
 11
-27.9381581079688
 21
23.55302895782193
 31
0.0
  0
LINE
  5
CA
330
2
100
AcDbEntity
  8
GAIKEI
  6
Continuous
100
AcDbLine
 10
-34.2881581079688
 20
22.85302895782194
 30
0.0
 11
-34.2881581079688
 21
22.6530289578219
 31
0.0
  0
LINE
  5
CB
330
2
100
AcDbEntity
  8
GAIKEI
  6
Continuous
100
AcDbLine
 10
-22.6881581079688
 20
22.85302895782194
 30
0.0
 11
-34.2881581079688
 21
22.85302895782194
 31
0.0
  0
LINE
  5
CC
330
2
100
AcDbEntity
  8
GAIKEI
  6
Continuous
100
AcDbLine
 10
-24.02288287784938
 20
24.6530289578219
 30
0.0
 11
-32.95343333808841
 21
24.6530289578219
 31
0.0
  0
LINE
  5
CD
330
2
100
AcDbEntity
  8
GAIKEI
  6
Continuous
100
AcDbLine
 10
-22.6881581079688
 20
22.6530289578219
 30
0.0
 11
-34.2881581079688
 21
22.6530289578219
 31
0.0
  0
LINE
  5
CE
330
2
100
AcDbEntity
  8
GAIKEI
  6
Phantom
100
AcDbLine
 10
-29.0381581079688
 20
23.5512837171783
 30
0.0
 11
-29.0381581079688
 21
23.45302895782191
 31
0.0
  0
LINE
  5
CF
330
2
100
AcDbEntity
  8
GAIKEI
  6
Phantom
100
AcDbLine
 10
-27.9381581079688
 20
23.5512837171783
 30
0.0
 11
-27.9381581079688
 21
23.45302895782191
 31
0.0
  0
LINE
  5
D0
330
2
100
AcDbEntity
  8
GAIKEI
  6
Phantom
100
AcDbLine
 10
-27.9381581079688
 20
23.45302895782191
 30
0.0
 11
-28.0364278342804
 21
23.45302895782191
 31
0.0
  0
LINE
  5
D1
330
2
100
AcDbEntity
  8
GAIKEI
  6
Phantom
100
AcDbLine
 10
-28.93988838165722
 20
23.45302895782191
 30
0.0
 11
-29.0381581079688
 21
23.45302895782191
 31
0.0
  0
LINE
  5
D2
330
2
100
AcDbEntity
  8
GAIKEI
  6
Continuous
 62
     1
100
AcDbLine
 10
-35.54007649392241
 20
9.203028873871119
 30
0.0
 11
-35.35002660794418
 21
9.203028873871119
 31
0.0
  0
LINE
  5
D3
330
2
100
AcDbEntity
  8
GAIKEI
  6
Continuous
 62
     1
100
AcDbLine
 10
-37.01637958455958
 20
16.10303039974991
 30
0.0
 11
-36.87201372868881
 21
16.10303039974991
 31
0.0
  0
LINE
  5
D4
330
2
100
AcDbEntity
  8
GAIKEI
  6
Continuous
 62
     1
100
AcDbLine
 10
52.91473191802634
 20
16.177232558594
 30
0.0
 11
38.42751623032352
 21
16.177232530677
 31
0.0
  0
LINE
  5
D5
330
2
100
AcDbEntity
  8
GAIKEI
  6
Continuous
100
AcDbLine
 10
53.10751308319872
 20
21.97723255986082
 30
0.0
 11
52.97756045366013
 21
21.9772325595492
 31
0.0
  0
LINE
  5
D6
330
2
100
AcDbEntity
  8
GAIKEI
  6
Continuous
 62
     1
100
AcDbLine
 10
38.42751623032352
 20
16.17723253074498
 30
0.0
 11
23.6275130831985
 21
16.1772325073056
 31
0.0
  0
LINE
  5
D7
330
2
100
AcDbEntity
  8
GAIKEI
  6
Continuous
 62
     1
100
AcDbLine
 10
23.6275130831987
 20
21.9772325071352
 30
0.0
 11
23.6275130831985
 21
16.1772325073056
 31
0.0
  0
LINE
  5
D8
330
2
100
AcDbEntity
  8
GAIKEI
  6
Continuous
100
AcDbLine
 10
50.60237806028213
 20
7.377232411768005
 30
0.0
 11
23.6275130831989
 21
7.377232411768005
 31
0.0
  0
LINE
  5
D9
330
2
100
AcDbEntity
  8
GAIKEI
  6
Continuous
 62
     1
100
AcDbLine
 10
24.32751613495672
 20
16.07723250713522
 30
0.0
 11
24.32751613495672
 21
16.17723250841422
 31
0.0
  0
LINE
  5
DA
330
2
100
AcDbEntity
  8
GAIKEI
  6
Continuous
 62
     1
100
AcDbLine
 10
23.6275130831989
 20
16.07723250713522
 30
0.0
 11
52.90607458825791
 21
16.07723250713522
 31
0.0
  0
LINE
  5
DB
330
2
100
AcDbEntity
  8
GAIKEI
  6
Continuous
 62
     1
100
AcDbLine
 10
23.6275130831989
 20
7.377231744195995
 30
0.0
 11
23.6275130831989
 21
16.07723250713522
 31
0.0
  0
LINE
  5
DC
330
2
100
AcDbEntity
  8
GAIKEI
  6
Continuous
 62
     1
100
AcDbLine
 10
52.80751613495671
 20
16.07723250713522
 30
0.0
 11
52.80751613495671
 21
16.17723250713518
 31
0.0
  0
LINE
  5
DD
330
2
100
AcDbEntity
  8
GAIKEI
  6
Continuous
 62
     1
100
AcDbLine
 10
52.56751613495651
 20
16.17723250713518
 30
0.0
 11
52.80751613495671
 21
16.17723250713518
 31
0.0
  0
LINE
  5
DE
330
2
100
AcDbEntity
  8
GAIKEI
  6
Continuous
 62
     1
100
AcDbLine
 10
14.76751613495652
 20
12.81723250713523
 30
0.0
 11
14.76751613495652
 21
14.33723250713521
 31
0.0
  0
LINE
  5
DF
330
2
100
AcDbEntity
  8
GAIKEI
  6
Continuous
 62
     1
100
AcDbLine
 10
22.54751613495652
 20
12.57723250713522
 30
0.0
 11
15.0075161349565
 21
12.57723250713522
 31
0.0
  0
LINE
  5
E0
330
2
100
AcDbEntity
  8
GAIKEI
  6
Continuous
 62
     1
100
AcDbLine
 10
15.0075161349565
 20
14.57723250713522
 30
0.0
 11
22.54751613495652
 21
14.57723250713522
 31
0.0
  0
LINE
  5
E1
330
2
100
AcDbEntity
  8
GAIKEI
  6
Continuous
 62
     1
100
AcDbLine
 10
22.78751613495653
 20
14.33723250713521
 30
0.0
 11
22.78751613495653
 21
12.81723250713523
 31
0.0
  0
LINE
  5
E2
330
2
100
AcDbEntity
  8
GAIKEI
  6
Continuous
 62
     1
100
AcDbLine
 10
14.92751613495651
 20
12.97723250713519
 30
0.0
 11
14.92751613495651
 21
14.17723250713518
 31
0.0
  0
LINE
  5
E3
330
2
100
AcDbEntity
  8
GAIKEI
  6
Continuous
 62
     1
100
AcDbLine
 10
15.02751613495651
 20
14.27723250713521
 30
0.0
 11
22.52751613495651
 21
14.27723250713521
 31
0.0
  0
LINE
  5
E4
330
2
100
AcDbEntity
  8
GAIKEI
  6
Continuous
 62
     1
100
AcDbLine
 10
22.6275161349565
 20
14.17723250713518
 30
0.0
 11
22.6275161349565
 21
12.97723250713519
 31
0.0
  0
LINE
  5
E5
330
2
100
AcDbEntity
  8
GAIKEI
  6
Continuous
 62
     1
100
AcDbLine
 10
22.52751613495651
 20
12.87723250713523
 30
0.0
 11
15.02751613495651
 21
12.87723250713523
 31
0.0
  0
LINE
  5
E6
330
2
100
AcDbEntity
  8
GAIKEI
  6
Continuous
 62
     1
100
AcDbLine
 10
23.52751613495651
 20
15.07723250713522
 30
0.0
 11
23.52751613495651
 21
7.377232411768005
 31
0.0
  0
LINE
  5
E7
330
2
100
AcDbEntity
  8
GAIKEI
  6
Continuous
100
AcDbLine
 10
23.52751613495651
 20
7.577232411767994
 30
0.0
 11
23.6275130831989
 21
7.578977864992253
 31
0.0
  0
LINE
  5
E8
330
2
100
AcDbEntity
  8
GAIKEI
  6
Continuous
 62
     1
100
AcDbLine
 10
23.52751613495651
 20
21.97723250713514
 30
0.0
 11
23.52751613495651
 21
15.07723250713522
 31
0.0
  0
LINE
  5
E9
330
2
100
AcDbEntity
  8
GAIKEI
  6
Continuous
 62
     1
100
AcDbLine
 10
23.6275130831987
 20
21.77374053675501
 30
0.0
 11
23.52751613495651
 21
21.7772325071352
 31
0.0
  0
LINE
  5
EA
330
2
100
AcDbEntity
  8
GAIKEI
  6
Continuous
100
AcDbLine
 10
13.70751613495672
 20
21.41274486429401
 30
0.0
 11
13.70751613495672
 21
7.941720054609191
 31
0.0
  0
LINE
  5
EB
330
2
100
AcDbEntity
  8
GAIKEI
  6
Continuous
100
AcDbLine
 10
14.10053517238172
 20
7.541780976546789
 30
0.0
 11
23.52751613495651
 21
7.377232411768005
 31
0.0
  0
LINE
  5
EC
330
2
100
AcDbEntity
  8
GAIKEI
  6
Continuous
100
AcDbLine
 10
14.10053517238172
 20
21.81268394235658
 30
0.0
 11
23.52751613495651
 21
21.9772325071352
 31
0.0
  0
LINE
  5
ED
330
2
100
AcDbEntity
  8
GAIKEI
  6
Continuous
100
AcDbLine
 10
30.9021862440713
 20
23.97723249571859
 30
0.0
 11
24.62751613494752
 21
23.97723249571819
 31
0.0
  0
LINE
  5
EE
330
2
100
AcDbEntity
  8
GAIKEI
  6
Continuous
100
AcDbLine
 10
21.12751613494729
 20
21.97723249571859
 30
0.0
 11
21.12751613494729
 21
22.17723249571864
 31
0.0
  0
LINE
  5
EF
330
2
100
AcDbEntity
  8
GAIKEI
  6
Continuous
100
AcDbLine
 10
21.52751613495691
 20
23.97723249571859
 30
0.0
 11
21.12751613494729
 21
22.17723249571864
 31
0.0
  0
LINE
  5
F0
330
2
100
AcDbEntity
  8
GAIKEI
  6
Continuous
100
AcDbLine
 10
24.62751613494752
 20
23.97723249571819
 30
0.0
 11
22.43458398427871
 21
23.97723249571899
 31
0.0
  0
LINE
  5
F1
330
2
100
AcDbEntity
  8
GAIKEI
  6
Continuous
100
AcDbLine
 10
22.43458398427871
 20
23.97723249571859
 30
0.0
 11
21.52751613495691
 21
23.97723249571859
 31
0.0
  0
LINE
  5
F2
330
2
100
AcDbEntity
  8
GAIKEI
  6
Continuous
100
AcDbLine
 10
35.52751613494733
 20
21.97723249571859
 30
0.0
 11
35.52751613494733
 21
22.17723249571864
 31
0.0
  0
LINE
  5
F3
330
2
100
AcDbEntity
  8
GAIKEI
  6
Continuous
100
AcDbLine
 10
30.74252749079509
 20
23.97723249571859
 30
0.0
 11
29.11250477911851
 21
23.97723249571859
 31
0.0
  0
LINE
  5
F4
330
2
100
AcDbEntity
  8
GAIKEI
  6
Continuous
 62
     1
100
AcDbLine
 10
21.12751613494729
 20
22.17723249571864
 30
0.0
 11
35.52751613494733
 21
22.17723249571864
 31
0.0
  0
LINE
  5
F5
330
2
100
AcDbEntity
  8
GAIKEI
  6
Continuous
100
AcDbLine
 10
35.52751613494733
 20
21.97723249571859
 30
0.0
 11
21.12751613494729
 21
21.97723249571859
 31
0.0
  0
LINE
  5
F6
330
2
100
AcDbEntity
  8
GAIKEI
  6
Continuous
 62
     1
100
AcDbLine
 10
22.12751613495651
 20
21.97723249571859
 30
0.0
 11
22.12751613495651
 21
22.17723249571864
 31
0.0
  0
LINE
  5
F7
330
2
100
AcDbEntity
  8
GAIKEI
  6
Phantom
100
AcDbLine
 10
30.92751613495731
 20
23.97723249571859
 30
0.0
 11
30.9021862440713
 21
23.97723249571859
 31
0.0
  0
LINE
  5
F8
330
2
100
AcDbEntity
  8
GAIKEI
  6
Continuous
 62
     1
100
AcDbLine
 10
22.15922033250312
 20
23.97723249571859
 30
0.0
 11
22.12751613495651
 21
22.17723249571864
 31
0.0
  0
TEXT
  5
F9
330
2
100
AcDbEntity
  8
MOJI1
 62
     2
100
AcDbText
 10
-15.51811759097768
 20
-41.13714956537546
 30
0.0
 40
3.0
  1
１２８０×９６０
100
AcDbText
  0
TEXT
  5
FB
330
2
100
AcDbEntity
  8
MOJI1
 62
     2
100
AcDbText
 10
-55.51811759097769
 20
-41.13714956537546
 30
0.0
 40
3.0
  1
最大画像サイズ
100
AcDbText
  0
TEXT
  5
FC
330
2
100
AcDbEntity
  8
MOJI1
 62
     2
100
AcDbText
 10
-15.51811759097768
 20
-36.13714956537546
 30
0.0
 40
3.0
  1
垂直：４５０ＴＶ本以上（フルスキャンモード）
100
AcDbText
  0
TEXT
  5
FD
330
2
100
AcDbEntity
  8
MOJI1
 62
     2
100
AcDbText
 10
-55.51811759097768
 20
-51.13714956537546
 30
0.0
 40
3.0
  1
機　能
100
AcDbText
  0
TEXT
  5
FE
330
2
100
AcDbEntity
  8
MOJI1
 62
     2
100
AcDbText
 10
-15.51811759097768
 20
-46.13714956537546
 30
0.0
 40
3.0
  1
１０ＢＡＳＥ－Ｔ／１００ＢＡＳＥ－Ｔｘ、ＲＪ４５コネクター
 41
0.7800000000000001
100
AcDbText
  0
TEXT
  5
FF
330
2
100
AcDbEntity
  8
MOJI1
 62
     2
100
AcDbText
 10
-15.51811759097768
 20
-56.13714956537546
 30
0.0
 40
3.0
  1
画ゆれ補正、ＶＭＤアラーム、オートバックフォーカス
 41
0.9
100
AcDbText
  0
TEXT
  5
100
330
2
100
AcDbEntity
  8
MOJI1
 62
     2
100
AcDbText
 10
-15.51811759097768
 20
-31.13714956537546
 30
0.0
 40
3.0
  1
水平：６００ＴＶ本（カラー）、７８０ＴＶ本（白黒）
 41
0.9
100
AcDbText
  0
TEXT
  5
101
330
2
100
AcDbEntity
  8
MOJI1
 62
     2
100
AcDbText
 10
-55.51811759097768
 20
-31.13714956537546
 30
0.0
 40
3.0
  1
解像度
100
AcDbText
  0
LINE
  5
102
330
2
100
AcDbEntity
  8
WAKU
 62
     1
100
AcDbLine
 10
-58.01811759097768
 20
-32.13714956537546
 30
0.0
 11
66.98188240902232
 21
-32.13714956537546
 31
0.0
  0
TEXT
  5
104
330
2
100
AcDbEntity
  8
MOJI1
 62
     2
100
AcDbText
 10
-15.51811759097768
 20
-26.13714956537546
 30
0.0
 40
3.0
  1
ＪＰＥＧ／ＭＰＥＧ４（同時圧縮機能）
 41
0.95
100
AcDbText
  0
TEXT
  5
105
330
2
100
AcDbEntity
  8
MOJI1
 62
     2
100
AcDbText
 10
-55.51811759097768
 20
-26.13714956537546
 30
0.0
 40
3.0
  1
画像圧縮方式
100
AcDbText
  0
LINE
  5
106
330
2
100
AcDbEntity
  8
WAKU
 62
     1
100
AcDbLine
 10
-58.01811759097768
 20
-52.13714956537535
 30
0.0
 11
66.98188240902232
 21
-52.13714956537547
 31
0.0
  0
LINE
  5
107
330
2
100
AcDbEntity
  8
WAKU
 62
     4
100
AcDbLine
 10
66.98188240902232
 20
-7.137149565375466
 30
0.0
 11
66.98188240902232
 21
-57.13714956537547
 31
0.0
  0
TEXT
  5
108
330
2
100
AcDbEntity
  8
MOJI1
 62
     2
100
AcDbText
 10
-55.51811759097768
 20
-11.13714956537546
 30
0.0
 40
3.0
  1
電　源
100
AcDbText
  0
TEXT
  5
109
330
2
100
AcDbEntity
  8
MOJI1
 62
     2
100
AcDbText
 10
-55.51811759097768
 20
-21.13714956537546
 30
0.0
 40
3.0
  1
最低照度
100
AcDbText
  0
TEXT
  5
10A
330
2
100
AcDbEntity
  8
MOJI1
 62
     2
100
AcDbText
 10
-55.51811759097768
 20
-46.13714956537546
 30
0.0
 40
3.0
  1
ネットワーク
100
AcDbText
  0
TEXT
  5
10B
330
2
100
AcDbEntity
  8
MOJI1
 62
     2
100
AcDbText
 10
-55.51811759097768
 20
-16.13714956537546
 30
0.0
 40
3.0
  1
撮像素子
100
AcDbText
  0
TEXT
  5
10C
330
2
100
AcDbEntity
  8
MOJI1
 62
     2
100
AcDbText
 10
-15.51811759097768
 20
-11.13714956537546
 30
0.0
 40
3.0
  1
ＡＣ１００Ｖ　５０／６０Ｈｚ
 41
0.95
100
AcDbText
  0
TEXT
  5
10D
330
2
100
AcDbEntity
  8
MOJI1
 62
     2
100
AcDbText
 10
-15.51811759097768
 20
-21.13714956537546
 30
0.0
 40
3.0
  1
１．０ｌｘ（カラー）、０．０６ｌｘ（白黒）
100
AcDbText
  0
LINE
  5
10E
330
2
100
AcDbEntity
  8
WAKU
 62
     4
100
AcDbLine
 10
-18.01811759097768
 20
-7.137149565375466
 30
0.0
 11
-18.01811759097768
 21
-57.13714956537547
 31
0.0
  0
LINE
  5
10F
330
2
100
AcDbEntity
  8
WAKU
 62
     4
100
AcDbLine
 10
-58.01811759097768
 20
-7.137149565375466
 30
0.0
 11
-58.01811759097768
 21
-57.13714956537547
 31
0.0
  0
TEXT
  5
110
330
2
100
AcDbEntity
  8
MOJI1
 62
     2
100
AcDbText
 10
-15.51811759097768
 20
-51.13714956537546
 30
0.0
 40
3.0
  1
アナログ映像出力、集音（マイク）、ＳＤカードスロット
 41
0.85
100
AcDbText
  0
TEXT
  5
111
330
2
100
AcDbEntity
  8
MOJI1
 62
     2
100
AcDbText
 10
-15.51811759097768
 20
-16.13714956537546
 30
0.0
 40
3.0
  1
１／３型インターライン転送方式ＣＣＤ
 41
0.9
100
AcDbText
  0
LINE
  5
112
330
2
100
AcDbEntity
  8
WAKU
 62
     4
100
AcDbLine
 10
66.98188240902232
 20
-57.13714956537547
 30
0.0
 11
-58.01811759097768
 21
-57.13714956537547
 31
0.0
  0
LINE
  5
113
330
2
100
AcDbEntity
  8
WAKU
 62
     1
100
AcDbLine
 10
-58.01811759097768
 20
-42.13714956537546
 30
0.0
 11
66.98188240902232
 21
-42.13714956537546
 31
0.0
  0
LINE
  5
114
330
2
100
AcDbEntity
  8
WAKU
 62
     1
100
AcDbLine
 10
-58.01811759097768
 20
-37.13714956537546
 30
0.0
 11
66.98188240902232
 21
-37.13714956537546
 31
0.0
  0
LINE
  5
115
330
2
100
AcDbEntity
  8
WAKU
 62
     1
100
AcDbLine
 10
-58.01811759097768
 20
-17.13714956537546
 30
0.0
 11
66.98188240902232
 21
-17.13714956537546
 31
0.0
  0
LINE
  5
116
330
2
100
AcDbEntity
  8
WAKU
 62
     1
100
AcDbLine
 10
-58.01811759097768
 20
-12.13714956537546
 30
0.0
 11
66.98188240902232
 21
-12.13714956537546
 31
0.0
  0
LINE
  5
117
330
2
100
AcDbEntity
  8
WAKU
 62
     4
100
AcDbLine
 10
-58.01811759097768
 20
-7.137149565375466
 30
0.0
 11
66.98188240902232
 21
-7.137149565375466
 31
0.0
  0
LINE
  5
118
330
2
100
AcDbEntity
  8
WAKU
 62
     1
100
AcDbLine
 10
-58.01811759097768
 20
-27.13714956537546
 30
0.0
 11
66.98188240902232
 21
-27.13714956537546
 31
0.0
  0
LINE
  5
119
330
2
100
AcDbEntity
  8
WAKU
 62
     1
100
AcDbLine
 10
-58.01811759097768
 20
-22.13714956537546
 30
0.0
 11
66.98188240902232
 21
-22.13714956537546
 31
0.0
  0
LINE
  5
11A
330
2
100
AcDbEntity
  8
WAKU
 62
     1
100
AcDbLine
 10
-58.01811759097768
 20
-47.13714956537546
 30
0.0
 11
66.98188240902232
 21
-47.13714956537546
 31
0.0
  0
LINE
  5
11B
330
2
100
AcDbEntity
  8
GAIKEI
100
AcDbLine
 10
-32.34630183144957
 20
21.35633014539735
 30
0.0
 11
-31.99277953455757
 21
20.69629188473004
 31
0.0
  0
LINE
  5
11C
330
2
100
AcDbEntity
  8
GAIKEI
100
AcDbLine
 10
-32.30454156012626
 20
21.51287973395409
 30
0.0
 11
-32.34630183144957
 21
21.35633014539735
 31
0.0
  0
LINE
  5
11D
330
2
100
AcDbEntity
  8
GAIKEI
100
AcDbLine
 10
-31.6757717606207
 20
21.8757620916599
 30
0.0
 11
-32.30454156012626
 21
21.51287973395409
 31
0.0
  0
LINE
  5
11E
330
2
100
AcDbEntity
  8
GAIKEI
100
AcDbLine
 10
-31.51932502987506
 20
21.83400182033659
 30
0.0
 11
-31.6757717606207
 21
21.8757620916599
 31
0.0
  0
LINE
  5
11F
330
2
100
AcDbEntity
  8
GAIKEI
100
AcDbLine
 10
-31.16600844860537
 20
21.17375784404703
 30
0.0
 11
-31.51932502987506
 21
21.83400182033659
 31
0.0
  0
LINE
  5
120
330
2
100
AcDbEntity
  8
GAIKEI
 62
     1
100
AcDbLine
 10
-24.00000760421562
 20
15.99918708116024
 30
0.0
 11
-24.22752908245974
 21
16.03724447128246
 31
0.0
  0
LINE
  5
121
330
2
100
AcDbEntity
  8
GAIKEI
 62
     1
100
AcDbLine
 10
-24.00000760421562
 20
15.51328678132966
 30
0.0
 11
-24.00000760421562
 21
15.99918708116024
 31
0.0
  0
LINE
  5
122
330
2
100
AcDbEntity
  8
GAIKEI
 62
     1
100
AcDbLine
 10
-24.22752908245974
 20
15.47564082245202
 30
0.0
 11
-24.00000760421562
 21
15.51328678132966
 31
0.0
  0
LINE
  5
123
330
2
100
AcDbEntity
  8
GAIKEI
 62
     1
100
AcDbLine
 10
-31.08917366368297
 20
19.59879903985444
 30
0.0
 11
-31.00801885069265
 21
19.38300335208038
 31
0.0
  0
LINE
  5
124
330
2
100
AcDbEntity
  8
GAIKEI
 62
     1
100
AcDbLine
 10
-30.66827950049355
 20
19.84195490539201
 30
0.0
 11
-31.08917366368297
 21
19.59879903985444
 31
0.0
  0
LINE
  5
125
330
2
100
AcDbEntity
  8
GAIKEI
 62
     1
100
AcDbLine
 10
-30.52180997742863
 20
19.66359946087334
 30
0.0
 11
-30.66827950049355
 21
19.84195490539201
 31
0.0
  0
LINE
  5
126
330
2
100
AcDbEntity
  8
GAIKEI
 62
     1
100
AcDbLine
 10
-30.66190231620282
 20
11.65982174473924
 30
0.0
 11
-30.515535650949
 21
11.83797147363566
 31
0.0
  0
LINE
  5
127
330
2
100
AcDbEntity
  8
GAIKEI
 62
     1
100
AcDbLine
 10
-31.08279647939224
 20
11.90277189465456
 30
0.0
 11
-30.66190231620282
 21
11.65982174473924
 31
0.0
  0
LINE
  5
128
330
2
100
AcDbEntity
  8
GAIKEI
 62
     1
100
AcDbLine
 10
-31.00153880859073
 20
12.11856758242856
 30
0.0
 11
-31.08279647939224
 21
11.90277189465456
 31
0.0
  0
CIRCLE
  5
129
330
2
100
AcDbEntity
  8
GAIKEI
 62
     1
100
AcDbCircle
 10
-28.58371167100233
 20
15.75253405004389
 30
0.0
 40
5.635939474760233
  0
CIRCLE
  5
12A
330
2
100
AcDbEntity
  8
GAIKEI
 62
     1
100
AcDbCircle
 10
-28.58371167100233
 20
15.75263690785499
 30
0.0
 40
4.85987729078906
  0
CIRCLE
  5
12B
330
2
100
AcDbEntity
  8
GAIKEI
 62
     1
100
AcDbCircle
 10
-28.5836088131912
 20
15.75273976566615
 30
0.0
 40
4.369759819613209
  0
CIRCLE
  5
12C
330
2
100
AcDbEntity
  8
GAIKEI
100
AcDbCircle
 10
-28.58371167100233
 20
15.75273976566615
 30
0.0
 40
4.022717564823114
  0
LINE
  5
12D
330
2
100
AcDbEntity
  8
GAIKEI
 62
     1
100
AcDbLine
 10
-31.05224770948331
 20
11.95584652520335
 30
0.0
 11
-30.63135354629392
 21
11.71248494404346
 31
0.0
  0
LINE
  5
12E
330
2
100
AcDbEntity
  8
GAIKEI
 62
     1
100
AcDbLine
 10
-30.63773073058468
 20
19.78908599046548
 30
0.0
 11
-31.05862489377409
 21
19.54613584055016
 31
0.0
  0
LINE
  5
12F
330
2
100
AcDbEntity
  8
GAIKEI
 62
     1
100
AcDbLine
 10
-24.06110514403343
 20
15.51328678132966
 30
0.0
 11
-24.06089942841115
 21
15.99939279678255
 31
0.0
  0
LINE
  5
130
330
2
100
AcDbEntity
  8
GAIKEI
100
AcDbLine
 10
-29.06452050918142
 20
22.50025070676173
 30
0.0
 11
-29.0647262248037
 21
21.73865294283405
 31
0.0
  0
LINE
  5
131
330
2
100
AcDbEntity
  8
GAIKEI
100
AcDbLine
 10
-28.9501426231925
 20
22.6148343083729
 30
0.0
 11
-29.06452050918142
 21
22.50025070676173
 31
0.0
  0
LINE
  5
132
330
2
100
AcDbEntity
  8
GAIKEI
100
AcDbLine
 10
-28.22406933434743
 20
22.61504002399516
 30
0.0
 11
-28.9501426231925
 21
22.6148343083729
 31
0.0
  0
LINE
  5
133
330
2
100
AcDbEntity
  8
GAIKEI
100
AcDbLine
 10
-28.10948573273623
 20
22.50045642238398
 30
0.0
 11
-28.22406933434743
 21
22.61504002399516
 31
0.0
  0
LINE
  5
134
330
2
100
AcDbEntity
  8
GAIKEI
100
AcDbLine
 10
-28.10948573273623
 20
21.73844722721173
 30
0.0
 11
-28.10948573273623
 21
22.50045642238398
 31
0.0
  0
LINE
  5
135
330
2
100
AcDbEntity
  8
GAIKEI
 62
     1
100
AcDbLine
 10
-28.19238912851597
 20
22.4988106974057
 30
0.0
 11
-28.19238912851597
 21
21.74564727399161
 31
0.0
  0
LINE
  5
136
330
2
100
AcDbEntity
  8
GAIKEI
 62
     1
100
AcDbLine
 10
-28.26994391811638
 20
22.4988106974057
 30
0.0
 11
-28.26994391811638
 21
21.74564727399161
 31
0.0
  0
LINE
  5
137
330
2
100
AcDbEntity
  8
GAIKEI
 62
     1
100
AcDbLine
 10
-28.37208172457951
 20
22.4988106974057
 30
0.0
 11
-28.37208172457951
 21
21.75264160514916
 31
0.0
  0
LINE
  5
138
330
2
100
AcDbEntity
  8
GAIKEI
 62
     1
100
AcDbLine
 10
-28.49530538232653
 20
22.4988106974057
 30
0.0
 11
-28.49530538232653
 21
21.75984165192909
 31
0.0
  0
LINE
  5
139
330
2
100
AcDbEntity
  8
GAIKEI
 62
     1
100
AcDbLine
 10
-28.98171997121284
 20
22.4988106974057
 30
0.0
 11
-28.98171997121284
 21
21.74564727399161
 31
0.0
  0
LINE
  5
13A
330
2
100
AcDbEntity
  8
GAIKEI
 62
     1
100
AcDbLine
 10
-28.90426803942358
 20
22.4988106974057
 30
0.0
 11
-28.90426803942358
 21
21.74564727399161
 31
0.0
  0
LINE
  5
13B
330
2
100
AcDbEntity
  8
GAIKEI
 62
     1
100
AcDbLine
 10
-28.80202737514929
 20
22.4988106974057
 30
0.0
 11
-28.80202737514929
 21
21.75264160514916
 31
0.0
  0
LINE
  5
13C
330
2
100
AcDbEntity
  8
GAIKEI
 62
     1
100
AcDbLine
 10
-28.67859800177999
 20
22.4988106974057
 30
0.0
 11
-28.67859800177999
 21
21.75984165192909
 31
0.0
  0
LINE
  5
13D
330
2
100
AcDbEntity
  8
GAIKEI
 62
     1
100
AcDbLine
 10
-28.10773714994684
 20
22.50210214736222
 30
0.0
 11
-29.06287478420316
 21
22.50210214736222
 31
0.0
  0
LINE
  5
13E
330
2
100
AcDbEntity
  8
GAIKEI
 62
     1
100
AcDbLine
 10
-31.59009120394014
 20
21.79100725527962
 30
0.0
 11
-31.24119750854953
 21
21.13858047263676
 31
0.0
  0
LINE
  5
13F
330
2
100
AcDbEntity
  8
GAIKEI
 62
     1
100
AcDbLine
 10
-31.65725735461532
 20
21.75212700266831
 30
0.0
 11
-31.30846651703581
 21
21.09970022002545
 31
0.0
  0
LINE
  5
140
330
2
100
AcDbEntity
  8
GAIKEI
 62
     1
100
AcDbLine
 10
-31.74571507219667
 20
21.70131524396458
 30
0.0
 11
-31.40042140019597
 21
21.05485421436793
 31
0.0
  0
LINE
  5
141
330
2
100
AcDbEntity
  8
GAIKEI
 62
     1
100
AcDbLine
 10
-31.85248148016114
 20
21.63939484165763
 30
0.0
 11
-31.51068497373922
 21
20.99910528072945
 31
0.0
  0
LINE
  5
142
330
2
100
AcDbEntity
  8
GAIKEI
 62
     1
100
AcDbLine
 10
-32.27378707459507
 20
21.39623897612005
 30
0.0
 11
-31.9247905213933
 21
20.74360647785494
 31
0.0
  0
LINE
  5
143
330
2
100
AcDbEntity
  8
GAIKEI
 62
     1
100
AcDbLine
 10
-32.20662092391995
 20
21.43511922873142
 30
0.0
 11
-31.85783008634047
 21
20.78248673046624
 31
0.0
  0
LINE
  5
144
330
2
100
AcDbEntity
  8
GAIKEI
 62
     1
100
AcDbLine
 10
-32.11816320633861
 20
21.48613670305741
 30
0.0
 11
-31.77266381871564
 21
20.8396756734607
 31
0.0
  0
LINE
  5
145
330
2
100
AcDbEntity
  8
GAIKEI
 62
     1
100
AcDbLine
 10
-32.01139679837413
 20
21.54785138974204
 30
0.0
 11
-31.6694974341411
 21
20.90756182881386
 31
0.0
  0
LINE
  5
146
330
2
100
AcDbEntity
  8
GAIKEI
 62
     1
100
AcDbLine
 10
-31.5186050251971
 20
21.83626469218171
 30
0.0
 11
-32.34568468458275
 21
21.35900444848698
 31
0.0
  0
CIRCLE
  5
147
330
2
100
AcDbEntity
  8
GAIKEI
100
AcDbCircle
 10
-28.58371167100233
 20
15.75273976566615
 30
0.0
 40
6.003640271420865
  0
ARC
  5
148
330
2
100
AcDbEntity
  8
GAIKEI
100
AcDbCircle
 10
-34.21820232831186
 20
14.55648793306352
 30
0.0
 40
1.127282741056014
100
AcDbArc
 50
208.9656685839096
 51
241.5431435435153
  0
ARC
  5
149
330
2
100
AcDbEntity
  8
GAIKEI
100
AcDbCircle
 10
-39.82890185442722
 20
5.398634376580901
 30
0.0
 40
9.614422845909393
100
AcDbArc
 50
54.71769435141319
 51
58.14966206427289
  0
ARC
  5
14A
330
2
100
AcDbEntity
  8
GAIKEI
100
AcDbCircle
 10
-36.3706160460074
 20
10.78416791640853
 30
0.0
 40
3.233421714381144
100
AcDbArc
 50
31.61992175083241
 51
49.61365121692558
  0
ARC
  5
14B
330
2
100
AcDbEntity
  8
GAIKEI
100
AcDbCircle
 10
-28.53158250919301
 20
15.75253279022803
 30
0.0
 40
6.913208712789402
100
AcDbArc
 50
165.9137753949445
 51
193.9807593393756
  0
ARC
  5
14C
330
2
100
AcDbEntity
  8
GAIKEI
100
AcDbCircle
 10
-34.50384852241569
 20
14.40207075165875
 30
0.0
 40
0.8025925319984626
100
AcDbArc
 50
203.4773346311864
 51
209.1964790045059
  0
ARC
  5
14D
330
2
100
AcDbEntity
  8
GAIKEI
100
AcDbCircle
 10
-34.21820232831186
 20
16.9786146478774
 30
0.0
 40
1.127282741056014
100
AcDbArc
 50
118.4568564564847
 51
151.0343314160903
  0
ARC
  5
14E
330
2
100
AcDbEntity
  8
GAIKEI
100
AcDbCircle
 10
-39.82890185442722
 20
26.13646820436008
 30
0.0
 40
9.614422845909393
100
AcDbArc
 50
301.8503379357271
 51
305.2823056485868
  0
ARC
  5
14F
330
2
100
AcDbEntity
  8
GAIKEI
100
AcDbCircle
 10
-36.38425363545457
 20
20.8352796527493
 30
0.0
 40
3.306799244599487
100
AcDbArc
 50
309.6194010834034
 51
327.4119644971162
  0
ARC
  5
150
330
2
100
AcDbEntity
  8
GAIKEI
100
AcDbCircle
 10
-34.50384852241569
 20
17.13303182928223
 30
0.0
 40
0.8025925319984626
100
AcDbArc
 50
150.8035209954941
 51
156.5226653688135
  0
ARC
  5
151
330
2
100
AcDbEntity
  8
GAIKEI
 62
     1
100
AcDbCircle
 10
-28.58187824482863
 20
15.75555659168725
 30
0.0
 40
4.136878906803874
100
AcDbArc
 50
255.7702994433209
 51
284.2875400223036
  0
ARC
  5
152
330
2
100
AcDbEntity
  8
GAIKEI
 62
     1
100
AcDbCircle
 10
-28.58096640446979
 20
15.75806632520141
 30
0.0
 40
4.258008947906747
100
AcDbArc
 50
255.7640336812684
 51
284.2696961722598
  0
ARC
  5
153
330
2
100
AcDbEntity
  8
GAIKEI
 62
     1
100
AcDbCircle
 10
-29.61375518956112
 20
11.688082449092
 30
0.0
 40
0.0590306722114208
100
AcDbArc
 50
165.7524527450632
 51
255.9575275638497
  0
ARC
  5
154
330
2
100
AcDbEntity
  8
GAIKEI
 62
     1
100
AcDbCircle
 10
-29.61354134925869
 20
11.68829290700023
 30
0.0
 40
0.0591866952162475
100
AcDbArc
 50
75.5417878976783
 51
166.0008683127762
  0
ARC
  5
155
330
2
100
AcDbEntity
  8
GAIKEI
 62
     1
100
AcDbCircle
 10
-27.54582516605632
 20
11.688082449092
 30
0.0
 40
0.0590306722114208
100
AcDbArc
 50
284.0424724361503
 51
14.24754725493681
  0
ARC
  5
156
330
2
100
AcDbEntity
  8
GAIKEI
 62
     1
100
AcDbCircle
 10
-27.54603900635874
 20
11.68829290700023
 30
0.0
 40
0.0591866952162475
100
AcDbArc
 50
13.9991316872238
 51
104.4582121023216
  0
ARC
  5
157
330
2
100
AcDbEntity
  8
GAIKEI
 62
     1
100
AcDbCircle
 10
-28.58523440080776
 20
15.75573597231908
 30
0.0
 40
4.136878906803874
100
AcDbArc
 50
315.7702994433208
 51
344.2875400223036
  0
ARC
  5
158
330
2
100
AcDbEntity
  8
GAIKEI
 62
     1
100
AcDbCircle
 10
-28.5869519736083
 20
15.7577805159911
 30
0.0
 40
4.258008947906747
100
AcDbArc
 50
315.7640336812684
 51
344.2696961722598
  0
ARC
  5
159
330
2
100
AcDbEntity
  8
GAIKEI
 62
     1
100
AcDbCircle
 10
-25.57863693645018
 20
12.82836725330366
 30
0.0
 40
0.0590306722114208
100
AcDbArc
 50
225.7524527450631
 51
315.9575275638496
  0
ARC
  5
15A
330
2
100
AcDbEntity
  8
GAIKEI
 62
     1
100
AcDbCircle
 10
-25.57871227819393
 20
12.82865767339205
 30
0.0
 40
0.0591866952162475
100
AcDbArc
 50
135.5417878976783
 51
226.0008683127761
  0
ARC
  5
15B
330
2
100
AcDbEntity
  8
GAIKEI
 62
     1
100
AcDbCircle
 10
-24.54467192469778
 20
14.61924718690738
 30
0.0
 40
0.0590306722114208
100
AcDbArc
 50
344.0424724361503
 51
74.24754725493681
  0
ARC
  5
15C
330
2
100
AcDbEntity
  8
GAIKEI
 62
     1
100
AcDbCircle
 10
-24.54496110674395
 20
14.61916722472722
 30
0.0
 40
0.0591866952162475
100
AcDbArc
 50
73.99913168722379
 51
164.4582121023217
  0
ARC
  5
15D
330
2
100
AcDbEntity
  8
GAIKEI
 62
     1
100
AcDbCircle
 10
-28.58706782698144
 20
15.75291914629798
 30
0.0
 40
4.136878906803874
100
AcDbArc
 50
15.77029944332081
 51
44.28754002230363
  0
ARC
  5
15E
330
2
100
AcDbEntity
  8
GAIKEI
 62
     1
100
AcDbCircle
 10
-28.58969724014085
 20
15.75245395645589
 30
0.0
 40
4.258008947906747
100
AcDbArc
 50
15.76403368126849
 51
44.26969617225984
  0
ARC
  5
15F
330
2
100
AcDbEntity
  8
GAIKEI
 62
     1
100
AcDbCircle
 10
-24.54859341789138
 20
16.89302456987786
 30
0.0
 40
0.0590306722114208
100
AcDbArc
 50
285.7524527450632
 51
15.9575275638497
  0
ARC
  5
160
330
2
100
AcDbEntity
  8
GAIKEI
 62
     1
100
AcDbCircle
 10
-24.54888259993755
 20
16.89310453205797
 30
0.0
 40
0.0591866952162475
100
AcDbArc
 50
195.5417878976783
 51
286.0008683127762
  0
ARC
  5
161
330
2
100
AcDbEntity
  8
GAIKEI
 62
     1
100
AcDbCircle
 10
-25.58255842964376
 20
18.68390450348153
 30
0.0
 40
0.0590306722114208
100
AcDbArc
 50
44.04247243615031
 51
134.2475472549367
  0
ARC
  5
162
330
2
100
AcDbEntity
  8
GAIKEI
 62
     1
100
AcDbCircle
 10
-25.58263377138755
 20
18.68361408339319
 30
0.0
 40
0.0591866952162475
100
AcDbArc
 50
133.9991316872237
 51
224.4582121023216
  0
ARC
  5
163
330
2
100
AcDbEntity
  8
GAIKEI
 62
     1
100
AcDbCircle
 10
-28.58554509717603
 20
15.7499229396451
 30
0.0
 40
4.136878906803874
100
AcDbArc
 50
75.77029944332092
 51
104.2875400223036
  0
ARC
  5
164
330
2
100
AcDbEntity
  8
GAIKEI
 62
     1
100
AcDbCircle
 10
-28.58645693753487
 20
15.74741320613094
 30
0.0
 40
4.258008947906747
100
AcDbArc
 50
75.76403368126844
 51
104.2696961722598
  0
ARC
  5
165
330
2
100
AcDbEntity
  8
GAIKEI
 62
     1
100
AcDbCircle
 10
-27.55366815244355
 20
19.81739708224034
 30
0.0
 40
0.0590306722114208
100
AcDbArc
 50
345.7524527450631
 51
75.95752756384965
  0
ARC
  5
166
330
2
100
AcDbEntity
  8
GAIKEI
 62
     1
100
AcDbCircle
 10
-27.55388199274597
 20
19.81718662433212
 30
0.0
 40
0.0591866952162475
100
AcDbArc
 50
255.5417878976782
 51
346.0008683127761
  0
ARC
  5
167
330
2
100
AcDbEntity
  8
GAIKEI
 62
     1
100
AcDbCircle
 10
-29.62159817594832
 20
19.81739708224034
 30
0.0
 40
0.0590306722114208
100
AcDbArc
 50
104.0424724361502
 51
194.2475472549368
  0
ARC
  5
168
330
2
100
AcDbEntity
  8
GAIKEI
 62
     1
100
AcDbCircle
 10
-29.62138433564593
 20
19.81718662433212
 30
0.0
 40
0.0591866952162475
100
AcDbArc
 50
193.9991316872237
 51
284.4582121023217
  0
ARC
  5
169
330
2
100
AcDbEntity
  8
GAIKEI
 62
     1
100
AcDbCircle
 10
-28.58218894119687
 20
15.74974355901326
 30
0.0
 40
4.136878906803874
100
AcDbArc
 50
135.7702994433208
 51
164.2875400223037
  0
ARC
  5
16A
330
2
100
AcDbEntity
  8
GAIKEI
 62
     1
100
AcDbCircle
 10
-28.58047136839633
 20
15.74769901534125
 30
0.0
 40
4.258008947906747
100
AcDbArc
 50
135.7640336812684
 51
164.2696961722598
  0
ARC
  5
16B
330
2
100
AcDbEntity
  8
GAIKEI
 62
     1
100
AcDbCircle
 10
-31.58878640555446
 20
18.67711227802868
 30
0.0
 40
0.0590306722114208
100
AcDbArc
 50
45.75245274506317
 51
135.9575275638496
  0
ARC
  5
16C
330
2
100
AcDbEntity
  8
GAIKEI
 62
     1
100
AcDbCircle
 10
-31.5887110638107
 20
18.67682185794029
 30
0.0
 40
0.0591866952162475
100
AcDbArc
 50
315.5417878976783
 51
46.00086831277618
  0
ARC
  5
16D
330
2
100
AcDbEntity
  8
GAIKEI
 62
     1
100
AcDbCircle
 10
-32.62275141730686
 20
16.88623234442497
 30
0.0
 40
0.0590306722114208
100
AcDbArc
 50
164.0424724361503
 51
254.2475472549368
  0
ARC
  5
16E
330
2
100
AcDbEntity
  8
GAIKEI
 62
     1
100
AcDbCircle
 10
-32.62246223526068
 20
16.88631230660513
 30
0.0
 40
0.0591866952162475
100
AcDbArc
 50
253.9991316872238
 51
344.4582121023216
  0
ARC
  5
16F
330
2
100
AcDbEntity
  8
GAIKEI
 62
     1
100
AcDbCircle
 10
-28.5803555150232
 20
15.75256038503431
 30
0.0
 40
4.136878906803874
100
AcDbArc
 50
195.7702994433208
 51
224.2875400223037
  0
ARC
  5
170
330
2
100
AcDbEntity
  8
GAIKEI
 62
     1
100
AcDbCircle
 10
-28.57772610186382
 20
15.75302557487646
 30
0.0
 40
4.258008947906747
100
AcDbArc
 50
195.7640336812684
 51
224.2696961722598
  0
ARC
  5
171
330
2
100
AcDbEntity
  8
GAIKEI
 62
     1
100
AcDbCircle
 10
-32.61882992411327
 20
14.61245496145449
 30
0.0
 40
0.0590306722114208
100
AcDbArc
 50
105.7524527450631
 51
195.9575275638496
  0
ARC
  5
172
330
2
100
AcDbEntity
  8
GAIKEI
 62
     1
100
AcDbCircle
 10
-32.61854074206709
 20
14.61237499927437
 30
0.0
 40
0.0591866952162475
100
AcDbArc
 50
15.54178789767825
 51
106.0008683127761
  0
ARC
  5
173
330
2
100
AcDbEntity
  8
GAIKEI
 62
     1
100
AcDbCircle
 10
-31.58486491236087
 20
12.82157502785077
 30
0.0
 40
0.0590306722114208
100
AcDbArc
 50
224.0424724361502
 51
314.2475472549367
  0
ARC
  5
174
330
2
100
AcDbEntity
  8
GAIKEI
 62
     1
100
AcDbCircle
 10
-31.58478957061712
 20
12.82186544793916
 30
0.0
 40
0.0591866952162475
100
AcDbArc
 50
313.9991316872237
 51
44.45821210232164
  0
TEXT
  5
175
330
2
100
AcDbEntity
  8
MOJI1
100
AcDbText
 10
-31.01811759097745
 20
51.86285043462468
 30
0.0
 40
4.0
  1
ネットワークカメラ（メガピクセル）
100
AcDbText
  0
TEXT
  5
176
330
2
100
AcDbEntity
  8
TOUROKU
100
AcDbText
 10
26.98183244194987
 20
45.86285043462467
 30
0.0
 40
2.0
  1
ＲＰＮＰ１０００＋ＷＶＬＺＡ６２２
 72
     2
 11
66.98183244194985
 21
45.86285043462467
 31
0.0
100
AcDbText
  0
LINE
  5
178
330
2
100
AcDbEntity
  8
GAIKEI
 62
     1
100
AcDbLine
 10
13.19749790304489
 20
12.01803547616435
 30
0.0
 11
13.19749790304489
 21
12.09538408935765
 31
0.0
  0
LINE
  5
179
330
2
100
AcDbEntity
  8
GAIKEI
 62
     1
100
AcDbLine
 10
13.06608843116812
 20
12.01803547616435
 30
0.0
 11
13.19749790304489
 21
12.01803547616435
 31
0.0
  0
LINE
  5
17A
330
2
100
AcDbEntity
  8
GAIKEI
 62
     1
100
AcDbLine
 10
13.06608843116812
 20
11.91012168517693
 30
0.0
 11
13.06608843116812
 21
12.01803547616435
 31
0.0
  0
LINE
  5
17B
330
2
100
AcDbEntity
  8
GAIKEI
 62
     1
100
AcDbLine
 10
12.95006551137817
 20
11.91012168517693
 30
0.0
 11
13.06608843116812
 21
11.91012168517693
 31
0.0
  0
LINE
  5
17C
330
2
100
AcDbEntity
  8
GAIKEI
 62
     1
100
AcDbLine
 10
12.95006551137817
 20
12.01782754978478
 30
0.0
 11
12.95006551137817
 21
11.91012168517693
 31
0.0
  0
LINE
  5
17D
330
2
100
AcDbEntity
  8
GAIKEI
 62
     1
100
AcDbLine
 10
12.81907189226049
 20
12.01803547616435
 30
0.0
 11
12.95006551137817
 21
12.01782754978478
 31
0.0
  0
LINE
  5
17E
330
2
100
AcDbEntity
  8
GAIKEI
 62
     1
100
AcDbLine
 10
12.81907189226049
 20
12.09538408935765
 30
0.0
 11
12.81907189226049
 21
12.01803547616435
 31
0.0
  0
LINE
  5
17F
330
2
100
AcDbEntity
  8
GAIKEI
 62
     1
100
AcDbLine
 10
12.95006551137817
 20
12.09538408935765
 30
0.0
 11
12.81907189226049
 21
12.09538408935765
 31
0.0
  0
LINE
  5
180
330
2
100
AcDbEntity
  8
GAIKEI
 62
     1
100
AcDbLine
 10
12.95006551137817
 20
12.20288202758593
 30
0.0
 11
12.95006551137817
 21
12.09538408935765
 31
0.0
  0
LINE
  5
181
330
2
100
AcDbEntity
  8
GAIKEI
 62
     1
100
AcDbLine
 10
13.06608843116812
 20
12.20288202758593
 30
0.0
 11
12.95006551137817
 21
12.20288202758593
 31
0.0
  0
LINE
  5
182
330
2
100
AcDbEntity
  8
GAIKEI
 62
     1
100
AcDbLine
 10
13.06608843116812
 20
12.09538408935765
 30
0.0
 11
13.06608843116812
 21
12.20288202758593
 31
0.0
  0
LINE
  5
183
330
2
100
AcDbEntity
  8
GAIKEI
 62
     1
100
AcDbLine
 10
13.19749790304489
 20
12.09538408935765
 30
0.0
 11
13.06608843116812
 21
12.09538408935765
 31
0.0
  0
LINE
  5
184
330
2
100
AcDbEntity
  8
GAIKEI
 62
     1
100
AcDbLine
 10
12.4242196974915
 20
21.82786270453675
 30
0.0
 11
11.45881751723219
 21
21.82786270453675
 31
0.0
  0
LINE
  5
185
330
2
100
AcDbEntity
  8
GAIKEI
 62
     1
100
AcDbLine
 10
12.34042536653208
 20
21.82599136712076
 30
0.0
 11
12.34042536653208
 21
21.06207767280364
 31
0.0
  0
LINE
  5
186
330
2
100
AcDbEntity
  8
GAIKEI
 62
     1
100
AcDbLine
 10
12.26203712144104
 20
21.82599136712076
 30
0.0
 11
12.26203712144104
 21
21.04689904709636
 31
0.0
  0
LINE
  5
187
330
2
100
AcDbEntity
  8
GAIKEI
 62
     1
100
AcDbLine
 10
12.14435079061469
 20
21.82599136712076
 30
0.0
 11
12.14455871699424
 21
21.03504724346191
 31
0.0
  0
LINE
  5
188
330
2
100
AcDbEntity
  8
GAIKEI
 62
     1
100
AcDbLine
 10
12.01980288926314
 20
21.82578344074119
 30
0.0
 11
12.01980288926314
 21
21.02901737845491
 31
0.0
  0
LINE
  5
189
330
2
100
AcDbEntity
  8
GAIKEI
 62
     1
100
AcDbLine
 10
11.54240392181202
 20
21.82599136712076
 30
0.0
 11
11.54240392181202
 21
21.06519656849695
 31
0.0
  0
LINE
  5
18A
330
2
100
AcDbEntity
  8
GAIKEI
 62
     1
100
AcDbLine
 10
11.62058424052352
 20
21.82578344074119
 30
0.0
 11
11.62058424052352
 21
21.04731489985545
 31
0.0
  0
LINE
  5
18B
330
2
100
AcDbEntity
  8
GAIKEI
 62
     1
100
AcDbLine
 10
11.73847849772946
 20
21.82599136712076
 30
0.0
 11
11.73847849772946
 21
21.03837406553475
 31
0.0
  0
LINE
  5
18C
330
2
100
AcDbEntity
  8
GAIKEI
 62
     1
100
AcDbLine
 10
11.86323432546055
 20
21.82599136712076
 30
0.0
 11
11.86323432546055
 21
21.02901737845491
 31
0.0
  0
ELLIPSE
  5
18D
330
2
100
AcDbEntity
  8
GAIKEI
 62
     1
100
AcDbEllipse
 10
13.00849282403224
 20
12.05650185638143
 30
0.0
 11
0.2545018885714843
 21
0.0
 31
0.0
210
0.0
220
0.0
230
1.0
 40
0.8790849673202615
 41
0.0
 42
6.283185307179586
  0
LINE
  5
18E
330
2
100
AcDbEntity
  8
GAIKEI
 62
     1
100
AcDbLine
 10
7.963783003344858
 20
20.93378709662016
 30
0.0
 11
7.963990929724403
 21
9.225923659890497
 31
0.0
  0
LINE
  5
18F
330
2
100
AcDbEntity
  8
GAIKEI
 62
     1
100
AcDbLine
 10
7.841938144927482
 20
20.93378709662016
 30
0.0
 11
7.841938144927482
 21
9.225923659890497
 31
0.0
  0
LINE
  5
190
330
2
100
AcDbEntity
  8
GAIKEI
 62
     1
100
AcDbLine
 10
13.64142072338815
 20
17.61791398257929
 30
0.0
 11
13.64142072338813
 21
12.55428811367687
 31
0.0
  0
LINE
  5
191
330
2
100
AcDbEntity
  8
GAIKEI
100
AcDbLine
 10
13.50897161961359
 20
18.09281258115169
 30
0.0
 11
13.50897161961359
 21
12.04381834722875
 31
0.0
  0
LINE
  5
192
330
2
100
AcDbEntity
  8
GAIKEI
 62
     1
100
AcDbLine
 10
13.38712676119619
 20
21.07621666661316
 30
0.0
 11
13.38712676119619
 21
9.076632519372253
 31
0.0
  0
LINE
  5
193
330
2
100
AcDbEntity
  8
GAIKEI
 62
     1
100
AcDbLine
 10
8.050488303617996
 20
21.07621666661316
 30
0.0
 11
8.050488303617996
 21
9.085365427313433
 31
0.0
  0
LINE
  5
194
330
2
100
AcDbEntity
  8
GAIKEI
 62
     1
100
AcDbLine
 10
7.741093850844805
 20
21.07621666661316
 30
0.0
 11
7.741093850844805
 21
9.085365427313433
 31
0.0
  0
LINE
  5
195
330
2
100
AcDbEntity
  8
GAIKEI
 62
     1
100
AcDbLine
 10
2.144027602877912
 20
21.07621666661316
 30
0.0
 11
2.144027602877912
 21
9.082038605240597
 31
0.0
  0
LINE
  5
196
330
2
100
AcDbEntity
  8
GAIKEI
100
AcDbLine
 10
1.858856573322526
 20
18.28098595464609
 30
0.0
 11
1.859064499702057
 21
11.92342897346827
 31
0.0
  0
LINE
  5
197
330
2
100
AcDbEntity
  8
GAIKEI
100
AcDbLine
 10
1.981117284499021
 20
20.81693247131198
 30
0.0
 11
1.981117284499021
 21
9.39434402732752
 31
0.0
  0
LINE
  5
198
330
2
100
AcDbEntity
  8
GAIKEI
 62
     1
100
AcDbLine
 10
13.63934145959258
 20
12.55427760902864
 30
0.0
 11
13.63954938597216
 21
12.23677402745295
 31
0.0
  0
LINE
  5
199
330
2
100
AcDbEntity
  8
GAIKEI
 62
     1
100
AcDbLine
 10
13.63954938597216
 20
12.23677402745295
 30
0.0
 11
13.50772406133624
 21
12.10515662919664
 31
0.0
  0
LINE
  5
19A
330
2
100
AcDbEntity
  8
GAIKEI
 62
     1
100
AcDbLine
 10
13.50772406133624
 20
18.06723763646681
 30
0.0
 11
13.63934145959258
 21
17.93541231183093
 31
0.0
  0
LINE
  5
19B
330
2
100
AcDbEntity
  8
GAIKEI
 62
     1
100
AcDbLine
 10
13.63934145959258
 20
17.93541231183093
 30
0.0
 11
13.63934145959258
 21
17.61790873025518
 31
0.0
  0
LINE
  5
19C
330
2
100
AcDbEntity
  8
GAIKEI
100
AcDbLine
 10
13.50772406133624
 20
12.10515662919664
 30
0.0
 11
13.50772406133624
 21
9.197645672271448
 31
0.0
  0
LINE
  5
19D
330
2
100
AcDbEntity
  8
GAIKEI
100
AcDbLine
 10
13.50772406133624
 20
9.197645672271448
 30
0.0
 11
13.3840078655029
 21
9.08141482610199
 31
0.0
  0
LINE
  5
19E
330
2
100
AcDbEntity
  8
GAIKEI
100
AcDbLine
 10
13.3840078655029
 20
9.08141482610199
 30
0.0
 11
8.048824892581563
 21
9.08141482610199
 31
0.0
  0
LINE
  5
19F
330
2
100
AcDbEntity
  8
GAIKEI
100
AcDbLine
 10
8.050488303617996
 20
9.085365427313433
 30
0.0
 11
7.963783003344858
 21
9.228626702824669
 31
0.0
  0
LINE
  5
1A0
330
2
100
AcDbEntity
  8
GAIKEI
100
AcDbLine
 10
7.963783003344858
 20
9.228626702824669
 30
0.0
 11
7.839443028372841
 21
9.228418776445153
 31
0.0
  0
LINE
  5
1A1
330
2
100
AcDbEntity
  8
GAIKEI
100
AcDbLine
 10
7.839443028372841
 20
9.228418776445153
 30
0.0
 11
7.744628599297172
 21
9.08141482610199
 31
0.0
  0
LINE
  5
1A2
330
2
100
AcDbEntity
  8
GAIKEI
100
AcDbLine
 10
7.741093850844805
 20
9.085365427313433
 30
0.0
 11
2.140804743994834
 21
9.08141482610199
 31
0.0
  0
LINE
  5
1A3
330
2
100
AcDbEntity
  8
GAIKEI
100
AcDbLine
 10
2.144027602877912
 20
9.082038605240597
 30
0.0
 11
1.978102351995516
 21
9.220725500401727
 31
0.0
  0
LINE
  5
1A4
330
2
100
AcDbEntity
  8
GAIKEI
100
AcDbLine
 10
1.978102351995516
 20
9.220725500401727
 30
0.0
 11
1.978102351995516
 21
9.414304959764535
 31
0.0
  0
LINE
  5
1A5
330
2
100
AcDbEntity
  8
GAIKEI
100
AcDbLine
 10
1.978102351995516
 20
9.414304959764535
 30
0.0
 11
1.854178229782604
 21
9.538229081977476
 31
0.0
  0
LINE
  5
1A6
330
2
100
AcDbEntity
  8
GAIKEI
100
AcDbLine
 10
1.854178229782604
 20
9.538229081977476
 30
0.0
 11
1.854386156162135
 21
11.95025147643042
 31
0.0
  0
ARC
  5
1A7
330
2
100
AcDbEntity
  8
GAIKEI
100
AcDbCircle
 10
18.20096688254785
 20
15.08609316964191
 30
0.0
 40
16.64464492168963
100
AcDbArc
 50
169.140608247551
 51
190.8593917524489
  0
LINE
  5
1A8
330
2
100
AcDbEntity
  8
GAIKEI
100
AcDbLine
 10
13.50772406133624
 20
18.05309864265706
 30
0.0
 11
13.50772406133624
 21
20.96060959958225
 31
0.0
  0
LINE
  5
1A9
330
2
100
AcDbEntity
  8
GAIKEI
100
AcDbLine
 10
13.50772406133624
 20
20.96060959958225
 30
0.0
 11
13.3840078655029
 21
21.07684044575171
 31
0.0
  0
LINE
  5
1AA
330
2
100
AcDbEntity
  8
GAIKEI
100
AcDbLine
 10
13.3840078655029
 20
21.07684044575171
 30
0.0
 11
8.048824892581563
 21
21.07684044575171
 31
0.0
  0
LINE
  5
1AB
330
2
100
AcDbEntity
  8
GAIKEI
100
AcDbLine
 10
8.050488303617996
 20
21.07288984454027
 30
0.0
 11
7.963783003344858
 21
20.92962856902903
 31
0.0
  0
LINE
  5
1AC
330
2
100
AcDbEntity
  8
GAIKEI
100
AcDbLine
 10
7.963783003344858
 20
20.92962856902903
 30
0.0
 11
7.839443028372841
 21
20.92983649540855
 31
0.0
  0
LINE
  5
1AD
330
2
100
AcDbEntity
  8
GAIKEI
100
AcDbLine
 10
7.839443028372841
 20
20.92983649540855
 30
0.0
 11
7.744628599297172
 21
21.07684044575171
 31
0.0
  0
LINE
  5
1AE
330
2
100
AcDbEntity
  8
GAIKEI
100
AcDbLine
 10
7.741093850844805
 20
21.07288984454027
 30
0.0
 11
2.140804743994834
 21
21.07684044575171
 31
0.0
  0
LINE
  5
1AF
330
2
100
AcDbEntity
  8
GAIKEI
100
AcDbLine
 10
2.144027602877912
 20
21.0762166666131
 30
0.0
 11
1.978102351995516
 21
20.93752977145197
 31
0.0
  0
LINE
  5
1B0
330
2
100
AcDbEntity
  8
GAIKEI
100
AcDbLine
 10
1.978102351995516
 20
20.93752977145197
 30
0.0
 11
1.978102351995516
 21
20.74395031208916
 31
0.0
  0
LINE
  5
1B1
330
2
100
AcDbEntity
  8
GAIKEI
100
AcDbLine
 10
1.978102351995516
 20
20.74395031208916
 30
0.0
 11
1.854178229782604
 21
20.62002618987623
 31
0.0
  0
LINE
  5
1B2
330
2
100
AcDbEntity
  8
GAIKEI
100
AcDbLine
 10
1.854178229782604
 20
20.62002618987623
 30
0.0
 11
1.854386156162135
 21
18.20800379542328
 31
0.0
  0
ARC
  5
1B3
330
2
100
AcDbEntity
  8
GAIKEI
100
AcDbCircle
 10
11.94151860736182
 20
23.161710555946
 30
0.0
 40
2.133740447536287
100
AcDbArc
 50
256.9251966905381
 51
283.0748033094626
  0
LINE
  5
1B4
330
2
100
AcDbEntity
  8
GAIKEI
100
AcDbLine
 10
12.4242196974915
 20
21.08328616351792
 30
0.0
 11
12.4242196974915
 21
21.82786270453669
 31
0.0
  0
LINE
  5
1B5
330
2
100
AcDbEntity
  8
GAIKEI
100
AcDbLine
 10
12.4242196974915
 20
21.82786270453669
 30
0.0
 11
12.30840470408108
 21
21.94367769794712
 31
0.0
  0
LINE
  5
1B6
330
2
100
AcDbEntity
  8
GAIKEI
100
AcDbLine
 10
12.30840470408108
 20
21.94367769794712
 30
0.0
 11
11.57442458426302
 21
21.94367769794712
 31
0.0
  0
LINE
  5
1B7
330
2
100
AcDbEntity
  8
GAIKEI
100
AcDbLine
 10
11.57442458426302
 20
21.94367769794712
 30
0.0
 11
11.45881751723219
 21
21.82786270453669
 31
0.0
  0
LINE
  5
1B8
330
2
100
AcDbEntity
  8
GAIKEI
100
AcDbLine
 10
11.45881751723219
 20
21.82786270453669
 30
0.0
 11
11.45881751723219
 21
21.08328616351792
 31
0.0
  0
ENDSEC
  0
SECTION
  2
OBJECTS
  0
DICTIONARY
  5
A
330
0
100
AcDbDictionary
281
     1
  3
ACAD_GROUP
350
32
  3
ACAD_LAYOUT
350
E
  3
ACAD_MLINESTYLE
350
33
  3
ACAD_PLOTSETTINGS
350
34
  3
ACAD_PLOTSTYLENAME
350
9
  3
AcDbVariableDictionary
350
1BB
  0
DICTIONARY
  5
1A
330
19
100
AcDbDictionary
280
     1
281
     1
  3
ACAD_LAYERFILTERS
360
1B
  3
ACAD_LAYERSTATES
360
1C
  0
DICTIONARY
  5
3
330
2
100
AcDbDictionary
280
     1
281
     1
  3
ACAD_SORTENTS
360
5
  0
DICTIONARY
  5
12
330
11
100
AcDbDictionary
280
     1
281
     1
  0
DICTIONARY
  5
32
102
{ACAD_REACTORS
330
A
102
}
330
A
100
AcDbDictionary
281
     1
  0
DICTIONARY
  5
E
102
{ACAD_REACTORS
330
A
102
}
330
A
100
AcDbDictionary
281
     1
  3
Model
350
D
  3
ﾚｲｱｳﾄ1
350
16
  0
DICTIONARY
  5
33
102
{ACAD_REACTORS
330
A
102
}
330
A
100
AcDbDictionary
281
     1
  3
STANDARD
350
35
  0
DICTIONARY
  5
34
102
{ACAD_REACTORS
330
A
102
}
330
A
100
AcDbDictionary
281
     1
  0
ACDBDICTIONARYWDFLT
  5
9
102
{ACAD_REACTORS
330
A
102
}
330
A
100
AcDbDictionary
281
     1
  3
Normal
350
8
100
AcDbDictionaryWithDefault
340
8
  0
DICTIONARY
  5
1BB
102
{ACAD_REACTORS
330
A
102
}
330
A
100
AcDbDictionary
281
     1
  3
DIMASSOC
350
1BD
  3
HIDETEXT
350
1BC
  0
DICTIONARY
  5
1B
102
{ACAD_REACTORS
330
1A
102
}
330
1A
100
AcDbDictionary
280
     1
281
     1
  0
DICTIONARY
  5
1C
102
{ACAD_REACTORS
330
1A
102
}
330
1A
100
AcDbDictionary
281
     1
  0
SORTENTSTABLE
  5
5
102
{ACAD_REACTORS
330
3
102
}
330
3
100
AcDbSortentsTable
330
2
  0
LAYOUT
  5
D
102
{ACAD_XDICTIONARY
360
F
102
}
102
{ACAD_REACTORS
330
E
102
}
330
E
100
AcDbPlotSettings
  1

  2
\\URANUS\8FPAM09
  4
A4
  6

 40
4.180416584014892
 41
4.349743366241455
 42
4.222747802734375
 43
4.349761962890625
 44
210.0156707763671
 45
297.0106506347656
 46
6.099999999999999
 47
0.0
 48
0.0
 49
0.0
140
0.0
141
0.0
142
1.0
143
1.367721178356409
 70
 11956
 72
     1
 73
     0
 74
     1
  7
tmsacad.ctb
 75
     0
147
0.7311431714479261
148
0.5392765864289686
149
0.0969284361735845
100
AcDbLayout
  1
Model
 70
     1
 71
     0
 10
0.0
 20
0.0
 11
12.0
 21
9.0
 12
0.0
 22
0.0
 32
0.0
 14
0.0
 24
0.0
 34
0.0
 15
0.0
 25
0.0
 35
0.0
146
0.0
 13
0.0
 23
0.0
 33
0.0
 16
1.0
 26
0.0
 36
0.0
 17
0.0
 27
1.0
 37
0.0
 76
     0
330
2
  0
LAYOUT
  5
16
102
{ACAD_XDICTIONARY
360
17
102
}
102
{ACAD_REACTORS
330
E
102
}
330
E
100
AcDbPlotSettings
  1

  2
C:\Program Files\ACAD2000\plotters\DWF ePlot.pc3
  4

  6

 40
0.0
 41
0.0
 42
0.0
 43
0.0
 44
0.0
 45
0.0
 46
0.0
 47
0.0
 48
0.0
 49
0.0
140
0.0
141
0.0
142
1.0
143
1.0
 70
   688
 72
     0
 73
     0
 74
     5
  7
tmsacad.ctb
 75
    16
147
1.0
148
0.0
149
0.0
100
AcDbLayout
  1
ﾚｲｱｳﾄ1
 70
     1
 71
     1
 10
0.0
 20
0.0
 11
12.0
 21
9.0
 12
0.0
 22
0.0
 32
0.0
 14
1.000000000000000E+20
 24
1.000000000000000E+20
 34
1.000000000000000E+20
 15
-1.000000000000000E+20
 25
-1.000000000000000E+20
 35
-1.000000000000000E+20
146
0.0
 13
0.0
 23
0.0
 33
0.0
 16
1.0
 26
0.0
 36
0.0
 17
0.0
 27
1.0
 37
0.0
 76
     0
330
11
  0
MLINESTYLE
  5
35
102
{ACAD_REACTORS
330
33
102
}
330
33
100
AcDbMlineStyle
  2
STANDARD
 70
     0
  3

 62
   256
 51
90.0
 52
90.0
 71
     2
 49
0.5
 62
   256
  6
BYLAYER
 49
-0.5
 62
   256
  6
BYLAYER
  0
ACDBPLACEHOLDER
  5
8
102
{ACAD_REACTORS
330
9
102
}
330
9
  0
DICTIONARYVAR
  5
1BD
102
{ACAD_REACTORS
330
1BB
102
}
330
1BB
100
DictionaryVariables
280
     0
  1
1
  0
DICTIONARYVAR
  5
1BC
102
{ACAD_REACTORS
330
1BB
102
}
330
1BB
100
DictionaryVariables
280
     0
  1
1
  0
DICTIONARY
  5
F
330
D
100
AcDbDictionary
280
     1
281
     1
  3
ACAD_XREC_ROUNDTRIP
360
10
  0
DICTIONARY
  5
17
330
16
100
AcDbDictionary
280
     1
281
     1
  3
ACAD_XREC_ROUNDTRIP
360
18
  0
XRECORD
  5
10
102
{ACAD_REACTORS
330
F
102
}
330
F
100
AcDbXrecord
280
     1
102
SHADEPLOT
 70
     0
102
SHADEPLOTRESLEVEL
 70
     2
102
SHADEPLOTCUSTOMDPI
 70
   300
  0
XRECORD
  5
18
102
{ACAD_REACTORS
330
17
102
}
330
17
100
AcDbXrecord
280
     1
102
SHADEPLOT
 70
     0
102
SHADEPLOTRESLEVEL
 70
     2
102
SHADEPLOTCUSTOMDPI
 70
   300
  0
ENDSEC
  0
EOF
