  0
SECTION
  2
HEADER
  9
$ACADVER
  1
AC1015
  9
$ACADMAINTVER
 70
    20
  9
$DWGCODEPAGE
  3
ANSI_932
  9
$INSBASE
 10
0.0
 20
372.4992141396417
 30
0.0
  9
$EXTMIN
 10
-62.27173661510431
 20
-61.24212003485917
 30
0.0
  9
$EXTMAX
 10
62.72826338489569
 20
51.75787996514088
 30
0.0
  9
$LIMMIN
 10
-1101.784450318844
 20
-1579.160531687244
  9
$LIMMAX
 10
-508.2420711400536
 20
-1161.440814074914
  9
$ORTHOMODE
 70
     1
  9
$REGENMODE
 70
     1
  9
$FILLMODE
 70
     1
  9
$QTEXTMODE
 70
     0
  9
$MIRRTEXT
 70
     1
  9
$LTSCALE
 40
1.0
  9
$ATTMODE
 70
     1
  9
$TEXTSIZE
 40
3.0
  9
$TRACEWID
 40
0.5
  9
$TEXTSTYLE
  7
STANDARD
  9
$CLAYER
  8
SUNPO
  9
$CELTYPE
  6
BYLAYER
  9
$CECOLOR
 62
   256
  9
$CELTSCALE
 40
1.0
  9
$DISPSILH
 70
     0
  9
$DIMSCALE
 40
1.0
  9
$DIMASZ
 40
2.0
  9
$DIMEXO
 40
2.0
  9
$DIMDLI
 40
8.0
  9
$DIMRND
 40
0.0
  9
$DIMDLE
 40
0.0
  9
$DIMEXE
 40
2.0
  9
$DIMTP
 40
0.0
  9
$DIMTM
 40
0.0
  9
$DIMTXT
 40
2.5
  9
$DIMCEN
 40
0.0
  9
$DIMTSZ
 40
0.0
  9
$DIMTOL
 70
     0
  9
$DIMLIM
 70
     0
  9
$DIMTIH
 70
     0
  9
$DIMTOH
 70
     0
  9
$DIMSE1
 70
     0
  9
$DIMSE2
 70
     0
  9
$DIMTAD
 70
     3
  9
$DIMZIN
 70
     0
  9
$DIMBLK
  1

  9
$DIMASO
 70
     1
  9
$DIMSHO
 70
     1
  9
$DIMPOST
  1

  9
$DIMAPOST
  1

  9
$DIMALT
 70
     0
  9
$DIMALTD
 70
     2
  9
$DIMALTF
 40
25.4
  9
$DIMLFAC
 40
1.0
  9
$DIMTOFL
 70
     1
  9
$DIMTVP
 40
0.0
  9
$DIMTIX
 70
     0
  9
$DIMSOXD
 70
     0
  9
$DIMSAH
 70
     1
  9
$DIMBLK1
  1
OPEN30
  9
$DIMBLK2
  1
OPEN30
  9
$DIMSTYLE
  2
STANDARD
  9
$DIMCLRD
 70
     0
  9
$DIMCLRE
 70
     0
  9
$DIMCLRT
 70
     0
  9
$DIMTFAC
 40
1.0
  9
$DIMGAP
 40
0.5
  9
$DIMJUST
 70
     0
  9
$DIMSD1
 70
     0
  9
$DIMSD2
 70
     0
  9
$DIMTOLJ
 70
     1
  9
$DIMTZIN
 70
     0
  9
$DIMALTZ
 70
     0
  9
$DIMALTTZ
 70
     0
  9
$DIMUPT
 70
     0
  9
$DIMDEC
 70
     4
  9
$DIMTDEC
 70
     4
  9
$DIMALTU
 70
     2
  9
$DIMALTTD
 70
     2
  9
$DIMTXSTY
  7
STANDARD
  9
$DIMAUNIT
 70
     0
  9
$DIMADEC
 70
     0
  9
$DIMALTRND
 40
0.0
  9
$DIMAZIN
 70
     0
  9
$DIMDSEP
 70
    46
  9
$DIMATFIT
 70
     3
  9
$DIMFRAC
 70
     0
  9
$DIMLDRBLK
  1
OPEN30
  9
$DIMLUNIT
 70
     2
  9
$DIMLWD
 70
    -2
  9
$DIMLWE
 70
    -2
  9
$DIMTMOVE
 70
     0
  9
$LUNITS
 70
     2
  9
$LUPREC
 70
     4
  9
$SKETCHINC
 40
0.1
  9
$FILLETRAD
 40
0.0
  9
$AUNITS
 70
     0
  9
$AUPREC
 70
     0
  9
$MENU
  1
ACAD
  9
$ELEVATION
 40
0.0
  9
$PELEVATION
 40
0.0
  9
$THICKNESS
 40
0.0
  9
$LIMCHECK
 70
     0
  9
$CHAMFERA
 40
0.0
  9
$CHAMFERB
 40
0.0
  9
$CHAMFERC
 40
0.0
  9
$CHAMFERD
 40
0.0
  9
$SKPOLY
 70
     0
  9
$TDCREATE
 40
2451815.565532581
  9
$TDUCREATE
 40
2451815.190532581
  9
$TDUPDATE
 40
2453769.428492651
  9
$TDUUPDATE
 40
2453769.053492651
  9
$TDINDWG
 40
0.8547160301
  9
$TDUSRTIMER
 40
0.8547160301
  9
$USRTIMER
 70
     1
  9
$ANGBASE
 50
0.0
  9
$ANGDIR
 70
     0
  9
$PDMODE
 70
     0
  9
$PDSIZE
 40
0.0
  9
$PLINEWID
 40
0.0
  9
$SPLFRAME
 70
     0
  9
$SPLINETYPE
 70
     6
  9
$SPLINESEGS
 70
     8
  9
$HANDSEED
  5
344
  9
$SURFTAB1
 70
     6
  9
$SURFTAB2
 70
     6
  9
$SURFTYPE
 70
     6
  9
$SURFU
 70
     6
  9
$SURFV
 70
     6
  9
$UCSBASE
  2

  9
$UCSNAME
  2

  9
$UCSORG
 10
0.0
 20
0.0
 30
0.0
  9
$UCSXDIR
 10
1.0
 20
0.0
 30
0.0
  9
$UCSYDIR
 10
0.0
 20
1.0
 30
0.0
  9
$UCSORTHOREF
  2

  9
$UCSORTHOVIEW
 70
     0
  9
$UCSORGTOP
 10
0.0
 20
0.0
 30
0.0
  9
$UCSORGBOTTOM
 10
0.0
 20
0.0
 30
0.0
  9
$UCSORGLEFT
 10
0.0
 20
0.0
 30
0.0
  9
$UCSORGRIGHT
 10
0.0
 20
0.0
 30
0.0
  9
$UCSORGFRONT
 10
0.0
 20
0.0
 30
0.0
  9
$UCSORGBACK
 10
0.0
 20
0.0
 30
0.0
  9
$PUCSBASE
  2

  9
$PUCSNAME
  2

  9
$PUCSORG
 10
0.0
 20
0.0
 30
0.0
  9
$PUCSXDIR
 10
1.0
 20
0.0
 30
0.0
  9
$PUCSYDIR
 10
0.0
 20
1.0
 30
0.0
  9
$PUCSORTHOREF
  2

  9
$PUCSORTHOVIEW
 70
     0
  9
$PUCSORGTOP
 10
0.0
 20
0.0
 30
0.0
  9
$PUCSORGBOTTOM
 10
0.0
 20
0.0
 30
0.0
  9
$PUCSORGLEFT
 10
0.0
 20
0.0
 30
0.0
  9
$PUCSORGRIGHT
 10
0.0
 20
0.0
 30
0.0
  9
$PUCSORGFRONT
 10
0.0
 20
0.0
 30
0.0
  9
$PUCSORGBACK
 10
0.0
 20
0.0
 30
0.0
  9
$USERI1
 70
     0
  9
$USERI2
 70
     0
  9
$USERI3
 70
     0
  9
$USERI4
 70
     0
  9
$USERI5
 70
     0
  9
$USERR1
 40
0.0
  9
$USERR2
 40
0.0
  9
$USERR3
 40
0.0
  9
$USERR4
 40
0.0
  9
$USERR5
 40
0.0
  9
$WORLDVIEW
 70
     1
  9
$SHADEDGE
 70
     3
  9
$SHADEDIF
 70
    70
  9
$TILEMODE
 70
     1
  9
$MAXACTVP
 70
    48
  9
$PINSBASE
 10
0.0
 20
0.0
 30
0.0
  9
$PLIMCHECK
 70
     0
  9
$PEXTMIN
 10
1.000000000000000E+20
 20
1.000000000000000E+20
 30
1.000000000000000E+20
  9
$PEXTMAX
 10
-1.000000000000000E+20
 20
-1.000000000000000E+20
 30
-1.000000000000000E+20
  9
$PLIMMIN
 10
0.0
 20
0.0
  9
$PLIMMAX
 10
12.0
 20
9.0
  9
$UNITMODE
 70
     0
  9
$VISRETAIN
 70
     1
  9
$PLINEGEN
 70
     0
  9
$PSLTSCALE
 70
     1
  9
$TREEDEPTH
 70
  3020
  9
$CMLSTYLE
  2
STANDARD
  9
$CMLJUST
 70
     0
  9
$CMLSCALE
 40
1.0
  9
$PROXYGRAPHICS
 70
     1
  9
$MEASUREMENT
 70
     0
  9
$CELWEIGHT
370
    -1
  9
$ENDCAPS
280
     0
  9
$JOINSTYLE
280
     0
  9
$LWDISPLAY
290
     0
  9
$INSUNITS
 70
     0
  9
$HYPERLINKBASE
  1

  9
$STYLESHEET
  1

  9
$XEDIT
290
     1
  9
$CEPSNTYPE
380
     0
  9
$PSTYLEMODE
290
     1
  9
$FINGERPRINTGUID
  2
{1754B7AB-9B3C-11D4-AD9E-00104B1004F2}
  9
$VERSIONGUID
  2
{865A3D21-A0E9-43B7-9FBE-985D596A39E7}
  9
$EXTNAMES
290
     1
  9
$PSVPSCALE
 40
0.0
  9
$OLESTARTUP
290
     0
  0
ENDSEC
  0
SECTION
  2
CLASSES
  0
CLASS
  1
ACDBDICTIONARYWDFLT
  2
AcDbDictionaryWithDefault
  3
ObjectDBX Classes
 90
        0
280
     0
281
     0
  0
CLASS
  1
ACDBPLACEHOLDER
  2
AcDbPlaceHolder
  3
ObjectDBX Classes
 90
        0
280
     0
281
     0
  0
CLASS
  1
LAYOUT
  2
AcDbLayout
  3
ObjectDBX Classes
 90
        0
280
     0
281
     0
  0
CLASS
  1
DICTIONARYVAR
  2
AcDbDictionaryVar
  3
ObjectDBX Classes
 90
        0
280
     0
281
     0
  0
ENDSEC
  0
SECTION
  2
TABLES
  0
TABLE
  2
VPORT
  5
20
330
0
100
AcDbSymbolTable
 70
     2
  0
VPORT
  5
33C
330
20
100
AcDbSymbolTableRecord
100
AcDbViewportTableRecord
  2
*Active
 70
     0
 10
0.0
 20
0.0
 11
1.0
 21
1.0
 12
0.2282633848956799
 22
-4.742120034859141
 13
0.0
 23
0.0
 14
1.0
 24
1.0
 15
0.0
 25
0.0
 16
0.0
 26
0.0
 36
1.0
 17
0.0
 27
0.0
 37
0.0
 40
113.8932806324111
 41
1.548812664907651
 42
50.0
 43
0.0
 44
0.0
 50
0.0
 51
0.0
 71
     0
 72
 10000
 73
     1
 74
     0
 75
     0
 76
     1
 77
     0
 78
     0
281
     0
 65
     1
110
0.0
120
0.0
130
0.0
111
1.0
121
0.0
131
0.0
112
0.0
122
1.0
132
0.0
 79
     0
146
0.0
  0
ENDTAB
  0
TABLE
  2
LTYPE
  5
1B
330
0
100
AcDbSymbolTable
 70
     4
  0
LTYPE
  5
1C
330
1B
100
AcDbSymbolTableRecord
100
AcDbLinetypeTableRecord
  2
BYBLOCK
 70
     0
  3

 72
    65
 73
     0
 40
0.0
  0
LTYPE
  5
1D
330
1B
100
AcDbSymbolTableRecord
100
AcDbLinetypeTableRecord
  2
BYLAYER
 70
     0
  3

 72
    65
 73
     0
 40
0.0
  0
LTYPE
  5
A
330
1B
100
AcDbSymbolTableRecord
100
AcDbLinetypeTableRecord
  2
CONTINUOUS
 70
     0
  3
Solid line
 72
    65
 73
     0
 40
0.0
  0
LTYPE
  5
297
330
1B
100
AcDbSymbolTableRecord
100
AcDbLinetypeTableRecord
  2
Phantom
 70
     0
  3
Phantom
 72
    65
 73
     6
 40
45.0
 49
40.0
 74
     0
 49
-1.0
 74
     0
 49
1.0
 74
     0
 49
-1.0
 74
     0
 49
1.0
 74
     0
 49
-1.0
 74
     0
  0
LTYPE
  5
53
330
1B
100
AcDbSymbolTableRecord
100
AcDbLinetypeTableRecord
  2
S10
 70
     0
  3
- - - - - - - - - 1,-1,1,-1
 72
    65
 73
     4
 40
4.0
 49
1.0
 74
     0
 49
-1.0
 74
     0
 49
1.0
 74
     0
 49
-1.0
 74
     0
  0
LTYPE
  5
47
330
1B
100
AcDbSymbolTableRecord
100
AcDbLinetypeTableRecord
  2
HIDDEN2
 70
     0
  3
Hidden (.5x) _ _ _ _ _ _ _ _ _ _ _ _ _ _ _ _ _
 72
    65
 73
     2
 40
1.399999999999999
 49
0.7
 74
     0
 49
-0.7
 74
     0
  0
ENDTAB
  0
TABLE
  2
LAYER
  5
14
102
{ACAD_XDICTIONARY
360
15
102
}
330
0
100
AcDbSymbolTable
 70
     7
  0
LAYER
  5
6
330
14
100
AcDbSymbolTableRecord
100
AcDbLayerTableRecord
  2
0
 70
     0
 62
     7
  6
CONTINUOUS
370
    -3
390
7
  0
LAYER
  5
40
330
14
100
AcDbSymbolTableRecord
100
AcDbLayerTableRecord
  2
DEFPOINTS
 70
     0
 62
     7
  6
CONTINUOUS
290
     0
370
    -3
390
7
  0
LAYER
  5
2E9
330
14
100
AcDbSymbolTableRecord
100
AcDbLayerTableRecord
  2
WAKU
 70
     0
 62
     4
  6
CONTINUOUS
370
    -3
390
7
  0
LAYER
  5
35
330
14
100
AcDbSymbolTableRecord
100
AcDbLayerTableRecord
  2
MOJI1
 70
     0
 62
     2
  6
CONTINUOUS
370
    -3
390
7
  0
LAYER
  5
45
330
14
100
AcDbSymbolTableRecord
100
AcDbLayerTableRecord
  2
GAIKEI
 70
     0
 62
     7
  6
CONTINUOUS
370
    -3
390
7
  0
LAYER
  5
2DF
330
14
100
AcDbSymbolTableRecord
100
AcDbLayerTableRecord
  2
TOUROKU
 70
     0
 62
     1
  6
CONTINUOUS
370
    -3
390
7
  0
LAYER
  5
32
330
14
100
AcDbSymbolTableRecord
100
AcDbLayerTableRecord
  2
SUNPO
 70
     0
 62
     3
  6
CONTINUOUS
370
    -3
390
7
  0
ENDTAB
  0
TABLE
  2
STYLE
  5
18
330
0
100
AcDbSymbolTable
 70
     1
  0
STYLE
  5
19
330
18
100
AcDbSymbolTableRecord
100
AcDbTextStyleTableRecord
  2
STANDARD
 70
     0
 40
0.0
 41
1.0
 50
0.0
 71
     0
 42
3.0
  3
MONOTXT.shx
  4
BIGFONT.shx
  0
ENDTAB
  0
TABLE
  2
VIEW
  5
1E
330
0
100
AcDbSymbolTable
 70
     0
  0
ENDTAB
  0
TABLE
  2
UCS
  5
1F
330
0
100
AcDbSymbolTable
 70
     0
  0
ENDTAB
  0
TABLE
  2
APPID
  5
22
330
0
100
AcDbSymbolTable
 70
     1
  0
APPID
  5
23
330
22
100
AcDbSymbolTableRecord
100
AcDbRegAppTableRecord
  2
ACAD
 70
     0
  0
ENDTAB
  0
TABLE
  2
DIMSTYLE
  5
24
330
0
100
AcDbSymbolTable
 70
     1
100
AcDbDimStyleTable
 71
     1
340
25
  0
DIMSTYLE
105
25
102
{ACAD_REACTORS
330
247
330
23A
330
36
102
}
330
24
100
AcDbSymbolTableRecord
100
AcDbDimStyleTableRecord
  2
STANDARD
 70
     0
 40
0.0
 41
2.0
 42
2.0
 43
8.0
 44
2.0
 73
     0
 74
     0
 77
     3
140
3.0
141
0.0
173
     1
279
     2
288
     1
340
19
341
26
343
26
344
26
  0
ENDTAB
  0
TABLE
  2
BLOCK_RECORD
  5
1
330
0
100
AcDbSymbolTable
 70
     7
  0
BLOCK_RECORD
  5
2
102
{ACAD_XDICTIONARY
360
3
102
}
330
1
100
AcDbSymbolTableRecord
100
AcDbBlockTableRecord
  2
*MODEL_SPACE
340
C
  0
BLOCK_RECORD
  5
E
102
{ACAD_XDICTIONARY
360
F
102
}
330
1
100
AcDbSymbolTableRecord
100
AcDbBlockTableRecord
  2
*PAPER_SPACE
340
13
  0
BLOCK_RECORD
  5
26
330
1
100
AcDbSymbolTableRecord
100
AcDbBlockTableRecord
  2
_OPEN30
340
0
102
{BLKREFS
331
240
331
241
331
3C
331
3D
331
24D
331
24E
331
31C
331
31D
331
328
331
329
331
334
331
335
102
}
  0
BLOCK_RECORD
  5
248
330
1
100
AcDbSymbolTableRecord
100
AcDbBlockTableRecord
  2
*D1
340
0
  0
BLOCK_RECORD
  5
23B
330
1
100
AcDbSymbolTableRecord
100
AcDbBlockTableRecord
  2
*D2
340
0
  0
BLOCK_RECORD
  5
37
330
1
100
AcDbSymbolTableRecord
100
AcDbBlockTableRecord
  2
*D3
340
0
  0
BLOCK_RECORD
  5
318
330
1
100
AcDbSymbolTableRecord
100
AcDbBlockTableRecord
  2
*D4
340
0
  0
BLOCK_RECORD
  5
324
330
1
100
AcDbSymbolTableRecord
100
AcDbBlockTableRecord
  2
*D5
340
0
  0
BLOCK_RECORD
  5
330
330
1
100
AcDbSymbolTableRecord
100
AcDbBlockTableRecord
  2
*D6
340
0
  0
ENDTAB
  0
ENDSEC
  0
SECTION
  2
BLOCKS
  0
BLOCK
  5
5
330
2
100
AcDbEntity
  8
0
100
AcDbBlockBegin
  2
*MODEL_SPACE
 70
     0
 10
0.0
 20
0.0
 30
0.0
  3
*MODEL_SPACE
  1

  0
ENDBLK
  5
B
330
2
100
AcDbEntity
  8
0
100
AcDbBlockEnd
  0
BLOCK
  5
11
330
E
100
AcDbEntity
 67
     1
  8
0
100
AcDbBlockBegin
  2
*PAPER_SPACE
 70
     0
 10
0.0
 20
0.0
 30
0.0
  3
*PAPER_SPACE
  1

  0
ENDBLK
  5
12
330
E
100
AcDbEntity
 67
     1
  8
0
100
AcDbBlockEnd
  0
BLOCK
  5
27
330
26
100
AcDbEntity
  8
0
100
AcDbBlockBegin
  2
_OPEN30
 70
     0
 10
0.0
 20
0.0
 30
0.0
  3
_OPEN30
  1

  0
LINE
  5
28
330
26
100
AcDbEntity
  8
0
  6
ByBlock
 62
     0
100
AcDbLine
 10
-1.0
 20
0.26794919
 30
0.0
 11
0.0
 21
0.0
 31
0.0
  0
LINE
  5
29
330
26
100
AcDbEntity
  8
0
  6
ByBlock
 62
     0
100
AcDbLine
 10
0.0
 20
0.0
 30
0.0
 11
-1.0
 21
-0.26794919
 31
0.0
  0
LINE
  5
2A
330
26
100
AcDbEntity
  8
0
  6
ByBlock
 62
     0
100
AcDbLine
 10
0.0
 20
0.0
 30
0.0
 11
-1.0
 21
0.0
 31
0.0
  0
ENDBLK
  5
2B
330
26
100
AcDbEntity
  8
0
100
AcDbBlockEnd
  0
BLOCK
  5
249
330
248
100
AcDbEntity
  8
0
100
AcDbBlockBegin
  2
*D1
 70
     1
 10
0.0
 20
0.0
 30
0.0
  3
*D1
  1

  0
LINE
  5
24A
330
248
100
AcDbEntity
  8
SUNPO
 62
     0
370
    -2
100
AcDbLine
 10
23.12995948301008
 20
341.2826921980035
 30
0.0
 11
23.12995948301008
 21
349.2826921980035
 31
0.0
  0
LINE
  5
24B
330
248
100
AcDbEntity
  8
SUNPO
 62
     0
370
    -2
100
AcDbLine
 10
39.92995948300751
 20
341.2826921980035
 30
0.0
 11
39.92995948300751
 21
349.2826921980035
 31
0.0
  0
LINE
  5
24C
330
248
100
AcDbEntity
  8
SUNPO
 62
     0
370
    -2
100
AcDbLine
 10
25.12995948301008
 20
347.2826921980035
 30
0.0
 11
37.92995948300751
 21
347.2826921980035
 31
0.0
  0
INSERT
  5
24D
330
248
100
AcDbEntity
  8
SUNPO
 62
     0
370
    -2
100
AcDbBlockReference
  2
_OPEN30
 10
23.12995948301008
 20
347.2826921980035
 30
0.0
 41
2.0
 42
2.0
 43
2.0
 50
180.0
  0
INSERT
  5
24E
330
248
100
AcDbEntity
  8
SUNPO
 62
     0
370
    -2
100
AcDbBlockReference
  2
_OPEN30
 10
39.92995948300751
 20
347.2826921980035
 30
0.0
 41
2.0
 42
2.0
 43
2.0
  0
MTEXT
  5
24F
330
248
100
AcDbEntity
  8
SUNPO
 62
     0
100
AcDbMText
 10
31.5299594830088
 20
349.0326921980035
 30
0.0
 40
2.5
 41
0.0
 71
     5
 72
     1
  1
\A1;84
 73
     1
 44
1.0
1001
ACAD
1000
MTEXTBEGIN
1070
    73
1070
     1
1070
    44
1040
1.0
1070
    74
1070
     0
1000
MTEXTEND
  0
POINT
  5
250
330
248
100
AcDbEntity
  8
DEFPOINTS
 62
     0
100
AcDbPoint
 10
23.12995948301008
 20
339.2826921980035
 30
0.0
  0
POINT
  5
251
330
248
100
AcDbEntity
  8
DEFPOINTS
 62
     0
100
AcDbPoint
 10
39.92995948300751
 20
339.2826921980035
 30
0.0
  0
POINT
  5
252
330
248
100
AcDbEntity
  8
DEFPOINTS
 62
     0
100
AcDbPoint
 10
39.92995948300751
 20
347.2826921980035
 30
0.0
  0
ENDBLK
  5
253
330
248
100
AcDbEntity
  8
0
100
AcDbBlockEnd
  0
BLOCK
  5
23C
330
23B
100
AcDbEntity
  8
0
100
AcDbBlockBegin
  2
*D2
 70
     1
 10
0.0
 20
0.0
 30
0.0
  3
*D2
  1

  0
LINE
  5
23D
330
23B
100
AcDbEntity
  8
SUNPO
 62
     0
370
    -2
100
AcDbLine
 10
41.9299594830075
 20
339.2893926628391
 30
0.0
 11
49.92995948300752
 21
339.2893926628391
 31
0.0
  0
LINE
  5
23E
330
23B
100
AcDbEntity
  8
SUNPO
 62
     0
370
    -2
100
AcDbLine
 10
41.9299594830075
 20
322.6893919113163
 30
0.0
 11
49.92995948300751
 21
322.6893919113163
 31
0.0
  0
LINE
  5
23F
330
23B
100
AcDbEntity
  8
SUNPO
 62
     0
370
    -2
100
AcDbLine
 10
47.92995948300752
 20
337.2893926628391
 30
0.0
 11
47.92995948300751
 21
324.6893919113163
 31
0.0
  0
INSERT
  5
240
330
23B
100
AcDbEntity
  8
SUNPO
 62
     0
370
    -2
100
AcDbBlockReference
  2
_OPEN30
 10
47.92995948300752
 20
339.2893926628391
 30
0.0
 41
2.0
 42
2.0
 43
2.0
 50
90.0
  0
INSERT
  5
241
330
23B
100
AcDbEntity
  8
SUNPO
 62
     0
370
    -2
100
AcDbBlockReference
  2
_OPEN30
 10
47.92995948300751
 20
322.6893919113163
 30
0.0
 41
2.0
 42
2.0
 43
2.0
 50
270.0
  0
MTEXT
  5
242
330
23B
100
AcDbEntity
  8
SUNPO
 62
     0
100
AcDbMText
 10
46.17995948300746
 20
330.9893922870777
 30
0.0
 40
2.5
 41
0.0
 71
     5
 72
     1
  1
\A1;83
 11
0.0000000000000001
 21
1.0
 31
0.0
 73
     1
 44
1.0
1001
ACAD
1000
MTEXTBEGIN
1070
    73
1070
     1
1070
    44
1040
1.0
1070
    74
1070
     0
1000
MTEXTEND
  0
POINT
  5
243
330
23B
100
AcDbEntity
  8
DEFPOINTS
 62
     0
100
AcDbPoint
 10
39.92995948300751
 20
339.2893926628391
 30
0.0
  0
POINT
  5
244
330
23B
100
AcDbEntity
  8
DEFPOINTS
 62
     0
100
AcDbPoint
 10
39.92995948300751
 20
322.6893919113163
 30
0.0
  0
POINT
  5
245
330
23B
100
AcDbEntity
  8
DEFPOINTS
 62
     0
100
AcDbPoint
 10
47.92995948300751
 20
322.6893919113163
 30
0.0
  0
ENDBLK
  5
246
330
23B
100
AcDbEntity
  8
0
100
AcDbBlockEnd
  0
BLOCK
  5
38
330
37
100
AcDbEntity
  8
0
100
AcDbBlockBegin
  2
*D3
 70
     1
 10
0.0
 20
0.0
 30
0.0
  3
*D3
  1

  0
LINE
  5
39
330
37
100
AcDbEntity
  8
SUNPO
 62
     0
370
    -2
100
AcDbLine
 10
79.3107558834346
 20
341.2826921980035
 30
0.0
 11
79.3107558834346
 21
349.2826921980035
 31
0.0
  0
LINE
  5
3A
330
37
100
AcDbEntity
  8
SUNPO
 62
     0
370
    -2
100
AcDbLine
 10
118.8105520290876
 20
341.2826921980035
 30
0.0
 11
118.8105520290876
 21
349.2826921980035
 31
0.0
  0
LINE
  5
3B
330
37
100
AcDbEntity
  8
SUNPO
 62
     0
370
    -2
100
AcDbLine
 10
81.31075588343462
 20
347.2826921980035
 30
0.0
 11
116.8105520290876
 21
347.2826921980035
 31
0.0
  0
INSERT
  5
3C
330
37
100
AcDbEntity
  8
SUNPO
 62
     0
370
    -2
100
AcDbBlockReference
  2
_OPEN30
 10
79.3107558834346
 20
347.2826921980035
 30
0.0
 41
2.0
 42
2.0
 43
2.0
 50
180.0
  0
INSERT
  5
3D
330
37
100
AcDbEntity
  8
SUNPO
 62
     0
370
    -2
100
AcDbBlockReference
  2
_OPEN30
 10
118.8105520290876
 20
347.2826921980035
 30
0.0
 41
2.0
 42
2.0
 43
2.0
  0
MTEXT
  5
3E
330
37
100
AcDbEntity
  8
SUNPO
 62
     0
100
AcDbMText
 10
99.06065395626113
 20
349.0326921980035
 30
0.0
 40
2.5
 41
0.0
 71
     5
 72
     1
  1
\A1;197.5
 73
     1
 44
1.0
1001
ACAD
1000
MTEXTBEGIN
1070
    73
1070
     1
1070
    44
1040
1.0
1070
    74
1070
     0
1000
MTEXTEND
  0
POINT
  5
3F
330
37
100
AcDbEntity
  8
DEFPOINTS
 62
     0
100
AcDbPoint
 10
79.3107558834346
 20
339.2826921980035
 30
0.0
  0
POINT
  5
41
330
37
100
AcDbEntity
  8
DEFPOINTS
 62
     0
100
AcDbPoint
 10
118.8105520290876
 20
339.2826921980035
 30
0.0
  0
POINT
  5
42
330
37
100
AcDbEntity
  8
DEFPOINTS
 62
     0
100
AcDbPoint
 10
118.8105520290876
 20
347.2826921980035
 30
0.0
  0
ENDBLK
  5
43
330
37
100
AcDbEntity
  8
0
100
AcDbBlockEnd
  0
BLOCK
  5
322
330
318
100
AcDbEntity
  8
0
100
AcDbBlockBegin
  2
*D4
 70
     1
 10
0.0
 20
0.0
 30
0.0
  3
*D4
  1

  0
LINE
  5
319
330
318
100
AcDbEntity
  8
SUNPO
 62
     0
370
    -2
100
AcDbLine
 10
-41.14177713209423
 20
22.5413580235026
 30
0.0
 11
-41.14177713209423
 21
30.5413580235026
 31
0.0
  0
LINE
  5
31A
330
318
100
AcDbEntity
  8
SUNPO
 62
     0
370
    -2
100
AcDbLine
 10
-24.34177713209681
 20
22.5413580235026
 30
0.0
 11
-24.34177713209681
 21
30.5413580235026
 31
0.0
  0
LINE
  5
31B
330
318
100
AcDbEntity
  8
SUNPO
 62
     0
370
    -2
100
AcDbLine
 10
-39.14177713209424
 20
28.5413580235026
 30
0.0
 11
-26.34177713209681
 21
28.5413580235026
 31
0.0
  0
INSERT
  5
31C
330
318
100
AcDbEntity
  8
SUNPO
 62
     0
370
    -2
100
AcDbBlockReference
  2
_OPEN30
 10
-41.14177713209423
 20
28.5413580235026
 30
0.0
 41
2.0
 42
2.0
 43
2.0
 50
180.0
  0
INSERT
  5
31D
330
318
100
AcDbEntity
  8
SUNPO
 62
     0
370
    -2
100
AcDbBlockReference
  2
_OPEN30
 10
-24.34177713209681
 20
28.5413580235026
 30
0.0
 41
2.0
 42
2.0
 43
2.0
  0
MTEXT
  5
31E
330
318
100
AcDbEntity
  8
SUNPO
 62
     0
100
AcDbMText
 10
-32.74177713209552
 20
30.2913580235026
 30
0.0
 40
2.5
 41
0.0
 71
     5
 72
     1
  1
\A1;84
 73
     1
 44
1.0
1001
ACAD
1000
MTEXTBEGIN
1070
    73
1070
     1
1070
    44
1040
1.0
1070
    74
1070
     0
1000
MTEXTEND
  0
POINT
  5
31F
330
318
100
AcDbEntity
  8
DEFPOINTS
 62
     0
100
AcDbPoint
 10
-41.14177713209423
 20
20.5413580235026
 30
0.0
  0
POINT
  5
320
330
318
100
AcDbEntity
  8
DEFPOINTS
 62
     0
100
AcDbPoint
 10
-24.34177713209681
 20
20.5413580235026
 30
0.0
  0
POINT
  5
321
330
318
100
AcDbEntity
  8
DEFPOINTS
 62
     0
100
AcDbPoint
 10
-24.34177713209681
 20
28.5413580235026
 30
0.0
  0
ENDBLK
  5
323
330
318
100
AcDbEntity
  8
0
100
AcDbBlockEnd
  0
BLOCK
  5
32E
330
324
100
AcDbEntity
  8
0
100
AcDbBlockBegin
  2
*D5
 70
     1
 10
0.0
 20
0.0
 30
0.0
  3
*D5
  1

  0
LINE
  5
325
330
324
100
AcDbEntity
  8
SUNPO
 62
     0
370
    -2
100
AcDbLine
 10
-22.34177713209681
 20
20.5480584883382
 30
0.0
 11
-14.3417771320968
 21
20.5480584883382
 31
0.0
  0
LINE
  5
326
330
324
100
AcDbEntity
  8
SUNPO
 62
     0
370
    -2
100
AcDbLine
 10
-22.34177713209681
 20
3.948057736815428
 30
0.0
 11
-14.34177713209681
 21
3.948057736815425
 31
0.0
  0
LINE
  5
327
330
324
100
AcDbEntity
  8
SUNPO
 62
     0
370
    -2
100
AcDbLine
 10
-16.3417771320968
 20
18.54805848833819
 30
0.0
 11
-16.34177713209681
 21
5.948057736815426
 31
0.0
  0
INSERT
  5
328
330
324
100
AcDbEntity
  8
SUNPO
 62
     0
370
    -2
100
AcDbBlockReference
  2
_OPEN30
 10
-16.3417771320968
 20
20.5480584883382
 30
0.0
 41
2.0
 42
2.0
 43
2.0
 50
90.0
  0
INSERT
  5
329
330
324
100
AcDbEntity
  8
SUNPO
 62
     0
370
    -2
100
AcDbBlockReference
  2
_OPEN30
 10
-16.34177713209681
 20
3.948057736815426
 30
0.0
 41
2.0
 42
2.0
 43
2.0
 50
270.0
  0
MTEXT
  5
32A
330
324
100
AcDbEntity
  8
SUNPO
 62
     0
100
AcDbMText
 10
-18.09177713209681
 20
12.24805811257681
 30
0.0
 40
2.5
 41
0.0
 71
     5
 72
     1
  1
\A1;83
 11
0.0000000000000001
 21
1.0
 31
0.0
 73
     1
 44
1.0
1001
ACAD
1000
MTEXTBEGIN
1070
    73
1070
     1
1070
    44
1040
1.0
1070
    74
1070
     0
1000
MTEXTEND
  0
POINT
  5
32B
330
324
100
AcDbEntity
  8
DEFPOINTS
 62
     0
100
AcDbPoint
 10
-24.34177713209681
 20
20.5480584883382
 30
0.0
  0
POINT
  5
32C
330
324
100
AcDbEntity
  8
DEFPOINTS
 62
     0
100
AcDbPoint
 10
-24.34177713209681
 20
3.948057736815428
 30
0.0
  0
POINT
  5
32D
330
324
100
AcDbEntity
  8
DEFPOINTS
 62
     0
100
AcDbPoint
 10
-16.34177713209681
 20
3.948057736815426
 30
0.0
  0
ENDBLK
  5
32F
330
324
100
AcDbEntity
  8
0
100
AcDbBlockEnd
  0
BLOCK
  5
33A
330
330
100
AcDbEntity
  8
0
100
AcDbBlockBegin
  2
*D6
 70
     1
 10
0.0
 20
0.0
 30
0.0
  3
*D6
  1

  0
LINE
  5
331
330
330
100
AcDbEntity
  8
SUNPO
 62
     0
370
    -2
100
AcDbLine
 10
15.03901926833029
 20
22.5413580235026
 30
0.0
 11
15.03901926833029
 21
30.5413580235026
 31
0.0
  0
LINE
  5
332
330
330
100
AcDbEntity
  8
SUNPO
 62
     0
370
    -2
100
AcDbLine
 10
54.53881541398331
 20
22.5413580235026
 30
0.0
 11
54.53881541398331
 21
30.5413580235026
 31
0.0
  0
LINE
  5
333
330
330
100
AcDbEntity
  8
SUNPO
 62
     0
370
    -2
100
AcDbLine
 10
17.03901926833029
 20
28.5413580235026
 30
0.0
 11
52.53881541398332
 21
28.5413580235026
 31
0.0
  0
INSERT
  5
334
330
330
100
AcDbEntity
  8
SUNPO
 62
     0
370
    -2
100
AcDbBlockReference
  2
_OPEN30
 10
15.03901926833029
 20
28.5413580235026
 30
0.0
 41
2.0
 42
2.0
 43
2.0
 50
180.0
  0
INSERT
  5
335
330
330
100
AcDbEntity
  8
SUNPO
 62
     0
370
    -2
100
AcDbBlockReference
  2
_OPEN30
 10
54.53881541398331
 20
28.5413580235026
 30
0.0
 41
2.0
 42
2.0
 43
2.0
  0
MTEXT
  5
336
330
330
100
AcDbEntity
  8
SUNPO
 62
     0
100
AcDbMText
 10
34.78891734115681
 20
30.2913580235026
 30
0.0
 40
2.5
 41
0.0
 71
     5
 72
     1
  1
\A1;197.5
 73
     1
 44
1.0
1001
ACAD
1000
MTEXTBEGIN
1070
    73
1070
     1
1070
    44
1040
1.0
1070
    74
1070
     0
1000
MTEXTEND
  0
POINT
  5
337
330
330
100
AcDbEntity
  8
DEFPOINTS
 62
     0
100
AcDbPoint
 10
15.03901926833029
 20
20.5413580235026
 30
0.0
  0
POINT
  5
338
330
330
100
AcDbEntity
  8
DEFPOINTS
 62
     0
100
AcDbPoint
 10
54.53881541398331
 20
20.5413580235026
 30
0.0
  0
POINT
  5
339
330
330
100
AcDbEntity
  8
DEFPOINTS
 62
     0
100
AcDbPoint
 10
54.53881541398331
 20
28.5413580235026
 30
0.0
  0
ENDBLK
  5
33B
330
330
100
AcDbEntity
  8
0
100
AcDbBlockEnd
  0
ENDSEC
  0
SECTION
  2
ENTITIES
  0
TEXT
  5
34
330
2
100
AcDbEntity
  8
MOJI1
100
AcDbText
 10
-35.27173661510432
 20
47.75787996514083
 30
0.0
 40
4.0
  1
ネットワークカメラ（メガピクセル）
100
AcDbText
  0
DIMENSION
  5
36
330
2
100
AcDbEntity
  8
SUNPO
100
AcDbDimension
  2
*D6
 10
54.53881541398331
 20
28.5413580235026
 30
0.0
 11
34.78891734115681
 21
30.2913580235026
 31
0.0
 70
    33
  1
197.5
 71
     5
 42
39.49979614565302
  3
STANDARD
100
AcDbAlignedDimension
 13
15.03901926833029
 23
20.5413580235026
 33
0.0
 14
54.53881541398331
 24
20.5413580235026
 34
0.0
1001
ACAD
1000
DSTYLE
1002
{
1070
    40
1040
1.0
1070
   140
1040
2.5
1070
   147
1040
0.5
1070
   172
1070
     1
1070
   279
1070
     0
1070
   288
1070
     0
1070
   341
1005
0
1002
}
  0
ARC
  5
44
330
2
100
AcDbEntity
  8
GAIKEI
  6
Continuous
100
AcDbCircle
 10
-38.22293983906062
 20
4.748057736815439
 30
0.0
 40
0.8
100
AcDbArc
 50
259.9492941888135
 51
270.0
  0
LINE
  5
46
330
2
100
AcDbEntity
  8
GAIKEI
  6
HIDDEN2
 62
     1
100
AcDbLine
 10
-40.89954888437278
 20
7.864715294536495
 30
0.0
 11
-40.65162083981647
 21
7.916566917079762
 31
0.0
  0
LINE
  5
48
330
2
100
AcDbEntity
  8
GAIKEI
  6
HIDDEN2
 62
     1
100
AcDbLine
 10
-41.83541826899634
 20
7.668987755249418
 30
0.0
 11
-41.68312293854884
 21
7.700838770746997
 31
0.0
  0
LINE
  5
49
330
2
100
AcDbEntity
  8
GAIKEI
  6
HIDDEN2
 62
     1
100
AcDbLine
 10
-40.93621040494887
 20
9.362809343871219
 30
0.0
 11
-42.13713595151841
 21
9.111648010934686
 31
0.0
  0
LINE
  5
4A
330
2
100
AcDbEntity
  8
GAIKEI
  6
HIDDEN2
 62
     1
100
AcDbLine
 10
-42.13713595151841
 20
9.111648010934686
 30
0.0
 11
-41.83541826899634
 21
7.668987755249418
 31
0.0
  0
ARC
  5
4B
330
2
100
AcDbEntity
  8
GAIKEI
  6
Continuous
 62
     1
100
AcDbCircle
 10
-19.94500599477882
 20
13.01804951622523
 30
0.0
 40
20.7
100
AcDbArc
 50
200.7480688588697
 51
201.5585139883889
  0
ARC
  5
4C
330
2
100
AcDbEntity
  8
GAIKEI
  6
HIDDEN2
 62
     1
100
AcDbCircle
 10
-39.07028600680417
 20
7.677349968631119
 30
0.0
 40
2.0
100
AcDbArc
 50
272.2187195370537
 51
314.9999999999998
  0
ARC
  5
4D
330
2
100
AcDbEntity
  8
GAIKEI
  6
HIDDEN2
 62
     1
100
AcDbCircle
 10
-39.09596284922478
 20
8.340092257387766
 30
0.0
 40
2.663239505420146
100
AcDbArc
 50
233.865026912441
 51
272.2187195370537
  0
ARC
  5
4E
330
2
100
AcDbEntity
  8
GAIKEI
  6
HIDDEN2
 62
     1
100
AcDbCircle
 10
-39.09596284922478
 20
8.340092257387766
 30
0.0
 40
1.863239505420146
100
AcDbArc
 50
233.865026912441
 51
289.8633644857902
  0
ARC
  5
4F
330
2
100
AcDbEntity
  8
GAIKEI
  6
HIDDEN2
 62
     1
100
AcDbCircle
 10
-41.34171410881623
 20
8.56372249464988
 30
0.0
 40
0.4
100
AcDbArc
 50
353.5172037169405
 51
173.5172037169404
  0
ARC
  5
50
330
2
100
AcDbEntity
  8
GAIKEI
  6
HIDDEN2
 62
     1
100
AcDbCircle
 10
-39.13989988453614
 20
8.313527131013017
 30
0.0
 40
2.615983663799756
100
AcDbArc
 50
173.5172037169371
 51
237.9304954258884
  0
ARC
  5
51
330
2
100
AcDbEntity
  8
GAIKEI
  6
HIDDEN2
 62
     1
100
AcDbCircle
 10
-39.13989988453614
 20
8.313527131013017
 30
0.0
 40
1.815983663799756
100
AcDbArc
 50
173.5172037169371
 51
234.4903670925364
  0
LINE
  5
52
330
2
100
AcDbEntity
  8
GAIKEI
  6
S10
 62
     1
100
AcDbLine
 10
-41.7193015044007
 20
7.846517744208824
 30
0.0
 11
-41.71405909011366
 21
7.847614141703104
 31
0.0
  0
ARC
  5
54
330
2
100
AcDbEntity
  8
GAIKEI
  6
Continuous
 62
     1
100
AcDbCircle
 10
-38.29602450945319
 20
4.419467141982806
 30
0.0
 40
0.3
100
AcDbArc
 50
217.2875502362189
 51
270.0
  0
LINE
  5
55
330
2
100
AcDbEntity
  8
GAIKEI
  6
HIDDEN2
 62
     1
100
AcDbLine
 10
2.99536272093033
 20
11.31871837437484
 30
0.0
 11
2.995669638930309
 21
11.29841697377492
 31
0.0
  0
LINE
  5
56
330
2
100
AcDbEntity
  8
GAIKEI
  6
HIDDEN2
 62
     1
100
AcDbLine
 10
2.995669638930309
 20
11.92780685977482
 30
0.0
 11
2.99536272093033
 21
11.9075054591749
 31
0.0
  0
LINE
  5
57
330
2
100
AcDbEntity
  8
GAIKEI
  6
HIDDEN2
 62
     1
100
AcDbLine
 10
2.995669638930309
 20
11.29841697377492
 30
0.0
 11
2.995997368730314
 21
11.27811589837483
 31
0.0
  0
LINE
  5
58
330
2
100
AcDbEntity
  8
GAIKEI
  6
HIDDEN2
 62
     1
100
AcDbLine
 10
2.995997368730314
 20
11.9481079351749
 30
0.0
 11
2.995669638930309
 21
11.92780685977482
 31
0.0
  0
LINE
  5
59
330
2
100
AcDbEntity
  8
GAIKEI
  6
HIDDEN2
 62
     1
100
AcDbLine
 10
2.995997368730314
 20
11.27811589837483
 30
0.0
 11
2.996345939130321
 21
11.25781517017481
 31
0.0
  0
LINE
  5
5A
330
2
100
AcDbEntity
  8
GAIKEI
  6
HIDDEN2
 62
     1
100
AcDbLine
 10
2.996345939130321
 20
11.9684086633747
 30
0.0
 11
2.995997368730314
 21
11.9481079351749
 31
0.0
  0
LINE
  5
5B
330
2
100
AcDbEntity
  8
GAIKEI
  6
HIDDEN2
 62
     1
100
AcDbLine
 10
2.996345939130321
 20
11.25781517017481
 30
0.0
 11
2.996715342330304
 21
11.2375148103747
 31
0.0
  0
LINE
  5
5C
330
2
100
AcDbEntity
  8
GAIKEI
  6
HIDDEN2
 62
     1
100
AcDbLine
 10
2.996715342330304
 20
11.9887090231748
 30
0.0
 11
2.996345939130321
 21
11.9684086633747
 31
0.0
  0
LINE
  5
5D
330
2
100
AcDbEntity
  8
GAIKEI
  6
HIDDEN2
 62
     1
100
AcDbLine
 10
2.996715342330304
 20
11.2375148103747
 30
0.0
 11
2.997105636930314
 21
11.21721484137492
 31
0.0
  0
LINE
  5
5E
330
2
100
AcDbEntity
  8
GAIKEI
  6
HIDDEN2
 62
     1
100
AcDbLine
 10
2.997105636930314
 20
12.00900899217481
 30
0.0
 11
2.996715342330304
 21
11.9887090231748
 31
0.0
  0
LINE
  5
5F
330
2
100
AcDbEntity
  8
GAIKEI
  6
HIDDEN2
 62
     1
100
AcDbLine
 10
2.997105636930314
 20
11.21721484137492
 30
0.0
 11
2.997516915930333
 21
11.19691528657495
 31
0.0
  0
LINE
  5
60
330
2
100
AcDbEntity
  8
GAIKEI
  6
HIDDEN2
 62
     1
100
AcDbLine
 10
2.997516915930333
 20
12.02930854697479
 30
0.0
 11
2.997105636930314
 21
12.00900899217481
 31
0.0
  0
LINE
  5
61
330
2
100
AcDbEntity
  8
GAIKEI
  6
HIDDEN2
 62
     1
100
AcDbLine
 10
2.997516915930333
 20
11.19691528657495
 30
0.0
 11
2.997949284530307
 21
11.17661617017484
 31
0.0
  0
LINE
  5
62
330
2
100
AcDbEntity
  8
GAIKEI
  6
HIDDEN2
 62
     1
100
AcDbLine
 10
2.997949284530307
 20
12.04960766337467
 30
0.0
 11
2.997516915930333
 21
12.02930854697479
 31
0.0
  0
LINE
  5
63
330
2
100
AcDbEntity
  8
GAIKEI
  6
HIDDEN2
 62
     1
100
AcDbLine
 10
2.997949284530307
 20
11.17661617017484
 30
0.0
 11
2.998402850330336
 21
11.15631751617479
 31
0.0
  0
LINE
  5
64
330
2
100
AcDbEntity
  8
GAIKEI
  6
HIDDEN2
 62
     1
100
AcDbLine
 10
2.998402850330336
 20
12.06990631737471
 30
0.0
 11
2.997949284530307
 21
12.04960766337467
 31
0.0
  0
LINE
  5
65
330
2
100
AcDbEntity
  8
GAIKEI
  6
HIDDEN2
 62
     1
100
AcDbLine
 10
2.998402850330336
 20
11.15631751617479
 30
0.0
 11
2.998877703530325
 21
11.13601934917483
 31
0.0
  0
LINE
  5
66
330
2
100
AcDbEntity
  8
GAIKEI
  6
HIDDEN2
 62
     1
100
AcDbLine
 10
2.998877703530325
 20
12.09020448437491
 30
0.0
 11
2.998402850330336
 21
12.06990631737471
 31
0.0
  0
LINE
  5
67
330
2
100
AcDbEntity
  8
GAIKEI
  6
HIDDEN2
 62
     1
100
AcDbLine
 10
2.998877703530325
 20
11.13601934917483
 30
0.0
 11
2.999373919730288
 21
11.11572169297483
 31
0.0
  0
LINE
  5
68
330
2
100
AcDbEntity
  8
GAIKEI
  6
HIDDEN2
 62
     1
100
AcDbLine
 10
2.999373919730288
 20
12.11050214057491
 30
0.0
 11
2.998877703530325
 21
12.09020448437491
 31
0.0
  0
LINE
  5
69
330
2
100
AcDbEntity
  8
GAIKEI
  6
HIDDEN2
 62
     1
100
AcDbLine
 10
2.999373919730288
 20
11.11572169297483
 30
0.0
 11
2.999891532130305
 21
11.09542457117481
 31
0.0
  0
LINE
  5
6A
330
2
100
AcDbEntity
  8
GAIKEI
  6
HIDDEN2
 62
     1
100
AcDbLine
 10
2.99536272093033
 20
11.9075054591749
 30
0.0
 11
2.995076502730313
 21
11.88720375597472
 31
0.0
  0
LINE
  5
6B
330
2
100
AcDbEntity
  8
GAIKEI
  6
HIDDEN2
 62
     1
100
AcDbLine
 10
2.995076502730313
 20
11.33902007757479
 30
0.0
 11
2.99536272093033
 21
11.31871837437484
 31
0.0
  0
LINE
  5
6C
330
2
100
AcDbEntity
  8
GAIKEI
  6
HIDDEN2
 62
     1
100
AcDbLine
 10
2.995076502730313
 20
11.88720375597472
 30
0.0
 11
2.994810907530307
 21
11.86690177277478
 31
0.0
  0
LINE
  5
6D
330
2
100
AcDbEntity
  8
GAIKEI
  6
HIDDEN2
 62
     1
100
AcDbLine
 10
2.994810907530307
 20
11.35932206077473
 30
0.0
 11
2.995076502730313
 21
11.33902007757479
 31
0.0
  0
LINE
  5
6E
330
2
100
AcDbEntity
  8
GAIKEI
  6
HIDDEN2
 62
     1
100
AcDbLine
 10
2.994810907530307
 20
11.86690177277478
 30
0.0
 11
2.994565935530317
 21
11.8465995301749
 31
0.0
  0
LINE
  5
6F
330
2
100
AcDbEntity
  8
GAIKEI
  6
HIDDEN2
 62
     1
100
AcDbLine
 10
2.994565935530317
 20
11.37962430337484
 30
0.0
 11
2.994810907530307
 21
11.35932206077473
 31
0.0
  0
LINE
  5
70
330
2
100
AcDbEntity
  8
GAIKEI
  6
HIDDEN2
 62
     1
100
AcDbLine
 10
2.994565935530317
 20
11.8465995301749
 30
0.0
 11
2.994341569130313
 21
11.82629704937471
 31
0.0
  0
LINE
  5
71
330
2
100
AcDbEntity
  8
GAIKEI
  6
HIDDEN2
 62
     1
100
AcDbLine
 10
2.994341569130313
 20
11.39992678417479
 30
0.0
 11
2.994565935530317
 21
11.37962430337484
 31
0.0
  0
LINE
  5
72
330
2
100
AcDbEntity
  8
GAIKEI
  6
HIDDEN2
 62
     1
100
AcDbLine
 10
2.994341569130313
 20
11.82629704937471
 30
0.0
 11
2.994137750730288
 21
11.80599435197473
 31
0.0
  0
LINE
  5
73
330
2
100
AcDbEntity
  8
GAIKEI
  6
HIDDEN2
 62
     1
100
AcDbLine
 10
2.994137750730288
 20
11.42022948157478
 30
0.0
 11
2.994341569130313
 21
11.39992678417479
 31
0.0
  0
LINE
  5
74
330
2
100
AcDbEntity
  8
GAIKEI
  6
HIDDEN2
 62
     1
100
AcDbLine
 10
2.994137750730288
 20
11.80599435197473
 30
0.0
 11
2.9939544149303
 21
11.78569145917481
 31
0.0
  0
LINE
  5
75
330
2
100
AcDbEntity
  8
GAIKEI
  6
HIDDEN2
 62
     1
100
AcDbLine
 10
2.9939544149303
 20
11.4405323743747
 30
0.0
 11
2.994137750730288
 21
11.42022948157478
 31
0.0
  0
LINE
  5
76
330
2
100
AcDbEntity
  8
GAIKEI
  6
HIDDEN2
 62
     1
100
AcDbLine
 10
2.9939544149303
 20
11.78569145917481
 30
0.0
 11
2.993791492730309
 21
11.76538839217482
 31
0.0
  0
LINE
  5
77
330
2
100
AcDbEntity
  8
GAIKEI
  6
HIDDEN2
 62
     1
100
AcDbLine
 10
2.993791492730309
 20
11.46083544137468
 30
0.0
 11
2.9939544149303
 21
11.4405323743747
 31
0.0
  0
LINE
  5
78
330
2
100
AcDbEntity
  8
GAIKEI
  6
HIDDEN2
 62
     1
100
AcDbLine
 10
2.993791492730309
 20
11.76538839217482
 30
0.0
 11
2.993648956930314
 21
11.74508517197478
 31
0.0
  0
LINE
  5
79
330
2
100
AcDbEntity
  8
GAIKEI
  6
HIDDEN2
 62
     1
100
AcDbLine
 10
2.993648956930314
 20
11.48113866157496
 30
0.0
 11
2.993791492730309
 21
11.46083544137468
 31
0.0
  0
LINE
  5
7A
330
2
100
AcDbEntity
  8
GAIKEI
  6
HIDDEN2
 62
     1
100
AcDbLine
 10
2.993648956930314
 20
11.74508517197478
 30
0.0
 11
2.993526835730335
 21
11.7247818195749
 31
0.0
  0
LINE
  5
7B
330
2
100
AcDbEntity
  8
GAIKEI
  6
HIDDEN2
 62
     1
100
AcDbLine
 10
2.993526835730335
 20
11.50144201397484
 30
0.0
 11
2.993648956930314
 21
11.48113866157496
 31
0.0
  0
LINE
  5
7C
330
2
100
AcDbEntity
  8
GAIKEI
  6
HIDDEN2
 62
     1
100
AcDbLine
 10
2.993526835730335
 20
11.7247818195749
 30
0.0
 11
2.9934251219303
 21
11.70447835437471
 31
0.0
  0
LINE
  5
7D
330
2
100
AcDbEntity
  8
GAIKEI
  6
HIDDEN2
 62
     1
100
AcDbLine
 10
2.9934251219303
 20
11.52174547917479
 30
0.0
 11
2.993526835730335
 21
11.50144201397484
 31
0.0
  0
LINE
  5
7E
330
2
100
AcDbEntity
  8
GAIKEI
  6
HIDDEN2
 62
     1
100
AcDbLine
 10
2.9934251219303
 20
11.70447835437471
 30
0.0
 11
2.993343758330325
 21
11.68417479417485
 31
0.0
  0
LINE
  5
7F
330
2
100
AcDbEntity
  8
GAIKEI
  6
HIDDEN2
 62
     1
100
AcDbLine
 10
2.993343758330325
 20
11.54204903937466
 30
0.0
 11
2.9934251219303
 21
11.52174547917479
 31
0.0
  0
LINE
  5
80
330
2
100
AcDbEntity
  8
GAIKEI
  6
HIDDEN2
 62
     1
100
AcDbLine
 10
2.993343758330325
 20
11.68417479417485
 30
0.0
 11
2.993282738330321
 21
11.66387116337478
 31
0.0
  0
LINE
  5
81
330
2
100
AcDbEntity
  8
GAIKEI
  6
HIDDEN2
 62
     1
100
AcDbLine
 10
2.993282738330321
 20
11.56235267017496
 30
0.0
 11
2.993343758330325
 21
11.54204903937466
 31
0.0
  0
LINE
  5
82
330
2
100
AcDbEntity
  8
GAIKEI
  6
HIDDEN2
 62
     1
100
AcDbLine
 10
2.993282738330321
 20
11.66387116337478
 30
0.0
 11
2.993242113930307
 21
11.64356749477474
 31
0.0
  0
LINE
  5
83
330
2
100
AcDbEntity
  8
GAIKEI
  6
HIDDEN2
 62
     1
100
AcDbLine
 10
2.993242113930307
 20
11.58265633877477
 30
0.0
 11
2.993282738330321
 21
11.56235267017496
 31
0.0
  0
LINE
  5
84
330
2
100
AcDbEntity
  8
GAIKEI
  6
HIDDEN2
 62
     1
100
AcDbLine
 10
2.993242113930307
 20
11.64356749477474
 30
0.0
 11
2.993221832730313
 21
11.62326379117485
 31
0.0
  0
LINE
  5
85
330
2
100
AcDbEntity
  8
GAIKEI
  6
HIDDEN2
 62
     1
100
AcDbLine
 10
2.993221832730313
 20
11.60296004237466
 30
0.0
 11
2.993242113930307
 21
11.58265633877477
 31
0.0
  0
LINE
  5
86
330
2
100
AcDbEntity
  8
GAIKEI
  6
HIDDEN2
 62
     1
100
AcDbLine
 10
2.993221832730313
 20
11.62326379117485
 30
0.0
 11
2.993219268330307
 21
11.61311191677487
 31
0.0
  0
LINE
  5
87
330
2
100
AcDbEntity
  8
GAIKEI
  6
HIDDEN2
 62
     1
100
AcDbLine
 10
2.993219268330307
 20
11.61311191677487
 30
0.0
 11
2.993221832730313
 21
11.60296004237466
 31
0.0
  0
LINE
  5
88
330
2
100
AcDbEntity
  8
GAIKEI
  6
HIDDEN2
 62
     1
100
AcDbLine
 10
3.442630077330306
 20
5.953111916774787
 30
0.0
 11
3.502644616330314
 21
5.953111916774787
 31
0.0
  0
LINE
  5
89
330
2
100
AcDbEntity
  8
GAIKEI
  6
HIDDEN2
 62
     1
100
AcDbLine
 10
3.502644616330314
 20
17.27311191677495
 30
0.0
 11
3.442630077330306
 21
17.27311191677495
 31
0.0
  0
LINE
  5
8A
330
2
100
AcDbEntity
  8
GAIKEI
  6
HIDDEN2
 62
     1
100
AcDbLine
 10
3.442630077330306
 20
17.27311191677495
 30
0.0
 11
3.342630077330312
 21
17.17311191677481
 31
0.0
  0
LINE
  5
8B
330
2
100
AcDbEntity
  8
GAIKEI
  6
HIDDEN2
 62
     1
100
AcDbLine
 10
3.342630077330312
 20
6.053111916774696
 30
0.0
 11
3.442630077330306
 21
5.953111916774787
 31
0.0
  0
ARC
  5
8C
330
2
100
AcDbEntity
  8
GAIKEI
  6
HIDDEN2
 62
     1
100
AcDbCircle
 10
9.222644616330313
 20
5.713111916774778
 30
0.0
 40
0.1
100
AcDbArc
 50
270.0
 51
0.0
  0
ARC
  5
8D
330
2
100
AcDbEntity
  8
GAIKEI
  6
HIDDEN2
 62
     1
100
AcDbCircle
 10
9.222644616330313
 20
17.51311191677473
 30
0.0
 40
0.1
100
AcDbArc
 50
0.0
 51
90.0
  0
LINE
  5
8E
330
2
100
AcDbEntity
  8
GAIKEI
  6
HIDDEN2
 62
     1
100
AcDbLine
 10
3.642644616330301
 20
5.613111916774869
 30
0.0
 11
9.222644616330313
 21
5.613111916774869
 31
0.0
  0
LINE
  5
8F
330
2
100
AcDbEntity
  8
GAIKEI
  6
HIDDEN2
 62
     1
100
AcDbLine
 10
9.222644616330313
 20
17.61311191677487
 30
0.0
 11
3.642644616330301
 21
17.61311191677487
 31
0.0
  0
LINE
  5
90
330
2
100
AcDbEntity
  8
GAIKEI
  6
HIDDEN2
 62
     1
100
AcDbLine
 10
3.642644616330301
 20
17.61311191677487
 30
0.0
 11
3.502644616330314
 21
17.47311191677477
 31
0.0
  0
LINE
  5
91
330
2
100
AcDbEntity
  8
GAIKEI
  6
HIDDEN2
 62
     1
100
AcDbLine
 10
3.502644616330314
 20
5.753111916774741
 30
0.0
 11
3.642644616330301
 21
5.613111916774869
 31
0.0
  0
LINE
  5
92
330
2
100
AcDbEntity
  8
GAIKEI
  6
HIDDEN2
 62
     1
100
AcDbLine
 10
9.322644616330308
 20
5.773111916774951
 30
0.0
 11
9.411019268330306
 21
5.773111916774951
 31
0.0
  0
LINE
  5
93
330
2
100
AcDbEntity
  8
GAIKEI
  6
HIDDEN2
 62
     1
100
AcDbLine
 10
9.411019268330306
 20
17.45311191677479
 30
0.0
 11
9.322644616330308
 21
17.45311191677479
 31
0.0
  0
LINE
  5
94
330
2
100
AcDbEntity
  8
GAIKEI
  6
HIDDEN2
 62
     1
100
AcDbLine
 10
14.8390192683303
 20
17.61311191657478
 30
0.0
 11
9.511019268330301
 21
17.61311191657478
 31
0.0
  0
LINE
  5
95
330
2
100
AcDbEntity
  8
GAIKEI
  6
HIDDEN2
 62
     1
100
AcDbLine
 10
14.61517721153032
 20
5.613111916774869
 30
0.0
 11
14.8390192683303
 21
5.613111916774869
 31
0.0
  0
LINE
  5
96
330
2
100
AcDbEntity
  8
GAIKEI
  6
HIDDEN2
 62
     1
100
AcDbLine
 10
9.511019268330301
 20
5.613111916774869
 30
0.0
 11
14.1470034863303
 21
5.613111916774869
 31
0.0
  0
ARC
  5
97
330
2
100
AcDbEntity
  8
GAIKEI
  6
HIDDEN2
 62
     1
100
AcDbCircle
 10
9.511019268330301
 20
5.713111916774778
 30
0.0
 40
0.1
100
AcDbArc
 50
180.0
 51
270.0
  0
ARC
  5
98
330
2
100
AcDbEntity
  8
GAIKEI
  6
HIDDEN2
 62
     1
100
AcDbCircle
 10
9.511019268330301
 20
17.51311191657487
 30
0.0
 40
0.1
100
AcDbArc
 50
90.0
 51
180.0
  0
LINE
  5
99
330
2
100
AcDbEntity
  8
GAIKEI
  6
HIDDEN2
 62
     1
100
AcDbLine
 10
14.8390192683303
 20
5.613111916774869
 30
0.0
 11
14.93901926833032
 21
5.713111916774778
 31
0.0
  0
LINE
  5
9A
330
2
100
AcDbEntity
  8
GAIKEI
  6
HIDDEN2
 62
     1
100
AcDbLine
 10
14.93901926833032
 20
17.51311191657487
 30
0.0
 11
14.8390192683303
 21
17.61311191657478
 31
0.0
  0
LINE
  5
9B
330
2
100
AcDbEntity
  8
GAIKEI
  6
HIDDEN2
 62
     1
100
AcDbLine
 10
15.03901926833029
 20
14.51311191677473
 30
0.0
 11
14.93901926833032
 21
14.61311191677487
 31
0.0
  0
LINE
  5
9C
330
2
100
AcDbEntity
  8
GAIKEI
  6
HIDDEN2
 62
     1
100
AcDbLine
 10
13.78913303133029
 20
17.65217420917474
 30
0.0
 11
13.71561790073033
 21
17.70415725657494
 31
0.0
  0
LINE
  5
9D
330
2
100
AcDbEntity
  8
GAIKEI
  6
HIDDEN2
 62
     1
100
AcDbLine
 10
13.06242063593029
 20
17.70415725657494
 30
0.0
 11
13.00377126153029
 21
17.66268588617481
 31
0.0
  0
LINE
  5
9E
330
2
100
AcDbEntity
  8
GAIKEI
  6
HIDDEN2
 62
     1
100
AcDbLine
 10
3.33818703153031
 20
8.485078849974797
 30
0.0
 11
3.33818703153031
 21
14.74114498357494
 31
0.0
  0
LINE
  5
9F
330
2
100
AcDbEntity
  8
GAIKEI
  6
HIDDEN2
 62
     1
100
AcDbLine
 10
3.332417590730329
 20
8.50454564337474
 30
0.0
 11
3.332417590730329
 21
14.72167819017477
 31
0.0
  0
LINE
  5
A0
330
2
100
AcDbEntity
  8
GAIKEI
  6
HIDDEN2
 62
     1
100
AcDbLine
 10
3.326720437730301
 20
8.524033714774759
 30
0.0
 11
3.326720437730301
 21
14.70219011877475
 31
0.0
  0
LINE
  5
A1
330
2
100
AcDbEntity
  8
GAIKEI
  6
HIDDEN2
 62
     1
100
AcDbLine
 10
3.321094930330303
 20
8.543542587174897
 30
0.0
 11
3.321094930330303
 21
14.68268124637484
 31
0.0
  0
LINE
  5
A2
330
2
100
AcDbEntity
  8
GAIKEI
  6
HIDDEN2
 62
     1
100
AcDbLine
 10
3.315540446130313
 20
8.563071798774899
 30
0.0
 11
3.315540446130313
 21
14.66315203477484
 31
0.0
  0
LINE
  5
A3
330
2
100
AcDbEntity
  8
GAIKEI
  6
HIDDEN2
 62
     1
100
AcDbLine
 10
3.310056381730333
 20
8.582620901374866
 30
0.0
 11
3.310056381730333
 21
14.64360293217487
 31
0.0
  0
LINE
  5
A4
330
2
100
AcDbEntity
  8
GAIKEI
  6
HIDDEN2
 62
     1
100
AcDbLine
 10
3.304642125330303
 20
8.602189451774847
 30
0.0
 11
3.304642125330303
 21
14.62403438177489
 31
0.0
  0
LINE
  5
A5
330
2
100
AcDbEntity
  8
GAIKEI
  6
HIDDEN2
 62
     1
100
AcDbLine
 10
3.299297054730317
 20
8.621777012574739
 30
0.0
 11
3.299297054730317
 21
14.60444682097477
 31
0.0
  0
LINE
  5
A6
330
2
100
AcDbEntity
  8
GAIKEI
  6
HIDDEN2
 62
     1
100
AcDbLine
 10
3.294020548130305
 20
8.641383153374817
 30
0.0
 11
3.294020548130305
 21
14.58484068017492
 31
0.0
  0
LINE
  5
A7
330
2
100
AcDbEntity
  8
GAIKEI
  6
HIDDEN2
 62
     1
100
AcDbLine
 10
3.288811981930308
 20
8.661007451974683
 30
0.0
 11
3.288811981930308
 21
14.56521638157482
 31
0.0
  0
LINE
  5
A8
330
2
100
AcDbEntity
  8
GAIKEI
  6
HIDDEN2
 62
     1
100
AcDbLine
 10
3.2836707319303
 20
8.68064949257473
 30
0.0
 11
3.2836707319303
 21
14.54557434097478
 31
0.0
  0
LINE
  5
A9
330
2
100
AcDbEntity
  8
GAIKEI
  6
HIDDEN2
 62
     1
100
AcDbLine
 10
3.278596171130317
 20
8.700308867974854
 30
0.0
 11
3.278596171130317
 21
14.52591496557488
 31
0.0
  0
LINE
  5
AA
330
2
100
AcDbEntity
  8
GAIKEI
  6
HIDDEN2
 62
     1
100
AcDbLine
 10
3.27358767293029
 20
8.719985176174759
 30
0.0
 11
3.27358767293029
 21
14.50623865737475
 31
0.0
  0
LINE
  5
AB
330
2
100
AcDbEntity
  8
GAIKEI
  6
HIDDEN2
 62
     1
100
AcDbLine
 10
3.268644609530298
 20
8.739678024374825
 30
0.0
 11
3.268644609530298
 21
14.48654580917491
 31
0.0
  0
LINE
  5
AC
330
2
100
AcDbEntity
  8
GAIKEI
  6
HIDDEN2
 62
     1
100
AcDbLine
 10
3.263766353530314
 20
8.759387025374735
 30
0.0
 11
3.263766353530314
 21
14.46683680817477
 31
0.0
  0
LINE
  5
AD
330
2
100
AcDbEntity
  8
GAIKEI
  6
HIDDEN2
 62
     1
100
AcDbLine
 10
3.258952277530312
 20
8.779111800774899
 30
0.0
 11
3.258952277530312
 21
14.44711203277484
 31
0.0
  0
LINE
  5
AE
330
2
100
AcDbEntity
  8
GAIKEI
  6
HIDDEN2
 62
     1
100
AcDbLine
 10
3.254201755530317
 20
8.798851977974891
 30
0.0
 11
3.254201755530317
 21
14.42737185557485
 31
0.0
  0
LINE
  5
AF
330
2
100
AcDbEntity
  8
GAIKEI
  6
HIDDEN2
 62
     1
100
AcDbLine
 10
3.249514161930306
 20
8.818607192574972
 30
0.0
 11
3.249514161930306
 21
14.40761664097476
 31
0.0
  0
LINE
  5
B0
330
2
100
AcDbEntity
  8
GAIKEI
  6
HIDDEN2
 62
     1
100
AcDbLine
 10
3.244888873130321
 20
8.838377086574837
 30
0.0
 11
3.244888873130321
 21
14.38784674697467
 31
0.0
  0
LINE
  5
B1
330
2
100
AcDbEntity
  8
GAIKEI
  6
HIDDEN2
 62
     1
100
AcDbLine
 10
3.240325266730309
 20
8.858161309774686
 30
0.0
 11
3.240325266730309
 21
14.36806252377482
 31
0.0
  0
LINE
  5
B2
330
2
100
AcDbEntity
  8
GAIKEI
  6
HIDDEN2
 62
     1
100
AcDbLine
 10
3.235822723130326
 20
8.877959518174748
 30
0.0
 11
3.235822723130326
 21
14.34826431537476
 31
0.0
  0
LINE
  5
B3
330
2
100
AcDbEntity
  8
GAIKEI
  6
HIDDEN2
 62
     1
100
AcDbLine
 10
3.231380626130317
 20
8.897771376174887
 30
0.0
 11
3.231380626130317
 21
14.32845245737485
 31
0.0
  0
LINE
  5
B4
330
2
100
AcDbEntity
  8
GAIKEI
  6
HIDDEN2
 62
     1
100
AcDbLine
 10
3.226998360530302
 20
8.917596553574867
 30
0.0
 11
3.226998360530302
 21
14.30862727997487
 31
0.0
  0
LINE
  5
B5
330
2
100
AcDbEntity
  8
GAIKEI
  6
HIDDEN2
 62
     1
100
AcDbLine
 10
3.222675311930316
 20
8.937434727774871
 30
0.0
 11
3.222675311930316
 21
14.28878910577487
 31
0.0
  0
LINE
  5
B6
330
2
100
AcDbEntity
  8
GAIKEI
  6
HIDDEN2
 62
     1
100
AcDbLine
 10
3.218410873730306
 20
8.957285582374879
 30
0.0
 11
3.218410873730306
 21
14.26893825117486
 31
0.0
  0
LINE
  5
B7
330
2
100
AcDbEntity
  8
GAIKEI
  6
HIDDEN2
 62
     1
100
AcDbLine
 10
3.214204455930286
 20
8.977148812374707
 30
0.0
 11
3.214204455930286
 21
14.2490750211748
 31
0.0
  0
LINE
  5
B8
330
2
100
AcDbEntity
  8
GAIKEI
  6
HIDDEN2
 62
     1
100
AcDbLine
 10
3.210055453130308
 20
8.99702411357498
 30
0.0
 11
3.210055453130308
 21
14.22919971997476
 31
0.0
  0
LINE
  5
B9
330
2
100
AcDbEntity
  8
GAIKEI
  6
HIDDEN2
 62
     1
100
AcDbLine
 10
3.205963220130314
 20
9.01691118097483
 30
0.0
 11
3.205963220130314
 21
14.20931265257491
 31
0.0
  0
LINE
  5
BA
330
2
100
AcDbEntity
  8
GAIKEI
  6
HIDDEN2
 62
     1
100
AcDbLine
 10
3.201927143930305
 20
9.036809720374776
 30
0.0
 11
3.201927143930305
 21
14.18941411317496
 31
0.0
  0
LINE
  5
BB
330
2
100
AcDbEntity
  8
GAIKEI
  6
HIDDEN2
 62
     1
100
AcDbLine
 10
3.197946697930319
 20
9.056719462374758
 30
0.0
 11
3.197946697930319
 21
14.16950437117475
 31
0.0
  0
LINE
  5
BC
330
2
100
AcDbEntity
  8
GAIKEI
  6
HIDDEN2
 62
     1
100
AcDbLine
 10
3.194021330130311
 20
9.076640135774823
 30
0.0
 11
3.194021330130311
 21
14.14958369777491
 31
0.0
  0
LINE
  5
BD
330
2
100
AcDbEntity
  8
GAIKEI
  6
HIDDEN2
 62
     1
100
AcDbLine
 10
3.190150400130306
 20
9.096571458974722
 30
0.0
 11
3.190150400130306
 21
14.12965237457479
 31
0.0
  0
LINE
  5
BE
330
2
100
AcDbEntity
  8
GAIKEI
  6
HIDDEN2
 62
     1
100
AcDbLine
 10
3.186333269930315
 20
9.116513154374842
 30
0.0
 11
3.186333269930315
 21
14.10971067917489
 31
0.0
  0
LINE
  5
BF
330
2
100
AcDbEntity
  8
GAIKEI
  6
HIDDEN2
 62
     1
100
AcDbLine
 10
3.182569336730324
 20
9.136464958974784
 30
0.0
 11
3.182569336730324
 21
14.08975887457495
 31
0.0
  0
LINE
  5
C0
330
2
100
AcDbEntity
  8
GAIKEI
  6
HIDDEN2
 62
     1
100
AcDbLine
 10
3.178858036930307
 20
9.156426620574848
 30
0.0
 11
3.178858036930307
 21
14.06979721297489
 31
0.0
  0
LINE
  5
C1
330
2
100
AcDbEntity
  8
GAIKEI
  6
HIDDEN2
 62
     1
100
AcDbLine
 10
3.175198891930307
 20
9.176397907974887
 30
0.0
 11
3.175198891930307
 21
14.04982592557485
 31
0.0
  0
LINE
  5
C2
330
2
100
AcDbEntity
  8
GAIKEI
  6
HIDDEN2
 62
     1
100
AcDbLine
 10
3.171591379130319
 20
9.196378585774937
 30
0.0
 11
3.171591379130319
 21
14.0298452477748
 31
0.0
  0
LINE
  5
C3
330
2
100
AcDbEntity
  8
GAIKEI
  6
HIDDEN2
 62
     1
100
AcDbLine
 10
3.168034837930321
 20
9.216368399574776
 30
0.0
 11
3.168034837930321
 21
14.00985543397473
 31
0.0
  0
LINE
  5
C4
330
2
100
AcDbEntity
  8
GAIKEI
  6
HIDDEN2
 62
     1
100
AcDbLine
 10
3.164528647730321
 20
9.2363671055748
 30
0.0
 11
3.164528647730321
 21
13.98985672797471
 31
0.0
  0
LINE
  5
C5
330
2
100
AcDbEntity
  8
GAIKEI
  6
HIDDEN2
 62
     1
100
AcDbLine
 10
3.161072338330313
 20
9.256374492174927
 30
0.0
 11
3.161072338330313
 21
13.96984934137481
 31
0.0
  0
LINE
  5
C6
330
2
100
AcDbEntity
  8
GAIKEI
  6
HIDDEN2
 62
     1
100
AcDbLine
 10
3.157665410730288
 20
9.27639034637491
 30
0.0
 11
3.157665410730288
 21
13.94983348717483
 31
0.0
  0
LINE
  5
C7
330
2
100
AcDbEntity
  8
GAIKEI
  6
HIDDEN2
 62
     1
100
AcDbLine
 10
3.154307236730318
 20
9.296414437974817
 30
0.0
 11
3.154307236730318
 21
13.92980939557492
 31
0.0
  0
LINE
  5
C8
330
2
100
AcDbEntity
  8
GAIKEI
  6
HIDDEN2
 62
     1
100
AcDbLine
 10
3.150997226930286
 20
9.316446546974702
 30
0.0
 11
3.150997226930286
 21
13.90977728657481
 31
0.0
  0
LINE
  5
C9
330
2
100
AcDbEntity
  8
GAIKEI
  6
HIDDEN2
 62
     1
100
AcDbLine
 10
3.147734934730294
 20
9.336486481774727
 30
0.0
 11
3.147734934730294
 21
13.88973735177478
 31
0.0
  0
LINE
  5
CA
330
2
100
AcDbEntity
  8
GAIKEI
  6
HIDDEN2
 62
     1
100
AcDbLine
 10
3.144519894730308
 20
9.356534051174776
 30
0.0
 11
3.144519894730308
 21
13.86968978237473
 31
0.0
  0
LINE
  5
CB
330
2
100
AcDbEntity
  8
GAIKEI
  6
HIDDEN2
 62
     1
100
AcDbLine
 10
3.141351542330312
 20
9.376589052174722
 30
0.0
 11
3.141351542330312
 21
13.84963478137479
 31
0.0
  0
LINE
  5
CC
330
2
100
AcDbEntity
  8
GAIKEI
  6
HIDDEN2
 62
     1
100
AcDbLine
 10
3.138229312730317
 20
9.396651284774861
 30
0.0
 11
3.138229312730317
 21
13.82957254877488
 31
0.0
  0
LINE
  5
CD
330
2
100
AcDbEntity
  8
GAIKEI
  6
HIDDEN2
 62
     1
100
AcDbLine
 10
3.135152677130321
 20
9.41672055977483
 30
0.0
 11
3.135152677130321
 21
13.80950327377491
 31
0.0
  0
LINE
  5
CE
330
2
100
AcDbEntity
  8
GAIKEI
  6
HIDDEN2
 62
     1
100
AcDbLine
 10
3.132121121130325
 20
9.436796693374844
 30
0.0
 11
3.132121121130325
 21
13.78942714017489
 31
0.0
  0
LINE
  5
CF
330
2
100
AcDbEntity
  8
GAIKEI
  6
HIDDEN2
 62
     1
100
AcDbLine
 10
3.129134154930312
 20
9.456879509374857
 30
0.0
 11
3.129134154930312
 21
13.76934432417488
 31
0.0
  0
LINE
  5
D0
330
2
100
AcDbEntity
  8
GAIKEI
  6
HIDDEN2
 62
     1
100
AcDbLine
 10
3.126191305930319
 20
9.47696883697472
 30
0.0
 11
3.126191305930319
 21
13.74925499657479
 31
0.0
  0
LINE
  5
D1
330
2
100
AcDbEntity
  8
GAIKEI
  6
HIDDEN2
 62
     1
100
AcDbLine
 10
3.123292133930306
 20
9.49706451417478
 30
0.0
 11
3.123292133930306
 21
13.72915931937473
 31
0.0
  0
LINE
  5
D2
330
2
100
AcDbEntity
  8
GAIKEI
  6
HIDDEN2
 62
     1
100
AcDbLine
 10
3.120436166930318
 20
9.517166376774866
 30
0.0
 11
3.120436166930318
 21
13.70905745677487
 31
0.0
  0
LINE
  5
D3
330
2
100
AcDbEntity
  8
GAIKEI
  6
HIDDEN2
 62
     1
100
AcDbLine
 10
3.117622852130295
 20
9.537274252974839
 30
0.0
 11
3.117622852130295
 21
13.6889495805749
 31
0.0
  0
LINE
  5
D4
330
2
100
AcDbEntity
  8
GAIKEI
  6
HIDDEN2
 62
     1
100
AcDbLine
 10
3.114851663130309
 20
9.557387977374901
 30
0.0
 11
3.114851663130309
 21
13.66883585617484
 31
0.0
  0
LINE
  5
D5
330
2
100
AcDbEntity
  8
GAIKEI
  6
HIDDEN2
 62
     1
100
AcDbLine
 10
3.112122154530311
 20
9.57750740037477
 30
0.0
 11
3.112122154530311
 21
13.64871643317497
 31
0.0
  0
LINE
  5
D6
330
2
100
AcDbEntity
  8
GAIKEI
  6
HIDDEN2
 62
     1
100
AcDbLine
 10
3.109433899530301
 20
9.597632376574892
 30
0.0
 11
3.109433899530301
 21
13.62859145697484
 31
0.0
  0
LINE
  5
D7
330
2
100
AcDbEntity
  8
GAIKEI
  6
HIDDEN2
 62
     1
100
AcDbLine
 10
3.106786489330289
 20
9.617762766574969
 30
0.0
 11
3.106786489330289
 21
13.60846106697477
 31
0.0
  0
LINE
  5
D8
330
2
100
AcDbEntity
  8
GAIKEI
  6
HIDDEN2
 62
     1
100
AcDbLine
 10
3.104179480730323
 20
9.637898428174821
 30
0.0
 11
3.104179480730323
 21
13.58832540537491
 31
0.0
  0
LINE
  5
D9
330
2
100
AcDbEntity
  8
GAIKEI
  6
HIDDEN2
 62
     1
100
AcDbLine
 10
3.101612355930313
 20
9.658039213374877
 30
0.0
 11
3.101612355930313
 21
13.56818462017486
 31
0.0
  0
LINE
  5
DA
330
2
100
AcDbEntity
  8
GAIKEI
  6
HIDDEN2
 62
     1
100
AcDbLine
 10
3.099084627330313
 20
9.678184980574997
 30
0.0
 11
3.099084627330313
 21
13.54803885297474
 31
0.0
  0
LINE
  5
DB
330
2
100
AcDbEntity
  8
GAIKEI
  6
HIDDEN2
 62
     1
100
AcDbLine
 10
3.096595883930319
 20
9.698335600774726
 30
0.0
 11
3.096595883930319
 21
13.52788823277478
 31
0.0
  0
LINE
  5
DC
330
2
100
AcDbEntity
  8
GAIKEI
  6
HIDDEN2
 62
     1
100
AcDbLine
 10
3.094145739130311
 20
9.718490950574732
 30
0.0
 11
3.094145739130311
 21
13.50773288297478
 31
0.0
  0
LINE
  5
DD
330
2
100
AcDbEntity
  8
GAIKEI
  6
HIDDEN2
 62
     1
100
AcDbLine
 10
3.091733835930313
 20
9.7386509119749
 30
0.0
 11
3.091733835930313
 21
13.48757292157484
 31
0.0
  0
LINE
  5
DE
330
2
100
AcDbEntity
  8
GAIKEI
  6
HIDDEN2
 62
     1
100
AcDbLine
 10
3.089359756730317
 20
9.758815362374889
 30
0.0
 11
3.089359756730317
 21
13.46740847117485
 31
0.0
  0
LINE
  5
DF
330
2
100
AcDbEntity
  8
GAIKEI
  6
HIDDEN2
 62
     1
100
AcDbLine
 10
3.087022967730291
 20
9.778984168174929
 30
0.0
 11
3.087022967730291
 21
13.44723966537481
 31
0.0
  0
LINE
  5
E0
330
2
100
AcDbEntity
  8
GAIKEI
  6
HIDDEN2
 62
     1
100
AcDbLine
 10
3.084723008730321
 20
9.799157206774907
 30
0.0
 11
3.084723008730321
 21
13.42706662677483
 31
0.0
  0
LINE
  5
E1
330
2
100
AcDbEntity
  8
GAIKEI
  6
HIDDEN2
 62
     1
100
AcDbLine
 10
3.082459568730314
 20
9.819334375174776
 30
0.0
 11
3.082459568730314
 21
13.40688945837473
 31
0.0
  0
LINE
  5
E2
330
2
100
AcDbEntity
  8
GAIKEI
  6
HIDDEN2
 62
     1
100
AcDbLine
 10
3.080232325930325
 20
9.839515571374704
 30
0.0
 11
3.080232325930325
 21
13.3867082621748
 31
0.0
  0
LINE
  5
E3
330
2
100
AcDbEntity
  8
GAIKEI
  6
HIDDEN2
 62
     1
100
AcDbLine
 10
3.078040916730316
 20
9.859700689574992
 30
0.0
 11
3.078040916730316
 21
13.36652314397474
 31
0.0
  0
LINE
  5
E4
330
2
100
AcDbEntity
  8
GAIKEI
  6
HIDDEN2
 62
     1
100
AcDbLine
 10
3.075884923130303
 20
9.879889621174925
 30
0.0
 11
3.075884923130303
 21
13.34633421237481
 31
0.0
  0
LINE
  5
E5
330
2
100
AcDbEntity
  8
GAIKEI
  6
HIDDEN2
 62
     1
100
AcDbLine
 10
3.073763850530298
 20
9.900082251574758
 30
0.0
 11
3.073763850530298
 21
13.32614158197475
 31
0.0
  0
LINE
  5
E6
330
2
100
AcDbEntity
  8
GAIKEI
  6
HIDDEN2
 62
     1
100
AcDbLine
 10
3.071677309130336
 20
9.920278478974751
 30
0.0
 11
3.071677309130336
 21
13.30594535457499
 31
0.0
  0
LINE
  5
E7
330
2
100
AcDbEntity
  8
GAIKEI
  6
HIDDEN2
 62
     1
100
AcDbLine
 10
3.069625073530318
 20
9.940478220774821
 30
0.0
 11
3.069625073530318
 21
13.28574561277469
 31
0.0
  0
LINE
  5
E8
330
2
100
AcDbEntity
  8
GAIKEI
  6
HIDDEN2
 62
     1
100
AcDbLine
 10
3.067606817730307
 20
9.960681386174883
 30
0.0
 11
3.067606817730307
 21
13.26554244737485
 31
0.0
  0
LINE
  5
E9
330
2
100
AcDbEntity
  8
GAIKEI
  6
HIDDEN2
 62
     1
100
AcDbLine
 10
3.065622053730322
 20
9.980887869174921
 30
0.0
 11
3.065622053730322
 21
13.24533596437482
 31
0.0
  0
LINE
  5
EA
330
2
100
AcDbEntity
  8
GAIKEI
  6
HIDDEN2
 62
     1
100
AcDbLine
 10
3.063670384130318
 20
10.00109757517475
 30
0.0
 11
3.063670384130318
 21
13.22512625837475
 31
0.0
  0
LINE
  5
EB
330
2
100
AcDbEntity
  8
GAIKEI
  6
HIDDEN2
 62
     1
100
AcDbLine
 10
3.06175154913032
 20
10.0213104249749
 30
0.0
 11
3.06175154913032
 21
13.20491340857484
 31
0.0
  0
LINE
  5
EC
330
2
100
AcDbEntity
  8
GAIKEI
  6
HIDDEN2
 62
     1
100
AcDbLine
 10
3.059865247130318
 20
10.04152633657486
 30
0.0
 11
3.059865247130318
 21
13.18469749697465
 31
0.0
  0
LINE
  5
ED
330
2
100
AcDbEntity
  8
GAIKEI
  6
HIDDEN2
 62
     1
100
AcDbLine
 10
3.058011111130326
 20
10.06174522377478
 30
0.0
 11
3.058011111130326
 21
13.16447860977473
 31
0.0
  0
LINE
  5
EE
330
2
100
AcDbEntity
  8
GAIKEI
  6
HIDDEN2
 62
     1
100
AcDbLine
 10
3.056188802330325
 20
10.08196700417488
 30
0.0
 11
3.056188802330325
 21
13.14425682937485
 31
0.0
  0
LINE
  5
EF
330
2
100
AcDbEntity
  8
GAIKEI
  6
HIDDEN2
 62
     1
100
AcDbLine
 10
3.054398021530317
 20
10.10219160077486
 30
0.0
 11
3.054398021530317
 21
13.12403223277488
 31
0.0
  0
LINE
  5
F0
330
2
100
AcDbEntity
  8
GAIKEI
  6
HIDDEN2
 62
     1
100
AcDbLine
 10
3.052638454930303
 20
10.12241893677469
 30
0.0
 11
3.052638454930303
 21
13.10380489677482
 31
0.0
  0
LINE
  5
F1
330
2
100
AcDbEntity
  8
GAIKEI
  6
HIDDEN2
 62
     1
100
AcDbLine
 10
3.050909770130317
 20
10.14264893537483
 30
0.0
 11
3.050909770130317
 21
13.0835748981749
 31
0.0
  0
LINE
  5
F2
330
2
100
AcDbEntity
  8
GAIKEI
  6
HIDDEN2
 62
     1
100
AcDbLine
 10
3.049211664130325
 20
10.16288152377478
 30
0.0
 11
3.049211664130325
 21
13.06334230977495
 31
0.0
  0
LINE
  5
F3
330
2
100
AcDbEntity
  8
GAIKEI
  6
HIDDEN2
 62
     1
100
AcDbLine
 10
3.047543865130307
 20
10.18311663257486
 30
0.0
 11
3.047543865130307
 21
13.04310720097487
 31
0.0
  0
LINE
  5
F4
330
2
100
AcDbEntity
  8
GAIKEI
  6
HIDDEN2
 62
     1
100
AcDbLine
 10
3.045906064530299
 20
10.20335419137473
 30
0.0
 11
3.045906064530299
 21
13.02286964217478
 31
0.0
  0
LINE
  5
F5
330
2
100
AcDbEntity
  8
GAIKEI
  6
HIDDEN2
 62
     1
100
AcDbLine
 10
3.044297917930322
 20
10.22359412837477
 30
0.0
 11
3.044297917930322
 21
13.00262970517474
 31
0.0
  0
LINE
  5
F6
330
2
100
AcDbEntity
  8
GAIKEI
  6
HIDDEN2
 62
     1
100
AcDbLine
 10
3.042719122330311
 20
10.2438363755748
 30
0.0
 11
3.042719122330311
 21
12.98238745797471
 31
0.0
  0
LINE
  5
F7
330
2
100
AcDbEntity
  8
GAIKEI
  6
HIDDEN2
 62
     1
100
AcDbLine
 10
3.041169417530312
 20
10.26408087077493
 30
0.0
 11
3.041169417530312
 21
12.9621429627748
 31
0.0
  0
LINE
  5
F8
330
2
100
AcDbEntity
  8
GAIKEI
  6
HIDDEN2
 62
     1
100
AcDbLine
 10
3.039648557130306
 20
10.28432755317476
 30
0.0
 11
3.039648557130306
 21
12.94189628037475
 31
0.0
  0
LINE
  5
F9
330
2
100
AcDbEntity
  8
GAIKEI
  6
HIDDEN2
 62
     1
100
AcDbLine
 10
3.038156305130314
 20
10.30457636417486
 30
0.0
 11
3.038156305130314
 21
12.92164746937487
 31
0.0
  0
LINE
  5
FA
330
2
100
AcDbEntity
  8
GAIKEI
  6
HIDDEN2
 62
     1
100
AcDbLine
 10
3.036692403930317
 20
10.32482724437477
 30
0.0
 11
3.036692403930317
 21
12.90139658917474
 31
0.0
  0
LINE
  5
FB
330
2
100
AcDbEntity
  8
GAIKEI
  6
HIDDEN2
 62
     1
100
AcDbLine
 10
3.03525657673029
 20
10.34508013437471
 30
0.0
 11
3.03525657673029
 21
12.8811436991748
 31
0.0
  0
LINE
  5
FC
330
2
100
AcDbEntity
  8
GAIKEI
  6
HIDDEN2
 62
     1
100
AcDbLine
 10
3.033848536730317
 20
10.36533497517484
 30
0.0
 11
3.033848536730317
 21
12.86088885837466
 31
0.0
  0
LINE
  5
FD
330
2
100
AcDbEntity
  8
GAIKEI
  6
HIDDEN2
 62
     1
100
AcDbLine
 10
3.032467994330318
 20
10.38559170857479
 30
0.0
 11
3.032467994330318
 21
12.84063212497472
 31
0.0
  0
LINE
  5
FE
330
2
100
AcDbEntity
  8
GAIKEI
  6
HIDDEN2
 62
     1
100
AcDbLine
 10
3.031114716930318
 20
10.40585028177474
 30
0.0
 11
3.031114716930318
 21
12.82037355177476
 31
0.0
  0
LINE
  5
FF
330
2
100
AcDbEntity
  8
GAIKEI
  6
HIDDEN2
 62
     1
100
AcDbLine
 10
3.029788509730309
 20
10.42611064477478
 30
0.0
 11
3.029788509730309
 21
12.80011318877473
 31
0.0
  0
LINE
  5
100
330
2
100
AcDbEntity
  8
GAIKEI
  6
HIDDEN2
 62
     1
100
AcDbLine
 10
3.028489124930302
 20
10.44637274577485
 30
0.0
 11
3.028489124930302
 21
12.77985108777488
 31
0.0
  0
LINE
  5
101
330
2
100
AcDbEntity
  8
GAIKEI
  6
HIDDEN2
 62
     1
100
AcDbLine
 10
3.027216282730307
 20
10.46663653137489
 30
0.0
 11
3.027216282730307
 21
12.75958730217485
 31
0.0
  0
LINE
  5
102
330
2
100
AcDbEntity
  8
GAIKEI
  6
HIDDEN2
 62
     1
100
AcDbLine
 10
3.025969773130327
 20
10.4869019537748
 30
0.0
 11
3.025969773130327
 21
12.73932187977493
 31
0.0
  0
LINE
  5
103
330
2
100
AcDbEntity
  8
GAIKEI
  6
HIDDEN2
 62
     1
100
AcDbLine
 10
3.024749426930299
 20
10.50716896857489
 30
0.0
 11
3.024749426930299
 21
12.71905486497485
 31
0.0
  0
LINE
  5
104
330
2
100
AcDbEntity
  8
GAIKEI
  6
HIDDEN2
 62
     1
100
AcDbLine
 10
3.023555023930299
 20
10.52743752857486
 30
0.0
 11
3.023555023930299
 21
12.69878630497464
 31
0.0
  0
LINE
  5
105
330
2
100
AcDbEntity
  8
GAIKEI
  6
HIDDEN2
 62
     1
100
AcDbLine
 10
3.022386316930294
 20
10.54770758657491
 30
0.0
 11
3.022386316930294
 21
12.67851624697482
 31
0.0
  0
LINE
  5
106
330
2
100
AcDbEntity
  8
GAIKEI
  6
HIDDEN2
 62
     1
100
AcDbLine
 10
3.021243100130305
 20
10.56797909797478
 30
0.0
 11
3.021243100130305
 21
12.65824473557495
 31
0.0
  0
LINE
  5
107
330
2
100
AcDbEntity
  8
GAIKEI
  6
HIDDEN2
 62
     1
100
AcDbLine
 10
3.020125187530311
 20
10.58825202037474
 30
0.0
 11
3.020125187530311
 21
12.63797181317477
 31
0.0
  0
LINE
  5
108
330
2
100
AcDbEntity
  8
GAIKEI
  6
HIDDEN2
 62
     1
100
AcDbLine
 10
3.019032371930308
 20
10.60852631137481
 30
0.0
 11
3.019032371930308
 21
12.61769752217492
 31
0.0
  0
LINE
  5
109
330
2
100
AcDbEntity
  8
GAIKEI
  6
HIDDEN2
 62
     1
100
AcDbLine
 10
3.01796444073031
 20
10.62880192817488
 30
0.0
 11
3.01796444073031
 21
12.59742190537486
 31
0.0
  0
LINE
  5
10A
330
2
100
AcDbEntity
  8
GAIKEI
  6
HIDDEN2
 62
     1
100
AcDbLine
 10
3.016921223530317
 20
10.6490788315748
 30
0.0
 11
3.016921223530317
 21
12.57714500197471
 31
0.0
  0
LINE
  5
10B
330
2
100
AcDbEntity
  8
GAIKEI
  6
HIDDEN2
 62
     1
100
AcDbLine
 10
3.01590256313031
 20
10.66935698317479
 30
0.0
 11
3.01590256313031
 21
12.55686685037472
 31
0.0
  0
LINE
  5
10C
330
2
100
AcDbEntity
  8
GAIKEI
  6
HIDDEN2
 62
     1
100
AcDbLine
 10
3.014908246930332
 20
10.68963634317492
 30
0.0
 11
3.014908246930332
 21
12.53658749037481
 31
0.0
  0
LINE
  5
10D
330
2
100
AcDbEntity
  8
GAIKEI
  6
HIDDEN2
 62
     1
100
AcDbLine
 10
3.013938049130302
 20
10.70991687137484
 30
0.0
 11
3.013938049130302
 21
12.51630696217489
 31
0.0
  0
LINE
  5
10E
330
2
100
AcDbEntity
  8
GAIKEI
  6
HIDDEN2
 62
     1
100
AcDbLine
 10
3.012991823530313
 20
10.73019853197479
 30
0.0
 11
3.012991823530313
 21
12.49602530157494
 31
0.0
  0
LINE
  5
10F
330
2
100
AcDbEntity
  8
GAIKEI
  6
HIDDEN2
 62
     1
100
AcDbLine
 10
3.012069446330315
 20
10.75048129117476
 30
0.0
 11
3.012069446330315
 21
12.47574254237475
 31
0.0
  0
LINE
  5
110
330
2
100
AcDbEntity
  8
GAIKEI
  6
HIDDEN2
 62
     1
100
AcDbLine
 10
3.011170728330313
 20
10.77076511257496
 30
0.0
 11
3.011170728330313
 21
12.45545872097477
 31
0.0
  0
LINE
  5
111
330
2
100
AcDbEntity
  8
GAIKEI
  6
HIDDEN2
 62
     1
100
AcDbLine
 10
3.010295469330316
 20
10.79104995957482
 30
0.0
 11
3.010295469330316
 21
12.43517387397469
 31
0.0
  0
LINE
  5
112
330
2
100
AcDbEntity
  8
GAIKEI
  6
HIDDEN2
 62
     1
100
AcDbLine
 10
3.009443547930317
 20
10.81133579997481
 30
0.0
 11
3.009443547930317
 21
12.41488803357492
 31
0.0
  0
LINE
  5
113
330
2
100
AcDbEntity
  8
GAIKEI
  6
HIDDEN2
 62
     1
100
AcDbLine
 10
3.0086148613303
 20
10.8316226029749
 30
0.0
 11
3.0086148613303
 21
12.39460123057483
 31
0.0
  0
LINE
  5
114
330
2
100
AcDbEntity
  8
GAIKEI
  6
HIDDEN2
 62
     1
100
AcDbLine
 10
3.007809259930297
 20
10.85191033557498
 30
0.0
 11
3.007809259930297
 21
12.37431349797475
 31
0.0
  0
LINE
  5
115
330
2
100
AcDbEntity
  8
GAIKEI
  6
HIDDEN2
 62
     1
100
AcDbLine
 10
3.007026579730336
 20
10.87219896557485
 30
0.0
 11
3.007026579730336
 21
12.35402486797488
 31
0.0
  0
LINE
  5
116
330
2
100
AcDbEntity
  8
GAIKEI
  6
HIDDEN2
 62
     1
100
AcDbLine
 10
3.006266659930304
 20
10.89248846057489
 30
0.0
 11
3.006266659930304
 21
12.33373537297484
 31
0.0
  0
LINE
  5
117
330
2
100
AcDbEntity
  8
GAIKEI
  6
HIDDEN2
 62
     1
100
AcDbLine
 10
3.005529348530302
 20
10.91277878977485
 30
0.0
 11
3.005529348530302
 21
12.31344504377489
 31
0.0
  0
LINE
  5
118
330
2
100
AcDbEntity
  8
GAIKEI
  6
HIDDEN2
 62
     1
100
AcDbLine
 10
3.004814524530303
 20
10.93306992357497
 30
0.0
 11
3.004814524530303
 21
12.29315390997476
 31
0.0
  0
LINE
  5
119
330
2
100
AcDbEntity
  8
GAIKEI
  6
HIDDEN2
 62
     1
100
AcDbLine
 10
3.004122069130318
 20
10.95336183297468
 30
0.0
 11
3.004122069130318
 21
12.27286200057483
 31
0.0
  0
LINE
  5
11A
330
2
100
AcDbEntity
  8
GAIKEI
  6
HIDDEN2
 62
     1
100
AcDbLine
 10
3.003451836330299
 20
10.97365448857476
 30
0.0
 11
3.003451836330299
 21
12.25256934497474
 31
0.0
  0
LINE
  5
11B
330
2
100
AcDbEntity
  8
GAIKEI
  6
HIDDEN2
 62
     1
100
AcDbLine
 10
3.002803693530296
 20
10.99394786177481
 30
0.0
 11
3.002803693530296
 21
12.23227597177469
 31
0.0
  0
LINE
  5
11C
330
2
100
AcDbEntity
  8
GAIKEI
  6
HIDDEN2
 62
     1
100
AcDbLine
 10
3.002177584730304
 20
11.01424192657487
 30
0.0
 11
3.002177584730304
 21
12.21198190697464
 31
0.0
  0
LINE
  5
11D
330
2
100
AcDbEntity
  8
GAIKEI
  6
HIDDEN2
 62
     1
100
AcDbLine
 10
3.001573450330312
 20
11.03453665757479
 30
0.0
 11
3.001573450330312
 21
12.19168717597472
 31
0.0
  0
LINE
  5
11E
330
2
100
AcDbEntity
  8
GAIKEI
  6
HIDDEN2
 62
     1
100
AcDbLine
 10
3.000991161530322
 20
11.05483202697473
 30
0.0
 11
3.000991161530322
 21
12.171391806575
 31
0.0
  0
LINE
  5
11F
330
2
100
AcDbEntity
  8
GAIKEI
  6
HIDDEN2
 62
     1
100
AcDbLine
 10
3.000430572530319
 20
11.07512800717472
 30
0.0
 11
3.000430572530319
 21
12.15109582637478
 31
0.0
  0
LINE
  5
120
330
2
100
AcDbEntity
  8
GAIKEI
  6
HIDDEN2
 62
     1
100
AcDbLine
 10
2.999891532130305
 20
11.09542457117481
 30
0.0
 11
2.999891532130305
 21
12.13079926237492
 31
0.0
  0
LINE
  5
121
330
2
100
AcDbEntity
  8
GAIKEI
  6
HIDDEN2
 62
     1
100
AcDbLine
 10
2.999373919730288
 20
11.11572169297483
 30
0.0
 11
2.999373919730288
 21
12.11050214057491
 31
0.0
  0
LINE
  5
122
330
2
100
AcDbEntity
  8
GAIKEI
  6
HIDDEN2
 62
     1
100
AcDbLine
 10
2.998877703530325
 20
11.13601934917483
 30
0.0
 11
2.998877703530325
 21
12.09020448437491
 31
0.0
  0
LINE
  5
123
330
2
100
AcDbEntity
  8
GAIKEI
  6
HIDDEN2
 62
     1
100
AcDbLine
 10
2.998402850330336
 20
11.15631751617479
 30
0.0
 11
2.998402850330336
 21
12.06990631737471
 31
0.0
  0
LINE
  5
124
330
2
100
AcDbEntity
  8
GAIKEI
  6
HIDDEN2
 62
     1
100
AcDbLine
 10
2.997949284530307
 20
11.17661617017484
 30
0.0
 11
2.997949284530307
 21
12.04960766337467
 31
0.0
  0
LINE
  5
125
330
2
100
AcDbEntity
  8
GAIKEI
  6
HIDDEN2
 62
     1
100
AcDbLine
 10
2.997516915930333
 20
11.19691528657495
 30
0.0
 11
2.997516915930333
 21
12.02930854697479
 31
0.0
  0
LINE
  5
126
330
2
100
AcDbEntity
  8
GAIKEI
  6
HIDDEN2
 62
     1
100
AcDbLine
 10
2.997105636930314
 20
11.21721484137492
 30
0.0
 11
2.997105636930314
 21
12.00900899217481
 31
0.0
  0
LINE
  5
127
330
2
100
AcDbEntity
  8
GAIKEI
  6
HIDDEN2
 62
     1
100
AcDbLine
 10
2.996715342330304
 20
11.2375148103747
 30
0.0
 11
2.996715342330304
 21
11.9887090231748
 31
0.0
  0
LINE
  5
128
330
2
100
AcDbEntity
  8
GAIKEI
  6
HIDDEN2
 62
     1
100
AcDbLine
 10
2.996345939130321
 20
11.25781517017481
 30
0.0
 11
2.996345939130321
 21
11.9684086633747
 31
0.0
  0
LINE
  5
129
330
2
100
AcDbEntity
  8
GAIKEI
  6
HIDDEN2
 62
     1
100
AcDbLine
 10
2.995997368730314
 20
11.27811589837483
 30
0.0
 11
2.995997368730314
 21
11.9481079351749
 31
0.0
  0
LINE
  5
12A
330
2
100
AcDbEntity
  8
GAIKEI
  6
HIDDEN2
 62
     1
100
AcDbLine
 10
2.995669638930309
 20
11.29841697377492
 30
0.0
 11
2.995669638930309
 21
11.92780685977482
 31
0.0
  0
LINE
  5
12B
330
2
100
AcDbEntity
  8
GAIKEI
  6
HIDDEN2
 62
     1
100
AcDbLine
 10
2.99536272093033
 20
11.31871837437484
 30
0.0
 11
2.99536272093033
 21
11.9075054591749
 31
0.0
  0
LINE
  5
12C
330
2
100
AcDbEntity
  8
GAIKEI
  6
HIDDEN2
 62
     1
100
AcDbLine
 10
2.995076502730313
 20
11.33902007757479
 30
0.0
 11
2.995076502730313
 21
11.88720375597472
 31
0.0
  0
LINE
  5
12D
330
2
100
AcDbEntity
  8
GAIKEI
  6
HIDDEN2
 62
     1
100
AcDbLine
 10
2.994810907530307
 20
11.35932206077473
 30
0.0
 11
2.994810907530307
 21
11.86690177277478
 31
0.0
  0
LINE
  5
12E
330
2
100
AcDbEntity
  8
GAIKEI
  6
HIDDEN2
 62
     1
100
AcDbLine
 10
2.994565935530317
 20
11.37962430337484
 30
0.0
 11
2.994565935530317
 21
11.8465995301749
 31
0.0
  0
LINE
  5
12F
330
2
100
AcDbEntity
  8
GAIKEI
  6
HIDDEN2
 62
     1
100
AcDbLine
 10
2.994341569130313
 20
11.39992678417479
 30
0.0
 11
2.994341569130313
 21
11.82629704937471
 31
0.0
  0
LINE
  5
130
330
2
100
AcDbEntity
  8
GAIKEI
  6
HIDDEN2
 62
     1
100
AcDbLine
 10
2.994137750730288
 20
11.42022948157478
 30
0.0
 11
2.994137750730288
 21
11.80599435197473
 31
0.0
  0
LINE
  5
131
330
2
100
AcDbEntity
  8
GAIKEI
  6
HIDDEN2
 62
     1
100
AcDbLine
 10
2.9939544149303
 20
11.4405323743747
 30
0.0
 11
2.9939544149303
 21
11.78569145917481
 31
0.0
  0
LINE
  5
132
330
2
100
AcDbEntity
  8
GAIKEI
  6
HIDDEN2
 62
     1
100
AcDbLine
 10
2.993791492730309
 20
11.46083544137468
 30
0.0
 11
2.993791492730309
 21
11.76538839217482
 31
0.0
  0
LINE
  5
133
330
2
100
AcDbEntity
  8
GAIKEI
  6
HIDDEN2
 62
     1
100
AcDbLine
 10
2.993648956930314
 20
11.48113866157496
 30
0.0
 11
2.993648956930314
 21
11.74508517197478
 31
0.0
  0
LINE
  5
134
330
2
100
AcDbEntity
  8
GAIKEI
  6
HIDDEN2
 62
     1
100
AcDbLine
 10
2.993526835730335
 20
11.50144201397484
 30
0.0
 11
2.993526835730335
 21
11.7247818195749
 31
0.0
  0
LINE
  5
135
330
2
100
AcDbEntity
  8
GAIKEI
  6
HIDDEN2
 62
     1
100
AcDbLine
 10
2.9934251219303
 20
11.52174547917479
 30
0.0
 11
2.9934251219303
 21
11.70447835437471
 31
0.0
  0
LINE
  5
136
330
2
100
AcDbEntity
  8
GAIKEI
  6
HIDDEN2
 62
     1
100
AcDbLine
 10
2.993343758330325
 20
11.54204903937466
 30
0.0
 11
2.993343758330325
 21
11.68417479417485
 31
0.0
  0
LINE
  5
137
330
2
100
AcDbEntity
  8
GAIKEI
  6
HIDDEN2
 62
     1
100
AcDbLine
 10
2.993282738330321
 20
11.56235267017496
 30
0.0
 11
2.993282738330321
 21
11.66387116337478
 31
0.0
  0
LINE
  5
138
330
2
100
AcDbEntity
  8
GAIKEI
  6
HIDDEN2
 62
     1
100
AcDbLine
 10
2.993242113930307
 20
11.58265633877477
 30
0.0
 11
2.993242113930307
 21
11.64356749477474
 31
0.0
  0
LINE
  5
139
330
2
100
AcDbEntity
  8
GAIKEI
  6
HIDDEN2
 62
     1
100
AcDbLine
 10
2.993221832730313
 20
11.60296004237466
 30
0.0
 11
2.993221832730313
 21
11.62326379117485
 31
0.0
  0
LINE
  5
13A
330
2
100
AcDbEntity
  8
GAIKEI
  6
HIDDEN2
 62
     1
100
AcDbLine
 10
3.442630077330306
 20
6.711408131174948
 30
0.0
 11
3.442630077330306
 21
17.27311191677495
 31
0.0
  0
LINE
  5
13B
330
2
100
AcDbEntity
  8
GAIKEI
  6
HIDDEN2
 62
     1
100
AcDbLine
 10
3.442630077330306
 20
5.953111916774787
 30
0.0
 11
3.442630077330306
 21
6.711408131174948
 31
0.0
  0
LINE
  5
13C
330
2
100
AcDbEntity
  8
GAIKEI
  6
HIDDEN2
 62
     1
100
AcDbLine
 10
3.342630077330312
 20
6.798010671574957
 30
0.0
 11
3.342630077330312
 21
17.17311191677481
 31
0.0
  0
LINE
  5
13D
330
2
100
AcDbEntity
  8
GAIKEI
  6
HIDDEN2
 62
     1
100
AcDbLine
 10
3.342630077330312
 20
6.053111916774696
 30
0.0
 11
3.342630077330312
 21
6.798010671574957
 31
0.0
  0
LINE
  5
13E
330
2
100
AcDbEntity
  8
GAIKEI
  6
HIDDEN2
 62
     1
100
AcDbLine
 10
9.322644616330308
 20
5.713111916774778
 30
0.0
 11
9.322644616330308
 21
17.51311191677473
 31
0.0
  0
LINE
  5
13F
330
2
100
AcDbEntity
  8
GAIKEI
  6
HIDDEN2
 62
     1
100
AcDbLine
 10
3.642644616330301
 20
5.613111916774869
 30
0.0
 11
3.642644616330301
 21
17.61311191677487
 31
0.0
  0
LINE
  5
140
330
2
100
AcDbEntity
  8
GAIKEI
  6
HIDDEN2
 62
     1
100
AcDbLine
 10
3.502644616330314
 20
5.753111916774741
 30
0.0
 11
3.502644616330314
 21
17.47311191677477
 31
0.0
  0
LWPOLYLINE
  5
141
330
2
100
AcDbEntity
  8
GAIKEI
  6
HIDDEN2
 62
     1
100
AcDbPolyline
 90
       11
 70
     0
 43
0.0
 10
14.64101926833032
 20
5.614025745774824
 10
14.62637879173027
 20
5.61614342357484
 10
14.5841150921303
 20
5.619054926374928
 10
14.5189467369303
 20
5.621921001174769
 10
14.43819075413031
 20
5.623814843174841
 10
14.35103166633033
 20
5.624093214574941
 10
14.2673101887303
 20
5.622663300374824
 10
14.19637129313034
 20
5.620012623374805
 10
14.14618821213034
 20
5.617011216174887
 10
14.12248372373031
 20
5.614569948374764
 10
14.12419338013032
 20
5.614165362774883
  0
LWPOLYLINE
  5
142
330
2
100
AcDbEntity
  8
GAIKEI
  6
HIDDEN2
 62
     1
100
AcDbPolyline
 90
       10
 70
     0
 43
0.0
 10
14.12792581513028
 20
5.613282092174813
 10
14.16184985513033
 20
5.61321497637482
 10
14.2204718687303
 20
5.613942405574789
 10
14.29723837853029
 20
5.614779910374863
 10
14.38343582393028
 20
5.615122950974864
 10
14.46929232193028
 20
5.614742948174807
 10
14.54520278893031
 20
5.613894709574879
 10
14.60267200313032
 20
5.613193018174797
 10
14.63516824753034
 20
5.613319175774904
 10
14.64101926833032
 20
5.614025745774824
  0
LINE
  5
143
330
2
100
AcDbEntity
  8
GAIKEI
  6
HIDDEN2
 62
     1
100
AcDbLine
 10
14.8390192683303
 20
5.613111916774869
 30
0.0
 11
14.8390192683303
 21
17.61311191657478
 31
0.0
  0
LWPOLYLINE
  5
144
330
2
100
AcDbEntity
  8
GAIKEI
  6
HIDDEN2
 62
     1
100
AcDbPolyline
 90
       20
 70
     0
 43
0.0
 10
14.64101926833032
 20
8.613111916774869
 10
14.62637879173027
 20
8.699127637774836
 10
14.5841150921303
 20
8.775445173774869
 10
14.5189467369303
 20
8.833511584174857
 10
14.43819075413031
 20
8.866748312374738
 10
14.35103166633033
 20
8.871376787974668
 10
14.2673101887303
 20
8.846928608174721
 10
14.19637129313034
 20
8.796155969374694
 10
14.14618821213034
 20
8.724711088174899
 10
14.12248372373031
 20
8.64066862497475
 10
14.12792581513028
 20
8.553582899174898
 10
14.16184985513033
 20
8.473237800774768
 10
14.2204718687303
 20
8.408601446374859
 10
14.29723837853029
 20
8.3669803207747
 10
14.38343582393028
 20
8.353123147174756
 10
14.46929232193028
 20
8.368555444574894
 10
14.54520278893031
 20
8.411508911774717
 10
14.60267200313032
 20
8.47720729897469
 10
14.63516824753034
 20
8.558263977974775
 10
14.64101926833032
 20
8.613111916774869
  0
LINE
  5
145
330
2
100
AcDbEntity
  8
GAIKEI
  6
HIDDEN2
 62
     1
100
AcDbLine
 10
9.411019268330306
 20
5.713111916774778
 30
0.0
 11
9.411019268330306
 21
17.51311191657487
 31
0.0
  0
LINE
  5
146
330
2
100
AcDbEntity
  8
GAIKEI
  6
HIDDEN2
 62
     1
100
AcDbLine
 10
14.93901926833032
 20
17.51311191657487
 30
0.0
 11
14.93901926833032
 21
5.713111916774778
 31
0.0
  0
LINE
  5
147
330
2
100
AcDbEntity
  8
GAIKEI
  6
HIDDEN2
 62
     1
100
AcDbLine
 10
15.03901926833029
 20
12.57321774277488
 30
0.0
 11
15.03901926833029
 21
8.763217742774713
 31
0.0
  0
LINE
  5
148
330
2
100
AcDbEntity
  8
GAIKEI
  6
HIDDEN2
 62
     1
100
AcDbLine
 10
15.03901926833029
 20
8.763217742774713
 30
0.0
 11
14.93901926833032
 21
8.68814868197478
 31
0.0
  0
LINE
  5
149
330
2
100
AcDbEntity
  8
GAIKEI
  6
HIDDEN2
 62
     1
100
AcDbLine
 10
14.93901926833032
 20
12.49814868197473
 30
0.0
 11
15.03901926833029
 21
12.57321774277488
 31
0.0
  0
LINE
  5
14A
330
2
100
AcDbEntity
  8
GAIKEI
  6
HIDDEN2
 62
     1
100
AcDbLine
 10
14.93901926833032
 20
12.88311191677485
 30
0.0
 11
15.03901926833029
 21
12.88311191677485
 31
0.0
  0
LINE
  5
14B
330
2
100
AcDbEntity
  8
GAIKEI
  6
HIDDEN2
 62
     1
100
AcDbLine
 10
15.03901926833029
 20
12.57321774277488
 30
0.0
 11
15.03901926833029
 21
12.88311191677485
 31
0.0
  0
LINE
  5
14C
330
2
100
AcDbEntity
  8
GAIKEI
  6
HIDDEN2
 62
     1
100
AcDbLine
 10
15.03901926833029
 20
12.88311191677485
 30
0.0
 11
15.03901926833029
 21
13.50290026457492
 31
0.0
  0
LINE
  5
14D
330
2
100
AcDbEntity
  8
GAIKEI
  6
HIDDEN2
 62
     1
100
AcDbLine
 10
15.03901926833029
 20
13.50290026457492
 30
0.0
 11
14.93901926833032
 21
13.65303838597469
 31
0.0
  0
LINE
  5
14E
330
2
100
AcDbEntity
  8
GAIKEI
  6
HIDDEN2
 62
     1
100
AcDbLine
 10
15.03901926833029
 20
14.51311191677473
 30
0.0
 11
15.03901926833029
 21
13.50290026457492
 31
0.0
  0
LINE
  5
14F
330
2
100
AcDbEntity
  8
GAIKEI
  6
HIDDEN2
 62
     1
100
AcDbLine
 10
13.42511065533031
 20
17.61311191657478
 30
0.0
 11
13.42511065533031
 21
17.76284923837488
 31
0.0
  0
LINE
  5
150
330
2
100
AcDbEntity
  8
GAIKEI
  6
HIDDEN2
 62
     1
100
AcDbLine
 10
13.36212300613033
 20
17.61311191657478
 30
0.0
 11
13.36212300613033
 21
17.75172269597465
 31
0.0
  0
LINE
  5
151
330
2
100
AcDbEntity
  8
GAIKEI
  6
HIDDEN2
 62
     1
100
AcDbLine
 10
13.42511065533031
 20
17.76284923837488
 30
0.0
 11
13.36212300613033
 21
17.75172269597465
 31
0.0
  0
LINE
  5
152
330
2
100
AcDbEntity
  8
GAIKEI
  6
HIDDEN2
 62
     1
100
AcDbLine
 10
13.49226162913032
 20
17.61311191657478
 30
0.0
 11
13.49226162913032
 21
17.74669711857496
 31
0.0
  0
LINE
  5
153
330
2
100
AcDbEntity
  8
GAIKEI
  6
HIDDEN2
 62
     1
100
AcDbLine
 10
13.49226162913032
 20
17.74669711857496
 30
0.0
 11
13.42511065533031
 21
17.76284923837488
 31
0.0
  0
LINE
  5
154
330
2
100
AcDbEntity
  8
GAIKEI
  6
HIDDEN2
 62
     1
100
AcDbLine
 10
13.3029352753303
 20
17.61311191657478
 30
0.0
 11
13.3029352753303
 21
17.75955841257496
 31
0.0
  0
LINE
  5
155
330
2
100
AcDbEntity
  8
GAIKEI
  6
HIDDEN2
 62
     1
100
AcDbLine
 10
13.23381731913031
 20
17.61311191657478
 30
0.0
 11
13.23381731913031
 21
17.73973585377484
 31
0.0
  0
LINE
  5
156
330
2
100
AcDbEntity
  8
GAIKEI
  6
HIDDEN2
 62
     1
100
AcDbLine
 10
13.3029352753303
 20
17.75955841257496
 30
0.0
 11
13.23381731913031
 21
17.73973585377484
 31
0.0
  0
LWPOLYLINE
  5
157
330
2
100
AcDbEntity
  8
GAIKEI
  6
HIDDEN2
 62
     1
100
AcDbPolyline
 90
        3
 70
     0
 43
0.0
 10
13.36212300613033
 20
17.75172269597465
 10
13.34606017273032
 20
17.75454830057492
 10
13.3029352753303
 20
17.75955841257496
  0
LINE
  5
158
330
2
100
AcDbEntity
  8
GAIKEI
  6
HIDDEN2
 62
     1
100
AcDbLine
 10
13.54482646693031
 20
17.61311191657478
 30
0.0
 11
13.54482646693031
 21
17.75021727437479
 31
0.0
  0
LINE
  5
159
330
2
100
AcDbEntity
  8
GAIKEI
  6
HIDDEN2
 62
     1
100
AcDbLine
 10
13.54482646693031
 20
17.75021727437479
 30
0.0
 11
13.49226162913032
 21
17.74669711857496
 31
0.0
  0
LINE
  5
15A
330
2
100
AcDbEntity
  8
GAIKEI
  6
HIDDEN2
 62
     1
100
AcDbLine
 10
13.61536445553031
 20
17.61311191657478
 30
0.0
 11
13.61536445553031
 21
17.72500160657478
 31
0.0
  0
LINE
  5
15B
330
2
100
AcDbEntity
  8
GAIKEI
  6
HIDDEN2
 62
     1
100
AcDbLine
 10
13.61536445553031
 20
17.72500160657478
 30
0.0
 11
13.54482646693031
 21
17.75021727437479
 31
0.0
  0
LINE
  5
15C
330
2
100
AcDbEntity
  8
GAIKEI
  6
HIDDEN2
 62
     1
100
AcDbLine
 10
13.18662637713032
 20
17.61311191657478
 30
0.0
 11
13.18662637713032
 21
17.74056906157489
 31
0.0
  0
LINE
  5
15D
330
2
100
AcDbEntity
  8
GAIKEI
  6
HIDDEN2
 62
     1
100
AcDbLine
 10
13.23381731913031
 20
17.73973585377484
 30
0.0
 11
13.18662637713032
 21
17.74056906157489
 31
0.0
  0
LINE
  5
15E
330
2
100
AcDbEntity
  8
GAIKEI
  6
HIDDEN2
 62
     1
100
AcDbLine
 10
13.1160883885303
 20
17.61311191657478
 30
0.0
 11
13.1160883885303
 21
17.71155347557487
 31
0.0
  0
LINE
  5
15F
330
2
100
AcDbEntity
  8
GAIKEI
  6
HIDDEN2
 62
     1
100
AcDbLine
 10
13.18662637713032
 20
17.74056906157489
 30
0.0
 11
13.1160883885303
 21
17.71155347557487
 31
0.0
  0
LINE
  5
160
330
2
100
AcDbEntity
  8
GAIKEI
  6
HIDDEN2
 62
     1
100
AcDbLine
 10
13.6539242755303
 20
17.61311191657478
 30
0.0
 11
13.6539242755303
 21
17.72252336797487
 31
0.0
  0
LWPOLYLINE
  5
161
330
2
100
AcDbEntity
  8
GAIKEI
  6
HIDDEN2
 62
     1
100
AcDbPolyline
 90
        4
 70
     0
 43
0.0
 10
13.6539242755303
 20
17.72252336797487
 10
13.64866019873031
 20
17.72329465777488
 10
13.62582912373031
 20
17.72502812877474
 10
13.61536445553031
 20
17.72500160657478
  0
LINE
  5
162
330
2
100
AcDbEntity
  8
GAIKEI
  6
HIDDEN2
 62
     1
100
AcDbLine
 10
13.08411021993029
 20
17.61311191657478
 30
0.0
 11
13.08411021993029
 21
17.70717527777492
 31
0.0
  0
LINE
  5
163
330
2
100
AcDbEntity
  8
GAIKEI
  6
HIDDEN2
 62
     1
100
AcDbLine
 10
13.1160883885303
 20
17.71155347557487
 30
0.0
 11
13.08411021993029
 21
17.70717527777492
 31
0.0
  0
LINE
  5
164
330
2
100
AcDbEntity
  8
GAIKEI
  6
HIDDEN2
 62
     1
100
AcDbLine
 10
13.72304223173032
 20
17.61311191657478
 30
0.0
 11
13.72304223173032
 21
17.68811467337468
 31
0.0
  0
LINE
  5
165
330
2
100
AcDbEntity
  8
GAIKEI
  6
HIDDEN2
 62
     1
100
AcDbLine
 10
13.72304223173032
 20
17.68811467337468
 30
0.0
 11
13.6539242755303
 21
17.72252336797487
 31
0.0
  0
LINE
  5
166
330
2
100
AcDbEntity
  8
GAIKEI
  6
HIDDEN2
 62
     1
100
AcDbLine
 10
13.74496924573032
 20
17.61311191657478
 30
0.0
 11
13.74496924573032
 21
17.68165481337473
 31
0.0
  0
LINE
  5
167
330
2
100
AcDbEntity
  8
GAIKEI
  6
HIDDEN2
 62
     1
100
AcDbLine
 10
13.74496924573032
 20
17.68165481337473
 30
0.0
 11
13.72304223173032
 21
17.68811467337468
 31
0.0
  0
LINE
  5
168
330
2
100
AcDbEntity
  8
GAIKEI
  6
HIDDEN2
 62
     1
100
AcDbLine
 10
13.01695924633031
 20
17.61311191657478
 30
0.0
 11
13.01695924633031
 21
17.66909614397468
 31
0.0
  0
LINE
  5
169
330
2
100
AcDbEntity
  8
GAIKEI
  6
HIDDEN2
 62
     1
100
AcDbLine
 10
13.08411021993029
 20
17.70717527777492
 30
0.0
 11
13.01695924633031
 21
17.66909614397468
 31
0.0
  0
LINE
  5
16A
330
2
100
AcDbEntity
  8
GAIKEI
  6
HIDDEN2
 62
     1
100
AcDbLine
 10
13.00237311073033
 20
17.61311191657478
 30
0.0
 11
13.00237311073033
 21
17.6616527927747
 31
0.0
  0
LINE
  5
16B
330
2
100
AcDbEntity
  8
GAIKEI
  6
HIDDEN2
 62
     1
100
AcDbLine
 10
13.01695924633031
 20
17.66909614397468
 30
0.0
 11
13.00237311073033
 21
17.6616527927747
 31
0.0
  0
LINE
  5
16C
330
2
100
AcDbEntity
  8
GAIKEI
  6
HIDDEN2
 62
     1
100
AcDbLine
 10
13.80795689473032
 20
17.61311191657478
 30
0.0
 11
13.80795689473032
 21
17.6385501021748
 31
0.0
  0
LINE
  5
16D
330
2
100
AcDbEntity
  8
GAIKEI
  6
HIDDEN2
 62
     1
100
AcDbLine
 10
13.80795689473032
 20
17.6385501021748
 30
0.0
 11
13.74496924573032
 21
17.68165481337473
 31
0.0
  0
LINE
  5
16E
330
2
100
AcDbEntity
  8
GAIKEI
  6
HIDDEN2
 62
     1
100
AcDbLine
 10
13.81175681293032
 20
17.61311191657478
 30
0.0
 11
13.81175681293032
 21
17.63039673477488
 31
0.0
  0
LINE
  5
16F
330
2
100
AcDbEntity
  8
GAIKEI
  6
HIDDEN2
 62
     1
100
AcDbLine
 10
13.81175681293032
 20
17.63039673477488
 30
0.0
 11
13.80795689473032
 21
17.6385501021748
 31
0.0
  0
LINE
  5
170
330
2
100
AcDbEntity
  8
GAIKEI
  6
HIDDEN2
 62
     1
100
AcDbLine
 10
12.94318537973029
 20
17.61311191657478
 30
0.0
 11
12.94318537973029
 21
17.61525725597471
 31
0.0
  0
LWPOLYLINE
  5
171
330
2
100
AcDbEntity
  8
GAIKEI
  6
HIDDEN2
 62
     1
100
AcDbPolyline
 90
        3
 70
     0
 43
0.0
 10
13.00237311073033
 20
17.6616527927747
 10
12.98409362493029
 20
17.64809952777477
 10
12.94318537973029
 20
17.61525725597471
  0
LINE
  5
172
330
2
100
AcDbEntity
  8
GAIKEI
  6
HIDDEN2
 62
     1
100
AcDbLine
 10
13.82967347633033
 20
17.61311191657478
 30
0.0
 11
13.81175681293032
 21
17.63039673477488
 31
0.0
  0
LWPOLYLINE
  5
173
330
2
100
AcDbEntity
  8
GAIKEI
  6
HIDDEN2
 62
     1
100
AcDbPolyline
 90
        9
 70
     0
 43
0.0
 10
13.06242063593029
 20
17.70415725657494
 10
13.0913712507303
 20
17.72229638817475
 10
13.17067456453031
 20
17.75626225337487
 10
13.26485770913032
 20
17.77880815577487
 10
13.3675022587303
 20
17.788397629575
 10
13.47161315693031
 20
17.78437716777489
 10
13.57009541813031
 20
17.76702075817479
 10
13.65623763893032
 20
17.73751121157488
 10
13.71561790073033
 20
17.70415725657494
  0
CIRCLE
  5
174
330
2
100
AcDbEntity
  8
GAIKEI
  6
HIDDEN2
 62
     1
100
AcDbCircle
 10
14.37901926833032
 20
8.613111916774869
 30
0.0
 40
0.2045978868
  0
LINE
  5
175
330
2
100
AcDbEntity
  8
GAIKEI
  6
HIDDEN2
 62
     1
100
AcDbLine
 10
14.25203972573032
 20
8.507868409574939
 30
0.0
 11
14.31650485173028
 21
8.460494919774873
 31
0.0
  0
LINE
  5
176
330
2
100
AcDbEntity
  8
GAIKEI
  6
HIDDEN2
 62
     1
100
AcDbLine
 10
14.31650485173028
 20
8.460494919774873
 30
0.0
 11
14.38756508633034
 21
8.557192608774812
 31
0.0
  0
LINE
  5
177
330
2
100
AcDbEntity
  8
GAIKEI
  6
HIDDEN2
 62
     1
100
AcDbLine
 10
14.38756508633034
 20
8.557192608774812
 30
0.0
 11
14.48426277533028
 21
8.486132374174758
 31
0.0
  0
LINE
  5
178
330
2
100
AcDbEntity
  8
GAIKEI
  6
HIDDEN2
 62
     1
100
AcDbLine
 10
14.48426277533028
 20
8.486132374174758
 30
0.0
 11
14.53163626513034
 21
8.550597500174944
 31
0.0
  0
LINE
  5
179
330
2
100
AcDbEntity
  8
GAIKEI
  6
HIDDEN2
 62
     1
100
AcDbLine
 10
14.53163626513034
 20
8.550597500174944
 30
0.0
 11
14.43493857613029
 21
8.621657734774771
 31
0.0
  0
LINE
  5
17A
330
2
100
AcDbEntity
  8
GAIKEI
  6
HIDDEN2
 62
     1
100
AcDbLine
 10
14.43493857613029
 20
8.621657734774771
 30
0.0
 11
14.50599881093032
 21
8.71835542377471
 31
0.0
  0
LINE
  5
17B
330
2
100
AcDbEntity
  8
GAIKEI
  6
HIDDEN2
 62
     1
100
AcDbLine
 10
14.50599881093032
 20
8.71835542377471
 30
0.0
 11
14.4415336849303
 21
8.765728913574776
 31
0.0
  0
LINE
  5
17C
330
2
100
AcDbEntity
  8
GAIKEI
  6
HIDDEN2
 62
     1
100
AcDbLine
 10
14.4415336849303
 20
8.765728913574776
 30
0.0
 11
14.37047345033031
 21
8.669031224574837
 31
0.0
  0
LINE
  5
17D
330
2
100
AcDbEntity
  8
GAIKEI
  6
HIDDEN2
 62
     1
100
AcDbLine
 10
14.37047345033031
 20
8.669031224574837
 30
0.0
 11
14.27377576133031
 21
8.740091459174891
 31
0.0
  0
LINE
  5
17E
330
2
100
AcDbEntity
  8
GAIKEI
  6
HIDDEN2
 62
     1
100
AcDbLine
 10
14.27377576133031
 20
8.740091459174891
 30
0.0
 11
14.2264022715303
 21
8.675626333174932
 31
0.0
  0
LINE
  5
17F
330
2
100
AcDbEntity
  8
GAIKEI
  6
HIDDEN2
 62
     1
100
AcDbLine
 10
14.2264022715303
 20
8.675626333174932
 30
0.0
 11
14.3230999605303
 21
8.604566098574878
 31
0.0
  0
LINE
  5
180
330
2
100
AcDbEntity
  8
GAIKEI
  6
HIDDEN2
 62
     1
100
AcDbLine
 10
14.3230999605303
 20
8.604566098574878
 30
0.0
 11
14.25203972573032
 21
8.507868409574939
 31
0.0
  0
CIRCLE
  5
181
330
2
100
AcDbEntity
  8
GAIKEI
  6
HIDDEN2
 62
     1
100
AcDbCircle
 10
14.37901926833032
 20
8.613111916774869
 30
0.0
 40
0.2444456748
  0
LINE
  5
182
330
2
100
AcDbEntity
  8
GAIKEI
  6
HIDDEN2
 62
     1
100
AcDbLine
 10
9.222644616330313
 20
5.613111916774869
 30
0.0
 11
9.222644616330313
 21
17.61311191677487
 31
0.0
  0
LINE
  5
183
330
2
100
AcDbEntity
  8
GAIKEI
  6
HIDDEN2
 62
     1
100
AcDbLine
 10
9.511019268330301
 20
17.61311191657478
 30
0.0
 11
9.511019268330301
 21
5.613111916774869
 31
0.0
  0
ARC
  5
184
330
2
100
AcDbEntity
  8
GAIKEI
  6
HIDDEN2
 62
     1
100
AcDbCircle
 10
-36.64047837532897
 20
7.278730475360305
 30
0.0
 40
0.4
100
AcDbArc
 50
225.0000000000048
 51
289.601953573998
  0
ARC
  5
185
330
2
100
AcDbEntity
  8
GAIKEI
  6
HIDDEN2
 62
     1
100
AcDbCircle
 10
-37.20616380032897
 20
7.844415900360161
 30
0.0
 40
0.4
100
AcDbArc
 50
160.5418625369996
 51
225.0000000000048
  0
LINE
  5
186
330
2
100
AcDbEntity
  8
GAIKEI
  6
HIDDEN2
 62
     1
100
AcDbLine
 10
-37.48900651272896
 20
7.561573187960163
 30
0.0
 11
-36.92332108772897
 21
6.99588776296008
 31
0.0
  0
LINE
  5
187
330
2
100
AcDbEntity
  8
GAIKEI
  6
HIDDEN2
 62
     1
100
AcDbLine
 10
-38.46287458940827
 20
6.587705111280854
 30
0.0
 11
-37.48900651272896
 21
7.561573187960163
 31
0.0
  0
LINE
  5
188
330
2
100
AcDbEntity
  8
GAIKEI
  6
HIDDEN2
 62
     1
100
AcDbLine
 10
-36.92332108772897
 20
6.99588776296008
 30
0.0
 11
-37.65607244443103
 21
6.263136406257956
 31
0.0
  0
ARC
  5
189
330
2
100
AcDbEntity
  8
GAIKEI
  6
HIDDEN2
 62
     1
100
AcDbCircle
 10
-32.83894198772896
 20
11.65065884836025
 30
0.0
 40
4.3700000912
100
AcDbArc
 50
3.894520997010237
 51
116.0245350170052
  0
CIRCLE
  5
18A
330
2
100
AcDbEntity
  8
GAIKEI
  6
HIDDEN2
 62
     1
100
AcDbCircle
 10
-32.83894198772896
 20
11.65065884836025
 30
0.0
 40
5.679999999999999
  0
ARC
  5
18B
330
2
100
AcDbEntity
  8
GAIKEI
  6
HIDDEN2
 62
     1
100
AcDbCircle
 10
-38.74354098672896
 20
10.11908536216032
 30
0.0
 40
0.7000000000000001
100
AcDbArc
 50
194.5412701509916
 51
240.6015072450027
  0
CIRCLE
  5
18C
330
2
100
AcDbEntity
  8
GAIKEI
  6
HIDDEN2
 62
     1
100
AcDbCircle
 10
-32.83894198772896
 20
11.65065884836025
 30
0.0
 40
4.01
  0
LINE
  5
18D
330
2
100
AcDbEntity
  8
GAIKEI
  6
S10
 62
     1
100
AcDbLine
 10
-35.81567132952895
 20
17.76295993956017
 30
0.0
 11
-35.92253182032897
 21
17.79159312176028
 31
0.0
  0
LINE
  5
18E
330
2
100
AcDbEntity
  8
GAIKEI
  6
HIDDEN2
 62
     1
100
AcDbLine
 10
-36.61535214332895
 20
17.39159312176019
 30
0.0
 11
-36.64398532552898
 21
17.28473263116024
 31
0.0
  0
LINE
  5
18F
330
2
100
AcDbEntity
  8
GAIKEI
  6
S10
 62
     1
100
AcDbLine
 10
-36.49161014152895
 20
17.46303559996016
 30
0.0
 11
-35.92253182032897
 21
17.79159312176028
 31
0.0
  0
LINE
  5
190
330
2
100
AcDbEntity
  8
GAIKEI
  6
S10
 62
     1
100
AcDbLine
 10
-36.61535214332895
 20
17.39159312176019
 30
0.0
 11
-36.49161014152895
 21
17.46303559996016
 31
0.0
  0
LINE
  5
191
330
2
100
AcDbEntity
  8
GAIKEI
  6
S10
 62
     1
100
AcDbLine
 10
-35.82649919832898
 20
17.73156752816015
 30
0.0
 11
-35.89226707512896
 21
17.72975059576009
 31
0.0
  0
LINE
  5
192
330
2
100
AcDbEntity
  8
GAIKEI
  6
S10
 62
     1
100
AcDbLine
 10
-35.89226707512896
 20
17.72975059576009
 30
0.0
 11
-35.88723500772898
 21
17.69650169216032
 31
0.0
  0
LINE
  5
193
330
2
100
AcDbEntity
  8
GAIKEI
  6
S10
 62
     1
100
AcDbLine
 10
-35.88723500772898
 20
17.69650169216032
 30
0.0
 11
-35.96037710692895
 21
17.69042725056005
 31
0.0
  0
LINE
  5
194
330
2
100
AcDbEntity
  8
GAIKEI
  6
S10
 62
     1
100
AcDbLine
 10
-35.96037710692895
 20
17.69042725056005
 30
0.0
 11
-35.97057609932895
 21
17.64838469056002
 31
0.0
  0
LINE
  5
195
330
2
100
AcDbEntity
  8
GAIKEI
  6
S10
 62
     1
100
AcDbLine
 10
-35.97057609932895
 20
17.64838469056002
 30
0.0
 11
-36.04717478472895
 21
17.64031458796006
 31
0.0
  0
LWPOLYLINE
  5
196
330
2
100
AcDbEntity
  8
GAIKEI
  6
S10
 62
     1
100
AcDbPolyline
 90
        4
 70
     0
 43
0.0
 10
-36.04717478472895
 20
17.64031458796006
 10
-36.05065586452895
 20
17.63394641176018
 10
-36.06482328892895
 20
17.60471496876033
 10
-36.07084291552897
 20
17.59049561736009
  0
LINE
  5
197
330
2
100
AcDbEntity
  8
GAIKEI
  6
S10
 62
     1
100
AcDbLine
 10
-36.07084291552897
 20
17.59049561736009
 30
0.0
 11
-36.14674498992895
 21
17.58282770316026
 31
0.0
  0
LINE
  5
198
330
2
100
AcDbEntity
  8
GAIKEI
  6
S10
 62
     1
100
AcDbLine
 10
-36.14674498992895
 20
17.58282770316026
 30
0.0
 11
-36.18120243812896
 21
17.52677951716026
 31
0.0
  0
LINE
  5
199
330
2
100
AcDbEntity
  8
GAIKEI
  6
S10
 62
     1
100
AcDbLine
 10
-36.18120243812896
 20
17.52677951716026
 30
0.0
 11
-36.25230217792895
 21
17.52188423216029
 31
0.0
  0
LINE
  5
19A
330
2
100
AcDbEntity
  8
GAIKEI
  6
S10
 62
     1
100
AcDbLine
 10
-36.25230217792895
 20
17.52188423216029
 30
0.0
 11
-36.29413384832896
 21
17.4615785369603
 31
0.0
  0
LWPOLYLINE
  5
19B
330
2
100
AcDbEntity
  8
GAIKEI
  6
S10
 62
     1
100
AcDbPolyline
 90
        3
 70
     0
 43
0.0
 10
-36.29413384832896
 20
17.4615785369603
 10
-36.33779223352898
 20
17.46239469256005
 10
-36.35665280072897
 20
17.46163737216028
  0
LINE
  5
19C
330
2
100
AcDbEntity
  8
GAIKEI
  6
S10
 62
     1
100
AcDbLine
 10
-36.35665280072897
 20
17.46163737216028
 30
0.0
 11
-36.40194105712897
 21
17.39933601596016
 31
0.0
  0
LINE
  5
19D
330
2
100
AcDbEntity
  8
GAIKEI
  6
S10
 62
     1
100
AcDbLine
 10
-36.40194105712897
 20
17.39933601596016
 30
0.0
 11
-36.45268553572896
 21
17.40619284676012
 31
0.0
  0
CIRCLE
  5
19E
330
2
100
AcDbEntity
  8
GAIKEI
  6
HIDDEN2
 62
     1
100
AcDbCircle
 10
-32.83894198772896
 20
11.65065884836025
 30
0.0
 40
5.66
  0
LINE
  5
19F
330
2
100
AcDbEntity
  8
GAIKEI
  6
S10
 62
     1
100
AcDbLine
 10
-36.45268553572896
 20
17.40619284676012
 30
0.0
 11
-36.49727718152897
 21
17.34429367896012
 31
0.0
  0
LINE
  5
1A0
330
2
100
AcDbEntity
  8
GAIKEI
  6
S10
 62
     1
100
AcDbLine
 10
-36.49727718152897
 20
17.34429367896012
 30
0.0
 11
-36.53385591072896
 21
17.35932910876016
 31
0.0
  0
CIRCLE
  5
1A1
330
2
100
AcDbEntity
  8
GAIKEI
  6
HIDDEN2
 62
     1
100
AcDbCircle
 10
-32.83894198772896
 20
11.65065884836025
 30
0.0
 40
4.8700000912
  0
LINE
  5
1A2
330
2
100
AcDbEntity
  8
GAIKEI
  6
S10
 62
     1
100
AcDbLine
 10
-36.53385591072896
 20
17.35932910876016
 30
0.0
 11
-36.57364522172895
 21
17.30020257036011
 31
0.0
  0
LINE
  5
1A3
330
2
100
AcDbEntity
  8
GAIKEI
  6
S10
 62
     1
100
AcDbLine
 10
-36.57364522172895
 20
17.30020257036011
 30
0.0
 11
-36.59463229912896
 21
17.32423984476026
 31
0.0
  0
LWPOLYLINE
  5
1A4
330
2
100
AcDbEntity
  8
GAIKEI
  6
HIDDEN2
 62
     1
100
AcDbPolyline
 90
        4
 70
     0
 43
0.0
 10
-36.59463229912896
 20
17.32423984476026
 10
-36.59914277172897
 20
17.3172773481603
 10
-36.61777482472897
 20
17.28546825076017
 10
-36.62584082252897
 20
17.27006742616021
  0
LINE
  5
1A5
330
2
100
AcDbEntity
  8
GAIKEI
  6
HIDDEN2
 62
     1
100
AcDbLine
 10
-36.62584082252897
 20
17.27006742616021
 30
0.0
 11
-36.63087288992895
 21
17.3033163297602
 31
0.0
  0
LINE
  5
1A6
330
2
100
AcDbEntity
  8
GAIKEI
  6
HIDDEN2
 62
     1
100
AcDbLine
 10
-36.63087288992895
 20
17.3033163297602
 30
0.0
 11
-36.65030693972895
 21
17.25594190696023
 31
0.0
  0
LINE
  5
1A7
330
2
100
AcDbEntity
  8
GAIKEI
  6
HIDDEN2
 62
     1
100
AcDbLine
 10
-36.65030693972895
 20
17.25594190696023
 30
0.0
 11
-36.64336311892896
 21
17.28456591136017
 31
0.0
  0
LINE
  5
1A8
330
2
100
AcDbEntity
  8
GAIKEI
  6
S10
 62
     1
100
AcDbLine
 10
-35.81583804932896
 20
17.76233773296025
 30
0.0
 11
-35.82908644512895
 21
17.76622794956023
 31
0.0
  0
LINE
  5
1A9
330
2
100
AcDbEntity
  8
GAIKEI
  6
S10
 62
     1
100
AcDbLine
 10
-35.82908644512895
 20
17.76622794956023
 30
0.0
 11
-35.79250771592896
 21
17.75119251976019
 31
0.0
  0
LWPOLYLINE
  5
1AA
330
2
100
AcDbEntity
  8
GAIKEI
  6
S10
 62
     1
100
AcDbPolyline
 90
        3
 70
     0
 43
0.0
 10
-35.79250771592896
 20
17.75119251976019
 10
-35.83095447632897
 20
17.75501760796004
 10
-35.84748627552895
 20
17.75560480256007
  0
LINE
  5
1AB
330
2
100
AcDbEntity
  8
GAIKEI
  6
S10
 62
     1
100
AcDbLine
 10
-35.84748627552895
 20
17.75560480256007
 30
0.0
 11
-35.82649919832898
 21
17.73156752816015
 31
0.0
  0
LINE
  5
1AC
330
2
100
AcDbEntity
  8
GAIKEI
  6
HIDDEN2
 62
     1
100
AcDbLine
 10
-35.85662954812895
 20
16.83655913556021
 30
0.0
 11
-36.25230217792895
 21
17.52188423216029
 31
0.0
  0
LINE
  5
1AD
330
2
100
AcDbEntity
  8
GAIKEI
  6
HIDDEN2
 62
     1
100
AcDbLine
 10
-35.91381973052896
 20
16.80285516336011
 30
0.0
 11
-36.29413384832896
 21
17.4615785369603
 31
0.0
  0
LINE
  5
1AE
330
2
100
AcDbEntity
  8
GAIKEI
  6
HIDDEN2
 62
     1
100
AcDbLine
 10
-35.80112331032896
 20
16.86846315796009
 30
0.0
 11
-36.18120243812896
 21
17.52677951716026
 31
0.0
  0
LINE
  5
1AF
330
2
100
AcDbEntity
  8
GAIKEI
  6
HIDDEN2
 62
     1
100
AcDbLine
 10
-35.75066096592897
 20
16.89679005076022
 30
0.0
 11
-36.14674498992895
 21
17.58282770316026
 31
0.0
  0
LINE
  5
1B0
330
2
100
AcDbEntity
  8
GAIKEI
  6
HIDDEN2
 62
     1
100
AcDbLine
 10
-35.68962414872897
 20
16.93020534576016
 30
0.0
 11
-36.07084291552897
 21
17.59049561736009
 31
0.0
  0
LINE
  5
1B1
330
2
100
AcDbEntity
  8
GAIKEI
  6
HIDDEN2
 62
     1
100
AcDbLine
 10
-35.96016982892897
 20
16.77490872176025
 30
0.0
 11
-36.35665280072897
 21
17.46163737216028
 31
0.0
  0
LINE
  5
1B2
330
2
100
AcDbEntity
  8
GAIKEI
  6
HIDDEN2
 62
     1
100
AcDbLine
 10
-36.02007999832895
 20
16.73793326196022
 30
0.0
 11
-36.40194105712897
 21
17.39933601596016
 31
0.0
  0
LINE
  5
1B3
330
2
100
AcDbEntity
  8
GAIKEI
  6
HIDDEN2
 62
     1
100
AcDbLine
 10
-35.64956742552897
 20
16.95163844176017
 30
0.0
 11
-36.04717478472895
 21
17.64031458796006
 31
0.0
  0
LINE
  5
1B4
330
2
100
AcDbEntity
  8
GAIKEI
  6
HIDDEN2
 62
     1
100
AcDbLine
 10
-36.05438679372895
 20
16.71631919036025
 30
0.0
 11
-36.45268553572896
 21
17.40619284676012
 31
0.0
  0
LINE
  5
1B5
330
2
100
AcDbEntity
  8
GAIKEI
  6
HIDDEN2
 62
     1
100
AcDbLine
 10
-35.58714716072896
 20
16.98426628876012
 30
0.0
 11
-35.97057609932895
 21
17.64838469056002
 31
0.0
  0
LINE
  5
1B6
330
2
100
AcDbEntity
  8
GAIKEI
  6
HIDDEN2
 62
     1
100
AcDbLine
 10
-36.11297017372897
 20
16.67865441696011
 30
0.0
 11
-36.49727718152897
 21
17.34429367896012
 31
0.0
  0
LINE
  5
1B7
330
2
100
AcDbEntity
  8
GAIKEI
  6
HIDDEN2
 62
     1
100
AcDbLine
 10
-35.56054138692895
 20
16.99789147016025
 30
0.0
 11
-35.96037710692895
 21
17.69042725056005
 31
0.0
  0
LINE
  5
1B8
330
2
100
AcDbEntity
  8
GAIKEI
  6
HIDDEN2
 62
     1
100
AcDbLine
 10
-36.13322124252898
 20
16.66540950936013
 30
0.0
 11
-36.53385591072896
 21
17.35932910876016
 31
0.0
  0
LINE
  5
1B9
330
2
100
AcDbEntity
  8
GAIKEI
  6
HIDDEN2
 62
     1
100
AcDbLine
 10
-35.50111601572897
 20
17.0277239815602
 30
0.0
 11
-35.88723500772898
 21
17.69650169216032
 31
0.0
  0
LINE
  5
1BA
330
2
100
AcDbEntity
  8
GAIKEI
  6
HIDDEN2
 62
     1
100
AcDbLine
 10
-36.18664737152898
 20
16.62990263276032
 30
0.0
 11
-36.57364522172895
 21
17.30020257036011
 31
0.0
  0
LINE
  5
1BB
330
2
100
AcDbEntity
  8
GAIKEI
  6
HIDDEN2
 62
     1
100
AcDbLine
 10
-35.49009422952895
 20
17.03316679476023
 30
0.0
 11
-35.89226707512896
 21
17.72975059576009
 31
0.0
  0
LINE
  5
1BC
330
2
100
AcDbEntity
  8
GAIKEI
  6
HIDDEN2
 62
     1
100
AcDbLine
 10
-36.19176701592897
 20
16.62645670716023
 30
0.0
 11
-36.59463229912896
 21
17.32423984476026
 31
0.0
  0
LINE
  5
1BD
330
2
100
AcDbEntity
  8
GAIKEI
  6
HIDDEN2
 62
     1
100
AcDbLine
 10
-35.43793077552897
 20
17.0585472793602
 30
0.0
 11
-35.82649919832898
 21
17.73156752816015
 31
0.0
  0
LINE
  5
1BE
330
2
100
AcDbEntity
  8
GAIKEI
  6
HIDDEN2
 62
     1
100
AcDbLine
 10
-36.23662852972896
 20
16.59593196156009
 30
0.0
 11
-36.62584082252897
 21
17.27006742616021
 31
0.0
  0
LINE
  5
1BF
330
2
100
AcDbEntity
  8
GAIKEI
  6
HIDDEN2
 62
     1
100
AcDbLine
 10
-35.40238808152896
 20
17.07548549316033
 30
0.0
 11
-35.79250771592896
 21
17.75119251976019
 31
0.0
  0
LINE
  5
1C0
330
2
100
AcDbEntity
  8
GAIKEI
  6
HIDDEN2
 62
     1
100
AcDbLine
 10
-36.25995152652897
 20
16.57982649976014
 30
0.0
 11
-36.65030693972895
 21
17.25594190696023
 31
0.0
  0
LINE
  5
1C1
330
2
100
AcDbEntity
  8
GAIKEI
  6
HIDDEN2
 62
     1
100
AcDbLine
 10
-35.39722161032896
 20
17.07792384776024
 30
0.0
 11
-35.78757702392898
 21
17.75403925596009
 31
0.0
  0
ARC
  5
1C2
330
2
100
AcDbEntity
  8
GAIKEI
  6
HIDDEN2
 62
     1
100
AcDbCircle
 10
-40.00838152932897
 20
7.273543741560104
 30
0.0
 40
2.4
100
AcDbArc
 50
31.40506817500503
 51
60.60157653599762
  0
LINE
  5
1C3
330
2
100
AcDbEntity
  8
GAIKEI
  6
HIDDEN2
 62
     1
100
AcDbLine
 10
-38.83027005412896
 20
9.364489305760287
 30
0.0
 11
-39.08715670952896
 21
9.509228246560212
 31
0.0
  0
LINE
  5
1C4
330
2
100
AcDbEntity
  8
GAIKEI
  6
HIDDEN2
 62
     1
100
AcDbLine
 10
-38.83027005412896
 20
13.9368283911603
 30
0.0
 11
-39.08715626612897
 21
13.79208872576026
 31
0.0
  0
ARC
  5
1C5
330
2
100
AcDbEntity
  8
GAIKEI
  6
HIDDEN2
 62
     1
100
AcDbCircle
 10
-32.83894198772896
 20
11.65065884836025
 30
0.0
 40
6.0
100
AcDbArc
 50
211.4050681739977
 51
148.5949318260023
  0
ARC
  5
1C6
330
2
100
AcDbEntity
  8
GAIKEI
  6
HIDDEN2
 62
     1
100
AcDbCircle
 10
-32.83894198772896
 20
11.65065884836025
 30
0.0
 40
6.8
100
AcDbArc
 50
165.4587137939951
 51
194.5412862060049
  0
ARC
  5
1C7
330
2
100
AcDbEntity
  8
GAIKEI
  6
HIDDEN2
 62
     1
100
AcDbCircle
 10
-38.74354098672896
 20
13.18223233476027
 30
0.0
 40
0.7000000000000001
100
AcDbArc
 50
119.3984927529935
 51
165.4587298480123
  0
ARC
  5
1C8
330
2
100
AcDbEntity
  8
GAIKEI
  6
HIDDEN2
 62
     1
100
AcDbCircle
 10
-40.00838152932897
 20
16.02777395536026
 30
0.0
 40
2.4
100
AcDbArc
 50
299.3984234640024
 51
328.5949318249949
  0
ARC
  5
1C9
330
2
100
AcDbEntity
  8
GAIKEI
  6
HIDDEN2
 62
     1
100
AcDbCircle
 10
-28.78553974432896
 20
10.5637710725602
 30
0.0
 40
0.06
100
AcDbArc
 50
345.0000000000055
 51
165.0000000000055
  0
ARC
  5
1CA
330
2
100
AcDbEntity
  8
GAIKEI
  6
HIDDEN2
 62
     1
100
AcDbCircle
 10
-32.84242821472896
 20
11.65081106196015
 30
0.0
 40
4.139999999999999
100
AcDbArc
 50
314.9999999999952
 51
345.0000000000055
  0
ARC
  5
1CB
330
2
100
AcDbEntity
  8
GAIKEI
  6
HIDDEN2
 62
     1
100
AcDbCircle
 10
-29.87257973372897
 20
8.680962580960283
 30
0.0
 40
0.06
100
AcDbArc
 50
134.9999999999951
 51
314.9999999999952
  0
ARC
  5
1CC
330
2
100
AcDbEntity
  8
GAIKEI
  6
HIDDEN2
 62
     1
100
AcDbCircle
 10
-32.84242821472896
 20
11.65081106196015
 30
0.0
 40
4.26
100
AcDbArc
 50
314.9999999999952
 51
345.0000000000055
  0
ARC
  5
1CD
330
2
100
AcDbEntity
  8
GAIKEI
  6
HIDDEN2
 62
     1
100
AcDbCircle
 10
-28.78553974432896
 20
10.5637710725602
 30
0.0
 40
0.03
100
AcDbArc
 50
345.0000000000055
 51
165.0000000000055
  0
LINE
  5
1CE
330
2
100
AcDbEntity
  8
GAIKEI
  6
HIDDEN2
 62
     1
100
AcDbLine
 10
-28.81451751912897
 20
10.5715356439602
 30
0.0
 11
-28.84349529392896
 21
10.57930021516011
 31
0.0
  0
LINE
  5
1CF
330
2
100
AcDbEntity
  8
GAIKEI
  6
HIDDEN2
 62
     1
100
AcDbLine
 10
-28.72758419472896
 20
10.54824192976019
 30
0.0
 11
-28.75656196952898
 21
10.5560065011602
 31
0.0
  0
LINE
  5
1D0
330
2
100
AcDbEntity
  8
GAIKEI
  6
HIDDEN2
 62
     1
100
AcDbLine
 10
-29.83015332672898
 20
8.638536174160151
 30
0.0
 11
-29.85136653032896
 21
8.659749377560217
 31
0.0
  0
ARC
  5
1D1
330
2
100
AcDbEntity
  8
GAIKEI
  6
HIDDEN2
 62
     1
100
AcDbCircle
 10
-32.84242821472896
 20
11.65081106196015
 30
0.0
 40
4.229999999999999
100
AcDbArc
 50
314.9999999999952
 51
345.0000000000055
  0
ARC
  5
1D2
330
2
100
AcDbEntity
  8
GAIKEI
  6
HIDDEN2
 62
     1
100
AcDbCircle
 10
-32.84242821472896
 20
11.65081106196015
 30
0.0
 40
4.17
100
AcDbArc
 50
314.9999999999952
 51
345.0000000000055
  0
LINE
  5
1D3
330
2
100
AcDbEntity
  8
GAIKEI
  6
HIDDEN2
 62
     1
100
AcDbLine
 10
-29.89379293712898
 20
8.702175784360122
 30
0.0
 11
-29.91500614052896
 21
8.723388987760188
 31
0.0
  0
ARC
  5
1D4
330
2
100
AcDbEntity
  8
GAIKEI
  6
HIDDEN2
 62
     1
100
AcDbCircle
 10
-29.87257973372897
 20
8.680962580960283
 30
0.0
 40
0.03
100
AcDbArc
 50
134.9999999999951
 51
314.9999999999952
  0
ARC
  5
1D5
330
2
100
AcDbEntity
  8
GAIKEI
  6
HIDDEN2
 62
     1
100
AcDbCircle
 10
-31.75029070572896
 20
7.590675110160361
 30
0.0
 40
0.06
100
AcDbArc
 50
285.0000000000019
 51
105.0000000000019
  0
ARC
  5
1D6
330
2
100
AcDbEntity
  8
GAIKEI
  6
HIDDEN2
 62
     1
100
AcDbCircle
 10
-32.83733069512897
 20
11.64756358056019
 30
0.0
 40
4.139999999999999
100
AcDbArc
 50
254.999999999998
 51
285.0000000000019
  0
ARC
  5
1D7
330
2
100
AcDbEntity
  8
GAIKEI
  6
HIDDEN2
 62
     1
100
AcDbCircle
 10
-33.92437068452895
 20
7.590675110160361
 30
0.0
 40
0.06
100
AcDbArc
 50
74.99999999999807
 51
254.999999999998
  0
ARC
  5
1D8
330
2
100
AcDbEntity
  8
GAIKEI
  6
HIDDEN2
 62
     1
100
AcDbCircle
 10
-32.83733069512897
 20
11.64756358056019
 30
0.0
 40
4.26
100
AcDbArc
 50
254.999999999998
 51
285.0000000000019
  0
ARC
  5
1D9
330
2
100
AcDbEntity
  8
GAIKEI
  6
HIDDEN2
 62
     1
100
AcDbCircle
 10
-31.75029070572896
 20
7.590675110160361
 30
0.0
 40
0.03
100
AcDbArc
 50
285.0000000000019
 51
105.0000000000019
  0
LINE
  5
1DA
330
2
100
AcDbEntity
  8
GAIKEI
  6
HIDDEN2
 62
     1
100
AcDbLine
 10
-31.75805527692896
 20
7.619652884960203
 30
0.0
 11
-31.76581984832896
 21
7.648630659760272
 31
0.0
  0
LINE
  5
1DB
330
2
100
AcDbEntity
  8
GAIKEI
  6
HIDDEN2
 62
     1
100
AcDbLine
 10
-31.73476156292895
 20
7.532719560560224
 30
0.0
 11
-31.74252613432896
 21
7.561697335360065
 31
0.0
  0
LINE
  5
1DC
330
2
100
AcDbEntity
  8
GAIKEI
  6
HIDDEN2
 62
     1
100
AcDbLine
 10
-33.93989982712895
 20
7.532719560560224
 30
0.0
 11
-33.93213525592896
 21
7.561697335360065
 31
0.0
  0
ARC
  5
1DD
330
2
100
AcDbEntity
  8
GAIKEI
  6
HIDDEN2
 62
     1
100
AcDbCircle
 10
-32.83733069512897
 20
11.64756358056019
 30
0.0
 40
4.229999999999999
100
AcDbArc
 50
254.999999999998
 51
285.0000000000019
  0
ARC
  5
1DE
330
2
100
AcDbEntity
  8
GAIKEI
  6
HIDDEN2
 62
     1
100
AcDbCircle
 10
-32.83733069512897
 20
11.64756358056019
 30
0.0
 40
4.17
100
AcDbArc
 50
254.999999999998
 51
285.0000000000019
  0
LINE
  5
1DF
330
2
100
AcDbEntity
  8
GAIKEI
  6
HIDDEN2
 62
     1
100
AcDbLine
 10
-33.91660611312898
 20
7.619652884960203
 30
0.0
 11
-33.90884154172898
 21
7.648630659760272
 31
0.0
  0
ARC
  5
1E0
330
2
100
AcDbEntity
  8
GAIKEI
  6
HIDDEN2
 62
     1
100
AcDbCircle
 10
-33.92437068452895
 20
7.590675110160361
 30
0.0
 40
0.03
100
AcDbArc
 50
74.99999999999807
 51
254.999999999998
  0
ARC
  5
1E1
330
2
100
AcDbEntity
  8
GAIKEI
  6
HIDDEN2
 62
     1
100
AcDbCircle
 10
-35.80181801492896
 20
8.680505940360205
 30
0.0
 40
0.06
100
AcDbArc
 50
225.0000000000048
 51
45.00000000000483
  0
ARC
  5
1E2
330
2
100
AcDbEntity
  8
GAIKEI
  6
HIDDEN2
 62
     1
100
AcDbCircle
 10
-32.83196953392897
 20
11.6503544213603
 30
0.0
 40
4.139999999999999
100
AcDbArc
 50
194.9999999999944
 51
225.0000000000048
  0
ARC
  5
1E3
330
2
100
AcDbEntity
  8
GAIKEI
  6
HIDDEN2
 62
     1
100
AcDbCircle
 10
-36.88885800432897
 20
10.56331443196012
 30
0.0
 40
0.06
100
AcDbArc
 50
14.99999999999446
 51
194.9999999999944
  0
ARC
  5
1E4
330
2
100
AcDbEntity
  8
GAIKEI
  6
HIDDEN2
 62
     1
100
AcDbCircle
 10
-32.83196953392897
 20
11.6503544213603
 30
0.0
 40
4.26
100
AcDbArc
 50
194.9999999999944
 51
225.0000000000048
  0
ARC
  5
1E5
330
2
100
AcDbEntity
  8
GAIKEI
  6
HIDDEN2
 62
     1
100
AcDbCircle
 10
-35.80181801492896
 20
8.680505940360205
 30
0.0
 40
0.03
100
AcDbArc
 50
225.0000000000048
 51
45.00000000000483
  0
LINE
  5
1E6
330
2
100
AcDbEntity
  8
GAIKEI
  6
HIDDEN2
 62
     1
100
AcDbLine
 10
-35.78060481152898
 20
8.701719143760271
 30
0.0
 11
-35.75939160792896
 21
8.722932347360199
 31
0.0
  0
LINE
  5
1E7
330
2
100
AcDbEntity
  8
GAIKEI
  6
HIDDEN2
 62
     1
100
AcDbLine
 10
-35.84424442172895
 20
8.638079533560073
 30
0.0
 11
-35.82303121832897
 21
8.659292736960139
 31
0.0
  0
LINE
  5
1E8
330
2
100
AcDbEntity
  8
GAIKEI
  6
HIDDEN2
 62
     1
100
AcDbLine
 10
-36.94681355392896
 20
10.54778528916012
 30
0.0
 11
-36.91783577912895
 21
10.55554986056012
 31
0.0
  0
ARC
  5
1E9
330
2
100
AcDbEntity
  8
GAIKEI
  6
HIDDEN2
 62
     1
100
AcDbCircle
 10
-32.83196953392897
 20
11.6503544213603
 30
0.0
 40
4.229999999999999
100
AcDbArc
 50
194.9999999999944
 51
225.0000000000048
  0
ARC
  5
1EA
330
2
100
AcDbEntity
  8
GAIKEI
  6
HIDDEN2
 62
     1
100
AcDbCircle
 10
-32.83196953392897
 20
11.6503544213603
 30
0.0
 40
4.17
100
AcDbArc
 50
194.9999999999944
 51
225.0000000000048
  0
LINE
  5
1EB
330
2
100
AcDbEntity
  8
GAIKEI
  6
HIDDEN2
 62
     1
100
AcDbLine
 10
-36.85988022952896
 20
10.57107900336012
 30
0.0
 11
-36.83090245472897
 21
10.57884357456004
 31
0.0
  0
ARC
  5
1EC
330
2
100
AcDbEntity
  8
GAIKEI
  6
HIDDEN2
 62
     1
100
AcDbCircle
 10
-36.88885800432897
 20
10.56331443196012
 30
0.0
 40
0.03
100
AcDbArc
 50
14.99999999999446
 51
194.9999999999944
  0
ARC
  5
1ED
330
2
100
AcDbEntity
  8
GAIKEI
  6
HIDDEN2
 62
     1
100
AcDbCircle
 10
-36.88376048472895
 20
12.73414692936029
 30
0.0
 40
0.06
100
AcDbArc
 50
165.0000000000055
 51
345.0000000000055
  0
ARC
  5
1EE
330
2
100
AcDbEntity
  8
GAIKEI
  6
HIDDEN2
 62
     1
100
AcDbCircle
 10
-32.82687201432896
 20
11.64710693996011
 30
0.0
 40
4.139999999999999
100
AcDbArc
 50
134.9999999999951
 51
165.0000000000055
  0
ARC
  5
1EF
330
2
100
AcDbEntity
  8
GAIKEI
  6
HIDDEN2
 62
     1
100
AcDbCircle
 10
-35.79672049532897
 20
14.61695542096021
 30
0.0
 40
0.06
100
AcDbArc
 50
314.9999999999952
 51
134.9999999999951
  0
ARC
  5
1F0
330
2
100
AcDbEntity
  8
GAIKEI
  6
HIDDEN2
 62
     1
100
AcDbCircle
 10
-32.82687201432896
 20
11.64710693996011
 30
0.0
 40
4.26
100
AcDbArc
 50
134.9999999999951
 51
165.0000000000055
  0
ARC
  5
1F1
330
2
100
AcDbEntity
  8
GAIKEI
  6
HIDDEN2
 62
     1
100
AcDbCircle
 10
-36.88376048472895
 20
12.73414692936029
 30
0.0
 40
0.03
100
AcDbArc
 50
165.0000000000055
 51
345.0000000000055
  0
LINE
  5
1F2
330
2
100
AcDbEntity
  8
GAIKEI
  6
HIDDEN2
 62
     1
100
AcDbLine
 10
-36.85478270992897
 20
12.72638235816038
 30
0.0
 11
-36.82580493512896
 21
12.71861778676015
 31
0.0
  0
LINE
  5
1F3
330
2
100
AcDbEntity
  8
GAIKEI
  6
HIDDEN2
 62
     1
100
AcDbLine
 10
-36.94171603432898
 20
12.7496760721603
 30
0.0
 11
-36.91273825952896
 21
12.74191150076029
 31
0.0
  0
LINE
  5
1F4
330
2
100
AcDbEntity
  8
GAIKEI
  6
HIDDEN2
 62
     1
100
AcDbLine
 10
-35.83914690212896
 20
14.6593818279602
 30
0.0
 11
-35.81793369872895
 21
14.63816862436027
 31
0.0
  0
ARC
  5
1F5
330
2
100
AcDbEntity
  8
GAIKEI
  6
HIDDEN2
 62
     1
100
AcDbCircle
 10
-32.82687201432896
 20
11.64710693996011
 30
0.0
 40
4.229999999999999
100
AcDbArc
 50
134.9999999999951
 51
165.0000000000055
  0
ARC
  5
1F6
330
2
100
AcDbEntity
  8
GAIKEI
  6
HIDDEN2
 62
     1
100
AcDbCircle
 10
-32.82687201432896
 20
11.64710693996011
 30
0.0
 40
4.17
100
AcDbArc
 50
134.9999999999951
 51
165.0000000000055
  0
LINE
  5
1F7
330
2
100
AcDbEntity
  8
GAIKEI
  6
HIDDEN2
 62
     1
100
AcDbLine
 10
-35.77550729192896
 20
14.59574221756014
 30
0.0
 11
-35.75429408832895
 21
14.5745290141603
 31
0.0
  0
ARC
  5
1F8
330
2
100
AcDbEntity
  8
GAIKEI
  6
HIDDEN2
 62
     1
100
AcDbCircle
 10
-35.79672049532897
 20
14.61695542096021
 30
0.0
 40
0.03
100
AcDbArc
 50
314.9999999999952
 51
134.9999999999951
  0
ARC
  5
1F9
330
2
100
AcDbEntity
  8
GAIKEI
  6
HIDDEN2
 62
     1
100
AcDbCircle
 10
-33.91927316492897
 20
15.70120456956027
 30
0.0
 40
0.06
100
AcDbArc
 50
105.0000000000019
 51
285.0000000000019
  0
ARC
  5
1FA
330
2
100
AcDbEntity
  8
GAIKEI
  6
HIDDEN2
 62
     1
100
AcDbCircle
 10
-32.83223317552895
 20
11.64431609916022
 30
0.0
 40
4.139999999999999
100
AcDbArc
 50
74.99999999999807
 51
105.0000000000019
  0
ARC
  5
1FB
330
2
100
AcDbEntity
  8
GAIKEI
  6
HIDDEN2
 62
     1
100
AcDbCircle
 10
-31.74519318612897
 20
15.70120456956027
 30
0.0
 40
0.06
100
AcDbArc
 50
254.999999999998
 51
74.99999999999807
  0
ARC
  5
1FC
330
2
100
AcDbEntity
  8
GAIKEI
  6
HIDDEN2
 62
     1
100
AcDbCircle
 10
-32.83223317552895
 20
11.64431609916022
 30
0.0
 40
4.26
100
AcDbArc
 50
74.99999999999807
 51
105.0000000000019
  0
ARC
  5
1FD
330
2
100
AcDbEntity
  8
GAIKEI
  6
HIDDEN2
 62
     1
100
AcDbCircle
 10
-33.91927316492897
 20
15.70120456956027
 30
0.0
 40
0.03
100
AcDbArc
 50
105.0000000000019
 51
285.0000000000019
  0
LINE
  5
1FE
330
2
100
AcDbEntity
  8
GAIKEI
  6
HIDDEN2
 62
     1
100
AcDbLine
 10
-33.91150859352896
 20
15.6722267947602
 30
0.0
 11
-33.90374402212896
 21
15.64324901996014
 31
0.0
  0
LINE
  5
1FF
330
2
100
AcDbEntity
  8
GAIKEI
  6
HIDDEN2
 62
     1
100
AcDbLine
 10
-33.93480230752897
 20
15.75916011916018
 30
0.0
 11
-33.92703773632897
 21
15.73018234436012
 31
0.0
  0
LINE
  5
200
330
2
100
AcDbEntity
  8
GAIKEI
  6
HIDDEN2
 62
     1
100
AcDbLine
 10
-31.72966404332897
 20
15.75916011916018
 30
0.0
 11
-31.73742861472897
 21
15.73018234436012
 31
0.0
  0
ARC
  5
201
330
2
100
AcDbEntity
  8
GAIKEI
  6
HIDDEN2
 62
     1
100
AcDbCircle
 10
-32.83223317552895
 20
11.64431609916022
 30
0.0
 40
4.229999999999999
100
AcDbArc
 50
74.99999999999807
 51
105.0000000000019
  0
ARC
  5
202
330
2
100
AcDbEntity
  8
GAIKEI
  6
HIDDEN2
 62
     1
100
AcDbCircle
 10
-32.83223317552895
 20
11.64431609916022
 30
0.0
 40
4.17
100
AcDbArc
 50
74.99999999999807
 51
105.0000000000019
  0
LINE
  5
203
330
2
100
AcDbEntity
  8
GAIKEI
  6
HIDDEN2
 62
     1
100
AcDbLine
 10
-31.75295775732897
 20
15.6722267947602
 30
0.0
 11
-31.76072232872897
 21
15.64324901996014
 31
0.0
  0
ARC
  5
204
330
2
100
AcDbEntity
  8
GAIKEI
  6
HIDDEN2
 62
     1
100
AcDbCircle
 10
-31.74519318612897
 20
15.70120456956027
 30
0.0
 40
0.03
100
AcDbArc
 50
254.999999999998
 51
74.99999999999807
  0
ARC
  5
205
330
2
100
AcDbEntity
  8
GAIKEI
  6
HIDDEN2
 62
     1
100
AcDbCircle
 10
-32.83894198772896
 20
11.65065884836025
 30
0.0
 40
4.3700000912
100
AcDbArc
 50
243.924350047002
 51
356.0245350169994
  0
ARC
  5
206
330
2
100
AcDbEntity
  8
GAIKEI
  6
HIDDEN2
 62
     1
100
AcDbCircle
 10
-32.83894198772896
 20
11.65065884836025
 30
0.0
 40
4.3700000912
100
AcDbArc
 50
123.8945209970047
 51
236.0624177210038
  0
ARC
  5
207
330
2
100
AcDbEntity
  8
GAIKEI
  6
HIDDEN2
 62
     1
100
AcDbCircle
 10
-32.84242821472896
 20
11.64563354796013
 30
0.0
 40
4.51
100
AcDbArc
 50
236.185584325
 51
243.8152682139952
  0
LINE
  5
208
330
2
100
AcDbEntity
  8
GAIKEI
  6
HIDDEN2
 62
     1
100
AcDbLine
 10
-35.28063327852897
 20
7.822538498360188
 30
0.0
 11
-34.93422311692896
 21
7.622538498360142
 31
0.0
  0
LINE
  5
209
330
2
100
AcDbEntity
  8
GAIKEI
  6
HIDDEN2
 62
     1
100
AcDbLine
 10
-35.28063327852897
 20
7.822538498360188
 30
0.0
 11
-35.26841490932895
 21
7.843701334360218
 31
0.0
  0
LINE
  5
20A
330
2
100
AcDbEntity
  8
GAIKEI
  6
HIDDEN2
 62
     1
100
AcDbLine
 10
-34.93422311692896
 20
7.622538498360142
 30
0.0
 11
-34.92200474792895
 21
7.643701334360173
 31
0.0
  0
LINE
  5
20B
330
2
100
AcDbEntity
  8
GAIKEI
  6
HIDDEN2
 62
     1
100
AcDbLine
 10
-35.29844406292898
 20
7.791689314760276
 30
0.0
 11
-35.28063327852897
 21
7.822538498360188
 31
0.0
  0
LINE
  5
20C
330
2
100
AcDbEntity
  8
GAIKEI
  6
HIDDEN2
 62
     1
100
AcDbLine
 10
-34.95203390132895
 20
7.59168931476023
 30
0.0
 11
-34.93422311692896
 21
7.622538498360142
 31
0.0
  0
ARC
  5
20D
330
2
100
AcDbEntity
  8
GAIKEI
  6
HIDDEN2
 62
     1
100
AcDbCircle
 10
-32.84242821472896
 20
11.64563354796013
 30
0.0
 40
4.5
100
AcDbArc
 50
236.1769464760031
 51
243.8244355549979
  0
LINE
  5
20E
330
2
100
AcDbEntity
  8
GAIKEI
  6
HIDDEN2
 62
     1
100
AcDbLine
 10
-35.28208105952896
 20
8.020030867760112
 30
0.0
 11
-35.38230710672895
 21
7.846434262160244
 31
0.0
  0
ARC
  5
20F
330
2
100
AcDbEntity
  8
GAIKEI
  6
HIDDEN2
 62
     1
100
AcDbCircle
 10
-32.84242821472896
 20
11.64563354796013
 30
0.0
 40
4.57
100
AcDbArc
 50
236.2360824539997
 51
243.7639175459967
  0
LINE
  5
210
330
2
100
AcDbEntity
  8
GAIKEI
  6
HIDDEN2
 62
     1
100
AcDbLine
 10
-34.86269186432895
 20
7.546434262160289
 30
0.0
 11
-34.76246581732898
 21
7.720030867760158
 31
0.0
  0
ARC
  5
211
330
2
100
AcDbEntity
  8
GAIKEI
  6
HIDDEN2
 62
     1
100
AcDbCircle
 10
-32.84242821472896
 20
11.64563354796013
 30
0.0
 40
4.549999999999999
100
AcDbArc
 50
236.2195137619923
 51
237.4806924789999
  0
ARC
  5
212
330
2
100
AcDbEntity
  8
GAIKEI
  6
HIDDEN2
 62
     1
100
AcDbCircle
 10
-32.84242821472896
 20
11.64563354796013
 30
0.0
 40
4.549999999999999
100
AcDbArc
 50
242.5193075209966
 51
243.7804862379988
  0
ARC
  5
213
330
2
100
AcDbEntity
  8
GAIKEI
  6
HIDDEN2
 62
     1
100
AcDbCircle
 10
-32.84242821472896
 20
11.64563354796013
 30
0.0
 40
4.389999999999999
100
AcDbArc
 50
236.0815169690048
 51
243.9184830309947
  0
ARC
  5
214
330
2
100
AcDbEntity
  8
GAIKEI
  6
HIDDEN2
 62
     1
100
AcDbCircle
 10
-32.83706705352896
 20
11.65360190276027
 30
0.0
 40
4.51
100
AcDbArc
 50
116.185584325005
 51
123.8152682140035
  0
LINE
  5
215
330
2
100
AcDbEntity
  8
GAIKEI
  6
HIDDEN2
 62
     1
100
AcDbLine
 10
-34.92886195572896
 20
15.67669695236026
 30
0.0
 11
-35.27527211732897
 21
15.47669695236021
 31
0.0
  0
LINE
  5
216
330
2
100
AcDbEntity
  8
GAIKEI
  6
HIDDEN2
 62
     1
100
AcDbLine
 10
-34.92886195572896
 20
15.67669695236026
 30
0.0
 11
-34.91664358672895
 21
15.65553411636023
 31
0.0
  0
LINE
  5
217
330
2
100
AcDbEntity
  8
GAIKEI
  6
HIDDEN2
 62
     1
100
AcDbLine
 10
-35.27527211732897
 20
15.47669695236021
 30
0.0
 11
-35.26305374812896
 21
15.45553411636018
 31
0.0
  0
LINE
  5
218
330
2
100
AcDbEntity
  8
GAIKEI
  6
HIDDEN2
 62
     1
100
AcDbLine
 10
-34.94667274012897
 20
15.70754613596017
 30
0.0
 11
-34.92886195572896
 21
15.67669695236026
 31
0.0
  0
LINE
  5
219
330
2
100
AcDbEntity
  8
GAIKEI
  6
HIDDEN2
 62
     1
100
AcDbLine
 10
-35.29308290172895
 20
15.50754613596012
 30
0.0
 11
-35.27527211732897
 21
15.47669695236021
 31
0.0
  0
ARC
  5
21A
330
2
100
AcDbEntity
  8
GAIKEI
  6
HIDDEN2
 62
     1
100
AcDbCircle
 10
-32.83706705352896
 20
11.65360190276027
 30
0.0
 40
4.5
100
AcDbArc
 50
116.1769464760044
 51
123.8244355550057
  0
LINE
  5
21B
330
2
100
AcDbEntity
  8
GAIKEI
  6
HIDDEN2
 62
     1
100
AcDbLine
 10
-34.75710465612895
 20
15.57920458296024
 30
0.0
 11
-34.85733070312895
 21
15.7528011887602
 31
0.0
  0
ARC
  5
21C
330
2
100
AcDbEntity
  8
GAIKEI
  6
HIDDEN2
 62
     1
100
AcDbCircle
 10
-32.83706705352896
 20
11.65360190276027
 30
0.0
 40
4.57
100
AcDbArc
 50
116.2360824540033
 51
123.7639175460002
  0
LINE
  5
21D
330
2
100
AcDbEntity
  8
GAIKEI
  6
HIDDEN2
 62
     1
100
AcDbLine
 10
-35.37694594552898
 20
15.45280118876025
 30
0.0
 11
-35.27671989852897
 21
15.27920458296029
 31
0.0
  0
ARC
  5
21E
330
2
100
AcDbEntity
  8
GAIKEI
  6
HIDDEN2
 62
     1
100
AcDbCircle
 10
-32.83706705352896
 20
11.65360190276027
 30
0.0
 40
4.549999999999999
100
AcDbArc
 50
116.2195137620012
 51
117.4806924790033
  0
ARC
  5
21F
330
2
100
AcDbEntity
  8
GAIKEI
  6
HIDDEN2
 62
     1
100
AcDbCircle
 10
-32.83706705352896
 20
11.65360190276027
 30
0.0
 40
4.549999999999999
100
AcDbArc
 50
122.5193075210001
 51
123.7804862380077
  0
ARC
  5
220
330
2
100
AcDbEntity
  8
GAIKEI
  6
HIDDEN2
 62
     1
100
AcDbCircle
 10
-32.83706705352896
 20
11.65360190276027
 30
0.0
 40
4.389999999999999
100
AcDbArc
 50
116.0815169690052
 51
123.9184830309951
  0
ARC
  5
221
330
2
100
AcDbEntity
  8
GAIKEI
  6
HIDDEN2
 62
     1
100
AcDbCircle
 10
-28.78044222472897
 20
12.73460356996014
 30
0.0
 40
0.03
100
AcDbArc
 50
194.9999999999944
 51
14.99999999999446
  0
LINE
  5
222
330
2
100
AcDbEntity
  8
GAIKEI
  6
HIDDEN2
 62
     1
100
AcDbLine
 10
-28.80941999952895
 20
12.72683899876023
 30
0.0
 11
-28.83839777432897
 21
12.71907442736022
 31
0.0
  0
ARC
  5
223
330
2
100
AcDbEntity
  8
GAIKEI
  6
HIDDEN2
 62
     1
100
AcDbCircle
 10
-32.83733069512897
 20
11.64756358056019
 30
0.0
 40
4.17
100
AcDbArc
 50
14.99999999999446
 51
45.00000000000483
  0
ARC
  5
224
330
2
100
AcDbEntity
  8
GAIKEI
  6
HIDDEN2
 62
     1
100
AcDbCircle
 10
-32.83733069512897
 20
11.64756358056019
 30
0.0
 40
4.229999999999999
100
AcDbArc
 50
14.99999999999446
 51
45.00000000000483
  0
LINE
  5
225
330
2
100
AcDbEntity
  8
GAIKEI
  6
HIDDEN2
 62
     1
100
AcDbLine
 10
-28.72248667512895
 20
12.75013271276015
 30
0.0
 11
-28.75146444992896
 21
12.74236814136014
 31
0.0
  0
LINE
  5
226
330
2
100
AcDbEntity
  8
GAIKEI
  6
HIDDEN2
 62
     1
100
AcDbLine
 10
-29.82505580712896
 20
14.65983846836019
 30
0.0
 11
-29.84626901072898
 21
14.63862526496012
 31
0.0
  0
LINE
  5
227
330
2
100
AcDbEntity
  8
GAIKEI
  6
HIDDEN2
 62
     1
100
AcDbLine
 10
-29.88869541752896
 20
14.59619885816022
 30
0.0
 11
-29.90990862092895
 21
14.57498565476015
 31
0.0
  0
ARC
  5
228
330
2
100
AcDbEntity
  8
GAIKEI
  6
HIDDEN2
 62
     1
100
AcDbCircle
 10
-29.86748221412895
 20
14.61741206156006
 30
0.0
 40
0.03
100
AcDbArc
 50
45.00000000000483
 51
225.0000000000048
  0
ARC
  5
229
330
2
100
AcDbEntity
  8
GAIKEI
  6
HIDDEN2
 62
     1
100
AcDbCircle
 10
-32.83733069512897
 20
11.64756358056019
 30
0.0
 40
4.26
100
AcDbArc
 50
14.99999999999446
 51
45.00000000000483
  0
ARC
  5
22A
330
2
100
AcDbEntity
  8
GAIKEI
  6
HIDDEN2
 62
     1
100
AcDbCircle
 10
-28.78044222472897
 20
12.73460356996014
 30
0.0
 40
0.06
100
AcDbArc
 50
194.9999999999944
 51
14.99999999999446
  0
ARC
  5
22B
330
2
100
AcDbEntity
  8
GAIKEI
  6
HIDDEN2
 62
     1
100
AcDbCircle
 10
-32.83733069512897
 20
11.64756358056019
 30
0.0
 40
4.139999999999999
100
AcDbArc
 50
14.99999999999446
 51
45.00000000000483
  0
ARC
  5
22C
330
2
100
AcDbEntity
  8
GAIKEI
  6
HIDDEN2
 62
     1
100
AcDbCircle
 10
-29.86748221412895
 20
14.61741206156006
 30
0.0
 40
0.06
100
AcDbArc
 50
45.00000000000483
 51
225.0000000000048
  0
ARC
  5
22D
330
2
100
AcDbEntity
  8
GAIKEI
  6
HIDDEN2
 62
     1
100
AcDbCircle
 10
-32.83733069512897
 20
11.64756358056019
 30
0.0
 40
4.389999999999999
100
AcDbArc
 50
356.0815169689922
 51
3.918483031007789
  0
ARC
  5
22E
330
2
100
AcDbEntity
  8
GAIKEI
  6
HIDDEN2
 62
     1
100
AcDbCircle
 10
-32.83733069512897
 20
11.64756358056019
 30
0.0
 40
4.549999999999999
100
AcDbArc
 50
2.519307520997289
 51
3.780486238009692
  0
ARC
  5
22F
330
2
100
AcDbEntity
  8
GAIKEI
  6
HIDDEN2
 62
     1
100
AcDbCircle
 10
-32.83733069512897
 20
11.64756358056019
 30
0.0
 40
4.549999999999999
100
AcDbArc
 50
356.2195137619903
 51
357.4806924790027
  0
LINE
  5
230
330
2
100
AcDbEntity
  8
GAIKEI
  6
HIDDEN2
 62
     1
100
AcDbLine
 10
-28.27718815352895
 20
11.94756358056014
 30
0.0
 11
-28.47764024752897
 21
11.94756358056014
 31
0.0
  0
ARC
  5
231
330
2
100
AcDbEntity
  8
GAIKEI
  6
HIDDEN2
 62
     1
100
AcDbCircle
 10
-32.83733069512897
 20
11.64756358056019
 30
0.0
 40
4.57
100
AcDbArc
 50
356.2360824540078
 51
3.763917545992129
  0
LINE
  5
232
330
2
100
AcDbEntity
  8
GAIKEI
  6
HIDDEN2
 62
     1
100
AcDbLine
 10
-28.47764024752897
 20
11.34756358056023
 30
0.0
 11
-28.27718815352895
 21
11.34756358056023
 31
0.0
  0
ARC
  5
233
330
2
100
AcDbEntity
  8
GAIKEI
  6
HIDDEN2
 62
     1
100
AcDbCircle
 10
-32.83733069512897
 20
11.64756358056019
 30
0.0
 40
4.5
100
AcDbArc
 50
356.1769464759877
 51
3.824435554996875
  0
LINE
  5
234
330
2
100
AcDbEntity
  8
GAIKEI
  6
HIDDEN2
 62
     1
100
AcDbLine
 10
-28.27170916012895
 20
11.84756358056023
 30
0.0
 11
-28.30733072912895
 21
11.84756358056023
 31
0.0
  0
LINE
  5
235
330
2
100
AcDbEntity
  8
GAIKEI
  6
HIDDEN2
 62
     1
100
AcDbLine
 10
-28.27170916012895
 20
11.44756358056014
 30
0.0
 11
-28.30733072912895
 21
11.44756358056014
 31
0.0
  0
LINE
  5
236
330
2
100
AcDbEntity
  8
GAIKEI
  6
HIDDEN2
 62
     1
100
AcDbLine
 10
-28.30733072912895
 20
11.84756358056023
 30
0.0
 11
-28.33176746732898
 21
11.84756358056023
 31
0.0
  0
LINE
  5
237
330
2
100
AcDbEntity
  8
GAIKEI
  6
HIDDEN2
 62
     1
100
AcDbLine
 10
-28.30733072912895
 20
11.44756358056014
 30
0.0
 11
-28.33176746732898
 21
11.44756358056014
 31
0.0
  0
LINE
  5
238
330
2
100
AcDbEntity
  8
GAIKEI
  6
HIDDEN2
 62
     1
100
AcDbLine
 10
-28.30733072912895
 20
11.44756358056014
 30
0.0
 11
-28.30733072912895
 21
11.84756358056023
 31
0.0
  0
ARC
  5
239
330
2
100
AcDbEntity
  8
GAIKEI
  6
HIDDEN2
 62
     1
100
AcDbCircle
 10
-32.83733069512897
 20
11.64756358056019
 30
0.0
 40
4.51
100
AcDbArc
 50
356.1855843250067
 51
3.815268213996056
  0
DIMENSION
  5
23A
330
2
100
AcDbEntity
  8
SUNPO
100
AcDbDimension
  2
*D5
 10
-16.34177713209681
 20
3.948057736815426
 30
0.0
 11
-18.09177713209681
 21
12.24805811257681
 31
0.0
 70
    33
  1
83
 71
     5
 42
16.60000075152277
  3
STANDARD
100
AcDbAlignedDimension
 13
-24.34177713209681
 23
20.5480584883382
 33
0.0
 14
-24.34177713209681
 24
3.948057736815428
 34
0.0
1001
ACAD
1000
DSTYLE
1002
{
1070
    40
1040
1.0
1070
   140
1040
2.5
1070
   147
1040
0.5
1070
   172
1070
     1
1070
   279
1070
     0
1070
   288
1070
     0
1070
   341
1005
0
1002
}
  0
DIMENSION
  5
247
330
2
100
AcDbEntity
  8
SUNPO
100
AcDbDimension
  2
*D4
 10
-24.34177713209681
 20
28.5413580235026
 30
0.0
 11
-32.74177713209552
 21
30.2913580235026
 31
0.0
 70
    33
  1
84
 71
     5
 42
16.79999999999742
  3
STANDARD
100
AcDbAlignedDimension
 13
-41.14177713209423
 23
20.5413580235026
 33
0.0
 14
-24.34177713209681
 24
20.5413580235026
 34
0.0
1001
ACAD
1000
DSTYLE
1002
{
1070
    40
1040
1.0
1070
   140
1040
2.5
1070
   147
1040
0.5
1070
   172
1070
     1
1070
   279
1070
     0
1070
   288
1070
     0
1070
   341
1005
0
1002
}
  0
ARC
  5
254
330
2
100
AcDbEntity
  8
GAIKEI
  6
Continuous
 62
     1
100
AcDbCircle
 10
-38.29602450945322
 20
4.419467141982806
 30
0.0
 40
0.3
100
AcDbArc
 50
217.2875502362228
 51
270.0
  0
ARC
  5
255
330
2
100
AcDbEntity
  8
GAIKEI
  6
Continuous
 62
     1
100
AcDbCircle
 10
-27.18752975473786
 20
4.419467141982806
 30
0.0
 40
0.3
100
AcDbArc
 50
270.0
 51
322.7124497637811
  0
ARC
  5
256
330
2
100
AcDbEntity
  8
GAIKEI
  6
Continuous
100
AcDbCircle
 10
-39.23306774512264
 20
18.0480584997548
 30
0.0
 40
0.5
100
AcDbArc
 50
90.0
 51
137.1701220195256
  0
ARC
  5
257
330
2
100
AcDbEntity
  8
GAIKEI
  6
Continuous
100
AcDbCircle
 10
-26.25048651906843
 20
18.0480584997548
 30
0.0
 40
0.5
100
AcDbArc
 50
42.82987798048738
 51
90.0
  0
ARC
  5
258
330
2
100
AcDbEntity
  8
GAIKEI
  6
Continuous
100
AcDbCircle
 10
-38.1974033796877
 20
4.812031756868748
 30
0.0
 40
0.8675615115162987
100
AcDbArc
 50
237.4532815784556
 51
259.0259927231447
  0
ARC
  5
259
330
2
100
AcDbEntity
  8
GAIKEI
  6
Continuous
100
AcDbCircle
 10
-27.26061442513043
 20
4.748057736815439
 30
0.0
 40
0.8
100
AcDbArc
 50
270.0
 51
303.4700198872568
  0
ARC
  5
25A
330
2
100
AcDbEntity
  8
GAIKEI
  6
Continuous
 62
     1
100
AcDbCircle
 10
-38.88651458134726
 20
17.87664976216001
 30
0.0
 40
0.5
100
AcDbArc
 50
90.0
 51
145.7904993465523
  0
ARC
  5
25B
330
2
100
AcDbEntity
  8
GAIKEI
  6
Continuous
 62
     1
100
AcDbCircle
 10
-26.59703968284361
 20
17.87664976216001
 30
0.0
 40
0.4999999999998
100
AcDbArc
 50
34.20950065345567
 51
90.0
  0
ARC
  5
25C
330
2
100
AcDbEntity
  8
GAIKEI
  6
Continuous
100
AcDbCircle
 10
-28.27650190197602
 20
20.44805848833823
 30
0.0
 40
0.1
100
AcDbArc
 50
51.44765873675634
 51
90.0
  0
ARC
  5
25D
330
2
100
AcDbEntity
  8
GAIKEI
  6
Continuous
100
AcDbCircle
 10
-37.20705236221505
 20
20.44805848833823
 30
0.0
 40
0.1
100
AcDbArc
 50
90.0
 51
128.552341263238
  0
ARC
  5
25E
330
2
100
AcDbEntity
  8
GAIKEI
  6
Continuous
100
AcDbCircle
 10
-32.29177713209543
 20
19.44805848833823
 30
0.0
 40
0.1
100
AcDbArc
 50
270.0
 51
0.0
  0
ARC
  5
25F
330
2
100
AcDbEntity
  8
GAIKEI
  6
Continuous
100
AcDbCircle
 10
-33.19177713209544
 20
19.44805848833823
 30
0.0
 40
0.1
100
AcDbArc
 50
180.0
 51
270.0
  0
ARC
  5
260
330
2
100
AcDbEntity
  8
GAIKEI
  6
Continuous
 62
     1
100
AcDbCircle
 10
-41.26999860868622
 20
11.89805993026624
 30
0.0
 40
0.1
100
AcDbArc
 50
90.0
 51
149.2222468774714
  0
ARC
  5
261
330
2
100
AcDbEntity
  8
GAIKEI
  6
Continuous
 62
     1
100
AcDbCircle
 10
-39.79369551804905
 20
5.198058404387438
 30
0.0
 40
0.0999999999998
100
AcDbArc
 50
240.8500852311693
 51
270.0
  0
ARC
  5
262
330
2
100
AcDbEntity
  8
GAIKEI
  6
Continuous
100
AcDbCircle
 10
54.33881581558873
 20
18.34805855200039
 30
0.0
 40
0.2
100
AcDbArc
 50
359.8851787271993
 51
90.0000001373348
  0
ARC
  5
263
330
2
100
AcDbEntity
  8
GAIKEI
  6
Continuous
100
AcDbCircle
 10
52.03388119365573
 20
4.148058404387597
 30
0.0
 40
0.2
100
AcDbArc
 50
270.0
 51
334.2482405878986
  0
ARC
  5
264
330
2
100
AcDbEntity
  8
GAIKEI
  6
Continuous
100
AcDbCircle
 10
15.53901926833029
 20
4.512546047228795
 30
0.0
 40
0.4
100
AcDbArc
 50
180.0
 51
268.9999999999917
  0
ARC
  5
265
330
2
100
AcDbEntity
  8
GAIKEI
  6
Continuous
100
AcDbCircle
 10
15.53901926833029
 20
17.98357085691361
 30
0.0
 40
0.4000000000002001
100
AcDbArc
 50
91.00000000000823
 51
180.0
  0
ARC
  5
266
330
2
100
AcDbEntity
  8
GAIKEI
  6
Continuous
 62
     1
100
AcDbCircle
 10
23.95901926833011
 20
10.74805849975479
 30
0.0
 40
0.1
100
AcDbArc
 50
0.0
 51
90.0
  0
ARC
  5
267
330
2
100
AcDbEntity
  8
GAIKEI
  6
Continuous
 62
     1
100
AcDbCircle
 10
23.95901926833011
 20
9.548058499754802
 30
0.0
 40
0.1
100
AcDbArc
 50
270.0
 51
0.0
  0
ARC
  5
268
330
2
100
AcDbEntity
  8
GAIKEI
  6
Continuous
 62
     1
100
AcDbCircle
 10
16.45901926833011
 20
9.548058499754802
 30
0.0
 40
0.1
100
AcDbArc
 50
180.0
 51
270.0
  0
ARC
  5
269
330
2
100
AcDbEntity
  8
GAIKEI
  6
Continuous
 62
     1
100
AcDbCircle
 10
16.45901926833011
 20
10.74805849975479
 30
0.0
 40
0.1
100
AcDbArc
 50
90.0
 51
180.0
  0
ARC
  5
26A
330
2
100
AcDbEntity
  8
GAIKEI
  6
Continuous
 62
     1
100
AcDbCircle
 10
23.97901926833012
 20
10.90805849975481
 30
0.0
 40
0.24
100
AcDbArc
 50
0.0
 51
90.0
  0
ARC
  5
26B
330
2
100
AcDbEntity
  8
GAIKEI
  6
Continuous
 62
     1
100
AcDbCircle
 10
23.97901926833012
 20
9.388058499754833
 30
0.0
 40
0.24
100
AcDbArc
 50
270.0
 51
0.0
  0
ARC
  5
26C
330
2
100
AcDbEntity
  8
GAIKEI
  6
Continuous
 62
     1
100
AcDbCircle
 10
16.4390192683301
 20
9.388058499754833
 30
0.0
 40
0.24
100
AcDbArc
 50
180.0
 51
270.0
  0
ARC
  5
26D
330
2
100
AcDbEntity
  8
GAIKEI
  6
Continuous
 62
     1
100
AcDbCircle
 10
16.4390192683301
 20
10.90805849975481
 30
0.0
 40
0.24
100
AcDbArc
 50
90.0
 51
180.0
  0
ARC
  5
26E
330
2
100
AcDbEntity
  8
GAIKEI
  6
Continuous
100
AcDbCircle
 10
32.3336893774449
 20
20.44805848833823
 30
0.0
 40
0.1000000000002
100
AcDbArc
 50
61.60814684342188
 51
90.0
  0
ARC
  5
26F
330
2
100
AcDbEntity
  8
GAIKEI
  6
Continuous
100
AcDbCircle
 10
-45.46098378342768
 20
18.54805854243721
 30
0.0
 40
99.99999999999982
100
AcDbArc
 50
357.7075572296916
 51
359.8851787272026
  0
ARC
  5
270
330
2
100
AcDbEntity
  8
GAIKEI
  6
Continuous
 62
     1
100
AcDbCircle
 10
-39.63759717591845
 20
10.92581224459223
 30
0.0
 40
2.0000000000002
100
AcDbArc
 50
149.2222468774714
 51
180.0
  0
ARC
  5
271
330
2
100
AcDbEntity
  8
GAIKEI
  6
Continuous
 62
     1
100
AcDbCircle
 10
-30.05441746539182
 20
15.52618007961365
 30
0.0
 40
4.680689998054
100
AcDbArc
 50
20.04199584276564
 51
34.20950065345949
  0
ARC
  5
272
330
2
100
AcDbEntity
  8
GAIKEI
  6
Continuous
100
AcDbCircle
 10
-27.14390939990602
 20
12.50372480963284
 30
0.0
 40
13.9999999999986
100
AcDbArc
 50
160.7027427004914
 51
182.0699119001426
  0
ARC
  5
273
330
2
100
AcDbEntity
  8
GAIKEI
  6
Continuous
 62
     7
100
AcDbCircle
 10
-19.94500599477882
 20
13.01804951622523
 30
0.0
 40
21.19999999999981
100
AcDbArc
 50
199.9239347040908
 51
201.0255933150847
  0
ARC
  5
274
330
2
100
AcDbEntity
  8
GAIKEI
  6
Continuous
100
AcDbCircle
 10
-36.95960382814585
 20
15.94060462879963
 30
0.0
 40
3.6
100
AcDbArc
 50
137.1701220195171
 51
160.7027427004914
  0
ARC
  5
275
330
2
100
AcDbEntity
  8
GAIKEI
  6
Continuous
100
AcDbCircle
 10
-37.11993868382342
 20
6.416406756518824
 30
0.0
 40
2.8
100
AcDbArc
 50
201.0255933150847
 51
236.5299801127451
  0
ARC
  5
276
330
2
100
AcDbEntity
  8
GAIKEI
  6
Continuous
100
AcDbCircle
 10
-28.52395043604526
 20
15.94060462879963
 30
0.0
 40
3.5999999999998
100
AcDbArc
 50
19.29725729950856
 51
42.82987798048287
  0
ARC
  5
277
330
2
100
AcDbEntity
  8
GAIKEI
  6
Continuous
100
AcDbCircle
 10
-38.33964486428505
 20
12.50372480963284
 30
0.0
 40
13.9999999999988
100
AcDbArc
 50
1.000000000001775
 51
19.2972572995051
  0
ARC
  5
278
330
2
100
AcDbEntity
  8
GAIKEI
  6
Continuous
100
AcDbCircle
 10
-45.53854826941241
 20
13.01804951622523
 30
0.0
 40
21.2000000000002
100
AcDbArc
 50
349.0025272711241
 51
358.9999999999982
  0
ARC
  5
279
330
2
100
AcDbEntity
  8
GAIKEI
  6
Continuous
100
AcDbCircle
 10
-28.36361558036765
 20
6.416406756518824
 30
0.0
 40
2.8
100
AcDbArc
 50
303.4700198872549
 51
338.9744066849153
  0
ARC
  5
27A
330
2
100
AcDbEntity
  8
GAIKEI
  6
Continuous
 62
     1
100
AcDbCircle
 10
-13.53572358445661
 20
14.24996701439528
 30
0.0
 40
27.15308833300862
100
AcDbArc
 50
183.3728754779873
 51
196.4993840796285
  0
ARC
  5
27B
330
2
100
AcDbEntity
  8
GAIKEI
  6
Continuous
 62
     1
100
AcDbCircle
 10
-34.61587587406882
 20
7.221725601790637
 30
0.0
 40
4.9255968754406
100
AcDbArc
 50
201.5585139883889
 51
217.2875502362267
  0
ARC
  5
27C
330
2
100
AcDbEntity
  8
GAIKEI
  6
Continuous
 62
     1
100
AcDbCircle
 10
-45.53854826941241
 20
13.01804951622523
 30
0.0
 40
20.7000000000002
100
AcDbArc
 50
349.0025272711274
 51
358.9758449801707
  0
ARC
  5
27D
330
2
100
AcDbEntity
  8
GAIKEI
  6
Continuous
 62
     1
100
AcDbCircle
 10
-30.86767839012225
 20
7.221725601790637
 30
0.0
 40
4.9255968754406
100
AcDbArc
 50
322.7124497637772
 51
338.4414860116111
  0
ARC
  5
27E
330
2
100
AcDbEntity
  8
GAIKEI
  6
Continuous
 62
     1
100
AcDbCircle
 10
-27.14390939990602
 20
12.50372480963284
 30
0.0
 40
13.4999999999986
100
AcDbArc
 50
159.9580041572343
 51
178.9816493668135
  0
ARC
  5
27F
330
2
100
AcDbEntity
  8
GAIKEI
  6
Continuous
 62
     1
100
AcDbCircle
 10
-38.33964486428505
 20
12.50372480963284
 30
0.0
 40
13.4999999999986
100
AcDbArc
 50
1.037044248323896
 51
20.04199584276564
  0
ARC
  5
280
330
2
100
AcDbEntity
  8
GAIKEI
  6
Continuous
100
AcDbCircle
 10
-45.53854826941241
 20
13.01804951622523
 30
0.0
 40
21.2000000000002
100
AcDbArc
 50
338.9744066849153
 51
349.0025272711241
  0
ARC
  5
281
330
2
100
AcDbEntity
  8
GAIKEI
  6
Continuous
 62
     1
100
AcDbCircle
 10
-45.53854826941241
 20
13.01804951622523
 30
0.0
 40
20.7
100
AcDbArc
 50
338.4414860116111
 51
349.0025272711274
  0
ARC
  5
282
330
2
100
AcDbEntity
  8
GAIKEI
  6
Continuous
 62
     1
100
AcDbCircle
 10
-35.42913679879905
 20
15.52618007961365
 30
0.0
 40
4.680689998053799
100
AcDbArc
 50
145.7904993465405
 51
159.9580041572343
  0
ARC
  5
283
330
2
100
AcDbEntity
  8
GAIKEI
  6
Continuous
100
AcDbCircle
 10
-30.70709621394644
 20
17.39810581811241
 30
0.0
 40
4.0
100
AcDbArc
 50
19.7239133534885
 51
51.44765873675634
  0
ARC
  5
284
330
2
100
AcDbEntity
  8
GAIKEI
  6
Continuous
100
AcDbCircle
 10
-34.77645805024463
 20
17.39810581811241
 30
0.0
 40
4.0
100
AcDbArc
 50
128.0486074449326
 51
128.5523412632436
  0
ARC
  5
285
330
2
100
AcDbEntity
  8
GAIKEI
  6
Continuous
100
AcDbCircle
 10
-34.77645805024463
 20
17.39810581811241
 30
0.0
 40
4.0
100
AcDbArc
 50
128.5523412632436
 51
160.2760866465115
  0
ARC
  5
286
330
2
100
AcDbEntity
  8
GAIKEI
  6
Continuous
 62
     7
100
AcDbCircle
 10
-19.97158904747823
 20
13.04631319769544
 30
0.0
 40
21.1799999999998
100
AcDbArc
 50
182.8368760633003
 51
192.7133438141908
  0
ARC
  5
287
330
2
100
AcDbEntity
  8
GAIKEI
  6
Continuous
 62
     1
100
AcDbCircle
 10
-19.97158904747823
 20
13.04631319769544
 30
0.0
 40
21.2799999999998
100
AcDbArc
 50
190.6773130258526
 51
192.7133438141908
  0
ARC
  5
288
330
2
100
AcDbEntity
  8
GAIKEI
  6
Continuous
 62
     1
100
AcDbCircle
 10
-42.05044319852103
 20
7.859156040159405
 30
0.0
 40
1.4000000000002
100
AcDbArc
 50
341.7308809797193
 51
13.2211732112365
  0
ARC
  5
289
330
2
100
AcDbEntity
  8
GAIKEI
  6
Continuous
 62
     1
100
AcDbCircle
 10
-19.97158904747823
 20
13.04631319769544
 30
0.0
 40
21.28
100
AcDbArc
 50
192.7133438141908
 51
193.2211732112499
  0
ARC
  5
28A
330
2
100
AcDbEntity
  8
GAIKEI
  6
Continuous
 62
     1
100
AcDbCircle
 10
-42.25891289151443
 20
8.84421897325825
 30
0.0
 40
1.4
100
AcDbArc
 50
10.67731302585262
 51
59.30370771322621
  0
ARC
  5
28B
330
2
100
AcDbEntity
  8
GAIKEI
  6
Continuous
 62
     7
100
AcDbCircle
 10
6.544797914738779
 20
20.74596532488493
 30
0.0
 40
48.76956563581479
100
AcDbArc
 50
194.6819543306005
 51
196.5681930927905
  0
ARC
  5
28C
330
2
100
AcDbEntity
  8
GAIKEI
  6
Continuous
 62
     1
100
AcDbCircle
 10
-39.63759717591845
 20
10.92581224459223
 30
0.0
 40
2.0000000000002
100
AcDbArc
 50
180.0
 51
186.1541803442946
  0
ARC
  5
28D
330
2
100
AcDbEntity
  8
GAIKEI
  6
Continuous
 62
     1
100
AcDbCircle
 10
-39.06305090890583
 20
6.508080715315998
 30
0.0
 40
1.6000000000002
100
AcDbArc
 50
198.9047386517218
 51
240.850085231021
  0
ARC
  5
28E
330
2
100
AcDbEntity
  8
GAIKEI
  6
Continuous
 62
     1
100
AcDbCircle
 10
-19.97158904747823
 20
13.04631319769544
 30
0.0
 40
21.78
100
AcDbArc
 50
198.4087315133263
 51
198.9047386517322
  0
ARC
  5
28F
330
2
100
AcDbEntity
  8
GAIKEI
  6
Continuous
 62
     1
100
AcDbCircle
 10
-19.97158904747823
 20
13.04631319769544
 30
0.0
 40
21.78
100
AcDbArc
 50
187.9125161715321
 51
190.0071439004703
  0
ARC
  5
290
330
2
100
AcDbEntity
  8
GAIKEI
  6
Continuous
 62
     1
100
AcDbCircle
 10
-19.97158904747823
 20
13.04631319769544
 30
0.0
 40
21.78
100
AcDbArc
 50
186.154180344298
 51
187.9125161715321
  0
ARC
  5
291
330
2
100
AcDbEntity
  8
GAIKEI
  6
Continuous
100
AcDbCircle
 10
-45.46098378342768
 20
18.54805854243721
 30
0.0
 40
100.0
100
AcDbArc
 50
359.9206634616126
 51
0.0000000057549211
  0
ARC
  5
292
330
2
100
AcDbEntity
  8
GAIKEI
  6
Continuous
100
AcDbCircle
 10
14.4909970014335
 20
16.14805854834805
 30
0.0
 40
40.0
100
AcDbArc
 50
355.1239751345068
 51
357.7075572296916
  0
ARC
  5
293
330
2
100
AcDbEntity
  8
GAIKEI
  6
Continuous
100
AcDbCircle
 10
34.2003202101767
 20
12.75062212972801
 30
0.0
 40
20.0000000000002
100
AcDbArc
 50
334.2482405879131
 51
350.219631561631
  0
ARC
  5
294
330
2
100
AcDbEntity
  8
GAIKEI
  6
Continuous
100
AcDbCircle
 10
14.49099700143372
 20
16.14805920100724
 30
0.0
 40
39.9999999999998
100
AcDbArc
 50
350.219631561631
 51
354.9801988599826
  0
ARC
  5
295
330
2
100
AcDbEntity
  8
GAIKEI
  6
Continuous
100
AcDbCircle
 10
41.89122184420509
 20
38.13035395999083
 30
0.0
 40
20.0
100
AcDbArc
 50
241.6081468434169
 51
255.7229926802865
  0
ARC
  5
296
330
2
100
AcDbEntity
  8
GAIKEI
  6
Phantom
100
AcDbCircle
 10
41.89122184420509
 20
38.13035395999083
 30
0.0
 40
20.0
100
AcDbArc
 50
241.5357627809448
 51
241.6081468434169
  0
LINE
  5
298
330
2
100
AcDbEntity
  8
GAIKEI
  6
Continuous
100
AcDbLine
 10
54.33881581510931
 20
18.54805855200044
 30
0.0
 11
25.0590162165723
 21
18.548058481812
 31
0.0
  0
LINE
  5
299
330
2
100
AcDbEntity
  8
GAIKEI
  6
Continuous
100
AcDbLine
 10
-40.64177713209423
 20
12.74365539192763
 30
0.0
 11
-40.64177713209423
 21
12.65244797138882
 31
0.0
  0
LINE
  5
29A
330
2
100
AcDbEntity
  8
GAIKEI
  6
Continuous
100
AcDbLine
 10
-24.84177713209681
 20
12.64805849975482
 30
0.0
 11
-24.84177713209681
 21
12.74805849975479
 31
0.0
  0
LINE
  5
29B
330
2
100
AcDbEntity
  8
GAIKEI
  6
Continuous
 62
     1
100
AcDbLine
 10
-38.29602450945322
 20
4.119467141982852
 30
0.0
 11
-27.18752975473786
 21
4.119467141982852
 31
0.0
  0
LINE
  5
29C
330
2
100
AcDbEntity
  8
GAIKEI
  6
Continuous
100
AcDbLine
 10
-39.23306774512264
 20
18.5480584997548
 30
0.0
 11
-32.74177713209565
 21
18.5480584997548
 31
0.0
  0
LINE
  5
29D
330
2
100
AcDbEntity
  8
GAIKEI
  6
Continuous
100
AcDbLine
 10
-38.22293983906062
 20
3.948057736815371
 30
0.0
 11
-32.74177713209565
 21
3.948057736815428
 31
0.0
  0
LINE
  5
29E
330
2
100
AcDbEntity
  8
GAIKEI
  6
Continuous
100
AcDbLine
 10
-32.74177713209565
 20
18.5480584997548
 30
0.0
 11
-26.25048651906843
 21
18.5480584997548
 31
0.0
  0
LINE
  5
29F
330
2
100
AcDbEntity
  8
GAIKEI
  6
Continuous
100
AcDbLine
 10
-32.74177713209565
 20
3.948057736815428
 30
0.0
 11
-27.26061442513043
 21
3.948057736815428
 31
0.0
  0
LINE
  5
2A0
330
2
100
AcDbEntity
  8
GAIKEI
  6
Continuous
100
AcDbLine
 10
-41.14177713209423
 20
12.74805849975479
 30
0.0
 11
-41.14177713209423
 21
12.64805849975482
 31
0.0
  0
LINE
  5
2A1
330
2
100
AcDbEntity
  8
GAIKEI
  6
Continuous
100
AcDbLine
 10
-24.34177713209681
 20
12.64805849975482
 30
0.0
 11
-24.34177713209681
 21
12.74805849975479
 31
0.0
  0
LINE
  5
2A2
330
2
100
AcDbEntity
  8
GAIKEI
  6
Continuous
100
AcDbLine
 10
-39.34177713209564
 20
18.37664976216001
 30
0.0
 11
-39.34177523053205
 21
18.37664976216001
 31
0.0
  0
LINE
  5
2A3
330
2
100
AcDbEntity
  8
GAIKEI
  6
Continuous
 62
     1
100
AcDbLine
 10
-38.88651458134726
 20
18.37664976216001
 30
0.0
 11
-26.59703968284361
 21
18.37664976216001
 31
0.0
  0
LINE
  5
2A4
330
2
100
AcDbEntity
  8
GAIKEI
  6
Continuous
100
AcDbLine
 10
-37.20705236221505
 20
20.5480584883382
 30
0.0
 11
-37.24177713209542
 21
20.5480584883382
 31
0.0
  0
LINE
  5
2A5
330
2
100
AcDbEntity
  8
GAIKEI
  6
Continuous
100
AcDbLine
 10
-26.94177713209544
 20
18.5480584883382
 30
0.0
 11
-26.94177713209544
 21
18.74805848833824
 31
0.0
  0
LINE
  5
2A6
330
2
100
AcDbEntity
  8
GAIKEI
  6
Continuous
100
AcDbLine
 10
-32.29177713209543
 20
19.34805848833821
 30
0.0
 11
-33.19177713209544
 21
19.34805848833821
 31
0.0
  0
LINE
  5
2A7
330
2
100
AcDbEntity
  8
GAIKEI
  6
Continuous
100
AcDbLine
 10
-33.29177713209543
 20
20.5480584883382
 30
0.0
 11
-33.29177713209543
 21
19.44805848833823
 31
0.0
  0
LINE
  5
2A8
330
2
100
AcDbEntity
  8
GAIKEI
  6
Continuous
100
AcDbLine
 10
-32.19177713209544
 20
20.5480584883382
 30
0.0
 11
-32.19177713209544
 21
19.44805848833823
 31
0.0
  0
LINE
  5
2A9
330
2
100
AcDbEntity
  8
GAIKEI
  6
Continuous
100
AcDbLine
 10
-38.54177713209543
 20
18.74805848833824
 30
0.0
 11
-38.54177713209543
 21
18.5480584883382
 31
0.0
  0
LINE
  5
2AA
330
2
100
AcDbEntity
  8
GAIKEI
  6
Continuous
100
AcDbLine
 10
-26.94177713209544
 20
18.74805848833824
 30
0.0
 11
-38.54177713209543
 21
18.74805848833824
 31
0.0
  0
LINE
  5
2AB
330
2
100
AcDbEntity
  8
GAIKEI
  6
Continuous
100
AcDbLine
 10
-28.27650190197602
 20
20.5480584883382
 30
0.0
 11
-37.20705236221505
 21
20.5480584883382
 31
0.0
  0
LINE
  5
2AC
330
2
100
AcDbEntity
  8
GAIKEI
  6
Continuous
100
AcDbLine
 10
-26.94177713209544
 20
18.5480584883382
 30
0.0
 11
-38.54177713209543
 21
18.5480584883382
 31
0.0
  0
LINE
  5
2AD
330
2
100
AcDbEntity
  8
GAIKEI
  6
Phantom
100
AcDbLine
 10
-33.29177713209543
 20
19.4463132476946
 30
0.0
 11
-33.29177713209543
 21
19.34805848833821
 31
0.0
  0
LINE
  5
2AE
330
2
100
AcDbEntity
  8
GAIKEI
  6
Phantom
100
AcDbLine
 10
-32.19177713209544
 20
19.4463132476946
 30
0.0
 11
-32.19177713209544
 21
19.34805848833821
 31
0.0
  0
LINE
  5
2AF
330
2
100
AcDbEntity
  8
GAIKEI
  6
Phantom
100
AcDbLine
 10
-32.19177713209544
 20
19.34805848833821
 30
0.0
 11
-32.29004685840704
 21
19.34805848833821
 31
0.0
  0
LINE
  5
2B0
330
2
100
AcDbEntity
  8
GAIKEI
  6
Phantom
100
AcDbLine
 10
-33.19350740578386
 20
19.34805848833821
 30
0.0
 11
-33.29177713209543
 21
19.34805848833821
 31
0.0
  0
LINE
  5
2B1
330
2
100
AcDbEntity
  8
GAIKEI
  6
Continuous
 62
     1
100
AcDbLine
 10
-39.79369551804905
 20
5.098058404387415
 30
0.0
 11
-39.60364563207082
 21
5.098058404387415
 31
0.0
  0
LINE
  5
2B2
330
2
100
AcDbEntity
  8
GAIKEI
  6
Continuous
 62
     1
100
AcDbLine
 10
-41.26999860868622
 20
11.99805993026621
 30
0.0
 11
-41.12563275281544
 21
11.99805993026621
 31
0.0
  0
LINE
  5
2B3
330
2
100
AcDbEntity
  8
GAIKEI
  6
Continuous
 62
     1
100
AcDbLine
 10
54.34623505139993
 20
12.7480585512136
 30
0.0
 11
39.85901936369712
 21
12.74805852329661
 31
0.0
  0
LINE
  5
2B4
330
2
100
AcDbEntity
  8
GAIKEI
  6
Continuous
100
AcDbLine
 10
54.53901621657232
 20
18.54805855248043
 30
0.0
 11
54.40906358703372
 21
18.54805855216881
 31
0.0
  0
LINE
  5
2B5
330
2
100
AcDbEntity
  8
GAIKEI
  6
Continuous
 62
     1
100
AcDbLine
 10
39.85901936369712
 20
12.74805852336459
 30
0.0
 11
25.05901621657211
 21
12.74805849992521
 31
0.0
  0
LINE
  5
2B6
330
2
100
AcDbEntity
  8
GAIKEI
  6
Continuous
 62
     1
100
AcDbLine
 10
25.0590162165723
 20
18.5480584997548
 30
0.0
 11
25.05901621657211
 21
12.74805849992521
 31
0.0
  0
LINE
  5
2B7
330
2
100
AcDbEntity
  8
GAIKEI
  6
Continuous
100
AcDbLine
 10
52.03388119365573
 20
3.948058404387609
 30
0.0
 11
25.0590162165725
 21
3.948058404387609
 31
0.0
  0
LINE
  5
2B8
330
2
100
AcDbEntity
  8
GAIKEI
  6
Continuous
 62
     1
100
AcDbLine
 10
25.75901926833032
 20
12.64805849975482
 30
0.0
 11
25.75901926833032
 21
12.74805850103382
 31
0.0
  0
LINE
  5
2B9
330
2
100
AcDbEntity
  8
GAIKEI
  6
Continuous
 62
     1
100
AcDbLine
 10
25.0590162165725
 20
12.64805849975482
 30
0.0
 11
54.33757772163151
 21
12.64805849975482
 31
0.0
  0
LINE
  5
2BA
330
2
100
AcDbEntity
  8
GAIKEI
  6
Continuous
 62
     1
100
AcDbLine
 10
25.0590162165725
 20
3.948057736815599
 30
0.0
 11
25.0590162165725
 21
12.64805849975482
 31
0.0
  0
LINE
  5
2BB
330
2
100
AcDbEntity
  8
GAIKEI
  6
Continuous
 62
     1
100
AcDbLine
 10
54.23901926833031
 20
12.64805849975482
 30
0.0
 11
54.23901926833031
 21
12.74805849975479
 31
0.0
  0
LINE
  5
2BC
330
2
100
AcDbEntity
  8
GAIKEI
  6
Continuous
 62
     1
100
AcDbLine
 10
53.9990192683301
 20
12.74805849975479
 30
0.0
 11
54.23901926833031
 21
12.74805849975479
 31
0.0
  0
LINE
  5
2BD
330
2
100
AcDbEntity
  8
GAIKEI
  6
HIDDEN2
 62
     1
100
AcDbLine
 10
15.03901926833029
 20
8.048058499754802
 30
0.0
 11
15.03901926833029
 21
15.24805849975479
 31
0.0
  0
LINE
  5
2BE
330
2
100
AcDbEntity
  8
GAIKEI
  6
HIDDEN2
 62
     1
100
AcDbLine
 10
15.03901926833029
 20
15.24805849975479
 30
0.0
 11
15.13901926833031
 21
15.24805849975479
 31
0.0
  0
LINE
  5
2BF
330
2
100
AcDbEntity
  8
GAIKEI
  6
Continuous
 62
     1
100
AcDbLine
 10
16.19901926833012
 20
9.388058499754833
 30
0.0
 11
16.19901926833012
 21
10.90805849975481
 31
0.0
  0
LINE
  5
2C0
330
2
100
AcDbEntity
  8
GAIKEI
  6
Continuous
 62
     1
100
AcDbLine
 10
23.97901926833012
 20
9.148058499754824
 30
0.0
 11
16.4390192683301
 21
9.148058499754824
 31
0.0
  0
LINE
  5
2C1
330
2
100
AcDbEntity
  8
GAIKEI
  6
Continuous
 62
     1
100
AcDbLine
 10
16.4390192683301
 20
11.14805849975482
 30
0.0
 11
23.97901926833012
 21
11.14805849975482
 31
0.0
  0
LINE
  5
2C2
330
2
100
AcDbEntity
  8
GAIKEI
  6
Continuous
 62
     1
100
AcDbLine
 10
24.21901926833013
 20
10.90805849975481
 30
0.0
 11
24.21901926833013
 21
9.388058499754833
 31
0.0
  0
LINE
  5
2C3
330
2
100
AcDbEntity
  8
GAIKEI
  6
Continuous
 62
     1
100
AcDbLine
 10
16.35901926833011
 20
9.548058499754802
 30
0.0
 11
16.35901926833011
 21
10.74805849975479
 31
0.0
  0
LINE
  5
2C4
330
2
100
AcDbEntity
  8
GAIKEI
  6
Continuous
 62
     1
100
AcDbLine
 10
16.45901926833011
 20
10.84805849975481
 30
0.0
 11
23.95901926833011
 21
10.84805849975481
 31
0.0
  0
LINE
  5
2C5
330
2
100
AcDbEntity
  8
GAIKEI
  6
Continuous
 62
     1
100
AcDbLine
 10
24.0590192683301
 20
10.74805849975479
 30
0.0
 11
24.0590192683301
 21
9.548058499754802
 31
0.0
  0
LINE
  5
2C6
330
2
100
AcDbEntity
  8
GAIKEI
  6
Continuous
 62
     1
100
AcDbLine
 10
23.95901926833011
 20
9.448058499754836
 30
0.0
 11
16.45901926833011
 21
9.448058499754836
 31
0.0
  0
LINE
  5
2C7
330
2
100
AcDbEntity
  8
GAIKEI
  6
Continuous
 62
     1
100
AcDbLine
 10
24.95901926833011
 20
11.64805849975482
 30
0.0
 11
24.95901926833011
 21
3.948058404387609
 31
0.0
  0
LINE
  5
2C8
330
2
100
AcDbEntity
  8
GAIKEI
  6
Continuous
100
AcDbLine
 10
24.95901926833011
 20
4.148058404387597
 30
0.0
 11
25.0590162165725
 21
4.149803857611857
 31
0.0
  0
LINE
  5
2C9
330
2
100
AcDbEntity
  8
GAIKEI
  6
Continuous
 62
     1
100
AcDbLine
 10
24.95901926833011
 20
18.54805849975474
 30
0.0
 11
24.95901926833011
 21
11.64805849975482
 31
0.0
  0
LINE
  5
2CA
330
2
100
AcDbEntity
  8
GAIKEI
  6
HIDDEN2
 62
     1
100
AcDbLine
 10
15.03901926833029
 20
9.008058499754838
 30
0.0
 11
15.03901926833029
 21
14.29320209899481
 31
0.0
  0
LINE
  5
2CB
330
2
100
AcDbEntity
  8
GAIKEI
  6
Continuous
 62
     1
100
AcDbLine
 10
25.0590162165723
 20
18.34456652937461
 30
0.0
 11
24.95901926833011
 21
18.34805849975481
 31
0.0
  0
LINE
  5
2CC
330
2
100
AcDbEntity
  8
GAIKEI
  6
HIDDEN2
 62
     1
100
AcDbLine
 10
15.03901926833029
 20
15.24805849975479
 30
0.0
 11
15.13901926833031
 21
15.24805849975479
 31
0.0
  0
LINE
  5
2CD
330
2
100
AcDbEntity
  8
GAIKEI
  6
Continuous
100
AcDbLine
 10
15.13901926833031
 20
17.98357085691361
 30
0.0
 11
15.13901926833031
 21
11.64805849975482
 31
0.0
  0
LINE
  5
2CE
330
2
100
AcDbEntity
  8
GAIKEI
  6
HIDDEN2
 62
     1
100
AcDbLine
 10
15.13901926833031
 20
8.048058499754802
 30
0.0
 11
15.03901926833029
 21
8.048058499754802
 31
0.0
  0
LINE
  5
2CF
330
2
100
AcDbEntity
  8
GAIKEI
  6
Continuous
100
AcDbLine
 10
15.13901926833031
 20
11.64805849975482
 30
0.0
 11
15.13901926833031
 21
4.512546047228795
 31
0.0
  0
LINE
  5
2D0
330
2
100
AcDbEntity
  8
GAIKEI
  6
Continuous
100
AcDbLine
 10
15.53203830575532
 20
4.112606969166392
 30
0.0
 11
24.95901926833011
 21
3.948058404387609
 31
0.0
  0
LINE
  5
2D1
330
2
100
AcDbEntity
  8
GAIKEI
  6
Continuous
100
AcDbLine
 10
15.53203830575532
 20
18.38350993497619
 30
0.0
 11
24.95901926833011
 21
18.5480584997548
 31
0.0
  0
LINE
  5
2D2
330
2
100
AcDbEntity
  8
GAIKEI
  6
Continuous
100
AcDbLine
 10
32.3336893774449
 20
20.5480584883382
 30
0.0
 11
26.05901926832113
 21
20.5480584883378
 31
0.0
  0
LINE
  5
2D3
330
2
100
AcDbEntity
  8
GAIKEI
  6
Continuous
100
AcDbLine
 10
22.55901926832089
 20
18.5480584883382
 30
0.0
 11
22.55901926832089
 21
18.74805848833824
 31
0.0
  0
LINE
  5
2D4
330
2
100
AcDbEntity
  8
GAIKEI
  6
Continuous
100
AcDbLine
 10
22.95901926833051
 20
20.5480584883382
 30
0.0
 11
22.55901926832089
 21
18.74805848833824
 31
0.0
  0
LINE
  5
2D5
330
2
100
AcDbEntity
  8
GAIKEI
  6
Continuous
100
AcDbLine
 10
26.05901926832113
 20
20.5480584883378
 30
0.0
 11
23.86608711765231
 21
20.5480584883386
 31
0.0
  0
LINE
  5
2D6
330
2
100
AcDbEntity
  8
GAIKEI
  6
Continuous
100
AcDbLine
 10
23.86608711765231
 20
20.5480584883382
 30
0.0
 11
22.95901926833051
 21
20.5480584883382
 31
0.0
  0
LINE
  5
2D7
330
2
100
AcDbEntity
  8
GAIKEI
  6
Continuous
100
AcDbLine
 10
36.95901926832093
 20
18.5480584883382
 30
0.0
 11
36.95901926832093
 21
18.74805848833824
 31
0.0
  0
LINE
  5
2D8
330
2
100
AcDbEntity
  8
GAIKEI
  6
Continuous
100
AcDbLine
 10
32.17403062416869
 20
20.5480584883382
 30
0.0
 11
30.54400791249211
 21
20.5480584883382
 31
0.0
  0
LINE
  5
2D9
330
2
100
AcDbEntity
  8
GAIKEI
  6
Continuous
 62
     1
100
AcDbLine
 10
22.55901926832089
 20
18.74805848833824
 30
0.0
 11
36.95901926832093
 21
18.74805848833824
 31
0.0
  0
LINE
  5
2DA
330
2
100
AcDbEntity
  8
GAIKEI
  6
Continuous
100
AcDbLine
 10
36.95901926832093
 20
18.5480584883382
 30
0.0
 11
22.55901926832089
 21
18.5480584883382
 31
0.0
  0
LINE
  5
2DB
330
2
100
AcDbEntity
  8
GAIKEI
  6
Continuous
 62
     1
100
AcDbLine
 10
23.55901926833011
 20
18.5480584883382
 30
0.0
 11
23.55901926833011
 21
18.74805848833824
 31
0.0
  0
LINE
  5
2DC
330
2
100
AcDbEntity
  8
GAIKEI
  6
Phantom
100
AcDbLine
 10
32.35901926833091
 20
20.5480584883382
 30
0.0
 11
32.3336893774449
 21
20.5480584883382
 31
0.0
  0
LINE
  5
2DD
330
2
100
AcDbEntity
  8
GAIKEI
  6
Continuous
 62
     1
100
AcDbLine
 10
23.59072346587672
 20
20.5480584883382
 30
0.0
 11
23.55901926833011
 21
18.74805848833824
 31
0.0
  0
TEXT
  5
2DE
330
2
100
AcDbEntity
  8
TOUROKU
100
AcDbText
 10
44.46154675115631
 20
41.75787996514083
 30
0.0
 40
2.0
  1
ＲＰＮＰ１０００
 72
     2
 11
62.72821341782298
 21
41.75787996514083
 31
0.0
100
AcDbText
  0
TEXT
  5
2E0
330
2
100
AcDbEntity
  8
MOJI1
 62
     2
100
AcDbText
 10
-19.77173661510432
 20
-45.24212003485916
 30
0.0
 40
3.0
  1
１２８０×９６０
100
AcDbText
  0
TEXT
  5
2E1
330
2
100
AcDbEntity
  8
MOJI1
 62
     2
100
AcDbText
 10
-59.77173661510432
 20
-45.24212003485916
 30
0.0
 40
3.0
  1
最大画像サイズ
100
AcDbText
  0
TEXT
  5
2E2
330
2
100
AcDbEntity
  8
MOJI1
 62
     2
100
AcDbText
 10
-19.77173661510432
 20
-40.24212003485916
 30
0.0
 40
3.0
  1
垂直：４５０ＴＶ本以上（フルスキャンモード）
100
AcDbText
  0
TEXT
  5
2E3
330
2
100
AcDbEntity
  8
MOJI1
 62
     2
100
AcDbText
 10
-59.77173661510431
 20
-55.24212003485917
 30
0.0
 40
3.0
  1
機　能
100
AcDbText
  0
TEXT
  5
2E4
330
2
100
AcDbEntity
  8
MOJI1
 62
     2
100
AcDbText
 10
-19.77173661510432
 20
-50.24212003485917
 30
0.0
 40
3.0
  1
１０ＢＡＳＥ－Ｔ／１００ＢＡＳＥ－Ｔｘ、ＲＪ４５コネクター
 41
0.7800000000000001
100
AcDbText
  0
TEXT
  5
2E5
330
2
100
AcDbEntity
  8
MOJI1
 62
     2
100
AcDbText
 10
-19.77173661510432
 20
-60.24212003485917
 30
0.0
 40
3.0
  1
画ゆれ補正、ＶＭＤアラーム、オートバックフォーカス
 41
0.9
100
AcDbText
  0
TEXT
  5
2E6
330
2
100
AcDbEntity
  8
MOJI1
 62
     2
100
AcDbText
 10
-19.77173661510432
 20
-35.24212003485917
 30
0.0
 40
3.0
  1
水平：６００ＴＶ本（カラー）、７８０ＴＶ本（白黒）
 41
0.9
100
AcDbText
  0
TEXT
  5
2E7
330
2
100
AcDbEntity
  8
MOJI1
 62
     2
100
AcDbText
 10
-59.77173661510431
 20
-35.24212003485917
 30
0.0
 40
3.0
  1
解像度
100
AcDbText
  0
LINE
  5
2E8
330
2
100
AcDbEntity
  8
WAKU
 62
     1
100
AcDbLine
 10
-62.27173661510431
 20
-36.24212003485917
 30
0.0
 11
62.72826338489569
 21
-36.24212003485917
 31
0.0
  0
TEXT
  5
2EA
330
2
100
AcDbEntity
  8
MOJI1
 62
     2
100
AcDbText
 10
-19.77173661510432
 20
-30.24212003485917
 30
0.0
 40
3.0
  1
ＪＰＥＧ／ＭＰＥＧ４（同時圧縮機能）
 41
0.95
100
AcDbText
  0
TEXT
  5
2EB
330
2
100
AcDbEntity
  8
MOJI1
 62
     2
100
AcDbText
 10
-59.77173661510431
 20
-30.24212003485917
 30
0.0
 40
3.0
  1
画像圧縮方式
100
AcDbText
  0
LINE
  5
2EC
330
2
100
AcDbEntity
  8
WAKU
 62
     1
100
AcDbLine
 10
-62.27173661510431
 20
-56.24212003485905
 30
0.0
 11
62.72826338489569
 21
-56.24212003485917
 31
0.0
  0
LINE
  5
2ED
330
2
100
AcDbEntity
  8
WAKU
 62
     4
100
AcDbLine
 10
62.72826338489569
 20
-11.24212003485917
 30
0.0
 11
62.72826338489569
 21
-61.24212003485917
 31
0.0
  0
TEXT
  5
2EE
330
2
100
AcDbEntity
  8
MOJI1
 62
     2
100
AcDbText
 10
-59.77173661510431
 20
-15.24212003485917
 30
0.0
 40
3.0
  1
電　源
100
AcDbText
  0
TEXT
  5
2EF
330
2
100
AcDbEntity
  8
MOJI1
 62
     2
100
AcDbText
 10
-59.77173661510431
 20
-25.24212003485917
 30
0.0
 40
3.0
  1
最低照度
100
AcDbText
  0
TEXT
  5
2F0
330
2
100
AcDbEntity
  8
MOJI1
 62
     2
100
AcDbText
 10
-59.77173661510431
 20
-50.24212003485917
 30
0.0
 40
3.0
  1
ネットワーク
100
AcDbText
  0
TEXT
  5
2F1
330
2
100
AcDbEntity
  8
MOJI1
 62
     2
100
AcDbText
 10
-59.77173661510431
 20
-20.24212003485917
 30
0.0
 40
3.0
  1
撮像素子
100
AcDbText
  0
TEXT
  5
2F2
330
2
100
AcDbEntity
  8
MOJI1
 62
     2
100
AcDbText
 10
-19.77173661510432
 20
-15.24212003485917
 30
0.0
 40
3.0
  1
ＡＣ１００Ｖ　５０／６０Ｈｚ
 41
0.95
100
AcDbText
  0
TEXT
  5
2F3
330
2
100
AcDbEntity
  8
MOJI1
 62
     2
100
AcDbText
 10
-19.77173661510432
 20
-25.24212003485917
 30
0.0
 40
3.0
  1
１．０ｌｘ（カラー）、０．０６ｌｘ（白黒）
100
AcDbText
  0
LINE
  5
2F4
330
2
100
AcDbEntity
  8
WAKU
 62
     4
100
AcDbLine
 10
-22.27173661510432
 20
-11.24212003485917
 30
0.0
 11
-22.27173661510432
 21
-61.24212003485917
 31
0.0
  0
LINE
  5
2F5
330
2
100
AcDbEntity
  8
WAKU
 62
     4
100
AcDbLine
 10
-62.27173661510431
 20
-11.24212003485917
 30
0.0
 11
-62.27173661510431
 21
-61.24212003485917
 31
0.0
  0
TEXT
  5
2F6
330
2
100
AcDbEntity
  8
MOJI1
 62
     2
100
AcDbText
 10
-19.77173661510432
 20
-55.24212003485917
 30
0.0
 40
3.0
  1
アナログ映像出力、集音（マイク）、ＳＤカードスロット
 41
0.85
100
AcDbText
  0
TEXT
  5
2F7
330
2
100
AcDbEntity
  8
MOJI1
 62
     2
100
AcDbText
 10
-19.77173661510432
 20
-20.24212003485917
 30
0.0
 40
3.0
  1
１／３型インターライン転送方式ＣＣＤ
 41
0.9
100
AcDbText
  0
LINE
  5
2F8
330
2
100
AcDbEntity
  8
WAKU
 62
     4
100
AcDbLine
 10
62.72826338489569
 20
-61.24212003485917
 30
0.0
 11
-62.27173661510431
 21
-61.24212003485917
 31
0.0
  0
LINE
  5
2F9
330
2
100
AcDbEntity
  8
WAKU
 62
     1
100
AcDbLine
 10
-62.27173661510431
 20
-46.24212003485917
 30
0.0
 11
62.72826338489569
 21
-46.24212003485917
 31
0.0
  0
LINE
  5
2FA
330
2
100
AcDbEntity
  8
WAKU
 62
     1
100
AcDbLine
 10
-62.27173661510431
 20
-41.24212003485917
 30
0.0
 11
62.72826338489569
 21
-41.24212003485917
 31
0.0
  0
LINE
  5
2FB
330
2
100
AcDbEntity
  8
WAKU
 62
     1
100
AcDbLine
 10
-62.27173661510431
 20
-21.24212003485917
 30
0.0
 11
62.72826338489569
 21
-21.24212003485917
 31
0.0
  0
LINE
  5
2FC
330
2
100
AcDbEntity
  8
WAKU
 62
     1
100
AcDbLine
 10
-62.27173661510431
 20
-16.24212003485917
 30
0.0
 11
62.72826338489569
 21
-16.24212003485917
 31
0.0
  0
LINE
  5
2FD
330
2
100
AcDbEntity
  8
WAKU
 62
     4
100
AcDbLine
 10
-62.27173661510431
 20
-11.24212003485917
 30
0.0
 11
62.72826338489569
 21
-11.24212003485917
 31
0.0
  0
LINE
  5
2FE
330
2
100
AcDbEntity
  8
WAKU
 62
     1
100
AcDbLine
 10
-62.27173661510431
 20
-31.24212003485917
 30
0.0
 11
62.72826338489569
 21
-31.24212003485917
 31
0.0
  0
LINE
  5
2FF
330
2
100
AcDbEntity
  8
WAKU
 62
     1
100
AcDbLine
 10
-62.27173661510431
 20
-26.24212003485917
 30
0.0
 11
62.72826338489569
 21
-26.24212003485917
 31
0.0
  0
LINE
  5
300
330
2
100
AcDbEntity
  8
WAKU
 62
     1
100
AcDbLine
 10
-62.27173661510431
 20
-51.24212003485917
 30
0.0
 11
62.72826338489569
 21
-51.24212003485917
 31
0.0
  0
ENDSEC
  0
SECTION
  2
OBJECTS
  0
DICTIONARY
  5
9
330
0
100
AcDbDictionary
281
     1
  3
ACAD_COLOR
350
31
  3
ACAD_GROUP
350
2D
  3
ACAD_LAYOUT
350
D
  3
ACAD_MATERIAL
350
30
  3
ACAD_MLINESTYLE
350
2E
  3
ACAD_PLOTSETTINGS
350
2F
  3
ACAD_PLOTSTYLENAME
350
8
  3
ACDBHEADERROUNDTRIPXREC
350
33D
  3
AcDbVariableDictionary
350
310
  0
DICTIONARY
  5
15
330
14
100
AcDbDictionary
280
     1
281
     1
  3
ACAD_LAYERFILTERS
360
16
  3
ACAD_LAYERSTATES
360
17
  0
DICTIONARY
  5
3
330
2
100
AcDbDictionary
280
     1
281
     1
  3
ACAD_LAYOUTSELFREF
360
4
  0
DICTIONARY
  5
F
330
E
100
AcDbDictionary
280
     1
281
     1
  3
ACAD_LAYOUTSELFREF
360
10
  0
DICTIONARY
  5
31
102
{ACAD_REACTORS
330
9
102
}
330
9
100
AcDbDictionary
281
     1
  0
DICTIONARY
  5
2D
102
{ACAD_REACTORS
330
9
102
}
330
9
100
AcDbDictionary
281
     1
  0
DICTIONARY
  5
D
102
{ACAD_REACTORS
330
9
102
}
330
9
100
AcDbDictionary
281
     1
  3
Model
350
C
  3
ﾚｲｱｳﾄ1
350
13
  0
DICTIONARY
  5
30
102
{ACAD_REACTORS
330
9
102
}
330
9
100
AcDbDictionary
281
     1
  0
DICTIONARY
  5
2E
102
{ACAD_REACTORS
330
9
102
}
330
9
100
AcDbDictionary
281
     1
  3
STANDARD
350
33
  0
DICTIONARY
  5
2F
102
{ACAD_REACTORS
330
9
102
}
330
9
100
AcDbDictionary
281
     1
  0
ACDBDICTIONARYWDFLT
  5
8
102
{ACAD_REACTORS
330
9
102
}
330
9
100
AcDbDictionary
281
     1
  3
Normal
350
7
100
AcDbDictionaryWithDefault
340
7
  0
DICTIONARY
  5
33D
102
{ACAD_REACTORS
330
9
102
}
330
9
100
AcDbDictionary
281
     1
  3
COLORDICT
350
33F
  3
MATERIALDICT
350
33E
  0
DICTIONARY
  5
310
102
{ACAD_REACTORS
330
9
102
}
330
9
100
AcDbDictionary
281
     1
  3
DIMASSOC
350
312
  3
HIDETEXT
350
311
  3
PROJECTNAME
350
313
  0
DICTIONARY
  5
16
102
{ACAD_REACTORS
330
15
102
}
330
15
100
AcDbDictionary
280
     1
281
     1
  0
DICTIONARY
  5
17
102
{ACAD_REACTORS
330
15
102
}
330
15
100
AcDbDictionary
281
     1
  0
XRECORD
  5
4
102
{ACAD_REACTORS
330
3
102
}
330
3
100
AcDbXrecord
280
     1
340
2
  0
XRECORD
  5
10
102
{ACAD_REACTORS
330
F
102
}
330
F
100
AcDbXrecord
280
     1
340
E
  0
LAYOUT
  5
C
102
{ACAD_XDICTIONARY
360
340
102
}
102
{ACAD_REACTORS
330
D
102
}
330
D
100
AcDbPlotSettings
  1

  2
\\URANUS\8FPAM09
  4
A4
  6

 40
4.180416584014892
 41
4.349743366241455
 42
4.222747802734375
 43
4.349761962890625
 44
210.0156707763672
 45
297.0106506347656
 46
6.139999999999999
 47
0.0
 48
0.0
 49
0.0
140
0.0
141
0.0
142
1.0
143
1.368209786985529
 70
 11956
 72
     1
 73
     0
 74
     1
  7
tmsacad.ctb
 75
     0
147
0.7308820690452903
148
0.5107939920394529
149
0.1357305783194533
100
AcDbLayout
  1
Model
 70
     1
 71
     0
 10
0.0
 20
0.0
 11
12.0
 21
9.0
 12
0.0
 22
0.0
 32
0.0
 14
0.0
 24
0.0
 34
0.0
 15
0.0
 25
0.0
 35
0.0
146
0.0
 13
0.0
 23
0.0
 33
0.0
 16
1.0
 26
0.0
 36
0.0
 17
0.0
 27
1.0
 37
0.0
 76
     0
330
2
  0
LAYOUT
  5
13
102
{ACAD_XDICTIONARY
360
342
102
}
102
{ACAD_REACTORS
330
D
102
}
330
D
100
AcDbPlotSettings
  1

  2
C:\Program Files\ACAD2000\plotters\DWF ePlot.pc3
  4

  6

 40
0.0
 41
0.0
 42
0.0
 43
0.0
 44
0.0
 45
0.0
 46
0.0
 47
0.0
 48
0.0
 49
0.0
140
0.0
141
0.0
142
1.0
143
1.0
 70
   688
 72
     0
 73
     0
 74
     5
  7
tmsacad.ctb
 75
    16
147
1.0
148
0.0
149
0.0
100
AcDbLayout
  1
ﾚｲｱｳﾄ1
 70
     1
 71
     1
 10
0.0
 20
0.0
 11
12.0
 21
9.0
 12
0.0
 22
0.0
 32
0.0
 14
1.000000000000000E+20
 24
1.000000000000000E+20
 34
1.000000000000000E+20
 15
-1.000000000000000E+20
 25
-1.000000000000000E+20
 35
-1.000000000000000E+20
146
0.0
 13
0.0
 23
0.0
 33
0.0
 16
1.0
 26
0.0
 36
0.0
 17
0.0
 27
1.0
 37
0.0
 76
     0
330
E
  0
MLINESTYLE
  5
33
102
{ACAD_REACTORS
330
2E
102
}
330
2E
100
AcDbMlineStyle
  2
STANDARD
 70
     0
  3

 62
   256
 51
90.0
 52
90.0
 71
     2
 49
0.5
 62
   256
  6
BYLAYER
 49
-0.5
 62
   256
  6
BYLAYER
  0
ACDBPLACEHOLDER
  5
7
102
{ACAD_REACTORS
330
8
102
}
330
8
  0
XRECORD
  5
33F
102
{ACAD_REACTORS
330
33D
102
}
330
33D
100
AcDbXrecord
280
     1
340
31
  0
XRECORD
  5
33E
102
{ACAD_REACTORS
330
33D
102
}
330
33D
100
AcDbXrecord
280
     1
340
30
  0
DICTIONARYVAR
  5
312
102
{ACAD_REACTORS
330
310
102
}
330
310
100
DictionaryVariables
280
     0
  1
1
  0
DICTIONARYVAR
  5
311
102
{ACAD_REACTORS
330
310
102
}
330
310
100
DictionaryVariables
280
     0
  1
1
  0
DICTIONARYVAR
  5
313
102
{ACAD_REACTORS
330
310
102
}
330
310
100
DictionaryVariables
280
     0
  1

  0
DICTIONARY
  5
340
330
C
100
AcDbDictionary
280
     1
281
     1
  3
ACAD_XREC_ROUNDTRIP
360
341
  0
DICTIONARY
  5
342
330
13
100
AcDbDictionary
280
     1
281
     1
  3
ACAD_XREC_ROUNDTRIP
360
343
  0
XRECORD
  5
341
102
{ACAD_REACTORS
330
340
102
}
330
340
100
AcDbXrecord
280
     1
102
SHADEPLOT
 70
     0
102
SHADEPLOTRESLEVEL
 70
     2
102
SHADEPLOTCUSTOMDPI
 70
   300
  0
XRECORD
  5
343
102
{ACAD_REACTORS
330
342
102
}
330
342
100
AcDbXrecord
280
     1
102
SHADEPLOT
 70
     0
102
SHADEPLOTRESLEVEL
 70
     2
102
SHADEPLOTCUSTOMDPI
 70
   300
  0
ENDSEC
  0
EOF
