  0
SECTION
  2
HEADER
  9
$ACADVER
  1
AC1015
  9
$ACADMAINTVER
 70
    20
  9
$DWGCODEPAGE
  3
ANSI_932
  9
$INSBASE
 10
0.0
 20
246.4992141396417
 30
0.0
  9
$EXTMIN
 10
-61.21011421834419
 20
-49.10291454216803
 30
-0.0015258207003583
  9
$EXTMAX
 10
63.85080191048974
 20
63.85753118071443
 30
0.0000000349246037
  9
$LIMMIN
 10
-1101.784450318844
 20
-1579.160531687244
  9
$LIMMAX
 10
-508.2420711400536
 20
-1161.440814074914
  9
$ORTHOMODE
 70
     1
  9
$REGENMODE
 70
     1
  9
$FILLMODE
 70
     1
  9
$QTEXTMODE
 70
     0
  9
$MIRRTEXT
 70
     1
  9
$LTSCALE
 40
1.0
  9
$ATTMODE
 70
     1
  9
$TEXTSIZE
 40
3.0
  9
$TRACEWID
 40
0.5
  9
$TEXTSTYLE
  7
STANDARD
  9
$CLAYER
  8
GAIKEI
  9
$CELTYPE
  6
BYLAYER
  9
$CECOLOR
 62
   256
  9
$CELTSCALE
 40
1.0
  9
$DISPSILH
 70
     0
  9
$DIMSCALE
 40
1.0
  9
$DIMASZ
 40
2.0
  9
$DIMEXO
 40
2.0
  9
$DIMDLI
 40
8.0
  9
$DIMRND
 40
0.0
  9
$DIMDLE
 40
0.0
  9
$DIMEXE
 40
2.0
  9
$DIMTP
 40
0.0
  9
$DIMTM
 40
0.0
  9
$DIMTXT
 40
2.5
  9
$DIMCEN
 40
0.0
  9
$DIMTSZ
 40
0.0
  9
$DIMTOL
 70
     0
  9
$DIMLIM
 70
     0
  9
$DIMTIH
 70
     0
  9
$DIMTOH
 70
     0
  9
$DIMSE1
 70
     0
  9
$DIMSE2
 70
     0
  9
$DIMTAD
 70
     3
  9
$DIMZIN
 70
     0
  9
$DIMBLK
  1

  9
$DIMASO
 70
     1
  9
$DIMSHO
 70
     1
  9
$DIMPOST
  1

  9
$DIMAPOST
  1

  9
$DIMALT
 70
     0
  9
$DIMALTD
 70
     2
  9
$DIMALTF
 40
25.4
  9
$DIMLFAC
 40
1.0
  9
$DIMTOFL
 70
     1
  9
$DIMTVP
 40
0.0
  9
$DIMTIX
 70
     0
  9
$DIMSOXD
 70
     0
  9
$DIMSAH
 70
     1
  9
$DIMBLK1
  1
OPEN30
  9
$DIMBLK2
  1
OPEN30
  9
$DIMSTYLE
  2
STANDARD
  9
$DIMCLRD
 70
     0
  9
$DIMCLRE
 70
     0
  9
$DIMCLRT
 70
     0
  9
$DIMTFAC
 40
1.0
  9
$DIMGAP
 40
0.5
  9
$DIMJUST
 70
     0
  9
$DIMSD1
 70
     0
  9
$DIMSD2
 70
     0
  9
$DIMTOLJ
 70
     1
  9
$DIMTZIN
 70
     0
  9
$DIMALTZ
 70
     0
  9
$DIMALTTZ
 70
     0
  9
$DIMUPT
 70
     0
  9
$DIMDEC
 70
     4
  9
$DIMTDEC
 70
     4
  9
$DIMALTU
 70
     2
  9
$DIMALTTD
 70
     2
  9
$DIMTXSTY
  7
STANDARD
  9
$DIMAUNIT
 70
     0
  9
$DIMADEC
 70
     0
  9
$DIMALTRND
 40
0.0
  9
$DIMAZIN
 70
     0
  9
$DIMDSEP
 70
    46
  9
$DIMATFIT
 70
     3
  9
$DIMFRAC
 70
     0
  9
$DIMLDRBLK
  1
OPEN30
  9
$DIMLUNIT
 70
     2
  9
$DIMLWD
 70
    -2
  9
$DIMLWE
 70
    -2
  9
$DIMTMOVE
 70
     0
  9
$LUNITS
 70
     2
  9
$LUPREC
 70
     4
  9
$SKETCHINC
 40
0.1
  9
$FILLETRAD
 40
0.0
  9
$AUNITS
 70
     0
  9
$AUPREC
 70
     0
  9
$MENU
  1
ACAD
  9
$ELEVATION
 40
0.0
  9
$PELEVATION
 40
0.0
  9
$THICKNESS
 40
0.0
  9
$LIMCHECK
 70
     0
  9
$CHAMFERA
 40
0.0
  9
$CHAMFERB
 40
0.0
  9
$CHAMFERC
 40
0.0
  9
$CHAMFERD
 40
0.0
  9
$SKPOLY
 70
     0
  9
$TDCREATE
 40
2451815.565532581
  9
$TDUCREATE
 40
2451815.190532581
  9
$TDUPDATE
 40
2453992.344726192
  9
$TDUUPDATE
 40
2453991.969726192
  9
$TDINDWG
 40
0.8167760301
  9
$TDUSRTIMER
 40
0.8167760301
  9
$USRTIMER
 70
     1
  9
$ANGBASE
 50
0.0
  9
$ANGDIR
 70
     0
  9
$PDMODE
 70
     0
  9
$PDSIZE
 40
0.0
  9
$PLINEWID
 40
0.0
  9
$SPLFRAME
 70
     0
  9
$SPLINETYPE
 70
     6
  9
$SPLINESEGS
 70
     8
  9
$HANDSEED
  5
23C
  9
$SURFTAB1
 70
     6
  9
$SURFTAB2
 70
     6
  9
$SURFTYPE
 70
     6
  9
$SURFU
 70
     6
  9
$SURFV
 70
     6
  9
$UCSBASE
  2

  9
$UCSNAME
  2

  9
$UCSORG
 10
0.0
 20
0.0
 30
0.0
  9
$UCSXDIR
 10
1.0
 20
0.0
 30
0.0
  9
$UCSYDIR
 10
0.0
 20
1.0
 30
0.0
  9
$UCSORTHOREF
  2

  9
$UCSORTHOVIEW
 70
     0
  9
$UCSORGTOP
 10
0.0
 20
0.0
 30
0.0
  9
$UCSORGBOTTOM
 10
0.0
 20
0.0
 30
0.0
  9
$UCSORGLEFT
 10
0.0
 20
0.0
 30
0.0
  9
$UCSORGRIGHT
 10
0.0
 20
0.0
 30
0.0
  9
$UCSORGFRONT
 10
0.0
 20
0.0
 30
0.0
  9
$UCSORGBACK
 10
0.0
 20
0.0
 30
0.0
  9
$PUCSBASE
  2

  9
$PUCSNAME
  2

  9
$PUCSORG
 10
0.0
 20
0.0
 30
0.0
  9
$PUCSXDIR
 10
1.0
 20
0.0
 30
0.0
  9
$PUCSYDIR
 10
0.0
 20
1.0
 30
0.0
  9
$PUCSORTHOREF
  2

  9
$PUCSORTHOVIEW
 70
     0
  9
$PUCSORGTOP
 10
0.0
 20
0.0
 30
0.0
  9
$PUCSORGBOTTOM
 10
0.0
 20
0.0
 30
0.0
  9
$PUCSORGLEFT
 10
0.0
 20
0.0
 30
0.0
  9
$PUCSORGRIGHT
 10
0.0
 20
0.0
 30
0.0
  9
$PUCSORGFRONT
 10
0.0
 20
0.0
 30
0.0
  9
$PUCSORGBACK
 10
0.0
 20
0.0
 30
0.0
  9
$USERI1
 70
     0
  9
$USERI2
 70
     0
  9
$USERI3
 70
     0
  9
$USERI4
 70
     0
  9
$USERI5
 70
     0
  9
$USERR1
 40
0.0
  9
$USERR2
 40
0.0
  9
$USERR3
 40
0.0
  9
$USERR4
 40
0.0
  9
$USERR5
 40
0.0
  9
$WORLDVIEW
 70
     1
  9
$SHADEDGE
 70
     3
  9
$SHADEDIF
 70
    70
  9
$TILEMODE
 70
     1
  9
$MAXACTVP
 70
    48
  9
$PINSBASE
 10
0.0
 20
0.0
 30
0.0
  9
$PLIMCHECK
 70
     0
  9
$PEXTMIN
 10
1.000000000000000E+20
 20
1.000000000000000E+20
 30
1.000000000000000E+20
  9
$PEXTMAX
 10
-1.000000000000000E+20
 20
-1.000000000000000E+20
 30
-1.000000000000000E+20
  9
$PLIMMIN
 10
0.0
 20
0.0
  9
$PLIMMAX
 10
12.0
 20
9.0
  9
$UNITMODE
 70
     0
  9
$VISRETAIN
 70
     1
  9
$PLINEGEN
 70
     0
  9
$PSLTSCALE
 70
     1
  9
$TREEDEPTH
 70
  3020
  9
$CMLSTYLE
  2
STANDARD
  9
$CMLJUST
 70
     0
  9
$CMLSCALE
 40
1.0
  9
$PROXYGRAPHICS
 70
     1
  9
$MEASUREMENT
 70
     0
  9
$CELWEIGHT
370
    -1
  9
$ENDCAPS
280
     0
  9
$JOINSTYLE
280
     0
  9
$LWDISPLAY
290
     0
  9
$INSUNITS
 70
     0
  9
$HYPERLINKBASE
  1

  9
$STYLESHEET
  1

  9
$XEDIT
290
     1
  9
$CEPSNTYPE
380
     0
  9
$PSTYLEMODE
290
     1
  9
$FINGERPRINTGUID
  2
{1754B7AB-9B3C-11D4-AD9E-00104B1004F2}
  9
$VERSIONGUID
  2
{4E65008E-8863-4E60-974A-AC9D93E6461E}
  9
$EXTNAMES
290
     1
  9
$PSVPSCALE
 40
0.0
  9
$OLESTARTUP
290
     0
  0
ENDSEC
  0
SECTION
  2
CLASSES
  0
CLASS
  1
ACDBDICTIONARYWDFLT
  2
AcDbDictionaryWithDefault
  3
ObjectDBX Classes
 90
        0
280
     0
281
     0
  0
CLASS
  1
ACDBPLACEHOLDER
  2
AcDbPlaceHolder
  3
ObjectDBX Classes
 90
        0
280
     0
281
     0
  0
CLASS
  1
LAYOUT
  2
AcDbLayout
  3
ObjectDBX Classes
 90
        0
280
     0
281
     0
  0
CLASS
  1
DICTIONARYVAR
  2
AcDbDictionaryVar
  3
ObjectDBX Classes
 90
        0
280
     0
281
     0
  0
CLASS
  1
SORTENTSTABLE
  2
AcDbSortentsTable
  3
ObjectDBX Classes
 90
    32768
280
     0
281
     0
  0
ENDSEC
  0
SECTION
  2
TABLES
  0
TABLE
  2
VPORT
  5
24
330
0
100
AcDbSymbolTable
 70
     2
  0
VPORT
  5
234
330
24
100
AcDbSymbolTableRecord
100
AcDbViewportTableRecord
  2
*Active
 70
     0
 10
0.0
 20
0.0
 11
1.0
 21
1.0
 12
1.320343846072777
 22
7.377308319273204
 13
0.0
 23
0.0
 14
1.0
 24
1.0
 15
0.0
 25
0.0
 16
0.0
 26
0.0
 36
1.0
 17
0.0
 27
0.0
 37
0.0
 40
113.8395153394029
 41
1.518181818181818
 42
50.0
 43
0.0
 44
0.0
 50
0.0
 51
0.0
 71
     0
 72
 10000
 73
     1
 74
     0
 75
     0
 76
     1
 77
     0
 78
     0
281
     0
 65
     1
110
0.0
120
0.0
130
0.0
111
1.0
121
0.0
131
0.0
112
0.0
122
1.0
132
0.0
 79
     0
146
0.0
  0
ENDTAB
  0
TABLE
  2
LTYPE
  5
1F
330
0
100
AcDbSymbolTable
 70
     3
  0
LTYPE
  5
20
330
1F
100
AcDbSymbolTableRecord
100
AcDbLinetypeTableRecord
  2
BYBLOCK
 70
     0
  3

 72
    65
 73
     0
 40
0.0
  0
LTYPE
  5
21
330
1F
100
AcDbSymbolTableRecord
100
AcDbLinetypeTableRecord
  2
BYLAYER
 70
     0
  3

 72
    65
 73
     0
 40
0.0
  0
LTYPE
  5
A
330
1F
100
AcDbSymbolTableRecord
100
AcDbLinetypeTableRecord
  2
CONTINUOUS
 70
     0
  3
Solid line
 72
    65
 73
     0
 40
0.0
  0
LTYPE
  5
11E
330
1F
100
AcDbSymbolTableRecord
100
AcDbLinetypeTableRecord
  2
Phantom
 70
     0
  3
Phantom
 72
    65
 73
     6
 40
45.0
 49
40.0
 74
     0
 49
-1.0
 74
     0
 49
1.0
 74
     0
 49
-1.0
 74
     0
 49
1.0
 74
     0
 49
-1.0
 74
     0
  0
LTYPE
  5
D5
330
1F
100
AcDbSymbolTableRecord
100
AcDbLinetypeTableRecord
  2
HIDDEN2
 70
     0
  3
Hidden (.5x) _ _ _ _ _ _ _ _ _ _ _ _ _ _ _ _ _
 72
    65
 73
     2
 40
1.399999999999999
 49
0.7
 74
     0
 49
-0.7
 74
     0
  0
ENDTAB
  0
TABLE
  2
LAYER
  5
18
102
{ACAD_XDICTIONARY
360
19
102
}
330
0
100
AcDbSymbolTable
 70
     7
  0
LAYER
  5
6
330
18
100
AcDbSymbolTableRecord
100
AcDbLayerTableRecord
  2
0
 70
     0
 62
     7
  6
CONTINUOUS
370
    -3
390
7
  0
LAYER
  5
5A
330
18
100
AcDbSymbolTableRecord
100
AcDbLayerTableRecord
  2
DEFPOINTS
 70
     0
 62
     7
  6
CONTINUOUS
290
     0
370
    -3
390
7
  0
LAYER
  5
3B
330
18
100
AcDbSymbolTableRecord
100
AcDbLayerTableRecord
  2
WAKU
 70
     0
 62
     4
  6
CONTINUOUS
370
    -3
390
7
  0
LAYER
  5
37
330
18
100
AcDbSymbolTableRecord
100
AcDbLayerTableRecord
  2
MOJI1
 70
     0
 62
     2
  6
CONTINUOUS
370
    -3
390
7
  0
LAYER
  5
2D
330
18
100
AcDbSymbolTableRecord
100
AcDbLayerTableRecord
  2
GAIKEI
 70
     0
 62
     7
  6
CONTINUOUS
370
    -3
390
7
  0
LAYER
  5
39
330
18
100
AcDbSymbolTableRecord
100
AcDbLayerTableRecord
  2
TOUROKU
 70
     0
 62
     1
  6
CONTINUOUS
370
    -3
390
7
  0
LAYER
  5
51
330
18
100
AcDbSymbolTableRecord
100
AcDbLayerTableRecord
  2
SUNPO
 70
     0
 62
     3
  6
CONTINUOUS
370
    -3
390
7
  0
ENDTAB
  0
TABLE
  2
STYLE
  5
1C
330
0
100
AcDbSymbolTable
 70
     1
  0
STYLE
  5
1D
330
1C
100
AcDbSymbolTableRecord
100
AcDbTextStyleTableRecord
  2
STANDARD
 70
     0
 40
0.0
 41
1.0
 50
0.0
 71
     0
 42
3.0
  3
MONOTXT.shx
  4
BIGFONT.shx
  0
ENDTAB
  0
TABLE
  2
VIEW
  5
22
330
0
100
AcDbSymbolTable
 70
     0
  0
ENDTAB
  0
TABLE
  2
UCS
  5
23
330
0
100
AcDbSymbolTable
 70
     0
  0
ENDTAB
  0
TABLE
  2
APPID
  5
26
330
0
100
AcDbSymbolTable
 70
     1
  0
APPID
  5
27
330
26
100
AcDbSymbolTableRecord
100
AcDbRegAppTableRecord
  2
ACAD
 70
     0
  0
ENDTAB
  0
TABLE
  2
DIMSTYLE
  5
28
330
0
100
AcDbSymbolTable
 70
     1
100
AcDbDimStyleTable
 71
     0
  0
DIMSTYLE
105
35
102
{ACAD_REACTORS
330
50
330
E6
330
76
102
}
330
28
100
AcDbSymbolTableRecord
100
AcDbDimStyleTableRecord
  2
STANDARD
 70
     0
 40
0.0
 41
2.0
 42
2.0
 43
8.0
 44
2.0
 73
     0
 74
     0
 77
     3
140
3.0
141
0.0
173
     1
279
     2
288
     1
340
1D
341
2E
343
2E
344
2E
  0
ENDTAB
  0
TABLE
  2
BLOCK_RECORD
  5
1
330
0
100
AcDbSymbolTable
 70
     7
  0
BLOCK_RECORD
  5
2
102
{ACAD_XDICTIONARY
360
3
102
}
330
1
100
AcDbSymbolTableRecord
100
AcDbBlockTableRecord
  2
*MODEL_SPACE
340
C
  0
BLOCK_RECORD
  5
10
102
{ACAD_XDICTIONARY
360
11
102
}
330
1
100
AcDbSymbolTableRecord
100
AcDbBlockTableRecord
  2
*PAPER_SPACE
340
15
  0
BLOCK_RECORD
  5
2E
330
1
100
AcDbSymbolTableRecord
100
AcDbBlockTableRecord
  2
_OPEN30
340
0
102
{BLKREFS
331
56
331
57
331
EB
331
EC
331
7B
331
7C
331
21B
331
21C
331
224
331
225
331
22D
331
22E
102
}
  0
BLOCK_RECORD
  5
1EC
330
1
100
AcDbSymbolTableRecord
100
AcDbBlockTableRecord
  2
*D4
340
0
  0
BLOCK_RECORD
  5
1FA
330
1
100
AcDbSymbolTableRecord
100
AcDbBlockTableRecord
  2
*D5
340
0
  0
BLOCK_RECORD
  5
206
330
1
100
AcDbSymbolTableRecord
100
AcDbBlockTableRecord
  2
*D6
340
0
  0
ENDTAB
  0
ENDSEC
  0
SECTION
  2
BLOCKS
  0
BLOCK
  5
5
330
2
100
AcDbEntity
  8
0
100
AcDbBlockBegin
  2
*MODEL_SPACE
 70
     0
 10
0.0
 20
0.0
 30
0.0
  3
*MODEL_SPACE
  1

  0
ENDBLK
  5
B
330
2
100
AcDbEntity
  8
0
100
AcDbBlockEnd
  0
BLOCK
  5
13
330
10
100
AcDbEntity
 67
     1
  8
0
100
AcDbBlockBegin
  2
*PAPER_SPACE
 70
     0
 10
0.0
 20
0.0
 30
0.0
  3
*PAPER_SPACE
  1

  0
ENDBLK
  5
14
330
10
100
AcDbEntity
 67
     1
  8
0
100
AcDbBlockEnd
  0
BLOCK
  5
32
330
2E
100
AcDbEntity
  8
0
100
AcDbBlockBegin
  2
_OPEN30
 70
     0
 10
0.0
 20
0.0
 30
0.0
  3
_OPEN30
  1

  0
LINE
  5
2F
330
2E
100
AcDbEntity
  8
0
  6
ByBlock
 62
     0
100
AcDbLine
 10
-1.0
 20
0.26794919
 30
0.0
 11
0.0
 21
0.0
 31
0.0
  0
LINE
  5
30
330
2E
100
AcDbEntity
  8
0
  6
ByBlock
 62
     0
100
AcDbLine
 10
0.0
 20
0.0
 30
0.0
 11
-1.0
 21
-0.26794919
 31
0.0
  0
LINE
  5
31
330
2E
100
AcDbEntity
  8
0
  6
ByBlock
 62
     0
100
AcDbLine
 10
0.0
 20
0.0
 30
0.0
 11
-1.0
 21
0.0
 31
0.0
  0
ENDBLK
  5
33
330
2E
100
AcDbEntity
  8
0
100
AcDbBlockEnd
  0
BLOCK
  5
1F6
330
1EC
100
AcDbEntity
  8
0
100
AcDbBlockBegin
  2
*D4
 70
     1
 10
0.0
 20
0.0
 30
0.0
  3
*D4
  1

  0
LINE
  5
22A
330
1EC
100
AcDbEntity
  8
SUNPO
 62
     0
370
    -2
100
AcDbLine
 10
10.44217451099005
 20
34.11173467619335
 30
0.0
 11
10.44217451099005
 21
42.11173467619334
 31
0.0
  0
LINE
  5
22B
330
1EC
100
AcDbEntity
  8
SUNPO
 62
     0
370
    -2
100
AcDbLine
 10
49.94197065664308
 20
34.11173467619335
 30
0.0
 11
49.94197065664308
 21
42.11173467619334
 31
0.0
  0
LINE
  5
22C
330
1EC
100
AcDbEntity
  8
SUNPO
 62
     0
370
    -2
100
AcDbLine
 10
12.44217451099006
 20
40.11173467619335
 30
0.0
 11
47.94197065664308
 21
40.11173467619335
 31
0.0
  0
INSERT
  5
22D
330
1EC
100
AcDbEntity
  8
SUNPO
 62
     0
370
    -2
100
AcDbBlockReference
  2
_OPEN30
 10
10.44217451099005
 20
40.11173467619335
 30
0.0
 41
2.0
 42
2.0
 43
2.0
 50
180.0
  0
INSERT
  5
22E
330
1EC
100
AcDbEntity
  8
SUNPO
 62
     0
370
    -2
100
AcDbBlockReference
  2
_OPEN30
 10
49.94197065664308
 20
40.11173467619335
 30
0.0
 41
2.0
 42
2.0
 43
2.0
  0
MTEXT
  5
22F
330
1EC
100
AcDbEntity
  8
SUNPO
 62
     0
100
AcDbMText
 10
30.19207258381657
 20
41.86173467619335
 30
0.0
 40
2.5
 41
0.0
 71
     5
 72
     1
  1
\A1;197.5
 73
     1
 44
1.0
1001
ACAD
1000
MTEXTBEGIN
1070
    73
1070
     1
1070
    44
1040
1.0
1070
    74
1070
     0
1000
MTEXTEND
  0
POINT
  5
230
330
1EC
100
AcDbEntity
  8
DEFPOINTS
 62
     0
100
AcDbPoint
 10
10.44217451099005
 20
32.11173467619335
 30
0.0
  0
POINT
  5
231
330
1EC
100
AcDbEntity
  8
DEFPOINTS
 62
     0
100
AcDbPoint
 10
49.94197065664308
 20
32.11173467619335
 30
0.0
  0
POINT
  5
232
330
1EC
100
AcDbEntity
  8
DEFPOINTS
 62
     0
100
AcDbPoint
 10
49.94197065664308
 20
40.11173467619335
 30
0.0
  0
ENDBLK
  5
1F7
330
1EC
100
AcDbEntity
  8
0
100
AcDbBlockEnd
  0
BLOCK
  5
204
330
1FA
100
AcDbEntity
  8
0
100
AcDbBlockBegin
  2
*D5
 70
     1
 10
0.0
 20
0.0
 30
0.0
  3
*D5
  1

  0
LINE
  5
221
330
1FA
100
AcDbEntity
  8
SUNPO
 62
     0
370
    -2
100
AcDbLine
 10
-40.05349973193424
 20
34.78753113829666
 30
0.0
 11
-40.05349973193424
 21
42.78753113829665
 31
0.0
  0
LINE
  5
222
330
1FA
100
AcDbEntity
  8
SUNPO
 62
     0
370
    -2
100
AcDbLine
 10
-23.25349973193681
 20
34.78753113829666
 30
0.0
 11
-23.25349973193681
 21
42.78753113829665
 31
0.0
  0
LINE
  5
223
330
1FA
100
AcDbEntity
  8
SUNPO
 62
     0
370
    -2
100
AcDbLine
 10
-38.05349973193424
 20
40.78753113829665
 30
0.0
 11
-25.25349973193681
 21
40.78753113829665
 31
0.0
  0
INSERT
  5
224
330
1FA
100
AcDbEntity
  8
SUNPO
 62
     0
370
    -2
100
AcDbBlockReference
  2
_OPEN30
 10
-40.05349973193424
 20
40.78753113829665
 30
0.0
 41
2.0
 42
2.0
 43
2.0
 50
180.0
  0
INSERT
  5
225
330
1FA
100
AcDbEntity
  8
SUNPO
 62
     0
370
    -2
100
AcDbBlockReference
  2
_OPEN30
 10
-23.25349973193681
 20
40.78753113829665
 30
0.0
 41
2.0
 42
2.0
 43
2.0
  0
MTEXT
  5
226
330
1FA
100
AcDbEntity
  8
SUNPO
 62
     0
100
AcDbMText
 10
-31.65349973193553
 20
42.53753113829666
 30
0.0
 40
2.5
 41
0.0
 71
     5
 72
     1
  1
\A1;84
 73
     1
 44
1.0
1001
ACAD
1000
MTEXTBEGIN
1070
    73
1070
     1
1070
    44
1040
1.0
1070
    74
1070
     0
1000
MTEXTEND
  0
POINT
  5
227
330
1FA
100
AcDbEntity
  8
DEFPOINTS
 62
     0
100
AcDbPoint
 10
-40.05349973193424
 20
32.78753113829666
 30
0.0
  0
POINT
  5
228
330
1FA
100
AcDbEntity
  8
DEFPOINTS
 62
     0
100
AcDbPoint
 10
-23.25349973193681
 20
32.78753113829666
 30
0.0
  0
POINT
  5
229
330
1FA
100
AcDbEntity
  8
DEFPOINTS
 62
     0
100
AcDbPoint
 10
-23.25349973193681
 20
40.78753113829665
 30
0.0
  0
ENDBLK
  5
205
330
1FA
100
AcDbEntity
  8
0
100
AcDbBlockEnd
  0
BLOCK
  5
210
330
206
100
AcDbEntity
  8
0
100
AcDbBlockBegin
  2
*D6
 70
     1
 10
0.0
 20
0.0
 30
0.0
  3
*D6
  1

  0
LINE
  5
218
330
206
100
AcDbEntity
  8
SUNPO
 62
     0
370
    -2
100
AcDbLine
 10
-21.25349973193682
 20
32.79423160313226
 30
0.0
 11
-13.25349973193681
 21
32.79423160313225
 31
0.0
  0
LINE
  5
219
330
206
100
AcDbEntity
  8
SUNPO
 62
     0
370
    -2
100
AcDbLine
 10
-21.25349973193682
 20
16.19423085160949
 30
0.0
 11
-13.25349973193681
 21
16.19423085160949
 31
0.0
  0
LINE
  5
21A
330
206
100
AcDbEntity
  8
SUNPO
 62
     0
370
    -2
100
AcDbLine
 10
-15.25349973193681
 20
30.79423160313226
 30
0.0
 11
-15.25349973193681
 21
18.19423085160949
 31
0.0
  0
INSERT
  5
21B
330
206
100
AcDbEntity
  8
SUNPO
 62
     0
370
    -2
100
AcDbBlockReference
  2
_OPEN30
 10
-15.25349973193681
 20
32.79423160313225
 30
0.0
 41
2.0
 42
2.0
 43
2.0
 50
90.0
  0
INSERT
  5
21C
330
206
100
AcDbEntity
  8
SUNPO
 62
     0
370
    -2
100
AcDbBlockReference
  2
_OPEN30
 10
-15.25349973193681
 20
16.19423085160949
 30
0.0
 41
2.0
 42
2.0
 43
2.0
 50
270.0
  0
MTEXT
  5
21D
330
206
100
AcDbEntity
  8
SUNPO
 62
     0
100
AcDbMText
 10
-17.00349973193682
 20
24.49423122737087
 30
0.0
 40
2.5
 41
0.0
 71
     5
 72
     1
  1
\A1;83
 11
0.0000000000000001
 21
1.0
 31
0.0
 73
     1
 44
1.0
1001
ACAD
1000
MTEXTBEGIN
1070
    73
1070
     1
1070
    44
1040
1.0
1070
    74
1070
     0
1000
MTEXTEND
  0
POINT
  5
21E
330
206
100
AcDbEntity
  8
DEFPOINTS
 62
     0
100
AcDbPoint
 10
-23.25349973193681
 20
32.79423160313226
 30
0.0
  0
POINT
  5
21F
330
206
100
AcDbEntity
  8
DEFPOINTS
 62
     0
100
AcDbPoint
 10
-23.25349973193681
 20
16.19423085160949
 30
0.0
  0
POINT
  5
220
330
206
100
AcDbEntity
  8
DEFPOINTS
 62
     0
100
AcDbPoint
 10
-15.25349973193681
 20
16.19423085160949
 30
0.0
  0
ENDBLK
  5
211
330
206
100
AcDbEntity
  8
0
100
AcDbBlockEnd
  0
ENDSEC
  0
SECTION
  2
ENTITIES
  0
TEXT
  5
36
330
2
100
AcDbEntity
  8
MOJI1
100
AcDbText
 10
-34.1834592149441
 20
60.00405307993503
 30
0.0
 40
4.0
  1
ネットワークカメラ
100
AcDbText
  0
TEXT
  5
38
330
2
100
AcDbEntity
  8
TOUROKU
100
AcDbText
 10
23.81649081798323
 20
54.00405307993503
 30
0.0
 40
2.0
  1
ＲＰＮＰ１０００＋ＷＶＬＺＡ６２２
 72
     2
 11
63.81649081798321
 21
54.00405307993503
 31
0.0
100
AcDbText
  0
LINE
  5
3A
330
2
100
AcDbEntity
  8
WAKU
 62
     1
100
AcDbLine
 10
-61.18345921494375
 20
-28.995946920065
 30
0.0
 11
63.81654078505625
 21
-28.995946920065
 31
0.0
  0
LINE
  5
3C
330
2
100
AcDbEntity
  8
WAKU
 62
     1
100
AcDbLine
 10
-61.18345921494375
 20
-43.99594692006488
 30
0.0
 11
63.81654078505625
 21
-43.99594692006499
 31
0.0
  0
LINE
  5
3D
330
2
100
AcDbEntity
  8
WAKU
 62
     4
100
AcDbLine
 10
63.81654078505625
 20
-48.99594692006499
 30
0.0
 11
-61.18345921494375
 21
-48.99594692006499
 31
0.0
  0
LINE
  5
3E
330
2
100
AcDbEntity
  8
WAKU
 62
     1
100
AcDbLine
 10
-61.18345921494375
 20
-33.995946920065
 30
0.0
 11
63.81654078505625
 21
-33.995946920065
 31
0.0
  0
LINE
  5
3F
330
2
100
AcDbEntity
  8
WAKU
 62
     1
100
AcDbLine
 10
-61.18345921494375
 20
-13.99594692006499
 30
0.0
 11
63.81654078505625
 21
-13.99594692006499
 31
0.0
  0
LINE
  5
40
330
2
100
AcDbEntity
  8
WAKU
 62
     1
100
AcDbLine
 10
-61.18345921494375
 20
-8.995946920064994
 30
0.0
 11
63.81654078505625
 21
-8.995946920064994
 31
0.0
  0
LINE
  5
41
330
2
100
AcDbEntity
  8
WAKU
 62
     4
100
AcDbLine
 10
-61.18345921494375
 20
-3.995946920064994
 30
0.0
 11
63.81654078505625
 21
-3.995946920064994
 31
0.0
  0
LINE
  5
42
330
2
100
AcDbEntity
  8
WAKU
 62
     1
100
AcDbLine
 10
-61.18345921494375
 20
-23.995946920065
 30
0.0
 11
63.81654078505625
 21
-23.995946920065
 31
0.0
  0
LINE
  5
43
330
2
100
AcDbEntity
  8
WAKU
 62
     1
100
AcDbLine
 10
-61.18345921494375
 20
-18.99594692006499
 30
0.0
 11
63.81654078505625
 21
-18.99594692006499
 31
0.0
  0
LINE
  5
44
330
2
100
AcDbEntity
  8
WAKU
 62
     1
100
AcDbLine
 10
-61.18345921494375
 20
-38.995946920065
 30
0.0
 11
63.81654078505625
 21
-38.995946920065
 31
0.0
  0
LINE
  5
45
330
2
100
AcDbEntity
  8
WAKU
 62
     4
100
AcDbLine
 10
-61.18345921494375
 20
-3.995946920064994
 30
0.0
 11
-61.18345921494375
 21
-48.99594692006499
 31
0.0
  0
TEXT
  5
46
330
2
100
AcDbEntity
  8
MOJI1
 62
     2
100
AcDbText
 10
-18.68345921494375
 20
-32.995946920065
 30
0.0
 40
3.0
  1
垂直：４５０ＴＶ本以上（フルスキャンモード）
100
AcDbText
  0
TEXT
  5
47
330
2
100
AcDbEntity
  8
MOJI1
 62
     2
100
AcDbText
 10
-18.68345921494375
 20
-37.995946920065
 30
0.0
 40
3.0
  1
１０ＢＡＳＥ－Ｔ／１００ＢＡＳＥ－Ｔｘ、ＲＪ４５コネクター
 41
0.7800000000000001
100
AcDbText
  0
TEXT
  5
48
330
2
100
AcDbEntity
  8
MOJI1
 62
     2
100
AcDbText
 10
-18.68345921494375
 20
-47.995946920065
 30
0.0
 40
3.0
  1
画ゆれ補正、ＶＭＤアラーム、オートバックフォーカス
 41
0.9
100
AcDbText
  0
TEXT
  5
49
330
2
100
AcDbEntity
  8
MOJI1
 62
     2
100
AcDbText
 10
-18.68345921494375
 20
-27.995946920065
 30
0.0
 40
3.0
  1
水平：６００ＴＶ本（カラー）、７８０ＴＶ本（白黒）
 41
0.9
100
AcDbText
  0
TEXT
  5
4A
330
2
100
AcDbEntity
  8
MOJI1
 62
     2
100
AcDbText
 10
-18.68345921494375
 20
-17.99594692006499
 30
0.0
 40
3.0
  1
１．０ｌｘ（カラー）、０．０６ｌｘ（白黒）
100
AcDbText
  0
TEXT
  5
4B
330
2
100
AcDbEntity
  8
MOJI1
 62
     2
100
AcDbText
 10
-18.68345921494375
 20
-42.995946920065
 30
0.0
 40
3.0
  1
アナログ映像出力、集音（マイク）、ＳＤカードスロット
 41
0.85
100
AcDbText
  0
LINE
  5
4C
330
2
100
AcDbEntity
  8
GAIKEI
  6
Continuous
 62
     1
100
AcDbLine
 10
20.46217145923227
 20
24.21843515244558
 30
0.0
 11
49.74073296429127
 21
24.21843515244558
 31
0.0
  0
LINE
  5
4D
330
2
100
AcDbEntity
  8
GAIKEI
  6
Continuous
100
AcDbLine
 10
47.43703643631549
 20
15.51843505707836
 30
0.0
 11
20.46217145923227
 21
15.51843505707836
 31
0.0
  0
LINE
  5
4E
330
2
100
AcDbEntity
  8
GAIKEI
  6
Continuous
 62
     1
100
AcDbLine
 10
49.7493902940597
 20
24.31843520390436
 30
0.0
 11
35.26217460635688
 21
24.31843517598736
 31
0.0
  0
LINE
  5
4F
330
2
100
AcDbEntity
  8
GAIKEI
  6
Continuous
100
AcDbLine
 10
49.74197105776908
 20
30.1184352046912
 30
0.0
 11
20.46217145923207
 21
30.11843513450276
 31
0.0
  0
DIMENSION
  5
50
330
2
100
AcDbEntity
  8
SUNPO
100
AcDbDimension
  2
*D4
 10
49.94197065664308
 20
40.11173467619335
 30
0.0
 11
30.19207258381657
 21
41.86173467619335
 31
0.0
 70
    33
  1
197.5
 71
     5
 42
39.49979614565302
  3
STANDARD
100
AcDbAlignedDimension
 13
10.44217451099005
 23
32.11173467619335
 33
0.0
 14
49.94197065664308
 24
32.11173467619335
 34
0.0
1001
ACAD
1000
DSTYLE
1002
{
1070
   287
1070
     3
1070
   287
1070
     3
1070
   287
1070
     3
1070
    40
1040
1.0
1070
   140
1040
2.5
1070
   147
1040
0.5
1070
   172
1070
     1
1070
   279
1070
     0
1070
   288
1070
     0
1070
   341
1005
0
1002
}
  0
TEXT
  5
5F
330
2
100
AcDbEntity
  8
MOJI1
 62
     2
100
AcDbText
 10
-18.68345921494375
 20
-22.995946920065
 30
0.0
 40
3.0
  1
ＪＰＥＧ／ＭＰＥＧ４（同時圧縮機能）
 41
0.95
100
AcDbText
  0
TEXT
  5
60
330
2
100
AcDbEntity
  8
MOJI1
 62
     2
100
AcDbText
 10
-18.68345921494375
 20
-7.995946920064994
 30
0.0
 40
3.0
  1
ＡＣ２４Ｖ　５０／６０Ｈｚ
 41
0.95
100
AcDbText
  0
TEXT
  5
61
330
2
100
AcDbEntity
  8
MOJI1
 62
     2
100
AcDbText
 10
-18.68345921494375
 20
-12.99594692006499
 30
0.0
 40
3.0
  1
１／３型インターライン転送方式ＣＣＤ
 41
0.9
100
AcDbText
  0
TEXT
  5
62
330
2
100
AcDbEntity
  8
MOJI1
 62
     2
100
AcDbText
 10
-58.68345921494375
 20
-42.995946920065
 30
0.0
 40
3.0
  1
機　能
100
AcDbText
  0
TEXT
  5
63
330
2
100
AcDbEntity
  8
MOJI1
 62
     2
100
AcDbText
 10
-58.68345921494375
 20
-22.995946920065
 30
0.0
 40
3.0
  1
画像圧縮方式
100
AcDbText
  0
TEXT
  5
64
330
2
100
AcDbEntity
  8
MOJI1
 62
     2
100
AcDbText
 10
-58.68345921494375
 20
-17.99594692006499
 30
0.0
 40
3.0
  1
最低照度
100
AcDbText
  0
TEXT
  5
65
330
2
100
AcDbEntity
  8
MOJI1
 62
     2
100
AcDbText
 10
-58.68345921494375
 20
-37.995946920065
 30
0.0
 40
3.0
  1
ネットワーク
100
AcDbText
  0
TEXT
  5
66
330
2
100
AcDbEntity
  8
MOJI1
 62
     2
100
AcDbText
 10
-58.68345921494375
 20
-12.99594692006499
 30
0.0
 40
3.0
  1
撮像素子
100
AcDbText
  0
TEXT
  5
67
330
2
100
AcDbEntity
  8
MOJI1
 62
     2
100
AcDbText
 10
-58.68345921494375
 20
-27.995946920065
 30
0.0
 40
3.0
  1
解像度
100
AcDbText
  0
TEXT
  5
68
330
2
100
AcDbEntity
  8
MOJI1
 62
     2
100
AcDbText
 10
-58.68345921494375
 20
-7.995946920064994
 30
0.0
 40
3.0
  1
電　源
100
AcDbText
  0
LINE
  5
69
330
2
100
AcDbEntity
  8
WAKU
 62
     4
100
AcDbLine
 10
-21.18345921494375
 20
-3.995946920064994
 30
0.0
 11
-21.18345921494375
 21
-48.99594692006499
 31
0.0
  0
CIRCLE
  5
6A
330
2
100
AcDbEntity
  8
GAIKEI
100
AcDbCircle
 10
-31.74905329496898
 20
23.89394241097651
 30
0.0
 40
6.003640271420865
  0
CIRCLE
  5
6B
330
2
100
AcDbEntity
  8
GAIKEI
100
AcDbCircle
 10
-31.74905329496898
 20
23.89394241097651
 30
0.0
 40
4.022717564823114
  0
CIRCLE
  5
6C
330
2
100
AcDbEntity
  8
GAIKEI
 62
     1
100
AcDbCircle
 10
-31.74895043715785
 20
23.89394241097651
 30
0.0
 40
4.369759819613209
  0
CIRCLE
  5
6D
330
2
100
AcDbEntity
  8
GAIKEI
 62
     1
100
AcDbCircle
 10
-31.74905329496898
 20
23.89383955316535
 30
0.0
 40
4.85987729078906
  0
CIRCLE
  5
6E
330
2
100
AcDbEntity
  8
GAIKEI
 62
     1
100
AcDbCircle
 10
-31.74905329496898
 20
23.89373669535425
 30
0.0
 40
5.635939474760233
  0
LINE
  5
6F
330
2
100
AcDbEntity
  8
GAIKEI
  6
Continuous
100
AcDbLine
 10
-25.85349973193544
 20
30.79423160313226
 30
0.0
 11
-37.45349973193544
 21
30.79423160313226
 31
0.0
  0
LINE
  5
70
330
2
100
AcDbEntity
  8
GAIKEI
  6
Continuous
100
AcDbLine
 10
-27.18822450181602
 20
32.79423160313226
 30
0.0
 11
-36.11877496205506
 21
32.79423160313226
 31
0.0
  0
LINE
  5
71
330
2
100
AcDbEntity
  8
GAIKEI
  6
Continuous
100
AcDbLine
 10
-25.85349973193544
 20
30.99423160313231
 30
0.0
 11
-37.45349973193544
 21
30.99423160313231
 31
0.0
  0
LINE
  5
72
330
2
100
AcDbEntity
  8
GAIKEI
  6
Continuous
 62
     1
100
AcDbLine
 10
-37.79823718118726
 20
30.62282287695408
 30
0.0
 11
-25.50876228268362
 21
30.62282287695408
 31
0.0
  0
LINE
  5
73
330
2
100
AcDbEntity
  8
GAIKEI
  6
Continuous
100
AcDbLine
 10
-37.13466243890062
 20
16.19423085160943
 30
0.0
 11
-31.65349973193566
 21
16.19423085160949
 31
0.0
  0
LINE
  5
74
330
2
100
AcDbEntity
  8
GAIKEI
  6
Continuous
100
AcDbLine
 10
-38.14479034496264
 20
30.79423161454887
 30
0.0
 11
-31.65349973193566
 21
30.79423161454887
 31
0.0
  0
LINE
  5
75
330
2
100
AcDbEntity
  8
GAIKEI
  6
Continuous
 62
     1
100
AcDbLine
 10
-37.20774710929322
 20
16.36564025677691
 30
0.0
 11
-26.09925235457786
 21
16.36564025677691
 31
0.0
  0
DIMENSION
  5
76
330
2
100
AcDbEntity
  8
SUNPO
100
AcDbDimension
  2
*D5
 10
-23.25349973193681
 20
40.78753113829665
 30
0.0
 11
-31.65349973193553
 21
42.53753113829666
 31
0.0
 70
    33
  1
84
 71
     5
 42
16.79999999999742
  3
STANDARD
100
AcDbAlignedDimension
 13
-40.05349973193424
 23
32.78753113829666
 33
0.0
 14
-23.25349973193681
 24
32.78753113829666
 34
0.0
1001
ACAD
1000
DSTYLE
1002
{
1070
   287
1070
     3
1070
   287
1070
     3
1070
   287
1070
     3
1070
    40
1040
1.0
1070
   140
1040
2.5
1070
   147
1040
0.5
1070
   172
1070
     1
1070
   279
1070
     0
1070
   288
1070
     0
1070
   341
1005
0
1002
}
  0
ARC
  5
83
330
2
100
AcDbEntity
  8
GAIKEI
 62
     1
100
AcDbCircle
 10
-34.75013119458376
 20
20.96306809324952
 30
0.0
 40
0.0591866952162475
100
AcDbArc
 50
313.9991316872244
 51
44.45821210232102
  0
ARC
  5
84
330
2
100
AcDbEntity
  8
GAIKEI
 62
     1
100
AcDbCircle
 10
-34.75020653632751
 20
20.96277767316113
 30
0.0
 40
0.0590306722114208
100
AcDbArc
 50
224.042472436151
 51
314.2475472549375
  0
ARC
  5
85
330
2
100
AcDbEntity
  8
GAIKEI
 62
     1
100
AcDbCircle
 10
-35.78388236603374
 20
22.75357764458474
 30
0.0
 40
0.0591866952162475
100
AcDbArc
 50
15.54178789767826
 51
106.0008683127758
  0
ARC
  5
86
330
2
100
AcDbEntity
  8
GAIKEI
 62
     1
100
AcDbCircle
 10
-35.78417154807991
 20
22.75365760676485
 30
0.0
 40
0.0590306722114208
100
AcDbArc
 50
105.7524527450633
 51
195.9575275638497
  0
ARC
  5
87
330
2
100
AcDbEntity
  8
GAIKEI
 62
     1
100
AcDbCircle
 10
-31.74306772583046
 20
23.89422822018682
 30
0.0
 40
4.258008947906747
100
AcDbArc
 50
195.7640336812689
 51
224.26969617226
  0
ARC
  5
88
330
2
100
AcDbEntity
  8
GAIKEI
 62
     1
100
AcDbCircle
 10
-31.74569713898984
 20
23.89376303034467
 30
0.0
 40
4.136878906803874
100
AcDbArc
 50
195.7702994433204
 51
224.2875400223032
  0
ARC
  5
89
330
2
100
AcDbEntity
  8
GAIKEI
 62
     1
100
AcDbCircle
 10
-35.78780385922732
 20
25.02751495191549
 30
0.0
 40
0.0591866952162475
100
AcDbArc
 50
253.9991316872241
 51
344.4582121023217
  0
ARC
  5
8A
330
2
100
AcDbEntity
  8
GAIKEI
 62
     1
100
AcDbCircle
 10
-35.7880930412735
 20
25.02743498973533
 30
0.0
 40
0.0590306722114208
100
AcDbArc
 50
164.0424724361502
 51
254.2475472549366
  0
ARC
  5
8B
330
2
100
AcDbEntity
  8
GAIKEI
 62
     1
100
AcDbCircle
 10
-34.75405268777735
 20
26.81802450325065
 30
0.0
 40
0.0591866952162475
100
AcDbArc
 50
315.541787897679
 51
46.00086831277558
  0
ARC
  5
8C
330
2
100
AcDbEntity
  8
GAIKEI
 62
     1
100
AcDbCircle
 10
-34.7541280295211
 20
26.81831492333905
 30
0.0
 40
0.0590306722114208
100
AcDbArc
 50
45.75245274506241
 51
135.9575275638489
  0
ARC
  5
8D
330
2
100
AcDbEntity
  8
GAIKEI
 62
     1
100
AcDbCircle
 10
-31.74581299236297
 20
23.88890166065161
 30
0.0
 40
4.258008947906747
100
AcDbArc
 50
135.7640336812683
 51
164.2696961722604
  0
ARC
  5
8E
330
2
100
AcDbEntity
  8
GAIKEI
 62
     1
100
AcDbCircle
 10
-31.74753056516351
 20
23.89094620432363
 30
0.0
 40
4.136878906803874
100
AcDbArc
 50
135.7702994433211
 51
164.2875400223034
  0
ARC
  5
8F
330
2
100
AcDbEntity
  8
GAIKEI
100
AcDbCircle
 10
-37.66919014638233
 20
25.27423447459259
 30
0.0
 40
0.8025925319984626
100
AcDbArc
 50
150.8035209954949
 51
156.5226653688144
  0
ARC
  5
90
330
2
100
AcDbEntity
  8
GAIKEI
100
AcDbCircle
 10
-39.54959525942121
 20
28.97648229805966
 30
0.0
 40
3.306799244599487
100
AcDbArc
 50
309.6194010834029
 51
327.4119644971161
  0
ARC
  5
91
330
2
100
AcDbEntity
  8
GAIKEI
100
AcDbCircle
 10
-42.99424347839386
 20
34.27767084967044
 30
0.0
 40
9.614422845909393
100
AcDbArc
 50
301.8503379357277
 51
305.2823056485861
  0
ARC
  5
92
330
2
100
AcDbEntity
  8
GAIKEI
100
AcDbCircle
 10
-37.3835439522785
 20
25.11981729318776
 30
0.0
 40
1.127282741056014
100
AcDbArc
 50
118.4568564564841
 51
151.0343314160909
  0
ARC
  5
93
330
2
100
AcDbEntity
  8
GAIKEI
100
AcDbCircle
 10
-37.66919014638233
 20
22.54327339696911
 30
0.0
 40
0.8025925319984626
100
AcDbArc
 50
203.4773346311856
 51
209.1964790045051
  0
ARC
  5
94
330
2
100
AcDbEntity
  8
GAIKEI
100
AcDbCircle
 10
-31.69692413315966
 20
23.89373543553839
 30
0.0
 40
6.913208712789402
100
AcDbArc
 50
165.9137753949452
 51
193.9807593393751
  0
ARC
  5
95
330
2
100
AcDbEntity
  8
GAIKEI
100
AcDbCircle
 10
-39.53595766997404
 20
18.92537056171889
 30
0.0
 40
3.233421714381144
100
AcDbArc
 50
31.61992175083153
 51
49.61365121692566
  0
ARC
  5
96
330
2
100
AcDbEntity
  8
GAIKEI
100
AcDbCircle
 10
-42.99424347839386
 20
13.53983702189126
 30
0.0
 40
9.614422845909393
100
AcDbArc
 50
54.71769435141382
 51
58.1496620642723
  0
ARC
  5
97
330
2
100
AcDbEntity
  8
GAIKEI
100
AcDbCircle
 10
-37.3835439522785
 20
22.69769057837388
 30
0.0
 40
1.127282741056014
100
AcDbArc
 50
208.9656685839091
 51
241.5431435435159
  0
LINE
  5
98
330
2
100
AcDbEntity
  8
GAIKEI
 62
     1
100
AcDbLine
 10
-34.68394664916374
 20
29.97746733749207
 30
0.0
 11
-35.51102630854939
 21
29.50020709379734
 31
0.0
  0
LINE
  5
99
330
2
100
AcDbEntity
  8
GAIKEI
 62
     1
100
AcDbLine
 10
-35.17673842234078
 20
29.68905403505241
 30
0.0
 11
-34.83483905810775
 21
29.04876447412423
 31
0.0
  0
LINE
  5
9A
330
2
100
AcDbEntity
  8
GAIKEI
 62
     1
100
AcDbLine
 10
-35.28350483030525
 20
29.62733934836777
 30
0.0
 11
-34.93800544268228
 21
28.98087831877106
 31
0.0
  0
LINE
  5
9B
330
2
100
AcDbEntity
  8
GAIKEI
 62
     1
100
AcDbLine
 10
-35.3719625478866
 20
29.57632187404178
 30
0.0
 11
-35.02317171030711
 21
28.92368937577661
 31
0.0
  0
LINE
  5
9C
330
2
100
AcDbEntity
  8
GAIKEI
 62
     1
100
AcDbLine
 10
-35.43912869856172
 20
29.53744162143042
 30
0.0
 11
-35.09013214535995
 21
28.8848091231653
 31
0.0
  0
LINE
  5
9D
330
2
100
AcDbEntity
  8
GAIKEI
 62
     1
100
AcDbLine
 10
-35.01782310412778
 20
29.78059748696799
 30
0.0
 11
-34.67602659770586
 21
29.14030792603981
 31
0.0
  0
LINE
  5
9E
330
2
100
AcDbEntity
  8
GAIKEI
 62
     1
100
AcDbLine
 10
-34.91105669616331
 20
29.84251788927494
 30
0.0
 11
-34.56576302416261
 21
29.19605685967829
 31
0.0
  0
LINE
  5
9F
330
2
100
AcDbEntity
  8
GAIKEI
 62
     1
100
AcDbLine
 10
-34.82259897858197
 20
29.89332964797867
 30
0.0
 11
-34.47380814100245
 21
29.24090286533581
 31
0.0
  0
LINE
  5
A0
330
2
100
AcDbEntity
  8
GAIKEI
 62
     1
100
AcDbLine
 10
-34.75543282790679
 20
29.93220990058998
 30
0.0
 11
-34.40653913251618
 21
29.27978311794712
 31
0.0
  0
LINE
  5
A1
330
2
100
AcDbEntity
  8
GAIKEI
 62
     1
100
AcDbLine
 10
-33.80307235455132
 20
27.93028863577584
 30
0.0
 11
-34.22396651774074
 21
27.68733848586052
 31
0.0
  0
LINE
  5
A2
330
2
100
AcDbEntity
  8
GAIKEI
 62
     1
100
AcDbLine
 10
-34.21758933344995
 20
20.09704917051371
 30
0.0
 11
-33.79669517026056
 21
19.85368758935382
 31
0.0
  0
LINE
  5
A3
330
2
100
AcDbEntity
  8
GAIKEI
 62
     1
100
AcDbLine
 10
-34.16688043255738
 20
20.25977022773893
 30
0.0
 11
-34.24813810335888
 21
20.04397453996492
 31
0.0
  0
LINE
  5
A4
330
2
100
AcDbEntity
  8
GAIKEI
 62
     1
100
AcDbLine
 10
-34.24813810335888
 20
20.04397453996492
 30
0.0
 11
-33.82724394016947
 21
19.8010243900496
 31
0.0
  0
LINE
  5
A5
330
2
100
AcDbEntity
  8
GAIKEI
 62
     1
100
AcDbLine
 10
-33.82724394016947
 20
19.8010243900496
 30
0.0
 11
-33.68087727491565
 21
19.97917411894602
 31
0.0
  0
LINE
  5
A6
330
2
100
AcDbEntity
  8
GAIKEI
 62
     1
100
AcDbLine
 10
-33.68715160139527
 20
27.8048021061837
 30
0.0
 11
-33.8336211244602
 21
27.98315755070237
 31
0.0
  0
LINE
  5
A7
330
2
100
AcDbEntity
  8
GAIKEI
 62
     1
100
AcDbLine
 10
-33.8336211244602
 20
27.98315755070237
 30
0.0
 11
-34.25451528764961
 21
27.7400016851648
 31
0.0
  0
LINE
  5
A8
330
2
100
AcDbEntity
  8
GAIKEI
 62
     1
100
AcDbLine
 10
-34.25451528764961
 20
27.7400016851648
 30
0.0
 11
-34.17336047465929
 21
27.52420599739074
 31
0.0
  0
LINE
  5
A9
330
2
100
AcDbEntity
  8
GAIKEI
100
AcDbLine
 10
-34.33135007257201
 20
29.31496048935739
 30
0.0
 11
-34.6846666538417
 21
29.97520446564696
 31
0.0
  0
LINE
  5
AA
330
2
100
AcDbEntity
  8
GAIKEI
100
AcDbLine
 10
-34.6846666538417
 20
29.97520446564696
 30
0.0
 11
-34.84111338458735
 21
30.01696473697027
 31
0.0
  0
LINE
  5
AB
330
2
100
AcDbEntity
  8
GAIKEI
100
AcDbLine
 10
-34.84111338458735
 20
30.01696473697027
 30
0.0
 11
-35.46988318409291
 21
29.65408237926445
 31
0.0
  0
LINE
  5
AC
330
2
100
AcDbEntity
  8
GAIKEI
100
AcDbLine
 10
-35.46988318409291
 20
29.65408237926445
 30
0.0
 11
-35.51164345541622
 21
29.49753279070771
 31
0.0
  0
LINE
  5
AD
330
2
100
AcDbEntity
  8
GAIKEI
100
AcDbLine
 10
-35.51164345541622
 20
29.49753279070771
 30
0.0
 11
-35.15812115852421
 21
28.8374945300404
 31
0.0
  0
LINE
  5
AE
330
2
100
AcDbEntity
  8
GAIKEI
  6
Continuous
 62
     1
100
AcDbLine
 10
-40.18172120852622
 20
24.24423304506027
 30
0.0
 11
-40.03735535265545
 21
24.24423304506027
 31
0.0
  0
LINE
  5
AF
330
2
100
AcDbEntity
  8
GAIKEI
  6
Continuous
 62
     1
100
AcDbLine
 10
-38.70541811788906
 20
17.34423151918148
 30
0.0
 11
-38.51536823191083
 21
17.34423151918148
 31
0.0
  0
LINE
  5
B0
330
2
100
AcDbEntity
  8
GAIKEI
  6
Continuous
100
AcDbLine
 10
-37.45349973193544
 20
30.99423160313231
 30
0.0
 11
-37.45349973193544
 21
30.79423160313226
 31
0.0
  0
LINE
  5
B1
330
2
100
AcDbEntity
  8
GAIKEI
  6
Continuous
100
AcDbLine
 10
-36.11877496205506
 20
32.79423160313226
 30
0.0
 11
-36.15349973193543
 21
32.79423160313226
 31
0.0
  0
LINE
  5
B2
330
2
100
AcDbEntity
  8
GAIKEI
  6
Continuous
100
AcDbLine
 10
-38.25349973193565
 20
30.62282287695408
 30
0.0
 11
-38.25349783037206
 21
30.62282287695408
 31
0.0
  0
LINE
  5
B3
330
2
100
AcDbEntity
  8
GAIKEI
  6
Continuous
100
AcDbLine
 10
-40.05349973193424
 20
24.99423161454885
 30
0.0
 11
-40.05349973193424
 21
24.89423161454889
 31
0.0
  0
LINE
  5
B4
330
2
100
AcDbEntity
  8
GAIKEI
  6
Continuous
100
AcDbLine
 10
-39.55349973193424
 20
24.98982850672169
 30
0.0
 11
-39.55349973193424
 21
24.89862108618289
 31
0.0
  0
ARC
  5
B5
330
2
100
AcDbEntity
  8
GAIKEI
  6
Continuous
 62
     1
100
AcDbCircle
 10
-18.88331164731823
 20
25.2924863124895
 30
0.0
 40
21.78
100
AcDbArc
 50
186.154180344298
 51
187.9125161715321
  0
ARC
  5
B6
330
2
100
AcDbEntity
  8
GAIKEI
  6
Continuous
 62
     1
100
AcDbCircle
 10
-18.88331164731823
 20
25.2924863124895
 30
0.0
 40
21.78
100
AcDbArc
 50
187.9125161715321
 51
190.0071439004703
  0
ARC
  5
B7
330
2
100
AcDbEntity
  8
GAIKEI
  6
Continuous
 62
     1
100
AcDbCircle
 10
-18.88331164731823
 20
25.2924863124895
 30
0.0
 40
21.78
100
AcDbArc
 50
198.4087315133263
 51
198.9047386517322
  0
ARC
  5
B8
330
2
100
AcDbEntity
  8
GAIKEI
  6
Continuous
 62
     1
100
AcDbCircle
 10
-37.97477350874584
 20
18.75425383011006
 30
0.0
 40
1.6000000000002
100
AcDbArc
 50
198.9047386517218
 51
240.8500852310222
  0
ARC
  5
B9
330
2
100
AcDbEntity
  8
GAIKEI
  6
Continuous
 62
     1
100
AcDbCircle
 10
-38.54931977575845
 20
23.1719853593863
 30
0.0
 40
2.0000000000002
100
AcDbArc
 50
180.0
 51
186.1541803442946
  0
ARC
  5
BA
330
2
100
AcDbEntity
  8
GAIKEI
  6
Continuous
 62
     7
100
AcDbCircle
 10
7.633075314898775
 20
32.992138439679
 30
0.0
 40
48.76956563581479
100
AcDbArc
 50
194.6819543305994
 51
196.5681930927908
  0
ARC
  5
BB
330
2
100
AcDbEntity
  8
GAIKEI
  6
Continuous
 62
     1
100
AcDbCircle
 10
-41.17063549135443
 20
21.09039208805231
 30
0.0
 40
1.4
100
AcDbArc
 50
10.67731302585262
 51
59.30370771322571
  0
ARC
  5
BC
330
2
100
AcDbEntity
  8
GAIKEI
  6
Continuous
 62
     1
100
AcDbCircle
 10
-18.88331164731823
 20
25.2924863124895
 30
0.0
 40
21.28
100
AcDbArc
 50
192.7133438141908
 51
193.2211732112499
  0
ARC
  5
BD
330
2
100
AcDbEntity
  8
GAIKEI
  6
Continuous
 62
     1
100
AcDbCircle
 10
-40.96216579836104
 20
20.10532915495347
 30
0.0
 40
1.4000000000002
100
AcDbArc
 50
341.7308809797193
 51
13.22117321123651
  0
ARC
  5
BE
330
2
100
AcDbEntity
  8
GAIKEI
  6
Continuous
 62
     1
100
AcDbCircle
 10
-18.88331164731823
 20
25.2924863124895
 30
0.0
 40
21.2799999999998
100
AcDbArc
 50
190.6773130258526
 51
192.7133438141908
  0
ARC
  5
BF
330
2
100
AcDbEntity
  8
GAIKEI
  6
Continuous
 62
     7
100
AcDbCircle
 10
-18.88331164731823
 20
25.2924863124895
 30
0.0
 40
21.1799999999998
100
AcDbArc
 50
182.8368760633003
 51
192.7133438141908
  0
ARC
  5
C0
330
2
100
AcDbEntity
  8
GAIKEI
  6
Continuous
100
AcDbCircle
 10
-33.68818065008464
 20
29.64427893290647
 30
0.0
 40
4.0
100
AcDbArc
 50
128.5523412632429
 51
160.2760866465115
  0
ARC
  5
C1
330
2
100
AcDbEntity
  8
GAIKEI
  6
Continuous
100
AcDbCircle
 10
-33.68818065008464
 20
29.64427893290647
 30
0.0
 40
4.0
100
AcDbArc
 50
128.0486074449321
 51
128.5523412632429
  0
ARC
  5
C2
330
2
100
AcDbEntity
  8
GAIKEI
  6
Continuous
 62
     1
100
AcDbCircle
 10
-34.34085939863905
 20
27.77235319440772
 30
0.0
 40
4.680689998053799
100
AcDbArc
 50
145.7904993465404
 51
159.9580041572343
  0
ARC
  5
C3
330
2
100
AcDbEntity
  8
GAIKEI
  6
Continuous
 62
     1
100
AcDbCircle
 10
-26.05563199974603
 20
24.7498979244269
 30
0.0
 40
13.4999999999986
100
AcDbArc
 50
159.9580041572343
 51
178.9816493668135
  0
ARC
  5
C4
330
2
100
AcDbEntity
  8
GAIKEI
  6
Continuous
 62
     1
100
AcDbCircle
 10
-33.52759847390883
 20
19.4678987165847
 30
0.0
 40
4.9255968754406
100
AcDbArc
 50
201.5585139883888
 51
217.2875502362269
  0
ARC
  5
C5
330
2
100
AcDbEntity
  8
GAIKEI
  6
Continuous
 62
     1
100
AcDbCircle
 10
-12.44744618429661
 20
26.49614012918934
 30
0.0
 40
27.15308833300862
100
AcDbArc
 50
183.3728754779872
 51
196.4993840796274
  0
ARC
  5
C6
330
2
100
AcDbEntity
  8
GAIKEI
  6
Continuous
100
AcDbCircle
 10
-36.03166128366343
 20
18.66257987131288
 30
0.0
 40
2.8
100
AcDbArc
 50
201.0255933150847
 51
236.5299801127441
  0
ARC
  5
C7
330
2
100
AcDbEntity
  8
GAIKEI
  6
Continuous
100
AcDbCircle
 10
-35.87132642798585
 20
28.1867777435937
 30
0.0
 40
3.6
100
AcDbArc
 50
137.170122019517
 51
160.7027427004914
  0
ARC
  5
C8
330
2
100
AcDbEntity
  8
GAIKEI
  6
Continuous
 62
     7
100
AcDbCircle
 10
-18.85672859461883
 20
25.2642226310193
 30
0.0
 40
21.19999999999981
100
AcDbArc
 50
199.9239347040908
 51
201.0255933150847
  0
ARC
  5
C9
330
2
100
AcDbEntity
  8
GAIKEI
  6
Continuous
100
AcDbCircle
 10
-26.05563199974603
 20
24.7498979244269
 30
0.0
 40
13.9999999999986
100
AcDbArc
 50
160.7027427004914
 51
182.0699119001426
  0
ARC
  5
CA
330
2
100
AcDbEntity
  8
GAIKEI
  6
Continuous
 62
     1
100
AcDbCircle
 10
-38.54931977575845
 20
23.1719853593863
 30
0.0
 40
2.0000000000002
100
AcDbArc
 50
149.2222468774715
 51
180.0
  0
ARC
  5
CB
330
2
100
AcDbEntity
  8
GAIKEI
  6
Continuous
 62
     1
100
AcDbCircle
 10
-38.70541811788906
 20
17.4442315191815
 30
0.0
 40
0.0999999999998
100
AcDbArc
 50
240.8500852311696
 51
270.0
  0
ARC
  5
CC
330
2
100
AcDbEntity
  8
GAIKEI
  6
Continuous
 62
     1
100
AcDbCircle
 10
-40.18172120852622
 20
24.1442330450603
 30
0.0
 40
0.1
100
AcDbArc
 50
90.0
 51
149.2222468774715
  0
ARC
  5
CD
330
2
100
AcDbEntity
  8
GAIKEI
  6
Continuous
100
AcDbCircle
 10
-36.11877496205506
 20
32.69423160313229
 30
0.0
 40
0.1
100
AcDbArc
 50
90.0
 51
128.5523412632375
  0
ARC
  5
CE
330
2
100
AcDbEntity
  8
GAIKEI
  6
Continuous
 62
     1
100
AcDbCircle
 10
-37.79823718118726
 20
30.12282287695408
 30
0.0
 40
0.5
100
AcDbArc
 50
90.0
 51
145.7904993465521
  0
ARC
  5
CF
330
2
100
AcDbEntity
  8
GAIKEI
  6
Continuous
100
AcDbCircle
 10
-37.1091259795277
 20
17.05820487166281
 30
0.0
 40
0.8675615115162987
100
AcDbArc
 50
237.4532815784556
 51
259.0259927231448
  0
ARC
  5
D0
330
2
100
AcDbEntity
  8
GAIKEI
  6
Continuous
100
AcDbCircle
 10
-38.14479034496264
 20
30.29423161454886
 30
0.0
 40
0.5
100
AcDbArc
 50
90.0
 51
137.1701220195259
  0
ARC
  5
D1
330
2
100
AcDbEntity
  8
GAIKEI
  6
Continuous
 62
     1
100
AcDbCircle
 10
-37.20774710929322
 20
16.66564025677686
 30
0.0
 40
0.3
100
AcDbArc
 50
217.2875502362228
 51
270.0
  0
LINE
  5
D2
330
2
100
AcDbEntity
  8
GAIKEI
  6
Continuous
 62
     1
100
AcDbLine
 10
-35.83504368756897
 20
19.24206087775414
 30
0.0
 11
-36.56779504427104
 21
18.50930952105201
 31
0.0
  0
LINE
  5
D3
330
2
100
AcDbEntity
  8
GAIKEI
  6
Continuous
 62
     1
100
AcDbLine
 10
-37.37459718924828
 20
18.83387822607491
 30
0.0
 11
-36.40072911256897
 21
19.80774630275422
 31
0.0
  0
LINE
  5
D4
330
2
100
AcDbEntity
  8
GAIKEI
  6
HIDDEN2
 62
     1
100
AcDbLine
 10
-36.40072911256897
 20
19.80774630275422
 30
0.0
 11
-35.83504368756897
 21
19.24206087775414
 31
0.0
  0
ARC
  5
D6
330
2
100
AcDbEntity
  8
GAIKEI
  6
HIDDEN2
 62
     1
100
AcDbCircle
 10
-36.11788640016897
 20
20.09058901515422
 30
0.0
 40
0.4
100
AcDbArc
 50
160.5418625369995
 51
225.000000000005
  0
ARC
  5
D7
330
2
100
AcDbEntity
  8
GAIKEI
  6
HIDDEN2
 62
     1
100
AcDbCircle
 10
-35.55220097516897
 20
19.52490359015436
 30
0.0
 40
0.4
100
AcDbArc
 50
225.000000000005
 51
289.6019535739979
  0
ARC
  5
D8
330
2
100
AcDbEntity
  8
GAIKEI
  6
Continuous
 62
     1
100
AcDbCircle
 10
-37.20774710929319
 20
16.66564025677686
 30
0.0
 40
0.3
100
AcDbArc
 50
217.2875502362187
 51
270.0
  0
LINE
  5
D9
330
2
100
AcDbEntity
  8
GAIKEI
  6
Continuous
 62
     1
100
AcDbLine
 10
-40.63102410424071
 20
20.09269085900289
 30
0.0
 11
-40.62578168995367
 21
20.09378725649717
 31
0.0
  0
ARC
  5
DA
330
2
100
AcDbEntity
  8
GAIKEI
  6
Continuous
 62
     1
100
AcDbCircle
 10
-38.05162248437614
 20
20.55970024580708
 30
0.0
 40
1.815983663799756
100
AcDbArc
 50
173.5172037169371
 51
234.4903670925362
  0
ARC
  5
DB
330
2
100
AcDbEntity
  8
GAIKEI
  6
Continuous
 62
     1
100
AcDbCircle
 10
-38.05162248437614
 20
20.55970024580708
 30
0.0
 40
2.615983663799756
100
AcDbArc
 50
173.5172037169371
 51
237.9304954258885
  0
ARC
  5
DC
330
2
100
AcDbEntity
  8
GAIKEI
  6
Continuous
 62
     1
100
AcDbCircle
 10
-40.25343670865623
 20
20.80989560944394
 30
0.0
 40
0.4
100
AcDbArc
 50
353.5172037169405
 51
173.5172037169404
  0
ARC
  5
DD
330
2
100
AcDbEntity
  8
GAIKEI
  6
Continuous
 62
     1
100
AcDbCircle
 10
-38.00768544906478
 20
20.58626537218183
 30
0.0
 40
1.863239505420146
100
AcDbArc
 50
233.8650269124415
 51
289.8633644857897
  0
ARC
  5
DE
330
2
100
AcDbEntity
  8
GAIKEI
  6
Continuous
 62
     1
100
AcDbCircle
 10
-38.00768544906478
 20
20.58626537218183
 30
0.0
 40
2.663239505420146
100
AcDbArc
 50
233.8650269124415
 51
272.2187195370537
  0
ARC
  5
DF
330
2
100
AcDbEntity
  8
GAIKEI
  6
Continuous
 62
     1
100
AcDbCircle
 10
-37.98200860664417
 20
19.92352308342518
 30
0.0
 40
2.0
100
AcDbArc
 50
272.2187195370537
 51
314.9999999999995
  0
ARC
  5
E0
330
2
100
AcDbEntity
  8
GAIKEI
  6
Continuous
 62
     1
100
AcDbCircle
 10
-18.85672859461883
 20
25.2642226310193
 30
0.0
 40
20.7
100
AcDbArc
 50
200.7480688588697
 51
201.5585139883888
  0
LINE
  5
E1
330
2
100
AcDbEntity
  8
GAIKEI
  6
Continuous
 62
     1
100
AcDbLine
 10
-41.04885855135842
 20
21.35782112572875
 30
0.0
 11
-40.74714086883633
 21
19.91516087004348
 31
0.0
  0
LINE
  5
E2
330
2
100
AcDbEntity
  8
GAIKEI
  6
Continuous
 62
     1
100
AcDbLine
 10
-39.84793300478887
 20
21.60898245866528
 30
0.0
 11
-41.04885855135842
 21
21.35782112572875
 31
0.0
  0
LINE
  5
E3
330
2
100
AcDbEntity
  8
GAIKEI
  6
Continuous
 62
     1
100
AcDbLine
 10
-40.74714086883633
 20
19.91516087004348
 30
0.0
 11
-40.59484553838885
 21
19.94701188554106
 31
0.0
  0
LINE
  5
E4
330
2
100
AcDbEntity
  8
GAIKEI
  6
Continuous
 62
     1
100
AcDbLine
 10
-39.81127148421279
 20
20.11088840933056
 30
0.0
 11
-39.56334343965648
 21
20.16274003187382
 31
0.0
  0
ARC
  5
E5
330
2
100
AcDbEntity
  8
GAIKEI
  6
Continuous
100
AcDbCircle
 10
-37.13466243890062
 20
16.9942308516095
 30
0.0
 40
0.8
100
AcDbArc
 50
259.9492941888136
 51
270.0
  0
DIMENSION
  5
E6
330
2
100
AcDbEntity
  8
SUNPO
100
AcDbDimension
  2
*D6
 10
-15.25349973193681
 20
16.19423085160949
 30
0.0
 11
-17.00349973193682
 21
24.49423122737087
 31
0.0
 70
    33
  1
83
 71
     5
 42
16.60000075152276
  3
STANDARD
100
AcDbAlignedDimension
 13
-23.25349973193681
 23
32.79423160313226
 33
0.0
 14
-23.25349973193681
 24
16.19423085160949
 34
0.0
1001
ACAD
1000
DSTYLE
1002
{
1070
   287
1070
     3
1070
   287
1070
     3
1070
   287
1070
     3
1070
    40
1040
1.0
1070
   140
1040
2.5
1070
   147
1040
0.5
1070
   172
1070
     1
1070
   279
1070
     0
1070
   288
1070
     0
1070
   341
1005
0
1002
}
  0
ARC
  5
F3
330
2
100
AcDbEntity
  8
GAIKEI
 62
     1
100
AcDbCircle
 10
-32.78672595961257
 20
27.95838926964248
 30
0.0
 40
0.0591866952162475
100
AcDbArc
 50
193.9991316872233
 51
284.458212102322
  0
ARC
  5
F4
330
2
100
AcDbEntity
  8
GAIKEI
 62
     1
100
AcDbCircle
 10
-32.78693979991496
 20
27.95859972755071
 30
0.0
 40
0.0590306722114208
100
AcDbArc
 50
104.0424724361499
 51
194.2475472549372
  0
ARC
  5
F5
330
2
100
AcDbEntity
  8
GAIKEI
 62
     1
100
AcDbCircle
 10
-30.71922361671261
 20
27.95838926964248
 30
0.0
 40
0.0591866952162475
100
AcDbArc
 50
255.541787897678
 51
346.0008683127766
  0
ARC
  5
F6
330
2
100
AcDbEntity
  8
GAIKEI
 62
     1
100
AcDbCircle
 10
-30.71900977641019
 20
27.95859972755071
 30
0.0
 40
0.0590306722114208
100
AcDbArc
 50
345.7524527450627
 51
75.95752756385
  0
ARC
  5
F7
330
2
100
AcDbEntity
  8
GAIKEI
 62
     1
100
AcDbCircle
 10
-31.75179856150152
 20
23.8886158514413
 30
0.0
 40
4.258008947906747
100
AcDbArc
 50
75.7640336812687
 51
104.26969617226
  0
ARC
  5
F8
330
2
100
AcDbEntity
  8
GAIKEI
 62
     1
100
AcDbCircle
 10
-31.75088672114268
 20
23.89112558495546
 30
0.0
 40
4.136878906803874
100
AcDbArc
 50
75.77029944332058
 51
104.2875400223037
  0
ARC
  5
F9
330
2
100
AcDbEntity
  8
GAIKEI
 62
     1
100
AcDbCircle
 10
-28.74797539535419
 20
26.82481672870355
 30
0.0
 40
0.0591866952162475
100
AcDbArc
 50
133.9991316872244
 51
224.458212102321
  0
ARC
  5
FA
330
2
100
AcDbEntity
  8
GAIKEI
 62
     1
100
AcDbCircle
 10
-28.74790005361041
 20
26.82510714879189
 30
0.0
 40
0.0590306722114208
100
AcDbArc
 50
44.04247243615104
 51
134.2475472549375
  0
ARC
  5
FB
330
2
100
AcDbEntity
  8
GAIKEI
 62
     1
100
AcDbCircle
 10
-27.7142242239042
 20
25.03430717736833
 30
0.0
 40
0.0591866952162475
100
AcDbArc
 50
195.5417878976782
 51
286.0008683127759
  0
ARC
  5
FC
330
2
100
AcDbEntity
  8
GAIKEI
 62
     1
100
AcDbCircle
 10
-27.71393504185802
 20
25.03422721518822
 30
0.0
 40
0.0590306722114208
100
AcDbArc
 50
285.7524527450633
 51
15.95752756384974
  0
ARC
  5
FD
330
2
100
AcDbEntity
  8
GAIKEI
 62
     1
100
AcDbCircle
 10
-31.75503886410749
 20
23.89365660176625
 30
0.0
 40
4.258008947906747
100
AcDbArc
 50
15.76403368126892
 51
44.26969617225998
  0
ARC
  5
FE
330
2
100
AcDbEntity
  8
GAIKEI
 62
     1
100
AcDbCircle
 10
-31.75240945094808
 20
23.89412179160834
 30
0.0
 40
4.136878906803874
100
AcDbArc
 50
15.7702994433204
 51
44.28754002230321
  0
ARC
  5
FF
330
2
100
AcDbEntity
  8
GAIKEI
 62
     1
100
AcDbCircle
 10
-27.7103027307106
 20
22.76036987003758
 30
0.0
 40
0.0591866952162475
100
AcDbArc
 50
73.99913168722412
 51
164.4582121023217
  0
ARC
  5
100
330
2
100
AcDbEntity
  8
GAIKEI
 62
     1
100
AcDbCircle
 10
-27.71001354866442
 20
22.76044983221774
 30
0.0
 40
0.0590306722114208
100
AcDbArc
 50
344.0424724361502
 51
74.24754725493665
  0
ARC
  5
101
330
2
100
AcDbEntity
  8
GAIKEI
 62
     1
100
AcDbCircle
 10
-28.74405390216058
 20
20.96986031870242
 30
0.0
 40
0.0591866952162475
100
AcDbArc
 50
135.5417878976789
 51
226.0008683127756
  0
ARC
  5
102
330
2
100
AcDbEntity
  8
GAIKEI
 62
     1
100
AcDbCircle
 10
-28.74397856041682
 20
20.96956989861403
 30
0.0
 40
0.0590306722114208
100
AcDbArc
 50
225.7524527450624
 51
315.957527563849
  0
ARC
  5
103
330
2
100
AcDbEntity
  8
GAIKEI
 62
     1
100
AcDbCircle
 10
-31.75229359757495
 20
23.89898316130146
 30
0.0
 40
4.258008947906747
100
AcDbArc
 50
315.7640336812684
 51
344.2696961722605
  0
ARC
  5
104
330
2
100
AcDbEntity
  8
GAIKEI
 62
     1
100
AcDbCircle
 10
-31.75057602477441
 20
23.89693861762944
 30
0.0
 40
4.136878906803874
100
AcDbArc
 50
315.7702994433211
 51
344.2875400223035
  0
ARC
  5
105
330
2
100
AcDbEntity
  8
GAIKEI
 62
     1
100
AcDbCircle
 10
-30.71138063032538
 20
19.82949555231059
 30
0.0
 40
0.0591866952162475
100
AcDbArc
 50
13.99913168722334
 51
104.458212102322
  0
ARC
  5
106
330
2
100
AcDbEntity
  8
GAIKEI
 62
     1
100
AcDbCircle
 10
-30.71116679002296
 20
19.82928509440236
 30
0.0
 40
0.0590306722114208
100
AcDbArc
 50
284.04247243615
 51
14.24754725493724
  0
ARC
  5
107
330
2
100
AcDbEntity
  8
GAIKEI
 62
     1
100
AcDbCircle
 10
-32.77888297322534
 20
19.82949555231059
 30
0.0
 40
0.0591866952162475
100
AcDbArc
 50
75.54178789767799
 51
166.0008683127766
  0
ARC
  5
108
330
2
100
AcDbEntity
  8
GAIKEI
 62
     1
100
AcDbCircle
 10
-32.77909681352776
 20
19.82928509440236
 30
0.0
 40
0.0590306722114208
100
AcDbArc
 50
165.7524527450627
 51
255.95752756385
  0
ARC
  5
109
330
2
100
AcDbEntity
  8
GAIKEI
 62
     1
100
AcDbCircle
 10
-31.74630802843643
 20
23.89926897051177
 30
0.0
 40
4.258008947906747
100
AcDbArc
 50
255.7640336812687
 51
284.2696961722601
  0
ARC
  5
10A
330
2
100
AcDbEntity
  8
GAIKEI
 62
     1
100
AcDbCircle
 10
-31.74721986879527
 20
23.89675923699761
 30
0.0
 40
4.136878906803874
100
AcDbArc
 50
255.7702994433205
 51
284.2875400223038
  0
LINE
  5
10B
330
2
100
AcDbEntity
  8
GAIKEI
 62
     1
100
AcDbLine
 10
-31.27307877391348
 20
30.64330479267258
 30
0.0
 11
-32.2282164081698
 21
30.64330479267258
 31
0.0
  0
LINE
  5
10C
330
2
100
AcDbEntity
  8
GAIKEI
 62
     1
100
AcDbLine
 10
-31.84393962574663
 20
30.64001334271606
 30
0.0
 11
-31.84393962574663
 21
29.90104429723945
 31
0.0
  0
LINE
  5
10D
330
2
100
AcDbEntity
  8
GAIKEI
 62
     1
100
AcDbLine
 10
-31.96736899911594
 20
30.64001334271606
 30
0.0
 11
-31.96736899911594
 21
29.89384425045953
 31
0.0
  0
LINE
  5
10E
330
2
100
AcDbEntity
  8
GAIKEI
 62
     1
100
AcDbLine
 10
-32.06960966339023
 20
30.64001334271606
 30
0.0
 11
-32.06960966339023
 21
29.88684991930197
 31
0.0
  0
LINE
  5
10F
330
2
100
AcDbEntity
  8
GAIKEI
 62
     1
100
AcDbLine
 10
-32.14706159517948
 20
30.64001334271606
 30
0.0
 11
-32.14706159517948
 21
29.88684991930197
 31
0.0
  0
LINE
  5
110
330
2
100
AcDbEntity
  8
GAIKEI
 62
     1
100
AcDbLine
 10
-31.66064700629318
 20
30.64001334271606
 30
0.0
 11
-31.66064700629318
 21
29.90104429723945
 31
0.0
  0
LINE
  5
111
330
2
100
AcDbEntity
  8
GAIKEI
 62
     1
100
AcDbLine
 10
-31.53742334854616
 20
30.64001334271606
 30
0.0
 11
-31.53742334854616
 21
29.89384425045953
 31
0.0
  0
LINE
  5
112
330
2
100
AcDbEntity
  8
GAIKEI
 62
     1
100
AcDbLine
 10
-31.43528554208302
 20
30.64001334271606
 30
0.0
 11
-31.43528554208302
 21
29.88684991930197
 31
0.0
  0
LINE
  5
113
330
2
100
AcDbEntity
  8
GAIKEI
 62
     1
100
AcDbLine
 10
-31.35773075248261
 20
30.64001334271606
 30
0.0
 11
-31.35773075248261
 21
29.88684991930197
 31
0.0
  0
LINE
  5
114
330
2
100
AcDbEntity
  8
GAIKEI
100
AcDbLine
 10
-31.27482735670287
 20
29.8796498725221
 30
0.0
 11
-31.27482735670287
 21
30.64165906769435
 31
0.0
  0
LINE
  5
115
330
2
100
AcDbEntity
  8
GAIKEI
100
AcDbLine
 10
-31.27482735670287
 20
30.64165906769435
 30
0.0
 11
-31.38941095831408
 21
30.75624266930552
 31
0.0
  0
LINE
  5
116
330
2
100
AcDbEntity
  8
GAIKEI
100
AcDbLine
 10
-31.38941095831408
 20
30.75624266930552
 30
0.0
 11
-32.11548424715914
 21
30.75603695368327
 31
0.0
  0
LINE
  5
117
330
2
100
AcDbEntity
  8
GAIKEI
100
AcDbLine
 10
-32.11548424715914
 20
30.75603695368327
 30
0.0
 11
-32.22986213314806
 21
30.64145335207209
 31
0.0
  0
LINE
  5
118
330
2
100
AcDbEntity
  8
GAIKEI
100
AcDbLine
 10
-32.22986213314806
 20
30.64145335207209
 30
0.0
 11
-32.23006784877035
 21
29.87985558814441
 31
0.0
  0
LINE
  5
119
330
2
100
AcDbEntity
  8
GAIKEI
 62
     1
100
AcDbLine
 10
-27.22644676800007
 20
23.65448942664003
 30
0.0
 11
-27.22624105237779
 21
24.14059544209292
 31
0.0
  0
LINE
  5
11A
330
2
100
AcDbEntity
  8
GAIKEI
 62
     1
100
AcDbLine
 10
-27.39287070642638
 20
23.61684346776238
 30
0.0
 11
-27.16534922818226
 21
23.65448942664003
 31
0.0
  0
LINE
  5
11B
330
2
100
AcDbEntity
  8
GAIKEI
 62
     1
100
AcDbLine
 10
-27.16534922818226
 20
23.65448942664003
 30
0.0
 11
-27.16534922818226
 21
24.1403897264706
 31
0.0
  0
LINE
  5
11C
330
2
100
AcDbEntity
  8
GAIKEI
 62
     1
100
AcDbLine
 10
-27.16534922818226
 20
24.1403897264706
 30
0.0
 11
-27.39287070642638
 21
24.17844711659282
 31
0.0
  0
LINE
  5
11D
330
2
100
AcDbEntity
  8
GAIKEI
  6
Phantom
100
AcDbLine
 10
-32.10523000562387
 20
31.59423160313227
 30
0.0
 11
-32.20349973193544
 21
31.59423160313227
 31
0.0
  0
LINE
  5
11F
330
2
100
AcDbEntity
  8
GAIKEI
  6
Phantom
100
AcDbLine
 10
-31.10349973193545
 20
31.59423160313227
 30
0.0
 11
-31.20176945824705
 21
31.59423160313227
 31
0.0
  0
LINE
  5
120
330
2
100
AcDbEntity
  8
GAIKEI
  6
Phantom
100
AcDbLine
 10
-31.10349973193545
 20
31.69248636248866
 30
0.0
 11
-31.10349973193545
 21
31.59423160313227
 31
0.0
  0
LINE
  5
121
330
2
100
AcDbEntity
  8
GAIKEI
  6
Phantom
100
AcDbLine
 10
-32.20349973193544
 20
31.69248636248866
 30
0.0
 11
-32.20349973193544
 21
31.59423160313227
 31
0.0
  0
LINE
  5
122
330
2
100
AcDbEntity
  8
GAIKEI
  6
Continuous
100
AcDbLine
 10
-31.10349973193545
 20
32.79423160313226
 30
0.0
 11
-31.10349973193545
 21
31.69423160313229
 31
0.0
  0
LINE
  5
123
330
2
100
AcDbEntity
  8
GAIKEI
  6
Continuous
100
AcDbLine
 10
-32.20349973193544
 20
32.79423160313226
 30
0.0
 11
-32.20349973193544
 21
31.69423160313229
 31
0.0
  0
LINE
  5
124
330
2
100
AcDbEntity
  8
GAIKEI
  6
Continuous
100
AcDbLine
 10
-31.20349973193544
 20
31.59423160313227
 30
0.0
 11
-32.10349973193544
 21
31.59423160313227
 31
0.0
  0
LINE
  5
125
330
2
100
AcDbEntity
  8
GAIKEI
  6
Continuous
100
AcDbLine
 10
-25.85349973193544
 20
30.79423160313226
 30
0.0
 11
-25.85349973193544
 21
30.99423160313231
 31
0.0
  0
LINE
  5
126
330
2
100
AcDbEntity
  8
GAIKEI
  6
Continuous
100
AcDbLine
 10
-23.25349973193681
 20
24.89423161454889
 30
0.0
 11
-23.25349973193681
 21
24.99423161454885
 31
0.0
  0
LINE
  5
127
330
2
100
AcDbEntity
  8
GAIKEI
  6
Continuous
100
AcDbLine
 10
-31.65349973193566
 20
16.19423085160949
 30
0.0
 11
-26.17233702497043
 21
16.19423085160949
 31
0.0
  0
LINE
  5
128
330
2
100
AcDbEntity
  8
GAIKEI
  6
Continuous
100
AcDbLine
 10
-31.65349973193566
 20
30.79423161454887
 30
0.0
 11
-25.16220911890844
 21
30.79423161454887
 31
0.0
  0
LINE
  5
129
330
2
100
AcDbEntity
  8
GAIKEI
  6
Continuous
100
AcDbLine
 10
-23.75349973193682
 20
24.89423161454889
 30
0.0
 11
-23.75349973193682
 21
24.99423161454885
 31
0.0
  0
ARC
  5
12A
330
2
100
AcDbEntity
  8
GAIKEI
  6
Continuous
100
AcDbCircle
 10
-29.61881881378645
 20
29.64427893290647
 30
0.0
 40
4.0
100
AcDbArc
 50
19.72391335348851
 51
51.4476587367571
  0
ARC
  5
12B
330
2
100
AcDbEntity
  8
GAIKEI
  6
Continuous
 62
     1
100
AcDbCircle
 10
-44.45027086925242
 20
25.2642226310193
 30
0.0
 40
20.7
100
AcDbArc
 50
338.4414860116112
 51
349.0025272711274
  0
ARC
  5
12C
330
2
100
AcDbEntity
  8
GAIKEI
  6
Continuous
100
AcDbCircle
 10
-44.45027086925242
 20
25.2642226310193
 30
0.0
 40
21.2000000000002
100
AcDbArc
 50
338.9744066849153
 51
349.0025272711241
  0
ARC
  5
12D
330
2
100
AcDbEntity
  8
GAIKEI
  6
Continuous
 62
     1
100
AcDbCircle
 10
-37.25136746412506
 20
24.7498979244269
 30
0.0
 40
13.4999999999986
100
AcDbArc
 50
1.037044248323896
 51
20.04199584276564
  0
ARC
  5
12E
330
2
100
AcDbEntity
  8
GAIKEI
  6
Continuous
 62
     1
100
AcDbCircle
 10
-29.77940098996226
 20
19.4678987165847
 30
0.0
 40
4.9255968754406
100
AcDbArc
 50
322.7124497637772
 51
338.4414860116112
  0
ARC
  5
12F
330
2
100
AcDbEntity
  8
GAIKEI
  6
Continuous
 62
     1
100
AcDbCircle
 10
-44.45027086925242
 20
25.2642226310193
 30
0.0
 40
20.7000000000002
100
AcDbArc
 50
349.0025272711274
 51
358.9758449801707
  0
ARC
  5
130
330
2
100
AcDbEntity
  8
GAIKEI
  6
Continuous
100
AcDbCircle
 10
-27.27533818020765
 20
18.66257987131288
 30
0.0
 40
2.8
100
AcDbArc
 50
303.4700198872559
 51
338.9744066849153
  0
ARC
  5
131
330
2
100
AcDbEntity
  8
GAIKEI
  6
Continuous
100
AcDbCircle
 10
-44.45027086925242
 20
25.2642226310193
 30
0.0
 40
21.2000000000002
100
AcDbArc
 50
349.0025272711241
 51
358.9999999999982
  0
ARC
  5
132
330
2
100
AcDbEntity
  8
GAIKEI
  6
Continuous
100
AcDbCircle
 10
-37.25136746412506
 20
24.7498979244269
 30
0.0
 40
13.9999999999988
100
AcDbArc
 50
1.000000000001775
 51
19.29725729950513
  0
ARC
  5
133
330
2
100
AcDbEntity
  8
GAIKEI
  6
Continuous
100
AcDbCircle
 10
-27.43567303588526
 20
28.1867777435937
 30
0.0
 40
3.5999999999998
100
AcDbArc
 50
19.29725729950857
 51
42.82987798048294
  0
ARC
  5
134
330
2
100
AcDbEntity
  8
GAIKEI
  6
Continuous
 62
     1
100
AcDbCircle
 10
-28.96614006523183
 20
27.77235319440772
 30
0.0
 40
4.680689998054
100
AcDbArc
 50
20.04199584276564
 51
34.20950065345965
  0
ARC
  5
135
330
2
100
AcDbEntity
  8
GAIKEI
  6
Continuous
100
AcDbCircle
 10
-32.10349973193544
 20
31.69423160313229
 30
0.0
 40
0.1
100
AcDbArc
 50
180.0
 51
270.0
  0
ARC
  5
136
330
2
100
AcDbEntity
  8
GAIKEI
  6
Continuous
100
AcDbCircle
 10
-31.20349973193544
 20
31.69423160313229
 30
0.0
 40
0.1
100
AcDbArc
 50
270.0
 51
0.0
  0
ARC
  5
137
330
2
100
AcDbEntity
  8
GAIKEI
  6
Continuous
100
AcDbCircle
 10
-27.18822450181602
 20
32.69423160313229
 30
0.0
 40
0.1
100
AcDbArc
 50
51.4476587367571
 51
90.0
  0
ARC
  5
138
330
2
100
AcDbEntity
  8
GAIKEI
  6
Continuous
 62
     1
100
AcDbCircle
 10
-25.50876228268362
 20
30.12282287695408
 30
0.0
 40
0.4999999999998
100
AcDbArc
 50
34.2095006534557
 51
90.0
  0
ARC
  5
139
330
2
100
AcDbEntity
  8
GAIKEI
  6
Continuous
100
AcDbCircle
 10
-26.17233702497043
 20
16.9942308516095
 30
0.0
 40
0.8
100
AcDbArc
 50
270.0
 51
303.4700198872564
  0
ARC
  5
13A
330
2
100
AcDbEntity
  8
GAIKEI
  6
Continuous
100
AcDbCircle
 10
-25.16220911890844
 20
30.29423161454886
 30
0.0
 40
0.5
100
AcDbArc
 50
42.82987798048738
 51
90.0
  0
ARC
  5
13B
330
2
100
AcDbEntity
  8
GAIKEI
  6
Continuous
 62
     1
100
AcDbCircle
 10
-26.09925235457786
 20
16.66564025677686
 30
0.0
 40
0.3
100
AcDbArc
 50
270.0
 51
322.7124497637812
  0
LINE
  5
13C
330
2
100
AcDbEntity
  8
GAIKEI
  6
HIDDEN2
 62
     1
100
AcDbLine
 10
-28.73677840696897
 20
26.90601158315426
 30
0.0
 11
-28.75799161056898
 21
26.88479837975419
 31
0.0
  0
LINE
  5
13D
330
2
100
AcDbEntity
  8
GAIKEI
  6
Continuous
100
AcDbLine
 10
32.36217451098069
 20
30.11843514102896
 30
0.0
 11
17.96217451098066
 21
30.11843514102896
 31
0.0
  0
LINE
  5
13E
330
2
100
AcDbEntity
  8
GAIKEI
  6
Continuous
 62
     1
100
AcDbLine
 10
17.96217451098066
 20
30.318435141029
 30
0.0
 11
32.36217451098069
 21
30.318435141029
 31
0.0
  0
LINE
  5
13F
330
2
100
AcDbEntity
  8
GAIKEI
  6
Continuous
100
AcDbLine
 10
21.46217451098089
 20
32.11843514102856
 30
0.0
 11
19.26924236031208
 21
32.11843514102935
 31
0.0
  0
LINE
  5
140
330
2
100
AcDbEntity
  8
GAIKEI
  6
Continuous
100
AcDbLine
 10
10.93519354841508
 20
29.95388658766695
 30
0.0
 11
20.36217451098988
 21
30.11843515244556
 31
0.0
  0
LINE
  5
141
330
2
100
AcDbEntity
  8
GAIKEI
  6
Continuous
100
AcDbLine
 10
10.93519354841508
 20
15.68298362185714
 30
0.0
 11
20.36217451098988
 21
15.51843505707836
 31
0.0
  0
LINE
  5
142
330
2
100
AcDbEntity
  8
GAIKEI
100
AcDbLine
 10
10.21866624153627
 20
29.21804309106207
 30
0.0
 11
4.883483268614924
 21
29.21804309106207
 31
0.0
  0
LINE
  5
143
330
2
100
AcDbEntity
  8
GAIKEI
100
AcDbLine
 10
10.21866624153627
 20
17.22261747141235
 30
0.0
 11
4.883483268614924
 21
17.22261747141235
 31
0.0
  0
LINE
  5
144
330
2
100
AcDbEntity
  8
GAIKEI
100
AcDbLine
 10
-1.311163394184035
 20
28.76122883518659
 30
0.0
 11
-1.310955467804504
 21
26.34920644073364
 31
0.0
  0
LINE
  5
145
330
2
100
AcDbEntity
  8
GAIKEI
100
AcDbLine
 10
-1.187239271971122
 20
28.88515295739953
 30
0.0
 11
-1.311163394184035
 21
28.76122883518659
 31
0.0
  0
LINE
  5
146
330
2
100
AcDbEntity
  8
GAIKEI
100
AcDbLine
 10
-1.187239271971122
 20
29.07873241676234
 30
0.0
 11
-1.187239271971122
 21
28.88515295739953
 31
0.0
  0
LINE
  5
147
330
2
100
AcDbEntity
  8
GAIKEI
100
AcDbLine
 10
-1.021314021088727
 20
29.21741931192347
 30
0.0
 11
-1.187239271971122
 21
29.07873241676234
 31
0.0
  0
LINE
  5
148
330
2
100
AcDbEntity
  8
GAIKEI
100
AcDbLine
 10
4.575752226878165
 20
29.21409248985063
 30
0.0
 11
-1.024536879971805
 21
29.21804309106207
 31
0.0
  0
LINE
  5
149
330
2
100
AcDbEntity
  8
GAIKEI
100
AcDbLine
 10
4.674101404406201
 20
29.07103914071891
 30
0.0
 11
4.579286975330532
 21
29.21804309106207
 31
0.0
  0
LINE
  5
14A
330
2
100
AcDbEntity
  8
GAIKEI
100
AcDbLine
 10
4.798441379378218
 20
29.07083121433939
 30
0.0
 11
4.674101404406201
 21
29.07103914071891
 31
0.0
  0
LINE
  5
14B
330
2
100
AcDbEntity
  8
GAIKEI
100
AcDbLine
 10
4.885146679651356
 20
29.21409248985063
 30
0.0
 11
4.798441379378218
 21
29.07083121433939
 31
0.0
  0
ARC
  5
14C
330
2
100
AcDbEntity
  8
GAIKEI
100
AcDbCircle
 10
15.03562525858122
 20
23.22729581495227
 30
0.0
 40
16.64464492168964
100
AcDbArc
 50
169.1406082475515
 51
190.8593917524485
  0
LINE
  5
14D
330
2
100
AcDbEntity
  8
GAIKEI
100
AcDbLine
 10
-1.311163394184035
 20
17.67943172728783
 30
0.0
 11
-1.310955467804504
 21
20.09145412174078
 31
0.0
  0
LINE
  5
14E
330
2
100
AcDbEntity
  8
GAIKEI
100
AcDbLine
 10
-1.187239271971122
 20
17.55550760507489
 30
0.0
 11
-1.311163394184035
 21
17.67943172728783
 31
0.0
  0
LINE
  5
14F
330
2
100
AcDbEntity
  8
GAIKEI
100
AcDbLine
 10
-1.187239271971122
 20
17.36192814571208
 30
0.0
 11
-1.187239271971122
 21
17.55550760507489
 31
0.0
  0
LINE
  5
150
330
2
100
AcDbEntity
  8
GAIKEI
100
AcDbLine
 10
-1.021314021088727
 20
17.22324125055095
 30
0.0
 11
-1.187239271971122
 21
17.36192814571208
 31
0.0
  0
LINE
  5
151
330
2
100
AcDbEntity
  8
GAIKEI
100
AcDbLine
 10
4.575752226878165
 20
17.22656807262379
 30
0.0
 11
-1.024536879971805
 21
17.22261747141235
 31
0.0
  0
LINE
  5
152
330
2
100
AcDbEntity
  8
GAIKEI
100
AcDbLine
 10
4.674101404406201
 20
17.36962142175551
 30
0.0
 11
4.579286975330532
 21
17.22261747141235
 31
0.0
  0
LINE
  5
153
330
2
100
AcDbEntity
  8
GAIKEI
100
AcDbLine
 10
4.798441379378218
 20
17.36982934813503
 30
0.0
 11
4.674101404406201
 21
17.36962142175551
 31
0.0
  0
LINE
  5
154
330
2
100
AcDbEntity
  8
GAIKEI
100
AcDbLine
 10
4.885146679651356
 20
17.22656807262379
 30
0.0
 11
4.798441379378218
 21
17.36982934813503
 31
0.0
  0
LINE
  5
155
330
2
100
AcDbEntity
  8
GAIKEI
100
AcDbLine
 10
-1.184224339467618
 20
28.95813511662235
 30
0.0
 11
-1.184224339467618
 21
17.53554667263788
 31
0.0
  0
LINE
  5
156
330
2
100
AcDbEntity
  8
GAIKEI
100
AcDbLine
 10
-1.306485050644113
 20
26.42218859995646
 30
0.0
 11
-1.306277124264582
 21
20.06463161877864
 31
0.0
  0
LINE
  5
157
330
2
100
AcDbEntity
  8
GAIKEI
 62
     1
100
AcDbLine
 10
-1.021314021088727
 20
29.21741931192352
 30
0.0
 11
-1.021314021088727
 21
17.22324125055095
 31
0.0
  0
LINE
  5
158
330
2
100
AcDbEntity
  8
GAIKEI
 62
     1
100
AcDbLine
 10
4.575752226878165
 20
29.21741931192352
 30
0.0
 11
4.575752226878165
 21
17.22656807262379
 31
0.0
  0
LINE
  5
159
330
2
100
AcDbEntity
  8
GAIKEI
 62
     1
100
AcDbLine
 10
4.885146679651356
 20
29.21741931192352
 30
0.0
 11
4.885146679651356
 21
17.22656807262379
 31
0.0
  0
LINE
  5
15A
330
2
100
AcDbEntity
  8
GAIKEI
 62
     1
100
AcDbLine
 10
4.676596520960842
 20
29.07498974193052
 30
0.0
 11
4.676596520960842
 21
17.36712630520085
 31
0.0
  0
LINE
  5
15B
330
2
100
AcDbEntity
  8
GAIKEI
 62
     1
100
AcDbLine
 10
4.798441379378218
 20
29.07498974193052
 30
0.0
 11
4.798649305757763
 21
17.36712630520085
 31
0.0
  0
LINE
  5
15C
330
2
100
AcDbEntity
  8
GAIKEI
100
AcDbLine
 10
8.293475893265551
 20
29.96906534984706
 30
0.0
 11
8.293475893265551
 21
29.22448880882829
 31
0.0
  0
LINE
  5
15D
330
2
100
AcDbEntity
  8
GAIKEI
100
AcDbLine
 10
8.409082960296387
 20
30.08488034325748
 30
0.0
 11
8.293475893265551
 21
29.96906534984706
 31
0.0
  0
LINE
  5
15E
330
2
100
AcDbEntity
  8
GAIKEI
100
AcDbLine
 10
9.143063080114444
 20
30.08488034325748
 30
0.0
 11
8.409082960296387
 21
30.08488034325748
 31
0.0
  0
LINE
  5
15F
330
2
100
AcDbEntity
  8
GAIKEI
100
AcDbLine
 10
9.258878073524869
 20
29.96906534984706
 30
0.0
 11
9.143063080114444
 21
30.08488034325748
 31
0.0
  0
LINE
  5
160
330
2
100
AcDbEntity
  8
GAIKEI
100
AcDbLine
 10
9.258878073524869
 20
29.22448880882829
 30
0.0
 11
9.258878073524869
 21
29.96906534984706
 31
0.0
  0
ARC
  5
161
330
2
100
AcDbEntity
  8
GAIKEI
100
AcDbCircle
 10
8.776176983395188
 20
31.30291320125636
 30
0.0
 40
2.133740447536287
100
AcDbArc
 50
256.9251966905381
 51
283.0748033094626
  0
LINE
  5
162
330
2
100
AcDbEntity
  8
GAIKEI
100
AcDbLine
 10
10.34238243736961
 20
29.10181224489262
 30
0.0
 11
10.21866624153627
 21
29.21804309106207
 31
0.0
  0
LINE
  5
163
330
2
100
AcDbEntity
  8
GAIKEI
100
AcDbLine
 10
10.34238243736961
 20
26.19430128796742
 30
0.0
 11
10.34238243736961
 21
29.10181224489262
 31
0.0
  0
LINE
  5
164
330
2
100
AcDbEntity
  8
GAIKEI
100
AcDbLine
 10
10.34238243736961
 20
17.33884831758181
 30
0.0
 11
10.21866624153627
 21
17.22261747141235
 31
0.0
  0
LINE
  5
165
330
2
100
AcDbEntity
  8
GAIKEI
100
AcDbLine
 10
10.34238243736961
 20
20.246359274507
 30
0.0
 11
10.34238243736961
 21
17.33884831758181
 31
0.0
  0
LINE
  5
166
330
2
100
AcDbEntity
  8
GAIKEI
 62
     1
100
AcDbLine
 10
10.47399983562594
 20
26.07661495714129
 30
0.0
 11
10.47399983562594
 21
25.75911137556554
 31
0.0
  0
LINE
  5
167
330
2
100
AcDbEntity
  8
GAIKEI
 62
     1
100
AcDbLine
 10
10.34238243736961
 20
26.20844028177717
 30
0.0
 11
10.47399983562594
 21
26.07661495714129
 31
0.0
  0
LINE
  5
168
330
2
100
AcDbEntity
  8
GAIKEI
 62
     1
100
AcDbLine
 10
10.47420776200552
 20
20.37797667276331
 30
0.0
 11
10.34238243736961
 21
20.246359274507
 31
0.0
  0
LINE
  5
169
330
2
100
AcDbEntity
  8
GAIKEI
 62
     1
100
AcDbLine
 10
10.47399983562594
 20
20.695480254339
 30
0.0
 11
10.47420776200552
 21
20.37797667276331
 31
0.0
  0
LINE
  5
16A
330
2
100
AcDbEntity
  8
GAIKEI
 62
     1
100
AcDbLine
 10
10.22178513722956
 20
29.21741931192352
 30
0.0
 11
10.22178513722956
 21
17.21783516468261
 31
0.0
  0
LINE
  5
16B
330
2
100
AcDbEntity
  8
GAIKEI
100
AcDbLine
 10
10.34362999564695
 20
26.23401522646205
 30
0.0
 11
10.34362999564695
 21
20.18502099253911
 31
0.0
  0
LINE
  5
16C
330
2
100
AcDbEntity
  8
GAIKEI
 62
     1
100
AcDbLine
 10
10.47607909942151
 20
25.75911662788965
 30
0.0
 11
10.4760790994215
 21
20.69549075898724
 31
0.0
  0
ELLIPSE
  5
16D
330
2
100
AcDbEntity
  8
GAIKEI
 62
     1
100
AcDbEllipse
 10
9.843151200065605
 20
20.19770450169179
 30
0.0
 11
0.2545018885714843
 21
0.0
 31
0.0
210
0.0
220
0.0
230
1.0
 40
0.8790849673202615
 41
0.0
 42
6.283185307179586
  0
LINE
  5
16E
330
2
100
AcDbEntity
  8
GAIKEI
 62
     1
100
AcDbLine
 10
8.697892701493913
 20
29.96719401243112
 30
0.0
 11
8.697892701493913
 21
29.17022002376527
 31
0.0
  0
LINE
  5
16F
330
2
100
AcDbEntity
  8
GAIKEI
 62
     1
100
AcDbLine
 10
8.57313687376282
 20
29.96719401243112
 30
0.0
 11
8.57313687376282
 21
29.17957671084511
 31
0.0
  0
LINE
  5
170
330
2
100
AcDbEntity
  8
GAIKEI
 62
     1
100
AcDbLine
 10
8.455242616556887
 20
29.96698608605155
 30
0.0
 11
8.455242616556887
 21
29.18851754516581
 31
0.0
  0
LINE
  5
171
330
2
100
AcDbEntity
  8
GAIKEI
 62
     1
100
AcDbLine
 10
8.377062297845384
 20
29.96719401243112
 30
0.0
 11
8.377062297845384
 21
29.20639921380732
 31
0.0
  0
LINE
  5
172
330
2
100
AcDbEntity
  8
GAIKEI
 62
     1
100
AcDbLine
 10
8.854461265296507
 20
29.96698608605155
 30
0.0
 11
8.854461265296507
 21
29.17022002376527
 31
0.0
  0
LINE
  5
173
330
2
100
AcDbEntity
  8
GAIKEI
 62
     1
100
AcDbLine
 10
8.979009166648054
 20
29.96719401243112
 30
0.0
 11
8.9792170930276
 21
29.17624988877228
 31
0.0
  0
LINE
  5
174
330
2
100
AcDbEntity
  8
GAIKEI
 62
     1
100
AcDbLine
 10
9.096695497474399
 20
29.96719401243112
 30
0.0
 11
9.096695497474399
 21
29.18810169240672
 31
0.0
  0
LINE
  5
175
330
2
100
AcDbEntity
  8
GAIKEI
 62
     1
100
AcDbLine
 10
9.175083742565448
 20
29.96719401243112
 30
0.0
 11
9.175083742565448
 21
29.203280318114
 31
0.0
  0
LINE
  5
176
330
2
100
AcDbEntity
  8
GAIKEI
 62
     1
100
AcDbLine
 10
9.258878073524869
 20
29.96906534984712
 30
0.0
 11
8.293475893265551
 21
29.96906534984712
 31
0.0
  0
LINE
  5
177
330
2
100
AcDbEntity
  8
GAIKEI
 62
     1
100
AcDbLine
 10
10.03215627907825
 20
20.23658673466801
 30
0.0
 11
9.900746807201485
 21
20.23658673466801
 31
0.0
  0
LINE
  5
178
330
2
100
AcDbEntity
  8
GAIKEI
 62
     1
100
AcDbLine
 10
9.900746807201485
 20
20.23658673466801
 30
0.0
 11
9.900746807201485
 21
20.34408467289629
 31
0.0
  0
LINE
  5
179
330
2
100
AcDbEntity
  8
GAIKEI
 62
     1
100
AcDbLine
 10
9.900746807201485
 20
20.34408467289629
 30
0.0
 11
9.78472388741153
 21
20.34408467289629
 31
0.0
  0
LINE
  5
17A
330
2
100
AcDbEntity
  8
GAIKEI
 62
     1
100
AcDbLine
 10
9.78472388741153
 20
20.34408467289629
 30
0.0
 11
9.78472388741153
 21
20.23658673466801
 31
0.0
  0
LINE
  5
17B
330
2
100
AcDbEntity
  8
GAIKEI
 62
     1
100
AcDbLine
 10
9.78472388741153
 20
20.23658673466801
 30
0.0
 11
9.653730268293855
 21
20.23658673466801
 31
0.0
  0
LINE
  5
17C
330
2
100
AcDbEntity
  8
GAIKEI
 62
     1
100
AcDbLine
 10
9.653730268293855
 20
20.23658673466801
 30
0.0
 11
9.653730268293855
 21
20.15923812147471
 31
0.0
  0
LINE
  5
17D
330
2
100
AcDbEntity
  8
GAIKEI
 62
     1
100
AcDbLine
 10
9.653730268293855
 20
20.15923812147471
 30
0.0
 11
9.78472388741153
 21
20.15903019509514
 31
0.0
  0
LINE
  5
17E
330
2
100
AcDbEntity
  8
GAIKEI
 62
     1
100
AcDbLine
 10
9.78472388741153
 20
20.15903019509514
 30
0.0
 11
9.78472388741153
 21
20.05132433048729
 31
0.0
  0
LINE
  5
17F
330
2
100
AcDbEntity
  8
GAIKEI
 62
     1
100
AcDbLine
 10
9.78472388741153
 20
20.05132433048729
 30
0.0
 11
9.900746807201485
 21
20.05132433048729
 31
0.0
  0
LINE
  5
180
330
2
100
AcDbEntity
  8
GAIKEI
 62
     1
100
AcDbLine
 10
9.900746807201485
 20
20.05132433048729
 30
0.0
 11
9.900746807201485
 21
20.15923812147471
 31
0.0
  0
LINE
  5
181
330
2
100
AcDbEntity
  8
GAIKEI
 62
     1
100
AcDbLine
 10
9.900746807201485
 20
20.15923812147471
 30
0.0
 11
10.03215627907825
 21
20.15923812147471
 31
0.0
  0
LINE
  5
182
330
2
100
AcDbEntity
  8
GAIKEI
 62
     1
100
AcDbLine
 10
10.03215627907825
 20
20.15923812147471
 30
0.0
 11
10.03215627907825
 21
20.23658673466801
 31
0.0
  0
LINE
  5
183
330
2
100
AcDbEntity
  8
GAIKEI
  6
Continuous
 62
     1
100
AcDbLine
 10
18.99387870853648
 20
32.11843514102895
 30
0.0
 11
18.96217451098987
 21
30.318435141029
 31
0.0
  0
LINE
  5
184
330
2
100
AcDbEntity
  8
GAIKEI
  6
Continuous
 62
     1
100
AcDbLine
 10
18.96217451098987
 20
30.11843514102896
 30
0.0
 11
18.96217451098987
 21
30.318435141029
 31
0.0
  0
LINE
  5
185
330
2
100
AcDbEntity
  8
GAIKEI
  6
Continuous
100
AcDbLine
 10
19.26924236031208
 20
32.11843514102895
 30
0.0
 11
18.36217451099027
 21
32.11843514102895
 31
0.0
  0
LINE
  5
186
330
2
100
AcDbEntity
  8
GAIKEI
  6
Continuous
100
AcDbLine
 10
18.36217451099027
 20
32.11843514102895
 30
0.0
 11
17.96217451098066
 21
30.318435141029
 31
0.0
  0
LINE
  5
187
330
2
100
AcDbEntity
  8
GAIKEI
  6
Continuous
100
AcDbLine
 10
17.96217451098066
 20
30.11843514102896
 30
0.0
 11
17.96217451098066
 21
30.318435141029
 31
0.0
  0
LINE
  5
188
330
2
100
AcDbEntity
  8
GAIKEI
  6
Continuous
100
AcDbLine
 10
10.54217451099008
 20
29.55394750960437
 30
0.0
 11
10.54217451099008
 21
16.08292269991955
 31
0.0
  0
LINE
  5
189
330
2
100
AcDbEntity
  8
GAIKEI
  6
Continuous
 62
     1
100
AcDbLine
 10
19.36217451098987
 20
21.01843515244559
 30
0.0
 11
11.86217451098987
 21
21.01843515244559
 31
0.0
  0
LINE
  5
18A
330
2
100
AcDbEntity
  8
GAIKEI
  6
Continuous
 62
     1
100
AcDbLine
 10
19.46217451098987
 20
22.31843515244555
 30
0.0
 11
19.46217451098987
 21
21.11843515244556
 31
0.0
  0
LINE
  5
18B
330
2
100
AcDbEntity
  8
GAIKEI
  6
Continuous
 62
     1
100
AcDbLine
 10
11.86217451098987
 20
22.41843515244557
 30
0.0
 11
19.36217451098987
 21
22.41843515244557
 31
0.0
  0
LINE
  5
18C
330
2
100
AcDbEntity
  8
GAIKEI
  6
Continuous
 62
     1
100
AcDbLine
 10
11.76217451098988
 20
21.11843515244556
 30
0.0
 11
11.76217451098988
 21
22.31843515244555
 31
0.0
  0
LINE
  5
18D
330
2
100
AcDbEntity
  8
GAIKEI
  6
Continuous
 62
     1
100
AcDbLine
 10
19.62217451098989
 20
22.47843515244557
 30
0.0
 11
19.62217451098989
 21
20.95843515244559
 31
0.0
  0
LINE
  5
18E
330
2
100
AcDbEntity
  8
GAIKEI
  6
Continuous
 62
     1
100
AcDbLine
 10
11.84217451098986
 20
22.71843515244558
 30
0.0
 11
19.38217451098988
 21
22.71843515244558
 31
0.0
  0
LINE
  5
18F
330
2
100
AcDbEntity
  8
GAIKEI
  6
Continuous
 62
     1
100
AcDbLine
 10
19.38217451098988
 20
20.71843515244558
 30
0.0
 11
11.84217451098986
 21
20.71843515244558
 31
0.0
  0
LINE
  5
190
330
2
100
AcDbEntity
  8
GAIKEI
  6
Continuous
 62
     1
100
AcDbLine
 10
11.60217451098988
 20
20.95843515244559
 30
0.0
 11
11.60217451098988
 21
22.47843515244557
 31
0.0
  0
ARC
  5
191
330
2
100
AcDbEntity
  8
GAIKEI
  6
Continuous
 62
     1
100
AcDbCircle
 10
11.84217451098986
 20
22.47843515244557
 30
0.0
 40
0.24
100
AcDbArc
 50
90.0
 51
180.0
  0
ARC
  5
192
330
2
100
AcDbEntity
  8
GAIKEI
  6
Continuous
 62
     1
100
AcDbCircle
 10
11.84217451098986
 20
20.95843515244559
 30
0.0
 40
0.24
100
AcDbArc
 50
180.0
 51
270.0
  0
ARC
  5
193
330
2
100
AcDbEntity
  8
GAIKEI
  6
Continuous
 62
     1
100
AcDbCircle
 10
19.38217451098988
 20
20.95843515244559
 30
0.0
 40
0.24
100
AcDbArc
 50
270.0
 51
0.0
  0
ARC
  5
194
330
2
100
AcDbEntity
  8
GAIKEI
  6
Continuous
 62
     1
100
AcDbCircle
 10
19.38217451098988
 20
22.47843515244557
 30
0.0
 40
0.24
100
AcDbArc
 50
0.0
 51
90.0
  0
ARC
  5
195
330
2
100
AcDbEntity
  8
GAIKEI
  6
Continuous
 62
     1
100
AcDbCircle
 10
11.86217451098987
 20
22.31843515244555
 30
0.0
 40
0.1
100
AcDbArc
 50
90.0
 51
180.0
  0
ARC
  5
196
330
2
100
AcDbEntity
  8
GAIKEI
  6
Continuous
 62
     1
100
AcDbCircle
 10
11.86217451098987
 20
21.11843515244556
 30
0.0
 40
0.1
100
AcDbArc
 50
180.0
 51
270.0
  0
ARC
  5
197
330
2
100
AcDbEntity
  8
GAIKEI
  6
Continuous
 62
     1
100
AcDbCircle
 10
19.36217451098987
 20
21.11843515244556
 30
0.0
 40
0.1
100
AcDbArc
 50
270.0
 51
0.0
  0
ARC
  5
198
330
2
100
AcDbEntity
  8
GAIKEI
  6
Continuous
 62
     1
100
AcDbCircle
 10
19.36217451098987
 20
22.31843515244555
 30
0.0
 40
0.1
100
AcDbArc
 50
0.0
 51
90.0
  0
ARC
  5
199
330
2
100
AcDbEntity
  8
GAIKEI
  6
Continuous
100
AcDbCircle
 10
10.94217451099005
 20
29.55394750960437
 30
0.0
 40
0.4000000000002001
100
AcDbArc
 50
91.00000000000823
 51
180.0
  0
ARC
  5
19A
330
2
100
AcDbEntity
  8
GAIKEI
  6
Continuous
100
AcDbCircle
 10
10.94217451099005
 20
16.08292269991955
 30
0.0
 40
0.4
100
AcDbArc
 50
180.0
 51
268.9999999999917
  0
LINE
  5
19B
330
2
100
AcDbEntity
  8
GAIKEI
  6
Continuous
 62
     1
100
AcDbLine
 10
35.26217460635688
 20
24.31843517605535
 30
0.0
 11
20.46217145923187
 21
24.31843515261596
 31
0.0
  0
LINE
  5
19C
330
2
100
AcDbEntity
  8
GAIKEI
  6
Phantom
100
AcDbLine
 10
27.76217451099068
 20
32.11843514102895
 30
0.0
 11
27.73684462010467
 21
32.11843514102895
 31
0.0
  0
LINE
  5
19D
330
2
100
AcDbEntity
  8
GAIKEI
  6
Continuous
100
AcDbLine
 10
27.57718586682846
 20
32.11843514102895
 30
0.0
 11
25.94716315515187
 21
32.11843514102895
 31
0.0
  0
LINE
  5
19E
330
2
100
AcDbEntity
  8
GAIKEI
  6
Continuous
100
AcDbLine
 10
32.36217451098069
 20
30.11843514102896
 30
0.0
 11
32.36217451098069
 21
30.318435141029
 31
0.0
  0
LINE
  5
19F
330
2
100
AcDbEntity
  8
GAIKEI
  6
Continuous
100
AcDbLine
 10
27.73684462010467
 20
32.11843514102895
 30
0.0
 11
21.46217451098089
 21
32.11843514102856
 31
0.0
  0
LINE
  5
1A0
330
2
100
AcDbEntity
  8
GAIKEI
  6
Continuous
 62
     1
100
AcDbLine
 10
20.46217145923207
 20
29.91494318206537
 30
0.0
 11
20.36217451098988
 21
29.91843515244557
 31
0.0
  0
LINE
  5
1A1
330
2
100
AcDbEntity
  8
GAIKEI
  6
Continuous
 62
     1
100
AcDbLine
 10
20.36217451098988
 20
30.1184351524455
 30
0.0
 11
20.36217451098988
 21
23.21843515244558
 31
0.0
  0
LINE
  5
1A2
330
2
100
AcDbEntity
  8
GAIKEI
  6
Continuous
100
AcDbLine
 10
20.36217451098988
 20
15.71843505707835
 30
0.0
 11
20.46217145923227
 21
15.72018051030261
 31
0.0
  0
LINE
  5
1A3
330
2
100
AcDbEntity
  8
GAIKEI
  6
Continuous
 62
     1
100
AcDbLine
 10
20.36217451098988
 20
23.21843515244558
 30
0.0
 11
20.36217451098988
 21
15.51843505707836
 31
0.0
  0
LINE
  5
1A4
330
2
100
AcDbEntity
  8
GAIKEI
  6
Continuous
 62
     1
100
AcDbLine
 10
20.46217145923227
 20
15.51843438950635
 30
0.0
 11
20.46217145923227
 21
24.21843515244558
 31
0.0
  0
LINE
  5
1A5
330
2
100
AcDbEntity
  8
GAIKEI
  6
Continuous
 62
     1
100
AcDbLine
 10
21.16217451099009
 20
24.21843515244558
 30
0.0
 11
21.16217451099009
 21
24.31843515372458
 31
0.0
  0
LINE
  5
1A6
330
2
100
AcDbEntity
  8
GAIKEI
  6
Continuous
 62
     1
100
AcDbLine
 10
20.46217145923207
 20
30.11843515244556
 30
0.0
 11
20.46217145923187
 21
24.31843515261596
 31
0.0
  0
ARC
  5
1A7
330
2
100
AcDbEntity
  8
GAIKEI
  6
Phantom
100
AcDbCircle
 10
37.29437708686486
 20
49.70073061268158
 30
0.0
 40
20.0
100
AcDbArc
 50
241.5357627809445
 51
241.6081468434162
  0
ARC
  5
1A8
330
2
100
AcDbEntity
  8
GAIKEI
  6
Continuous
100
AcDbCircle
 10
37.29437708686486
 20
49.70073061268158
 30
0.0
 40
20.0
100
AcDbArc
 50
241.6081468434162
 51
255.7229926802862
  0
ARC
  5
1A9
330
2
100
AcDbEntity
  8
GAIKEI
  6
Continuous
100
AcDbCircle
 10
27.73684462010467
 20
32.01843514102899
 30
0.0
 40
0.1000000000002
100
AcDbArc
 50
61.60814684342238
 51
90.0
  0
LINE
  5
1AA
330
2
100
AcDbEntity
  8
WAKU
 62
     4
100
AcDbLine
 10
63.81654078505625
 20
-3.995946920064994
 30
0.0
 11
63.81654078505625
 21
-48.99594692006499
 31
0.0
  0
LINE
  5
1AB
330
2
100
AcDbEntity
  8
GAIKEI
  6
Continuous
 62
     1
100
AcDbLine
 10
49.40217451098987
 20
24.31843515244555
 30
0.0
 11
49.64217451099007
 21
24.31843515244555
 31
0.0
  0
LINE
  5
1AC
330
2
100
AcDbEntity
  8
GAIKEI
  6
Continuous
 62
     1
100
AcDbLine
 10
49.64217451099007
 20
24.21843515244558
 30
0.0
 11
49.64217451099007
 21
24.31843515244555
 31
0.0
  0
LINE
  5
1AD
330
2
100
AcDbEntity
  8
GAIKEI
  6
Continuous
100
AcDbLine
 10
49.94217145923208
 20
30.11843520517118
 30
0.0
 11
49.81221882969349
 21
30.11843520485957
 31
0.0
  0
ARC
  5
1AE
330
2
100
AcDbEntity
  8
GAIKEI
  6
Continuous
100
AcDbCircle
 10
9.89415224409349
 20
27.718435853698
 30
0.0
 40
39.9999999999998
100
AcDbArc
 50
350.219631561631
 51
354.9801988599826
  0
ARC
  5
1AF
330
2
100
AcDbEntity
  8
GAIKEI
  6
Continuous
100
AcDbCircle
 10
29.60347545283646
 20
24.32099878241877
 30
0.0
 40
20.0000000000002
100
AcDbArc
 50
334.2482405879131
 51
350.219631561631
  0
ARC
  5
1B0
330
2
100
AcDbEntity
  8
GAIKEI
  6
Continuous
100
AcDbCircle
 10
9.894152244093262
 20
27.7184352010388
 30
0.0
 40
40.0
100
AcDbArc
 50
355.1239751345068
 51
357.7075572296916
  0
ARC
  5
1B1
330
2
100
AcDbEntity
  8
GAIKEI
  6
Continuous
100
AcDbCircle
 10
-50.05782854076791
 20
30.11843519512797
 30
0.0
 40
100.0
100
AcDbArc
 50
359.9206634616126
 51
0.0000000057549211
  0
ARC
  5
1B2
330
2
100
AcDbEntity
  8
GAIKEI
  6
Continuous
100
AcDbCircle
 10
-50.05782854076791
 20
30.11843519512797
 30
0.0
 40
99.99999999999982
100
AcDbArc
 50
357.7075572296916
 51
359.8851787272026
  0
ARC
  5
1B3
330
2
100
AcDbEntity
  8
GAIKEI
  6
Continuous
100
AcDbCircle
 10
47.43703643631549
 20
15.71843505707835
 30
0.0
 40
0.2
100
AcDbArc
 50
270.0
 51
334.2482405878986
  0
ARC
  5
1B4
330
2
100
AcDbEntity
  8
GAIKEI
  6
Continuous
100
AcDbCircle
 10
49.74197105824849
 20
29.91843520469115
 30
0.0
 40
0.2
100
AcDbArc
 50
359.8851787271993
 51
90.00000013733478
  0
ENDSEC
  0
SECTION
  2
OBJECTS
  0
DICTIONARY
  5
9
330
0
100
AcDbDictionary
281
     1
  3
ACAD_COLOR
350
214
  3
ACAD_GROUP
350
2A
  3
ACAD_LAYOUT
350
D
  3
ACAD_MATERIAL
350
213
  3
ACAD_MLINESTYLE
350
2B
  3
ACAD_PLOTSETTINGS
350
2C
  3
ACAD_PLOTSTYLENAME
350
8
  3
ACDBHEADERROUNDTRIPXREC
350
235
  3
AcDbVariableDictionary
350
1B7
  0
DICTIONARY
  5
19
330
18
100
AcDbDictionary
280
     1
281
     1
  3
ACAD_LAYERFILTERS
360
1A
  3
ACAD_LAYERSTATES
360
1B
  0
DICTIONARY
  5
3
330
2
100
AcDbDictionary
280
     1
281
     1
  3
ACAD_LAYOUTSELFREF
360
1E4
  0
DICTIONARY
  5
11
330
10
100
AcDbDictionary
280
     1
281
     1
  3
ACAD_LAYOUTSELFREF
360
1E9
  0
DICTIONARY
  5
214
102
{ACAD_REACTORS
330
9
102
}
330
9
100
AcDbDictionary
281
     1
  0
DICTIONARY
  5
2A
102
{ACAD_REACTORS
330
9
102
}
330
9
100
AcDbDictionary
281
     1
  0
DICTIONARY
  5
D
102
{ACAD_REACTORS
330
9
102
}
330
9
100
AcDbDictionary
281
     1
  3
Model
350
C
  3
ﾚｲｱｳﾄ1
350
15
  0
DICTIONARY
  5
213
102
{ACAD_REACTORS
330
9
102
}
330
9
100
AcDbDictionary
281
     1
  0
DICTIONARY
  5
2B
102
{ACAD_REACTORS
330
9
102
}
330
9
100
AcDbDictionary
281
     1
  3
STANDARD
350
34
  0
DICTIONARY
  5
2C
102
{ACAD_REACTORS
330
9
102
}
330
9
100
AcDbDictionary
281
     1
  0
ACDBDICTIONARYWDFLT
  5
8
102
{ACAD_REACTORS
330
9
102
}
330
9
100
AcDbDictionary
281
     1
  3
Normal
350
7
100
AcDbDictionaryWithDefault
340
7
  0
DICTIONARY
  5
235
102
{ACAD_REACTORS
330
9
102
}
330
9
100
AcDbDictionary
281
     1
  3
COLORDICT
350
237
  3
MATERIALDICT
350
236
  0
DICTIONARY
  5
1B7
102
{ACAD_REACTORS
330
9
102
}
330
9
100
AcDbDictionary
281
     1
  3
DIMASSOC
350
1B9
  3
HIDETEXT
350
1B8
  3
PROJECTNAME
350
233
  0
DICTIONARY
  5
1A
102
{ACAD_REACTORS
330
19
102
}
330
19
100
AcDbDictionary
280
     1
281
     1
  0
DICTIONARY
  5
1B
102
{ACAD_REACTORS
330
19
102
}
330
19
100
AcDbDictionary
281
     1
  0
XRECORD
  5
1E4
102
{ACAD_REACTORS
330
3
102
}
330
3
100
AcDbXrecord
280
     1
340
2
  0
XRECORD
  5
1E9
102
{ACAD_REACTORS
330
11
102
}
330
11
100
AcDbXrecord
280
     1
340
10
  0
LAYOUT
  5
C
102
{ACAD_XDICTIONARY
360
238
102
}
102
{ACAD_REACTORS
330
D
102
}
330
D
100
AcDbPlotSettings
  1

  2
\\URANUS\8FPAM09
  4
A4
  6

 40
4.180416584014892
 41
4.349743366241455
 42
4.222747802734375
 43
4.349761962890625
 44
210.0156707763672
 45
297.0106506347656
 46
6.099999999999999
 47
0.0
 48
0.0
 49
0.0
140
0.0
141
0.0
142
1.0
143
1.367729288911884
 70
 11956
 72
     1
 73
     0
 74
     1
  7
tmsacad.ctb
 75
     0
147
0.7311388358112616
148
0.5335901474040839
149
0.0875646249287456
100
AcDbLayout
  1
Model
 70
     1
 71
     0
 10
0.0
 20
0.0
 11
12.0
 21
9.0
 12
0.0
 22
0.0
 32
0.0
 14
0.0
 24
0.0
 34
0.0
 15
0.0
 25
0.0
 35
0.0
146
0.0
 13
0.0
 23
0.0
 33
0.0
 16
1.0
 26
0.0
 36
0.0
 17
0.0
 27
1.0
 37
0.0
 76
     0
330
2
  0
LAYOUT
  5
15
102
{ACAD_XDICTIONARY
360
23A
102
}
102
{ACAD_REACTORS
330
D
102
}
330
D
100
AcDbPlotSettings
  1

  2
C:\Program Files\ACAD2000\plotters\DWF ePlot.pc3
  4

  6

 40
0.0
 41
0.0
 42
0.0
 43
0.0
 44
0.0
 45
0.0
 46
0.0
 47
0.0
 48
0.0
 49
0.0
140
0.0
141
0.0
142
1.0
143
1.0
 70
   688
 72
     0
 73
     0
 74
     5
  7
tmsacad.ctb
 75
    16
147
1.0
148
0.0
149
0.0
100
AcDbLayout
  1
ﾚｲｱｳﾄ1
 70
     1
 71
     1
 10
0.0
 20
0.0
 11
12.0
 21
9.0
 12
0.0
 22
0.0
 32
0.0
 14
1.000000000000000E+20
 24
1.000000000000000E+20
 34
1.000000000000000E+20
 15
-1.000000000000000E+20
 25
-1.000000000000000E+20
 35
-1.000000000000000E+20
146
0.0
 13
0.0
 23
0.0
 33
0.0
 16
1.0
 26
0.0
 36
0.0
 17
0.0
 27
1.0
 37
0.0
 76
     0
330
10
  0
MLINESTYLE
  5
34
102
{ACAD_REACTORS
330
2B
102
}
330
2B
100
AcDbMlineStyle
  2
STANDARD
 70
     0
  3

 62
   256
 51
90.0
 52
90.0
 71
     2
 49
0.5
 62
   256
  6
BYLAYER
 49
-0.5
 62
   256
  6
BYLAYER
  0
ACDBPLACEHOLDER
  5
7
102
{ACAD_REACTORS
330
8
102
}
330
8
  0
XRECORD
  5
237
102
{ACAD_REACTORS
330
235
102
}
330
235
100
AcDbXrecord
280
     1
340
214
  0
XRECORD
  5
236
102
{ACAD_REACTORS
330
235
102
}
330
235
100
AcDbXrecord
280
     1
340
213
  0
DICTIONARYVAR
  5
1B9
102
{ACAD_REACTORS
330
1B7
102
}
330
1B7
100
DictionaryVariables
280
     0
  1
1
  0
DICTIONARYVAR
  5
1B8
102
{ACAD_REACTORS
330
1B7
102
}
330
1B7
100
DictionaryVariables
280
     0
  1
1
  0
DICTIONARYVAR
  5
233
102
{ACAD_REACTORS
330
1B7
102
}
330
1B7
100
DictionaryVariables
280
     0
  1

  0
DICTIONARY
  5
238
330
C
100
AcDbDictionary
280
     1
281
     1
  3
ACAD_XREC_ROUNDTRIP
360
239
  0
DICTIONARY
  5
23A
330
15
100
AcDbDictionary
280
     1
281
     1
  3
ACAD_XREC_ROUNDTRIP
360
23B
  0
XRECORD
  5
239
102
{ACAD_REACTORS
330
238
102
}
330
238
100
AcDbXrecord
280
     1
102
SHADEPLOT
 70
     0
102
SHADEPLOTRESLEVEL
 70
     2
102
SHADEPLOTCUSTOMDPI
 70
   300
  0
XRECORD
  5
23B
102
{ACAD_REACTORS
330
23A
102
}
330
23A
100
AcDbXrecord
280
     1
102
SHADEPLOT
 70
     0
102
SHADEPLOTRESLEVEL
 70
     2
102
SHADEPLOTCUSTOMDPI
 70
   300
  0
ENDSEC
  0
EOF
