  0
SECTION
  2
HEADER
  9
$ACADVER
  1
AC1015
  9
$ACADMAINTVER
 70
    20
  9
$DWGCODEPAGE
  3
ANSI_932
  9
$INSBASE
 10
0.0
 20
372.4992141396417
 30
0.0
  9
$EXTMIN
 10
-56.39133636169361
 20
-50.94468682476417
 30
0.0
  9
$EXTMAX
 10
68.60866363830638
 20
61.78864650856919
 30
0.0
  9
$LIMMIN
 10
-1101.784450318844
 20
-1579.160531687244
  9
$LIMMAX
 10
-508.2420711400536
 20
-1161.440814074914
  9
$ORTHOMODE
 70
     1
  9
$REGENMODE
 70
     1
  9
$FILLMODE
 70
     1
  9
$QTEXTMODE
 70
     0
  9
$MIRRTEXT
 70
     1
  9
$LTSCALE
 40
1.0
  9
$ATTMODE
 70
     1
  9
$TEXTSIZE
 40
3.0
  9
$TRACEWID
 40
0.5
  9
$TEXTSTYLE
  7
STANDARD
  9
$CLAYER
  8
GAIKEI
  9
$CELTYPE
  6
BYLAYER
  9
$CECOLOR
 62
   256
  9
$CELTSCALE
 40
1.0
  9
$DISPSILH
 70
     0
  9
$DIMSCALE
 40
1.0
  9
$DIMASZ
 40
2.0
  9
$DIMEXO
 40
2.0
  9
$DIMDLI
 40
8.0
  9
$DIMRND
 40
0.0
  9
$DIMDLE
 40
0.0
  9
$DIMEXE
 40
2.0
  9
$DIMTP
 40
0.0
  9
$DIMTM
 40
0.0
  9
$DIMTXT
 40
2.5
  9
$DIMCEN
 40
0.0
  9
$DIMTSZ
 40
0.0
  9
$DIMTOL
 70
     0
  9
$DIMLIM
 70
     0
  9
$DIMTIH
 70
     0
  9
$DIMTOH
 70
     0
  9
$DIMSE1
 70
     0
  9
$DIMSE2
 70
     0
  9
$DIMTAD
 70
     3
  9
$DIMZIN
 70
     0
  9
$DIMBLK
  1

  9
$DIMASO
 70
     1
  9
$DIMSHO
 70
     1
  9
$DIMPOST
  1

  9
$DIMAPOST
  1

  9
$DIMALT
 70
     0
  9
$DIMALTD
 70
     2
  9
$DIMALTF
 40
25.4
  9
$DIMLFAC
 40
1.0
  9
$DIMTOFL
 70
     1
  9
$DIMTVP
 40
0.0
  9
$DIMTIX
 70
     0
  9
$DIMSOXD
 70
     0
  9
$DIMSAH
 70
     1
  9
$DIMBLK1
  1
OPEN30
  9
$DIMBLK2
  1
OPEN30
  9
$DIMSTYLE
  2
STANDARD
  9
$DIMCLRD
 70
     0
  9
$DIMCLRE
 70
     0
  9
$DIMCLRT
 70
     0
  9
$DIMTFAC
 40
1.0
  9
$DIMGAP
 40
0.5
  9
$DIMJUST
 70
     0
  9
$DIMSD1
 70
     0
  9
$DIMSD2
 70
     0
  9
$DIMTOLJ
 70
     1
  9
$DIMTZIN
 70
     0
  9
$DIMALTZ
 70
     0
  9
$DIMALTTZ
 70
     0
  9
$DIMUPT
 70
     0
  9
$DIMDEC
 70
     4
  9
$DIMTDEC
 70
     4
  9
$DIMALTU
 70
     2
  9
$DIMALTTD
 70
     2
  9
$DIMTXSTY
  7
STANDARD
  9
$DIMAUNIT
 70
     0
  9
$DIMADEC
 70
     0
  9
$DIMALTRND
 40
0.0
  9
$DIMAZIN
 70
     0
  9
$DIMDSEP
 70
    46
  9
$DIMATFIT
 70
     3
  9
$DIMFRAC
 70
     0
  9
$DIMLDRBLK
  1
OPEN30
  9
$DIMLUNIT
 70
     2
  9
$DIMLWD
 70
    -2
  9
$DIMLWE
 70
    -2
  9
$DIMTMOVE
 70
     0
  9
$LUNITS
 70
     2
  9
$LUPREC
 70
     4
  9
$SKETCHINC
 40
0.1
  9
$FILLETRAD
 40
0.0
  9
$AUNITS
 70
     0
  9
$AUPREC
 70
     0
  9
$MENU
  1
ACAD
  9
$ELEVATION
 40
0.0
  9
$PELEVATION
 40
0.0
  9
$THICKNESS
 40
0.0
  9
$LIMCHECK
 70
     0
  9
$CHAMFERA
 40
0.0
  9
$CHAMFERB
 40
0.0
  9
$CHAMFERC
 40
0.0
  9
$CHAMFERD
 40
0.0
  9
$SKPOLY
 70
     0
  9
$TDCREATE
 40
2451815.565532581
  9
$TDUCREATE
 40
2451815.190532581
  9
$TDUPDATE
 40
2453992.344572477
  9
$TDUUPDATE
 40
2453991.969572477
  9
$TDINDWG
 40
0.8163418171
  9
$TDUSRTIMER
 40
0.8163418171
  9
$USRTIMER
 70
     1
  9
$ANGBASE
 50
0.0
  9
$ANGDIR
 70
     0
  9
$PDMODE
 70
     0
  9
$PDSIZE
 40
0.0
  9
$PLINEWID
 40
0.0
  9
$SPLFRAME
 70
     0
  9
$SPLINETYPE
 70
     6
  9
$SPLINESEGS
 70
     8
  9
$HANDSEED
  5
387
  9
$SURFTAB1
 70
     6
  9
$SURFTAB2
 70
     6
  9
$SURFTYPE
 70
     6
  9
$SURFU
 70
     6
  9
$SURFV
 70
     6
  9
$UCSBASE
  2

  9
$UCSNAME
  2

  9
$UCSORG
 10
0.0
 20
0.0
 30
0.0
  9
$UCSXDIR
 10
1.0
 20
0.0
 30
0.0
  9
$UCSYDIR
 10
0.0
 20
1.0
 30
0.0
  9
$UCSORTHOREF
  2

  9
$UCSORTHOVIEW
 70
     0
  9
$UCSORGTOP
 10
0.0
 20
0.0
 30
0.0
  9
$UCSORGBOTTOM
 10
0.0
 20
0.0
 30
0.0
  9
$UCSORGLEFT
 10
0.0
 20
0.0
 30
0.0
  9
$UCSORGRIGHT
 10
0.0
 20
0.0
 30
0.0
  9
$UCSORGFRONT
 10
0.0
 20
0.0
 30
0.0
  9
$UCSORGBACK
 10
0.0
 20
0.0
 30
0.0
  9
$PUCSBASE
  2

  9
$PUCSNAME
  2

  9
$PUCSORG
 10
0.0
 20
0.0
 30
0.0
  9
$PUCSXDIR
 10
1.0
 20
0.0
 30
0.0
  9
$PUCSYDIR
 10
0.0
 20
1.0
 30
0.0
  9
$PUCSORTHOREF
  2

  9
$PUCSORTHOVIEW
 70
     0
  9
$PUCSORGTOP
 10
0.0
 20
0.0
 30
0.0
  9
$PUCSORGBOTTOM
 10
0.0
 20
0.0
 30
0.0
  9
$PUCSORGLEFT
 10
0.0
 20
0.0
 30
0.0
  9
$PUCSORGRIGHT
 10
0.0
 20
0.0
 30
0.0
  9
$PUCSORGFRONT
 10
0.0
 20
0.0
 30
0.0
  9
$PUCSORGBACK
 10
0.0
 20
0.0
 30
0.0
  9
$USERI1
 70
     0
  9
$USERI2
 70
     0
  9
$USERI3
 70
     0
  9
$USERI4
 70
     0
  9
$USERI5
 70
     0
  9
$USERR1
 40
0.0
  9
$USERR2
 40
0.0
  9
$USERR3
 40
0.0
  9
$USERR4
 40
0.0
  9
$USERR5
 40
0.0
  9
$WORLDVIEW
 70
     1
  9
$SHADEDGE
 70
     3
  9
$SHADEDIF
 70
    70
  9
$TILEMODE
 70
     1
  9
$MAXACTVP
 70
    48
  9
$PINSBASE
 10
0.0
 20
0.0
 30
0.0
  9
$PLIMCHECK
 70
     0
  9
$PEXTMIN
 10
1.000000000000000E+20
 20
1.000000000000000E+20
 30
1.000000000000000E+20
  9
$PEXTMAX
 10
-1.000000000000000E+20
 20
-1.000000000000000E+20
 30
-1.000000000000000E+20
  9
$PLIMMIN
 10
0.0
 20
0.0
  9
$PLIMMAX
 10
12.0
 20
9.0
  9
$UNITMODE
 70
     0
  9
$VISRETAIN
 70
     1
  9
$PLINEGEN
 70
     0
  9
$PSLTSCALE
 70
     1
  9
$TREEDEPTH
 70
  3020
  9
$CMLSTYLE
  2
STANDARD
  9
$CMLJUST
 70
     0
  9
$CMLSCALE
 40
1.0
  9
$PROXYGRAPHICS
 70
     1
  9
$MEASUREMENT
 70
     0
  9
$CELWEIGHT
370
    -1
  9
$ENDCAPS
280
     0
  9
$JOINSTYLE
280
     0
  9
$LWDISPLAY
290
     0
  9
$INSUNITS
 70
     0
  9
$HYPERLINKBASE
  1

  9
$STYLESHEET
  1

  9
$XEDIT
290
     1
  9
$CEPSNTYPE
380
     0
  9
$PSTYLEMODE
290
     1
  9
$FINGERPRINTGUID
  2
{1754B7AB-9B3C-11D4-AD9E-00104B1004F2}
  9
$VERSIONGUID
  2
{3BC1EFF1-0814-40A9-82A6-3F7C64993E14}
  9
$EXTNAMES
290
     1
  9
$PSVPSCALE
 40
0.0
  9
$OLESTARTUP
290
     0
  0
ENDSEC
  0
SECTION
  2
CLASSES
  0
CLASS
  1
ACDBDICTIONARYWDFLT
  2
AcDbDictionaryWithDefault
  3
ObjectDBX Classes
 90
        0
280
     0
281
     0
  0
CLASS
  1
ACDBPLACEHOLDER
  2
AcDbPlaceHolder
  3
ObjectDBX Classes
 90
        0
280
     0
281
     0
  0
CLASS
  1
LAYOUT
  2
AcDbLayout
  3
ObjectDBX Classes
 90
        0
280
     0
281
     0
  0
CLASS
  1
DICTIONARYVAR
  2
AcDbDictionaryVar
  3
ObjectDBX Classes
 90
        0
280
     0
281
     0
  0
CLASS
  1
SORTENTSTABLE
  2
AcDbSortentsTable
  3
ObjectDBX Classes
 90
    32768
280
     0
281
     0
  0
ENDSEC
  0
SECTION
  2
TABLES
  0
TABLE
  2
VPORT
  5
24
330
0
100
AcDbSymbolTable
 70
     2
  0
VPORT
  5
37F
330
24
100
AcDbSymbolTableRecord
100
AcDbViewportTableRecord
  2
*Active
 70
     0
 10
0.0
 20
0.0
 11
1.0
 21
1.0
 12
6.108663638306381
 22
5.421979841902505
 13
0.0
 23
0.0
 14
1.0
 24
1.0
 15
0.0
 25
0.0
 16
0.0
 26
0.0
 36
1.0
 17
0.0
 27
0.0
 37
0.0
 40
113.610635538262
 41
1.518181818181818
 42
50.0
 43
0.0
 44
0.0
 50
0.0
 51
0.0
 71
     0
 72
 10000
 73
     1
 74
     0
 75
     0
 76
     1
 77
     0
 78
     0
281
     0
 65
     1
110
0.0
120
0.0
130
0.0
111
1.0
121
0.0
131
0.0
112
0.0
122
1.0
132
0.0
 79
     0
146
0.0
  0
ENDTAB
  0
TABLE
  2
LTYPE
  5
1F
330
0
100
AcDbSymbolTable
 70
     4
  0
LTYPE
  5
20
330
1F
100
AcDbSymbolTableRecord
100
AcDbLinetypeTableRecord
  2
BYBLOCK
 70
     0
  3

 72
    65
 73
     0
 40
0.0
  0
LTYPE
  5
21
330
1F
100
AcDbSymbolTableRecord
100
AcDbLinetypeTableRecord
  2
BYLAYER
 70
     0
  3

 72
    65
 73
     0
 40
0.0
  0
LTYPE
  5
A
330
1F
100
AcDbSymbolTableRecord
100
AcDbLinetypeTableRecord
  2
CONTINUOUS
 70
     0
  3
Solid line
 72
    65
 73
     0
 40
0.0
  0
LTYPE
  5
278
330
1F
100
AcDbSymbolTableRecord
100
AcDbLinetypeTableRecord
  2
Phantom
 70
     0
  3
Phantom
 72
    65
 73
     6
 40
45.0
 49
40.0
 74
     0
 49
-1.0
 74
     0
 49
1.0
 74
     0
 49
-1.0
 74
     0
 49
1.0
 74
     0
 49
-1.0
 74
     0
  0
LTYPE
  5
E6
330
1F
100
AcDbSymbolTableRecord
100
AcDbLinetypeTableRecord
  2
S10
 70
     0
  3
- - - - - - - - - 1,-1,1,-1
 72
    65
 73
     4
 40
4.0
 49
1.0
 74
     0
 49
-1.0
 74
     0
 49
1.0
 74
     0
 49
-1.0
 74
     0
  0
LTYPE
  5
3C
330
1F
100
AcDbSymbolTableRecord
100
AcDbLinetypeTableRecord
  2
HIDDEN2
 70
     0
  3
Hidden (.5x) _ _ _ _ _ _ _ _ _ _ _ _ _ _ _ _ _
 72
    65
 73
     2
 40
1.399999999999999
 49
0.7
 74
     0
 49
-0.7
 74
     0
  0
ENDTAB
  0
TABLE
  2
LAYER
  5
18
102
{ACAD_XDICTIONARY
360
19
102
}
330
0
100
AcDbSymbolTable
 70
     7
  0
LAYER
  5
6
330
18
100
AcDbSymbolTableRecord
100
AcDbLayerTableRecord
  2
0
 70
     0
 62
     7
  6
CONTINUOUS
370
    -3
390
7
  0
LAYER
  5
4F
330
18
100
AcDbSymbolTableRecord
100
AcDbLayerTableRecord
  2
DEFPOINTS
 70
     0
 62
     7
  6
CONTINUOUS
290
     0
370
    -3
390
7
  0
LAYER
  5
2E3
330
18
100
AcDbSymbolTableRecord
100
AcDbLayerTableRecord
  2
WAKU
 70
     0
 62
     4
  6
CONTINUOUS
370
    -3
390
7
  0
LAYER
  5
37
330
18
100
AcDbSymbolTableRecord
100
AcDbLayerTableRecord
  2
MOJI1
 70
     0
 62
     2
  6
CONTINUOUS
370
    -3
390
7
  0
LAYER
  5
2D
330
18
100
AcDbSymbolTableRecord
100
AcDbLayerTableRecord
  2
GAIKEI
 70
     0
 62
     7
  6
CONTINUOUS
370
    -3
390
7
  0
LAYER
  5
39
330
18
100
AcDbSymbolTableRecord
100
AcDbLayerTableRecord
  2
TOUROKU
 70
     0
 62
     1
  6
CONTINUOUS
370
    -3
390
7
  0
LAYER
  5
46
330
18
100
AcDbSymbolTableRecord
100
AcDbLayerTableRecord
  2
SUNPO
 70
     0
 62
     3
  6
CONTINUOUS
370
    -3
390
7
  0
ENDTAB
  0
TABLE
  2
STYLE
  5
1C
330
0
100
AcDbSymbolTable
 70
     1
  0
STYLE
  5
1D
330
1C
100
AcDbSymbolTableRecord
100
AcDbTextStyleTableRecord
  2
STANDARD
 70
     0
 40
0.0
 41
1.0
 50
0.0
 71
     0
 42
3.0
  3
MONOTXT.shx
  4
BIGFONT.shx
  0
ENDTAB
  0
TABLE
  2
VIEW
  5
22
330
0
100
AcDbSymbolTable
 70
     0
  0
ENDTAB
  0
TABLE
  2
UCS
  5
23
330
0
100
AcDbSymbolTable
 70
     0
  0
ENDTAB
  0
TABLE
  2
APPID
  5
26
330
0
100
AcDbSymbolTable
 70
     1
  0
APPID
  5
27
330
26
100
AcDbSymbolTableRecord
100
AcDbRegAppTableRecord
  2
ACAD
 70
     0
  0
ENDTAB
  0
TABLE
  2
DIMSTYLE
  5
28
330
0
100
AcDbSymbolTable
 70
     1
100
AcDbDimStyleTable
 71
     0
  0
DIMSTYLE
105
35
102
{ACAD_REACTORS
330
209
330
45
330
21B
102
}
330
28
100
AcDbSymbolTableRecord
100
AcDbDimStyleTableRecord
  2
STANDARD
 70
     0
 40
0.0
 41
2.0
 42
2.0
 43
8.0
 44
2.0
 73
     0
 74
     0
 77
     3
140
3.0
141
0.0
173
     1
279
     2
288
     1
340
1D
341
2E
343
2E
344
2E
  0
ENDTAB
  0
TABLE
  2
BLOCK_RECORD
  5
1
330
0
100
AcDbSymbolTable
 70
     7
  0
BLOCK_RECORD
  5
2
102
{ACAD_XDICTIONARY
360
3
102
}
330
1
100
AcDbSymbolTableRecord
100
AcDbBlockTableRecord
  2
*MODEL_SPACE
340
C
  0
BLOCK_RECORD
  5
10
102
{ACAD_XDICTIONARY
360
11
102
}
330
1
100
AcDbSymbolTableRecord
100
AcDbBlockTableRecord
  2
*PAPER_SPACE
340
15
  0
BLOCK_RECORD
  5
2E
330
1
100
AcDbSymbolTableRecord
100
AcDbBlockTableRecord
  2
_OPEN30
340
0
102
{BLKREFS
331
20E
331
20F
331
4B
331
4C
331
220
331
221
331
366
331
367
331
36F
331
370
331
378
331
379
102
}
  0
BLOCK_RECORD
  5
337
330
1
100
AcDbSymbolTableRecord
100
AcDbBlockTableRecord
  2
*D4
340
0
  0
BLOCK_RECORD
  5
345
330
1
100
AcDbSymbolTableRecord
100
AcDbBlockTableRecord
  2
*D5
340
0
  0
BLOCK_RECORD
  5
351
330
1
100
AcDbSymbolTableRecord
100
AcDbBlockTableRecord
  2
*D6
340
0
  0
ENDTAB
  0
ENDSEC
  0
SECTION
  2
BLOCKS
  0
BLOCK
  5
5
330
2
100
AcDbEntity
  8
0
100
AcDbBlockBegin
  2
*MODEL_SPACE
 70
     0
 10
0.0
 20
0.0
 30
0.0
  3
*MODEL_SPACE
  1

  0
ENDBLK
  5
B
330
2
100
AcDbEntity
  8
0
100
AcDbBlockEnd
  0
BLOCK
  5
13
330
10
100
AcDbEntity
 67
     1
  8
0
100
AcDbBlockBegin
  2
*PAPER_SPACE
 70
     0
 10
0.0
 20
0.0
 30
0.0
  3
*PAPER_SPACE
  1

  0
ENDBLK
  5
14
330
10
100
AcDbEntity
 67
     1
  8
0
100
AcDbBlockEnd
  0
BLOCK
  5
32
330
2E
100
AcDbEntity
  8
0
100
AcDbBlockBegin
  2
_OPEN30
 70
     0
 10
0.0
 20
0.0
 30
0.0
  3
_OPEN30
  1

  0
LINE
  5
2F
330
2E
100
AcDbEntity
  8
0
  6
ByBlock
 62
     0
100
AcDbLine
 10
-1.0
 20
0.26794919
 30
0.0
 11
0.0
 21
0.0
 31
0.0
  0
LINE
  5
30
330
2E
100
AcDbEntity
  8
0
  6
ByBlock
 62
     0
100
AcDbLine
 10
0.0
 20
0.0
 30
0.0
 11
-1.0
 21
-0.26794919
 31
0.0
  0
LINE
  5
31
330
2E
100
AcDbEntity
  8
0
  6
ByBlock
 62
     0
100
AcDbLine
 10
0.0
 20
0.0
 30
0.0
 11
-1.0
 21
0.0
 31
0.0
  0
ENDBLK
  5
33
330
2E
100
AcDbEntity
  8
0
100
AcDbBlockEnd
  0
BLOCK
  5
341
330
337
100
AcDbEntity
  8
0
100
AcDbBlockBegin
  2
*D4
 70
     1
 10
0.0
 20
0.0
 30
0.0
  3
*D4
  1

  0
LINE
  5
375
330
337
100
AcDbEntity
  8
SUNPO
 62
     0
370
    -2
100
AcDbLine
 10
-16.46137687868611
 20
30.84549169843319
 30
0.0
 11
-8.461376878686106
 21
30.84549169843319
 31
0.0
  0
LINE
  5
376
330
337
100
AcDbEntity
  8
SUNPO
 62
     0
370
    -2
100
AcDbLine
 10
-16.46137687868611
 20
14.24549094691042
 30
0.0
 11
-8.46137687868611
 21
14.24549094691042
 31
0.0
  0
LINE
  5
377
330
337
100
AcDbEntity
  8
SUNPO
 62
     0
370
    -2
100
AcDbLine
 10
-10.4613768786861
 20
28.8454916984332
 30
0.0
 11
-10.46137687868611
 21
16.24549094691042
 31
0.0
  0
INSERT
  5
378
330
337
100
AcDbEntity
  8
SUNPO
 62
     0
370
    -2
100
AcDbBlockReference
  2
_OPEN30
 10
-10.4613768786861
 20
30.84549169843319
 30
0.0
 41
2.0
 42
2.0
 43
2.0
 50
90.0
  0
INSERT
  5
379
330
337
100
AcDbEntity
  8
SUNPO
 62
     0
370
    -2
100
AcDbBlockReference
  2
_OPEN30
 10
-10.46137687868611
 20
14.24549094691042
 30
0.0
 41
2.0
 42
2.0
 43
2.0
 50
270.0
  0
MTEXT
  5
37A
330
337
100
AcDbEntity
  8
SUNPO
 62
     0
100
AcDbMText
 10
-12.21137687868611
 20
22.54549132267181
 30
0.0
 40
2.5
 41
0.0
 71
     5
 72
     1
  1
\A1;83
 11
0.0000000000000001
 21
1.0
 31
0.0
 73
     1
 44
1.0
1001
ACAD
1000
MTEXTBEGIN
1070
    73
1070
     1
1070
    44
1040
1.0
1070
    74
1070
     0
1000
MTEXTEND
  0
POINT
  5
37B
330
337
100
AcDbEntity
  8
DEFPOINTS
 62
     0
100
AcDbPoint
 10
-18.46137687868611
 20
30.84549169843319
 30
0.0
  0
POINT
  5
37C
330
337
100
AcDbEntity
  8
DEFPOINTS
 62
     0
100
AcDbPoint
 10
-18.46137687868611
 20
14.24549094691042
 30
0.0
  0
POINT
  5
37D
330
337
100
AcDbEntity
  8
DEFPOINTS
 62
     0
100
AcDbPoint
 10
-10.46137687868611
 20
14.24549094691042
 30
0.0
  0
ENDBLK
  5
342
330
337
100
AcDbEntity
  8
0
100
AcDbBlockEnd
  0
BLOCK
  5
34F
330
345
100
AcDbEntity
  8
0
100
AcDbBlockBegin
  2
*D5
 70
     1
 10
0.0
 20
0.0
 30
0.0
  3
*D5
  1

  0
LINE
  5
36C
330
345
100
AcDbEntity
  8
SUNPO
 62
     0
370
    -2
100
AcDbLine
 10
17.58807804354816
 20
32.83879123359759
 30
0.0
 11
17.58807804354816
 21
40.83879123359759
 31
0.0
  0
LINE
  5
36D
330
345
100
AcDbEntity
  8
SUNPO
 62
     0
370
    -2
100
AcDbLine
 10
57.08787418920119
 20
32.83879123359759
 30
0.0
 11
57.08787418920119
 21
40.83879123359759
 31
0.0
  0
LINE
  5
36E
330
345
100
AcDbEntity
  8
SUNPO
 62
     0
370
    -2
100
AcDbLine
 10
19.58807804354816
 20
38.83879123359759
 30
0.0
 11
55.08787418920118
 21
38.83879123359759
 31
0.0
  0
INSERT
  5
36F
330
345
100
AcDbEntity
  8
SUNPO
 62
     0
370
    -2
100
AcDbBlockReference
  2
_OPEN30
 10
17.58807804354816
 20
38.83879123359759
 30
0.0
 41
2.0
 42
2.0
 43
2.0
 50
180.0
  0
INSERT
  5
370
330
345
100
AcDbEntity
  8
SUNPO
 62
     0
370
    -2
100
AcDbBlockReference
  2
_OPEN30
 10
57.08787418920119
 20
38.83879123359759
 30
0.0
 41
2.0
 42
2.0
 43
2.0
  0
MTEXT
  5
371
330
345
100
AcDbEntity
  8
SUNPO
 62
     0
100
AcDbMText
 10
37.33797611637468
 20
40.58879123359758
 30
0.0
 40
2.5
 41
0.0
 71
     5
 72
     1
  1
\A1;197.5
 73
     1
 44
1.0
1001
ACAD
1000
MTEXTBEGIN
1070
    73
1070
     1
1070
    44
1040
1.0
1070
    74
1070
     0
1000
MTEXTEND
  0
POINT
  5
372
330
345
100
AcDbEntity
  8
DEFPOINTS
 62
     0
100
AcDbPoint
 10
17.58807804354816
 20
30.83879123359759
 30
0.0
  0
POINT
  5
373
330
345
100
AcDbEntity
  8
DEFPOINTS
 62
     0
100
AcDbPoint
 10
57.08787418920119
 20
30.83879123359759
 30
0.0
  0
POINT
  5
374
330
345
100
AcDbEntity
  8
DEFPOINTS
 62
     0
100
AcDbPoint
 10
57.08787418920119
 20
38.83879123359759
 30
0.0
  0
ENDBLK
  5
350
330
345
100
AcDbEntity
  8
0
100
AcDbBlockEnd
  0
BLOCK
  5
35B
330
351
100
AcDbEntity
  8
0
100
AcDbBlockBegin
  2
*D6
 70
     1
 10
0.0
 20
0.0
 30
0.0
  3
*D6
  1

  0
LINE
  5
363
330
351
100
AcDbEntity
  8
SUNPO
 62
     0
370
    -2
100
AcDbLine
 10
-35.26137687868354
 20
32.83879123359759
 30
0.0
 11
-35.26137687868354
 21
40.83879123359759
 31
0.0
  0
LINE
  5
364
330
351
100
AcDbEntity
  8
SUNPO
 62
     0
370
    -2
100
AcDbLine
 10
-18.46137687868611
 20
32.83879123359759
 30
0.0
 11
-18.46137687868611
 21
40.83879123359759
 31
0.0
  0
LINE
  5
365
330
351
100
AcDbEntity
  8
SUNPO
 62
     0
370
    -2
100
AcDbLine
 10
-33.26137687868353
 20
38.83879123359759
 30
0.0
 11
-20.46137687868611
 21
38.83879123359759
 31
0.0
  0
INSERT
  5
366
330
351
100
AcDbEntity
  8
SUNPO
 62
     0
370
    -2
100
AcDbBlockReference
  2
_OPEN30
 10
-35.26137687868354
 20
38.83879123359759
 30
0.0
 41
2.0
 42
2.0
 43
2.0
 50
180.0
  0
INSERT
  5
367
330
351
100
AcDbEntity
  8
SUNPO
 62
     0
370
    -2
100
AcDbBlockReference
  2
_OPEN30
 10
-18.46137687868611
 20
38.83879123359759
 30
0.0
 41
2.0
 42
2.0
 43
2.0
  0
MTEXT
  5
368
330
351
100
AcDbEntity
  8
SUNPO
 62
     0
100
AcDbMText
 10
-26.86137687868483
 20
40.58879123359758
 30
0.0
 40
2.5
 41
0.0
 71
     5
 72
     1
  1
\A1;84
 73
     1
 44
1.0
1001
ACAD
1000
MTEXTBEGIN
1070
    73
1070
     1
1070
    44
1040
1.0
1070
    74
1070
     0
1000
MTEXTEND
  0
POINT
  5
369
330
351
100
AcDbEntity
  8
DEFPOINTS
 62
     0
100
AcDbPoint
 10
-35.26137687868354
 20
30.83879123359759
 30
0.0
  0
POINT
  5
36A
330
351
100
AcDbEntity
  8
DEFPOINTS
 62
     0
100
AcDbPoint
 10
-18.46137687868611
 20
30.83879123359759
 30
0.0
  0
POINT
  5
36B
330
351
100
AcDbEntity
  8
DEFPOINTS
 62
     0
100
AcDbPoint
 10
-18.46137687868611
 20
38.83879123359759
 30
0.0
  0
ENDBLK
  5
35C
330
351
100
AcDbEntity
  8
0
100
AcDbBlockEnd
  0
ENDSEC
  0
SECTION
  2
ENTITIES
  0
TEXT
  5
36
330
2
100
AcDbEntity
  8
MOJI1
100
AcDbText
 10
-29.39133636169362
 20
58.05531317523582
 30
0.0
 40
4.0
  1
ネットワークカメラ
100
AcDbText
  0
TEXT
  5
38
330
2
100
AcDbEntity
  8
TOUROKU
100
AcDbText
 10
50.20861367123369
 20
52.05531317523583
 30
0.0
 40
2.0
  1
ＲＰＮＰ１００４
 72
     2
 11
68.60861367123368
 21
52.05531317523583
 31
0.0
100
AcDbText
  0
LINE
  5
3A
330
2
100
AcDbEntity
  8
GAIKEI
  6
Continuous
100
AcDbLine
 10
17.68807804354819
 20
28.28100406700861
 30
0.0
 11
17.68807804354819
 21
21.94549170984982
 31
0.0
  0
LINE
  5
3B
330
2
100
AcDbEntity
  8
GAIKEI
  6
HIDDEN2
 62
     1
100
AcDbLine
 10
17.58807804354816
 20
19.30549170984983
 30
0.0
 11
17.58807804354816
 21
24.59063530908981
 31
0.0
  0
LINE
  5
3D
330
2
100
AcDbEntity
  8
GAIKEI
  6
Continuous
 62
     1
100
AcDbLine
 10
27.50807804354798
 20
28.84549170984974
 30
0.0
 11
27.50807804354798
 21
21.94549170984982
 31
0.0
  0
LINE
  5
3E
330
2
100
AcDbEntity
  8
GAIKEI
  6
HIDDEN2
 62
     1
100
AcDbLine
 10
17.58807804354816
 20
18.34549170984979
 30
0.0
 11
17.58807804354816
 21
25.54549170984979
 31
0.0
  0
LINE
  5
3F
330
2
100
AcDbEntity
  8
GAIKEI
  6
Continuous
 62
     1
100
AcDbLine
 10
27.60807499179018
 20
28.8454917098498
 30
0.0
 11
27.60807499178998
 21
23.0454917100202
 31
0.0
  0
ARC
  5
40
330
2
100
AcDbEntity
  8
GAIKEI
  6
Continuous
100
AcDbCircle
 10
17.04005577665137
 20
26.44549175844304
 30
0.0
 40
40.0
100
AcDbArc
 50
355.1239751345068
 51
357.7075572296916
  0
ARC
  5
41
330
2
100
AcDbEntity
  8
GAIKEI
  6
Continuous
 62
     1
100
AcDbCircle
 10
-32.45924461087435
 20
22.80115801972784
 30
0.0
 40
13.4999999999986
100
AcDbArc
 50
1.037044248323896
 51
20.04199584276564
  0
ARC
  5
42
330
2
100
AcDbEntity
  8
GAIKEI
  6
Continuous
 62
     1
100
AcDbCircle
 10
-21.26350914649532
 20
22.80115801972784
 30
0.0
 40
13.4999999999986
100
AcDbArc
 50
159.9580041572343
 51
178.9816493668135
  0
ARC
  5
43
330
2
100
AcDbEntity
  8
GAIKEI
  6
Continuous
100
AcDbCircle
 10
-32.45924461087435
 20
22.80115801972784
 30
0.0
 40
13.9999999999988
100
AcDbArc
 50
1.000000000001775
 51
19.29725729950513
  0
ARC
  5
44
330
2
100
AcDbEntity
  8
GAIKEI
  6
Continuous
100
AcDbCircle
 10
-21.26350914649532
 20
22.80115801972784
 30
0.0
 40
13.9999999999986
100
AcDbArc
 50
160.7027427004914
 51
182.0699119001426
  0
DIMENSION
  5
45
330
2
100
AcDbEntity
  8
SUNPO
100
AcDbDimension
  2
*D4
 10
-10.46137687868611
 20
14.24549094691042
 30
0.0
 11
-12.21137687868611
 21
22.54549132267181
 31
0.0
 70
    33
  1
83
 71
     5
 42
16.60000075152277
  3
STANDARD
100
AcDbAlignedDimension
 13
-18.46137687868611
 23
30.84549169843319
 33
0.0
 14
-18.46137687868611
 24
14.24549094691042
 34
0.0
1001
ACAD
1000
DSTYLE
1002
{
1070
   287
1070
     3
1070
   287
1070
     3
1070
    40
1040
1.0
1070
   140
1040
2.5
1070
   147
1040
0.5
1070
   172
1070
     1
1070
   279
1070
     0
1070
   288
1070
     0
1070
   341
1005
0
1002
}
  0
ARC
  5
54
330
2
100
AcDbEntity
  8
GAIKEI
  6
HIDDEN2
 62
     1
100
AcDbCircle
 10
-26.95693044171827
 20
21.94499679065518
 30
0.0
 40
4.139999999999999
100
AcDbArc
 50
14.99999999999447
 51
45.00000000000501
  0
ARC
  5
55
330
2
100
AcDbEntity
  8
GAIKEI
  6
HIDDEN2
 62
     1
100
AcDbCircle
 10
-26.95693044171827
 20
21.94499679065518
 30
0.0
 40
4.26
100
AcDbArc
 50
14.99999999999447
 51
45.00000000000501
  0
ARC
  5
56
330
2
100
AcDbEntity
  8
GAIKEI
  6
HIDDEN2
 62
     1
100
AcDbCircle
 10
-26.95693044171827
 20
21.94499679065518
 30
0.0
 40
4.229999999999999
100
AcDbArc
 50
14.99999999999447
 51
45.00000000000501
  0
ARC
  5
57
330
2
100
AcDbEntity
  8
GAIKEI
  6
HIDDEN2
 62
     1
100
AcDbCircle
 10
-26.95693044171827
 20
21.94499679065518
 30
0.0
 40
4.17
100
AcDbArc
 50
14.99999999999447
 51
45.00000000000501
  0
ARC
  5
58
330
2
100
AcDbEntity
  8
GAIKEI
  6
HIDDEN2
 62
     1
100
AcDbCircle
 10
-26.95854173431826
 20
21.94809205845524
 30
0.0
 40
4.3700000912
100
AcDbArc
 50
123.8945209970042
 51
236.0624177210031
  0
ARC
  5
59
330
2
100
AcDbEntity
  8
GAIKEI
  6
HIDDEN2
 62
     1
100
AcDbCircle
 10
-26.94647176091826
 20
21.9445401500551
 30
0.0
 40
4.17
100
AcDbArc
 50
134.999999999995
 51
165.0000000000055
  0
ARC
  5
5A
330
2
100
AcDbEntity
  8
GAIKEI
  6
HIDDEN2
 62
     1
100
AcDbCircle
 10
-26.94647176091826
 20
21.9445401500551
 30
0.0
 40
4.229999999999999
100
AcDbArc
 50
134.999999999995
 51
165.0000000000055
  0
ARC
  5
5B
330
2
100
AcDbEntity
  8
GAIKEI
  6
HIDDEN2
 62
     1
100
AcDbCircle
 10
-26.94647176091826
 20
21.9445401500551
 30
0.0
 40
4.26
100
AcDbArc
 50
134.999999999995
 51
165.0000000000055
  0
ARC
  5
5C
330
2
100
AcDbEntity
  8
GAIKEI
  6
HIDDEN2
 62
     1
100
AcDbCircle
 10
-26.94647176091826
 20
21.9445401500551
 30
0.0
 40
4.139999999999999
100
AcDbArc
 50
134.999999999995
 51
165.0000000000055
  0
ARC
  5
5D
330
2
100
AcDbEntity
  8
GAIKEI
  6
HIDDEN2
 62
     1
100
AcDbCircle
 10
-32.86314073331826
 20
23.47966554485527
 30
0.0
 40
0.7000000000000001
100
AcDbArc
 50
119.3984927529929
 51
165.4587298480123
  0
ARC
  5
5E
330
2
100
AcDbEntity
  8
GAIKEI
  6
HIDDEN2
 62
     1
100
AcDbCircle
 10
-26.95854173431826
 20
21.94809205845524
 30
0.0
 40
6.0
100
AcDbArc
 50
211.4050681739977
 51
148.5949318260023
  0
LINE
  5
5F
330
2
100
AcDbEntity
  8
GAIKEI
  6
HIDDEN2
 62
     1
100
AcDbLine
 10
-32.94986980071826
 20
24.2342616012553
 30
0.0
 11
-33.20675601271827
 21
24.08952193585526
 31
0.0
  0
CIRCLE
  5
60
330
2
100
AcDbEntity
  8
GAIKEI
  6
HIDDEN2
 62
     1
100
AcDbCircle
 10
-26.95854173431826
 20
21.94809205845524
 30
0.0
 40
4.8700000912
  0
CIRCLE
  5
61
330
2
100
AcDbEntity
  8
GAIKEI
  6
HIDDEN2
 62
     1
100
AcDbCircle
 10
-26.95854173431826
 20
21.94809205845524
 30
0.0
 40
5.66
  0
CIRCLE
  5
62
330
2
100
AcDbEntity
  8
GAIKEI
  6
HIDDEN2
 62
     1
100
AcDbCircle
 10
-26.95854173431826
 20
21.94809205845524
 30
0.0
 40
4.01
  0
CIRCLE
  5
63
330
2
100
AcDbEntity
  8
GAIKEI
  6
HIDDEN2
 62
     1
100
AcDbCircle
 10
-26.95854173431826
 20
21.94809205845524
 30
0.0
 40
5.679999999999999
  0
ARC
  5
64
330
2
100
AcDbEntity
  8
GAIKEI
  6
HIDDEN2
 62
     1
100
AcDbCircle
 10
-26.95854173431826
 20
21.94809205845524
 30
0.0
 40
4.3700000912
100
AcDbArc
 50
3.894520997010237
 51
116.0245350170062
  0
LINE
  5
65
330
2
100
AcDbEntity
  8
GAIKEI
  6
HIDDEN2
 62
     1
100
AcDbLine
 10
12.06007804354817
 20
27.91054512666978
 30
0.0
 11
12.06007804354817
 21
15.91054512686986
 31
0.0
  0
LINE
  5
66
330
2
100
AcDbEntity
  8
GAIKEI
  6
HIDDEN2
 62
     1
100
AcDbLine
 10
11.77170339154818
 20
15.91054512686986
 30
0.0
 11
11.77170339154818
 21
27.91054512686987
 31
0.0
  0
LINE
  5
67
330
2
100
AcDbEntity
  8
GAIKEI
  6
HIDDEN2
 62
     1
100
AcDbLine
 10
17.58807804354816
 20
24.81054512686973
 30
0.0
 11
17.58807804354816
 21
23.80033347466991
 31
0.0
  0
LINE
  5
68
330
2
100
AcDbEntity
  8
GAIKEI
  6
HIDDEN2
 62
     1
100
AcDbLine
 10
17.4880780435482
 20
27.81054512666987
 30
0.0
 11
17.4880780435482
 21
16.01054512686977
 31
0.0
  0
LINE
  5
69
330
2
100
AcDbEntity
  8
GAIKEI
  6
HIDDEN2
 62
     1
100
AcDbLine
 10
11.96007804354818
 20
16.01054512686977
 30
0.0
 11
11.96007804354818
 21
27.81054512666987
 31
0.0
  0
LINE
  5
6A
330
2
100
AcDbEntity
  8
GAIKEI
  6
HIDDEN2
 62
     1
100
AcDbLine
 10
17.38807804354818
 20
15.91054512686986
 30
0.0
 11
17.38807804354818
 21
27.91054512666978
 31
0.0
  0
LINE
  5
6B
330
2
100
AcDbEntity
  8
GAIKEI
  6
HIDDEN2
 62
     1
100
AcDbLine
 10
6.051703391548187
 20
16.05054512686973
 30
0.0
 11
6.051703391548187
 21
27.77054512686977
 31
0.0
  0
LINE
  5
6C
330
2
100
AcDbEntity
  8
GAIKEI
  6
HIDDEN2
 62
     1
100
AcDbLine
 10
6.191703391548173
 20
15.91054512686986
 30
0.0
 11
6.191703391548173
 21
27.91054512686987
 31
0.0
  0
LINE
  5
6D
330
2
100
AcDbEntity
  8
GAIKEI
  6
HIDDEN2
 62
     1
100
AcDbLine
 10
11.87170339154818
 20
16.01054512686977
 30
0.0
 11
11.87170339154818
 21
27.81054512686973
 31
0.0
  0
LINE
  5
6E
330
2
100
AcDbEntity
  8
GAIKEI
  6
HIDDEN2
 62
     1
100
AcDbLine
 10
5.891688852548185
 20
17.09544388166995
 30
0.0
 11
5.891688852548185
 21
27.47054512686981
 31
0.0
  0
LINE
  5
6F
330
2
100
AcDbEntity
  8
GAIKEI
  6
HIDDEN2
 62
     1
100
AcDbLine
 10
5.991688852548179
 20
17.00884134126994
 30
0.0
 11
5.991688852548179
 21
27.57054512686995
 31
0.0
  0
LINE
  5
70
330
2
100
AcDbEntity
  8
GAIKEI
  6
HIDDEN2
 62
     1
100
AcDbLine
 10
5.684211452348193
 20
19.71415376986982
 30
0.0
 11
5.684211452348193
 21
24.1069364838699
 31
0.0
  0
LINE
  5
71
330
2
100
AcDbEntity
  8
GAIKEI
  6
HIDDEN2
 62
     1
100
AcDbLine
 10
5.687288087948189
 20
19.69408449486985
 30
0.0
 11
5.687288087948189
 21
24.12700575886987
 31
0.0
  0
LINE
  5
72
330
2
100
AcDbEntity
  8
GAIKEI
  6
HIDDEN2
 62
     1
100
AcDbLine
 10
5.690410317548185
 20
19.67402226226971
 30
0.0
 11
5.690410317548185
 21
24.14706799146979
 31
0.0
  0
LINE
  5
73
330
2
100
AcDbEntity
  8
GAIKEI
  6
HIDDEN2
 62
     1
100
AcDbLine
 10
5.69357866994818
 20
19.65396726126977
 30
0.0
 11
5.69357866994818
 21
24.16712299246973
 31
0.0
  0
LINE
  5
74
330
2
100
AcDbEntity
  8
GAIKEI
  6
HIDDEN2
 62
     1
100
AcDbLine
 10
5.696793709948167
 20
19.63391969186972
 30
0.0
 11
5.696793709948167
 21
24.18717056186978
 31
0.0
  0
LINE
  5
75
330
2
100
AcDbEntity
  8
GAIKEI
  6
HIDDEN2
 62
     1
100
AcDbLine
 10
5.700056002148158
 20
19.61387975706969
 30
0.0
 11
5.700056002148158
 21
24.2072104966698
 31
0.0
  0
LINE
  5
76
330
2
100
AcDbEntity
  8
GAIKEI
  6
HIDDEN2
 62
     1
100
AcDbLine
 10
5.70336601194819
 20
19.59384764806981
 30
0.0
 11
5.70336601194819
 21
24.22724260566992
 31
0.0
  0
LINE
  5
77
330
2
100
AcDbEntity
  8
GAIKEI
  6
HIDDEN2
 62
     1
100
AcDbLine
 10
5.706724185948161
 20
19.5738235564699
 30
0.0
 11
5.706724185948161
 21
24.24726669726982
 31
0.0
  0
LINE
  5
78
330
2
100
AcDbEntity
  8
GAIKEI
  6
HIDDEN2
 62
     1
100
AcDbLine
 10
5.710131113548186
 20
19.55380770226992
 30
0.0
 11
5.710131113548186
 21
24.26728255146981
 31
0.0
  0
LINE
  5
79
330
2
100
AcDbEntity
  8
GAIKEI
  6
HIDDEN2
 62
     1
100
AcDbLine
 10
5.713587422948194
 20
19.53380031566979
 30
0.0
 11
5.713587422948194
 21
24.2872899380697
 31
0.0
  0
LINE
  5
7A
330
2
100
AcDbEntity
  8
GAIKEI
  6
HIDDEN2
 62
     1
100
AcDbLine
 10
5.717093613148193
 20
19.51380160966977
 30
0.0
 11
5.717093613148193
 21
24.30728864406973
 31
0.0
  0
LINE
  5
7B
330
2
100
AcDbEntity
  8
GAIKEI
  6
HIDDEN2
 62
     1
100
AcDbLine
 10
5.720650154348192
 20
19.49381179586993
 30
0.0
 11
5.720650154348192
 21
24.3272784578698
 31
0.0
  0
LINE
  5
7C
330
2
100
AcDbEntity
  8
GAIKEI
  6
HIDDEN2
 62
     1
100
AcDbLine
 10
5.724257667148179
 20
19.47383111806988
 30
0.0
 11
5.724257667148179
 21
24.34725913566984
 31
0.0
  0
LINE
  5
7D
330
2
100
AcDbEntity
  8
GAIKEI
  6
HIDDEN2
 62
     1
100
AcDbLine
 10
5.72791681214818
 20
19.45385983066984
 30
0.0
 11
5.72791681214818
 21
24.36723042306989
 31
0.0
  0
LINE
  5
7E
330
2
100
AcDbEntity
  8
GAIKEI
  6
HIDDEN2
 62
     1
100
AcDbLine
 10
5.731628111948197
 20
19.43389816906978
 30
0.0
 11
5.731628111948197
 21
24.38719208466995
 31
0.0
  0
LINE
  5
7F
330
2
100
AcDbEntity
  8
GAIKEI
  6
HIDDEN2
 62
     1
100
AcDbLine
 10
5.735392045148188
 20
19.41394636446984
 30
0.0
 11
5.735392045148188
 21
24.40714388926989
 31
0.0
  0
LINE
  5
80
330
2
100
AcDbEntity
  8
GAIKEI
  6
HIDDEN2
 62
     1
100
AcDbLine
 10
5.739209175348179
 20
19.39400466906971
 30
0.0
 11
5.739209175348179
 21
24.42708558466978
 31
0.0
  0
LINE
  5
81
330
2
100
AcDbEntity
  8
GAIKEI
  6
HIDDEN2
 62
     1
100
AcDbLine
 10
5.743080105348184
 20
19.37407334586982
 30
0.0
 11
5.743080105348184
 21
24.44701690786991
 31
0.0
  0
LINE
  5
82
330
2
100
AcDbEntity
  8
GAIKEI
  6
HIDDEN2
 62
     1
100
AcDbLine
 10
5.747005473148192
 20
19.35415267246975
 30
0.0
 11
5.747005473148192
 21
24.46693758126975
 31
0.0
  0
LINE
  5
83
330
2
100
AcDbEntity
  8
GAIKEI
  6
HIDDEN2
 62
     1
100
AcDbLine
 10
5.750985919148178
 20
19.33424293046977
 30
0.0
 11
5.750985919148178
 21
24.48684732326996
 31
0.0
  0
LINE
  5
84
330
2
100
AcDbEntity
  8
GAIKEI
  6
HIDDEN2
 62
     1
100
AcDbLine
 10
5.755021995348187
 20
19.31434439106982
 30
0.0
 11
5.755021995348187
 21
24.5067458626699
 31
0.0
  0
LINE
  5
85
330
2
100
AcDbEntity
  8
GAIKEI
  6
HIDDEN2
 62
     1
100
AcDbLine
 10
5.759114228348181
 20
19.29445732366997
 30
0.0
 11
5.759114228348181
 21
24.52663293006975
 31
0.0
  0
LINE
  5
86
330
2
100
AcDbEntity
  8
GAIKEI
  6
HIDDEN2
 62
     1
100
AcDbLine
 10
5.763263231148158
 20
19.2745820224697
 30
0.0
 11
5.763263231148158
 21
24.5465082312698
 31
0.0
  0
LINE
  5
87
330
2
100
AcDbEntity
  8
GAIKEI
  6
HIDDEN2
 62
     1
100
AcDbLine
 10
5.767469648948178
 20
19.25471879246987
 30
0.0
 11
5.767469648948178
 21
24.56637146126985
 31
0.0
  0
LINE
  5
88
330
2
100
AcDbEntity
  8
GAIKEI
  6
HIDDEN2
 62
     1
100
AcDbLine
 10
5.771734087148189
 20
19.23486793786986
 30
0.0
 11
5.771734087148189
 21
24.58622231586986
 31
0.0
  0
LINE
  5
89
330
2
100
AcDbEntity
  8
GAIKEI
  6
HIDDEN2
 62
     1
100
AcDbLine
 10
5.776057135748175
 20
19.21502976366986
 30
0.0
 11
5.776057135748175
 21
24.60606049006987
 31
0.0
  0
LINE
  5
8A
330
2
100
AcDbEntity
  8
GAIKEI
  6
HIDDEN2
 62
     1
100
AcDbLine
 10
5.780439401348189
 20
19.19520458626988
 30
0.0
 11
5.780439401348189
 21
24.62588566746985
 31
0.0
  0
LINE
  5
8B
330
2
100
AcDbEntity
  8
GAIKEI
  6
HIDDEN2
 62
     1
100
AcDbLine
 10
5.784881498348198
 20
19.17539272826974
 30
0.0
 11
5.784881498348198
 21
24.64569752546976
 31
0.0
  0
LINE
  5
8C
330
2
100
AcDbEntity
  8
GAIKEI
  6
HIDDEN2
 62
     1
100
AcDbLine
 10
5.789384041948181
 20
19.15559451986968
 30
0.0
 11
5.789384041948181
 21
24.66549573386982
 31
0.0
  0
LINE
  5
8D
330
2
100
AcDbEntity
  8
GAIKEI
  6
HIDDEN2
 62
     1
100
AcDbLine
 10
5.793947648348193
 20
19.13581029666983
 30
0.0
 11
5.793947648348193
 21
24.68527995706967
 31
0.0
  0
LINE
  5
8E
330
2
100
AcDbEntity
  8
GAIKEI
  6
HIDDEN2
 62
     1
100
AcDbLine
 10
5.798572937148179
 20
19.11604040266997
 30
0.0
 11
5.798572937148179
 21
24.70504985106976
 31
0.0
  0
LINE
  5
8F
330
2
100
AcDbEntity
  8
GAIKEI
  6
HIDDEN2
 62
     1
100
AcDbLine
 10
5.80326053074819
 20
19.09628518806988
 30
0.0
 11
5.80326053074819
 21
24.72480506566984
 31
0.0
  0
LINE
  5
90
330
2
100
AcDbEntity
  8
GAIKEI
  6
HIDDEN2
 62
     1
100
AcDbLine
 10
5.808011052748184
 20
19.07654501086989
 30
0.0
 11
5.808011052748184
 21
24.74454524286983
 31
0.0
  0
LINE
  5
91
330
2
100
AcDbEntity
  8
GAIKEI
  6
HIDDEN2
 62
     1
100
AcDbLine
 10
5.812825128748187
 20
19.05682023546973
 30
0.0
 11
5.812825128748187
 21
24.76427001826977
 31
0.0
  0
LINE
  5
92
330
2
100
AcDbEntity
  8
GAIKEI
  6
HIDDEN2
 62
     1
100
AcDbLine
 10
5.81770338474817
 20
19.03711123446982
 30
0.0
 11
5.81770338474817
 21
24.78397901926991
 31
0.0
  0
LINE
  5
93
330
2
100
AcDbEntity
  8
GAIKEI
  6
HIDDEN2
 62
     1
100
AcDbLine
 10
5.822646448148162
 20
19.01741838626975
 30
0.0
 11
5.822646448148162
 21
24.80367186746974
 31
0.0
  0
LINE
  5
94
330
2
100
AcDbEntity
  8
GAIKEI
  6
HIDDEN2
 62
     1
100
AcDbLine
 10
5.827654946348189
 20
18.99774207806984
 30
0.0
 11
5.827654946348189
 21
24.82334817566988
 31
0.0
  0
LINE
  5
95
330
2
100
AcDbEntity
  8
GAIKEI
  6
HIDDEN2
 62
     1
100
AcDbLine
 10
5.832729507148172
 20
18.97808270266972
 30
0.0
 11
5.832729507148172
 21
24.84300755106978
 31
0.0
  0
LINE
  5
96
330
2
100
AcDbEntity
  8
GAIKEI
  6
HIDDEN2
 62
     1
100
AcDbLine
 10
5.837870757148181
 20
18.95844066206968
 30
0.0
 11
5.837870757148181
 21
24.86264959166982
 31
0.0
  0
LINE
  5
97
330
2
100
AcDbEntity
  8
GAIKEI
  6
HIDDEN2
 62
     1
100
AcDbLine
 10
5.843079323348177
 20
18.93881636346981
 30
0.0
 11
5.843079323348177
 21
24.88227389026992
 31
0.0
  0
LINE
  5
98
330
2
100
AcDbEntity
  8
GAIKEI
  6
HIDDEN2
 62
     1
100
AcDbLine
 10
5.848355829948189
 20
18.91921022266973
 30
0.0
 11
5.848355829948189
 21
24.90188003106977
 31
0.0
  0
LINE
  5
99
330
2
100
AcDbEntity
  8
GAIKEI
  6
HIDDEN2
 62
     1
100
AcDbLine
 10
5.853700900548176
 20
18.89962266186984
 30
0.0
 11
5.853700900548176
 21
24.92146759186989
 31
0.0
  0
LINE
  5
9A
330
2
100
AcDbEntity
  8
GAIKEI
  6
HIDDEN2
 62
     1
100
AcDbLine
 10
5.859115156948206
 20
18.88005411146986
 30
0.0
 11
5.859115156948206
 21
24.94103614226987
 31
0.0
  0
LINE
  5
9B
330
2
100
AcDbEntity
  8
GAIKEI
  6
HIDDEN2
 62
     1
100
AcDbLine
 10
5.864599221348186
 20
18.86050500886989
 30
0.0
 11
5.864599221348186
 21
24.96058524486983
 31
0.0
  0
LINE
  5
9C
330
2
100
AcDbEntity
  8
GAIKEI
  6
HIDDEN2
 62
     1
100
AcDbLine
 10
5.870153705548176
 20
18.84097579726989
 30
0.0
 11
5.870153705548176
 21
24.98011445646984
 31
0.0
  0
LINE
  5
9D
330
2
100
AcDbEntity
  8
GAIKEI
  6
HIDDEN2
 62
     1
100
AcDbLine
 10
5.875779212948174
 20
18.82146692486975
 30
0.0
 11
5.875779212948174
 21
24.99962332886975
 31
0.0
  0
LINE
  5
9E
330
2
100
AcDbEntity
  8
GAIKEI
  6
HIDDEN2
 62
     1
100
AcDbLine
 10
5.881476365948202
 20
18.80197885346973
 30
0.0
 11
5.881476365948202
 21
25.01911140026976
 31
0.0
  0
LINE
  5
9F
330
2
100
AcDbEntity
  8
GAIKEI
  6
HIDDEN2
 62
     1
100
AcDbLine
 10
5.887245806748182
 20
18.78251206006979
 30
0.0
 11
5.887245806748182
 21
25.03857819366994
 31
0.0
  0
LINE
  5
A0
330
2
100
AcDbEntity
  8
GAIKEI
  6
Continuous
 62
     1
100
AcDbLine
 10
27.60807499179037
 20
22.94549170984982
 30
0.0
 11
56.88663649684937
 21
22.94549170984982
 31
0.0
  0
LINE
  5
A1
330
2
100
AcDbEntity
  8
GAIKEI
  6
Continuous
100
AcDbLine
 10
54.5829399688736
 20
14.2454916144826
 30
0.0
 11
27.60807499179037
 21
14.2454916144826
 31
0.0
  0
LINE
  5
A2
330
2
100
AcDbEntity
  8
GAIKEI
  6
Continuous
 62
     1
100
AcDbLine
 10
56.8952938266178
 20
23.0454917613086
 30
0.0
 11
42.40807813891499
 21
23.0454917333916
 31
0.0
  0
LINE
  5
A3
330
2
100
AcDbEntity
  8
GAIKEI
  6
Continuous
100
AcDbLine
 10
-32.34253958564992
 20
14.24549094691036
 30
0.0
 11
-26.86137687868495
 21
14.24549094691042
 31
0.0
  0
LINE
  5
A4
330
2
100
AcDbEntity
  8
GAIKEI
  6
Continuous
 62
     1
100
AcDbLine
 10
-32.41562425604252
 20
14.41690035207784
 30
0.0
 11
-21.30712950132715
 21
14.41690035207784
 31
0.0
  0
ARC
  5
A5
330
2
100
AcDbEntity
  8
GAIKEI
  6
HIDDEN2
 62
     1
100
AcDbCircle
 10
-26.95854173431826
 20
21.94809205845524
 30
0.0
 40
4.3700000912
100
AcDbArc
 50
243.9243500470024
 51
356.0245350169994
  0
LINE
  5
A6
330
2
100
AcDbEntity
  8
GAIKEI
  6
Continuous
 62
     1
100
AcDbLine
 10
-35.38959835527553
 20
22.2954931403612
 30
0.0
 11
-35.24523249940475
 21
22.2954931403612
 31
0.0
  0
LINE
  5
A7
330
2
100
AcDbEntity
  8
GAIKEI
  6
Continuous
 62
     1
100
AcDbLine
 10
-33.91329526463835
 20
15.39549161448241
 30
0.0
 11
-33.72324537866012
 21
15.39549161448241
 31
0.0
  0
LINE
  5
A8
330
2
100
AcDbEntity
  8
GAIKEI
  6
Continuous
100
AcDbLine
 10
-35.26137687868354
 20
23.04549170984978
 30
0.0
 11
-35.26137687868354
 21
22.94549170984982
 31
0.0
  0
LINE
  5
A9
330
2
100
AcDbEntity
  8
GAIKEI
  6
Continuous
100
AcDbLine
 10
-34.76137687868354
 20
23.04108860202263
 30
0.0
 11
-34.76137687868354
 21
22.94988118148382
 31
0.0
  0
ARC
  5
AA
330
2
100
AcDbEntity
  8
GAIKEI
  6
Continuous
 62
     1
100
AcDbCircle
 10
-14.09118879406753
 20
23.34374640779043
 30
0.0
 40
21.78
100
AcDbArc
 50
186.154180344298
 51
187.9125161715321
  0
ARC
  5
AB
330
2
100
AcDbEntity
  8
GAIKEI
  6
Continuous
 62
     1
100
AcDbCircle
 10
-14.09118879406753
 20
23.34374640779043
 30
0.0
 40
21.78
100
AcDbArc
 50
187.9125161715321
 51
190.0071439004703
  0
ARC
  5
AC
330
2
100
AcDbEntity
  8
GAIKEI
  6
Continuous
 62
     1
100
AcDbCircle
 10
-14.09118879406753
 20
23.34374640779043
 30
0.0
 40
21.78
100
AcDbArc
 50
198.4087315133263
 51
198.9047386517322
  0
ARC
  5
AD
330
2
100
AcDbEntity
  8
GAIKEI
  6
Continuous
 62
     1
100
AcDbCircle
 10
-33.18265065549514
 20
16.80551392541099
 30
0.0
 40
1.6000000000002
100
AcDbArc
 50
198.9047386517218
 51
240.8500852310217
  0
ARC
  5
AE
330
2
100
AcDbEntity
  8
GAIKEI
  6
Continuous
 62
     1
100
AcDbCircle
 10
-33.75719692250775
 20
21.22324545468723
 30
0.0
 40
2.0000000000002
100
AcDbArc
 50
180.0
 51
186.1541803442946
  0
ARC
  5
AF
330
2
100
AcDbEntity
  8
GAIKEI
  6
Continuous
 62
     7
100
AcDbCircle
 10
12.42519816814948
 20
31.04339853497993
 30
0.0
 40
48.76956563581479
100
AcDbArc
 50
194.6819543305994
 51
196.5681930927908
  0
ARC
  5
B0
330
2
100
AcDbEntity
  8
GAIKEI
  6
Continuous
 62
     1
100
AcDbCircle
 10
-36.37851263810373
 20
19.14165218335324
 30
0.0
 40
1.4
100
AcDbArc
 50
10.67731302585262
 51
59.30370771322589
  0
ARC
  5
B1
330
2
100
AcDbEntity
  8
GAIKEI
  6
Continuous
 62
     1
100
AcDbCircle
 10
-14.09118879406753
 20
23.34374640779043
 30
0.0
 40
21.28
100
AcDbArc
 50
192.7133438141908
 51
193.2211732112499
  0
ARC
  5
B2
330
2
100
AcDbEntity
  8
GAIKEI
  6
Continuous
 62
     1
100
AcDbCircle
 10
-36.17004294511034
 20
18.1565892502544
 30
0.0
 40
1.4000000000002
100
AcDbArc
 50
341.7308809797193
 51
13.22117321123651
  0
ARC
  5
B3
330
2
100
AcDbEntity
  8
GAIKEI
  6
Continuous
 62
     1
100
AcDbCircle
 10
-14.09118879406753
 20
23.34374640779043
 30
0.0
 40
21.2799999999998
100
AcDbArc
 50
190.6773130258526
 51
192.7133438141908
  0
ARC
  5
B4
330
2
100
AcDbEntity
  8
GAIKEI
  6
Continuous
 62
     7
100
AcDbCircle
 10
-14.09118879406753
 20
23.34374640779043
 30
0.0
 40
21.1799999999998
100
AcDbArc
 50
182.8368760633003
 51
192.7133438141908
  0
ARC
  5
B5
330
2
100
AcDbEntity
  8
GAIKEI
  6
Continuous
 62
     1
100
AcDbCircle
 10
-28.73547562065812
 20
17.51915881188563
 30
0.0
 40
4.9255968754406
100
AcDbArc
 50
201.5585139883888
 51
217.2875502362269
  0
ARC
  5
B6
330
2
100
AcDbEntity
  8
GAIKEI
  6
Continuous
 62
     1
100
AcDbCircle
 10
-7.655323331045913
 20
24.54740022449028
 30
0.0
 40
27.15308833300862
100
AcDbArc
 50
183.3728754779872
 51
196.4993840796274
  0
ARC
  5
B7
330
2
100
AcDbEntity
  8
GAIKEI
  6
Continuous
100
AcDbCircle
 10
-31.23953843041272
 20
16.71383996661382
 30
0.0
 40
2.8
100
AcDbArc
 50
201.0255933150847
 51
236.5299801127444
  0
ARC
  5
B8
330
2
100
AcDbEntity
  8
GAIKEI
  6
Continuous
 62
     7
100
AcDbCircle
 10
-14.06460574136812
 20
23.31548272632023
 30
0.0
 40
21.19999999999981
100
AcDbArc
 50
199.9239347040908
 51
201.0255933150847
  0
ARC
  5
B9
330
2
100
AcDbEntity
  8
GAIKEI
  6
Continuous
 62
     1
100
AcDbCircle
 10
-33.75719692250775
 20
21.22324545468723
 30
0.0
 40
2.0000000000002
100
AcDbArc
 50
149.2222468774715
 51
180.0
  0
ARC
  5
BA
330
2
100
AcDbEntity
  8
GAIKEI
  6
Continuous
 62
     1
100
AcDbCircle
 10
-33.91329526463835
 20
15.49549161448243
 30
0.0
 40
0.0999999999998
100
AcDbArc
 50
240.8500852311695
 51
270.0
  0
ARC
  5
BB
330
2
100
AcDbEntity
  8
GAIKEI
  6
Continuous
 62
     1
100
AcDbCircle
 10
-35.38959835527553
 20
22.19549314036123
 30
0.0
 40
0.1
100
AcDbArc
 50
90.0
 51
149.2222468774715
  0
ARC
  5
BC
330
2
100
AcDbEntity
  8
GAIKEI
  6
Continuous
100
AcDbCircle
 10
-32.317003126277
 20
15.10946496696374
 30
0.0
 40
0.8675615115162987
100
AcDbArc
 50
237.4532815784569
 51
259.0259927231443
  0
ARC
  5
BD
330
2
100
AcDbEntity
  8
GAIKEI
  6
Continuous
 62
     1
100
AcDbCircle
 10
-32.41562425604252
 20
14.7169003520778
 30
0.0
 40
0.3
100
AcDbArc
 50
217.2875502362228
 51
270.0
  0
ARC
  5
BE
330
2
100
AcDbEntity
  8
GAIKEI
  6
HIDDEN2
 62
     1
100
AcDbCircle
 10
-26.96202796131826
 20
21.94306675805512
 30
0.0
 40
4.389999999999999
100
AcDbArc
 50
236.0815169690054
 51
243.9184830309949
  0
ARC
  5
BF
330
2
100
AcDbEntity
  8
GAIKEI
  6
HIDDEN2
 62
     1
100
AcDbCircle
 10
-26.96202796131826
 20
21.94306675805512
 30
0.0
 40
4.549999999999999
100
AcDbArc
 50
242.5193075209961
 51
243.7804862379978
  0
ARC
  5
C0
330
2
100
AcDbEntity
  8
GAIKEI
  6
HIDDEN2
 62
     1
100
AcDbCircle
 10
-26.96202796131826
 20
21.94306675805512
 30
0.0
 40
4.549999999999999
100
AcDbArc
 50
236.2195137619917
 51
237.4806924790003
  0
LINE
  5
C1
330
2
100
AcDbEntity
  8
GAIKEI
  6
HIDDEN2
 62
     1
100
AcDbLine
 10
-28.98229161091825
 20
17.84386747225528
 30
0.0
 11
-28.88206556391827
 21
18.01746407785515
 31
0.0
  0
ARC
  5
C2
330
2
100
AcDbEntity
  8
GAIKEI
  6
HIDDEN2
 62
     1
100
AcDbCircle
 10
-26.96202796131826
 20
21.94306675805512
 30
0.0
 40
4.57
100
AcDbArc
 50
236.2360824539992
 51
243.7639175459962
  0
LINE
  5
C3
330
2
100
AcDbEntity
  8
GAIKEI
  6
HIDDEN2
 62
     1
100
AcDbLine
 10
-29.40168080611826
 20
18.31746407785511
 30
0.0
 11
-29.50190685331825
 21
18.14386747225524
 31
0.0
  0
ARC
  5
C4
330
2
100
AcDbEntity
  8
GAIKEI
  6
HIDDEN2
 62
     1
100
AcDbCircle
 10
-26.96202796131826
 20
21.94306675805512
 30
0.0
 40
4.5
100
AcDbArc
 50
236.1769464760033
 51
243.8244355549983
  0
LINE
  5
C5
330
2
100
AcDbEntity
  8
GAIKEI
  6
HIDDEN2
 62
     1
100
AcDbLine
 10
-29.07163364791825
 20
17.88912252485522
 30
0.0
 11
-29.05382286351827
 21
17.91997170845514
 31
0.0
  0
LINE
  5
C6
330
2
100
AcDbEntity
  8
GAIKEI
  6
HIDDEN2
 62
     1
100
AcDbLine
 10
-29.41804380951828
 20
18.08912252485527
 30
0.0
 11
-29.40023302511827
 21
18.11997170845518
 31
0.0
  0
LINE
  5
C7
330
2
100
AcDbEntity
  8
GAIKEI
  6
HIDDEN2
 62
     1
100
AcDbLine
 10
-29.05382286351827
 20
17.91997170845514
 30
0.0
 11
-29.04160449451826
 21
17.94113454445517
 31
0.0
  0
LINE
  5
C8
330
2
100
AcDbEntity
  8
GAIKEI
  6
HIDDEN2
 62
     1
100
AcDbLine
 10
-29.40023302511827
 20
18.11997170845518
 30
0.0
 11
-29.38801465591826
 21
18.14113454445521
 31
0.0
  0
LINE
  5
C9
330
2
100
AcDbEntity
  8
GAIKEI
  6
HIDDEN2
 62
     1
100
AcDbLine
 10
-29.40023302511827
 20
18.11997170845518
 30
0.0
 11
-29.05382286351827
 21
17.91997170845514
 31
0.0
  0
ARC
  5
CA
330
2
100
AcDbEntity
  8
GAIKEI
  6
HIDDEN2
 62
     1
100
AcDbCircle
 10
-26.96202796131826
 20
21.94306675805512
 30
0.0
 40
4.51
100
AcDbArc
 50
236.1855843250004
 51
243.8152682139949
  0
LINE
  5
CB
330
2
100
AcDbEntity
  8
GAIKEI
  6
HIDDEN2
 62
     1
100
AcDbLine
 10
-31.06131578091828
 20
23.04710928225529
 30
0.0
 11
-31.03233800611827
 21
23.03934471085529
 31
0.0
  0
LINE
  5
CC
330
2
100
AcDbEntity
  8
GAIKEI
  6
HIDDEN2
 62
     1
100
AcDbLine
 10
-30.97438245651827
 20
23.02381556825537
 30
0.0
 11
-30.94540468171826
 21
23.01605099685514
 31
0.0
  0
ARC
  5
CD
330
2
100
AcDbEntity
  8
GAIKEI
  6
HIDDEN2
 62
     1
100
AcDbCircle
 10
-31.00336023131826
 20
23.03158013945528
 30
0.0
 40
0.03
100
AcDbArc
 50
165.0000000000055
 51
345.0000000000055
  0
ARC
  5
CE
330
2
100
AcDbEntity
  8
GAIKEI
  6
HIDDEN2
 62
     1
100
AcDbCircle
 10
-31.00336023131826
 20
23.03158013945528
 30
0.0
 40
0.06
100
AcDbArc
 50
165.0000000000055
 51
345.0000000000055
  0
ARC
  5
CF
330
2
100
AcDbEntity
  8
GAIKEI
  6
HIDDEN2
 62
     1
100
AcDbCircle
 10
-31.00845775091827
 20
20.86074764205512
 30
0.0
 40
0.03
100
AcDbArc
 50
14.99999999999447
 51
194.9999999999944
  0
LINE
  5
D0
330
2
100
AcDbEntity
  8
GAIKEI
  6
HIDDEN2
 62
     1
100
AcDbLine
 10
-30.97947997611826
 20
20.86851221345512
 30
0.0
 11
-30.95050220131827
 21
20.87627678465503
 31
0.0
  0
ARC
  5
D1
330
2
100
AcDbEntity
  8
GAIKEI
  6
HIDDEN2
 62
     1
100
AcDbCircle
 10
-26.95156928051827
 20
21.9477876314553
 30
0.0
 40
4.17
100
AcDbArc
 50
194.9999999999944
 51
225.000000000005
  0
ARC
  5
D2
330
2
100
AcDbEntity
  8
GAIKEI
  6
HIDDEN2
 62
     1
100
AcDbCircle
 10
-26.95156928051827
 20
21.9477876314553
 30
0.0
 40
4.229999999999999
100
AcDbArc
 50
194.9999999999944
 51
225.000000000005
  0
LINE
  5
D3
330
2
100
AcDbEntity
  8
GAIKEI
  6
HIDDEN2
 62
     1
100
AcDbLine
 10
-31.06641330051826
 20
20.84521849925511
 30
0.0
 11
-31.03743552571825
 21
20.85298307065512
 31
0.0
  0
LINE
  5
D4
330
2
100
AcDbEntity
  8
GAIKEI
  6
HIDDEN2
 62
     1
100
AcDbLine
 10
-29.96384416831825
 20
18.93551274365506
 30
0.0
 11
-29.94263096491827
 21
18.95672594705513
 31
0.0
  0
LINE
  5
D5
330
2
100
AcDbEntity
  8
GAIKEI
  6
HIDDEN2
 62
     1
100
AcDbLine
 10
-29.90020455811828
 20
18.99915235385526
 30
0.0
 11
-29.87899135451826
 21
19.02036555745519
 31
0.0
  0
ARC
  5
D6
330
2
100
AcDbEntity
  8
GAIKEI
  6
HIDDEN2
 62
     1
100
AcDbCircle
 10
-29.92141776151825
 20
18.9779391504552
 30
0.0
 40
0.03
100
AcDbArc
 50
225.000000000005
 51
45.00000000000501
  0
ARC
  5
D7
330
2
100
AcDbEntity
  8
GAIKEI
  6
HIDDEN2
 62
     1
100
AcDbCircle
 10
-26.95156928051827
 20
21.9477876314553
 30
0.0
 40
4.26
100
AcDbArc
 50
194.9999999999944
 51
225.000000000005
  0
ARC
  5
D8
330
2
100
AcDbEntity
  8
GAIKEI
  6
HIDDEN2
 62
     1
100
AcDbCircle
 10
-31.00845775091827
 20
20.86074764205512
 30
0.0
 40
0.06
100
AcDbArc
 50
14.99999999999447
 51
194.9999999999944
  0
ARC
  5
D9
330
2
100
AcDbEntity
  8
GAIKEI
  6
HIDDEN2
 62
     1
100
AcDbCircle
 10
-26.95156928051827
 20
21.9477876314553
 30
0.0
 40
4.139999999999999
100
AcDbArc
 50
194.9999999999944
 51
225.000000000005
  0
ARC
  5
DA
330
2
100
AcDbEntity
  8
GAIKEI
  6
HIDDEN2
 62
     1
100
AcDbCircle
 10
-29.92141776151825
 20
18.9779391504552
 30
0.0
 40
0.06
100
AcDbArc
 50
225.000000000005
 51
45.00000000000501
  0
ARC
  5
DB
330
2
100
AcDbEntity
  8
GAIKEI
  6
HIDDEN2
 62
     1
100
AcDbCircle
 10
-26.95854173431826
 20
21.94809205845524
 30
0.0
 40
6.8
100
AcDbArc
 50
165.4587137939951
 51
194.5412862060049
  0
LINE
  5
DC
330
2
100
AcDbEntity
  8
GAIKEI
  6
HIDDEN2
 62
     1
100
AcDbLine
 10
-32.94986980071826
 20
19.66192251585528
 30
0.0
 11
-33.20675645611826
 21
19.8066614566552
 31
0.0
  0
ARC
  5
DD
330
2
100
AcDbEntity
  8
GAIKEI
  6
HIDDEN2
 62
     1
100
AcDbCircle
 10
-34.12798127591827
 20
17.5709769516551
 30
0.0
 40
2.4
100
AcDbArc
 50
31.4050681750051
 51
60.60157653599686
  0
ARC
  5
DE
330
2
100
AcDbEntity
  8
GAIKEI
  6
HIDDEN2
 62
     1
100
AcDbCircle
 10
-32.86314073331826
 20
20.41651857225531
 30
0.0
 40
0.7000000000000001
100
AcDbArc
 50
194.5412701509916
 51
240.6015072450033
  0
LINE
  5
DF
330
2
100
AcDbEntity
  8
GAIKEI
  6
HIDDEN2
 62
     1
100
AcDbLine
 10
-31.04292083431827
 20
17.29332097305507
 30
0.0
 11
-31.77567219102034
 21
16.56056961635295
 31
0.0
  0
LINE
  5
E0
330
2
100
AcDbEntity
  8
GAIKEI
  6
HIDDEN2
 62
     1
100
AcDbLine
 10
-32.58247433599758
 20
16.88513832137585
 30
0.0
 11
-31.60860625931827
 21
17.85900639805516
 31
0.0
  0
LINE
  5
E1
330
2
100
AcDbEntity
  8
GAIKEI
  6
HIDDEN2
 62
     1
100
AcDbLine
 10
-31.60860625931827
 20
17.85900639805516
 30
0.0
 11
-31.04292083431827
 21
17.29332097305507
 31
0.0
  0
ARC
  5
E2
330
2
100
AcDbEntity
  8
GAIKEI
  6
HIDDEN2
 62
     1
100
AcDbCircle
 10
-31.32576354691827
 20
18.14184911045515
 30
0.0
 40
0.4
100
AcDbArc
 50
160.5418625369995
 51
225.000000000005
  0
ARC
  5
E3
330
2
100
AcDbEntity
  8
GAIKEI
  6
HIDDEN2
 62
     1
100
AcDbCircle
 10
-30.76007812191827
 20
17.5761636854553
 30
0.0
 40
0.4
100
AcDbArc
 50
225.000000000005
 51
289.6019535739988
  0
ARC
  5
E4
330
2
100
AcDbEntity
  8
GAIKEI
  6
Continuous
 62
     1
100
AcDbCircle
 10
-32.41562425604249
 20
14.7169003520778
 30
0.0
 40
0.3
100
AcDbArc
 50
217.2875502362188
 51
270.0
  0
LINE
  5
E5
330
2
100
AcDbEntity
  8
GAIKEI
  6
S10
 62
     1
100
AcDbLine
 10
-35.83890125099001
 20
18.14395095430382
 30
0.0
 11
-35.83365883670297
 21
18.14504735179809
 31
0.0
  0
ARC
  5
E7
330
2
100
AcDbEntity
  8
GAIKEI
  6
HIDDEN2
 62
     1
100
AcDbCircle
 10
-33.25949963112544
 20
18.61096034110801
 30
0.0
 40
1.815983663799756
100
AcDbArc
 50
173.5172037169371
 51
234.4903670925362
  0
ARC
  5
E8
330
2
100
AcDbEntity
  8
GAIKEI
  6
HIDDEN2
 62
     1
100
AcDbCircle
 10
-33.25949963112544
 20
18.61096034110801
 30
0.0
 40
2.615983663799756
100
AcDbArc
 50
173.5172037169371
 51
237.9304954258885
  0
ARC
  5
E9
330
2
100
AcDbEntity
  8
GAIKEI
  6
HIDDEN2
 62
     1
100
AcDbCircle
 10
-35.46131385540554
 20
18.86115570474487
 30
0.0
 40
0.4
100
AcDbArc
 50
353.5172037169405
 51
173.5172037169404
  0
ARC
  5
EA
330
2
100
AcDbEntity
  8
GAIKEI
  6
HIDDEN2
 62
     1
100
AcDbCircle
 10
-33.21556259581408
 20
18.63752546748276
 30
0.0
 40
1.863239505420146
100
AcDbArc
 50
233.8650269124413
 51
289.8633644857899
  0
ARC
  5
EB
330
2
100
AcDbEntity
  8
GAIKEI
  6
HIDDEN2
 62
     1
100
AcDbCircle
 10
-33.21556259581408
 20
18.63752546748276
 30
0.0
 40
2.663239505420146
100
AcDbArc
 50
233.8650269124413
 51
272.2187195370537
  0
ARC
  5
EC
330
2
100
AcDbEntity
  8
GAIKEI
  6
HIDDEN2
 62
     1
100
AcDbCircle
 10
-33.18988575339347
 20
17.97478317872611
 30
0.0
 40
2.0
100
AcDbArc
 50
272.2187195370537
 51
314.9999999999996
  0
ARC
  5
ED
330
2
100
AcDbEntity
  8
GAIKEI
  6
Continuous
 62
     1
100
AcDbCircle
 10
-14.06460574136812
 20
23.31548272632023
 30
0.0
 40
20.7
100
AcDbArc
 50
200.7480688588697
 51
201.5585139883888
  0
LINE
  5
EE
330
2
100
AcDbEntity
  8
GAIKEI
  6
HIDDEN2
 62
     1
100
AcDbLine
 10
-36.25673569810772
 20
19.40908122102968
 30
0.0
 11
-35.95501801558564
 21
17.96642096534441
 31
0.0
  0
LINE
  5
EF
330
2
100
AcDbEntity
  8
GAIKEI
  6
HIDDEN2
 62
     1
100
AcDbLine
 10
-35.05581015153817
 20
19.66024255396621
 30
0.0
 11
-36.25673569810772
 21
19.40908122102968
 31
0.0
  0
LINE
  5
F0
330
2
100
AcDbEntity
  8
GAIKEI
  6
HIDDEN2
 62
     1
100
AcDbLine
 10
-35.95501801558564
 20
17.96642096534441
 30
0.0
 11
-35.80272268513815
 21
17.99827198084199
 31
0.0
  0
LINE
  5
F1
330
2
100
AcDbEntity
  8
GAIKEI
  6
HIDDEN2
 62
     1
100
AcDbLine
 10
-35.01914863096209
 20
18.16214850463149
 30
0.0
 11
-34.77122058640578
 21
18.21400012717475
 31
0.0
  0
ARC
  5
F2
330
2
100
AcDbEntity
  8
GAIKEI
  6
Continuous
100
AcDbCircle
 10
-32.34253958564992
 20
15.04549094691043
 30
0.0
 40
0.8
100
AcDbArc
 50
259.9492941888132
 51
270.0
  0
LINE
  5
F3
330
2
100
AcDbEntity
  8
GAIKEI
  6
Continuous
100
AcDbLine
 10
-18.46137687868611
 20
22.94549170984982
 30
0.0
 11
-18.46137687868611
 21
23.04549170984978
 31
0.0
  0
LINE
  5
F4
330
2
100
AcDbEntity
  8
GAIKEI
  6
Continuous
100
AcDbLine
 10
-26.86137687868495
 20
14.24549094691042
 30
0.0
 11
-21.38021417171973
 21
14.24549094691042
 31
0.0
  0
LINE
  5
F5
330
2
100
AcDbEntity
  8
GAIKEI
  6
Continuous
100
AcDbLine
 10
-18.96137687868611
 20
22.94549170984982
 30
0.0
 11
-18.96137687868611
 21
23.04549170984978
 31
0.0
  0
ARC
  5
F6
330
2
100
AcDbEntity
  8
GAIKEI
  6
Continuous
 62
     1
100
AcDbCircle
 10
-39.65814801600172
 20
23.31548272632023
 30
0.0
 40
20.7
100
AcDbArc
 50
338.4414860116112
 51
349.0025272711274
  0
ARC
  5
F7
330
2
100
AcDbEntity
  8
GAIKEI
  6
Continuous
100
AcDbCircle
 10
-39.65814801600172
 20
23.31548272632023
 30
0.0
 40
21.2000000000002
100
AcDbArc
 50
338.9744066849153
 51
349.0025272711241
  0
ARC
  5
F8
330
2
100
AcDbEntity
  8
GAIKEI
  6
Continuous
 62
     1
100
AcDbCircle
 10
-24.98727813671155
 20
17.51915881188563
 30
0.0
 40
4.9255968754406
100
AcDbArc
 50
322.7124497637772
 51
338.4414860116112
  0
ARC
  5
F9
330
2
100
AcDbEntity
  8
GAIKEI
  6
Continuous
 62
     1
100
AcDbCircle
 10
-39.65814801600172
 20
23.31548272632023
 30
0.0
 40
20.7000000000002
100
AcDbArc
 50
349.0025272711274
 51
358.9758449801707
  0
ARC
  5
FA
330
2
100
AcDbEntity
  8
GAIKEI
  6
Continuous
100
AcDbCircle
 10
-22.48321532695695
 20
16.71383996661382
 30
0.0
 40
2.8
100
AcDbArc
 50
303.4700198872556
 51
338.9744066849153
  0
ARC
  5
FB
330
2
100
AcDbEntity
  8
GAIKEI
  6
Continuous
100
AcDbCircle
 10
-39.65814801600172
 20
23.31548272632023
 30
0.0
 40
21.2000000000002
100
AcDbArc
 50
349.0025272711241
 51
358.9999999999982
  0
ARC
  5
FC
330
2
100
AcDbEntity
  8
GAIKEI
  6
Continuous
100
AcDbCircle
 10
-21.38021417171973
 20
15.04549094691043
 30
0.0
 40
0.8
100
AcDbArc
 50
270.0
 51
303.4700198872565
  0
ARC
  5
FD
330
2
100
AcDbEntity
  8
GAIKEI
  6
Continuous
 62
     1
100
AcDbCircle
 10
-21.30712950132715
 20
14.7169003520778
 30
0.0
 40
0.3
100
AcDbArc
 50
270.0
 51
322.7124497637812
  0
ARC
  5
FE
330
2
100
AcDbEntity
  8
GAIKEI
  6
HIDDEN2
 62
     1
100
AcDbCircle
 10
-26.95693044171827
 20
21.94499679065518
 30
0.0
 40
4.51
100
AcDbArc
 50
356.1855843250067
 51
3.815268213996056
  0
LINE
  5
FF
330
2
100
AcDbEntity
  8
GAIKEI
  6
HIDDEN2
 62
     1
100
AcDbLine
 10
-22.42693047571825
 20
21.74499679065514
 30
0.0
 11
-22.42693047571825
 21
22.14499679065523
 31
0.0
  0
LINE
  5
100
330
2
100
AcDbEntity
  8
GAIKEI
  6
HIDDEN2
 62
     1
100
AcDbLine
 10
-22.42693047571825
 20
21.74499679065514
 30
0.0
 11
-22.45136721391828
 21
21.74499679065514
 31
0.0
  0
LINE
  5
101
330
2
100
AcDbEntity
  8
GAIKEI
  6
HIDDEN2
 62
     1
100
AcDbLine
 10
-22.42693047571825
 20
22.14499679065523
 30
0.0
 11
-22.45136721391828
 21
22.14499679065523
 31
0.0
  0
LINE
  5
102
330
2
100
AcDbEntity
  8
GAIKEI
  6
HIDDEN2
 62
     1
100
AcDbLine
 10
-22.39130890671825
 20
21.74499679065514
 30
0.0
 11
-22.42693047571825
 21
21.74499679065514
 31
0.0
  0
LINE
  5
103
330
2
100
AcDbEntity
  8
GAIKEI
  6
HIDDEN2
 62
     1
100
AcDbLine
 10
-22.39130890671825
 20
22.14499679065523
 30
0.0
 11
-22.42693047571825
 21
22.14499679065523
 31
0.0
  0
ARC
  5
104
330
2
100
AcDbEntity
  8
GAIKEI
  6
HIDDEN2
 62
     1
100
AcDbCircle
 10
-26.95693044171827
 20
21.94499679065518
 30
0.0
 40
4.5
100
AcDbArc
 50
356.1769464759877
 51
3.824435554996875
  0
LINE
  5
105
330
2
100
AcDbEntity
  8
GAIKEI
  6
HIDDEN2
 62
     1
100
AcDbLine
 10
-22.59723999411827
 20
21.64499679065523
 30
0.0
 11
-22.39678790011826
 21
21.64499679065523
 31
0.0
  0
ARC
  5
106
330
2
100
AcDbEntity
  8
GAIKEI
  6
HIDDEN2
 62
     1
100
AcDbCircle
 10
-26.95693044171827
 20
21.94499679065518
 30
0.0
 40
4.57
100
AcDbArc
 50
356.2360824540078
 51
3.763917545992129
  0
LINE
  5
107
330
2
100
AcDbEntity
  8
GAIKEI
  6
HIDDEN2
 62
     1
100
AcDbLine
 10
-22.39678790011826
 20
22.24499679065514
 30
0.0
 11
-22.59723999411827
 21
22.24499679065514
 31
0.0
  0
ARC
  5
108
330
2
100
AcDbEntity
  8
GAIKEI
  6
HIDDEN2
 62
     1
100
AcDbCircle
 10
-26.95693044171827
 20
21.94499679065518
 30
0.0
 40
4.549999999999999
100
AcDbArc
 50
356.2195137619903
 51
357.4806924790027
  0
ARC
  5
109
330
2
100
AcDbEntity
  8
GAIKEI
  6
HIDDEN2
 62
     1
100
AcDbCircle
 10
-26.95693044171827
 20
21.94499679065518
 30
0.0
 40
4.549999999999999
100
AcDbArc
 50
2.519307520997289
 51
3.780486238009691
  0
ARC
  5
10A
330
2
100
AcDbEntity
  8
GAIKEI
  6
HIDDEN2
 62
     1
100
AcDbCircle
 10
-26.95693044171827
 20
21.94499679065518
 30
0.0
 40
4.389999999999999
100
AcDbArc
 50
356.0815169689922
 51
3.918483031007789
  0
ARC
  5
10B
330
2
100
AcDbEntity
  8
GAIKEI
  6
HIDDEN2
 62
     1
100
AcDbCircle
 10
-22.90004197131827
 20
23.03203678005514
 30
0.0
 40
0.06
100
AcDbArc
 50
194.9999999999944
 51
14.99999999999447
  0
LINE
  5
10C
330
2
100
AcDbEntity
  8
GAIKEI
  6
HIDDEN2
 62
     1
100
AcDbLine
 10
-22.84208642171825
 20
23.04756592285514
 30
0.0
 11
-22.87106419651826
 21
23.03980135145514
 31
0.0
  0
LINE
  5
10D
330
2
100
AcDbEntity
  8
GAIKEI
  6
HIDDEN2
 62
     1
100
AcDbLine
 10
-22.92901974611826
 20
23.02427220885522
 30
0.0
 11
-22.95799752091827
 21
23.01650763745522
 31
0.0
  0
ARC
  5
10E
330
2
100
AcDbEntity
  8
GAIKEI
  6
HIDDEN2
 62
     1
100
AcDbCircle
 10
-22.90004197131827
 20
23.03203678005514
 30
0.0
 40
0.03
100
AcDbArc
 50
194.9999999999944
 51
14.99999999999447
  0
ARC
  5
10F
330
2
100
AcDbEntity
  8
GAIKEI
  6
HIDDEN2
 62
     1
100
AcDbCircle
 10
-28.04397043111825
 20
17.88810832025535
 30
0.0
 40
0.03
100
AcDbArc
 50
74.99999999999743
 51
254.9999999999974
  0
LINE
  5
110
330
2
100
AcDbEntity
  8
GAIKEI
  6
HIDDEN2
 62
     1
100
AcDbLine
 10
-28.03620585971828
 20
17.91708609505519
 30
0.0
 11
-28.02844128831828
 21
17.94606386985526
 31
0.0
  0
ARC
  5
111
330
2
100
AcDbEntity
  8
GAIKEI
  6
HIDDEN2
 62
     1
100
AcDbCircle
 10
-26.95693044171827
 20
21.94499679065518
 30
0.0
 40
4.17
100
AcDbArc
 50
254.9999999999974
 51
285.0000000000025
  0
ARC
  5
112
330
2
100
AcDbEntity
  8
GAIKEI
  6
HIDDEN2
 62
     1
100
AcDbCircle
 10
-26.95693044171827
 20
21.94499679065518
 30
0.0
 40
4.229999999999999
100
AcDbArc
 50
254.9999999999974
 51
285.0000000000025
  0
LINE
  5
113
330
2
100
AcDbEntity
  8
GAIKEI
  6
HIDDEN2
 62
     1
100
AcDbLine
 10
-28.05949957371826
 20
17.83015277065522
 30
0.0
 11
-28.05173500251826
 21
17.85913054545506
 31
0.0
  0
LINE
  5
114
330
2
100
AcDbEntity
  8
GAIKEI
  6
HIDDEN2
 62
     1
100
AcDbLine
 10
-25.85436130951825
 20
17.83015277065522
 30
0.0
 11
-25.86212588091826
 21
17.85913054545506
 31
0.0
  0
LINE
  5
115
330
2
100
AcDbEntity
  8
GAIKEI
  6
HIDDEN2
 62
     1
100
AcDbLine
 10
-25.87765502351826
 20
17.91708609505519
 30
0.0
 11
-25.88541959491826
 21
17.94606386985526
 31
0.0
  0
ARC
  5
116
330
2
100
AcDbEntity
  8
GAIKEI
  6
HIDDEN2
 62
     1
100
AcDbCircle
 10
-25.86989045231826
 20
17.88810832025535
 30
0.0
 40
0.03
100
AcDbArc
 50
285.0000000000025
 51
105.0000000000025
  0
ARC
  5
117
330
2
100
AcDbEntity
  8
GAIKEI
  6
HIDDEN2
 62
     1
100
AcDbCircle
 10
-26.95693044171827
 20
21.94499679065518
 30
0.0
 40
4.26
100
AcDbArc
 50
254.9999999999974
 51
285.0000000000025
  0
ARC
  5
118
330
2
100
AcDbEntity
  8
GAIKEI
  6
HIDDEN2
 62
     1
100
AcDbCircle
 10
-28.04397043111825
 20
17.88810832025535
 30
0.0
 40
0.06
100
AcDbArc
 50
74.99999999999743
 51
254.9999999999974
  0
ARC
  5
119
330
2
100
AcDbEntity
  8
GAIKEI
  6
HIDDEN2
 62
     1
100
AcDbCircle
 10
-26.95693044171827
 20
21.94499679065518
 30
0.0
 40
4.139999999999999
100
AcDbArc
 50
254.9999999999974
 51
285.0000000000025
  0
ARC
  5
11A
330
2
100
AcDbEntity
  8
GAIKEI
  6
HIDDEN2
 62
     1
100
AcDbCircle
 10
-25.86989045231826
 20
17.88810832025535
 30
0.0
 40
0.06
100
AcDbArc
 50
285.0000000000025
 51
105.0000000000025
  0
ARC
  5
11B
330
2
100
AcDbEntity
  8
GAIKEI
  6
HIDDEN2
 62
     1
100
AcDbCircle
 10
-23.99217948031827
 20
18.97839579105528
 30
0.0
 40
0.03
100
AcDbArc
 50
134.999999999995
 51
314.9999999999949
  0
LINE
  5
11C
330
2
100
AcDbEntity
  8
GAIKEI
  6
HIDDEN2
 62
     1
100
AcDbLine
 10
-24.01339268371828
 20
18.99960899445511
 30
0.0
 11
-24.03460588711826
 21
19.02082219785518
 31
0.0
  0
ARC
  5
11D
330
2
100
AcDbEntity
  8
GAIKEI
  6
HIDDEN2
 62
     1
100
AcDbCircle
 10
-26.96202796131826
 20
21.94824427205515
 30
0.0
 40
4.17
100
AcDbArc
 50
314.9999999999949
 51
345.0000000000055
  0
ARC
  5
11E
330
2
100
AcDbEntity
  8
GAIKEI
  6
HIDDEN2
 62
     1
100
AcDbCircle
 10
-26.96202796131826
 20
21.94824427205515
 30
0.0
 40
4.229999999999999
100
AcDbArc
 50
314.9999999999949
 51
345.0000000000055
  0
LINE
  5
11F
330
2
100
AcDbEntity
  8
GAIKEI
  6
HIDDEN2
 62
     1
100
AcDbLine
 10
-23.94975307331828
 20
18.93596938425514
 30
0.0
 11
-23.97096627691826
 21
18.95718258765521
 31
0.0
  0
LINE
  5
120
330
2
100
AcDbEntity
  8
GAIKEI
  6
HIDDEN2
 62
     1
100
AcDbLine
 10
-22.84718394131826
 20
20.84567513985519
 30
0.0
 11
-22.87616171611828
 21
20.85343971125519
 31
0.0
  0
LINE
  5
121
330
2
100
AcDbEntity
  8
GAIKEI
  6
HIDDEN2
 62
     1
100
AcDbLine
 10
-22.93411726571827
 20
20.8689688540552
 30
0.0
 11
-22.96309504051825
 21
20.87673342525511
 31
0.0
  0
ARC
  5
122
330
2
100
AcDbEntity
  8
GAIKEI
  6
HIDDEN2
 62
     1
100
AcDbCircle
 10
-22.90513949091826
 20
20.8612042826552
 30
0.0
 40
0.03
100
AcDbArc
 50
345.0000000000055
 51
165.0000000000055
  0
ARC
  5
123
330
2
100
AcDbEntity
  8
GAIKEI
  6
HIDDEN2
 62
     1
100
AcDbCircle
 10
-26.96202796131826
 20
21.94824427205515
 30
0.0
 40
4.26
100
AcDbArc
 50
314.9999999999949
 51
345.0000000000055
  0
ARC
  5
124
330
2
100
AcDbEntity
  8
GAIKEI
  6
HIDDEN2
 62
     1
100
AcDbCircle
 10
-23.99217948031827
 20
18.97839579105528
 30
0.0
 40
0.06
100
AcDbArc
 50
134.999999999995
 51
314.9999999999949
  0
ARC
  5
125
330
2
100
AcDbEntity
  8
GAIKEI
  6
HIDDEN2
 62
     1
100
AcDbCircle
 10
-26.96202796131826
 20
21.94824427205515
 30
0.0
 40
4.139999999999999
100
AcDbArc
 50
314.9999999999949
 51
345.0000000000055
  0
ARC
  5
126
330
2
100
AcDbEntity
  8
GAIKEI
  6
HIDDEN2
 62
     1
100
AcDbCircle
 10
-22.90513949091826
 20
20.8612042826552
 30
0.0
 40
0.06
100
AcDbArc
 50
345.0000000000055
 51
165.0000000000055
  0
LINE
  5
127
330
2
100
AcDbEntity
  8
GAIKEI
  6
Continuous
100
AcDbLine
 10
18.08109708097319
 20
14.41004017926139
 30
0.0
 11
27.50807804354798
 21
14.2454916144826
 31
0.0
  0
LINE
  5
128
330
2
100
AcDbEntity
  8
GAIKEI
  6
Continuous
 62
     1
100
AcDbLine
 10
26.50807804354798
 20
19.74549170984983
 30
0.0
 11
19.00807804354798
 21
19.74549170984983
 31
0.0
  0
LINE
  5
129
330
2
100
AcDbEntity
  8
GAIKEI
  6
Continuous
 62
     1
100
AcDbLine
 10
19.00807804354798
 20
21.14549170984981
 30
0.0
 11
26.50807804354798
 21
21.14549170984981
 31
0.0
  0
LINE
  5
12A
330
2
100
AcDbEntity
  8
GAIKEI
  6
Continuous
 62
     1
100
AcDbLine
 10
18.98807804354797
 20
21.44549170984982
 30
0.0
 11
26.52807804354799
 21
21.44549170984982
 31
0.0
  0
LINE
  5
12B
330
2
100
AcDbEntity
  8
GAIKEI
  6
Continuous
 62
     1
100
AcDbLine
 10
26.52807804354799
 20
19.44549170984982
 30
0.0
 11
18.98807804354797
 21
19.44549170984982
 31
0.0
  0
LINE
  5
12C
330
2
100
AcDbEntity
  8
GAIKEI
  6
HIDDEN2
 62
     1
100
AcDbLine
 10
6.191703391548173
 20
15.91054512686986
 30
0.0
 11
11.77170339154818
 21
15.91054512686986
 31
0.0
  0
LINE
  5
12D
330
2
100
AcDbEntity
  8
GAIKEI
  6
HIDDEN2
 62
     1
100
AcDbLine
 10
5.891688852548185
 20
16.35054512686969
 30
0.0
 11
5.891688852548185
 21
17.09544388166995
 31
0.0
  0
LINE
  5
12E
330
2
100
AcDbEntity
  8
GAIKEI
  6
HIDDEN2
 62
     1
100
AcDbLine
 10
5.991688852548179
 20
16.25054512686978
 30
0.0
 11
5.991688852548179
 21
17.00884134126994
 31
0.0
  0
LINE
  5
12F
330
2
100
AcDbEntity
  8
GAIKEI
  6
HIDDEN2
 62
     1
100
AcDbLine
 10
5.542280607948185
 20
21.90039325246965
 30
0.0
 11
5.542280607948185
 21
21.92069700126984
 31
0.0
  0
LINE
  5
130
330
2
100
AcDbEntity
  8
GAIKEI
  6
HIDDEN2
 62
     1
100
AcDbLine
 10
5.542300889148179
 20
21.88008954886976
 30
0.0
 11
5.542300889148179
 21
21.94100070486974
 31
0.0
  0
LINE
  5
131
330
2
100
AcDbEntity
  8
GAIKEI
  6
HIDDEN2
 62
     1
100
AcDbLine
 10
5.542341513548194
 20
21.85978588026995
 30
0.0
 11
5.542341513548194
 21
21.96130437346977
 31
0.0
  0
LINE
  5
132
330
2
100
AcDbEntity
  8
GAIKEI
  6
HIDDEN2
 62
     1
100
AcDbLine
 10
5.542402533548198
 20
21.83948224946965
 30
0.0
 11
5.542402533548198
 21
21.98160800426984
 31
0.0
  0
LINE
  5
133
330
2
100
AcDbEntity
  8
GAIKEI
  6
HIDDEN2
 62
     1
100
AcDbLine
 10
5.542483897148173
 20
21.81917868926979
 30
0.0
 11
5.542483897148173
 21
22.00191156446971
 31
0.0
  0
LINE
  5
134
330
2
100
AcDbEntity
  8
GAIKEI
  6
HIDDEN2
 62
     1
100
AcDbLine
 10
5.542585610948208
 20
21.79887522406983
 30
0.0
 11
5.542585610948208
 21
22.0222150296699
 31
0.0
  0
LINE
  5
135
330
2
100
AcDbEntity
  8
GAIKEI
  6
HIDDEN2
 62
     1
100
AcDbLine
 10
5.542707732148187
 20
21.77857187166996
 30
0.0
 11
5.542707732148187
 21
22.04251838206977
 31
0.0
  0
LINE
  5
136
330
2
100
AcDbEntity
  8
GAIKEI
  6
HIDDEN2
 62
     1
100
AcDbLine
 10
5.542850267948182
 20
21.75826865146968
 30
0.0
 11
5.542850267948182
 21
22.06282160226982
 31
0.0
  0
LINE
  5
137
330
2
100
AcDbEntity
  8
GAIKEI
  6
HIDDEN2
 62
     1
100
AcDbLine
 10
5.543013190148172
 20
21.73796558446969
 30
0.0
 11
5.543013190148172
 21
22.08312466926981
 31
0.0
  0
LINE
  5
138
330
2
100
AcDbEntity
  8
GAIKEI
  6
HIDDEN2
 62
     1
100
AcDbLine
 10
5.543196525948161
 20
21.71766269166977
 30
0.0
 11
5.543196525948161
 21
22.10342756206973
 31
0.0
  0
LINE
  5
139
330
2
100
AcDbEntity
  8
GAIKEI
  6
HIDDEN2
 62
     1
100
AcDbLine
 10
5.543400344348185
 20
21.69735999426979
 30
0.0
 11
5.543400344348185
 21
22.12373025946971
 31
0.0
  0
LINE
  5
13A
330
2
100
AcDbEntity
  8
GAIKEI
  6
HIDDEN2
 62
     1
100
AcDbLine
 10
5.54362471074819
 20
21.67705751346983
 30
0.0
 11
5.54362471074819
 21
22.14403274026989
 31
0.0
  0
LINE
  5
13B
330
2
100
AcDbEntity
  8
GAIKEI
  6
HIDDEN2
 62
     1
100
AcDbLine
 10
5.54386968274818
 20
21.65675527086972
 30
0.0
 11
5.54386968274818
 21
22.16433498286978
 31
0.0
  0
LINE
  5
13C
330
2
100
AcDbEntity
  8
GAIKEI
  6
HIDDEN2
 62
     1
100
AcDbLine
 10
5.544135277948186
 20
21.63645328766978
 30
0.0
 11
5.544135277948186
 21
22.18463696606972
 31
0.0
  0
LINE
  5
13D
330
2
100
AcDbEntity
  8
GAIKEI
  6
HIDDEN2
 62
     1
100
AcDbLine
 10
5.544421496148203
 20
21.61615158446983
 30
0.0
 11
5.544421496148203
 21
22.2049386692699
 31
0.0
  0
LINE
  5
13E
330
2
100
AcDbEntity
  8
GAIKEI
  6
HIDDEN2
 62
     1
100
AcDbLine
 10
5.544728414148181
 20
21.59585018386991
 30
0.0
 11
5.544728414148181
 21
22.22524006986981
 31
0.0
  0
LINE
  5
13F
330
2
100
AcDbEntity
  8
GAIKEI
  6
HIDDEN2
 62
     1
100
AcDbLine
 10
5.545056143948187
 20
21.57554910846983
 30
0.0
 11
5.545056143948187
 21
22.2455411452699
 31
0.0
  0
LINE
  5
140
330
2
100
AcDbEntity
  8
GAIKEI
  6
HIDDEN2
 62
     1
100
AcDbLine
 10
5.545404714348194
 20
21.5552483802698
 30
0.0
 11
5.545404714348194
 21
22.2658418734697
 31
0.0
  0
LINE
  5
141
330
2
100
AcDbEntity
  8
GAIKEI
  6
HIDDEN2
 62
     1
100
AcDbLine
 10
5.545774117548177
 20
21.5349480204697
 30
0.0
 11
5.545774117548177
 21
22.2861422332698
 31
0.0
  0
LINE
  5
142
330
2
100
AcDbEntity
  8
GAIKEI
  6
HIDDEN2
 62
     1
100
AcDbLine
 10
5.546164412148186
 20
21.51464805146992
 30
0.0
 11
5.546164412148186
 21
22.30644220226981
 31
0.0
  0
LINE
  5
143
330
2
100
AcDbEntity
  8
GAIKEI
  6
HIDDEN2
 62
     1
100
AcDbLine
 10
5.546575691148206
 20
21.49434849666994
 30
0.0
 11
5.546575691148206
 21
22.32674175706979
 31
0.0
  0
LINE
  5
144
330
2
100
AcDbEntity
  8
GAIKEI
  6
HIDDEN2
 62
     1
100
AcDbLine
 10
5.547008059748179
 20
21.47404938026983
 30
0.0
 11
5.547008059748179
 21
22.34704087346967
 31
0.0
  0
LINE
  5
145
330
2
100
AcDbEntity
  8
GAIKEI
  6
HIDDEN2
 62
     1
100
AcDbLine
 10
5.547461625548208
 20
21.45375072626979
 30
0.0
 11
5.547461625548208
 21
22.36733952746971
 31
0.0
  0
LINE
  5
146
330
2
100
AcDbEntity
  8
GAIKEI
  6
HIDDEN2
 62
     1
100
AcDbLine
 10
5.547936478748198
 20
21.43345255926982
 30
0.0
 11
5.547936478748198
 21
22.3876376944699
 31
0.0
  0
LINE
  5
147
330
2
100
AcDbEntity
  8
GAIKEI
  6
HIDDEN2
 62
     1
100
AcDbLine
 10
5.548432694948161
 20
21.41315490306983
 30
0.0
 11
5.548432694948161
 21
22.4079353506699
 31
0.0
  0
LINE
  5
148
330
2
100
AcDbEntity
  8
GAIKEI
  6
HIDDEN2
 62
     1
100
AcDbLine
 10
5.548950307348178
 20
21.39285778126981
 30
0.0
 11
5.548950307348178
 21
22.42823247246992
 31
0.0
  0
LINE
  5
149
330
2
100
AcDbEntity
  8
GAIKEI
  6
HIDDEN2
 62
     1
100
AcDbLine
 10
5.549489347748192
 20
21.37256121726972
 30
0.0
 11
5.549489347748192
 21
22.44852903646978
 31
0.0
  0
LINE
  5
14A
330
2
100
AcDbEntity
  8
GAIKEI
  6
HIDDEN2
 62
     1
100
AcDbLine
 10
5.550049936748195
 20
21.35226523706973
 30
0.0
 11
5.550049936748195
 21
22.46882501667
 31
0.0
  0
LINE
  5
14B
330
2
100
AcDbEntity
  8
GAIKEI
  6
HIDDEN2
 62
     1
100
AcDbLine
 10
5.550632225548184
 20
21.33196986766979
 30
0.0
 11
5.550632225548184
 21
22.48912038606972
 31
0.0
  0
LINE
  5
14C
330
2
100
AcDbEntity
  8
GAIKEI
  6
HIDDEN2
 62
     1
100
AcDbLine
 10
5.551236359948177
 20
21.31167513666986
 30
0.0
 11
5.551236359948177
 21
22.50941511706963
 31
0.0
  0
LINE
  5
14D
330
2
100
AcDbEntity
  8
GAIKEI
  6
HIDDEN2
 62
     1
100
AcDbLine
 10
5.551862468748169
 20
21.29138107186981
 30
0.0
 11
5.551862468748169
 21
22.52970918186969
 31
0.0
  0
LINE
  5
14E
330
2
100
AcDbEntity
  8
GAIKEI
  6
HIDDEN2
 62
     1
100
AcDbLine
 10
5.552510611548171
 20
21.27108769866976
 30
0.0
 11
5.552510611548171
 21
22.55000255506974
 31
0.0
  0
LINE
  5
14F
330
2
100
AcDbEntity
  8
GAIKEI
  6
HIDDEN2
 62
     1
100
AcDbLine
 10
5.55318084434819
 20
21.25079504306967
 30
0.0
 11
5.55318084434819
 21
22.57029521066983
 31
0.0
  0
LINE
  5
150
330
2
100
AcDbEntity
  8
GAIKEI
  6
HIDDEN2
 62
     1
100
AcDbLine
 10
5.553873299748175
 20
21.23050313366997
 30
0.0
 11
5.553873299748175
 21
22.59058712006976
 31
0.0
  0
LINE
  5
151
330
2
100
AcDbEntity
  8
GAIKEI
  6
HIDDEN2
 62
     1
100
AcDbLine
 10
5.554588123748175
 20
21.21021199986984
 30
0.0
 11
5.554588123748175
 21
22.61087825386988
 31
0.0
  0
LINE
  5
152
330
2
100
AcDbEntity
  8
GAIKEI
  6
HIDDEN2
 62
     1
100
AcDbLine
 10
5.555325435148176
 20
21.18992167066989
 30
0.0
 11
5.555325435148176
 21
22.63116858306984
 31
0.0
  0
LINE
  5
153
330
2
100
AcDbEntity
  8
GAIKEI
  6
HIDDEN2
 62
     1
100
AcDbLine
 10
5.556085354948208
 20
21.16963217566985
 30
0.0
 11
5.556085354948208
 21
22.65145807806988
 31
0.0
  0
LINE
  5
154
330
2
100
AcDbEntity
  8
GAIKEI
  6
HIDDEN2
 62
     1
100
AcDbLine
 10
5.55686803514817
 20
21.14934354566998
 30
0.0
 11
5.55686803514817
 21
22.67174670806975
 31
0.0
  0
LINE
  5
155
330
2
100
AcDbEntity
  8
GAIKEI
  6
HIDDEN2
 62
     1
100
AcDbLine
 10
5.557673636548173
 20
21.1290558130699
 30
0.0
 11
5.557673636548173
 21
22.69203444066983
 31
0.0
  0
LINE
  5
156
330
2
100
AcDbEntity
  8
GAIKEI
  6
HIDDEN2
 62
     1
100
AcDbLine
 10
5.558502323148189
 20
21.10876901006981
 30
0.0
 11
5.558502323148189
 21
22.71232124366992
 31
0.0
  0
LINE
  5
157
330
2
100
AcDbEntity
  8
GAIKEI
  6
HIDDEN2
 62
     1
100
AcDbLine
 10
5.559354244548188
 20
21.08848316966982
 30
0.0
 11
5.559354244548188
 21
22.73260708406969
 31
0.0
  0
LINE
  5
158
330
2
100
AcDbEntity
  8
GAIKEI
  6
HIDDEN2
 62
     1
100
AcDbLine
 10
5.560229503548185
 20
21.06819832266996
 30
0.0
 11
5.560229503548185
 21
22.75289193106977
 31
0.0
  0
LINE
  5
159
330
2
100
AcDbEntity
  8
GAIKEI
  6
HIDDEN2
 62
     1
100
AcDbLine
 10
5.561128221548187
 20
21.04791450126976
 30
0.0
 11
5.561128221548187
 21
22.77317575246974
 31
0.0
  0
LINE
  5
15A
330
2
100
AcDbEntity
  8
GAIKEI
  6
HIDDEN2
 62
     1
100
AcDbLine
 10
5.562050598748186
 20
21.02763174206979
 30
0.0
 11
5.562050598748186
 21
22.79345851166994
 31
0.0
  0
LINE
  5
15B
330
2
100
AcDbEntity
  8
GAIKEI
  6
HIDDEN2
 62
     1
100
AcDbLine
 10
5.562996824348175
 20
21.00735008146984
 30
0.0
 11
5.562996824348175
 21
22.81374017226989
 31
0.0
  0
LINE
  5
15C
330
2
100
AcDbEntity
  8
GAIKEI
  6
HIDDEN2
 62
     1
100
AcDbLine
 10
5.563967022148204
 20
20.98706955326992
 30
0.0
 11
5.563967022148204
 21
22.83402070046981
 31
0.0
  0
LINE
  5
15D
330
2
100
AcDbEntity
  8
GAIKEI
  6
HIDDEN2
 62
     1
100
AcDbLine
 10
5.564961338348183
 20
20.96679019326979
 30
0.0
 11
5.564961338348183
 21
22.85430006046971
 31
0.0
  0
LINE
  5
15E
330
2
100
AcDbEntity
  8
GAIKEI
  6
HIDDEN2
 62
     1
100
AcDbLine
 10
5.56597999874819
 20
20.94651204166979
 30
0.0
 11
5.56597999874819
 21
22.87457821206971
 31
0.0
  0
LINE
  5
15F
330
2
100
AcDbEntity
  8
GAIKEI
  6
HIDDEN2
 62
     1
100
AcDbLine
 10
5.567023215948182
 20
20.92623513826987
 30
0.0
 11
5.567023215948182
 21
22.89485511546985
 31
0.0
  0
LINE
  5
160
330
2
100
AcDbEntity
  8
GAIKEI
  6
HIDDEN2
 62
     1
100
AcDbLine
 10
5.56809114714818
 20
20.90595952146981
 30
0.0
 11
5.56809114714818
 21
22.91513073226992
 31
0.0
  0
LINE
  5
161
330
2
100
AcDbEntity
  8
GAIKEI
  6
HIDDEN2
 62
     1
100
AcDbLine
 10
5.569183962748184
 20
20.88568523046973
 30
0.0
 11
5.569183962748184
 21
22.93540502326977
 31
0.0
  0
LINE
  5
162
330
2
100
AcDbEntity
  8
GAIKEI
  6
HIDDEN2
 62
     1
100
AcDbLine
 10
5.570301875348178
 20
20.86541230806978
 30
0.0
 11
5.570301875348178
 21
22.95567794566995
 31
0.0
  0
LINE
  5
163
330
2
100
AcDbEntity
  8
GAIKEI
  6
HIDDEN2
 62
     1
100
AcDbLine
 10
5.571445092148167
 20
20.84514079666991
 30
0.0
 11
5.571445092148167
 21
22.97594945706982
 31
0.0
  0
LINE
  5
164
330
2
100
AcDbEntity
  8
GAIKEI
  6
HIDDEN2
 62
     1
100
AcDbLine
 10
5.572613799148172
 20
20.82487073866986
 30
0.0
 11
5.572613799148172
 21
22.99621951506964
 31
0.0
  0
LINE
  5
165
330
2
100
AcDbEntity
  8
GAIKEI
  6
HIDDEN2
 62
     1
100
AcDbLine
 10
5.573808202148171
 20
20.80460217866988
 30
0.0
 11
5.573808202148171
 21
23.01648807506984
 31
0.0
  0
LINE
  5
166
330
2
100
AcDbEntity
  8
GAIKEI
  6
HIDDEN2
 62
     1
100
AcDbLine
 10
5.5750285483482
 20
20.7843351638698
 30
0.0
 11
5.5750285483482
 21
23.03675508986993
 31
0.0
  0
LINE
  5
167
330
2
100
AcDbEntity
  8
GAIKEI
  6
HIDDEN2
 62
     1
100
AcDbLine
 10
5.57627505794818
 20
20.76406974146988
 30
0.0
 11
5.57627505794818
 21
23.05702051226985
 31
0.0
  0
LINE
  5
168
330
2
100
AcDbEntity
  8
GAIKEI
  6
HIDDEN2
 62
     1
100
AcDbLine
 10
5.577547900148175
 20
20.74380595586985
 30
0.0
 11
5.577547900148175
 21
23.07728429786988
 31
0.0
  0
LINE
  5
169
330
2
100
AcDbEntity
  8
GAIKEI
  6
HIDDEN2
 62
     1
100
AcDbLine
 10
5.578847284948182
 20
20.72354385486978
 30
0.0
 11
5.578847284948182
 21
23.09754639886973
 31
0.0
  0
LINE
  5
16A
330
2
100
AcDbEntity
  8
GAIKEI
  6
HIDDEN2
 62
     1
100
AcDbLine
 10
5.58017349214819
 20
20.70328349186974
 30
0.0
 11
5.58017349214819
 21
23.11780676186976
 31
0.0
  0
LINE
  5
16B
330
2
100
AcDbEntity
  8
GAIKEI
  6
HIDDEN2
 62
     1
100
AcDbLine
 10
5.58152676954819
 20
20.68302491866979
 30
0.0
 11
5.58152676954819
 21
23.13806533506971
 31
0.0
  0
LINE
  5
16C
330
2
100
AcDbEntity
  8
GAIKEI
  6
HIDDEN2
 62
     1
100
AcDbLine
 10
5.58290731194819
 20
20.66276818526984
 30
0.0
 11
5.58290731194819
 21
23.15832206846966
 31
0.0
  0
LINE
  5
16D
330
2
100
AcDbEntity
  8
GAIKEI
  6
HIDDEN2
 62
     1
100
AcDbLine
 10
5.584315351948163
 20
20.64251334446971
 30
0.0
 11
5.584315351948163
 21
23.17857690926979
 31
0.0
  0
LINE
  5
16E
330
2
100
AcDbEntity
  8
GAIKEI
  6
HIDDEN2
 62
     1
100
AcDbLine
 10
5.585751179148189
 20
20.62226045446977
 30
0.0
 11
5.585751179148189
 21
23.19882979926973
 31
0.0
  0
LINE
  5
16F
330
2
100
AcDbEntity
  8
GAIKEI
  6
HIDDEN2
 62
     1
100
AcDbLine
 10
5.587215080348187
 20
20.60200957426986
 30
0.0
 11
5.587215080348187
 21
23.21908067946987
 31
0.0
  0
LINE
  5
170
330
2
100
AcDbEntity
  8
GAIKEI
  6
HIDDEN2
 62
     1
100
AcDbLine
 10
5.588707332348178
 20
20.58176076326976
 30
0.0
 11
5.588707332348178
 21
23.23932949046974
 31
0.0
  0
LINE
  5
171
330
2
100
AcDbEntity
  8
GAIKEI
  6
HIDDEN2
 62
     1
100
AcDbLine
 10
5.590228192748185
 20
20.56151408086993
 30
0.0
 11
5.590228192748185
 21
23.2595761728698
 31
0.0
  0
LINE
  5
172
330
2
100
AcDbEntity
  8
GAIKEI
  6
HIDDEN2
 62
     1
100
AcDbLine
 10
5.591777897548183
 20
20.5412695856698
 30
0.0
 11
5.591777897548183
 21
23.27982066806971
 31
0.0
  0
LINE
  5
173
330
2
100
AcDbEntity
  8
GAIKEI
  6
HIDDEN2
 62
     1
100
AcDbLine
 10
5.593356693148194
 20
20.52102733846977
 30
0.0
 11
5.593356693148194
 21
23.30006291526974
 31
0.0
  0
LINE
  5
174
330
2
100
AcDbEntity
  8
GAIKEI
  6
HIDDEN2
 62
     1
100
AcDbLine
 10
5.594964839748172
 20
20.50078740146972
 30
0.0
 11
5.594964839748172
 21
23.32030285226978
 31
0.0
  0
LINE
  5
175
330
2
100
AcDbEntity
  8
GAIKEI
  6
HIDDEN2
 62
     1
100
AcDbLine
 10
5.59660264034818
 20
20.48054984266986
 30
0.0
 11
5.59660264034818
 21
23.34054041106987
 31
0.0
  0
LINE
  5
176
330
2
100
AcDbEntity
  8
GAIKEI
  6
HIDDEN2
 62
     1
100
AcDbLine
 10
5.598270439348198
 20
20.46031473386978
 30
0.0
 11
5.598270439348198
 21
23.36077551986995
 31
0.0
  0
LINE
  5
177
330
2
100
AcDbEntity
  8
GAIKEI
  6
HIDDEN2
 62
     1
100
AcDbLine
 10
5.59996854534819
 20
20.44008214546983
 30
0.0
 11
5.59996854534819
 21
23.3810081082699
 31
0.0
  0
LINE
  5
178
330
2
100
AcDbEntity
  8
GAIKEI
  6
HIDDEN2
 62
     1
100
AcDbLine
 10
5.601697230148175
 20
20.41985214686969
 30
0.0
 11
5.601697230148175
 21
23.40123810686981
 31
0.0
  0
LINE
  5
179
330
2
100
AcDbEntity
  8
GAIKEI
  6
HIDDEN2
 62
     1
100
AcDbLine
 10
5.60345679674819
 20
20.39962481086985
 30
0.0
 11
5.60345679674819
 21
23.42146544286987
 31
0.0
  0
LINE
  5
17A
330
2
100
AcDbEntity
  8
GAIKEI
  6
HIDDEN2
 62
     1
100
AcDbLine
 10
5.605247577548198
 20
20.37940021426988
 30
0.0
 11
5.605247577548198
 21
23.44169003946985
 31
0.0
  0
LINE
  5
17B
330
2
100
AcDbEntity
  8
GAIKEI
  6
HIDDEN2
 62
     1
100
AcDbLine
 10
5.607069886348199
 20
20.35917843386977
 30
0.0
 11
5.607069886348199
 21
23.46191181986973
 31
0.0
  0
LINE
  5
17C
330
2
100
AcDbEntity
  8
GAIKEI
  6
HIDDEN2
 62
     1
100
AcDbLine
 10
5.60892402234819
 20
20.33895954666986
 30
0.0
 11
5.60892402234819
 21
23.48213070706965
 31
0.0
  0
LINE
  5
17D
330
2
100
AcDbEntity
  8
GAIKEI
  6
HIDDEN2
 62
     1
100
AcDbLine
 10
5.610810324348193
 20
20.3187436350699
 30
0.0
 11
5.610810324348193
 21
23.50234661866983
 31
0.0
  0
LINE
  5
17E
330
2
100
AcDbEntity
  8
GAIKEI
  6
HIDDEN2
 62
     1
100
AcDbLine
 10
5.612729159348191
 20
20.29853078526975
 30
0.0
 11
5.612729159348191
 21
23.52255946846975
 31
0.0
  0
LINE
  5
17F
330
2
100
AcDbEntity
  8
GAIKEI
  6
HIDDEN2
 62
     1
100
AcDbLine
 10
5.614680828948195
 20
20.27832107926991
 30
0.0
 11
5.614680828948195
 21
23.54276917446981
 31
0.0
  0
LINE
  5
180
330
2
100
AcDbEntity
  8
GAIKEI
  6
HIDDEN2
 62
     1
100
AcDbLine
 10
5.61666559294818
 20
20.25811459626988
 30
0.0
 11
5.61666559294818
 21
23.56297565746985
 31
0.0
  0
LINE
  5
181
330
2
100
AcDbEntity
  8
GAIKEI
  6
HIDDEN2
 62
     1
100
AcDbLine
 10
5.61868384874819
 20
20.23791143086981
 30
0.0
 11
5.61868384874819
 21
23.58317882286968
 31
0.0
  0
LINE
  5
182
330
2
100
AcDbEntity
  8
GAIKEI
  6
HIDDEN2
 62
     1
100
AcDbLine
 10
5.620736084348209
 20
20.21771168906974
 30
0.0
 11
5.620736084348209
 21
23.60337856466998
 31
0.0
  0
LINE
  5
183
330
2
100
AcDbEntity
  8
GAIKEI
  6
HIDDEN2
 62
     1
100
AcDbLine
 10
5.62282262574817
 20
20.19751546166975
 30
0.0
 11
5.62282262574817
 21
23.62357479206975
 31
0.0
  0
LINE
  5
184
330
2
100
AcDbEntity
  8
GAIKEI
  6
HIDDEN2
 62
     1
100
AcDbLine
 10
5.624943698348175
 20
20.17732283126992
 30
0.0
 11
5.624943698348175
 21
23.64376742246981
 31
0.0
  0
LINE
  5
185
330
2
100
AcDbEntity
  8
GAIKEI
  6
HIDDEN2
 62
     1
100
AcDbLine
 10
5.627099691948188
 20
20.15713389966999
 30
0.0
 11
5.627099691948188
 21
23.66395635406974
 31
0.0
  0
LINE
  5
186
330
2
100
AcDbEntity
  8
GAIKEI
  6
HIDDEN2
 62
     1
100
AcDbLine
 10
5.629291101148197
 20
20.1369487814697
 30
0.0
 11
5.629291101148197
 21
23.6841414722698
 31
0.0
  0
LINE
  5
187
330
2
100
AcDbEntity
  8
GAIKEI
  6
HIDDEN2
 62
     1
100
AcDbLine
 10
5.631518343948187
 20
20.11676758526977
 30
0.0
 11
5.631518343948187
 21
23.70432266846973
 31
0.0
  0
LINE
  5
188
330
2
100
AcDbEntity
  8
GAIKEI
  6
HIDDEN2
 62
     1
100
AcDbLine
 10
5.633781783948194
 20
20.0965904168699
 30
0.0
 11
5.633781783948194
 21
23.72449983686983
 31
0.0
  0
LINE
  5
189
330
2
100
AcDbEntity
  8
GAIKEI
  6
HIDDEN2
 62
     1
100
AcDbLine
 10
5.636081742948164
 20
20.07641737826992
 30
0.0
 11
5.636081742948164
 21
23.7446728754698
 31
0.0
  0
LINE
  5
18A
330
2
100
AcDbEntity
  8
GAIKEI
  6
HIDDEN2
 62
     1
100
AcDbLine
 10
5.63841853194819
 20
20.05624857246989
 30
0.0
 11
5.63841853194819
 21
23.76484168126984
 31
0.0
  0
LINE
  5
18B
330
2
100
AcDbEntity
  8
GAIKEI
  6
HIDDEN2
 62
     1
100
AcDbLine
 10
5.640792611148185
 20
20.0360841220699
 30
0.0
 11
5.640792611148185
 21
23.78500613166983
 31
0.0
  0
LINE
  5
18C
330
2
100
AcDbEntity
  8
GAIKEI
  6
HIDDEN2
 62
     1
100
AcDbLine
 10
5.643204514348184
 20
20.01592416066973
 30
0.0
 11
5.643204514348184
 21
23.80516609306977
 31
0.0
  0
LINE
  5
18D
330
2
100
AcDbEntity
  8
GAIKEI
  6
HIDDEN2
 62
     1
100
AcDbLine
 10
5.645654659148192
 20
19.99576881086972
 30
0.0
 11
5.645654659148192
 21
23.82532144286978
 31
0.0
  0
LINE
  5
18E
330
2
100
AcDbEntity
  8
GAIKEI
  6
HIDDEN2
 62
     1
100
AcDbLine
 10
5.648143402548186
 20
19.97561819066999
 30
0.0
 11
5.648143402548186
 21
23.84547206306974
 31
0.0
  0
LINE
  5
18F
330
2
100
AcDbEntity
  8
GAIKEI
  6
HIDDEN2
 62
     1
100
AcDbLine
 10
5.650671131148186
 20
19.95547242346987
 30
0.0
 11
5.650671131148186
 21
23.86561783026985
 31
0.0
  0
LINE
  5
190
330
2
100
AcDbEntity
  8
GAIKEI
  6
HIDDEN2
 62
     1
100
AcDbLine
 10
5.653238255948195
 20
19.93533163826981
 30
0.0
 11
5.653238255948195
 21
23.88575861546991
 31
0.0
  0
LINE
  5
191
330
2
100
AcDbEntity
  8
GAIKEI
  6
HIDDEN2
 62
     1
100
AcDbLine
 10
5.655845264548162
 20
19.91519597666996
 30
0.0
 11
5.655845264548162
 21
23.90589427706976
 31
0.0
  0
LINE
  5
192
330
2
100
AcDbEntity
  8
GAIKEI
  6
HIDDEN2
 62
     1
100
AcDbLine
 10
5.658492674748174
 20
19.89506558666988
 30
0.0
 11
5.658492674748174
 21
23.92602466706984
 31
0.0
  0
LINE
  5
193
330
2
100
AcDbEntity
  8
GAIKEI
  6
HIDDEN2
 62
     1
100
AcDbLine
 10
5.661180929748184
 20
19.87494061046976
 30
0.0
 11
5.661180929748184
 21
23.94614964326996
 31
0.0
  0
LINE
  5
194
330
2
100
AcDbEntity
  8
GAIKEI
  6
HIDDEN2
 62
     1
100
AcDbLine
 10
5.663910438348182
 20
19.85482118746989
 30
0.0
 11
5.663910438348182
 21
23.96626906626983
 31
0.0
  0
LINE
  5
195
330
2
100
AcDbEntity
  8
GAIKEI
  6
HIDDEN2
 62
     1
100
AcDbLine
 10
5.666681627348168
 20
19.83470746306983
 30
0.0
 11
5.666681627348168
 21
23.9863827906699
 31
0.0
  0
LINE
  5
196
330
2
100
AcDbEntity
  8
GAIKEI
  6
HIDDEN2
 62
     1
100
AcDbLine
 10
5.66949494214819
 20
19.81459958686986
 30
0.0
 11
5.66949494214819
 21
24.00649066686987
 31
0.0
  0
LINE
  5
197
330
2
100
AcDbEntity
  8
GAIKEI
  6
HIDDEN2
 62
     1
100
AcDbLine
 10
5.672350909148178
 20
19.79449772426977
 30
0.0
 11
5.672350909148178
 21
24.02659252946973
 31
0.0
  0
LINE
  5
198
330
2
100
AcDbEntity
  8
GAIKEI
  6
HIDDEN2
 62
     1
100
AcDbLine
 10
5.675250081148192
 20
19.77440204706971
 30
0.0
 11
5.675250081148192
 21
24.04668820666979
 31
0.0
  0
LINE
  5
199
330
2
100
AcDbEntity
  8
GAIKEI
  6
HIDDEN2
 62
     1
100
AcDbLine
 10
5.678192930148185
 20
19.75431271946985
 30
0.0
 11
5.678192930148185
 21
24.06677753426988
 31
0.0
  0
LINE
  5
19A
330
2
100
AcDbEntity
  8
GAIKEI
  6
HIDDEN2
 62
     1
100
AcDbLine
 10
5.681179896348197
 20
19.73422990346984
 30
0.0
 11
5.681179896348197
 21
24.08686035026989
 31
0.0
  0
LINE
  5
19B
330
2
100
AcDbEntity
  8
GAIKEI
  6
HIDDEN2
 62
     1
100
AcDbLine
 10
6.051703391548187
 20
16.05054512686973
 30
0.0
 11
6.191703391548173
 21
15.91054512686986
 31
0.0
  0
LINE
  5
19C
330
2
100
AcDbEntity
  8
GAIKEI
  6
HIDDEN2
 62
     1
100
AcDbLine
 10
5.891688852548185
 20
16.35054512686969
 30
0.0
 11
5.991688852548179
 21
16.25054512686978
 31
0.0
  0
LINE
  5
19D
330
2
100
AcDbEntity
  8
GAIKEI
  6
HIDDEN2
 62
     1
100
AcDbLine
 10
5.991688852548179
 20
16.25054512686978
 30
0.0
 11
6.051703391548187
 21
16.25054512686978
 31
0.0
  0
LINE
  5
19E
330
2
100
AcDbEntity
  8
GAIKEI
  6
HIDDEN2
 62
     1
100
AcDbLine
 10
5.542278043548179
 20
21.91054512686986
 30
0.0
 11
5.542280607948185
 21
21.90039325246965
 31
0.0
  0
LINE
  5
19F
330
2
100
AcDbEntity
  8
GAIKEI
  6
HIDDEN2
 62
     1
100
AcDbLine
 10
5.542280607948185
 20
21.92069700126984
 30
0.0
 11
5.542278043548179
 21
21.91054512686986
 31
0.0
  0
LINE
  5
1A0
330
2
100
AcDbEntity
  8
GAIKEI
  6
HIDDEN2
 62
     1
100
AcDbLine
 10
5.542280607948185
 20
21.90039325246965
 30
0.0
 11
5.542300889148179
 21
21.88008954886976
 31
0.0
  0
LINE
  5
1A1
330
2
100
AcDbEntity
  8
GAIKEI
  6
HIDDEN2
 62
     1
100
AcDbLine
 10
5.542300889148179
 20
21.94100070486974
 30
0.0
 11
5.542280607948185
 21
21.92069700126984
 31
0.0
  0
LINE
  5
1A2
330
2
100
AcDbEntity
  8
GAIKEI
  6
HIDDEN2
 62
     1
100
AcDbLine
 10
5.542300889148179
 20
21.88008954886976
 30
0.0
 11
5.542341513548194
 21
21.85978588026995
 31
0.0
  0
LINE
  5
1A3
330
2
100
AcDbEntity
  8
GAIKEI
  6
HIDDEN2
 62
     1
100
AcDbLine
 10
5.542341513548194
 20
21.96130437346977
 30
0.0
 11
5.542300889148179
 21
21.94100070486974
 31
0.0
  0
LINE
  5
1A4
330
2
100
AcDbEntity
  8
GAIKEI
  6
HIDDEN2
 62
     1
100
AcDbLine
 10
5.542341513548194
 20
21.85978588026995
 30
0.0
 11
5.542402533548198
 21
21.83948224946965
 31
0.0
  0
LINE
  5
1A5
330
2
100
AcDbEntity
  8
GAIKEI
  6
HIDDEN2
 62
     1
100
AcDbLine
 10
5.542402533548198
 20
21.98160800426984
 30
0.0
 11
5.542341513548194
 21
21.96130437346977
 31
0.0
  0
LINE
  5
1A6
330
2
100
AcDbEntity
  8
GAIKEI
  6
HIDDEN2
 62
     1
100
AcDbLine
 10
5.542402533548198
 20
21.83948224946965
 30
0.0
 11
5.542483897148173
 21
21.81917868926979
 31
0.0
  0
LINE
  5
1A7
330
2
100
AcDbEntity
  8
GAIKEI
  6
HIDDEN2
 62
     1
100
AcDbLine
 10
5.542483897148173
 20
22.00191156446971
 30
0.0
 11
5.542402533548198
 21
21.98160800426984
 31
0.0
  0
LINE
  5
1A8
330
2
100
AcDbEntity
  8
GAIKEI
  6
HIDDEN2
 62
     1
100
AcDbLine
 10
5.542483897148173
 20
21.81917868926979
 30
0.0
 11
5.542585610948208
 21
21.79887522406983
 31
0.0
  0
LINE
  5
1A9
330
2
100
AcDbEntity
  8
GAIKEI
  6
HIDDEN2
 62
     1
100
AcDbLine
 10
5.542585610948208
 20
22.0222150296699
 30
0.0
 11
5.542483897148173
 21
22.00191156446971
 31
0.0
  0
LINE
  5
1AA
330
2
100
AcDbEntity
  8
GAIKEI
  6
HIDDEN2
 62
     1
100
AcDbLine
 10
5.542585610948208
 20
21.79887522406983
 30
0.0
 11
5.542707732148187
 21
21.77857187166996
 31
0.0
  0
LINE
  5
1AB
330
2
100
AcDbEntity
  8
GAIKEI
  6
HIDDEN2
 62
     1
100
AcDbLine
 10
5.542707732148187
 20
22.04251838206977
 30
0.0
 11
5.542585610948208
 21
22.0222150296699
 31
0.0
  0
LINE
  5
1AC
330
2
100
AcDbEntity
  8
GAIKEI
  6
HIDDEN2
 62
     1
100
AcDbLine
 10
5.542707732148187
 20
21.77857187166996
 30
0.0
 11
5.542850267948182
 21
21.75826865146968
 31
0.0
  0
LINE
  5
1AD
330
2
100
AcDbEntity
  8
GAIKEI
  6
HIDDEN2
 62
     1
100
AcDbLine
 10
5.542850267948182
 20
22.06282160226982
 30
0.0
 11
5.542707732148187
 21
22.04251838206977
 31
0.0
  0
LINE
  5
1AE
330
2
100
AcDbEntity
  8
GAIKEI
  6
HIDDEN2
 62
     1
100
AcDbLine
 10
5.542850267948182
 20
21.75826865146968
 30
0.0
 11
5.543013190148172
 21
21.73796558446969
 31
0.0
  0
LINE
  5
1AF
330
2
100
AcDbEntity
  8
GAIKEI
  6
HIDDEN2
 62
     1
100
AcDbLine
 10
5.543013190148172
 20
22.08312466926981
 30
0.0
 11
5.542850267948182
 21
22.06282160226982
 31
0.0
  0
LINE
  5
1B0
330
2
100
AcDbEntity
  8
GAIKEI
  6
HIDDEN2
 62
     1
100
AcDbLine
 10
5.543013190148172
 20
21.73796558446969
 30
0.0
 11
5.543196525948161
 21
21.71766269166977
 31
0.0
  0
LINE
  5
1B1
330
2
100
AcDbEntity
  8
GAIKEI
  6
HIDDEN2
 62
     1
100
AcDbLine
 10
5.543196525948161
 20
22.10342756206973
 30
0.0
 11
5.543013190148172
 21
22.08312466926981
 31
0.0
  0
LINE
  5
1B2
330
2
100
AcDbEntity
  8
GAIKEI
  6
HIDDEN2
 62
     1
100
AcDbLine
 10
5.543196525948161
 20
21.71766269166977
 30
0.0
 11
5.543400344348185
 21
21.69735999426979
 31
0.0
  0
LINE
  5
1B3
330
2
100
AcDbEntity
  8
GAIKEI
  6
HIDDEN2
 62
     1
100
AcDbLine
 10
5.543400344348185
 20
22.12373025946971
 30
0.0
 11
5.543196525948161
 21
22.10342756206973
 31
0.0
  0
LINE
  5
1B4
330
2
100
AcDbEntity
  8
GAIKEI
  6
HIDDEN2
 62
     1
100
AcDbLine
 10
5.543400344348185
 20
21.69735999426979
 30
0.0
 11
5.54362471074819
 21
21.67705751346983
 31
0.0
  0
LINE
  5
1B5
330
2
100
AcDbEntity
  8
GAIKEI
  6
HIDDEN2
 62
     1
100
AcDbLine
 10
5.54362471074819
 20
22.14403274026989
 30
0.0
 11
5.543400344348185
 21
22.12373025946971
 31
0.0
  0
LINE
  5
1B6
330
2
100
AcDbEntity
  8
GAIKEI
  6
HIDDEN2
 62
     1
100
AcDbLine
 10
5.54362471074819
 20
21.67705751346983
 30
0.0
 11
5.54386968274818
 21
21.65675527086972
 31
0.0
  0
LINE
  5
1B7
330
2
100
AcDbEntity
  8
GAIKEI
  6
HIDDEN2
 62
     1
100
AcDbLine
 10
5.54386968274818
 20
22.16433498286978
 30
0.0
 11
5.54362471074819
 21
22.14403274026989
 31
0.0
  0
LINE
  5
1B8
330
2
100
AcDbEntity
  8
GAIKEI
  6
HIDDEN2
 62
     1
100
AcDbLine
 10
5.54386968274818
 20
21.65675527086972
 30
0.0
 11
5.544135277948186
 21
21.63645328766978
 31
0.0
  0
LINE
  5
1B9
330
2
100
AcDbEntity
  8
GAIKEI
  6
HIDDEN2
 62
     1
100
AcDbLine
 10
5.544135277948186
 20
22.18463696606972
 30
0.0
 11
5.54386968274818
 21
22.16433498286978
 31
0.0
  0
LINE
  5
1BA
330
2
100
AcDbEntity
  8
GAIKEI
  6
HIDDEN2
 62
     1
100
AcDbLine
 10
5.544135277948186
 20
21.63645328766978
 30
0.0
 11
5.544421496148203
 21
21.61615158446983
 31
0.0
  0
LINE
  5
1BB
330
2
100
AcDbEntity
  8
GAIKEI
  6
HIDDEN2
 62
     1
100
AcDbLine
 10
5.544421496148203
 20
22.2049386692699
 30
0.0
 11
5.544135277948186
 21
22.18463696606972
 31
0.0
  0
LINE
  5
1BC
330
2
100
AcDbEntity
  8
GAIKEI
  6
HIDDEN2
 62
     1
100
AcDbLine
 10
5.548432694948161
 20
21.41315490306983
 30
0.0
 11
5.548950307348178
 21
21.39285778126981
 31
0.0
  0
LINE
  5
1BD
330
2
100
AcDbEntity
  8
GAIKEI
  6
HIDDEN2
 62
     1
100
AcDbLine
 10
5.548432694948161
 20
22.4079353506699
 30
0.0
 11
5.547936478748198
 21
22.3876376944699
 31
0.0
  0
LINE
  5
1BE
330
2
100
AcDbEntity
  8
GAIKEI
  6
HIDDEN2
 62
     1
100
AcDbLine
 10
5.547936478748198
 20
21.43345255926982
 30
0.0
 11
5.548432694948161
 21
21.41315490306983
 31
0.0
  0
LINE
  5
1BF
330
2
100
AcDbEntity
  8
GAIKEI
  6
HIDDEN2
 62
     1
100
AcDbLine
 10
5.547936478748198
 20
22.3876376944699
 30
0.0
 11
5.547461625548208
 21
22.36733952746971
 31
0.0
  0
LINE
  5
1C0
330
2
100
AcDbEntity
  8
GAIKEI
  6
HIDDEN2
 62
     1
100
AcDbLine
 10
5.547461625548208
 20
21.45375072626979
 30
0.0
 11
5.547936478748198
 21
21.43345255926982
 31
0.0
  0
LINE
  5
1C1
330
2
100
AcDbEntity
  8
GAIKEI
  6
HIDDEN2
 62
     1
100
AcDbLine
 10
5.547461625548208
 20
22.36733952746971
 30
0.0
 11
5.547008059748179
 21
22.34704087346967
 31
0.0
  0
LINE
  5
1C2
330
2
100
AcDbEntity
  8
GAIKEI
  6
HIDDEN2
 62
     1
100
AcDbLine
 10
5.547008059748179
 20
21.47404938026983
 30
0.0
 11
5.547461625548208
 21
21.45375072626979
 31
0.0
  0
LINE
  5
1C3
330
2
100
AcDbEntity
  8
GAIKEI
  6
HIDDEN2
 62
     1
100
AcDbLine
 10
5.547008059748179
 20
22.34704087346967
 30
0.0
 11
5.546575691148206
 21
22.32674175706979
 31
0.0
  0
LINE
  5
1C4
330
2
100
AcDbEntity
  8
GAIKEI
  6
HIDDEN2
 62
     1
100
AcDbLine
 10
5.546575691148206
 20
21.49434849666994
 30
0.0
 11
5.547008059748179
 21
21.47404938026983
 31
0.0
  0
LINE
  5
1C5
330
2
100
AcDbEntity
  8
GAIKEI
  6
HIDDEN2
 62
     1
100
AcDbLine
 10
5.546575691148206
 20
22.32674175706979
 30
0.0
 11
5.546164412148186
 21
22.30644220226981
 31
0.0
  0
LINE
  5
1C6
330
2
100
AcDbEntity
  8
GAIKEI
  6
HIDDEN2
 62
     1
100
AcDbLine
 10
5.546164412148186
 20
21.51464805146992
 30
0.0
 11
5.546575691148206
 21
21.49434849666994
 31
0.0
  0
LINE
  5
1C7
330
2
100
AcDbEntity
  8
GAIKEI
  6
HIDDEN2
 62
     1
100
AcDbLine
 10
5.546164412148186
 20
22.30644220226981
 30
0.0
 11
5.545774117548177
 21
22.2861422332698
 31
0.0
  0
LINE
  5
1C8
330
2
100
AcDbEntity
  8
GAIKEI
  6
HIDDEN2
 62
     1
100
AcDbLine
 10
5.545774117548177
 20
21.5349480204697
 30
0.0
 11
5.546164412148186
 21
21.51464805146992
 31
0.0
  0
LINE
  5
1C9
330
2
100
AcDbEntity
  8
GAIKEI
  6
HIDDEN2
 62
     1
100
AcDbLine
 10
5.545774117548177
 20
22.2861422332698
 30
0.0
 11
5.545404714348194
 21
22.2658418734697
 31
0.0
  0
LINE
  5
1CA
330
2
100
AcDbEntity
  8
GAIKEI
  6
HIDDEN2
 62
     1
100
AcDbLine
 10
5.545404714348194
 20
21.5552483802698
 30
0.0
 11
5.545774117548177
 21
21.5349480204697
 31
0.0
  0
LINE
  5
1CB
330
2
100
AcDbEntity
  8
GAIKEI
  6
HIDDEN2
 62
     1
100
AcDbLine
 10
5.545404714348194
 20
22.2658418734697
 30
0.0
 11
5.545056143948187
 21
22.2455411452699
 31
0.0
  0
LINE
  5
1CC
330
2
100
AcDbEntity
  8
GAIKEI
  6
HIDDEN2
 62
     1
100
AcDbLine
 10
5.545056143948187
 20
21.57554910846983
 30
0.0
 11
5.545404714348194
 21
21.5552483802698
 31
0.0
  0
LINE
  5
1CD
330
2
100
AcDbEntity
  8
GAIKEI
  6
HIDDEN2
 62
     1
100
AcDbLine
 10
5.545056143948187
 20
22.2455411452699
 30
0.0
 11
5.544728414148181
 21
22.22524006986981
 31
0.0
  0
LINE
  5
1CE
330
2
100
AcDbEntity
  8
GAIKEI
  6
HIDDEN2
 62
     1
100
AcDbLine
 10
5.544728414148181
 20
21.59585018386991
 30
0.0
 11
5.545056143948187
 21
21.57554910846983
 31
0.0
  0
LINE
  5
1CF
330
2
100
AcDbEntity
  8
GAIKEI
  6
HIDDEN2
 62
     1
100
AcDbLine
 10
5.544728414148181
 20
22.22524006986981
 30
0.0
 11
5.544421496148203
 21
22.2049386692699
 31
0.0
  0
LINE
  5
1D0
330
2
100
AcDbEntity
  8
GAIKEI
  6
HIDDEN2
 62
     1
100
AcDbLine
 10
5.544421496148203
 20
21.61615158446983
 30
0.0
 11
5.544728414148181
 21
21.59585018386991
 31
0.0
  0
LINE
  5
1D1
330
2
100
AcDbEntity
  8
GAIKEI
  6
Continuous
100
AcDbLine
 10
17.68807804354819
 20
21.94549170984982
 30
0.0
 11
17.68807804354819
 21
14.80997925732379
 31
0.0
  0
LINE
  5
1D2
330
2
100
AcDbEntity
  8
GAIKEI
  6
HIDDEN2
 62
     1
100
AcDbLine
 10
17.68807804354819
 20
18.34549170984979
 30
0.0
 11
17.58807804354816
 21
18.34549170984979
 31
0.0
  0
LINE
  5
1D3
330
2
100
AcDbEntity
  8
GAIKEI
  6
Continuous
 62
     1
100
AcDbLine
 10
18.90807804354799
 20
19.84549170984979
 30
0.0
 11
18.90807804354799
 21
21.04549170984979
 31
0.0
  0
LINE
  5
1D4
330
2
100
AcDbEntity
  8
GAIKEI
  6
Continuous
 62
     1
100
AcDbLine
 10
18.74807804354799
 20
19.68549170984983
 30
0.0
 11
18.74807804354799
 21
21.20549170984981
 31
0.0
  0
ARC
  5
1D5
330
2
100
AcDbEntity
  8
GAIKEI
  6
Continuous
 62
     1
100
AcDbCircle
 10
18.98807804354797
 20
21.20549170984981
 30
0.0
 40
0.24
100
AcDbArc
 50
90.0
 51
180.0
  0
ARC
  5
1D6
330
2
100
AcDbEntity
  8
GAIKEI
  6
Continuous
 62
     1
100
AcDbCircle
 10
18.98807804354797
 20
19.68549170984983
 30
0.0
 40
0.24
100
AcDbArc
 50
180.0
 51
270.0
  0
ARC
  5
1D7
330
2
100
AcDbEntity
  8
GAIKEI
  6
Continuous
 62
     1
100
AcDbCircle
 10
19.00807804354798
 20
21.04549170984979
 30
0.0
 40
0.1
100
AcDbArc
 50
90.0
 51
180.0
  0
ARC
  5
1D8
330
2
100
AcDbEntity
  8
GAIKEI
  6
Continuous
 62
     1
100
AcDbCircle
 10
19.00807804354798
 20
19.84549170984979
 30
0.0
 40
0.1
100
AcDbArc
 50
180.0
 51
270.0
  0
ARC
  5
1D9
330
2
100
AcDbEntity
  8
GAIKEI
  6
Continuous
100
AcDbCircle
 10
18.08807804354816
 20
14.80997925732379
 30
0.0
 40
0.4
100
AcDbArc
 50
180.0
 51
268.9999999999917
  0
CIRCLE
  5
1DA
330
2
100
AcDbEntity
  8
GAIKEI
  6
HIDDEN2
 62
     1
100
AcDbCircle
 10
16.9280780435482
 20
18.91054512686986
 30
0.0
 40
0.2444456748
  0
LINE
  5
1DB
330
2
100
AcDbEntity
  8
GAIKEI
  6
HIDDEN2
 62
     1
100
AcDbLine
 10
16.87215873574817
 20
18.90199930866987
 30
0.0
 11
16.8010985009482
 21
18.80530161966993
 31
0.0
  0
LINE
  5
1DC
330
2
100
AcDbEntity
  8
GAIKEI
  6
HIDDEN2
 62
     1
100
AcDbLine
 10
16.77546104674817
 20
18.97305954326992
 30
0.0
 11
16.87215873574817
 21
18.90199930866987
 31
0.0
  0
LINE
  5
1DD
330
2
100
AcDbEntity
  8
GAIKEI
  6
HIDDEN2
 62
     1
100
AcDbLine
 10
16.82283453654818
 20
19.03752466926988
 30
0.0
 11
16.77546104674817
 21
18.97305954326992
 31
0.0
  0
LINE
  5
1DE
330
2
100
AcDbEntity
  8
GAIKEI
  6
HIDDEN2
 62
     1
100
AcDbLine
 10
16.91953222554818
 20
18.96646443466983
 30
0.0
 11
16.82283453654818
 21
19.03752466926988
 31
0.0
  0
LINE
  5
1DF
330
2
100
AcDbEntity
  8
GAIKEI
  6
HIDDEN2
 62
     1
100
AcDbLine
 10
16.99059246014818
 20
19.06316212366977
 30
0.0
 11
16.91953222554818
 21
18.96646443466983
 31
0.0
  0
LINE
  5
1E0
330
2
100
AcDbEntity
  8
GAIKEI
  6
HIDDEN2
 62
     1
100
AcDbLine
 10
17.05505758614819
 20
19.0157886338697
 30
0.0
 11
16.99059246014818
 21
19.06316212366977
 31
0.0
  0
LINE
  5
1E1
330
2
100
AcDbEntity
  8
GAIKEI
  6
HIDDEN2
 62
     1
100
AcDbLine
 10
16.98399735134816
 20
18.91909094486976
 30
0.0
 11
17.05505758614819
 21
19.0157886338697
 31
0.0
  0
LINE
  5
1E2
330
2
100
AcDbEntity
  8
GAIKEI
  6
HIDDEN2
 62
     1
100
AcDbLine
 10
17.08069504034822
 20
18.84803071026994
 30
0.0
 11
16.98399735134816
 21
18.91909094486976
 31
0.0
  0
LINE
  5
1E3
330
2
100
AcDbEntity
  8
GAIKEI
  6
HIDDEN2
 62
     1
100
AcDbLine
 10
17.03332155054815
 20
18.78356558426975
 30
0.0
 11
17.08069504034822
 21
18.84803071026994
 31
0.0
  0
LINE
  5
1E4
330
2
100
AcDbEntity
  8
GAIKEI
  6
HIDDEN2
 62
     1
100
AcDbLine
 10
16.93662386154821
 20
18.8546258188698
 30
0.0
 11
17.03332155054815
 21
18.78356558426975
 31
0.0
  0
LINE
  5
1E5
330
2
100
AcDbEntity
  8
GAIKEI
  6
HIDDEN2
 62
     1
100
AcDbLine
 10
16.86556362694816
 20
18.75792812986986
 30
0.0
 11
16.93662386154821
 21
18.8546258188698
 31
0.0
  0
LINE
  5
1E6
330
2
100
AcDbEntity
  8
GAIKEI
  6
HIDDEN2
 62
     1
100
AcDbLine
 10
16.8010985009482
 20
18.80530161966993
 30
0.0
 11
16.86556362694816
 21
18.75792812986986
 31
0.0
  0
CIRCLE
  5
1E7
330
2
100
AcDbEntity
  8
GAIKEI
  6
HIDDEN2
 62
     1
100
AcDbCircle
 10
16.9280780435482
 20
18.91054512686986
 30
0.0
 40
0.2045978868
  0
LINE
  5
1E8
330
2
100
AcDbEntity
  8
GAIKEI
  6
HIDDEN2
 62
     1
100
AcDbLine
 10
17.58807804354816
 20
23.80033347466991
 30
0.0
 11
17.4880780435482
 21
23.95047159606969
 31
0.0
  0
LINE
  5
1E9
330
2
100
AcDbEntity
  8
GAIKEI
  6
HIDDEN2
 62
     1
100
AcDbLine
 10
17.58807804354816
 20
23.18054512686984
 30
0.0
 11
17.58807804354816
 21
23.80033347466991
 31
0.0
  0
LINE
  5
1EA
330
2
100
AcDbEntity
  8
GAIKEI
  6
HIDDEN2
 62
     1
100
AcDbLine
 10
17.58807804354816
 20
22.87065095286988
 30
0.0
 11
17.58807804354816
 21
23.18054512686984
 31
0.0
  0
LINE
  5
1EB
330
2
100
AcDbEntity
  8
GAIKEI
  6
HIDDEN2
 62
     1
100
AcDbLine
 10
17.4880780435482
 20
23.18054512686984
 30
0.0
 11
17.58807804354816
 21
23.18054512686984
 31
0.0
  0
LINE
  5
1EC
330
2
100
AcDbEntity
  8
GAIKEI
  6
HIDDEN2
 62
     1
100
AcDbLine
 10
17.4880780435482
 20
22.79558189206972
 30
0.0
 11
17.58807804354816
 21
22.87065095286988
 31
0.0
  0
LINE
  5
1ED
330
2
100
AcDbEntity
  8
GAIKEI
  6
HIDDEN2
 62
     1
100
AcDbLine
 10
17.58807804354816
 20
19.06065095286971
 30
0.0
 11
17.4880780435482
 21
18.98558189206977
 31
0.0
  0
LINE
  5
1EE
330
2
100
AcDbEntity
  8
GAIKEI
  6
HIDDEN2
 62
     1
100
AcDbLine
 10
17.58807804354816
 20
22.87065095286988
 30
0.0
 11
17.58807804354816
 21
19.06065095286971
 31
0.0
  0
LWPOLYLINE
  5
1EF
330
2
100
AcDbEntity
  8
GAIKEI
  6
HIDDEN2
 62
     1
100
AcDbPolyline
 90
       20
 70
     0
 43
0.0
 10
17.1900780435482
 20
18.91054512686986
 10
17.17543756694815
 20
18.99656084786983
 10
17.13317386734817
 20
19.07287838386986
 10
17.06800551214817
 20
19.13094479426985
 10
16.98724952934819
 20
19.16418152246973
 10
16.9000904415482
 20
19.16880999806966
 10
16.81636896394818
 20
19.14436181826971
 10
16.74543006834821
 20
19.09358917946969
 10
16.69524698734821
 20
19.02214429826989
 10
16.67154249894818
 20
18.93810183506974
 10
16.67698459034815
 20
18.85101610926989
 10
16.7109086303482
 20
18.77067101086976
 10
16.76953064394817
 20
18.70603465646985
 10
16.84629715374817
 20
18.66441353086969
 10
16.93249459914816
 20
18.65055635726975
 10
17.01835109714815
 20
18.66598865466989
 10
17.09426156414818
 20
18.70894212186971
 10
17.15173077834819
 20
18.77464050906968
 10
17.18422702274821
 20
18.85569718806977
 10
17.1900780435482
 20
18.91054512686986
  0
LWPOLYLINE
  5
1F0
330
2
100
AcDbEntity
  8
GAIKEI
  6
HIDDEN2
 62
     1
100
AcDbPolyline
 90
       10
 70
     0
 43
0.0
 10
16.67698459034815
 20
15.91071530226981
 10
16.7109086303482
 20
15.91064818646981
 10
16.76953064394817
 20
15.91137561566978
 10
16.84629715374817
 20
15.91221312046986
 10
16.93249459914816
 20
15.91255616106986
 10
17.01835109714815
 20
15.9121761582698
 10
17.09426156414818
 20
15.91132791966987
 10
17.15173077834819
 20
15.91062622826979
 10
17.18422702274821
 20
15.9107523858699
 10
17.1900780435482
 20
15.91145895586982
  0
LWPOLYLINE
  5
1F1
330
2
100
AcDbEntity
  8
GAIKEI
  6
HIDDEN2
 62
     1
100
AcDbPolyline
 90
       11
 70
     0
 43
0.0
 10
17.1900780435482
 20
15.91145895586982
 10
17.17543756694815
 20
15.91357663366983
 10
17.13317386734817
 20
15.91648813646992
 10
17.06800551214817
 20
15.91935421126976
 10
16.98724952934819
 20
15.92124805326983
 10
16.9000904415482
 20
15.92152642466993
 10
16.81636896394818
 20
15.92009651046982
 10
16.74543006834821
 20
15.9174458334698
 10
16.69524698734821
 20
15.91444442626988
 10
16.67154249894818
 20
15.91200315846976
 10
16.67325215534819
 20
15.91159857286988
  0
LINE
  5
1F2
330
2
100
AcDbEntity
  8
GAIKEI
  6
HIDDEN2
 62
     1
100
AcDbLine
 10
17.38807804354818
 20
15.91054512686986
 30
0.0
 11
17.4880780435482
 21
16.01054512686977
 31
0.0
  0
ARC
  5
1F3
330
2
100
AcDbEntity
  8
GAIKEI
  6
HIDDEN2
 62
     1
100
AcDbCircle
 10
12.06007804354817
 20
16.01054512686977
 30
0.0
 40
0.1
100
AcDbArc
 50
180.0
 51
270.0
  0
LINE
  5
1F4
330
2
100
AcDbEntity
  8
GAIKEI
  6
HIDDEN2
 62
     1
100
AcDbLine
 10
12.06007804354817
 20
15.91054512686986
 30
0.0
 11
16.69606226154818
 21
15.91054512686986
 31
0.0
  0
LINE
  5
1F5
330
2
100
AcDbEntity
  8
GAIKEI
  6
HIDDEN2
 62
     1
100
AcDbLine
 10
17.16423598674819
 20
15.91054512686986
 30
0.0
 11
17.38807804354818
 21
15.91054512686986
 31
0.0
  0
LINE
  5
1F6
330
2
100
AcDbEntity
  8
GAIKEI
  6
HIDDEN2
 62
     1
100
AcDbLine
 10
11.87170339154818
 20
16.07054512686994
 30
0.0
 11
11.96007804354818
 21
16.07054512686994
 31
0.0
  0
ARC
  5
1F7
330
2
100
AcDbEntity
  8
GAIKEI
  6
HIDDEN2
 62
     1
100
AcDbCircle
 10
11.77170339154818
 20
16.01054512686977
 30
0.0
 40
0.1
100
AcDbArc
 50
270.0
 51
0.0
  0
LINE
  5
1F8
330
2
100
AcDbEntity
  8
GAIKEI
  6
Continuous
 62
     1
100
AcDbLine
 10
42.40807813891499
 20
23.04549173345959
 30
0.0
 11
27.60807499178998
 21
23.0454917100202
 31
0.0
  0
LINE
  5
1F9
330
2
100
AcDbEntity
  8
GAIKEI
  6
Continuous
100
AcDbLine
 10
27.50807804354798
 20
14.44549161448259
 30
0.0
 11
27.60807499179037
 21
14.44723706770685
 31
0.0
  0
LINE
  5
1FA
330
2
100
AcDbEntity
  8
GAIKEI
  6
Continuous
 62
     1
100
AcDbLine
 10
27.50807804354798
 20
21.94549170984982
 30
0.0
 11
27.50807804354798
 21
14.2454916144826
 31
0.0
  0
LINE
  5
1FB
330
2
100
AcDbEntity
  8
GAIKEI
  6
Continuous
 62
     1
100
AcDbLine
 10
26.60807804354798
 20
21.04549170984979
 30
0.0
 11
26.60807804354798
 21
19.84549170984979
 31
0.0
  0
LINE
  5
1FC
330
2
100
AcDbEntity
  8
GAIKEI
  6
Continuous
 62
     1
100
AcDbLine
 10
26.768078043548
 20
21.20549170984981
 30
0.0
 11
26.768078043548
 21
19.68549170984983
 31
0.0
  0
LINE
  5
1FD
330
2
100
AcDbEntity
  8
GAIKEI
  6
Continuous
 62
     1
100
AcDbLine
 10
27.60807499179037
 20
14.24549094691059
 30
0.0
 11
27.60807499179037
 21
22.94549170984982
 31
0.0
  0
LINE
  5
1FE
330
2
100
AcDbEntity
  8
GAIKEI
  6
Continuous
 62
     1
100
AcDbLine
 10
28.30807804354819
 20
22.94549170984982
 30
0.0
 11
28.30807804354819
 21
23.04549171112882
 31
0.0
  0
ARC
  5
1FF
330
2
100
AcDbEntity
  8
GAIKEI
  6
Continuous
 62
     1
100
AcDbCircle
 10
26.52807804354799
 20
19.68549170984983
 30
0.0
 40
0.24
100
AcDbArc
 50
270.0
 51
0.0
  0
ARC
  5
200
330
2
100
AcDbEntity
  8
GAIKEI
  6
Continuous
 62
     1
100
AcDbCircle
 10
26.52807804354799
 20
21.20549170984981
 30
0.0
 40
0.24
100
AcDbArc
 50
0.0
 51
90.0
  0
ARC
  5
201
330
2
100
AcDbEntity
  8
GAIKEI
  6
Continuous
 62
     1
100
AcDbCircle
 10
26.50807804354798
 20
19.84549170984979
 30
0.0
 40
0.1
100
AcDbArc
 50
270.0
 51
0.0
  0
ARC
  5
202
330
2
100
AcDbEntity
  8
GAIKEI
  6
Continuous
 62
     1
100
AcDbCircle
 10
26.50807804354798
 20
21.04549170984979
 30
0.0
 40
0.1
100
AcDbArc
 50
0.0
 51
90.0
  0
LINE
  5
203
330
2
100
AcDbEntity
  8
GAIKEI
  6
Continuous
 62
     1
100
AcDbLine
 10
56.54807804354797
 20
23.04549170984978
 30
0.0
 11
56.78807804354818
 21
23.04549170984978
 31
0.0
  0
LINE
  5
204
330
2
100
AcDbEntity
  8
GAIKEI
  6
Continuous
 62
     1
100
AcDbLine
 10
56.78807804354818
 20
22.94549170984982
 30
0.0
 11
56.78807804354818
 21
23.04549170984978
 31
0.0
  0
ARC
  5
205
330
2
100
AcDbEntity
  8
GAIKEI
  6
Continuous
100
AcDbCircle
 10
17.0400557766516
 20
26.44549241110224
 30
0.0
 40
39.9999999999998
100
AcDbArc
 50
350.219631561631
 51
354.9801988599826
  0
ARC
  5
206
330
2
100
AcDbEntity
  8
GAIKEI
  6
Continuous
100
AcDbCircle
 10
36.74937898539457
 20
23.04805533982301
 30
0.0
 40
20.0000000000002
100
AcDbArc
 50
334.2482405879131
 51
350.219631561631
  0
ARC
  5
207
330
2
100
AcDbEntity
  8
GAIKEI
  6
Continuous
100
AcDbCircle
 10
54.5829399688736
 20
14.44549161448259
 30
0.0
 40
0.2
100
AcDbArc
 50
270.0
 51
334.2482405878986
  0
LINE
  5
208
330
2
100
AcDbEntity
  8
GAIKEI
  6
Continuous
100
AcDbLine
 10
56.88787459032718
 20
28.84549176209544
 30
0.0
 11
27.60807499179018
 21
28.845491691907
 31
0.0
  0
DIMENSION
  5
209
330
2
100
AcDbEntity
  8
SUNPO
100
AcDbDimension
  2
*D5
 10
57.08787418920119
 20
38.83879123359759
 30
0.0
 11
37.33797611637468
 21
40.58879123359758
 31
0.0
 70
    33
  1
197.5
 71
     5
 42
39.49979614565302
  3
STANDARD
100
AcDbAlignedDimension
 13
17.58807804354816
 23
30.83879123359759
 33
0.0
 14
57.08787418920119
 24
30.83879123359759
 34
0.0
1001
ACAD
1000
DSTYLE
1002
{
1070
   287
1070
     3
1070
   287
1070
     3
1070
    40
1040
1.0
1070
   140
1040
2.5
1070
   147
1040
0.5
1070
   172
1070
     1
1070
   279
1070
     0
1070
   288
1070
     0
1070
   341
1005
0
1002
}
  0
LINE
  5
216
330
2
100
AcDbEntity
  8
GAIKEI
  6
Continuous
100
AcDbLine
 10
-21.06137687868474
 20
28.8454916984332
 30
0.0
 11
-32.66137687868474
 21
28.8454916984332
 31
0.0
  0
LINE
  5
217
330
2
100
AcDbEntity
  8
GAIKEI
  6
Continuous
100
AcDbLine
 10
-22.39610164856532
 20
30.84549169843319
 30
0.0
 11
-31.32665210880436
 21
30.84549169843319
 31
0.0
  0
LINE
  5
218
330
2
100
AcDbEntity
  8
GAIKEI
  6
Continuous
100
AcDbLine
 10
-21.06137687868474
 20
29.04549169843324
 30
0.0
 11
-32.66137687868474
 21
29.04549169843324
 31
0.0
  0
LINE
  5
219
330
2
100
AcDbEntity
  8
GAIKEI
  6
Continuous
 62
     1
100
AcDbLine
 10
-33.00611432793656
 20
28.67408297225501
 30
0.0
 11
-20.71663942943292
 21
28.67408297225501
 31
0.0
  0
LINE
  5
21A
330
2
100
AcDbEntity
  8
GAIKEI
  6
Continuous
100
AcDbLine
 10
-33.35266749171194
 20
28.8454917098498
 30
0.0
 11
-26.86137687868495
 21
28.8454917098498
 31
0.0
  0
DIMENSION
  5
21B
330
2
100
AcDbEntity
  8
SUNPO
100
AcDbDimension
  2
*D6
 10
-18.46137687868611
 20
38.83879123359759
 30
0.0
 11
-26.86137687868483
 21
40.58879123359758
 31
0.0
 70
    33
  1
84
 71
     5
 42
16.79999999999742
  3
STANDARD
100
AcDbAlignedDimension
 13
-35.26137687868354
 23
30.83879123359759
 33
0.0
 14
-18.46137687868611
 24
30.83879123359759
 34
0.0
1001
ACAD
1000
DSTYLE
1002
{
1070
   287
1070
     3
1070
   287
1070
     3
1070
    40
1040
1.0
1070
   140
1040
2.5
1070
   147
1040
0.5
1070
   172
1070
     1
1070
   279
1070
     0
1070
   288
1070
     0
1070
   341
1005
0
1002
}
  0
LINE
  5
228
330
2
100
AcDbEntity
  8
GAIKEI
  6
Continuous
100
AcDbLine
 10
-32.66137687868474
 20
29.04549169843324
 30
0.0
 11
-32.66137687868474
 21
28.8454916984332
 31
0.0
  0
LINE
  5
229
330
2
100
AcDbEntity
  8
GAIKEI
  6
Continuous
100
AcDbLine
 10
-31.32665210880436
 20
30.84549169843319
 30
0.0
 11
-31.36137687868473
 21
30.84549169843319
 31
0.0
  0
LINE
  5
22A
330
2
100
AcDbEntity
  8
GAIKEI
  6
Continuous
100
AcDbLine
 10
-33.46137687868495
 20
28.67408297225501
 30
0.0
 11
-33.46137497712135
 21
28.67408297225501
 31
0.0
  0
ARC
  5
22B
330
2
100
AcDbEntity
  8
GAIKEI
  6
Continuous
100
AcDbCircle
 10
-28.89605779683393
 20
27.69553902820741
 30
0.0
 40
4.0
100
AcDbArc
 50
128.5523412632431
 51
160.2760866465115
  0
ARC
  5
22C
330
2
100
AcDbEntity
  8
GAIKEI
  6
Continuous
100
AcDbCircle
 10
-28.89605779683393
 20
27.69553902820741
 30
0.0
 40
4.0
100
AcDbArc
 50
128.0486074449322
 51
128.5523412632431
  0
ARC
  5
22D
330
2
100
AcDbEntity
  8
GAIKEI
  6
Continuous
 62
     1
100
AcDbCircle
 10
-29.54873654538835
 20
25.82361328970865
 30
0.0
 40
4.680689998053799
100
AcDbArc
 50
145.7904993465404
 51
159.9580041572343
  0
ARC
  5
22E
330
2
100
AcDbEntity
  8
GAIKEI
  6
Continuous
100
AcDbCircle
 10
-31.07920357473515
 20
26.23803783889463
 30
0.0
 40
3.6
100
AcDbArc
 50
137.170122019517
 51
160.7027427004914
  0
ARC
  5
22F
330
2
100
AcDbEntity
  8
GAIKEI
  6
Continuous
100
AcDbCircle
 10
-31.32665210880436
 20
30.74549169843323
 30
0.0
 40
0.1
100
AcDbArc
 50
90.0
 51
128.5523412632377
  0
ARC
  5
230
330
2
100
AcDbEntity
  8
GAIKEI
  6
Continuous
 62
     1
100
AcDbCircle
 10
-33.00611432793656
 20
28.17408297225501
 30
0.0
 40
0.5
100
AcDbArc
 50
90.0
 51
145.7904993465522
  0
ARC
  5
231
330
2
100
AcDbEntity
  8
GAIKEI
  6
Continuous
100
AcDbCircle
 10
-33.35266749171194
 20
28.3454917098498
 30
0.0
 40
0.5
100
AcDbArc
 50
90.0
 51
137.1701220195258
  0
ARC
  5
232
330
2
100
AcDbEntity
  8
GAIKEI
  6
HIDDEN2
 62
     1
100
AcDbCircle
 10
-26.95666680011826
 20
21.95103511285527
 30
0.0
 40
4.389999999999999
100
AcDbArc
 50
116.081516969005
 51
123.9184830309946
  0
ARC
  5
233
330
2
100
AcDbEntity
  8
GAIKEI
  6
HIDDEN2
 62
     1
100
AcDbCircle
 10
-26.95666680011826
 20
21.95103511285527
 30
0.0
 40
4.549999999999999
100
AcDbArc
 50
122.5193075209997
 51
123.7804862380082
  0
ARC
  5
234
330
2
100
AcDbEntity
  8
GAIKEI
  6
HIDDEN2
 62
     1
100
AcDbCircle
 10
-26.95666680011826
 20
21.95103511285527
 30
0.0
 40
4.549999999999999
100
AcDbArc
 50
116.2195137620021
 51
117.4806924790039
  0
LINE
  5
235
330
2
100
AcDbEntity
  8
GAIKEI
  6
HIDDEN2
 62
     1
100
AcDbLine
 10
-29.49654569211828
 20
25.75023439885524
 30
0.0
 11
-29.39631964511827
 21
25.57663779305528
 31
0.0
  0
ARC
  5
236
330
2
100
AcDbEntity
  8
GAIKEI
  6
HIDDEN2
 62
     1
100
AcDbCircle
 10
-26.95666680011826
 20
21.95103511285527
 30
0.0
 40
4.57
100
AcDbArc
 50
116.2360824540038
 51
123.7639175460008
  0
LINE
  5
237
330
2
100
AcDbEntity
  8
GAIKEI
  6
HIDDEN2
 62
     1
100
AcDbLine
 10
-28.87670440271825
 20
25.87663779305524
 30
0.0
 11
-28.97693044971826
 21
26.0502343988552
 31
0.0
  0
ARC
  5
238
330
2
100
AcDbEntity
  8
GAIKEI
  6
HIDDEN2
 62
     1
100
AcDbCircle
 10
-26.95666680011826
 20
21.95103511285527
 30
0.0
 40
4.5
100
AcDbArc
 50
116.1769464760046
 51
123.8244355550063
  0
LINE
  5
239
330
2
100
AcDbEntity
  8
GAIKEI
  6
HIDDEN2
 62
     1
100
AcDbLine
 10
-29.41268264831825
 20
25.80497934605512
 30
0.0
 11
-29.39487186391827
 21
25.77413016245521
 31
0.0
  0
LINE
  5
23A
330
2
100
AcDbEntity
  8
GAIKEI
  6
HIDDEN2
 62
     1
100
AcDbLine
 10
-29.06627248671828
 20
26.00497934605517
 30
0.0
 11
-29.04846170231826
 21
25.97413016245525
 31
0.0
  0
LINE
  5
23B
330
2
100
AcDbEntity
  8
GAIKEI
  6
HIDDEN2
 62
     1
100
AcDbLine
 10
-29.39487186391827
 20
25.77413016245521
 30
0.0
 11
-29.38265349471826
 21
25.75296732645518
 31
0.0
  0
LINE
  5
23C
330
2
100
AcDbEntity
  8
GAIKEI
  6
HIDDEN2
 62
     1
100
AcDbLine
 10
-29.04846170231826
 20
25.97413016245525
 30
0.0
 11
-29.03624333331825
 21
25.95296732645522
 31
0.0
  0
LINE
  5
23D
330
2
100
AcDbEntity
  8
GAIKEI
  6
HIDDEN2
 62
     1
100
AcDbLine
 10
-29.04846170231826
 20
25.97413016245525
 30
0.0
 11
-29.39487186391827
 21
25.77413016245521
 31
0.0
  0
ARC
  5
23E
330
2
100
AcDbEntity
  8
GAIKEI
  6
HIDDEN2
 62
     1
100
AcDbCircle
 10
-26.95666680011826
 20
21.95103511285527
 30
0.0
 40
4.51
100
AcDbArc
 50
116.1855843250056
 51
123.8152682140033
  0
ARC
  5
23F
330
2
100
AcDbEntity
  8
GAIKEI
  6
HIDDEN2
 62
     1
100
AcDbCircle
 10
-29.91632024191827
 20
24.9143886310552
 30
0.0
 40
0.03
100
AcDbArc
 50
314.9999999999949
 51
134.999999999995
  0
LINE
  5
240
330
2
100
AcDbEntity
  8
GAIKEI
  6
HIDDEN2
 62
     1
100
AcDbLine
 10
-29.89510703851826
 20
24.89317542765514
 30
0.0
 11
-29.87389383491825
 21
24.8719622242553
 31
0.0
  0
LINE
  5
241
330
2
100
AcDbEntity
  8
GAIKEI
  6
HIDDEN2
 62
     1
100
AcDbLine
 10
-29.95874664871826
 20
24.9568150380552
 30
0.0
 11
-29.93753344531825
 21
24.93560183445527
 31
0.0
  0
ARC
  5
242
330
2
100
AcDbEntity
  8
GAIKEI
  6
HIDDEN2
 62
     1
100
AcDbCircle
 10
-29.91632024191827
 20
24.9143886310552
 30
0.0
 40
0.06
100
AcDbArc
 50
314.9999999999949
 51
134.999999999995
  0
ARC
  5
243
330
2
100
AcDbEntity
  8
GAIKEI
  6
HIDDEN2
 62
     1
100
AcDbCircle
 10
-34.12798127591827
 20
26.32520716545525
 30
0.0
 40
2.4
100
AcDbArc
 50
299.3984234640032
 51
328.5949318249949
  0
LINE
  5
244
330
2
100
AcDbEntity
  8
GAIKEI
  6
HIDDEN2
 62
     1
100
AcDbLine
 10
-29.51682135691826
 20
27.37535705785524
 30
0.0
 11
-29.90717677051828
 21
28.05147246605509
 31
0.0
  0
LINE
  5
245
330
2
100
AcDbEntity
  8
GAIKEI
  6
HIDDEN2
 62
     1
100
AcDbLine
 10
-30.37955127311827
 20
26.87725970985514
 30
0.0
 11
-30.76990668631825
 21
27.55337511705523
 31
0.0
  0
LINE
  5
246
330
2
100
AcDbEntity
  8
GAIKEI
  6
HIDDEN2
 62
     1
100
AcDbLine
 10
-29.52198782811826
 20
27.37291870325532
 30
0.0
 11
-29.91210746251827
 21
28.04862572985519
 31
0.0
  0
LINE
  5
247
330
2
100
AcDbEntity
  8
GAIKEI
  6
HIDDEN2
 62
     1
100
AcDbLine
 10
-30.35622827631826
 20
26.89336517165509
 30
0.0
 11
-30.74544056911828
 21
27.56750063625521
 31
0.0
  0
LINE
  5
248
330
2
100
AcDbEntity
  8
GAIKEI
  6
HIDDEN2
 62
     1
100
AcDbLine
 10
-29.55753052211827
 20
27.35598048945519
 30
0.0
 11
-29.94609894491828
 21
28.02900073825515
 31
0.0
  0
LINE
  5
249
330
2
100
AcDbEntity
  8
GAIKEI
  6
HIDDEN2
 62
     1
100
AcDbLine
 10
-30.31136676251828
 20
26.92388991725522
 30
0.0
 11
-30.71423204571826
 21
27.62167305485525
 31
0.0
  0
LINE
  5
24A
330
2
100
AcDbEntity
  8
GAIKEI
  6
HIDDEN2
 62
     1
100
AcDbLine
 10
-29.60969397611825
 20
27.33060000485523
 30
0.0
 11
-30.01186682171826
 21
28.02718380585509
 31
0.0
  0
LINE
  5
24B
330
2
100
AcDbEntity
  8
GAIKEI
  6
HIDDEN2
 62
     1
100
AcDbLine
 10
-30.30624711811828
 20
26.92733584285532
 30
0.0
 11
-30.69324496831825
 21
27.59763578045511
 31
0.0
  0
LINE
  5
24C
330
2
100
AcDbEntity
  8
GAIKEI
  6
HIDDEN2
 62
     1
100
AcDbLine
 10
-29.62071576231827
 20
27.32515719165519
 30
0.0
 11
-30.00683475431828
 21
27.99393490225532
 31
0.0
  0
LINE
  5
24D
330
2
100
AcDbEntity
  8
GAIKEI
  6
HIDDEN2
 62
     1
100
AcDbLine
 10
-30.25282098911828
 20
26.96284271945513
 30
0.0
 11
-30.65345565731826
 21
27.65676231885516
 31
0.0
  0
LINE
  5
24E
330
2
100
AcDbEntity
  8
GAIKEI
  6
HIDDEN2
 62
     1
100
AcDbLine
 10
-29.68014113351825
 20
27.29532468025525
 30
0.0
 11
-30.07997685351825
 21
27.98786046065504
 31
0.0
  0
LINE
  5
24F
330
2
100
AcDbEntity
  8
GAIKEI
  6
HIDDEN2
 62
     1
100
AcDbLine
 10
-30.23256992031827
 20
26.97608762705511
 30
0.0
 11
-30.61687692811827
 21
27.64172688905512
 31
0.0
  0
LINE
  5
250
330
2
100
AcDbEntity
  8
GAIKEI
  6
HIDDEN2
 62
     1
100
AcDbLine
 10
-29.70674690731826
 20
27.28169949885512
 30
0.0
 11
-30.09017584591826
 21
27.94581790065502
 31
0.0
  0
LINE
  5
251
330
2
100
AcDbEntity
  8
GAIKEI
  6
HIDDEN2
 62
     1
100
AcDbLine
 10
-30.17398654031826
 20
27.01375240045525
 30
0.0
 11
-30.57228528231827
 21
27.70362605685511
 31
0.0
  0
LINE
  5
252
330
2
100
AcDbEntity
  8
GAIKEI
  6
HIDDEN2
 62
     1
100
AcDbLine
 10
-29.76916717211827
 20
27.24907165185516
 30
0.0
 11
-30.16677453131825
 21
27.93774779805506
 31
0.0
  0
LINE
  5
253
330
2
100
AcDbEntity
  8
GAIKEI
  6
HIDDEN2
 62
     1
100
AcDbLine
 10
-30.13967974491825
 20
27.03536647205522
 30
0.0
 11
-30.52154080371827
 21
27.69676922605516
 31
0.0
  0
LINE
  5
254
330
2
100
AcDbEntity
  8
GAIKEI
  6
HIDDEN2
 62
     1
100
AcDbLine
 10
-30.07976957551827
 20
27.07234193185525
 30
0.0
 11
-30.47625254731827
 21
27.75907058225528
 31
0.0
  0
LINE
  5
255
330
2
100
AcDbEntity
  8
GAIKEI
  6
HIDDEN2
 62
     1
100
AcDbLine
 10
-29.80922389531827
 20
27.22763855585515
 30
0.0
 11
-30.19044266211827
 21
27.88792882745509
 31
0.0
  0
LINE
  5
256
330
2
100
AcDbEntity
  8
GAIKEI
  6
HIDDEN2
 62
     1
100
AcDbLine
 10
-29.87026071251828
 20
27.19422326085521
 30
0.0
 11
-30.26634473651825
 21
27.88026091325526
 31
0.0
  0
LINE
  5
257
330
2
100
AcDbEntity
  8
GAIKEI
  6
HIDDEN2
 62
     1
100
AcDbLine
 10
-29.92072305691826
 20
27.16589636805509
 30
0.0
 11
-30.30080218471827
 21
27.82421272725526
 31
0.0
  0
LINE
  5
258
330
2
100
AcDbEntity
  8
GAIKEI
  6
HIDDEN2
 62
     1
100
AcDbLine
 10
-30.03341947711826
 20
27.1002883734551
 30
0.0
 11
-30.41373359491826
 21
27.7590117470553
 31
0.0
  0
LINE
  5
259
330
2
100
AcDbEntity
  8
GAIKEI
  6
HIDDEN2
 62
     1
100
AcDbLine
 10
-29.97622929471825
 20
27.1339923456552
 30
0.0
 11
-30.37190192451826
 21
27.81931744225528
 31
0.0
  0
LINE
  5
25A
330
2
100
AcDbEntity
  8
GAIKEI
  6
S10
 62
     1
100
AcDbLine
 10
-29.96708602211825
 20
28.05303801265507
 30
0.0
 11
-29.94609894491828
 21
28.02900073825515
 31
0.0
  0
LWPOLYLINE
  5
25B
330
2
100
AcDbEntity
  8
GAIKEI
  6
S10
 62
     1
100
AcDbPolyline
 90
        3
 70
     0
 43
0.0
 10
-29.91210746251827
 20
28.04862572985519
 10
-29.95055422291827
 20
28.05245081805504
 10
-29.96708602211825
 20
28.05303801265507
  0
LINE
  5
25C
330
2
100
AcDbEntity
  8
GAIKEI
  6
S10
 62
     1
100
AcDbLine
 10
-29.94868619171825
 20
28.06366115965523
 30
0.0
 11
-29.91210746251827
 21
28.04862572985519
 31
0.0
  0
LINE
  5
25D
330
2
100
AcDbEntity
  8
GAIKEI
  6
S10
 62
     1
100
AcDbLine
 10
-29.93543779591826
 20
28.05977094305524
 30
0.0
 11
-29.94868619171825
 21
28.06366115965523
 31
0.0
  0
LINE
  5
25E
330
2
100
AcDbEntity
  8
GAIKEI
  6
HIDDEN2
 62
     1
100
AcDbLine
 10
-30.76990668631825
 20
27.55337511705523
 30
0.0
 11
-30.76296286551826
 21
27.58199912145517
 31
0.0
  0
LINE
  5
25F
330
2
100
AcDbEntity
  8
GAIKEI
  6
HIDDEN2
 62
     1
100
AcDbLine
 10
-30.75047263651825
 20
27.6007495398552
 30
0.0
 11
-30.76990668631825
 21
27.55337511705523
 31
0.0
  0
LINE
  5
260
330
2
100
AcDbEntity
  8
GAIKEI
  6
HIDDEN2
 62
     1
100
AcDbLine
 10
-30.74544056911828
 20
27.56750063625521
 30
0.0
 11
-30.75047263651825
 21
27.6007495398552
 31
0.0
  0
LWPOLYLINE
  5
261
330
2
100
AcDbEntity
  8
GAIKEI
  6
HIDDEN2
 62
     1
100
AcDbPolyline
 90
        4
 70
     0
 43
0.0
 10
-30.71423204571826
 20
27.62167305485525
 10
-30.71874251831827
 20
27.6147105582553
 10
-30.73737457131827
 20
27.58290146085517
 10
-30.74544056911828
 20
27.56750063625521
  0
LINE
  5
262
330
2
100
AcDbEntity
  8
GAIKEI
  6
S10
 62
     1
100
AcDbLine
 10
-30.69324496831825
 20
27.59763578045511
 30
0.0
 11
-30.71423204571826
 21
27.62167305485525
 31
0.0
  0
LINE
  5
263
330
2
100
AcDbEntity
  8
GAIKEI
  6
S10
 62
     1
100
AcDbLine
 10
-30.65345565731826
 20
27.65676231885516
 30
0.0
 11
-30.69324496831825
 21
27.59763578045511
 31
0.0
  0
LINE
  5
264
330
2
100
AcDbEntity
  8
GAIKEI
  6
S10
 62
     1
100
AcDbLine
 10
-30.61687692811827
 20
27.64172688905512
 30
0.0
 11
-30.65345565731826
 21
27.65676231885516
 31
0.0
  0
LINE
  5
265
330
2
100
AcDbEntity
  8
GAIKEI
  6
S10
 62
     1
100
AcDbLine
 10
-30.57228528231827
 20
27.70362605685511
 30
0.0
 11
-30.61687692811827
 21
27.64172688905512
 31
0.0
  0
LINE
  5
266
330
2
100
AcDbEntity
  8
GAIKEI
  6
S10
 62
     1
100
AcDbLine
 10
-30.52154080371827
 20
27.69676922605516
 30
0.0
 11
-30.57228528231827
 21
27.70362605685511
 31
0.0
  0
LINE
  5
267
330
2
100
AcDbEntity
  8
GAIKEI
  6
S10
 62
     1
100
AcDbLine
 10
-30.47625254731827
 20
27.75907058225528
 30
0.0
 11
-30.52154080371827
 21
27.69676922605516
 31
0.0
  0
LWPOLYLINE
  5
268
330
2
100
AcDbEntity
  8
GAIKEI
  6
S10
 62
     1
100
AcDbPolyline
 90
        3
 70
     0
 43
0.0
 10
-30.41373359491826
 20
27.7590117470553
 10
-30.45739198011828
 20
27.75982790265505
 10
-30.47625254731827
 20
27.75907058225528
  0
LINE
  5
269
330
2
100
AcDbEntity
  8
GAIKEI
  6
S10
 62
     1
100
AcDbLine
 10
-30.37190192451826
 20
27.81931744225528
 30
0.0
 11
-30.41373359491826
 21
27.7590117470553
 31
0.0
  0
LINE
  5
26A
330
2
100
AcDbEntity
  8
GAIKEI
  6
S10
 62
     1
100
AcDbLine
 10
-30.30080218471827
 20
27.82421272725526
 30
0.0
 11
-30.37190192451826
 21
27.81931744225528
 31
0.0
  0
LINE
  5
26B
330
2
100
AcDbEntity
  8
GAIKEI
  6
S10
 62
     1
100
AcDbLine
 10
-30.26634473651825
 20
27.88026091325526
 30
0.0
 11
-30.30080218471827
 21
27.82421272725526
 31
0.0
  0
LINE
  5
26C
330
2
100
AcDbEntity
  8
GAIKEI
  6
S10
 62
     1
100
AcDbLine
 10
-30.19044266211827
 20
27.88792882745509
 30
0.0
 11
-30.26634473651825
 21
27.88026091325526
 31
0.0
  0
LWPOLYLINE
  5
26D
330
2
100
AcDbEntity
  8
GAIKEI
  6
S10
 62
     1
100
AcDbPolyline
 90
        4
 70
     0
 43
0.0
 10
-30.16677453131825
 20
27.93774779805506
 10
-30.17025561111825
 20
27.93137962185517
 10
-30.18442303551825
 20
27.90214817885533
 10
-30.19044266211827
 20
27.88792882745509
  0
LINE
  5
26E
330
2
100
AcDbEntity
  8
GAIKEI
  6
S10
 62
     1
100
AcDbLine
 10
-30.09017584591826
 20
27.94581790065502
 30
0.0
 11
-30.16677453131825
 21
27.93774779805506
 31
0.0
  0
LINE
  5
26F
330
2
100
AcDbEntity
  8
GAIKEI
  6
S10
 62
     1
100
AcDbLine
 10
-30.07997685351825
 20
27.98786046065504
 30
0.0
 11
-30.09017584591826
 21
27.94581790065502
 31
0.0
  0
LINE
  5
270
330
2
100
AcDbEntity
  8
GAIKEI
  6
S10
 62
     1
100
AcDbLine
 10
-30.00683475431828
 20
27.99393490225532
 30
0.0
 11
-30.07997685351825
 21
27.98786046065504
 31
0.0
  0
LINE
  5
271
330
2
100
AcDbEntity
  8
GAIKEI
  6
S10
 62
     1
100
AcDbLine
 10
-30.01186682171826
 20
28.02718380585509
 30
0.0
 11
-30.00683475431828
 21
27.99393490225532
 31
0.0
  0
LINE
  5
272
330
2
100
AcDbEntity
  8
GAIKEI
  6
S10
 62
     1
100
AcDbLine
 10
-29.94609894491828
 20
28.02900073825515
 30
0.0
 11
-30.01186682171826
 21
28.02718380585509
 31
0.0
  0
LINE
  5
273
330
2
100
AcDbEntity
  8
GAIKEI
  6
S10
 62
     1
100
AcDbLine
 10
-30.73495188991825
 20
27.68902633185519
 30
0.0
 11
-30.61120988811826
 21
27.76046881005516
 31
0.0
  0
LINE
  5
274
330
2
100
AcDbEntity
  8
GAIKEI
  6
S10
 62
     1
100
AcDbLine
 10
-30.61120988811826
 20
27.76046881005516
 30
0.0
 11
-30.04213156691827
 21
28.08902633185528
 31
0.0
  0
LINE
  5
275
330
2
100
AcDbEntity
  8
GAIKEI
  6
HIDDEN2
 62
     1
100
AcDbLine
 10
-30.73495188991825
 20
27.68902633185519
 30
0.0
 11
-30.76358507211828
 21
27.58216584125523
 31
0.0
  0
LINE
  5
276
330
2
100
AcDbEntity
  8
GAIKEI
  6
S10
 62
     1
100
AcDbLine
 10
-29.93527107611825
 20
28.06039314965517
 30
0.0
 11
-30.04213156691827
 21
28.08902633185528
 31
0.0
  0
LINE
  5
277
330
2
100
AcDbEntity
  8
GAIKEI
  6
Phantom
100
AcDbLine
 10
-27.31310715237317
 20
29.64549169843321
 30
0.0
 11
-27.41137687868473
 21
29.64549169843321
 31
0.0
  0
LINE
  5
279
330
2
100
AcDbEntity
  8
GAIKEI
  6
Phantom
100
AcDbLine
 10
-26.31137687868474
 20
29.64549169843321
 30
0.0
 11
-26.40964660499634
 21
29.64549169843321
 31
0.0
  0
LINE
  5
27A
330
2
100
AcDbEntity
  8
GAIKEI
  6
Phantom
100
AcDbLine
 10
-26.31137687868474
 20
29.7437464577896
 30
0.0
 11
-26.31137687868474
 21
29.64549169843321
 31
0.0
  0
LINE
  5
27B
330
2
100
AcDbEntity
  8
GAIKEI
  6
Phantom
100
AcDbLine
 10
-27.41137687868473
 20
29.7437464577896
 30
0.0
 11
-27.41137687868473
 21
29.64549169843321
 31
0.0
  0
LINE
  5
27C
330
2
100
AcDbEntity
  8
GAIKEI
  6
Continuous
100
AcDbLine
 10
-26.31137687868474
 20
30.84549169843319
 30
0.0
 11
-26.31137687868474
 21
29.74549169843323
 31
0.0
  0
LINE
  5
27D
330
2
100
AcDbEntity
  8
GAIKEI
  6
Continuous
100
AcDbLine
 10
-27.41137687868473
 20
30.84549169843319
 30
0.0
 11
-27.41137687868473
 21
29.74549169843323
 31
0.0
  0
LINE
  5
27E
330
2
100
AcDbEntity
  8
GAIKEI
  6
Continuous
100
AcDbLine
 10
-26.41137687868474
 20
29.64549169843321
 30
0.0
 11
-27.31137687868474
 21
29.64549169843321
 31
0.0
  0
LINE
  5
27F
330
2
100
AcDbEntity
  8
GAIKEI
  6
Continuous
100
AcDbLine
 10
-21.06137687868474
 20
28.8454916984332
 30
0.0
 11
-21.06137687868474
 21
29.04549169843324
 31
0.0
  0
LINE
  5
280
330
2
100
AcDbEntity
  8
GAIKEI
  6
Continuous
100
AcDbLine
 10
-26.86137687868495
 20
28.8454917098498
 30
0.0
 11
-20.37008626565773
 21
28.8454917098498
 31
0.0
  0
ARC
  5
281
330
2
100
AcDbEntity
  8
GAIKEI
  6
Continuous
100
AcDbCircle
 10
-24.82669596053574
 20
27.69553902820741
 30
0.0
 40
4.0
100
AcDbArc
 50
19.72391335348851
 51
51.4476587367569
  0
ARC
  5
282
330
2
100
AcDbEntity
  8
GAIKEI
  6
Continuous
100
AcDbCircle
 10
-22.64355018263456
 20
26.23803783889463
 30
0.0
 40
3.5999999999998
100
AcDbArc
 50
19.29725729950857
 51
42.82987798048292
  0
ARC
  5
283
330
2
100
AcDbEntity
  8
GAIKEI
  6
Continuous
 62
     1
100
AcDbCircle
 10
-24.17401721198113
 20
25.82361328970865
 30
0.0
 40
4.680689998054
100
AcDbArc
 50
20.04199584276564
 51
34.20950065345963
  0
ARC
  5
284
330
2
100
AcDbEntity
  8
GAIKEI
  6
Continuous
100
AcDbCircle
 10
-27.31137687868474
 20
29.74549169843323
 30
0.0
 40
0.1
100
AcDbArc
 50
180.0
 51
270.0
  0
ARC
  5
285
330
2
100
AcDbEntity
  8
GAIKEI
  6
Continuous
100
AcDbCircle
 10
-26.41137687868474
 20
29.74549169843323
 30
0.0
 40
0.1
100
AcDbArc
 50
270.0
 51
0.0
  0
ARC
  5
286
330
2
100
AcDbEntity
  8
GAIKEI
  6
Continuous
100
AcDbCircle
 10
-22.39610164856532
 20
30.74549169843323
 30
0.0
 40
0.1
100
AcDbArc
 50
51.4476587367569
 51
90.0
  0
ARC
  5
287
330
2
100
AcDbEntity
  8
GAIKEI
  6
Continuous
 62
     1
100
AcDbCircle
 10
-20.71663942943292
 20
28.17408297225501
 30
0.0
 40
0.4999999999998
100
AcDbArc
 50
34.20950065345569
 51
90.0
  0
ARC
  5
288
330
2
100
AcDbEntity
  8
GAIKEI
  6
Continuous
100
AcDbCircle
 10
-20.37008626565773
 20
28.3454917098498
 30
0.0
 40
0.5
100
AcDbArc
 50
42.82987798048738
 51
90.0
  0
ARC
  5
289
330
2
100
AcDbEntity
  8
GAIKEI
  6
HIDDEN2
 62
     1
100
AcDbCircle
 10
-23.98708196071826
 20
24.91484527165506
 30
0.0
 40
0.06
100
AcDbArc
 50
45.00000000000501
 51
225.000000000005
  0
ARC
  5
28A
330
2
100
AcDbEntity
  8
GAIKEI
  6
HIDDEN2
 62
     1
100
AcDbCircle
 10
-23.98708196071826
 20
24.91484527165506
 30
0.0
 40
0.03
100
AcDbArc
 50
45.00000000000501
 51
225.000000000005
  0
LINE
  5
28B
330
2
100
AcDbEntity
  8
GAIKEI
  6
HIDDEN2
 62
     1
100
AcDbLine
 10
-24.00829516411827
 20
24.89363206825522
 30
0.0
 11
-24.02950836751825
 21
24.87241886485515
 31
0.0
  0
LINE
  5
28C
330
2
100
AcDbEntity
  8
GAIKEI
  6
HIDDEN2
 62
     1
100
AcDbLine
 10
-23.94465555371827
 20
24.95727167845519
 30
0.0
 11
-23.96586875731828
 21
24.93605847505512
 31
0.0
  0
ARC
  5
28D
330
2
100
AcDbEntity
  8
GAIKEI
  6
HIDDEN2
 62
     1
100
AcDbCircle
 10
-25.86479293271827
 20
25.99863777965527
 30
0.0
 40
0.03
100
AcDbArc
 50
254.9999999999974
 51
74.99999999999743
  0
LINE
  5
28E
330
2
100
AcDbEntity
  8
GAIKEI
  6
HIDDEN2
 62
     1
100
AcDbLine
 10
-25.87255750391828
 20
25.9696600048552
 30
0.0
 11
-25.88032207531828
 21
25.94068223005513
 31
0.0
  0
ARC
  5
28F
330
2
100
AcDbEntity
  8
GAIKEI
  6
HIDDEN2
 62
     1
100
AcDbCircle
 10
-26.95183292211826
 20
21.94174930925521
 30
0.0
 40
4.17
100
AcDbArc
 50
74.99999999999743
 51
105.0000000000025
  0
ARC
  5
290
330
2
100
AcDbEntity
  8
GAIKEI
  6
HIDDEN2
 62
     1
100
AcDbCircle
 10
-26.95183292211826
 20
21.94174930925521
 30
0.0
 40
4.229999999999999
100
AcDbArc
 50
74.99999999999743
 51
105.0000000000025
  0
LINE
  5
291
330
2
100
AcDbEntity
  8
GAIKEI
  6
HIDDEN2
 62
     1
100
AcDbLine
 10
-25.84926378991827
 20
26.05659332925518
 30
0.0
 11
-25.85702836131827
 21
26.02761555445511
 31
0.0
  0
LINE
  5
292
330
2
100
AcDbEntity
  8
GAIKEI
  6
HIDDEN2
 62
     1
100
AcDbLine
 10
-28.05440205411827
 20
26.05659332925518
 30
0.0
 11
-28.04663748291827
 21
26.02761555445511
 31
0.0
  0
LINE
  5
293
330
2
100
AcDbEntity
  8
GAIKEI
  6
HIDDEN2
 62
     1
100
AcDbLine
 10
-28.03110834011827
 20
25.9696600048552
 30
0.0
 11
-28.02334376871826
 21
25.94068223005513
 31
0.0
  0
ARC
  5
294
330
2
100
AcDbEntity
  8
GAIKEI
  6
HIDDEN2
 62
     1
100
AcDbCircle
 10
-28.03887291151827
 20
25.99863777965527
 30
0.0
 40
0.03
100
AcDbArc
 50
105.0000000000025
 51
285.0000000000025
  0
ARC
  5
295
330
2
100
AcDbEntity
  8
GAIKEI
  6
HIDDEN2
 62
     1
100
AcDbCircle
 10
-26.95183292211826
 20
21.94174930925521
 30
0.0
 40
4.26
100
AcDbArc
 50
74.99999999999743
 51
105.0000000000025
  0
ARC
  5
296
330
2
100
AcDbEntity
  8
GAIKEI
  6
HIDDEN2
 62
     1
100
AcDbCircle
 10
-25.86479293271827
 20
25.99863777965527
 30
0.0
 40
0.06
100
AcDbArc
 50
254.9999999999974
 51
74.99999999999743
  0
ARC
  5
297
330
2
100
AcDbEntity
  8
GAIKEI
  6
HIDDEN2
 62
     1
100
AcDbCircle
 10
-26.95183292211826
 20
21.94174930925521
 30
0.0
 40
4.139999999999999
100
AcDbArc
 50
74.99999999999743
 51
105.0000000000025
  0
ARC
  5
298
330
2
100
AcDbEntity
  8
GAIKEI
  6
HIDDEN2
 62
     1
100
AcDbCircle
 10
-28.03887291151827
 20
25.99863777965527
 30
0.0
 40
0.06
100
AcDbArc
 50
105.0000000000025
 51
285.0000000000025
  0
LINE
  5
299
330
2
100
AcDbEntity
  8
GAIKEI
  6
Continuous
100
AcDbLine
 10
18.08109708097319
 20
28.68094314507118
 30
0.0
 11
27.50807804354798
 21
28.8454917098498
 31
0.0
  0
LINE
  5
29A
330
2
100
AcDbEntity
  8
GAIKEI
  6
HIDDEN2
 62
     1
100
AcDbLine
 10
11.77170339154818
 20
27.91054512686987
 30
0.0
 11
6.191703391548173
 21
27.91054512686987
 31
0.0
  0
LINE
  5
29B
330
2
100
AcDbEntity
  8
GAIKEI
  6
HIDDEN2
 62
     1
100
AcDbLine
 10
6.191703391548173
 20
27.91054512686987
 30
0.0
 11
6.051703391548187
 21
27.77054512686977
 31
0.0
  0
LINE
  5
29C
330
2
100
AcDbEntity
  8
GAIKEI
  6
HIDDEN2
 62
     1
100
AcDbLine
 10
5.991688852548179
 20
27.57054512686995
 30
0.0
 11
5.891688852548185
 21
27.47054512686981
 31
0.0
  0
LINE
  5
29D
330
2
100
AcDbEntity
  8
GAIKEI
  6
HIDDEN2
 62
     1
100
AcDbLine
 10
6.051703391548187
 20
27.57054512686995
 30
0.0
 11
5.991688852548179
 21
27.57054512686995
 31
0.0
  0
LINE
  5
29E
330
2
100
AcDbEntity
  8
GAIKEI
  6
HIDDEN2
 62
     1
100
AcDbLine
 10
17.58807804354816
 20
25.54549170984979
 30
0.0
 11
17.68807804354819
 21
25.54549170984979
 31
0.0
  0
LINE
  5
29F
330
2
100
AcDbEntity
  8
GAIKEI
  6
HIDDEN2
 62
     1
100
AcDbLine
 10
17.58807804354816
 20
25.54549170984979
 30
0.0
 11
17.68807804354819
 21
25.54549170984979
 31
0.0
  0
ARC
  5
2A0
330
2
100
AcDbEntity
  8
GAIKEI
  6
Continuous
100
AcDbCircle
 10
18.08807804354816
 20
28.28100406700861
 30
0.0
 40
0.4000000000002001
100
AcDbArc
 50
91.00000000000822
 51
180.0
  0
LWPOLYLINE
  5
2A1
330
2
100
AcDbEntity
  8
GAIKEI
  6
HIDDEN2
 62
     1
100
AcDbPolyline
 90
        9
 70
     0
 43
0.0
 10
15.61147941114817
 20
28.00159046666994
 10
15.64043002594817
 20
28.01972959826975
 10
15.71973333974819
 20
28.05369546346986
 10
15.8139164843482
 20
28.07624136586986
 10
15.91656103394817
 20
28.08583083967
 10
16.02067193214819
 20
28.08181037786989
 10
16.11915419334818
 20
28.06445396826979
 10
16.20529641414819
 20
28.03494442166988
 10
16.26467667594821
 20
28.00159046666994
  0
LINE
  5
2A2
330
2
100
AcDbEntity
  8
GAIKEI
  6
HIDDEN2
 62
     1
100
AcDbLine
 10
16.3787322515482
 20
27.91054512666978
 30
0.0
 11
16.3608155881482
 21
27.92782994486987
 31
0.0
  0
LWPOLYLINE
  5
2A3
330
2
100
AcDbEntity
  8
GAIKEI
  6
HIDDEN2
 62
     1
100
AcDbPolyline
 90
        3
 70
     0
 43
0.0
 10
15.5514318859482
 20
27.9590860028697
 10
15.53315240014817
 20
27.94553273786977
 10
15.49224415494817
 20
27.9126904660697
  0
LINE
  5
2A4
330
2
100
AcDbEntity
  8
GAIKEI
  6
HIDDEN2
 62
     1
100
AcDbLine
 10
15.49224415494817
 20
27.91054512666978
 30
0.0
 11
15.49224415494817
 21
27.9126904660697
 31
0.0
  0
LINE
  5
2A5
330
2
100
AcDbEntity
  8
GAIKEI
  6
HIDDEN2
 62
     1
100
AcDbLine
 10
16.3608155881482
 20
27.92782994486987
 30
0.0
 11
16.3570156699482
 21
27.9359833122698
 31
0.0
  0
LINE
  5
2A6
330
2
100
AcDbEntity
  8
GAIKEI
  6
HIDDEN2
 62
     1
100
AcDbLine
 10
16.3608155881482
 20
27.91054512666978
 30
0.0
 11
16.3608155881482
 21
27.92782994486987
 31
0.0
  0
LINE
  5
2A7
330
2
100
AcDbEntity
  8
GAIKEI
  6
HIDDEN2
 62
     1
100
AcDbLine
 10
16.3570156699482
 20
27.9359833122698
 30
0.0
 11
16.29402802094819
 21
27.97908802346973
 31
0.0
  0
LINE
  5
2A8
330
2
100
AcDbEntity
  8
GAIKEI
  6
HIDDEN2
 62
     1
100
AcDbLine
 10
16.3570156699482
 20
27.91054512666978
 30
0.0
 11
16.3570156699482
 21
27.9359833122698
 31
0.0
  0
LINE
  5
2A9
330
2
100
AcDbEntity
  8
GAIKEI
  6
HIDDEN2
 62
     1
100
AcDbLine
 10
15.56601802154819
 20
27.96652935406968
 30
0.0
 11
15.5514318859482
 21
27.9590860028697
 31
0.0
  0
LINE
  5
2AA
330
2
100
AcDbEntity
  8
GAIKEI
  6
HIDDEN2
 62
     1
100
AcDbLine
 10
15.5514318859482
 20
27.91054512666978
 30
0.0
 11
15.5514318859482
 21
27.9590860028697
 31
0.0
  0
LINE
  5
2AB
330
2
100
AcDbEntity
  8
GAIKEI
  6
HIDDEN2
 62
     1
100
AcDbLine
 10
15.63316899514816
 20
28.00460848786992
 30
0.0
 11
15.56601802154819
 21
27.96652935406968
 31
0.0
  0
LINE
  5
2AC
330
2
100
AcDbEntity
  8
GAIKEI
  6
HIDDEN2
 62
     1
100
AcDbLine
 10
15.56601802154819
 20
27.91054512666978
 30
0.0
 11
15.56601802154819
 21
27.96652935406968
 31
0.0
  0
LINE
  5
2AD
330
2
100
AcDbEntity
  8
GAIKEI
  6
HIDDEN2
 62
     1
100
AcDbLine
 10
16.29402802094819
 20
27.97908802346973
 30
0.0
 11
16.27210100694819
 21
27.98554788346968
 31
0.0
  0
LINE
  5
2AE
330
2
100
AcDbEntity
  8
GAIKEI
  6
HIDDEN2
 62
     1
100
AcDbLine
 10
16.29402802094819
 20
27.91054512666978
 30
0.0
 11
16.29402802094819
 21
27.97908802346973
 31
0.0
  0
LINE
  5
2AF
330
2
100
AcDbEntity
  8
GAIKEI
  6
HIDDEN2
 62
     1
100
AcDbLine
 10
16.27210100694819
 20
27.98554788346968
 30
0.0
 11
16.20298305074817
 21
28.01995657806987
 31
0.0
  0
LINE
  5
2B0
330
2
100
AcDbEntity
  8
GAIKEI
  6
HIDDEN2
 62
     1
100
AcDbLine
 10
16.27210100694819
 20
27.91054512666978
 30
0.0
 11
16.27210100694819
 21
27.98554788346968
 31
0.0
  0
LINE
  5
2B1
330
2
100
AcDbEntity
  8
GAIKEI
  6
HIDDEN2
 62
     1
100
AcDbLine
 10
15.66514716374817
 20
28.00898668566987
 30
0.0
 11
15.63316899514816
 21
28.00460848786992
 31
0.0
  0
LINE
  5
2B2
330
2
100
AcDbEntity
  8
GAIKEI
  6
HIDDEN2
 62
     1
100
AcDbLine
 10
15.63316899514816
 20
27.91054512666978
 30
0.0
 11
15.63316899514816
 21
28.00460848786992
 31
0.0
  0
LWPOLYLINE
  5
2B3
330
2
100
AcDbEntity
  8
GAIKEI
  6
HIDDEN2
 62
     1
100
AcDbPolyline
 90
        4
 70
     0
 43
0.0
 10
16.20298305074817
 20
28.01995657806987
 10
16.19771897394818
 20
28.02072786786988
 10
16.17488789894818
 20
28.02246133886973
 10
16.16442323074818
 20
28.02243481666977
  0
LINE
  5
2B4
330
2
100
AcDbEntity
  8
GAIKEI
  6
HIDDEN2
 62
     1
100
AcDbLine
 10
16.20298305074817
 20
27.91054512666978
 30
0.0
 11
16.20298305074817
 21
28.01995657806987
 31
0.0
  0
LINE
  5
2B5
330
2
100
AcDbEntity
  8
GAIKEI
  6
HIDDEN2
 62
     1
100
AcDbLine
 10
15.73568515234819
 20
28.03800227166988
 30
0.0
 11
15.66514716374817
 21
28.00898668566987
 31
0.0
  0
LINE
  5
2B6
330
2
100
AcDbEntity
  8
GAIKEI
  6
HIDDEN2
 62
     1
100
AcDbLine
 10
15.66514716374817
 20
27.91054512666978
 30
0.0
 11
15.66514716374817
 21
28.00898668566987
 31
0.0
  0
LINE
  5
2B7
330
2
100
AcDbEntity
  8
GAIKEI
  6
HIDDEN2
 62
     1
100
AcDbLine
 10
15.78287609434818
 20
28.03716906386984
 30
0.0
 11
15.73568515234819
 21
28.03800227166988
 31
0.0
  0
LINE
  5
2B8
330
2
100
AcDbEntity
  8
GAIKEI
  6
HIDDEN2
 62
     1
100
AcDbLine
 10
15.73568515234819
 20
27.91054512666978
 30
0.0
 11
15.73568515234819
 21
28.03800227166988
 31
0.0
  0
LINE
  5
2B9
330
2
100
AcDbEntity
  8
GAIKEI
  6
HIDDEN2
 62
     1
100
AcDbLine
 10
16.16442323074818
 20
28.02243481666977
 30
0.0
 11
16.09388524214819
 21
28.04765048446979
 31
0.0
  0
LINE
  5
2BA
330
2
100
AcDbEntity
  8
GAIKEI
  6
HIDDEN2
 62
     1
100
AcDbLine
 10
16.16442323074818
 20
27.91054512666978
 30
0.0
 11
16.16442323074818
 21
28.02243481666977
 31
0.0
  0
LINE
  5
2BB
330
2
100
AcDbEntity
  8
GAIKEI
  6
HIDDEN2
 62
     1
100
AcDbLine
 10
16.09388524214819
 20
28.04765048446979
 30
0.0
 11
16.0413204043482
 21
28.04413032866995
 31
0.0
  0
LINE
  5
2BC
330
2
100
AcDbEntity
  8
GAIKEI
  6
HIDDEN2
 62
     1
100
AcDbLine
 10
16.09388524214819
 20
27.91054512666978
 30
0.0
 11
16.09388524214819
 21
28.04765048446979
 31
0.0
  0
LWPOLYLINE
  5
2BD
330
2
100
AcDbEntity
  8
GAIKEI
  6
HIDDEN2
 62
     1
100
AcDbPolyline
 90
        3
 70
     0
 43
0.0
 10
15.9111817813482
 20
28.04915590606965
 10
15.89511894794819
 20
28.05198151066992
 10
15.85199405054817
 20
28.05699162266996
  0
LINE
  5
2BE
330
2
100
AcDbEntity
  8
GAIKEI
  6
HIDDEN2
 62
     1
100
AcDbLine
 10
15.85199405054817
 20
28.05699162266996
 30
0.0
 11
15.78287609434818
 21
28.03716906386984
 31
0.0
  0
LINE
  5
2BF
330
2
100
AcDbEntity
  8
GAIKEI
  6
HIDDEN2
 62
     1
100
AcDbLine
 10
15.78287609434818
 20
27.91054512666978
 30
0.0
 11
15.78287609434818
 21
28.03716906386984
 31
0.0
  0
LINE
  5
2C0
330
2
100
AcDbEntity
  8
GAIKEI
  6
HIDDEN2
 62
     1
100
AcDbLine
 10
15.85199405054817
 20
27.91054512666978
 30
0.0
 11
15.85199405054817
 21
28.05699162266996
 31
0.0
  0
LINE
  5
2C1
330
2
100
AcDbEntity
  8
GAIKEI
  6
HIDDEN2
 62
     1
100
AcDbLine
 10
16.0413204043482
 20
28.04413032866995
 30
0.0
 11
15.97416943054819
 21
28.06028244846988
 31
0.0
  0
LINE
  5
2C2
330
2
100
AcDbEntity
  8
GAIKEI
  6
HIDDEN2
 62
     1
100
AcDbLine
 10
16.0413204043482
 20
27.91054512666978
 30
0.0
 11
16.0413204043482
 21
28.04413032866995
 31
0.0
  0
LINE
  5
2C3
330
2
100
AcDbEntity
  8
GAIKEI
  6
HIDDEN2
 62
     1
100
AcDbLine
 10
15.97416943054819
 20
28.06028244846988
 30
0.0
 11
15.9111817813482
 21
28.04915590606965
 31
0.0
  0
LINE
  5
2C4
330
2
100
AcDbEntity
  8
GAIKEI
  6
HIDDEN2
 62
     1
100
AcDbLine
 10
15.9111817813482
 20
27.91054512666978
 30
0.0
 11
15.9111817813482
 21
28.04915590606965
 31
0.0
  0
LINE
  5
2C5
330
2
100
AcDbEntity
  8
GAIKEI
  6
HIDDEN2
 62
     1
100
AcDbLine
 10
15.97416943054819
 20
27.91054512666978
 30
0.0
 11
15.97416943054819
 21
28.06028244846988
 31
0.0
  0
LINE
  5
2C6
330
2
100
AcDbEntity
  8
GAIKEI
  6
HIDDEN2
 62
     1
100
AcDbLine
 10
15.61147941114817
 20
28.00159046666994
 30
0.0
 11
15.55283003674816
 21
27.96011909626981
 31
0.0
  0
LINE
  5
2C7
330
2
100
AcDbEntity
  8
GAIKEI
  6
HIDDEN2
 62
     1
100
AcDbLine
 10
16.33819180654817
 20
27.94960741926974
 30
0.0
 11
16.26467667594821
 21
28.00159046666994
 31
0.0
  0
LINE
  5
2C8
330
2
100
AcDbEntity
  8
GAIKEI
  6
HIDDEN2
 62
     1
100
AcDbLine
 10
17.58807804354816
 20
24.81054512686973
 30
0.0
 11
17.4880780435482
 21
24.91054512686986
 31
0.0
  0
LINE
  5
2C9
330
2
100
AcDbEntity
  8
GAIKEI
  6
HIDDEN2
 62
     1
100
AcDbLine
 10
17.4880780435482
 20
27.81054512666987
 30
0.0
 11
17.38807804354818
 21
27.91054512666978
 31
0.0
  0
ARC
  5
2CA
330
2
100
AcDbEntity
  8
GAIKEI
  6
HIDDEN2
 62
     1
100
AcDbCircle
 10
12.06007804354817
 20
27.81054512666987
 30
0.0
 40
0.1
100
AcDbArc
 50
90.0
 51
180.0
  0
LINE
  5
2CB
330
2
100
AcDbEntity
  8
GAIKEI
  6
HIDDEN2
 62
     1
100
AcDbLine
 10
17.38807804354818
 20
27.91054512666978
 30
0.0
 11
12.06007804354817
 21
27.91054512666978
 31
0.0
  0
LINE
  5
2CC
330
2
100
AcDbEntity
  8
GAIKEI
  6
HIDDEN2
 62
     1
100
AcDbLine
 10
11.96007804354818
 20
27.75054512686978
 30
0.0
 11
11.87170339154818
 21
27.75054512686978
 31
0.0
  0
ARC
  5
2CD
330
2
100
AcDbEntity
  8
GAIKEI
  6
HIDDEN2
 62
     1
100
AcDbCircle
 10
11.77170339154818
 20
27.81054512686973
 30
0.0
 40
0.1
100
AcDbArc
 50
0.0
 51
90.0
  0
LINE
  5
2CE
330
2
100
AcDbEntity
  8
GAIKEI
  6
Continuous
100
AcDbLine
 10
39.5080780435388
 20
28.8454916984332
 30
0.0
 11
25.10807804353877
 21
28.8454916984332
 31
0.0
  0
LINE
  5
2CF
330
2
100
AcDbEntity
  8
GAIKEI
  6
Continuous
 62
     1
100
AcDbLine
 10
25.10807804353877
 20
29.04549169843324
 30
0.0
 11
39.5080780435388
 21
29.04549169843324
 31
0.0
  0
ARC
  5
2D0
330
2
100
AcDbEntity
  8
GAIKEI
  6
Continuous
100
AcDbCircle
 10
44.44028061942296
 20
48.42778717008582
 30
0.0
 40
20.0
100
AcDbArc
 50
241.6081468434165
 51
255.7229926802869
  0
LINE
  5
2D1
330
2
100
AcDbEntity
  8
GAIKEI
  6
Continuous
 62
     1
100
AcDbLine
 10
26.13978224109459
 20
30.84549169843319
 30
0.0
 11
26.10807804354798
 21
29.04549169843324
 31
0.0
  0
LINE
  5
2D2
330
2
100
AcDbEntity
  8
GAIKEI
  6
Phantom
100
AcDbLine
 10
34.90807804354878
 20
30.84549169843319
 30
0.0
 11
34.88274815266277
 21
30.84549169843319
 31
0.0
  0
LINE
  5
2D3
330
2
100
AcDbEntity
  8
GAIKEI
  6
Continuous
 62
     1
100
AcDbLine
 10
26.10807804354798
 20
28.8454916984332
 30
0.0
 11
26.10807804354798
 21
29.04549169843324
 31
0.0
  0
LINE
  5
2D4
330
2
100
AcDbEntity
  8
GAIKEI
  6
Continuous
100
AcDbLine
 10
34.72308939938657
 20
30.84549169843319
 30
0.0
 11
33.09306668770998
 21
30.84549169843319
 31
0.0
  0
LINE
  5
2D5
330
2
100
AcDbEntity
  8
GAIKEI
  6
Continuous
100
AcDbLine
 10
26.41514589287019
 20
30.84549169843319
 30
0.0
 11
25.50807804354838
 21
30.84549169843319
 31
0.0
  0
LINE
  5
2D6
330
2
100
AcDbEntity
  8
GAIKEI
  6
Continuous
100
AcDbLine
 10
28.608078043539
 20
30.8454916984328
 30
0.0
 11
26.41514589287019
 21
30.84549169843359
 31
0.0
  0
LINE
  5
2D7
330
2
100
AcDbEntity
  8
GAIKEI
  6
Continuous
100
AcDbLine
 10
25.50807804354838
 20
30.84549169843319
 30
0.0
 11
25.10807804353877
 21
29.04549169843324
 31
0.0
  0
LINE
  5
2D8
330
2
100
AcDbEntity
  8
GAIKEI
  6
Continuous
100
AcDbLine
 10
25.10807804353877
 20
28.8454916984332
 30
0.0
 11
25.10807804353877
 21
29.04549169843324
 31
0.0
  0
LINE
  5
2D9
330
2
100
AcDbEntity
  8
GAIKEI
  6
Continuous
100
AcDbLine
 10
34.88274815266277
 20
30.84549169843319
 30
0.0
 11
28.608078043539
 21
30.8454916984328
 31
0.0
  0
LINE
  5
2DA
330
2
100
AcDbEntity
  8
GAIKEI
  6
Continuous
 62
     1
100
AcDbLine
 10
27.60807499179018
 20
28.64199973946961
 30
0.0
 11
27.50807804354798
 21
28.64549170984981
 31
0.0
  0
ARC
  5
2DB
330
2
100
AcDbEntity
  8
GAIKEI
  6
Phantom
100
AcDbCircle
 10
44.44028061942296
 20
48.42778717008582
 30
0.0
 40
20.0
100
AcDbArc
 50
241.5357627809447
 51
241.6081468434165
  0
ARC
  5
2DC
330
2
100
AcDbEntity
  8
GAIKEI
  6
Continuous
100
AcDbCircle
 10
34.88274815266277
 20
30.74549169843323
 30
0.0
 40
0.1000000000002
100
AcDbArc
 50
61.6081468434222
 51
90.0
  0
LINE
  5
2DD
330
2
100
AcDbEntity
  8
GAIKEI
  6
Continuous
100
AcDbLine
 10
39.5080780435388
 20
28.8454916984332
 30
0.0
 11
39.5080780435388
 21
29.04549169843324
 31
0.0
  0
LINE
  5
2DE
330
2
100
AcDbEntity
  8
GAIKEI
  6
Continuous
100
AcDbLine
 10
57.0880749917902
 20
28.84549176257542
 30
0.0
 11
56.9581223622516
 21
28.84549176226381
 31
0.0
  0
ARC
  5
2DF
330
2
100
AcDbEntity
  8
GAIKEI
  6
Continuous
100
AcDbCircle
 10
-42.9119250082098
 20
28.84549175253221
 30
0.0
 40
100.0
100
AcDbArc
 50
359.9206634616126
 51
0.0000000057549211
  0
ARC
  5
2E0
330
2
100
AcDbEntity
  8
GAIKEI
  6
Continuous
100
AcDbCircle
 10
-42.9119250082098
 20
28.84549175253221
 30
0.0
 40
99.99999999999982
100
AcDbArc
 50
357.7075572296916
 51
359.8851787272026
  0
ARC
  5
2E1
330
2
100
AcDbEntity
  8
GAIKEI
  6
Continuous
100
AcDbCircle
 10
56.88787459080661
 20
28.64549176209539
 30
0.0
 40
0.2
100
AcDbArc
 50
359.8851787271993
 51
90.00000013733478
  0
LINE
  5
2E2
330
2
100
AcDbEntity
  8
WAKU
 62
     1
100
AcDbLine
 10
-56.39133636169361
 20
-40.94468682476417
 30
0.0
 11
68.60866363830638
 21
-40.94468682476417
 31
0.0
  0
LINE
  5
2E4
330
2
100
AcDbEntity
  8
WAKU
 62
     1
100
AcDbLine
 10
-56.39133636169361
 20
-20.94468682476418
 30
0.0
 11
68.60866363830638
 21
-20.94468682476418
 31
0.0
  0
LINE
  5
2E5
330
2
100
AcDbEntity
  8
WAKU
 62
     1
100
AcDbLine
 10
-56.39133636169361
 20
-25.94468682476418
 30
0.0
 11
68.60866363830638
 21
-25.94468682476418
 31
0.0
  0
LINE
  5
2E6
330
2
100
AcDbEntity
  8
WAKU
 62
     4
100
AcDbLine
 10
-56.39133636169361
 20
-5.944686824764175
 30
0.0
 11
68.60866363830638
 21
-5.944686824764175
 31
0.0
  0
LINE
  5
2E7
330
2
100
AcDbEntity
  8
WAKU
 62
     1
100
AcDbLine
 10
-56.39133636169361
 20
-10.94468682476417
 30
0.0
 11
68.60866363830638
 21
-10.94468682476417
 31
0.0
  0
LINE
  5
2E8
330
2
100
AcDbEntity
  8
WAKU
 62
     1
100
AcDbLine
 10
-56.39133636169361
 20
-15.94468682476417
 30
0.0
 11
68.60866363830638
 21
-15.94468682476417
 31
0.0
  0
LINE
  5
2E9
330
2
100
AcDbEntity
  8
WAKU
 62
     1
100
AcDbLine
 10
-56.39133636169361
 20
-35.94468682476418
 30
0.0
 11
68.60866363830638
 21
-35.94468682476418
 31
0.0
  0
LINE
  5
2EA
330
2
100
AcDbEntity
  8
WAKU
 62
     4
100
AcDbLine
 10
68.60866363830638
 20
-50.94468682476417
 30
0.0
 11
-56.39133636169361
 21
-50.94468682476417
 31
0.0
  0
LINE
  5
2EB
330
2
100
AcDbEntity
  8
WAKU
 62
     1
100
AcDbLine
 10
-56.39133636169361
 20
-45.94468682476406
 30
0.0
 11
68.60866363830638
 21
-45.94468682476417
 31
0.0
  0
LINE
  5
2EC
330
2
100
AcDbEntity
  8
WAKU
 62
     1
100
AcDbLine
 10
-56.39133636169361
 20
-30.94468682476418
 30
0.0
 11
68.60866363830638
 21
-30.94468682476418
 31
0.0
  0
LINE
  5
2ED
330
2
100
AcDbEntity
  8
WAKU
 62
     4
100
AcDbLine
 10
-56.39133636169361
 20
-5.944686824764175
 30
0.0
 11
-56.39133636169361
 21
-50.94468682476417
 31
0.0
  0
TEXT
  5
2EE
330
2
100
AcDbEntity
  8
MOJI1
 62
     2
100
AcDbText
 10
-13.89133636169362
 20
-44.94468682476417
 30
0.0
 40
3.0
  1
アナログ映像出力、集音（マイク）、ＳＤカードスロット
 41
0.85
100
AcDbText
  0
TEXT
  5
2EF
330
2
100
AcDbEntity
  8
MOJI1
 62
     2
100
AcDbText
 10
-13.89133636169362
 20
-19.94468682476417
 30
0.0
 40
3.0
  1
１．０ｌｘ（カラー）、０．０６ｌｘ（白黒）
100
AcDbText
  0
TEXT
  5
2F0
330
2
100
AcDbEntity
  8
MOJI1
 62
     2
100
AcDbText
 10
-13.89133636169362
 20
-29.94468682476418
 30
0.0
 40
3.0
  1
水平：６００ＴＶ本（カラー）、７８０ＴＶ本（白黒）
 41
0.9
100
AcDbText
  0
TEXT
  5
2F1
330
2
100
AcDbEntity
  8
MOJI1
 62
     2
100
AcDbText
 10
-13.89133636169362
 20
-49.94468682476417
 30
0.0
 40
3.0
  1
画ゆれ補正、ＶＭＤアラーム、オートバックフォーカス
 41
0.9
100
AcDbText
  0
TEXT
  5
2F2
330
2
100
AcDbEntity
  8
MOJI1
 62
     2
100
AcDbText
 10
-13.89133636169362
 20
-39.94468682476418
 30
0.0
 40
3.0
  1
１０ＢＡＳＥ－Ｔ／１００ＢＡＳＥ－Ｔｘ、ＲＪ４５コネクター
 41
0.7800000000000001
100
AcDbText
  0
TEXT
  5
2F3
330
2
100
AcDbEntity
  8
MOJI1
 62
     2
100
AcDbText
 10
-13.89133636169362
 20
-34.94468682476418
 30
0.0
 40
3.0
  1
垂直：４５０ＴＶ本以上（フルスキャンモード）
100
AcDbText
  0
TEXT
  5
2F4
330
2
100
AcDbEntity
  8
MOJI1
 62
     2
100
AcDbText
 10
-13.89133636169362
 20
-14.94468682476417
 30
0.0
 40
3.0
  1
１／３型インターライン転送方式ＣＣＤ
 41
0.9
100
AcDbText
  0
TEXT
  5
2F5
330
2
100
AcDbEntity
  8
MOJI1
 62
     2
100
AcDbText
 10
-13.89133636169362
 20
-9.944686824764175
 30
0.0
 40
3.0
  1
ＡＣ２４Ｖ　５０／６０Ｈｚ
 41
0.95
100
AcDbText
  0
TEXT
  5
2F6
330
2
100
AcDbEntity
  8
MOJI1
 62
     2
100
AcDbText
 10
-13.89133636169362
 20
-24.94468682476418
 30
0.0
 40
3.0
  1
ＪＰＥＧ／ＭＰＥＧ４（同時圧縮機能）
 41
0.95
100
AcDbText
  0
TEXT
  5
2F7
330
2
100
AcDbEntity
  8
MOJI1
 62
     2
100
AcDbText
 10
-53.89133636169361
 20
-14.94468682476417
 30
0.0
 40
3.0
  1
撮像素子
100
AcDbText
  0
TEXT
  5
2F8
330
2
100
AcDbEntity
  8
MOJI1
 62
     2
100
AcDbText
 10
-53.89133636169361
 20
-39.94468682476418
 30
0.0
 40
3.0
  1
ネットワーク
100
AcDbText
  0
TEXT
  5
2F9
330
2
100
AcDbEntity
  8
MOJI1
 62
     2
100
AcDbText
 10
-53.89133636169361
 20
-19.94468682476417
 30
0.0
 40
3.0
  1
最低照度
100
AcDbText
  0
TEXT
  5
2FA
330
2
100
AcDbEntity
  8
MOJI1
 62
     2
100
AcDbText
 10
-53.89133636169361
 20
-24.94468682476418
 30
0.0
 40
3.0
  1
画像圧縮方式
100
AcDbText
  0
TEXT
  5
2FB
330
2
100
AcDbEntity
  8
MOJI1
 62
     2
100
AcDbText
 10
-53.89133636169361
 20
-29.94468682476418
 30
0.0
 40
3.0
  1
解像度
100
AcDbText
  0
TEXT
  5
2FC
330
2
100
AcDbEntity
  8
MOJI1
 62
     2
100
AcDbText
 10
-53.89133636169361
 20
-44.94468682476417
 30
0.0
 40
3.0
  1
機　能
100
AcDbText
  0
TEXT
  5
2FD
330
2
100
AcDbEntity
  8
MOJI1
 62
     2
100
AcDbText
 10
-53.89133636169361
 20
-9.944686824764175
 30
0.0
 40
3.0
  1
電　源
100
AcDbText
  0
LINE
  5
2FE
330
2
100
AcDbEntity
  8
WAKU
 62
     4
100
AcDbLine
 10
-16.39133636169361
 20
-5.944686824764175
 30
0.0
 11
-16.39133636169361
 21
-50.94468682476417
 31
0.0
  0
LINE
  5
2FF
330
2
100
AcDbEntity
  8
WAKU
 62
     4
100
AcDbLine
 10
68.60866363830638
 20
-5.944686824764175
 30
0.0
 11
68.60866363830638
 21
-50.94468682476417
 31
0.0
  0
ENDSEC
  0
SECTION
  2
OBJECTS
  0
DICTIONARY
  5
9
330
0
100
AcDbDictionary
281
     1
  3
ACAD_COLOR
350
35F
  3
ACAD_GROUP
350
2A
  3
ACAD_LAYOUT
350
D
  3
ACAD_MATERIAL
350
35E
  3
ACAD_MLINESTYLE
350
2B
  3
ACAD_PLOTSETTINGS
350
2C
  3
ACAD_PLOTSTYLENAME
350
8
  3
ACDBHEADERROUNDTRIPXREC
350
380
  3
AcDbVariableDictionary
350
302
  0
DICTIONARY
  5
19
330
18
100
AcDbDictionary
280
     1
281
     1
  3
ACAD_LAYERFILTERS
360
1A
  3
ACAD_LAYERSTATES
360
1B
  0
DICTIONARY
  5
3
330
2
100
AcDbDictionary
280
     1
281
     1
  3
ACAD_LAYOUTSELFREF
360
32F
  0
DICTIONARY
  5
11
330
10
100
AcDbDictionary
280
     1
281
     1
  3
ACAD_LAYOUTSELFREF
360
334
  0
DICTIONARY
  5
35F
102
{ACAD_REACTORS
330
9
102
}
330
9
100
AcDbDictionary
281
     1
  0
DICTIONARY
  5
2A
102
{ACAD_REACTORS
330
9
102
}
330
9
100
AcDbDictionary
281
     1
  0
DICTIONARY
  5
D
102
{ACAD_REACTORS
330
9
102
}
330
9
100
AcDbDictionary
281
     1
  3
Model
350
C
  3
ﾚｲｱｳﾄ1
350
15
  0
DICTIONARY
  5
35E
102
{ACAD_REACTORS
330
9
102
}
330
9
100
AcDbDictionary
281
     1
  0
DICTIONARY
  5
2B
102
{ACAD_REACTORS
330
9
102
}
330
9
100
AcDbDictionary
281
     1
  3
STANDARD
350
34
  0
DICTIONARY
  5
2C
102
{ACAD_REACTORS
330
9
102
}
330
9
100
AcDbDictionary
281
     1
  0
ACDBDICTIONARYWDFLT
  5
8
102
{ACAD_REACTORS
330
9
102
}
330
9
100
AcDbDictionary
281
     1
  3
Normal
350
7
100
AcDbDictionaryWithDefault
340
7
  0
DICTIONARY
  5
380
102
{ACAD_REACTORS
330
9
102
}
330
9
100
AcDbDictionary
281
     1
  3
COLORDICT
350
382
  3
MATERIALDICT
350
381
  0
DICTIONARY
  5
302
102
{ACAD_REACTORS
330
9
102
}
330
9
100
AcDbDictionary
281
     1
  3
DIMASSOC
350
304
  3
HIDETEXT
350
303
  3
PROJECTNAME
350
37E
  0
DICTIONARY
  5
1A
102
{ACAD_REACTORS
330
19
102
}
330
19
100
AcDbDictionary
280
     1
281
     1
  0
DICTIONARY
  5
1B
102
{ACAD_REACTORS
330
19
102
}
330
19
100
AcDbDictionary
281
     1
  0
XRECORD
  5
32F
102
{ACAD_REACTORS
330
3
102
}
330
3
100
AcDbXrecord
280
     1
340
2
  0
XRECORD
  5
334
102
{ACAD_REACTORS
330
11
102
}
330
11
100
AcDbXrecord
280
     1
340
10
  0
LAYOUT
  5
C
102
{ACAD_XDICTIONARY
360
383
102
}
102
{ACAD_REACTORS
330
D
102
}
330
D
100
AcDbPlotSettings
  1

  2
\\URANUS\8FPAM09
  4
A4
  6

 40
4.180416584014892
 41
4.349743366241455
 42
4.222747802734375
 43
4.349761962890625
 44
210.0156707763672
 45
297.0106506347656
 46
6.099999999999999
 47
0.0
 48
0.0
 49
0.0
140
0.0
141
0.0
142
1.0
143
1.367729288911884
 70
 11956
 72
     1
 73
     0
 74
     1
  7
tmsacad.ctb
 75
     0
147
0.7311388358112616
148
0.5335901474040839
149
0.0875646249287456
100
AcDbLayout
  1
Model
 70
     1
 71
     0
 10
0.0
 20
0.0
 11
12.0
 21
9.0
 12
0.0
 22
0.0
 32
0.0
 14
0.0
 24
0.0
 34
0.0
 15
0.0
 25
0.0
 35
0.0
146
0.0
 13
0.0
 23
0.0
 33
0.0
 16
1.0
 26
0.0
 36
0.0
 17
0.0
 27
1.0
 37
0.0
 76
     0
330
2
  0
LAYOUT
  5
15
102
{ACAD_XDICTIONARY
360
385
102
}
102
{ACAD_REACTORS
330
D
102
}
330
D
100
AcDbPlotSettings
  1

  2
C:\Program Files\ACAD2000\plotters\DWF ePlot.pc3
  4

  6

 40
0.0
 41
0.0
 42
0.0
 43
0.0
 44
0.0
 45
0.0
 46
0.0
 47
0.0
 48
0.0
 49
0.0
140
0.0
141
0.0
142
1.0
143
1.0
 70
   688
 72
     0
 73
     0
 74
     5
  7
tmsacad.ctb
 75
    16
147
1.0
148
0.0
149
0.0
100
AcDbLayout
  1
ﾚｲｱｳﾄ1
 70
     1
 71
     1
 10
0.0
 20
0.0
 11
12.0
 21
9.0
 12
0.0
 22
0.0
 32
0.0
 14
1.000000000000000E+20
 24
1.000000000000000E+20
 34
1.000000000000000E+20
 15
-1.000000000000000E+20
 25
-1.000000000000000E+20
 35
-1.000000000000000E+20
146
0.0
 13
0.0
 23
0.0
 33
0.0
 16
1.0
 26
0.0
 36
0.0
 17
0.0
 27
1.0
 37
0.0
 76
     0
330
10
  0
MLINESTYLE
  5
34
102
{ACAD_REACTORS
330
2B
102
}
330
2B
100
AcDbMlineStyle
  2
STANDARD
 70
     0
  3

 62
   256
 51
90.0
 52
90.0
 71
     2
 49
0.5
 62
   256
  6
BYLAYER
 49
-0.5
 62
   256
  6
BYLAYER
  0
ACDBPLACEHOLDER
  5
7
102
{ACAD_REACTORS
330
8
102
}
330
8
  0
XRECORD
  5
382
102
{ACAD_REACTORS
330
380
102
}
330
380
100
AcDbXrecord
280
     1
340
35F
  0
XRECORD
  5
381
102
{ACAD_REACTORS
330
380
102
}
330
380
100
AcDbXrecord
280
     1
340
35E
  0
DICTIONARYVAR
  5
304
102
{ACAD_REACTORS
330
302
102
}
330
302
100
DictionaryVariables
280
     0
  1
1
  0
DICTIONARYVAR
  5
303
102
{ACAD_REACTORS
330
302
102
}
330
302
100
DictionaryVariables
280
     0
  1
1
  0
DICTIONARYVAR
  5
37E
102
{ACAD_REACTORS
330
302
102
}
330
302
100
DictionaryVariables
280
     0
  1

  0
DICTIONARY
  5
383
330
C
100
AcDbDictionary
280
     1
281
     1
  3
ACAD_XREC_ROUNDTRIP
360
384
  0
DICTIONARY
  5
385
330
15
100
AcDbDictionary
280
     1
281
     1
  3
ACAD_XREC_ROUNDTRIP
360
386
  0
XRECORD
  5
384
102
{ACAD_REACTORS
330
383
102
}
330
383
100
AcDbXrecord
280
     1
102
SHADEPLOT
 70
     0
102
SHADEPLOTRESLEVEL
 70
     2
102
SHADEPLOTCUSTOMDPI
 70
   300
  0
XRECORD
  5
386
102
{ACAD_REACTORS
330
385
102
}
330
385
100
AcDbXrecord
280
     1
102
SHADEPLOT
 70
     0
102
SHADEPLOTRESLEVEL
 70
     2
102
SHADEPLOTCUSTOMDPI
 70
   300
  0
ENDSEC
  0
EOF
