  0
SECTION
  2
HEADER
  9
$ACADVER
  1
AC1015
  9
$ACADMAINTVER
 70
    20
  9
$DWGCODEPAGE
  3
ANSI_932
  9
$INSBASE
 10
129.0
 20
246.4992141396418
 30
0.0
  9
$EXTMIN
 10
-69.81980247989714
 20
-54.28845704028481
 30
-0.0015258207003583
  9
$EXTMAX
 10
55.26070649006761
 20
58.84262487534034
 30
0.0000000349246037
  9
$LIMMIN
 10
-1101.784450318844
 20
-1579.160531687244
  9
$LIMMAX
 10
-508.2420711400536
 20
-1161.440814074914
  9
$ORTHOMODE
 70
     1
  9
$REGENMODE
 70
     1
  9
$FILLMODE
 70
     1
  9
$QTEXTMODE
 70
     0
  9
$MIRRTEXT
 70
     0
  9
$LTSCALE
 40
1.0
  9
$ATTMODE
 70
     1
  9
$TEXTSIZE
 40
3.0
  9
$TRACEWID
 40
0.5
  9
$TEXTSTYLE
  7
STANDARD
  9
$CLAYER
  8
SUNPO
  9
$CELTYPE
  6
BYLAYER
  9
$CECOLOR
 62
   256
  9
$CELTSCALE
 40
1.0
  9
$DISPSILH
 70
     0
  9
$DIMSCALE
 40
1.0
  9
$DIMASZ
 40
2.0
  9
$DIMEXO
 40
2.0
  9
$DIMDLI
 40
8.0
  9
$DIMRND
 40
0.0
  9
$DIMDLE
 40
0.0
  9
$DIMEXE
 40
2.0
  9
$DIMTP
 40
0.0
  9
$DIMTM
 40
0.0
  9
$DIMTXT
 40
2.5
  9
$DIMCEN
 40
0.0
  9
$DIMTSZ
 40
0.0
  9
$DIMTOL
 70
     0
  9
$DIMLIM
 70
     0
  9
$DIMTIH
 70
     0
  9
$DIMTOH
 70
     0
  9
$DIMSE1
 70
     0
  9
$DIMSE2
 70
     0
  9
$DIMTAD
 70
     3
  9
$DIMZIN
 70
     0
  9
$DIMBLK
  1

  9
$DIMASO
 70
     1
  9
$DIMSHO
 70
     1
  9
$DIMPOST
  1

  9
$DIMAPOST
  1

  9
$DIMALT
 70
     0
  9
$DIMALTD
 70
     2
  9
$DIMALTF
 40
25.4
  9
$DIMLFAC
 40
1.0
  9
$DIMTOFL
 70
     1
  9
$DIMTVP
 40
0.0
  9
$DIMTIX
 70
     0
  9
$DIMSOXD
 70
     0
  9
$DIMSAH
 70
     1
  9
$DIMBLK1
  1
OPEN30
  9
$DIMBLK2
  1
OPEN30
  9
$DIMSTYLE
  2
STANDARD
  9
$DIMCLRD
 70
     0
  9
$DIMCLRE
 70
     0
  9
$DIMCLRT
 70
     0
  9
$DIMTFAC
 40
1.0
  9
$DIMGAP
 40
0.5
  9
$DIMJUST
 70
     0
  9
$DIMSD1
 70
     0
  9
$DIMSD2
 70
     0
  9
$DIMTOLJ
 70
     1
  9
$DIMTZIN
 70
     0
  9
$DIMALTZ
 70
     0
  9
$DIMALTTZ
 70
     0
  9
$DIMUPT
 70
     0
  9
$DIMDEC
 70
     4
  9
$DIMTDEC
 70
     4
  9
$DIMALTU
 70
     2
  9
$DIMALTTD
 70
     2
  9
$DIMTXSTY
  7
STANDARD
  9
$DIMAUNIT
 70
     0
  9
$DIMADEC
 70
     0
  9
$DIMALTRND
 40
0.0
  9
$DIMAZIN
 70
     0
  9
$DIMDSEP
 70
    46
  9
$DIMATFIT
 70
     3
  9
$DIMFRAC
 70
     0
  9
$DIMLDRBLK
  1
OPEN30
  9
$DIMLUNIT
 70
     2
  9
$DIMLWD
 70
    -2
  9
$DIMLWE
 70
    -2
  9
$DIMTMOVE
 70
     0
  9
$LUNITS
 70
     2
  9
$LUPREC
 70
     4
  9
$SKETCHINC
 40
0.1
  9
$FILLETRAD
 40
0.0
  9
$AUNITS
 70
     0
  9
$AUPREC
 70
     0
  9
$MENU
  1
ACAD
  9
$ELEVATION
 40
0.0
  9
$PELEVATION
 40
0.0
  9
$THICKNESS
 40
0.0
  9
$LIMCHECK
 70
     0
  9
$CHAMFERA
 40
0.0
  9
$CHAMFERB
 40
0.0
  9
$CHAMFERC
 40
0.0
  9
$CHAMFERD
 40
0.0
  9
$SKPOLY
 70
     0
  9
$TDCREATE
 40
2451815.565532581
  9
$TDUCREATE
 40
2451815.190532581
  9
$TDUPDATE
 40
2454019.679367940
  9
$TDUUPDATE
 40
2454019.304367940
  9
$TDINDWG
 40
1.2078075579
  9
$TDUSRTIMER
 40
1.2078075579
  9
$USRTIMER
 70
     1
  9
$ANGBASE
 50
0.0
  9
$ANGDIR
 70
     0
  9
$PDMODE
 70
     0
  9
$PDSIZE
 40
0.0
  9
$PLINEWID
 40
0.0
  9
$SPLFRAME
 70
     0
  9
$SPLINETYPE
 70
     6
  9
$SPLINESEGS
 70
     8
  9
$HANDSEED
  5
274
  9
$SURFTAB1
 70
     6
  9
$SURFTAB2
 70
     6
  9
$SURFTYPE
 70
     6
  9
$SURFU
 70
     6
  9
$SURFV
 70
     6
  9
$UCSBASE
  2

  9
$UCSNAME
  2

  9
$UCSORG
 10
0.0
 20
0.0
 30
0.0
  9
$UCSXDIR
 10
1.0
 20
0.0
 30
0.0
  9
$UCSYDIR
 10
0.0
 20
1.0
 30
0.0
  9
$UCSORTHOREF
  2

  9
$UCSORTHOVIEW
 70
     0
  9
$UCSORGTOP
 10
0.0
 20
0.0
 30
0.0
  9
$UCSORGBOTTOM
 10
0.0
 20
0.0
 30
0.0
  9
$UCSORGLEFT
 10
0.0
 20
0.0
 30
0.0
  9
$UCSORGRIGHT
 10
0.0
 20
0.0
 30
0.0
  9
$UCSORGFRONT
 10
0.0
 20
0.0
 30
0.0
  9
$UCSORGBACK
 10
0.0
 20
0.0
 30
0.0
  9
$PUCSBASE
  2

  9
$PUCSNAME
  2

  9
$PUCSORG
 10
0.0
 20
0.0
 30
0.0
  9
$PUCSXDIR
 10
1.0
 20
0.0
 30
0.0
  9
$PUCSYDIR
 10
0.0
 20
1.0
 30
0.0
  9
$PUCSORTHOREF
  2

  9
$PUCSORTHOVIEW
 70
     0
  9
$PUCSORGTOP
 10
0.0
 20
0.0
 30
0.0
  9
$PUCSORGBOTTOM
 10
0.0
 20
0.0
 30
0.0
  9
$PUCSORGLEFT
 10
0.0
 20
0.0
 30
0.0
  9
$PUCSORGRIGHT
 10
0.0
 20
0.0
 30
0.0
  9
$PUCSORGFRONT
 10
0.0
 20
0.0
 30
0.0
  9
$PUCSORGBACK
 10
0.0
 20
0.0
 30
0.0
  9
$USERI1
 70
     0
  9
$USERI2
 70
     0
  9
$USERI3
 70
     0
  9
$USERI4
 70
     0
  9
$USERI5
 70
     0
  9
$USERR1
 40
0.0
  9
$USERR2
 40
0.0
  9
$USERR3
 40
0.0
  9
$USERR4
 40
0.0
  9
$USERR5
 40
0.0
  9
$WORLDVIEW
 70
     1
  9
$SHADEDGE
 70
     3
  9
$SHADEDIF
 70
    70
  9
$TILEMODE
 70
     1
  9
$MAXACTVP
 70
    48
  9
$PINSBASE
 10
0.0
 20
0.0
 30
0.0
  9
$PLIMCHECK
 70
     0
  9
$PEXTMIN
 10
1.000000000000000E+20
 20
1.000000000000000E+20
 30
1.000000000000000E+20
  9
$PEXTMAX
 10
-1.000000000000000E+20
 20
-1.000000000000000E+20
 30
-1.000000000000000E+20
  9
$PLIMMIN
 10
0.0
 20
0.0
  9
$PLIMMAX
 10
12.0
 20
9.0
  9
$UNITMODE
 70
     0
  9
$VISRETAIN
 70
     1
  9
$PLINEGEN
 70
     0
  9
$PSLTSCALE
 70
     1
  9
$TREEDEPTH
 70
  3020
  9
$CMLSTYLE
  2
STANDARD
  9
$CMLJUST
 70
     0
  9
$CMLSCALE
 40
1.0
  9
$PROXYGRAPHICS
 70
     1
  9
$MEASUREMENT
 70
     0
  9
$CELWEIGHT
370
    -1
  9
$ENDCAPS
280
     0
  9
$JOINSTYLE
280
     0
  9
$LWDISPLAY
290
     0
  9
$INSUNITS
 70
     0
  9
$HYPERLINKBASE
  1

  9
$STYLESHEET
  1

  9
$XEDIT
290
     1
  9
$CEPSNTYPE
380
     0
  9
$PSTYLEMODE
290
     1
  9
$FINGERPRINTGUID
  2
{1754B7AB-9B3C-11D4-AD9E-00104B1004F2}
  9
$VERSIONGUID
  2
{4861AC45-97AC-4142-8AF8-1E202858DB7E}
  9
$EXTNAMES
290
     1
  9
$PSVPSCALE
 40
0.0
  9
$OLESTARTUP
290
     0
  0
ENDSEC
  0
SECTION
  2
CLASSES
  0
CLASS
  1
ACDBDICTIONARYWDFLT
  2
AcDbDictionaryWithDefault
  3
ObjectDBX Classes
 90
        0
280
     0
281
     0
  0
CLASS
  1
ACDBPLACEHOLDER
  2
AcDbPlaceHolder
  3
ObjectDBX Classes
 90
        0
280
     0
281
     0
  0
CLASS
  1
LAYOUT
  2
AcDbLayout
  3
ObjectDBX Classes
 90
        0
280
     0
281
     0
  0
CLASS
  1
DICTIONARYVAR
  2
AcDbDictionaryVar
  3
ObjectDBX Classes
 90
        0
280
     0
281
     0
  0
ENDSEC
  0
SECTION
  2
TABLES
  0
TABLE
  2
VPORT
  5
1F
330
0
100
AcDbSymbolTable
 70
     2
  0
VPORT
  5
26C
330
1F
100
AcDbSymbolTableRecord
100
AcDbViewportTableRecord
  2
*Active
 70
     0
 10
0.0
 20
0.0
 11
1.0
 21
1.0
 12
-7.279547994914768
 22
2.277083917527761
 13
0.0
 23
0.0
 14
1.0
 24
1.0
 15
0.0
 25
0.0
 16
0.0
 26
0.0
 36
1.0
 17
0.0
 27
0.0
 37
0.0
 40
114.0114794402603
 41
1.411688311688311
 42
50.0
 43
0.0
 44
0.0
 50
0.0
 51
0.0
 71
     0
 72
 10000
 73
     1
 74
     0
 75
     0
 76
     1
 77
     0
 78
     0
281
     0
 65
     1
110
0.0
120
0.0
130
0.0
111
1.0
121
0.0
131
0.0
112
0.0
122
1.0
132
0.0
 79
     0
146
0.0
  0
ENDTAB
  0
TABLE
  2
LTYPE
  5
1A
330
0
100
AcDbSymbolTable
 70
     2
  0
LTYPE
  5
1B
330
1A
100
AcDbSymbolTableRecord
100
AcDbLinetypeTableRecord
  2
BYBLOCK
 70
     0
  3

 72
    65
 73
     0
 40
0.0
  0
LTYPE
  5
1C
330
1A
100
AcDbSymbolTableRecord
100
AcDbLinetypeTableRecord
  2
BYLAYER
 70
     0
  3

 72
    65
 73
     0
 40
0.0
  0
LTYPE
  5
A
330
1A
100
AcDbSymbolTableRecord
100
AcDbLinetypeTableRecord
  2
CONTINUOUS
 70
     0
  3
Solid line
 72
    65
 73
     0
 40
0.0
  0
LTYPE
  5
6B
330
1A
100
AcDbSymbolTableRecord
100
AcDbLinetypeTableRecord
  2
CENTER
 70
     0
  3
Center ____ _ ____ _ ____ _ ____ _ ____ _ ____
 72
    65
 73
     4
 40
50.8
 49
31.75
 74
     0
 49
-6.349999999999999
 74
     0
 49
6.349999999999999
 74
     0
 49
-6.349999999999999
 74
     0
  0
ENDTAB
  0
TABLE
  2
LAYER
  5
14
102
{ACAD_XDICTIONARY
360
15
102
}
330
0
100
AcDbSymbolTable
 70
     8
  0
LAYER
  5
6
330
14
100
AcDbSymbolTableRecord
100
AcDbLayerTableRecord
  2
0
 70
     0
 62
     7
  6
CONTINUOUS
370
    -3
390
7
  0
LAYER
  5
41
330
14
100
AcDbSymbolTableRecord
100
AcDbLayerTableRecord
  2
DEFPOINTS
 70
     0
 62
     7
  6
CONTINUOUS
290
     0
370
    -3
390
7
  0
LAYER
  5
20C
330
14
100
AcDbSymbolTableRecord
100
AcDbLayerTableRecord
  2
WAKU
 70
     0
 62
     4
  6
CONTINUOUS
370
    -3
390
7
  0
LAYER
  5
34
330
14
100
AcDbSymbolTableRecord
100
AcDbLayerTableRecord
  2
MOJI1
 70
     0
 62
     2
  6
CONTINUOUS
370
    -3
390
7
  0
LAYER
  5
53
330
14
100
AcDbSymbolTableRecord
100
AcDbLayerTableRecord
  2
GAIKEI
 70
     0
 62
     7
  6
CONTINUOUS
370
    -3
390
7
  0
LAYER
  5
36
330
14
100
AcDbSymbolTableRecord
100
AcDbLayerTableRecord
  2
TOUROKU
 70
     0
 62
     1
  6
CONTINUOUS
370
    -3
390
7
  0
LAYER
  5
31
330
14
100
AcDbSymbolTableRecord
100
AcDbLayerTableRecord
  2
SUNPO
 70
     0
 62
     3
  6
CONTINUOUS
370
    -3
390
7
  0
LAYER
  5
F8
330
14
100
AcDbSymbolTableRecord
100
AcDbLayerTableRecord
  2
LY_1
 70
     0
 62
     7
  6
CONTINUOUS
370
    -3
390
7
  0
ENDTAB
  0
TABLE
  2
STYLE
  5
17
330
0
100
AcDbSymbolTable
 70
     1
  0
STYLE
  5
18
330
17
100
AcDbSymbolTableRecord
100
AcDbTextStyleTableRecord
  2
STANDARD
 70
     0
 40
0.0
 41
1.0
 50
0.0
 71
     0
 42
3.0
  3
MONOTXT.shx
  4
BIGFONT.shx
  0
ENDTAB
  0
TABLE
  2
VIEW
  5
1D
330
0
100
AcDbSymbolTable
 70
     0
  0
ENDTAB
  0
TABLE
  2
UCS
  5
1E
330
0
100
AcDbSymbolTable
 70
     0
  0
ENDTAB
  0
TABLE
  2
APPID
  5
21
330
0
100
AcDbSymbolTable
 70
     1
  0
APPID
  5
22
330
21
100
AcDbSymbolTableRecord
100
AcDbRegAppTableRecord
  2
ACAD
 70
     0
  0
ENDTAB
  0
TABLE
  2
DIMSTYLE
  5
23
330
0
100
AcDbSymbolTable
 70
     1
100
AcDbDimStyleTable
 71
     1
340
24
  0
DIMSTYLE
105
24
102
{ACAD_REACTORS
330
84
330
91
330
F9
330
45
330
37
102
}
330
23
100
AcDbSymbolTableRecord
100
AcDbDimStyleTableRecord
  2
STANDARD
 70
     0
 40
0.0
 41
2.0
 42
2.0
 43
8.0
 44
2.0
 73
     0
 74
     0
 77
     3
140
3.0
141
0.0
173
     1
279
     2
288
     1
340
18
341
25
343
25
344
25
  0
ENDTAB
  0
TABLE
  2
BLOCK_RECORD
  5
1
330
0
100
AcDbSymbolTable
 70
    11
  0
BLOCK_RECORD
  5
2
102
{ACAD_XDICTIONARY
360
3
102
}
330
1
100
AcDbSymbolTableRecord
100
AcDbBlockTableRecord
  2
*MODEL_SPACE
340
C
  0
BLOCK_RECORD
  5
E
102
{ACAD_XDICTIONARY
360
F
102
}
330
1
100
AcDbSymbolTableRecord
100
AcDbBlockTableRecord
  2
*PAPER_SPACE
340
13
  0
BLOCK_RECORD
  5
25
330
1
100
AcDbSymbolTableRecord
100
AcDbBlockTableRecord
  2
_OPEN30
340
0
102
{BLKREFS
331
4B
331
4C
331
8A
331
8B
331
97
331
98
331
101
331
102
331
3D
331
3E
331
230
331
231
331
23C
331
23D
331
248
331
249
331
254
331
255
331
260
331
261
102
}
  0
BLOCK_RECORD
  5
FA
330
1
100
AcDbSymbolTableRecord
100
AcDbBlockTableRecord
  2
*D1
340
0
  0
BLOCK_RECORD
  5
85
330
1
100
AcDbSymbolTableRecord
100
AcDbBlockTableRecord
  2
*D2
340
0
  0
BLOCK_RECORD
  5
92
330
1
100
AcDbSymbolTableRecord
100
AcDbBlockTableRecord
  2
*D3
340
0
  0
BLOCK_RECORD
  5
46
330
1
100
AcDbSymbolTableRecord
100
AcDbBlockTableRecord
  2
*D4
340
0
  0
BLOCK_RECORD
  5
38
330
1
100
AcDbSymbolTableRecord
100
AcDbBlockTableRecord
  2
*D5
340
0
  0
BLOCK_RECORD
  5
22A
330
1
100
AcDbSymbolTableRecord
100
AcDbBlockTableRecord
  2
*D6
340
0
  0
BLOCK_RECORD
  5
238
330
1
100
AcDbSymbolTableRecord
100
AcDbBlockTableRecord
  2
*D7
340
0
  0
BLOCK_RECORD
  5
244
330
1
100
AcDbSymbolTableRecord
100
AcDbBlockTableRecord
  2
*D8
340
0
  0
BLOCK_RECORD
  5
250
330
1
100
AcDbSymbolTableRecord
100
AcDbBlockTableRecord
  2
*D9
340
0
  0
BLOCK_RECORD
  5
25C
330
1
100
AcDbSymbolTableRecord
100
AcDbBlockTableRecord
  2
*D10
340
0
  0
ENDTAB
  0
ENDSEC
  0
SECTION
  2
BLOCKS
  0
BLOCK
  5
5
330
2
100
AcDbEntity
  8
0
100
AcDbBlockBegin
  2
*MODEL_SPACE
 70
     0
 10
0.0
 20
0.0
 30
0.0
  3
*MODEL_SPACE
  1

  0
ENDBLK
  5
B
330
2
100
AcDbEntity
  8
0
100
AcDbBlockEnd
  0
BLOCK
  5
11
330
E
100
AcDbEntity
 67
     1
  8
0
100
AcDbBlockBegin
  2
*PAPER_SPACE
 70
     0
 10
0.0
 20
0.0
 30
0.0
  3
*PAPER_SPACE
  1

  0
ENDBLK
  5
12
330
E
100
AcDbEntity
 67
     1
  8
0
100
AcDbBlockEnd
  0
BLOCK
  5
26
330
25
100
AcDbEntity
  8
0
100
AcDbBlockBegin
  2
_OPEN30
 70
     0
 10
0.0
 20
0.0
 30
0.0
  3
_OPEN30
  1

  0
LINE
  5
27
330
25
100
AcDbEntity
  8
0
  6
ByBlock
 62
     0
100
AcDbLine
 10
-1.0
 20
0.26794919
 30
0.0
 11
0.0
 21
0.0
 31
0.0
  0
LINE
  5
28
330
25
100
AcDbEntity
  8
0
  6
ByBlock
 62
     0
100
AcDbLine
 10
0.0
 20
0.0
 30
0.0
 11
-1.0
 21
-0.26794919
 31
0.0
  0
LINE
  5
29
330
25
100
AcDbEntity
  8
0
  6
ByBlock
 62
     0
100
AcDbLine
 10
0.0
 20
0.0
 30
0.0
 11
-1.0
 21
0.0
 31
0.0
  0
ENDBLK
  5
2A
330
25
100
AcDbEntity
  8
0
100
AcDbBlockEnd
  0
BLOCK
  5
FB
330
FA
100
AcDbEntity
  8
0
100
AcDbBlockBegin
  2
*D1
 70
     1
 10
0.0
 20
0.0
 30
0.0
  3
*D1
  1

  0
LINE
  5
FC
330
FA
100
AcDbEntity
  8
SUNPO
 62
     0
370
    -2
100
AcDbLine
 10
225.7298632967573
 20
218.6940741528866
 30
0.0
 11
225.7298632967573
 21
226.6940741528866
 31
0.0
  0
LINE
  5
FD
330
FA
100
AcDbEntity
  8
SUNPO
 62
     0
370
    -2
100
AcDbLine
 10
228.3098632967574
 20
218.6940741528866
 30
0.0
 11
228.3098632967574
 21
226.6940741528866
 31
0.0
  0
LINE
  5
FE
330
FA
100
AcDbEntity
  8
SUNPO
 62
     0
370
    -2
100
AcDbLine
 10
223.7298632967573
 20
224.6940741528866
 30
0.0
 11
221.7298632967573
 21
224.6940741528866
 31
0.0
  0
LINE
  5
FF
330
FA
100
AcDbEntity
  8
SUNPO
 62
     0
370
    -2
100
AcDbLine
 10
230.3098632967574
 20
224.6940741528866
 30
0.0
 11
239.976529963424
 21
224.6940741528866
 31
0.0
  0
LINE
  5
100
330
FA
100
AcDbEntity
  8
SUNPO
 62
     0
370
    -2
100
AcDbLine
 10
225.7298632967573
 20
224.6940741528866
 30
0.0
 11
228.3098632967574
 21
224.6940741528866
 31
0.0
  0
INSERT
  5
101
330
FA
100
AcDbEntity
  8
SUNPO
 62
     0
370
    -2
100
AcDbBlockReference
  2
_OPEN30
 10
225.7298632967573
 20
224.6940741528866
 30
0.0
 41
2.0
 42
2.0
 43
2.0
  0
INSERT
  5
102
330
FA
100
AcDbEntity
  8
SUNPO
 62
     0
370
    -2
100
AcDbBlockReference
  2
_OPEN30
 10
228.3098632967574
 20
224.6940741528866
 30
0.0
 41
2.0
 42
2.0
 43
2.0
 50
180.0
  0
MTEXT
  5
103
330
FA
100
AcDbEntity
  8
SUNPO
 62
     0
100
AcDbMText
 10
236.1431966300907
 20
226.4440741528866
 30
0.0
 40
2.5
 41
0.0
 71
     5
 72
     1
  1
\A1;129
 73
     1
 44
1.0
1001
ACAD
1000
MTEXTBEGIN
1070
    73
1070
     1
1070
    44
1040
1.0
1070
    74
1070
     0
1000
MTEXTEND
  0
POINT
  5
104
330
FA
100
AcDbEntity
  8
DEFPOINTS
 62
     0
100
AcDbPoint
 10
225.7298632967573
 20
216.6940741528866
 30
0.0
  0
POINT
  5
105
330
FA
100
AcDbEntity
  8
DEFPOINTS
 62
     0
100
AcDbPoint
 10
228.3098632967574
 20
216.6940741528866
 30
0.0
  0
POINT
  5
106
330
FA
100
AcDbEntity
  8
DEFPOINTS
 62
     0
100
AcDbPoint
 10
228.3098632967574
 20
224.6940741528866
 30
0.0
  0
ENDBLK
  5
107
330
FA
100
AcDbEntity
  8
0
100
AcDbBlockEnd
  0
BLOCK
  5
86
330
85
100
AcDbEntity
  8
0
100
AcDbBlockBegin
  2
*D2
 70
     1
 10
0.0
 20
0.0
 30
0.0
  3
*D2
  1

  0
LINE
  5
87
330
85
100
AcDbEntity
  8
SUNPO
 62
     0
370
    -2
100
AcDbLine
 10
202.556522322478
 20
216.6999806544124
 30
0.0
 11
210.5565223224781
 21
216.6999806544124
 31
0.0
  0
LINE
  5
88
330
85
100
AcDbEntity
  8
SUNPO
 62
     0
370
    -2
100
AcDbLine
 10
202.556522322478
 20
188.2799806544123
 30
0.0
 11
210.556522322478
 21
188.2799806544123
 31
0.0
  0
LINE
  5
89
330
85
100
AcDbEntity
  8
SUNPO
 62
     0
370
    -2
100
AcDbLine
 10
208.5565223224781
 20
214.6999806544124
 30
0.0
 11
208.556522322478
 21
190.2799806544123
 31
0.0
  0
INSERT
  5
8A
330
85
100
AcDbEntity
  8
SUNPO
 62
     0
370
    -2
100
AcDbBlockReference
  2
_OPEN30
 10
208.5565223224781
 20
216.6999806544124
 30
0.0
 41
2.0
 42
2.0
 43
2.0
 50
90.0
  0
INSERT
  5
8B
330
85
100
AcDbEntity
  8
SUNPO
 62
     0
370
    -2
100
AcDbBlockReference
  2
_OPEN30
 10
208.556522322478
 20
188.2799806544123
 30
0.0
 41
2.0
 42
2.0
 43
2.0
 50
270.0
  0
MTEXT
  5
8C
330
85
100
AcDbEntity
  8
SUNPO
 62
     0
100
AcDbMText
 10
206.806522322478
 20
202.4899806544124
 30
0.0
 40
2.5
 41
0.0
 71
     5
 72
     1
  1
\A1;1421
 11
0.0000000000000001
 21
1.0
 31
0.0
 73
     1
 44
1.0
1001
ACAD
1000
MTEXTBEGIN
1070
    73
1070
     1
1070
    44
1040
1.0
1070
    74
1070
     0
1000
MTEXTEND
  0
POINT
  5
8D
330
85
100
AcDbEntity
  8
DEFPOINTS
 62
     0
100
AcDbPoint
 10
200.556522322478
 20
216.6999806544124
 30
0.0
  0
POINT
  5
8E
330
85
100
AcDbEntity
  8
DEFPOINTS
 62
     0
100
AcDbPoint
 10
200.556522322478
 20
188.2799806544123
 30
0.0
  0
POINT
  5
8F
330
85
100
AcDbEntity
  8
DEFPOINTS
 62
     0
100
AcDbPoint
 10
208.556522322478
 20
188.2799806544123
 30
0.0
  0
ENDBLK
  5
90
330
85
100
AcDbEntity
  8
0
100
AcDbBlockEnd
  0
BLOCK
  5
93
330
92
100
AcDbEntity
  8
0
100
AcDbBlockBegin
  2
*D3
 70
     1
 10
0.0
 20
0.0
 30
0.0
  3
*D3
  1

  0
LINE
  5
94
330
92
100
AcDbEntity
  8
SUNPO
 62
     0
370
    -2
100
AcDbLine
 10
152.256620247512
 20
218.6940741528866
 30
0.0
 11
152.256620247512
 21
226.6940741528866
 31
0.0
  0
LINE
  5
95
330
92
100
AcDbEntity
  8
SUNPO
 62
     0
370
    -2
100
AcDbLine
 10
200.5366202475121
 20
218.6940741528866
 30
0.0
 11
200.5366202475121
 21
226.6940741528866
 31
0.0
  0
LINE
  5
96
330
92
100
AcDbEntity
  8
SUNPO
 62
     0
370
    -2
100
AcDbLine
 10
154.256620247512
 20
224.6940741528866
 30
0.0
 11
198.5366202475121
 21
224.6940741528866
 31
0.0
  0
INSERT
  5
97
330
92
100
AcDbEntity
  8
SUNPO
 62
     0
370
    -2
100
AcDbBlockReference
  2
_OPEN30
 10
152.256620247512
 20
224.6940741528866
 30
0.0
 41
2.0
 42
2.0
 43
2.0
 50
180.0
  0
INSERT
  5
98
330
92
100
AcDbEntity
  8
SUNPO
 62
     0
370
    -2
100
AcDbBlockReference
  2
_OPEN30
 10
200.5366202475121
 20
224.6940741528866
 30
0.0
 41
2.0
 42
2.0
 43
2.0
  0
MTEXT
  5
99
330
92
100
AcDbEntity
  8
SUNPO
 62
     0
100
AcDbMText
 10
176.3966202475121
 20
226.4440741528866
 30
0.0
 40
2.5
 41
0.0
 71
     5
 72
     1
  1
\A1;2414
 73
     1
 44
1.0
1001
ACAD
1000
MTEXTBEGIN
1070
    73
1070
     1
1070
    44
1040
1.0
1070
    74
1070
     0
1000
MTEXTEND
  0
POINT
  5
9A
330
92
100
AcDbEntity
  8
DEFPOINTS
 62
     0
100
AcDbPoint
 10
152.256620247512
 20
216.6940741528866
 30
0.0
  0
POINT
  5
9B
330
92
100
AcDbEntity
  8
DEFPOINTS
 62
     0
100
AcDbPoint
 10
200.5366202475121
 20
216.6940741528866
 30
0.0
  0
POINT
  5
9C
330
92
100
AcDbEntity
  8
DEFPOINTS
 62
     0
100
AcDbPoint
 10
200.5366202475121
 20
224.6940741528866
 30
0.0
  0
ENDBLK
  5
9D
330
92
100
AcDbEntity
  8
0
100
AcDbBlockEnd
  0
BLOCK
  5
47
330
46
100
AcDbEntity
  8
0
100
AcDbBlockBegin
  2
*D4
 70
     1
 10
0.0
 20
0.0
 30
0.0
  3
*D4
  1

  0
LINE
  5
48
330
46
100
AcDbEntity
  8
SUNPO
 62
     0
370
    -2
100
AcDbLine
 10
219.0138625567572
 20
180.4738636082062
 30
0.0
 11
219.0138625567572
 21
172.4738636082062
 31
0.0
  0
LINE
  5
49
330
46
100
AcDbEntity
  8
SUNPO
 62
     0
370
    -2
100
AcDbLine
 10
236.4338632967573
 20
180.4738636082062
 30
0.0
 11
236.4338632967573
 21
172.4738636082062
 31
0.0
  0
LINE
  5
4A
330
46
100
AcDbEntity
  8
SUNPO
 62
     0
370
    -2
100
AcDbLine
 10
221.0138625567572
 20
174.4738636082062
 30
0.0
 11
234.4338632967573
 21
174.4738636082062
 31
0.0
  0
INSERT
  5
4B
330
46
100
AcDbEntity
  8
SUNPO
 62
     0
370
    -2
100
AcDbBlockReference
  2
_OPEN30
 10
219.0138625567572
 20
174.4738636082062
 30
0.0
 41
2.0
 42
2.0
 43
2.0
 50
180.0
  0
INSERT
  5
4C
330
46
100
AcDbEntity
  8
SUNPO
 62
     0
370
    -2
100
AcDbBlockReference
  2
_OPEN30
 10
236.4338632967573
 20
174.4738636082062
 30
0.0
 41
2.0
 42
2.0
 43
2.0
  0
MTEXT
  5
4D
330
46
100
AcDbEntity
  8
SUNPO
 62
     0
100
AcDbMText
 10
227.7238629267572
 20
176.2238636082062
 30
0.0
 40
2.5
 41
0.0
 71
     5
 72
     1
  1
\A1;871
 73
     1
 44
1.0
1001
ACAD
1000
MTEXTBEGIN
1070
    73
1070
     1
1070
    44
1040
1.0
1070
    74
1070
     0
1000
MTEXTEND
  0
POINT
  5
4E
330
46
100
AcDbEntity
  8
DEFPOINTS
 62
     0
100
AcDbPoint
 10
219.0138625567572
 20
182.4738636082062
 30
0.0
  0
POINT
  5
4F
330
46
100
AcDbEntity
  8
DEFPOINTS
 62
     0
100
AcDbPoint
 10
236.4338632967573
 20
182.4738636082062
 30
0.0
  0
POINT
  5
50
330
46
100
AcDbEntity
  8
DEFPOINTS
 62
     0
100
AcDbPoint
 10
236.4338632967573
 20
174.4738636082062
 30
0.0
  0
ENDBLK
  5
51
330
46
100
AcDbEntity
  8
0
100
AcDbBlockEnd
  0
BLOCK
  5
39
330
38
100
AcDbEntity
  8
0
100
AcDbBlockBegin
  2
*D5
 70
     1
 10
0.0
 20
0.0
 30
0.0
  3
*D5
  1

  0
LINE
  5
3A
330
38
100
AcDbEntity
  8
SUNPO
 62
     0
370
    -2
100
AcDbLine
 10
150.2612643952544
 20
216.6999806544124
 30
0.0
 11
142.2612643952545
 21
216.6999806544124
 31
0.0
  0
LINE
  5
3B
330
38
100
AcDbEntity
  8
SUNPO
 62
     0
370
    -2
100
AcDbLine
 10
150.2612643952545
 20
181.7599806544123
 30
0.0
 11
142.2612643952545
 21
181.7599806544123
 31
0.0
  0
LINE
  5
3C
330
38
100
AcDbEntity
  8
SUNPO
 62
     0
370
    -2
100
AcDbLine
 10
144.2612643952545
 20
214.6999806544124
 30
0.0
 11
144.2612643952545
 21
183.7599806544123
 31
0.0
  0
INSERT
  5
3D
330
38
100
AcDbEntity
  8
SUNPO
 62
     0
370
    -2
100
AcDbBlockReference
  2
_OPEN30
 10
144.2612643952545
 20
216.6999806544124
 30
0.0
 41
2.0
 42
2.0
 43
2.0
 50
90.0
  0
INSERT
  5
3E
330
38
100
AcDbEntity
  8
SUNPO
 62
     0
370
    -2
100
AcDbBlockReference
  2
_OPEN30
 10
144.2612643952545
 20
181.7599806544123
 30
0.0
 41
2.0
 42
2.0
 43
2.0
 50
270.0
  0
MTEXT
  5
3F
330
38
100
AcDbEntity
  8
SUNPO
 62
     0
100
AcDbMText
 10
142.5112643952544
 20
199.2299806544123
 30
0.0
 40
2.5
 41
0.0
 71
     5
 72
     1
  1
\A1;1748
 11
0.0000000000000001
 21
1.0
 31
0.0
 73
     1
 44
1.0
1001
ACAD
1000
MTEXTBEGIN
1070
    73
1070
     1
1070
    44
1040
1.0
1070
    74
1070
     0
1000
MTEXTEND
  0
POINT
  5
40
330
38
100
AcDbEntity
  8
DEFPOINTS
 62
     0
100
AcDbPoint
 10
152.2612643952544
 20
216.6999806544124
 30
0.0
  0
POINT
  5
42
330
38
100
AcDbEntity
  8
DEFPOINTS
 62
     0
100
AcDbPoint
 10
152.2612643952545
 20
181.7599806544123
 30
0.0
  0
POINT
  5
43
330
38
100
AcDbEntity
  8
DEFPOINTS
 62
     0
100
AcDbPoint
 10
144.2612643952545
 20
181.7599806544123
 30
0.0
  0
ENDBLK
  5
44
330
38
100
AcDbEntity
  8
0
100
AcDbBlockEnd
  0
BLOCK
  5
236
330
22A
100
AcDbEntity
  8
0
100
AcDbBlockBegin
  2
*D6
 70
     1
 10
0.0
 20
0.0
 30
0.0
  3
*D6
  1

  0
LINE
  5
22B
330
22A
100
AcDbEntity
  8
SUNPO
 62
     0
370
    -2
100
AcDbLine
 10
24.96245264662741
 20
32.97799435748729
 30
0.0
 11
24.96245264662741
 21
40.97799435748728
 31
0.0
  0
LINE
  5
22C
330
22A
100
AcDbEntity
  8
SUNPO
 62
     0
370
    -2
100
AcDbLine
 10
27.54245264662745
 20
32.97799435748729
 30
0.0
 11
27.54245264662745
 21
40.97799435748728
 31
0.0
  0
LINE
  5
22D
330
22A
100
AcDbEntity
  8
SUNPO
 62
     0
370
    -2
100
AcDbLine
 10
22.96245264662741
 20
38.97799435748729
 30
0.0
 11
20.96245264662741
 21
38.97799435748729
 31
0.0
  0
LINE
  5
22E
330
22A
100
AcDbEntity
  8
SUNPO
 62
     0
370
    -2
100
AcDbLine
 10
29.54245264662745
 20
38.97799435748729
 30
0.0
 11
39.20911931329412
 21
38.97799435748729
 31
0.0
  0
LINE
  5
22F
330
22A
100
AcDbEntity
  8
SUNPO
 62
     0
370
    -2
100
AcDbLine
 10
24.96245264662741
 20
38.97799435748729
 30
0.0
 11
27.54245264662745
 21
38.97799435748729
 31
0.0
  0
INSERT
  5
230
330
22A
100
AcDbEntity
  8
SUNPO
 62
     0
370
    -2
100
AcDbBlockReference
  2
_OPEN30
 10
24.96245264662741
 20
38.97799435748729
 30
0.0
 41
2.0
 42
2.0
 43
2.0
  0
INSERT
  5
231
330
22A
100
AcDbEntity
  8
SUNPO
 62
     0
370
    -2
100
AcDbBlockReference
  2
_OPEN30
 10
27.54245264662745
 20
38.97799435748729
 30
0.0
 41
2.0
 42
2.0
 43
2.0
 50
180.0
  0
MTEXT
  5
232
330
22A
100
AcDbEntity
  8
SUNPO
 62
     0
100
AcDbMText
 10
35.37578597996079
 20
40.72799435748729
 30
0.0
 40
2.5
 41
0.0
 71
     5
 72
     1
  1
\A1;129
 73
     1
 44
1.0
1001
ACAD
1000
MTEXTBEGIN
1070
    73
1070
     1
1070
    44
1040
1.0
1070
    74
1070
     0
1000
MTEXTEND
  0
POINT
  5
233
330
22A
100
AcDbEntity
  8
DEFPOINTS
 62
     0
100
AcDbPoint
 10
24.96245264662741
 20
30.97799435748729
 30
0.0
  0
POINT
  5
234
330
22A
100
AcDbEntity
  8
DEFPOINTS
 62
     0
100
AcDbPoint
 10
27.54245264662745
 20
30.97799435748729
 30
0.0
  0
POINT
  5
235
330
22A
100
AcDbEntity
  8
DEFPOINTS
 62
     0
100
AcDbPoint
 10
27.54245264662745
 20
38.97799435748729
 30
0.0
  0
ENDBLK
  5
237
330
22A
100
AcDbEntity
  8
0
100
AcDbBlockEnd
  0
BLOCK
  5
242
330
238
100
AcDbEntity
  8
0
100
AcDbBlockBegin
  2
*D7
 70
     1
 10
0.0
 20
0.0
 30
0.0
  3
*D7
  1

  0
LINE
  5
239
330
238
100
AcDbEntity
  8
SUNPO
 62
     0
370
    -2
100
AcDbLine
 10
-48.51079040261788
 20
32.97799435748729
 30
0.0
 11
-48.51079040261788
 21
40.97799435748728
 31
0.0
  0
LINE
  5
23A
330
238
100
AcDbEntity
  8
SUNPO
 62
     0
370
    -2
100
AcDbLine
 10
-0.2307904026177993
 20
32.97799435748729
 30
0.0
 11
-0.2307904026177987
 21
40.97799435748728
 31
0.0
  0
LINE
  5
23B
330
238
100
AcDbEntity
  8
SUNPO
 62
     0
370
    -2
100
AcDbLine
 10
-46.51079040261788
 20
38.97799435748729
 30
0.0
 11
-2.230790402617798
 21
38.97799435748729
 31
0.0
  0
INSERT
  5
23C
330
238
100
AcDbEntity
  8
SUNPO
 62
     0
370
    -2
100
AcDbBlockReference
  2
_OPEN30
 10
-48.51079040261788
 20
38.97799435748729
 30
0.0
 41
2.0
 42
2.0
 43
2.0
 50
180.0
  0
INSERT
  5
23D
330
238
100
AcDbEntity
  8
SUNPO
 62
     0
370
    -2
100
AcDbBlockReference
  2
_OPEN30
 10
-0.2307904026177989
 20
38.97799435748729
 30
0.0
 41
2.0
 42
2.0
 43
2.0
  0
MTEXT
  5
23E
330
238
100
AcDbEntity
  8
SUNPO
 62
     0
100
AcDbMText
 10
-24.37079040261784
 20
40.72799435748729
 30
0.0
 40
2.5
 41
0.0
 71
     5
 72
     1
  1
\A1;2414
 73
     1
 44
1.0
1001
ACAD
1000
MTEXTBEGIN
1070
    73
1070
     1
1070
    44
1040
1.0
1070
    74
1070
     0
1000
MTEXTEND
  0
POINT
  5
23F
330
238
100
AcDbEntity
  8
DEFPOINTS
 62
     0
100
AcDbPoint
 10
-48.51079040261788
 20
30.97799435748729
 30
0.0
  0
POINT
  5
240
330
238
100
AcDbEntity
  8
DEFPOINTS
 62
     0
100
AcDbPoint
 10
-0.2307904026177994
 20
30.97799435748729
 30
0.0
  0
POINT
  5
241
330
238
100
AcDbEntity
  8
DEFPOINTS
 62
     0
100
AcDbPoint
 10
-0.2307904026177989
 20
38.97799435748729
 30
0.0
  0
ENDBLK
  5
243
330
238
100
AcDbEntity
  8
0
100
AcDbBlockEnd
  0
BLOCK
  5
24E
330
244
100
AcDbEntity
  8
0
100
AcDbBlockBegin
  2
*D8
 70
     1
 10
0.0
 20
0.0
 30
0.0
  3
*D8
  1

  0
LINE
  5
245
330
244
100
AcDbEntity
  8
SUNPO
 62
     0
370
    -2
100
AcDbLine
 10
1.789111672348099
 20
30.98390085901306
 30
0.0
 11
9.789111672348104
 21
30.98390085901306
 31
0.0
  0
LINE
  5
246
330
244
100
AcDbEntity
  8
SUNPO
 62
     0
370
    -2
100
AcDbLine
 10
1.789111672348099
 20
2.563900859012988
 30
0.0
 11
9.789111672348099
 21
2.563900859012986
 31
0.0
  0
LINE
  5
247
330
244
100
AcDbEntity
  8
SUNPO
 62
     0
370
    -2
100
AcDbLine
 10
7.789111672348104
 20
28.98390085901306
 30
0.0
 11
7.789111672348099
 21
4.563900859012987
 31
0.0
  0
INSERT
  5
248
330
244
100
AcDbEntity
  8
SUNPO
 62
     0
370
    -2
100
AcDbBlockReference
  2
_OPEN30
 10
7.789111672348105
 20
30.98390085901306
 30
0.0
 41
2.0
 42
2.0
 43
2.0
 50
90.0
  0
INSERT
  5
249
330
244
100
AcDbEntity
  8
SUNPO
 62
     0
370
    -2
100
AcDbBlockReference
  2
_OPEN30
 10
7.789111672348099
 20
2.563900859012986
 30
0.0
 41
2.0
 42
2.0
 43
2.0
 50
270.0
  0
MTEXT
  5
24A
330
244
100
AcDbEntity
  8
SUNPO
 62
     0
100
AcDbMText
 10
6.039111672348098
 20
16.77390085901302
 30
0.0
 40
2.5
 41
0.0
 71
     5
 72
     1
  1
\A1;1421
 11
0.0000000000000001
 21
1.0
 31
0.0
 73
     1
 44
1.0
1001
ACAD
1000
MTEXTBEGIN
1070
    73
1070
     1
1070
    44
1040
1.0
1070
    74
1070
     0
1000
MTEXTEND
  0
POINT
  5
24B
330
244
100
AcDbEntity
  8
DEFPOINTS
 62
     0
100
AcDbPoint
 10
-0.2108883276519009
 20
30.98390085901306
 30
0.0
  0
POINT
  5
24C
330
244
100
AcDbEntity
  8
DEFPOINTS
 62
     0
100
AcDbPoint
 10
-0.2108883276519009
 20
2.563900859012989
 30
0.0
  0
POINT
  5
24D
330
244
100
AcDbEntity
  8
DEFPOINTS
 62
     0
100
AcDbPoint
 10
7.789111672348099
 20
2.563900859012986
 30
0.0
  0
ENDBLK
  5
24F
330
244
100
AcDbEntity
  8
0
100
AcDbBlockEnd
  0
BLOCK
  5
25A
330
250
100
AcDbEntity
  8
0
100
AcDbBlockBegin
  2
*D9
 70
     1
 10
0.0
 20
0.0
 30
0.0
  3
*D9
  1

  0
LINE
  5
251
330
250
100
AcDbEntity
  8
SUNPO
 62
     0
370
    -2
100
AcDbLine
 10
18.24645190662727
 20
-5.242216187193065
 30
0.0
 11
18.24645190662727
 21
-13.24221618719306
 31
0.0
  0
LINE
  5
252
330
250
100
AcDbEntity
  8
SUNPO
 62
     0
370
    -2
100
AcDbLine
 10
35.66645264662736
 20
-5.242216187193065
 30
0.0
 11
35.66645264662736
 21
-13.24221618719306
 31
0.0
  0
LINE
  5
253
330
250
100
AcDbEntity
  8
SUNPO
 62
     0
370
    -2
100
AcDbLine
 10
20.24645190662727
 20
-11.24221618719306
 30
0.0
 11
33.66645264662736
 21
-11.24221618719306
 31
0.0
  0
INSERT
  5
254
330
250
100
AcDbEntity
  8
SUNPO
 62
     0
370
    -2
100
AcDbBlockReference
  2
_OPEN30
 10
18.24645190662727
 20
-11.24221618719306
 30
0.0
 41
2.0
 42
2.0
 43
2.0
 50
180.0
  0
INSERT
  5
255
330
250
100
AcDbEntity
  8
SUNPO
 62
     0
370
    -2
100
AcDbBlockReference
  2
_OPEN30
 10
35.66645264662736
 20
-11.24221618719306
 30
0.0
 41
2.0
 42
2.0
 43
2.0
  0
MTEXT
  5
256
330
250
100
AcDbEntity
  8
SUNPO
 62
     0
100
AcDbMText
 10
26.95645227662732
 20
-9.492216187193065
 30
0.0
 40
2.5
 41
0.0
 71
     5
 72
     1
  1
\A1;871
 73
     1
 44
1.0
1001
ACAD
1000
MTEXTBEGIN
1070
    73
1070
     1
1070
    44
1040
1.0
1070
    74
1070
     0
1000
MTEXTEND
  0
POINT
  5
257
330
250
100
AcDbEntity
  8
DEFPOINTS
 62
     0
100
AcDbPoint
 10
18.24645190662727
 20
-3.242216187193065
 30
0.0
  0
POINT
  5
258
330
250
100
AcDbEntity
  8
DEFPOINTS
 62
     0
100
AcDbPoint
 10
35.66645264662736
 20
-3.242216187193065
 30
0.0
  0
POINT
  5
259
330
250
100
AcDbEntity
  8
DEFPOINTS
 62
     0
100
AcDbPoint
 10
35.66645264662736
 20
-11.24221618719306
 30
0.0
  0
ENDBLK
  5
25B
330
250
100
AcDbEntity
  8
0
100
AcDbBlockEnd
  0
BLOCK
  5
266
330
25C
100
AcDbEntity
  8
0
100
AcDbBlockBegin
  2
*D10
 70
     1
 10
0.0
 20
0.0
 30
0.0
  3
*D10
  1

  0
LINE
  5
25D
330
25C
100
AcDbEntity
  8
SUNPO
 62
     0
370
    -2
100
AcDbLine
 10
-50.50614625487546
 20
30.98390085901306
 30
0.0
 11
-58.50614625487542
 21
30.98390085901307
 31
0.0
  0
LINE
  5
25E
330
25C
100
AcDbEntity
  8
SUNPO
 62
     0
370
    -2
100
AcDbLine
 10
-50.50614625487543
 20
-3.956099140986964
 30
0.0
 11
-58.50614625487543
 21
-3.956099140986961
 31
0.0
  0
LINE
  5
25F
330
25C
100
AcDbEntity
  8
SUNPO
 62
     0
370
    -2
100
AcDbLine
 10
-56.50614625487542
 20
28.98390085901306
 30
0.0
 11
-56.50614625487543
 21
-1.956099140986961
 31
0.0
  0
INSERT
  5
260
330
25C
100
AcDbEntity
  8
SUNPO
 62
     0
370
    -2
100
AcDbBlockReference
  2
_OPEN30
 10
-56.50614625487542
 20
30.98390085901307
 30
0.0
 41
2.0
 42
2.0
 43
2.0
 50
90.0
  0
INSERT
  5
261
330
25C
100
AcDbEntity
  8
SUNPO
 62
     0
370
    -2
100
AcDbBlockReference
  2
_OPEN30
 10
-56.50614625487543
 20
-3.956099140986962
 30
0.0
 41
2.0
 42
2.0
 43
2.0
 50
270.0
  0
MTEXT
  5
262
330
25C
100
AcDbEntity
  8
SUNPO
 62
     0
100
AcDbMText
 10
-58.25614625487543
 20
13.51390085901304
 30
0.0
 40
2.5
 41
0.0
 71
     5
 72
     1
  1
\A1;1748
 11
0.0000000000000001
 21
1.0
 31
0.0
 73
     1
 44
1.0
1001
ACAD
1000
MTEXTBEGIN
1070
    73
1070
     1
1070
    44
1040
1.0
1070
    74
1070
     0
1000
MTEXTEND
  0
POINT
  5
263
330
25C
100
AcDbEntity
  8
DEFPOINTS
 62
     0
100
AcDbPoint
 10
-48.50614625487546
 20
30.98390085901306
 30
0.0
  0
POINT
  5
264
330
25C
100
AcDbEntity
  8
DEFPOINTS
 62
     0
100
AcDbPoint
 10
-48.50614625487543
 20
-3.956099140986964
 30
0.0
  0
POINT
  5
265
330
25C
100
AcDbEntity
  8
DEFPOINTS
 62
     0
100
AcDbPoint
 10
-56.50614625487543
 20
-3.956099140986962
 30
0.0
  0
ENDBLK
  5
267
330
25C
100
AcDbEntity
  8
0
100
AcDbBlockEnd
  0
ENDSEC
  0
SECTION
  2
ENTITIES
  0
TEXT
  5
33
330
2
100
AcDbEntity
  8
MOJI1
100
AcDbText
 10
-42.76741065013027
 20
54.78313434424268
 30
0.0
 40
4.0
  1
ハイビジョンプラズマディスプレイ据置きスタンド付
 41
0.85
100
AcDbText
  0
TEXT
  5
35
330
2
100
AcDbEntity
  8
TOUROKU
100
AcDbText
 10
8.032539382797601
 20
48.78313434424228
 30
0.0
 40
2.0
  1
ＴＨ１０３ＰＦ９Ｋ＋ＴＹＳＴ１０３ＰＦ９
 72
     2
 11
55.2325393827976
 21
48.78313434424228
 31
0.0
100
AcDbText
  0
DIMENSION
  5
37
330
2
100
AcDbEntity
  8
SUNPO
100
AcDbDimension
  2
*D10
 10
-56.50614625487543
 20
-3.956099140986962
 30
0.0
 11
-58.25614625487543
 21
13.51390085901304
 31
0.0
 70
    33
  1
1748
 71
     5
 42
34.94000000000003
  3
STANDARD
100
AcDbAlignedDimension
 13
-48.50614625487546
 23
30.98390085901306
 33
0.0
 14
-48.50614625487543
 24
-3.956099140986964
 34
0.0
1001
ACAD
1000
DSTYLE
1002
{
1070
    40
1040
1.0
1070
   140
1040
2.5
1070
   147
1040
0.5
1070
   172
1070
     1
1070
   279
1070
     0
1070
   288
1070
     0
1002
}
  0
DIMENSION
  5
45
330
2
100
AcDbEntity
  8
SUNPO
100
AcDbDimension
  2
*D9
 10
35.66645264662736
 20
-11.24221618719306
 30
0.0
 11
26.95645227662732
 21
-9.492216187193065
 31
0.0
 70
    33
  1
871
 71
     5
 42
17.42000074000009
  3
STANDARD
100
AcDbAlignedDimension
 13
18.24645190662727
 23
-3.242216187193065
 33
0.0
 14
35.66645264662736
 24
-3.242216187193065
 34
0.0
1001
ACAD
1000
DSTYLE
1002
{
1070
    40
1040
1.0
1070
   140
1040
2.5
1070
   147
1040
0.5
1070
   172
1070
     1
1070
   279
1070
     0
1070
   288
1070
     0
1002
}
  0
LINE
  5
52
330
2
100
AcDbEntity
  8
GAIKEI
  6
Continuous
 62
     1
100
AcDbLine
 10
-47.0727904026179
 20
-2.474099140987021
 30
0.0
 11
-1.67279040261792
 21
-2.474099140987021
 31
0.0
  0
LINE
  5
54
330
2
100
AcDbEntity
  8
GAIKEI
  6
Continuous
100
AcDbLine
 10
-1.67279040261792
 20
-3.13409914098699
 30
0.0
 11
-1.67279040261792
 21
-0.8140991409869968
 31
0.0
  0
LINE
  5
55
330
2
100
AcDbEntity
  8
GAIKEI
  6
Continuous
100
AcDbLine
 10
-24.37279040261797
 20
-0.6540991409869719
 30
0.0
 11
-1.832790402618002
 21
-0.6540991409869719
 31
0.0
  0
LINE
  5
56
330
2
100
AcDbEntity
  8
GAIKEI
  6
Continuous
100
AcDbLine
 10
-24.37279040261797
 20
-3.234099140987012
 30
0.0
 11
-1.772790402617943
 21
-3.234099140987012
 31
0.0
  0
ARC
  5
57
330
2
100
AcDbEntity
  8
GAIKEI
  6
Continuous
100
AcDbCircle
 10
-1.772790402617943
 20
-3.13409914098699
 30
0.0
 40
0.1
100
AcDbArc
 50
270.0
 51
0.0
  0
LINE
  5
58
330
2
100
AcDbEntity
  8
GAIKEI
  6
Continuous
100
AcDbLine
 10
-24.37279040261797
 20
-0.6540991409869719
 30
0.0
 11
-46.91279040261792
 21
-0.6540991409869719
 31
0.0
  0
LINE
  5
59
330
2
100
AcDbEntity
  8
GAIKEI
  6
Continuous
100
AcDbLine
 10
-24.37279040261797
 20
-3.234099140987012
 30
0.0
 11
-46.97279040261799
 21
-3.234099140987012
 31
0.0
  0
ARC
  5
5A
330
2
100
AcDbEntity
  8
GAIKEI
  6
Continuous
100
AcDbCircle
 10
-46.97279040261799
 20
-3.13409914098699
 30
0.0
 40
0.1
100
AcDbArc
 50
180.0
 51
270.0
  0
LINE
  5
5B
330
2
100
AcDbEntity
  8
GAIKEI
  6
Continuous
100
AcDbLine
 10
-47.0727904026179
 20
-3.13409914098699
 30
0.0
 11
-47.0727904026179
 21
-0.8140991409869968
 31
0.0
  0
ARC
  5
5C
330
2
100
AcDbEntity
  8
GAIKEI
  6
Continuous
100
AcDbCircle
 10
-1.832790402618002
 20
-0.8140991409869968
 30
0.0
 40
0.16
100
AcDbArc
 50
0.0
 51
90.0
  0
ARC
  5
5D
330
2
100
AcDbEntity
  8
GAIKEI
  6
Continuous
100
AcDbCircle
 10
-46.91279040261792
 20
-0.8140991409869968
 30
0.0
 40
0.16
100
AcDbArc
 50
90.0
 51
180.0
  0
LINE
  5
5E
330
2
100
AcDbEntity
  8
GAIKEI
  6
Continuous
100
AcDbLine
 10
-46.712790402618
 20
2.345900859013028
 30
0.0
 11
-2.032790402617933
 21
2.345900859013028
 31
0.0
  0
LINE
  5
5F
330
2
100
AcDbEntity
  8
GAIKEI
  6
Continuous
100
AcDbLine
 10
-46.87279040261796
 20
-0.6540991409869719
 30
0.0
 11
-1.872790402617965
 21
-0.6540991409869719
 31
0.0
  0
LINE
  5
60
330
2
100
AcDbEntity
  8
GAIKEI
  6
Continuous
100
AcDbLine
 10
-1.872790402617965
 20
-0.6540991409869719
 30
0.0
 11
-1.872790402617965
 21
2.185900859013003
 31
0.0
  0
LINE
  5
61
330
2
100
AcDbEntity
  8
GAIKEI
  6
Continuous
100
AcDbLine
 10
-46.87279040261796
 20
-0.6540991409869719
 30
0.0
 11
-46.87279040261796
 21
2.185900859013003
 31
0.0
  0
ARC
  5
62
330
2
100
AcDbEntity
  8
GAIKEI
  6
Continuous
100
AcDbCircle
 10
-2.032790402617933
 20
2.185900859013003
 30
0.0
 40
0.16
100
AcDbArc
 50
0.0
 51
90.0
  0
ARC
  5
63
330
2
100
AcDbEntity
  8
GAIKEI
  6
Continuous
100
AcDbCircle
 10
-46.712790402618
 20
2.185900859013003
 30
0.0
 40
0.16
100
AcDbArc
 50
90.0
 51
180.0
  0
LINE
  5
64
330
2
100
AcDbEntity
  8
GAIKEI
  6
Continuous
100
AcDbLine
 10
-2.032790402617933
 20
2.365900859013009
 30
0.0
 11
-2.032790402617933
 21
2.563900859012989
 31
0.0
  0
ARC
  5
65
330
2
100
AcDbEntity
  8
GAIKEI
  6
Continuous
 62
     1
100
AcDbCircle
 10
-2.092790402617993
 20
2.365900859013009
 30
0.0
 40
0.06
100
AcDbArc
 50
270.0
 51
0.0
  0
LINE
  5
66
330
2
100
AcDbEntity
  8
GAIKEI
  6
Continuous
 62
     1
100
AcDbLine
 10
-46.65279040261793
 20
2.305900859013007
 30
0.0
 11
-2.092790402617993
 21
2.305900859013007
 31
0.0
  0
ARC
  5
67
330
2
100
AcDbEntity
  8
GAIKEI
  6
Continuous
 62
     1
100
AcDbCircle
 10
-46.65279040261793
 20
2.365900859013009
 30
0.0
 40
0.06
100
AcDbArc
 50
180.0
 51
270.0
  0
LINE
  5
68
330
2
100
AcDbEntity
  8
GAIKEI
  6
Continuous
100
AcDbLine
 10
-46.712790402618
 20
2.365900859013009
 30
0.0
 11
-46.712790402618
 21
2.563900859012989
 31
0.0
  0
LINE
  5
69
330
2
100
AcDbEntity
  8
GAIKEI
  6
Continuous
100
AcDbLine
 10
-2.032790402617933
 20
2.563900859012989
 30
0.0
 11
-46.712790402618
 21
2.563900859012989
 31
0.0
  0
LINE
  5
6A
330
2
100
AcDbEntity
  8
GAIKEI
  6
CENTER
 62
     1
100
AcDbLine
 10
-9.252790402617961
 20
-2.84247240098702
 30
0.0
 11
-9.252790402617961
 21
-3.89409914098698
 31
0.0
  0
LINE
  5
6C
330
2
100
AcDbEntity
  8
GAIKEI
  6
Continuous
 62
     1
100
AcDbLine
 10
-9.811651202617895
 20
-3.520099140986957
 30
0.0
 11
-9.638330562617966
 21
-3.234099140987012
 31
0.0
  0
LINE
  5
6D
330
2
100
AcDbEntity
  8
GAIKEI
  6
Continuous
 62
     1
100
AcDbLine
 10
-8.867250002617993
 20
-3.234099140987012
 30
0.0
 11
-8.693929602618027
 21
-3.520099140986957
 31
0.0
  0
LINE
  5
6E
330
2
100
AcDbEntity
  8
GAIKEI
  6
Continuous
 62
     1
100
AcDbLine
 10
-8.452790402617893
 20
-3.520099140986957
 30
0.0
 11
-8.452790402617893
 21
-3.680099140986982
 31
0.0
  0
LINE
  5
6F
330
2
100
AcDbEntity
  8
GAIKEI
  6
Continuous
 62
     1
100
AcDbLine
 10
-10.05279040261791
 20
-3.520099140986957
 30
0.0
 11
-10.05279040261791
 21
-3.680099140986982
 31
0.0
  0
LINE
  5
70
330
2
100
AcDbEntity
  8
GAIKEI
  6
Continuous
 62
     1
100
AcDbLine
 10
-8.452790402617893
 20
-3.680099140986982
 30
0.0
 11
-10.05279040261791
 21
-3.680099140986982
 31
0.0
  0
LINE
  5
71
330
2
100
AcDbEntity
  8
GAIKEI
  6
Continuous
 62
     1
100
AcDbLine
 10
-8.452790402617893
 20
-3.520099140986957
 30
0.0
 11
-10.05279040261791
 21
-3.520099140986957
 31
0.0
  0
LINE
  5
72
330
2
100
AcDbEntity
  8
GAIKEI
  6
CENTER
 62
     1
100
AcDbLine
 10
-23.97279040261799
 20
-3.021430800987019
 30
0.0
 11
-23.97279040261799
 21
-4.053503140986975
 31
0.0
  0
ARC
  5
73
330
2
100
AcDbEntity
  8
GAIKEI
  6
Continuous
 62
     1
100
AcDbCircle
 10
-23.97279040261799
 20
-3.208099140987002
 30
0.0
 40
0.75
100
AcDbArc
 50
181.9866519999878
 51
358.0133480000122
  0
ARC
  5
74
330
2
100
AcDbEntity
  8
GAIKEI
  6
Continuous
 62
     1
100
AcDbCircle
 10
-23.19072400261791
 20
-3.330084340986985
 30
0.0
 40
0.01
100
AcDbArc
 50
191.9462960000049
 51
259.9999999999961
  0
ARC
  5
75
330
2
100
AcDbEntity
  8
GAIKEI
  6
Continuous
 62
     1
100
AcDbCircle
 10
-23.16741560261801
 20
-3.313885740986989
 30
0.0
 40
0.03
100
AcDbArc
 50
259.9999999999961
 51
3.253405999998441
  0
ARC
  5
76
330
2
100
AcDbEntity
  8
GAIKEI
  6
Continuous
 62
     1
100
AcDbCircle
 10
-21.54004260261797
 20
-3.221379740986975
 30
0.0
 40
1.6
100
AcDbArc
 50
180.4554850000094
 51
183.2534059999984
  0
LINE
  5
77
330
2
100
AcDbEntity
  8
GAIKEI
  6
Continuous
 62
     1
100
AcDbLine
 10
-23.19246060261798
 20
-3.339932340986962
 30
0.0
 11
-23.17262500261791
 21
-3.343429940987022
 31
0.0
  0
ARC
  5
78
330
2
100
AcDbEntity
  8
GAIKEI
  6
Continuous
 62
     1
100
AcDbCircle
 10
-22.22216540261797
 20
-3.12515954098697
 30
0.0
 40
1.0
100
AcDbArc
 50
186.2541920000104
 51
191.9462960000049
  0
ARC
  5
79
330
2
100
AcDbEntity
  8
GAIKEI
  6
Continuous
 62
     1
100
AcDbCircle
 10
-23.97279040261799
 20
-3.208099140987002
 30
0.0
 40
0.4600000000000001
100
AcDbArc
 50
183.2401840000013
 51
356.7598159999987
  0
ARC
  5
7A
330
2
100
AcDbEntity
  8
GAIKEI
  6
Continuous
 62
     1
100
AcDbCircle
 10
-23.97279040261799
 20
-3.208099140987002
 30
0.0
 40
0.6000000000000001
100
AcDbArc
 50
182.4835949999997
 51
357.5164050000002
  0
ARC
  5
7B
330
2
100
AcDbEntity
  8
GAIKEI
  6
Continuous
 62
     1
100
AcDbCircle
 10
-23.97279040261799
 20
-3.208099140987002
 30
0.0
 40
0.5600000000000001
100
AcDbArc
 50
182.6611179999982
 51
357.3388820000018
  0
ARC
  5
7C
330
2
100
AcDbEntity
  8
GAIKEI
  6
Continuous
 62
     1
100
AcDbCircle
 10
-23.97279040261799
 20
-3.208099140987002
 30
0.0
 40
0.354
100
AcDbArc
 50
184.2119570000102
 51
355.7880429999897
  0
LINE
  5
7D
330
2
100
AcDbEntity
  8
GAIKEI
  6
Continuous
 62
     1
100
AcDbLine
 10
-39.8783306026179
 20
-3.234099140987012
 30
0.0
 11
-40.0516512026179
 21
-3.520099140986957
 31
0.0
  0
LINE
  5
7E
330
2
100
AcDbEntity
  8
GAIKEI
  6
Continuous
 62
     1
100
AcDbLine
 10
-40.29279040261792
 20
-3.520099140986957
 30
0.0
 11
-40.29279040261792
 21
-3.680099140986982
 31
0.0
  0
LINE
  5
7F
330
2
100
AcDbEntity
  8
GAIKEI
  6
Continuous
 62
     1
100
AcDbLine
 10
-38.93392940261799
 20
-3.520099140986957
 30
0.0
 11
-39.1072500226179
 21
-3.234099140987012
 31
0.0
  0
LINE
  5
80
330
2
100
AcDbEntity
  8
GAIKEI
  6
Continuous
 62
     1
100
AcDbLine
 10
-38.6927904026179
 20
-3.520099140986957
 30
0.0
 11
-38.6927904026179
 21
-3.680099140986982
 31
0.0
  0
LINE
  5
81
330
2
100
AcDbEntity
  8
GAIKEI
  6
Continuous
 62
     1
100
AcDbLine
 10
-40.29279040261792
 20
-3.680099140986982
 30
0.0
 11
-38.6927904026179
 21
-3.680099140986982
 31
0.0
  0
LINE
  5
82
330
2
100
AcDbEntity
  8
GAIKEI
  6
Continuous
 62
     1
100
AcDbLine
 10
-40.29279040261792
 20
-3.520099140986957
 30
0.0
 11
-38.6927904026179
 21
-3.520099140986957
 31
0.0
  0
LINE
  5
83
330
2
100
AcDbEntity
  8
GAIKEI
  6
CENTER
 62
     1
100
AcDbLine
 10
-39.49279040261797
 20
-2.84247240098702
 30
0.0
 11
-39.49279040261797
 21
-3.89409914098698
 31
0.0
  0
DIMENSION
  5
84
330
2
100
AcDbEntity
  8
SUNPO
100
AcDbDimension
  2
*D8
 10
7.789111672348099
 20
2.563900859012986
 30
0.0
 11
6.039111672348098
 21
16.77390085901302
 31
0.0
 70
    33
  1
1421
 71
     5
 42
28.42000000000007
  3
STANDARD
100
AcDbAlignedDimension
 13
-0.2108883276519009
 23
30.98390085901306
 33
0.0
 14
-0.2108883276519009
 24
2.563900859012989
 34
0.0
1001
ACAD
1000
DSTYLE
1002
{
1070
    40
1040
1.0
1070
   140
1040
2.5
1070
   147
1040
0.5
1070
   172
1070
     1
1070
   279
1070
     0
1070
   288
1070
     0
1002
}
  0
DIMENSION
  5
91
330
2
100
AcDbEntity
  8
SUNPO
100
AcDbDimension
  2
*D7
 10
-0.2307904026177989
 20
38.97799435748729
 30
0.0
 11
-24.37079040261784
 21
40.72799435748729
 31
0.0
 70
    33
  1
2414
 71
     5
 42
48.28000000000009
  3
STANDARD
100
AcDbAlignedDimension
 13
-48.51079040261788
 23
30.97799435748729
 33
0.0
 14
-0.2307904026177994
 24
30.97799435748729
 34
0.0
1001
ACAD
1000
DSTYLE
1002
{
1070
    40
1040
1.0
1070
   140
1040
2.5
1070
   147
1040
0.5
1070
   172
1070
     1
1070
   279
1070
     0
1070
   288
1070
     0
1002
}
  0
SPLINE
  5
9E
330
2
100
AcDbEntity
  8
GAIKEI
  6
Continuous
100
AcDbSpline
210
0.0
220
0.0
230
1.0
 70
     8
 71
     3
 72
     9
 73
     5
 74
     3
 42
0.0000000001
 43
0.0000000001
 44
0.000001
 12
0.6477335212541187
 22
0.7618669735877388
 32
0.0
 13
0.5026146171697756
 23
0.8645105821256787
 33
0.0
 40
0.0
 40
0.0
 40
0.0
 40
0.0
 40
0.0011194451857404
 40
0.0036729779311994
 40
0.0036729779311994
 40
0.0036729779311994
 40
0.0036729779311994
 10
-0.3155886917725184
 20
29.54490438996263
 30
0.0
 10
-0.3153469910485285
 20
29.54518867940121
 30
0.0
 10
-0.3145794891753724
 20
29.54614308158861
 30
0.0
 10
-0.3138977015872797
 20
29.54716500698637
 30
0.0
 10
-0.3134698872928538
 20
29.54790085901314
 30
0.0
 11
-0.3155886917725184
 21
29.54490438996263
 31
0.0
 11
-0.3148871204130046
 21
29.54577640707501
 31
0.0
 11
-0.3134698872928538
 21
29.54790085901314
 31
0.0
  0
ARC
  5
9F
330
2
100
AcDbEntity
  8
GAIKEI
  6
Continuous
100
AcDbCircle
 10
-48.41079040261798
 20
29.55790085901302
 30
0.0
 40
0.02
100
AcDbArc
 50
180.0
 51
210.0000000000151
  0
ARC
  5
A0
330
2
100
AcDbEntity
  8
GAIKEI
  6
Continuous
100
AcDbCircle
 10
-0.3307904026179358
 20
29.55790085901302
 30
0.0
 40
0.02
100
AcDbArc
 50
329.9999999999849
 51
0.0
  0
LINE
  5
A1
330
2
100
AcDbEntity
  8
GAIKEI
  6
Continuous
100
AcDbLine
 10
-0.310790402617954
 20
30.95390085901303
 30
0.0
 11
-0.310790402617954
 21
30.983900859013
 31
0.0
  0
LINE
  5
A2
330
2
100
AcDbEntity
  8
GAIKEI
  6
Continuous
100
AcDbLine
 10
-48.43079040261796
 20
30.95390085901303
 30
0.0
 11
-48.43079040261796
 21
30.983900859013
 31
0.0
  0
LINE
  5
A3
330
2
100
AcDbEntity
  8
GAIKEI
  6
Continuous
100
AcDbLine
 10
-0.310790402617954
 20
30.983900859013
 30
0.0
 11
-48.43079040261796
 21
30.983900859013
 31
0.0
  0
LINE
  5
A4
330
2
100
AcDbEntity
  8
GAIKEI
  6
Continuous
100
AcDbLine
 10
-48.43079040261796
 20
29.55790085901302
 30
0.0
 11
-48.43079040261796
 21
30.95390085901303
 31
0.0
  0
LINE
  5
A5
330
2
100
AcDbEntity
  8
GAIKEI
  6
Continuous
100
AcDbLine
 10
-0.310790402617954
 20
29.55790085901302
 30
0.0
 11
-0.310790402617954
 21
30.95390085901303
 31
0.0
  0
LINE
  5
A6
330
2
100
AcDbEntity
  8
GAIKEI
  6
Continuous
100
AcDbLine
 10
-48.42811090261796
 20
29.54790085901303
 30
0.0
 11
-48.42778828261794
 21
29.54736177901302
 31
0.0
  0
LINE
  5
A7
330
2
100
AcDbEntity
  8
GAIKEI
  6
Continuous
100
AcDbLine
 10
-1.676790402617939
 20
29.53790085901303
 30
0.0
 11
-47.06479040261797
 21
29.53790085901303
 31
0.0
  0
ARC
  5
A8
330
2
100
AcDbEntity
  8
GAIKEI
  6
Continuous
100
AcDbCircle
 10
-48.48079040261791
 20
30.95390085901303
 30
0.0
 40
0.03
100
AcDbArc
 50
90.0
 51
180.0
  0
ARC
  5
A9
330
2
100
AcDbEntity
  8
GAIKEI
  6
Continuous
100
AcDbCircle
 10
-48.41079040261798
 20
3.989900859013033
 30
0.0
 40
0.02
100
AcDbArc
 50
149.9999999999849
 51
180.0
  0
ARC
  5
AA
330
2
100
AcDbEntity
  8
GAIKEI
  6
Continuous
100
AcDbCircle
 10
-48.41079040261798
 20
3.989900859013033
 30
0.0
 40
0.02
100
AcDbArc
 50
90.0
 51
149.9999999999849
  0
ARC
  5
AB
330
2
100
AcDbEntity
  8
GAIKEI
  6
Continuous
100
AcDbCircle
 10
-48.41079040261798
 20
29.55790085901302
 30
0.0
 40
0.02
100
AcDbArc
 50
211.7866939999874
 51
270.0
  0
ARC
  5
AC
330
2
100
AcDbEntity
  8
GAIKEI
  6
Continuous
100
AcDbCircle
 10
-48.41079040261798
 20
29.55790085901302
 30
0.0
 40
0.02
100
AcDbArc
 50
210.0000000000151
 51
211.7866939999874
  0
ARC
  5
AD
330
2
100
AcDbEntity
  8
GAIKEI
  6
Continuous
100
AcDbCircle
 10
-48.41079040261798
 20
29.55790085901302
 30
0.0
 40
0.02
100
AcDbArc
 50
180.0
 51
210.0000000000151
  0
ARC
  5
AE
330
2
100
AcDbEntity
  8
GAIKEI
  6
Continuous
100
AcDbCircle
 10
-48.48079040261791
 20
2.593900859013018
 30
0.0
 40
0.03
100
AcDbArc
 50
180.0
 51
270.0
  0
LINE
  5
AF
330
2
100
AcDbEntity
  8
GAIKEI
  6
Continuous
100
AcDbLine
 10
-48.510790402618
 20
30.95390085901303
 30
0.0
 11
-48.510790402618
 21
2.593900859013018
 31
0.0
  0
LINE
  5
B0
330
2
100
AcDbEntity
  8
GAIKEI
  6
Continuous
100
AcDbLine
 10
-48.43079040261796
 20
30.983900859013
 30
0.0
 11
-48.43079040261796
 21
30.95390085901303
 31
0.0
  0
LINE
  5
B1
330
2
100
AcDbEntity
  8
GAIKEI
  6
Continuous
100
AcDbLine
 10
-48.48079040261791
 20
30.983900859013
 30
0.0
 11
-48.43079040261796
 21
30.983900859013
 31
0.0
  0
LINE
  5
B2
330
2
100
AcDbEntity
  8
GAIKEI
  6
Continuous
100
AcDbLine
 10
-48.43079040261796
 20
2.593900859013018
 30
0.0
 11
-48.43079040261796
 21
2.563900859012989
 31
0.0
  0
LINE
  5
B3
330
2
100
AcDbEntity
  8
GAIKEI
  6
Continuous
100
AcDbLine
 10
-48.43079040261796
 20
2.563900859012989
 30
0.0
 11
-48.48079040261791
 21
2.563900859012989
 31
0.0
  0
LINE
  5
B4
330
2
100
AcDbEntity
  8
GAIKEI
  6
Continuous
100
AcDbLine
 10
-48.41079040261798
 20
29.53790085901303
 30
0.0
 11
-47.07479040261796
 21
29.53790085901303
 31
0.0
  0
LINE
  5
B5
330
2
100
AcDbEntity
  8
GAIKEI
  6
Continuous
100
AcDbLine
 10
-48.43079040261796
 20
30.95390085901303
 30
0.0
 11
-48.43079040261796
 21
29.55790085901302
 31
0.0
  0
LINE
  5
B6
330
2
100
AcDbEntity
  8
GAIKEI
  6
Continuous
100
AcDbLine
 10
-48.43079040261796
 20
3.989900859013033
 30
0.0
 11
-48.43079040261796
 21
2.593900859013018
 31
0.0
  0
LINE
  5
B7
330
2
100
AcDbEntity
  8
GAIKEI
  6
Continuous
100
AcDbLine
 10
-47.07479040261796
 20
4.009900859013015
 30
0.0
 11
-48.41079040261798
 21
4.009900859013015
 31
0.0
  0
LINE
  5
B8
330
2
100
AcDbEntity
  8
GAIKEI
  6
Continuous
100
AcDbLine
 10
-47.07479040261796
 20
29.53790085901303
 30
0.0
 11
-47.06479040261797
 21
29.53790085901303
 31
0.0
  0
LINE
  5
B9
330
2
100
AcDbEntity
  8
GAIKEI
  6
Continuous
100
AcDbLine
 10
-47.06479040261797
 20
4.009900859013015
 30
0.0
 11
-47.07479040261796
 21
4.009900859013015
 31
0.0
  0
LINE
  5
BA
330
2
100
AcDbEntity
  8
GAIKEI
  6
Continuous
100
AcDbLine
 10
-47.06479040261797
 20
29.53790085901303
 30
0.0
 11
-47.06479040261797
 21
4.009900859013015
 31
0.0
  0
LINE
  5
BB
330
2
100
AcDbEntity
  8
GAIKEI
  6
Continuous
100
AcDbLine
 10
-48.43079040261796
 20
2.593900859013018
 30
0.0
 11
-48.43079040261796
 21
2.563900859012989
 31
0.0
  0
LINE
  5
BC
330
2
100
AcDbEntity
  8
GAIKEI
  6
Continuous
100
AcDbLine
 10
-0.310790402617954
 20
2.593900859013018
 30
0.0
 11
-0.310790402617954
 21
2.563900859012989
 31
0.0
  0
LINE
  5
BD
330
2
100
AcDbEntity
  8
GAIKEI
  6
Continuous
100
AcDbLine
 10
-48.43079040261796
 20
3.989900859013033
 30
0.0
 11
-48.43079040261796
 21
2.593900859013018
 31
0.0
  0
LINE
  5
BE
330
2
100
AcDbEntity
  8
GAIKEI
  6
Continuous
100
AcDbLine
 10
-48.43079040261796
 20
3.999900859013024
 30
0.0
 11
-48.43079040261796
 21
3.989900859013033
 31
0.0
  0
LINE
  5
BF
330
2
100
AcDbEntity
  8
GAIKEI
  6
Continuous
100
AcDbLine
 10
-0.310790402617954
 20
3.989900859013033
 30
0.0
 11
-0.310790402617954
 21
2.593900859013018
 31
0.0
  0
LINE
  5
C0
330
2
100
AcDbEntity
  8
GAIKEI
  6
Continuous
100
AcDbLine
 10
-0.310790402617954
 20
3.999900859013024
 30
0.0
 11
-0.310790402617954
 21
3.989900859013033
 31
0.0
  0
ARC
  5
C1
330
2
100
AcDbEntity
  8
GAIKEI
  6
Continuous
100
AcDbCircle
 10
-0.2607904026179995
 20
30.95390085901303
 30
0.0
 40
0.03
100
AcDbArc
 50
0.0
 51
90.0
  0
ARC
  5
C2
330
2
100
AcDbEntity
  8
GAIKEI
  6
Continuous
100
AcDbCircle
 10
-0.2607904026179995
 20
2.593900859013018
 30
0.0
 40
0.03
100
AcDbArc
 50
270.0
 51
0.0
  0
ARC
  5
C3
330
2
100
AcDbEntity
  8
GAIKEI
  6
Continuous
100
AcDbCircle
 10
-0.3307904026179358
 20
29.55790085901302
 30
0.0
 40
0.02
100
AcDbArc
 50
329.9999999999849
 51
0.0
  0
ARC
  5
C4
330
2
100
AcDbEntity
  8
GAIKEI
  6
Continuous
100
AcDbCircle
 10
-0.3307904026179358
 20
29.55790085901302
 30
0.0
 40
0.02
100
AcDbArc
 50
319.509721000013
 51
329.9999999999849
  0
ARC
  5
C5
330
2
100
AcDbEntity
  8
GAIKEI
  6
Continuous
100
AcDbCircle
 10
-0.3307904026179358
 20
29.55790085901302
 30
0.0
 40
0.02
100
AcDbArc
 50
270.0
 51
319.509721000013
  0
ARC
  5
C6
330
2
100
AcDbEntity
  8
GAIKEI
  6
Continuous
100
AcDbCircle
 10
-0.3307904026179358
 20
3.989900859013033
 30
0.0
 40
0.02
100
AcDbArc
 50
30.00000000001508
 51
90.0
  0
ARC
  5
C7
330
2
100
AcDbEntity
  8
GAIKEI
  6
Continuous
100
AcDbCircle
 10
-0.3307904026179358
 20
3.989900859013033
 30
0.0
 40
0.02
100
AcDbArc
 50
0.0
 51
30.00000000001508
  0
LINE
  5
C8
330
2
100
AcDbEntity
  8
GAIKEI
  6
Continuous
100
AcDbLine
 10
-0.310790402617954
 20
2.563900859012989
 30
0.0
 11
-0.310790402617954
 21
2.593900859013018
 31
0.0
  0
LINE
  5
C9
330
2
100
AcDbEntity
  8
GAIKEI
  6
Continuous
100
AcDbLine
 10
-0.2607904026179995
 20
2.563900859012989
 30
0.0
 11
-0.310790402617954
 21
2.563900859012989
 31
0.0
  0
LINE
  5
CA
330
2
100
AcDbEntity
  8
GAIKEI
  6
Continuous
100
AcDbLine
 10
-0.2307904026179131
 20
2.593900859013018
 30
0.0
 11
-0.2307904026179131
 21
30.95390085901303
 31
0.0
  0
LINE
  5
CB
330
2
100
AcDbEntity
  8
GAIKEI
  6
Continuous
100
AcDbLine
 10
-0.3307904026179358
 20
4.009900859013015
 30
0.0
 11
-1.666790402617948
 21
4.009900859013015
 31
0.0
  0
LINE
  5
CC
330
2
100
AcDbEntity
  8
GAIKEI
  6
Continuous
100
AcDbLine
 10
-0.310790402617954
 20
29.55790085901302
 30
0.0
 11
-0.310790402617954
 21
30.95390085901303
 31
0.0
  0
LINE
  5
CD
330
2
100
AcDbEntity
  8
GAIKEI
  6
Continuous
100
AcDbLine
 10
-1.666790402617948
 20
29.53790085901303
 30
0.0
 11
-0.3307904026179358
 21
29.53790085901303
 31
0.0
  0
LINE
  5
CE
330
2
100
AcDbEntity
  8
GAIKEI
  6
Continuous
100
AcDbLine
 10
-0.310790402617954
 20
30.95390085901303
 30
0.0
 11
-0.310790402617954
 21
30.983900859013
 31
0.0
  0
LINE
  5
CF
330
2
100
AcDbEntity
  8
GAIKEI
  6
Continuous
100
AcDbLine
 10
-0.310790402617954
 20
30.983900859013
 30
0.0
 11
-0.2607904026179995
 21
30.983900859013
 31
0.0
  0
LINE
  5
D0
330
2
100
AcDbEntity
  8
GAIKEI
  6
Continuous
100
AcDbLine
 10
-1.666790402617948
 20
4.009900859013015
 30
0.0
 11
-1.676790402617939
 21
4.009900859013015
 31
0.0
  0
LINE
  5
D1
330
2
100
AcDbEntity
  8
GAIKEI
  6
Continuous
100
AcDbLine
 10
-1.676790402617939
 20
29.53790085901303
 30
0.0
 11
-1.666790402617948
 21
29.53790085901303
 31
0.0
  0
LINE
  5
D2
330
2
100
AcDbEntity
  8
GAIKEI
  6
Continuous
100
AcDbLine
 10
-1.676790402617939
 20
4.009900859013015
 30
0.0
 11
-1.676790402617939
 21
29.53790085901303
 31
0.0
  0
ARC
  5
D3
330
2
100
AcDbEntity
  8
GAIKEI
  6
Continuous
 62
     1
100
AcDbCircle
 10
-24.37303836261799
 20
31.28190085901301
 30
0.0
 40
0.6000000000000001
100
AcDbArc
 50
0.0
 51
209.7797119999985
  0
ARC
  5
D4
330
2
100
AcDbEntity
  8
GAIKEI
  6
Continuous
 62
     1
100
AcDbCircle
 10
-24.37303836261799
 20
31.28190085901301
 30
0.0
 40
0.6000000000000001
100
AcDbArc
 50
330.2202880000015
 51
0.0
  0
ARC
  5
D5
330
2
100
AcDbEntity
  8
GAIKEI
  6
Continuous
 62
     1
100
AcDbCircle
 10
-24.37303836261799
 20
31.28190085901301
 30
0.0
 40
0.35
100
AcDbArc
 50
301.6326099999895
 51
180.0
  0
ARC
  5
D6
330
2
100
AcDbEntity
  8
GAIKEI
  6
Continuous
 62
     1
100
AcDbCircle
 10
-24.37303836261799
 20
31.28190085901301
 30
0.0
 40
0.35
100
AcDbArc
 50
180.0
 51
238.3673900000105
  0
ARC
  5
D7
330
2
100
AcDbEntity
  8
GAIKEI
  6
Continuous
 62
     1
100
AcDbCircle
 10
-9.253038362617985
 20
31.28190085901301
 30
0.0
 40
0.6000000000000001
100
AcDbArc
 50
0.0
 51
209.7797119999985
  0
ARC
  5
D8
330
2
100
AcDbEntity
  8
GAIKEI
  6
Continuous
 62
     1
100
AcDbCircle
 10
-9.253038362617985
 20
31.28190085901301
 30
0.0
 40
0.6000000000000001
100
AcDbArc
 50
330.2202880000015
 51
0.0
  0
ARC
  5
D9
330
2
100
AcDbEntity
  8
GAIKEI
  6
Continuous
 62
     1
100
AcDbCircle
 10
-9.253038362617985
 20
31.28190085901301
 30
0.0
 40
0.35
100
AcDbArc
 50
301.6326099999895
 51
180.0
  0
ARC
  5
DA
330
2
100
AcDbEntity
  8
GAIKEI
  6
Continuous
 62
     1
100
AcDbCircle
 10
-9.253038362617985
 20
31.28190085901301
 30
0.0
 40
0.35
100
AcDbArc
 50
180.0
 51
238.3673900000105
  0
ARC
  5
DB
330
2
100
AcDbEntity
  8
GAIKEI
  6
Continuous
 62
     1
100
AcDbCircle
 10
-39.493038362618
 20
31.28190085901301
 30
0.0
 40
0.6000000000000001
100
AcDbArc
 50
0.0
 51
209.7797119999985
  0
ARC
  5
DC
330
2
100
AcDbEntity
  8
GAIKEI
  6
Continuous
 62
     1
100
AcDbCircle
 10
-39.493038362618
 20
31.28190085901301
 30
0.0
 40
0.6000000000000001
100
AcDbArc
 50
330.2202880000015
 51
0.0
  0
ARC
  5
DD
330
2
100
AcDbEntity
  8
GAIKEI
  6
Continuous
 62
     1
100
AcDbCircle
 10
-39.493038362618
 20
31.28190085901301
 30
0.0
 40
0.35
100
AcDbArc
 50
301.6326099999895
 51
180.0
  0
ARC
  5
DE
330
2
100
AcDbEntity
  8
GAIKEI
  6
Continuous
 62
     1
100
AcDbCircle
 10
-39.493038362618
 20
31.28190085901301
 30
0.0
 40
0.35
100
AcDbArc
 50
180.0
 51
238.3673900000105
  0
LINE
  5
DF
330
2
100
AcDbEntity
  8
GAIKEI
  6
CENTER
 62
     1
100
AcDbLine
 10
-13.02879040261791
 20
3.012900859013001
 30
0.0
 11
-13.02879040261791
 21
3.186900859013036
 31
0.0
  0
LINE
  5
E0
330
2
100
AcDbEntity
  8
GAIKEI
  6
CENTER
 62
     1
100
AcDbLine
 10
-12.86479040261793
 20
3.09990085901299
 30
0.0
 11
-13.1927904026179
 21
3.09990085901299
 31
0.0
  0
ARC
  5
E1
330
2
100
AcDbEntity
  8
GAIKEI
  6
Continuous
100
AcDbCircle
 10
-0.3307904026179358
 20
3.989900859013033
 30
0.0
 40
0.02
100
AcDbArc
 50
0.0
 51
90.0
  0
ARC
  5
E2
330
2
100
AcDbEntity
  8
GAIKEI
  6
Continuous
100
AcDbCircle
 10
-48.41079040261798
 20
3.989900859013033
 30
0.0
 40
0.02
100
AcDbArc
 50
90.0
 51
180.0
  0
LINE
  5
E3
330
2
100
AcDbEntity
  8
GAIKEI
  6
Continuous
 62
     1
100
AcDbLine
 10
-13.202790402618
 20
3.186900859013036
 30
0.0
 11
-13.202790402618
 21
3.012900859013001
 31
0.0
  0
LINE
  5
E4
330
2
100
AcDbEntity
  8
GAIKEI
  6
Continuous
 62
     1
100
AcDbLine
 10
-12.86479040261793
 20
3.196900859013027
 30
0.0
 11
-13.19279040261801
 21
3.196900859013027
 31
0.0
  0
LINE
  5
E5
330
2
100
AcDbEntity
  8
GAIKEI
  6
Continuous
 62
     1
100
AcDbLine
 10
-12.85479040261793
 20
3.012900859013001
 30
0.0
 11
-12.85479040261793
 21
3.186900859013036
 31
0.0
  0
LINE
  5
E6
330
2
100
AcDbEntity
  8
GAIKEI
  6
Continuous
 62
     1
100
AcDbLine
 10
-13.19279040261801
 20
3.00290085901301
 30
0.0
 11
-12.86479040261793
 21
3.00290085901301
 31
0.0
  0
LINE
  5
E7
330
2
100
AcDbEntity
  8
GAIKEI
  6
Continuous
 62
     1
100
AcDbLine
 10
-5.668790402618014
 20
3.125900859013
 30
0.0
 11
-5.708790402617978
 21
3.125900859013
 31
0.0
  0
LINE
  5
E8
330
2
100
AcDbEntity
  8
GAIKEI
  6
Continuous
 62
     1
100
AcDbLine
 10
-5.71479040261795
 20
3.119900859013029
 30
0.0
 11
-5.71479040261795
 21
3.079900859013008
 31
0.0
  0
LINE
  5
E9
330
2
100
AcDbEntity
  8
GAIKEI
  6
Continuous
 62
     1
100
AcDbLine
 10
-5.662790402617929
 20
3.079900859013008
 30
0.0
 11
-5.662790402617929
 21
3.119900859013029
 31
0.0
  0
LINE
  5
EA
330
2
100
AcDbEntity
  8
GAIKEI
  6
Continuous
 62
     1
100
AcDbLine
 10
-5.708790402617978
 20
3.073900859013036
 30
0.0
 11
-5.668790402618014
 21
3.073900859013036
 31
0.0
  0
ARC
  5
EB
330
2
100
AcDbEntity
  8
GAIKEI
  6
Continuous
 62
     1
100
AcDbCircle
 10
-13.19279040261801
 20
3.186900859013036
 30
0.0
 40
0.01
100
AcDbArc
 50
90.0
 51
180.0
  0
ARC
  5
EC
330
2
100
AcDbEntity
  8
GAIKEI
  6
Continuous
 62
     1
100
AcDbCircle
 10
-12.86479040261793
 20
3.186900859013036
 30
0.0
 40
0.01
100
AcDbArc
 50
0.0
 51
90.0
  0
ARC
  5
ED
330
2
100
AcDbEntity
  8
GAIKEI
  6
Continuous
 62
     1
100
AcDbCircle
 10
-12.86479040261793
 20
3.012900859013001
 30
0.0
 40
0.01
100
AcDbArc
 50
270.0
 51
0.0
  0
ARC
  5
EE
330
2
100
AcDbEntity
  8
GAIKEI
  6
Continuous
 62
     1
100
AcDbCircle
 10
-13.19279040261801
 20
3.012900859013001
 30
0.0
 40
0.01
100
AcDbArc
 50
180.0
 51
270.0
  0
ARC
  5
EF
330
2
100
AcDbEntity
  8
GAIKEI
  6
Continuous
 62
     1
100
AcDbCircle
 10
-5.708790402617978
 20
3.079900859013008
 30
0.0
 40
0.006
100
AcDbArc
 50
180.0
 51
270.0
  0
ARC
  5
F0
330
2
100
AcDbEntity
  8
GAIKEI
  6
Continuous
 62
     1
100
AcDbCircle
 10
-5.708790402617978
 20
3.119900859013029
 30
0.0
 40
0.006
100
AcDbArc
 50
90.0
 51
180.0
  0
ARC
  5
F1
330
2
100
AcDbEntity
  8
GAIKEI
  6
Continuous
 62
     1
100
AcDbCircle
 10
-5.668790402618014
 20
3.079900859013008
 30
0.0
 40
0.006
100
AcDbArc
 50
270.0
 51
0.0
  0
ARC
  5
F2
330
2
100
AcDbEntity
  8
GAIKEI
  6
Continuous
 62
     1
100
AcDbCircle
 10
-5.668790402618014
 20
3.119900859013029
 30
0.0
 40
0.006
100
AcDbArc
 50
0.0
 51
90.0
  0
LINE
  5
F3
330
2
100
AcDbEntity
  8
GAIKEI
  6
Continuous
100
AcDbLine
 10
-48.43079040261796
 20
2.563900859012989
 30
0.0
 11
-0.310790402617954
 21
2.563900859012989
 31
0.0
  0
LINE
  5
F4
330
2
100
AcDbEntity
  8
GAIKEI
  6
Continuous
100
AcDbLine
 10
-48.43079040261796
 20
3.989900859013033
 30
0.0
 11
-48.43079040261796
 21
2.563900859012989
 31
0.0
  0
LINE
  5
F5
330
2
100
AcDbEntity
  8
GAIKEI
  6
Continuous
100
AcDbLine
 10
-48.41079040261798
 20
4.009900859013015
 30
0.0
 11
-0.3307904026179358
 21
4.009900859013015
 31
0.0
  0
LINE
  5
F6
330
2
100
AcDbEntity
  8
GAIKEI
  6
Continuous
100
AcDbLine
 10
-0.310790402617954
 20
2.563900859012989
 30
0.0
 11
-0.310790402617954
 21
3.989900859013033
 31
0.0
  0
ELLIPSE
  5
F7
330
2
100
AcDbEntity
  8
LY_1
  6
Continuous
 62
     2
100
AcDbEllipse
 10
-46.63923125076997
 20
14.62088363404373
 30
0.0
 11
0.398464837191234
 21
-0.0350110485727745
 31
0.0
210
0.0
220
0.0
230
1.0
 40
0.5053689999999999
 41
3.313734683645916
 42
3.343667662672813
  0
DIMENSION
  5
F9
330
2
100
AcDbEntity
  8
SUNPO
100
AcDbDimension
  2
*D6
 10
27.54245264662745
 20
38.97799435748729
 30
0.0
 11
35.37578597996079
 21
40.72799435748729
 31
0.0
 70
    33
  1
129
 71
     5
 42
2.58000000000004
  3
STANDARD
100
AcDbAlignedDimension
 13
24.96245264662741
 23
30.97799435748729
 33
0.0
 14
27.54245264662745
 24
30.97799435748729
 34
0.0
1001
ACAD
1000
DSTYLE
1002
{
1070
    40
1040
1.0
1070
   140
1040
2.5
1070
   147
1040
0.5
1070
   172
1070
     1
1070
   279
1070
     0
1070
   288
1070
     0
1002
}
  0
LINE
  5
108
330
2
100
AcDbEntity
  8
GAIKEI
 62
     1
100
AcDbLine
 10
27.51645264662727
 20
16.815900859013
 30
0.0
 11
27.51645264662727
 21
16.79590085901302
 31
0.0
  0
LINE
  5
109
330
2
100
AcDbEntity
  8
GAIKEI
  6
Continuous
 62
     1
100
AcDbLine
 10
27.63292312662725
 20
16.176755199013
 30
0.0
 11
27.58553546662734
 21
16.16405771901301
 31
0.0
  0
LINE
  5
10A
330
2
100
AcDbEntity
  8
GAIKEI
  6
Continuous
 62
     1
100
AcDbLine
 10
27.78705828662737
 20
16.40930267901299
 30
0.0
 11
27.78705828662737
 21
16.435900859013
 31
0.0
  0
LINE
  5
10B
330
2
100
AcDbEntity
  8
GAIKEI
  6
Continuous
 62
     1
100
AcDbLine
 10
27.66921310662735
 20
16.435900859013
 30
0.0
 11
27.78705828662737
 21
16.435900859013
 31
0.0
  0
LINE
  5
10C
330
2
100
AcDbEntity
  8
GAIKEI
  6
Continuous
 62
     1
100
AcDbLine
 10
27.78585500662734
 20
16.435900859013
 30
0.0
 11
27.78585500662734
 21
16.48755469901303
 31
0.0
  0
ELLIPSE
  5
10D
330
2
100
AcDbEntity
  8
GAIKEI
  6
Continuous
 62
     1
100
AcDbEllipse
 10
27.77610102662754
 20
16.48590085901296
 30
0.0
 11
-0.0000000000000841
 21
0.01
 31
0.0
210
0.0
220
0.0
230
1.0
 40
0.9890160000003724
 41
-1.404649772213448
 42
-0.0000000000085081
  0
LINE
  5
10E
330
2
100
AcDbEntity
  8
GAIKEI
  6
Continuous
 62
     1
100
AcDbLine
 10
27.7761010266272
 20
16.495900859013
 30
0.0
 11
27.75750752662725
 21
16.495900859013
 31
0.0
  0
LINE
  5
10F
330
2
100
AcDbEntity
  8
GAIKEI
  6
Continuous
 62
     1
100
AcDbLine
 10
27.75750752662725
 20
16.495900859013
 30
0.0
 11
27.75750752662725
 21
17.375900859013
 31
0.0
  0
ELLIPSE
  5
110
330
2
100
AcDbEntity
  8
GAIKEI
  6
Continuous
 62
     1
100
AcDbEllipse
 10
27.77610102662754
 20
17.3859008590131
 30
0.0
 11
0.0000000000002095
 21
0.01
 31
0.0
210
0.0
220
0.0
230
1.0
 40
0.9890159999996569
 41
3.141592653610978
 42
4.478889311292334
  0
LINE
  5
111
330
2
100
AcDbEntity
  8
GAIKEI
  6
Continuous
 62
     1
100
AcDbLine
 10
27.7761010266272
 20
17.375900859013
 30
0.0
 11
27.75750752662725
 21
17.375900859013
 31
0.0
  0
LINE
  5
112
330
2
100
AcDbEntity
  8
GAIKEI
  6
Continuous
 62
     1
100
AcDbLine
 10
27.78572280662729
 20
17.38358701901299
 30
0.0
 11
27.78572280662729
 21
17.435900859013
 31
0.0
  0
LINE
  5
113
330
2
100
AcDbEntity
  8
GAIKEI
  6
Continuous
 62
     1
100
AcDbLine
 10
27.78664856662727
 20
17.435900859013
 30
0.0
 11
27.78664856662727
 21
17.85990085901303
 31
0.0
  0
LINE
  5
114
330
2
100
AcDbEntity
  8
GAIKEI
  6
Continuous
 62
     1
100
AcDbLine
 10
27.78664856662727
 20
17.435900859013
 30
0.0
 11
27.66639836662728
 21
17.435900859013
 31
0.0
  0
LINE
  5
115
330
2
100
AcDbEntity
  8
GAIKEI
  6
Continuous
 62
     1
100
AcDbLine
 10
27.7761010266272
 20
17.91990085901304
 30
0.0
 11
27.75750752662725
 21
17.91990085901304
 31
0.0
  0
LINE
  5
116
330
2
100
AcDbEntity
  8
GAIKEI
  6
Continuous
 62
     1
100
AcDbLine
 10
27.78572280662729
 20
17.85990085901303
 30
0.0
 11
27.78572280662729
 21
17.91221469901299
 31
0.0
  0
ELLIPSE
  5
117
330
2
100
AcDbEntity
  8
GAIKEI
  6
Continuous
 62
     1
100
AcDbEllipse
 10
27.77610102662754
 20
17.90990085901293
 30
0.0
 11
0.0000000000001994
 21
0.01
 31
0.0
210
0.0
220
0.0
230
1.0
 40
0.9890159999994445
 41
-1.337296657662099
 42
0.0000000000201592
  0
LINE
  5
118
330
2
100
AcDbEntity
  8
GAIKEI
  6
Continuous
 62
     1
100
AcDbLine
 10
27.75750752662725
 20
17.91990085901304
 30
0.0
 11
27.75750752662725
 21
25.86990085901303
 31
0.0
  0
ELLIPSE
  5
119
330
2
100
AcDbEntity
  8
GAIKEI
  6
Continuous
 62
     1
100
AcDbEllipse
 10
27.77610102662754
 20
25.87990085901302
 30
0.0
 11
0.0000000000003593
 21
0.01
 31
0.0
210
0.0
220
0.0
230
1.0
 40
0.9890160000003975
 41
3.141592653626124
 42
4.478889311352022
  0
LINE
  5
11A
330
2
100
AcDbEntity
  8
GAIKEI
  6
Continuous
 62
     1
100
AcDbLine
 10
27.7761010266272
 20
25.86990085901303
 30
0.0
 11
27.75750752662725
 21
25.86990085901303
 31
0.0
  0
LINE
  5
11B
330
2
100
AcDbEntity
  8
GAIKEI
  6
Continuous
 62
     1
100
AcDbLine
 10
27.76325942662732
 20
25.76990085901301
 30
0.0
 11
27.75750752662725
 21
25.76990085901301
 31
0.0
  0
LINE
  5
11C
330
2
100
AcDbEntity
  8
GAIKEI
  6
Continuous
 62
     1
100
AcDbLine
 10
27.78664856662727
 20
25.92990085901303
 30
0.0
 11
27.78664856662727
 21
26.36325323901301
 31
0.0
  0
LINE
  5
11D
330
2
100
AcDbEntity
  8
GAIKEI
  6
Continuous
 62
     1
100
AcDbLine
 10
27.78664856662727
 20
25.92990085901303
 30
0.0
 11
27.66639836662728
 21
25.92990085901303
 31
0.0
  0
LINE
  5
11E
330
2
100
AcDbEntity
  8
GAIKEI
  6
Continuous
 62
     1
100
AcDbLine
 10
27.78572280662729
 20
25.87758701901302
 30
0.0
 11
27.78572280662729
 21
25.92990085901303
 31
0.0
  0
LINE
  5
11F
330
2
100
AcDbEntity
  8
GAIKEI
  6
Continuous
 62
     1
100
AcDbLine
 10
27.58553546662734
 20
26.60774399901303
 30
0.0
 11
27.63292312662725
 21
26.59504651901304
 31
0.0
  0
SPLINE
  5
120
330
2
100
AcDbEntity
  8
GAIKEI
  6
Continuous
 62
     1
100
AcDbSpline
210
0.0
220
0.0
230
1.0
 70
     8
 71
     3
 72
    19
 73
    15
 74
    13
 42
0.0000000001
 43
0.0000000001
 44
0.000001
 12
0.7808642677443155
 22
0.6247007246355122
 32
0.0
 13
0.9630589227945105
 23
0.2692907559235498
 33
0.0
 40
0.0
 40
0.0
 40
0.0
 40
0.0
 40
0.0029604309234948
 40
0.0072742987975664
 40
0.0117453513969493
 40
0.0168460501510761
 40
0.0213093612427224
 40
0.0239119060242703
 40
0.0262076331170657
 40
0.0284674082389104
 40
0.0323266210641365
 40
0.0367592542136627
 40
0.0417718546841677
 40
0.0473619892494216
 40
0.0473619892494216
 40
0.0473619892494216
 40
0.0473619892494216
 10
27.54241886163095
 20
16.14218925545154
 30
0.0
 10
27.54318942653938
 20
16.14280571656593
 30
0.0
 10
27.5451046731497
 20
16.14429350679245
 30
0.0
 10
27.54829290486896
 20
16.14656814810976
 30
0.0
 10
27.55216163127705
 20
16.14911029677745
 30
0.0
 10
27.55614139458254
 20
16.1515710937752
 30
0.0
 10
27.55965832816287
 20
16.15359198527255
 30
0.0
 10
27.56240015509673
 20
16.15508219912308
 30
0.0
 10
27.56451189603135
 20
16.15619306081473
 30
0.0
 10
27.5670208280786
 20
16.15744791002046
 30
0.0
 10
27.57023076575743
 20
16.15888907149892
 30
0.0
 10
27.57435259396738
 20
16.16052923708889
 30
0.0
 10
27.57908728604827
 20
16.16217675974508
 30
0.0
 10
27.58246948359451
 20
16.16320659043805
 30
0.0
 10
27.5842640265854
 20
16.16370838095898
 30
0.0
 11
27.54241886163095
 21
16.14218925545154
 31
0.0
 11
27.54475875942103
 21
16.14400280711507
 31
0.0
 11
27.54826600167235
 21
16.14651446968955
 31
0.0
 11
27.55199708974056
 21
16.14897801715759
 31
0.0
 11
27.55633765827395
 21
16.15165690225777
 31
0.0
 11
27.56020751938434
 21
16.15388072362955
 31
0.0
 11
27.56249356917533
 21
16.15512471761249
 31
0.0
 11
27.56452671760474
 21
16.15619243939827
 31
0.0
 11
27.56654867840723
 21
16.15719987468301
 31
0.0
 11
27.5700660232933
 21
16.15878779541734
 31
0.0
 11
27.57418316951248
 21
16.16043017212175
 31
0.0
 11
27.5789147654441
 21
16.16208491632832
 31
0.0
 11
27.5842640265854
 21
16.16370838095898
 31
0.0
  0
SPLINE
  5
121
330
2
100
AcDbEntity
  8
GAIKEI
  6
Continuous
 62
     1
100
AcDbSpline
210
0.0
220
0.0
230
1.0
 70
     8
 71
     3
 72
    34
 73
    30
 74
    28
 42
0.0000000001
 43
0.0000000001
 44
0.000001
 12
0.9641927017972141
 22
0.2652026278168985
 32
0.0
 13
0.2693330542138006
 23
0.9630470943354048
 33
0.0
 40
0.0
 40
0.0
 40
0.0
 40
0.0
 40
0.0067709144693039
 40
0.0139515686495926
 40
0.0211497714981798
 40
0.0283228404471926
 40
0.0355013913550382
 40
0.0427280322037977
 40
0.0500590463393422
 40
0.0575745277269977
 40
0.0653627340823257
 40
0.0734909594287901
 40
0.0819690769124714
 40
0.0907412248709525
 40
0.0997122703711446
 40
0.1078257668072115
 40
0.1159259056623737
 40
0.1240174965364266
 40
0.1319798000235164
 40
0.1401159286221456
 40
0.1484695881371346
 40
0.1567629122724973
 40
0.1650021997723256
 40
0.1731832515102183
 40
0.1813000874728929
 40
0.1893438829874942
 40
0.1973014170047542
 40
0.2133438562641884
 40
0.2199046091647677
 40
0.2199046091647677
 40
0.2199046091647677
 40
0.2199046091647677
 10
27.63417729754826
 20
16.17709568398496
 30
0.0
 10
27.63635345298687
 20
16.17769423875495
 30
0.0
 10
27.6408164467307
 20
16.17900531657091
 30
0.0
 10
27.64750820236958
 20
16.18122853766459
 30
0.0
 10
27.65424046024157
 20
16.18374034506064
 30
0.0
 10
27.66087689025753
 20
16.18649342305923
 30
0.0
 10
27.66741864425964
 20
16.1894873180955
 30
0.0
 10
27.67389571060522
 20
16.19273786512534
 30
0.0
 10
27.68034978518534
 20
16.19627404038209
 30
0.0
 10
27.68683110700991
 20
16.20013976182235
 30
0.0
 10
27.69338633263144
 20
16.20438998314824
 30
0.0
 10
27.70003481286523
 20
16.20907543307615
 30
0.0
 10
27.70675047639099
 20
16.21422353292573
 30
0.0
 10
27.71346238692709
 20
16.21982627168515
 30
0.0
 10
27.7198393409345
 20
16.22562859263954
 30
0.0
 10
27.72581253413202
 20
16.23153032166846
 30
0.0
 10
27.73135011120962
 20
16.23744700190525
 30
0.0
 10
27.7366188765468
 20
16.2435377726841
 30
0.0
 10
27.74165414021243
 20
16.24983823863238
 30
0.0
 10
27.74649065634435
 20
16.25640152473923
 30
0.0
 10
27.75112175506669
 20
16.26324517528073
 30
0.0
 10
27.75549035925588
 20
16.27029968062396
 30
0.0
 10
27.75954499758962
 20
16.27747324233829
 30
0.0
 10
27.76328345009324
 20
16.28475004082185
 30
0.0
 10
27.76671221333194
 20
16.2921068988085
 30
0.0
 10
27.76980314855919
 20
16.29952851883667
 30
0.0
 10
27.77363964731847
 20
16.30950619718666
 30
0.0
 10
27.77617692023526
 20
16.31938968677841
 30
0.0
 10
27.77842452064817
 20
16.32658110927414
 30
0.0
 10
27.77901352985373
 20
16.32868721394666
 30
0.0
 11
27.63417729754826
 21
16.17709568398496
 31
0.0
 11
27.64067479295249
 21
16.17900299314723
 31
0.0
 11
27.64748911970514
 21
16.18126724400835
 31
0.0
 11
27.65423329461544
 21
16.18378325739192
 31
0.0
 11
27.66085892635624
 21
16.18653171446502
 31
0.0
 11
27.66738645144926
 21
16.18951887042468
 31
0.0
 11
27.67384547090717
 21
16.19276008821978
 31
0.0
 11
27.68027486419442
 21
16.19628241018662
 31
0.0
 11
27.68672961971959
 21
16.20013191243006
 31
0.0
 11
27.69326463134223
 21
16.20436863891407
 31
0.0
 11
27.69990887194422
 21
16.20905075154715
 31
0.0
 11
27.70663755939847
 21
16.21420859044744
 31
0.0
 11
27.71337187590962
 21
16.21982994451119
 31
0.0
 11
27.72000724392592
 21
16.22586746168318
 31
0.0
 11
27.72577870888654
 21
16.23157001149448
 31
0.0
 11
27.73131367333099
 21
16.23748410348716
 31
0.0
 11
27.73660732152371
 21
16.2436038427094
 31
0.0
 11
27.74157809905762
 21
16.24982394985616
 31
0.0
 11
27.74640468920722
 21
16.25637381386687
 31
0.0
 11
27.75108650813297
 21
16.26329221831989
 31
0.0
 11
27.75545303777926
 21
16.27034294693564
 31
0.0
 11
27.75950710361383
 21
16.2775158504418
 31
0.0
 11
27.7632469613493
 21
16.28479205898137
 31
0.0
 11
27.76667167197763
 21
16.29215103456036
 31
0.0
 11
27.76978106638842
 21
16.29956955495223
 31
0.0
 11
27.77257578607407
 21
16.30702019279184
 31
0.0
 11
27.77715016686398
 21
16.32239692588123
 31
0.0
 11
27.77901352985373
 21
16.32868721394666
 31
0.0
  0
SPLINE
  5
122
330
2
100
AcDbEntity
  8
GAIKEI
  6
Continuous
 62
     1
100
AcDbSpline
210
0.0
220
0.0
230
1.0
 70
     8
 71
     3
 72
    19
 73
    15
 74
    13
 42
0.0000000001
 43
0.0000000001
 44
0.000001
 12
0.2277108298891293
 22
0.9737288010278858
 32
0.0
 13
-0.0000069223514983
 23
0.9999999999760404
 33
0.0
 40
0.0
 40
0.0
 40
0.0
 40
0.0
 40
0.0055639603364918
 40
0.0131158226681506
 40
0.0210942967457394
 40
0.0300098744557655
 40
0.0384332804465648
 40
0.0459248330553677
 40
0.0528710592908325
 40
0.0601093147671617
 40
0.0670177720699881
 40
0.0737327231005439
 40
0.0799613085293708
 40
0.0811892034774072
 40
0.0811892034774072
 40
0.0811892034774072
 40
0.0811892034774072
 10
27.77901352985373
 20
16.32868721394666
 30
0.0
 10
27.77943585452897
 20
16.33049314342247
 30
0.0
 10
27.78038535784705
 20
16.33476113616774
 30
0.0
 10
27.78173225996076
 20
16.34166340297611
 30
0.0
 10
27.78306273614487
 20
16.34970377504288
 30
0.0
 10
27.78420106797097
 20
16.35806701124659
 30
0.0
 10
27.78509960050792
 20
16.3662957588071
 30
0.0
 10
27.7857601897141
 20
16.37388796067023
 30
0.0
 10
27.78625483116895
 20
16.38109669349245
 30
0.0
 10
27.78661896011647
 20
16.38811856170812
 30
0.0
 10
27.78687052850012
 20
16.39506815184222
 30
0.0
 10
27.78701526112769
 20
16.40168410707235
 30
0.0
 10
27.78705593395381
 20
16.40640788746711
 30
0.0
 10
27.78705829614512
 20
16.40889338009876
 30
0.0
 10
27.78705829331182
 20
16.40930267841477
 30
0.0
 11
27.77901352985373
 21
16.32868721394666
 31
0.0
 11
27.7802214023576
 21
16.33411950371399
 31
0.0
 11
27.78166990975535
 21
16.34153090225973
 31
0.0
 11
27.78297541870222
 21
16.34940169834144
 31
0.0
 11
27.78418221659615
 21
16.35823512080239
 31
0.0
 11
27.78510001289533
 21
16.36660830532955
 31
0.0
 11
27.78575149211633
 21
16.37407142641396
 31
0.0
 11
27.7862284055135
 21
16.38100122200009
 31
0.0
 11
27.78660450048392
 21
16.38822966514462
 31
0.0
 11
27.78685526295794
 21
16.39513354051084
 31
0.0
 11
27.7870025004903
 21
16.4018468503809
 31
0.0
 11
27.78705678748975
 21
16.40807487592528
 31
0.0
 11
27.78705829331182
 21
16.40930267841477
 31
0.0
  0
SPLINE
  5
123
330
2
100
AcDbEntity
  8
GAIKEI
  6
Continuous
 62
     1
100
AcDbSpline
210
0.0
220
0.0
230
1.0
 70
     8
 71
     3
 72
    63
 73
    59
 74
    57
 42
0.0000000001
 43
0.0000000001
 44
0.000001
 12
-0.0001729314789562
 22
0.9999999850473516
 32
0.0
 13
-0.9639981561408674
 23
0.2659089222967284
 33
0.0
 40
0.0
 40
0.0
 40
0.0
 40
0.0
 40
0.006662394416194
 40
0.0120117106882533
 40
0.0160719248867809
 40
0.0188712406526643
 40
0.0210770292586412
 40
0.0237217098085127
 40
0.0267578018102535
 40
0.0333896957102178
 40
0.0390449032365734
 40
0.0443335558181037
 40
0.0493158890959854
 40
0.0536882017533844
 40
0.0572000425217646
 40
0.061694321754272
 40
0.0662400509766816
 40
0.0698996846614691
 40
0.0733945138997461
 40
0.0770418618071811
 40
0.0827061946141789
 40
0.0885292536375065
 40
0.0942584395488708
 40
0.0989898308549859
 40
0.1019574018223864
 40
0.1053284309027052
 40
0.1095379927158981
 40
0.1136431695583946
 40
0.1167388202950475
 40
0.1224713607616345
 40
0.1286365847788385
 40
0.1343633899009834
 40
0.1404446581976546
 40
0.1470974482783727
 40
0.1554758809588795
 40
0.1640411116029899
 40
0.1738064407491906
 40
0.1834003218623066
 40
0.19195414157456
 40
0.1992899170921606
 40
0.2059915933377518
 40
0.2124364169504388
 40
0.2192808292684105
 40
0.2250129937690141
 40
0.2313681933276632
 40
0.2382580815027813
 40
0.2447737230327446
 40
0.2506598572275691
 40
0.2563117766453872
 40
0.2617111174248689
 40
0.2677414482405488
 40
0.2741462703318255
 40
0.2798242721883336
 40
0.282957898289319
 40
0.2857590754326296
 40
0.2890029983986873
 40
0.2935693474366764
 40
0.2994317690969011
 40
0.2994317690969011
 40
0.2994317690969011
 40
0.2994317690969011
 10
27.78664855722843
 20
26.36325324686183
 30
0.0
 10
27.78664817318253
 20
26.36547404496736
 30
0.0
 10
27.78661792733692
 20
26.36947799366692
 30
0.0
 10
27.78651253203392
 20
26.37483436536348
 30
0.0
 10
27.78639038724975
 20
26.37890220611928
 30
0.0
 10
27.78627659904496
 20
26.38192185514123
 30
0.0
 10
27.78616596157261
 20
26.38446939237571
 30
0.0
 10
27.78603704920011
 20
26.38709510224314
 30
0.0
 10
27.78580797066704
 20
26.39119295307845
 30
0.0
 10
27.78546264439018
 20
26.39628926491824
 30
0.0
 10
27.78497279418122
 20
26.40212755424432
 30
0.0
 10
27.78444798506914
 20
26.40741049013462
 30
0.0
 10
27.78389144956759
 20
26.41225994831615
 30
0.0
 10
27.78333988453099
 20
26.41651330954704
 30
0.0
 10
27.78275615419625
 20
26.4205980431716
 30
0.0
 10
27.78210754993037
 20
26.42473159253302
 30
0.0
 10
27.78138364787551
 20
26.42890265697446
 30
0.0
 10
27.78065773109583
 20
26.43273469249431
 30
0.0
 10
27.77993867317619
 20
26.43626288409147
 30
0.0
 10
27.77902682530379
 20
26.44043333698699
 30
0.0
 10
27.77785559782348
 20
26.44534091650764
 30
0.0
 10
27.77638797471968
 20
26.45088955537759
 30
0.0
 10
27.77486815744214
 20
26.4561009290951
 30
0.0
 10
27.7735150177204
 20
26.46036791386445
 30
0.0
 10
27.77233802695736
 20
26.46386527745503
 30
0.0
 10
27.77116764381267
 20
26.46718096809801
 30
0.0
 10
27.76980861673576
 20
26.47083171522823
 30
0.0
 10
27.76841261716112
 20
26.47436999722689
 30
0.0
 10
27.76676229049551
 20
26.47835286932724
 30
0.0
 10
27.76475315005877
 20
26.48292976341418
 30
0.0
 10
27.76224005577265
 20
26.48824091767054
 30
0.0
 10
27.75952401912943
 20
26.49358182370938
 30
0.0
 10
27.75657934679063
 20
26.49898617084673
 30
0.0
 10
27.75302278869515
 20
26.50506019824428
 30
0.0
 10
27.74880198134523
 20
26.51169995027903
 30
0.0
 10
27.74371779807629
 20
26.51901154282774
 30
0.0
 10
27.73806398500352
 20
26.52641044918312
 30
0.0
 10
27.73206739611791
 20
26.5335291801548
 30
0.0
 10
27.72630839179806
 20
26.53977683348745
 30
0.0
 10
27.72099037402947
 20
26.54511073216048
 30
0.0
 10
27.71600429663636
 20
26.54977654806285
 30
0.0
 10
27.71099256935892
 20
26.55416987410985
 30
0.0
 10
27.70608885635829
 20
26.55819121789779
 30
0.0
 10
27.70108634898986
 20
26.56203941466947
 30
0.0
 10
27.6959584707925
 20
26.56574526480705
 30
0.0
 10
27.69049495049421
 20
26.56942690192327
 30
0.0
 10
27.68504466731469
 20
26.57284171122217
 30
0.0
 10
27.67984824331723
 20
26.57587857649401
 30
0.0
 10
27.67489306744656
 20
26.57858594507923
 30
0.0
 10
27.66982220739033
 20
26.58117711534817
 30
0.0
 10
27.66445238506753
 20
26.5837299317858
 30
0.0
 10
27.65892041246551
 20
26.58615149511587
 30
0.0
 10
27.65421374261189
 20
26.58804392905353
 30
0.0
 10
27.65059096975617
 20
26.58940802839544
 30
0.0
 10
27.64771169908448
 20
26.59044312584936
 30
0.0
 10
27.6443650339184
 20
26.59158872338802
 30
0.0
 10
27.64002449114486
 20
26.59297954264696
 30
0.0
 10
27.63668698234068
 20
26.5939540773158
 30
0.0
 10
27.63480319445034
 20
26.59447370072437
 30
0.0
 11
27.78664855722843
 21
26.36325324686183
 31
0.0
 11
27.78660067534531
 21
26.3699152757296
 31
0.0
 11
27.78649458114614
 21
26.37526355335584
 31
0.0
 11
27.78637263691223
 21
26.37932194558349
 31
0.0
 11
27.78626714516122
 21
26.38211927944482
 31
0.0
 11
27.78617140882579
 21
26.38432299456324
 31
0.0
 11
27.7860416548416
 21
26.38696449622964
 31
0.0
 11
27.78587211330728
 21
26.38999585765342
 31
0.0
 11
27.78542253060607
 21
26.39661251018058
 31
0.0
 11
27.78494872132819
 21
26.40224784679359
 31
0.0
 11
27.78442512430797
 21
26.40751052803333
 31
0.0
 11
27.78385635875657
 21
26.41246030140556
 31
0.0
 11
27.78329359539157
 21
26.41679625520456
 31
0.0
 11
27.78279652240951
 21
26.42027274694047
 31
0.0
 11
27.78209930253604
 21
26.42471262442055
 31
0.0
 11
27.78132144170366
 21
26.42919131491814
 31
0.0
 11
27.78064003418967
 21
26.43278695872957
 31
0.0
 11
27.77994190137315
 21
26.43621135479205
 31
0.0
 11
27.77916260205336
 21
26.43977448387605
 31
0.0
 11
27.77784693305239
 21
26.44528391195027
 31
0.0
 11
27.77635722897457
 21
26.45091320294196
 31
0.0
 11
27.77475269983574
 21
26.45641312735771
 31
0.0
 11
27.77332213097998
 21
26.46092307300867
 31
0.0
 11
27.77237548612777
 21
26.46373561083428
 31
0.0
 11
27.77125367669351
 21
26.46691451254273
 31
0.0
 11
27.76978458934923
 21
26.47085941402364
 31
0.0
 11
27.7682778018725
 21
26.47467806813202
 31
0.0
 11
27.76709281638273
 21
26.4775379441833
 31
0.0
 11
27.76478840652874
 21
26.48278692597219
 31
0.0
 11
27.76215129278626
 21
26.48835969225544
 31
0.0
 11
27.75955526849021
 21
26.49346430224037
 31
0.0
 11
27.75664551876128
 21
26.49880427201825
 31
0.0
 11
27.75328380954443
 21
26.50454523352144
 31
0.0
 11
27.74878882808935
 21
26.51161583797673
 31
0.0
 11
27.74389875591862
 21
26.51864794590054
 31
0.0
 11
27.73796936685414
 21
26.52640708324569
 31
0.0
 11
27.73178835545866
 21
26.53374451120814
 31
0.0
 11
27.7259907779162
 21
26.54003387322635
 31
0.0
 11
27.72081130259414
 21
26.5452287497391
 31
0.0
 11
27.71591793314895
 21
26.54980777621338
 31
0.0
 11
27.71107154327637
 21
26.55405610894101
 31
0.0
 11
27.70577912043791
 21
26.5583961920353
 31
0.0
 11
27.70123572589535
 21
26.56189123573293
 31
0.0
 11
27.6960848077672
 21
26.56561369049447
 31
0.0
 11
27.69037108321345
 21
26.56946388357218
 31
0.0
 11
27.68484961651757
 21
26.57292322710973
 31
0.0
 11
27.67976761388843
 21
26.57589305545835
 31
0.0
 11
27.67480771311296
 21
26.57860296829947
 31
0.0
 11
27.66999970812378
 21
26.58105979828903
 31
0.0
 11
27.66455348228828
 21
26.583648923477
 31
0.0
 11
27.65868615510135
 21
26.58621724643515
 31
0.0
 11
27.65341800776969
 21
26.58833535561067
 31
0.0
 11
27.65048537069004
 21
26.58943956191322
 31
0.0
 11
27.64784935384182
 21
26.59038720298847
 31
0.0
 11
27.64478027021562
 21
26.59143781114418
 31
0.0
 11
27.64043177338488
 21
26.59283141789356
 31
0.0
 11
27.63480319445034
 21
26.59447370072437
 31
0.0
  0
SPLINE
  5
124
330
2
100
AcDbEntity
  8
GAIKEI
  6
Continuous
 62
     1
100
AcDbSpline
210
0.0
220
0.0
230
1.0
 70
     8
 71
     3
 72
    20
 73
    16
 74
    14
 42
0.0000000001
 43
0.0000000001
 44
0.000001
 12
-0.9638178171248828
 22
0.2665618415914518
 32
0.0
 13
-0.7809647117650414
 23
0.6245751507847121
 33
0.0
 40
0.0
 40
0.0
 40
0.0
 40
0.0
 40
0.0035465128717416
 40
0.0072132423920782
 40
0.0110106063429306
 40
0.0149563839256358
 40
0.0176808537138879
 40
0.020516519698964
 40
0.0235197026444257
 40
0.0283306632991407
 40
0.0334766303590245
 40
0.0378018138732624
 40
0.0422057963861493
 40
0.0463444835161646
 40
0.0473604770962569
 40
0.0473604770962569
 40
0.0473604770962569
 40
0.0473604770962569
 10
27.5842643993301
 20
26.60809323210859
 30
0.0
 10
27.58312500189862
 20
26.60840835377602
 30
0.0
 10
27.58081611075352
 20
26.6090800090615
 30
0.0
 10
27.5773122050899
 20
26.61017384372712
 30
0.0
 10
27.57372627764721
 20
26.61144449273417
 30
0.0
 10
27.57049071799722
 20
26.61275423557288
 30
0.0
 10
27.56760544373293
 20
26.6140653770035
 30
0.0
 10
27.56504421292709
 20
26.61532614260733
 30
0.0
 10
27.56188858921857
 20
26.61695266824163
 30
0.0
 10
27.55810947577572
 20
26.61904779721073
 30
0.0
 10
27.55402761454082
 20
26.62149978122881
 30
0.0
 10
27.55013885765078
 20
26.62400430194293
 30
0.0
 10
27.54659010622544
 20
26.62641478897035
 30
0.0
 10
27.54403175110173
 20
26.62831628460691
 30
0.0
 10
27.54268584731838
 20
26.62938441779266
 30
0.0
 10
27.5424213622739
 20
26.62959593924049
 30
0.0
 11
27.5842643993301
 21
26.60809323210859
 31
0.0
 11
27.58085752434329
 21
26.60907872719409
 31
0.0
 11
27.5773605649606
 21
26.61018157108143
 31
0.0
 11
27.5737822320948
 21
26.61145264748339
 31
0.0
 11
27.57012588520365
 21
26.61293600051923
 31
0.0
 11
27.56764480478035
 21
26.61406150230985
 31
0.0
 11
27.56509894927103
 21
26.61530844959307
 31
0.0
 11
27.56243028905033
 21
26.61668767717109
 31
0.0
 11
27.55822117601736
 21
26.61901777490854
 31
0.0
 11
27.55380905852963
 21
26.62166619506016
 31
0.0
 11
27.5501711189072
 21
26.62400552195411
 31
0.0
 11
27.5465360048961
 21
26.62649163568531
 31
0.0
 11
27.54321832048356
 21
26.62896581357327
 31
0.0
 11
27.5424213622739
 21
26.62959593924049
 31
0.0
  0
LINE
  5
125
330
2
100
AcDbEntity
  8
GAIKEI
  6
Continuous
 62
     1
100
AcDbLine
 10
26.77573230662734
 20
9.588900859013023
 30
0.0
 11
26.77573230662734
 21
9.438900859012989
 31
0.0
  0
LINE
  5
126
330
2
100
AcDbEntity
  8
GAIKEI
  6
Continuous
 62
     1
100
AcDbLine
 10
26.58714906662726
 20
9.588900859013023
 30
0.0
 11
26.77573230662734
 21
9.588900859013023
 31
0.0
  0
LINE
  5
127
330
2
100
AcDbEntity
  8
GAIKEI
  6
Continuous
 62
     1
100
AcDbLine
 10
26.58714906662726
 20
9.438900859012989
 30
0.0
 11
26.58714906662726
 21
9.588900859013023
 31
0.0
  0
LINE
  5
128
330
2
100
AcDbEntity
  8
GAIKEI
  6
Continuous
 62
     1
100
AcDbLine
 10
26.77573230662734
 20
9.438900859012989
 30
0.0
 11
26.58714906662726
 21
9.438900859012989
 31
0.0
  0
LINE
  5
129
330
2
100
AcDbEntity
  8
GAIKEI
  6
Continuous
 62
     1
100
AcDbLine
 10
26.77573230662734
 20
9.928900859012998
 30
0.0
 11
26.77573230662734
 21
9.77890085901302
 31
0.0
  0
LINE
  5
12A
330
2
100
AcDbEntity
  8
GAIKEI
  6
Continuous
 62
     1
100
AcDbLine
 10
26.58714906662726
 20
9.928900859012998
 30
0.0
 11
26.77573230662734
 21
9.928900859012998
 31
0.0
  0
LINE
  5
12B
330
2
100
AcDbEntity
  8
GAIKEI
  6
Continuous
 62
     1
100
AcDbLine
 10
26.58714906662726
 20
9.77890085901302
 30
0.0
 11
26.58714906662726
 21
9.928900859012998
 31
0.0
  0
LINE
  5
12C
330
2
100
AcDbEntity
  8
GAIKEI
  6
Continuous
 62
     1
100
AcDbLine
 10
26.77573230662734
 20
9.77890085901302
 30
0.0
 11
26.58714906662726
 21
9.77890085901302
 31
0.0
  0
LINE
  5
12D
330
2
100
AcDbEntity
  8
GAIKEI
  6
Continuous
 62
     1
100
AcDbLine
 10
26.77573230662734
 20
10.26890085901303
 30
0.0
 11
26.77573230662734
 21
10.11890085901299
 31
0.0
  0
LINE
  5
12E
330
2
100
AcDbEntity
  8
GAIKEI
  6
Continuous
 62
     1
100
AcDbLine
 10
26.58714906662726
 20
10.26890085901303
 30
0.0
 11
26.77573230662734
 21
10.26890085901303
 31
0.0
  0
LINE
  5
12F
330
2
100
AcDbEntity
  8
GAIKEI
  6
Continuous
 62
     1
100
AcDbLine
 10
26.58714906662726
 20
10.11890085901299
 30
0.0
 11
26.58714906662726
 21
10.26890085901303
 31
0.0
  0
LINE
  5
130
330
2
100
AcDbEntity
  8
GAIKEI
  6
Continuous
 62
     1
100
AcDbLine
 10
26.77573230662734
 20
10.11890085901299
 30
0.0
 11
26.58714906662726
 21
10.11890085901299
 31
0.0
  0
LINE
  5
131
330
2
100
AcDbEntity
  8
GAIKEI
  6
Continuous
 62
     1
100
AcDbLine
 10
26.77573230662734
 20
10.608900859013
 30
0.0
 11
26.77573230662734
 21
10.45890085901302
 31
0.0
  0
LINE
  5
132
330
2
100
AcDbEntity
  8
GAIKEI
  6
Continuous
 62
     1
100
AcDbLine
 10
26.58714906662726
 20
10.608900859013
 30
0.0
 11
26.77573230662734
 21
10.608900859013
 31
0.0
  0
LINE
  5
133
330
2
100
AcDbEntity
  8
GAIKEI
  6
Continuous
 62
     1
100
AcDbLine
 10
26.58714906662726
 20
10.45890085901302
 30
0.0
 11
26.58714906662726
 21
10.608900859013
 31
0.0
  0
LINE
  5
134
330
2
100
AcDbEntity
  8
GAIKEI
  6
Continuous
 62
     1
100
AcDbLine
 10
26.77573230662734
 20
10.45890085901302
 30
0.0
 11
26.58714906662726
 21
10.45890085901302
 31
0.0
  0
LINE
  5
135
330
2
100
AcDbEntity
  8
GAIKEI
  6
Continuous
 62
     1
100
AcDbLine
 10
27.54240125259344
 20
30.3926706590901
 30
0.0
 11
27.27157714662735
 21
30.442376179013
 31
0.0
  0
LINE
  5
136
330
2
100
AcDbEntity
  8
GAIKEI
  6
Continuous
 62
     1
100
AcDbLine
 10
27.27157714662735
 20
3.105425539012998
 30
0.0
 11
27.54240125259344
 21
3.155131058935893
 31
0.0
  0
LINE
  5
137
330
2
100
AcDbEntity
  8
GAIKEI
  6
Continuous
 62
     1
100
AcDbLine
 10
27.27157714662735
 20
7.58390085901297
 30
0.0
 11
27.27157714662735
 21
3.105425539012998
 31
0.0
  0
LINE
  5
138
330
2
100
AcDbEntity
  8
GAIKEI
  6
Continuous
 62
     1
100
AcDbLine
 10
27.27157714662735
 20
3.105425539012998
 30
0.0
 11
26.24245264662738
 21
2.917279979012988
 31
0.0
  0
LINE
  5
139
330
2
100
AcDbEntity
  8
GAIKEI
  6
Continuous
 62
     1
100
AcDbLine
 10
27.27157714662735
 20
30.442376179013
 30
0.0
 11
27.27157714662735
 21
11.43390085901299
 31
0.0
  0
LINE
  5
13A
330
2
100
AcDbEntity
  8
GAIKEI
  6
Continuous
 62
     1
100
AcDbLine
 10
27.27157714662735
 20
30.442376179013
 30
0.0
 11
26.24245264662738
 21
30.63052173901301
 31
0.0
  0
ARC
  5
13B
330
2
100
AcDbEntity
  8
GAIKEI
  6
Continuous
 62
     1
100
AcDbCircle
 10
27.51845264662734
 20
16.77190085901301
 30
0.0
 40
0.024
100
AcDbArc
 50
0.0
 51
90.0
  0
ARC
  5
13C
330
2
100
AcDbEntity
  8
GAIKEI
  6
Continuous
100
AcDbCircle
 10
27.51845264662734
 20
3.156700859013
 30
0.0
 40
0.024
100
AcDbArc
 50
337.3801350000027
 51
0.0
  0
ARC
  5
13D
330
2
100
AcDbEntity
  8
GAIKEI
  6
Continuous
100
AcDbCircle
 10
27.42645264662724
 20
2.935900859013003
 30
0.0
 40
0.024
100
AcDbArc
 50
270.0
 51
337.3801350000027
  0
LINE
  5
13E
330
2
100
AcDbEntity
  8
GAIKEI
  6
Continuous
 62
     1
100
AcDbLine
 10
27.54245264662723
 20
16.76590085901298
 30
0.0
 11
27.54245264662723
 21
16.77190085901301
 31
0.0
  0
LINE
  5
13F
330
2
100
AcDbEntity
  8
GAIKEI
  6
Continuous
 62
     1
100
AcDbLine
 10
27.51845264662734
 20
16.79590085901302
 30
0.0
 11
27.51645264662727
 21
16.79590085901302
 31
0.0
  0
LINE
  5
140
330
2
100
AcDbEntity
  8
GAIKEI
  6
Continuous
100
AcDbLine
 10
27.40245264662735
 20
2.911900859013002
 30
0.0
 11
27.42645264662724
 21
2.911900859013002
 31
0.0
  0
LINE
  5
141
330
2
100
AcDbEntity
  8
GAIKEI
  6
Continuous
100
AcDbLine
 10
27.44860648662734
 20
2.926670099013023
 30
0.0
 11
27.54060648662733
 21
3.14747009901302
 31
0.0
  0
LINE
  5
142
330
2
100
AcDbEntity
  8
GAIKEI
  6
Continuous
100
AcDbLine
 10
27.54245264662723
 20
3.156700859013
 30
0.0
 11
27.54245264662723
 21
3.231900859012995
 31
0.0
  0
LINE
  5
143
330
2
100
AcDbEntity
  8
GAIKEI
  6
Continuous
100
AcDbLine
 10
27.54245264662723
 20
7.583900859013027
 30
0.0
 11
27.54245264662723
 21
3.231900859012995
 31
0.0
  0
LINE
  5
144
330
2
100
AcDbEntity
  8
GAIKEI
  6
Continuous
100
AcDbLine
 10
27.54245264662723
 20
16.76590085901298
 30
0.0
 11
27.54245264662723
 21
11.43390085901299
 31
0.0
  0
LINE
  5
145
330
2
100
AcDbEntity
  8
GAIKEI
  6
Continuous
100
AcDbLine
 10
27.40245264662735
 20
2.911900859013002
 30
0.0
 11
26.24245264662738
 21
2.911900859013002
 31
0.0
  0
ARC
  5
146
330
2
100
AcDbEntity
  8
GAIKEI
  6
Continuous
100
AcDbCircle
 10
27.51845264662734
 20
30.39110085901305
 30
0.0
 40
0.024
100
AcDbArc
 50
0.0
 51
22.61986499999731
  0
ARC
  5
147
330
2
100
AcDbEntity
  8
GAIKEI
  6
Continuous
 62
     7
100
AcDbCircle
 10
27.42645264662724
 20
30.61190085901299
 30
0.0
 40
0.024
100
AcDbArc
 50
22.61986499999731
 51
90.0
  0
LINE
  5
148
330
2
100
AcDbEntity
  8
GAIKEI
  6
Continuous
100
AcDbLine
 10
27.54060648662733
 20
30.40033161901303
 30
0.0
 11
27.44860648662734
 21
30.62113161901303
 31
0.0
  0
LINE
  5
149
330
2
100
AcDbEntity
  8
GAIKEI
  6
Continuous
 62
     7
100
AcDbLine
 10
27.40245264662735
 20
30.63590085901299
 30
0.0
 11
27.42645264662724
 21
30.63590085901299
 31
0.0
  0
LINE
  5
14A
330
2
100
AcDbEntity
  8
GAIKEI
  6
Continuous
 62
     1
100
AcDbLine
 10
27.54245264662723
 20
16.815900859013
 30
0.0
 11
27.51845264662734
 21
16.815900859013
 31
0.0
  0
LINE
  5
14B
330
2
100
AcDbEntity
  8
GAIKEI
  6
Continuous
100
AcDbLine
 10
27.54245264662723
 20
30.39110085901305
 30
0.0
 11
27.54245264662723
 21
16.815900859013
 31
0.0
  0
LINE
  5
14C
330
2
100
AcDbEntity
  8
GAIKEI
  6
Continuous
100
AcDbLine
 10
26.24245264662738
 20
30.63590085901299
 30
0.0
 11
27.40245264662735
 21
30.63590085901299
 31
0.0
  0
LINE
  5
14D
330
2
100
AcDbEntity
  8
GAIKEI
  6
Continuous
 62
     1
100
AcDbLine
 10
27.51845264662734
 20
16.815900859013
 30
0.0
 11
27.51645264662727
 21
16.815900859013
 31
0.0
  0
LINE
  5
14E
330
2
100
AcDbEntity
  8
GAIKEI
  6
Continuous
 62
     1
100
AcDbLine
 10
26.24245264662738
 20
11.43390085901299
 30
0.0
 11
27.55645264662735
 21
11.43390085901299
 31
0.0
  0
LINE
  5
14F
330
2
100
AcDbEntity
  8
GAIKEI
  6
Continuous
 62
     1
100
AcDbLine
 10
27.2952572066273
 20
7.583900859013027
 30
0.0
 11
27.55645264662735
 21
7.583900859013027
 31
0.0
  0
LINE
  5
150
330
2
100
AcDbEntity
  8
GAIKEI
  6
Continuous
100
AcDbLine
 10
27.55645264662735
 20
11.43390085901299
 30
0.0
 11
27.55645264662735
 21
7.583900859013027
 31
0.0
  0
LINE
  5
151
330
2
100
AcDbEntity
  8
GAIKEI
  6
Continuous
 62
     1
100
AcDbLine
 10
26.24245264662738
 20
7.583900859013027
 30
0.0
 11
27.2952572066273
 21
7.583900859013027
 31
0.0
  0
LINE
  5
152
330
2
100
AcDbEntity
  8
GAIKEI
  6
Continuous
 62
     1
100
AcDbLine
 10
27.2952572066273
 20
11.43390085901299
 30
0.0
 11
27.2952572066273
 21
7.583900859013027
 31
0.0
  0
LINE
  5
153
330
2
100
AcDbEntity
  8
GAIKEI
  6
Continuous
 62
     1
100
AcDbLine
 10
26.77573230662734
 20
10.798900859013
 30
0.0
 11
26.58714906662726
 21
10.798900859013
 31
0.0
  0
LINE
  5
154
330
2
100
AcDbEntity
  8
GAIKEI
  6
Continuous
 62
     1
100
AcDbLine
 10
26.58714906662726
 20
10.798900859013
 30
0.0
 11
26.58714906662726
 21
10.94890085901303
 31
0.0
  0
LINE
  5
155
330
2
100
AcDbEntity
  8
GAIKEI
  6
Continuous
 62
     1
100
AcDbLine
 10
26.58714906662726
 20
10.94890085901303
 30
0.0
 11
26.77573230662734
 21
10.94890085901303
 31
0.0
  0
LINE
  5
156
330
2
100
AcDbEntity
  8
GAIKEI
  6
Continuous
 62
     1
100
AcDbLine
 10
26.77573230662734
 20
10.94890085901303
 30
0.0
 11
26.77573230662734
 21
10.798900859013
 31
0.0
  0
LINE
  5
157
330
2
100
AcDbEntity
  8
GAIKEI
  6
Continuous
 62
     1
100
AcDbLine
 10
26.34817154662733
 20
11.43390085901299
 30
0.0
 11
26.34817154662733
 21
7.583900859013027
 31
0.0
  0
SPLINE
  5
158
330
2
100
AcDbEntity
  8
GAIKEI
  6
Continuous
 62
     1
100
AcDbSpline
210
0.0
220
0.0
230
1.0
 70
     8
 71
     3
 72
    31
 73
    27
 74
    25
 42
0.0000000001
 43
0.0000000001
 44
0.000001
 12
-0.0000077761845797
 22
0.9999999999697655
 32
0.0
 13
-0.9999999980128059
 23
0.0000630427493845
 33
0.0
 40
0.0
 40
0.0
 40
0.0
 40
0.0
 40
0.0029960135847706
 40
0.0083845366725696
 40
0.0137701110154588
 40
0.0191492999768412
 40
0.0245194836642232
 40
0.0298781871636713
 40
0.0352231197708577
 40
0.0405522124434815
 40
0.0458636529074745
 40
0.0511559180357606
 40
0.0564278030337789
 40
0.061678446887557
 40
0.0669073534517034
 40
0.0721144074924513
 40
0.077299884946238
 40
0.0824644566432608
 40
0.0876091847873509
 40
0.0927355115733343
 40
0.0978452395127381
 40
0.1029405032708608
 40
0.1080237331228617
 40
0.11309761045684
 40
0.1181650148990197
 40
0.1220197333635834
 40
0.1220197333635834
 40
0.1220197333635834
 40
0.1220197333635834
 10
27.07505356722197
 20
8.513900859013375
 30
0.0
 10
27.07505355945611
 20
8.514899530208282
 30
0.0
 10
27.07500250409734
 20
8.517694479182893
 30
0.0
 10
27.07469619527652
 20
8.522277524021404
 30
0.0
 10
27.0739947535929
 20
8.527619703427291
 30
0.0
 10
27.0729564719135
 20
8.532900563490301
 30
0.0
 10
27.07158541345126
 20
8.53809571638331
 30
0.0
 10
27.06988783320455
 20
8.543181512047283
 30
0.0
 10
27.0678713047688
 20
8.5481347295445
 30
0.0
 10
27.06554493195441
 20
8.55293273451241
 30
0.0
 10
27.06291925323393
 20
8.557553575685517
 30
0.0
 10
27.06000621820257
 20
8.561976097747759
 30
0.0
 10
27.05681913367113
 20
8.566180048920188
 30
0.0
 10
27.05337260570775
 20
8.57014618762605
 30
0.0
 10
27.04968246990578
 20
8.573856385225013
 30
0.0
 10
27.04576571165418
 20
8.577293723373628
 30
0.0
 10
27.04164037627774
 20
8.580442583877243
 30
0.0
 10
27.03732547015798
 20
8.583288729253808
 30
0.0
 10
27.03284085422428
 20
8.585819371498246
 30
0.0
 10
27.02820713236034
 20
8.588023230357862
 30
0.0
 10
27.02344553550816
 20
8.589890570506128
 30
0.0
 10
27.01857781030509
 20
8.591413254246049
 30
0.0
 10
27.01362609171955
 20
8.59258467449041
 30
0.0
 10
27.00861284798217
 20
8.593400075411409
 30
0.0
 10
27.00396237378033
 20
8.593819170982754
 30
0.0
 10
27.00098784352355
 20
8.593900778009015
 30
0.0
 10
26.99970293737124
 20
8.593900859013018
 30
0.0
 11
27.07505356722197
 21
8.513900859013375
 31
0.0
 11
27.0750007436875
 21
8.516896647833874
 31
0.0
 11
27.07464001457868
 21
8.522273091188509
 31
0.0
 11
27.07393905659183
 21
8.527612859974482
 31
0.0
 11
27.07290095269082
 21
8.53289093749143
 31
0.0
 11
27.07153030302129
 21
8.538083268104372
 31
0.0
 11
27.06983323633597
 21
8.54316615953158
 31
0.0
 11
27.06781739068811
 21
8.548116391708191
 31
0.0
 11
27.06549188750159
 21
8.552911326556028
 31
0.0
 11
27.06286729823933
 21
8.557529018106748
 31
0.0
 11
27.05995560279462
 21
8.561948322433892
 31
0.0
 11
27.05677013873708
 21
8.566149006512915
 31
0.0
 11
27.05332554066945
 21
8.57011185475946
 31
0.0
 11
27.04963766923129
 21
8.573818771658494
 31
0.0
 11
27.04572352966307
 21
8.577252878606458
 31
0.0
 11
27.04160118038806
 21
8.580398602944995
 31
0.0
 11
27.03728963265189
 21
8.583241757176409
 31
0.0
 11
27.03280874286816
 21
8.58576960658965
 31
0.0
 11
27.02817909986652
 21
8.587970923980975
 31
0.0
 11
27.02342190959701
 21
8.589836030802842
 31
0.0
 11
27.0185588799983
 21
8.591356824859559
 31
0.0
 11
27.01361210859818
 21
8.592526795485042
 31
0.0
 11
27.00860397498309
 21
8.593341027882871
 31
0.0
 11
27.00355703961202
 21
8.593796198861383
 31
0.0
 11
26.99970293737124
 21
8.593900859013018
 31
0.0
  0
SPLINE
  5
159
330
2
100
AcDbEntity
  8
GAIKEI
  6
Continuous
 62
     1
100
AcDbSpline
210
0.0
220
0.0
230
1.0
 70
     8
 71
     3
 72
    31
 73
    27
 74
    25
 42
0.0000000001
 43
0.0000000001
 44
0.000001
 12
0.9999999994787829
 22
0.0000322867525392
 32
0.0
 13
0.0000205921431017
 23
0.9999999997879818
 33
0.0
 40
0.0
 40
0.0
 40
0.0
 40
0.0
 40
0.0028718789002958
 40
0.0079353789329861
 40
0.0130030771135179
 40
0.0180773584987078
 40
0.0231611383005402
 40
0.0282571412856029
 40
0.033367844860283
 40
0.0384954288838811
 40
0.0436417333434369
 40
0.0488082248805233
 40
0.0539959727643518
 40
0.059205634500915
 40
0.0644374508870004
 40
0.0696912499990439
 40
0.0749664593386336
 40
0.0802621251945798
 40
0.0855769381910692
 40
0.0909092639805608
 40
0.0962571780842863
 40
0.1016185039816057
 40
0.1069908536834569
 40
0.1123716702737011
 40
0.117758271900458
 40
0.1220198079408415
 40
0.1220198079408415
 40
0.1220198079408415
 40
0.1220198079408415
 10
26.99970293737079
 20
8.033900859013073
 30
0.0
 10
27.00066023033705
 20
8.033900889920943
 30
0.0
 10
27.00330551022947
 20
8.033955433612192
 30
0.0
 10
27.0076312292893
 20
8.03428463538782
 30
0.0
 10
27.01264897270781
 20
8.035029462536499
 30
0.0
 10
27.01760787770479
 20
8.036129816179737
 30
0.0
 10
27.02248550345383
 20
8.037580976149342
 30
0.0
 10
27.02726014068549
 20
8.039376346935426
 30
0.0
 10
27.03191047094796
 20
8.041507958711861
 30
0.0
 10
27.03641569998561
 20
8.043966349635638
 30
0.0
 10
27.04075562635842
 20
8.046740627123483
 30
0.0
 10
27.04491073179708
 20
8.049818487607922
 30
0.0
 10
27.0488622692705
 20
8.053186256466688
 30
0.0
 10
27.05259235366688
 20
8.056828933478243
 30
0.0
 10
27.05608405163696
 20
8.060730249014739
 30
0.0
 10
27.0593214691298
 20
8.064872730031083
 30
0.0
 10
27.06228983452116
 20
8.069237775780948
 30
0.0
 10
27.06497557602216
 20
8.073805742240722
 30
0.0
 10
27.06736639092682
 20
8.078556034040104
 30
0.0
 10
27.0694513101966
 20
8.083467202159027
 30
0.0
 10
27.07122074172034
 20
8.088517046813905
 30
0.0
 10
27.07266655319199
 20
8.093682720619938
 30
0.0
 10
27.07378196662023
 20
8.098940844038821
 30
0.0
 10
27.07456211966826
 20
8.104267583067326
 30
0.0
 10
27.07497137760333
 20
8.1092638478313
 30
0.0
 10
27.07505353797058
 20
8.112480346999831
 30
0.0
 10
27.07505356722197
 20
8.113900859013
 30
0.0
 11
26.99970293737079
 21
8.033900859013073
 31
0.0
 11
27.00257503408159
 21
8.033958963048263
 31
0.0
 11
27.00762389987892
 21
8.034343868346041
 31
0.0
 11
27.01263674533857
 21
8.035087565529437
 31
0.0
 11
27.01759060070208
 21
8.036186564021107
 31
0.0
 11
27.02246342620947
 21
8.037635889532879
 31
0.0
 11
27.02723353048623
 21
8.039429074504056
 31
0.0
 11
27.03187964575545
 21
8.041558174826121
 31
0.0
 11
27.03638100644912
 21
8.044013788057469
 31
0.0
 11
27.04071743182522
 21
8.046785075152598
 31
0.0
 11
27.0448694125588
 21
8.049859787882866
 31
0.0
 11
27.04881820050923
 21
8.053224303936673
 31
0.0
 11
27.05254590021707
 21
8.056863671262163
 31
0.0
 11
27.05603556025619
 21
8.060761662599958
 31
0.0
 11
27.05927126238407
 21
8.064900840477918
 31
0.0
 11
27.06223820647347
 21
8.069262632275496
 31
0.0
 11
27.06492278947144
 21
8.073827414416967
 31
0.0
 11
27.0673126770248
 21
8.078574604356987
 31
0.0
 11
27.06939686687167
 21
8.083482758813687
 31
0.0
 11
27.07116574355769
 21
8.08852967666408
 31
0.0
 11
27.07261112445576
 21
8.093692505023938
 31
0.0
 11
27.07372629737972
 21
8.09894784724517
 31
0.0
 11
27.07450605030488
 21
8.104271871828387
 31
0.0
 11
27.07494669382595
 21
8.109640421541342
 31
0.0
 11
27.07505356722197
 21
8.113900859013
 31
0.0
  0
ELLIPSE
  5
15A
330
2
100
AcDbEntity
  8
GAIKEI
  6
Continuous
 62
     1
100
AcDbEllipse
 10
26.58176018662732
 20
8.513900859013034
 30
0.0
 11
-0.0000000000000313
 21
0.0799999999998545
 31
0.0
210
0.0
220
0.0
230
1.0
 40
0.933579999999999
 41
-0.0000000000004186
 42
1.570796326794503
  0
ELLIPSE
  5
15B
330
2
100
AcDbEntity
  8
GAIKEI
  6
Continuous
 62
     1
100
AcDbEllipse
 10
26.58176018662732
 20
8.113900859013
 30
0.0
 11
0.0000000000000074
 21
0.0799999999994998
 31
0.0
210
0.0
220
0.0
230
1.0
 40
0.9335800000000455
 41
1.570796326794954
 42
3.141592653589891
  0
ELLIPSE
  5
15C
330
2
100
AcDbEntity
  8
GAIKEI
  6
Continuous
 62
     1
100
AcDbEllipse
 10
26.60744850662764
 20
8.499900859012967
 30
0.0
 11
0.0000000000000411
 21
0.0301792019110985
 31
0.0
210
0.0
220
0.0
230
1.0
 40
0.9335799999999341
 41
0.0000000000014595
 42
1.570796326796168
  0
ELLIPSE
  5
15D
330
2
100
AcDbEntity
  8
GAIKEI
  6
Continuous
 62
     1
100
AcDbEllipse
 10
26.99021648662768
 20
8.499900859012967
 30
0.0
 11
-0.0000000000000453
 21
0.0301792019106529
 31
0.0
210
0.0
220
0.0
230
1.0
 40
0.9335800000001594
 41
4.712388980383287
 42
6.283185307177976
  0
ELLIPSE
  5
15E
330
2
100
AcDbEntity
  8
GAIKEI
  6
Continuous
 62
     1
100
AcDbEllipse
 10
26.99021648662768
 20
8.127900859012953
 30
0.0
 11
-0.0000000000000019
 21
0.0301792019111713
 31
0.0
210
0.0
220
0.0
230
1.0
 40
0.9335800000000949
 41
3.141592653589724
 42
4.71238898038463
  0
ELLIPSE
  5
15F
330
2
100
AcDbEntity
  8
GAIKEI
  6
Continuous
 62
     1
100
AcDbEllipse
 10
26.60744850662764
 20
8.127900859012953
 30
0.0
 11
0.0000000000000352
 21
0.0301792019103209
 31
0.0
210
0.0
220
0.0
230
1.0
 40
0.9335799999998812
 41
1.570796326795986
 42
3.141592653591043
  0
LINE
  5
160
330
2
100
AcDbEntity
  8
GAIKEI
  6
Continuous
 62
     1
100
AcDbLine
 10
27.07505356662728
 20
8.113900859013
 30
0.0
 11
27.07505356662728
 21
8.513900859013034
 31
0.0
  0
LINE
  5
161
330
2
100
AcDbEntity
  8
GAIKEI
  6
Continuous
 62
     1
100
AcDbLine
 10
26.84479626662733
 20
8.033900859013016
 30
0.0
 11
26.84542332662739
 21
8.033900859013016
 31
0.0
  0
LINE
  5
162
330
2
100
AcDbEntity
  8
GAIKEI
  6
Continuous
 62
     1
100
AcDbLine
 10
26.84542332662739
 20
8.593900859013018
 30
0.0
 11
26.84479626662733
 21
8.593900859013018
 31
0.0
  0
LINE
  5
163
330
2
100
AcDbEntity
  8
GAIKEI
  6
Continuous
 62
     1
100
AcDbLine
 10
26.58892754662736
 20
8.593900859013018
 30
0.0
 11
26.99970294662728
 21
8.593900859013018
 31
0.0
  0
LINE
  5
164
330
2
100
AcDbEntity
  8
GAIKEI
  6
Continuous
 62
     1
100
AcDbLine
 10
26.99970294662728
 20
8.033900859013016
 30
0.0
 11
26.58892754662736
 21
8.033900859013016
 31
0.0
  0
LINE
  5
165
330
2
100
AcDbEntity
  8
GAIKEI
  6
Continuous
 62
     1
100
AcDbLine
 10
26.50707376662729
 20
8.251276199013005
 30
0.0
 11
26.50801434662731
 21
8.251364339013008
 31
0.0
  0
LINE
  5
166
330
2
100
AcDbEntity
  8
GAIKEI
  6
Continuous
 62
     1
100
AcDbLine
 10
26.50801434662731
 20
8.376437379013026
 30
0.0
 11
26.50707376662729
 21
8.376525519013028
 31
0.0
  0
LINE
  5
167
330
2
100
AcDbEntity
  8
GAIKEI
  6
Continuous
 62
     1
100
AcDbLine
 10
26.58176018662732
 20
8.593900859013018
 30
0.0
 11
26.58892754662736
 21
8.593900859013018
 31
0.0
  0
LINE
  5
168
330
2
100
AcDbEntity
  8
GAIKEI
  6
Continuous
 62
     1
100
AcDbLine
 10
26.50801434662731
 20
8.376525519013028
 30
0.0
 11
26.50801434662731
 21
8.251276199013005
 31
0.0
  0
LINE
  5
169
330
2
100
AcDbEntity
  8
GAIKEI
  6
Continuous
 62
     1
100
AcDbLine
 10
26.50801434662731
 20
8.251276199013005
 30
0.0
 11
26.50707376662729
 21
8.251276199013005
 31
0.0
  0
LINE
  5
16A
330
2
100
AcDbEntity
  8
GAIKEI
  6
Continuous
 62
     1
100
AcDbLine
 10
26.50707374662727
 20
8.113900859013
 30
0.0
 11
26.50707376662729
 21
8.251276199013005
 31
0.0
  0
LINE
  5
16B
330
2
100
AcDbEntity
  8
GAIKEI
  6
Continuous
 62
     1
100
AcDbLine
 10
26.50707376662729
 20
8.376525519013028
 30
0.0
 11
26.50707374662727
 21
8.513900859013034
 31
0.0
  0
LINE
  5
16C
330
2
100
AcDbEntity
  8
GAIKEI
  6
Continuous
 62
     1
100
AcDbLine
 10
26.50707376662729
 20
8.376525519013028
 30
0.0
 11
26.50801434662731
 21
8.376525519013028
 31
0.0
  0
LINE
  5
16D
330
2
100
AcDbEntity
  8
GAIKEI
  6
Continuous
 62
     1
100
AcDbLine
 10
26.58176018662732
 20
8.033900859013016
 30
0.0
 11
26.58892754662736
 21
8.033900859013016
 31
0.0
  0
LINE
  5
16E
330
2
100
AcDbEntity
  8
GAIKEI
  6
Continuous
 62
     1
100
AcDbLine
 10
26.60744850662729
 20
8.530080059012988
 30
0.0
 11
26.99021648662733
 21
8.530080059012988
 31
0.0
  0
LINE
  5
16F
330
2
100
AcDbEntity
  8
GAIKEI
  6
Continuous
 62
     1
100
AcDbLine
 10
27.01839120662726
 20
8.499900859013024
 30
0.0
 11
27.01839120662726
 21
8.12790085901301
 31
0.0
  0
LINE
  5
170
330
2
100
AcDbEntity
  8
GAIKEI
  6
Continuous
 62
     1
100
AcDbLine
 10
26.99021648662733
 20
8.097721659012989
 30
0.0
 11
26.60744850662729
 21
8.097721659012989
 31
0.0
  0
LINE
  5
171
330
2
100
AcDbEntity
  8
GAIKEI
  6
Continuous
 62
     1
100
AcDbLine
 10
26.57927380662739
 20
8.12790085901301
 30
0.0
 11
26.57927380662739
 21
8.499900859013024
 31
0.0
  0
CIRCLE
  5
172
330
2
100
AcDbEntity
  8
GAIKEI
  6
Continuous
 62
     1
100
AcDbCircle
 10
26.85245264662729
 20
27.613900859013
 30
0.0
 40
0.27
  0
ELLIPSE
  5
173
330
2
100
AcDbEntity
  8
GAIKEI
  6
Continuous
 62
     1
100
AcDbEllipse
 10
27.22996466662755
 20
26.9238423590131
 30
0.0
 11
-0.0187723788556899
 21
0.0078327491868922
 31
0.0
210
0.0
220
0.0
230
1.0
 40
0.9809970000000982
 41
1.972947590087401
 42
3.530107174506147
  0
ELLIPSE
  5
174
330
2
100
AcDbEntity
  8
GAIKEI
  6
Continuous
 62
     1
100
AcDbEllipse
 10
27.22996466662755
 20
28.30381797901308
 30
0.0
 11
0.0187723788556906
 21
0.0078327491868929
 31
0.0
210
0.0
220
0.0
230
1.0
 40
0.9809969999997814
 41
-0.3885145209167111
 42
1.168645063502041
  0
ELLIPSE
  5
175
330
2
100
AcDbEntity
  8
GAIKEI
  6
Continuous
 62
     1
100
AcDbEllipse
 10
26.45224134662738
 20
28.30381797901308
 30
0.0
 11
0.0000000000000085
 21
0.0200121908859774
 31
0.0
210
0.0
220
0.0
230
1.0
 40
0.9330119999997828
 41
0.0000000000004527
 42
1.57079632679529
  0
ELLIPSE
  5
176
330
2
100
AcDbEntity
  8
GAIKEI
  6
Continuous
 62
     1
100
AcDbEllipse
 10
26.45224134662738
 20
26.9238423590131
 30
0.0
 11
-0.0000000000000085
 21
0.0200121908859774
 31
0.0
210
0.0
220
0.0
230
1.0
 40
0.9330119999997828
 41
1.570796326794502
 42
3.14159265358934
  0
LINE
  5
177
330
2
100
AcDbEntity
  8
GAIKEI
  6
Continuous
 62
     1
100
AcDbLine
 10
27.25024876662735
 20
27.49045185901301
 30
0.0
 11
27.25024876662735
 21
26.92356947901302
 31
0.0
  0
LINE
  5
178
330
2
100
AcDbEntity
  8
GAIKEI
  6
Continuous
 62
     1
100
AcDbLine
 10
27.25024876662735
 20
28.30409087901299
 30
0.0
 11
27.25024876662735
 21
27.73734985901299
 31
0.0
  0
LINE
  5
179
330
2
100
AcDbEntity
  8
GAIKEI
  6
Continuous
 62
     1
100
AcDbLine
 10
27.25024876662735
 20
27.49045185901301
 30
0.0
 11
27.24966068662729
 21
27.49050331901301
 31
0.0
  0
LINE
  5
17A
330
2
100
AcDbEntity
  8
GAIKEI
  6
Continuous
 62
     1
100
AcDbLine
 10
27.24966068662729
 20
27.49050331901301
 30
0.0
 11
27.24966068662729
 21
27.73729839901299
 31
0.0
  0
LINE
  5
17B
330
2
100
AcDbEntity
  8
GAIKEI
  6
Continuous
 62
     1
100
AcDbLine
 10
27.24966068662729
 20
27.73729839901299
 30
0.0
 11
27.25024876662735
 21
27.73734985901299
 31
0.0
  0
LINE
  5
17C
330
2
100
AcDbEntity
  8
GAIKEI
  6
Continuous
 62
     1
100
AcDbLine
 10
26.7683196066273
 20
26.90394021901304
 30
0.0
 11
26.76830998662729
 21
26.903830179013
 31
0.0
  0
LINE
  5
17D
330
2
100
AcDbEntity
  8
GAIKEI
  6
Continuous
 62
     1
100
AcDbLine
 10
26.91462240662736
 20
26.90394021901304
 30
0.0
 11
26.7683196066273
 21
26.90394021901304
 31
0.0
  0
LINE
  5
17E
330
2
100
AcDbEntity
  8
GAIKEI
  6
Continuous
 62
     1
100
AcDbLine
 10
26.91463204662728
 20
26.903830179013
 30
0.0
 11
26.91462240662736
 21
26.90394021901304
 31
0.0
  0
LINE
  5
17F
330
2
100
AcDbEntity
  8
GAIKEI
  6
Continuous
 62
     1
100
AcDbLine
 10
27.23024126662722
 20
26.903830179013
 30
0.0
 11
26.91463204662728
 21
26.903830179013
 31
0.0
  0
LINE
  5
180
330
2
100
AcDbEntity
  8
GAIKEI
  6
Continuous
 62
     1
100
AcDbLine
 10
26.76830998662729
 20
26.903830179013
 30
0.0
 11
26.45224134662738
 21
26.903830179013
 31
0.0
  0
LINE
  5
181
330
2
100
AcDbEntity
  8
GAIKEI
  6
Continuous
 62
     1
100
AcDbLine
 10
26.76832234662732
 20
28.32383017901302
 30
0.0
 11
26.76833194662731
 21
28.32372055901302
 31
0.0
  0
LINE
  5
182
330
2
100
AcDbEntity
  8
GAIKEI
  6
Continuous
 62
     1
100
AcDbLine
 10
26.45224134662738
 20
28.32383017901302
 30
0.0
 11
26.76832234662732
 21
28.32383017901302
 31
0.0
  0
LINE
  5
183
330
2
100
AcDbEntity
  8
GAIKEI
  6
Continuous
 62
     1
100
AcDbLine
 10
26.91461966662735
 20
28.32383017901302
 30
0.0
 11
27.23024126662722
 21
28.32383017901302
 31
0.0
  0
LINE
  5
184
330
2
100
AcDbEntity
  8
GAIKEI
  6
Continuous
 62
     1
100
AcDbLine
 10
26.91461008662737
 20
28.32372055901302
 30
0.0
 11
26.91461966662735
 21
28.32383017901302
 31
0.0
  0
LINE
  5
185
330
2
100
AcDbEntity
  8
GAIKEI
  6
Continuous
 62
     1
100
AcDbLine
 10
26.76833194662731
 20
28.32372055901302
 30
0.0
 11
26.91461008662737
 21
28.32372055901302
 31
0.0
  0
LINE
  5
186
330
2
100
AcDbEntity
  8
GAIKEI
  6
Continuous
 62
     1
100
AcDbLine
 10
26.4335697466272
 20
26.92384235901304
 30
0.0
 11
26.4335697466272
 21
28.30381797901302
 31
0.0
  0
CIRCLE
  5
187
330
2
100
AcDbEntity
  8
GAIKEI
  6
Continuous
 62
     1
100
AcDbCircle
 10
26.85245264662729
 20
5.933900859012993
 30
0.0
 40
0.27
  0
ELLIPSE
  5
188
330
2
100
AcDbEntity
  8
GAIKEI
  6
Continuous
 62
     1
100
AcDbEllipse
 10
27.22996466662755
 20
5.243842359012973
 30
0.0
 11
-0.0187723788557124
 21
0.0078327491868364
 31
0.0
210
0.0
220
0.0
230
1.0
 40
0.9809970000000529
 41
1.972947590084915
 42
3.530107174503279
  0
ELLIPSE
  5
189
330
2
100
AcDbEntity
  8
GAIKEI
  6
Continuous
 62
     1
100
AcDbEllipse
 10
27.22996466662755
 20
6.623817979012954
 30
0.0
 11
0.0187723788557346
 21
0.0078327491867803
 31
0.0
210
0.0
220
0.0
230
1.0
 40
0.980997000000165
 41
-0.3885145209105538
 42
1.168645063507761
  0
ELLIPSE
  5
18A
330
2
100
AcDbEntity
  8
GAIKEI
  6
Continuous
 62
     1
100
AcDbEllipse
 10
26.45224134662738
 20
5.243842359012973
 30
0.0
 11
-0.0000000000000085
 21
0.0200121908859774
 31
0.0
210
0.0
220
0.0
230
1.0
 40
0.9330119999997828
 41
1.570796326794502
 42
3.14159265358934
  0
ELLIPSE
  5
18B
330
2
100
AcDbEntity
  8
GAIKEI
  6
Continuous
 62
     1
100
AcDbEllipse
 10
26.45224134662738
 20
6.623817979012954
 30
0.0
 11
0.0000000000000085
 21
0.0200121908859774
 31
0.0
210
0.0
220
0.0
230
1.0
 40
0.9330119999997828
 41
0.0000000000004527
 42
1.57079632679529
  0
LINE
  5
18C
330
2
100
AcDbEntity
  8
GAIKEI
  6
Continuous
 62
     1
100
AcDbLine
 10
27.25024876662735
 20
6.624090879013039
 30
0.0
 11
27.25024876662735
 21
6.057349859012987
 31
0.0
  0
LINE
  5
18D
330
2
100
AcDbEntity
  8
GAIKEI
  6
Continuous
 62
     1
100
AcDbLine
 10
27.25024876662735
 20
5.810451859012999
 30
0.0
 11
27.25024876662735
 21
5.243569479013018
 31
0.0
  0
LINE
  5
18E
330
2
100
AcDbEntity
  8
GAIKEI
  6
Continuous
 62
     1
100
AcDbLine
 10
27.25024876662735
 20
5.810451859012999
 30
0.0
 11
27.24966068662729
 21
5.810503319013008
 31
0.0
  0
LINE
  5
18F
330
2
100
AcDbEntity
  8
GAIKEI
  6
Continuous
 62
     1
100
AcDbLine
 10
27.24966068662729
 20
5.810503319013008
 30
0.0
 11
27.24966068662729
 21
6.057298399013035
 31
0.0
  0
LINE
  5
190
330
2
100
AcDbEntity
  8
GAIKEI
  6
Continuous
 62
     1
100
AcDbLine
 10
27.24966068662729
 20
6.057298399013035
 30
0.0
 11
27.25024876662735
 21
6.057349859012987
 31
0.0
  0
LINE
  5
191
330
2
100
AcDbEntity
  8
GAIKEI
  6
Continuous
 62
     1
100
AcDbLine
 10
26.7683196066273
 20
5.22394021901303
 30
0.0
 11
26.76830998662729
 21
5.223830179012992
 31
0.0
  0
LINE
  5
192
330
2
100
AcDbEntity
  8
GAIKEI
  6
Continuous
 62
     1
100
AcDbLine
 10
26.91462240662736
 20
5.22394021901303
 30
0.0
 11
26.7683196066273
 21
5.22394021901303
 31
0.0
  0
LINE
  5
193
330
2
100
AcDbEntity
  8
GAIKEI
  6
Continuous
 62
     1
100
AcDbLine
 10
26.91463204662728
 20
5.223830179012992
 30
0.0
 11
26.91462240662736
 21
5.22394021901303
 31
0.0
  0
LINE
  5
194
330
2
100
AcDbEntity
  8
GAIKEI
  6
Continuous
 62
     1
100
AcDbLine
 10
27.23024126662722
 20
5.223830179012992
 30
0.0
 11
26.91463204662728
 21
5.223830179012992
 31
0.0
  0
LINE
  5
195
330
2
100
AcDbEntity
  8
GAIKEI
  6
Continuous
 62
     1
100
AcDbLine
 10
26.76830998662729
 20
5.223830179012992
 30
0.0
 11
26.45224134662738
 21
5.223830179012992
 31
0.0
  0
LINE
  5
196
330
2
100
AcDbEntity
  8
GAIKEI
  6
Continuous
 62
     1
100
AcDbLine
 10
26.76832234662732
 20
6.643830179013008
 30
0.0
 11
26.76833194662731
 21
6.643720559013019
 31
0.0
  0
LINE
  5
197
330
2
100
AcDbEntity
  8
GAIKEI
  6
Continuous
 62
     1
100
AcDbLine
 10
26.45224134662738
 20
6.643830179013008
 30
0.0
 11
26.76832234662732
 21
6.643830179013008
 31
0.0
  0
LINE
  5
198
330
2
100
AcDbEntity
  8
GAIKEI
  6
Continuous
 62
     1
100
AcDbLine
 10
26.91461966662735
 20
6.643830179013008
 30
0.0
 11
27.23024126662722
 21
6.643830179013008
 31
0.0
  0
LINE
  5
199
330
2
100
AcDbEntity
  8
GAIKEI
  6
Continuous
 62
     1
100
AcDbLine
 10
26.91461008662737
 20
6.643720559013019
 30
0.0
 11
26.91461966662735
 21
6.643830179013008
 31
0.0
  0
LINE
  5
19A
330
2
100
AcDbEntity
  8
GAIKEI
  6
Continuous
 62
     1
100
AcDbLine
 10
26.76833194662731
 20
6.643720559013019
 30
0.0
 11
26.91461008662737
 21
6.643720559013019
 31
0.0
  0
LINE
  5
19B
330
2
100
AcDbEntity
  8
GAIKEI
  6
Continuous
 62
     1
100
AcDbLine
 10
26.4335697466272
 20
5.243842359013029
 30
0.0
 11
26.4335697466272
 21
6.623817979013011
 31
0.0
  0
SPLINE
  5
19C
330
2
100
AcDbEntity
  8
GAIKEI
  6
Continuous
 62
     1
100
AcDbSpline
210
0.0
220
0.0
230
1.0
 70
     8
 71
     3
 72
    48
 73
    44
 74
    42
 42
0.0000000001
 43
0.0000000001
 44
0.000001
 12
0.0000869980174196
 22
-0.9999999962156724
 32
0.0
 13
0.0024498699524901
 23
0.9999969990641051
 33
0.0
 40
0.0
 40
0.0
 40
0.0
 40
0.0
 40
0.0018433691631468
 40
0.0126303668740879
 40
0.0226477838743638
 40
0.0326139007675852
 40
0.0427992382161934
 40
0.0529225243948952
 40
0.0605491222545836
 40
0.0681814821696366
 40
0.0778460698383929
 40
0.0874909016509618
 40
0.0974231221893637
 40
0.1073734421986357
 40
0.1170645968485475
 40
0.1268020923071058
 40
0.1368677796071477
 40
0.1469952364961216
 40
0.1571224553381163
 40
0.1673031774710876
 40
0.1778179711385072
 40
0.1883636233898361
 40
0.1962953163456349
 40
0.2066713400703663
 40
0.2170301682786138
 40
0.2276544652844032
 40
0.2382291442801227
 40
0.2484482846039531
 40
0.2586055496607642
 40
0.2689965658393252
 40
0.2793282998517318
 40
0.2892529195982528
 40
0.2991488568994872
 40
0.309340645962151
 40
0.3195432196844829
 40
0.3244079523839292
 40
0.3342948168557405
 40
0.344232318730742
 40
0.3545434182030354
 40
0.3649185878152541
 40
0.3750256414686666
 40
0.3851807262607646
 40
0.3926415601448891
 40
0.3926415601448891
 40
0.3926415601448891
 40
0.3926415601448891
 10
27.09745255335065
 20
30.88337019377494
 30
0.0
 10
27.09745260680714
 20
30.88275573738954
 30
0.0
 10
27.09742545550748
 20
30.87854574362777
 30
0.0
 10
27.09709290064285
 20
30.87099644117419
 30
0.0
 10
27.09588318383928
 20
30.86080239906923
 30
0.0
 10
27.09396735496537
 20
30.85092033957284
 30
0.0
 10
27.09125559718933
 20
30.84118802919721
 30
0.0
 10
27.08800681120334
 20
30.83244852529629
 30
0.0
 10
27.08444946680947
 20
30.82476514950617
 30
0.0
 10
27.08045217858038
 20
30.81747493041371
 30
0.0
 10
27.07552115938881
 20
30.80995477876843
 30
0.0
 10
27.06947312542457
 20
30.80229486080583
 30
0.0
 10
27.06269514969316
 20
30.7951395792698
 30
0.0
 10
27.05529720090496
 20
30.78860481541676
 30
0.0
 10
27.04741455485271
 20
30.78277463124698
 30
0.0
 10
27.03904723326934
 20
30.7775921157714
 30
0.0
 10
27.03015485205481
 20
30.77304414286297
 30
0.0
 10
27.0208096109715
 20
30.76916800608112
 30
0.0
 10
27.01115592085529
 20
30.76601703614625
 30
0.0
 10
27.00116887846423
 20
30.76356501767489
 30
0.0
 10
26.99088880197587
 20
30.76184260660418
 30
0.0
 10
26.98125651622254
 20
30.76095345994782
 30
0.0
 10
26.97163801543266
 20
30.76068831404959
 30
0.0
 10
26.96208004441917
 20
30.76103406001735
 30
0.0
 10
26.951679193053
 20
30.76216455337968
 30
0.0
 10
26.94132520124438
 20
30.76407864750675
 30
0.0
 10
26.93119202129077
 20
30.76676516321928
 30
0.0
 10
26.92144563840532
 20
30.77018001254919
 30
0.0
 10
26.9120513744978
 20
30.77432152814888
 30
0.0
 10
26.90299672062338
 20
30.77924295143339
 30
0.0
 10
26.89446082918684
 20
30.78487943091398
 30
0.0
 10
26.88658176975412
 20
30.79113970903697
 30
0.0
 10
26.87931309033141
 20
30.79803273899927
 30
0.0
 10
26.87264375919546
 20
30.80563228992685
 30
0.0
 10
26.86769319456658
 20
30.81245947285055
 30
0.0
 10
26.86328560739602
 20
30.81951595096504
 30
0.0
 10
26.85939872980055
 20
30.82678351033351
 30
0.0
 10
26.85544785423335
 20
30.83603235223572
 30
0.0
 10
26.85226751219926
 20
30.84574573375471
 30
0.0
 10
26.84989714079137
 20
30.85574451368342
 30
0.0
 10
26.84833131709721
 20
30.86584597163719
 30
0.0
 10
26.84758208579086
 20
30.87506409715235
 30
0.0
 10
26.84744671501949
 20
30.88093709403131
 30
0.0
 10
26.8474528077104
 20
30.8834240311962
 30
0.0
 11
27.09745255335065
 21
30.88337019377494
 31
0.0
 11
27.09744185760599
 21
30.8815260225762
 31
0.0
 11
27.09694437914868
 21
30.87075049446585
 31
0.0
 11
27.09576019905967
 21
30.860803289649
 31
0.0
 11
27.09385325783933
 21
30.85102128857844
 31
0.0
 11
27.09111395193122
 21
30.84121120009192
 31
0.0
 11
27.08757912887506
 21
30.83172507869077
 31
0.0
 11
27.08437352722786
 21
30.82480485910165
 31
0.0
 11
27.08070219790307
 21
30.81811347691897
 31
0.0
 11
27.07540270523305
 21
30.81003138641879
 31
0.0
 11
27.06942488807533
 21
30.80246243408684
 31
0.0
 11
27.06259731785235
 21
30.79524898287642
 31
0.0
 11
27.05514105889688
 21
30.7886600795222
 31
0.0
 11
27.04735280613522
 21
30.78289274694296
 31
0.0
 11
27.03907629799164
 21
30.77776256787402
 31
0.0
 11
27.03011755127102
 21
30.77317351262346
 31
0.0
 11
27.02076421960874
 21
30.76929007962187
 31
0.0
 11
27.01113848159389
 21
30.76614267135326
 31
0.0
 11
27.00125193990777
 21
30.76371289321961
 31
0.0
 11
26.99088228738174
 21
30.76197173815368
 31
0.0
 11
26.98038133638784
 21
30.76100157152783
 31
0.0
 11
26.97245264662763
 21
30.76078279984304
 31
0.0
 11
26.96208338351119
 21
30.76115782552316
 31
0.0
 11
26.95178547661772
 21
30.76227980447854
 31
0.0
 11
26.9413385210288
 21
30.76421300052099
 31
0.0
 11
26.93111830660735
 21
30.76692805436815
 31
0.0
 11
26.92147507330537
 21
30.77031026432761
 31
0.0
 11
26.91218342742309
 21
30.77441341450768
 31
0.0
 11
26.90305578108769
 21
30.77937928184545
 31
0.0
 11
26.89443795083923
 21
30.78507825588796
 31
0.0
 11
26.88666907233483
 21
30.7912542706367
 31
0.0
 11
26.87949179233499
 21
30.79806725784701
 31
0.0
 11
26.87276905175918
 21
30.80572741002678
 31
0.0
 11
26.8667804836341
 21
30.81398756551161
 31
0.0
 11
26.86420311199311
 21
30.8181134489204
 31
0.0
 11
26.8595361576389
 21
30.82682953549201
 31
0.0
 11
26.85562934198413
 21
30.83596689023071
 31
0.0
 11
26.85241185954419
 21
30.84576316943438
 31
0.0
 11
26.85001198825001
 21
30.85585699051435
 31
0.0
 11
26.84845469657398
 21
30.86584336725142
 31
0.0
 11
26.84762199735178
 21
30.87596426101291
 31
0.0
 11
26.8474528077104
 21
30.8834240311962
 31
0.0
  0
ARC
  5
19D
330
2
100
AcDbEntity
  8
GAIKEI
  6
Continuous
 62
     1
100
AcDbCircle
 10
26.97245264662729
 20
31.75890085901304
 30
0.0
 40
0.125
100
AcDbArc
 50
0.0
 51
180.0
  0
LINE
  5
19E
330
2
100
AcDbEntity
  8
GAIKEI
  6
Continuous
 62
     1
100
AcDbLine
 10
27.13245264662737
 20
30.63590085901299
 30
0.0
 11
27.13245264662737
 21
30.68390085901299
 31
0.0
  0
LINE
  5
19F
330
2
100
AcDbEntity
  8
GAIKEI
  6
Continuous
 62
     1
100
AcDbLine
 10
26.81245264662721
 20
30.68390085901299
 30
0.0
 11
26.81245264662721
 21
30.63590085901299
 31
0.0
  0
LINE
  5
1A0
330
2
100
AcDbEntity
  8
GAIKEI
  6
Continuous
 62
     1
100
AcDbLine
 10
26.84745264662729
 20
30.933900859013
 30
0.0
 11
26.69245264662732
 21
30.933900859013
 31
0.0
  0
LINE
  5
1A1
330
2
100
AcDbEntity
  8
GAIKEI
  6
Continuous
 62
     1
100
AcDbLine
 10
26.97245264662729
 20
30.68390085901299
 30
0.0
 11
26.67245264662734
 21
30.68390085901299
 31
0.0
  0
LINE
  5
1A2
330
2
100
AcDbEntity
  8
GAIKEI
  6
Continuous
 62
     1
100
AcDbLine
 10
26.69245264662732
 20
30.933900859013
 30
0.0
 11
26.67245264662734
 21
30.68390085901299
 31
0.0
  0
LINE
  5
1A3
330
2
100
AcDbEntity
  8
GAIKEI
  6
Continuous
 62
     1
100
AcDbLine
 10
27.27245264662724
 20
30.68390085901299
 30
0.0
 11
27.25245264662726
 21
30.933900859013
 31
0.0
  0
LINE
  5
1A4
330
2
100
AcDbEntity
  8
GAIKEI
  6
Continuous
 62
     1
100
AcDbLine
 10
27.25245264662726
 20
30.933900859013
 30
0.0
 11
27.09745264662729
 21
30.933900859013
 31
0.0
  0
LINE
  5
1A5
330
2
100
AcDbEntity
  8
GAIKEI
  6
Continuous
 62
     1
100
AcDbLine
 10
27.27245264662724
 20
30.68390085901299
 30
0.0
 11
26.97245264662729
 21
30.68390085901299
 31
0.0
  0
LINE
  5
1A6
330
2
100
AcDbEntity
  8
GAIKEI
  6
Continuous
 62
     1
100
AcDbLine
 10
27.09745264662729
 20
30.88325369901301
 30
0.0
 11
27.09745264662729
 21
31.75890085901304
 31
0.0
  0
LINE
  5
1A7
330
2
100
AcDbEntity
  8
GAIKEI
  6
Continuous
 62
     1
100
AcDbLine
 10
26.84745264662729
 20
31.75890085901304
 30
0.0
 11
26.84745264662729
 21
30.88327085901304
 31
0.0
  0
ARC
  5
1A8
330
2
100
AcDbEntity
  8
GAIKEI
  6
Continuous
100
AcDbCircle
 10
26.22245264662729
 20
30.96590085901303
 30
0.0
 40
0.02
100
AcDbArc
 50
0.0
 51
90.0
  0
ARC
  5
1A9
330
2
100
AcDbEntity
  8
GAIKEI
  6
Continuous
100
AcDbCircle
 10
24.99245264662738
 20
30.95590085901304
 30
0.0
 40
0.03
100
AcDbArc
 50
90.0
 51
180.0
  0
ARC
  5
1AA
330
2
100
AcDbEntity
  8
GAIKEI
  6
Continuous
100
AcDbCircle
 10
26.22245264662729
 20
2.581900859013018
 30
0.0
 40
0.02
100
AcDbArc
 50
270.0
 51
0.0
  0
ARC
  5
1AB
330
2
100
AcDbEntity
  8
GAIKEI
  6
Continuous
100
AcDbCircle
 10
24.99245264662738
 20
2.591900859013009
 30
0.0
 40
0.03
100
AcDbArc
 50
180.0
 51
270.0
  0
LINE
  5
1AC
330
2
100
AcDbEntity
  8
GAIKEI
  6
Continuous
100
AcDbLine
 10
26.24245264662738
 20
30.96590085901303
 30
0.0
 11
26.24245264662738
 21
30.91761657901301
 31
0.0
  0
LINE
  5
1AD
330
2
100
AcDbEntity
  8
GAIKEI
  6
Continuous
100
AcDbLine
 10
24.99245264662738
 20
30.98590085901302
 30
0.0
 11
26.22245264662729
 21
30.98590085901302
 31
0.0
  0
LINE
  5
1AE
330
2
100
AcDbEntity
  8
GAIKEI
  6
Continuous
100
AcDbLine
 10
26.24245264662738
 20
2.630185139013036
 30
0.0
 11
26.24245264662738
 21
30.91761657901301
 31
0.0
  0
LINE
  5
1AF
330
2
100
AcDbEntity
  8
GAIKEI
  6
Continuous
100
AcDbLine
 10
24.9624526466273
 20
30.91347445901303
 30
0.0
 11
24.9624526466273
 21
30.95590085901304
 31
0.0
  0
LINE
  5
1B0
330
2
100
AcDbEntity
  8
GAIKEI
  6
Continuous
100
AcDbLine
 10
26.24245264662738
 20
2.630185139013036
 30
0.0
 11
26.24245264662738
 21
2.581900859013018
 31
0.0
  0
LINE
  5
1B1
330
2
100
AcDbEntity
  8
GAIKEI
  6
Continuous
100
AcDbLine
 10
24.9624526466273
 20
2.634327259013019
 30
0.0
 11
24.9624526466273
 21
30.91347445901303
 31
0.0
  0
LINE
  5
1B2
330
2
100
AcDbEntity
  8
GAIKEI
  6
Continuous
100
AcDbLine
 10
24.9624526466273
 20
2.591900859013009
 30
0.0
 11
24.9624526466273
 21
2.634327259013019
 31
0.0
  0
LINE
  5
1B3
330
2
100
AcDbEntity
  8
GAIKEI
  6
Continuous
100
AcDbLine
 10
26.22245264662729
 20
2.561900859013036
 30
0.0
 11
24.99245264662738
 21
2.561900859013036
 31
0.0
  0
ARC
  5
1B4
330
2
100
AcDbEntity
  8
GAIKEI
  6
Continuous
 62
     1
100
AcDbCircle
 10
32.8324526466273
 20
-3.206099140986992
 30
0.0
 40
0.3540000000000001
100
AcDbArc
 50
184.2119569999991
 51
0.000000000000007
  0
ARC
  5
1B5
330
2
100
AcDbEntity
  8
GAIKEI
  6
Continuous
 62
     1
100
AcDbCircle
 10
32.8324526466273
 20
-3.206099140986992
 30
0.0
 40
0.5600000000000002
100
AcDbArc
 50
182.6611180000011
 51
0.000000000000007
  0
ARC
  5
1B6
330
2
100
AcDbEntity
  8
GAIKEI
  6
Continuous
 62
     1
100
AcDbCircle
 10
32.8324526466273
 20
-3.206099140986992
 30
0.0
 40
0.6000000000000001
100
AcDbArc
 50
182.4835949999987
 51
0.000000000000007
  0
ARC
  5
1B7
330
2
100
AcDbEntity
  8
GAIKEI
  6
Continuous
 62
     1
100
AcDbCircle
 10
32.8324526466273
 20
-3.206099140986992
 30
0.0
 40
0.4600000000000001
100
AcDbArc
 50
183.2401840000013
 51
0.000000000000007
  0
ARC
  5
1B8
330
2
100
AcDbEntity
  8
GAIKEI
  6
Continuous
100
AcDbCircle
 10
32.8324526466273
 20
-3.206099140986992
 30
0.0
 40
0.75
100
AcDbArc
 50
181.9866520000012
 51
0.000000000000007
  0
ARC
  5
1B9
330
2
100
AcDbEntity
  8
GAIKEI
  6
Continuous
 62
     1
100
AcDbCircle
 10
26.71506124662733
 20
-3.206099140986992
 30
0.0
 40
0.3540000000000001
100
AcDbArc
 50
184.2119569999991
 51
355.7880430000009
  0
ARC
  5
1BA
330
2
100
AcDbEntity
  8
GAIKEI
  6
Continuous
 62
     1
100
AcDbCircle
 10
26.71506124662733
 20
-3.206099140986992
 30
0.0
 40
0.5600000000000002
100
AcDbArc
 50
182.6611180000011
 51
357.3388819999989
  0
ARC
  5
1BB
330
2
100
AcDbEntity
  8
GAIKEI
  6
Continuous
 62
     1
100
AcDbCircle
 10
26.71506124662733
 20
-3.206099140986992
 30
0.0
 40
0.6000000000000001
100
AcDbArc
 50
182.4835949999987
 51
357.5164050000013
  0
ARC
  5
1BC
330
2
100
AcDbEntity
  8
GAIKEI
  6
Continuous
 62
     1
100
AcDbCircle
 10
26.71506124662733
 20
-3.206099140986992
 30
0.0
 40
0.4600000000000001
100
AcDbArc
 50
183.2401840000013
 51
356.7598159999987
  0
ARC
  5
1BD
330
2
100
AcDbEntity
  8
GAIKEI
  6
Continuous
 62
     7
100
AcDbCircle
 10
26.71506124662733
 20
-3.206099140986992
 30
0.0
 40
0.75
100
AcDbArc
 50
181.9866520000012
 51
358.0133479999988
  0
ARC
  5
1BE
330
2
100
AcDbEntity
  8
GAIKEI
  6
Continuous
 62
     1
100
AcDbCircle
 10
21.44984404662728
 20
-3.206099140986992
 30
0.0
 40
0.3540000000000001
100
AcDbArc
 50
184.2119569999991
 51
355.7880430000009
  0
ARC
  5
1BF
330
2
100
AcDbEntity
  8
GAIKEI
  6
Continuous
 62
     1
100
AcDbCircle
 10
21.44984404662728
 20
-3.206099140986992
 30
0.0
 40
0.5600000000000002
100
AcDbArc
 50
182.6611180000011
 51
357.3388819999989
  0
ARC
  5
1C0
330
2
100
AcDbEntity
  8
GAIKEI
  6
Continuous
 62
     1
100
AcDbCircle
 10
21.44984404662728
 20
-3.206099140986992
 30
0.0
 40
0.6000000000000001
100
AcDbArc
 50
182.4835949999987
 51
357.5164050000013
  0
ARC
  5
1C1
330
2
100
AcDbEntity
  8
GAIKEI
  6
Continuous
 62
     1
100
AcDbCircle
 10
21.44984404662728
 20
-3.206099140986992
 30
0.0
 40
0.4600000000000001
100
AcDbArc
 50
183.2401840000013
 51
356.7598159999987
  0
ARC
  5
1C2
330
2
100
AcDbEntity
  8
GAIKEI
  6
Continuous
 62
     7
100
AcDbCircle
 10
21.44984404662728
 20
-3.206099140986992
 30
0.0
 40
0.75
100
AcDbArc
 50
181.9866520000012
 51
358.0133479999988
  0
LINE
  5
1C3
330
2
100
AcDbEntity
  8
GAIKEI
  6
Continuous
 62
     1
100
AcDbLine
 10
22.64691224662727
 20
-3.232099140987003
 30
0.0
 11
22.4735918466273
 21
-3.518099140987004
 31
0.0
  0
LINE
  5
1C4
330
2
100
AcDbEntity
  8
GAIKEI
  6
Continuous
 62
     1
100
AcDbLine
 10
22.23245264662728
 20
-3.518099140987004
 30
0.0
 11
22.23245264662728
 21
-3.678099140986972
 31
0.0
  0
LINE
  5
1C5
330
2
100
AcDbEntity
  8
GAIKEI
  6
Continuous
 62
     1
100
AcDbLine
 10
23.59131344662728
 20
-3.518099140987004
 30
0.0
 11
23.41799292662734
 21
-3.232099140987003
 31
0.0
  0
LINE
  5
1C6
330
2
100
AcDbEntity
  8
GAIKEI
  6
Continuous
 62
     1
100
AcDbLine
 10
23.8324526466273
 20
-3.518099140987004
 30
0.0
 11
23.8324526466273
 21
-3.678099140986972
 31
0.0
  0
LINE
  5
1C7
330
2
100
AcDbEntity
  8
GAIKEI
  6
Continuous
 62
     1
100
AcDbLine
 10
22.23245264662728
 20
-3.678099140986972
 30
0.0
 11
23.8324526466273
 21
-3.678099140986972
 31
0.0
  0
LINE
  5
1C8
330
2
100
AcDbEntity
  8
GAIKEI
  6
Continuous
 62
     1
100
AcDbLine
 10
22.23245264662728
 20
-3.518099140987004
 30
0.0
 11
23.8324526466273
 21
-3.518099140987004
 31
0.0
  0
LINE
  5
1C9
330
2
100
AcDbEntity
  8
GAIKEI
  6
Continuous
 62
     1
100
AcDbLine
 10
31.61799286662733
 20
-3.232099140987003
 30
0.0
 11
31.79131344662733
 21
-3.518099140987004
 31
0.0
  0
LINE
  5
1CA
330
2
100
AcDbEntity
  8
GAIKEI
  6
Continuous
 62
     1
100
AcDbLine
 10
32.03245264662724
 20
-3.518099140987004
 30
0.0
 11
32.03245264662724
 21
-3.678099140986972
 31
0.0
  0
LINE
  5
1CB
330
2
100
AcDbEntity
  8
GAIKEI
  6
Continuous
 62
     1
100
AcDbLine
 10
30.6735916466273
 20
-3.518099140987004
 30
0.0
 11
30.84691216662725
 21
-3.232099140987003
 31
0.0
  0
LINE
  5
1CC
330
2
100
AcDbEntity
  8
GAIKEI
  6
Continuous
 62
     1
100
AcDbLine
 10
30.43245264662733
 20
-3.518099140987004
 30
0.0
 11
30.43245264662733
 21
-3.678099140986972
 31
0.0
  0
LINE
  5
1CD
330
2
100
AcDbEntity
  8
GAIKEI
  6
Continuous
 62
     1
100
AcDbLine
 10
32.03245264662724
 20
-3.678099140986972
 30
0.0
 11
30.43245264662733
 21
-3.678099140986972
 31
0.0
  0
LINE
  5
1CE
330
2
100
AcDbEntity
  8
GAIKEI
  6
Continuous
 62
     1
100
AcDbLine
 10
32.03245264662724
 20
-3.518099140987004
 30
0.0
 11
30.43245264662733
 21
-3.518099140987004
 31
0.0
  0
LINE
  5
1CF
330
2
100
AcDbEntity
  8
GAIKEI
  6
Continuous
100
AcDbLine
 10
18.57564464662732
 20
-0.9079931409869743
 30
0.0
 11
18.25011766662726
 21
-2.398457920986999
 31
0.0
  0
ARC
  5
1D0
330
2
100
AcDbEntity
  8
GAIKEI
  6
Continuous
100
AcDbCircle
 10
18.92053816662735
 20
-1.016099140986995
 30
0.0
 40
0.3600000000000001
100
AcDbArc
 50
90.0
 51
167.7116769999958
  0
LINE
  5
1D1
330
2
100
AcDbEntity
  8
GAIKEI
  6
Continuous
100
AcDbLine
 10
18.80119154662725
 20
-3.193881300986987
 30
0.0
 11
18.28064096662729
 21
-2.531362360987003
 31
0.0
  0
ARC
  5
1D2
330
2
100
AcDbEntity
  8
GAIKEI
  6
Continuous
100
AcDbCircle
 10
18.40645190662735
 20
-2.43251092098697
 30
0.0
 40
0.16
100
AcDbArc
 50
167.7116769999958
 51
218.1572269999858
  0
ARC
  5
1D3
330
2
100
AcDbEntity
  8
GAIKEI
  6
Continuous
100
AcDbCircle
 10
18.87982338662732
 20
-3.13209914098698
 30
0.0
 40
0.1
100
AcDbArc
 50
218.1572269999858
 51
270.0
  0
ARC
  5
1D4
330
2
100
AcDbEntity
  8
GAIKEI
  6
Continuous
100
AcDbCircle
 10
29.75245264662726
 20
-3.13209914098698
 30
0.0
 40
0.1
100
AcDbArc
 50
270.0
 51
0.000000000000007
  0
ARC
  5
1D5
330
2
100
AcDbEntity
  8
GAIKEI
  6
Continuous
100
AcDbCircle
 10
29.75245264662726
 20
-3.13209914098698
 30
0.0
 40
0.1
100
AcDbArc
 50
270.0
 51
0.000000000000007
  0
LINE
  5
1D6
330
2
100
AcDbEntity
  8
GAIKEI
  6
Continuous
100
AcDbLine
 10
18.92053816662735
 20
-0.6560991409869814
 30
0.0
 11
29.85245264662728
 21
-0.6560991409869814
 31
0.0
  0
ARC
  5
1D7
330
2
100
AcDbEntity
  8
GAIKEI
  6
Continuous
100
AcDbCircle
 10
18.92053816662735
 20
-1.016099140986995
 30
0.0
 40
0.3600000000000001
100
AcDbArc
 50
90.0
 51
167.7116769999958
  0
LINE
  5
1D8
330
2
100
AcDbEntity
  8
GAIKEI
  6
Continuous
100
AcDbLine
 10
29.75245264662726
 20
-3.232099140987003
 30
0.0
 11
18.87982338662732
 21
-3.232099140987003
 31
0.0
  0
LINE
  5
1D9
330
2
100
AcDbEntity
  8
GAIKEI
  6
Continuous
100
AcDbLine
 10
29.85245264662728
 20
-3.13209914098698
 30
0.0
 11
29.85245264662728
 21
-0.6560991409869814
 31
0.0
  0
LINE
  5
1DA
330
2
100
AcDbEntity
  8
GAIKEI
  6
Continuous
100
AcDbLine
 10
29.85245264662728
 20
-0.7160991409869837
 30
0.0
 11
35.42645264662724
 21
-0.7160991409869837
 31
0.0
  0
LINE
  5
1DB
330
2
100
AcDbEntity
  8
GAIKEI
  6
Continuous
100
AcDbLine
 10
29.85245264662728
 20
-0.7360991409869655
 30
0.0
 11
29.8324526466273
 21
-0.7160991409869837
 31
0.0
  0
ARC
  5
1DC
330
2
100
AcDbEntity
  8
GAIKEI
  6
Continuous
100
AcDbCircle
 10
29.95245264662731
 20
-3.13209914098698
 30
0.0
 40
0.1
100
AcDbArc
 50
180.0
 51
270.0
  0
LINE
  5
1DD
330
2
100
AcDbEntity
  8
GAIKEI
  6
Continuous
100
AcDbLine
 10
35.66645264662736
 20
-3.13209914098698
 30
0.0
 11
35.66645264662736
 21
-0.9560991409869927
 31
0.0
  0
LINE
  5
1DE
330
2
100
AcDbEntity
  8
GAIKEI
  6
Continuous
100
AcDbLine
 10
29.85245264662728
 20
-3.13209914098698
 30
0.0
 11
29.85245264662728
 21
-0.7160991409869837
 31
0.0
  0
ARC
  5
1DF
330
2
100
AcDbEntity
  8
GAIKEI
  6
Continuous
100
AcDbCircle
 10
35.56645264662734
 20
-3.13209914098698
 30
0.0
 40
0.1
100
AcDbArc
 50
270.0
 51
0.000000000000007
  0
ARC
  5
1E0
330
2
100
AcDbEntity
  8
GAIKEI
  6
Continuous
100
AcDbCircle
 10
35.42645264662724
 20
-0.9560991409869927
 30
0.0
 40
0.24
100
AcDbArc
 50
0.000000000000007
 51
90.0
  0
LINE
  5
1E1
330
2
100
AcDbEntity
  8
GAIKEI
  6
Continuous
100
AcDbLine
 10
29.95245264662731
 20
-3.232099140987003
 30
0.0
 11
35.56645264662734
 21
-3.232099140987003
 31
0.0
  0
LINE
  5
1E2
330
2
100
AcDbEntity
  8
GAIKEI
  6
Continuous
 62
     1
100
AcDbLine
 10
28.04845264662731
 20
3.973900859013014
 30
0.0
 11
28.23245264662728
 21
3.973900859013014
 31
0.0
  0
LINE
  5
1E3
330
2
100
AcDbEntity
  8
GAIKEI
  6
Continuous
 62
     1
100
AcDbLine
 10
28.22245264662729
 20
3.983900859013004
 30
0.0
 11
28.23245264662728
 21
3.973900859013014
 31
0.0
  0
LINE
  5
1E4
330
2
100
AcDbEntity
  8
GAIKEI
  6
Continuous
 62
     1
100
AcDbLine
 10
28.04845264662731
 20
3.973900859013014
 30
0.0
 11
28.0584526466273
 21
3.983900859013004
 31
0.0
  0
LINE
  5
1E5
330
2
100
AcDbEntity
  8
GAIKEI
  6
Continuous
 62
     1
100
AcDbLine
 10
27.64845264662734
 20
2.793900859013007
 30
0.0
 11
27.65845264662733
 21
2.783900859013016
 31
0.0
  0
LINE
  5
1E6
330
2
100
AcDbEntity
  8
GAIKEI
  6
Continuous
 62
     1
100
AcDbLine
 10
27.65845264662733
 20
3.383900859012982
 30
0.0
 11
27.64845264662734
 21
3.373900859012991
 31
0.0
  0
LINE
  5
1E7
330
2
100
AcDbEntity
  8
GAIKEI
  6
Continuous
 62
     1
100
AcDbLine
 10
27.64845264662734
 20
2.793900859013007
 30
0.0
 11
27.64845264662734
 21
3.373900859012991
 31
0.0
  0
LINE
  5
1E8
330
2
100
AcDbEntity
  8
GAIKEI
  6
Continuous
 62
     1
100
AcDbLine
 10
27.65845264662733
 20
2.783900859013016
 30
0.0
 11
28.04845264662731
 21
2.783900859013016
 31
0.0
  0
LINE
  5
1E9
330
2
100
AcDbEntity
  8
GAIKEI
  6
Continuous
 62
     1
100
AcDbLine
 10
27.65845264662733
 20
3.383900859012982
 30
0.0
 11
28.04845264662731
 21
3.383900859012982
 31
0.0
  0
LINE
  5
1EA
330
2
100
AcDbEntity
  8
GAIKEI
  6
Continuous
 62
     1
100
AcDbLine
 10
28.04845264662731
 20
2.243900859012995
 30
0.0
 11
28.04845264662731
 21
3.973900859013014
 31
0.0
  0
LINE
  5
1EB
330
2
100
AcDbEntity
  8
GAIKEI
  6
Continuous
 62
     1
100
AcDbLine
 10
28.23245264662728
 20
2.243900859012995
 30
0.0
 11
28.23245264662728
 21
3.973900859013014
 31
0.0
  0
LINE
  5
1EC
330
2
100
AcDbEntity
  8
GAIKEI
  6
Continuous
 62
     1
100
AcDbLine
 10
28.0584526466273
 20
3.983900859013004
 30
0.0
 11
28.22245264662729
 21
3.983900859013004
 31
0.0
  0
LINE
  5
1ED
330
2
100
AcDbEntity
  8
GAIKEI
  6
Continuous
 62
     1
100
AcDbLine
 10
28.23245264662728
 20
3.973900859013014
 30
0.0
 11
28.22245264662729
 21
3.983900859013004
 31
0.0
  0
LINE
  5
1EE
330
2
100
AcDbEntity
  8
GAIKEI
  6
Continuous
100
AcDbLine
 10
27.99245264662727
 20
2.243900859012995
 30
0.0
 11
27.99245264662727
 21
2.343900859013018
 31
0.0
  0
ARC
  5
1EF
330
2
100
AcDbEntity
  8
GAIKEI
  6
Continuous
100
AcDbCircle
 10
29.67245264662734
 20
2.143900859013029
 30
0.0
 40
0.1
100
AcDbArc
 50
0.000000000000007
 51
90.0
  0
LINE
  5
1F0
330
2
100
AcDbEntity
  8
GAIKEI
  6
Continuous
100
AcDbLine
 10
29.77245264662736
 20
-0.6560991409869814
 30
0.0
 11
29.77245264662736
 21
2.143900859013029
 31
0.0
  0
LINE
  5
1F1
330
2
100
AcDbEntity
  8
GAIKEI
  6
Continuous
100
AcDbLine
 10
27.77245264662736
 20
2.343900859013018
 30
0.0
 11
27.99245264662727
 21
2.343900859013018
 31
0.0
  0
ARC
  5
1F2
330
2
100
AcDbEntity
  8
GAIKEI
  6
Continuous
100
AcDbCircle
 10
27.77245264662736
 20
2.143900859013029
 30
0.0
 40
0.2
100
AcDbArc
 50
90.0
 51
180.0
  0
LINE
  5
1F3
330
2
100
AcDbEntity
  8
GAIKEI
  6
Continuous
100
AcDbLine
 10
27.99245264662727
 20
2.243900859012995
 30
0.0
 11
29.67245264662734
 21
2.243900859012995
 31
0.0
  0
LINE
  5
1F4
330
2
100
AcDbEntity
  8
GAIKEI
  6
Continuous
100
AcDbLine
 10
27.57245264662731
 20
-0.6560991409869814
 30
0.0
 11
29.77245264662736
 21
-0.6560991409869814
 31
0.0
  0
LINE
  5
1F5
330
2
100
AcDbEntity
  8
GAIKEI
  6
Continuous
100
AcDbLine
 10
27.57245264662731
 20
-0.6560991409869814
 30
0.0
 11
27.57245264662731
 21
2.143900859013029
 31
0.0
  0
ARC
  5
1F6
330
2
100
AcDbEntity
  8
GAIKEI
  6
Continuous
100
AcDbCircle
 10
27.65245264662735
 20
17.50390085901304
 30
0.0
 40
0.02
100
AcDbArc
 50
90.0
 51
180.0
  0
ARC
  5
1F7
330
2
100
AcDbEntity
  8
GAIKEI
  6
Continuous
100
AcDbCircle
 10
30.01245264662725
 20
-0.7560991409870042
 30
0.0
 40
0.04
100
AcDbArc
 50
180.0
 51
270.0
  0
ARC
  5
1F8
330
2
100
AcDbEntity
  8
GAIKEI
  6
Continuous
100
AcDbCircle
 10
34.35245264662729
 20
-0.7560991409870042
 30
0.0
 40
0.04
100
AcDbArc
 50
270.0
 51
0.000000000000007
  0
LINE
  5
1F9
330
2
100
AcDbEntity
  8
GAIKEI
  6
Continuous
100
AcDbLine
 10
30.01245264662725
 20
-0.7960991409869678
 30
0.0
 11
34.35245264662729
 21
-0.7960991409869678
 31
0.0
  0
ARC
  5
1FA
330
2
100
AcDbEntity
  8
GAIKEI
  6
Continuous
100
AcDbCircle
 10
27.78301480662731
 20
16.52390085901302
 30
0.0
 40
1.0
100
AcDbArc
 50
70.32835800001101
 51
90.0
  0
LINE
  5
1FB
330
2
100
AcDbEntity
  8
GAIKEI
  6
Continuous
100
AcDbLine
 10
27.65245264662735
 20
17.52390085901302
 30
0.0
 11
27.78301480662731
 21
17.52390085901302
 31
0.0
  0
LINE
  5
1FC
330
2
100
AcDbEntity
  8
GAIKEI
  6
Continuous
100
AcDbLine
 10
34.37487904662726
 20
-0.5654389609869952
 30
0.0
 11
31.88696924662736
 21
1.922470839013016
 31
0.0
  0
LINE
  5
1FD
330
2
100
AcDbEntity
  8
GAIKEI
  6
Continuous
100
AcDbLine
 10
27.63245264662737
 20
4.182697919013008
 30
0.0
 11
27.63245264662737
 21
17.50390085901304
 31
0.0
  0
ARC
  5
1FE
330
2
100
AcDbEntity
  8
GAIKEI
  6
Continuous
100
AcDbCircle
 10
36.41245264662734
 20
6.447954239013
 30
0.0
 40
6.4
100
AcDbArc
 50
180.0
 51
224.9999999999908
  0
LINE
  5
1FF
330
2
100
AcDbEntity
  8
GAIKEI
  6
Continuous
100
AcDbLine
 10
30.01245264662725
 20
16.50707667901301
 30
0.0
 11
30.01245264662725
 21
6.447954239013
 31
0.0
  0
ARC
  5
200
330
2
100
AcDbEntity
  8
GAIKEI
  6
Continuous
100
AcDbCircle
 10
29.61245264662728
 20
16.50707667901301
 30
0.0
 40
0.4
100
AcDbArc
 50
0.000000000000007
 51
70.32835800001101
  0
LINE
  5
201
330
2
100
AcDbEntity
  8
GAIKEI
  6
Continuous
100
AcDbLine
 10
28.11964404662729
 20
17.46553813901303
 30
0.0
 11
29.74710434662734
 21
16.88373157901301
 31
0.0
  0
LINE
  5
202
330
2
100
AcDbEntity
  8
GAIKEI
  6
Continuous
100
AcDbLine
 10
27.69245264662732
 20
4.122697919013006
 30
0.0
 11
28.11245264662728
 21
4.122697919013006
 31
0.0
  0
ARC
  5
203
330
2
100
AcDbEntity
  8
GAIKEI
  6
Continuous
100
AcDbCircle
 10
28.11245264662728
 20
3.962697919012981
 30
0.0
 40
0.16
100
AcDbArc
 50
0.000000000000007
 51
90.0
  0
LINE
  5
204
330
2
100
AcDbEntity
  8
GAIKEI
  6
Continuous
100
AcDbLine
 10
28.27245264662736
 20
2.242697919013011
 30
0.0
 11
28.27245264662736
 21
3.962697919012981
 31
0.0
  0
LINE
  5
205
330
2
100
AcDbEntity
  8
GAIKEI
  6
Continuous
100
AcDbLine
 10
29.77245264662736
 20
-0.5960991409869792
 30
0.0
 11
29.81245264662732
 21
-0.5960991409869792
 31
0.0
  0
ARC
  5
206
330
2
100
AcDbEntity
  8
GAIKEI
  6
Continuous
100
AcDbCircle
 10
29.81245264662732
 20
-0.7560991409870042
 30
0.0
 40
0.16
100
AcDbArc
 50
0.000000000000007
 51
90.0
  0
ARC
  5
207
330
2
100
AcDbEntity
  8
GAIKEI
  6
Continuous
100
AcDbCircle
 10
27.69245264662732
 20
4.182697919013008
 30
0.0
 40
0.06
100
AcDbArc
 50
180.0
 51
270.0
  0
ARC
  5
208
330
2
100
AcDbEntity
  8
GAIKEI
  6
Continuous
100
AcDbCircle
 10
34.3324526466273
 20
-0.607865380986965
 30
0.0
 40
0.06
100
AcDbArc
 50
0.000000000000007
 51
44.99999999999079
  0
LINE
  5
209
330
2
100
AcDbEntity
  8
GAIKEI
  6
Continuous
100
AcDbLine
 10
34.39245264662736
 20
-0.7560991409870042
 30
0.0
 11
34.39245264662736
 21
-0.607865380986965
 31
0.0
  0
TEXT
  5
20A
330
2
100
AcDbEntity
  8
MOJI1
100
AcDbText
 10
-28.26741065013005
 20
-53.21686565575737
 30
0.0
 40
3.0
  1
コンポーネント（色差）ビデオ／ＲＧＢ入力
100
AcDbText
  0
LINE
  5
20B
330
2
100
AcDbEntity
  8
WAKU
 62
     4
100
AcDbLine
 10
-29.76741065013028
 20
-19.21686565575737
 30
0.0
 11
-29.76741065013028
 21
-54.21686565575737
 31
0.0
  0
LINE
  5
20D
330
2
100
AcDbEntity
  8
WAKU
 62
     4
100
AcDbLine
 10
-69.76741065013027
 20
-19.21686565575737
 30
0.0
 11
-69.76741065013005
 21
-54.21686565575737
 31
0.0
  0
LINE
  5
20E
330
2
100
AcDbEntity
  8
WAKU
 62
     4
100
AcDbLine
 10
55.23258934986973
 20
-19.21686565575737
 30
0.0
 11
55.23258934986973
 21
-54.21686565575737
 31
0.0
  0
LINE
  5
20F
330
2
100
AcDbEntity
  8
WAKU
 62
     4
100
AcDbLine
 10
55.23258934986973
 20
-54.21686565575737
 30
0.0
 11
-69.76741065013005
 21
-54.21686565575737
 31
0.0
  0
TEXT
  5
210
330
2
100
AcDbEntity
  8
MOJI1
100
AcDbText
 10
-67.26741065013005
 20
-33.21686565575737
 30
0.0
 40
3.0
  1
画面サイズ
100
AcDbText
  0
TEXT
  5
211
330
2
100
AcDbEntity
  8
MOJI1
100
AcDbText
 10
-67.26741065013005
 20
-43.21686565575737
 30
0.0
 40
3.0
  1
音声出力
100
AcDbText
  0
TEXT
  5
212
330
2
100
AcDbEntity
  8
MOJI1
100
AcDbText
 10
-67.26741065013005
 20
-48.21686565575737
 30
0.0
 40
3.0
  1
接続端子
100
AcDbText
  0
TEXT
  5
213
330
2
100
AcDbEntity
  8
MOJI1
100
AcDbText
 10
-67.26741065013005
 20
-28.21686565575737
 30
0.0
 40
3.0
  1
消費電力
100
AcDbText
  0
TEXT
  5
214
330
2
100
AcDbEntity
  8
MOJI1
100
AcDbText
 10
-67.26741065013005
 20
-23.21686565575737
 30
0.0
 40
3.0
  1
電  源
100
AcDbText
  0
TEXT
  5
215
330
2
100
AcDbEntity
  8
MOJI1
100
AcDbText
 10
-67.26741065013005
 20
-38.21686565575737
 30
0.0
 40
3.0
  1
解像度
100
AcDbText
  0
TEXT
  5
216
330
2
100
AcDbEntity
  8
MOJI1
100
AcDbText
 10
-28.26741065013005
 20
-33.21686565575737
 30
0.0
 40
3.0
  1
１０３Ｖ型（２６０ｃｍ）１６：９
100
AcDbText
  0
TEXT
  5
217
330
2
100
AcDbEntity
  8
MOJI1
100
AcDbText
 10
-28.26741065013005
 20
-43.21686565575737
 30
0.0
 40
3.0
  1
ＲＣＡ×２（左・右） 出力：可変
100
AcDbText
  0
LINE
  5
218
330
2
100
AcDbEntity
  8
WAKU
 62
     1
100
AcDbLine
 10
-69.76741065013005
 20
-29.21686565575738
 30
0.0
 11
55.23258934986973
 21
-29.21686565575738
 31
0.0
  0
LINE
  5
219
330
2
100
AcDbEntity
  8
WAKU
 62
     1
100
AcDbLine
 10
-69.76741065013005
 20
-39.21686565575738
 30
0.0
 11
55.23258934986973
 21
-39.21686565575738
 31
0.0
  0
LINE
  5
21A
330
2
100
AcDbEntity
  8
WAKU
 62
     4
100
AcDbLine
 10
-69.76741065013005
 20
-19.21686565575737
 30
0.0
 11
55.23258934986973
 21
-19.21686565575737
 31
0.0
  0
LINE
  5
21B
330
2
100
AcDbEntity
  8
WAKU
 62
     1
100
AcDbLine
 10
-69.76741065013005
 20
-24.21686565575738
 30
0.0
 11
55.23258934986973
 21
-24.21686565575738
 31
0.0
  0
LINE
  5
21C
330
2
100
AcDbEntity
  8
WAKU
 62
     1
100
AcDbLine
 10
-69.76741065013005
 20
-34.21686565575738
 30
0.0
 11
55.23258934986973
 21
-34.21686565575738
 31
0.0
  0
LINE
  5
21D
330
2
100
AcDbEntity
  8
WAKU
 62
     1
100
AcDbLine
 10
-69.76741065013005
 20
-44.21686565575737
 30
0.0
 11
55.23258934986973
 21
-44.21686565575737
 31
0.0
  0
LINE
  5
21E
330
2
100
AcDbEntity
  8
WAKU
 62
     1
100
AcDbLine
 10
-69.76741065013005
 20
-49.21686565575737
 30
0.0
 11
55.23258934986973
 21
-49.21686565575737
 31
0.0
  0
TEXT
  5
21F
330
2
100
AcDbEntity
  8
MOJI1
100
AcDbText
 10
-28.26741065013005
 20
-38.21686565575737
 30
0.0
 40
3.0
  1
水平１９２０×垂直１０８０　画素
100
AcDbText
  0
TEXT
  5
220
330
2
100
AcDbEntity
  8
MOJI1
100
AcDbText
 10
-28.26741065013005
 20
-48.21686565575737
 30
0.0
 40
3.0
  1
ＰＣ入力／音声入力／シリアル／ＤＶＩ－Ｄ入力
100
AcDbText
  0
TEXT
  5
221
330
2
100
AcDbEntity
  8
MOJI1
100
AcDbText
 10
-28.26741065013005
 20
-23.21686565575737
 30
0.0
 40
3.0
  1
ＡＣ２００Ｖ　５０Ｈｚ／６０Ｈｚ
100
AcDbText
  0
TEXT
  5
222
330
2
100
AcDbEntity
  8
MOJI1
100
AcDbText
 10
-28.26741065013005
 20
-28.21686565575737
 30
0.0
 40
3.0
  1
１５００Ｗ
100
AcDbText
  0
ENDSEC
  0
SECTION
  2
OBJECTS
  0
DICTIONARY
  5
9
330
0
100
AcDbDictionary
281
     1
  3
ACAD_COLOR
350
30
  3
ACAD_GROUP
350
2C
  3
ACAD_LAYOUT
350
D
  3
ACAD_MATERIAL
350
2F
  3
ACAD_MLINESTYLE
350
2D
  3
ACAD_PLOTSETTINGS
350
2E
  3
ACAD_PLOTSTYLENAME
350
8
  3
ACDBHEADERROUNDTRIPXREC
350
26D
  3
AcDbVariableDictionary
350
268
  0
DICTIONARY
  5
15
330
14
100
AcDbDictionary
280
     1
281
     1
  3
ACAD_LAYERFILTERS
360
16
  0
DICTIONARY
  5
3
330
2
100
AcDbDictionary
280
     1
281
     1
  3
ACAD_LAYOUTSELFREF
360
4
  0
DICTIONARY
  5
F
330
E
100
AcDbDictionary
280
     1
281
     1
  3
ACAD_LAYOUTSELFREF
360
10
  0
DICTIONARY
  5
30
102
{ACAD_REACTORS
330
9
102
}
330
9
100
AcDbDictionary
281
     1
  0
DICTIONARY
  5
2C
102
{ACAD_REACTORS
330
9
102
}
330
9
100
AcDbDictionary
281
     1
  0
DICTIONARY
  5
D
102
{ACAD_REACTORS
330
9
102
}
330
9
100
AcDbDictionary
281
     1
  3
Model
350
C
  3
ﾚｲｱｳﾄ1
350
13
  0
DICTIONARY
  5
2F
102
{ACAD_REACTORS
330
9
102
}
330
9
100
AcDbDictionary
281
     1
  0
DICTIONARY
  5
2D
102
{ACAD_REACTORS
330
9
102
}
330
9
100
AcDbDictionary
281
     1
  3
STANDARD
350
32
  0
DICTIONARY
  5
2E
102
{ACAD_REACTORS
330
9
102
}
330
9
100
AcDbDictionary
281
     1
  0
ACDBDICTIONARYWDFLT
  5
8
102
{ACAD_REACTORS
330
9
102
}
330
9
100
AcDbDictionary
281
     1
  3
Normal
350
7
100
AcDbDictionaryWithDefault
340
7
  0
DICTIONARY
  5
26D
102
{ACAD_REACTORS
330
9
102
}
330
9
100
AcDbDictionary
281
     1
  3
COLORDICT
350
26F
  3
MATERIALDICT
350
26E
  0
DICTIONARY
  5
268
102
{ACAD_REACTORS
330
9
102
}
330
9
100
AcDbDictionary
281
     1
  3
DIMASSOC
350
26A
  3
HIDETEXT
350
269
  3
PROJECTNAME
350
26B
  0
DICTIONARY
  5
16
102
{ACAD_REACTORS
330
15
102
}
330
15
100
AcDbDictionary
280
     1
281
     1
  0
XRECORD
  5
4
102
{ACAD_REACTORS
330
3
102
}
330
3
100
AcDbXrecord
280
     1
340
2
  0
XRECORD
  5
10
102
{ACAD_REACTORS
330
F
102
}
330
F
100
AcDbXrecord
280
     1
340
E
  0
LAYOUT
  5
C
102
{ACAD_XDICTIONARY
360
270
102
}
102
{ACAD_REACTORS
330
D
102
}
330
D
100
AcDbPlotSettings
  1

  2
8FPAM09-A4.pc3
  4
A4
  6

 40
4.349750041961669
 41
4.222751140594482
 42
4.3497314453125
 43
4.180419921875
 44
297.0106506347656
 45
210.0156707763672
 46
0.0
 47
6.099999999999999
 48
0.0
 49
0.0
140
0.0
141
0.0
142
1.0
143
1.367659234054163
 70
 11956
 72
     1
 73
     1
 74
     1
  7
tmsacad.ctb
 75
     0
147
0.7311762865342502
148
0.5258683187407769
149
0.0177558821078492
100
AcDbLayout
  1
Model
 70
     1
 71
     0
 10
0.0
 20
0.0
 11
12.0
 21
9.0
 12
0.0
 22
0.0
 32
0.0
 14
0.0
 24
0.0
 34
0.0
 15
0.0
 25
0.0
 35
0.0
146
0.0
 13
0.0
 23
0.0
 33
0.0
 16
1.0
 26
0.0
 36
0.0
 17
0.0
 27
1.0
 37
0.0
 76
     0
330
2
  0
LAYOUT
  5
13
102
{ACAD_XDICTIONARY
360
272
102
}
102
{ACAD_REACTORS
330
D
102
}
330
D
100
AcDbPlotSettings
  1

  2
C:\Program Files\ACAD2000\plotters\DWF ePlot.pc3
  4

  6

 40
0.0
 41
0.0
 42
0.0
 43
0.0
 44
0.0
 45
0.0
 46
0.0
 47
0.0
 48
0.0
 49
0.0
140
0.0
141
0.0
142
1.0
143
1.0
 70
   688
 72
     0
 73
     0
 74
     5
  7
tmsacad.ctb
 75
    16
147
1.0
148
0.0
149
0.0
100
AcDbLayout
  1
ﾚｲｱｳﾄ1
 70
     1
 71
     1
 10
0.0
 20
0.0
 11
12.0
 21
9.0
 12
0.0
 22
0.0
 32
0.0
 14
1.000000000000000E+20
 24
1.000000000000000E+20
 34
1.000000000000000E+20
 15
-1.000000000000000E+20
 25
-1.000000000000000E+20
 35
-1.000000000000000E+20
146
0.0
 13
0.0
 23
0.0
 33
0.0
 16
1.0
 26
0.0
 36
0.0
 17
0.0
 27
1.0
 37
0.0
 76
     0
330
E
  0
MLINESTYLE
  5
32
102
{ACAD_REACTORS
330
2D
102
}
330
2D
100
AcDbMlineStyle
  2
STANDARD
 70
     0
  3

 62
   256
 51
90.0
 52
90.0
 71
     2
 49
0.5
 62
   256
  6
BYLAYER
 49
-0.5
 62
   256
  6
BYLAYER
  0
ACDBPLACEHOLDER
  5
7
102
{ACAD_REACTORS
330
8
102
}
330
8
  0
XRECORD
  5
26F
102
{ACAD_REACTORS
330
26D
102
}
330
26D
100
AcDbXrecord
280
     1
340
30
  0
XRECORD
  5
26E
102
{ACAD_REACTORS
330
26D
102
}
330
26D
100
AcDbXrecord
280
     1
340
2F
  0
DICTIONARYVAR
  5
26A
102
{ACAD_REACTORS
330
268
102
}
330
268
100
DictionaryVariables
280
     0
  1
1
  0
DICTIONARYVAR
  5
269
102
{ACAD_REACTORS
330
268
102
}
330
268
100
DictionaryVariables
280
     0
  1
1
  0
DICTIONARYVAR
  5
26B
102
{ACAD_REACTORS
330
268
102
}
330
268
100
DictionaryVariables
280
     0
  1

  0
DICTIONARY
  5
270
330
C
100
AcDbDictionary
280
     1
281
     1
  3
ACAD_XREC_ROUNDTRIP
360
271
  0
DICTIONARY
  5
272
330
13
100
AcDbDictionary
280
     1
281
     1
  3
ACAD_XREC_ROUNDTRIP
360
273
  0
XRECORD
  5
271
102
{ACAD_REACTORS
330
270
102
}
330
270
100
AcDbXrecord
280
     1
102
SHADEPLOT
 70
     0
102
SHADEPLOTRESLEVEL
 70
     2
102
SHADEPLOTCUSTOMDPI
 70
   300
  0
XRECORD
  5
273
102
{ACAD_REACTORS
330
272
102
}
330
272
100
AcDbXrecord
280
     1
102
SHADEPLOT
 70
     0
102
SHADEPLOTRESLEVEL
 70
     2
102
SHADEPLOTCUSTOMDPI
 70
   300
  0
ENDSEC
  0
EOF
