  0
SECTION
  2
HEADER
  9
$ACADVER
  1
AC1015
  9
$ACADMAINTVER
 70
    20
  9
$DWGCODEPAGE
  3
ANSI_932
  9
$INSBASE
 10
0.0
 20
372.4992141396417
 30
0.0
  9
$EXTMIN
 10
1.974978692003105
 20
257.4848578114078
 30
-0.0015258207003583
  9
$EXTMAX
 10
127.0385431241161
 20
370.5119061028457
 30
0.0000000349246037
  9
$LIMMIN
 10
-145.4330542011794
 20
-0.3771192194590185
  9
$LIMMAX
 10
404.4606587162924
 20
394.575728465793
  9
$ORTHOMODE
 70
     1
  9
$REGENMODE
 70
     1
  9
$FILLMODE
 70
     1
  9
$QTEXTMODE
 70
     0
  9
$MIRRTEXT
 70
     1
  9
$LTSCALE
 40
1.0
  9
$ATTMODE
 70
     1
  9
$TEXTSIZE
 40
3.0
  9
$TRACEWID
 40
0.5
  9
$TEXTSTYLE
  7
STANDARD
  9
$CLAYER
  8
0
  9
$CELTYPE
  6
BYLAYER
  9
$CECOLOR
 62
   256
  9
$CELTSCALE
 40
1.0
  9
$DISPSILH
 70
     0
  9
$DIMSCALE
 40
1.0
  9
$DIMASZ
 40
2.0
  9
$DIMEXO
 40
2.0
  9
$DIMDLI
 40
8.0
  9
$DIMRND
 40
0.0
  9
$DIMDLE
 40
0.0
  9
$DIMEXE
 40
2.0
  9
$DIMTP
 40
0.0
  9
$DIMTM
 40
0.0
  9
$DIMTXT
 40
2.5
  9
$DIMCEN
 40
0.0
  9
$DIMTSZ
 40
0.0
  9
$DIMTOL
 70
     0
  9
$DIMLIM
 70
     0
  9
$DIMTIH
 70
     0
  9
$DIMTOH
 70
     0
  9
$DIMSE1
 70
     0
  9
$DIMSE2
 70
     0
  9
$DIMTAD
 70
     3
  9
$DIMZIN
 70
     0
  9
$DIMBLK
  1

  9
$DIMASO
 70
     1
  9
$DIMSHO
 70
     1
  9
$DIMPOST
  1

  9
$DIMAPOST
  1

  9
$DIMALT
 70
     0
  9
$DIMALTD
 70
     2
  9
$DIMALTF
 40
25.4
  9
$DIMLFAC
 40
1.0
  9
$DIMTOFL
 70
     1
  9
$DIMTVP
 40
0.0
  9
$DIMTIX
 70
     0
  9
$DIMSOXD
 70
     0
  9
$DIMSAH
 70
     1
  9
$DIMBLK1
  1
OPEN30
  9
$DIMBLK2
  1
OPEN30
  9
$DIMSTYLE
  2
STANDARD
  9
$DIMCLRD
 70
     0
  9
$DIMCLRE
 70
     0
  9
$DIMCLRT
 70
     0
  9
$DIMTFAC
 40
1.0
  9
$DIMGAP
 40
0.5
  9
$DIMJUST
 70
     0
  9
$DIMSD1
 70
     0
  9
$DIMSD2
 70
     0
  9
$DIMTOLJ
 70
     1
  9
$DIMTZIN
 70
     0
  9
$DIMALTZ
 70
     0
  9
$DIMALTTZ
 70
     0
  9
$DIMUPT
 70
     0
  9
$DIMDEC
 70
     4
  9
$DIMTDEC
 70
     4
  9
$DIMALTU
 70
     2
  9
$DIMALTTD
 70
     2
  9
$DIMTXSTY
  7
STANDARD
  9
$DIMAUNIT
 70
     0
  9
$DIMADEC
 70
     0
  9
$DIMALTRND
 40
0.0
  9
$DIMAZIN
 70
     0
  9
$DIMDSEP
 70
    46
  9
$DIMATFIT
 70
     3
  9
$DIMFRAC
 70
     0
  9
$DIMLDRBLK
  1
OPEN30
  9
$DIMLUNIT
 70
     2
  9
$DIMLWD
 70
    -2
  9
$DIMLWE
 70
    -2
  9
$DIMTMOVE
 70
     0
  9
$LUNITS
 70
     2
  9
$LUPREC
 70
     4
  9
$SKETCHINC
 40
0.1
  9
$FILLETRAD
 40
0.0
  9
$AUNITS
 70
     0
  9
$AUPREC
 70
     0
  9
$MENU
  1
ACAD
  9
$ELEVATION
 40
0.0
  9
$PELEVATION
 40
0.0
  9
$THICKNESS
 40
0.0
  9
$LIMCHECK
 70
     0
  9
$CHAMFERA
 40
0.0
  9
$CHAMFERB
 40
0.0
  9
$CHAMFERC
 40
0.0
  9
$CHAMFERD
 40
0.0
  9
$SKPOLY
 70
     0
  9
$TDCREATE
 40
2451815.565532581
  9
$TDUCREATE
 40
2451815.190532581
  9
$TDUPDATE
 40
2453731.644425093
  9
$TDUUPDATE
 40
2453731.269425093
  9
$TDINDWG
 40
0.6644937153
  9
$TDUSRTIMER
 40
0.6644935301
  9
$USRTIMER
 70
     1
  9
$ANGBASE
 50
0.0
  9
$ANGDIR
 70
     0
  9
$PDMODE
 70
     0
  9
$PDSIZE
 40
0.0
  9
$PLINEWID
 40
0.0
  9
$SPLFRAME
 70
     0
  9
$SPLINETYPE
 70
     6
  9
$SPLINESEGS
 70
     8
  9
$HANDSEED
  5
42D
  9
$SURFTAB1
 70
     6
  9
$SURFTAB2
 70
     6
  9
$SURFTYPE
 70
     6
  9
$SURFU
 70
     6
  9
$SURFV
 70
     6
  9
$UCSBASE
  2

  9
$UCSNAME
  2

  9
$UCSORG
 10
0.0
 20
0.0
 30
0.0
  9
$UCSXDIR
 10
1.0
 20
0.0
 30
0.0
  9
$UCSYDIR
 10
0.0
 20
1.0
 30
0.0
  9
$UCSORTHOREF
  2

  9
$UCSORTHOVIEW
 70
     0
  9
$UCSORGTOP
 10
0.0
 20
0.0
 30
0.0
  9
$UCSORGBOTTOM
 10
0.0
 20
0.0
 30
0.0
  9
$UCSORGLEFT
 10
0.0
 20
0.0
 30
0.0
  9
$UCSORGRIGHT
 10
0.0
 20
0.0
 30
0.0
  9
$UCSORGFRONT
 10
0.0
 20
0.0
 30
0.0
  9
$UCSORGBACK
 10
0.0
 20
0.0
 30
0.0
  9
$PUCSBASE
  2

  9
$PUCSNAME
  2

  9
$PUCSORG
 10
0.0
 20
0.0
 30
0.0
  9
$PUCSXDIR
 10
1.0
 20
0.0
 30
0.0
  9
$PUCSYDIR
 10
0.0
 20
1.0
 30
0.0
  9
$PUCSORTHOREF
  2

  9
$PUCSORTHOVIEW
 70
     0
  9
$PUCSORGTOP
 10
0.0
 20
0.0
 30
0.0
  9
$PUCSORGBOTTOM
 10
0.0
 20
0.0
 30
0.0
  9
$PUCSORGLEFT
 10
0.0
 20
0.0
 30
0.0
  9
$PUCSORGRIGHT
 10
0.0
 20
0.0
 30
0.0
  9
$PUCSORGFRONT
 10
0.0
 20
0.0
 30
0.0
  9
$PUCSORGBACK
 10
0.0
 20
0.0
 30
0.0
  9
$USERI1
 70
     0
  9
$USERI2
 70
     0
  9
$USERI3
 70
     0
  9
$USERI4
 70
     0
  9
$USERI5
 70
     0
  9
$USERR1
 40
0.0
  9
$USERR2
 40
0.0
  9
$USERR3
 40
0.0
  9
$USERR4
 40
0.0
  9
$USERR5
 40
0.0
  9
$WORLDVIEW
 70
     1
  9
$SHADEDGE
 70
     3
  9
$SHADEDIF
 70
    70
  9
$TILEMODE
 70
     1
  9
$MAXACTVP
 70
    48
  9
$PINSBASE
 10
0.0
 20
0.0
 30
0.0
  9
$PLIMCHECK
 70
     0
  9
$PEXTMIN
 10
1.000000000000000E+20
 20
1.000000000000000E+20
 30
1.000000000000000E+20
  9
$PEXTMAX
 10
-1.000000000000000E+20
 20
-1.000000000000000E+20
 30
-1.000000000000000E+20
  9
$PLIMMIN
 10
0.0
 20
0.0
  9
$PLIMMAX
 10
12.0
 20
9.0
  9
$UNITMODE
 70
     0
  9
$VISRETAIN
 70
     1
  9
$PLINEGEN
 70
     0
  9
$PSLTSCALE
 70
     1
  9
$TREEDEPTH
 70
  3020
  9
$CMLSTYLE
  2
STANDARD
  9
$CMLJUST
 70
     0
  9
$CMLSCALE
 40
1.0
  9
$PROXYGRAPHICS
 70
     1
  9
$MEASUREMENT
 70
     0
  9
$CELWEIGHT
370
     0
  9
$ENDCAPS
280
     0
  9
$JOINSTYLE
280
     0
  9
$LWDISPLAY
290
     0
  9
$INSUNITS
 70
     1
  9
$HYPERLINKBASE
  1

  9
$STYLESHEET
  1

  9
$XEDIT
290
     1
  9
$CEPSNTYPE
380
     0
  9
$PSTYLEMODE
290
     0
  9
$FINGERPRINTGUID
  2
{FAEB1C30-E019-11D5-929B-00C0DF256EC4}
  9
$VERSIONGUID
  2
{332EC8EF-14C3-4A18-A195-B710E9B31269}
  9
$EXTNAMES
290
     1
  9
$PSVPSCALE
 40
0.0
  9
$OLESTARTUP
290
     0
  0
ENDSEC
  0
SECTION
  2
CLASSES
  0
CLASS
  1
ACDBDICTIONARYWDFLT
  2
AcDbDictionaryWithDefault
  3
ObjectDBX Classes
 90
        0
280
     0
281
     0
  0
CLASS
  1
ACDBPLACEHOLDER
  2
AcDbPlaceHolder
  3
ObjectDBX Classes
 90
        0
280
     0
281
     0
  0
CLASS
  1
LAYOUT
  2
AcDbLayout
  3
ObjectDBX Classes
 90
        0
280
     0
281
     0
  0
CLASS
  1
DICTIONARYVAR
  2
AcDbDictionaryVar
  3
ObjectDBX Classes
 90
        0
280
     0
281
     0
  0
ENDSEC
  0
SECTION
  2
TABLES
  0
TABLE
  2
VPORT
  5
30E
330
0
100
AcDbSymbolTable
 70
     2
  0
VPORT
  5
425
330
30E
100
AcDbSymbolTableRecord
100
AcDbViewportTableRecord
  2
*Active
 70
     0
 10
0.0
 20
0.0
 11
1.0
 21
1.0
 12
64.50676090805962
 22
313.9983819571268
 13
0.0
 23
0.0
 14
1.0
 24
1.0
 15
0.0
 25
0.0
 16
0.0
 26
0.0
 36
1.0
 17
0.0
 27
0.0
 37
0.0
 40
113.9958515625073
 41
1.589413447782546
 42
50.0
 43
0.0
 44
0.0
 50
0.0
 51
0.0
 71
     0
 72
  1000
 73
     1
 74
     0
 75
     0
 76
     0
 77
     0
 78
     0
281
     0
 65
     1
110
0.0
120
0.0
130
0.0
111
1.0
121
0.0
131
0.0
112
0.0
122
1.0
132
0.0
 79
     0
146
0.0
  0
ENDTAB
  0
TABLE
  2
LTYPE
  5
309
330
0
100
AcDbSymbolTable
 70
     1
  0
LTYPE
  5
30A
330
309
100
AcDbSymbolTableRecord
100
AcDbLinetypeTableRecord
  2
BYBLOCK
 70
     0
  3

 72
    65
 73
     0
 40
0.0
  0
LTYPE
  5
30B
330
309
100
AcDbSymbolTableRecord
100
AcDbLinetypeTableRecord
  2
BYLAYER
 70
     0
  3

 72
    65
 73
     0
 40
0.0
  0
LTYPE
  5
7
330
309
100
AcDbSymbolTableRecord
100
AcDbLinetypeTableRecord
  2
CONTINUOUS
 70
     0
  3
Solid line
 72
    65
 73
     0
 40
0.0
  0
ENDTAB
  0
TABLE
  2
LAYER
  5
E
102
{ACAD_XDICTIONARY
360
F
102
}
330
0
100
AcDbSymbolTable
 70
     7
  0
LAYER
  5
6
330
E
100
AcDbSymbolTableRecord
100
AcDbLayerTableRecord
  2
0
 70
     0
 62
     7
  6
CONTINUOUS
370
    -3
390
3CF
  0
LAYER
  5
33F
330
E
100
AcDbSymbolTableRecord
100
AcDbLayerTableRecord
  2
DEFPOINTS
 70
     0
 62
     7
  6
CONTINUOUS
290
     0
370
    -3
390
3CF
  0
LAYER
  5
3AB
330
E
100
AcDbSymbolTableRecord
100
AcDbLayerTableRecord
  2
WAKU
 70
     0
 62
     4
  6
CONTINUOUS
370
    -3
390
3CF
  0
LAYER
  5
31F
330
E
100
AcDbSymbolTableRecord
100
AcDbLayerTableRecord
  2
MOJI1
 70
     0
 62
     2
  6
CONTINUOUS
370
    -3
390
3CF
  0
LAYER
  5
321
330
E
100
AcDbSymbolTableRecord
100
AcDbLayerTableRecord
  2
GAIKEI
 70
     0
 62
     7
  6
CONTINUOUS
370
    -3
390
3CF
  0
LAYER
  5
319
330
E
100
AcDbSymbolTableRecord
100
AcDbLayerTableRecord
  2
SUNPO
 70
     0
 62
     3
  6
CONTINUOUS
370
    -3
390
3CF
  0
LAYER
  5
3A7
330
E
100
AcDbSymbolTableRecord
100
AcDbLayerTableRecord
  2
TOUROKU
 70
     0
 62
     1
  6
CONTINUOUS
370
    -3
390
3CF
  0
ENDTAB
  0
TABLE
  2
STYLE
  5
307
330
0
100
AcDbSymbolTable
 70
     1
  0
STYLE
  5
308
330
307
100
AcDbSymbolTableRecord
100
AcDbTextStyleTableRecord
  2
STANDARD
 70
     0
 40
0.0
 41
1.0
 50
0.0
 71
     0
 42
3.0
  3
MONOTXT.shx
  4
BIGFONT.shx
  0
ENDTAB
  0
TABLE
  2
VIEW
  5
30C
330
0
100
AcDbSymbolTable
 70
     0
  0
ENDTAB
  0
TABLE
  2
UCS
  5
30D
330
0
100
AcDbSymbolTable
 70
     0
  0
ENDTAB
  0
TABLE
  2
APPID
  5
310
330
0
100
AcDbSymbolTable
 70
     1
  0
APPID
  5
311
330
310
100
AcDbSymbolTableRecord
100
AcDbRegAppTableRecord
  2
ACAD
 70
     0
  0
ENDTAB
  0
TABLE
  2
DIMSTYLE
  5
312
330
0
100
AcDbSymbolTable
 70
     1
100
AcDbDimStyleTable
 71
     1
340
31B
  0
DIMSTYLE
105
31B
102
{ACAD_REACTORS
330
38C
330
377
330
330
102
}
330
312
100
AcDbSymbolTableRecord
100
AcDbDimStyleTableRecord
  2
STANDARD
 70
     0
 40
0.0
 41
2.0
 42
2.0
 43
8.0
 44
2.0
 73
     0
 74
     0
 77
     3
140
3.0
141
0.0
173
     1
288
     1
340
308
341
336
343
336
344
336
  0
ENDTAB
  0
TABLE
  2
BLOCK_RECORD
  5
1
330
0
100
AcDbSymbolTable
 70
     7
  0
BLOCK_RECORD
  5
2
102
{ACAD_XDICTIONARY
360
3
102
}
330
1
100
AcDbSymbolTableRecord
100
AcDbBlockTableRecord
  2
*MODEL_SPACE
340
3F4
  0
BLOCK_RECORD
  5
9
102
{ACAD_XDICTIONARY
360
A
102
}
330
1
100
AcDbSymbolTableRecord
100
AcDbBlockTableRecord
  2
*PAPER_SPACE
340
3F5
  0
BLOCK_RECORD
  5
336
330
1
100
AcDbSymbolTableRecord
100
AcDbBlockTableRecord
  2
_OPEN30
340
0
102
{BLKREFS
331
335
331
33C
331
37C
331
37D
331
391
331
392
331
402
331
403
331
40E
331
40F
331
41A
331
41B
102
}
  0
BLOCK_RECORD
  5
3FE
330
1
100
AcDbSymbolTableRecord
100
AcDbBlockTableRecord
  2
*D4
340
0
  0
BLOCK_RECORD
  5
40A
330
1
100
AcDbSymbolTableRecord
100
AcDbBlockTableRecord
  2
*D5
340
0
  0
BLOCK_RECORD
  5
416
330
1
100
AcDbSymbolTableRecord
100
AcDbBlockTableRecord
  2
*D6
340
0
  0
ENDTAB
  0
ENDSEC
  0
SECTION
  2
BLOCKS
  0
BLOCK
  5
5
330
2
100
AcDbEntity
  8
0
100
AcDbBlockBegin
  2
*MODEL_SPACE
 70
     0
 10
0.0
 20
0.0
 30
0.0
  3
*MODEL_SPACE
  1

  0
ENDBLK
  5
8
330
2
100
AcDbEntity
  8
0
100
AcDbBlockEnd
  0
BLOCK
  5
C
330
9
100
AcDbEntity
 67
     1
  8
0
100
AcDbBlockBegin
  2
*PAPER_SPACE
 70
     0
 10
0.0
 20
0.0
 30
0.0
  3
*PAPER_SPACE
  1

  0
ENDBLK
  5
D
330
9
100
AcDbEntity
 67
     1
  8
0
100
AcDbBlockEnd
  0
BLOCK
  5
33A
330
336
100
AcDbEntity
  8
0
100
AcDbBlockBegin
  2
_OPEN30
 70
     0
 10
0.0
 20
0.0
 30
0.0
  3
_OPEN30
  1

  0
LINE
  5
337
330
336
100
AcDbEntity
  8
0
  6
ByBlock
 62
     0
100
AcDbLine
 10
-1.0
 20
0.26794919
 30
0.0
 11
0.0
 21
0.0
 31
0.0
  0
LINE
  5
338
330
336
100
AcDbEntity
  8
0
  6
ByBlock
 62
     0
100
AcDbLine
 10
0.0
 20
0.0
 30
0.0
 11
-1.0
 21
-0.26794919
 31
0.0
  0
LINE
  5
339
330
336
100
AcDbEntity
  8
0
  6
ByBlock
 62
     0
100
AcDbLine
 10
0.0
 20
0.0
 30
0.0
 11
-1.0
 21
0.0
 31
0.0
  0
ENDBLK
  5
33B
330
336
100
AcDbEntity
  8
0
100
AcDbBlockEnd
  0
BLOCK
  5
408
330
3FE
100
AcDbEntity
  8
0
370
     0
100
AcDbBlockBegin
  2
*D4
 70
     1
 10
0.0
 20
0.0
 30
0.0
  3
*D4
  1

  0
LINE
  5
3FF
330
3FE
100
AcDbEntity
  8
SUNPO
 62
     0
370
    -2
100
AcDbLine
 10
89.27360505560017
 20
345.3663423806994
 30
0.0
 11
89.27360505560017
 21
353.3663423806993
 31
0.0
  0
LINE
  5
400
330
3FE
100
AcDbEntity
  8
SUNPO
 62
     0
370
    -2
100
AcDbLine
 10
97.36633903195816
 20
345.3663423806994
 30
0.0
 11
97.36633903195816
 21
353.3663423806993
 31
0.0
  0
LINE
  5
401
330
3FE
100
AcDbEntity
  8
SUNPO
 62
     0
370
    -2
100
AcDbLine
 10
91.27360505560018
 20
351.3663423806993
 30
0.0
 11
95.36633903195816
 21
351.3663423806993
 31
0.0
  0
INSERT
  5
402
330
3FE
100
AcDbEntity
  8
SUNPO
 62
     0
370
    -2
100
AcDbBlockReference
  2
_OPEN30
 10
89.27360505560017
 20
351.3663423806993
 30
0.0
 41
2.0
 42
2.0
 43
2.0
 50
180.0
  0
INSERT
  5
403
330
3FE
100
AcDbEntity
  8
SUNPO
 62
     0
370
    -2
100
AcDbBlockReference
  2
_OPEN30
 10
97.36633903195816
 20
351.3663423806993
 30
0.0
 41
2.0
 42
2.0
 43
2.0
  0
MTEXT
  5
404
330
3FE
100
AcDbEntity
  8
SUNPO
 62
     0
100
AcDbMText
 10
93.31997204377916
 20
353.1163423806993
 30
0.0
 40
2.5
 41
0.0
 71
     5
 72
     1
  1
\A1;81
 73
     1
 44
1.0
1001
ACAD
1000
MTEXTBEGIN
1070
    73
1070
     1
1070
    44
1040
1.0
1070
    74
1070
     0
1000
MTEXTEND
  0
POINT
  5
405
330
3FE
100
AcDbEntity
  8
DEFPOINTS
 62
     0
370
     0
100
AcDbPoint
 10
89.27360505560017
 20
343.3663423806994
 30
0.0
  0
POINT
  5
406
330
3FE
100
AcDbEntity
  8
DEFPOINTS
 62
     0
370
     0
100
AcDbPoint
 10
97.36633903195816
 20
343.3663423806994
 30
0.0
  0
POINT
  5
407
330
3FE
100
AcDbEntity
  8
DEFPOINTS
 62
     0
370
     0
100
AcDbPoint
 10
97.36633903195816
 20
351.3663423806993
 30
0.0
  0
ENDBLK
  5
409
330
3FE
100
AcDbEntity
  8
0
370
     0
100
AcDbBlockEnd
  0
BLOCK
  5
414
330
40A
100
AcDbEntity
  8
0
370
     0
100
AcDbBlockBegin
  2
*D5
 70
     1
 10
0.0
 20
0.0
 30
0.0
  3
*D5
  1

  0
LINE
  5
40B
330
40A
100
AcDbEntity
  8
SUNPO
 62
     0
370
    -2
100
AcDbLine
 10
26.31838147236272
 20
345.3663423806994
 30
0.0
 11
26.31838147236272
 21
353.3663423806993
 31
0.0
  0
LINE
  5
40C
330
40A
100
AcDbEntity
  8
SUNPO
 62
     0
370
    -2
100
AcDbLine
 10
63.01838147236275
 20
345.3663423806994
 30
0.0
 11
63.01838147236275
 21
353.3663423806993
 31
0.0
  0
LINE
  5
40D
330
40A
100
AcDbEntity
  8
SUNPO
 62
     0
370
    -2
100
AcDbLine
 10
28.31838147236272
 20
351.3663423806993
 30
0.0
 11
61.01838147236275
 21
351.3663423806993
 31
0.0
  0
INSERT
  5
40E
330
40A
100
AcDbEntity
  8
SUNPO
 62
     0
370
    -2
100
AcDbBlockReference
  2
_OPEN30
 10
26.31838147236272
 20
351.3663423806993
 30
0.0
 41
2.0
 42
2.0
 43
2.0
 50
180.0
  0
INSERT
  5
40F
330
40A
100
AcDbEntity
  8
SUNPO
 62
     0
370
    -2
100
AcDbBlockReference
  2
_OPEN30
 10
63.01838147236275
 20
351.3663423806993
 30
0.0
 41
2.0
 42
2.0
 43
2.0
  0
MTEXT
  5
410
330
40A
100
AcDbEntity
  8
SUNPO
 62
     0
100
AcDbMText
 10
44.66838147236273
 20
353.1163423806993
 30
0.0
 40
2.5
 41
0.0
 71
     5
 72
     1
  1
\A1;367
 73
     1
 44
1.0
1001
ACAD
1000
MTEXTBEGIN
1070
    73
1070
     1
1070
    44
1040
1.0
1070
    74
1070
     0
1000
MTEXTEND
  0
POINT
  5
411
330
40A
100
AcDbEntity
  8
DEFPOINTS
 62
     0
370
     0
100
AcDbPoint
 10
26.31838147236272
 20
343.3663423806994
 30
0.0
  0
POINT
  5
412
330
40A
100
AcDbEntity
  8
DEFPOINTS
 62
     0
370
     0
100
AcDbPoint
 10
63.01838147236275
 20
343.3663423806994
 30
0.0
  0
POINT
  5
413
330
40A
100
AcDbEntity
  8
DEFPOINTS
 62
     0
370
     0
100
AcDbPoint
 10
63.01838147236275
 20
351.3663423806993
 30
0.0
  0
ENDBLK
  5
415
330
40A
100
AcDbEntity
  8
0
370
     0
100
AcDbBlockEnd
  0
BLOCK
  5
420
330
416
100
AcDbEntity
  8
0
370
     0
100
AcDbBlockBegin
  2
*D6
 70
     1
 10
0.0
 20
0.0
 30
0.0
  3
*D6
  1

  0
LINE
  5
417
330
416
100
AcDbEntity
  8
SUNPO
 62
     0
370
    -2
100
AcDbLine
 10
65.01838147236272
 20
308.6710095922263
 30
0.0
 11
73.01838147236271
 21
308.6710095922263
 31
0.0
  0
LINE
  5
418
330
416
100
AcDbEntity
  8
SUNPO
 62
     0
370
    -2
100
AcDbLine
 10
65.0183814723627
 20
343.3710084507816
 30
0.0
 11
73.01838147236271
 21
343.3710084507816
 31
0.0
  0
LINE
  5
419
330
416
100
AcDbEntity
  8
SUNPO
 62
     0
370
    -2
100
AcDbLine
 10
71.01838147236271
 20
310.6710095922263
 30
0.0
 11
71.01838147236271
 21
341.3710084507816
 31
0.0
  0
INSERT
  5
41A
330
416
100
AcDbEntity
  8
SUNPO
 62
     0
370
    -2
100
AcDbBlockReference
  2
_OPEN30
 10
71.01838147236271
 20
308.6710095922263
 30
0.0
 41
2.0
 42
2.0
 43
2.0
 50
270.0
  0
INSERT
  5
41B
330
416
100
AcDbEntity
  8
SUNPO
 62
     0
370
    -2
100
AcDbBlockReference
  2
_OPEN30
 10
71.01838147236271
 20
343.3710084507816
 30
0.0
 41
2.0
 42
2.0
 43
2.0
 50
90.0
  0
MTEXT
  5
41C
330
416
100
AcDbEntity
  8
SUNPO
 62
     0
100
AcDbMText
 10
69.26838147236265
 20
326.021009021504
 30
0.0
 40
2.5
 41
0.0
 71
     5
 72
     1
  1
\A1;347
 11
0.0000000000000001
 21
1.0
 31
0.0
 73
     1
 44
1.0
1001
ACAD
1000
MTEXTBEGIN
1070
    73
1070
     1
1070
    44
1040
1.0
1070
    74
1070
     0
1000
MTEXTEND
  0
POINT
  5
41D
330
416
100
AcDbEntity
  8
DEFPOINTS
 62
     0
370
     0
100
AcDbPoint
 10
63.01838147236271
 20
308.6710095922263
 30
0.0
  0
POINT
  5
41E
330
416
100
AcDbEntity
  8
DEFPOINTS
 62
     0
370
     0
100
AcDbPoint
 10
63.01838147236271
 20
343.3710084507816
 30
0.0
  0
POINT
  5
41F
330
416
100
AcDbEntity
  8
DEFPOINTS
 62
     0
370
     0
100
AcDbPoint
 10
71.01838147236271
 20
343.3710084507816
 30
0.0
  0
ENDBLK
  5
421
330
416
100
AcDbEntity
  8
0
370
     0
100
AcDbBlockEnd
  0
ENDSEC
  0
SECTION
  2
ENTITIES
  0
TEXT
  5
31E
330
2
100
AcDbEntity
  8
MOJI1
100
AcDbText
 10
28.99999999999955
 20
366.4992141396415
 30
0.0
 40
4.0
  1
液晶テレビ
100
AcDbText
  0
LINE
  5
320
330
2
100
AcDbEntity
  8
GAIKEI
  6
Continuous
 62
     1
100
AcDbLine
 10
60.33510966105472
 20
339.9140358808232
 30
0.0
 11
60.33510966105484
 21
317.1177178506662
 31
0.0
  0
LINE
  5
322
330
2
100
AcDbEntity
  8
GAIKEI
  6
Continuous
 62
     1
100
AcDbLine
 10
61.53401805156692
 20
343.3710084507816
 30
0.0
 11
61.53401805156692
 21
308.6710095922263
 31
0.0
  0
LINE
  5
323
330
2
100
AcDbEntity
  8
GAIKEI
  6
Continuous
100
AcDbLine
 10
63.01838147236275
 20
342.8710084507816
 30
0.0
 11
63.01838147236275
 21
309.1710095922263
 31
0.0
  0
LINE
  5
324
330
2
100
AcDbEntity
  8
GAIKEI
  6
Continuous
 62
     1
100
AcDbLine
 10
29.00165328367064
 20
339.9140358808233
 30
0.0
 11
29.00165328367064
 21
317.1177178506662
 31
0.0
  0
LINE
  5
325
330
2
100
AcDbEntity
  8
GAIKEI
  6
Continuous
 62
     1
100
AcDbLine
 10
27.80274489315855
 20
343.3710084507816
 30
0.0
 11
27.80274489315855
 21
308.6710095922263
 31
0.0
  0
LINE
  5
326
330
2
100
AcDbEntity
  8
GAIKEI
  6
Continuous
100
AcDbLine
 10
26.31838147236272
 20
342.8710084507816
 30
0.0
 11
26.31838147236272
 21
309.1710095922263
 31
0.0
  0
LINE
  5
327
330
2
100
AcDbEntity
  8
GAIKEI
  6
Continuous
 62
     7
100
AcDbLine
 10
30.38334334421137
 20
339.5579504638564
 30
0.0
 11
30.38334334421137
 21
318.0879474803382
 31
0.0
  0
LINE
  5
328
330
2
100
AcDbEntity
  8
GAIKEI
  6
Continuous
 62
     7
100
AcDbLine
 10
58.95401960051414
 20
339.5579504638564
 30
0.0
 11
58.95401960051414
 21
318.0879474803382
 31
0.0
  0
LINE
  5
329
330
2
100
AcDbEntity
  8
GAIKEI
  6
Continuous
 62
     1
100
AcDbLine
 10
92.56605368533092
 20
343.1771669422158
 30
0.0
 11
92.56605368533092
 21
309.1450201259945
 31
0.0
  0
LINE
  5
32A
330
2
100
AcDbEntity
  8
GAIKEI
  6
Continuous
 62
     1
100
AcDbLine
 10
93.13732920660612
 20
341.537462805658
 30
0.0
 11
93.13732920660612
 21
314.6473813922955
 31
0.0
  0
LINE
  5
32B
330
2
100
AcDbEntity
  8
GAIKEI
  6
Continuous
 62
     1
100
AcDbLine
 10
89.6975491690417
 20
343.3710084507816
 30
0.0
 11
89.6975491690417
 21
311.5332705883726
 31
0.0
  0
LINE
  5
32C
330
2
100
AcDbEntity
  8
GAIKEI
  6
Continuous
 62
     1
100
AcDbLine
 10
91.82920507861586
 20
343.1771669422158
 30
0.0
 11
91.82920507861586
 21
309.0104472920711
 31
0.0
  0
LINE
  5
32D
330
2
100
AcDbEntity
  8
GAIKEI
  6
Continuous
100
AcDbLine
 10
89.27360505560017
 20
343.3710084507816
 30
0.0
 11
89.27360505560017
 21
311.5332705883726
 31
0.0
  0
LINE
  5
32E
330
2
100
AcDbEntity
  8
GAIKEI
  6
Continuous
100
AcDbLine
 10
97.36633903195816
 20
338.6347970258215
 30
0.0
 11
97.36633903195816
 21
315.3874025877383
 31
0.0
  0
LINE
  5
32F
330
2
100
AcDbEntity
  8
GAIKEI
  6
Continuous
 62
     1
100
AcDbLine
 10
96.31053273955973
 20
339.1974198516836
 30
0.0
 11
96.31053273955973
 21
315.2707460803995
 31
0.0
  0
DIMENSION
  5
330
330
2
100
AcDbEntity
  8
SUNPO
100
AcDbDimension
  2
*D6
 10
71.01838147236271
 20
343.3710084507816
 30
0.0
 11
69.26838147236265
 21
326.021009021504
 31
0.0
 70
    33
  1
347
 71
     5
 42
34.69999885855532
  3
STANDARD
100
AcDbAlignedDimension
 13
63.01838147236271
 23
308.6710095922263
 33
0.0
 14
63.01838147236271
 24
343.3710084507816
 34
0.0
1001
ACAD
1000
DSTYLE
1002
{
1070
    40
1040
1.0
1070
   140
1040
2.5
1070
   147
1040
0.5
1070
   172
1070
     1
1070
   288
1070
     0
1002
}
  0
ARC
  5
346
330
2
100
AcDbEntity
  8
GAIKEI
  6
Continuous
 62
     1
100
AcDbCircle
 10
45.85937316275259
 20
330.8763475496149
 30
0.0
 40
17.9182835705825
100
AcDbArc
 50
255.2382703129846
 51
266.1888568421153
  0
LINE
  5
347
330
2
100
AcDbEntity
  8
GAIKEI
  6
Continuous
 62
     7
100
AcDbLine
 10
30.38334334421137
 20
318.0879474803382
 30
0.0
 11
58.95401960051414
 21
318.0879474803382
 31
0.0
  0
LINE
  5
348
330
2
100
AcDbEntity
  8
GAIKEI
  6
Continuous
 62
     7
100
AcDbLine
 10
26.31838147236272
 20
317.1177178506662
 30
0.0
 11
63.01838147236275
 21
317.1177178506662
 31
0.0
  0
LINE
  5
349
330
2
100
AcDbEntity
  8
GAIKEI
  6
Continuous
100
AcDbLine
 10
26.81838147236272
 20
308.6710095922263
 30
0.0
 11
62.51838147236275
 21
308.6710095922263
 31
0.0
  0
LINE
  5
34A
330
2
100
AcDbEntity
  8
GAIKEI
  6
Continuous
 62
     1
100
AcDbLine
 10
30.3147439143529
 20
314.7777512990686
 30
0.0
 11
59.02201903037259
 21
314.7777512990686
 31
0.0
  0
LINE
  5
34B
330
2
100
AcDbEntity
  8
GAIKEI
  6
Continuous
 62
     1
100
AcDbLine
 10
30.3147439143529
 20
314.4583086084999
 30
0.0
 11
37.13779562184925
 21
314.3609339236666
 31
0.0
  0
LINE
  5
34C
330
2
100
AcDbEntity
  8
GAIKEI
  6
Continuous
 62
     1
100
AcDbLine
 10
29.28710774381284
 20
317.1177178506662
 30
0.0
 11
29.28710774381284
 21
308.6710095922263
 31
0.0
  0
ARC
  5
34D
330
2
100
AcDbEntity
  8
GAIKEI
  6
Continuous
100
AcDbCircle
 10
26.81838147236272
 20
309.1710095922263
 30
0.0
 40
0.5
100
AcDbArc
 50
180.0
 51
270.0
  0
LINE
  5
34E
330
2
100
AcDbEntity
  8
GAIKEI
  6
Continuous
 62
     1
100
AcDbLine
 10
30.3147439143529
 20
314.7777512990686
 30
0.0
 11
30.3147439143529
 21
314.4583086084999
 31
0.0
  0
LINE
  5
34F
330
2
100
AcDbEntity
  8
GAIKEI
  6
Continuous
 62
     1
100
AcDbLine
 10
35.23141288534896
 20
308.6710095922263
 30
0.0
 11
35.23141288534896
 21
308.0229489720973
 31
0.0
  0
LINE
  5
350
330
2
100
AcDbEntity
  8
GAIKEI
  6
Continuous
 62
     1
100
AcDbLine
 10
35.23141288534896
 20
308.0229489720973
 30
0.0
 11
34.39995214578812
 21
308.0229489720973
 31
0.0
  0
LINE
  5
351
330
2
100
AcDbEntity
  8
GAIKEI
  6
Continuous
 62
     1
100
AcDbLine
 10
34.39995214578812
 20
308.0229489720973
 30
0.0
 11
34.39995214578812
 21
308.6710095922263
 31
0.0
  0
ARC
  5
352
330
2
100
AcDbEntity
  8
GAIKEI
  6
Continuous
 62
     1
100
AcDbCircle
 10
36.61033770697225
 20
300.6109306849663
 30
0.0
 40
13.76011631187164
100
AcDbArc
 50
70.10090307444345
 51
87.80317857715486
  0
LINE
  5
353
330
2
100
AcDbEntity
  8
GAIKEI
  6
Continuous
 62
     1
100
AcDbLine
 10
41.19638957977691
 20
314.7777512990686
 30
0.0
 11
41.19638957977691
 21
313.5843238084395
 31
0.0
  0
LINE
  5
354
330
2
100
AcDbEntity
  8
GAIKEI
  6
Continuous
 62
     1
100
AcDbLine
 10
54.1053500593764
 20
308.0229489720973
 30
0.0
 11
54.93681079893725
 21
308.0229489720973
 31
0.0
  0
LINE
  5
355
330
2
100
AcDbEntity
  8
GAIKEI
  6
Continuous
 62
     1
100
AcDbLine
 10
59.02201903037259
 20
314.4583086084999
 30
0.0
 11
52.19896732287622
 21
314.3609339236666
 31
0.0
  0
LINE
  5
356
330
2
100
AcDbEntity
  8
GAIKEI
  6
Continuous
 62
     1
100
AcDbLine
 10
54.1053500593764
 20
308.6710095922263
 30
0.0
 11
54.1053500593764
 21
308.0229489720973
 31
0.0
  0
ARC
  5
357
330
2
100
AcDbEntity
  8
GAIKEI
  6
Continuous
 62
     1
100
AcDbCircle
 10
52.72642523775311
 20
300.6109306849663
 30
0.0
 40
13.76011631187164
100
AcDbArc
 50
92.19682142284517
 51
109.8990969255566
  0
LINE
  5
358
330
2
100
AcDbEntity
  8
GAIKEI
  6
Continuous
 62
     1
100
AcDbLine
 10
48.14037336494846
 20
314.7777512990686
 30
0.0
 11
48.14037336494846
 21
313.5843238084395
 31
0.0
  0
ARC
  5
359
330
2
100
AcDbEntity
  8
GAIKEI
  6
Continuous
 62
     1
100
AcDbCircle
 10
43.47738978197288
 20
330.8763475496149
 30
0.0
 40
17.9182835705825
100
AcDbArc
 50
273.8111431578847
 51
284.7617296870154
  0
ELLIPSE
  5
35A
330
2
100
AcDbEntity
  8
GAIKEI
  6
Continuous
 62
     1
100
AcDbEllipse
 10
44.66838147236273
 20
314.7777512990686
 30
0.0
 11
1.008696069584102
 21
0.0
 31
0.0
210
0.0
220
0.0
230
1.0
 40
0.8315429049618842
 41
3.141592653589792
 42
6.283185307179585
  0
LINE
  5
35B
330
2
100
AcDbEntity
  8
GAIKEI
  6
Continuous
 62
     1
100
AcDbLine
 10
60.04965520091264
 20
317.1177178506662
 30
0.0
 11
60.04965520091264
 21
308.6710095922263
 31
0.0
  0
LINE
  5
35C
330
2
100
AcDbEntity
  8
GAIKEI
  6
Continuous
 62
     1
100
AcDbLine
 10
54.93681079893725
 20
308.0229489720973
 30
0.0
 11
54.93681079893725
 21
308.6710095922263
 31
0.0
  0
ARC
  5
35D
330
2
100
AcDbEntity
  8
GAIKEI
  6
Continuous
100
AcDbCircle
 10
62.51838147236275
 20
309.1710095922263
 30
0.0
 40
0.5
100
AcDbArc
 50
270.0
 51
0.0
  0
LINE
  5
35E
330
2
100
AcDbEntity
  8
GAIKEI
  6
Continuous
 62
     1
100
AcDbLine
 10
59.02201903037259
 20
314.7777512990686
 30
0.0
 11
59.02201903037259
 21
314.4583086084999
 31
0.0
  0
LINE
  5
35F
330
2
100
AcDbEntity
  8
GAIKEI
  6
Continuous
 62
     1
100
AcDbLine
 10
97.36633903195816
 20
315.3874025877383
 30
0.0
 11
93.81601254663172
 21
314.9951254336122
 31
0.0
  0
LINE
  5
360
330
2
100
AcDbEntity
  8
GAIKEI
  6
Continuous
 62
     1
100
AcDbLine
 10
95.22136575699772
 20
316.8645511436051
 30
0.0
 11
97.36633903195816
 21
316.8645511436051
 31
0.0
  0
LINE
  5
361
330
2
100
AcDbEntity
  8
GAIKEI
  6
Continuous
 62
     1
100
AcDbLine
 10
97.36633903195816
 20
319.1042415066738
 30
0.0
 11
95.22136575699772
 21
319.1042415066738
 31
0.0
  0
ARC
  5
362
330
2
100
AcDbEntity
  8
GAIKEI
  6
Continuous
100
AcDbCircle
 10
95.43595430427847
 20
295.4429193651749
 30
0.0
 40
17.37374768719144
100
AcDbArc
 50
63.25802342245765
 51
89.76319650598856
  0
LINE
  5
363
330
2
100
AcDbEntity
  8
GAIKEI
  6
Continuous
 62
     1
100
AcDbLine
 10
95.50775981034808
 20
312.1694969301214
 30
0.0
 11
100.1336890415765
 21
312.1694969301214
 31
0.0
  0
ARC
  5
364
330
2
100
AcDbEntity
  8
GAIKEI
  6
Continuous
 62
     1
100
AcDbCircle
 10
92.85509059748397
 20
289.0362944741127
 30
0.0
 40
25.16469880486312
100
AcDbArc
 50
62.28788463006452
 51
83.94907756905812
  0
ARC
  5
365
330
2
100
AcDbEntity
  8
GAIKEI
  6
Continuous
100
AcDbCircle
 10
91.8633283599682
 20
290.0787834820956
 30
0.0
 40
25.11057828306098
100
AcDbArc
 50
58.86512472036947
 51
81.65488549297689
  0
LINE
  5
366
330
2
100
AcDbEntity
  8
GAIKEI
  6
Continuous
 62
     1
100
AcDbLine
 10
93.84616562066112
 20
309.372208724911
 30
0.0
 11
93.84616562066112
 21
314.9984570601872
 31
0.0
  0
LINE
  5
367
330
2
100
AcDbEntity
  8
GAIKEI
  6
Continuous
 62
     1
100
AcDbLine
 10
94.71019455368702
 20
309.5493881372509
 30
0.0
 11
94.71019455368702
 21
315.0847242753789
 31
0.0
  0
LINE
  5
368
330
2
100
AcDbEntity
  8
GAIKEI
  6
Continuous
 62
     1
100
AcDbLine
 10
92.8456761679693
 20
309.1960884045722
 30
0.0
 11
92.8456761679693
 21
314.4979440916626
 31
0.0
  0
LINE
  5
369
330
2
100
AcDbEntity
  8
GAIKEI
  6
Continuous
100
AcDbLine
 10
95.50775981034808
 20
309.682272590348
 30
0.0
 11
95.50775981034808
 21
315.1820473420209
 31
0.0
  0
LINE
  5
36A
330
2
100
AcDbEntity
  8
GAIKEI
  6
Continuous
100
AcDbLine
 10
89.97062642714736
 20
308.6710095922259
 30
0.0
 11
95.50775981034808
 21
309.682272590348
 31
0.0
  0
LINE
  5
36B
330
2
100
AcDbEntity
  8
GAIKEI
  6
Continuous
100
AcDbLine
 10
91.90890059914041
 20
308.0450964517187
 30
0.0
 11
94.08005078124078
 21
309.4012679234924
 31
0.0
  0
LINE
  5
36C
330
2
100
AcDbEntity
  8
GAIKEI
  6
Continuous
100
AcDbLine
 10
90.55016434707459
 20
308.7768523115307
 30
0.0
 11
91.42149973565681
 21
308.0229489720973
 31
0.0
  0
ARC
  5
36D
330
2
100
AcDbEntity
  8
GAIKEI
  6
Continuous
100
AcDbCircle
 10
102.6784475911166
 20
313.2816343242405
 30
0.0
 40
13.51837930947683
100
AcDbArc
 50
187.4310129698116
 51
199.9416768372404
  0
LINE
  5
36E
330
2
100
AcDbEntity
  8
GAIKEI
  6
Continuous
100
AcDbLine
 10
91.42149973565681
 20
308.0229489720973
 30
0.0
 11
91.90890059914041
 21
308.0450964517187
 31
0.0
  0
ARC
  5
36F
330
2
100
AcDbEntity
  8
GAIKEI
  6
Continuous
 62
     1
100
AcDbCircle
 10
102.6784475911166
 20
313.2816343242405
 30
0.0
 40
13.09443930947683
100
AcDbArc
 50
187.4310129698116
 51
200.2552923410518
  0
LINE
  5
370
330
2
100
AcDbEntity
  8
GAIKEI
  6
Continuous
 62
     1
100
AcDbLine
 10
95.22136575699772
 20
319.1042415066738
 30
0.0
 11
95.22136575699772
 21
316.8645511436051
 31
0.0
  0
LINE
  5
371
330
2
100
AcDbEntity
  8
GAIKEI
  6
Continuous
 62
     1
100
AcDbLine
 10
93.81601254663172
 20
314.9951254336122
 30
0.0
 11
92.8456761679693
 21
314.4979440916626
 31
0.0
  0
ARC
  5
372
330
2
100
AcDbEntity
  8
GAIKEI
  6
Continuous
100
AcDbCircle
 10
103.4322368780435
 20
312.8693949971002
 30
0.0
 40
1.919313786450318
100
AcDbArc
 50
264.6619141443425
 51
317.480594161311
  0
LINE
  5
373
330
2
100
AcDbEntity
  8
GAIKEI
  6
Continuous
 62
     7
100
AcDbLine
 10
30.38334334421137
 20
339.5579504638564
 30
0.0
 11
58.95401960051414
 21
339.5579504638564
 31
0.0
  0
LINE
  5
374
330
2
100
AcDbEntity
  8
GAIKEI
  6
Continuous
 62
     1
100
AcDbLine
 10
26.31838147236272
 20
340.4140358808234
 30
0.0
 11
63.01838147236275
 21
340.4140358808232
 31
0.0
  0
LINE
  5
375
330
2
100
AcDbEntity
  8
GAIKEI
  6
Continuous
 62
     1
100
AcDbLine
 10
26.31838147236272
 20
342.8002852641013
 30
0.0
 11
63.01838147236275
 21
342.8002852641013
 31
0.0
  0
LINE
  5
376
330
2
100
AcDbEntity
  8
GAIKEI
  6
Continuous
100
AcDbLine
 10
26.81838147236272
 20
343.3710084507816
 30
0.0
 11
62.51838147236275
 21
343.3710084507816
 31
0.0
  0
DIMENSION
  5
377
330
2
100
AcDbEntity
  8
SUNPO
100
AcDbDimension
  2
*D5
 10
63.01838147236275
 20
351.3663423806993
 30
0.0
 11
44.66838147236273
 21
353.1163423806993
 31
0.0
 70
    33
  1
367
 71
     5
 42
36.70000000000003
  3
STANDARD
100
AcDbAlignedDimension
 13
26.31838147236272
 23
343.3663423806994
 33
0.0
 14
63.01838147236275
 24
343.3663423806994
 34
0.0
1001
ACAD
1000
DSTYLE
1002
{
1070
    40
1040
1.0
1070
   140
1040
2.5
1070
   147
1040
0.5
1070
   172
1070
     1
1070
   288
1070
     0
1002
}
  0
ARC
  5
384
330
2
100
AcDbEntity
  8
GAIKEI
  6
Continuous
100
AcDbCircle
 10
26.81838147236272
 20
342.8710084507816
 30
0.0
 40
0.5
100
AcDbArc
 50
90.0
 51
180.0
  0
LINE
  5
385
330
2
100
AcDbEntity
  8
GAIKEI
  6
Continuous
 62
     1
100
AcDbLine
 10
29.50165328367064
 20
340.4140358808234
 30
0.0
 11
30.38334334421137
 21
339.5579504638564
 31
0.0
  0
LINE
  5
386
330
2
100
AcDbEntity
  8
GAIKEI
  6
Continuous
 62
     1
100
AcDbLine
 10
29.50165328367064
 20
340.4140358808234
 30
0.0
 11
29.50165328367064
 21
343.3710084507816
 31
0.0
  0
ARC
  5
387
330
2
100
AcDbEntity
  8
GAIKEI
  6
Continuous
 62
     1
100
AcDbCircle
 10
29.50165328367064
 20
339.9140358808232
 30
0.0
 40
0.5
100
AcDbArc
 50
90.0
 51
180.0
  0
LINE
  5
388
330
2
100
AcDbEntity
  8
GAIKEI
  6
Continuous
 62
     1
100
AcDbLine
 10
59.83510966105472
 20
340.4140358808232
 30
0.0
 11
58.95401960051414
 21
339.5579504638564
 31
0.0
  0
ARC
  5
389
330
2
100
AcDbEntity
  8
GAIKEI
  6
Continuous
100
AcDbCircle
 10
62.51838147236275
 20
342.8710084507816
 30
0.0
 40
0.5
100
AcDbArc
 50
0.0
 51
90.0
  0
LINE
  5
38A
330
2
100
AcDbEntity
  8
GAIKEI
  6
Continuous
 62
     1
100
AcDbLine
 10
59.83510966105472
 20
340.4140358808232
 30
0.0
 11
59.83510966105472
 21
343.3710084507816
 31
0.0
  0
ARC
  5
38B
330
2
100
AcDbEntity
  8
GAIKEI
  6
Continuous
 62
     1
100
AcDbCircle
 10
59.83510966105472
 20
339.9140358808232
 30
0.0
 40
0.5
100
AcDbArc
 50
0.0
 51
90.0
  0
DIMENSION
  5
38C
330
2
100
AcDbEntity
  8
SUNPO
100
AcDbDimension
  2
*D4
 10
97.36633903195816
 20
351.3663423806993
 30
0.0
 11
93.31997204377916
 21
353.1163423806993
 31
0.0
 70
    33
  1
81
 71
     5
 42
8.09273397635799
  3
STANDARD
100
AcDbAlignedDimension
 13
89.27360505560017
 23
343.3663423806994
 33
0.0
 14
97.36633903195816
 24
343.3663423806994
 34
0.0
1001
ACAD
1000
DSTYLE
1002
{
1070
    40
1040
1.0
1070
   140
1040
2.5
1070
   147
1040
0.5
1070
   172
1070
     1
1070
   288
1070
     0
1002
}
  0
LINE
  5
399
330
2
100
AcDbEntity
  8
GAIKEI
  6
Continuous
100
AcDbLine
 10
98.83516153547949
 20
323.950441005236
 30
0.0
 11
98.83516153547949
 21
336.8962615524711
 31
0.0
  0
LINE
  5
39A
330
2
100
AcDbEntity
  8
GAIKEI
  6
Continuous
100
AcDbLine
 10
97.36633903195816
 20
323.950441005236
 30
0.0
 11
98.83516153547949
 21
323.950441005236
 31
0.0
  0
LINE
  5
39B
330
2
100
AcDbEntity
  8
GAIKEI
  6
Continuous
100
AcDbLine
 10
93.8855327516306
 20
342.607426776325
 30
0.0
 11
97.36633903195816
 21
338.6347970258215
 31
0.0
  0
ARC
  5
39C
330
2
100
AcDbEntity
  8
GAIKEI
  6
Continuous
100
AcDbCircle
 10
105.0397189103081
 20
336.3536829848466
 30
0.0
 40
7.69444641911095
100
AcDbArc
 50
131.9926150320318
 51
175.7592302666878
  0
LINE
  5
39D
330
2
100
AcDbEntity
  8
GAIKEI
  6
Continuous
 62
     1
100
AcDbLine
 10
92.56605368533092
 20
341.9587434592485
 30
0.0
 11
97.36633903195816
 21
338.4188274766181
 31
0.0
  0
LINE
  5
39E
330
2
100
AcDbEntity
  8
GAIKEI
  6
Continuous
100
AcDbLine
 10
91.82920507861586
 20
343.1771669422158
 30
0.0
 11
92.56605368533092
 21
343.1771669422158
 31
0.0
  0
ARC
  5
39F
330
2
100
AcDbEntity
  8
GAIKEI
  6
Continuous
 62
     1
100
AcDbCircle
 10
91.33184126697443
 20
344.5338334513665
 30
0.0
 40
2.370308712735984
100
AcDbArc
 50
226.6483494814716
 51
282.1124378245565
  0
ARC
  5
3A0
330
2
100
AcDbEntity
  8
GAIKEI
  6
Continuous
100
AcDbCircle
 10
91.33184126697443
 20
345.0945884250724
 30
0.0
 40
2.370308712735984
100
AcDbArc
 50
226.6483494814716
 51
282.1124378245565
  0
LINE
  5
3A1
330
2
100
AcDbEntity
  8
GAIKEI
  6
Continuous
100
AcDbLine
 10
89.27360505560017
 20
343.3710084507816
 30
0.0
 11
89.70468563031984
 21
343.3710084507816
 31
0.0
  0
LINE
  5
3A2
330
2
100
AcDbEntity
  8
GAIKEI
  6
Continuous
100
AcDbLine
 10
92.56605368533092
 20
342.607426776325
 30
0.0
 11
93.8855327516306
 21
342.607426776325
 31
0.0
  0
LINE
  5
3A3
330
2
100
AcDbEntity
  8
GAIKEI
  6
Continuous
 62
     1
100
AcDbLine
 10
99.31135073396335
 20
341.4908323629367
 30
0.0
 11
100.7985147123666
 21
341.4908323629367
 31
0.0
  0
LINE
  5
3A4
330
2
100
AcDbEntity
  8
GAIKEI
  6
Continuous
100
AcDbLine
 10
99.89186637089728
 20
342.0724345906651
 30
0.0
 11
101.556176714737
 21
342.0724345906651
 31
0.0
  0
ARC
  5
3A5
330
2
100
AcDbEntity
  8
GAIKEI
  6
Continuous
100
AcDbCircle
 10
104.7991353771516
 20
337.0634734047448
 30
0.0
 40
5.967115974085487
100
AcDbArc
 50
122.9202867083141
 51
181.8594593625033
  0
TEXT
  5
3A6
330
2
100
AcDbEntity
  8
TOUROKU
100
AcDbText
 10
110.9999500329273
 20
360.4992141396417
 30
0.0
 40
2.0
  1
ＴＨ１４ＬＡ２
 72
     2
 11
126.9999500329273
 21
360.4992141396417
 31
0.0
100
AcDbText
  0
LINE
  5
3AA
330
2
100
AcDbEntity
  8
WAKU
 62
     1
100
AcDbLine
 10
2.0
 20
262.4992141396415
 30
0.0
 11
127.0
 21
262.4992141396415
 31
0.0
  0
LINE
  5
3AC
330
2
100
AcDbEntity
  8
WAKU
 62
     4
100
AcDbLine
 10
127.0
 20
257.4992141396415
 30
0.0
 11
2.0
 21
257.4992141396415
 31
0.0
  0
LINE
  5
3AD
330
2
100
AcDbEntity
  8
WAKU
 62
     1
100
AcDbLine
 10
2.0
 20
277.4992141396415
 30
0.0
 11
127.0
 21
277.4992141396415
 31
0.0
  0
LINE
  5
3AE
330
2
100
AcDbEntity
  8
WAKU
 62
     4
100
AcDbLine
 10
2.0
 20
292.4992141396415
 30
0.0
 11
127.0
 21
292.4992141396415
 31
0.0
  0
LINE
  5
3AF
330
2
100
AcDbEntity
  8
WAKU
 62
     1
100
AcDbLine
 10
2.0
 20
287.4992141396415
 30
0.0
 11
127.0
 21
287.4992141396415
 31
0.0
  0
LINE
  5
3B0
330
2
100
AcDbEntity
  8
WAKU
 62
     1
100
AcDbLine
 10
2.0
 20
282.4992141396415
 30
0.0
 11
127.0
 21
282.4992141396415
 31
0.0
  0
LINE
  5
3B1
330
2
100
AcDbEntity
  8
WAKU
 62
     1
100
AcDbLine
 10
2.0
 20
272.4992141396415
 30
0.0
 11
127.0
 21
272.4992141396415
 31
0.0
  0
LINE
  5
3B2
330
2
100
AcDbEntity
  8
WAKU
 62
     1
100
AcDbLine
 10
2.0
 20
267.4992141396415
 30
0.0
 11
127.0
 21
267.4992141396415
 31
0.0
  0
LINE
  5
3B3
330
2
100
AcDbEntity
  8
WAKU
 62
     4
100
AcDbLine
 10
42.0
 20
292.4992141396415
 30
0.0
 11
42.0
 21
257.4992141396415
 31
0.0
  0
LINE
  5
3B4
330
2
100
AcDbEntity
  8
WAKU
 62
     4
100
AcDbLine
 10
2.0
 20
292.4992141396415
 30
0.0
 11
2.0
 21
257.4992141396415
 31
0.0
  0
TEXT
  5
3B5
330
2
100
AcDbEntity
  8
MOJI1
100
AcDbText
 10
4.5
 20
258.4992141396415
 30
0.0
 40
3.0
  1
音声最大出力
100
AcDbText
  0
TEXT
  5
3B6
330
2
100
AcDbEntity
  8
MOJI1
100
AcDbText
 10
4.5
 20
288.624333090757
 30
0.0
 40
3.0
  1
電　源
100
AcDbText
  0
TEXT
  5
3B7
330
2
100
AcDbEntity
  8
MOJI1
100
AcDbText
 10
4.5
 20
278.4992141396415
 30
0.0
 40
3.0
  1
パネルサイズ
100
AcDbText
  0
TEXT
  5
3B8
330
2
100
AcDbEntity
  8
MOJI1
100
AcDbText
 10
4.5
 20
273.4992141396415
 30
0.0
 40
3.0
  1
画素数
100
AcDbText
  0
TEXT
  5
3B9
330
2
100
AcDbEntity
  8
MOJI1
100
AcDbText
 10
4.5
 20
263.4992141396415
 30
0.0
 40
3.0
  1
出　力
100
AcDbText
  0
TEXT
  5
3BA
330
2
100
AcDbEntity
  8
MOJI1
100
AcDbText
 10
4.5
 20
268.4992141396415
 30
0.0
 40
3.0
  1
入　力
100
AcDbText
  0
LINE
  5
3BC
330
2
100
AcDbEntity
  8
WAKU
 62
     4
100
AcDbLine
 10
127.0
 20
292.4992141396415
 30
0.0
 11
127.0
 21
257.4992141396415
 31
0.0
  0
TEXT
  5
3F7
330
2
100
AcDbEntity
  8
MOJI1
370
     0
100
AcDbText
 10
44.49999999999999
 20
258.4992141396416
 30
0.0
 40
3.0
  1
６Ｗ
100
AcDbText
  0
TEXT
  5
3F8
330
2
100
AcDbEntity
  8
MOJI1
370
     0
100
AcDbText
 10
44.5
 20
263.4992141396415
 30
0.0
 40
3.0
  1
ヘッドホン、イヤホン
100
AcDbText
  0
TEXT
  5
3F9
330
2
100
AcDbEntity
  8
MOJI1
370
     0
100
AcDbText
 10
44.5
 20
268.4992141396415
 30
0.0
 40
3.0
  1
ビデオ×２／Ｄ２×１／Ｓ１×２
100
AcDbText
  0
TEXT
  5
3FA
330
2
100
AcDbEntity
  8
MOJI1
370
     0
100
AcDbText
 10
44.5
 20
273.4992141396415
 30
0.0
 40
3.0
  1
水平６４０×３（ＲＧＢ）×垂直４８０
100
AcDbText
  0
TEXT
  5
3FB
330
2
100
AcDbEntity
  8
MOJI1
370
     0
100
AcDbText
 10
44.5
 20
278.4992141396415
 30
0.0
 40
3.0
  1
１４Ｖ型ＴＦＴカラー液晶パネル
100
AcDbText
  0
TEXT
  5
3FC
330
2
100
AcDbEntity
  8
MOJI1
370
     0
100
AcDbText
 10
44.5
 20
283.5555000452573
 30
0.0
 40
3.0
  1
専用ＡＣアダプター使用
100
AcDbText
  0
TEXT
  5
3FD
330
2
100
AcDbEntity
  8
MOJI1
370
     0
100
AcDbText
 10
44.5
 20
288.5555000452573
 30
0.0
 40
3.0
  1
ＡＣ１００Ｖ　５０／６０Ｈｚ 
100
AcDbText
  0
ENDSEC
  0
SECTION
  2
OBJECTS
  0
DICTIONARY
  5
316
330
0
100
AcDbDictionary
281
     1
  3
ACAD_COLOR
350
3EA
  3
ACAD_GROUP
350
314
  3
ACAD_LAYOUT
350
3C1
  3
ACAD_MATERIAL
350
3EC
  3
ACAD_MLINESTYLE
350
315
  3
ACAD_PLOTSETTINGS
350
3CC
  3
ACAD_PLOTSTYLENAME
350
3CE
  3
ACDBHEADERROUNDTRIPXREC
350
426
  3
AcDbVariableDictionary
350
422
  0
DICTIONARY
  5
F
330
E
100
AcDbDictionary
280
     1
281
     1
  3
ACAD_LAYERFILTERS
360
10
  3
ACAD_LAYERSTATES
360
306
  0
DICTIONARY
  5
3
330
2
100
AcDbDictionary
280
     1
281
     1
  3
ACAD_LAYOUTSELFREF
360
4
  0
DICTIONARY
  5
A
330
9
100
AcDbDictionary
280
     1
281
     1
  3
ACAD_LAYOUTSELFREF
360
B
  0
DICTIONARY
  5
3EA
102
{ACAD_REACTORS
330
316
102
}
330
316
100
AcDbDictionary
281
     1
  0
DICTIONARY
  5
314
102
{ACAD_REACTORS
330
316
102
}
330
316
100
AcDbDictionary
281
     1
  0
DICTIONARY
  5
3C1
102
{ACAD_REACTORS
330
316
102
}
330
316
100
AcDbDictionary
281
     1
  3
Model
350
3F4
  3
レイアウト1
350
3F5
  0
DICTIONARY
  5
3EC
102
{ACAD_REACTORS
330
316
102
}
330
316
100
AcDbDictionary
281
     1
  0
DICTIONARY
  5
315
102
{ACAD_REACTORS
330
316
102
}
330
316
100
AcDbDictionary
281
     1
  3
STANDARD
350
31A
  0
DICTIONARY
  5
3CC
102
{ACAD_REACTORS
330
316
102
}
330
316
100
AcDbDictionary
281
     1
  0
ACDBDICTIONARYWDFLT
  5
3CE
102
{ACAD_REACTORS
330
316
102
}
330
316
100
AcDbDictionary
281
     1
  3
NORMAL
350
3CF
100
AcDbDictionaryWithDefault
340
3CF
  0
DICTIONARY
  5
426
102
{ACAD_REACTORS
330
316
102
}
330
316
100
AcDbDictionary
281
     1
  3
COLORDICT
350
428
  3
MATERIALDICT
350
427
  0
DICTIONARY
  5
422
102
{ACAD_REACTORS
330
316
102
}
330
316
100
AcDbDictionary
281
     1
  3
DIMASSOC
350
423
  3
PROJECTNAME
350
424
  0
DICTIONARY
  5
10
102
{ACAD_REACTORS
330
F
102
}
330
F
100
AcDbDictionary
280
     1
281
     1
  3
$
360
19
  3
$0$
360
1A
  3
$0$各住戸番号
360
1B
  3
$0$想定住戸
360
1C
  3
-100
360
13
  3
-2
360
14
  3
-50
360
15
  3
-b
360
16
  3
-H
360
17
  3
-T
360
18
  3
0
360
1E
  3
0-
360
1F
  3
00
360
20
  3
0000SUNP100
360
21
  3
0002
360
22
  3
003
360
23
  3
003-HOU
360
24
  3
003hari
360
25
  3
00HEDATE
360
26
  3
01
360
27
  3
01234
360
28
  3
01KUTAI
360
29
  3
02
360
2A
  3
03
360
2B
  3
04
360
2C
  3
05
360
2D
  3
06
360
2E
  3
06siki
360
2F
  3
06siki2
360
30
  3
0DL
360
31
  3
0HARI
360
32
  3
0HARI00
360
33
  3
0HIGH
360
34
  3
0HOU-HIGH
360
35
  3
0HOU-LOW
360
36
  3
0HOU-TOP
360
37
  3
0LOW
360
38
  3
0MEMO
360
39
  3
0SETUBI
360
3A
  3
0SILID
360
3B
  3
0SOLID
360
3C
  3
0TOP
360
3D
  3
0床内
360
3E
  3
0床壁
360
3F
  3
0詳細図
360
40
  3
0総合図off
360
41
  3
0総合図枠
360
42
  3
0平詳枠
360
43
  3
1
360
44
  3
1-30
360
46
  3
10
360
49
  3
100
360
4A
  3
10630 fp
360
4B
  3
11
360
4C
  3
1111
360
4D
  3
12
360
4E
  3
161
360
4F
  3
19
360
50
  3
1F
360
51
  3
1階
360
53
  3
1階平称
360
54
  3
1床
360
55
  3
1芯
360
56
  3
1芯線
360
57
  3
2
360
58
  3
200
360
59
  3
21
360
5A
  3
250
360
5B
  3
2KSIN
360
5C
  3
2TSIN
360
5D
  3
2躯体
360
5E
  3
2選択
360
5F
  3
2選択画層
360
60
  3
2断面
360
61
  3
2壁
360
62
  3
3
360
63
  3
30
360
64
  3
300
360
65
  3
32
360
66
  3
333
360
67
  3
3D
360
68
  3
3D1
360
69
  3
3HARI
360
6A
  3
3HARI-SIZE
360
6B
  3
3KABE
360
6C
  3
3siag-n
360
6D
  3
3suga-n
360
6E
  3
3開口
360
6F
  3
3見掛り
360
70
  3
3天井内
360
71
  3
4
360
72
  3
41
360
73
  3
4EISEI
360
74
  3
4SUGA
360
75
  3
4suga5
360
76
  3
4tate161
360
77
  3
4TATE161T
360
78
  3
4tate3
360
79
  3
4仕上げ
360
7B
  3
4天井
360
7C
  3
5
360
7D
  3
50
360
7E
  3
50off
360
7F
  3
50詳細図
360
80
  3
51-52
360
81
  3
524M
360
82
  3
555
360
83
  3
5KIGO
360
84
  3
5KOGO200
360
85
  3
5LEVEL
360
86
  3
5MOJI
360
87
  3
5寸法
360
89
  3
5文字
360
8A
  3
6
360
8B
  3
600
360
8C
  3
66-躯体図
360
8D
  3
66躯体図
360
8E
  3
6AREA
360
8F
  3
6AREA-ROOM
360
90
  3
6記号
360
92
  3
6文字
360
93
  3
6保留
360
94
  3
7
360
95
  3
74
360
97
  3
7_9$0$バルコニー
360
96
  3
7記号
360
98
  3
8
360
99
  3
8 12
360
9B
  3
8-9
360
9A
  3
8.9
360
9C
  3
89
360
9D
  3
8COLOR
360
9E
  3
8TITL
360
9F
  3
8寸法
360
A0
  3
8設備
360
A1
  3
9
360
A2
  3
9MEMO
360
A3
  3
9SETUBI
360
A4
  3
9文字
360
A5
  3
9目地
360
A6
  3
_
360
1D
  3
A
360
A7
  3
A(枠･表)を表示
360
A9
  3
A-
360
A8
  3
A1
360
AA
  3
A21
360
AB
  3
A3
360
AC
  3
aa
360
AD
  3
aaa
360
AE
  3
AB棟
360
AF
  3
Active
360
B1
  3
agence
360
B2
  3
Agua_sucia
360
B3
  3
ALC
360
B4
  3
AMENAGEMENT
360
B5
  3
aoi
360
B6
  3
AR
360
B7
  3
AREA
360
B8
  3
AREA-SG
360
B9
  3
ARS
360
BA
  3
AS1
360
BB
  3
aハッチング
360
BC
  3
A空調
360
BD
  3
A選択画層
360
BE
  3
b
360
BF
  3
B(基準)を表示
360
C0
  3
B1F見上げ図
360
C1
  3
BAL
360
C2
  3
baru
360
C3
  3
baru2
360
C4
  3
BASE
360
C5
  3
beam
360
C6
  3
blue
360
C7
  3
b階段
360
C8
  3
B住戸
360
C9
  3
B電気
360
CA
  3
c
360
CB
  3
C(寸･文･記)を表示
360
CC
  3
CABINETRY
360
CD
  3
Calles
360
CE
  3
CASTellano
360
CF
  3
cc
360
D0
  3
ceiling
360
D2
  3
CEILING LAYOUT
360
D3
  3
CEL
360
D4
  3
che
360
D5
  3
CHIIKI
360
D6
  3
CLG
360
D7
  3
clng
360
D8
  3
COA
360
D9
  3
colu
360
DA
  3
com
360
DB
  3
conm
360
DC
  3
cotas
360
DD
  3
CRG
360
DE
  3
cyan
360
DF
  3
C衛生
360
E0
  3
c雑金物
360
E1
  3
C打計画図
360
E2
  3
C棟R部
360
E3
  3
D
360
E4
  3
D(表現補助)を表示
360
E6
  3
d-dims-vp
360
E5
  3
daichi
360
E7
  3
DASHED
360
E8
  3
DASHED2
360
E9
  3
DD
360
EA
  3
DD2
360
EB
  3
DEMO
360
EC
  3
DETAILS
360
ED
  3
dim
360
EE
  3
Dimension
360
EF
  3
door
360
F0
  3
DOORS
360
F1
  3
DR
360
F2
  3
Drow1
360
F3
  3
d外構
360
F4
  3
E
360
F5
  3
E(点線系)を表示
360
F6
  3
EEEE
360
F7
  3
EISEI
360
F8
  3
ele
360
F9
  3
ELECTRICAL
360
FA
  3
ELEVATIONS
360
FB
  3
ELV
360
FC
  3
ERAS1F
360
FD
  3
ESE-M
360
FE
  3
F
360
FF
  3
F(断面)を表示
360
100
  3
face4
360
101
  3
feaze
360
102
  3
FENCE
360
103
  3
ff
360
104
  3
fini
360
105
  3
FLOOR PLAN
360
106
  3
fp2-base
360
107
  3
freaze
360
108
  3
FREEZE
360
109
  3
Frozen
360
10A
  3
FROZENN
360
10B
  3
Fugou
360
10C
  3
FUGOU-TATEGU
360
10D
  3
FUKI
360
10E
  3
FURN
360
10F
  3
furn-hide
360
110
  3
FUSE_00
360
111
  3
G
360
112
  3
G(開口)を表示
360
113
  3
GAIKOU
360
114
  3
Germinaci\U+00F3n
360
115
  3
GHERZI
360
116
  3
GLAZING
360
117
  3
gon
360
118
  3
gondora
360
119
  3
green
360
11A
  3
GRID
360
11B
  3
H
360
11C
  3
H(見掛)を表示
360
11F
  3
H-
360
11D
  3
H-SIN
360
11E
  3
HAISEN
360
120
  3
HARI
360
121
  3
HASI
360
122
  3
HASIRA
360
123
  3
hat
360
124
  3
hatch
360
125
  3
HEDATE
360
126
  3
HEISHO
360
127
  3
HEISHO2
360
128
  3
hi
360
129
  3
HIDDEN
360
12A
  3
HM
360
12B
  3
HOIKU
360
12C
  3
HOJO
360
12D
  3
hollywood
360
12E
  3
HOTEL
360
12F
  3
HOU
360
130
  3
houki
360
131
  3
huse
360
132
  3
HY
360
133
  3
HY M1-1
360
134
  3
HYOKI
360
135
  3
HYOUKI
360
136
  3
i
360
137
  3
I(二次部材系))を表示
360
138
  3
I2
360
139
  3
i2cl
360
13A
  3
i5
360
13B
  3
i9
360
13C
  3
IEL
360
13D
  3
ims
360
13E
  3
INSERT図
360
13F
  3
irc
360
140
  3
iro
360
141
  3
j
360
142
  3
JYUUKO
360
143
  3
K
360
144
  3
KABE
360
145
  3
KABESHIN
360
146
  3
KAGU
360
147
  3
KARI
360
148
  3
KDA
360
149
  3
KDA天伏
360
14A
  3
KDA平詳
360
14B
  3
key
360
14C
  3
keyplan
360
14D
  3
KIGO
360
14E
  3
kijun
360
14F
  3
KJMDBCAD
360
150
  3
KSIN
360
151
  3
kui
360
152
  3
kutai
360
153
  3
L
360
154
  3
level
360
155
  3
level-3 arch
360
156
  3
LGS
360
157
  3
LIST
360
158
  3
LOCK
360
159
  3
Locked
360
15A
  3
LS
360
15B
  3
m
360
15D
  3
MA
360
15E
  3
magenta
360
15F
  3
maji
360
160
  3
MAJIKIRI
360
161
  3
mazenda
360
162
  3
MB
360
163
  3
MECHANICAL
360
164
  3
meji
360
165
  3
MEMO
360
166
  3
men
360
167
  3
men-s
360
168
  3
MI-1
360
169
  3
MI-2
360
16A
  3
MI-3
360
16B
  3
MI-4
360
16C
  3
MI-5
360
16D
  3
MI-6
360
16E
  3
MI-7
360
16F
  3
miwa
360
170
  3
MOJI
360
171
  3
MOJI-TYPE
360
172
  3
MOJI100
360
173
  3
MOJI200
360
174
  3
moji400
360
175
  3
MOJI50
360
176
  3
MV
360
177
  3
N
360
178
  3
naka
360
179
  3
new
360
17A
  3
New Doors
360
17B
  3
New Walls
360
17C
  3
NHK
360
17D
  3
nic
360
17E
  3
NOJI100
360
17F
  3
not plot
360
180
  3
note
360
181
  3
NUAGE
360
182
  3
o
360
183
  3
OF
360
184
  3
off
360
185
  3
off文字
360
186
  3
on
360
187
  3
ON-THAWED
360
188
  3
onlayers
360
189
  3
option 1
360
18A
  3
option 2
360
18B
  3
OUTLINE
360
18C
  3
p
360
18D
  3
p1
360
18E
  3
p2
360
18F
  3
p3
360
190
  3
p4
360
191
  3
PALFOND
360
192
  3
paredees
360
193
  3
Pasarelas
360
194
  3
PATT
360
195
  3
PC
360
196
  3
pen1
360
197
  3
pen2
360
198
  3
pen3
360
199
  3
pen4
360
19A
  3
pen5
360
19B
  3
PLAN
360
19C
  3
plot
360
19D
  3
PLUMBING
360
19E
  3
Q
360
19F
  3
r
360
1A0
  3
RAM
360
1A1
  3
RC
360
1A2
  3
RCP
360
1A3
  3
RCP-PLAN
360
1A4
  3
red
360
1A5
  3
Remojo
360
1A6
  3
RF
360
1A7
  3
riser locs
360
1A8
  3
riser locs less dims
360
1A9
  3
rk
360
1AA
  3
rm
360
1AB
  3
ROOF
360
1AC
  3
S
360
1AD
  3
saciencewold
360
1AE
  3
SANGYO
360
1AF
  3
SECTION
360
1B0
  3
SETUBI
360
1B1
  3
SHITU
360
1B2
  3
SHITUMEI
360
1B3
  3
Show all on
360
1B4
  3
SIAG
360
1B5
  3
SIAG-N
360
1B6
  3
SIAG3
360
1B7
  3
siage
360
1B8
  3
sin
360
1B9
  3
SIN-M
360
1BA
  3
Sinm
360
1BB
  3
sinsei
360
1BC
  3
SITA
360
1BD
  3
site
360
1BE
  3
SNK
360
1BF
  3
SOLID
360
1C0
  3
sonota
360
1C1
  3
sp
360
1C2
  3
SS
360
1C3
  3
STA
360
1C4
  3
STAIRS
360
1C5
  3
SUGA
360
1C6
  3
SUGA5
360
1C7
  3
SUNP
360
1C8
  3
SUNP100
360
1C9
  3
sunp400
360
1CA
  3
SUNP50
360
1CB
  3
SYOU
360
1CC
  3
t
360
1CD
  3
T\U+00FAnel
360
1CE
  3
tabata
360
1CF
  3
TAITORU
360
1D0
  3
TAKASA
360
1D1
  3
TATE
360
1D2
  3
TATE161
360
1D3
  3
TATEGU
360
1D4
  3
tca
360
1D5
  3
ten
360
1D6
  3
TENJYOU
360
1D7
  3
TENJYOUNAI
360
1D8
  3
test
360
1D9
  3
test1024
360
1DA
  3
test1115
360
1DB
  3
test2
360
1DC
  3
TESURI
360
1DD
  3
TEXT
360
1DE
  3
thawed
360
1DF
  3
Tile
360
1E0
  3
TITL
360
1E1
  3
tnjyou
360
1E2
  3
tori
360
1E3
  3
TORISHIN
360
1E4
  3
Tostaci\U+00F3n
360
1E5
  3
toto
360
1E6
  3
Transporte_proceso
360
1E7
  3
Transporte_silo
360
1E8
  3
TSIN
360
1E9
  3
ttg
360
1EA
  3
txt
360
1EB
  3
type
360
1EC
  3
unlocked
360
1ED
  3
UNROCK
360
1EE
  3
VOID
360
1EF
  3
wada
360
1F0
  3
waku
360
1F1
  3
wal
360
1F2
  3
wall
360
1F3
  3
WALLS
360
1F4
  3
wblock
360
1F5
  3
WIN161
360
1F6
  3
W選択
360
1F7
  3
W選択画層
360
1F8
  3
X
360
1F9
  3
X(敷地)を表示
360
1FA
  3
xref
360
1FB
  3
xref5-arch
360
1FC
  3
xrefsection
360
1FD
  3
YAJI
360
1FE
  3
yellow
360
1FF
  3
YUKA
360
200
  3
yその他
360
202
  3
yスリーブ
360
201
  3
z
360
203
  3
z only
360
218
  3
z-
360
204
  3
z-CABINETRY
360
205
  3
z-siki
360
206
  3
z-tsin
360
207
  3
z-WALLS
360
208
  3
z_AREA
360
209
  3
z_AREA_ROOM
360
20A
  3
z_EISEI
360
20B
  3
z_fence
360
20C
  3
z_hari
360
20D
  3
z_hasi
360
20E
  3
z_hedate
360
20F
  3
z_KABE
360
210
  3
z_KSIN
360
211
  3
z_LIST
360
212
  3
z_MEJI
360
213
  3
z_memo
360
214
  3
z_MOJI100
360
215
  3
z_MV
360
216
  3
z_off
360
217
  3
z_OPEN
360
219
  3
z_siag
360
21A
  3
z_SUGA
360
21B
  3
z_SUGA5
360
21C
  3
z_SUNP100
360
21D
  3
z_TATE
360
21E
  3
z_tate3
360
21F
  3
z_tesuri
360
220
  3
z_TESURI-OFF
360
221
  3
z_tisn
360
222
  3
z_TITL
360
223
  3
z_TSIN
360
224
  3
z_win
360
225
  3
ZATU
360
226
  3
zm
360
227
  3
zzz-1
360
228
  3
Z画層選択
360
229
  3
z図枠
360
22A
  3
ﾃｷｽﾄのみ表示
360
240
  3
ﾌﾘｰｽﾞ
360
246
  3
ﾌﾘｰｽﾞ画層
360
247
  3
ﾌﾘｰｽﾞ画層非表示
360
248
  3
ﾌﾘｰｽﾞ画面非表示
360
249
  3
ﾌﾘｰｽﾞ解除
360
24A
  3
１
360
45
  3
１／１００
360
47
  3
１／１００用
360
48
  3
１Ｆ床伏OFF
360
52
  3
４階平面詳細図
360
7A
  3
５階平面詳細図
360
88
  3
６階平面詳細図
360
91
  3
ＡＢ棟
360
B0
  3
ＣＤ棟
360
D1
  3
Ｌ建具
360
15C
  3
さーくる
360
234
  3
すべて非表示
360
238
  3
その他
360
23C
  3
その他仕上げ
360
23D
  3
アートフロント
360
22B
  3
アートワーク
360
22C
  3
アネックス
360
22D
  3
インサート
360
22E
  3
インフラ
360
22F
  3
カラー用
360
230
  3
ガラス
360
231
  3
キ-プラン
360
232
  3
キープラン
360
233
  3
サンプル
360
235
  3
シェルター
360
236
  3
シンボル
360
237
  3
スリーブ
360
239
  3
スリーブ50-60
360
23A
  3
スリーブ印刷用
360
23B
  3
タイル割付平面図
360
23E
  3
ディテール
360
23F
  3
デッキ
360
241
  3
ハッチ-G
360
242
  3
ハッチ-k
360
243
  3
ハッチング
360
244
  3
フリーズ
360
245
  3
フリーズON
360
24B
  3
フリーズレイヤを非表示
360
24C
  3
フリーズ以外を表示
360
24D
  3
フリーズ画層
360
24E
  3
フリーズ画層のみ
360
24F
  3
マーク
360
250
  3
メタル天井
360
251
  3
ルート比較図
360
252
  3
ロック
360
253
  3
ロック画層
360
254
  3
一括非表示
360
255
  3
印刷不可を表示
360
256
  3
雨水
360
257
  3
荏原機器
360
258
  3
荏原機器基礎
360
259
  3
衛生設備図
360
25A
  3
黄色
360
25B
  3
屋根
360
25C
  3
下地
360
25D
  3
仮設
360
25E
  3
家具
360
25F
  3
外構
360
260
  3
外構図
360
261
  3
外部躯体図
360
262
  3
外部参照－建築
360
263
  3
外部参照除く
360
264
  3
外部電気
360
265
  3
外部平詳図
360
266
  3
各住戸
360
267
  3
確認
360
268
  3
確認-2
360
269
  3
確認2
360
26A
  3
割り付け平面図
360
26B
  3
幹線
360
26C
  3
潅水平面
360
26D
  3
基
360
26E
  3
基準
360
26F
  3
基準階
360
270
  3
基礎OFF
360
271
  3
基礎伏
360
272
  3
基礎伏図
360
273
  3
既存杭
360
274
  3
機器
360
275
  3
機器基礎
360
276
  3
記号
360
277
  3
区画
360
278
  3
躯体
360
279
  3
躯体図
360
27A
  3
空調設備図
360
27B
  3
郡川
360
27C
  3
型枠計画図
360
27D
  3
計画平面
360
27E
  3
計画平面図
360
27F
  3
建具
360
280
  3
建築
360
281
  3
建築図
360
282
  3
建築接地図
360
283
  3
建築平面
360
284
  3
建物
360
285
  3
見え
360
286
  3
見え掛り-建築
360
287
  3
見え掛り-設備
360
288
  3
見上げ
360
289
  3
現在以外のすべてを選択
360
28A
  3
後付
360
28B
  3
公園
360
28C
  3
杭伏図
360
28D
  3
構造
360
28E
  3
構台
360
28F
  3
高さ
360
290
  3
高木植栽平面
360
291
  3
腰壁
360
292
  3
座席のみ
360
293
  3
作業
360
294
  3
山下側スリーブ
360
295
  3
山下側中心線
360
296
  3
山止根切計画図
360
297
  3
仕
360
298
  3
仕上
360
299
  3
仕上げ
360
29A
  3
仕上図
360
29B
  3
仕上表
360
29C
  3
使用中
360
29D
  3
施設平面図
360
29E
  3
紫
360
29F
  3
弱電
360
2A0
  3
住戸名
360
2A1
  3
縮尺10
360
2A2
  3
縮尺50
360
2A3
  3
初期設定
360
2A4
  3
床伏図
360
2A5
  3
昇降機
360
2A6
  3
詳細
360
2A7
  3
詳細図
360
2A8
  3
上階躯体図
360
2A9
  3
植栽
360
2AA
  3
色
360
2AB
  3
色番号8
360
2AC
  3
新構造図
360
2AD
  3
新港側スリーブ
360
2AE
  3
新港側中心線
360
2AF
  3
申請用
360
2B0
  3
真建築住防様式
360
2B1
  3
芯
360
2B2
  3
芯関係
360
2B3
  3
水
360
2B4
  3
水色
360
2B5
  3
寸法
360
2B6
  3
製作
360
2B7
  3
製作-躯体
360
2B8
  3
製作-建築
360
2B9
  3
製作-昇降機
360
2BA
  3
青
360
2BB
  3
赤
360
2BC
  3
設備
360
2BD
  3
設備１
360
2BE
  3
設備中止
360
2BF
  3
全画層OFF
360
2C0
  3
全画層ON
360
2C1
  3
全階平面図
360
2C2
  3
総合仮設図
360
2C3
  3
総合図
360
2C4
  3
足場計画図
360
2C5
  3
耐火
360
2C6
  3
断面記号
360
2C7
  3
中野
360
2C8
  3
柱
360
2C9
  3
通り芯
360
2CA
  3
低木植栽平面
360
2CB
  3
鉄骨
360
2CC
  3
鉄骨建方計画図
360
2CD
  3
天井
360
2CE
  3
天井インサート図
360
2CF
  3
天井総合図
360
2D0
  3
天井伏図
360
2D1
  3
天上伏図
360
2D2
  3
天伏
360
2D3
  3
電気
360
2D4
  3
電気設備
360
2D5
  3
電気設備図
360
2D6
  3
電灯
360
2D7
  3
土壌改良
360
2D8
  3
道路
360
2D9
  3
道路関係図
360
2DA
  3
内装中止
360
2DB
  3
日建
360
2DC
  3
排水溝
360
2DD
  3
排水平面
360
2DE
  3
配管
360
2DF
  3
配置図
360
2E0
  3
非出力画層
360
2E1
  3
非表示
360
2E2
  3
非表示画層
360
2E3
  3
表示
360
2E4
  3
表示2
360
2E6
  3
表示・非表示
360
2E5
  3
表示されているすべての画層
360
2E7
  3
分割枠
360
2E8
  3
文字
360
2E9
  3
平詳
360
2EA
  3
平詳仕上表1
360
2EB
  3
平詳図
360
2EC
  3
平面
360
2ED
  3
平面詳細図
360
2EE
  3
平面図
360
2EF
  3
平面図のみ＠1
360
2F0
  3
平面図のみ＠２
360
2F1
  3
平面総合図
360
2F2
  3
壁仕様
360
2F3
  3
便所
360
2F4
  3
保留
360
2F5
  3
補助
360
2F6
  3
補助通り芯
360
2F7
  3
法規
360
2F8
  3
法規チェック－区画
360
2F9
  3
法規チェック－範囲
360
2FA
  3
法規チェック図
360
2FB
  3
鳳文字入力
360
2FC
  3
防災
360
2FD
  3
名称
360
2FE
  3
面積
360
2FF
  3
容積対象
360
300
  3
擁壁平面図
360
301
  3
用途色塗
360
302
  3
立面図
360
303
  3
梁
360
304
  3
緑
360
305
  0
DICTIONARY
  5
306
102
{ACAD_REACTORS
330
F
102
}
330
F
100
AcDbDictionary
281
     1
  0
XRECORD
  5
4
102
{ACAD_REACTORS
330
3
102
}
330
3
100
AcDbXrecord
280
     1
340
2
  0
XRECORD
  5
B
102
{ACAD_REACTORS
330
A
102
}
330
A
100
AcDbXrecord
280
     1
340
9
  0
LAYOUT
  5
3F4
102
{ACAD_XDICTIONARY
360
429
102
}
102
{ACAD_REACTORS
330
3C1
102
}
330
3C1
100
AcDbPlotSettings
  1

  2
\\Uranus\BFACN02M
  4

  6

 40
0.0
 41
0.0
 42
0.0
 43
0.0
 44
0.0
 45
0.0
 46
0.0
 47
0.0
 48
0.0
 49
0.0
140
0.0
141
0.0
142
1.0
143
1.0
 70
  1712
 72
     0
 73
     0
 74
     0
  7
SSC.ctb
 75
     0
147
1.0
148
0.0
149
0.0
100
AcDbLayout
  1
Model
 70
     1
 71
     0
 10
0.0
 20
0.0
 11
12.0
 21
9.0
 12
0.0
 22
0.0
 32
0.0
 14
0.0
 24
0.0
 34
0.0
 15
0.0
 25
0.0
 35
0.0
146
0.0
 13
0.0
 23
0.0
 33
0.0
 16
1.0
 26
0.0
 36
0.0
 17
0.0
 27
1.0
 37
0.0
 76
     0
330
2
  0
LAYOUT
  5
3F5
102
{ACAD_XDICTIONARY
360
42B
102
}
102
{ACAD_REACTORS
330
3C1
102
}
330
3C1
100
AcDbPlotSettings
  1

  2
\\Uranus\BFACN02M
  4

  6

 40
0.0
 41
0.0
 42
0.0
 43
0.0
 44
0.0
 45
0.0
 46
0.0
 47
0.0
 48
0.0
 49
0.0
140
0.0
141
0.0
142
1.0
143
1.0
 70
   688
 72
     0
 73
     0
 74
     5
  7
SSC.ctb
 75
    16
147
1.0
148
0.0
149
0.0
100
AcDbLayout
  1
レイアウト1
 70
     1
 71
     1
 10
0.0
 20
0.0
 11
12.0
 21
9.0
 12
0.0
 22
0.0
 32
0.0
 14
1.000000000000000E+20
 24
1.000000000000000E+20
 34
1.000000000000000E+20
 15
-1.000000000000000E+20
 25
-1.000000000000000E+20
 35
-1.000000000000000E+20
146
0.0
 13
0.0
 23
0.0
 33
0.0
 16
1.0
 26
0.0
 36
0.0
 17
0.0
 27
1.0
 37
0.0
 76
     0
330
9
  0
MLINESTYLE
  5
31A
102
{ACAD_REACTORS
330
315
102
}
330
315
100
AcDbMlineStyle
  2
STANDARD
 70
     0
  3

 62
   256
 51
90.0
 52
90.0
 71
     2
 49
0.5
 62
   256
  6
BYLAYER
 49
-0.5
 62
   256
  6
BYLAYER
  0
ACDBPLACEHOLDER
  5
3CF
102
{ACAD_REACTORS
330
3CE
102
}
330
3CE
  0
XRECORD
  5
428
102
{ACAD_REACTORS
330
426
102
}
330
426
100
AcDbXrecord
280
     1
340
3EA
  0
XRECORD
  5
427
102
{ACAD_REACTORS
330
426
102
}
330
426
100
AcDbXrecord
280
     1
340
3EC
  0
DICTIONARYVAR
  5
423
102
{ACAD_REACTORS
330
422
102
}
330
422
100
DictionaryVariables
280
     0
  1
1
  0
DICTIONARYVAR
  5
424
102
{ACAD_REACTORS
330
422
102
}
330
422
100
DictionaryVariables
280
     0
  1

  0
XRECORD
  5
19
102
{ACAD_REACTORS
330
10
102
}
330
10
100
AcDbXrecord
280
     1
  1
$
  1
*$0$*
  1
*
  1
*
 70
     0
  1
*
  1
*
  0
XRECORD
  5
1A
102
{ACAD_REACTORS
330
10
102
}
330
10
100
AcDbXrecord
280
     1
  1
$0$
  1
$0$*
  1
*
  1
*
 70
     0
  1
*
  1
*
  0
XRECORD
  5
1B
102
{ACAD_REACTORS
330
10
102
}
330
10
100
AcDbXrecord
280
     1
  1
$0$各住戸番号
  1
*$0$各住戸番号
  1
*
  1
*
 70
     0
  1
*
  1
*
  0
XRECORD
  5
1C
102
{ACAD_REACTORS
330
10
102
}
330
10
100
AcDbXrecord
280
     1
  1
$0$想定住戸
  1
*$0$想定住戸
  1
*
  1
*
 70
     0
  1
*
  1
*
  0
XRECORD
  5
13
102
{ACAD_REACTORS
330
10
102
}
330
10
100
AcDbXrecord
280
     1
  1
-100
  1
*100*
  1
*
  1
*
 70
     0
  1
*
  1
*
  0
XRECORD
  5
14
102
{ACAD_REACTORS
330
10
102
}
330
10
100
AcDbXrecord
280
     1
  1
-2
  1
*2
  1
*
  1
*
 70
     0
  1
*
  1
*
  0
XRECORD
  5
15
102
{ACAD_REACTORS
330
10
102
}
330
10
100
AcDbXrecord
280
     1
  1
-50
  1
*50*
  1
*
  1
*
 70
     0
  1
*
  1
*
  0
XRECORD
  5
16
102
{ACAD_REACTORS
330
10
102
}
330
10
100
AcDbXrecord
280
     1
  1
-b
  1
*-b
  1
*
  1
*
 70
     0
  1
*
  1
*
  0
XRECORD
  5
17
102
{ACAD_REACTORS
330
10
102
}
330
10
100
AcDbXrecord
280
     1
  1
-H
  1
00*,01*,02*,03*,05*,1*,2*,3*,4*,5*,6*,8*
  1
*
  1
*
 70
     0
  1
*
  1
*
  0
XRECORD
  5
18
102
{ACAD_REACTORS
330
10
102
}
330
10
100
AcDbXrecord
280
     1
  1
-T
  1
00*,01*,04*,05*,1*,20*,21*,22*,23*,24*,25*,26*,27*,29*,2a*,3*,4*,7*,9*
  1
*
  1
*
 70
     0
  1
*
  1
*
  0
XRECORD
  5
1E
102
{ACAD_REACTORS
330
10
102
}
330
10
100
AcDbXrecord
280
     1
  1
0
  1
*
  1
*
  1
*
 70
     0
  1
*
  1
*
  0
XRECORD
  5
1F
102
{ACAD_REACTORS
330
10
102
}
330
10
100
AcDbXrecord
280
     1
  1
0-
  1
0-*
  1
*
  1
*
 70
     0
  1
*
  1
*
  0
XRECORD
  5
20
102
{ACAD_REACTORS
330
10
102
}
330
10
100
AcDbXrecord
280
     1
  1
00
  1
*
  1
*
  1
*
 70
     0
  1
*
  1
*
  0
XRECORD
  5
21
102
{ACAD_REACTORS
330
10
102
}
330
10
100
AcDbXrecord
280
     1
  1
0000SUNP100
  1
*SUNP100*
  1
*
  1
*
 70
     0
  1
*
  1
*
  0
XRECORD
  5
22
102
{ACAD_REACTORS
330
10
102
}
330
10
100
AcDbXrecord
280
     1
  1
0002
  1
*
  1
*
  1
*
 70
     0
  1
*
  1
*
  0
XRECORD
  5
23
102
{ACAD_REACTORS
330
10
102
}
330
10
100
AcDbXrecord
280
     1
  1
003
  1
*003HOU-HIGH
  1
*
  1
*
 70
     0
  1
*
  1
*
  0
XRECORD
  5
24
102
{ACAD_REACTORS
330
10
102
}
330
10
100
AcDbXrecord
280
     1
  1
003-HOU
  1
*003-HOU-LOW
  1
*
  1
*
 70
     0
  1
*
  1
*
  0
XRECORD
  5
25
102
{ACAD_REACTORS
330
10
102
}
330
10
100
AcDbXrecord
280
     1
  1
003hari
  1
*3hari
  1
*
  1
*
 70
     0
  1
*
  1
*
  0
XRECORD
  5
26
102
{ACAD_REACTORS
330
10
102
}
330
10
100
AcDbXrecord
280
     1
  1
00HEDATE
  1
*HEDATE
  1
*
  1
*
 70
     0
  1
*
  1
*
  0
XRECORD
  5
27
102
{ACAD_REACTORS
330
10
102
}
330
10
100
AcDbXrecord
280
     1
  1
01
  1
*
  1
*
  1
*
 70
     0
  1
*
  1
*
  0
XRECORD
  5
28
102
{ACAD_REACTORS
330
10
102
}
330
10
100
AcDbXrecord
280
     1
  1
01234
  1
*MV*
  1
*
  1
*
 70
     0
  1
*
  1
*
  0
XRECORD
  5
29
102
{ACAD_REACTORS
330
10
102
}
330
10
100
AcDbXrecord
280
     1
  1
01KUTAI
  1
01KUTAI
  1
*
  1
*
 70
     0
  1
*
  1
*
  0
XRECORD
  5
2A
102
{ACAD_REACTORS
330
10
102
}
330
10
100
AcDbXrecord
280
     1
  1
02
  1
02*
  1
*
  1
*
 70
     0
  1
*
  1
*
  0
XRECORD
  5
2B
102
{ACAD_REACTORS
330
10
102
}
330
10
100
AcDbXrecord
280
     1
  1
03
  1
03*
  1
*
  1
*
 70
     0
  1
*
  1
*
  0
XRECORD
  5
2C
102
{ACAD_REACTORS
330
10
102
}
330
10
100
AcDbXrecord
280
     1
  1
04
  1
04*
  1
*
  1
*
 70
     0
  1
*
  1
*
  0
XRECORD
  5
2D
102
{ACAD_REACTORS
330
10
102
}
330
10
100
AcDbXrecord
280
     1
  1
05
  1
*05*
  1
*
  1
*
 70
     0
  1
*
  1
*
  0
XRECORD
  5
2E
102
{ACAD_REACTORS
330
10
102
}
330
10
100
AcDbXrecord
280
     1
  1
06
  1
06*
  1
*
  1
*
 70
     0
  1
*
  1
*
  0
XRECORD
  5
2F
102
{ACAD_REACTORS
330
10
102
}
330
10
100
AcDbXrecord
280
     1
  1
06siki
  1
06*siki*,sikiti,00waku,*|*
  1
*
  1
*
 70
     0
  1
*
  1
*
  0
XRECORD
  5
30
102
{ACAD_REACTORS
330
10
102
}
330
10
100
AcDbXrecord
280
     1
  1
06siki2
  1
06*siki*,sikiti,00waku,*|*
  1
*
  1
*
 70
     0
  1
*
  1
*
  0
XRECORD
  5
31
102
{ACAD_REACTORS
330
10
102
}
330
10
100
AcDbXrecord
280
     1
  1
0DL
  1
*DL*
  1
*
  1
*
 70
     0
  1
*
  1
*
  0
XRECORD
  5
32
102
{ACAD_REACTORS
330
10
102
}
330
10
100
AcDbXrecord
280
     1
  1
0HARI
  1
*HARI*
  1
*
  1
*
 70
     0
  1
*
  1
*
  0
XRECORD
  5
33
102
{ACAD_REACTORS
330
10
102
}
330
10
100
AcDbXrecord
280
     1
  1
0HARI00
  1
*3HARI
  1
*
  1
*
 70
     0
  1
*
  1
*
  0
XRECORD
  5
34
102
{ACAD_REACTORS
330
10
102
}
330
10
100
AcDbXrecord
280
     1
  1
0HIGH
  1
*HIGH*
  1
*
  1
*
 70
     0
  1
*
  1
*
  0
XRECORD
  5
35
102
{ACAD_REACTORS
330
10
102
}
330
10
100
AcDbXrecord
280
     1
  1
0HOU-HIGH
  1
*HOU-HIGH
  1
*
  1
*
 70
     0
  1
*
  1
*
  0
XRECORD
  5
36
102
{ACAD_REACTORS
330
10
102
}
330
10
100
AcDbXrecord
280
     1
  1
0HOU-LOW
  1
*HOU-LOW
  1
*
  1
*
 70
     0
  1
*
  1
*
  0
XRECORD
  5
37
102
{ACAD_REACTORS
330
10
102
}
330
10
100
AcDbXrecord
280
     1
  1
0HOU-TOP
  1
*HOU-TOP
  1
*
  1
*
 70
     0
  1
*
  1
*
  0
XRECORD
  5
38
102
{ACAD_REACTORS
330
10
102
}
330
10
100
AcDbXrecord
280
     1
  1
0LOW
  1
*LOW*
  1
*
  1
*
 70
     0
  1
*
  1
*
  0
XRECORD
  5
39
102
{ACAD_REACTORS
330
10
102
}
330
10
100
AcDbXrecord
280
     1
  1
0MEMO
  1
*MEMO*
  1
*
  1
*
 70
     0
  1
*
  1
*
  0
XRECORD
  5
3A
102
{ACAD_REACTORS
330
10
102
}
330
10
100
AcDbXrecord
280
     1
  1
0SETUBI
  1
*SETUBI*
  1
*
  1
*
 70
     0
  1
*
  1
*
  0
XRECORD
  5
3B
102
{ACAD_REACTORS
330
10
102
}
330
10
100
AcDbXrecord
280
     1
  1
0SILID
  1
*SOLID*
  1
*
  1
*
 70
     0
  1
*
  1
*
  0
XRECORD
  5
3C
102
{ACAD_REACTORS
330
10
102
}
330
10
100
AcDbXrecord
280
     1
  1
0SOLID
  1
*SOLID*
  1
*
  1
*
 70
     0
  1
*
  1
*
  0
XRECORD
  5
3D
102
{ACAD_REACTORS
330
10
102
}
330
10
100
AcDbXrecord
280
     1
  1
0TOP
  1
*TOP*
  1
*
  1
*
 70
     0
  1
*
  1
*
  0
XRECORD
  5
3E
102
{ACAD_REACTORS
330
10
102
}
330
10
100
AcDbXrecord
280
     1
  1
0床内
  1
FI-*
  1
*
  1
*
 70
     0
  1
*
  1
*
  0
XRECORD
  5
3F
102
{ACAD_REACTORS
330
10
102
}
330
10
100
AcDbXrecord
280
     1
  1
0床壁
  1
FW*
  1
*
  1
*
 70
     0
  1
*
  1
*
  0
XRECORD
  5
40
102
{ACAD_REACTORS
330
10
102
}
330
10
100
AcDbXrecord
280
     1
  1
0詳細図
  1
*-d
  1
*
  1
*
 70
     0
  1
*
  1
*
  0
XRECORD
  5
41
102
{ACAD_REACTORS
330
10
102
}
330
10
100
AcDbXrecord
280
     1
  1
0総合図off
  1
*-s
  1
*
  1
*
 70
     0
  1
*
  1
*
  0
XRECORD
  5
42
102
{ACAD_REACTORS
330
10
102
}
330
10
100
AcDbXrecord
280
     1
  1
0総合図枠
  1
*-2
  1
*
  1
*
 70
     0
  1
*
  1
*
  0
XRECORD
  5
43
102
{ACAD_REACTORS
330
10
102
}
330
10
100
AcDbXrecord
280
     1
  1
0平詳枠
  1
*-1
  1
*
  1
*
 70
     0
  1
*
  1
*
  0
XRECORD
  5
44
102
{ACAD_REACTORS
330
10
102
}
330
10
100
AcDbXrecord
280
     1
  1
1
  1
*
  1
*
  1
*
 70
     0
  1
*
  1
*
  0
XRECORD
  5
46
102
{ACAD_REACTORS
330
10
102
}
330
10
100
AcDbXrecord
280
     1
  1
1-30
  1
30*
  1
*
  1
*
 70
     0
  1
*
  1
*
  0
XRECORD
  5
49
102
{ACAD_REACTORS
330
10
102
}
330
10
100
AcDbXrecord
280
     1
  1
10
  1
*
  1
10
  1
*
 70
     0
  1
*
  1
*
  0
XRECORD
  5
4A
102
{ACAD_REACTORS
330
10
102
}
330
10
100
AcDbXrecord
280
     1
  1
100
  1
*100
  1
*
  1
*
 70
     0
  1
*
  1
*
  0
XRECORD
  5
4B
102
{ACAD_REACTORS
330
10
102
}
330
10
100
AcDbXrecord
280
     1
  1
10630 fp
  1
*
  1
*
  1
*
 70
     0
  1
*
  1
*
  0
XRECORD
  5
4C
102
{ACAD_REACTORS
330
10
102
}
330
10
100
AcDbXrecord
280
     1
  1
11
  1
*
  1
*
  1
DOT*
 70
     0
  1
*
  1
*
  0
XRECORD
  5
4D
102
{ACAD_REACTORS
330
10
102
}
330
10
100
AcDbXrecord
280
     1
  1
1111
  1
*-50
  1
*
  1
*
 70
     0
  1
*
  1
*
  0
XRECORD
  5
4E
102
{ACAD_REACTORS
330
10
102
}
330
10
100
AcDbXrecord
280
     1
  1
12
  1
*
  1
*12
  1
*
 70
     0
  1
*
  1
*
  0
XRECORD
  5
4F
102
{ACAD_REACTORS
330
10
102
}
330
10
100
AcDbXrecord
280
     1
  1
161
  1
*
  1
*
  1
*
 70
     0
  1
*
  1
*
  0
XRECORD
  5
50
102
{ACAD_REACTORS
330
10
102
}
330
10
100
AcDbXrecord
280
     1
  1
19
  1
*19*
  1
*
  1
*
 70
     0
  1
*
  1
*
  0
XRECORD
  5
51
102
{ACAD_REACTORS
330
10
102
}
330
10
100
AcDbXrecord
280
     1
  1
1F
  1
1F_COA*
  1
*
  1
*
 70
     0
  1
*
  1
*
  0
XRECORD
  5
53
102
{ACAD_REACTORS
330
10
102
}
330
10
100
AcDbXrecord
280
     1
  1
1階
  1
*1階*
  1
*
  1
*
 70
     0
  1
*
  1
*
  0
XRECORD
  5
54
102
{ACAD_REACTORS
330
10
102
}
330
10
100
AcDbXrecord
280
     1
  1
1階平称
  1
3*
  1
*
  1
*
 70
     0
  1
*
  1
*
  0
XRECORD
  5
55
102
{ACAD_REACTORS
330
10
102
}
330
10
100
AcDbXrecord
280
     1
  1
1床
  1
F-*
  1
*
  1
*
 70
     0
  1
*
  1
*
  0
XRECORD
  5
56
102
{ACAD_REACTORS
330
10
102
}
330
10
100
AcDbXrecord
280
     1
  1
1芯
  1
1*
  1
*
  1
*
 70
     0
  1
*
  1
*
  0
XRECORD
  5
57
102
{ACAD_REACTORS
330
10
102
}
330
10
100
AcDbXrecord
280
     1
  1
1芯線
  1
1*
  1
*
  1
*
 70
     0
  1
*
  1
*
  0
XRECORD
  5
58
102
{ACAD_REACTORS
330
10
102
}
330
10
100
AcDbXrecord
280
     1
  1
2
  1
*
  1
*
  1
*
 70
     0
  1
*
  1
*
  0
XRECORD
  5
59
102
{ACAD_REACTORS
330
10
102
}
330
10
100
AcDbXrecord
280
     1
  1
200
  1
*
  1
*
  1
*
 70
     0
  1
*
  1
*
  0
XRECORD
  5
5A
102
{ACAD_REACTORS
330
10
102
}
330
10
100
AcDbXrecord
280
     1
  1
21
  1
*
  1
21
  1
*
 70
     0
  1
*
  1
*
  0
XRECORD
  5
5B
102
{ACAD_REACTORS
330
10
102
}
330
10
100
AcDbXrecord
280
     1
  1
250
  1
*250*
  1
*
  1
*
 70
     0
  1
*
  1
*
  0
XRECORD
  5
5C
102
{ACAD_REACTORS
330
10
102
}
330
10
100
AcDbXrecord
280
     1
  1
2KSIN
  1
*2KSIN*
  1
*
  1
*
 70
     0
  1
*
  1
*
  0
XRECORD
  5
5D
102
{ACAD_REACTORS
330
10
102
}
330
10
100
AcDbXrecord
280
     1
  1
2TSIN
  1
*2TSIN*
  1
*
  1
*
 70
     0
  1
*
  1
*
  0
XRECORD
  5
5E
102
{ACAD_REACTORS
330
10
102
}
330
10
100
AcDbXrecord
280
     1
  1
2躯体
  1
2*
  1
*
  1
*
 70
     0
  1
*
  1
*
  0
XRECORD
  5
5F
102
{ACAD_REACTORS
330
10
102
}
330
10
100
AcDbXrecord
280
     1
  1
2選択
  1
2*
  1
*
  1
*
 70
     0
  1
*
  1
*
  0
XRECORD
  5
60
102
{ACAD_REACTORS
330
10
102
}
330
10
100
AcDbXrecord
280
     1
  1
2選択画層
  1
2*
  1
*
  1
*
 70
     0
  1
*
  1
*
  0
XRECORD
  5
61
102
{ACAD_REACTORS
330
10
102
}
330
10
100
AcDbXrecord
280
     1
  1
2断面
  1
2*
  1
*
  1
*
 70
     0
  1
*
  1
*
  0
XRECORD
  5
62
102
{ACAD_REACTORS
330
10
102
}
330
10
100
AcDbXrecord
280
     1
  1
2壁
  1
W-*
  1
*
  1
*
 70
     0
  1
*
  1
*
  0
XRECORD
  5
63
102
{ACAD_REACTORS
330
10
102
}
330
10
100
AcDbXrecord
280
     1
  1
3
  1
*
  1
3
  1
*
 70
     0
  1
*
  1
*
  0
XRECORD
  5
64
102
{ACAD_REACTORS
330
10
102
}
330
10
100
AcDbXrecord
280
     1
  1
30
  1
*30*
  1
*
  1
*
 70
     0
  1
*
  1
*
  0
XRECORD
  5
65
102
{ACAD_REACTORS
330
10
102
}
330
10
100
AcDbXrecord
280
     1
  1
300
  1
*300*
  1
*
  1
*
 70
     0
  1
*
  1
*
  0
XRECORD
  5
66
102
{ACAD_REACTORS
330
10
102
}
330
10
100
AcDbXrecord
280
     1
  1
32
  1
*
  1
32
  1
*
 70
     0
  1
*
  1
*
  0
XRECORD
  5
67
102
{ACAD_REACTORS
330
10
102
}
330
10
100
AcDbXrecord
280
     1
  1
333
  1
*
  1
*
  1
*
 70
    12
  1
*
  1
*
  0
XRECORD
  5
68
102
{ACAD_REACTORS
330
10
102
}
330
10
100
AcDbXrecord
280
     1
  1
3D
  1
*3D-*
  1
*
  1
*
 70
     0
  1
*
  1
*
  0
XRECORD
  5
69
102
{ACAD_REACTORS
330
10
102
}
330
10
100
AcDbXrecord
280
     1
  1
3D1
  1
*3D1*
  1
*
  1
*
 70
     1
  1
*
  1
*
  0
XRECORD
  5
6A
102
{ACAD_REACTORS
330
10
102
}
330
10
100
AcDbXrecord
280
     1
  1
3HARI
  1
*3HARI*
  1
*
  1
*
 70
     0
  1
*
  1
*
  0
XRECORD
  5
6B
102
{ACAD_REACTORS
330
10
102
}
330
10
100
AcDbXrecord
280
     1
  1
3HARI-SIZE
  1
*3HARI-SIZE*
  1
*
  1
*
 70
     0
  1
*
  1
*
  0
XRECORD
  5
6C
102
{ACAD_REACTORS
330
10
102
}
330
10
100
AcDbXrecord
280
     1
  1
3KABE
  1
*3KABE*
  1
*
  1
*
 70
     0
  1
*
  1
*
  0
XRECORD
  5
6D
102
{ACAD_REACTORS
330
10
102
}
330
10
100
AcDbXrecord
280
     1
  1
3siag-n
  1
*3siag-n*
  1
*
  1
*
 70
     0
  1
*
  1
*
  0
XRECORD
  5
6E
102
{ACAD_REACTORS
330
10
102
}
330
10
100
AcDbXrecord
280
     1
  1
3suga-n
  1
*
  1
*
  1
*
 70
     0
  1
*
  1
*
  0
XRECORD
  5
6F
102
{ACAD_REACTORS
330
10
102
}
330
10
100
AcDbXrecord
280
     1
  1
3開口
  1
3*
  1
*
  1
*
 70
     0
  1
*
  1
*
  0
XRECORD
  5
70
102
{ACAD_REACTORS
330
10
102
}
330
10
100
AcDbXrecord
280
     1
  1
3見掛り
  1
3*
  1
*
  1
*
 70
     0
  1
*
  1
*
  0
XRECORD
  5
71
102
{ACAD_REACTORS
330
10
102
}
330
10
100
AcDbXrecord
280
     1
  1
3天井内
  1
CI-*
  1
*
  1
*
 70
     0
  1
*
  1
*
  0
XRECORD
  5
72
102
{ACAD_REACTORS
330
10
102
}
330
10
100
AcDbXrecord
280
     1
  1
4
  1
*
  1
4
  1
*
 70
     0
  1
*
  1
*
  0
XRECORD
  5
73
102
{ACAD_REACTORS
330
10
102
}
330
10
100
AcDbXrecord
280
     1
  1
41
  1
41
  1
*
  1
*
 70
     1
  1
*
  1
*
  0
XRECORD
  5
74
102
{ACAD_REACTORS
330
10
102
}
330
10
100
AcDbXrecord
280
     1
  1
4EISEI
  1
*4EISEI*
  1
*
  1
*
 70
     0
  1
*
  1
*
  0
XRECORD
  5
75
102
{ACAD_REACTORS
330
10
102
}
330
10
100
AcDbXrecord
280
     1
  1
4SUGA
  1
*4SUGA
  1
*
  1
*
 70
     0
  1
*
  1
*
  0
XRECORD
  5
76
102
{ACAD_REACTORS
330
10
102
}
330
10
100
AcDbXrecord
280
     1
  1
4suga5
  1
*4suga5*
  1
*
  1
*
 70
     0
  1
*
  1
*
  0
XRECORD
  5
77
102
{ACAD_REACTORS
330
10
102
}
330
10
100
AcDbXrecord
280
     1
  1
4tate161
  1
*4tate161*
  1
*
  1
*
 70
     0
  1
*
  1
*
  0
XRECORD
  5
78
102
{ACAD_REACTORS
330
10
102
}
330
10
100
AcDbXrecord
280
     1
  1
4TATE161T
  1
*4TATE161T*
  1
*
  1
*
 70
     0
  1
*
  1
*
  0
XRECORD
  5
79
102
{ACAD_REACTORS
330
10
102
}
330
10
100
AcDbXrecord
280
     1
  1
4tate3
  1
*4tate3*
  1
*
  1
*
 70
     0
  1
*
  1
*
  0
XRECORD
  5
7B
102
{ACAD_REACTORS
330
10
102
}
330
10
100
AcDbXrecord
280
     1
  1
4仕上げ
  1
4*
  1
*
  1
*
 70
     0
  1
*
  1
*
  0
XRECORD
  5
7C
102
{ACAD_REACTORS
330
10
102
}
330
10
100
AcDbXrecord
280
     1
  1
4天井
  1
C-*
  1
*
  1
*
 70
     0
  1
*
  1
*
  0
XRECORD
  5
7D
102
{ACAD_REACTORS
330
10
102
}
330
10
100
AcDbXrecord
280
     1
  1
5
  1
*5
  1
*
  1
*
 70
     1
  1
*
  1
*
  0
XRECORD
  5
7E
102
{ACAD_REACTORS
330
10
102
}
330
10
100
AcDbXrecord
280
     1
  1
50
  1
*-50
  1
*
  1
*
 70
     0
  1
*
  1
*
  0
XRECORD
  5
7F
102
{ACAD_REACTORS
330
10
102
}
330
10
100
AcDbXrecord
280
     1
  1
50off
  1
50*
  1
*
  1
*
 70
     0
  1
*
  1
*
  0
XRECORD
  5
80
102
{ACAD_REACTORS
330
10
102
}
330
10
100
AcDbXrecord
280
     1
  1
50詳細図
  1
*
  1
*
  1
*
 70
     0
  1
*
  1
*
  0
XRECORD
  5
81
102
{ACAD_REACTORS
330
10
102
}
330
10
100
AcDbXrecord
280
     1
  1
51-52
  1
5*
  1
*
  1
*
 70
     0
  1
*
  1
*
  0
XRECORD
  5
82
102
{ACAD_REACTORS
330
10
102
}
330
10
100
AcDbXrecord
280
     1
  1
524M
  1
524|M-*
  1
*
  1
*
 70
     0
  1
*
  1
*
  0
XRECORD
  5
83
102
{ACAD_REACTORS
330
10
102
}
330
10
100
AcDbXrecord
280
     1
  1
555
  1
*
  1
*
  1
*
 70
     1
  1
*
  1
*
  0
XRECORD
  5
84
102
{ACAD_REACTORS
330
10
102
}
330
10
100
AcDbXrecord
280
     1
  1
5KIGO
  1
*5KIGO*
  1
*
  1
*
 70
     0
  1
*
  1
*
  0
XRECORD
  5
85
102
{ACAD_REACTORS
330
10
102
}
330
10
100
AcDbXrecord
280
     1
  1
5KOGO200
  1
*5KIGO200*
  1
9
  1
*
 70
     0
  1
*
  1
*
  0
XRECORD
  5
86
102
{ACAD_REACTORS
330
10
102
}
330
10
100
AcDbXrecord
280
     1
  1
5LEVEL
  1
*5LEVEL*
  1
3
  1
*
 70
     0
  1
*
  1
*
  0
XRECORD
  5
87
102
{ACAD_REACTORS
330
10
102
}
330
10
100
AcDbXrecord
280
     1
  1
5MOJI
  1
*5MOJI*
  1
*
  1
*
 70
     0
  1
*
  1
*
  0
XRECORD
  5
89
102
{ACAD_REACTORS
330
10
102
}
330
10
100
AcDbXrecord
280
     1
  1
5寸法
  1
5*
  1
*
  1
*
 70
     0
  1
*
  1
*
  0
XRECORD
  5
8A
102
{ACAD_REACTORS
330
10
102
}
330
10
100
AcDbXrecord
280
     1
  1
5文字
  1
*TXT*
  1
*
  1
*
 70
     0
  1
*
  1
*
  0
XRECORD
  5
8B
102
{ACAD_REACTORS
330
10
102
}
330
10
100
AcDbXrecord
280
     1
  1
6
  1
*
  1
6
  1
*
 70
     0
  1
*
  1
*
  0
XRECORD
  5
8C
102
{ACAD_REACTORS
330
10
102
}
330
10
100
AcDbXrecord
280
     1
  1
600
  1
*600*
  1
*
  1
*
 70
     0
  1
*
  1
*
  0
XRECORD
  5
8D
102
{ACAD_REACTORS
330
10
102
}
330
10
100
AcDbXrecord
280
     1
  1
66-躯体図
  1
0,Defpoints,HOJO,雲マーク,000*,010*,020*,1*,400*,470*,520*,570*,08*
  1
*
  1
*
 70
     0
  1
*
  1
*
  0
XRECORD
  5
8E
102
{ACAD_REACTORS
330
10
102
}
330
10
100
AcDbXrecord
280
     1
  1
66躯体図
  1
0,Defpoints,HOJO,雲マーク,000*,010*,020*,1*,400*,470*,520*,570*,08*,6*
  1
*
  1
*
 70
     0
  1
*
  1
*
  0
XRECORD
  5
8F
102
{ACAD_REACTORS
330
10
102
}
330
10
100
AcDbXrecord
280
     1
  1
6AREA
  1
*6AREA*
  1
*
  1
*
 70
     0
  1
*
  1
*
  0
XRECORD
  5
90
102
{ACAD_REACTORS
330
10
102
}
330
10
100
AcDbXrecord
280
     1
  1
6AREA-ROOM
  1
*6AREA-ROOM*
  1
*
  1
*
 70
     0
  1
*
  1
*
  0
XRECORD
  5
92
102
{ACAD_REACTORS
330
10
102
}
330
10
100
AcDbXrecord
280
     1
  1
6記号
  1
6*
  1
*
  1
*
 70
     0
  1
*
  1
*
  0
XRECORD
  5
93
102
{ACAD_REACTORS
330
10
102
}
330
10
100
AcDbXrecord
280
     1
  1
6文字
  1
6*
  1
*
  1
*
 70
     0
  1
*
  1
*
  0
XRECORD
  5
94
102
{ACAD_REACTORS
330
10
102
}
330
10
100
AcDbXrecord
280
     1
  1
6保留
  1
*_a
  1
*
  1
*
 70
     0
  1
*
  1
*
  0
XRECORD
  5
95
102
{ACAD_REACTORS
330
10
102
}
330
10
100
AcDbXrecord
280
     1
  1
7
  1
*
  1
7
  1
*
 70
     0
  1
*
  1
*
  0
XRECORD
  5
97
102
{ACAD_REACTORS
330
10
102
}
330
10
100
AcDbXrecord
280
     1
  1
74
  1
*
  1
74
  1
*
 70
     0
  1
*
  1
*
  0
XRECORD
  5
96
102
{ACAD_REACTORS
330
10
102
}
330
10
100
AcDbXrecord
280
     1
  1
7_9$0$バルコニー
  1
*$0$バルコニー
  1
*
  1
*
 70
     0
  1
*
  1
*
  0
XRECORD
  5
98
102
{ACAD_REACTORS
330
10
102
}
330
10
100
AcDbXrecord
280
     1
  1
7記号
  1
7*
  1
*
  1
*
 70
     0
  1
*
  1
*
  0
XRECORD
  5
99
102
{ACAD_REACTORS
330
10
102
}
330
10
100
AcDbXrecord
280
     1
  1
8
  1
*
  1
8
  1
*
 70
     0
  1
*
  1
*
  0
XRECORD
  5
9B
102
{ACAD_REACTORS
330
10
102
}
330
10
100
AcDbXrecord
280
     1
  1
8 12
  1
*
  1
8,12
  1
*
 70
     0
  1
*
  1
*
  0
XRECORD
  5
9A
102
{ACAD_REACTORS
330
10
102
}
330
10
100
AcDbXrecord
280
     1
  1
8-9
  1
*
  1
8,9
  1
*
 70
     0
  1
*
  1
*
  0
XRECORD
  5
9C
102
{ACAD_REACTORS
330
10
102
}
330
10
100
AcDbXrecord
280
     1
  1
8.9
  1
*
  1
8,9,12,74,54
  1
*
 70
     0
  1
*
  1
*
  0
XRECORD
  5
9D
102
{ACAD_REACTORS
330
10
102
}
330
10
100
AcDbXrecord
280
     1
  1
89
  1
*
  1
8,9
  1
*
 70
     0
  1
*
  1
*
  0
XRECORD
  5
9E
102
{ACAD_REACTORS
330
10
102
}
330
10
100
AcDbXrecord
280
     1
  1
8COLOR
  1
*
  1
8
  1
*
 70
     0
  1
*
  1
*
  0
XRECORD
  5
9F
102
{ACAD_REACTORS
330
10
102
}
330
10
100
AcDbXrecord
280
     1
  1
8TITL
  1
*8TITL*
  1
*
  1
*
 70
     0
  1
*
  1
*
  0
XRECORD
  5
A0
102
{ACAD_REACTORS
330
10
102
}
330
10
100
AcDbXrecord
280
     1
  1
8寸法
  1
8*
  1
*
  1
*
 70
     0
  1
*
  1
*
  0
XRECORD
  5
A1
102
{ACAD_REACTORS
330
10
102
}
330
10
100
AcDbXrecord
280
     1
  1
8設備
  1
8*
  1
*
  1
*
 70
     0
  1
*
  1
*
  0
XRECORD
  5
A2
102
{ACAD_REACTORS
330
10
102
}
330
10
100
AcDbXrecord
280
     1
  1
9
  1
*
  1
9
  1
*
 70
     0
  1
*
  1
*
  0
XRECORD
  5
A3
102
{ACAD_REACTORS
330
10
102
}
330
10
100
AcDbXrecord
280
     1
  1
9MEMO
  1
*MEMO*
  1
*
  1
*
 70
     0
  1
*
  1
*
  0
XRECORD
  5
A4
102
{ACAD_REACTORS
330
10
102
}
330
10
100
AcDbXrecord
280
     1
  1
9SETUBI
  1
*9SETUBI*
  1
*
  1
*
 70
     0
  1
*
  1
*
  0
XRECORD
  5
A5
102
{ACAD_REACTORS
330
10
102
}
330
10
100
AcDbXrecord
280
     1
  1
9文字
  1
9*
  1
*
  1
*
 70
     0
  1
*
  1
*
  0
XRECORD
  5
A6
102
{ACAD_REACTORS
330
10
102
}
330
10
100
AcDbXrecord
280
     1
  1
9目地
  1
9*
  1
*
  1
*
 70
     0
  1
*
  1
*
  0
XRECORD
  5
1D
102
{ACAD_REACTORS
330
10
102
}
330
10
100
AcDbXrecord
280
     1
  1
_
  1
_*
  1
*
  1
*
 70
     0
  1
*
  1
*
  0
XRECORD
  5
A7
102
{ACAD_REACTORS
330
10
102
}
330
10
100
AcDbXrecord
280
     1
  1
A
  1
DIMENTION
  1
*
  1
*
 70
     0
  1
*
  1
*
  0
XRECORD
  5
A9
102
{ACAD_REACTORS
330
10
102
}
330
10
100
AcDbXrecord
280
     1
  1
A(枠･表)を表示
  1
A*
  1
*
  1
*
 70
     0
  1
*
  1
*
  0
XRECORD
  5
A8
102
{ACAD_REACTORS
330
10
102
}
330
10
100
AcDbXrecord
280
     1
  1
A-
  1
A-*
  1
*
  1
*
 70
     0
  1
*
  1
*
  0
XRECORD
  5
AA
102
{ACAD_REACTORS
330
10
102
}
330
10
100
AcDbXrecord
280
     1
  1
A1
  1
*A1*
  1
*
  1
*
 70
     0
  1
*
  1
*
  0
XRECORD
  5
AB
102
{ACAD_REACTORS
330
10
102
}
330
10
100
AcDbXrecord
280
     1
  1
A21
  1
*A21*
  1
*
  1
*
 70
     0
  1
*
  1
*
  0
XRECORD
  5
AC
102
{ACAD_REACTORS
330
10
102
}
330
10
100
AcDbXrecord
280
     1
  1
A3
  1
*A3
  1
*
  1
*
 70
     0
  1
*
  1
*
  0
XRECORD
  5
AD
102
{ACAD_REACTORS
330
10
102
}
330
10
100
AcDbXrecord
280
     1
  1
aa
  1
*aa*
  1
*
  1
*
 70
     0
  1
*
  1
*
  0
XRECORD
  5
AE
102
{ACAD_REACTORS
330
10
102
}
330
10
100
AcDbXrecord
280
     1
  1
aaa
  1
*fold-u
  1
*
  1
*
 70
     0
  1
*
  1
*
  0
XRECORD
  5
AF
102
{ACAD_REACTORS
330
10
102
}
330
10
100
AcDbXrecord
280
     1
  1
AB棟
  1
ＡＢ棟*
  1
*
  1
*
 70
     0
  1
*
  1
*
  0
XRECORD
  5
B1
102
{ACAD_REACTORS
330
10
102
}
330
10
100
AcDbXrecord
280
     1
  1
Active
  1
*
  1
*
  1
*
 70
    12
  1
*
  1
*
  0
XRECORD
  5
B2
102
{ACAD_REACTORS
330
10
102
}
330
10
100
AcDbXrecord
280
     1
  1
agence
  1
1*
  1
*
  1
*
 70
     0
  1
*
  1
*
  0
XRECORD
  5
B3
102
{ACAD_REACTORS
330
10
102
}
330
10
100
AcDbXrecord
280
     1
  1
Agua_sucia
  1
26*
  1
*
  1
*
 70
     0
  1
*
  1
*
  0
XRECORD
  5
B4
102
{ACAD_REACTORS
330
10
102
}
330
10
100
AcDbXrecord
280
     1
  1
ALC
  1
*ALC
  1
*
  1
*
 70
     0
  1
*
  1
*
  0
XRECORD
  5
B5
102
{ACAD_REACTORS
330
10
102
}
330
10
100
AcDbXrecord
280
     1
  1
AMENAGEMENT
  1
*
  1
*
  1
*
 70
    13
  1
*
  1
*
  0
XRECORD
  5
B6
102
{ACAD_REACTORS
330
10
102
}
330
10
100
AcDbXrecord
280
     1
  1
aoi
  1
*
  1
*
  1
*
 70
   256
  1
*
  1
*
  0
XRECORD
  5
B7
102
{ACAD_REACTORS
330
10
102
}
330
10
100
AcDbXrecord
280
     1
  1
AR
  1
*
  1
*
  1
*
 70
     0
  1
*
  1
*
  0
XRECORD
  5
B8
102
{ACAD_REACTORS
330
10
102
}
330
10
100
AcDbXrecord
280
     1
  1
AREA
  1
*
  1
*
  1
*
 70
     1
  1
*
  1
*
  0
XRECORD
  5
B9
102
{ACAD_REACTORS
330
10
102
}
330
10
100
AcDbXrecord
280
     1
  1
AREA-SG
  1
*6AREA-SG
  1
6
  1
*
 70
     0
  1
*
  1
*
  0
XRECORD
  5
BA
102
{ACAD_REACTORS
330
10
102
}
330
10
100
AcDbXrecord
280
     1
  1
ARS
  1
ARS*
  1
*
  1
*
 70
     0
  1
*
  1
*
  0
XRECORD
  5
BB
102
{ACAD_REACTORS
330
10
102
}
330
10
100
AcDbXrecord
280
     1
  1
AS1
  1
*AS1
  1
*
  1
*
 70
     0
  1
*
  1
*
  0
XRECORD
  5
BC
102
{ACAD_REACTORS
330
10
102
}
330
10
100
AcDbXrecord
280
     1
  1
aハッチング
  1
a*
  1
*
  1
*
 70
     0
  1
*
  1
*
  0
XRECORD
  5
BD
102
{ACAD_REACTORS
330
10
102
}
330
10
100
AcDbXrecord
280
     1
  1
A空調
  1
*
  1
*
  1
*
 70
     0
  1
*
  1
KUCYOU
  0
XRECORD
  5
BE
102
{ACAD_REACTORS
330
10
102
}
330
10
100
AcDbXrecord
280
     1
  1
A選択画層
  1
A*
  1
*
  1
*
 70
     0
  1
*
  1
*
  0
XRECORD
  5
BF
102
{ACAD_REACTORS
330
10
102
}
330
10
100
AcDbXrecord
280
     1
  1
b
  1
15法規
  1
120
  1
*
 70
     3
  1
*
  1
*
  0
XRECORD
  5
C0
102
{ACAD_REACTORS
330
10
102
}
330
10
100
AcDbXrecord
280
     1
  1
B(基準)を表示
  1
B*
  1
*
  1
*
 70
     0
  1
*
  1
*
  0
XRECORD
  5
C1
102
{ACAD_REACTORS
330
10
102
}
330
10
100
AcDbXrecord
280
     1
  1
B1F見上げ図
  1
*
  1
*
  1
*
 70
     0
  1
*
  1
*
  0
XRECORD
  5
C2
102
{ACAD_REACTORS
330
10
102
}
330
10
100
AcDbXrecord
280
     1
  1
BAL
  1
*BAL
  1
*
  1
*
 70
     0
  1
*
  1
*
  0
XRECORD
  5
C3
102
{ACAD_REACTORS
330
10
102
}
330
10
100
AcDbXrecord
280
     1
  1
baru
  1
*51A
  1
*
  1
*
 70
     0
  1
*
  1
*
  0
XRECORD
  5
C4
102
{ACAD_REACTORS
330
10
102
}
330
10
100
AcDbXrecord
280
     1
  1
baru2
  1
*AS1A
  1
*
  1
*
 70
     0
  1
*
  1
*
  0
XRECORD
  5
C5
102
{ACAD_REACTORS
330
10
102
}
330
10
100
AcDbXrecord
280
     1
  1
BASE
  1
*I4BASE
  1
*
  1
*
 70
     0
  1
*
  1
*
  0
XRECORD
  5
C6
102
{ACAD_REACTORS
330
10
102
}
330
10
100
AcDbXrecord
280
     1
  1
beam
  1
*beam*
  1
*
  1
*
 70
     0
  1
*
  1
*
  0
XRECORD
  5
C7
102
{ACAD_REACTORS
330
10
102
}
330
10
100
AcDbXrecord
280
     1
  1
blue
  1
*
  1
blue
  1
*
 70
     0
  1
*
  1
*
  0
XRECORD
  5
C8
102
{ACAD_REACTORS
330
10
102
}
330
10
100
AcDbXrecord
280
     1
  1
b階段
  1
b*
  1
*
  1
*
 70
     0
  1
*
  1
*
  0
XRECORD
  5
C9
102
{ACAD_REACTORS
330
10
102
}
330
10
100
AcDbXrecord
280
     1
  1
B住戸
  1
*B住戸*
  1
*
  1
*
 70
     0
  1
*
  1
*
  0
XRECORD
  5
CA
102
{ACAD_REACTORS
330
10
102
}
330
10
100
AcDbXrecord
280
     1
  1
B電気
  1
*
  1
*
  1
*
 70
     0
  1
*
  1
DENKI
  0
XRECORD
  5
CB
102
{ACAD_REACTORS
330
10
102
}
330
10
100
AcDbXrecord
280
     1
  1
c
  1
c*
  1
*
  1
*
 70
    61
  1
*
  1
*
  0
XRECORD
  5
CC
102
{ACAD_REACTORS
330
10
102
}
330
10
100
AcDbXrecord
280
     1
  1
C(寸･文･記)を表示
  1
C*
  1
*
  1
*
 70
     0
  1
*
  1
*
  0
XRECORD
  5
CD
102
{ACAD_REACTORS
330
10
102
}
330
10
100
AcDbXrecord
280
     1
  1
CABINETRY
  1
*CAB*
  1
*
  1
*
 70
     0
  1
*
  1
*
  0
XRECORD
  5
CE
102
{ACAD_REACTORS
330
10
102
}
330
10
100
AcDbXrecord
280
     1
  1
Calles
  1
28*
  1
*
  1
*
 70
     0
  1
*
  1
*
  0
XRECORD
  5
CF
102
{ACAD_REACTORS
330
10
102
}
330
10
100
AcDbXrecord
280
     1
  1
CASTellano
  1
A-*
  1
*
  1
*
 70
     0
  1
*
  1
*
  0
XRECORD
  5
D0
102
{ACAD_REACTORS
330
10
102
}
330
10
100
AcDbXrecord
280
     1
  1
cc
  1
*
  1
*
  1
*
 70
     0
  1
*
  1
*
  0
XRECORD
  5
D2
102
{ACAD_REACTORS
330
10
102
}
330
10
100
AcDbXrecord
280
     1
  1
ceiling
  1
*-c
  1
*
  1
*
 70
     0
  1
*
  1
*
  0
XRECORD
  5
D3
102
{ACAD_REACTORS
330
10
102
}
330
10
100
AcDbXrecord
280
     1
  1
CEILING LAYOUT
  1
A-CLG-*
  1
*
  1
*
 70
     0
  1
*
  1
*
  0
XRECORD
  5
D4
102
{ACAD_REACTORS
330
10
102
}
330
10
100
AcDbXrecord
280
     1
  1
CEL
  1
*
  1
*
  1
*
 70
     0
  1
*
  1
*
  0
XRECORD
  5
D5
102
{ACAD_REACTORS
330
10
102
}
330
10
100
AcDbXrecord
280
     1
  1
che
  1
che*
  1
*
  1
*
 70
     0
  1
*
  1
*
  0
XRECORD
  5
D6
102
{ACAD_REACTORS
330
10
102
}
330
10
100
AcDbXrecord
280
     1
  1
CHIIKI
  1
*TI,TI*
  1
*
  1
*
 70
     0
  1
*
  1
*
  0
XRECORD
  5
D7
102
{ACAD_REACTORS
330
10
102
}
330
10
100
AcDbXrecord
280
     1
  1
CLG
  1
*CLG*
  1
*
  1
*
 70
     0
  1
*
  1
*
  0
XRECORD
  5
D8
102
{ACAD_REACTORS
330
10
102
}
330
10
100
AcDbXrecord
280
     1
  1
clng
  1
*cln*
  1
*
  1
*
 70
     0
  1
*
  1
*
  0
XRECORD
  5
D9
102
{ACAD_REACTORS
330
10
102
}
330
10
100
AcDbXrecord
280
     1
  1
COA
  1
*COA
  1
*
  1
*
 70
     0
  1
*
  1
*
  0
XRECORD
  5
DA
102
{ACAD_REACTORS
330
10
102
}
330
10
100
AcDbXrecord
280
     1
  1
colu
  1
*colu*
  1
*
  1
*
 70
     0
  1
*
  1
*
  0
XRECORD
  5
DB
102
{ACAD_REACTORS
330
10
102
}
330
10
100
AcDbXrecord
280
     1
  1
com
  1
com*
  1
*
  1
*
 70
     0
  1
*
  1
*
  0
XRECORD
  5
DC
102
{ACAD_REACTORS
330
10
102
}
330
10
100
AcDbXrecord
280
     1
  1
conm
  1
*colm
  1
*
  1
*
 70
     0
  1
*
  1
*
  0
XRECORD
  5
DD
102
{ACAD_REACTORS
330
10
102
}
330
10
100
AcDbXrecord
280
     1
  1
cotas
  1
*cotas*
  1
*
  1
*
 70
     0
  1
*
  1
*
  0
XRECORD
  5
DE
102
{ACAD_REACTORS
330
10
102
}
330
10
100
AcDbXrecord
280
     1
  1
CRG
  1
tca-6f|*CRG*
  1
*
  1
*
 70
     0
  1
*
  1
*
  0
XRECORD
  5
DF
102
{ACAD_REACTORS
330
10
102
}
330
10
100
AcDbXrecord
280
     1
  1
cyan
  1
*
  1
cyan
  1
*
 70
     0
  1
*
  1
*
  0
XRECORD
  5
E0
102
{ACAD_REACTORS
330
10
102
}
330
10
100
AcDbXrecord
280
     1
  1
C衛生
  1
*
  1
*
  1
*
 70
     0
  1
*
  1
EISEI
  0
XRECORD
  5
E1
102
{ACAD_REACTORS
330
10
102
}
330
10
100
AcDbXrecord
280
     1
  1
c雑金物
  1
c*
  1
*
  1
*
 70
     0
  1
*
  1
*
  0
XRECORD
  5
E2
102
{ACAD_REACTORS
330
10
102
}
330
10
100
AcDbXrecord
280
     1
  1
C打計画図
  1
001*,002*,003*,004*,005*,007*,012*,015*,016*,017*,018*,019*,020*,021*,049*,050*,051*,052*,053*,054*,055*,056*,057*,058*,059*,060*,061*,062*,063*,064*,065*,066*,067*,068*,069*,070*,071*,072*,073*,074*,075*
  1
*
  1
*
 70
     0
  1
*
  1
*
  0
XRECORD
  5
E3
102
{ACAD_REACTORS
330
10
102
}
330
10
100
AcDbXrecord
280
     1
  1
C棟R部
  1
cr*
  1
*
  1
*
 70
     0
  1
*
  1
*
  0
XRECORD
  5
E4
102
{ACAD_REACTORS
330
10
102
}
330
10
100
AcDbXrecord
280
     1
  1
D
  1
T_*$0$WALL*
  1
*
  1
*
 70
     0
  1
*
  1
*
  0
XRECORD
  5
E6
102
{ACAD_REACTORS
330
10
102
}
330
10
100
AcDbXrecord
280
     1
  1
D(表現補助)を表示
  1
D*
  1
*
  1
*
 70
     0
  1
*
  1
*
  0
XRECORD
  5
E5
102
{ACAD_REACTORS
330
10
102
}
330
10
100
AcDbXrecord
280
     1
  1
d-dims-vp
  1
d-dims-vp*
  1
*
  1
*
 70
     0
  1
*
  1
*
  0
XRECORD
  5
E7
102
{ACAD_REACTORS
330
10
102
}
330
10
100
AcDbXrecord
280
     1
  1
daichi
  1
*
  1
*
  1
*
 70
     0
  1
*
  1
*
  0
XRECORD
  5
E8
102
{ACAD_REACTORS
330
10
102
}
330
10
100
AcDbXrecord
280
     1
  1
DASHED
  1
*
  1
*
  1
DASHED
 70
     0
  1
*
  1
*
  0
XRECORD
  5
E9
102
{ACAD_REACTORS
330
10
102
}
330
10
100
AcDbXrecord
280
     1
  1
DASHED2
  1
*
  1
*
  1
DASHED
 70
     0
  1
*
  1
*
  0
XRECORD
  5
EA
102
{ACAD_REACTORS
330
10
102
}
330
10
100
AcDbXrecord
280
     1
  1
DD
  1
*
  1
4
  1
*
 70
     0
  1
*
  1
*
  0
XRECORD
  5
EB
102
{ACAD_REACTORS
330
10
102
}
330
10
100
AcDbXrecord
280
     1
  1
DD2
  1
*
  1
*
  1
DD2
 70
     0
  1
*
  1
*
  0
XRECORD
  5
EC
102
{ACAD_REACTORS
330
10
102
}
330
10
100
AcDbXrecord
280
     1
  1
DEMO
  1
07-EXIST-DEMOLITION*
  1
*
  1
*
 70
     0
  1
*
  1
*
  0
XRECORD
  5
ED
102
{ACAD_REACTORS
330
10
102
}
330
10
100
AcDbXrecord
280
     1
  1
DETAILS
  1
D-*
  1
*
  1
*
 70
     0
  1
*
  1
*
  0
XRECORD
  5
EE
102
{ACAD_REACTORS
330
10
102
}
330
10
100
AcDbXrecord
280
     1
  1
dim
  1
*dim*
  1
*
  1
*
 70
     0
  1
*
  1
*
  0
XRECORD
  5
EF
102
{ACAD_REACTORS
330
10
102
}
330
10
100
AcDbXrecord
280
     1
  1
Dimension
  1
*DIM*
  1
*
  1
*
 70
     0
  1
*
  1
*
  0
XRECORD
  5
F0
102
{ACAD_REACTORS
330
10
102
}
330
10
100
AcDbXrecord
280
     1
  1
door
  1
*door*
  1
*
  1
*
 70
     0
  1
*
  1
*
  0
XRECORD
  5
F1
102
{ACAD_REACTORS
330
10
102
}
330
10
100
AcDbXrecord
280
     1
  1
DOORS
  1
*ADO*
  1
*
  1
*
 70
     0
  1
*
  1
*
  0
XRECORD
  5
F2
102
{ACAD_REACTORS
330
10
102
}
330
10
100
AcDbXrecord
280
     1
  1
DR
  1
DR*
  1
*
  1
*
 70
     0
  1
*
  1
*
  0
XRECORD
  5
F3
102
{ACAD_REACTORS
330
10
102
}
330
10
100
AcDbXrecord
280
     1
  1
Drow1
  1
*
  1
*
  1
*
 70
     0
  1
*
  1
*
  0
XRECORD
  5
F4
102
{ACAD_REACTORS
330
10
102
}
330
10
100
AcDbXrecord
280
     1
  1
d外構
  1
d*
  1
*
  1
*
 70
     0
  1
*
  1
*
  0
XRECORD
  5
F5
102
{ACAD_REACTORS
330
10
102
}
330
10
100
AcDbXrecord
280
     1
  1
E
  1
T_*$0$KABE*
  1
*
  1
*
 70
     0
  1
*
  1
*
  0
XRECORD
  5
F6
102
{ACAD_REACTORS
330
10
102
}
330
10
100
AcDbXrecord
280
     1
  1
E(点線系)を表示
  1
E*
  1
*
  1
*
 70
     0
  1
*
  1
*
  0
XRECORD
  5
F7
102
{ACAD_REACTORS
330
10
102
}
330
10
100
AcDbXrecord
280
     1
  1
EEEE
  1
*
  1
*
  1
*
 70
  1804
  1
*
  1
*
  0
XRECORD
  5
F8
102
{ACAD_REACTORS
330
10
102
}
330
10
100
AcDbXrecord
280
     1
  1
EISEI
  1
*4EISEI
  1
4
  1
*
 70
     0
  1
*
  1
*
  0
XRECORD
  5
F9
102
{ACAD_REACTORS
330
10
102
}
330
10
100
AcDbXrecord
280
     1
  1
ele
  1
ele*
  1
*
  1
*
 70
     0
  1
*
  1
*
  0
XRECORD
  5
FA
102
{ACAD_REACTORS
330
10
102
}
330
10
100
AcDbXrecord
280
     1
  1
ELECTRICAL
  1
E*
  1
*
  1
*
 70
     0
  1
*
  1
*
  0
XRECORD
  5
FB
102
{ACAD_REACTORS
330
10
102
}
330
10
100
AcDbXrecord
280
     1
  1
ELEVATIONS
  1
A-ELEV-*
  1
*
  1
*
 70
     0
  1
*
  1
*
  0
XRECORD
  5
FC
102
{ACAD_REACTORS
330
10
102
}
330
10
100
AcDbXrecord
280
     1
  1
ELV
  1
ELV*
  1
*
  1
*
 70
     0
  1
*
  1
*
  0
XRECORD
  5
FD
102
{ACAD_REACTORS
330
10
102
}
330
10
100
AcDbXrecord
280
     1
  1
ERAS1F
  1
*2ERAS1F
  1
*
  1
*
 70
     0
  1
*
  1
*
  0
XRECORD
  5
FE
102
{ACAD_REACTORS
330
10
102
}
330
10
100
AcDbXrecord
280
     1
  1
ESE-M
  1
ESE-M
  1
*
  1
*
 70
     1
  1
*
  1
*
  0
XRECORD
  5
FF
102
{ACAD_REACTORS
330
10
102
}
330
10
100
AcDbXrecord
280
     1
  1
F
  1
*
  1
*
  1
*
 70
     4
  1
*
  1
*
  0
XRECORD
  5
100
102
{ACAD_REACTORS
330
10
102
}
330
10
100
AcDbXrecord
280
     1
  1
F(断面)を表示
  1
F*
  1
*
  1
*
 70
     0
  1
*
  1
*
  0
XRECORD
  5
101
102
{ACAD_REACTORS
330
10
102
}
330
10
100
AcDbXrecord
280
     1
  1
face4
  1
*face4*
  1
*
  1
*
 70
     0
  1
*
  1
*
  0
XRECORD
  5
102
102
{ACAD_REACTORS
330
10
102
}
330
10
100
AcDbXrecord
280
     1
  1
feaze
  1
*
  1
*
  1
*
 70
     5
  1
*
  1
*
  0
XRECORD
  5
103
102
{ACAD_REACTORS
330
10
102
}
330
10
100
AcDbXrecord
280
     1
  1
FENCE
  1
*FENCE*
  1
*
  1
*
 70
     0
  1
*
  1
*
  0
XRECORD
  5
104
102
{ACAD_REACTORS
330
10
102
}
330
10
100
AcDbXrecord
280
     1
  1
ff
  1
*
  1
*
  1
*
 70
    12
  1
*
  1
*
  0
XRECORD
  5
105
102
{ACAD_REACTORS
330
10
102
}
330
10
100
AcDbXrecord
280
     1
  1
fini
  1
*fini*
  1
*
  1
*
 70
     0
  1
*
  1
*
  0
XRECORD
  5
106
102
{ACAD_REACTORS
330
10
102
}
330
10
100
AcDbXrecord
280
     1
  1
FLOOR PLAN
  1
A-FLR-*
  1
*
  1
*
 70
     0
  1
*
  1
*
  0
XRECORD
  5
107
102
{ACAD_REACTORS
330
10
102
}
330
10
100
AcDbXrecord
280
     1
  1
fp2-base
  1
*
  1
*
  1
*
 70
     0
  1
*
  1
*
  0
XRECORD
  5
108
102
{ACAD_REACTORS
330
10
102
}
330
10
100
AcDbXrecord
280
     1
  1
freaze
  1
*
  1
*
  1
*
 70
     4
  1
*
  1
*
  0
XRECORD
  5
109
102
{ACAD_REACTORS
330
10
102
}
330
10
100
AcDbXrecord
280
     1
  1
FREEZE
  1
*
  1
*
  1
*
 70
     4
  1
*
  1
*
  0
XRECORD
  5
10A
102
{ACAD_REACTORS
330
10
102
}
330
10
100
AcDbXrecord
280
     1
  1
Frozen
  1
*
  1
*
  1
*
 70
     4
  1
*
  1
*
  0
XRECORD
  5
10B
102
{ACAD_REACTORS
330
10
102
}
330
10
100
AcDbXrecord
280
     1
  1
FROZENN
  1
4*
  1
*
  1
*
 70
     4
  1
*
  1
*
  0
XRECORD
  5
10C
102
{ACAD_REACTORS
330
10
102
}
330
10
100
AcDbXrecord
280
     1
  1
Fugou
  1
*-Fugou*
  1
*
  1
*
 70
     0
  1
*
  1
*
  0
XRECORD
  5
10D
102
{ACAD_REACTORS
330
10
102
}
330
10
100
AcDbXrecord
280
     1
  1
FUGOU-TATEGU
  1
*FUGOU-TATEGU
  1
*
  1
*
 70
     0
  1
*
  1
*
  0
XRECORD
  5
10E
102
{ACAD_REACTORS
330
10
102
}
330
10
100
AcDbXrecord
280
     1
  1
FUKI
  1
*FUKI
  1
*
  1
*
 70
     0
  1
*
  1
*
  0
XRECORD
  5
10F
102
{ACAD_REACTORS
330
10
102
}
330
10
100
AcDbXrecord
280
     1
  1
FURN
  1
*FURN*
  1
*
  1
*
 70
     0
  1
*
  1
*
  0
XRECORD
  5
110
102
{ACAD_REACTORS
330
10
102
}
330
10
100
AcDbXrecord
280
     1
  1
furn-hide
  1
*-furn-hide
  1
*
  1
*
 70
     0
  1
*
  1
*
  0
XRECORD
  5
111
102
{ACAD_REACTORS
330
10
102
}
330
10
100
AcDbXrecord
280
     1
  1
FUSE_00
  1
*
  1
*
  1
*
 70
     0
  1
*
  1
*
  0
XRECORD
  5
112
102
{ACAD_REACTORS
330
10
102
}
330
10
100
AcDbXrecord
280
     1
  1
G
  1
*-G*
  1
*
  1
*
 70
     0
  1
*
  1
*
  0
XRECORD
  5
113
102
{ACAD_REACTORS
330
10
102
}
330
10
100
AcDbXrecord
280
     1
  1
G(開口)を表示
  1
G*
  1
*
  1
*
 70
     0
  1
*
  1
*
  0
XRECORD
  5
114
102
{ACAD_REACTORS
330
10
102
}
330
10
100
AcDbXrecord
280
     1
  1
GAIKOU
  1
*
  1
*
  1
*
 70
     0
  1
*
  1
*
  0
XRECORD
  5
115
102
{ACAD_REACTORS
330
10
102
}
330
10
100
AcDbXrecord
280
     1
  1
Germinaci\U+00F3n
  1
24*
  1
*
  1
*
 70
     0
  1
*
  1
*
  0
XRECORD
  5
116
102
{ACAD_REACTORS
330
10
102
}
330
10
100
AcDbXrecord
280
     1
  1
GHERZI
  1
dim,dim1,col*bub,a-dim200,dim1,parking*grid,par*grid,COL*GRID,Core*bub,ctr*grid,ctr*bub,Symbols
  1
*
  1
*
 70
     0
  1
*
  1
*
  0
XRECORD
  5
117
102
{ACAD_REACTORS
330
10
102
}
330
10
100
AcDbXrecord
280
     1
  1
GLAZING
  1
*GL*
  1
*
  1
*
 70
     0
  1
*
  1
*
  0
XRECORD
  5
118
102
{ACAD_REACTORS
330
10
102
}
330
10
100
AcDbXrecord
280
     1
  1
gon
  1
c_ch,c_dim,c_fin,c_glatingdim,c_shisei_let,c_symbol,c_wallbase,f_electric,g_ckout,g_gondla,g_mdtxt,g_wood
  1
*
  1
*
 70
     0
  1
*
  1
*
  0
XRECORD
  5
119
102
{ACAD_REACTORS
330
10
102
}
330
10
100
AcDbXrecord
280
     1
  1
gondora
  1
a-gondora*
  1
*
  1
*
 70
     0
  1
*
  1
*
  0
XRECORD
  5
11A
102
{ACAD_REACTORS
330
10
102
}
330
10
100
AcDbXrecord
280
     1
  1
green
  1
*
  1
green
  1
*
 70
     0
  1
*
  1
*
  0
XRECORD
  5
11B
102
{ACAD_REACTORS
330
10
102
}
330
10
100
AcDbXrecord
280
     1
  1
GRID
  1
G*
  1
*
  1
*
 70
     0
  1
*
  1
*
  0
XRECORD
  5
11C
102
{ACAD_REACTORS
330
10
102
}
330
10
100
AcDbXrecord
280
     1
  1
H
  1
H*
  1
*
  1
*
 70
     0
  1
*
  1
*
  0
XRECORD
  5
11F
102
{ACAD_REACTORS
330
10
102
}
330
10
100
AcDbXrecord
280
     1
  1
H(見掛)を表示
  1
H*
  1
*
  1
*
 70
     0
  1
*
  1
*
  0
XRECORD
  5
11D
102
{ACAD_REACTORS
330
10
102
}
330
10
100
AcDbXrecord
280
     1
  1
H-
  1
H-*
  1
*
  1
*
 70
     0
  1
*
  1
*
  0
XRECORD
  5
11E
102
{ACAD_REACTORS
330
10
102
}
330
10
100
AcDbXrecord
280
     1
  1
H-SIN
  1
*H-SIN
  1
*
  1
*
 70
     0
  1
*
  1
*
  0
XRECORD
  5
120
102
{ACAD_REACTORS
330
10
102
}
330
10
100
AcDbXrecord
280
     1
  1
HAISEN
  1
*1,HAISEN
  1
*
  1
*
 70
     0
  1
*
  1
*
  0
XRECORD
  5
121
102
{ACAD_REACTORS
330
10
102
}
330
10
100
AcDbXrecord
280
     1
  1
HARI
  1
*HARI
  1
*
  1
*
 70
     0
  1
*
  1
*
  0
XRECORD
  5
122
102
{ACAD_REACTORS
330
10
102
}
330
10
100
AcDbXrecord
280
     1
  1
HASI
  1
*HASI*
  1
*
  1
*
 70
     0
  1
*
  1
*
  0
XRECORD
  5
123
102
{ACAD_REACTORS
330
10
102
}
330
10
100
AcDbXrecord
280
     1
  1
HASIRA
  1
*HASIRA
  1
*
  1
*
 70
     0
  1
*
  1
*
  0
XRECORD
  5
124
102
{ACAD_REACTORS
330
10
102
}
330
10
100
AcDbXrecord
280
     1
  1
hat
  1
*hat*
  1
*
  1
*
 70
     0
  1
*
  1
*
  0
XRECORD
  5
125
102
{ACAD_REACTORS
330
10
102
}
330
10
100
AcDbXrecord
280
     1
  1
hatch
  1
h*
  1
*
  1
*
 70
     0
  1
*
  1
*
  0
XRECORD
  5
126
102
{ACAD_REACTORS
330
10
102
}
330
10
100
AcDbXrecord
280
     1
  1
HEDATE
  1
*HEDATE*
  1
*
  1
*
 70
     0
  1
*
  1
*
  0
XRECORD
  5
127
102
{ACAD_REACTORS
330
10
102
}
330
10
100
AcDbXrecord
280
     1
  1
HEISHO
  1
1MAJ,2CGD,2CSD,2ST,4KUV,4KUH,5FGO
  1
*
  1
*
 70
     0
  1
*
  1
*
  0
XRECORD
  5
128
102
{ACAD_REACTORS
330
10
102
}
330
10
100
AcDbXrecord
280
     1
  1
HEISHO2
  1
4MAJ,3CWD,3TAT
  1
*
  1
*
 70
     0
  1
*
  1
*
  0
XRECORD
  5
129
102
{ACAD_REACTORS
330
10
102
}
330
10
100
AcDbXrecord
280
     1
  1
hi
  1
*
  1
*
  1
*
 70
     3
  1
*
  1
*
  0
XRECORD
  5
12A
102
{ACAD_REACTORS
330
10
102
}
330
10
100
AcDbXrecord
280
     1
  1
HIDDEN
  1
*
  1
*
  1
HIDDEN
 70
     0
  1
*
  1
*
  0
XRECORD
  5
12B
102
{ACAD_REACTORS
330
10
102
}
330
10
100
AcDbXrecord
280
     1
  1
HM
  1
-*
  1
*
  1
*
 70
     0
  1
*
  1
*
  0
XRECORD
  5
12C
102
{ACAD_REACTORS
330
10
102
}
330
10
100
AcDbXrecord
280
     1
  1
HOIKU
  1
*HO,HO*
  1
*
  1
*
 70
     0
  1
*
  1
*
  0
XRECORD
  5
12D
102
{ACAD_REACTORS
330
10
102
}
330
10
100
AcDbXrecord
280
     1
  1
HOJO
  1
*HOJO
  1
*
  1
*
 70
     0
  1
*
  1
*
  0
XRECORD
  5
12E
102
{ACAD_REACTORS
330
10
102
}
330
10
100
AcDbXrecord
280
     1
  1
hollywood
  1
*
  1
*
  1
*
 70
    12
  1
*
  1
*
  0
XRECORD
  5
12F
102
{ACAD_REACTORS
330
10
102
}
330
10
100
AcDbXrecord
280
     1
  1
HOTEL
  1
*HOT*
  1
*
  1
*
 70
     0
  1
*
  1
*
  0
XRECORD
  5
130
102
{ACAD_REACTORS
330
10
102
}
330
10
100
AcDbXrecord
280
     1
  1
HOU
  1
*HOU*
  1
*
  1
*
 70
     0
  1
*
  1
*
  0
XRECORD
  5
131
102
{ACAD_REACTORS
330
10
102
}
330
10
100
AcDbXrecord
280
     1
  1
houki
  1
h-*
  1
*
  1
*
 70
     0
  1
*
  1
*
  0
XRECORD
  5
132
102
{ACAD_REACTORS
330
10
102
}
330
10
100
AcDbXrecord
280
     1
  1
huse
  1
0,defpoints
  1
*
  1
*
 70
     0
  1
*
  1
*
  0
XRECORD
  5
133
102
{ACAD_REACTORS
330
10
102
}
330
10
100
AcDbXrecord
280
     1
  1
HY
  1
hy*
  1
*
  1
*
 70
     0
  1
*
  1
*
  0
XRECORD
  5
134
102
{ACAD_REACTORS
330
10
102
}
330
10
100
AcDbXrecord
280
     1
  1
HY M1-1
  1
HY M1-1
  1
*
  1
*
 70
     0
  1
*
  1
*
  0
XRECORD
  5
135
102
{ACAD_REACTORS
330
10
102
}
330
10
100
AcDbXrecord
280
     1
  1
HYOKI
  1
*HYOKI
  1
*
  1
*
 70
     0
  1
*
  1
*
  0
XRECORD
  5
136
102
{ACAD_REACTORS
330
10
102
}
330
10
100
AcDbXrecord
280
     1
  1
HYOUKI
  1
*
  1
*
  1
*
 70
     0
  1
*
  1
*
  0
XRECORD
  5
137
102
{ACAD_REACTORS
330
10
102
}
330
10
100
AcDbXrecord
280
     1
  1
i
  1
*
  1
*
  1
*
 70
     0
  1
*
  1
*
  0
XRECORD
  5
138
102
{ACAD_REACTORS
330
10
102
}
330
10
100
AcDbXrecord
280
     1
  1
I(二次部材系))を表示
  1
I*
  1
*
  1
*
 70
     0
  1
*
  1
*
  0
XRECORD
  5
139
102
{ACAD_REACTORS
330
10
102
}
330
10
100
AcDbXrecord
280
     1
  1
I2
  1
*I2CL*
  1
*
  1
*
 70
     0
  1
*
  1
*
  0
XRECORD
  5
13A
102
{ACAD_REACTORS
330
10
102
}
330
10
100
AcDbXrecord
280
     1
  1
i2cl
  1
*i2c?*
  1
*
  1
*
 70
     0
  1
*
  1
*
  0
XRECORD
  5
13B
102
{ACAD_REACTORS
330
10
102
}
330
10
100
AcDbXrecord
280
     1
  1
i5
  1
*i5*
  1
*
  1
*
 70
     0
  1
*
  1
*
  0
XRECORD
  5
13C
102
{ACAD_REACTORS
330
10
102
}
330
10
100
AcDbXrecord
280
     1
  1
i9
  1
*i9*
  1
*
  1
*
 70
     0
  1
*
  1
*
  0
XRECORD
  5
13D
102
{ACAD_REACTORS
330
10
102
}
330
10
100
AcDbXrecord
280
     1
  1
IEL
  1
IE*
  1
*
  1
*
 70
     0
  1
*
  1
*
  0
XRECORD
  5
13E
102
{ACAD_REACTORS
330
10
102
}
330
10
100
AcDbXrecord
280
     1
  1
ims
  1
ims*
  1
*
  1
*
 70
     0
  1
*
  1
*
  0
XRECORD
  5
13F
102
{ACAD_REACTORS
330
10
102
}
330
10
100
AcDbXrecord
280
     1
  1
INSERT図
  1
*
  1
*
  1
*
 70
    12
  1
*
  1
*
  0
XRECORD
  5
140
102
{ACAD_REACTORS
330
10
102
}
330
10
100
AcDbXrecord
280
     1
  1
irc
  1
irc*
  1
*
  1
*
 70
     0
  1
*
  1
*
  0
XRECORD
  5
141
102
{ACAD_REACTORS
330
10
102
}
330
10
100
AcDbXrecord
280
     1
  1
iro
  1
*
  1
magenta*
  1
*
 70
     0
  1
*
  1
*
  0
XRECORD
  5
142
102
{ACAD_REACTORS
330
10
102
}
330
10
100
AcDbXrecord
280
     1
  1
j
  1
j*
  1
*
  1
*
 70
     0
  1
*
  1
*
  0
XRECORD
  5
143
102
{ACAD_REACTORS
330
10
102
}
330
10
100
AcDbXrecord
280
     1
  1
JYUUKO
  1
*JYUUKO
  1
*
  1
*
 70
     0
  1
*
  1
*
  0
XRECORD
  5
144
102
{ACAD_REACTORS
330
10
102
}
330
10
100
AcDbXrecord
280
     1
  1
K
  1
K*
  1
*
  1
*
 70
     0
  1
*
  1
*
  0
XRECORD
  5
145
102
{ACAD_REACTORS
330
10
102
}
330
10
100
AcDbXrecord
280
     1
  1
KABE
  1
W-*
  1
*
  1
*
 70
     0
  1
*
  1
*
  0
XRECORD
  5
146
102
{ACAD_REACTORS
330
10
102
}
330
10
100
AcDbXrecord
280
     1
  1
KABESHIN
  1
*A12
  1
*
  1
*
 70
     0
  1
*
  1
*
  0
XRECORD
  5
147
102
{ACAD_REACTORS
330
10
102
}
330
10
100
AcDbXrecord
280
     1
  1
KAGU
  1
*7KAGU
  1
9
  1
*
 70
     0
  1
*
  1
*
  0
XRECORD
  5
148
102
{ACAD_REACTORS
330
10
102
}
330
10
100
AcDbXrecord
280
     1
  1
KARI
  1
*-KARI
  1
*
  1
*
 70
     0
  1
*
  1
*
  0
XRECORD
  5
149
102
{ACAD_REACTORS
330
10
102
}
330
10
100
AcDbXrecord
280
     1
  1
KDA
  1
K-ハッチング,K-下地,K-記号,K-基準,K-姿1,K-姿1H,K-姿2,K-姿2H,K-寸法,K-断面,K-文字,K-補助,K-電気,K-設備
  1
*
  1
*
 70
     0
  1
*
  1
*
  0
XRECORD
  5
14A
102
{ACAD_REACTORS
330
10
102
}
330
10
100
AcDbXrecord
280
     1
  1
KDA天伏
  1
03NAM-100,K-基準,K-天伏姿1,K-天伏姿2,K-天伏寸法,K-断面,K-天伏断面,K-天伏建具,K-電気,K-壁芯,K-設備,0,09STR,K-補助,K-天伏文字
  1
*
  1
*
 70
     0
  1
*
  1
*
  0
XRECORD
  5
14B
102
{ACAD_REACTORS
330
10
102
}
330
10
100
AcDbXrecord
280
     1
  1
KDA平詳
  1
K-ハッチング,K-下地,K-基準,K-記号,K-建具断面,K-姿1,K-姿1H,K-姿2,K-姿2H,K-寸法,K-設備,K-断面,0,09STR,044TXT-100,07HOU,13ZAT,16HID,16HID-100,K-壁芯,K-文字,03NAM-50,032sLEVEL-100,031kLEVEL-100
  1
*
  1
*
 70
     0
  1
*
  1
*
  0
XRECORD
  5
14C
102
{ACAD_REACTORS
330
10
102
}
330
10
100
AcDbXrecord
280
     1
  1
key
  1
keyplan
  1
*
  1
*
 70
     0
  1
*
  1
*
  0
XRECORD
  5
14D
102
{ACAD_REACTORS
330
10
102
}
330
10
100
AcDbXrecord
280
     1
  1
keyplan
  1
*-k
  1
*
  1
*
 70
     0
  1
*
  1
*
  0
XRECORD
  5
14E
102
{ACAD_REACTORS
330
10
102
}
330
10
100
AcDbXrecord
280
     1
  1
KIGO
  1
*KIGO*
  1
*
  1
*
 70
     0
  1
*
  1
*
  0
XRECORD
  5
14F
102
{ACAD_REACTORS
330
10
102
}
330
10
100
AcDbXrecord
280
     1
  1
kijun
  1
kijun
  1
*
  1
*
 70
     0
  1
*
  1
*
  0
XRECORD
  5
150
102
{ACAD_REACTORS
330
10
102
}
330
10
100
AcDbXrecord
280
     1
  1
KJMDBCAD
  1
K_*,DK_*,$K_*,$DK_*,KCMDATA,$KCMDATA
  1
*
  1
*
 70
     0
  1
*
  1
*
  0
XRECORD
  5
151
102
{ACAD_REACTORS
330
10
102
}
330
10
100
AcDbXrecord
280
     1
  1
KSIN
  1
*2KSIN
  1
21
  1
*
 70
     0
  1
*
  1
*
  0
XRECORD
  5
152
102
{ACAD_REACTORS
330
10
102
}
330
10
100
AcDbXrecord
280
     1
  1
kui
  1
*
  1
*
  1
*
 70
     4
  1
*
  1
*
  0
XRECORD
  5
153
102
{ACAD_REACTORS
330
10
102
}
330
10
100
AcDbXrecord
280
     1
  1
kutai
  1
*A31
  1
*
  1
*
 70
     0
  1
*
  1
*
  0
XRECORD
  5
154
102
{ACAD_REACTORS
330
10
102
}
330
10
100
AcDbXrecord
280
     1
  1
L
  1
L*
  1
*
  1
*
 70
     0
  1
*
  1
*
  0
XRECORD
  5
155
102
{ACAD_REACTORS
330
10
102
}
330
10
100
AcDbXrecord
280
     1
  1
level
  1
*lev*
  1
*
  1
*
 70
     0
  1
*
  1
*
  0
XRECORD
  5
156
102
{ACAD_REACTORS
330
10
102
}
330
10
100
AcDbXrecord
280
     1
  1
level-3 arch
  1
level 3|*
  1
*
  1
*
 70
     0
  1
*
  1
*
  0
XRECORD
  5
157
102
{ACAD_REACTORS
330
10
102
}
330
10
100
AcDbXrecord
280
     1
  1
LGS
  1
*LGS*
  1
*
  1
*
 70
     0
  1
*
  1
*
  0
XRECORD
  5
158
102
{ACAD_REACTORS
330
10
102
}
330
10
100
AcDbXrecord
280
     1
  1
LIST
  1
*LIST*
  1
*
  1
*
 70
     0
  1
*
  1
*
  0
XRECORD
  5
159
102
{ACAD_REACTORS
330
10
102
}
330
10
100
AcDbXrecord
280
     1
  1
LOCK
  1
*
  1
*
  1
*
 70
   256
  1
*
  1
*
  0
XRECORD
  5
15A
102
{ACAD_REACTORS
330
10
102
}
330
10
100
AcDbXrecord
280
     1
  1
Locked
  1
*
  1
*
  1
*
 70
   256
  1
*
  1
*
  0
XRECORD
  5
15B
102
{ACAD_REACTORS
330
10
102
}
330
10
100
AcDbXrecord
280
     1
  1
LS
  1
LS-*
  1
*
  1
*
 70
     0
  1
*
  1
*
  0
XRECORD
  5
15D
102
{ACAD_REACTORS
330
10
102
}
330
10
100
AcDbXrecord
280
     1
  1
m
  1
*
  1
*
  1
*
 70
     0
  1
*
  1
*
  0
XRECORD
  5
15E
102
{ACAD_REACTORS
330
10
102
}
330
10
100
AcDbXrecord
280
     1
  1
MA
  1
MA*
  1
*
  1
*
 70
     0
  1
*
  1
*
  0
XRECORD
  5
15F
102
{ACAD_REACTORS
330
10
102
}
330
10
100
AcDbXrecord
280
     1
  1
magenta
  1
*
  1
magenta
  1
*
 70
     0
  1
*
  1
*
  0
XRECORD
  5
160
102
{ACAD_REACTORS
330
10
102
}
330
10
100
AcDbXrecord
280
     1
  1
maji
  1
*A12
  1
*
  1
*
 70
     0
  1
*
  1
*
  0
XRECORD
  5
161
102
{ACAD_REACTORS
330
10
102
}
330
10
100
AcDbXrecord
280
     1
  1
MAJIKIRI
  1
*MAJIKIRI
  1
*
  1
*
 70
     0
  1
*
  1
*
  0
XRECORD
  5
162
102
{ACAD_REACTORS
330
10
102
}
330
10
100
AcDbXrecord
280
     1
  1
mazenda
  1
*
  1
6
  1
*
 70
     0
  1
*
  1
*
  0
XRECORD
  5
163
102
{ACAD_REACTORS
330
10
102
}
330
10
100
AcDbXrecord
280
     1
  1
MB
  1
*MB
  1
*
  1
*
 70
     0
  1
*
  1
*
  0
XRECORD
  5
164
102
{ACAD_REACTORS
330
10
102
}
330
10
100
AcDbXrecord
280
     1
  1
MECHANICAL
  1
M*
  1
*
  1
*
 70
     0
  1
*
  1
*
  0
XRECORD
  5
165
102
{ACAD_REACTORS
330
10
102
}
330
10
100
AcDbXrecord
280
     1
  1
meji
  1
*MEJI
  1
*
  1
*
 70
     0
  1
*
  1
*
  0
XRECORD
  5
166
102
{ACAD_REACTORS
330
10
102
}
330
10
100
AcDbXrecord
280
     1
  1
MEMO
  1
*MEMO*
  1
*
  1
*
 70
     0
  1
*
  1
*
  0
XRECORD
  5
167
102
{ACAD_REACTORS
330
10
102
}
330
10
100
AcDbXrecord
280
     1
  1
men
  1
*tm*
  1
*
  1
*
 70
     0
  1
*
  1
*
  0
XRECORD
  5
168
102
{ACAD_REACTORS
330
10
102
}
330
10
100
AcDbXrecord
280
     1
  1
men-s
  1
*
  1
*
  1
*
 70
     0
  1
*
  1
*
  0
XRECORD
  5
169
102
{ACAD_REACTORS
330
10
102
}
330
10
100
AcDbXrecord
280
     1
  1
MI-1
  1
T_*|小多チェック
  1
*
  1
*
 70
     0
  1
*
  1
*
  0
XRECORD
  5
16A
102
{ACAD_REACTORS
330
10
102
}
330
10
100
AcDbXrecord
280
     1
  1
MI-2
  1
T_*|KIJUTU
  1
*
  1
*
 70
     0
  1
*
  1
*
  0
XRECORD
  5
16B
102
{ACAD_REACTORS
330
10
102
}
330
10
100
AcDbXrecord
280
     1
  1
MI-3
  1
T_*|チェック
  1
*
  1
*
 70
     0
  1
*
  1
*
  0
XRECORD
  5
16C
102
{ACAD_REACTORS
330
10
102
}
330
10
100
AcDbXrecord
280
     1
  1
MI-4
  1
T_*|1
  1
*
  1
*
 70
     0
  1
*
  1
*
  0
XRECORD
  5
16D
102
{ACAD_REACTORS
330
10
102
}
330
10
100
AcDbXrecord
280
     1
  1
MI-5
  1
T_*|HOJO*
  1
*
  1
*
 70
     0
  1
*
  1
*
  0
XRECORD
  5
16E
102
{ACAD_REACTORS
330
10
102
}
330
10
100
AcDbXrecord
280
     1
  1
MI-6
  1
T_*|OUTLINE
  1
*
  1
*
 70
     0
  1
*
  1
*
  0
XRECORD
  5
16F
102
{ACAD_REACTORS
330
10
102
}
330
10
100
AcDbXrecord
280
     1
  1
MI-7
  1
T_*|000
  1
*
  1
*
 70
     0
  1
*
  1
*
  0
XRECORD
  5
170
102
{ACAD_REACTORS
330
10
102
}
330
10
100
AcDbXrecord
280
     1
  1
miwa
  1
*
  1
*
  1
*
 70
     0
  1
*
  1
*
  0
XRECORD
  5
171
102
{ACAD_REACTORS
330
10
102
}
330
10
100
AcDbXrecord
280
     1
  1
MOJI
  1
*MOJI
  1
*
  1
*
 70
     0
  1
*
  1
*
  0
XRECORD
  5
172
102
{ACAD_REACTORS
330
10
102
}
330
10
100
AcDbXrecord
280
     1
  1
MOJI-TYPE
  1
*MOJI-TYPE*
  1
*
  1
*
 70
     0
  1
*
  1
*
  0
XRECORD
  5
173
102
{ACAD_REACTORS
330
10
102
}
330
10
100
AcDbXrecord
280
     1
  1
MOJI100
  1
*5MOJI100
  1
3
  1
*
 70
     0
  1
*
  1
*
  0
XRECORD
  5
174
102
{ACAD_REACTORS
330
10
102
}
330
10
100
AcDbXrecord
280
     1
  1
MOJI200
  1
*5MOJI200*
  1
3
  1
*
 70
     0
  1
*
  1
*
  0
XRECORD
  5
175
102
{ACAD_REACTORS
330
10
102
}
330
10
100
AcDbXrecord
280
     1
  1
moji400
  1
*moji400*
  1
*
  1
*
 70
     0
  1
*
  1
*
  0
XRECORD
  5
176
102
{ACAD_REACTORS
330
10
102
}
330
10
100
AcDbXrecord
280
     1
  1
MOJI50
  1
*MOJI50*
  1
*
  1
*
 70
     0
  1
*
  1
*
  0
XRECORD
  5
177
102
{ACAD_REACTORS
330
10
102
}
330
10
100
AcDbXrecord
280
     1
  1
MV
  1
*MV*
  1
*
  1
*
 70
     0
  1
*
  1
*
  0
XRECORD
  5
178
102
{ACAD_REACTORS
330
10
102
}
330
10
100
AcDbXrecord
280
     1
  1
N
  1
*N住戸*
  1
*
  1
*
 70
     0
  1
*
  1
*
  0
XRECORD
  5
179
102
{ACAD_REACTORS
330
10
102
}
330
10
100
AcDbXrecord
280
     1
  1
naka
  1
*
  1
8
  1
*
 70
     0
  1
*
  1
*
  0
XRECORD
  5
17A
102
{ACAD_REACTORS
330
10
102
}
330
10
100
AcDbXrecord
280
     1
  1
new
  1
new*
  1
*
  1
*
 70
     0
  1
*
  1
*
  0
XRECORD
  5
17B
102
{ACAD_REACTORS
330
10
102
}
330
10
100
AcDbXrecord
280
     1
  1
New Doors
  1
*ADO*
  1
*
  1
*
 70
     0
  1
*
  1
*
  0
XRECORD
  5
17C
102
{ACAD_REACTORS
330
10
102
}
330
10
100
AcDbXrecord
280
     1
  1
New Walls
  1
A*,2
  1
*
  1
*
 70
     0
  1
*
  1
*
  0
XRECORD
  5
17D
102
{ACAD_REACTORS
330
10
102
}
330
10
100
AcDbXrecord
280
     1
  1
NHK
  1
N*
  1
*
  1
*
 70
     0
  1
*
  1
*
  0
XRECORD
  5
17E
102
{ACAD_REACTORS
330
10
102
}
330
10
100
AcDbXrecord
280
     1
  1
nic
  1
*
  1
*
  1
*
 70
     0
  1
253
  1
*
  0
XRECORD
  5
17F
102
{ACAD_REACTORS
330
10
102
}
330
10
100
AcDbXrecord
280
     1
  1
NOJI100
  1
*MOJI100*
  1
*
  1
*
 70
     0
  1
*
  1
*
  0
XRECORD
  5
180
102
{ACAD_REACTORS
330
10
102
}
330
10
100
AcDbXrecord
280
     1
  1
not plot
  1
*
  1
*
  1
*
 70
  3072
  1
*
  1
*
  0
XRECORD
  5
181
102
{ACAD_REACTORS
330
10
102
}
330
10
100
AcDbXrecord
280
     1
  1
note
  1
tca-6f|*note*
  1
*
  1
*
 70
     0
  1
*
  1
*
  0
XRECORD
  5
182
102
{ACAD_REACTORS
330
10
102
}
330
10
100
AcDbXrecord
280
     1
  1
NUAGE
  1
*01*
  1
*
  1
*
 70
     0
  1
*
  1
*
  0
XRECORD
  5
183
102
{ACAD_REACTORS
330
10
102
}
330
10
100
AcDbXrecord
280
     1
  1
o
  1
*
  1
*
  1
*
 70
     3
  1
*
  1
*
  0
XRECORD
  5
184
102
{ACAD_REACTORS
330
10
102
}
330
10
100
AcDbXrecord
280
     1
  1
OF
  1
*
  1
*
  1
*
 70
     3
  1
*
  1
*
  0
XRECORD
  5
185
102
{ACAD_REACTORS
330
10
102
}
330
10
100
AcDbXrecord
280
     1
  1
off
  1
*
  1
*
  1
*
 70
     3
  1
*
  1
*
  0
XRECORD
  5
186
102
{ACAD_REACTORS
330
10
102
}
330
10
100
AcDbXrecord
280
     1
  1
off文字
  1
*TXT*
  1
*
  1
*
 70
     0
  1
*
  1
*
  0
XRECORD
  5
187
102
{ACAD_REACTORS
330
10
102
}
330
10
100
AcDbXrecord
280
     1
  1
on
  1
*
  1
*
  1
*
 70
    13
  1
*
  1
*
  0
XRECORD
  5
188
102
{ACAD_REACTORS
330
10
102
}
330
10
100
AcDbXrecord
280
     1
  1
ON-THAWED
  1
*
  1
*
  1
*
 70
    13
  1
*
  1
*
  0
XRECORD
  5
189
102
{ACAD_REACTORS
330
10
102
}
330
10
100
AcDbXrecord
280
     1
  1
onlayers
  1
*
  1
*
  1
*
 70
    13
  1
*
  1
*
  0
XRECORD
  5
18A
102
{ACAD_REACTORS
330
10
102
}
330
10
100
AcDbXrecord
280
     1
  1
option 1
  1
1*
  1
*
  1
*
 70
     0
  1
*
  1
*
  0
XRECORD
  5
18B
102
{ACAD_REACTORS
330
10
102
}
330
10
100
AcDbXrecord
280
     1
  1
option 2
  1
2*
  1
*
  1
*
 70
     0
  1
*
  1
*
  0
XRECORD
  5
18C
102
{ACAD_REACTORS
330
10
102
}
330
10
100
AcDbXrecord
280
     1
  1
OUTLINE
  1
T_*|OUTLINE
  1
*
  1
*
 70
     0
  1
*
  1
*
  0
XRECORD
  5
18D
102
{ACAD_REACTORS
330
10
102
}
330
10
100
AcDbXrecord
280
     1
  1
p
  1
p*
  1
*
  1
*
 70
     0
  1
*
  1
*
  0
XRECORD
  5
18E
102
{ACAD_REACTORS
330
10
102
}
330
10
100
AcDbXrecord
280
     1
  1
p1
  1
*
  1
212*
  1
*
 70
     0
  1
*
  1
*
  0
XRECORD
  5
18F
102
{ACAD_REACTORS
330
10
102
}
330
10
100
AcDbXrecord
280
     1
  1
p2
  1
*
  1
53*
  1
*
 70
     0
  1
*
  1
*
  0
XRECORD
  5
190
102
{ACAD_REACTORS
330
10
102
}
330
10
100
AcDbXrecord
280
     1
  1
p3
  1
*
  1
95*
  1
*
 70
     0
  1
*
  1
*
  0
XRECORD
  5
191
102
{ACAD_REACTORS
330
10
102
}
330
10
100
AcDbXrecord
280
     1
  1
p4
  1
*
  1
8*
  1
*
 70
     0
  1
*
  1
*
  0
XRECORD
  5
192
102
{ACAD_REACTORS
330
10
102
}
330
10
100
AcDbXrecord
280
     1
  1
PALFOND
  1
*
  1
*
  1
*
 70
    13
  1
*
  1
*
  0
XRECORD
  5
193
102
{ACAD_REACTORS
330
10
102
}
330
10
100
AcDbXrecord
280
     1
  1
paredees
  1
*corte*
  1
*
  1
*
 70
     0
  1
*
  1
*
  0
XRECORD
  5
194
102
{ACAD_REACTORS
330
10
102
}
330
10
100
AcDbXrecord
280
     1
  1
Pasarelas
  1
296*
  1
*
  1
*
 70
     0
  1
*
  1
*
  0
XRECORD
  5
195
102
{ACAD_REACTORS
330
10
102
}
330
10
100
AcDbXrecord
280
     1
  1
PATT
  1
*PATT*
  1
*
  1
*
 70
     0
  1
*
  1
*
  0
XRECORD
  5
196
102
{ACAD_REACTORS
330
10
102
}
330
10
100
AcDbXrecord
280
     1
  1
PC
  1
0,11*,12*,13*,14*,15*,18*,23*,25*,30*,31*,32*,51*,52*,54*,59*,60*,66*,67*,69*,76*
  1
*
  1
*
 70
     0
  1
*
  1
*
  0
XRECORD
  5
197
102
{ACAD_REACTORS
330
10
102
}
330
10
100
AcDbXrecord
280
     1
  1
pen1
  1
*
  1
212*
  1
*
 70
     0
  1
*
  1
*
  0
XRECORD
  5
198
102
{ACAD_REACTORS
330
10
102
}
330
10
100
AcDbXrecord
280
     1
  1
pen2
  1
*
  1
yellow*
  1
*
 70
     0
  1
*
  1
*
  0
XRECORD
  5
199
102
{ACAD_REACTORS
330
10
102
}
330
10
100
AcDbXrecord
280
     1
  1
pen3
  1
*
  1
green*
  1
*
 70
     0
  1
*
  1
*
  0
XRECORD
  5
19A
102
{ACAD_REACTORS
330
10
102
}
330
10
100
AcDbXrecord
280
     1
  1
pen4
  1
*
  1
blue*
  1
*
 70
     0
  1
*
  1
*
  0
XRECORD
  5
19B
102
{ACAD_REACTORS
330
10
102
}
330
10
100
AcDbXrecord
280
     1
  1
pen5
  1
*
  1
14*
  1
*
 70
     0
  1
*
  1
*
  0
XRECORD
  5
19C
102
{ACAD_REACTORS
330
10
102
}
330
10
100
AcDbXrecord
280
     1
  1
PLAN
  1
*
  1
*
  1
*
 70
     0
  1
*
  1
*
  0
XRECORD
  5
19D
102
{ACAD_REACTORS
330
10
102
}
330
10
100
AcDbXrecord
280
     1
  1
plot
  1
*
  1
*
  1
*
 70
     1
  1
*
  1
*
  0
XRECORD
  5
19E
102
{ACAD_REACTORS
330
10
102
}
330
10
100
AcDbXrecord
280
     1
  1
PLUMBING
  1
P*
  1
*
  1
*
 70
     0
  1
*
  1
*
  0
XRECORD
  5
19F
102
{ACAD_REACTORS
330
10
102
}
330
10
100
AcDbXrecord
280
     1
  1
Q
  1
*
  1
*
  1
PHANTOM
 70
     0
  1
*
  1
*
  0
XRECORD
  5
1A0
102
{ACAD_REACTORS
330
10
102
}
330
10
100
AcDbXrecord
280
     1
  1
r
  1
*
  1
*
  1
*
 70
   768
  1
*
  1
*
  0
XRECORD
  5
1A1
102
{ACAD_REACTORS
330
10
102
}
330
10
100
AcDbXrecord
280
     1
  1
RAM
  1
RAM*
  1
*
  1
*
 70
     0
  1
*
  1
*
  0
XRECORD
  5
1A2
102
{ACAD_REACTORS
330
10
102
}
330
10
100
AcDbXrecord
280
     1
  1
RC
  1
*RC
  1
*
  1
*
 70
     0
  1
*
  1
*
  0
XRECORD
  5
1A3
102
{ACAD_REACTORS
330
10
102
}
330
10
100
AcDbXrecord
280
     1
  1
RCP
  1
A-CLG-*
  1
*
  1
*
 70
     0
  1
*
  1
*
  0
XRECORD
  5
1A4
102
{ACAD_REACTORS
330
10
102
}
330
10
100
AcDbXrecord
280
     1
  1
RCP-PLAN
  1
A*C
  1
*
  1
*
 70
     0
  1
*
  1
*
  0
XRECORD
  5
1A5
102
{ACAD_REACTORS
330
10
102
}
330
10
100
AcDbXrecord
280
     1
  1
red
  1
*
  1
10
  1
*
 70
     0
  1
*
  1
*
  0
XRECORD
  5
1A6
102
{ACAD_REACTORS
330
10
102
}
330
10
100
AcDbXrecord
280
     1
  1
Remojo
  1
23*
  1
*
  1
*
 70
     0
  1
*
  1
*
  0
XRECORD
  5
1A7
102
{ACAD_REACTORS
330
10
102
}
330
10
100
AcDbXrecord
280
     1
  1
RF
  1
*
  1
*
  1
*
 70
     0
  1
*
  1
*
  0
XRECORD
  5
1A8
102
{ACAD_REACTORS
330
10
102
}
330
10
100
AcDbXrecord
280
     1
  1
riser locs
  1
*
  1
*
  1
*
 70
     0
  1
*
  1
*
  0
XRECORD
  5
1A9
102
{ACAD_REACTORS
330
10
102
}
330
10
100
AcDbXrecord
280
     1
  1
riser locs less dims
  1
*
  1
*
  1
*
 70
     0
  1
*
  1
*
  0
XRECORD
  5
1AA
102
{ACAD_REACTORS
330
10
102
}
330
10
100
AcDbXrecord
280
     1
  1
rk
  1
*rk*
  1
*
  1
*
 70
     0
  1
*
  1
*
  0
XRECORD
  5
1AB
102
{ACAD_REACTORS
330
10
102
}
330
10
100
AcDbXrecord
280
     1
  1
rm
  1
*rm*
  1
*
  1
*
 70
     0
  1
*
  1
*
  0
XRECORD
  5
1AC
102
{ACAD_REACTORS
330
10
102
}
330
10
100
AcDbXrecord
280
     1
  1
ROOF
  1
*ROOF*
  1
*
  1
*
 70
     0
  1
*
  1
*
  0
XRECORD
  5
1AD
102
{ACAD_REACTORS
330
10
102
}
330
10
100
AcDbXrecord
280
     1
  1
S
  1
S_*
  1
*
  1
*
 70
     0
  1
*
  1
*
  0
XRECORD
  5
1AE
102
{ACAD_REACTORS
330
10
102
}
330
10
100
AcDbXrecord
280
     1
  1
saciencewold
  1
*
  1
*
  1
*
 70
     0
  1
*
  1
*
  0
XRECORD
  5
1AF
102
{ACAD_REACTORS
330
10
102
}
330
10
100
AcDbXrecord
280
     1
  1
SANGYO
  1
*SA,SA*
  1
*
  1
*
 70
     0
  1
*
  1
*
  0
XRECORD
  5
1B0
102
{ACAD_REACTORS
330
10
102
}
330
10
100
AcDbXrecord
280
     1
  1
SECTION
  1
*A-S-*
  1
*
  1
*
 70
     0
  1
*
  1
*
  0
XRECORD
  5
1B1
102
{ACAD_REACTORS
330
10
102
}
330
10
100
AcDbXrecord
280
     1
  1
SETUBI
  1
*SETUBI
  1
*
  1
*
 70
     0
  1
*
  1
*
  0
XRECORD
  5
1B2
102
{ACAD_REACTORS
330
10
102
}
330
10
100
AcDbXrecord
280
     1
  1
SHITU
  1
*SHITUMEI*
  1
*
  1
*
 70
     0
  1
*
  1
*
  0
XRECORD
  5
1B3
102
{ACAD_REACTORS
330
10
102
}
330
10
100
AcDbXrecord
280
     1
  1
SHITUMEI
  1
*SHITUMEI2
  1
*
  1
*
 70
     0
  1
*
  1
*
  0
XRECORD
  5
1B4
102
{ACAD_REACTORS
330
10
102
}
330
10
100
AcDbXrecord
280
     1
  1
Show all on
  1
*
  1
*
  1
*
 70
     1
  1
*
  1
*
  0
XRECORD
  5
1B5
102
{ACAD_REACTORS
330
10
102
}
330
10
100
AcDbXrecord
280
     1
  1
SIAG
  1
*3SIAG
  1
*
  1
*
 70
     0
  1
*
  1
*
  0
XRECORD
  5
1B6
102
{ACAD_REACTORS
330
10
102
}
330
10
100
AcDbXrecord
280
     1
  1
SIAG-N
  1
*3SIAG-N
  1
7
  1
*
 70
     0
  1
*
  1
*
  0
XRECORD
  5
1B7
102
{ACAD_REACTORS
330
10
102
}
330
10
100
AcDbXrecord
280
     1
  1
SIAG3
  1
*3SIAG3
  1
3
  1
*
 70
     0
  1
*
  1
*
  0
XRECORD
  5
1B8
102
{ACAD_REACTORS
330
10
102
}
330
10
100
AcDbXrecord
280
     1
  1
siage
  1
*siage*
  1
*
  1
*
 70
     0
  1
*
  1
*
  0
XRECORD
  5
1B9
102
{ACAD_REACTORS
330
10
102
}
330
10
100
AcDbXrecord
280
     1
  1
sin
  1
*SIN*
  1
*
  1
*
 70
     0
  1
*
  1
*
  0
XRECORD
  5
1BA
102
{ACAD_REACTORS
330
10
102
}
330
10
100
AcDbXrecord
280
     1
  1
SIN-M
  1
*SIN-M
  1
*
  1
*
 70
     0
  1
*
  1
*
  0
XRECORD
  5
1BB
102
{ACAD_REACTORS
330
10
102
}
330
10
100
AcDbXrecord
280
     1
  1
Sinm
  1
*-Sinm*
  1
*
  1
*
 70
     0
  1
*
  1
*
  0
XRECORD
  5
1BC
102
{ACAD_REACTORS
330
10
102
}
330
10
100
AcDbXrecord
280
     1
  1
sinsei
  1
sinsei
  1
*
  1
*
 70
     0
  1
*
  1
*
  0
XRECORD
  5
1BD
102
{ACAD_REACTORS
330
10
102
}
330
10
100
AcDbXrecord
280
     1
  1
SITA
  1
*3SITA
  1
*
  1
*
 70
     0
  1
*
  1
*
  0
XRECORD
  5
1BE
102
{ACAD_REACTORS
330
10
102
}
330
10
100
AcDbXrecord
280
     1
  1
site
  1
site*
  1
*
  1
*
 70
     0
  1
*
  1
*
  0
XRECORD
  5
1BF
102
{ACAD_REACTORS
330
10
102
}
330
10
100
AcDbXrecord
280
     1
  1
SNK
  1
0*
  1
*
  1
*
 70
     0
  1
*
  1
*
  0
XRECORD
  5
1C0
102
{ACAD_REACTORS
330
10
102
}
330
10
100
AcDbXrecord
280
     1
  1
SOLID
  1
*
  1
*
  1
*
 70
     0
  1
*
  1
*
  0
XRECORD
  5
1C1
102
{ACAD_REACTORS
330
10
102
}
330
10
100
AcDbXrecord
280
     1
  1
sonota
  1
*
  1
*
  1
*
 70
     0
  1
*
  1
*
  0
XRECORD
  5
1C2
102
{ACAD_REACTORS
330
10
102
}
330
10
100
AcDbXrecord
280
     1
  1
sp
  1
*sp*
  1
*
  1
*
 70
     0
  1
*
  1
*
  0
XRECORD
  5
1C3
102
{ACAD_REACTORS
330
10
102
}
330
10
100
AcDbXrecord
280
     1
  1
SS
  1
*SS*
  1
*
  1
*
 70
     0
  1
*
  1
*
  0
XRECORD
  5
1C4
102
{ACAD_REACTORS
330
10
102
}
330
10
100
AcDbXrecord
280
     1
  1
STA
  1
STA*
  1
*
  1
*
 70
     0
  1
*
  1
*
  0
XRECORD
  5
1C5
102
{ACAD_REACTORS
330
10
102
}
330
10
100
AcDbXrecord
280
     1
  1
STAIRS
  1
*ST*
  1
*
  1
*
 70
     0
  1
*
  1
*
  0
XRECORD
  5
1C6
102
{ACAD_REACTORS
330
10
102
}
330
10
100
AcDbXrecord
280
     1
  1
SUGA
  1
*4SUGA5
  1
1
  1
*
 70
     0
  1
*
  1
*
  0
XRECORD
  5
1C7
102
{ACAD_REACTORS
330
10
102
}
330
10
100
AcDbXrecord
280
     1
  1
SUGA5
  1
*4SUGA5
  1
5
  1
*
 70
     0
  1
*
  1
*
  0
XRECORD
  5
1C8
102
{ACAD_REACTORS
330
10
102
}
330
10
100
AcDbXrecord
280
     1
  1
SUNP
  1
*5SUNP100
  1
1
  1
*
 70
     0
  1
*
  1
*
  0
XRECORD
  5
1C9
102
{ACAD_REACTORS
330
10
102
}
330
10
100
AcDbXrecord
280
     1
  1
SUNP100
  1
*5SUNP100
  1
*
  1
*
 70
     0
  1
*
  1
*
  0
XRECORD
  5
1CA
102
{ACAD_REACTORS
330
10
102
}
330
10
100
AcDbXrecord
280
     1
  1
sunp400
  1
*sunp400*
  1
*
  1
*
 70
     0
  1
*
  1
*
  0
XRECORD
  5
1CB
102
{ACAD_REACTORS
330
10
102
}
330
10
100
AcDbXrecord
280
     1
  1
SUNP50
  1
*SUNP50*
  1
*
  1
*
 70
     0
  1
*
  1
*
  0
XRECORD
  5
1CC
102
{ACAD_REACTORS
330
10
102
}
330
10
100
AcDbXrecord
280
     1
  1
SYOU
  1
*
  1
*
  1
*
 70
     0
  1
*
  1
SYOU
  0
XRECORD
  5
1CD
102
{ACAD_REACTORS
330
10
102
}
330
10
100
AcDbXrecord
280
     1
  1
t
  1
dim,door
  1
*
  1
*
 70
     0
  1
*
  1
*
  0
XRECORD
  5
1CE
102
{ACAD_REACTORS
330
10
102
}
330
10
100
AcDbXrecord
280
     1
  1
T\U+00FAnel
  1
27*
  1
*
  1
*
 70
     0
  1
*
  1
*
  0
XRECORD
  5
1CF
102
{ACAD_REACTORS
330
10
102
}
330
10
100
AcDbXrecord
280
     1
  1
tabata
  1
*
  1
*
  1
*
 70
     0
  1
*
  1
*
  0
XRECORD
  5
1D0
102
{ACAD_REACTORS
330
10
102
}
330
10
100
AcDbXrecord
280
     1
  1
TAITORU
  1
*TAITORU
  1
*
  1
*
 70
     0
  1
*
  1
*
  0
XRECORD
  5
1D1
102
{ACAD_REACTORS
330
10
102
}
330
10
100
AcDbXrecord
280
     1
  1
TAKASA
  1
*
  1
2
  1
*
 70
     0
  1
*
  1
*
  0
XRECORD
  5
1D2
102
{ACAD_REACTORS
330
10
102
}
330
10
100
AcDbXrecord
280
     1
  1
TATE
  1
*161*
  1
161
  1
*
 70
     0
  1
*
  1
*
  0
XRECORD
  5
1D3
102
{ACAD_REACTORS
330
10
102
}
330
10
100
AcDbXrecord
280
     1
  1
TATE161
  1
*4TATE161
  1
161
  1
*
 70
     0
  1
*
  1
*
  0
XRECORD
  5
1D4
102
{ACAD_REACTORS
330
10
102
}
330
10
100
AcDbXrecord
280
     1
  1
TATEGU
  1
*TATEGU
  1
*
  1
*
 70
     0
  1
*
  1
*
  0
XRECORD
  5
1D5
102
{ACAD_REACTORS
330
10
102
}
330
10
100
AcDbXrecord
280
     1
  1
tca
  1
*tca*
  1
*
  1
*
 70
     0
  1
*
  1
*
  0
XRECORD
  5
1D6
102
{ACAD_REACTORS
330
10
102
}
330
10
100
AcDbXrecord
280
     1
  1
ten
  1
*ten*
  1
*
  1
*
 70
     0
  1
*
  1
*
  0
XRECORD
  5
1D7
102
{ACAD_REACTORS
330
10
102
}
330
10
100
AcDbXrecord
280
     1
  1
TENJYOU
  1
C-*
  1
*
  1
*
 70
     0
  1
*
  1
*
  0
XRECORD
  5
1D8
102
{ACAD_REACTORS
330
10
102
}
330
10
100
AcDbXrecord
280
     1
  1
TENJYOUNAI
  1
CI-*
  1
*
  1
*
 70
     0
  1
*
  1
*
  0
XRECORD
  5
1D9
102
{ACAD_REACTORS
330
10
102
}
330
10
100
AcDbXrecord
280
     1
  1
test
  1
*
  1
*
  1
*
 70
    13
  1
*
  1
*
  0
XRECORD
  5
1DA
102
{ACAD_REACTORS
330
10
102
}
330
10
100
AcDbXrecord
280
     1
  1
test1024
  1
*
  1
*
  1
*
 70
   769
  1
*
  1
*
  0
XRECORD
  5
1DB
102
{ACAD_REACTORS
330
10
102
}
330
10
100
AcDbXrecord
280
     1
  1
test1115
  1
2* 0
  1
*
  1
*
 70
     0
  1
*
  1
*
  0
XRECORD
  5
1DC
102
{ACAD_REACTORS
330
10
102
}
330
10
100
AcDbXrecord
280
     1
  1
test2
  1
*
  1
*
  1
*
 70
    12
  1
*
  1
*
  0
XRECORD
  5
1DD
102
{ACAD_REACTORS
330
10
102
}
330
10
100
AcDbXrecord
280
     1
  1
TESURI
  1
*TESURI*
  1
*
  1
*
 70
     0
  1
*
  1
*
  0
XRECORD
  5
1DE
102
{ACAD_REACTORS
330
10
102
}
330
10
100
AcDbXrecord
280
     1
  1
TEXT
  1
*TEXT*
  1
*
  1
*
 70
     0
  1
*
  1
*
  0
XRECORD
  5
1DF
102
{ACAD_REACTORS
330
10
102
}
330
10
100
AcDbXrecord
280
     1
  1
thawed
  1
*
  1
*
  1
*
 70
    12
  1
*
  1
*
  0
XRECORD
  5
1E0
102
{ACAD_REACTORS
330
10
102
}
330
10
100
AcDbXrecord
280
     1
  1
Tile
  1
tile*
  1
*
  1
*
 70
     0
  1
*
  1
*
  0
XRECORD
  5
1E1
102
{ACAD_REACTORS
330
10
102
}
330
10
100
AcDbXrecord
280
     1
  1
TITL
  1
*8TITL
  1
4
  1
*
 70
     0
  1
*
  1
*
  0
XRECORD
  5
1E2
102
{ACAD_REACTORS
330
10
102
}
330
10
100
AcDbXrecord
280
     1
  1
tnjyou
  1
c-*
  1
*
  1
*
 70
     0
  1
*
  1
*
  0
XRECORD
  5
1E3
102
{ACAD_REACTORS
330
10
102
}
330
10
100
AcDbXrecord
280
     1
  1
tori
  1
*A11
  1
*
  1
*
 70
     0
  1
*
  1
*
  0
XRECORD
  5
1E4
102
{ACAD_REACTORS
330
10
102
}
330
10
100
AcDbXrecord
280
     1
  1
TORISHIN
  1
*A11
  1
*
  1
*
 70
     0
  1
*
  1
*
  0
XRECORD
  5
1E5
102
{ACAD_REACTORS
330
10
102
}
330
10
100
AcDbXrecord
280
     1
  1
Tostaci\U+00F3n
  1
25*
  1
*
  1
*
 70
     0
  1
*
  1
*
  0
XRECORD
  5
1E6
102
{ACAD_REACTORS
330
10
102
}
330
10
100
AcDbXrecord
280
     1
  1
toto
  1
*
  1
*
  1
*
 70
     4
  1
*
  1
*
  0
XRECORD
  5
1E7
102
{ACAD_REACTORS
330
10
102
}
330
10
100
AcDbXrecord
280
     1
  1
Transporte_proceso
  1
197*
  1
*
  1
*
 70
     0
  1
*
  1
*
  0
XRECORD
  5
1E8
102
{ACAD_REACTORS
330
10
102
}
330
10
100
AcDbXrecord
280
     1
  1
Transporte_silo
  1
126*
  1
*
  1
*
 70
     0
  1
*
  1
*
  0
XRECORD
  5
1E9
102
{ACAD_REACTORS
330
10
102
}
330
10
100
AcDbXrecord
280
     1
  1
TSIN
  1
*2TSIN
  1
*
  1
*
 70
     0
  1
*
  1
*
  0
XRECORD
  5
1EA
102
{ACAD_REACTORS
330
10
102
}
330
10
100
AcDbXrecord
280
     1
  1
ttg
  1
*tategu
  1
*
  1
*
 70
     0
  1
*
  1
*
  0
XRECORD
  5
1EB
102
{ACAD_REACTORS
330
10
102
}
330
10
100
AcDbXrecord
280
     1
  1
txt
  1
*txt*
  1
*
  1
*
 70
     0
  1
*
  1
*
  0
XRECORD
  5
1EC
102
{ACAD_REACTORS
330
10
102
}
330
10
100
AcDbXrecord
280
     1
  1
type
  1
*type
  1
*
  1
*
 70
     0
  1
*
  1
*
  0
XRECORD
  5
1ED
102
{ACAD_REACTORS
330
10
102
}
330
10
100
AcDbXrecord
280
     1
  1
unlocked
  1
*
  1
*
  1
*
 70
   768
  1
*
  1
*
  0
XRECORD
  5
1EE
102
{ACAD_REACTORS
330
10
102
}
330
10
100
AcDbXrecord
280
     1
  1
UNROCK
  1
*
  1
*
  1
*
 70
   768
  1
*
  1
*
  0
XRECORD
  5
1EF
102
{ACAD_REACTORS
330
10
102
}
330
10
100
AcDbXrecord
280
     1
  1
VOID
  1
*void*
  1
*
  1
*
 70
     0
  1
*
  1
*
  0
XRECORD
  5
1F0
102
{ACAD_REACTORS
330
10
102
}
330
10
100
AcDbXrecord
280
     1
  1
wada
  1
*
  1
*
  1
*
 70
     0
  1
*
  1
*
  0
XRECORD
  5
1F1
102
{ACAD_REACTORS
330
10
102
}
330
10
100
AcDbXrecord
280
     1
  1
waku
  1
waku
  1
*
  1
*
 70
     0
  1
*
  1
*
  0
XRECORD
  5
1F2
102
{ACAD_REACTORS
330
10
102
}
330
10
100
AcDbXrecord
280
     1
  1
wal
  1
*wal*
  1
*
  1
*
 70
     0
  1
*
  1
*
  0
XRECORD
  5
1F3
102
{ACAD_REACTORS
330
10
102
}
330
10
100
AcDbXrecord
280
     1
  1
wall
  1
*wall*
  1
*
  1
*
 70
     0
  1
*
  1
*
  0
XRECORD
  5
1F4
102
{ACAD_REACTORS
330
10
102
}
330
10
100
AcDbXrecord
280
     1
  1
WALLS
  1
*AWA*
  1
*
  1
*
 70
     0
  1
*
  1
*
  0
XRECORD
  5
1F5
102
{ACAD_REACTORS
330
10
102
}
330
10
100
AcDbXrecord
280
     1
  1
wblock
  1
*wblock*
  1
*
  1
*
 70
     0
  1
*
  1
*
  0
XRECORD
  5
1F6
102
{ACAD_REACTORS
330
10
102
}
330
10
100
AcDbXrecord
280
     1
  1
WIN161
  1
*4WIN161
  1
161
  1
*
 70
     0
  1
*
  1
*
  0
XRECORD
  5
1F7
102
{ACAD_REACTORS
330
10
102
}
330
10
100
AcDbXrecord
280
     1
  1
W選択
  1
W*
  1
*
  1
*
 70
     0
  1
*
  1
*
  0
XRECORD
  5
1F8
102
{ACAD_REACTORS
330
10
102
}
330
10
100
AcDbXrecord
280
     1
  1
W選択画層
  1
W*
  1
*
  1
*
 70
     0
  1
*
  1
*
  0
XRECORD
  5
1F9
102
{ACAD_REACTORS
330
10
102
}
330
10
100
AcDbXrecord
280
     1
  1
X
  1
*$*$*
  1
*
  1
*
 70
     0
  1
*
  1
*
  0
XRECORD
  5
1FA
102
{ACAD_REACTORS
330
10
102
}
330
10
100
AcDbXrecord
280
     1
  1
X(敷地)を表示
  1
X*
  1
*
  1
*
 70
     0
  1
*
  1
*
  0
XRECORD
  5
1FB
102
{ACAD_REACTORS
330
10
102
}
330
10
100
AcDbXrecord
280
     1
  1
xref
  1
level*
  1
*
  1
*
 70
     0
  1
*
  1
*
  0
XRECORD
  5
1FC
102
{ACAD_REACTORS
330
10
102
}
330
10
100
AcDbXrecord
280
     1
  1
xref5-arch
  1
level*
  1
*
  1
*
 70
     0
  1
*
  1
*
  0
XRECORD
  5
1FD
102
{ACAD_REACTORS
330
10
102
}
330
10
100
AcDbXrecord
280
     1
  1
xrefsection
  1
section*
  1
*
  1
*
 70
     0
  1
*
  1
*
  0
XRECORD
  5
1FE
102
{ACAD_REACTORS
330
10
102
}
330
10
100
AcDbXrecord
280
     1
  1
YAJI
  1
*YAJI*
  1
*
  1
*
 70
     0
  1
*
  1
*
  0
XRECORD
  5
1FF
102
{ACAD_REACTORS
330
10
102
}
330
10
100
AcDbXrecord
280
     1
  1
yellow
  1
*
  1
yellow
  1
*
 70
     0
  1
*
  1
*
  0
XRECORD
  5
200
102
{ACAD_REACTORS
330
10
102
}
330
10
100
AcDbXrecord
280
     1
  1
YUKA
  1
F-*
  1
*
  1
*
 70
     0
  1
*
  1
*
  0
XRECORD
  5
202
102
{ACAD_REACTORS
330
10
102
}
330
10
100
AcDbXrecord
280
     1
  1
yその他
  1
y*
  1
*
  1
*
 70
     0
  1
*
  1
*
  0
XRECORD
  5
201
102
{ACAD_REACTORS
330
10
102
}
330
10
100
AcDbXrecord
280
     1
  1
yスリーブ
  1
y-*
  1
*
  1
*
 70
     0
  1
*
  1
*
  0
XRECORD
  5
203
102
{ACAD_REACTORS
330
10
102
}
330
10
100
AcDbXrecord
280
     1
  1
z
  1
z*
  1
*
  1
*
 70
     0
  1
*
  1
*
  0
XRECORD
  5
218
102
{ACAD_REACTORS
330
10
102
}
330
10
100
AcDbXrecord
280
     1
  1
z only
  1
z*
  1
*
  1
*
 70
     0
  1
*
  1
*
  0
XRECORD
  5
204
102
{ACAD_REACTORS
330
10
102
}
330
10
100
AcDbXrecord
280
     1
  1
z-
  1
z-*
  1
*
  1
*
 70
     0
  1
*
  1
*
  0
XRECORD
  5
205
102
{ACAD_REACTORS
330
10
102
}
330
10
100
AcDbXrecord
280
     1
  1
z-CABINETRY
  1
*CAB*
  1
*
  1
*
 70
     0
  1
*
  1
*
  0
XRECORD
  5
206
102
{ACAD_REACTORS
330
10
102
}
330
10
100
AcDbXrecord
280
     1
  1
z-siki
  1
*siki*
  1
*
  1
*
 70
     0
  1
*
  1
*
  0
XRECORD
  5
207
102
{ACAD_REACTORS
330
10
102
}
330
10
100
AcDbXrecord
280
     1
  1
z-tsin
  1
*z-tsin*
  1
*
  1
*
 70
     0
  1
*
  1
*
  0
XRECORD
  5
208
102
{ACAD_REACTORS
330
10
102
}
330
10
100
AcDbXrecord
280
     1
  1
z-WALLS
  1
*AWA*
  1
*
  1
*
 70
     0
  1
*
  1
*
  0
XRECORD
  5
209
102
{ACAD_REACTORS
330
10
102
}
330
10
100
AcDbXrecord
280
     1
  1
z_AREA
  1
z*AREA
  1
*
  1
*
 70
     0
  1
*
  1
*
  0
XRECORD
  5
20A
102
{ACAD_REACTORS
330
10
102
}
330
10
100
AcDbXrecord
280
     1
  1
z_AREA_ROOM
  1
z*AREA-ROOM*
  1
*
  1
*
 70
     0
  1
*
  1
*
  0
XRECORD
  5
20B
102
{ACAD_REACTORS
330
10
102
}
330
10
100
AcDbXrecord
280
     1
  1
z_EISEI
  1
z*EISEI*
  1
*
  1
*
 70
     0
  1
*
  1
*
  0
XRECORD
  5
20C
102
{ACAD_REACTORS
330
10
102
}
330
10
100
AcDbXrecord
280
     1
  1
z_fence
  1
z*fence*
  1
*
  1
*
 70
     0
  1
*
  1
*
  0
XRECORD
  5
20D
102
{ACAD_REACTORS
330
10
102
}
330
10
100
AcDbXrecord
280
     1
  1
z_hari
  1
z*HARI*
  1
*
  1
*
 70
     0
  1
*
  1
*
  0
XRECORD
  5
20E
102
{ACAD_REACTORS
330
10
102
}
330
10
100
AcDbXrecord
280
     1
  1
z_hasi
  1
z*hasi
  1
*
  1
*
 70
     0
  1
*
  1
*
  0
XRECORD
  5
20F
102
{ACAD_REACTORS
330
10
102
}
330
10
100
AcDbXrecord
280
     1
  1
z_hedate
  1
z*HEDATE
  1
*
  1
*
 70
     0
  1
*
  1
*
  0
XRECORD
  5
210
102
{ACAD_REACTORS
330
10
102
}
330
10
100
AcDbXrecord
280
     1
  1
z_KABE
  1
z*3KABE*
  1
*
  1
*
 70
     0
  1
*
  1
*
  0
XRECORD
  5
211
102
{ACAD_REACTORS
330
10
102
}
330
10
100
AcDbXrecord
280
     1
  1
z_KSIN
  1
z*KSIN*
  1
*
  1
*
 70
     0
  1
*
  1
*
  0
XRECORD
  5
212
102
{ACAD_REACTORS
330
10
102
}
330
10
100
AcDbXrecord
280
     1
  1
z_LIST
  1
z*LIST*
  1
*
  1
*
 70
     0
  1
*
  1
*
  0
XRECORD
  5
213
102
{ACAD_REACTORS
330
10
102
}
330
10
100
AcDbXrecord
280
     1
  1
z_MEJI
  1
z*MEJI*
  1
*
  1
*
 70
     0
  1
*
  1
*
  0
XRECORD
  5
214
102
{ACAD_REACTORS
330
10
102
}
330
10
100
AcDbXrecord
280
     1
  1
z_memo
  1
z*MEMO*
  1
*
  1
*
 70
     0
  1
*
  1
*
  0
XRECORD
  5
215
102
{ACAD_REACTORS
330
10
102
}
330
10
100
AcDbXrecord
280
     1
  1
z_MOJI100
  1
z*MOJI100*
  1
*
  1
*
 70
     0
  1
*
  1
*
  0
XRECORD
  5
216
102
{ACAD_REACTORS
330
10
102
}
330
10
100
AcDbXrecord
280
     1
  1
z_MV
  1
z*MV*
  1
*
  1
*
 70
     0
  1
*
  1
*
  0
XRECORD
  5
217
102
{ACAD_REACTORS
330
10
102
}
330
10
100
AcDbXrecord
280
     1
  1
z_off
  1
z*OFF*
  1
*
  1
*
 70
     0
  1
*
  1
*
  0
XRECORD
  5
219
102
{ACAD_REACTORS
330
10
102
}
330
10
100
AcDbXrecord
280
     1
  1
z_OPEN
  1
z*OPEN*
  1
*
  1
*
 70
     0
  1
*
  1
*
  0
XRECORD
  5
21A
102
{ACAD_REACTORS
330
10
102
}
330
10
100
AcDbXrecord
280
     1
  1
z_siag
  1
z*SIAG
  1
*
  1
*
 70
     0
  1
*
  1
*
  0
XRECORD
  5
21B
102
{ACAD_REACTORS
330
10
102
}
330
10
100
AcDbXrecord
280
     1
  1
z_SUGA
  1
z*SUGA
  1
*
  1
*
 70
     0
  1
*
  1
*
  0
XRECORD
  5
21C
102
{ACAD_REACTORS
330
10
102
}
330
10
100
AcDbXrecord
280
     1
  1
z_SUGA5
  1
z*SUGA5*
  1
*
  1
*
 70
     0
  1
*
  1
*
  0
XRECORD
  5
21D
102
{ACAD_REACTORS
330
10
102
}
330
10
100
AcDbXrecord
280
     1
  1
z_SUNP100
  1
z*SUNP100*
  1
*
  1
*
 70
     0
  1
*
  1
*
  0
XRECORD
  5
21E
102
{ACAD_REACTORS
330
10
102
}
330
10
100
AcDbXrecord
280
     1
  1
z_TATE
  1
z*TATE161*
  1
*
  1
*
 70
     0
  1
*
  1
*
  0
XRECORD
  5
21F
102
{ACAD_REACTORS
330
10
102
}
330
10
100
AcDbXrecord
280
     1
  1
z_tate3
  1
z*TATE3
  1
*
  1
*
 70
     0
  1
*
  1
*
  0
XRECORD
  5
220
102
{ACAD_REACTORS
330
10
102
}
330
10
100
AcDbXrecord
280
     1
  1
z_tesuri
  1
z*TESURI
  1
*
  1
*
 70
     0
  1
*
  1
*
  0
XRECORD
  5
221
102
{ACAD_REACTORS
330
10
102
}
330
10
100
AcDbXrecord
280
     1
  1
z_TESURI-OFF
  1
z*TESURI-OFF
  1
*
  1
*
 70
     0
  1
*
  1
*
  0
XRECORD
  5
222
102
{ACAD_REACTORS
330
10
102
}
330
10
100
AcDbXrecord
280
     1
  1
z_tisn
  1
z*TSIN*
  1
*
  1
*
 70
     0
  1
*
  1
*
  0
XRECORD
  5
223
102
{ACAD_REACTORS
330
10
102
}
330
10
100
AcDbXrecord
280
     1
  1
z_TITL
  1
z*TITL
  1
*
  1
*
 70
     0
  1
*
  1
*
  0
XRECORD
  5
224
102
{ACAD_REACTORS
330
10
102
}
330
10
100
AcDbXrecord
280
     1
  1
z_TSIN
  1
z*TSIN*
  1
*
  1
*
 70
     0
  1
*
  1
*
  0
XRECORD
  5
225
102
{ACAD_REACTORS
330
10
102
}
330
10
100
AcDbXrecord
280
     1
  1
z_win
  1
z*win*
  1
*
  1
*
 70
     0
  1
*
  1
*
  0
XRECORD
  5
226
102
{ACAD_REACTORS
330
10
102
}
330
10
100
AcDbXrecord
280
     1
  1
ZATU
  1
*ZATU
  1
*
  1
*
 70
     0
  1
*
  1
*
  0
XRECORD
  5
227
102
{ACAD_REACTORS
330
10
102
}
330
10
100
AcDbXrecord
280
     1
  1
zm
  1
zm*
  1
*
  1
*
 70
     0
  1
*
  1
*
  0
XRECORD
  5
228
102
{ACAD_REACTORS
330
10
102
}
330
10
100
AcDbXrecord
280
     1
  1
zzz-1
  1
*
  1
*
  1
*
 70
     3
  1
*
  1
*
  0
XRECORD
  5
229
102
{ACAD_REACTORS
330
10
102
}
330
10
100
AcDbXrecord
280
     1
  1
Z画層選択
  1
Z*
  1
*
  1
*
 70
     0
  1
*
  1
*
  0
XRECORD
  5
22A
102
{ACAD_REACTORS
330
10
102
}
330
10
100
AcDbXrecord
280
     1
  1
z図枠
  1
z*
  1
*
  1
*
 70
     0
  1
*
  1
*
  0
XRECORD
  5
240
102
{ACAD_REACTORS
330
10
102
}
330
10
100
AcDbXrecord
280
     1
  1
ﾃｷｽﾄのみ表示
  1
*NZ5-TEXT
  1
*
  1
*
 70
     0
  1
*
  1
*
  0
XRECORD
  5
246
102
{ACAD_REACTORS
330
10
102
}
330
10
100
AcDbXrecord
280
     1
  1
ﾌﾘｰｽﾞ
  1
*
  1
*
  1
*
 70
     4
  1
*
  1
*
  0
XRECORD
  5
247
102
{ACAD_REACTORS
330
10
102
}
330
10
100
AcDbXrecord
280
     1
  1
ﾌﾘｰｽﾞ画層
  1
*
  1
*
  1
*
 70
     4
  1
*
  1
*
  0
XRECORD
  5
248
102
{ACAD_REACTORS
330
10
102
}
330
10
100
AcDbXrecord
280
     1
  1
ﾌﾘｰｽﾞ画層非表示
  1
*
  1
*
  1
*
 70
    12
  1
*
  1
*
  0
XRECORD
  5
249
102
{ACAD_REACTORS
330
10
102
}
330
10
100
AcDbXrecord
280
     1
  1
ﾌﾘｰｽﾞ画面非表示
  1
*
  1
*
  1
*
 70
    12
  1
*
  1
*
  0
XRECORD
  5
24A
102
{ACAD_REACTORS
330
10
102
}
330
10
100
AcDbXrecord
280
     1
  1
ﾌﾘｰｽﾞ解除
  1
*
  1
*
  1
*
 70
    12
  1
*
  1
*
  0
XRECORD
  5
45
102
{ACAD_REACTORS
330
10
102
}
330
10
100
AcDbXrecord
280
     1
  1
１
  1
*
  1
1
  1
*
 70
     0
  1
*
  1
*
  0
XRECORD
  5
47
102
{ACAD_REACTORS
330
10
102
}
330
10
100
AcDbXrecord
280
     1
  1
１／１００
  1
*
  1
*
  1
*
 70
     0
  1
*
  1
*
  0
XRECORD
  5
48
102
{ACAD_REACTORS
330
10
102
}
330
10
100
AcDbXrecord
280
     1
  1
１／１００用
  1
*
  1
*
  1
*
 70
     0
  1
*
  1
*
  0
XRECORD
  5
52
102
{ACAD_REACTORS
330
10
102
}
330
10
100
AcDbXrecord
280
     1
  1
１Ｆ床伏OFF
  1
-*
  1
*
  1
*
 70
     0
  1
*
  1
*
  0
XRECORD
  5
7A
102
{ACAD_REACTORS
330
10
102
}
330
10
100
AcDbXrecord
280
     1
  1
４階平面詳細図
  1
*(4F)
  1
*
  1
*
 70
     0
  1
*
  1
*
  0
XRECORD
  5
88
102
{ACAD_REACTORS
330
10
102
}
330
10
100
AcDbXrecord
280
     1
  1
５階平面詳細図
  1
*(5F)
  1
*
  1
*
 70
     0
  1
*
  1
*
  0
XRECORD
  5
91
102
{ACAD_REACTORS
330
10
102
}
330
10
100
AcDbXrecord
280
     1
  1
６階平面詳細図
  1
*(6F)
  1
*
  1
*
 70
     0
  1
*
  1
*
  0
XRECORD
  5
B0
102
{ACAD_REACTORS
330
10
102
}
330
10
100
AcDbXrecord
280
     1
  1
ＡＢ棟
  1
ＡＢ棟*
  1
*
  1
*
 70
     0
  1
*
  1
*
  0
XRECORD
  5
D1
102
{ACAD_REACTORS
330
10
102
}
330
10
100
AcDbXrecord
280
     1
  1
ＣＤ棟
  1
T15-*
  1
*
  1
*
 70
     0
  1
*
  1
*
  0
XRECORD
  5
15C
102
{ACAD_REACTORS
330
10
102
}
330
10
100
AcDbXrecord
280
     1
  1
Ｌ建具
  1
L*tategu*
  1
*
  1
*
 70
     0
  1
*
  1
*
  0
XRECORD
  5
234
102
{ACAD_REACTORS
330
10
102
}
330
10
100
AcDbXrecord
280
     1
  1
さーくる
  1
*
  1
*
  1
*
 70
     0
  1
*
  1
*
  0
XRECORD
  5
238
102
{ACAD_REACTORS
330
10
102
}
330
10
100
AcDbXrecord
280
     1
  1
すべて非表示
  1
*
  1
*
  1
*
 70
     3
  1
*
  1
*
  0
XRECORD
  5
23C
102
{ACAD_REACTORS
330
10
102
}
330
10
100
AcDbXrecord
280
     1
  1
その他
  1
Z-
  1
*
  1
*
 70
     0
  1
*
  1
*
  0
XRECORD
  5
23D
102
{ACAD_REACTORS
330
10
102
}
330
10
100
AcDbXrecord
280
     1
  1
その他仕上げ
  1
12*
  1
*
  1
*
 70
     0
  1
*
  1
*
  0
XRECORD
  5
22B
102
{ACAD_REACTORS
330
10
102
}
330
10
100
AcDbXrecord
280
     1
  1
アートフロント
  1
A*
  1
*
  1
*
 70
     0
  1
*
  1
*
  0
XRECORD
  5
22C
102
{ACAD_REACTORS
330
10
102
}
330
10
100
AcDbXrecord
280
     1
  1
アートワーク
  1
A*
  1
*
  1
*
 70
     0
  1
*
  1
*
  0
XRECORD
  5
22D
102
{ACAD_REACTORS
330
10
102
}
330
10
100
AcDbXrecord
280
     1
  1
アネックス
  1
S_*
  1
*
  1
*
 70
     0
  1
*
  1
*
  0
XRECORD
  5
22E
102
{ACAD_REACTORS
330
10
102
}
330
10
100
AcDbXrecord
280
     1
  1
インサート
  1
I*
  1
*
  1
*
 70
     0
  1
*
  1
*
  0
XRECORD
  5
22F
102
{ACAD_REACTORS
330
10
102
}
330
10
100
AcDbXrecord
280
     1
  1
インフラ
  1
I*
  1
*
  1
*
 70
     0
  1
*
  1
*
  0
XRECORD
  5
230
102
{ACAD_REACTORS
330
10
102
}
330
10
100
AcDbXrecord
280
     1
  1
カラー用
  1
-*
  1
*
  1
*
 70
     0
  1
*
  1
*
  0
XRECORD
  5
231
102
{ACAD_REACTORS
330
10
102
}
330
10
100
AcDbXrecord
280
     1
  1
ガラス
  1
*HMOJI
  1
*
  1
*
 70
     0
  1
*
  1
*
  0
XRECORD
  5
232
102
{ACAD_REACTORS
330
10
102
}
330
10
100
AcDbXrecord
280
     1
  1
キ-プラン
  1
*HMOJI,*HOJO2,*HOJO4,*SINSEI
  1
*
  1
*
 70
     0
  1
*
  1
*
  0
XRECORD
  5
233
102
{ACAD_REACTORS
330
10
102
}
330
10
100
AcDbXrecord
280
     1
  1
キープラン
  1
MRK*
  1
*
  1
*
 70
     0
  1
*
  1
*
  0
XRECORD
  5
235
102
{ACAD_REACTORS
330
10
102
}
330
10
100
AcDbXrecord
280
     1
  1
サンプル
  1
2*
  1
*
  1
*
 70
     0
  1
*
  1
*
  0
XRECORD
  5
236
102
{ACAD_REACTORS
330
10
102
}
330
10
100
AcDbXrecord
280
     1
  1
シェルター
  1
シェルター*
  1
*
  1
*
 70
     0
  1
*
  1
*
  0
XRECORD
  5
237
102
{ACAD_REACTORS
330
10
102
}
330
10
100
AcDbXrecord
280
     1
  1
シンボル
  1
*
  1
74
  1
*
 70
     0
  1
*
  1
*
  0
XRECORD
  5
239
102
{ACAD_REACTORS
330
10
102
}
330
10
100
AcDbXrecord
280
     1
  1
スリーブ
  1
s-*
  1
*
  1
*
 70
     0
  1
*
  1
*
  0
XRECORD
  5
23A
102
{ACAD_REACTORS
330
10
102
}
330
10
100
AcDbXrecord
280
     1
  1
スリーブ50-60
  1
*-sleve??
  1
*
  1
*
 70
     0
  1
*
  1
*
  0
XRECORD
  5
23B
102
{ACAD_REACTORS
330
10
102
}
330
10
100
AcDbXrecord
280
     1
  1
スリーブ印刷用
  1
*
  1
*
  1
*
 70
     0
  1
*
  1
*
  0
XRECORD
  5
23E
102
{ACAD_REACTORS
330
10
102
}
330
10
100
AcDbXrecord
280
     1
  1
タイル割付平面図
  1
タイル*
  1
*
  1
*
 70
     0
  1
*
  1
*
  0
XRECORD
  5
23F
102
{ACAD_REACTORS
330
10
102
}
330
10
100
AcDbXrecord
280
     1
  1
ディテール
  1
DE*
  1
*
  1
*
 70
     0
  1
*
  1
*
  0
XRECORD
  5
241
102
{ACAD_REACTORS
330
10
102
}
330
10
100
AcDbXrecord
280
     1
  1
デッキ
  1
SS*
  1
*
  1
*
 70
     0
  1
*
  1
*
  0
XRECORD
  5
242
102
{ACAD_REACTORS
330
10
102
}
330
10
100
AcDbXrecord
280
     1
  1
ハッチ-G
  1
*ハッチ-G*
  1
*
  1
*
 70
     0
  1
*
  1
*
  0
XRECORD
  5
243
102
{ACAD_REACTORS
330
10
102
}
330
10
100
AcDbXrecord
280
     1
  1
ハッチ-k
  1
*ハッチ-k*
  1
*
  1
*
 70
     0
  1
*
  1
*
  0
XRECORD
  5
244
102
{ACAD_REACTORS
330
10
102
}
330
10
100
AcDbXrecord
280
     1
  1
ハッチング
  1
*HAT*
  1
*
  1
*
 70
     0
  1
*
  1
*
  0
XRECORD
  5
245
102
{ACAD_REACTORS
330
10
102
}
330
10
100
AcDbXrecord
280
     1
  1
フリーズ
  1
*z
  1
*
  1
*
 70
     0
  1
*
  1
*
  0
XRECORD
  5
24B
102
{ACAD_REACTORS
330
10
102
}
330
10
100
AcDbXrecord
280
     1
  1
フリーズON
  1
*
  1
*
  1
*
 70
    12
  1
*
  1
*
  0
XRECORD
  5
24C
102
{ACAD_REACTORS
330
10
102
}
330
10
100
AcDbXrecord
280
     1
  1
フリーズレイヤを非表示
  1
*
  1
*
  1
*
 70
    12
  1
*
  1
*
  0
XRECORD
  5
24D
102
{ACAD_REACTORS
330
10
102
}
330
10
100
AcDbXrecord
280
     1
  1
フリーズ以外を表示
  1
*
  1
*
  1
*
 70
    12
  1
*
  1
*
  0
XRECORD
  5
24E
102
{ACAD_REACTORS
330
10
102
}
330
10
100
AcDbXrecord
280
     1
  1
フリーズ画層
  1
*
  1
*
  1
*
 70
     4
  1
*
  1
*
  0
XRECORD
  5
24F
102
{ACAD_REACTORS
330
10
102
}
330
10
100
AcDbXrecord
280
     1
  1
フリーズ画層のみ
  1
*
  1
*
  1
*
 70
     4
  1
*
  1
*
  0
XRECORD
  5
250
102
{ACAD_REACTORS
330
10
102
}
330
10
100
AcDbXrecord
280
     1
  1
マーク
  1
*マーク
  1
*
  1
*
 70
     0
  1
*
  1
*
  0
XRECORD
  5
251
102
{ACAD_REACTORS
330
10
102
}
330
10
100
AcDbXrecord
280
     1
  1
メタル天井
  1
CM*
  1
*
  1
*
 70
     0
  1
*
  1
*
  0
XRECORD
  5
252
102
{ACAD_REACTORS
330
10
102
}
330
10
100
AcDbXrecord
280
     1
  1
ルート比較図
  1
*
  1
*
  1
*
 70
    12
  1
*
  1
*
  0
XRECORD
  5
253
102
{ACAD_REACTORS
330
10
102
}
330
10
100
AcDbXrecord
280
     1
  1
ロック
  1
*
  1
*
  1
*
 70
   256
  1
*
  1
*
  0
XRECORD
  5
254
102
{ACAD_REACTORS
330
10
102
}
330
10
100
AcDbXrecord
280
     1
  1
ロック画層
  1
*
  1
*
  1
*
 70
   256
  1
*
  1
*
  0
XRECORD
  5
255
102
{ACAD_REACTORS
330
10
102
}
330
10
100
AcDbXrecord
280
     1
  1
一括非表示
  1
*
  1
*
  1
*
 70
     3
  1
*
  1
*
  0
XRECORD
  5
256
102
{ACAD_REACTORS
330
10
102
}
330
10
100
AcDbXrecord
280
     1
  1
印刷不可を表示
  1
*
  1
*
  1
*
 70
  3072
  1
*
  1
*
  0
XRECORD
  5
257
102
{ACAD_REACTORS
330
10
102
}
330
10
100
AcDbXrecord
280
     1
  1
雨水
  1
?-u-*
  1
*
  1
*
 70
     0
  1
*
  1
*
  0
XRECORD
  5
258
102
{ACAD_REACTORS
330
10
102
}
330
10
100
AcDbXrecord
280
     1
  1
荏原機器
  1
KIKI*
  1
*
  1
*
 70
     0
  1
*
  1
*
  0
XRECORD
  5
259
102
{ACAD_REACTORS
330
10
102
}
330
10
100
AcDbXrecord
280
     1
  1
荏原機器基礎
  1
a3*,KIKI*,text*,stage,矢視記号
  1
*
  1
*
 70
     0
  1
*
  1
*
  0
XRECORD
  5
25A
102
{ACAD_REACTORS
330
10
102
}
330
10
100
AcDbXrecord
280
     1
  1
衛生設備図
  1
001*,002*,004*,005*,007*,010*,039*,040*,041*,042*,043*
  1
*
  1
*
 70
     0
  1
*
  1
*
  0
XRECORD
  5
25B
102
{ACAD_REACTORS
330
10
102
}
330
10
100
AcDbXrecord
280
     1
  1
黄色
  1
*
  1
YELLOW
  1
*
 70
     0
  1
*
  1
*
  0
XRECORD
  5
25C
102
{ACAD_REACTORS
330
10
102
}
330
10
100
AcDbXrecord
280
     1
  1
屋根
  1
RF*
  1
*
  1
*
 70
     0
  1
*
  1
*
  0
XRECORD
  5
25D
102
{ACAD_REACTORS
330
10
102
}
330
10
100
AcDbXrecord
280
     1
  1
下地
  1
*下地*
  1
*
  1
*
 70
     0
  1
*
  1
*
  0
XRECORD
  5
25E
102
{ACAD_REACTORS
330
10
102
}
330
10
100
AcDbXrecord
280
     1
  1
仮設
  1
仮設*
  1
*
  1
*
 70
     0
  1
*
  1
*
  0
XRECORD
  5
25F
102
{ACAD_REACTORS
330
10
102
}
330
10
100
AcDbXrecord
280
     1
  1
家具
  1
*FUN*
  1
*
  1
*
 70
     0
  1
*
  1
*
  0
XRECORD
  5
260
102
{ACAD_REACTORS
330
10
102
}
330
10
100
AcDbXrecord
280
     1
  1
外構
  1
*SIT*
  1
*
  1
*
 70
     0
  1
*
  1
*
  0
XRECORD
  5
261
102
{ACAD_REACTORS
330
10
102
}
330
10
100
AcDbXrecord
280
     1
  1
外構図
  1
*
  1
*
  1
*
 70
     7
  1
*
  1
*
  0
XRECORD
  5
262
102
{ACAD_REACTORS
330
10
102
}
330
10
100
AcDbXrecord
280
     1
  1
外部躯体図
  1
*9*
  1
*
  1
*
 70
     0
  1
*
  1
*
  0
XRECORD
  5
263
102
{ACAD_REACTORS
330
10
102
}
330
10
100
AcDbXrecord
280
     1
  1
外部参照－建築
  1
A*
  1
9
  1
*
 70
     0
  1
*
  1
*
  0
XRECORD
  5
264
102
{ACAD_REACTORS
330
10
102
}
330
10
100
AcDbXrecord
280
     1
  1
外部参照除く
  1
A*
  1
*
  1
*
 70
     0
  1
*
  1
*
  0
XRECORD
  5
265
102
{ACAD_REACTORS
330
10
102
}
330
10
100
AcDbXrecord
280
     1
  1
外部電気
  1
*0*
  1
*
  1
*
 70
     0
  1
*
  1
*
  0
XRECORD
  5
266
102
{ACAD_REACTORS
330
10
102
}
330
10
100
AcDbXrecord
280
     1
  1
外部平詳図
  1
*2*
  1
*
  1
*
 70
     0
  1
*
  1
*
  0
XRECORD
  5
267
102
{ACAD_REACTORS
330
10
102
}
330
10
100
AcDbXrecord
280
     1
  1
各住戸
  1
*各住戸
  1
*
  1
*
 70
     0
  1
*
  1
*
  0
XRECORD
  5
268
102
{ACAD_REACTORS
330
10
102
}
330
10
100
AcDbXrecord
280
     1
  1
確認
  1
*確認*
  1
*
  1
*
 70
     0
  1
*
  1
*
  0
XRECORD
  5
269
102
{ACAD_REACTORS
330
10
102
}
330
10
100
AcDbXrecord
280
     1
  1
確認-2
  1
*kaku*
  1
*
  1
*
 70
     0
  1
*
  1
*
  0
XRECORD
  5
26A
102
{ACAD_REACTORS
330
10
102
}
330
10
100
AcDbXrecord
280
     1
  1
確認2
  1
*kaku*
  1
*
  1
*
 70
     0
  1
*
  1
*
  0
XRECORD
  5
26B
102
{ACAD_REACTORS
330
10
102
}
330
10
100
AcDbXrecord
280
     1
  1
割り付け平面図
  1
*わ*
  1
*
  1
*
 70
     0
  1
*
  1
*
  0
XRECORD
  5
26C
102
{ACAD_REACTORS
330
10
102
}
330
10
100
AcDbXrecord
280
     1
  1
幹線
  1
E1*
  1
*
  1
*
 70
     0
  1
*
  1
*
  0
XRECORD
  5
26D
102
{ACAD_REACTORS
330
10
102
}
330
10
100
AcDbXrecord
280
     1
  1
潅水平面
  1
*か*
  1
*
  1
*
 70
     0
  1
*
  1
*
  0
XRECORD
  5
26E
102
{ACAD_REACTORS
330
10
102
}
330
10
100
AcDbXrecord
280
     1
  1
基
  1
*_基
  1
*
  1
*
 70
     0
  1
*
  1
*
  0
XRECORD
  5
26F
102
{ACAD_REACTORS
330
10
102
}
330
10
100
AcDbXrecord
280
     1
  1
基準
  1
基*
  1
*
  1
*
 70
     0
  1
*
  1
*
  0
XRECORD
  5
270
102
{ACAD_REACTORS
330
10
102
}
330
10
100
AcDbXrecord
280
     1
  1
基準階
  1
*基準*
  1
*
  1
*
 70
     0
  1
*
  1
*
  0
XRECORD
  5
271
102
{ACAD_REACTORS
330
10
102
}
330
10
100
AcDbXrecord
280
     1
  1
基礎OFF
  1
+*
  1
*
  1
*
 70
     0
  1
*
  1
*
  0
XRECORD
  5
272
102
{ACAD_REACTORS
330
10
102
}
330
10
100
AcDbXrecord
280
     1
  1
基礎伏
  1
*
  1
*
  1
*
 70
     0
  1
*
  1
*
  0
XRECORD
  5
273
102
{ACAD_REACTORS
330
10
102
}
330
10
100
AcDbXrecord
280
     1
  1
基礎伏図
  1
SIZE,HOJO,ZATU,HATCH,GL-HARI,GL-HASIRA,KISO,KUI,MOJI-K1,GL-FUGO,SUNPO-K1,SUNPO,SUNPO2,SUNPO1,KIJUN3,KIJUN,SIZE
  1
*
  1
*
 70
     0
  1
*
  1
*
  0
XRECORD
  5
274
102
{ACAD_REACTORS
330
10
102
}
330
10
100
AcDbXrecord
280
     1
  1
既存杭
  1
既存杭*
  1
*
  1
*
 70
     0
  1
*
  1
*
  0
XRECORD
  5
275
102
{ACAD_REACTORS
330
10
102
}
330
10
100
AcDbXrecord
280
     1
  1
機器
  1
KIKI*
  1
*
  1
*
 70
     0
  1
*
  1
*
  0
XRECORD
  5
276
102
{ACAD_REACTORS
330
10
102
}
330
10
100
AcDbXrecord
280
     1
  1
機器基礎
  1
a3*,KIKI*,text*,stage,矢視記号
  1
*
  1
*
 70
     0
  1
*
  1
*
  0
XRECORD
  5
277
102
{ACAD_REACTORS
330
10
102
}
330
10
100
AcDbXrecord
280
     1
  1
記号
  1
*記号
  1
*
  1
*
 70
     0
  1
*
  1
*
  0
XRECORD
  5
278
102
{ACAD_REACTORS
330
10
102
}
330
10
100
AcDbXrecord
280
     1
  1
区画
  1
区画*
  1
*
  1
*
 70
     0
  1
*
  1
*
  0
XRECORD
  5
279
102
{ACAD_REACTORS
330
10
102
}
330
10
100
AcDbXrecord
280
     1
  1
躯体
  1
str*
  1
*
  1
*
 70
     0
  1
*
  1
*
  0
XRECORD
  5
27A
102
{ACAD_REACTORS
330
10
102
}
330
10
100
AcDbXrecord
280
     1
  1
躯体図
  1
001*,002*,003*,004*,005*,006*,007*,008*,009*,010*,011*,012*,027*
  1
*
  1
*
 70
     0
  1
*
  1
*
  0
XRECORD
  5
27B
102
{ACAD_REACTORS
330
10
102
}
330
10
100
AcDbXrecord
280
     1
  1
空調設備図
  1
001*,002*,004*,005*,007*,010*,033*,034*,035*,036*,037*,038*
  1
*
  1
*
 70
     0
  1
*
  1
*
  0
XRECORD
  5
27C
102
{ACAD_REACTORS
330
10
102
}
330
10
100
AcDbXrecord
280
     1
  1
郡川
  1
kijun,kabe,sunpo
  1
*
  1
*
 70
     3
  1
*
  1
*
  0
XRECORD
  5
27D
102
{ACAD_REACTORS
330
10
102
}
330
10
100
AcDbXrecord
280
     1
  1
型枠計画図
  1
001*,002*,003*,004*,005*,006*,007*,010*,012*,050*,051*,055*,056*,057*,058*,059*,060*,061*,062*,063*,064*,065*,066*,067*,068*,069*,070*,071*,072*,073*,074*,075*
  1
*
  1
*
 70
     0
  1
*
  1
*
  0
XRECORD
  5
27E
102
{ACAD_REACTORS
330
10
102
}
330
10
100
AcDbXrecord
280
     1
  1
計画平面
  1
*け*
  1
*
  1
*
 70
     0
  1
*
  1
*
  0
XRECORD
  5
27F
102
{ACAD_REACTORS
330
10
102
}
330
10
100
AcDbXrecord
280
     1
  1
計画平面図
  1
*け*
  1
*
  1
*
 70
     0
  1
*
  1
*
  0
XRECORD
  5
280
102
{ACAD_REACTORS
330
10
102
}
330
10
100
AcDbXrecord
280
     1
  1
建具
  1
*TAT*
  1
*
  1
*
 70
     0
  1
*
  1
*
  0
XRECORD
  5
281
102
{ACAD_REACTORS
330
10
102
}
330
10
100
AcDbXrecord
280
     1
  1
建築
  1
*
  1
8,74,54
  1
*
 70
     0
  1
*
  1
*
  0
XRECORD
  5
282
102
{ACAD_REACTORS
330
10
102
}
330
10
100
AcDbXrecord
280
     1
  1
建築図
  1
*
  1
9
  1
*
 70
     0
  1
*
  1
*
  0
XRECORD
  5
283
102
{ACAD_REACTORS
330
10
102
}
330
10
100
AcDbXrecord
280
     1
  1
建築接地図
  1
A01*
  1
*
  1
*
 70
     0
  1
*
  1
*
  0
XRECORD
  5
284
102
{ACAD_REACTORS
330
10
102
}
330
10
100
AcDbXrecord
280
     1
  1
建築平面
  1
*
  1
8
  1
*
 70
     0
  1
*
  1
*
  0
XRECORD
  5
285
102
{ACAD_REACTORS
330
10
102
}
330
10
100
AcDbXrecord
280
     1
  1
建物
  1
T-*
  1
*
  1
*
 70
     0
  1
*
  1
*
  0
XRECORD
  5
286
102
{ACAD_REACTORS
330
10
102
}
330
10
100
AcDbXrecord
280
     1
  1
見え
  1
*KEN*
  1
*
  1
*
 70
     0
  1
*
  1
*
  0
XRECORD
  5
287
102
{ACAD_REACTORS
330
10
102
}
330
10
100
AcDbXrecord
280
     1
  1
見え掛り-建築
  1
13*
  1
*
  1
*
 70
     0
  1
*
  1
*
  0
XRECORD
  5
288
102
{ACAD_REACTORS
330
10
102
}
330
10
100
AcDbXrecord
280
     1
  1
見え掛り-設備
  1
14*
  1
*
  1
*
 70
     0
  1
*
  1
*
  0
XRECORD
  5
289
102
{ACAD_REACTORS
330
10
102
}
330
10
100
AcDbXrecord
280
     1
  1
見上げ
  1
*U
  1
*
  1
*
 70
     0
  1
*
  1
*
  0
XRECORD
  5
28A
102
{ACAD_REACTORS
330
10
102
}
330
10
100
AcDbXrecord
280
     1
  1
現在以外のすべてを選択
  1
*
  1
*
  1
*
 70
     0
  1
*
  1
*
  0
XRECORD
  5
28B
102
{ACAD_REACTORS
330
10
102
}
330
10
100
AcDbXrecord
280
     1
  1
後付
  1
*後付*
  1
*
  1
*
 70
     0
  1
*
  1
*
  0
XRECORD
  5
28C
102
{ACAD_REACTORS
330
10
102
}
330
10
100
AcDbXrecord
280
     1
  1
公園
  1
K*
  1
*
  1
*
 70
     0
  1
*
  1
*
  0
XRECORD
  5
28D
102
{ACAD_REACTORS
330
10
102
}
330
10
100
AcDbXrecord
280
     1
  1
杭伏図
  1
SIZE,HOJO,KUI,SUNPO,KIJUN,KUI-SUNPO,KUI-MOJI
  1
*
  1
*
 70
     0
  1
*
  1
*
  0
XRECORD
  5
28E
102
{ACAD_REACTORS
330
10
102
}
330
10
100
AcDbXrecord
280
     1
  1
構造
  1
S-*
  1
*
  1
*
 70
     0
  1
*
  1
*
  0
XRECORD
  5
28F
102
{ACAD_REACTORS
330
10
102
}
330
10
100
AcDbXrecord
280
     1
  1
構台
  1
2-*
  1
*
  1
*
 70
     0
  1
*
  1
*
  0
XRECORD
  5
290
102
{ACAD_REACTORS
330
10
102
}
330
10
100
AcDbXrecord
280
     1
  1
高さ
  1
204-TEXT,東西道路*
  1
*
  1
*
 70
     0
  1
*
  1
*
  0
XRECORD
  5
291
102
{ACAD_REACTORS
330
10
102
}
330
10
100
AcDbXrecord
280
     1
  1
高木植栽平面
  1
*こ*
  1
*
  1
*
 70
     0
  1
*
  1
*
  0
XRECORD
  5
292
102
{ACAD_REACTORS
330
10
102
}
330
10
100
AcDbXrecord
280
     1
  1
腰壁
  1
A11,A12,A21,A22,A31,AS1,Defpoints,線
  1
*
  1
*
 70
     1
  1
*
  1
*
  0
XRECORD
  5
293
102
{ACAD_REACTORS
330
10
102
}
330
10
100
AcDbXrecord
280
     1
  1
座席のみ
  1
*
  1
*
  1
*
 70
     0
  1
*
  1
*
  0
XRECORD
  5
294
102
{ACAD_REACTORS
330
10
102
}
330
10
100
AcDbXrecord
280
     1
  1
作業
  1
100-*,地区*,
  1
*
  1
*
 70
     1
  1
*
  1
*
  0
XRECORD
  5
295
102
{ACAD_REACTORS
330
10
102
}
330
10
100
AcDbXrecord
280
     1
  1
山下側スリーブ
  1
y*-sleve*
  1
*
  1
*
 70
     0
  1
*
  1
*
  0
XRECORD
  5
296
102
{ACAD_REACTORS
330
10
102
}
330
10
100
AcDbXrecord
280
     1
  1
山下側中心線
  1
yy-sleve*
  1
*
  1
*
 70
     0
  1
*
  1
*
  0
XRECORD
  5
297
102
{ACAD_REACTORS
330
10
102
}
330
10
100
AcDbXrecord
280
     1
  1
山止根切計画図
  1
001*,002*,003*,004*,005*,007*,012*,049*,050*,051*,052*,053*,054*,055*,056*,057*,058*,059*,060*,061*,062*,064*,065*,066*,067*,068*,069*,070*,071*,072*,073*,074*,075*
  1
*
  1
*
 70
     0
  1
*
  1
*
  0
XRECORD
  5
298
102
{ACAD_REACTORS
330
10
102
}
330
10
100
AcDbXrecord
280
     1
  1
仕
  1
*_仕
  1
*
  1
*
 70
     0
  1
*
  1
*
  0
XRECORD
  5
299
102
{ACAD_REACTORS
330
10
102
}
330
10
100
AcDbXrecord
280
     1
  1
仕上
  1
D*
  1
*
  1
*
 70
     0
  1
*
  1
*
  0
XRECORD
  5
29A
102
{ACAD_REACTORS
330
10
102
}
330
10
100
AcDbXrecord
280
     1
  1
仕上げ
  1
*FIN*
  1
*
  1
*
 70
     0
  1
*
  1
*
  0
XRECORD
  5
29B
102
{ACAD_REACTORS
330
10
102
}
330
10
100
AcDbXrecord
280
     1
  1
仕上図
  1
C*
  1
*
  1
*
 70
     0
  1
*
  1
*
  0
XRECORD
  5
29C
102
{ACAD_REACTORS
330
10
102
}
330
10
100
AcDbXrecord
280
     1
  1
仕上表
  1
仕*
  1
*
  1
*
 70
     0
  1
*
  1
*
  0
XRECORD
  5
29D
102
{ACAD_REACTORS
330
10
102
}
330
10
100
AcDbXrecord
280
     1
  1
使用中
  1
使用中
  1
*
  1
*
 70
     1
  1
*
  1
*
  0
XRECORD
  5
29E
102
{ACAD_REACTORS
330
10
102
}
330
10
100
AcDbXrecord
280
     1
  1
施設平面図
  1
*し*
  1
*
  1
*
 70
     0
  1
*
  1
*
  0
XRECORD
  5
29F
102
{ACAD_REACTORS
330
10
102
}
330
10
100
AcDbXrecord
280
     1
  1
紫
  1
*
  1
Magenta
  1
*
 70
     0
  1
*
  1
*
  0
XRECORD
  5
2A0
102
{ACAD_REACTORS
330
10
102
}
330
10
100
AcDbXrecord
280
     1
  1
弱電
  1
E3*
  1
*
  1
*
 70
     0
  1
*
  1
*
  0
XRECORD
  5
2A1
102
{ACAD_REACTORS
330
10
102
}
330
10
100
AcDbXrecord
280
     1
  1
住戸名
  1
*住戸名*
  1
*
  1
*
 70
     0
  1
*
  1
*
  0
XRECORD
  5
2A2
102
{ACAD_REACTORS
330
10
102
}
330
10
100
AcDbXrecord
280
     1
  1
縮尺10
  1
*10
  1
*
  1
*
 70
     0
  1
*
  1
*
  0
XRECORD
  5
2A3
102
{ACAD_REACTORS
330
10
102
}
330
10
100
AcDbXrecord
280
     1
  1
縮尺50
  1
*50
  1
*
  1
*
 70
     0
  1
*
  1
*
  0
XRECORD
  5
2A4
102
{ACAD_REACTORS
330
10
102
}
330
10
100
AcDbXrecord
280
     1
  1
初期設定
  1
*
  1
*
  1
*
 70
     0
  1
*
  1
*
  0
XRECORD
  5
2A5
102
{ACAD_REACTORS
330
10
102
}
330
10
100
AcDbXrecord
280
     1
  1
床伏図
  1
*U*,20,Z20,Z22,Z23
  1
*
  1
*
 70
     0
  1
*
  1
*
  0
XRECORD
  5
2A6
102
{ACAD_REACTORS
330
10
102
}
330
10
100
AcDbXrecord
280
     1
  1
昇降機
  1
T*
  1
*
  1
*
 70
     0
  1
*
  1
*
  0
XRECORD
  5
2A7
102
{ACAD_REACTORS
330
10
102
}
330
10
100
AcDbXrecord
280
     1
  1
詳細
  1
詳細*
  1
*
  1
*
 70
     0
  1
*
  1
*
  0
XRECORD
  5
2A8
102
{ACAD_REACTORS
330
10
102
}
330
10
100
AcDbXrecord
280
     1
  1
詳細図
  1
9*
  1
*
  1
*
 70
    12
  1
*
  1
*
  0
XRECORD
  5
2A9
102
{ACAD_REACTORS
330
10
102
}
330
10
100
AcDbXrecord
280
     1
  1
上階躯体図
  1
KUTAI-Z,SIZE,HOJO,ZATU,HATCH,BR-S,KABE2,KABE,MAJIKIRI,KOBARI-S,KOBARI-R,HARI-S,HARI-R,HASIRA-S,HASIRA-R,MOJI-K2,FL-FUGO,FUGO-W,SUNPO-K2,SUNPO,SUNPO2,SUNPO1,KIJUN2,KIJUN1,KIJUN,
  1
*
  1
*
 70
     0
  1
*
  1
*
  0
XRECORD
  5
2AA
102
{ACAD_REACTORS
330
10
102
}
330
10
100
AcDbXrecord
280
     1
  1
植栽
  1
T*
  1
*
  1
*
 70
     0
  1
*
  1
*
  0
XRECORD
  5
2AB
102
{ACAD_REACTORS
330
10
102
}
330
10
100
AcDbXrecord
280
     1
  1
色
  1
p*
  1
*
  1
*
 70
     0
  1
*
  1
*
  0
XRECORD
  5
2AC
102
{ACAD_REACTORS
330
10
102
}
330
10
100
AcDbXrecord
280
     1
  1
色番号8
  1
*
  1
8
  1
*
 70
     0
  1
*
  1
*
  0
XRECORD
  5
2AD
102
{ACAD_REACTORS
330
10
102
}
330
10
100
AcDbXrecord
280
     1
  1
新構造図
  1
*
  1
*
  1
*
 70
     0
  1
*
  1
*
  0
XRECORD
  5
2AE
102
{ACAD_REACTORS
330
10
102
}
330
10
100
AcDbXrecord
280
     1
  1
新港側スリーブ
  1
s*-sleve*
  1
*
  1
*
 70
     0
  1
*
  1
*
  0
XRECORD
  5
2AF
102
{ACAD_REACTORS
330
10
102
}
330
10
100
AcDbXrecord
280
     1
  1
新港側中心線
  1
ss-sleve*
  1
*
  1
*
 70
     0
  1
*
  1
*
  0
XRECORD
  5
2B0
102
{ACAD_REACTORS
330
10
102
}
330
10
100
AcDbXrecord
280
     1
  1
申請用
  1
*あ*,*き*,*グ*,*み*,*オ*,*ピ*,*92*
  1
*
  1
*
 70
     0
  1
*
  1
*
  0
XRECORD
  5
2B1
102
{ACAD_REACTORS
330
10
102
}
330
10
100
AcDbXrecord
280
     1
  1
真建築住防様式
  1
*
  1
*
  1
*
 70
     0
  1
*
  1
*
  0
XRECORD
  5
2B2
102
{ACAD_REACTORS
330
10
102
}
330
10
100
AcDbXrecord
280
     1
  1
芯
  1
*SIN*
  1
*
  1
*
 70
     0
  1
*
  1
*
  0
XRECORD
  5
2B3
102
{ACAD_REACTORS
330
10
102
}
330
10
100
AcDbXrecord
280
     1
  1
芯関係
  1
001*,002*,032*
  1
*
  1
*
 70
     0
  1
*
  1
*
  0
XRECORD
  5
2B4
102
{ACAD_REACTORS
330
10
102
}
330
10
100
AcDbXrecord
280
     1
  1
水
  1
*
  1
cyan
  1
*
 70
     0
  1
*
  1
*
  0
XRECORD
  5
2B5
102
{ACAD_REACTORS
330
10
102
}
330
10
100
AcDbXrecord
280
     1
  1
水色
  1
*
  1
Cyan
  1
*
 70
     0
  1
*
  1
*
  0
XRECORD
  5
2B6
102
{ACAD_REACTORS
330
10
102
}
330
10
100
AcDbXrecord
280
     1
  1
寸法
  1
*寸法
  1
*
  1
*
 70
     0
  1
*
  1
*
  0
XRECORD
  5
2B7
102
{ACAD_REACTORS
330
10
102
}
330
10
100
AcDbXrecord
280
     1
  1
製作
  1
B*
  1
*
  1
*
 70
     0
  1
*
  1
*
  0
XRECORD
  5
2B8
102
{ACAD_REACTORS
330
10
102
}
330
10
100
AcDbXrecord
280
     1
  1
製作-躯体
  1
BS*
  1
*
  1
*
 70
     0
  1
*
  1
*
  0
XRECORD
  5
2B9
102
{ACAD_REACTORS
330
10
102
}
330
10
100
AcDbXrecord
280
     1
  1
製作-建築
  1
BD*
  1
*
  1
*
 70
     0
  1
*
  1
*
  0
XRECORD
  5
2BA
102
{ACAD_REACTORS
330
10
102
}
330
10
100
AcDbXrecord
280
     1
  1
製作-昇降機
  1
BT*
  1
*
  1
*
 70
     0
  1
*
  1
*
  0
XRECORD
  5
2BB
102
{ACAD_REACTORS
330
10
102
}
330
10
100
AcDbXrecord
280
     1
  1
青
  1
*
  1
blue
  1
*
 70
     0
  1
*
  1
*
  0
XRECORD
  5
2BC
102
{ACAD_REACTORS
330
10
102
}
330
10
100
AcDbXrecord
280
     1
  1
赤
  1
*
  1
1
  1
*
 70
     0
  1
*
  1
*
  0
XRECORD
  5
2BD
102
{ACAD_REACTORS
330
10
102
}
330
10
100
AcDbXrecord
280
     1
  1
設備
  1
*SET*
  1
*
  1
*
 70
     0
  1
*
  1
*
  0
XRECORD
  5
2BE
102
{ACAD_REACTORS
330
10
102
}
330
10
100
AcDbXrecord
280
     1
  1
設備１
  1
*
  1
*
  1
*
 70
     0
  1
*
  1
*
  0
XRECORD
  5
2BF
102
{ACAD_REACTORS
330
10
102
}
330
10
100
AcDbXrecord
280
     1
  1
設備中止
  1
EC*,PC*,MC*
  1
*
  1
*
 70
     0
  1
*
  1
*
  0
XRECORD
  5
2C0
102
{ACAD_REACTORS
330
10
102
}
330
10
100
AcDbXrecord
280
     1
  1
全画層OFF
  1
*
  1
*
  1
*
 70
     3
  1
*
  1
*
  0
XRECORD
  5
2C1
102
{ACAD_REACTORS
330
10
102
}
330
10
100
AcDbXrecord
280
     1
  1
全画層ON
  1
*
  1
*
  1
*
 70
     1
  1
*
  1
*
  0
XRECORD
  5
2C2
102
{ACAD_REACTORS
330
10
102
}
330
10
100
AcDbXrecord
280
     1
  1
全階平面図
  1
*
  1
*
  1
*
 70
     0
  1
*
  1
*
  0
XRECORD
  5
2C3
102
{ACAD_REACTORS
330
10
102
}
330
10
100
AcDbXrecord
280
     1
  1
総合仮設図
  1
001*,002*,003*,004*,005*,007*,012*,015*,016*,017*,018*,019*,020*,021*,049*,050*,051*,052*,053*,054*,055*,056*,057*,058*,059*,060*,061*,062*,063*,064*,065*,066*,067*,068*,069*,070*,071*,072*,073*,074*,075*
  1
*
  1
*
 70
     0
  1
*
  1
*
  0
XRECORD
  5
2C4
102
{ACAD_REACTORS
330
10
102
}
330
10
100
AcDbXrecord
280
     1
  1
総合図
  1
天伏カーテンボックス,天伏壁,文字天井
  1
*
  1
*
 70
     0
  1
*
  1
*
  0
XRECORD
  5
2C5
102
{ACAD_REACTORS
330
10
102
}
330
10
100
AcDbXrecord
280
     1
  1
足場計画図
  1
001*,002*,003*,004*,005*,007*,012*,015*,049*,050*,051*,055*,056*,057*,058*,059*,060*,061*,062*,064*,065*,066*,067*,068*,069*,070*,071*,072*,073*,074*,075*
  1
*
  1
*
 70
     0
  1
*
  1
*
  0
XRECORD
  5
2C6
102
{ACAD_REACTORS
330
10
102
}
330
10
100
AcDbXrecord
280
     1
  1
耐火
  1
耐火*
  1
*
  1
*
 70
     0
  1
*
  1
*
  0
XRECORD
  5
2C7
102
{ACAD_REACTORS
330
10
102
}
330
10
100
AcDbXrecord
280
     1
  1
断面記号
  1
*fold-u
  1
*
  1
*
 70
     0
  1
*
  1
*
  0
XRECORD
  5
2C8
102
{ACAD_REACTORS
330
10
102
}
330
10
100
AcDbXrecord
280
     1
  1
中野
  1
中野*
  1
*
  1
*
 70
     0
  1
*
  1
*
  0
XRECORD
  5
2C9
102
{ACAD_REACTORS
330
10
102
}
330
10
100
AcDbXrecord
280
     1
  1
柱
  1
*F
  1
*
  1
*
 70
     0
  1
*
  1
*
  0
XRECORD
  5
2CA
102
{ACAD_REACTORS
330
10
102
}
330
10
100
AcDbXrecord
280
     1
  1
通り芯
  1
sin*
  1
*
  1
*
 70
     0
  1
*
  1
*
  0
XRECORD
  5
2CB
102
{ACAD_REACTORS
330
10
102
}
330
10
100
AcDbXrecord
280
     1
  1
低木植栽平面
  1
*て*
  1
*
  1
*
 70
     0
  1
*
  1
*
  0
XRECORD
  5
2CC
102
{ACAD_REACTORS
330
10
102
}
330
10
100
AcDbXrecord
280
     1
  1
鉄骨
  1
*
  1
*
  1
*
 70
     3
  1
*
  1
*
  0
XRECORD
  5
2CD
102
{ACAD_REACTORS
330
10
102
}
330
10
100
AcDbXrecord
280
     1
  1
鉄骨建方計画図
  1
001*,002*,003*,004*,005*,007*,012*,013*,049*,050*,051*,052*,053*,054*,055*,056*,057*,058*,059*,060*,061*,062*,063*,064*,065*,066*,067*,068*,069*,070*,071*,072*,073*,074*,075*
  1
*
  1
*
 70
     0
  1
*
  1
*
  0
XRECORD
  5
2CE
102
{ACAD_REACTORS
330
10
102
}
330
10
100
AcDbXrecord
280
     1
  1
天井
  1
C*
  1
*
  1
*
 70
     0
  1
*
  1
*
  0
XRECORD
  5
2CF
102
{ACAD_REACTORS
330
10
102
}
330
10
100
AcDbXrecord
280
     1
  1
天井インサート図
  1
001*,002*,004*,010*,022*,023*,024*,025*,026*,027*,028*,029*,037*,042*
  1
*
  1
*
 70
     0
  1
*
  1
*
  0
XRECORD
  5
2D0
102
{ACAD_REACTORS
330
10
102
}
330
10
100
AcDbXrecord
280
     1
  1
天井総合図
  1
001*,002*,004*,005*,007*,010*,022*,023*,024*,025*,026*,027*,028*,029*,030*,031*,033*,035*,036*,037*,039*,041*,042*,044*,046*,047*
  1
*
  1
*
 70
     0
  1
*
  1
*
  0
XRECORD
  5
2D1
102
{ACAD_REACTORS
330
10
102
}
330
10
100
AcDbXrecord
280
     1
  1
天井伏図
  1
001*,002*,004*,010*,022*,023*,024*,025*,026*,027*,028*,029*,033*,039*,044*
  1
*
  1
*
 70
     0
  1
*
  1
*
  0
XRECORD
  5
2D2
102
{ACAD_REACTORS
330
10
102
}
330
10
100
AcDbXrecord
280
     1
  1
天上伏図
  1
トイレブース,開口記号,建具,雑工事,手摺,寸法備品,文字平詳,文字平詳,LAYER02,LAYER09,LAYER14,LAYERDIM
  1
*
  1
*
 70
     0
  1
*
  1
*
  0
XRECORD
  5
2D3
102
{ACAD_REACTORS
330
10
102
}
330
10
100
AcDbXrecord
280
     1
  1
天伏
  1
*05
  1
*
  1
*
 70
     0
  1
*
  1
*
  0
XRECORD
  5
2D4
102
{ACAD_REACTORS
330
10
102
}
330
10
100
AcDbXrecord
280
     1
  1
電気
  1
0*
  1
*
  1
*
 70
     0
  1
*
  1
*
  0
XRECORD
  5
2D5
102
{ACAD_REACTORS
330
10
102
}
330
10
100
AcDbXrecord
280
     1
  1
電気設備
  1
0*
  1
*
  1
*
 70
     0
  1
*
  1
*
  0
XRECORD
  5
2D6
102
{ACAD_REACTORS
330
10
102
}
330
10
100
AcDbXrecord
280
     1
  1
電気設備図
  1
001*,002*,004*,005*,007*,010*,030*,031*,044*,045*,046*,047*,048*
  1
*
  1
*
 70
     0
  1
*
  1
*
  0
XRECORD
  5
2D7
102
{ACAD_REACTORS
330
10
102
}
330
10
100
AcDbXrecord
280
     1
  1
電灯
  1
E2*
  1
*
  1
*
 70
     0
  1
*
  1
*
  0
XRECORD
  5
2D8
102
{ACAD_REACTORS
330
10
102
}
330
10
100
AcDbXrecord
280
     1
  1
土壌改良
  1
*ど*
  1
*
  1
*
 70
     0
  1
*
  1
*
  0
XRECORD
  5
2D9
102
{ACAD_REACTORS
330
10
102
}
330
10
100
AcDbXrecord
280
     1
  1
道路
  1
R*
  1
*
  1
*
 70
     0
  1
*
  1
*
  0
XRECORD
  5
2DA
102
{ACAD_REACTORS
330
10
102
}
330
10
100
AcDbXrecord
280
     1
  1
道路関係図
  1
001*,002*,003*,004*,007*,012*,015*,016*,017*,018*,019*,020*,021*,049*,050*,051*,052*,053*,054*,055*,056*,057*,058*,059*,060*,061*,062*,063*,064*,065*,066*,067*,068*,069*,070*,071*,072*,073*,074*,075*
  1
*
  1
*
 70
     0
  1
*
  1
*
  0
XRECORD
  5
2DB
102
{ACAD_REACTORS
330
10
102
}
330
10
100
AcDbXrecord
280
     1
  1
内装中止
  1
DC*,BDC*
  1
*
  1
*
 70
     0
  1
*
  1
*
  0
XRECORD
  5
2DC
102
{ACAD_REACTORS
330
10
102
}
330
10
100
AcDbXrecord
280
     1
  1
日建
  1
*
  1
*
  1
*
 70
     0
  1
*
  1
*
  0
XRECORD
  5
2DD
102
{ACAD_REACTORS
330
10
102
}
330
10
100
AcDbXrecord
280
     1
  1
排水溝
  1
*排水溝*
  1
*
  1
*
 70
     0
  1
*
  1
*
  0
XRECORD
  5
2DE
102
{ACAD_REACTORS
330
10
102
}
330
10
100
AcDbXrecord
280
     1
  1
排水平面
  1
*は*
  1
*
  1
*
 70
     0
  1
*
  1
*
  0
XRECORD
  5
2DF
102
{ACAD_REACTORS
330
10
102
}
330
10
100
AcDbXrecord
280
     1
  1
配管
  1
PIPE*
  1
*
  1
*
 70
     0
  1
*
  1
*
  0
XRECORD
  5
2E0
102
{ACAD_REACTORS
330
10
102
}
330
10
100
AcDbXrecord
280
     1
  1
配置図
  1
*
  1
*
  1
*
 70
  1024
  1
*
  1
*
  0
XRECORD
  5
2E1
102
{ACAD_REACTORS
330
10
102
}
330
10
100
AcDbXrecord
280
     1
  1
非出力画層
  1
*
  1
*
  1
*
 70
  3072
  1
*
  1
*
  0
XRECORD
  5
2E2
102
{ACAD_REACTORS
330
10
102
}
330
10
100
AcDbXrecord
280
     1
  1
非表示
  1
*
  1
*
  1
*
 70
     3
  1
*
  1
*
  0
XRECORD
  5
2E3
102
{ACAD_REACTORS
330
10
102
}
330
10
100
AcDbXrecord
280
     1
  1
非表示画層
  1
*
  1
*
  1
*
 70
     3
  1
*
  1
*
  0
XRECORD
  5
2E4
102
{ACAD_REACTORS
330
10
102
}
330
10
100
AcDbXrecord
280
     1
  1
表示
  1
*
  1
*
  1
*
 70
     1
  1
*
  1
*
  0
XRECORD
  5
2E6
102
{ACAD_REACTORS
330
10
102
}
330
10
100
AcDbXrecord
280
     1
  1
表示2
  1
*
  1
*
  1
*
 70
   257
  1
*
  1
*
  0
XRECORD
  5
2E5
102
{ACAD_REACTORS
330
10
102
}
330
10
100
AcDbXrecord
280
     1
  1
表示・非表示
  1
*
  1
*
  1
*
 70
     1
  1
*
  1
*
  0
XRECORD
  5
2E7
102
{ACAD_REACTORS
330
10
102
}
330
10
100
AcDbXrecord
280
     1
  1
表示されているすべての画層
  1
*
  1
*
  1
*
 70
     1
  1
*
  1
*
  0
XRECORD
  5
2E8
102
{ACAD_REACTORS
330
10
102
}
330
10
100
AcDbXrecord
280
     1
  1
分割枠
  1
枠*
  1
*
  1
*
 70
     0
  1
*
  1
*
  0
XRECORD
  5
2E9
102
{ACAD_REACTORS
330
10
102
}
330
10
100
AcDbXrecord
280
     1
  1
文字
  1
*NAM*
  1
*
  1
*
 70
     0
  1
*
  1
*
  0
XRECORD
  5
2EA
102
{ACAD_REACTORS
330
10
102
}
330
10
100
AcDbXrecord
280
     1
  1
平詳
  1
****-T
  1
*
  1
*
 70
     0
  1
*
  1
*
  0
XRECORD
  5
2EB
102
{ACAD_REACTORS
330
10
102
}
330
10
100
AcDbXrecord
280
     1
  1
平詳仕上表1
  1
1_h*3,1_t*2,2_s*2
  1
*
  1
*
 70
     0
  1
*
  1
*
  0
XRECORD
  5
2EC
102
{ACAD_REACTORS
330
10
102
}
330
10
100
AcDbXrecord
280
     1
  1
平詳図
  1
2*
  1
*
  1
*
 70
     0
  1
*
  1
*
  0
XRECORD
  5
2ED
102
{ACAD_REACTORS
330
10
102
}
330
10
100
AcDbXrecord
280
     1
  1
平面
  1
*-T
  1
*
  1
*
 70
     0
  1
*
  1
*
  0
XRECORD
  5
2EE
102
{ACAD_REACTORS
330
10
102
}
330
10
100
AcDbXrecord
280
     1
  1
平面詳細図
  1
001*,002*,004*,007*,010*,013*,014*,015*,016*,017*,018*,019*,020*,021*,030*,034*,040*,045*
  1
*
  1
*
 70
     0
  1
*
  1
*
  0
XRECORD
  5
2EF
102
{ACAD_REACTORS
330
10
102
}
330
10
100
AcDbXrecord
280
     1
  1
平面図
  1
*
  1
*
  1
*
 70
     0
  1
*
  1
*
  0
XRECORD
  5
2F0
102
{ACAD_REACTORS
330
10
102
}
330
10
100
AcDbXrecord
280
     1
  1
平面図のみ＠1
  1
*
  1
*
  1
*
 70
     1
  1
*
  1
*
  0
XRECORD
  5
2F1
102
{ACAD_REACTORS
330
10
102
}
330
10
100
AcDbXrecord
280
     1
  1
平面図のみ＠２
  1
*
  1
*
  1
*
 70
     1
  1
*
  1
*
  0
XRECORD
  5
2F2
102
{ACAD_REACTORS
330
10
102
}
330
10
100
AcDbXrecord
280
     1
  1
平面総合図
  1
001*,002*,004*,010*,013*,014*,015*,016*,017*,018*,019*,020*,021*,030*,031*,034*,040*,045*
  1
*
  1
*
 70
     0
  1
*
  1
*
  0
XRECORD
  5
2F3
102
{ACAD_REACTORS
330
10
102
}
330
10
100
AcDbXrecord
280
     1
  1
壁仕様
  1
壁*
  1
*
  1
*
 70
     0
  1
*
  1
*
  0
XRECORD
  5
2F4
102
{ACAD_REACTORS
330
10
102
}
330
10
100
AcDbXrecord
280
     1
  1
便所
  1
*-b
  1
*
  1
*
 70
     0
  1
*
  1
*
  0
XRECORD
  5
2F5
102
{ACAD_REACTORS
330
10
102
}
330
10
100
AcDbXrecord
280
     1
  1
保留
  1
保留*
  1
*
  1
*
 70
     0
  1
*
  1
*
  0
XRECORD
  5
2F6
102
{ACAD_REACTORS
330
10
102
}
330
10
100
AcDbXrecord
280
     1
  1
補助
  1
*補助*
  1
*
  1
*
 70
     0
  1
*
  1
*
  0
XRECORD
  5
2F7
102
{ACAD_REACTORS
330
10
102
}
330
10
100
AcDbXrecord
280
     1
  1
補助通り芯
  1
*補助通り芯
  1
*
  1
*
 70
     0
  1
*
  1
*
  0
XRECORD
  5
2F8
102
{ACAD_REACTORS
330
10
102
}
330
10
100
AcDbXrecord
280
     1
  1
法規
  1
HOU*
  1
*
  1
*
 70
     0
  1
*
  1
*
  0
XRECORD
  5
2F9
102
{ACAD_REACTORS
330
10
102
}
330
10
100
AcDbXrecord
280
     1
  1
法規チェック－区画
  1
*92
  1
*
  1
*
 70
     0
  1
*
  1
*
  0
XRECORD
  5
2FA
102
{ACAD_REACTORS
330
10
102
}
330
10
100
AcDbXrecord
280
     1
  1
法規チェック－範囲
  1
*0
  1
*
  1
*
 70
     0
  1
*
  1
*
  0
XRECORD
  5
2FB
102
{ACAD_REACTORS
330
10
102
}
330
10
100
AcDbXrecord
280
     1
  1
法規チェック図
  1
*50*,*M*,*G*,*A73*
  1
*
  1
*
 70
     0
  1
*
  1
*
  0
XRECORD
  5
2FC
102
{ACAD_REACTORS
330
10
102
}
330
10
100
AcDbXrecord
280
     1
  1
鳳文字入力
  1
*
  1
*
  1
*
 70
     0
  1
*
  1
*
  0
XRECORD
  5
2FD
102
{ACAD_REACTORS
330
10
102
}
330
10
100
AcDbXrecord
280
     1
  1
防災
  1
B*
  1
*
  1
*
 70
   768
  1
*
  1
*
  0
XRECORD
  5
2FE
102
{ACAD_REACTORS
330
10
102
}
330
10
100
AcDbXrecord
280
     1
  1
名称
  1
*名称
  1
*
  1
*
 70
     0
  1
*
  1
*
  0
XRECORD
  5
2FF
102
{ACAD_REACTORS
330
10
102
}
330
10
100
AcDbXrecord
280
     1
  1
面積
  1
*面積
  1
*
  1
*
 70
     0
  1
*
  1
*
  0
XRECORD
  5
300
102
{ACAD_REACTORS
330
10
102
}
330
10
100
AcDbXrecord
280
     1
  1
容積対象
  1
y*
  1
*
  1
*
 70
     0
  1
*
  1
*
  0
XRECORD
  5
301
102
{ACAD_REACTORS
330
10
102
}
330
10
100
AcDbXrecord
280
     1
  1
擁壁平面図
  1
*よ*
  1
*
  1
*
 70
     0
  1
*
  1
*
  0
XRECORD
  5
302
102
{ACAD_REACTORS
330
10
102
}
330
10
100
AcDbXrecord
280
     1
  1
用途色塗
  1
*1-*
  1
*
  1
*
 70
     0
  1
*
  1
*
  0
XRECORD
  5
303
102
{ACAD_REACTORS
330
10
102
}
330
10
100
AcDbXrecord
280
     1
  1
立面図
  1
*HOJO2
  1
*
  1
*
 70
     0
  1
*
  1
*
  0
XRECORD
  5
304
102
{ACAD_REACTORS
330
10
102
}
330
10
100
AcDbXrecord
280
     1
  1
梁
  1
0,08*,17*,梁*
  1
*
  1
*
 70
     0
  1
*
  1
*
  0
XRECORD
  5
305
102
{ACAD_REACTORS
330
10
102
}
330
10
100
AcDbXrecord
280
     1
  1
緑
  1
*
  1
Green
  1
*
 70
     0
  1
*
  1
*
  0
DICTIONARY
  5
429
330
3F4
100
AcDbDictionary
280
     1
281
     1
  3
ACAD_XREC_ROUNDTRIP
360
42A
  0
DICTIONARY
  5
42B
330
3F5
100
AcDbDictionary
280
     1
281
     1
  3
ACAD_XREC_ROUNDTRIP
360
42C
  0
XRECORD
  5
42A
102
{ACAD_REACTORS
330
429
102
}
330
429
100
AcDbXrecord
280
     1
102
SHADEPLOT
 70
     0
102
SHADEPLOTRESLEVEL
 70
     2
102
SHADEPLOTCUSTOMDPI
 70
   300
  0
XRECORD
  5
42C
102
{ACAD_REACTORS
330
42B
102
}
330
42B
100
AcDbXrecord
280
     1
102
SHADEPLOT
 70
     0
102
SHADEPLOTRESLEVEL
 70
     2
102
SHADEPLOTCUSTOMDPI
 70
   300
  0
ENDSEC
  0
EOF
