  0
SECTION
  2
HEADER
  9
$ACADVER
  1
AC1015
  9
$ACADMAINTVER
 70
    20
  9
$DWGCODEPAGE
  3
ANSI_932
  9
$INSBASE
 10
260.3549869044098
 20
120.7742273578934
 30
0.0
  9
$EXTMIN
 10
-0.0006794998009241
 20
-0.0018090448341752
 30
-0.0000000349181948
  9
$EXTMAX
 10
125.0040153306593
 20
113.0021574184409
 30
0.0000000814935747
  9
$LIMMIN
 10
-10.38370475340992
 20
-0.2230806521038176
  9
$LIMMAX
 10
135.07630380429
 20
113.0678470847646
  9
$ORTHOMODE
 70
     1
  9
$REGENMODE
 70
     1
  9
$FILLMODE
 70
     1
  9
$QTEXTMODE
 70
     0
  9
$MIRRTEXT
 70
     0
  9
$LTSCALE
 40
1.0
  9
$ATTMODE
 70
     1
  9
$TEXTSIZE
 40
3.0
  9
$TRACEWID
 40
0.05
  9
$TEXTSTYLE
  7
STANDARD
  9
$CLAYER
  8
0
  9
$CELTYPE
  6
ByLayer
  9
$CECOLOR
 62
   256
  9
$CELTSCALE
 40
1.0
  9
$DISPSILH
 70
     0
  9
$DIMSCALE
 40
1.0
  9
$DIMASZ
 40
2.0
  9
$DIMEXO
 40
2.0
  9
$DIMDLI
 40
8.0
  9
$DIMRND
 40
0.0
  9
$DIMDLE
 40
0.0
  9
$DIMEXE
 40
2.0
  9
$DIMTP
 40
0.0
  9
$DIMTM
 40
0.0
  9
$DIMTXT
 40
2.5
  9
$DIMCEN
 40
0.0
  9
$DIMTSZ
 40
0.0
  9
$DIMTOL
 70
     0
  9
$DIMLIM
 70
     0
  9
$DIMTIH
 70
     0
  9
$DIMTOH
 70
     0
  9
$DIMSE1
 70
     0
  9
$DIMSE2
 70
     0
  9
$DIMTAD
 70
     3
  9
$DIMZIN
 70
     0
  9
$DIMBLK
  1

  9
$DIMASO
 70
     1
  9
$DIMSHO
 70
     0
  9
$DIMPOST
  1

  9
$DIMAPOST
  1

  9
$DIMALT
 70
     0
  9
$DIMALTD
 70
     2
  9
$DIMALTF
 40
25.4
  9
$DIMLFAC
 40
1.0
  9
$DIMTOFL
 70
     1
  9
$DIMTVP
 40
0.0
  9
$DIMTIX
 70
     0
  9
$DIMSOXD
 70
     0
  9
$DIMSAH
 70
     1
  9
$DIMBLK1
  1
OPEN30
  9
$DIMBLK2
  1
OPEN30
  9
$DIMSTYLE
  2
STANDARD
  9
$DIMCLRD
 70
     0
  9
$DIMCLRE
 70
     0
  9
$DIMCLRT
 70
     0
  9
$DIMTFAC
 40
1.0
  9
$DIMGAP
 40
0.5
  9
$DIMJUST
 70
     0
  9
$DIMSD1
 70
     0
  9
$DIMSD2
 70
     0
  9
$DIMTOLJ
 70
     1
  9
$DIMTZIN
 70
     0
  9
$DIMALTZ
 70
     0
  9
$DIMALTTZ
 70
     0
  9
$DIMUPT
 70
     0
  9
$DIMDEC
 70
     4
  9
$DIMTDEC
 70
     4
  9
$DIMALTU
 70
     2
  9
$DIMALTTD
 70
     2
  9
$DIMTXSTY
  7
STANDARD
  9
$DIMAUNIT
 70
     0
  9
$DIMADEC
 70
     0
  9
$DIMALTRND
 40
0.0
  9
$DIMAZIN
 70
     0
  9
$DIMDSEP
 70
    46
  9
$DIMATFIT
 70
     3
  9
$DIMFRAC
 70
     0
  9
$DIMLDRBLK
  1

  9
$DIMLUNIT
 70
     2
  9
$DIMLWD
 70
    -2
  9
$DIMLWE
 70
    -2
  9
$DIMTMOVE
 70
     0
  9
$LUNITS
 70
     2
  9
$LUPREC
 70
     4
  9
$SKETCHINC
 40
0.1
  9
$FILLETRAD
 40
0.0
  9
$AUNITS
 70
     0
  9
$AUPREC
 70
     0
  9
$MENU
  1
ACAD
  9
$ELEVATION
 40
0.0
  9
$PELEVATION
 40
0.0
  9
$THICKNESS
 40
0.0
  9
$LIMCHECK
 70
     0
  9
$CHAMFERA
 40
0.0
  9
$CHAMFERB
 40
0.0
  9
$CHAMFERC
 40
0.0
  9
$CHAMFERD
 40
0.0
  9
$SKPOLY
 70
     0
  9
$TDCREATE
 40
2448884.641931713
  9
$TDUCREATE
 40
2448884.266931713
  9
$TDUPDATE
 40
2453731.655778716
  9
$TDUUPDATE
 40
2453731.280778715
  9
$TDINDWG
 40
1.3176711921
  9
$TDUSRTIMER
 40
1.3176711921
  9
$USRTIMER
 70
     1
  9
$ANGBASE
 50
0.0
  9
$ANGDIR
 70
     0
  9
$PDMODE
 70
     0
  9
$PDSIZE
 40
0.0
  9
$PLINEWID
 40
0.0
  9
$SPLFRAME
 70
     0
  9
$SPLINETYPE
 70
     6
  9
$SPLINESEGS
 70
     8
  9
$HANDSEED
  5
6B3
  9
$SURFTAB1
 70
     6
  9
$SURFTAB2
 70
     6
  9
$SURFTYPE
 70
     6
  9
$SURFU
 70
     6
  9
$SURFV
 70
     6
  9
$UCSBASE
  2

  9
$UCSNAME
  2

  9
$UCSORG
 10
0.0
 20
0.0
 30
0.0
  9
$UCSXDIR
 10
1.0
 20
0.0
 30
0.0
  9
$UCSYDIR
 10
0.0
 20
1.0
 30
0.0
  9
$UCSORTHOREF
  2

  9
$UCSORTHOVIEW
 70
     0
  9
$UCSORGTOP
 10
0.0
 20
0.0
 30
0.0
  9
$UCSORGBOTTOM
 10
0.0
 20
0.0
 30
0.0
  9
$UCSORGLEFT
 10
0.0
 20
0.0
 30
0.0
  9
$UCSORGRIGHT
 10
0.0
 20
0.0
 30
0.0
  9
$UCSORGFRONT
 10
0.0
 20
0.0
 30
0.0
  9
$UCSORGBACK
 10
0.0
 20
0.0
 30
0.0
  9
$PUCSBASE
  2

  9
$PUCSNAME
  2

  9
$PUCSORG
 10
0.0
 20
0.0
 30
0.0
  9
$PUCSXDIR
 10
1.0
 20
0.0
 30
0.0
  9
$PUCSYDIR
 10
0.0
 20
1.0
 30
0.0
  9
$PUCSORTHOREF
  2

  9
$PUCSORTHOVIEW
 70
     0
  9
$PUCSORGTOP
 10
0.0
 20
0.0
 30
0.0
  9
$PUCSORGBOTTOM
 10
0.0
 20
0.0
 30
0.0
  9
$PUCSORGLEFT
 10
0.0
 20
0.0
 30
0.0
  9
$PUCSORGRIGHT
 10
0.0
 20
0.0
 30
0.0
  9
$PUCSORGFRONT
 10
0.0
 20
0.0
 30
0.0
  9
$PUCSORGBACK
 10
0.0
 20
0.0
 30
0.0
  9
$USERI1
 70
     0
  9
$USERI2
 70
     0
  9
$USERI3
 70
     0
  9
$USERI4
 70
     0
  9
$USERI5
 70
     0
  9
$USERR1
 40
0.0
  9
$USERR2
 40
0.0
  9
$USERR3
 40
0.0
  9
$USERR4
 40
0.0
  9
$USERR5
 40
0.0
  9
$WORLDVIEW
 70
     1
  9
$SHADEDGE
 70
     3
  9
$SHADEDIF
 70
    70
  9
$TILEMODE
 70
     1
  9
$MAXACTVP
 70
    48
  9
$PINSBASE
 10
0.0
 20
0.0
 30
0.0
  9
$PLIMCHECK
 70
     0
  9
$PEXTMIN
 10
1.000000000000000E+20
 20
1.000000000000000E+20
 30
1.000000000000000E+20
  9
$PEXTMAX
 10
-1.000000000000000E+20
 20
-1.000000000000000E+20
 30
-1.000000000000000E+20
  9
$PLIMMIN
 10
0.0
 20
0.0
  9
$PLIMMAX
 10
12.0
 20
9.0
  9
$UNITMODE
 70
     0
  9
$VISRETAIN
 70
     0
  9
$PLINEGEN
 70
     0
  9
$PSLTSCALE
 70
     0
  9
$TREEDEPTH
 70
  3020
  9
$CMLSTYLE
  2
Standard
  9
$CMLJUST
 70
     0
  9
$CMLSCALE
 40
1.0
  9
$PROXYGRAPHICS
 70
     1
  9
$MEASUREMENT
 70
     0
  9
$CELWEIGHT
370
    -1
  9
$ENDCAPS
280
     0
  9
$JOINSTYLE
280
     0
  9
$LWDISPLAY
290
     0
  9
$INSUNITS
 70
     0
  9
$HYPERLINKBASE
  1

  9
$STYLESHEET
  1

  9
$XEDIT
290
     1
  9
$CEPSNTYPE
380
     0
  9
$PSTYLEMODE
290
     1
  9
$FINGERPRINTGUID
  2
{CD07783C-6222-4109-AC71-687C0C27A46A}
  9
$VERSIONGUID
  2
{859A09E8-3A5B-45BC-B22E-1E7ABA731EBD}
  9
$EXTNAMES
290
     1
  9
$PSVPSCALE
 40
0.0
  9
$OLESTARTUP
290
     0
  0
ENDSEC
  0
SECTION
  2
CLASSES
  0
CLASS
  1
ACDBDICTIONARYWDFLT
  2
AcDbDictionaryWithDefault
  3
ObjectDBX Classes
 90
        0
280
     0
281
     0
  0
CLASS
  1
DICTIONARYVAR
  2
AcDbDictionaryVar
  3
ObjectDBX Classes
 90
        0
280
     0
281
     0
  0
CLASS
  1
ACDBPLACEHOLDER
  2
AcDbPlaceHolder
  3
ObjectDBX Classes
 90
        0
280
     0
281
     0
  0
CLASS
  1
LAYOUT
  2
AcDbLayout
  3
ObjectDBX Classes
 90
        0
280
     0
281
     0
  0
ENDSEC
  0
SECTION
  2
TABLES
  0
TABLE
  2
VPORT
  5
63C
330
0
100
AcDbSymbolTable
 70
     2
  0
VPORT
  5
6AA
330
63C
100
AcDbSymbolTableRecord
100
AcDbViewportTableRecord
  2
*Active
 70
     0
 10
0.0
 20
0.0
 11
1.0
 21
1.0
 12
62.5016679154292
 22
56.50017418680336
 13
0.0
 23
0.0
 14
1.0
 24
1.0
 15
0.0
 25
0.0
 16
0.0
 26
0.0
 36
1.0
 17
0.0
 27
0.0
 37
0.0
 40
113.9725718901031
 41
1.589413447782546
 42
50.0
 43
0.0
 44
0.0
 50
0.0
 51
0.0
 71
     0
 72
 10000
 73
     1
 74
     0
 75
     0
 76
     0
 77
     0
 78
     0
281
     0
 65
     1
110
0.0
120
0.0
130
0.0
111
1.0
121
0.0
131
0.0
112
0.0
122
1.0
132
0.0
 79
     0
146
0.0
  0
ENDTAB
  0
TABLE
  2
LTYPE
  5
639
330
0
100
AcDbSymbolTable
 70
     2
  0
LTYPE
  5
647
330
639
100
AcDbSymbolTableRecord
100
AcDbLinetypeTableRecord
  2
ByBlock
 70
     0
  3

 72
    65
 73
     0
 40
0.0
  0
LTYPE
  5
648
330
639
100
AcDbSymbolTableRecord
100
AcDbLinetypeTableRecord
  2
ByLayer
 70
     0
  3

 72
    65
 73
     0
 40
0.0
  0
LTYPE
  5
649
330
639
100
AcDbSymbolTableRecord
100
AcDbLinetypeTableRecord
  2
CONTINUOUS
 70
     0
  3
実線
 72
    65
 73
     0
 40
0.0
  0
LTYPE
  5
65A
330
639
100
AcDbSymbolTableRecord
100
AcDbLinetypeTableRecord
  2
HIDDEN2
 70
     0
  3
Hidden (.5x) _ _ _ _ _ _ _ _ _ _ _ _ _ _ _ _ _
 72
    65
 73
     2
 40
1.399999999999999
 49
0.7
 74
     0
 49
-0.7
 74
     0
  0
ENDTAB
  0
TABLE
  2
LAYER
  5
636
330
0
100
AcDbSymbolTable
 70
     7
  0
LAYER
  5
644
330
636
100
AcDbSymbolTableRecord
100
AcDbLayerTableRecord
  2
0
 70
     0
 62
     7
  6
CONTINUOUS
370
    -3
390
643
  0
LAYER
  5
658
330
636
100
AcDbSymbolTableRecord
100
AcDbLayerTableRecord
  2
SUNPO
 70
     0
 62
     3
  6
CONTINUOUS
370
    -3
390
643
  0
LAYER
  5
65B
330
636
100
AcDbSymbolTableRecord
100
AcDbLayerTableRecord
  2
WAKU
 70
     0
 62
     4
  6
CONTINUOUS
370
    -3
390
643
  0
LAYER
  5
65C
330
636
100
AcDbSymbolTableRecord
100
AcDbLayerTableRecord
  2
MOJI1
 70
     0
 62
     2
  6
CONTINUOUS
370
    -3
390
643
  0
LAYER
  5
65D
330
636
100
AcDbSymbolTableRecord
100
AcDbLayerTableRecord
  2
GAIKEI
 70
     0
 62
     7
  6
CONTINUOUS
370
    -3
390
643
  0
LAYER
  5
65E
330
636
100
AcDbSymbolTableRecord
100
AcDbLayerTableRecord
  2
DEFPOINTS
 70
     0
 62
     7
  6
CONTINUOUS
290
     0
370
    -3
390
643
  0
LAYER
  5
65F
330
636
100
AcDbSymbolTableRecord
100
AcDbLayerTableRecord
  2
TOUROKU
 70
     0
 62
     1
  6
CONTINUOUS
370
    -3
390
643
  0
ENDTAB
  0
TABLE
  2
STYLE
  5
637
330
0
100
AcDbSymbolTable
 70
     2
  0
STYLE
  5
645
330
637
100
AcDbSymbolTableRecord
100
AcDbTextStyleTableRecord
  2
STANDARD
 70
     0
 40
0.0
 41
1.0
 50
0.0
 71
     0
 42
3.0
  3
MONOTXT.shx
  4
BIGFONT.shx
  0
ENDTAB
  0
TABLE
  2
VIEW
  5
63A
330
0
100
AcDbSymbolTable
 70
     0
  0
ENDTAB
  0
TABLE
  2
UCS
  5
63B
330
0
100
AcDbSymbolTable
 70
     0
  0
ENDTAB
  0
TABLE
  2
APPID
  5
63D
330
0
100
AcDbSymbolTable
 70
     1
  0
APPID
  5
646
330
63D
100
AcDbSymbolTableRecord
100
AcDbRegAppTableRecord
  2
ACAD
 70
     0
  0
ENDTAB
  0
TABLE
  2
DIMSTYLE
  5
63E
330
0
100
AcDbSymbolTable
 70
     1
100
AcDbDimStyleTable
 71
     1
340
661
  0
DIMSTYLE
105
661
102
{ACAD_REACTORS
330
418
330
3FD
330
3A7
330
333
102
}
330
63E
100
AcDbSymbolTableRecord
100
AcDbDimStyleTableRecord
  2
STANDARD
 70
     0
 40
0.0
 41
2.0
 42
2.0
 43
8.0
 44
2.0
 73
     0
 74
     0
 77
     3
140
3.0
141
0.0
173
     1
279
     2
340
645
  0
ENDTAB
  0
TABLE
  2
BLOCK_RECORD
  5
635
330
0
100
AcDbSymbolTable
 70
    11
  0
BLOCK_RECORD
  5
654
330
635
100
AcDbSymbolTableRecord
100
AcDbBlockTableRecord
  2
*Model_Space
340
657
  0
BLOCK_RECORD
  5
650
330
635
100
AcDbSymbolTableRecord
100
AcDbBlockTableRecord
  2
*Paper_Space
340
653
  0
BLOCK_RECORD
  5
668
330
635
100
AcDbSymbolTableRecord
100
AcDbBlockTableRecord
  2
_OPEN30
340
0
102
{BLKREFS
331
3AC
331
3AD
331
402
331
403
331
338
331
33F
331
41E
331
41F
331
67F
331
680
331
688
331
689
331
691
331
692
331
69A
331
69B
102
}
  0
BLOCK_RECORD
  5
672
330
635
100
AcDbSymbolTableRecord
100
AcDbBlockTableRecord
  2
*D7
340
0
  0
BLOCK_RECORD
  5
674
330
635
100
AcDbSymbolTableRecord
100
AcDbBlockTableRecord
  2
*D8
340
0
  0
BLOCK_RECORD
  5
676
330
635
100
AcDbSymbolTableRecord
100
AcDbBlockTableRecord
  2
*D9
340
0
  0
BLOCK_RECORD
  5
678
330
635
100
AcDbSymbolTableRecord
100
AcDbBlockTableRecord
  2
*D10
340
0
  0
ENDTAB
  0
ENDSEC
  0
SECTION
  2
BLOCKS
  0
BLOCK
  5
655
330
654
100
AcDbEntity
  8
0
100
AcDbBlockBegin
  2
*Model_Space
 70
     0
 10
0.0
 20
0.0
 30
0.0
  3
*Model_Space
  1

  0
ENDBLK
  5
656
330
654
100
AcDbEntity
  8
0
100
AcDbBlockEnd
  0
BLOCK
  5
651
330
650
100
AcDbEntity
 67
     1
  8
0
100
AcDbBlockBegin
  2
*Paper_Space
 70
     0
 10
0.0
 20
0.0
 30
0.0
  3
*Paper_Space
  1

  0
ENDBLK
  5
652
330
650
100
AcDbEntity
 67
     1
  8
0
100
AcDbBlockEnd
  0
BLOCK
  5
669
330
668
100
AcDbEntity
  8
0
100
AcDbBlockBegin
  2
_OPEN30
 70
     0
 10
0.0
 20
0.0
 30
0.0
  3
_OPEN30
  1

  0
LINE
  5
33A
330
668
100
AcDbEntity
  8
0
  6
ByBlock
 62
     0
100
AcDbLine
 10
-1.0
 20
0.26794919
 30
0.0
 11
0.0
 21
0.0
 31
0.0
  0
LINE
  5
33B
330
668
100
AcDbEntity
  8
0
  6
ByBlock
 62
     0
100
AcDbLine
 10
0.0
 20
0.0
 30
0.0
 11
-1.0
 21
-0.26794919
 31
0.0
  0
LINE
  5
33C
330
668
100
AcDbEntity
  8
0
  6
ByBlock
 62
     0
100
AcDbLine
 10
0.0
 20
0.0
 30
0.0
 11
-1.0
 21
0.0
 31
0.0
  0
ENDBLK
  5
33E
330
668
100
AcDbEntity
  8
0
100
AcDbBlockEnd
  0
BLOCK
  5
673
330
672
100
AcDbEntity
  8
0
100
AcDbBlockBegin
  2
*D7
 70
     1
 10
0.0
 20
0.0
 30
0.0
  3
*D7
  1

  0
LINE
  5
697
330
672
100
AcDbEntity
  8
SUNPO
 62
     0
370
    -2
100
AcDbLine
 10
68.81976188623941
 20
82.99852649123531
 30
0.0
 11
76.81976188623941
 21
82.99852649123531
 31
0.0
  0
LINE
  5
698
330
672
100
AcDbEntity
  8
SUNPO
 62
     0
370
    -2
100
AcDbLine
 10
68.81976188623941
 20
55.15186313795591
 30
0.0
 11
76.81976188623941
 21
55.15186313795591
 31
0.0
  0
LINE
  5
699
330
672
100
AcDbEntity
  8
SUNPO
 62
     0
370
    -2
100
AcDbLine
 10
74.8197618862394
 20
80.99852649123532
 30
0.0
 11
74.8197618862394
 21
57.15186313795591
 31
0.0
  0
INSERT
  5
69A
330
672
100
AcDbEntity
  8
SUNPO
 62
     0
370
    -2
100
AcDbBlockReference
  2
_OPEN30
 10
74.8197618862394
 20
82.99852649123531
 30
0.0
 41
2.0
 42
2.0
 43
2.0
 50
90.0
  0
INSERT
  5
69B
330
672
100
AcDbEntity
  8
SUNPO
 62
     0
370
    -2
100
AcDbBlockReference
  2
_OPEN30
 10
74.8197618862394
 20
55.15186313795591
 30
0.0
 41
2.0
 42
2.0
 43
2.0
 50
270.0
  0
MTEXT
  5
69C
330
672
100
AcDbEntity
  8
SUNPO
 62
     0
100
AcDbMText
 10
73.06976188623939
 20
69.07519481459562
 30
0.0
 40
2.5
 41
0.0
 71
     5
 72
     1
  1
\A1;556.7
 11
0.0000000000000001
 21
1.0
 31
0.0
 73
     1
 44
1.0
1001
ACAD
1000
MTEXTBEGIN
1070
    73
1070
     1
1070
    44
1040
1.0
1070
    74
1070
     0
1000
MTEXTEND
  0
POINT
  5
69D
330
672
100
AcDbEntity
  8
DEFPOINTS
 62
     0
100
AcDbPoint
 10
66.81976188623941
 20
82.99852649123531
 30
0.0
  0
POINT
  5
69E
330
672
100
AcDbEntity
  8
DEFPOINTS
 62
     0
100
AcDbPoint
 10
66.81976188623941
 20
55.15186313795591
 30
0.0
  0
POINT
  5
69F
330
672
100
AcDbEntity
  8
DEFPOINTS
 62
     0
100
AcDbPoint
 10
74.8197618862394
 20
55.15186313795591
 30
0.0
  0
ENDBLK
  5
4BB
330
672
100
AcDbEntity
  8
0
100
AcDbBlockEnd
  0
BLOCK
  5
675
330
674
100
AcDbEntity
  8
0
100
AcDbBlockBegin
  2
*D8
 70
     1
 10
0.0
 20
0.0
 30
0.0
  3
*D8
  1

  0
LINE
  5
68E
330
674
100
AcDbEntity
  8
SUNPO
 62
     0
370
    -2
100
AcDbLine
 10
88.387171395667
 20
53.15680656918054
 30
0.0
 11
88.387171395667
 21
45.15680656918054
 31
0.0
  0
LINE
  5
68F
330
674
100
AcDbEntity
  8
SUNPO
 62
     0
370
    -2
100
AcDbLine
 10
101.9930676660072
 20
53.15680656918054
 30
0.0
 11
101.9930676660072
 21
45.15680656918054
 31
0.0
  0
LINE
  5
690
330
674
100
AcDbEntity
  8
SUNPO
 62
     0
370
    -2
100
AcDbLine
 10
90.38717139566699
 20
47.15680656918054
 30
0.0
 11
99.99306766600719
 21
47.15680656918054
 31
0.0
  0
INSERT
  5
691
330
674
100
AcDbEntity
  8
SUNPO
 62
     0
370
    -2
100
AcDbBlockReference
  2
_OPEN30
 10
88.387171395667
 20
47.15680656918054
 30
0.0
 41
2.0
 42
2.0
 43
2.0
 50
180.0
  0
INSERT
  5
692
330
674
100
AcDbEntity
  8
SUNPO
 62
     0
370
    -2
100
AcDbBlockReference
  2
_OPEN30
 10
101.9930676660072
 20
47.15680656918054
 30
0.0
 41
2.0
 42
2.0
 43
2.0
  0
MTEXT
  5
693
330
674
100
AcDbEntity
  8
SUNPO
 62
     0
100
AcDbMText
 10
95.1901195308371
 20
48.90680656918054
 30
0.0
 40
2.5
 41
0.0
 71
     5
 72
     1
  1
\A1;271.5
 73
     1
 44
1.0
1001
ACAD
1000
MTEXTBEGIN
1070
    73
1070
     1
1070
    44
1040
1.0
1070
    74
1070
     0
1000
MTEXTEND
  0
POINT
  5
694
330
674
100
AcDbEntity
  8
DEFPOINTS
 62
     0
100
AcDbPoint
 10
88.387171395667
 20
55.15680656918054
 30
0.0
  0
POINT
  5
695
330
674
100
AcDbEntity
  8
DEFPOINTS
 62
     0
100
AcDbPoint
 10
101.9930676660072
 20
55.15680656918054
 30
0.0
  0
POINT
  5
696
330
674
100
AcDbEntity
  8
DEFPOINTS
 62
     0
100
AcDbPoint
 10
101.9930676660072
 20
47.15680656918054
 30
0.0
  0
ENDBLK
  5
4C7
330
674
100
AcDbEntity
  8
0
100
AcDbBlockEnd
  0
BLOCK
  5
677
330
676
100
AcDbEntity
  8
0
100
AcDbBlockBegin
  2
*D9
 70
     1
 10
0.0
 20
0.0
 30
0.0
  3
*D9
  1

  0
LINE
  5
685
330
676
100
AcDbEntity
  8
SUNPO
 62
     0
370
    -2
100
AcDbLine
 10
26.57606726531236
 20
84.99852556301474
 30
0.0
 11
26.57606726531236
 21
92.99852556301479
 31
0.0
  0
LINE
  5
686
330
676
100
AcDbEntity
  8
SUNPO
 62
     0
370
    -2
100
AcDbLine
 10
66.82607193442919
 20
84.99852556301474
 30
0.0
 11
66.82607193442919
 21
92.99852556301479
 31
0.0
  0
LINE
  5
687
330
676
100
AcDbEntity
  8
SUNPO
 62
     0
370
    -2
100
AcDbLine
 10
28.57606726531236
 20
90.99852556301478
 30
0.0
 11
64.8260719344292
 21
90.99852556301478
 31
0.0
  0
INSERT
  5
688
330
676
100
AcDbEntity
  8
SUNPO
 62
     0
370
    -2
100
AcDbBlockReference
  2
_OPEN30
 10
26.57606726531236
 20
90.99852556301478
 30
0.0
 41
2.0
 42
2.0
 43
2.0
 50
180.0
  0
INSERT
  5
689
330
676
100
AcDbEntity
  8
SUNPO
 62
     0
370
    -2
100
AcDbBlockReference
  2
_OPEN30
 10
66.82607193442919
 20
90.99852556301478
 30
0.0
 41
2.0
 42
2.0
 43
2.0
  0
MTEXT
  5
68A
330
676
100
AcDbEntity
  8
SUNPO
 62
     0
100
AcDbMText
 10
46.70106959987077
 20
92.74852556301478
 30
0.0
 40
2.5
 41
0.0
 71
     5
 72
     1
  1
\A1;805
 73
     1
 44
1.0
1001
ACAD
1000
MTEXTBEGIN
1070
    73
1070
     1
1070
    44
1040
1.0
1070
    74
1070
     0
1000
MTEXTEND
  0
POINT
  5
68B
330
676
100
AcDbEntity
  8
DEFPOINTS
 62
     0
100
AcDbPoint
 10
26.57606726531236
 20
82.99852556301475
 30
0.0
  0
POINT
  5
68C
330
676
100
AcDbEntity
  8
DEFPOINTS
 62
     0
100
AcDbPoint
 10
66.82607193442919
 20
82.99852556301475
 30
0.0
  0
POINT
  5
68D
330
676
100
AcDbEntity
  8
DEFPOINTS
 62
     0
100
AcDbPoint
 10
66.82607193442919
 20
90.99852556301478
 30
0.0
  0
ENDBLK
  5
4D3
330
676
100
AcDbEntity
  8
0
100
AcDbBlockEnd
  0
BLOCK
  5
679
330
678
100
AcDbEntity
  8
0
100
AcDbBlockBegin
  2
*D10
 70
     1
 10
0.0
 20
0.0
 30
0.0
  3
*D10
  1

  0
LINE
  5
67B
330
678
100
AcDbEntity
  8
SUNPO
 62
     0
370
    -2
100
AcDbLine
 10
92.88566565174015
 20
84.99852556301474
 30
0.0
 11
92.88566565174015
 21
92.99852556301479
 31
0.0
  0
LINE
  5
67C
330
678
100
AcDbEntity
  8
SUNPO
 62
     0
370
    -2
100
AcDbLine
 10
97.98566646300493
 20
84.99852556301474
 30
0.0
 11
97.98566646300493
 21
92.99852556301479
 31
0.0
  0
LINE
  5
67D
330
678
100
AcDbEntity
  8
SUNPO
 62
     0
370
    -2
100
AcDbLine
 10
94.88566565174016
 20
90.99852556301478
 30
0.0
 11
95.98566646300492
 21
90.99852556301478
 31
0.0
  0
LINE
  5
67E
330
678
100
AcDbEntity
  8
SUNPO
 62
     0
370
    -2
100
AcDbLine
 10
97.98566646300493
 20
90.99852556301478
 30
0.0
 11
107.6523331296716
 21
90.99852556301478
 31
0.0
  0
INSERT
  5
67F
330
678
100
AcDbEntity
  8
SUNPO
 62
     0
370
    -2
100
AcDbBlockReference
  2
_OPEN30
 10
92.88566565174015
 20
90.99852556301478
 30
0.0
 41
2.0
 42
2.0
 43
2.0
 50
180.0
  0
INSERT
  5
680
330
678
100
AcDbEntity
  8
SUNPO
 62
     0
370
    -2
100
AcDbBlockReference
  2
_OPEN30
 10
97.98566646300493
 20
90.99852556301478
 30
0.0
 41
2.0
 42
2.0
 43
2.0
  0
MTEXT
  5
681
330
678
100
AcDbEntity
  8
SUNPO
 62
     0
100
AcDbMText
 10
103.8189997963382
 20
92.74852556301478
 30
0.0
 40
2.5
 41
0.0
 71
     5
 72
     1
  1
\A1;102
 73
     1
 44
1.0
1001
ACAD
1000
MTEXTBEGIN
1070
    73
1070
     1
1070
    44
1040
1.0
1070
    74
1070
     0
1000
MTEXTEND
  0
POINT
  5
682
330
678
100
AcDbEntity
  8
DEFPOINTS
 62
     0
100
AcDbPoint
 10
92.88566565174015
 20
82.99852556301475
 30
0.0
  0
POINT
  5
683
330
678
100
AcDbEntity
  8
DEFPOINTS
 62
     0
100
AcDbPoint
 10
97.98566646300493
 20
82.99852556301475
 30
0.0
  0
POINT
  5
684
330
678
100
AcDbEntity
  8
DEFPOINTS
 62
     0
100
AcDbPoint
 10
97.98566646300493
 20
90.99852556301478
 30
0.0
  0
ENDBLK
  5
4E0
330
678
100
AcDbEntity
  8
0
100
AcDbBlockEnd
  0
ENDSEC
  0
SECTION
  2
ENTITIES
  0
TEXT
  5
31C
330
654
100
AcDbEntity
  8
MOJI1
100
AcDbText
 10
26.99999999999955
 20
109.0
 30
0.0
 40
4.0
  1
液晶ディスプレイ据置きスタンド付
100
AcDbText
  0
TEXT
  5
31E
330
654
100
AcDbEntity
  8
TOUROKU
100
AcDbText
 10
80.59995003292732
 20
103.0000000000002
 30
0.0
 40
2.0
  1
ＴＨ３２ＬＨＤ７Ｋ＋ＴＹＳT３２Ｌ７Ｋ
 72
     2
 11
124.9999500329273
 21
103.0000000000002
 31
0.0
100
AcDbText
  0
LINE
  5
320
330
654
100
AcDbEntity
  8
GAIKEI
100
AcDbLine
 10
29.19767463401246
 20
80.32123251352263
 30
0.0
 11
29.19767463401246
 21
60.69574211468492
 31
0.0
  0
LINE
  5
322
330
654
100
AcDbEntity
  8
GAIKEI
 62
     1
100
AcDbLine
 10
27.93920288820954
 20
59.5950427086899
 30
0.0
 11
27.93920288820954
 21
81.42185355605162
 31
0.0
  0
LINE
  5
323
330
654
100
AcDbEntity
  8
GAIKEI
 62
     1
100
AcDbLine
 10
27.93920288820954
 20
59.5950427086899
 30
0.0
 11
27.93920288820954
 21
81.42185355605162
 31
0.0
  0
LINE
  5
324
330
654
100
AcDbEntity
  8
GAIKEI
 62
     1
100
AcDbLine
 10
27.00377819500426
 20
82.35906622847027
 30
0.0
 11
27.00377819500426
 21
58.65250132058575
 31
0.0
  0
LINE
  5
325
330
654
100
AcDbEntity
  8
GAIKEI
 62
     1
100
AcDbLine
 10
26.72817388521099
 20
58.39288315784901
 30
0.0
 11
26.72817388521111
 21
82.63443544786568
 31
0.0
  0
LINE
  5
326
330
654
100
AcDbEntity
  8
GAIKEI
100
AcDbLine
 10
26.53767229945396
 20
58.19352650043808
 30
0.0
 11
26.53767229945396
 21
82.82352649123536
 31
0.0
  0
LINE
  5
327
330
654
100
AcDbEntity
  8
GAIKEI
100
AcDbLine
 10
95.47349047114995
 20
82.94892241728049
 30
0.0
 11
95.47349047114995
 21
58.06870031536747
 31
0.0
  0
LINE
  5
328
330
654
100
AcDbEntity
  8
GAIKEI
100
AcDbLine
 10
92.88566565174015
 20
82.36284205534021
 30
0.0
 11
92.88566565174015
 21
58.65405420940129
 31
0.0
  0
LINE
  5
329
330
654
100
AcDbEntity
  8
GAIKEI
100
AcDbLine
 10
92.88566565174015
 20
58.65405420940129
 30
0.0
 11
92.88566565174015
 21
82.36284205534021
 31
0.0
  0
LINE
  5
32A
330
654
100
AcDbEntity
  8
GAIKEI
100
AcDbLine
 10
66.78767696857078
 20
58.19352650043808
 30
0.0
 11
66.78767696857078
 21
82.82352649123536
 31
0.0
  0
LINE
  5
32B
330
654
100
AcDbEntity
  8
GAIKEI
 62
     1
100
AcDbLine
 10
66.59717538281376
 20
58.39288315784901
 30
0.0
 11
66.59717538281376
 21
82.63443544786568
 31
0.0
  0
LINE
  5
32C
330
654
100
AcDbEntity
  8
GAIKEI
 62
     1
100
AcDbLine
 10
66.32157107302049
 20
82.35906622847027
 30
0.0
 11
66.32157107302049
 21
58.65250132058575
 31
0.0
  0
LINE
  5
32D
330
654
100
AcDbEntity
  8
GAIKEI
 62
     1
100
AcDbLine
 10
65.38614637981533
 20
59.5950427086899
 30
0.0
 11
65.38614637981533
 21
81.42185355605162
 31
0.0
  0
LINE
  5
32E
330
654
100
AcDbEntity
  8
GAIKEI
 62
     1
100
AcDbLine
 10
65.38614637981533
 20
59.5950427086899
 30
0.0
 11
65.38614637981533
 21
81.42185355605162
 31
0.0
  0
LINE
  5
32F
330
654
100
AcDbEntity
  8
GAIKEI
100
AcDbLine
 10
64.12767463401241
 20
80.32123251352263
 30
0.0
 11
64.12767463401241
 21
60.69574211468492
 31
0.0
  0
LINE
  5
330
330
654
100
AcDbEntity
  8
GAIKEI
100
AcDbLine
 10
97.98566646300493
 20
59.76225245924718
 30
0.0
 11
97.98566646300493
 21
78.42954460823898
 31
0.0
  0
LINE
  5
331
330
654
100
AcDbEntity
  8
GAIKEI
 62
     1
100
AcDbLine
 10
97.67675768017717
 20
65.29896266923427
 30
0.0
 11
97.67675768017703
 21
73.18130862009539
 31
0.0
  0
LINE
  5
332
330
654
100
AcDbEntity
  8
GAIKEI
 62
     1
100
AcDbLine
 10
97.08527023908528
 20
65.04437130400217
 30
0.0
 11
97.08527023908528
 21
73.42600221697579
 31
0.0
  0
DIMENSION
  5
333
330
654
100
AcDbEntity
  8
SUNPO
100
AcDbDimension
  2
*D7
 10
74.8197618862394
 20
55.15186313795591
 30
0.0
 11
73.06976188623939
 21
69.07519481459562
 31
0.0
 70
    33
  1
556.7
 71
     5
 42
27.84666335327941
  3
STANDARD
100
AcDbAlignedDimension
 13
66.81976188623941
 23
82.99852649123531
 33
0.0
 14
66.81976188623941
 24
55.15186313795591
 34
0.0
1001
ACAD
1000
DSTYLE
1002
{
1070
    40
1040
1.0
1070
   140
1040
2.5
1070
   147
1040
0.5
1070
   172
1070
     1
1070
   279
1070
     0
1070
   343
1005
668
1070
   344
1005
668
1002
}
  0
LINE
  5
349
330
654
100
AcDbEntity
  8
GAIKEI
100
AcDbLine
 10
29.27267463401239
 20
60.62074211468492
 30
0.0
 11
64.05267463401236
 21
60.62074211468492
 31
0.0
  0
LINE
  5
34A
330
654
100
AcDbEntity
  8
GAIKEI
 62
     1
100
AcDbLine
 10
65.21116076031899
 20
59.41864654680625
 30
0.0
 11
28.11418850770582
 21
59.41864654680625
 31
0.0
  0
LINE
  5
34B
330
654
100
AcDbEntity
  8
GAIKEI
 62
     1
100
AcDbLine
 10
65.21116076031899
 20
59.41864654680625
 30
0.0
 11
28.11418850770582
 21
59.41864654680625
 31
0.0
  0
LINE
  5
34C
330
654
100
AcDbEntity
  8
GAIKEI
 62
     1
100
AcDbLine
 10
27.17877819500433
 20
58.47750132058573
 30
0.0
 11
66.17773197154434
 21
58.47750132058573
 31
0.0
  0
LINE
  5
34D
330
654
100
AcDbEntity
  8
GAIKEI
 62
     1
100
AcDbLine
 10
26.90317388521106
 20
58.217883157849
 30
0.0
 11
66.41799435818819
 21
58.217883157849
 31
0.0
  0
LINE
  5
34E
330
654
100
AcDbEntity
  8
GAIKEI
100
AcDbLine
 10
26.71267229945403
 20
58.01852650043807
 30
0.0
 11
66.60669358422802
 21
58.01852650043807
 31
0.0
  0
LINE
  5
34F
330
654
100
AcDbEntity
  8
GAIKEI
 62
     1
100
AcDbLine
 10
46.67706636291769
 20
55.56045644945335
 30
0.0
 11
35.59974090525339
 21
55.61279704475055
 31
0.0
  0
LINE
  5
350
330
654
100
AcDbEntity
  8
GAIKEI
100
AcDbLine
 10
57.73730424891255
 20
55.25248182825635
 30
0.0
 11
35.58767463401091
 21
55.25248182825783
 31
0.0
  0
LINE
  5
351
330
654
100
AcDbEntity
  8
GAIKEI
100
AcDbLine
 10
38.4070100527897
 20
56.29030625218002
 30
0.0
 11
40.71064637446943
 21
56.33039947088195
 31
0.0
  0
LWPOLYLINE
  5
352
330
654
100
AcDbEntity
  8
GAIKEI
100
AcDbPolyline
 90
        7
 70
     0
 43
0.0
 10
38.45131689003028
 20
56.2859649482125
 10
40.4212952751177
 20
56.15711440900725
 10
42.97988544381922
 20
56.06846681814056
 10
46.67298042976324
 20
56.02816810570697
 10
50.49335582312915
 20
56.0691271910764
 10
53.06542278774168
 20
56.15923717889268
 10
54.97112753004534
 20
56.29030625211715
  0
LINE
  5
353
330
654
100
AcDbEntity
  8
GAIKEI
100
AcDbLine
 10
56.21267463401244
 20
57.7524818282529
 30
0.0
 11
37.11267463401242
 21
57.7524818282529
 31
0.0
  0
LINE
  5
354
330
654
100
AcDbEntity
  8
GAIKEI
  6
HIDDEN2
 62
     1
100
AcDbLine
 10
37.11267463401242
 20
58.10248382713209
 30
0.0
 11
56.21267463401244
 21
58.10248382713209
 31
0.0
  0
LWPOLYLINE
  5
356
330
654
100
AcDbEntity
  8
GAIKEI
 62
     1
100
AcDbPolyline
 90
        3
 70
     0
 43
0.0
 10
28.11418850770582
 20
59.41864654680628
 10
27.98880696216435
 20
59.46966116314846
 10
27.93920288820954
 20
59.5950427086899
  0
LWPOLYLINE
  5
357
330
654
100
AcDbEntity
  8
GAIKEI
 62
     1
100
AcDbPolyline
 90
        3
 70
     0
 43
0.0
 10
28.11418850770582
 20
59.41864654680628
 10
27.98880696216435
 20
59.46966116314846
 10
27.93920288820954
 20
59.5950427086899
  0
ARC
  5
358
330
654
100
AcDbEntity
  8
GAIKEI
 62
     1
100
AcDbCircle
 10
27.17877819500433
 20
58.65250132058575
 30
0.0
 40
0.175
100
AcDbArc
 50
180.0
 51
270.0
  0
ARC
  5
359
330
654
100
AcDbEntity
  8
GAIKEI
100
AcDbCircle
 10
26.71267229945403
 20
58.19352650043808
 30
0.0
 40
0.175
100
AcDbArc
 50
180.0
 51
270.0
  0
LINE
  5
35A
330
654
100
AcDbEntity
  8
GAIKEI
 62
     1
100
AcDbLine
 10
27.05157990924198
 20
58.52491121749361
 30
0.0
 11
26.55820352753636
 21
58.11773464834775
 31
0.0
  0
ARC
  5
35B
330
654
100
AcDbEntity
  8
GAIKEI
 62
     1
100
AcDbCircle
 10
26.90317388521106
 20
58.39288315784901
 30
0.0
 40
0.175
100
AcDbArc
 50
180.0
 51
270.0
  0
LINE
  5
35C
330
654
100
AcDbEntity
  8
GAIKEI
  6
HIDDEN2
 62
     1
100
AcDbLine
 10
38.14690235632276
 20
64.4200575298222
 30
0.0
 11
38.14690235632276
 21
59.74279204885865
 31
0.0
  0
LINE
  5
35D
330
654
100
AcDbEntity
  8
GAIKEI
  6
HIDDEN2
 62
     1
100
AcDbLine
 10
37.6081976121954
 20
64.40396916818198
 30
0.0
 11
37.6081976121954
 21
59.74279204885865
 31
0.0
  0
LWPOLYLINE
  5
35E
330
654
100
AcDbEntity
  8
GAIKEI
 62
     1
100
AcDbPolyline
 90
        3
 70
     0
 43
0.0
 10
30.27612275839641
 20
58.8780953585907
 10
30.27612275839641
 20
58.89400314218131
 10
30.26750277714035
 20
58.89400314218131
  0
LINE
  5
35F
330
654
100
AcDbEntity
  8
GAIKEI
 62
     1
100
AcDbLine
 10
30.27612275839641
 20
58.87809535859068
 30
0.0
 11
30.27612275839641
 21
58.60303959305915
 31
0.0
  0
LWPOLYLINE
  5
360
330
654
100
AcDbEntity
  8
GAIKEI
 62
     1
100
AcDbPolyline
 90
        3
 70
     0
 43
0.0
 10
29.39186940846531
 20
58.89400314218131
 10
29.37596162487472
 20
58.89400314218131
 10
29.37596162487472
 20
58.8780953585907
  0
LWPOLYLINE
  5
361
330
654
100
AcDbEntity
  8
GAIKEI
 62
     1
100
AcDbPolyline
 90
        3
 70
     0
 43
0.0
 10
29.37596162487472
 20
58.60303959305915
 10
29.37596162487472
 20
58.59402779447336
 10
29.39186940846531
 20
58.59402779447336
  0
LWPOLYLINE
  5
362
330
654
100
AcDbEntity
  8
GAIKEI
 62
     1
100
AcDbPolyline
 90
        3
 70
     0
 43
0.0
 10
29.67609369951452
 20
58.59402779447336
 10
29.69200148310512
 20
58.59402779447336
 10
29.69200148310512
 20
58.60303959305915
  0
LWPOLYLINE
  5
363
330
654
100
AcDbEntity
  8
GAIKEI
 62
     1
100
AcDbPolyline
 90
        3
 70
     0
 43
0.0
 10
29.69200148310512
 20
58.8780953585907
 10
29.69200148310512
 20
58.89400314218131
 10
29.67609369951452
 20
58.89400314218131
  0
LINE
  5
364
330
654
100
AcDbEntity
  8
GAIKEI
 62
     1
100
AcDbLine
 10
29.97622577415445
 20
58.89400314218129
 30
0.0
 11
29.97622577415445
 21
58.87809535859068
 31
0.0
  0
LINE
  5
365
330
654
100
AcDbEntity
  8
GAIKEI
 62
     1
100
AcDbLine
 10
29.97622577415445
 20
58.60303959305915
 30
0.0
 11
29.97622577415445
 21
58.59402779447336
 31
0.0
  0
LINE
  5
366
330
654
100
AcDbEntity
  8
GAIKEI
 62
     1
100
AcDbLine
 10
29.97622577415445
 20
58.60303959305915
 30
0.0
 11
29.97622577415445
 21
58.87809535859068
 31
0.0
  0
LINE
  5
367
330
654
100
AcDbEntity
  8
GAIKEI
 62
     1
100
AcDbLine
 10
29.39186940846531
 20
58.89400314218129
 30
0.0
 11
29.67609369951452
 21
58.89400314218129
 31
0.0
  0
LINE
  5
368
330
654
100
AcDbEntity
  8
GAIKEI
 62
     1
100
AcDbLine
 10
29.67609369951452
 20
58.59402779447336
 30
0.0
 11
29.39186940846531
 21
58.59402779447336
 31
0.0
  0
LINE
  5
369
330
654
100
AcDbEntity
  8
GAIKEI
 62
     1
100
AcDbLine
 10
29.69200148310512
 20
58.87809535859068
 30
0.0
 11
29.69200148310512
 21
58.60303959305915
 31
0.0
  0
LINE
  5
36A
330
654
100
AcDbEntity
  8
GAIKEI
 62
     1
100
AcDbLine
 10
29.37596162487472
 20
58.60303959305915
 30
0.0
 11
29.37596162487472
 21
58.87809535859068
 31
0.0
  0
LINE
  5
36B
330
654
100
AcDbEntity
  8
GAIKEI
 62
     1
100
AcDbLine
 10
29.97622577415445
 20
58.89400314218129
 30
0.0
 11
30.26750277714035
 21
58.89400314218129
 31
0.0
  0
LINE
  5
36C
330
654
100
AcDbEntity
  8
GAIKEI
 62
     1
100
AcDbLine
 10
30.26750277714035
 20
58.59402779447336
 30
0.0
 11
29.97622577415445
 21
58.59402779447336
 31
0.0
  0
LINE
  5
36D
330
654
100
AcDbEntity
  8
GAIKEI
100
AcDbLine
 10
35.58767463401841
 20
55.25248182825436
 30
0.0
 11
35.59974090525066
 21
55.61279704475552
 31
0.0
  0
LINE
  5
36E
330
654
100
AcDbEntity
  8
GAIKEI
 62
     1
100
AcDbLine
 10
38.10145886703772
 20
55.15186313795589
 30
0.0
 11
38.10145886703772
 21
55.2524818282529
 31
0.0
  0
LINE
  5
36F
330
654
100
AcDbEntity
  8
GAIKEI
 62
     1
100
AcDbLine
 10
36.37540749678108
 20
55.2524818282529
 30
0.0
 11
36.37540749678108
 21
55.15186313795589
 31
0.0
  0
LINE
  5
370
330
654
100
AcDbEntity
  8
GAIKEI
 62
     1
100
AcDbLine
 10
36.37540749678108
 20
55.15186313795589
 30
0.0
 11
38.10145886703772
 21
55.15186313795589
 31
0.0
  0
LINE
  5
371
330
654
100
AcDbEntity
  8
GAIKEI
  6
HIDDEN2
 62
     1
100
AcDbLine
 10
37.50094186792734
 20
59.74279204885865
 30
0.0
 11
38.22989787272064
 21
59.74279204885865
 31
0.0
  0
LINE
  5
372
330
654
100
AcDbEntity
  8
GAIKEI
100
AcDbLine
 10
38.40701005280039
 20
56.29030625212529
 30
0.0
 11
38.45131689001937
 21
56.28596494819067
 31
0.0
  0
LINE
  5
373
330
654
100
AcDbEntity
  8
GAIKEI
100
AcDbLine
 10
37.11267463401242
 20
57.7524818282529
 30
0.0
 11
37.11267463401242
 21
58.10248382713209
 31
0.0
  0
LINE
  5
374
330
654
100
AcDbEntity
  8
GAIKEI
  6
HIDDEN2
 62
     1
100
AcDbLine
 10
37.4466974436553
 20
58.1024818282529
 30
0.0
 11
37.50094186792734
 21
59.74279204885865
 31
0.0
  0
LINE
  5
375
330
654
100
AcDbEntity
  8
GAIKEI
  6
HIDDEN2
 62
     1
100
AcDbLine
 10
38.22989787272064
 20
59.74279204885865
 30
0.0
 11
38.28352574485479
 21
58.09954706270571
 31
0.0
  0
LINE
  5
376
330
654
100
AcDbEntity
  8
GAIKEI
100
AcDbLine
 10
35.59974090523565
 20
55.61279704474827
 30
0.0
 11
35.6559224855631
 21
55.68928060524097
 31
0.0
  0
LINE
  5
377
330
654
100
AcDbEntity
  8
GAIKEI
100
AcDbLine
 10
35.59974090524452
 20
55.61279704475015
 30
0.0
 11
35.6559224855755
 21
55.68928060524423
 31
0.0
  0
LWPOLYLINE
  5
378
330
654
100
AcDbEntity
  8
GAIKEI
100
AcDbPolyline
 90
        7
 70
     0
 43
0.0
 10
35.65592248555038
 20
55.6892806052509
 10
35.91728305891411
 20
55.75878898368944
 10
36.58214131175862
 20
55.92472175165478
 10
37.00999606771393
 20
56.02388210951466
 10
37.47166204321286
 20
56.12319035812197
 10
37.94478483814646
 20
56.21466042859845
 10
38.40701005240465
 20
56.29030625206605
  0
LWPOLYLINE
  5
379
330
654
100
AcDbEntity
  8
GAIKEI
100
AcDbPolyline
 90
        7
 70
     0
 43
0.0
 10
35.65592248557869
 20
55.68928060524308
 10
35.91728305894321
 20
55.7587889836815
 10
36.5821413117892
 20
55.92472175164701
 10
37.00999606774508
 20
56.0238821095069
 10
37.47166204324435
 20
56.12319035811424
 10
37.9447848381783
 20
56.21466042859069
 10
38.40701005243762
 20
56.29030625205842
  0
ARC
  5
37A
330
654
100
AcDbEntity
  8
GAIKEI
100
AcDbCircle
 10
29.27267463401239
 20
60.69574211468492
 30
0.0
 40
0.075
100
AcDbArc
 50
180.0
 51
270.0
  0
LINE
  5
37B
330
654
100
AcDbEntity
  8
GAIKEI
  6
HIDDEN2
 62
     1
100
AcDbLine
 10
37.62415828842569
 20
64.47599382227692
 30
0.0
 11
38.13191812895587
 21
64.47599382227692
 31
0.0
  0
CIRCLE
  5
37C
330
654
100
AcDbEntity
  8
GAIKEI
  6
HIDDEN2
 62
     1
100
AcDbCircle
 10
37.86267463401242
 20
64.10248182825291
 30
0.0
 40
0.1046381933662862
  0
LWPOLYLINE
  5
37D
330
654
100
AcDbEntity
  8
GAIKEI
  6
HIDDEN2
 62
     1
100
AcDbPolyline
 90
       39
 70
     0
 43
0.0
 10
37.60819761219551
 20
64.4039691681821
 10
37.60968494771175
 20
64.41679656416003
 10
37.61559538562833
 20
64.4506142444654
 10
37.62088822019044
 20
64.47320795329012
 10
37.6281015729971
 20
64.49842544765577
 10
37.63750702492976
 20
64.52539213238205
 10
37.64937615686992
 20
64.55323341228861
 10
37.66398054969907
 20
64.58107469219521
 10
37.68159178429868
 20
64.60804137692147
 10
37.70248144155022
 20
64.63325887128714
 10
37.71424054769594
 20
64.64493836109088
 10
37.72692110233521
 20
64.65585258011185
 10
37.74055705307819
 20
64.66589220395253
 10
37.7551823475351
 20
64.67494790821533
 10
37.77083093331609
 20
64.68291036850276
 10
37.78753675803138
 20
64.68967026041726
 10
37.80533376929113
 20
64.69511825956129
 10
37.82425591470553
 20
64.69914504153731
 10
37.84433714188478
 20
64.70164128194778
 10
37.86561139843865
 20
64.7024976563955
 10
37.88692044817395
 20
64.7016874338646
 10
37.90717190827673
 20
64.69932572138095
 10
37.92639077185665
 20
64.69551595160798
 10
37.94460203202346
 20
64.69036155720925
 10
37.96183068188681
 20
64.68396597084822
 10
37.97810171455643
 20
64.67643262518845
 10
37.99344012314197
 20
64.66786495289344
 10
38.00787090075317
 20
64.65836638662664
 10
38.02141904049972
 20
64.64804035905166
 10
38.0341095354913
 20
64.63699030283193
 10
38.05701756364833
 20
64.61313183511231
 10
38.07679493010184
 20
64.5876184447759
 10
38.0936415797294
 20
64.56127759313076
 10
38.10775745740853
 20
64.53493674148496
 10
38.11934250801682
 20
64.50942335114658
 10
38.12859667643183
 20
64.48556488342365
 10
38.13571990753113
 20
64.46418879962431
 10
38.14437333729277
 20
64.4321936290285
 10
38.14690235632225
 20
64.42005752982374
  0
CIRCLE
  5
37E
330
654
100
AcDbEntity
  8
GAIKEI
  6
HIDDEN2
 62
     1
100
AcDbCircle
 10
37.86267463401242
 20
61.15248182825289
 30
0.0
 40
0.1046381933662862
  0
LINE
  5
37F
330
654
100
AcDbEntity
  8
GAIKEI
 62
     1
100
AcDbLine
 10
57.72517413497985
 20
55.61279704475214
 30
0.0
 11
46.70528483848602
 21
55.56045644945254
 31
0.0
  0
LINE
  5
380
330
654
100
AcDbEntity
  8
GAIKEI
 62
     1
100
AcDbLine
 10
42.78649192499478
 20
55.15186313795589
 30
0.0
 11
50.65587141902478
 21
55.15186313795589
 31
0.0
  0
LINE
  5
381
330
654
100
AcDbEntity
  8
GAIKEI
 62
     1
100
AcDbLine
 10
42.78649192499478
 20
55.2524818282529
 30
0.0
 11
42.78649192499478
 21
55.15186313795589
 31
0.0
  0
LINE
  5
382
330
654
100
AcDbEntity
  8
GAIKEI
 62
     1
100
AcDbLine
 10
41.59652774796353
 20
55.56045644945328
 30
0.0
 11
41.59652774796353
 21
55.2524818282529
 31
0.0
  0
LINE
  5
383
330
654
100
AcDbEntity
  8
GAIKEI
100
AcDbLine
 10
40.70487857644793
 20
56.14398667927182
 30
0.0
 11
40.80309061119947
 21
57.7524818282529
 31
0.0
  0
LINE
  5
384
330
654
100
AcDbEntity
  8
GAIKEI
  6
HIDDEN2
 62
     1
100
AcDbLine
 10
54.55819761219544
 20
64.40396916818198
 30
0.0
 11
54.55819761219544
 21
59.74279204885865
 31
0.0
  0
LINE
  5
385
330
654
100
AcDbEntity
  8
GAIKEI
  6
HIDDEN2
 62
     1
100
AcDbLine
 10
55.09690235632279
 20
64.4200575298222
 30
0.0
 11
55.09690235632279
 21
59.74279204885865
 31
0.0
  0
LINE
  5
386
330
654
100
AcDbEntity
  8
GAIKEI
100
AcDbLine
 10
52.67281541718426
 20
56.33030902384845
 30
0.0
 11
54.9711275300767
 21
56.29030625211552
 31
0.0
  0
LINE
  5
387
330
654
100
AcDbEntity
  8
GAIKEI
 62
     1
100
AcDbLine
 10
51.77107578859301
 20
55.57118202388008
 30
0.0
 11
51.77107578859301
 21
55.27009982747042
 31
0.0
  0
LINE
  5
388
330
654
100
AcDbEntity
  8
GAIKEI
 62
     1
100
AcDbLine
 10
50.65587141902478
 20
55.15186313795589
 30
0.0
 11
50.65587141902478
 21
55.2524818282529
 31
0.0
  0
LINE
  5
389
330
654
100
AcDbEntity
  8
GAIKEI
100
AcDbLine
 10
52.58577254609593
 20
57.7524818282529
 30
0.0
 11
52.68437807502795
 21
56.14138950260681
 31
0.0
  0
LINE
  5
38A
330
654
100
AcDbEntity
  8
GAIKEI
100
AcDbLine
 10
57.72517413497713
 20
55.61279704475334
 30
0.0
 11
57.73730424891232
 21
55.25248182825361
 31
0.0
  0
LINE
  5
38B
330
654
100
AcDbEntity
  8
GAIKEI
 62
     1
100
AcDbLine
 10
57.17459464773622
 20
55.15186313795589
 30
0.0
 11
57.17459464773622
 21
55.2524818282529
 31
0.0
  0
LINE
  5
38C
330
654
100
AcDbEntity
  8
GAIKEI
 62
     1
100
AcDbLine
 10
55.44841559206957
 20
55.2524818282529
 30
0.0
 11
55.44841559206957
 21
55.15186313795589
 31
0.0
  0
LINE
  5
38D
330
654
100
AcDbEntity
  8
GAIKEI
 62
     1
100
AcDbLine
 10
55.44841559206957
 20
55.15186313795589
 30
0.0
 11
57.17459464773622
 21
55.15186313795589
 31
0.0
  0
LINE
  5
38E
330
654
100
AcDbEntity
  8
GAIKEI
100
AcDbLine
 10
57.66899255464932
 20
55.6892806052481
 30
0.0
 11
57.72517413498087
 21
55.61279704475164
 31
0.0
  0
LINE
  5
38F
330
654
100
AcDbEntity
  8
GAIKEI
100
AcDbLine
 10
57.66899255464824
 20
55.68928060524847
 30
0.0
 11
57.72517413497922
 21
55.61279704475243
 31
0.0
  0
LINE
  5
390
330
654
100
AcDbEntity
  8
GAIKEI
100
AcDbLine
 10
56.21267463401244
 20
58.10248382713209
 30
0.0
 11
56.21267463401244
 21
57.7524818282529
 31
0.0
  0
LINE
  5
391
330
654
100
AcDbEntity
  8
GAIKEI
  6
HIDDEN2
 62
     1
100
AcDbLine
 10
55.17989787272068
 20
59.74279204885865
 30
0.0
 11
55.23352574485483
 21
58.09954706270571
 31
0.0
  0
LINE
  5
392
330
654
100
AcDbEntity
  8
GAIKEI
  6
HIDDEN2
 62
     1
100
AcDbLine
 10
54.39669744365522
 20
58.1024818282529
 30
0.0
 11
54.45094186792737
 21
59.74279204885865
 31
0.0
  0
LINE
  5
393
330
654
100
AcDbEntity
  8
GAIKEI
  6
HIDDEN2
 62
     1
100
AcDbLine
 10
54.45094186792737
 20
59.74279204885865
 30
0.0
 11
55.17989787272068
 21
59.74279204885865
 31
0.0
  0
LWPOLYLINE
  5
394
330
654
100
AcDbEntity
  8
GAIKEI
100
AcDbPolyline
 90
        7
 70
     0
 43
0.0
 10
54.97112753007679
 20
56.29030625211544
 10
55.43106583818943
 20
56.21466042866371
 10
55.89815951696529
 20
56.12319035819671
 10
56.35130156963835
 20
56.02388210959252
 10
56.76938499944246
 20
55.92472175172929
 10
57.41594800337971
 20
55.75878898373819
 10
57.66899255464847
 20
55.68928060524839
  0
LWPOLYLINE
  5
395
330
654
100
AcDbEntity
  8
GAIKEI
100
AcDbPolyline
 90
        7
 70
     0
 43
0.0
 10
54.97112753007668
 20
56.2903062521155
 10
55.43106583818929
 20
56.21466042866377
 10
55.89815951696515
 20
56.12319035819678
 10
56.35130156963814
 20
56.02388210959261
 10
56.76938499944225
 20
55.9247217517294
 10
57.41594800337943
 20
55.75878898373833
 10
57.66899255464814
 20
55.68928060524856
  0
CIRCLE
  5
396
330
654
100
AcDbEntity
  8
GAIKEI
  6
HIDDEN2
 62
     1
100
AcDbCircle
 10
54.81267463401247
 20
64.10248182825291
 30
0.0
 40
0.1046381933662862
  0
LWPOLYLINE
  5
397
330
654
100
AcDbEntity
  8
GAIKEI
  6
HIDDEN2
 62
     1
100
AcDbPolyline
 90
       39
 70
     0
 43
0.0
 10
54.55819761219555
 20
64.4039691681821
 10
54.55968494771179
 20
64.41679656416003
 10
54.56559538562835
 20
64.4506142444654
 10
54.57088822019048
 20
64.47320795329012
 10
54.57810157299713
 20
64.49842544765577
 10
54.58750702492979
 20
64.52539213238205
 10
54.59937615686996
 20
64.55323341228861
 10
54.6139805496991
 20
64.58107469219521
 10
54.63159178429869
 20
64.60804137692147
 10
54.65248144155022
 20
64.63325887128714
 10
54.66424054769595
 20
64.64493836109088
 10
54.67692110233521
 20
64.65585258011185
 10
54.69055705307819
 20
64.66589220395253
 10
54.70518234753506
 20
64.67494790821533
 10
54.72083093331606
 20
64.68291036850276
 10
54.73753675803134
 20
64.68967026041726
 10
54.7553337692911
 20
64.69511825956129
 10
54.7742559147055
 20
64.69914504153731
 10
54.79433714188473
 20
64.70164128194778
 10
54.81561139843871
 20
64.7024976563955
 10
54.83692044817402
 20
64.7016874338646
 10
54.8571719082768
 20
64.69932572138095
 10
54.87639077185676
 20
64.69551595160798
 10
54.89460203202359
 20
64.69036155720925
 10
54.91183068188695
 20
64.68396597084822
 10
54.92810171455658
 20
64.67643262518845
 10
54.94344012314215
 20
64.66786495289344
 10
54.95787090075339
 20
64.65836638662664
 10
54.97141904049995
 20
64.64804035905166
 10
54.98410953549154
 20
64.63699030283193
 10
55.0070175636486
 20
64.61313183511231
 10
55.02679493010215
 20
64.5876184447759
 10
55.04364157972973
 20
64.56127759313076
 10
55.0577574574089
 20
64.53493674148496
 10
55.06934250801722
 20
64.50942335114658
 10
55.07859667643228
 20
64.48556488342365
 10
55.08571990753161
 20
64.46418879962431
 10
55.09437333729331
 20
64.4321936290285
 10
55.09690235632286
 20
64.42005752982374
  0
LINE
  5
398
330
654
100
AcDbEntity
  8
GAIKEI
  6
HIDDEN2
 62
     1
100
AcDbLine
 10
54.57415828842574
 20
64.47599382227692
 30
0.0
 11
55.09690235632279
 21
64.47599382227692
 31
0.0
  0
CIRCLE
  5
399
330
654
100
AcDbEntity
  8
GAIKEI
 62
     1
100
AcDbCircle
 10
54.81267463401247
 20
61.15248182825289
 30
0.0
 40
0.1046381933662862
  0
ARC
  5
39A
330
654
100
AcDbEntity
  8
GAIKEI
 62
     1
100
AcDbCircle
 10
66.14657107302054
 20
58.65250132058575
 30
0.0
 40
0.175
100
AcDbArc
 50
270.0
 51
0.0
  0
LWPOLYLINE
  5
39B
330
654
100
AcDbEntity
  8
GAIKEI
 62
     1
100
AcDbPolyline
 90
        3
 70
     0
 43
0.0
 10
65.21116076031905
 20
59.41864654680628
 10
65.33654230586041
 20
59.46966116314846
 10
65.38614637981533
 20
59.5950427086899
  0
LWPOLYLINE
  5
39C
330
654
100
AcDbEntity
  8
GAIKEI
 62
     1
100
AcDbPolyline
 90
        3
 70
     0
 43
0.0
 10
65.21116076031905
 20
59.41864654680628
 10
65.33654230586041
 20
59.46966116314846
 10
65.38614637981533
 20
59.5950427086899
  0
ARC
  5
39D
330
654
100
AcDbEntity
  8
GAIKEI
100
AcDbCircle
 10
66.61267696857084
 20
58.19352650043808
 30
0.0
 40
0.175
100
AcDbArc
 50
270.0
 51
0.0
  0
ARC
  5
39E
330
654
100
AcDbEntity
  8
GAIKEI
 62
     1
100
AcDbCircle
 10
66.42217538281382
 20
58.39288315784901
 30
0.0
 40
0.175
100
AcDbArc
 50
270.0
 51
0.0
  0
LINE
  5
39F
330
654
100
AcDbEntity
  8
GAIKEI
 62
     1
100
AcDbLine
 10
66.27376935878277
 20
58.52491121749361
 30
0.0
 11
66.7671457404885
 21
58.11773464834775
 31
0.0
  0
ARC
  5
3A0
330
654
100
AcDbEntity
  8
GAIKEI
100
AcDbCircle
 10
64.05267463401236
 20
60.69574211468492
 30
0.0
 40
0.075
100
AcDbArc
 50
270.0
 51
0.0
  0
LINE
  5
3A1
330
654
100
AcDbEntity
  8
GAIKEI
 62
     1
100
AcDbLine
 10
88.387171395667
 20
55.31398599260564
 30
0.0
 11
101.9930676660072
 21
55.31398599260564
 31
0.0
  0
LINE
  5
3A2
330
654
100
AcDbEntity
  8
GAIKEI
100
AcDbLine
 10
88.43654037922396
 20
55.2641468282529
 30
0.0
 11
101.9436986824502
 21
55.2641468282529
 31
0.0
  0
LINE
  5
3A3
330
654
100
AcDbEntity
  8
GAIKEI
100
AcDbLine
 10
95.57243544576149
 20
58.1021399007974
 30
0.0
 11
101.4423292272163
 21
58.1021399007974
 31
0.0
  0
LINE
  5
3A4
330
654
100
AcDbEntity
  8
GAIKEI
 62
     1
100
AcDbLine
 10
88.44719781059495
 20
55.62446204475264
 30
0.0
 11
101.9278692623255
 21
55.62446204475264
 31
0.0
  0
LINE
  5
3A5
330
654
100
AcDbEntity
  8
GAIKEI
100
AcDbLine
 10
98.6759421517762
 20
57.75248211566871
 30
0.0
 11
101.4423292272163
 21
57.75248211566871
 31
0.0
  0
ARC
  5
3A6
330
654
100
AcDbEntity
  8
GAIKEI
100
AcDbCircle
 10
96.74340976676308
 20
38.13311289763431
 30
0.0
 40
18.2435170744987
100
AcDbArc
 50
73.33108342478907
 51
85.73018404972883
  0
DIMENSION
  5
3A7
330
654
100
AcDbEntity
  8
SUNPO
100
AcDbDimension
  2
*D8
 10
101.9930676660072
 20
47.15680656918054
 30
0.0
 11
95.1901195308371
 21
48.90680656918054
 31
0.0
 70
    33
  1
271.5
 71
     5
 42
13.60589627034019
  3
STANDARD
100
AcDbAlignedDimension
 13
88.387171395667
 23
55.15680656918054
 33
0.0
 14
101.9930676660072
 24
55.15680656918054
 34
0.0
1001
ACAD
1000
DSTYLE
1002
{
1070
    40
1040
1.0
1070
   140
1040
2.5
1070
   147
1040
0.5
1070
   172
1070
     1
1070
   279
1070
     0
1070
   343
1005
668
1070
   344
1005
668
1002
}
  0
LINE
  5
3B4
330
654
100
AcDbEntity
  8
GAIKEI
 62
     1
100
AcDbLine
 10
90.47900575609423
 20
55.16352813795589
 30
0.0
 11
88.63777775981803
 21
55.16352813795589
 31
0.0
  0
ARC
  5
3B5
330
654
100
AcDbEntity
  8
GAIKEI
100
AcDbCircle
 10
92.48921089795068
 20
40.65909981179967
 30
0.0
 40
15.50161077313741
100
AcDbArc
 50
98.29421690667636
 51
105.1144469209677
  0
LINE
  5
3B6
330
654
100
AcDbEntity
  8
GAIKEI
 62
     7
100
AcDbLine
 10
88.39767210010609
 20
55.54876293663202
 30
0.0
 11
88.44719781059495
 21
55.62446204475264
 31
0.0
  0
LINE
  5
3B7
330
654
100
AcDbEntity
  8
GAIKEI
 62
     1
100
AcDbLine
 10
88.63777775981803
 20
55.16352813795589
 30
0.0
 11
88.63777775981803
 21
55.2641468282529
 31
0.0
  0
LINE
  5
3B8
330
654
100
AcDbEntity
  8
GAIKEI
100
AcDbLine
 10
88.39767210010609
 20
55.54876293663202
 30
0.0
 11
88.387171395667
 21
55.31398599260564
 31
0.0
  0
LINE
  5
3B9
330
654
100
AcDbEntity
  8
GAIKEI
100
AcDbLine
 10
88.43654037922396
 20
55.31398599260564
 30
0.0
 11
88.43654037922396
 21
55.2641468282529
 31
0.0
  0
LINE
  5
3BA
330
654
100
AcDbEntity
  8
GAIKEI
 62
     1
100
AcDbLine
 10
96.97587484060035
 20
59.5177569721105
 30
0.0
 11
96.97587484060035
 21
63.07265660121395
 31
0.0
  0
ARC
  5
3BB
330
654
100
AcDbEntity
  8
GAIKEI
100
AcDbCircle
 10
128.3416549002453
 20
-762.7873620472594
 30
0.0
 40
819.6713649208609
100
AcDbArc
 50
92.11428025958021
 51
92.6633905880946
  0
LINE
  5
3BC
330
654
100
AcDbEntity
  8
GAIKEI
100
AcDbLine
 10
95.42004188791157
 20
58.01881938440535
 30
0.0
 11
93.0886091018092
 21
58.18000603173765
 31
0.0
  0
LINE
  5
3BD
330
654
100
AcDbEntity
  8
GAIKEI
 62
     1
100
AcDbLine
 10
90.47900575609423
 20
55.2641468282529
 30
0.0
 11
90.47900575609423
 21
55.16352813795589
 31
0.0
  0
LINE
  5
3BE
330
654
100
AcDbEntity
  8
GAIKEI
100
AcDbLine
 10
92.88566565174015
 20
58.65405420940129
 30
0.0
 11
92.88566565174015
 21
58.45266010187535
 31
0.0
  0
LINE
  5
3BF
330
654
100
AcDbEntity
  8
GAIKEI
100
AcDbLine
 10
92.88566565174015
 20
58.47750132058573
 30
0.0
 11
92.88566565174015
 21
58.65405420940129
 31
0.0
  0
LINE
  5
3C0
330
654
100
AcDbEntity
  8
GAIKEI
100
AcDbLine
 10
93.0886091018092
 20
58.18000603173765
 30
0.0
 11
92.88566565174015
 21
58.45266010187535
 31
0.0
  0
LINE
  5
3C1
330
654
100
AcDbEntity
  8
GAIKEI
 62
     1
100
AcDbLine
 10
99.32557528461281
 20
55.2641468282529
 30
0.0
 11
99.32557528461281
 21
55.16352813795589
 31
0.0
  0
LINE
  5
3C2
330
654
100
AcDbEntity
  8
GAIKEI
 62
     1
100
AcDbLine
 10
97.57430854726258
 20
55.16352813795589
 30
0.0
 11
97.57430854726258
 21
55.2641468282529
 31
0.0
  0
LINE
  5
3C3
330
654
100
AcDbEntity
  8
GAIKEI
 62
     1
100
AcDbLine
 10
99.32557528461281
 20
55.16352813795589
 30
0.0
 11
97.57430854726258
 21
55.16352813795589
 31
0.0
  0
LINE
  5
3C4
330
654
100
AcDbEntity
  8
GAIKEI
100
AcDbLine
 10
94.7975774943152
 20
57.75248211566871
 30
0.0
 11
98.46577133606228
 21
57.75248211566871
 31
0.0
  0
LINE
  5
3C5
330
654
100
AcDbEntity
  8
GAIKEI
100
AcDbLine
 10
97.79656609060602
 20
59.56254968480937
 30
0.0
 11
95.47349047114995
 21
59.435757960395
 31
0.0
  0
LINE
  5
3C6
330
654
100
AcDbEntity
  8
GAIKEI
100
AcDbLine
 10
95.57243544576149
 20
57.75248211566871
 30
0.0
 11
95.57243544576149
 21
58.1021399007974
 31
0.0
  0
ARC
  5
3C7
330
654
100
AcDbEntity
  8
GAIKEI
100
AcDbCircle
 10
95.42349047115001
 20
58.06870031536747
 30
0.0
 40
0.05
100
AcDbArc
 50
266.0450748098675
 51
0.0
  0
LINE
  5
3C8
330
654
100
AcDbEntity
  8
GAIKEI
100
AcDbLine
 10
94.67203922184195
 20
56.18946263434882
 30
0.0
 11
94.76231393463171
 21
57.70295640517978
 31
0.0
  0
LWPOLYLINE
  5
3C9
330
654
100
AcDbEntity
  8
GAIKEI
100
AcDbPolyline
 90
        6
 70
     0
 43
0.0
 10
94.76231393463171
 20
57.70295640517981
 10
94.76231393463171
 20
57.72803271428811
 10
94.77265791213893
 20
57.72803271428811
 10
94.77265791213893
 20
57.73821996486333
 10
94.7975774943152
 20
57.73821996486333
 10
94.7975774943152
 20
57.75248211566871
  0
LINE
  5
3CA
330
654
100
AcDbEntity
  8
GAIKEI
 62
     1
100
AcDbLine
 10
97.11353136739774
 20
58.1021399007974
 30
0.0
 11
97.13870153478309
 21
59.52664393091771
 31
0.0
  0
LINE
  5
3CB
330
654
100
AcDbEntity
  8
GAIKEI
100
AcDbLine
 10
98.75007399057757
 20
58.42860210000093
 30
0.0
 11
98.6759421517762
 21
58.50273393880232
 31
0.0
  0
LINE
  5
3CC
330
654
100
AcDbEntity
  8
GAIKEI
100
AcDbLine
 10
98.04041444281303
 20
58.51323464324142
 30
0.0
 11
98.0651772980574
 21
58.50273393880232
 31
0.0
  0
LINE
  5
3CD
330
654
100
AcDbEntity
  8
GAIKEI
100
AcDbLine
 10
98.0651772980574
 20
58.50273393880232
 30
0.0
 11
98.3758100771363
 21
58.50273393880232
 31
0.0
  0
ARC
  5
3CE
330
654
100
AcDbEntity
  8
GAIKEI
100
AcDbCircle
 10
97.78566646300488
 20
59.76225245924718
 30
0.0
 40
0.2
100
AcDbArc
 50
273.1240610370882
 51
0.0
  0
LINE
  5
3CF
330
654
100
AcDbEntity
  8
GAIKEI
100
AcDbLine
 10
98.0404144428129
 20
58.51323464324142
 30
0.0
 11
98.0244282957565
 21
59.65404998073672
 31
0.0
  0
LINE
  5
3D0
330
654
100
AcDbEntity
  8
GAIKEI
100
AcDbLine
 10
98.0244282957565
 20
59.65404998073672
 30
0.0
 11
97.97664057555595
 21
59.70284801214649
 31
0.0
  0
LWPOLYLINE
  5
3D1
330
654
100
AcDbEntity
  8
GAIKEI
100
AcDbPolyline
 90
        3
 70
     0
 43
0.0
 10
98.3758100771363
 20
58.50273393880235
 10
98.67594215177609
 20
58.50273393880235
 10
98.75007399057757
 20
58.42860210000093
  0
LINE
  5
3D2
330
654
100
AcDbEntity
  8
GAIKEI
100
AcDbLine
 10
98.3758100771363
 20
58.50273393880232
 30
0.0
 11
98.6759421517762
 21
58.50273393880232
 31
0.0
  0
LINE
  5
3D3
330
654
100
AcDbEntity
  8
GAIKEI
 62
     1
100
AcDbLine
 10
97.73605074101112
 20
57.72583853724111
 30
0.0
 11
97.69375364780376
 21
56.30797302788895
 31
0.0
  0
LINE
  5
3D4
330
654
100
AcDbEntity
  8
GAIKEI
 62
     1
100
AcDbLine
 10
98.30893866989413
 20
56.30933457599716
 30
0.0
 11
98.25920523978277
 21
57.72583853724111
 31
0.0
  0
LINE
  5
3D5
330
654
100
AcDbEntity
  8
GAIKEI
100
AcDbLine
 10
98.6759421517762
 20
57.75248211566871
 30
0.0
 11
98.46577133606228
 21
57.75248211566871
 31
0.0
  0
LINE
  5
3D6
330
654
100
AcDbEntity
  8
GAIKEI
100
AcDbLine
 10
98.75007399057757
 20
58.42860210000093
 30
0.0
 11
98.75007399057757
 21
58.1021399007974
 31
0.0
  0
ARC
  5
3D7
330
654
100
AcDbEntity
  8
GAIKEI
 62
     1
100
AcDbCircle
 10
97.5609159339065
 20
62.78402917129821
 30
0.0
 40
0.25
100
AcDbArc
 50
290.3455621899796
 51
0.0
  0
LINE
  5
3D8
330
654
100
AcDbEntity
  8
GAIKEI
 62
     1
100
AcDbLine
 10
97.20418636436386
 20
62.3851137111522
 30
0.0
 11
97.75735493924141
 21
62.59023720432734
 31
0.0
  0
LWPOLYLINE
  5
3D9
330
654
100
AcDbEntity
  8
GAIKEI
 62
     1
100
AcDbPolyline
 90
        5
 70
     0
 43
0.0
 10
97.10125638614179
 20
63.80700064075703
 10
96.97587484060044
 20
63.79838065950105
 10
96.97587484060044
 20
64.69896266923429
 42
-0.4142135623730951
 10
97.57587484060037
 20
65.29896266923427
 10
97.73678409510514
 20
65.29896266923427
  0
LINE
  5
3DA
330
654
100
AcDbEntity
  8
GAIKEI
 62
     1
100
AcDbLine
 10
97.40123173384972
 20
63.62182777068549
 30
0.0
 11
97.36263016547571
 21
63.807000640757
 31
0.0
  0
LINE
  5
3DB
330
654
100
AcDbEntity
  8
GAIKEI
 62
     1
100
AcDbLine
 10
97.40123173384972
 20
63.62182777068549
 30
0.0
 11
97.38540231372521
 21
63.69776196920398
 31
0.0
  0
LINE
  5
3DC
330
654
100
AcDbEntity
  8
GAIKEI
 62
     1
100
AcDbLine
 10
97.40123173384972
 20
63.34818254754125
 30
0.0
 11
97.40123173384972
 21
63.43273672731576
 31
0.0
  0
LINE
  5
3DD
330
654
100
AcDbEntity
  8
GAIKEI
 62
     1
100
AcDbLine
 10
97.38540231372521
 20
63.17162965872569
 30
0.0
 11
97.40123173384972
 21
63.34818254754125
 31
0.0
  0
LINE
  5
3DE
330
654
100
AcDbEntity
  8
GAIKEI
 62
     1
100
AcDbLine
 10
97.35382320215901
 20
63.05690554455526
 30
0.0
 11
97.38540231372521
 21
63.17162965872569
 31
0.0
  0
LINE
  5
3DF
330
654
100
AcDbEntity
  8
GAIKEI
 62
     1
100
AcDbLine
 10
97.40123173384972
 20
63.43273672731576
 30
0.0
 11
97.40123173384972
 21
63.62182777068549
 31
0.0
  0
LINE
  5
3E0
330
654
100
AcDbEntity
  8
GAIKEI
 62
     1
100
AcDbLine
 10
97.10125638614179
 20
63.807000640757
 30
0.0
 11
97.15078209663069
 21
63.807000640757
 31
0.0
  0
ARC
  5
3E1
330
654
100
AcDbEntity
  8
GAIKEI
 62
     1
100
AcDbCircle
 10
97.32587484060037
 20
62.05694924819005
 30
0.0
 40
0.35
100
AcDbArc
 50
110.3455621899796
 51
180.0
  0
LINE
  5
3E2
330
654
100
AcDbEntity
  8
GAIKEI
 62
     1
100
AcDbLine
 10
96.97587484060035
 20
63.07265660121395
 30
0.0
 11
97.10125638614179
 21
63.05690554455529
 31
0.0
  0
LINE
  5
3E3
330
654
100
AcDbEntity
  8
GAIKEI
 62
     1
100
AcDbLine
 10
97.26002076818373
 20
63.05690554455529
 30
0.0
 11
97.28650761967935
 21
63.05690554455529
 31
0.0
  0
LINE
  5
3E4
330
654
100
AcDbEntity
  8
GAIKEI
 62
     1
100
AcDbLine
 10
97.26002076818373
 20
63.05690554455529
 30
0.0
 11
97.25140078692767
 21
63.05690554455529
 31
0.0
  0
LINE
  5
3E5
330
654
100
AcDbEntity
  8
GAIKEI
 62
     1
100
AcDbLine
 10
97.15078209663069
 20
63.05690554455529
 30
0.0
 11
97.10125638614179
 21
63.05690554455529
 31
0.0
  0
LINE
  5
3E6
330
654
100
AcDbEntity
  8
GAIKEI
 62
     1
100
AcDbLine
 10
97.25140078692767
 20
63.05690554455529
 30
0.0
 11
97.15078209663069
 21
63.05690554455529
 31
0.0
  0
LINE
  5
3E7
330
654
100
AcDbEntity
  8
GAIKEI
 62
     1
100
AcDbLine
 10
97.28650761967935
 20
63.05690554455526
 30
0.0
 11
97.35382320215901
 21
63.05690554455526
 31
0.0
  0
LINE
  5
3E8
330
654
100
AcDbEntity
  8
GAIKEI
 62
     1
100
AcDbLine
 10
97.15078209663069
 20
63.807000640757
 30
0.0
 11
97.36263016547571
 21
63.807000640757
 31
0.0
  0
LWPOLYLINE
  5
3E9
330
654
100
AcDbEntity
  8
GAIKEI
 62
     1
100
AcDbPolyline
 90
        3
 70
     0
 43
0.0
 10
97.81091593390648
 20
64.72338301173306
 10
97.80198249878665
 20
64.98292281100386
 10
97.80198249878665
 20
65.09944928489145
  0
LWPOLYLINE
  5
3EA
330
654
100
AcDbEntity
  8
GAIKEI
 62
     1
100
AcDbPolyline
 90
        3
 70
     0
 43
0.0
 10
97.80198249878665
 20
64.98292281100386
 10
97.80198249878665
 20
65.09944928489145
 10
97.73678409510514
 20
65.29896266923427
  0
ARC
  5
3EB
330
654
100
AcDbEntity
  8
GAIKEI
 62
     1
100
AcDbCircle
 10
97.63566646300491
 20
62.91840166728949
 30
0.0
 40
0.35
100
AcDbArc
 50
290.3455621899798
 51
0.0
  0
LINE
  5
3EC
330
654
100
AcDbEntity
  8
GAIKEI
 62
     1
100
AcDbLine
 10
97.81091593390648
 20
62.78402917129821
 30
0.0
 11
97.81091593390648
 21
64.72338301173306
 31
0.0
  0
LINE
  5
3ED
330
654
100
AcDbEntity
  8
GAIKEI
100
AcDbLine
 10
101.9763957318528
 20
55.61000544570189
 30
0.0
 11
101.9930676660072
 21
55.31398599260564
 31
0.0
  0
LINE
  5
3EE
330
654
100
AcDbEntity
  8
GAIKEI
 62
     1
100
AcDbLine
 10
101.7775681346078
 20
55.16352813795589
 30
0.0
 11
101.4935789339564
 21
55.16352813795589
 31
0.0
  0
LINE
  5
3EF
330
654
100
AcDbEntity
  8
GAIKEI
 62
     1
100
AcDbLine
 10
101.9436986824502
 20
55.2641468282529
 30
0.0
 11
101.9436986824502
 21
55.31398599260564
 31
0.0
  0
LINE
  5
3F0
330
654
100
AcDbEntity
  8
GAIKEI
 62
     1
100
AcDbLine
 10
101.7775681346078
 20
55.2641468282529
 30
0.0
 11
101.7775681346078
 21
55.16352813795589
 31
0.0
  0
LINE
  5
3F1
330
654
100
AcDbEntity
  8
GAIKEI
 62
     1
100
AcDbLine
 10
101.1421971525765
 20
55.16352813795589
 30
0.0
 11
101.1421971525765
 21
55.2641468282529
 31
0.0
  0
LINE
  5
3F2
330
654
100
AcDbEntity
  8
GAIKEI
 62
     1
100
AcDbLine
 10
101.4935789339564
 20
55.16352813795589
 30
0.0
 11
101.1421971525765
 21
55.16352813795589
 31
0.0
  0
LINE
  5
3F3
330
654
100
AcDbEntity
  8
GAIKEI
100
AcDbLine
 10
101.4423292272163
 20
58.1021399007974
 30
0.0
 11
101.4423292272163
 21
57.92723264476709
 31
0.0
  0
LINE
  5
3F4
330
654
100
AcDbEntity
  8
GAIKEI
100
AcDbLine
 10
101.4423292272163
 20
58.1021399007974
 30
0.0
 11
101.4423292272163
 21
57.75248211566871
 31
0.0
  0
LINE
  5
3F5
330
654
100
AcDbEntity
  8
GAIKEI
100
AcDbLine
 10
100.8773286376202
 20
57.70295640517978
 30
0.0
 11
100.9695177905722
 21
55.88039230092936
 31
0.0
  0
LWPOLYLINE
  5
3F6
330
654
100
AcDbEntity
  8
GAIKEI
100
AcDbPolyline
 90
        6
 70
     0
 43
0.0
 10
100.8281163809951
 20
57.75248211566871
 10
100.8281163809951
 20
57.73821996486333
 10
100.8527225093077
 20
57.73821996486333
 10
100.8666712062491
 20
57.72803271428811
 10
100.8666712062491
 20
57.71204656723156
 10
100.8773286376202
 20
57.70295640517981
  0
LINE
  5
3F7
330
654
100
AcDbEntity
  8
GAIKEI
100
AcDbLine
 10
66.60669358422802
 20
82.99852649123534
 30
0.0
 11
26.71267229945403
 21
82.99852649123534
 31
0.0
  0
LINE
  5
3F8
330
654
100
AcDbEntity
  8
GAIKEI
 62
     1
100
AcDbLine
 10
28.11418850770582
 20
81.59824971793526
 30
0.0
 11
65.2111607603191
 21
81.59824971793526
 31
0.0
  0
LINE
  5
3F9
330
654
100
AcDbEntity
  8
GAIKEI
 62
     1
100
AcDbLine
 10
28.11418850770582
 20
81.59824971793526
 30
0.0
 11
65.2111607603191
 21
81.59824971793526
 31
0.0
  0
LINE
  5
3FA
330
654
100
AcDbEntity
  8
GAIKEI
 62
     1
100
AcDbLine
 10
66.41799435818819
 20
82.80943544786572
 30
0.0
 11
26.90317388521106
 21
82.80943544786572
 31
0.0
  0
LINE
  5
3FB
330
654
100
AcDbEntity
  8
GAIKEI
 62
     1
100
AcDbLine
 10
66.14657107302054
 20
82.53406622847021
 30
0.0
 11
27.17877819500433
 21
82.53406622847021
 31
0.0
  0
LINE
  5
3FC
330
654
100
AcDbEntity
  8
GAIKEI
100
AcDbLine
 10
64.09106959987076
 20
80.39623251352258
 30
0.0
 11
29.27267463401239
 21
80.39623251352262
 31
0.0
  0
DIMENSION
  5
3FD
330
654
100
AcDbEntity
  8
SUNPO
100
AcDbDimension
  2
*D9
 10
66.82607193442919
 20
90.99852556301478
 30
0.0
 11
46.70106959987077
 21
92.74852556301478
 31
0.0
 70
    33
  1
805
 71
     5
 42
40.25000466911683
  3
STANDARD
100
AcDbAlignedDimension
 13
26.57606726531236
 23
82.99852556301475
 33
0.0
 14
66.82607193442919
 24
82.99852556301475
 34
0.0
1001
ACAD
1000
DSTYLE
1002
{
1070
    40
1040
1.0
1070
   140
1040
2.5
1070
   147
1040
0.5
1070
   172
1070
     1
1070
   279
1070
     0
1070
   343
1005
668
1070
   344
1005
668
1002
}
  0
LINE
  5
40A
330
654
100
AcDbEntity
  8
GAIKEI
 62
     1
100
AcDbLine
 10
26.58469431942359
 20
82.94288576664929
 30
0.0
 11
27.06250354976754
 21
82.48985310424549
 31
0.0
  0
ARC
  5
40B
330
654
100
AcDbEntity
  8
GAIKEI
 62
     1
100
AcDbCircle
 10
26.90317388521106
 20
82.63443544786568
 30
0.0
 40
0.175
100
AcDbArc
 50
90.0
 51
180.0
  0
ARC
  5
40C
330
654
100
AcDbEntity
  8
GAIKEI
 62
     1
100
AcDbCircle
 10
27.17877819500433
 20
82.35906622847027
 30
0.0
 40
0.175
100
AcDbArc
 50
90.0
 51
180.0
  0
ARC
  5
40D
330
654
100
AcDbEntity
  8
GAIKEI
100
AcDbCircle
 10
26.71267229945403
 20
82.82352649123536
 30
0.0
 40
0.175
100
AcDbArc
 50
90.0
 51
180.0
  0
LWPOLYLINE
  5
40E
330
654
100
AcDbEntity
  8
GAIKEI
 62
     1
100
AcDbPolyline
 90
        3
 70
     0
 43
0.0
 10
27.93920288820954
 20
81.42185355605162
 10
27.98880696216435
 20
81.54723510159305
 10
28.11418850770582
 20
81.59824971793529
  0
LWPOLYLINE
  5
40F
330
654
100
AcDbEntity
  8
GAIKEI
 62
     1
100
AcDbPolyline
 90
        3
 70
     0
 43
0.0
 10
27.93920288820954
 20
81.42185355605162
 10
27.98880696216435
 20
81.54723510159305
 10
28.11418850770582
 20
81.59824971793529
  0
ARC
  5
410
330
654
100
AcDbEntity
  8
GAIKEI
100
AcDbCircle
 10
29.27267463401239
 20
80.32123251352263
 30
0.0
 40
0.075
100
AcDbArc
 50
90.0
 51
180.0
  0
ARC
  5
411
330
654
100
AcDbEntity
  8
GAIKEI
 62
     1
100
AcDbCircle
 10
66.42217538281382
 20
82.63443544786568
 30
0.0
 40
0.175
100
AcDbArc
 50
0.0
 51
90.0
  0
LINE
  5
412
330
654
100
AcDbEntity
  8
GAIKEI
 62
     1
100
AcDbLine
 10
66.74065494860129
 20
82.94288576664929
 30
0.0
 11
66.26284571825732
 21
82.48985310424549
 31
0.0
  0
ARC
  5
413
330
654
100
AcDbEntity
  8
GAIKEI
 62
     1
100
AcDbCircle
 10
66.14657107302054
 20
82.35906622847027
 30
0.0
 40
0.175
100
AcDbArc
 50
0.0
 51
90.0
  0
ARC
  5
414
330
654
100
AcDbEntity
  8
GAIKEI
100
AcDbCircle
 10
66.61267696857084
 20
82.82352649123536
 30
0.0
 40
0.175
100
AcDbArc
 50
0.0
 51
90.0
  0
LWPOLYLINE
  5
415
330
654
100
AcDbEntity
  8
GAIKEI
 62
     1
100
AcDbPolyline
 90
        3
 70
     0
 43
0.0
 10
65.38614637981533
 20
81.42185355605162
 10
65.33654230586041
 20
81.54723510159305
 10
65.21116076031905
 20
81.59824971793529
  0
LWPOLYLINE
  5
416
330
654
100
AcDbEntity
  8
GAIKEI
 62
     1
100
AcDbPolyline
 90
        3
 70
     0
 43
0.0
 10
65.38614637981533
 20
81.42185355605162
 10
65.33654230586041
 20
81.54723510159305
 10
65.21116076031905
 20
81.59824971793529
  0
ARC
  5
417
330
654
100
AcDbEntity
  8
GAIKEI
100
AcDbCircle
 10
64.05267463401236
 20
80.32123251352263
 30
0.0
 40
0.075
100
AcDbArc
 50
0.0
 51
90.0
  0
DIMENSION
  5
418
330
654
100
AcDbEntity
  8
SUNPO
100
AcDbDimension
  2
*D10
 10
97.98566646300493
 20
90.99852556301478
 30
0.0
 11
103.8189997963382
 21
92.74852556301478
 31
0.0
 70
    33
  1
102
 71
     5
 42
5.100000811264763
  3
STANDARD
100
AcDbAlignedDimension
 13
92.88566565174015
 23
82.99852556301475
 33
0.0
 14
97.98566646300493
 24
82.99852556301475
 34
0.0
1001
ACAD
1000
DSTYLE
1002
{
1070
    40
1040
1.0
1070
   140
1040
2.5
1070
   147
1040
0.5
1070
   172
1070
     1
1070
   279
1070
     0
1070
   343
1005
668
1070
   344
1005
668
1002
}
  0
LINE
  5
426
330
654
100
AcDbEntity
  8
GAIKEI
 62
     1
100
AcDbLine
 10
97.03939952859641
 20
75.70759003582371
 30
0.0
 11
95.52839517789005
 21
75.38277346940538
 31
0.0
  0
LINE
  5
427
330
654
100
AcDbEntity
  8
GAIKEI
 62
     1
100
AcDbLine
 10
97.53538998757916
 20
76.03397345373764
 30
0.0
 11
97.53538998757916
 21
73.18223701620914
 31
0.0
  0
LINE
  5
428
330
654
100
AcDbEntity
  8
GAIKEI
 62
     1
100
AcDbLine
 10
97.80379593390636
 20
80.10627262721081
 30
0.0
 11
97.80379593390648
 21
73.75688827759663
 31
0.0
  0
LINE
  5
429
330
654
100
AcDbEntity
  8
GAIKEI
 62
     1
100
AcDbLine
 10
96.97587484060035
 20
75.28207599781876
 30
0.0
 11
96.97587484060035
 21
75.66856461195026
 31
0.0
  0
LINE
  5
42A
330
654
100
AcDbEntity
  8
GAIKEI
 62
     1
100
AcDbLine
 10
95.52839517789005
 20
75.38277346940538
 30
0.0
 11
95.47714547114992
 21
75.38277346940538
 31
0.0
  0
LINE
  5
42B
330
654
100
AcDbEntity
  8
GAIKEI
 62
     1
100
AcDbLine
 10
96.97587484060035
 20
74.63228613805019
 30
0.0
 11
96.97587484060035
 21
75.28207599781876
 31
0.0
  0
LWPOLYLINE
  5
42C
330
654
100
AcDbEntity
  8
GAIKEI
 62
     1
100
AcDbPolyline
 90
        5
 70
     0
 43
0.0
 10
97.09413638614185
 20
73.8851849998358
 10
96.96875484060036
 20
73.89380498109176
 10
96.96875484060036
 20
73.78130862009543
 42
0.4142135623730951
 10
97.56875484060039
 20
73.18130862009542
 10
97.72966409510514
 20
73.18130862009539
  0
LINE
  5
42D
330
654
100
AcDbEntity
  8
GAIKEI
 62
     1
100
AcDbLine
 10
97.37828231372507
 20
74.52055598186712
 30
0.0
 11
97.39411173384974
 21
74.34400309305157
 31
0.0
  0
LINE
  5
42E
330
654
100
AcDbEntity
  8
GAIKEI
 62
     1
100
AcDbLine
 10
97.39411173384974
 20
74.34400309305157
 30
0.0
 11
97.39411173384974
 21
74.25944891327704
 31
0.0
  0
LINE
  5
42F
330
654
100
AcDbEntity
  8
GAIKEI
 62
     1
100
AcDbLine
 10
97.34670320215901
 20
74.6352800960375
 30
0.0
 11
97.37828231372507
 21
74.52055598186712
 31
0.0
  0
LINE
  5
430
330
654
100
AcDbEntity
  8
GAIKEI
 62
     1
100
AcDbLine
 10
97.39411173384974
 20
74.07035786990732
 30
0.0
 11
97.37828231372507
 21
73.9944236713888
 31
0.0
  0
LINE
  5
431
330
654
100
AcDbEntity
  8
GAIKEI
 62
     1
100
AcDbLine
 10
97.39411173384974
 20
74.07035786990732
 30
0.0
 11
97.35551016547571
 21
73.88518499983582
 31
0.0
  0
LINE
  5
432
330
654
100
AcDbEntity
  8
GAIKEI
 62
     1
100
AcDbLine
 10
97.39411173384974
 20
74.25944891327704
 30
0.0
 11
97.39411173384974
 21
74.07035786990732
 31
0.0
  0
LINE
  5
433
330
654
100
AcDbEntity
  8
GAIKEI
 62
     1
100
AcDbLine
 10
97.24428078692767
 20
74.6352800960375
 30
0.0
 11
97.14366209663069
 21
74.6352800960375
 31
0.0
  0
LINE
  5
434
330
654
100
AcDbEntity
  8
GAIKEI
 62
     1
100
AcDbLine
 10
97.14366209663069
 20
74.6352800960375
 30
0.0
 11
97.09413638614185
 21
74.6352800960375
 31
0.0
  0
LINE
  5
435
330
654
100
AcDbEntity
  8
GAIKEI
 62
     1
100
AcDbLine
 10
97.25290076818373
 20
74.6352800960375
 30
0.0
 11
97.24428078692767
 21
74.6352800960375
 31
0.0
  0
LINE
  5
436
330
654
100
AcDbEntity
  8
GAIKEI
 62
     1
100
AcDbLine
 10
97.25290076818373
 20
74.6352800960375
 30
0.0
 11
97.27938761967935
 21
74.6352800960375
 31
0.0
  0
LINE
  5
437
330
654
100
AcDbEntity
  8
GAIKEI
 62
     1
100
AcDbLine
 10
96.96875484060036
 20
74.61952903937884
 30
0.0
 11
97.09413638614185
 21
74.6352800960375
 31
0.0
  0
LINE
  5
438
330
654
100
AcDbEntity
  8
GAIKEI
 62
     1
100
AcDbLine
 10
97.09413638614185
 20
73.8851849998358
 30
0.0
 11
97.14366209663069
 21
73.8851849998358
 31
0.0
  0
LINE
  5
439
330
654
100
AcDbEntity
  8
GAIKEI
 62
     1
100
AcDbLine
 10
97.27938761967935
 20
74.6352800960375
 30
0.0
 11
97.34670320215901
 21
74.6352800960375
 31
0.0
  0
LINE
  5
43A
330
654
100
AcDbEntity
  8
GAIKEI
 62
     1
100
AcDbLine
 10
97.14366209663069
 20
73.8851849998358
 30
0.0
 11
97.35551016547571
 21
73.88518499983582
 31
0.0
  0
LWPOLYLINE
  5
43B
330
654
100
AcDbEntity
  8
GAIKEI
 62
     1
100
AcDbPolyline
 90
        3
 70
     0
 43
0.0
 10
97.79486249878665
 20
73.49734847832582
 10
97.79486249878665
 20
73.38082200443825
 10
97.72966409510514
 20
73.18130862009539
  0
LWPOLYLINE
  5
43C
330
654
100
AcDbEntity
  8
GAIKEI
 62
     1
100
AcDbPolyline
 90
        3
 70
     0
 43
0.0
 10
97.80379593390648
 20
73.75688827759663
 10
97.79486249878665
 20
73.49734847832582
 10
97.79486249878665
 20
73.38082200443825
  0
LINE
  5
43D
330
654
100
AcDbEntity
  8
GAIKEI
 62
     1
100
AcDbLine
 10
96.97587484060035
 20
75.13185323356693
 30
0.0
 11
96.97587484060035
 21
75.53260399850376
 31
0.0
  0
LINE
  5
43E
330
654
100
AcDbEntity
  8
GAIKEI
100
AcDbLine
 10
93.1268499543918
 20
82.8395341484671
 30
0.0
 11
95.42427821452498
 21
82.99852649123534
 31
0.0
  0
ARC
  5
43F
330
654
100
AcDbEntity
  8
GAIKEI
100
AcDbCircle
 10
93.13375389040277
 20
82.73977275479422
 30
0.0
 40
0.1
100
AcDbArc
 50
93.95881311527011
 51
145.1199230937676
  0
LINE
  5
440
330
654
100
AcDbEntity
  8
GAIKEI
100
AcDbLine
 10
92.90363057425008
 20
82.58452192523051
 30
0.0
 11
93.05171881291277
 21
82.79695882006544
 31
0.0
  0
LINE
  5
441
330
654
100
AcDbEntity
  8
GAIKEI
100
AcDbLine
 10
92.88566565174015
 20
82.52733585995926
 30
0.0
 11
92.88566565174015
 21
82.36284205534021
 31
0.0
  0
ARC
  5
442
330
654
100
AcDbEntity
  8
GAIKEI
100
AcDbCircle
 10
92.98566565174008
 20
82.52733585995926
 30
0.0
 40
0.1
100
AcDbArc
 50
145.1199230937656
 51
180.0
  0
LINE
  5
443
330
654
100
AcDbEntity
  8
GAIKEI
100
AcDbLine
 10
92.88566565174015
 20
82.36284205534021
 30
0.0
 11
92.88566565174015
 21
82.53406622847021
 31
0.0
  0
ARC
  5
444
330
654
100
AcDbEntity
  8
GAIKEI
 62
     1
100
AcDbCircle
 10
95.99947838084244
 20
81.03080905919266
 30
0.0
 40
0.15
100
AcDbArc
 50
88.02358318460326
 51
180.0
  0
LINE
  5
445
330
654
100
AcDbEntity
  8
GAIKEI
 62
     1
100
AcDbLine
 10
95.97485992638384
 20
81.18174789633973
 30
0.0
 11
95.70300130620251
 21
81.18174789633973
 31
0.0
  0
LINE
  5
446
330
654
100
AcDbEntity
  8
GAIKEI
 62
     1
100
AcDbLine
 10
95.97485992638384
 20
81.18174789633973
 30
0.0
 11
95.80010939728536
 21
81.18174789633973
 31
0.0
  0
LINE
  5
447
330
654
100
AcDbEntity
  8
GAIKEI
 62
     1
100
AcDbLine
 10
95.62349047115004
 20
81.43251098742263
 30
0.0
 11
96.7357691808885
 21
81.4077481321782
 31
0.0
  0
LINE
  5
448
330
654
100
AcDbEntity
  8
GAIKEI
 62
     1
100
AcDbLine
 10
97.03939952859641
 20
81.55820640465156
 30
0.0
 11
95.52839517789005
 21
81.88811659635751
 31
0.0
  0
LINE
  5
449
330
654
100
AcDbEntity
  8
GAIKEI
100
AcDbLine
 10
95.65905515855126
 20
81.92337973821745
 30
0.0
 11
97.10125638614179
 21
81.61251186874062
 31
0.0
  0
LWPOLYLINE
  5
44A
330
654
100
AcDbEntity
  8
GAIKEI
 62
     1
100
AcDbPolyline
 90
        3
 70
     0
 43
0.0
 10
95.98917235775479
 20
75.80820872612069
 10
95.81269783240532
 20
75.80820872612069
 10
95.70314570698837
 20
75.79230094253013
  0
LINE
  5
44B
330
654
100
AcDbEntity
  8
GAIKEI
 62
     1
100
AcDbLine
 10
96.65232156517449
 20
76.08164615223256
 30
0.0
 11
95.7576440787343
 21
76.06087163366249
 31
0.0
  0
LWPOLYLINE
  5
44C
330
654
100
AcDbEntity
  8
GAIKEI
 62
     1
100
AcDbPolyline
 90
        5
 70
     0
 43
0.0
 10
96.73942418088849
 20
75.83289321789917
 10
96.48881781673754
 20
75.83289321789917
 10
96.23805472565461
 20
75.8169854343086
 10
95.98917235775479
 20
75.80820872612069
 10
95.81269783240532
 20
75.80820872612069
  0
LWPOLYLINE
  5
44D
330
654
100
AcDbEntity
  8
GAIKEI
100
AcDbPolyline
 90
        7
 70
     0
 43
0.0
 10
95.47349047115005
 20
82.94892241728053
 10
95.47349047115005
 20
82.97360690905899
 10
95.45938504727656
 20
82.97360690905899
 10
95.45938504727656
 20
82.98951469264958
 10
95.44888434283745
 20
82.98951469264958
 10
95.44888434283745
 20
82.99852649123536
 10
95.42427821452498
 20
82.99852649123536
  0
LINE
  5
44E
330
654
100
AcDbEntity
  8
GAIKEI
100
AcDbLine
 10
95.47349047114995
 20
82.1578432283799
 30
0.0
 11
95.59887201669141
 21
82.1578432283799
 31
0.0
  0
LINE
  5
44F
330
654
100
AcDbEntity
  8
GAIKEI
100
AcDbLine
 10
95.62347814500391
 20
82.18276281055635
 30
0.0
 11
95.62347814500391
 21
82.23730378286683
 31
0.0
  0
LINE
  5
450
330
654
100
AcDbEntity
  8
GAIKEI
100
AcDbLine
 10
95.62347814500391
 20
82.27280243294824
 30
0.0
 11
95.62347814500391
 21
82.23730378286683
 31
0.0
  0
LINE
  5
451
330
654
100
AcDbEntity
  8
GAIKEI
100
AcDbLine
 10
95.62347814500391
 20
82.27280243294824
 30
0.0
 11
95.62347814500391
 21
82.38932890683585
 31
0.0
  0
LINE
  5
452
330
654
100
AcDbEntity
  8
GAIKEI
100
AcDbLine
 10
95.59887201669141
 20
82.1578432283799
 30
0.0
 11
95.62347814500391
 21
82.18276281055635
 31
0.0
  0
LINE
  5
453
330
654
100
AcDbEntity
  8
GAIKEI
100
AcDbLine
 10
95.62347814500391
 20
82.38932890683585
 30
0.0
 11
95.62347814500391
 21
82.40891977332671
 31
0.0
  0
LINE
  5
454
330
654
100
AcDbEntity
  8
GAIKEI
100
AcDbLine
 10
95.62347814500391
 20
82.44935532176382
 30
0.0
 11
95.62347814500391
 21
82.40891977332671
 31
0.0
  0
LWPOLYLINE
  5
455
330
654
100
AcDbEntity
  8
GAIKEI
100
AcDbPolyline
 90
        4
 70
     0
 43
0.0
 10
95.62347814500391
 20
82.44935532176382
 10
95.62347814500391
 20
82.55875072024874
 10
95.59887201669152
 20
82.58876392771275
 10
95.47349047115005
 20
82.58876392771275
  0
ARC
  5
456
330
654
100
AcDbEntity
  8
GAIKEI
 62
     1
100
AcDbCircle
 10
95.62349047115004
 20
81.28251098742262
 30
0.0
 40
0.15
100
AcDbArc
 50
90.0
 51
180.0
  0
ARC
  5
457
330
654
100
AcDbEntity
  8
GAIKEI
 62
     1
100
AcDbCircle
 10
95.70300130620251
 20
81.03174789633973
 30
0.0
 40
0.15
100
AcDbArc
 50
90.0
 51
180.0
  0
LINE
  5
458
330
654
100
AcDbEntity
  8
GAIKEI
 62
     1
100
AcDbLine
 10
95.52839517789005
 20
81.88811659635751
 30
0.0
 11
95.47714547114992
 21
81.88811659635751
 31
0.0
  0
LINE
  5
459
330
654
100
AcDbEntity
  8
GAIKEI
100
AcDbLine
 10
95.57426588837893
 20
81.93380207919055
 30
0.0
 11
95.65905515855126
 21
81.92337973821745
 31
0.0
  0
LWPOLYLINE
  5
45A
330
654
100
AcDbEntity
  8
GAIKEI
100
AcDbPolyline
 90
        4
 70
     0
 43
0.0
 10
95.47349047115005
 20
81.98857814189896
 10
95.48414790252104
 20
81.97267035830845
 10
95.53351688607792
 20
81.94798586652995
 10
95.57426588837893
 20
81.93380207919055
  0
ARC
  5
45B
330
654
100
AcDbEntity
  8
GAIKEI
 62
     1
100
AcDbCircle
 10
95.75300130620258
 20
76.26081773805869
 30
0.0
 40
0.2
100
AcDbArc
 50
180.0
 51
271.3301758430658
  0
LINE
  5
45C
330
654
100
AcDbEntity
  8
GAIKEI
 62
     1
100
AcDbLine
 10
95.55300130620251
 20
75.8576560731436
 30
0.0
 11
95.47714547114992
 21
75.95811803650867
 31
0.0
  0
LWPOLYLINE
  5
45D
330
654
100
AcDbEntity
  8
GAIKEI
 62
     1
100
AcDbPolyline
 90
        3
 70
     0
 43
0.0
 10
95.67853957867589
 20
75.79230094253013
 10
95.55300130620251
 20
75.8576560731436
 10
95.47714547114992
 20
75.95811803650867
  0
LWPOLYLINE
  5
45E
330
654
100
AcDbEntity
  8
GAIKEI
 62
     1
100
AcDbPolyline
 90
        3
 70
     0
 43
0.0
 10
95.81269783240532
 20
75.80820872612069
 10
95.70314570698837
 20
75.79230094253013
 10
95.67853957867589
 20
75.79230094253013
  0
LINE
  5
45F
330
654
100
AcDbEntity
  8
GAIKEI
 62
     1
100
AcDbLine
 10
95.55300130620251
 20
81.03174789633973
 30
0.0
 11
95.55300130620251
 21
76.26081773805869
 31
0.0
  0
LINE
  5
460
330
654
100
AcDbEntity
  8
GAIKEI
100
AcDbLine
 10
97.75088951897853
 20
80.46150928067008
 30
0.0
 11
97.685534388365
 21
80.90637867694434
 31
0.0
  0
LINE
  5
461
330
654
100
AcDbEntity
  8
GAIKEI
100
AcDbLine
 10
97.685534388365
 20
80.90637867694434
 30
0.0
 11
97.67675768017703
 21
81.0477463695423
 31
0.0
  0
LWPOLYLINE
  5
462
330
654
100
AcDbEntity
  8
GAIKEI
100
AcDbPolyline
 90
        7
 70
     0
 43
0.0
 10
97.67675768017717
 20
81.0477463695423
 10
97.66092826005252
 20
81.09703698963331
 10
97.62535124650517
 20
81.17312791508377
 10
97.60090184512456
 20
81.24725975388518
 10
97.55121940770369
 20
81.30728616881315
 10
97.51078385926668
 20
81.37248457249471
 10
97.45075744433872
 20
81.42185355605162
  0
LINE
  5
463
330
654
100
AcDbEntity
  8
GAIKEI
 62
     1
100
AcDbLine
 10
97.40123173384972
 20
79.01037461795969
 30
0.0
 11
97.41032189590145
 21
78.83562408886131
 31
0.0
  0
LINE
  5
464
330
654
100
AcDbEntity
  8
GAIKEI
 62
     1
100
AcDbLine
 10
97.629006246505
 20
78.86054408886133
 30
0.0
 11
97.61505754956363
 21
79.05472875751863
 31
0.0
  0
LINE
  5
465
330
654
100
AcDbEntity
  8
GAIKEI
 62
     1
100
AcDbLine
 10
97.41032189590145
 20
78.60962385302286
 30
0.0
 11
97.41032189590145
 21
78.38558270383348
 31
0.0
  0
LINE
  5
466
330
654
100
AcDbEntity
  8
GAIKEI
 62
     1
100
AcDbLine
 10
97.41032189590145
 20
78.83562408886131
 30
0.0
 11
97.41032189590145
 21
78.60962385302286
 31
0.0
  0
LINE
  5
467
330
654
100
AcDbEntity
  8
GAIKEI
 62
     1
100
AcDbLine
 10
97.61505754956363
 20
78.19500317243413
 30
0.0
 11
97.629006246505
 21
78.41050270383348
 31
0.0
  0
LINE
  5
468
330
654
100
AcDbEntity
  8
GAIKEI
 62
     1
100
AcDbLine
 10
97.629006246505
 20
78.86054408886133
 30
0.0
 11
97.629006246505
 21
78.41050270383348
 31
0.0
  0
LINE
  5
469
330
654
100
AcDbEntity
  8
GAIKEI
 62
     1
100
AcDbLine
 10
96.8434273251638
 20
81.02651421152748
 30
0.0
 11
96.97587484060035
 21
80.02196860008131
 31
0.0
  0
LINE
  5
46A
330
654
100
AcDbEntity
  8
GAIKEI
 62
     1
100
AcDbLine
 10
96.37561069132074
 20
81.05668022248579
 30
0.0
 11
96.85065002199088
 21
80.95778552843995
 31
0.0
  0
LWPOLYLINE
  5
46B
330
654
100
AcDbEntity
  8
GAIKEI
 62
     1
100
AcDbPolyline
 90
        3
 70
     0
 43
0.0
 10
96.97587484060035
 20
80.02196860008131
 10
96.98480827572019
 20
79.98662667693181
 10
96.97587484060035
 20
79.98662667693181
  0
ARC
  5
46C
330
654
100
AcDbEntity
  8
GAIKEI
 62
     1
100
AcDbCircle
 10
96.69471436468484
 20
81.00690667762933
 30
0.0
 40
0.15
100
AcDbArc
 50
7.511020752511543
 51
90.0
  0
LINE
  5
46D
330
654
100
AcDbEntity
  8
GAIKEI
 62
     1
100
AcDbLine
 10
96.91067643691885
 20
81.34772171725023
 30
0.0
 11
97.08527023908528
 21
81.14805160597546
 31
0.0
  0
LINE
  5
46E
330
654
100
AcDbEntity
  8
GAIKEI
 62
     1
100
AcDbLine
 10
96.7357691808885
 20
81.4077481321782
 30
0.0
 11
96.91067643691885
 21
81.34772171725023
 31
0.0
  0
LWPOLYLINE
  5
46F
330
654
100
AcDbEntity
  8
GAIKEI
 62
     1
100
AcDbPolyline
 90
        8
 70
     0
 43
0.0
 10
97.31492547492372
 20
81.26316795529934
 10
97.31492547492372
 20
81.2879308105438
 10
97.29016261967935
 20
81.34795722547176
 10
97.25505578692764
 20
81.41339071955121
 10
97.21430678462672
 20
81.45743098742263
 10
97.16493780106977
 20
81.51212868666508
 10
97.1049113861418
 20
81.54739224634864
 10
97.03939952859641
 20
81.55820640465156
  0
LINE
  5
470
330
654
100
AcDbEntity
  8
GAIKEI
 62
     1
100
AcDbLine
 10
97.08527023908528
 20
81.14805160597546
 30
0.0
 11
97.10987636739776
 21
81.0582470739814
 31
0.0
  0
LINE
  5
471
330
654
100
AcDbEntity
  8
GAIKEI
 62
     1
100
AcDbLine
 10
96.69471436468484
 20
81.15690667762935
 30
0.0
 11
95.97485992638384
 21
81.18174789633973
 31
0.0
  0
LINE
  5
472
330
654
100
AcDbEntity
  8
GAIKEI
 62
     1
100
AcDbLine
 10
97.10987636739776
 20
78.96978234259066
 30
0.0
 11
97.12601924138631
 21
78.83562408886131
 31
0.0
  0
LWPOLYLINE
  5
473
330
654
100
AcDbEntity
  8
GAIKEI
 62
     1
100
AcDbPolyline
 90
        4
 70
     0
 43
0.0
 10
96.92478186079222
 20
76.81800034852514
 10
96.70050562120504
 20
76.93452682241275
 10
96.47450538536645
 20
77.04400058436359
 10
96.37561069132074
 20
77.10927735151114
  0
LINE
  5
474
330
654
100
AcDbEntity
  8
GAIKEI
 62
     1
100
AcDbLine
 10
97.12601924138631
 20
78.38558270383348
 30
0.0
 11
97.10987636739776
 21
78.24421501123551
 31
0.0
  0
LINE
  5
475
330
654
100
AcDbEntity
  8
GAIKEI
 62
     1
100
AcDbLine
 10
97.12601924138631
 20
78.38558270383348
 30
0.0
 11
97.12601924138631
 21
78.83562408886131
 31
0.0
  0
LINE
  5
476
330
654
100
AcDbEntity
  8
GAIKEI
 62
     1
100
AcDbLine
 10
96.05964919655628
 20
76.89156085219076
 30
0.0
 11
96.05964919655628
 21
81.1788219314605
 31
0.0
  0
LINE
  5
477
330
654
100
AcDbEntity
  8
GAIKEI
 62
     1
100
AcDbLine
 10
96.37561069132074
 20
77.10927735151114
 30
0.0
 11
96.37561069132074
 21
81.05668022248579
 31
0.0
  0
LINE
  5
478
330
654
100
AcDbEntity
  8
GAIKEI
 62
     1
100
AcDbLine
 10
96.97587484060035
 20
79.98662667693181
 30
0.0
 11
97.10987636739776
 21
78.96978234259066
 31
0.0
  0
LWPOLYLINE
  5
479
330
654
100
AcDbEntity
  8
GAIKEI
 62
     1
100
AcDbPolyline
 90
       10
 70
     0
 43
0.0
 10
97.10987636739776
 20
81.0582470739814
 10
97.15078209663069
 20
80.8074839828985
 10
97.18588892938235
 20
80.55687761874755
 10
97.21065178462678
 20
80.32202231125522
 10
97.25140078692767
 20
80.07133758363826
 10
97.28650761967935
 20
79.82065285602132
 10
97.32537589879713
 20
79.57177048812157
 10
97.3501387540416
 20
79.32124248743654
 10
97.38540231372507
 20
79.0704010328877
 10
97.40123173384972
 20
79.01037461795969
  0
LINE
  5
47A
330
654
100
AcDbEntity
  8
GAIKEI
 62
     1
100
AcDbLine
 10
97.61505754956363
 20
79.05472875751863
 30
0.0
 11
97.31492547492372
 21
81.26316795529934
 31
0.0
  0
LWPOLYLINE
  5
47B
330
654
100
AcDbEntity
  8
GAIKEI
100
AcDbPolyline
 90
        6
 70
     0
 43
0.0
 10
97.51078385926668
 20
81.37248457249471
 10
97.45075744433872
 20
81.42185355605162
 10
97.36063945848073
 20
81.49778775457017
 10
97.27600691524028
 20
81.54723510159309
 10
97.16128280106978
 20
81.59824971793526
 10
97.10125638614179
 20
81.61251186874059
  0
LINE
  5
47C
330
654
100
AcDbEntity
  8
GAIKEI
 62
     1
100
AcDbLine
 10
97.39794492865632
 20
76.60248493244805
 30
0.0
 11
97.47536357265119
 21
76.33402716491153
 31
0.0
  0
LINE
  5
47D
330
654
100
AcDbEntity
  8
GAIKEI
 62
     1
100
AcDbLine
 10
97.52746825574277
 20
76.06410432661516
 30
0.0
 11
97.53538998757916
 21
76.03397345373764
 31
0.0
  0
ARC
  5
47E
330
654
100
AcDbEntity
  8
GAIKEI
 62
     1
100
AcDbCircle
 10
97.62418158840469
 20
76.08953130609426
 30
0.0
 40
0.0999999999999954
100
AcDbArc
 50
190.8786576561353
 51
194.7303213807974
  0
LINE
  5
47F
330
654
100
AcDbEntity
  8
GAIKEI
 62
     1
100
AcDbLine
 10
97.47536357265119
 20
76.33402716491153
 30
0.0
 11
97.5259786802526
 21
76.07065834049594
 31
0.0
  0
ARC
  5
480
330
654
100
AcDbEntity
  8
GAIKEI
 62
     1
100
AcDbCircle
 10
96.64767879264276
 20
76.28159225662876
 30
0.0
 40
0.2
100
AcDbArc
 50
271.3301758430658
 51
352.4408916027083
  0
LINE
  5
481
330
654
100
AcDbEntity
  8
GAIKEI
 62
     1
100
AcDbLine
 10
96.8585698071886
 20
76.30324127223187
 30
0.0
 11
96.1575209456523
 21
76.71960207699365
 31
0.0
  0
LWPOLYLINE
  5
482
330
654
100
AcDbEntity
  8
GAIKEI
 62
     1
100
AcDbPolyline
 90
        8
 70
     0
 43
0.0
 10
97.03939952859641
 20
75.70759003582371
 10
97.1049113861418
 20
75.71816910372873
 10
97.16493780106977
 20
75.75695901938063
 10
97.21430678462672
 20
75.79230094253013
 10
97.25505578692764
 20
75.8576560731436
 10
97.29016261967935
 20
75.90702505670055
 10
97.31492547492372
 20
75.98311598215101
 10
97.31492547492372
 20
75.99353832312414
  0
ARC
  5
483
330
654
100
AcDbEntity
  8
GAIKEI
 62
     1
100
AcDbCircle
 10
96.04947838084241
 20
76.50171093638121
 30
0.0
 40
0.2000000000000053
100
AcDbArc
 50
180.0
 51
225.0438376192312
  0
LINE
  5
484
330
654
100
AcDbEntity
  8
GAIKEI
 62
     1
100
AcDbLine
 10
95.92549094282686
 20
76.34288223656541
 30
0.0
 11
95.90816526899404
 21
76.36018141854226
 31
0.0
  0
LINE
  5
485
330
654
100
AcDbEntity
  8
GAIKEI
 62
     1
100
AcDbLine
 10
96.28380845626178
 20
76.07308923363288
 30
0.0
 11
95.92549094282686
 21
76.34288223656541
 31
0.0
  0
LINE
  5
486
330
654
100
AcDbEntity
  8
GAIKEI
 62
     1
100
AcDbLine
 10
95.84947838084236
 20
76.50171093638121
 30
0.0
 11
95.84947838084236
 21
81.03080905919266
 31
0.0
  0
LINE
  5
487
330
654
100
AcDbEntity
  8
GAIKEI
 62
     1
100
AcDbLine
 10
96.84594072829781
 20
76.25528247004099
 30
0.0
 11
97.10987636739776
 21
78.24421501123551
 31
0.0
  0
LINE
  5
488
330
654
100
AcDbEntity
  8
GAIKEI
 62
     1
100
AcDbLine
 10
97.61505754956363
 20
78.19500317243413
 30
0.0
 11
97.31492547492372
 21
75.99353832312414
 31
0.0
  0
LWPOLYLINE
  5
489
330
654
100
AcDbEntity
  8
GAIKEI
 62
     1
100
AcDbPolyline
 90
       14
 70
     0
 43
0.0
 10
97.41397689590144
 20
78.41050270383348
 10
97.40488673384973
 20
78.23559544780315
 10
97.36429445848068
 20
77.98491072018624
 10
97.32903089879709
 20
77.73438271950119
 10
97.30426804355273
 20
77.48354126495235
 10
97.2636757681837
 20
77.24343560524049
 10
97.23013620475137
 20
76.99455323734071
 10
97.18954392938236
 20
76.74386850972377
 10
97.16493780106977
 20
76.49318378210683
 10
97.12967424138629
 20
76.24249905448988
 10
97.11353136739784
 20
76.18262936649384
 10
97.03939952859641
 20
75.99353832312414
 10
96.82954216674648
 20
75.84347228580424
 10
96.73942418088849
 20
75.83289321789917
  0
ARC
  5
48A
330
654
100
AcDbEntity
  8
GAIKEI
 62
     1
100
AcDbCircle
 10
96.25964919655622
 20
76.89156085219076
 30
0.0
 40
0.1999999999999956
100
AcDbArc
 50
180.0
 51
239.2934471721152
  0
LINE
  5
48B
330
654
100
AcDbEntity
  8
GAIKEI
100
AcDbLine
 10
97.98566646300493
 20
78.42954460823898
 30
0.0
 11
97.98566646300493
 21
78.87088764854488
 31
0.0
  0
LINE
  5
48C
330
654
100
AcDbEntity
  8
GAIKEI
100
AcDbLine
 10
97.98566646300493
 20
78.87088764854488
 30
0.0
 11
97.97673302788496
 21
78.9450978508122
 31
0.0
  0
LINE
  5
48D
330
654
100
AcDbEntity
  8
GAIKEI
100
AcDbLine
 10
97.97673302788496
 20
78.9450978508122
 30
0.0
 11
97.75088951897853
 21
80.46150928067008
 31
0.0
  0
LINE
  5
48E
330
654
100
AcDbEntity
  8
WAKU
 62
     4
100
AcDbLine
 10
0.0
 20
35.0
 30
0.0
 11
125.0
 21
35.0
 31
0.0
  0
LINE
  5
490
330
654
100
AcDbEntity
  8
WAKU
 62
     1
100
AcDbLine
 10
0.0
 20
5.0
 30
0.0
 11
125.0
 21
5.0
 31
0.0
  0
LINE
  5
491
330
654
100
AcDbEntity
  8
WAKU
 62
     1
100
AcDbLine
 10
0.0
 20
25.0
 30
0.0
 11
125.0
 21
25.0
 31
0.0
  0
LINE
  5
492
330
654
100
AcDbEntity
  8
WAKU
 62
     1
100
AcDbLine
 10
0.0
 20
10.0
 30
0.0
 11
125.0
 21
10.0
 31
0.0
  0
LINE
  5
493
330
654
100
AcDbEntity
  8
WAKU
 62
     4
100
AcDbLine
 10
125.0
 20
0.0
 30
0.0
 11
0.0
 21
0.0
 31
0.0
  0
LINE
  5
494
330
654
100
AcDbEntity
  8
WAKU
 62
     1
100
AcDbLine
 10
0.0
 20
20.0
 30
0.0
 11
125.0
 21
20.0
 31
0.0
  0
LINE
  5
495
330
654
100
AcDbEntity
  8
WAKU
 62
     1
100
AcDbLine
 10
0.0
 20
15.0
 30
0.0
 11
125.0
 21
15.0
 31
0.0
  0
LINE
  5
496
330
654
100
AcDbEntity
  8
WAKU
 62
     1
100
AcDbLine
 10
0.0
 20
30.0
 30
0.0
 11
125.0
 21
30.0
 31
0.0
  0
TEXT
  5
49B
330
654
100
AcDbEntity
  8
MOJI1
100
AcDbText
 10
2.5
 20
6.0
 30
0.0
 40
3.0
  1
接続端子
100
AcDbText
  0
LINE
  5
49C
330
654
100
AcDbEntity
  8
WAKU
 62
     4
100
AcDbLine
 10
0.0
 20
35.0
 30
0.0
 11
0.0
 21
0.0
 31
0.0
  0
LINE
  5
49D
330
654
100
AcDbEntity
  8
WAKU
 62
     4
100
AcDbLine
 10
40.0
 20
35.0
 30
0.0
 11
40.0
 21
0.0
 31
0.0
  0
TEXT
  5
49E
330
654
100
AcDbEntity
  8
MOJI1
100
AcDbText
 10
2.5
 20
11.0
 30
0.0
 40
3.0
  1
音声最大出力
100
AcDbText
  0
TEXT
  5
49F
330
654
100
AcDbEntity
  8
MOJI1
100
AcDbText
 10
2.5
 20
21.0
 30
0.0
 40
3.0
  1
パネルサイズ
100
AcDbText
  0
TEXT
  5
4A0
330
654
100
AcDbEntity
  8
MOJI1
100
AcDbText
 10
2.5
 20
16.0
 30
0.0
 40
3.0
  1
画素数
100
AcDbText
  0
TEXT
  5
4A1
330
654
100
AcDbEntity
  8
MOJI1
100
AcDbText
 10
2.5
 20
31.1251189511155
 30
0.0
 40
3.0
  1
電　源
100
AcDbText
  0
TEXT
  5
4A2
330
654
100
AcDbEntity
  8
MOJI1
100
AcDbText
 10
2.5
 20
26.0
 30
0.0
 40
3.0
  1
消費電力
100
AcDbText
  0
LINE
  5
4A6
330
654
100
AcDbEntity
  8
WAKU
 62
     4
100
AcDbLine
 10
125.0
 20
35.0
 30
0.0
 11
125.0
 21
0.0
 31
0.0
  0
TEXT
  5
6A0
330
654
100
AcDbEntity
  8
MOJI1
100
AcDbText
 10
42.5
 20
1.0
 30
0.0
 40
3.0
  1
ＬＣＤ制御、コンポーネントビデオ
100
AcDbText
  0
TEXT
  5
6A1
330
654
100
AcDbEntity
  8
MOJI1
100
AcDbText
 10
42.5
 20
6.0
 30
0.0
 40
3.0
  1
ビデオ／Ｓビデオ／ＲＧＢ／ＰＣ／外部スピーカ
100
AcDbText
  0
TEXT
  5
6A2
330
654
100
AcDbEntity
  8
MOJI1
100
AcDbText
 10
42.5
 20
11.0
 30
0.0
 40
3.0
  1
１６Ｗ（８Ｗ＋８Ｗ）
100
AcDbText
  0
TEXT
  5
6A3
330
654
100
AcDbEntity
  8
MOJI1
100
AcDbText
 10
42.5
 20
16.0
 30
0.0
 40
3.0
  1
１０４９０８８画素（水平１３６６×垂直７６８）
100
AcDbText
  0
TEXT
  5
6A4
330
654
100
AcDbEntity
  8
MOJI1
100
AcDbText
 10
42.5
 20
21.0
 30
0.0
 40
3.0
  1
３２Ｖ型（１６：９）
100
AcDbText
  0
TEXT
  5
6A5
330
654
100
AcDbEntity
  8
MOJI1
100
AcDbText
 10
42.5
 20
26.0
 30
0.0
 40
3.0
  1
１７１Ｗ
100
AcDbText
  0
TEXT
  5
6A6
330
654
100
AcDbEntity
  8
MOJI1
100
AcDbText
 10
42.5
 20
31.05628590561594
 30
0.0
 40
3.0
  1
ＡＣ１００Ｖ　５０／６０Ｈｚ 
100
AcDbText
  0
ENDSEC
  0
SECTION
  2
OBJECTS
  0
DICTIONARY
  5
640
330
0
100
AcDbDictionary
281
     1
  3
ACAD_COLOR
350
64F
  3
ACAD_GROUP
350
641
  3
ACAD_LAYOUT
350
64D
  3
ACAD_MATERIAL
350
64E
  3
ACAD_MLINESTYLE
350
64A
  3
ACAD_PLOTSETTINGS
350
64C
  3
ACAD_PLOTSTYLENAME
350
642
  3
ACDBHEADERROUNDTRIPXREC
350
6AC
  3
AcDbVariableDictionary
350
6A7
  3
DWGPROPS
350
6AB
  0
DICTIONARY
  5
64F
102
{ACAD_REACTORS
330
640
102
}
330
640
100
AcDbDictionary
281
     1
  0
DICTIONARY
  5
641
102
{ACAD_REACTORS
330
640
102
}
330
640
100
AcDbDictionary
281
     1
  0
DICTIONARY
  5
64D
102
{ACAD_REACTORS
330
640
102
}
330
640
100
AcDbDictionary
281
     1
  3
Model
350
657
  3
レイアウト1
350
653
  0
DICTIONARY
  5
64E
102
{ACAD_REACTORS
330
640
102
}
330
640
100
AcDbDictionary
281
     1
  0
DICTIONARY
  5
64A
102
{ACAD_REACTORS
330
640
102
}
330
640
100
AcDbDictionary
281
     1
  3
Standard
350
64B
  0
DICTIONARY
  5
64C
102
{ACAD_REACTORS
330
640
102
}
330
640
100
AcDbDictionary
281
     1
  0
ACDBDICTIONARYWDFLT
  5
642
102
{ACAD_REACTORS
330
640
102
}
330
640
100
AcDbDictionary
281
     1
  3
Normal
350
643
100
AcDbDictionaryWithDefault
340
643
  0
DICTIONARY
  5
6AC
102
{ACAD_REACTORS
330
640
102
}
330
640
100
AcDbDictionary
281
     1
  3
COLORDICT
350
6AE
  3
MATERIALDICT
350
6AD
  0
DICTIONARY
  5
6A7
102
{ACAD_REACTORS
330
640
102
}
330
640
100
AcDbDictionary
281
     1
  3
DIMASSOC
350
6A8
  3
PROJECTNAME
350
6A9
  0
XRECORD
  5
6AB
102
{ACAD_REACTORS
330
640
102
}
330
640
100
AcDbXrecord
280
     1
  1
DWGPROPS COOKIE
  2

  3

  4

  6

  7

  8

  9

300
=
301
=
302
=
303
=
304
=
305
=
306
=
307
=
308
=
309
=
 40
1.317671006944444
 41
2448884.641931713
 42
2453731.655778716
  1

 90
        0
  0
LAYOUT
  5
657
102
{ACAD_XDICTIONARY
360
6B1
102
}
102
{ACAD_REACTORS
330
64D
102
}
330
64D
100
AcDbPlotSettings
  1

  2
\\Uranus\BFACN02M
  4

  6

 40
0.0
 41
0.0
 42
0.0
 43
0.0
 44
0.0
 45
0.0
 46
0.0
 47
0.0
 48
0.0
 49
0.0
140
0.0
141
0.0
142
1.0
143
1.0
 70
  1712
 72
     0
 73
     0
 74
     0
  7
SSC.ctb
 75
     0
147
1.0
148
0.0
149
0.0
100
AcDbLayout
  1
Model
 70
     1
 71
     0
 10
0.0
 20
0.0
 11
12.0
 21
9.0
 12
0.0
 22
0.0
 32
0.0
 14
0.0
 24
0.0
 34
0.0
 15
0.0
 25
0.0
 35
0.0
146
0.0
 13
0.0
 23
0.0
 33
0.0
 16
1.0
 26
0.0
 36
0.0
 17
0.0
 27
1.0
 37
0.0
 76
     0
330
654
  0
LAYOUT
  5
653
102
{ACAD_XDICTIONARY
360
6AF
102
}
102
{ACAD_REACTORS
330
64D
102
}
330
64D
100
AcDbPlotSettings
  1

  2
\\Uranus\BFACN02M
  4

  6

 40
0.0
 41
0.0
 42
0.0
 43
0.0
 44
0.0
 45
0.0
 46
0.0
 47
0.0
 48
0.0
 49
0.0
140
0.0
141
0.0
142
1.0
143
1.0
 70
   688
 72
     0
 73
     0
 74
     5
  7
SSC.ctb
 75
    16
147
1.0
148
0.0
149
0.0
100
AcDbLayout
  1
レイアウト1
 70
     0
 71
     1
 10
0.0
 20
0.0
 11
12.0
 21
9.0
 12
0.0
 22
0.0
 32
0.0
 14
1.000000000000000E+20
 24
1.000000000000000E+20
 34
1.000000000000000E+20
 15
-1.000000000000000E+20
 25
-1.000000000000000E+20
 35
-1.000000000000000E+20
146
0.0
 13
0.0
 23
0.0
 33
0.0
 16
1.0
 26
0.0
 36
0.0
 17
0.0
 27
1.0
 37
0.0
 76
     0
330
650
  0
MLINESTYLE
  5
64B
102
{ACAD_REACTORS
330
64A
102
}
330
64A
100
AcDbMlineStyle
  2
STANDARD
 70
     0
  3

 62
   256
 51
90.0
 52
90.0
 71
     2
 49
0.5
 62
   256
  6
BYLAYER
 49
-0.5
 62
   256
  6
BYLAYER
  0
ACDBPLACEHOLDER
  5
643
102
{ACAD_REACTORS
330
642
102
}
330
642
  0
XRECORD
  5
6AE
102
{ACAD_REACTORS
330
6AC
102
}
330
6AC
100
AcDbXrecord
280
     1
340
64F
  0
XRECORD
  5
6AD
102
{ACAD_REACTORS
330
6AC
102
}
330
6AC
100
AcDbXrecord
280
     1
340
64E
  0
DICTIONARYVAR
  5
6A8
102
{ACAD_REACTORS
330
6A7
102
}
330
6A7
100
DictionaryVariables
280
     0
  1
1
  0
DICTIONARYVAR
  5
6A9
102
{ACAD_REACTORS
330
6A7
102
}
330
6A7
100
DictionaryVariables
280
     0
  1

  0
DICTIONARY
  5
6B1
330
657
100
AcDbDictionary
280
     1
281
     1
  3
ACAD_XREC_ROUNDTRIP
360
6B2
  0
DICTIONARY
  5
6AF
330
653
100
AcDbDictionary
280
     1
281
     1
  3
ACAD_XREC_ROUNDTRIP
360
6B0
  0
XRECORD
  5
6B2
102
{ACAD_REACTORS
330
6B1
102
}
330
6B1
100
AcDbXrecord
280
     1
102
SHADEPLOT
 70
     0
102
SHADEPLOTRESLEVEL
 70
     2
102
SHADEPLOTCUSTOMDPI
 70
   300
  0
XRECORD
  5
6B0
102
{ACAD_REACTORS
330
6AF
102
}
330
6AF
100
AcDbXrecord
280
     1
102
SHADEPLOT
 70
     0
102
SHADEPLOTRESLEVEL
 70
     2
102
SHADEPLOTCUSTOMDPI
 70
   300
  0
ENDSEC
  0
EOF
