  0
SECTION
  2
HEADER
  9
$ACADVER
  1
AC1015
  9
$ACADMAINTVER
 70
    20
  9
$DWGCODEPAGE
  3
ANSI_932
  9
$INSBASE
 10
131.3549869044098
 20
372.7742273578933
 30
0.0
  9
$EXTMIN
 10
-0.0018146829065699
 20
-0.001536506695146
 30
-0.0000000349181948
  9
$EXTMAX
 10
125.0007710277629
 20
113.0033033341972
 30
0.0000000814935747
  9
$LIMMIN
 10
-10.38370578557988
 20
-0.2230809508628227
  9
$LIMMAX
 10
135.2160357714427
 20
113.2075391110947
  9
$ORTHOMODE
 70
     1
  9
$REGENMODE
 70
     1
  9
$FILLMODE
 70
     1
  9
$QTEXTMODE
 70
     0
  9
$MIRRTEXT
 70
     0
  9
$LTSCALE
 40
1.0
  9
$ATTMODE
 70
     1
  9
$TEXTSIZE
 40
3.0
  9
$TRACEWID
 40
0.05
  9
$TEXTSTYLE
  7
STANDARD
  9
$CLAYER
  8
0
  9
$CELTYPE
  6
ByLayer
  9
$CECOLOR
 62
   256
  9
$CELTSCALE
 40
1.0
  9
$DISPSILH
 70
     0
  9
$DIMSCALE
 40
1.0
  9
$DIMASZ
 40
2.0
  9
$DIMEXO
 40
2.0
  9
$DIMDLI
 40
8.0
  9
$DIMRND
 40
0.0
  9
$DIMDLE
 40
0.0
  9
$DIMEXE
 40
2.0
  9
$DIMTP
 40
0.0
  9
$DIMTM
 40
0.0
  9
$DIMTXT
 40
2.5
  9
$DIMCEN
 40
0.0
  9
$DIMTSZ
 40
0.0
  9
$DIMTOL
 70
     0
  9
$DIMLIM
 70
     0
  9
$DIMTIH
 70
     0
  9
$DIMTOH
 70
     0
  9
$DIMSE1
 70
     0
  9
$DIMSE2
 70
     0
  9
$DIMTAD
 70
     3
  9
$DIMZIN
 70
     0
  9
$DIMBLK
  1

  9
$DIMASO
 70
     1
  9
$DIMSHO
 70
     0
  9
$DIMPOST
  1

  9
$DIMAPOST
  1

  9
$DIMALT
 70
     0
  9
$DIMALTD
 70
     2
  9
$DIMALTF
 40
25.4
  9
$DIMLFAC
 40
1.0
  9
$DIMTOFL
 70
     1
  9
$DIMTVP
 40
0.0
  9
$DIMTIX
 70
     0
  9
$DIMSOXD
 70
     0
  9
$DIMSAH
 70
     1
  9
$DIMBLK1
  1
OPEN30
  9
$DIMBLK2
  1
OPEN30
  9
$DIMSTYLE
  2
STANDARD
  9
$DIMCLRD
 70
     0
  9
$DIMCLRE
 70
     0
  9
$DIMCLRT
 70
     0
  9
$DIMTFAC
 40
1.0
  9
$DIMGAP
 40
0.5
  9
$DIMJUST
 70
     0
  9
$DIMSD1
 70
     0
  9
$DIMSD2
 70
     0
  9
$DIMTOLJ
 70
     1
  9
$DIMTZIN
 70
     0
  9
$DIMALTZ
 70
     0
  9
$DIMALTTZ
 70
     0
  9
$DIMUPT
 70
     0
  9
$DIMDEC
 70
     4
  9
$DIMTDEC
 70
     4
  9
$DIMALTU
 70
     2
  9
$DIMALTTD
 70
     2
  9
$DIMTXSTY
  7
STANDARD
  9
$DIMAUNIT
 70
     0
  9
$DIMADEC
 70
     0
  9
$DIMALTRND
 40
0.0
  9
$DIMAZIN
 70
     0
  9
$DIMDSEP
 70
    46
  9
$DIMATFIT
 70
     3
  9
$DIMFRAC
 70
     0
  9
$DIMLDRBLK
  1

  9
$DIMLUNIT
 70
     2
  9
$DIMLWD
 70
    -2
  9
$DIMLWE
 70
    -2
  9
$DIMTMOVE
 70
     0
  9
$LUNITS
 70
     2
  9
$LUPREC
 70
     4
  9
$SKETCHINC
 40
0.1
  9
$FILLETRAD
 40
0.0
  9
$AUNITS
 70
     0
  9
$AUPREC
 70
     0
  9
$MENU
  1
ACAD
  9
$ELEVATION
 40
0.0
  9
$PELEVATION
 40
0.0
  9
$THICKNESS
 40
0.0
  9
$LIMCHECK
 70
     0
  9
$CHAMFERA
 40
0.0
  9
$CHAMFERB
 40
0.0
  9
$CHAMFERC
 40
0.0
  9
$CHAMFERD
 40
0.0
  9
$SKPOLY
 70
     0
  9
$TDCREATE
 40
2448884.641931713
  9
$TDUCREATE
 40
2448884.266931713
  9
$TDUPDATE
 40
2453731.654351667
  9
$TDUUPDATE
 40
2453731.279351667
  9
$TDINDWG
 40
1.3189195602
  9
$TDUSRTIMER
 40
1.3189193750
  9
$USRTIMER
 70
     1
  9
$ANGBASE
 50
0.0
  9
$ANGDIR
 70
     0
  9
$PDMODE
 70
     0
  9
$PDSIZE
 40
0.0
  9
$PLINEWID
 40
0.0
  9
$SPLFRAME
 70
     0
  9
$SPLINETYPE
 70
     6
  9
$SPLINESEGS
 70
     8
  9
$HANDSEED
  5
5A3
  9
$SURFTAB1
 70
     6
  9
$SURFTAB2
 70
     6
  9
$SURFTYPE
 70
     6
  9
$SURFU
 70
     6
  9
$SURFV
 70
     6
  9
$UCSBASE
  2

  9
$UCSNAME
  2

  9
$UCSORG
 10
0.0
 20
0.0
 30
0.0
  9
$UCSXDIR
 10
1.0
 20
0.0
 30
0.0
  9
$UCSYDIR
 10
0.0
 20
1.0
 30
0.0
  9
$UCSORTHOREF
  2

  9
$UCSORTHOVIEW
 70
     0
  9
$UCSORGTOP
 10
0.0
 20
0.0
 30
0.0
  9
$UCSORGBOTTOM
 10
0.0
 20
0.0
 30
0.0
  9
$UCSORGLEFT
 10
0.0
 20
0.0
 30
0.0
  9
$UCSORGRIGHT
 10
0.0
 20
0.0
 30
0.0
  9
$UCSORGFRONT
 10
0.0
 20
0.0
 30
0.0
  9
$UCSORGBACK
 10
0.0
 20
0.0
 30
0.0
  9
$PUCSBASE
  2

  9
$PUCSNAME
  2

  9
$PUCSORG
 10
0.0
 20
0.0
 30
0.0
  9
$PUCSXDIR
 10
1.0
 20
0.0
 30
0.0
  9
$PUCSYDIR
 10
0.0
 20
1.0
 30
0.0
  9
$PUCSORTHOREF
  2

  9
$PUCSORTHOVIEW
 70
     0
  9
$PUCSORGTOP
 10
0.0
 20
0.0
 30
0.0
  9
$PUCSORGBOTTOM
 10
0.0
 20
0.0
 30
0.0
  9
$PUCSORGLEFT
 10
0.0
 20
0.0
 30
0.0
  9
$PUCSORGRIGHT
 10
0.0
 20
0.0
 30
0.0
  9
$PUCSORGFRONT
 10
0.0
 20
0.0
 30
0.0
  9
$PUCSORGBACK
 10
0.0
 20
0.0
 30
0.0
  9
$USERI1
 70
     0
  9
$USERI2
 70
     0
  9
$USERI3
 70
     0
  9
$USERI4
 70
     0
  9
$USERI5
 70
     0
  9
$USERR1
 40
0.0
  9
$USERR2
 40
0.0
  9
$USERR3
 40
0.0
  9
$USERR4
 40
0.0
  9
$USERR5
 40
0.0
  9
$WORLDVIEW
 70
     1
  9
$SHADEDGE
 70
     3
  9
$SHADEDIF
 70
    70
  9
$TILEMODE
 70
     1
  9
$MAXACTVP
 70
    48
  9
$PINSBASE
 10
0.0
 20
0.0
 30
0.0
  9
$PLIMCHECK
 70
     0
  9
$PEXTMIN
 10
1.000000000000000E+20
 20
1.000000000000000E+20
 30
1.000000000000000E+20
  9
$PEXTMAX
 10
-1.000000000000000E+20
 20
-1.000000000000000E+20
 30
-1.000000000000000E+20
  9
$PLIMMIN
 10
0.0
 20
0.0
  9
$PLIMMAX
 10
12.0
 20
9.0
  9
$UNITMODE
 70
     0
  9
$VISRETAIN
 70
     0
  9
$PLINEGEN
 70
     0
  9
$PSLTSCALE
 70
     0
  9
$TREEDEPTH
 70
  3020
  9
$CMLSTYLE
  2
Standard
  9
$CMLJUST
 70
     0
  9
$CMLSCALE
 40
1.0
  9
$PROXYGRAPHICS
 70
     1
  9
$MEASUREMENT
 70
     0
  9
$CELWEIGHT
370
    -1
  9
$ENDCAPS
280
     0
  9
$JOINSTYLE
280
     0
  9
$LWDISPLAY
290
     0
  9
$INSUNITS
 70
     0
  9
$HYPERLINKBASE
  1

  9
$STYLESHEET
  1

  9
$XEDIT
290
     1
  9
$CEPSNTYPE
380
     0
  9
$PSTYLEMODE
290
     1
  9
$FINGERPRINTGUID
  2
{65623C97-CFD4-47C6-9114-A6D0DE35D877}
  9
$VERSIONGUID
  2
{73870C8F-A743-4E4C-A8EF-6C2D3C6AC660}
  9
$EXTNAMES
290
     1
  9
$PSVPSCALE
 40
0.0
  9
$OLESTARTUP
290
     0
  0
ENDSEC
  0
SECTION
  2
CLASSES
  0
CLASS
  1
ACDBDICTIONARYWDFLT
  2
AcDbDictionaryWithDefault
  3
ObjectDBX Classes
 90
        0
280
     0
281
     0
  0
CLASS
  1
DICTIONARYVAR
  2
AcDbDictionaryVar
  3
ObjectDBX Classes
 90
        0
280
     0
281
     0
  0
CLASS
  1
ACDBPLACEHOLDER
  2
AcDbPlaceHolder
  3
ObjectDBX Classes
 90
        0
280
     0
281
     0
  0
CLASS
  1
LAYOUT
  2
AcDbLayout
  3
ObjectDBX Classes
 90
        0
280
     0
281
     0
  0
ENDSEC
  0
SECTION
  2
TABLES
  0
TABLE
  2
VPORT
  5
53A
330
0
100
AcDbSymbolTable
 70
     2
  0
VPORT
  5
59A
330
53A
100
AcDbSymbolTableRecord
100
AcDbViewportTableRecord
  2
*Active
 70
     0
 10
0.0
 20
0.0
 11
1.0
 21
1.0
 12
62.49947817242819
 22
56.50088341375104
 13
0.0
 23
0.0
 14
1.0
 24
1.0
 15
0.0
 25
0.0
 16
0.0
 26
0.0
 36
1.0
 17
0.0
 27
0.0
 37
0.0
 40
113.9734527538143
 41
1.589413447782546
 42
50.0
 43
0.0
 44
0.0
 50
0.0
 51
0.0
 71
     0
 72
 10000
 73
     1
 74
     0
 75
     0
 76
     0
 77
     0
 78
     0
281
     0
 65
     1
110
0.0
120
0.0
130
0.0
111
1.0
121
0.0
131
0.0
112
0.0
122
1.0
132
0.0
 79
     0
146
0.0
  0
ENDTAB
  0
TABLE
  2
LTYPE
  5
537
330
0
100
AcDbSymbolTable
 70
     1
  0
LTYPE
  5
545
330
537
100
AcDbSymbolTableRecord
100
AcDbLinetypeTableRecord
  2
ByBlock
 70
     0
  3

 72
    65
 73
     0
 40
0.0
  0
LTYPE
  5
546
330
537
100
AcDbSymbolTableRecord
100
AcDbLinetypeTableRecord
  2
ByLayer
 70
     0
  3

 72
    65
 73
     0
 40
0.0
  0
LTYPE
  5
547
330
537
100
AcDbSymbolTableRecord
100
AcDbLinetypeTableRecord
  2
CONTINUOUS
 70
     0
  3
実線
 72
    65
 73
     0
 40
0.0
  0
ENDTAB
  0
TABLE
  2
LAYER
  5
534
330
0
100
AcDbSymbolTable
 70
     7
  0
LAYER
  5
542
330
534
100
AcDbSymbolTableRecord
100
AcDbLayerTableRecord
  2
0
 70
     0
 62
     7
  6
CONTINUOUS
370
    -3
390
541
  0
LAYER
  5
556
330
534
100
AcDbSymbolTableRecord
100
AcDbLayerTableRecord
  2
SUNPO
 70
     0
 62
     3
  6
CONTINUOUS
370
    -3
390
541
  0
LAYER
  5
558
330
534
100
AcDbSymbolTableRecord
100
AcDbLayerTableRecord
  2
WAKU
 70
     0
 62
     4
  6
CONTINUOUS
370
    -3
390
541
  0
LAYER
  5
559
330
534
100
AcDbSymbolTableRecord
100
AcDbLayerTableRecord
  2
MOJI1
 70
     0
 62
     2
  6
CONTINUOUS
370
    -3
390
541
  0
LAYER
  5
55A
330
534
100
AcDbSymbolTableRecord
100
AcDbLayerTableRecord
  2
GAIKEI
 70
     0
 62
     7
  6
CONTINUOUS
370
    -3
390
541
  0
LAYER
  5
55B
330
534
100
AcDbSymbolTableRecord
100
AcDbLayerTableRecord
  2
DEFPOINTS
 70
     0
 62
     7
  6
CONTINUOUS
290
     0
370
    -3
390
541
  0
LAYER
  5
55C
330
534
100
AcDbSymbolTableRecord
100
AcDbLayerTableRecord
  2
TOUROKU
 70
     0
 62
     1
  6
CONTINUOUS
370
    -3
390
541
  0
ENDTAB
  0
TABLE
  2
STYLE
  5
535
330
0
100
AcDbSymbolTable
 70
     2
  0
STYLE
  5
543
330
535
100
AcDbSymbolTableRecord
100
AcDbTextStyleTableRecord
  2
STANDARD
 70
     0
 40
0.0
 41
1.0
 50
0.0
 71
     0
 42
3.0
  3
MONOTXT.shx
  4
BIGFONT.shx
  0
ENDTAB
  0
TABLE
  2
VIEW
  5
538
330
0
100
AcDbSymbolTable
 70
     0
  0
ENDTAB
  0
TABLE
  2
UCS
  5
539
330
0
100
AcDbSymbolTable
 70
     0
  0
ENDTAB
  0
TABLE
  2
APPID
  5
53B
330
0
100
AcDbSymbolTable
 70
     1
  0
APPID
  5
544
330
53B
100
AcDbSymbolTableRecord
100
AcDbRegAppTableRecord
  2
ACAD
 70
     0
  0
ENDTAB
  0
TABLE
  2
DIMSTYLE
  5
53C
330
0
100
AcDbSymbolTable
 70
     1
100
AcDbDimStyleTable
 71
     1
340
55E
  0
DIMSTYLE
105
55E
102
{ACAD_REACTORS
330
3A9
330
388
330
31E
102
}
330
53C
100
AcDbSymbolTableRecord
100
AcDbDimStyleTableRecord
  2
STANDARD
 70
     0
 40
0.0
 41
2.0
 42
2.0
 43
8.0
 44
2.0
 73
     0
 74
     0
 77
     3
140
3.0
141
0.0
173
     1
279
     2
340
543
  0
ENDTAB
  0
TABLE
  2
BLOCK_RECORD
  5
533
330
0
100
AcDbSymbolTable
 70
     9
  0
BLOCK_RECORD
  5
552
330
533
100
AcDbSymbolTableRecord
100
AcDbBlockTableRecord
  2
*Model_Space
340
555
  0
BLOCK_RECORD
  5
54E
330
533
100
AcDbSymbolTableRecord
100
AcDbBlockTableRecord
  2
*Paper_Space
340
551
  0
BLOCK_RECORD
  5
565
330
533
100
AcDbSymbolTableRecord
100
AcDbBlockTableRecord
  2
_OPEN30
340
0
102
{BLKREFS
331
323
331
32A
331
38D
331
38E
331
3AF
331
3B0
331
578
331
579
331
581
331
582
331
58A
331
58B
102
}
  0
BLOCK_RECORD
  5
56D
330
533
100
AcDbSymbolTableRecord
100
AcDbBlockTableRecord
  2
*D6
340
0
  0
BLOCK_RECORD
  5
56F
330
533
100
AcDbSymbolTableRecord
100
AcDbBlockTableRecord
  2
*D7
340
0
  0
BLOCK_RECORD
  5
571
330
533
100
AcDbSymbolTableRecord
100
AcDbBlockTableRecord
  2
*D8
340
0
  0
ENDTAB
  0
ENDSEC
  0
SECTION
  2
BLOCKS
  0
BLOCK
  5
553
330
552
100
AcDbEntity
  8
0
100
AcDbBlockBegin
  2
*Model_Space
 70
     0
 10
0.0
 20
0.0
 30
0.0
  3
*Model_Space
  1

  0
ENDBLK
  5
554
330
552
100
AcDbEntity
  8
0
100
AcDbBlockEnd
  0
BLOCK
  5
54F
330
54E
100
AcDbEntity
 67
     1
  8
0
100
AcDbBlockBegin
  2
*Paper_Space
 70
     0
 10
0.0
 20
0.0
 30
0.0
  3
*Paper_Space
  1

  0
ENDBLK
  5
550
330
54E
100
AcDbEntity
 67
     1
  8
0
100
AcDbBlockEnd
  0
BLOCK
  5
566
330
565
100
AcDbEntity
  8
0
100
AcDbBlockBegin
  2
_OPEN30
 70
     0
 10
0.0
 20
0.0
 30
0.0
  3
_OPEN30
  1

  0
LINE
  5
325
330
565
100
AcDbEntity
  8
0
  6
ByBlock
 62
     0
100
AcDbLine
 10
-1.0
 20
0.26794919
 30
0.0
 11
0.0
 21
0.0
 31
0.0
  0
LINE
  5
326
330
565
100
AcDbEntity
  8
0
  6
ByBlock
 62
     0
100
AcDbLine
 10
0.0
 20
0.0
 30
0.0
 11
-1.0
 21
-0.26794919
 31
0.0
  0
LINE
  5
327
330
565
100
AcDbEntity
  8
0
  6
ByBlock
 62
     0
100
AcDbLine
 10
0.0
 20
0.0
 30
0.0
 11
-1.0
 21
0.0
 31
0.0
  0
ENDBLK
  5
329
330
565
100
AcDbEntity
  8
0
100
AcDbBlockEnd
  0
BLOCK
  5
56E
330
56D
100
AcDbEntity
  8
0
100
AcDbBlockBegin
  2
*D6
 70
     1
 10
0.0
 20
0.0
 30
0.0
  3
*D6
  1

  0
LINE
  5
587
330
56D
100
AcDbEntity
  8
SUNPO
 62
     0
370
    -2
100
AcDbLine
 10
68.7621694374518
 20
78.20176874753503
 30
0.0
 11
76.7621694374518
 21
78.20176874753503
 31
0.0
  0
LINE
  5
588
330
56D
100
AcDbEntity
  8
SUNPO
 62
     0
370
    -2
100
AcDbLine
 10
68.7621694374518
 20
53.22176875673773
 30
0.0
 11
76.7621694374518
 21
53.22176875673773
 31
0.0
  0
LINE
  5
589
330
56D
100
AcDbEntity
  8
SUNPO
 62
     0
370
    -2
100
AcDbLine
 10
74.7621694374518
 20
76.20176874753503
 30
0.0
 11
74.7621694374518
 21
55.22176875673773
 31
0.0
  0
INSERT
  5
58A
330
56D
100
AcDbEntity
  8
SUNPO
 62
     0
370
    -2
100
AcDbBlockReference
  2
_OPEN30
 10
74.7621694374518
 20
78.20176874753503
 30
0.0
 41
2.0
 42
2.0
 43
2.0
 50
90.0
  0
INSERT
  5
58B
330
56D
100
AcDbEntity
  8
SUNPO
 62
     0
370
    -2
100
AcDbBlockReference
  2
_OPEN30
 10
74.7621694374518
 20
53.22176875673773
 30
0.0
 41
2.0
 42
2.0
 43
2.0
 50
270.0
  0
MTEXT
  5
58C
330
56D
100
AcDbEntity
  8
SUNPO
 62
     0
100
AcDbMText
 10
73.01216943745179
 20
65.71176875213639
 30
0.0
 40
2.5
 41
0.0
 71
     5
 72
     1
  1
\A1;499.6
 11
0.0000000000000001
 21
1.0
 31
0.0
 73
     1
 44
1.0
1001
ACAD
1000
MTEXTBEGIN
1070
    73
1070
     1
1070
    44
1040
1.0
1070
    74
1070
     0
1000
MTEXTEND
  0
POINT
  5
58D
330
56D
100
AcDbEntity
  8
DEFPOINTS
 62
     0
100
AcDbPoint
 10
66.7621694374518
 20
78.20176874753503
 30
0.0
  0
POINT
  5
58E
330
56D
100
AcDbEntity
  8
DEFPOINTS
 62
     0
100
AcDbPoint
 10
66.7621694374518
 20
53.22176875673773
 30
0.0
  0
POINT
  5
58F
330
56D
100
AcDbEntity
  8
DEFPOINTS
 62
     0
100
AcDbPoint
 10
74.7621694374518
 20
53.22176875673773
 30
0.0
  0
ENDBLK
  5
44E
330
56D
100
AcDbEntity
  8
0
100
AcDbBlockEnd
  0
BLOCK
  5
570
330
56F
100
AcDbEntity
  8
0
100
AcDbBlockBegin
  2
*D7
 70
     1
 10
0.0
 20
0.0
 30
0.0
  3
*D7
  1

  0
LINE
  5
57E
330
56F
100
AcDbEntity
  8
SUNPO
 62
     0
370
    -2
100
AcDbLine
 10
26.51847481652476
 20
80.20176781931445
 30
0.0
 11
26.51847481652476
 21
88.20176781931445
 31
0.0
  0
LINE
  5
57F
330
56F
100
AcDbEntity
  8
SUNPO
 62
     0
370
    -2
100
AcDbLine
 10
66.76847948564159
 20
80.20176781931445
 30
0.0
 11
66.76847948564159
 21
88.20176781931445
 31
0.0
  0
LINE
  5
580
330
56F
100
AcDbEntity
  8
SUNPO
 62
     0
370
    -2
100
AcDbLine
 10
28.51847481652476
 20
86.20176781931446
 30
0.0
 11
64.76847948564159
 21
86.20176781931446
 31
0.0
  0
INSERT
  5
581
330
56F
100
AcDbEntity
  8
SUNPO
 62
     0
370
    -2
100
AcDbBlockReference
  2
_OPEN30
 10
26.51847481652476
 20
86.20176781931446
 30
0.0
 41
2.0
 42
2.0
 43
2.0
 50
180.0
  0
INSERT
  5
582
330
56F
100
AcDbEntity
  8
SUNPO
 62
     0
370
    -2
100
AcDbBlockReference
  2
_OPEN30
 10
66.76847948564159
 20
86.20176781931446
 30
0.0
 41
2.0
 42
2.0
 43
2.0
  0
MTEXT
  5
583
330
56F
100
AcDbEntity
  8
SUNPO
 62
     0
100
AcDbMText
 10
46.64347715108317
 20
87.95176781931445
 30
0.0
 40
2.5
 41
0.0
 71
     5
 72
     1
  1
\A1;805
 73
     1
 44
1.0
1001
ACAD
1000
MTEXTBEGIN
1070
    73
1070
     1
1070
    44
1040
1.0
1070
    74
1070
     0
1000
MTEXTEND
  0
POINT
  5
584
330
56F
100
AcDbEntity
  8
DEFPOINTS
 62
     0
100
AcDbPoint
 10
26.51847481652476
 20
78.20176781931445
 30
0.0
  0
POINT
  5
585
330
56F
100
AcDbEntity
  8
DEFPOINTS
 62
     0
100
AcDbPoint
 10
66.76847948564159
 20
78.20176781931445
 30
0.0
  0
POINT
  5
586
330
56F
100
AcDbEntity
  8
DEFPOINTS
 62
     0
100
AcDbPoint
 10
66.76847948564159
 20
86.20176781931446
 30
0.0
  0
ENDBLK
  5
45A
330
56F
100
AcDbEntity
  8
0
100
AcDbBlockEnd
  0
BLOCK
  5
572
330
571
100
AcDbEntity
  8
0
100
AcDbBlockBegin
  2
*D8
 70
     1
 10
0.0
 20
0.0
 30
0.0
  3
*D8
  1

  0
LINE
  5
574
330
571
100
AcDbEntity
  8
SUNPO
 62
     0
370
    -2
100
AcDbLine
 10
89.05580572958696
 20
80.20176781931445
 30
0.0
 11
89.05580572958696
 21
88.20176781931445
 31
0.0
  0
LINE
  5
575
330
571
100
AcDbEntity
  8
SUNPO
 62
     0
370
    -2
100
AcDbLine
 10
94.15580654085172
 20
80.20176781931445
 30
0.0
 11
94.15580654085172
 21
88.20176781931445
 31
0.0
  0
LINE
  5
576
330
571
100
AcDbEntity
  8
SUNPO
 62
     0
370
    -2
100
AcDbLine
 10
91.05580572958695
 20
86.20176781931446
 30
0.0
 11
92.15580654085171
 21
86.20176781931446
 31
0.0
  0
LINE
  5
577
330
571
100
AcDbEntity
  8
SUNPO
 62
     0
370
    -2
100
AcDbLine
 10
94.15580654085172
 20
86.20176781931446
 30
0.0
 11
103.8224732075184
 21
86.20176781931446
 31
0.0
  0
INSERT
  5
578
330
571
100
AcDbEntity
  8
SUNPO
 62
     0
370
    -2
100
AcDbBlockReference
  2
_OPEN30
 10
89.05580572958696
 20
86.20176781931446
 30
0.0
 41
2.0
 42
2.0
 43
2.0
 50
180.0
  0
INSERT
  5
579
330
571
100
AcDbEntity
  8
SUNPO
 62
     0
370
    -2
100
AcDbBlockReference
  2
_OPEN30
 10
94.15580654085172
 20
86.20176781931446
 30
0.0
 41
2.0
 42
2.0
 43
2.0
  0
MTEXT
  5
57A
330
571
100
AcDbEntity
  8
SUNPO
 62
     0
100
AcDbMText
 10
99.98913987418504
 20
87.95176781931445
 30
0.0
 40
2.5
 41
0.0
 71
     5
 72
     1
  1
\A1;102
 73
     1
 44
1.0
1001
ACAD
1000
MTEXTBEGIN
1070
    73
1070
     1
1070
    44
1040
1.0
1070
    74
1070
     0
1000
MTEXTEND
  0
POINT
  5
57B
330
571
100
AcDbEntity
  8
DEFPOINTS
 62
     0
100
AcDbPoint
 10
89.05580572958696
 20
78.20176781931445
 30
0.0
  0
POINT
  5
57C
330
571
100
AcDbEntity
  8
DEFPOINTS
 62
     0
100
AcDbPoint
 10
94.15580654085172
 20
78.20176781931445
 30
0.0
  0
POINT
  5
57D
330
571
100
AcDbEntity
  8
DEFPOINTS
 62
     0
100
AcDbPoint
 10
94.15580654085172
 20
86.20176781931446
 30
0.0
  0
ENDBLK
  5
467
330
571
100
AcDbEntity
  8
0
100
AcDbBlockEnd
  0
ENDSEC
  0
SECTION
  2
ENTITIES
  0
TEXT
  5
31C
330
552
100
AcDbEntity
  8
MOJI1
100
AcDbText
 10
26.99999999999955
 20
109.0
 30
0.0
 40
4.0
  1
液晶ディスプレイ（黒）
100
AcDbText
  0
DIMENSION
  5
31E
330
552
100
AcDbEntity
  8
SUNPO
100
AcDbDimension
  2
*D6
 10
74.7621694374518
 20
53.22176875673773
 30
0.0
 11
73.01216943745179
 21
65.71176875213639
 31
0.0
 70
    33
  1
499.6
 71
     5
 42
24.9799999907973
  3
STANDARD
100
AcDbAlignedDimension
 13
66.7621694374518
 23
78.20176874753503
 33
0.0
 14
66.7621694374518
 24
53.22176875673773
 34
0.0
1001
ACAD
1000
DSTYLE
1002
{
1070
    40
1040
1.0
1070
   140
1040
2.5
1070
   147
1040
0.5
1070
   172
1070
     1
1070
   279
1070
     0
1070
   343
1005
565
1070
   344
1005
565
1002
}
  0
LINE
  5
334
330
552
100
AcDbEntity
  8
GAIKEI
 62
     1
100
AcDbLine
 10
93.84689775802392
 20
60.50220492553393
 30
0.0
 11
93.84689775802383
 21
68.38455087639504
 31
0.0
  0
LINE
  5
336
330
552
100
AcDbEntity
  8
GAIKEI
 62
     1
100
AcDbLine
 10
93.25541031693207
 20
60.24761356030182
 30
0.0
 11
93.25541031693207
 21
68.62924447327549
 31
0.0
  0
LINE
  5
337
330
552
100
AcDbEntity
  8
GAIKEI
100
AcDbLine
 10
64.10847715108321
 20
75.52447476982229
 30
0.0
 11
64.10847715108321
 21
55.89898437098457
 31
0.0
  0
LINE
  5
338
330
552
100
AcDbEntity
  8
GAIKEI
 62
     1
100
AcDbLine
 10
65.36694889688613
 20
54.79828496498953
 30
0.0
 11
65.36694889688613
 21
76.62509581235129
 31
0.0
  0
LINE
  5
339
330
552
100
AcDbEntity
  8
GAIKEI
 62
     1
100
AcDbLine
 10
65.36694889688613
 20
54.79828496498953
 30
0.0
 11
65.36694889688613
 21
76.62509581235129
 31
0.0
  0
LINE
  5
33A
330
552
100
AcDbEntity
  8
GAIKEI
 62
     1
100
AcDbLine
 10
66.30237359009129
 20
77.56230848476993
 30
0.0
 11
66.30237359009129
 21
53.8557435768854
 31
0.0
  0
LINE
  5
33B
330
552
100
AcDbEntity
  8
GAIKEI
 62
     1
100
AcDbLine
 10
66.57797789988457
 20
53.59612541414867
 30
0.0
 11
66.57797789988457
 21
77.83767770416535
 31
0.0
  0
LINE
  5
33C
330
552
100
AcDbEntity
  8
GAIKEI
100
AcDbLine
 10
66.76847948564159
 20
53.39676875673774
 30
0.0
 11
66.76847948564159
 21
78.02676874753501
 31
0.0
  0
LINE
  5
33D
330
552
100
AcDbEntity
  8
GAIKEI
 62
     1
100
AcDbLine
 10
26.98458071207506
 20
77.56230848476993
 30
0.0
 11
26.98458071207506
 21
53.8557435768854
 31
0.0
  0
LINE
  5
33E
330
552
100
AcDbEntity
  8
GAIKEI
100
AcDbLine
 10
89.05580572958696
 20
77.56608431163987
 30
0.0
 11
89.05580572958696
 21
53.85729646570098
 31
0.0
  0
LINE
  5
33F
330
552
100
AcDbEntity
  8
GAIKEI
100
AcDbLine
 10
89.05580572958696
 20
53.85729646570098
 30
0.0
 11
89.05580572958696
 21
77.56608431163987
 31
0.0
  0
LINE
  5
340
330
552
100
AcDbEntity
  8
GAIKEI
100
AcDbLine
 10
91.64363054899672
 20
78.15216467358016
 30
0.0
 11
91.64363054899672
 21
53.27194257166714
 31
0.0
  0
LINE
  5
341
330
552
100
AcDbEntity
  8
GAIKEI
100
AcDbLine
 10
94.15580654085172
 20
54.96549471554681
 30
0.0
 11
94.15580654085172
 21
73.63278686453861
 31
0.0
  0
LINE
  5
342
330
552
100
AcDbEntity
  8
GAIKEI
 62
     1
100
AcDbLine
 10
26.70897640228179
 20
53.59612541414867
 30
0.0
 11
26.70897640228191
 21
77.83767770416535
 31
0.0
  0
LINE
  5
343
330
552
100
AcDbEntity
  8
GAIKEI
100
AcDbLine
 10
26.51847481652476
 20
53.39676875673774
 30
0.0
 11
26.51847481652476
 21
78.02676874753501
 31
0.0
  0
LINE
  5
344
330
552
100
AcDbEntity
  8
GAIKEI
 62
     1
100
AcDbLine
 10
27.92000540528035
 20
54.79828496498953
 30
0.0
 11
27.92000540528035
 21
76.62509581235129
 31
0.0
  0
LINE
  5
345
330
552
100
AcDbEntity
  8
GAIKEI
 62
     1
100
AcDbLine
 10
27.92000540528035
 20
54.79828496498953
 30
0.0
 11
27.92000540528035
 21
76.62509581235129
 31
0.0
  0
LINE
  5
346
330
552
100
AcDbEntity
  8
GAIKEI
100
AcDbLine
 10
29.17847715108326
 20
75.52447476982229
 30
0.0
 11
29.17847715108326
 21
55.89898437098457
 31
0.0
  0
LINE
  5
347
330
552
100
AcDbEntity
  8
GAIKEI
100
AcDbLine
 10
26.69347481652483
 20
53.22176875673773
 30
0.0
 11
66.58749610129882
 21
53.22176875673773
 31
0.0
  0
LINE
  5
348
330
552
100
AcDbEntity
  8
GAIKEI
 62
     1
100
AcDbLine
 10
65.22115070876089
 20
54.62188880310589
 30
0.0
 11
28.09499102477662
 21
54.62188880310589
 31
0.0
  0
LINE
  5
349
330
552
100
AcDbEntity
  8
GAIKEI
 62
     1
100
AcDbLine
 10
65.22115070876089
 20
54.62188880310589
 30
0.0
 11
28.09499102477662
 21
54.62188880310589
 31
0.0
  0
LINE
  5
34A
330
552
100
AcDbEntity
  8
GAIKEI
 62
     1
100
AcDbLine
 10
26.88397640228186
 20
53.42112541414866
 30
0.0
 11
66.39879687525899
 21
53.42112541414866
 31
0.0
  0
LINE
  5
34B
330
552
100
AcDbEntity
  8
GAIKEI
 62
     1
100
AcDbLine
 10
27.15958071207513
 20
53.6807435768854
 30
0.0
 11
66.12737359009134
 21
53.6807435768854
 31
0.0
  0
LINE
  5
34C
330
552
100
AcDbEntity
  8
GAIKEI
100
AcDbLine
 10
29.25347715108319
 20
55.82398437098459
 30
0.0
 11
64.07187211694156
 21
55.82398437098459
 31
0.0
  0
LINE
  5
34D
330
552
100
AcDbEntity
  8
GAIKEI
 62
     1
100
AcDbLine
 10
29.95702829122524
 20
54.09724539848094
 30
0.0
 11
30.24830529421115
 21
54.09724539848094
 31
0.0
  0
LINE
  5
34E
330
552
100
AcDbEntity
  8
GAIKEI
 62
     1
100
AcDbLine
 10
30.24830529421115
 20
53.79727005077302
 30
0.0
 11
29.95702829122524
 21
53.79727005077302
 31
0.0
  0
ARC
  5
34F
330
552
100
AcDbEntity
  8
GAIKEI
100
AcDbCircle
 10
26.69347481652483
 20
53.39676875673774
 30
0.0
 40
0.175
100
AcDbArc
 50
180.0
 51
270.0
  0
ARC
  5
350
330
552
100
AcDbEntity
  8
GAIKEI
 62
     1
100
AcDbCircle
 10
26.88397640228186
 20
53.59612541414867
 30
0.0
 40
0.175
100
AcDbArc
 50
179.9999999999999
 51
270.0
  0
ARC
  5
351
330
552
100
AcDbEntity
  8
GAIKEI
 62
     1
100
AcDbCircle
 10
27.15958071207513
 20
53.8557435768854
 30
0.0
 40
0.175
100
AcDbArc
 50
180.0
 51
270.0
  0
LINE
  5
352
330
552
100
AcDbEntity
  8
GAIKEI
 62
     1
100
AcDbLine
 10
29.95702829122524
 20
54.09724539848094
 30
0.0
 11
29.95702829122524
 21
54.08133761489034
 31
0.0
  0
LINE
  5
353
330
552
100
AcDbEntity
  8
GAIKEI
 62
     1
100
AcDbLine
 10
29.95702829122524
 20
53.80628184935882
 30
0.0
 11
29.95702829122524
 21
54.08133761489034
 31
0.0
  0
LINE
  5
354
330
552
100
AcDbEntity
  8
GAIKEI
 62
     1
100
AcDbLine
 10
29.95702829122524
 20
53.80628184935882
 30
0.0
 11
29.95702829122524
 21
53.79727005077302
 31
0.0
  0
LINE
  5
355
330
552
100
AcDbEntity
  8
GAIKEI
 62
     1
100
AcDbLine
 10
29.37267192553611
 20
54.09724539848094
 30
0.0
 11
29.65689621658532
 21
54.09724539848094
 31
0.0
  0
LWPOLYLINE
  5
356
330
552
100
AcDbEntity
  8
GAIKEI
 62
     1
100
AcDbPolyline
 90
        3
 70
     0
 43
0.0
 10
29.37267192553611
 20
54.09724539848094
 10
29.35676414194552
 20
54.09724539848094
 10
29.35676414194552
 20
54.08133761489034
  0
LINE
  5
357
330
552
100
AcDbEntity
  8
GAIKEI
 62
     1
100
AcDbLine
 10
29.35676414194552
 20
53.80628184935882
 30
0.0
 11
29.35676414194552
 21
54.08133761489034
 31
0.0
  0
LWPOLYLINE
  5
358
330
552
100
AcDbEntity
  8
GAIKEI
 62
     1
100
AcDbPolyline
 90
        3
 70
     0
 43
0.0
 10
29.35676414194552
 20
53.80628184935882
 10
29.35676414194552
 20
53.79727005077302
 10
29.37267192553611
 20
53.79727005077302
  0
LINE
  5
359
330
552
100
AcDbEntity
  8
GAIKEI
 62
     1
100
AcDbLine
 10
29.65689621658532
 20
53.79727005077302
 30
0.0
 11
29.37267192553611
 21
53.79727005077302
 31
0.0
  0
LWPOLYLINE
  5
35A
330
552
100
AcDbEntity
  8
GAIKEI
 62
     1
100
AcDbPolyline
 90
        3
 70
     0
 43
0.0
 10
29.65689621658532
 20
53.79727005077302
 10
29.67280400017592
 20
53.79727005077302
 10
29.67280400017592
 20
53.80628184935882
  0
LINE
  5
35B
330
552
100
AcDbEntity
  8
GAIKEI
 62
     1
100
AcDbLine
 10
29.67280400017592
 20
54.08133761489034
 30
0.0
 11
29.67280400017592
 21
53.80628184935882
 31
0.0
  0
LWPOLYLINE
  5
35C
330
552
100
AcDbEntity
  8
GAIKEI
 62
     1
100
AcDbPolyline
 90
        3
 70
     0
 43
0.0
 10
29.67280400017592
 20
54.08133761489034
 10
29.67280400017592
 20
54.09724539848094
 10
29.65689621658532
 20
54.09724539848094
  0
LWPOLYLINE
  5
35D
330
552
100
AcDbEntity
  8
GAIKEI
 62
     1
100
AcDbPolyline
 90
        3
 70
     0
 43
0.0
 10
28.09499102477662
 20
54.62188880310595
 10
27.96960947923515
 20
54.67290341944812
 10
27.92000540528035
 20
54.79828496498953
  0
LWPOLYLINE
  5
35E
330
552
100
AcDbEntity
  8
GAIKEI
 62
     1
100
AcDbPolyline
 90
        3
 70
     0
 43
0.0
 10
28.09499102477662
 20
54.62188880310595
 10
27.96960947923515
 20
54.67290341944812
 10
27.92000540528035
 20
54.79828496498953
  0
LINE
  5
35F
330
552
100
AcDbEntity
  8
GAIKEI
 62
     1
100
AcDbLine
 10
27.03238242631278
 20
53.72815347379328
 30
0.0
 11
26.53900604460716
 21
53.32097690464741
 31
0.0
  0
LINE
  5
360
330
552
100
AcDbEntity
  8
GAIKEI
 62
     1
100
AcDbLine
 10
30.25692527546721
 20
54.08133761489034
 30
0.0
 11
30.25692527546721
 21
53.80628184935882
 31
0.0
  0
LWPOLYLINE
  5
361
330
552
100
AcDbEntity
  8
GAIKEI
 62
     1
100
AcDbPolyline
 90
        3
 70
     0
 43
0.0
 10
30.25692527546721
 20
54.08133761489034
 10
30.25692527546721
 20
54.09724539848094
 10
30.24830529421115
 20
54.09724539848094
  0
ARC
  5
362
330
552
100
AcDbEntity
  8
GAIKEI
100
AcDbCircle
 10
29.25347715108319
 20
55.89898437098457
 30
0.0
 40
0.075
100
AcDbArc
 50
180.0
 51
270.0
  0
LWPOLYLINE
  5
363
330
552
100
AcDbEntity
  8
GAIKEI
 62
     1
100
AcDbPolyline
 90
        3
 70
     0
 43
0.0
 10
65.19196327738985
 20
54.62188880310595
 10
65.31734482293121
 20
54.67290341944812
 10
65.36694889688613
 20
54.79828496498953
  0
LWPOLYLINE
  5
364
330
552
100
AcDbEntity
  8
GAIKEI
 62
     1
100
AcDbPolyline
 90
        3
 70
     0
 43
0.0
 10
65.19196327738985
 20
54.62188880310595
 10
65.31734482293121
 20
54.67290341944812
 10
65.36694889688613
 20
54.79828496498953
  0
ARC
  5
365
330
552
100
AcDbEntity
  8
GAIKEI
100
AcDbCircle
 10
64.03347715108316
 20
55.89898437098457
 30
0.0
 40
0.075
100
AcDbArc
 50
270.0
 51
0.000000000000007
  0
LINE
  5
366
330
552
100
AcDbEntity
  8
GAIKEI
 62
     1
100
AcDbLine
 10
66.25057062885957
 20
53.73145564650298
 30
0.0
 11
66.7479482575593
 21
53.32097690464741
 31
0.0
  0
ARC
  5
367
330
552
100
AcDbEntity
  8
GAIKEI
 62
     1
100
AcDbCircle
 10
66.12737359009134
 20
53.8557435768854
 30
0.0
 40
0.175
100
AcDbArc
 50
270.0
 51
0.000000000000007
  0
ARC
  5
368
330
552
100
AcDbEntity
  8
GAIKEI
 62
     1
100
AcDbCircle
 10
66.4029778998846
 20
53.59612541414867
 30
0.0
 40
0.175
100
AcDbArc
 50
270.0
 51
0.0000000000000579
  0
ARC
  5
369
330
552
100
AcDbEntity
  8
GAIKEI
100
AcDbCircle
 10
66.59347948564164
 20
53.39676875673774
 30
0.0
 40
0.175
100
AcDbArc
 50
270.0
 51
0.000000000000007
  0
LINE
  5
36A
330
552
100
AcDbEntity
  8
GAIKEI
 62
     1
100
AcDbLine
 10
93.14601491844713
 20
54.72099922841016
 30
0.0
 11
93.14601491844713
 21
58.27589885751359
 31
0.0
  0
LINE
  5
36B
330
552
100
AcDbEntity
  8
GAIKEI
100
AcDbLine
 10
91.59018196575836
 20
53.22206164070502
 30
0.0
 11
89.25874917965598
 21
53.38324828803735
 31
0.0
  0
LINE
  5
36C
330
552
100
AcDbEntity
  8
GAIKEI
100
AcDbLine
 10
89.05580572958696
 20
53.85729646570098
 30
0.0
 11
89.05580572958696
 21
53.65590235817501
 31
0.0
  0
LINE
  5
36D
330
552
100
AcDbEntity
  8
GAIKEI
100
AcDbLine
 10
89.05580572958696
 20
53.6807435768854
 30
0.0
 11
89.05580572958696
 21
53.85729646570098
 31
0.0
  0
LINE
  5
36E
330
552
100
AcDbEntity
  8
GAIKEI
100
AcDbLine
 10
89.25874917965598
 20
53.38324828803735
 30
0.0
 11
89.05580572958696
 21
53.65590235817501
 31
0.0
  0
ARC
  5
36F
330
552
100
AcDbEntity
  8
GAIKEI
100
AcDbCircle
 10
91.59363054899676
 20
53.27194257166714
 30
0.0
 40
0.05
100
AcDbArc
 50
266.0450748098697
 51
0.0
  0
ARC
  5
370
330
552
100
AcDbEntity
  8
GAIKEI
100
AcDbCircle
 10
93.95580654085163
 20
54.96549471554681
 30
0.0
 40
0.2
100
AcDbArc
 50
273.1240610370867
 51
0.0
  0
LINE
  5
371
330
552
100
AcDbEntity
  8
GAIKEI
100
AcDbLine
 10
93.9667061684528
 20
54.765791941109
 30
0.0
 11
91.64363054899672
 21
54.63900021669463
 31
0.0
  0
ARC
  5
372
330
552
100
AcDbEntity
  8
GAIKEI
 62
     1
100
AcDbCircle
 10
93.73105601175323
 20
57.98727142759788
 30
0.0
 40
0.25
100
AcDbArc
 50
290.345562189979
 51
0.0
  0
LINE
  5
373
330
552
100
AcDbEntity
  8
GAIKEI
 62
     1
100
AcDbLine
 10
93.57137181169651
 20
58.82507002698515
 30
0.0
 11
93.53277024332248
 21
59.01024289705663
 31
0.0
  0
LINE
  5
374
330
552
100
AcDbEntity
  8
GAIKEI
 62
     1
100
AcDbLine
 10
93.57137181169651
 20
58.82507002698515
 30
0.0
 11
93.55554239157198
 21
58.90100422550364
 31
0.0
  0
LINE
  5
375
330
552
100
AcDbEntity
  8
GAIKEI
 62
     1
100
AcDbLine
 10
93.57137181169651
 20
58.63597898361541
 30
0.0
 11
93.57137181169651
 21
58.82507002698515
 31
0.0
  0
LINE
  5
376
330
552
100
AcDbEntity
  8
GAIKEI
 62
     1
100
AcDbLine
 10
93.57137181169651
 20
58.55142480384092
 30
0.0
 11
93.57137181169651
 21
58.63597898361541
 31
0.0
  0
LINE
  5
377
330
552
100
AcDbEntity
  8
GAIKEI
 62
     1
100
AcDbLine
 10
93.55554239157198
 20
58.37487191502532
 30
0.0
 11
93.57137181169651
 21
58.55142480384092
 31
0.0
  0
LINE
  5
378
330
552
100
AcDbEntity
  8
GAIKEI
 62
     1
100
AcDbLine
 10
93.52396328000576
 20
58.26014780085495
 30
0.0
 11
93.55554239157198
 21
58.37487191502532
 31
0.0
  0
ARC
  5
379
330
552
100
AcDbEntity
  8
GAIKEI
 62
     1
100
AcDbCircle
 10
93.8058065408517
 20
58.12164392358915
 30
0.0
 40
0.35
100
AcDbArc
 50
290.3455621899794
 51
0.0
  0
ARC
  5
37A
330
552
100
AcDbEntity
  8
GAIKEI
 62
     1
100
AcDbCircle
 10
93.49601491844714
 20
57.26019150448975
 30
0.0
 40
0.35
100
AcDbArc
 50
110.3455621899789
 51
180.0
  0
LINE
  5
37B
330
552
100
AcDbEntity
  8
GAIKEI
 62
     1
100
AcDbLine
 10
93.14601491844713
 20
58.27589885751359
 30
0.0
 11
93.2713964639886
 21
58.26014780085495
 31
0.0
  0
LINE
  5
37C
330
552
100
AcDbEntity
  8
GAIKEI
 62
     1
100
AcDbLine
 10
93.37432644221063
 20
57.58835596745189
 30
0.0
 11
93.92749501708818
 21
57.793479460627
 31
0.0
  0
LINE
  5
37D
330
552
100
AcDbEntity
  8
GAIKEI
 62
     1
100
AcDbLine
 10
93.45664769752614
 20
58.26014780085495
 30
0.0
 11
93.52396328000576
 21
58.26014780085495
 31
0.0
  0
LINE
  5
37E
330
552
100
AcDbEntity
  8
GAIKEI
 62
     1
100
AcDbLine
 10
93.98105601175323
 20
57.98727142759788
 30
0.0
 11
93.98105601175323
 21
59.92662526803275
 31
0.0
  0
LWPOLYLINE
  5
37F
330
552
100
AcDbEntity
  8
GAIKEI
 62
     1
100
AcDbPolyline
 90
        3
 70
     0
 43
0.0
 10
93.97212257663341
 20
60.18616506730353
 10
93.97212257663341
 20
60.3026915411911
 10
93.90692417295189
 20
60.50220492553393
  0
LWPOLYLINE
  5
380
330
552
100
AcDbEntity
  8
GAIKEI
 62
     1
100
AcDbPolyline
 90
        3
 70
     0
 43
0.0
 10
93.98105601175323
 20
59.92662526803268
 10
93.97212257663341
 20
60.18616506730353
 10
93.97212257663341
 20
60.3026915411911
  0
LINE
  5
381
330
552
100
AcDbEntity
  8
GAIKEI
 62
     1
100
AcDbLine
 10
93.4301608460305
 20
58.26014780085495
 30
0.0
 11
93.45664769752614
 21
58.26014780085495
 31
0.0
  0
LINE
  5
382
330
552
100
AcDbEntity
  8
GAIKEI
 62
     1
100
AcDbLine
 10
93.4301608460305
 20
58.26014780085495
 30
0.0
 11
93.42154086477444
 21
58.26014780085495
 31
0.0
  0
LINE
  5
383
330
552
100
AcDbEntity
  8
GAIKEI
 62
     1
100
AcDbLine
 10
93.2713964639886
 20
59.01024289705668
 30
0.0
 11
93.32092217447744
 21
59.01024289705668
 31
0.0
  0
LINE
  5
384
330
552
100
AcDbEntity
  8
GAIKEI
 62
     1
100
AcDbLine
 10
93.32092217447744
 20
58.26014780085495
 30
0.0
 11
93.2713964639886
 21
58.26014780085495
 31
0.0
  0
LINE
  5
385
330
552
100
AcDbEntity
  8
GAIKEI
 62
     1
100
AcDbLine
 10
93.32092217447744
 20
59.01024289705668
 30
0.0
 11
93.53277024332248
 21
59.01024289705663
 31
0.0
  0
LINE
  5
386
330
552
100
AcDbEntity
  8
GAIKEI
 62
     1
100
AcDbLine
 10
93.42154086477444
 20
58.26014780085495
 30
0.0
 11
93.32092217447744
 21
58.26014780085495
 31
0.0
  0
LWPOLYLINE
  5
387
330
552
100
AcDbEntity
  8
GAIKEI
 62
     1
100
AcDbPolyline
 90
        5
 70
     0
 43
0.0
 10
93.2713964639886
 20
59.01024289705668
 10
93.14601491844722
 20
59.00162291580067
 10
93.14601491844722
 20
59.9022049255339
 42
-0.4142135623730951
 10
93.74601491844714
 20
60.50220492553393
 10
93.90692417295189
 20
60.50220492553393
  0
DIMENSION
  5
388
330
552
100
AcDbEntity
  8
SUNPO
100
AcDbDimension
  2
*D7
 10
66.76847948564159
 20
86.20176781931446
 30
0.0
 11
46.64347715108317
 21
87.95176781931445
 31
0.0
 70
    33
  1
805
 71
     5
 42
40.25000466911683
  3
STANDARD
100
AcDbAlignedDimension
 13
26.51847481652476
 23
78.20176781931445
 33
0.0
 14
66.76847948564159
 24
78.20176781931445
 34
0.0
1001
ACAD
1000
DSTYLE
1002
{
1070
    40
1040
1.0
1070
   140
1040
2.5
1070
   147
1040
0.5
1070
   172
1070
     1
1070
   279
1070
     0
1070
   343
1005
565
1070
   344
1005
565
1002
}
  0
LINE
  5
395
330
552
100
AcDbEntity
  8
GAIKEI
100
AcDbLine
 10
66.58749610129882
 20
78.20176874753503
 30
0.0
 11
26.69347481652483
 21
78.20176874753503
 31
0.0
  0
LINE
  5
396
330
552
100
AcDbEntity
  8
GAIKEI
 62
     1
100
AcDbLine
 10
28.09499102477662
 20
76.80149197423492
 30
0.0
 11
65.22115070876089
 21
76.80149197423492
 31
0.0
  0
LINE
  5
397
330
552
100
AcDbEntity
  8
GAIKEI
 62
     1
100
AcDbLine
 10
28.09499102477662
 20
76.80149197423492
 30
0.0
 11
65.22115070876089
 21
76.80149197423492
 31
0.0
  0
LINE
  5
398
330
552
100
AcDbEntity
  8
GAIKEI
 62
     1
100
AcDbLine
 10
66.39879687525899
 20
78.01267770416536
 30
0.0
 11
26.88397640228186
 21
78.01267770416536
 31
0.0
  0
LINE
  5
399
330
552
100
AcDbEntity
  8
GAIKEI
 62
     1
100
AcDbLine
 10
66.15853448861514
 20
77.73730848476994
 30
0.0
 11
27.15958071207513
 21
77.73730848476994
 31
0.0
  0
LINE
  5
39A
330
552
100
AcDbEntity
  8
GAIKEI
100
AcDbLine
 10
64.07187211694156
 20
75.59947476982222
 30
0.0
 11
29.25347715108319
 21
75.59947476982228
 31
0.0
  0
ARC
  5
39B
330
552
100
AcDbEntity
  8
GAIKEI
100
AcDbCircle
 10
26.69347481652483
 20
78.02676874753501
 30
0.0
 40
0.175
100
AcDbArc
 50
90.0
 51
180.0
  0
ARC
  5
39C
330
552
100
AcDbEntity
  8
GAIKEI
 62
     1
100
AcDbCircle
 10
27.15958071207513
 20
77.56230848476993
 30
0.0
 40
0.175
100
AcDbArc
 50
90.0
 51
180.0
  0
ARC
  5
39D
330
552
100
AcDbEntity
  8
GAIKEI
 62
     1
100
AcDbCircle
 10
26.88397640228186
 20
77.83767770416535
 30
0.0
 40
0.175
100
AcDbArc
 50
89.99999999999996
 51
179.9999999999999
  0
ARC
  5
39E
330
552
100
AcDbEntity
  8
GAIKEI
100
AcDbCircle
 10
29.25347715108319
 20
75.52447476982229
 30
0.0
 40
0.075
100
AcDbArc
 50
89.99999999999996
 51
180.0
  0
LWPOLYLINE
  5
39F
330
552
100
AcDbEntity
  8
GAIKEI
 62
     1
100
AcDbPolyline
 90
        3
 70
     0
 43
0.0
 10
27.92000540528035
 20
76.62509581235129
 10
27.96960947923515
 20
76.75047735789269
 10
28.09499102477662
 20
76.80149197423492
  0
LWPOLYLINE
  5
3A0
330
552
100
AcDbEntity
  8
GAIKEI
 62
     1
100
AcDbPolyline
 90
        3
 70
     0
 43
0.0
 10
27.92000540528035
 20
76.62509581235129
 10
27.96960947923515
 20
76.75047735789269
 10
28.09499102477662
 20
76.80149197423492
  0
LINE
  5
3A1
330
552
100
AcDbEntity
  8
GAIKEI
 62
     1
100
AcDbLine
 10
26.56549683649439
 20
78.14612802294893
 30
0.0
 11
27.04330606683834
 21
77.69309536054516
 31
0.0
  0
ARC
  5
3A2
330
552
100
AcDbEntity
  8
GAIKEI
100
AcDbCircle
 10
64.03347715108316
 20
75.52447476982229
 30
0.0
 40
0.075
100
AcDbArc
 50
0.000000000000007
 51
90.00000000000005
  0
LWPOLYLINE
  5
3A3
330
552
100
AcDbEntity
  8
GAIKEI
 62
     1
100
AcDbPolyline
 90
        3
 70
     0
 43
0.0
 10
65.36694889688613
 20
76.62509581235129
 10
65.31734482293121
 20
76.75047735789269
 10
65.19196327738985
 20
76.80149197423492
  0
LWPOLYLINE
  5
3A4
330
552
100
AcDbEntity
  8
GAIKEI
 62
     1
100
AcDbPolyline
 90
        3
 70
     0
 43
0.0
 10
65.36694889688613
 20
76.62509581235129
 10
65.31734482293121
 20
76.75047735789269
 10
65.19196327738985
 20
76.80149197423492
  0
ARC
  5
3A5
330
552
100
AcDbEntity
  8
GAIKEI
100
AcDbCircle
 10
66.59347948564164
 20
78.02676874753501
 30
0.0
 40
0.175
100
AcDbArc
 50
0.000000000000007
 51
90.0
  0
ARC
  5
3A6
330
552
100
AcDbEntity
  8
GAIKEI
 62
     1
100
AcDbCircle
 10
66.12737359009134
 20
77.56230848476993
 30
0.0
 40
0.175
100
AcDbArc
 50
0.000000000000007
 51
90.0
  0
ARC
  5
3A7
330
552
100
AcDbEntity
  8
GAIKEI
 62
     1
100
AcDbCircle
 10
66.4029778998846
 20
77.83767770416535
 30
0.0
 40
0.175
100
AcDbArc
 50
0.0000000000000579
 51
90.00000000000005
  0
LINE
  5
3A8
330
552
100
AcDbEntity
  8
GAIKEI
 62
     1
100
AcDbLine
 10
66.72145746567207
 20
78.14612802294893
 30
0.0
 11
66.24364823532812
 21
77.69309536054516
 31
0.0
  0
DIMENSION
  5
3A9
330
552
100
AcDbEntity
  8
SUNPO
100
AcDbDimension
  2
*D8
 10
94.15580654085172
 20
86.20176781931446
 30
0.0
 11
99.98913987418504
 21
87.95176781931445
 31
0.0
 70
    33
  1
102
 71
     5
 42
5.100000811264763
  3
STANDARD
100
AcDbAlignedDimension
 13
89.05580572958696
 23
78.20176781931445
 33
0.0
 14
94.15580654085172
 24
78.20176781931445
 34
0.0
1001
ACAD
1000
DSTYLE
1002
{
1070
    40
1040
1.0
1070
   140
1040
2.5
1070
   147
1040
0.5
1070
   172
1070
     1
1070
   279
1070
     0
1070
   343
1005
565
1070
   344
1005
565
1002
}
  0
LINE
  5
3B7
330
552
100
AcDbEntity
  8
GAIKEI
 62
     1
100
AcDbLine
 10
93.97393601175314
 20
75.30951488351046
 30
0.0
 11
93.97393601175327
 21
68.96013053389629
 31
0.0
  0
LINE
  5
3B8
330
552
100
AcDbEntity
  8
GAIKEI
 62
     1
100
AcDbLine
 10
93.70553006542593
 20
71.23721571003733
 30
0.0
 11
93.70553006542593
 21
68.38547927250878
 31
0.0
  0
LINE
  5
3B9
330
552
100
AcDbEntity
  8
GAIKEI
 62
     1
100
AcDbLine
 10
93.20953960644315
 20
70.91083229212336
 30
0.0
 11
91.69853525573683
 21
70.58601572570501
 31
0.0
  0
LINE
  5
3BA
330
552
100
AcDbEntity
  8
GAIKEI
 62
     1
100
AcDbLine
 10
93.14601491844713
 20
70.33509548986661
 30
0.0
 11
93.14601491844713
 21
70.73584625480346
 31
0.0
  0
LINE
  5
3BB
330
552
100
AcDbEntity
  8
GAIKEI
 62
     1
100
AcDbLine
 10
93.14601491844713
 20
70.48531825411841
 30
0.0
 11
93.14601491844713
 21
70.8718068682499
 31
0.0
  0
LINE
  5
3BC
330
552
100
AcDbEntity
  8
GAIKEI
 62
     1
100
AcDbLine
 10
93.14601491844713
 20
69.83552839434981
 30
0.0
 11
93.14601491844713
 21
70.48531825411841
 31
0.0
  0
LWPOLYLINE
  5
3BD
330
552
100
AcDbEntity
  8
GAIKEI
 62
     1
100
AcDbPolyline
 90
        3
 70
     0
 43
0.0
 10
93.9650025766334
 20
68.70059073462551
 10
93.9650025766334
 20
68.58406426073793
 10
93.89980417295193
 20
68.38455087639504
  0
LINE
  5
3BE
330
552
100
AcDbEntity
  8
GAIKEI
 62
     1
100
AcDbLine
 10
93.41442086477446
 20
69.83852235233718
 30
0.0
 11
93.31380217447749
 21
69.83852235233718
 31
0.0
  0
LINE
  5
3BF
330
552
100
AcDbEntity
  8
GAIKEI
 62
     1
100
AcDbLine
 10
93.31380217447749
 20
69.83852235233718
 30
0.0
 11
93.2642764639886
 21
69.83852235233718
 31
0.0
  0
LINE
  5
3C0
330
552
100
AcDbEntity
  8
GAIKEI
 62
     1
100
AcDbLine
 10
93.2642764639886
 20
69.08842725613546
 30
0.0
 11
93.31380217447749
 21
69.08842725613546
 31
0.0
  0
LINE
  5
3C1
330
552
100
AcDbEntity
  8
GAIKEI
 62
     1
100
AcDbLine
 10
93.42304084603052
 20
69.83852235233718
 30
0.0
 11
93.41442086477446
 21
69.83852235233718
 31
0.0
  0
LINE
  5
3C2
330
552
100
AcDbEntity
  8
GAIKEI
 62
     1
100
AcDbLine
 10
93.42304084603052
 20
69.83852235233718
 30
0.0
 11
93.44952769752614
 21
69.83852235233718
 31
0.0
  0
LINE
  5
3C3
330
552
100
AcDbEntity
  8
GAIKEI
 62
     1
100
AcDbLine
 10
93.13889491844713
 20
69.82277129567854
 30
0.0
 11
93.2642764639886
 21
69.83852235233718
 31
0.0
  0
LINE
  5
3C4
330
552
100
AcDbEntity
  8
GAIKEI
 62
     1
100
AcDbLine
 10
93.54842239157189
 20
69.72379823816675
 30
0.0
 11
93.56425181169651
 21
69.54724534935121
 31
0.0
  0
LINE
  5
3C5
330
552
100
AcDbEntity
  8
GAIKEI
 62
     1
100
AcDbLine
 10
93.56425181169651
 20
69.54724534935121
 30
0.0
 11
93.56425181169651
 21
69.46269116957672
 31
0.0
  0
LINE
  5
3C6
330
552
100
AcDbEntity
  8
GAIKEI
 62
     1
100
AcDbLine
 10
93.56425181169651
 20
69.46269116957672
 30
0.0
 11
93.56425181169651
 21
69.27360012620699
 31
0.0
  0
LINE
  5
3C7
330
552
100
AcDbEntity
  8
GAIKEI
 62
     1
100
AcDbLine
 10
93.56425181169651
 20
69.27360012620699
 30
0.0
 11
93.54842239157189
 21
69.19766592768849
 31
0.0
  0
LINE
  5
3C8
330
552
100
AcDbEntity
  8
GAIKEI
 62
     1
100
AcDbLine
 10
93.44952769752614
 20
69.83852235233718
 30
0.0
 11
93.5168432800058
 21
69.83852235233718
 31
0.0
  0
LINE
  5
3C9
330
552
100
AcDbEntity
  8
GAIKEI
 62
     1
100
AcDbLine
 10
93.5168432800058
 20
69.83852235233718
 30
0.0
 11
93.54842239157189
 21
69.72379823816675
 31
0.0
  0
LINE
  5
3CA
330
552
100
AcDbEntity
  8
GAIKEI
 62
     1
100
AcDbLine
 10
93.31380217447749
 20
69.08842725613546
 30
0.0
 11
93.5256502433225
 21
69.08842725613546
 31
0.0
  0
LINE
  5
3CB
330
552
100
AcDbEntity
  8
GAIKEI
 62
     1
100
AcDbLine
 10
93.56425181169651
 20
69.27360012620699
 30
0.0
 11
93.5256502433225
 21
69.08842725613546
 31
0.0
  0
LWPOLYLINE
  5
3CC
330
552
100
AcDbEntity
  8
GAIKEI
 62
     1
100
AcDbPolyline
 90
        3
 70
     0
 43
0.0
 10
93.97393601175327
 20
68.96013053389629
 10
93.9650025766334
 20
68.70059073462551
 10
93.9650025766334
 20
68.58406426073793
  0
LWPOLYLINE
  5
3CD
330
552
100
AcDbEntity
  8
GAIKEI
 62
     1
100
AcDbPolyline
 90
        5
 70
     0
 43
0.0
 10
93.2642764639886
 20
69.08842725613546
 10
93.13889491844713
 20
69.09704723739138
 10
93.13889491844713
 20
68.98455087639508
 42
0.4142135623730951
 10
93.73889491844714
 20
68.38455087639511
 10
93.89980417295193
 20
68.38455087639504
  0
LINE
  5
3CE
330
552
100
AcDbEntity
  8
GAIKEI
 62
     1
100
AcDbLine
 10
91.69853525573683
 20
70.58601572570501
 30
0.0
 11
91.64728554899673
 21
70.58601572570501
 31
0.0
  0
LINE
  5
3CF
330
552
100
AcDbEntity
  8
GAIKEI
100
AcDbLine
 10
89.29699003223856
 20
78.04277640476676
 30
0.0
 11
91.59441829237177
 21
78.20176874753503
 31
0.0
  0
ARC
  5
3D0
330
552
100
AcDbEntity
  8
GAIKEI
100
AcDbCircle
 10
89.15580572958687
 20
77.73057811625894
 30
0.0
 40
0.1
100
AcDbArc
 50
145.119923093765
 51
180.0
  0
ARC
  5
3D1
330
552
100
AcDbEntity
  8
GAIKEI
100
AcDbCircle
 10
89.30389396824955
 20
77.94301501109385
 30
0.0
 40
0.1
100
AcDbArc
 50
93.95881311526975
 51
145.1199230937681
  0
LINE
  5
3D2
330
552
100
AcDbEntity
  8
GAIKEI
100
AcDbLine
 10
89.05580572958696
 20
77.73057811625894
 30
0.0
 11
89.05580572958696
 21
77.56608431163987
 31
0.0
  0
LINE
  5
3D3
330
552
100
AcDbEntity
  8
GAIKEI
100
AcDbLine
 10
89.05580572958696
 20
77.56608431163987
 30
0.0
 11
89.05580572958696
 21
77.73730848476994
 31
0.0
  0
LINE
  5
3D4
330
552
100
AcDbEntity
  8
GAIKEI
100
AcDbLine
 10
89.07377065209688
 20
77.78776418153019
 30
0.0
 11
89.22185889075956
 21
78.00020107636509
 31
0.0
  0
LINE
  5
3D5
330
552
100
AcDbEntity
  8
GAIKEI
 62
     1
100
AcDbLine
 10
93.69760833358951
 20
71.26734658291486
 30
0.0
 11
93.70553006542593
 21
71.23721571003733
 31
0.0
  0
ARC
  5
3D6
330
552
100
AcDbEntity
  8
GAIKEI
 62
     1
100
AcDbCircle
 10
93.79432166625143
 20
71.2927735623939
 30
0.0
 40
0.0999999999999954
100
AcDbArc
 50
190.8786576561351
 51
194.7303213807974
  0
LINE
  5
3D7
330
552
100
AcDbEntity
  8
GAIKEI
 62
     1
100
AcDbLine
 10
93.64550365049796
 20
71.53726942121119
 30
0.0
 11
93.69611875809935
 21
71.27390059679555
 31
0.0
  0
LINE
  5
3D8
330
552
100
AcDbEntity
  8
GAIKEI
 62
     1
100
AcDbLine
 10
93.56808500650313
 20
71.8057271887477
 30
0.0
 11
93.64550365049796
 21
71.53726942121119
 31
0.0
  0
LINE
  5
3D9
330
552
100
AcDbEntity
  8
GAIKEI
 62
     1
100
AcDbLine
 10
92.01961845868913
 20
71.70495319268088
 30
0.0
 11
92.01961845868913
 21
76.23405131549231
 31
0.0
  0
ARC
  5
3DA
330
552
100
AcDbEntity
  8
GAIKEI
 62
     1
100
AcDbCircle
 10
92.2196184586892
 20
71.70495319268088
 30
0.0
 40
0.2000000000000053
100
AcDbArc
 50
180.0
 51
225.0438376192317
  0
LINE
  5
3DB
330
552
100
AcDbEntity
  8
GAIKEI
 62
     1
100
AcDbLine
 10
92.09563102067363
 20
71.54612449286503
 30
0.0
 11
92.07830534684081
 21
71.56342367484194
 31
0.0
  0
LINE
  5
3DC
330
552
100
AcDbEntity
  8
GAIKEI
 62
     1
100
AcDbLine
 10
92.45394853410857
 20
71.27633148993254
 30
0.0
 11
92.09563102067363
 21
71.54612449286503
 31
0.0
  0
ARC
  5
3DD
330
552
100
AcDbEntity
  8
GAIKEI
 62
     1
100
AcDbCircle
 10
92.81781887048952
 20
71.48483451292844
 30
0.0
 40
0.2
100
AcDbArc
 50
271.3301758430649
 51
352.4408916027085
  0
ARC
  5
3DE
330
552
100
AcDbEntity
  8
GAIKEI
 62
     1
100
AcDbCircle
 10
91.92314138404936
 20
71.46405999435838
 30
0.0
 40
0.2
100
AcDbArc
 50
180.0000000000002
 51
271.3301758430642
  0
LINE
  5
3DF
330
552
100
AcDbEntity
  8
GAIKEI
 62
     1
100
AcDbLine
 10
92.82246164302126
 20
71.28488840853219
 30
0.0
 11
91.92778415658109
 21
71.26411388996213
 31
0.0
  0
LINE
  5
3E0
330
552
100
AcDbEntity
  8
GAIKEI
 62
     1
100
AcDbLine
 10
92.22978927440307
 20
72.09480310849045
 30
0.0
 11
92.22978927440307
 21
76.38206418776015
 31
0.0
  0
ARC
  5
3E1
330
552
100
AcDbEntity
  8
GAIKEI
 62
     1
100
AcDbCircle
 10
92.42978927440301
 20
72.09480310849045
 30
0.0
 40
0.1999999999999956
100
AcDbArc
 50
180.0
 51
239.2934471721144
  0
LINE
  5
3E2
330
552
100
AcDbEntity
  8
GAIKEI
 62
     1
100
AcDbLine
 10
93.02870988503537
 20
71.50648352853153
 30
0.0
 11
92.32766102349909
 21
71.92284433329331
 31
0.0
  0
ARC
  5
3E3
330
552
100
AcDbEntity
  8
GAIKEI
 62
     1
100
AcDbCircle
 10
92.16961845868922
 20
76.23405131549231
 30
0.0
 40
0.15
100
AcDbArc
 50
88.02358318460569
 51
180.0
  0
ARC
  5
3E4
330
552
100
AcDbEntity
  8
GAIKEI
 62
     1
100
AcDbCircle
 10
91.79363054899681
 20
76.4857532437223
 30
0.0
 40
0.15
100
AcDbArc
 50
90.0
 51
180.0
  0
ARC
  5
3E5
330
552
100
AcDbEntity
  8
GAIKEI
 62
     1
100
AcDbCircle
 10
92.86485444253163
 20
76.21014893392902
 30
0.0
 40
0.15
100
AcDbArc
 50
7.511020752511455
 51
90.0
  0
ARC
  5
3E6
330
552
100
AcDbEntity
  8
GAIKEI
 62
     1
100
AcDbCircle
 10
91.87314138404927
 20
76.23499015263941
 30
0.0
 40
0.15
100
AcDbArc
 50
90.0
 51
180.0000000000001
  0
LINE
  5
3E7
330
552
100
AcDbEntity
  8
GAIKEI
 62
     1
100
AcDbLine
 10
91.79363054899681
 20
76.63575324372231
 30
0.0
 11
92.90590925873528
 21
76.61099038847783
 31
0.0
  0
LINE
  5
3E8
330
552
100
AcDbEntity
  8
GAIKEI
 62
     1
100
AcDbLine
 10
93.25541031693207
 20
76.35129386227515
 30
0.0
 11
93.28001644524453
 21
76.26148933028105
 31
0.0
  0
LINE
  5
3E9
330
552
100
AcDbEntity
  8
GAIKEI
 62
     1
100
AcDbLine
 10
93.08081651476562
 20
76.55096397354987
 30
0.0
 11
93.25541031693207
 21
76.35129386227515
 31
0.0
  0
LINE
  5
3EA
330
552
100
AcDbEntity
  8
GAIKEI
 62
     1
100
AcDbLine
 10
92.90590925873528
 20
76.61099038847783
 30
0.0
 11
93.08081651476562
 21
76.55096397354987
 31
0.0
  0
LINE
  5
3EB
330
552
100
AcDbEntity
  8
GAIKEI
 62
     1
100
AcDbLine
 10
92.14500000423059
 20
76.38499015263938
 30
0.0
 11
91.87314138404927
 21
76.38499015263938
 31
0.0
  0
LINE
  5
3EC
330
552
100
AcDbEntity
  8
GAIKEI
 62
     1
100
AcDbLine
 10
92.86485444253163
 20
76.36014893392901
 30
0.0
 11
92.14500000423059
 21
76.38499015263938
 31
0.0
  0
LINE
  5
3ED
330
552
100
AcDbEntity
  8
GAIKEI
 62
     1
100
AcDbLine
 10
91.72314138404932
 20
76.23499015263941
 30
0.0
 11
91.72314138404932
 21
71.46405999435838
 31
0.0
  0
LINE
  5
3EE
330
552
100
AcDbEntity
  8
GAIKEI
 62
     1
100
AcDbLine
 10
92.14500000423059
 20
76.38499015263938
 30
0.0
 11
91.97024947513217
 21
76.38499015263938
 31
0.0
  0
LINE
  5
3EF
330
552
100
AcDbEntity
  8
GAIKEI
 62
     1
100
AcDbLine
 10
93.29615931923306
 20
73.58882496013314
 30
0.0
 11
93.28001644524453
 21
73.44745726753519
 31
0.0
  0
LINE
  5
3F0
330
552
100
AcDbEntity
  8
GAIKEI
 62
     1
100
AcDbLine
 10
93.0160808061446
 20
71.45852472634067
 30
0.0
 11
93.28001644524453
 21
73.44745726753519
 31
0.0
  0
LWPOLYLINE
  5
3F1
330
552
100
AcDbEntity
  8
GAIKEI
 62
     1
100
AcDbPolyline
 90
        3
 70
     0
 43
0.0
 10
93.14601491844713
 20
75.22521085638095
 10
93.15494835356695
 20
75.18986893323148
 10
93.14601491844713
 20
75.18986893323148
  0
LWPOLYLINE
  5
3F2
330
552
100
AcDbEntity
  8
GAIKEI
 62
     1
100
AcDbPolyline
 90
       10
 70
     0
 43
0.0
 10
93.28001644524453
 20
76.26148933028105
 10
93.32092217447744
 20
76.01072623919816
 10
93.35602900722916
 20
75.76011987504717
 10
93.3807918624735
 20
75.52526456755487
 10
93.42154086477444
 20
75.27457983993793
 10
93.45664769752614
 20
75.02389511232099
 10
93.4955159766439
 20
74.77501274442125
 10
93.5202788318884
 20
74.52448474373619
 10
93.55554239157186
 20
74.27364328918736
 10
93.57137181169651
 20
74.2136168742594
  0
LINE
  5
3F3
330
552
100
AcDbEntity
  8
GAIKEI
 62
     1
100
AcDbLine
 10
93.57137181169651
 20
74.2136168742594
 30
0.0
 11
93.58046197374823
 21
74.03886634516095
 31
0.0
  0
LINE
  5
3F4
330
552
100
AcDbEntity
  8
GAIKEI
 62
     1
100
AcDbLine
 10
93.28001644524453
 20
74.17302459889031
 30
0.0
 11
93.29615931923306
 21
74.03886634516095
 31
0.0
  0
LINE
  5
3F5
330
552
100
AcDbEntity
  8
GAIKEI
 62
     1
100
AcDbLine
 10
93.14601491844713
 20
75.18986893323148
 30
0.0
 11
93.28001644524453
 21
74.17302459889031
 31
0.0
  0
LINE
  5
3F6
330
552
100
AcDbEntity
  8
GAIKEI
 62
     1
100
AcDbLine
 10
93.01356740301059
 20
76.22975646782714
 30
0.0
 11
93.14601491844713
 21
75.22521085638101
 31
0.0
  0
LINE
  5
3F7
330
552
100
AcDbEntity
  8
GAIKEI
 62
     1
100
AcDbLine
 10
93.58046197374823
 20
73.81286610932249
 30
0.0
 11
93.58046197374823
 21
73.58882496013314
 31
0.0
  0
LINE
  5
3F8
330
552
100
AcDbEntity
  8
GAIKEI
 62
     1
100
AcDbLine
 10
93.58046197374823
 20
74.03886634516095
 30
0.0
 11
93.58046197374823
 21
73.81286610932249
 31
0.0
  0
LINE
  5
3F9
330
552
100
AcDbEntity
  8
GAIKEI
 62
     1
100
AcDbLine
 10
93.29615931923306
 20
73.58882496013314
 30
0.0
 11
93.29615931923306
 21
74.03886634516095
 31
0.0
  0
LWPOLYLINE
  5
3FA
330
552
100
AcDbEntity
  8
GAIKEI
100
AcDbPolyline
 90
        6
 70
     0
 43
0.0
 10
93.68092393711343
 20
76.57572682879436
 10
93.62089752218547
 20
76.62509581235129
 10
93.53077953632746
 20
76.70103001086983
 10
93.44614699308705
 20
76.75047735789275
 10
93.33142287891657
 20
76.80149197423492
 10
93.2713964639886
 20
76.81575412504026
  0
LWPOLYLINE
  5
3FB
330
552
100
AcDbEntity
  8
GAIKEI
100
AcDbPolyline
 90
        7
 70
     0
 43
0.0
 10
93.84689775802392
 20
76.25098862584195
 10
93.83106833789931
 20
76.30027924593298
 10
93.79549132435192
 20
76.37637017138344
 10
93.77104192297135
 20
76.45050201018483
 10
93.72135948555047
 20
76.5105284251128
 10
93.68092393711343
 20
76.57572682879436
 10
93.62089752218547
 20
76.62509581235129
  0
LWPOLYLINE
  5
3FC
330
552
100
AcDbEntity
  8
GAIKEI
 62
     1
100
AcDbPolyline
 90
        8
 70
     0
 43
0.0
 10
93.20953960644315
 20
70.91083229212336
 10
93.27505146398857
 20
70.92141136002841
 10
93.33507787891655
 20
70.96020127568029
 10
93.38444686247351
 20
70.99554319882975
 10
93.42519586477441
 20
71.06089832944326
 10
93.46030269752613
 20
71.11026731300023
 10
93.48506555277047
 20
71.18635823845069
 10
93.48506555277047
 20
71.19678057942383
  0
LINE
  5
3FD
330
552
100
AcDbEntity
  8
GAIKEI
 62
     1
100
AcDbLine
 10
93.7851976274104
 20
73.3982454287338
 30
0.0
 11
93.79914632435179
 21
73.61374496013315
 31
0.0
  0
LINE
  5
3FE
330
552
100
AcDbEntity
  8
GAIKEI
 62
     1
100
AcDbLine
 10
93.7851976274104
 20
73.3982454287338
 30
0.0
 11
93.48506555277047
 21
71.19678057942383
 31
0.0
  0
LWPOLYLINE
  5
3FF
330
552
100
AcDbEntity
  8
GAIKEI
 62
     1
100
AcDbPolyline
 90
        8
 70
     0
 43
0.0
 10
93.48506555277047
 20
76.466410211599
 10
93.48506555277047
 20
76.49117306684343
 10
93.46030269752613
 20
76.55119948177139
 10
93.42519586477441
 20
76.61663297585083
 10
93.38444686247351
 20
76.66067324372227
 10
93.33507787891655
 20
76.71537094296474
 10
93.27505146398857
 20
76.75063450264826
 10
93.20953960644315
 20
76.76144866095126
  0
LINE
  5
400
330
552
100
AcDbEntity
  8
GAIKEI
 62
     1
100
AcDbLine
 10
93.79914632435179
 20
74.06378634516102
 30
0.0
 11
93.7851976274104
 21
74.25797101381829
 31
0.0
  0
LINE
  5
401
330
552
100
AcDbEntity
  8
GAIKEI
 62
     1
100
AcDbLine
 10
93.20953960644315
 20
76.76144866095126
 30
0.0
 11
91.69853525573683
 21
77.09135885265721
 31
0.0
  0
LINE
  5
402
330
552
100
AcDbEntity
  8
GAIKEI
 62
     1
100
AcDbLine
 10
91.69853525573683
 20
77.09135885265721
 30
0.0
 11
91.64728554899673
 21
77.09135885265721
 31
0.0
  0
LINE
  5
403
330
552
100
AcDbEntity
  8
GAIKEI
 62
     1
100
AcDbLine
 10
93.7851976274104
 20
74.25797101381829
 30
0.0
 11
93.48506555277047
 21
76.466410211599
 31
0.0
  0
LINE
  5
404
330
552
100
AcDbEntity
  8
GAIKEI
 62
     1
100
AcDbLine
 10
93.79914632435179
 20
74.06378634516102
 30
0.0
 11
93.79914632435179
 21
73.61374496013315
 31
0.0
  0
LINE
  5
405
330
552
100
AcDbEntity
  8
GAIKEI
 62
     1
100
AcDbLine
 10
91.72314138404932
 20
71.06089832944326
 30
0.0
 11
91.64728554899673
 21
71.16136029280834
 31
0.0
  0
LWPOLYLINE
  5
406
330
552
100
AcDbEntity
  8
GAIKEI
 62
     1
100
AcDbPolyline
 90
        3
 70
     0
 43
0.0
 10
91.84867965652269
 20
70.99554319882975
 10
91.72314138404932
 20
71.06089832944326
 10
91.64728554899673
 20
71.16136029280834
  0
LWPOLYLINE
  5
407
330
552
100
AcDbEntity
  8
GAIKEI
 62
     1
100
AcDbPolyline
 90
        3
 70
     0
 43
0.0
 10
91.98283791025209
 20
71.01145098242034
 10
91.87328578483514
 20
70.99554319882975
 10
91.84867965652269
 20
70.99554319882975
  0
LWPOLYLINE
  5
408
330
552
100
AcDbEntity
  8
GAIKEI
 62
     1
100
AcDbPolyline
 90
        3
 70
     0
 43
0.0
 10
92.15931243560158
 20
71.01145098242034
 10
91.98283791025209
 20
71.01145098242034
 10
91.87328578483514
 20
70.99554319882975
  0
LWPOLYLINE
  5
409
330
552
100
AcDbEntity
  8
GAIKEI
 62
     1
100
AcDbPolyline
 90
        5
 70
     0
 43
0.0
 10
92.90956425873526
 20
71.03613547419882
 10
92.65895789458431
 20
71.03613547419882
 10
92.40819480350136
 20
71.02022769060829
 10
92.15931243560158
 20
71.01145098242034
 10
91.98283791025209
 20
71.01145098242034
  0
LWPOLYLINE
  5
40A
330
552
100
AcDbEntity
  8
GAIKEI
 62
     1
100
AcDbPolyline
 90
       14
 70
     0
 43
0.0
 10
93.58411697374823
 20
73.61374496013315
 10
93.57502681169648
 20
73.43883770410281
 10
93.53443453632747
 20
73.18815297648587
 10
93.49917097664386
 20
72.93762497580087
 10
93.47440812139952
 20
72.68678352125198
 10
93.43381584603049
 20
72.44667786154014
 10
93.40027628259816
 20
72.19779549364034
 10
93.35968400722912
 20
71.94711076602345
 10
93.33507787891655
 20
71.69642603840644
 10
93.29981431923306
 20
71.44574131078957
 10
93.28367144524463
 20
71.3858716227935
 10
93.20953960644315
 20
71.19678057942383
 10
92.99968224459325
 20
71.04671454210394
 10
92.90956425873526
 20
71.03613547419882
  0
LINE
  5
40B
330
552
100
AcDbEntity
  8
GAIKEI
 62
     1
100
AcDbLine
 10
92.54575076916751
 20
72.31251960781083
 30
0.0
 11
92.54575076916751
 21
76.25992247878548
 31
0.0
  0
LINE
  5
40C
330
552
100
AcDbEntity
  8
GAIKEI
 62
     1
100
AcDbLine
 10
92.54575076916751
 20
76.25992247878548
 30
0.0
 11
93.02079009983764
 21
76.16102778473965
 31
0.0
  0
LWPOLYLINE
  5
40D
330
552
100
AcDbEntity
  8
GAIKEI
 62
     1
100
AcDbPolyline
 90
        4
 70
     0
 43
0.0
 10
93.09492193863899
 20
72.02124260482481
 10
92.87064569905181
 20
72.13776907871238
 10
92.64464546321324
 20
72.24724284066326
 10
92.54575076916751
 20
72.31251960781083
  0
LINE
  5
40E
330
552
100
AcDbEntity
  8
GAIKEI
100
AcDbLine
 10
93.85567446621179
 20
76.109620933244
 30
0.0
 11
93.84689775802383
 21
76.25098862584195
 31
0.0
  0
LINE
  5
40F
330
552
100
AcDbEntity
  8
GAIKEI
100
AcDbLine
 10
93.92102959682528
 20
75.66475153696979
 30
0.0
 11
93.85567446621179
 21
76.109620933244
 31
0.0
  0
LINE
  5
410
330
552
100
AcDbEntity
  8
GAIKEI
100
AcDbLine
 10
94.15580654085172
 20
74.07412990484456
 30
0.0
 11
94.14687310573173
 21
74.14834010711189
 31
0.0
  0
LINE
  5
411
330
552
100
AcDbEntity
  8
GAIKEI
100
AcDbLine
 10
94.15580654085172
 20
73.63278686453861
 30
0.0
 11
94.15580654085172
 21
74.07412990484456
 31
0.0
  0
LINE
  5
412
330
552
100
AcDbEntity
  8
GAIKEI
100
AcDbLine
 10
94.14687310573173
 20
74.14834010711189
 30
0.0
 11
93.92102959682528
 21
75.66475153696979
 31
0.0
  0
LINE
  5
413
330
552
100
AcDbEntity
  8
GAIKEI
 62
     1
100
AcDbLine
 10
91.64363054899672
 20
77.36108548467957
 30
0.0
 11
91.76901209453822
 21
77.36108548467957
 31
0.0
  0
LINE
  5
414
330
552
100
AcDbEntity
  8
GAIKEI
 62
     1
100
AcDbLine
 10
91.79361822285068
 20
77.386005066856
 30
0.0
 11
91.79361822285068
 21
77.44054603916652
 31
0.0
  0
LINE
  5
415
330
552
100
AcDbEntity
  8
GAIKEI
 62
     1
100
AcDbLine
 10
91.79361822285068
 20
77.47604468924794
 30
0.0
 11
91.79361822285068
 21
77.44054603916652
 31
0.0
  0
LINE
  5
416
330
552
100
AcDbEntity
  8
GAIKEI
 62
     1
100
AcDbLine
 10
91.79361822285068
 20
77.47604468924794
 30
0.0
 11
91.79361822285068
 21
77.59257116313552
 31
0.0
  0
LINE
  5
417
330
552
100
AcDbEntity
  8
GAIKEI
 62
     1
100
AcDbLine
 10
91.76901209453822
 20
77.36108548467957
 30
0.0
 11
91.79361822285068
 21
77.386005066856
 31
0.0
  0
LINE
  5
418
330
552
100
AcDbEntity
  8
GAIKEI
 62
     1
100
AcDbLine
 10
91.79361822285068
 20
77.59257116313552
 30
0.0
 11
91.79361822285068
 21
77.6121620296264
 31
0.0
  0
LINE
  5
419
330
552
100
AcDbEntity
  8
GAIKEI
 62
     1
100
AcDbLine
 10
91.79361822285068
 20
77.65259757806349
 30
0.0
 11
91.79361822285068
 21
77.6121620296264
 31
0.0
  0
LWPOLYLINE
  5
41A
330
552
100
AcDbEntity
  8
GAIKEI
 62
     1
100
AcDbPolyline
 90
        4
 70
     0
 43
0.0
 10
91.79361822285068
 20
77.65259757806349
 10
91.79361822285068
 20
77.7619929765484
 10
91.76901209453831
 20
77.79200618401239
 10
91.64363054899686
 20
77.79200618401239
  0
LWPOLYLINE
  5
41B
330
552
100
AcDbEntity
  8
GAIKEI
100
AcDbPolyline
 90
        7
 70
     0
 43
0.0
 10
91.64363054899686
 20
78.15216467358016
 10
91.64363054899686
 20
78.17684916535866
 10
91.62952512512335
 20
78.17684916535866
 10
91.62952512512335
 20
78.19275694894924
 10
91.61902442068424
 20
78.19275694894924
 10
91.61902442068424
 20
78.20176874753503
 10
91.59441829237177
 20
78.20176874753503
  0
LWPOLYLINE
  5
41C
330
552
100
AcDbEntity
  8
GAIKEI
100
AcDbPolyline
 90
        4
 70
     0
 43
0.0
 10
91.64363054899686
 20
77.19182039819862
 10
91.65428798036785
 20
77.17591261460815
 10
91.70365696392471
 20
77.1512281228296
 10
91.74440596622572
 20
77.13704433549025
  0
LINE
  5
41D
330
552
100
AcDbEntity
  8
GAIKEI
100
AcDbLine
 10
91.74440596622572
 20
77.1370443354902
 30
0.0
 11
91.82919523639805
 21
77.12662199451711
 31
0.0
  0
LINE
  5
41E
330
552
100
AcDbEntity
  8
GAIKEI
100
AcDbLine
 10
91.82919523639805
 20
77.12662199451711
 30
0.0
 11
93.2713964639886
 21
76.81575412504026
 31
0.0
  0
LINE
  5
422
330
552
100
AcDbEntity
  8
WAKU
 62
     1
100
AcDbLine
 10
0.0
 20
30.0
 30
0.0
 11
125.0
 21
30.0
 31
0.0
  0
LINE
  5
424
330
552
100
AcDbEntity
  8
WAKU
 62
     4
100
AcDbLine
 10
0.0
 20
35.0
 30
0.0
 11
125.0
 21
35.0
 31
0.0
  0
LINE
  5
426
330
552
100
AcDbEntity
  8
WAKU
 62
     1
100
AcDbLine
 10
0.0
 20
15.0
 30
0.0
 11
125.0
 21
15.0
 31
0.0
  0
LINE
  5
427
330
552
100
AcDbEntity
  8
WAKU
 62
     1
100
AcDbLine
 10
0.0
 20
20.0
 30
0.0
 11
125.0
 21
20.0
 31
0.0
  0
LINE
  5
428
330
552
100
AcDbEntity
  8
WAKU
 62
     4
100
AcDbLine
 10
125.0
 20
0.0
 30
0.0
 11
0.0
 21
0.0
 31
0.0
  0
LINE
  5
429
330
552
100
AcDbEntity
  8
WAKU
 62
     1
100
AcDbLine
 10
0.0
 20
10.0
 30
0.0
 11
125.0
 21
10.0
 31
0.0
  0
LINE
  5
42A
330
552
100
AcDbEntity
  8
WAKU
 62
     1
100
AcDbLine
 10
0.0
 20
25.0
 30
0.0
 11
125.0
 21
25.0
 31
0.0
  0
LINE
  5
42B
330
552
100
AcDbEntity
  8
WAKU
 62
     1
100
AcDbLine
 10
0.0
 20
5.0
 30
0.0
 11
125.0
 21
5.0
 31
0.0
  0
LINE
  5
42F
330
552
100
AcDbEntity
  8
WAKU
 62
     4
100
AcDbLine
 10
0.0
 20
35.0
 30
0.0
 11
0.0
 21
0.0
 31
0.0
  0
LINE
  5
430
330
552
100
AcDbEntity
  8
WAKU
 62
     4
100
AcDbLine
 10
40.0
 20
35.0
 30
0.0
 11
40.0
 21
0.0
 31
0.0
  0
TEXT
  5
431
330
552
100
AcDbEntity
  8
MOJI1
100
AcDbText
 10
2.5
 20
26.0
 30
0.0
 40
3.0
  1
消費電力
100
AcDbText
  0
TEXT
  5
432
330
552
100
AcDbEntity
  8
MOJI1
100
AcDbText
 10
2.5
 20
6.0
 30
0.0
 40
3.0
  1
接続端子
100
AcDbText
  0
TEXT
  5
433
330
552
100
AcDbEntity
  8
MOJI1
100
AcDbText
 10
2.5
 20
31.1251189511155
 30
0.0
 40
3.0
  1
電　源
100
AcDbText
  0
TEXT
  5
434
330
552
100
AcDbEntity
  8
MOJI1
100
AcDbText
 10
2.5
 20
11.0
 30
0.0
 40
3.0
  1
音声最大出力
100
AcDbText
  0
TEXT
  5
435
330
552
100
AcDbEntity
  8
MOJI1
100
AcDbText
 10
2.5
 20
16.0
 30
0.0
 40
3.0
  1
画素数
100
AcDbText
  0
TEXT
  5
436
330
552
100
AcDbEntity
  8
MOJI1
100
AcDbText
 10
2.5
 20
21.0
 30
0.0
 40
3.0
  1
パネルサイズ
100
AcDbText
  0
LINE
  5
437
330
552
100
AcDbEntity
  8
WAKU
 62
     4
100
AcDbLine
 10
125.0
 20
35.0
 30
0.0
 11
125.0
 21
0.0
 31
0.0
  0
TEXT
  5
438
330
552
100
AcDbEntity
  8
TOUROKU
100
AcDbText
 10
104.1999500329273
 20
103.0000000000002
 30
0.0
 40
2.0
  1
ＴＨ３２ＬＨＤ７Ｋ
 72
     2
 11
124.9999500329273
 21
103.0000000000002
 31
0.0
100
AcDbText
  0
TEXT
  5
590
330
552
100
AcDbEntity
  8
MOJI1
100
AcDbText
 10
42.5
 20
1.0
 30
0.0
 40
3.0
  1
ＬＣＤ制御、コンポーネントビデオ
100
AcDbText
  0
TEXT
  5
591
330
552
100
AcDbEntity
  8
MOJI1
100
AcDbText
 10
42.5
 20
6.0
 30
0.0
 40
3.0
  1
ビデオ／Ｓビデオ／ＲＧＢ／ＰＣ／外部スピーカ
100
AcDbText
  0
TEXT
  5
592
330
552
100
AcDbEntity
  8
MOJI1
100
AcDbText
 10
42.5
 20
11.0
 30
0.0
 40
3.0
  1
１６Ｗ（８Ｗ＋８Ｗ）
100
AcDbText
  0
TEXT
  5
593
330
552
100
AcDbEntity
  8
MOJI1
100
AcDbText
 10
42.5
 20
16.0
 30
0.0
 40
3.0
  1
１０４９０８８画素（水平１３６６×垂直７６８）
100
AcDbText
  0
TEXT
  5
594
330
552
100
AcDbEntity
  8
MOJI1
100
AcDbText
 10
42.5
 20
21.0
 30
0.0
 40
3.0
  1
３２Ｖ型（１６：９）
100
AcDbText
  0
TEXT
  5
595
330
552
100
AcDbEntity
  8
MOJI1
100
AcDbText
 10
42.5
 20
26.0
 30
0.0
 40
3.0
  1
１７１Ｗ
100
AcDbText
  0
TEXT
  5
596
330
552
100
AcDbEntity
  8
MOJI1
100
AcDbText
 10
42.5
 20
31.05628590561594
 30
0.0
 40
3.0
  1
ＡＣ１００Ｖ　５０／６０Ｈｚ 
100
AcDbText
  0
ENDSEC
  0
SECTION
  2
OBJECTS
  0
DICTIONARY
  5
53E
330
0
100
AcDbDictionary
281
     1
  3
ACAD_COLOR
350
54D
  3
ACAD_GROUP
350
53F
  3
ACAD_LAYOUT
350
54B
  3
ACAD_MATERIAL
350
54C
  3
ACAD_MLINESTYLE
350
548
  3
ACAD_PLOTSETTINGS
350
54A
  3
ACAD_PLOTSTYLENAME
350
540
  3
ACDBHEADERROUNDTRIPXREC
350
59C
  3
AcDbVariableDictionary
350
597
  3
DWGPROPS
350
59B
  0
DICTIONARY
  5
54D
102
{ACAD_REACTORS
330
53E
102
}
330
53E
100
AcDbDictionary
281
     1
  0
DICTIONARY
  5
53F
102
{ACAD_REACTORS
330
53E
102
}
330
53E
100
AcDbDictionary
281
     1
  0
DICTIONARY
  5
54B
102
{ACAD_REACTORS
330
53E
102
}
330
53E
100
AcDbDictionary
281
     1
  3
Model
350
555
  3
レイアウト1
350
551
  0
DICTIONARY
  5
54C
102
{ACAD_REACTORS
330
53E
102
}
330
53E
100
AcDbDictionary
281
     1
  0
DICTIONARY
  5
548
102
{ACAD_REACTORS
330
53E
102
}
330
53E
100
AcDbDictionary
281
     1
  3
Standard
350
549
  0
DICTIONARY
  5
54A
102
{ACAD_REACTORS
330
53E
102
}
330
53E
100
AcDbDictionary
281
     1
  0
ACDBDICTIONARYWDFLT
  5
540
102
{ACAD_REACTORS
330
53E
102
}
330
53E
100
AcDbDictionary
281
     1
  3
Normal
350
541
100
AcDbDictionaryWithDefault
340
541
  0
DICTIONARY
  5
59C
102
{ACAD_REACTORS
330
53E
102
}
330
53E
100
AcDbDictionary
281
     1
  3
COLORDICT
350
59E
  3
MATERIALDICT
350
59D
  0
DICTIONARY
  5
597
102
{ACAD_REACTORS
330
53E
102
}
330
53E
100
AcDbDictionary
281
     1
  3
DIMASSOC
350
598
  3
PROJECTNAME
350
599
  0
XRECORD
  5
59B
102
{ACAD_REACTORS
330
53E
102
}
330
53E
100
AcDbXrecord
280
     1
  1
DWGPROPS COOKIE
  2

  3

  4

  6

  7

  8

  9

300
=
301
=
302
=
303
=
304
=
305
=
306
=
307
=
308
=
309
=
 40
1.318919560185185
 41
2448884.641931713
 42
2453731.654351667
  1

 90
        0
  0
LAYOUT
  5
555
102
{ACAD_XDICTIONARY
360
5A1
102
}
102
{ACAD_REACTORS
330
54B
102
}
330
54B
100
AcDbPlotSettings
  1

  2
\\Uranus\BFACN02M
  4

  6

 40
0.0
 41
0.0
 42
0.0
 43
0.0
 44
0.0
 45
0.0
 46
0.0
 47
0.0
 48
0.0
 49
0.0
140
0.0
141
0.0
142
1.0
143
1.0
 70
  1712
 72
     0
 73
     0
 74
     0
  7
SSC.ctb
 75
     0
147
1.0
148
0.0
149
0.0
100
AcDbLayout
  1
Model
 70
     1
 71
     0
 10
0.0
 20
0.0
 11
12.0
 21
9.0
 12
0.0
 22
0.0
 32
0.0
 14
0.0
 24
0.0
 34
0.0
 15
0.0
 25
0.0
 35
0.0
146
0.0
 13
0.0
 23
0.0
 33
0.0
 16
1.0
 26
0.0
 36
0.0
 17
0.0
 27
1.0
 37
0.0
 76
     0
330
552
  0
LAYOUT
  5
551
102
{ACAD_XDICTIONARY
360
59F
102
}
102
{ACAD_REACTORS
330
54B
102
}
330
54B
100
AcDbPlotSettings
  1

  2
\\Uranus\BFACN02M
  4

  6

 40
0.0
 41
0.0
 42
0.0
 43
0.0
 44
0.0
 45
0.0
 46
0.0
 47
0.0
 48
0.0
 49
0.0
140
0.0
141
0.0
142
1.0
143
1.0
 70
   688
 72
     0
 73
     0
 74
     5
  7
SSC.ctb
 75
    16
147
1.0
148
0.0
149
0.0
100
AcDbLayout
  1
レイアウト1
 70
     0
 71
     1
 10
0.0
 20
0.0
 11
12.0
 21
9.0
 12
0.0
 22
0.0
 32
0.0
 14
1.000000000000000E+20
 24
1.000000000000000E+20
 34
1.000000000000000E+20
 15
-1.000000000000000E+20
 25
-1.000000000000000E+20
 35
-1.000000000000000E+20
146
0.0
 13
0.0
 23
0.0
 33
0.0
 16
1.0
 26
0.0
 36
0.0
 17
0.0
 27
1.0
 37
0.0
 76
     0
330
54E
  0
MLINESTYLE
  5
549
102
{ACAD_REACTORS
330
548
102
}
330
548
100
AcDbMlineStyle
  2
STANDARD
 70
     0
  3

 62
   256
 51
90.0
 52
90.0
 71
     2
 49
0.5
 62
   256
  6
BYLAYER
 49
-0.5
 62
   256
  6
BYLAYER
  0
ACDBPLACEHOLDER
  5
541
102
{ACAD_REACTORS
330
540
102
}
330
540
  0
XRECORD
  5
59E
102
{ACAD_REACTORS
330
59C
102
}
330
59C
100
AcDbXrecord
280
     1
340
54D
  0
XRECORD
  5
59D
102
{ACAD_REACTORS
330
59C
102
}
330
59C
100
AcDbXrecord
280
     1
340
54C
  0
DICTIONARYVAR
  5
598
102
{ACAD_REACTORS
330
597
102
}
330
597
100
DictionaryVariables
280
     0
  1
1
  0
DICTIONARYVAR
  5
599
102
{ACAD_REACTORS
330
597
102
}
330
597
100
DictionaryVariables
280
     0
  1

  0
DICTIONARY
  5
5A1
330
555
100
AcDbDictionary
280
     1
281
     1
  3
ACAD_XREC_ROUNDTRIP
360
5A2
  0
DICTIONARY
  5
59F
330
551
100
AcDbDictionary
280
     1
281
     1
  3
ACAD_XREC_ROUNDTRIP
360
5A0
  0
XRECORD
  5
5A2
102
{ACAD_REACTORS
330
5A1
102
}
330
5A1
100
AcDbXrecord
280
     1
102
SHADEPLOT
 70
     0
102
SHADEPLOTRESLEVEL
 70
     2
102
SHADEPLOTCUSTOMDPI
 70
   300
  0
XRECORD
  5
5A0
102
{ACAD_REACTORS
330
59F
102
}
330
59F
100
AcDbXrecord
280
     1
102
SHADEPLOT
 70
     0
102
SHADEPLOTRESLEVEL
 70
     2
102
SHADEPLOTCUSTOMDPI
 70
   300
  0
ENDSEC
  0
EOF
