  0
SECTION
  2
HEADER
  9
$ACADVER
  1
AC1015
  9
$ACADMAINTVER
 70
    20
  9
$DWGCODEPAGE
  3
ANSI_932
  9
$INSBASE
 10
0.0
 20
246.4992141396417
 30
0.0
  9
$EXTMIN
 10
-58.67889624675399
 20
-45.26165832739571
 30
-0.0015258207003583
  9
$EXTMAX
 10
66.38201988207993
 20
67.85444177456611
 30
0.0000000349246037
  9
$LIMMIN
 10
-1101.784450318844
 20
-1579.160531687244
  9
$LIMMAX
 10
-508.2420711400536
 20
-1161.440814074914
  9
$ORTHOMODE
 70
     1
  9
$REGENMODE
 70
     1
  9
$FILLMODE
 70
     1
  9
$QTEXTMODE
 70
     0
  9
$MIRRTEXT
 70
     1
  9
$LTSCALE
 40
1.0
  9
$ATTMODE
 70
     1
  9
$TEXTSIZE
 40
3.0
  9
$TRACEWID
 40
0.5
  9
$TEXTSTYLE
  7
STANDARD
  9
$CLAYER
  8
SUNPO
  9
$CELTYPE
  6
BYLAYER
  9
$CECOLOR
 62
   256
  9
$CELTSCALE
 40
1.0
  9
$DISPSILH
 70
     0
  9
$DIMSCALE
 40
1.0
  9
$DIMASZ
 40
2.0
  9
$DIMEXO
 40
2.0
  9
$DIMDLI
 40
8.0
  9
$DIMRND
 40
0.0
  9
$DIMDLE
 40
0.0
  9
$DIMEXE
 40
2.0
  9
$DIMTP
 40
0.0
  9
$DIMTM
 40
0.0
  9
$DIMTXT
 40
2.5
  9
$DIMCEN
 40
0.0
  9
$DIMTSZ
 40
0.0
  9
$DIMTOL
 70
     0
  9
$DIMLIM
 70
     0
  9
$DIMTIH
 70
     0
  9
$DIMTOH
 70
     0
  9
$DIMSE1
 70
     0
  9
$DIMSE2
 70
     0
  9
$DIMTAD
 70
     3
  9
$DIMZIN
 70
     0
  9
$DIMBLK
  1

  9
$DIMASO
 70
     1
  9
$DIMSHO
 70
     1
  9
$DIMPOST
  1

  9
$DIMAPOST
  1

  9
$DIMALT
 70
     0
  9
$DIMALTD
 70
     2
  9
$DIMALTF
 40
25.4
  9
$DIMLFAC
 40
1.0
  9
$DIMTOFL
 70
     1
  9
$DIMTVP
 40
0.0
  9
$DIMTIX
 70
     0
  9
$DIMSOXD
 70
     0
  9
$DIMSAH
 70
     1
  9
$DIMBLK1
  1
OPEN30
  9
$DIMBLK2
  1
OPEN30
  9
$DIMSTYLE
  2
STANDARD
  9
$DIMCLRD
 70
     0
  9
$DIMCLRE
 70
     0
  9
$DIMCLRT
 70
     0
  9
$DIMTFAC
 40
1.0
  9
$DIMGAP
 40
0.5
  9
$DIMJUST
 70
     0
  9
$DIMSD1
 70
     0
  9
$DIMSD2
 70
     0
  9
$DIMTOLJ
 70
     1
  9
$DIMTZIN
 70
     0
  9
$DIMALTZ
 70
     0
  9
$DIMALTTZ
 70
     0
  9
$DIMUPT
 70
     0
  9
$DIMDEC
 70
     4
  9
$DIMTDEC
 70
     4
  9
$DIMALTU
 70
     2
  9
$DIMALTTD
 70
     2
  9
$DIMTXSTY
  7
STANDARD
  9
$DIMAUNIT
 70
     0
  9
$DIMADEC
 70
     0
  9
$DIMALTRND
 40
0.0
  9
$DIMAZIN
 70
     0
  9
$DIMDSEP
 70
    46
  9
$DIMATFIT
 70
     3
  9
$DIMFRAC
 70
     0
  9
$DIMLDRBLK
  1
OPEN30
  9
$DIMLUNIT
 70
     2
  9
$DIMLWD
 70
    -2
  9
$DIMLWE
 70
    -2
  9
$DIMTMOVE
 70
     0
  9
$LUNITS
 70
     2
  9
$LUPREC
 70
     4
  9
$SKETCHINC
 40
0.1
  9
$FILLETRAD
 40
0.2
  9
$AUNITS
 70
     0
  9
$AUPREC
 70
     0
  9
$MENU
  1
ACAD
  9
$ELEVATION
 40
0.0
  9
$PELEVATION
 40
0.0
  9
$THICKNESS
 40
0.0
  9
$LIMCHECK
 70
     0
  9
$CHAMFERA
 40
0.0
  9
$CHAMFERB
 40
0.0
  9
$CHAMFERC
 40
0.0
  9
$CHAMFERD
 40
0.0
  9
$SKPOLY
 70
     0
  9
$TDCREATE
 40
2451815.565532581
  9
$TDUCREATE
 40
2451815.190532581
  9
$TDUPDATE
 40
2453992.344888056
  9
$TDUUPDATE
 40
2453991.969888056
  9
$TDINDWG
 40
0.8444275116
  9
$TDUSRTIMER
 40
0.8444275116
  9
$USRTIMER
 70
     1
  9
$ANGBASE
 50
0.0
  9
$ANGDIR
 70
     0
  9
$PDMODE
 70
     0
  9
$PDSIZE
 40
0.0
  9
$PLINEWID
 40
0.0
  9
$SPLFRAME
 70
     0
  9
$SPLINETYPE
 70
     6
  9
$SPLINESEGS
 70
     8
  9
$HANDSEED
  5
30A
  9
$SURFTAB1
 70
     6
  9
$SURFTAB2
 70
     6
  9
$SURFTYPE
 70
     6
  9
$SURFU
 70
     6
  9
$SURFV
 70
     6
  9
$UCSBASE
  2

  9
$UCSNAME
  2

  9
$UCSORG
 10
0.0
 20
0.0
 30
0.0
  9
$UCSXDIR
 10
1.0
 20
0.0
 30
0.0
  9
$UCSYDIR
 10
0.0
 20
1.0
 30
0.0
  9
$UCSORTHOREF
  2

  9
$UCSORTHOVIEW
 70
     0
  9
$UCSORGTOP
 10
0.0
 20
0.0
 30
0.0
  9
$UCSORGBOTTOM
 10
0.0
 20
0.0
 30
0.0
  9
$UCSORGLEFT
 10
0.0
 20
0.0
 30
0.0
  9
$UCSORGRIGHT
 10
0.0
 20
0.0
 30
0.0
  9
$UCSORGFRONT
 10
0.0
 20
0.0
 30
0.0
  9
$UCSORGBACK
 10
0.0
 20
0.0
 30
0.0
  9
$PUCSBASE
  2

  9
$PUCSNAME
  2

  9
$PUCSORG
 10
0.0
 20
0.0
 30
0.0
  9
$PUCSXDIR
 10
1.0
 20
0.0
 30
0.0
  9
$PUCSYDIR
 10
0.0
 20
1.0
 30
0.0
  9
$PUCSORTHOREF
  2

  9
$PUCSORTHOVIEW
 70
     0
  9
$PUCSORGTOP
 10
0.0
 20
0.0
 30
0.0
  9
$PUCSORGBOTTOM
 10
0.0
 20
0.0
 30
0.0
  9
$PUCSORGLEFT
 10
0.0
 20
0.0
 30
0.0
  9
$PUCSORGRIGHT
 10
0.0
 20
0.0
 30
0.0
  9
$PUCSORGFRONT
 10
0.0
 20
0.0
 30
0.0
  9
$PUCSORGBACK
 10
0.0
 20
0.0
 30
0.0
  9
$USERI1
 70
     0
  9
$USERI2
 70
     0
  9
$USERI3
 70
     0
  9
$USERI4
 70
     0
  9
$USERI5
 70
     0
  9
$USERR1
 40
0.0
  9
$USERR2
 40
0.0
  9
$USERR3
 40
0.0
  9
$USERR4
 40
0.0
  9
$USERR5
 40
0.0
  9
$WORLDVIEW
 70
     1
  9
$SHADEDGE
 70
     3
  9
$SHADEDIF
 70
    70
  9
$TILEMODE
 70
     1
  9
$MAXACTVP
 70
    48
  9
$PINSBASE
 10
0.0
 20
0.0
 30
0.0
  9
$PLIMCHECK
 70
     0
  9
$PEXTMIN
 10
1.000000000000000E+20
 20
1.000000000000000E+20
 30
1.000000000000000E+20
  9
$PEXTMAX
 10
-1.000000000000000E+20
 20
-1.000000000000000E+20
 30
-1.000000000000000E+20
  9
$PLIMMIN
 10
-0.1379166250153789
 20
-0.1712500016520342
  9
$PLIMMAX
 10
16.39708271176796
 20
11.52208270050409
  9
$UNITMODE
 70
     0
  9
$VISRETAIN
 70
     1
  9
$PLINEGEN
 70
     0
  9
$PSLTSCALE
 70
     1
  9
$TREEDEPTH
 70
  3020
  9
$CMLSTYLE
  2
STANDARD
  9
$CMLJUST
 70
     0
  9
$CMLSCALE
 40
1.0
  9
$PROXYGRAPHICS
 70
     1
  9
$MEASUREMENT
 70
     0
  9
$CELWEIGHT
370
    -1
  9
$ENDCAPS
280
     0
  9
$JOINSTYLE
280
     0
  9
$LWDISPLAY
290
     0
  9
$INSUNITS
 70
     0
  9
$HYPERLINKBASE
  1

  9
$STYLESHEET
  1

  9
$XEDIT
290
     1
  9
$CEPSNTYPE
380
     0
  9
$PSTYLEMODE
290
     1
  9
$FINGERPRINTGUID
  2
{1754B7AB-9B3C-11D4-AD9E-00104B1004F2}
  9
$VERSIONGUID
  2
{E4CFA047-1C4F-41CA-A741-A7F9BC37AAE1}
  9
$EXTNAMES
290
     1
  9
$PSVPSCALE
 40
0.0
  9
$OLESTARTUP
290
     0
  0
ENDSEC
  0
SECTION
  2
CLASSES
  0
CLASS
  1
ACDBDICTIONARYWDFLT
  2
AcDbDictionaryWithDefault
  3
ObjectDBX Classes
 90
        0
280
     0
281
     0
  0
CLASS
  1
ACDBPLACEHOLDER
  2
AcDbPlaceHolder
  3
ObjectDBX Classes
 90
        0
280
     0
281
     0
  0
CLASS
  1
LAYOUT
  2
AcDbLayout
  3
ObjectDBX Classes
 90
        0
280
     0
281
     0
  0
CLASS
  1
DICTIONARYVAR
  2
AcDbDictionaryVar
  3
ObjectDBX Classes
 90
        0
280
     0
281
     0
  0
ENDSEC
  0
SECTION
  2
TABLES
  0
TABLE
  2
VPORT
  5
25
330
0
100
AcDbSymbolTable
 70
     2
  0
VPORT
  5
302
330
25
100
AcDbSymbolTableRecord
100
AcDbViewportTableRecord
  2
*Active
 70
     0
 10
0.0
 20
0.0
 11
1.0
 21
1.0
 12
3.851561817662972
 22
11.2963917235852
 13
0.0
 23
0.0
 14
1.0
 24
1.0
 15
0.0
 25
0.0
 16
0.0
 26
0.0
 36
1.0
 17
0.0
 27
0.0
 37
0.0
 40
113.9963810366074
 41
1.518181818181818
 42
50.0
 43
0.0
 44
0.0
 50
0.0
 51
0.0
 71
     0
 72
  1000
 73
     1
 74
     0
 75
     0
 76
     1
 77
     0
 78
     0
281
     0
 65
     1
110
0.0
120
0.0
130
0.0
111
1.0
121
0.0
131
0.0
112
0.0
122
1.0
132
0.0
 79
     0
146
0.0
  0
ENDTAB
  0
TABLE
  2
LTYPE
  5
20
330
0
100
AcDbSymbolTable
 70
     1
  0
LTYPE
  5
21
330
20
100
AcDbSymbolTableRecord
100
AcDbLinetypeTableRecord
  2
BYBLOCK
 70
     0
  3

 72
    65
 73
     0
 40
0.0
  0
LTYPE
  5
22
330
20
100
AcDbSymbolTableRecord
100
AcDbLinetypeTableRecord
  2
BYLAYER
 70
     0
  3

 72
    65
 73
     0
 40
0.0
  0
LTYPE
  5
A
330
20
100
AcDbSymbolTableRecord
100
AcDbLinetypeTableRecord
  2
CONTINUOUS
 70
     0
  3
Solid line
 72
    65
 73
     0
 40
0.0
  0
ENDTAB
  0
TABLE
  2
LAYER
  5
18
102
{ACAD_XDICTIONARY
360
19
102
}
330
0
100
AcDbSymbolTable
 70
     7
  0
LAYER
  5
6
330
18
100
AcDbSymbolTableRecord
100
AcDbLayerTableRecord
  2
0
 70
     0
 62
     7
  6
CONTINUOUS
370
    -3
390
7
  0
LAYER
  5
46
330
18
100
AcDbSymbolTableRecord
100
AcDbLayerTableRecord
  2
DEFPOINTS
 70
     0
 62
     7
  6
CONTINUOUS
290
     0
370
    -3
390
7
  0
LAYER
  5
269
330
18
100
AcDbSymbolTableRecord
100
AcDbLayerTableRecord
  2
WAKU
 70
     0
 62
     4
  6
CONTINUOUS
370
    -3
390
7
  0
LAYER
  5
38
330
18
100
AcDbSymbolTableRecord
100
AcDbLayerTableRecord
  2
MOJI1
 70
     0
 62
     2
  6
CONTINUOUS
370
    -3
390
7
  0
LAYER
  5
59
330
18
100
AcDbSymbolTableRecord
100
AcDbLayerTableRecord
  2
GAIKEI
 70
     0
 62
     7
  6
CONTINUOUS
370
    -3
390
7
  0
LAYER
  5
35
330
18
100
AcDbSymbolTableRecord
100
AcDbLayerTableRecord
  2
SUNPO
 70
     0
 62
     3
  6
CONTINUOUS
370
    -3
390
7
  0
LAYER
  5
3A
330
18
100
AcDbSymbolTableRecord
100
AcDbLayerTableRecord
  2
TOUROKU
 70
     0
 62
     1
  6
CONTINUOUS
370
    -3
390
7
  0
ENDTAB
  0
TABLE
  2
STYLE
  5
1D
330
0
100
AcDbSymbolTable
 70
     1
  0
STYLE
  5
1E
330
1D
100
AcDbSymbolTableRecord
100
AcDbTextStyleTableRecord
  2
STANDARD
 70
     0
 40
0.0
 41
1.0
 50
0.0
 71
     0
 42
3.0
  3
MONOTXT.shx
  4
BIGFONT.shx
  0
ENDTAB
  0
TABLE
  2
VIEW
  5
23
330
0
100
AcDbSymbolTable
 70
     0
  0
ENDTAB
  0
TABLE
  2
UCS
  5
24
330
0
100
AcDbSymbolTable
 70
     0
  0
ENDTAB
  0
TABLE
  2
APPID
  5
27
330
0
100
AcDbSymbolTable
 70
     1
  0
APPID
  5
28
330
27
100
AcDbSymbolTableRecord
100
AcDbRegAppTableRecord
  2
ACAD
 70
     0
  0
ENDTAB
  0
TABLE
  2
DIMSTYLE
  5
29
330
0
100
AcDbSymbolTable
 70
     1
100
AcDbDimStyleTable
 71
     0
  0
DIMSTYLE
105
2A
102
{ACAD_REACTORS
330
3B
330
4B
330
C0
102
}
330
29
100
AcDbSymbolTableRecord
100
AcDbDimStyleTableRecord
  2
STANDARD
 70
     0
 40
0.0
 41
2.0
 42
2.0
 43
8.0
 44
2.0
 73
     0
 74
     0
 77
     3
140
3.0
141
0.0
173
     1
279
     2
288
     1
340
1E
341
2B
343
2B
344
2B
  0
ENDTAB
  0
TABLE
  2
BLOCK_RECORD
  5
1
330
0
100
AcDbSymbolTable
 70
     7
  0
BLOCK_RECORD
  5
2
102
{ACAD_XDICTIONARY
360
3
102
}
330
1
100
AcDbSymbolTableRecord
100
AcDbBlockTableRecord
  2
*MODEL_SPACE
340
C
  0
BLOCK_RECORD
  5
10
102
{ACAD_XDICTIONARY
360
11
102
}
330
1
100
AcDbSymbolTableRecord
100
AcDbBlockTableRecord
  2
*PAPER_SPACE
340
15
  0
BLOCK_RECORD
  5
2B
330
1
100
AcDbSymbolTableRecord
100
AcDbBlockTableRecord
  2
_OPEN30
340
0
102
{BLKREFS
331
42
331
43
331
50
331
51
331
C5
331
C6
331
2E7
331
2E8
331
2F0
331
2F1
331
2FB
331
2FC
102
}
  0
BLOCK_RECORD
  5
2B6
330
1
100
AcDbSymbolTableRecord
100
AcDbBlockTableRecord
  2
*D4
340
0
  0
BLOCK_RECORD
  5
2C6
330
1
100
AcDbSymbolTableRecord
100
AcDbBlockTableRecord
  2
*D5
340
0
  0
BLOCK_RECORD
  5
2D2
330
1
100
AcDbSymbolTableRecord
100
AcDbBlockTableRecord
  2
*D6
340
0
  0
ENDTAB
  0
ENDSEC
  0
SECTION
  2
BLOCKS
  0
BLOCK
  5
5
330
2
100
AcDbEntity
  8
0
100
AcDbBlockBegin
  2
*MODEL_SPACE
 70
     0
 10
0.0
 20
0.0
 30
0.0
  3
*MODEL_SPACE
  1

  0
ENDBLK
  5
B
330
2
100
AcDbEntity
  8
0
100
AcDbBlockEnd
  0
BLOCK
  5
13
330
10
100
AcDbEntity
 67
     1
  8
0
100
AcDbBlockBegin
  2
*PAPER_SPACE
 70
     0
 10
0.0
 20
0.0
 30
0.0
  3
*PAPER_SPACE
  1

  0
ENDBLK
  5
14
330
10
100
AcDbEntity
 67
     1
  8
0
100
AcDbBlockEnd
  0
BLOCK
  5
2F
330
2B
100
AcDbEntity
  8
0
100
AcDbBlockBegin
  2
_OPEN30
 70
     0
 10
0.0
 20
0.0
 30
0.0
  3
_OPEN30
  1

  0
LINE
  5
2C
330
2B
100
AcDbEntity
  8
0
  6
ByBlock
 62
     0
100
AcDbLine
 10
-1.0
 20
0.26794919
 30
0.0
 11
0.0
 21
0.0
 31
0.0
  0
LINE
  5
2D
330
2B
100
AcDbEntity
  8
0
  6
ByBlock
 62
     0
100
AcDbLine
 10
0.0
 20
0.0
 30
0.0
 11
-1.0
 21
-0.26794919
 31
0.0
  0
LINE
  5
2E
330
2B
100
AcDbEntity
  8
0
  6
ByBlock
 62
     0
100
AcDbLine
 10
0.0
 20
0.0
 30
0.0
 11
-1.0
 21
0.0
 31
0.0
  0
ENDBLK
  5
30
330
2B
100
AcDbEntity
  8
0
100
AcDbBlockEnd
  0
BLOCK
  5
2C2
330
2B6
100
AcDbEntity
  8
0
100
AcDbBlockBegin
  2
*D4
 70
     1
 10
0.0
 20
0.0
 30
0.0
  3
*D4
  1

  0
LINE
  5
2F6
330
2B6
100
AcDbEntity
  8
SUNPO
 62
     0
370
    -2
100
AcDbLine
 10
38.60960143779825
 20
41.40570835286709
 30
0.0
 11
38.60960143779825
 21
49.4057083528671
 31
0.0
  0
LINE
  5
2F7
330
2B6
100
AcDbEntity
  8
SUNPO
 62
     0
370
    -2
100
AcDbLine
 10
43.03460143779751
 20
41.40570835286709
 30
0.0
 11
43.03460143779751
 21
49.4057083528671
 31
0.0
  0
LINE
  5
2F8
330
2B6
100
AcDbEntity
  8
SUNPO
 62
     0
370
    -2
100
AcDbLine
 10
36.60960143779825
 20
47.40570835286709
 30
0.0
 11
34.60960143779825
 21
47.40570835286709
 31
0.0
  0
LINE
  5
2F9
330
2B6
100
AcDbEntity
  8
SUNPO
 62
     0
370
    -2
100
AcDbLine
 10
45.03460143779752
 20
47.40570835286709
 30
0.0
 11
52.20126810446418
 21
47.40570835286709
 31
0.0
  0
LINE
  5
2FA
330
2B6
100
AcDbEntity
  8
SUNPO
 62
     0
370
    -2
100
AcDbLine
 10
38.60960143779825
 20
47.40570835286709
 30
0.0
 11
43.03460143779751
 21
47.40570835286709
 31
0.0
  0
INSERT
  5
2FB
330
2B6
100
AcDbEntity
  8
SUNPO
 62
     0
370
    -2
100
AcDbBlockReference
  2
_OPEN30
 10
38.60960143779825
 20
47.40570835286709
 30
0.0
 41
2.0
 42
2.0
 43
2.0
  0
INSERT
  5
2FC
330
2B6
100
AcDbEntity
  8
SUNPO
 62
     0
370
    -2
100
AcDbBlockReference
  2
_OPEN30
 10
43.03460143779751
 20
47.40570835286709
 30
0.0
 41
2.0
 42
2.0
 43
2.0
 50
180.0
  0
MTEXT
  5
2FD
330
2B6
100
AcDbEntity
  8
SUNPO
 62
     0
100
AcDbMText
 10
49.61793477113086
 20
49.15570835286709
 30
0.0
 40
2.5
 41
0.0
 71
     5
 72
     1
  1
\A1;89
 73
     1
 44
1.0
1001
ACAD
1000
MTEXTBEGIN
1070
    73
1070
     1
1070
    44
1040
1.0
1070
    74
1070
     0
1000
MTEXTEND
  0
POINT
  5
2FE
330
2B6
100
AcDbEntity
  8
DEFPOINTS
 62
     0
100
AcDbPoint
 10
38.60960143779825
 20
39.4057083528671
 30
0.0
  0
POINT
  5
2FF
330
2B6
100
AcDbEntity
  8
DEFPOINTS
 62
     0
100
AcDbPoint
 10
43.03460143779751
 20
39.4057083528671
 30
0.0
  0
POINT
  5
300
330
2B6
100
AcDbEntity
  8
DEFPOINTS
 62
     0
100
AcDbPoint
 10
43.03460143779751
 20
47.40570835286709
 30
0.0
  0
ENDBLK
  5
2C3
330
2B6
100
AcDbEntity
  8
0
100
AcDbBlockEnd
  0
BLOCK
  5
2D0
330
2C6
100
AcDbEntity
  8
0
100
AcDbBlockBegin
  2
*D5
 70
     1
 10
0.0
 20
0.0
 30
0.0
  3
*D5
  1

  0
LINE
  5
2ED
330
2C6
100
AcDbEntity
  8
SUNPO
 62
     0
370
    -2
100
AcDbLine
 10
-34.98917964549106
 20
41.40570835286712
 30
0.0
 11
-34.98917964549106
 21
49.40570835286712
 31
0.0
  0
LINE
  5
2EE
330
2C6
100
AcDbEntity
  8
SUNPO
 62
     0
370
    -2
100
AcDbLine
 10
11.01082035450893
 20
41.40570835286712
 30
0.0
 11
11.01082035450893
 21
49.40570835286712
 31
0.0
  0
LINE
  5
2EF
330
2C6
100
AcDbEntity
  8
SUNPO
 62
     0
370
    -2
100
AcDbLine
 10
-32.98917964549107
 20
47.40570835286712
 30
0.0
 11
9.010820354508936
 21
47.40570835286712
 31
0.0
  0
INSERT
  5
2F0
330
2C6
100
AcDbEntity
  8
SUNPO
 62
     0
370
    -2
100
AcDbBlockReference
  2
_OPEN30
 10
-34.98917964549106
 20
47.40570835286712
 30
0.0
 41
2.0
 42
2.0
 43
2.0
 50
180.0
  0
INSERT
  5
2F1
330
2C6
100
AcDbEntity
  8
SUNPO
 62
     0
370
    -2
100
AcDbBlockReference
  2
_OPEN30
 10
11.01082035450893
 20
47.40570835286712
 30
0.0
 41
2.0
 42
2.0
 43
2.0
  0
MTEXT
  5
2F2
330
2C6
100
AcDbEntity
  8
SUNPO
 62
     0
100
AcDbMText
 10
-11.98917964549106
 20
49.15570835286712
 30
0.0
 40
2.5
 41
0.0
 71
     5
 72
     1
  1
\A1;920
 73
     1
 44
1.0
1001
ACAD
1000
MTEXTBEGIN
1070
    73
1070
     1
1070
    44
1040
1.0
1070
    74
1070
     0
1000
MTEXTEND
  0
POINT
  5
2F3
330
2C6
100
AcDbEntity
  8
DEFPOINTS
 62
     0
100
AcDbPoint
 10
-34.98917964549106
 20
39.40570835286712
 30
0.0
  0
POINT
  5
2F4
330
2C6
100
AcDbEntity
  8
DEFPOINTS
 62
     0
100
AcDbPoint
 10
11.01082035450893
 20
39.40570835286712
 30
0.0
  0
POINT
  5
2F5
330
2C6
100
AcDbEntity
  8
DEFPOINTS
 62
     0
100
AcDbPoint
 10
11.01082035450893
 20
47.40570835286712
 30
0.0
  0
ENDBLK
  5
2D1
330
2C6
100
AcDbEntity
  8
0
100
AcDbBlockEnd
  0
BLOCK
  5
2DC
330
2D2
100
AcDbEntity
  8
0
100
AcDbBlockBegin
  2
*D6
 70
     1
 10
0.0
 20
0.0
 30
0.0
  3
*D6
  1

  0
LINE
  5
2E4
330
2D2
100
AcDbEntity
  8
SUNPO
 62
     0
370
    -2
100
AcDbLine
 10
13.02114975651896
 20
11.85570960286713
 30
0.0
 11
21.02114975651896
 21
11.85570960286713
 31
0.0
  0
LINE
  5
2E5
330
2D2
100
AcDbEntity
  8
SUNPO
 62
     0
370
    -2
100
AcDbLine
 10
13.02114975651896
 20
39.40599479721845
 30
0.0
 11
21.02114975651897
 21
39.40599479721845
 31
0.0
  0
LINE
  5
2E6
330
2D2
100
AcDbEntity
  8
SUNPO
 62
     0
370
    -2
100
AcDbLine
 10
19.02114975651896
 20
13.85570960286713
 30
0.0
 11
19.02114975651896
 21
37.40599479721845
 31
0.0
  0
INSERT
  5
2E7
330
2D2
100
AcDbEntity
  8
SUNPO
 62
     0
370
    -2
100
AcDbBlockReference
  2
_OPEN30
 10
19.02114975651896
 20
11.85570960286713
 30
0.0
 41
2.0
 42
2.0
 43
2.0
 50
270.0
  0
INSERT
  5
2E8
330
2D2
100
AcDbEntity
  8
SUNPO
 62
     0
370
    -2
100
AcDbBlockReference
  2
_OPEN30
 10
19.02114975651896
 20
39.40599479721845
 30
0.0
 41
2.0
 42
2.0
 43
2.0
 50
90.0
  0
MTEXT
  5
2E9
330
2D2
100
AcDbEntity
  8
SUNPO
 62
     0
100
AcDbMText
 10
17.27114975651896
 20
25.6308522000428
 30
0.0
 40
2.5
 41
0.0
 71
     5
 72
     1
  1
\A1;550
 11
0.0000000000000001
 21
1.0
 31
0.0
 73
     1
 44
1.0
1001
ACAD
1000
MTEXTBEGIN
1070
    73
1070
     1
1070
    44
1040
1.0
1070
    74
1070
     0
1000
MTEXTEND
  0
POINT
  5
2EA
330
2D2
100
AcDbEntity
  8
DEFPOINTS
 62
     0
100
AcDbPoint
 10
11.02114975651896
 20
11.85570960286713
 30
0.0
  0
POINT
  5
2EB
330
2D2
100
AcDbEntity
  8
DEFPOINTS
 62
     0
100
AcDbPoint
 10
11.02114975651896
 20
39.40599479721845
 30
0.0
  0
POINT
  5
2EC
330
2D2
100
AcDbEntity
  8
DEFPOINTS
 62
     0
100
AcDbPoint
 10
19.02114975651896
 20
39.40599479721845
 30
0.0
  0
ENDBLK
  5
2DD
330
2D2
100
AcDbEntity
  8
0
100
AcDbBlockEnd
  0
ENDSEC
  0
SECTION
  2
ENTITIES
  0
TEXT
  5
37
330
2
100
AcDbEntity
  8
MOJI1
100
AcDbText
 10
-31.67859158631447
 20
63.76940874891795
 30
0.0
 40
4.0
  1
ハイビジョンプラズマディスプレイ
100
AcDbText
  0
TEXT
  5
39
330
2
100
AcDbEntity
  8
TOUROKU
100
AcDbText
 10
47.92135844661295
 20
57.76940874891781
 30
0.0
 40
2.0
  1
ＴＨ３７ＰＨ９Ｋ
 72
     2
 11
66.32135844661296
 21
57.76940874891781
 31
0.0
100
AcDbText
  0
DIMENSION
  5
3B
330
2
100
AcDbEntity
  8
SUNPO
100
AcDbDimension
  2
*D4
 10
43.03460143779751
 20
47.40570835286709
 30
0.0
 11
49.61793477113086
 21
49.15570835286709
 31
0.0
 70
    33
  1
89
 71
     5
 42
4.424999999999272
  3
STANDARD
100
AcDbAlignedDimension
 13
38.60960143779825
 23
39.4057083528671
 33
0.0
 14
43.03460143779751
 24
39.4057083528671
 34
0.0
1001
ACAD
1000
DSTYLE
1002
{
1070
   287
1070
     3
1070
   287
1070
     3
1070
   287
1070
     3
1070
   287
1070
     3
1070
   287
1070
     3
1070
   287
1070
     3
1070
   287
1070
     3
1070
   287
1070
     3
1070
   287
1070
     3
1070
   287
1070
     3
1070
   287
1070
     3
1070
   287
1070
     3
1070
   287
1070
     3
1070
   287
1070
     3
1070
   287
1070
     3
1070
   287
1070
     3
1070
   287
1070
     3
1070
   287
1070
     3
1070
   287
1070
     3
1070
   287
1070
     3
1070
   287
1070
     3
1070
   287
1070
     3
1070
   287
1070
     3
1070
   287
1070
     3
1070
   287
1070
     3
1070
   287
1070
     3
1070
    40
1040
1.0
1070
   140
1040
2.5
1070
   147
1040
0.5
1070
   172
1070
     1
1070
   279
1070
     0
1002
}
  0
DIMENSION
  5
4B
330
2
100
AcDbEntity
  8
SUNPO
100
AcDbDimension
  2
*D5
 10
11.01082035450893
 20
47.40570835286712
 30
0.0
 11
-11.98917964549106
 21
49.15570835286712
 31
0.0
 70
    33
  1
920
 71
     5
 42
46.0
  3
STANDARD
100
AcDbAlignedDimension
 13
-34.98917964549106
 23
39.40570835286712
 33
0.0
 14
11.01082035450893
 24
39.40570835286712
 34
0.0
1001
ACAD
1000
DSTYLE
1002
{
1070
   287
1070
     3
1070
   287
1070
     3
1070
   287
1070
     3
1070
   287
1070
     3
1070
   287
1070
     3
1070
   287
1070
     3
1070
   287
1070
     3
1070
   287
1070
     3
1070
   287
1070
     3
1070
   287
1070
     3
1070
   287
1070
     3
1070
   287
1070
     3
1070
   287
1070
     3
1070
   287
1070
     3
1070
   287
1070
     3
1070
   287
1070
     3
1070
   287
1070
     3
1070
   287
1070
     3
1070
   287
1070
     3
1070
   287
1070
     3
1070
   287
1070
     3
1070
   287
1070
     3
1070
   287
1070
     3
1070
   287
1070
     3
1070
   287
1070
     3
1070
   287
1070
     3
1070
    40
1040
1.0
1070
   140
1040
2.5
1070
   147
1040
0.5
1070
   172
1070
     1
1070
   279
1070
     0
1002
}
  0
LINE
  5
58
330
2
100
AcDbEntity
  8
GAIKEI
  6
Continuous
 62
     1
100
AcDbLine
 10
-34.65003414549109
 20
11.96255010286734
 30
0.0
 11
10.67166685450898
 21
11.96255010286734
 31
0.0
  0
LINE
  5
5A
330
2
100
AcDbEntity
  8
GAIKEI
  6
Continuous
 62
     1
100
AcDbLine
 10
-34.65003414549109
 20
11.99759210286731
 30
0.0
 11
10.67166685450898
 21
11.99759210286731
 31
0.0
  0
LINE
  5
5B
330
2
100
AcDbEntity
  8
GAIKEI
  6
Continuous
 62
     1
100
AcDbLine
 10
-34.65006464549107
 20
39.2543746028673
 30
0.0
 11
10.67169735450896
 21
39.2543746028673
 31
0.0
  0
LINE
  5
5C
330
2
100
AcDbEntity
  8
GAIKEI
  6
Continuous
 62
     1
100
AcDbLine
 10
-34.65006464549107
 20
39.2193406028673
 30
0.0
 11
10.67169735450896
 21
39.2193406028673
 31
0.0
  0
LINE
  5
5D
330
2
100
AcDbEntity
  8
GAIKEI
  6
Continuous
 62
     1
100
AcDbLine
 10
10.4379783545089
 20
12.23131110286732
 30
0.0
 11
-34.41633814549108
 21
12.23131110286732
 31
0.0
  0
LINE
  5
5E
330
2
100
AcDbEntity
  8
GAIKEI
  6
Continuous
 62
     1
100
AcDbLine
 10
-34.41633814549108
 20
12.25788410286731
 30
0.0
 11
10.4379783545089
 21
12.25788410286731
 31
0.0
  0
LINE
  5
5F
330
2
100
AcDbEntity
  8
GAIKEI
  6
Continuous
 62
     1
100
AcDbLine
 10
10.43800885450899
 20
38.98565210286733
 30
0.0
 11
-34.41636864549106
 21
38.98565210286733
 31
0.0
  0
LINE
  5
60
330
2
100
AcDbEntity
  8
GAIKEI
  6
Continuous
 62
     1
100
AcDbLine
 10
10.43800885450899
 20
38.95907110286731
 30
0.0
 11
-34.41636864549106
 21
38.95907110286731
 31
0.0
  0
LINE
  5
61
330
2
100
AcDbEntity
  8
GAIKEI
  6
Continuous
100
AcDbLine
 10
10.80806535450891
 20
11.86121660286733
 30
0.0
 11
-34.78642464549104
 21
11.86121660286733
 31
0.0
  0
LINE
  5
62
330
2
100
AcDbEntity
  8
GAIKEI
  6
Continuous
100
AcDbLine
 10
10.80806535450891
 20
39.35570810286731
 30
0.0
 11
-34.78642464549104
 21
39.35570810286731
 31
0.0
  0
LINE
  5
63
330
2
100
AcDbEntity
  8
GAIKEI
  6
Continuous
 62
     1
100
AcDbLine
 10
-33.48918364549111
 20
38.06038210286732
 30
0.0
 11
9.510823854508927
 21
38.06038210286732
 31
0.0
  0
LINE
  5
64
330
2
100
AcDbEntity
  8
GAIKEI
  6
Continuous
 62
     1
100
AcDbLine
 10
9.510823854508927
 20
38.02360810286734
 30
0.0
 11
-33.48918364549111
 21
38.02360810286734
 31
0.0
  0
LINE
  5
65
330
2
100
AcDbEntity
  8
GAIKEI
  6
Continuous
 62
     1
100
AcDbLine
 10
-33.48918364549111
 20
37.96380910286734
 30
0.0
 11
9.510823854508927
 21
37.96380910286734
 31
0.0
  0
LINE
  5
66
330
2
100
AcDbEntity
  8
GAIKEI
  6
Continuous
 62
     1
100
AcDbLine
 10
-33.48918364549111
 20
37.97696960286732
 30
0.0
 11
9.510823854508927
 21
37.97696960286732
 31
0.0
  0
LINE
  5
67
330
2
100
AcDbEntity
  8
GAIKEI
  6
Continuous
 62
     1
100
AcDbLine
 10
9.510823854508927
 20
37.95846060286732
 30
0.0
 11
-33.48918364549111
 21
37.95846060286732
 31
0.0
  0
LINE
  5
68
330
2
100
AcDbEntity
  8
GAIKEI
  6
Continuous
 62
     1
100
AcDbLine
 10
9.510823854508927
 20
13.19330910286732
 30
0.0
 11
-33.48918364549111
 21
13.19330910286732
 31
0.0
  0
LINE
  5
69
330
2
100
AcDbEntity
  8
GAIKEI
  6
Continuous
 62
     1
100
AcDbLine
 10
9.510823854508927
 20
13.15654260286732
 30
0.0
 11
-33.48918364549111
 21
13.15654260286732
 31
0.0
  0
LINE
  5
6A
330
2
100
AcDbEntity
  8
GAIKEI
  6
Continuous
 62
     1
100
AcDbLine
 10
-33.48918364549111
 20
13.23995510286733
 30
0.0
 11
9.510823854508927
 21
13.23995510286733
 31
0.0
  0
LINE
  5
6B
330
2
100
AcDbEntity
  8
GAIKEI
  6
Continuous
 62
     1
100
AcDbLine
 10
-33.48918364549111
 20
13.25846410286732
 30
0.0
 11
9.510823854508927
 21
13.25846410286732
 31
0.0
  0
LINE
  5
6C
330
2
100
AcDbEntity
  8
GAIKEI
  6
Continuous
 62
     1
100
AcDbLine
 10
-32.46917914549108
 20
37.13346410286732
 30
0.0
 11
8.490819854508899
 21
37.13346410286732
 31
0.0
  0
LINE
  5
6D
330
2
100
AcDbEntity
  8
GAIKEI
  6
Continuous
 62
     1
100
AcDbLine
 10
8.490819854508899
 20
14.08346060286732
 30
0.0
 11
-32.46917914549108
 21
14.08346060286732
 31
0.0
  0
LINE
  5
6E
330
2
100
AcDbEntity
  8
GAIKEI
  6
Continuous
 62
     1
100
AcDbLine
 10
-34.65006564549101
 20
11.96255110286734
 30
0.0
 11
-34.65006564549101
 21
11.99757760286729
 31
0.0
  0
SPLINE
  5
6F
330
2
100
AcDbEntity
  8
GAIKEI
  6
Continuous
 62
     1
100
AcDbSpline
210
0.0
220
0.0
230
1.0
 70
     8
 71
     3
 72
     9
 73
     5
 74
     3
 42
0.0000000001
 43
0.0000000001
 44
0.000001
 12
-0.9139951375439068
 22
0.4057251391596223
 32
0.0
 13
-0.0654723795846453
 23
0.9978543819172838
 33
0.0
 40
0.0
 40
0.0
 40
0.0
 40
0.0
 40
0.0128903660554586
 40
0.0417811527458202
 40
0.0417811527458202
 40
0.0417811527458202
 40
0.0417811527458202
 10
-34.68522095675333
 20
11.96242813315871
 30
0.0
 10
-34.68914820071861
 20
11.96417144834592
 30
0.0
 10
-34.68939237823652
 20
11.98196863192706
 30
0.0
 10
-34.69219694691676
 20
11.99366631211373
 30
0.0
 10
-34.69282746310098
 20
12.00327591147908
 30
0.0
 11
-34.68522095675333
 21
11.96242813315871
 31
0.0
 11
-34.68954190490526
 21
11.97457321562501
 31
0.0
 11
-34.69282746310098
 21
12.00327591147908
 31
0.0
  0
SPLINE
  5
70
330
2
100
AcDbEntity
  8
GAIKEI
  6
Continuous
 62
     1
100
AcDbSpline
210
0.0
220
0.0
230
1.0
 70
     8
 71
     3
 72
     9
 73
     5
 74
     3
 42
0.0000000001
 43
0.0000000001
 44
0.000001
 12
0.9999805312995993
 22
0.0062399536673773
 32
0.0
 13
0.9999999040290692
 23
0.0004381116892882
 33
0.0
 40
0.0
 40
0.0
 40
0.0
 40
0.0
 40
0.017549462741725
 40
0.0351564989035065
 40
0.0351564989035065
 40
0.0351564989035065
 40
0.0351564989035065
 10
-34.68522095675333
 20
11.96242813315871
 30
0.0
 10
-34.67937124972783
 20
11.96246463577017
 30
0.0
 10
-34.66765254764016
 20
11.9625231278259
 30
0.0
 10
-34.655933718244
 20
11.96254763218843
 30
0.0
 10
-34.65006470675333
 20
11.96255020347121
 30
0.0
 11
-34.68522095675333
 21
11.96242813315871
 31
0.0
 11
-34.66767171020367
 21
11.96251454876051
 31
0.0
 11
-34.65006470675333
 21
11.96255020347121
 31
0.0
  0
SPLINE
  5
71
330
2
100
AcDbEntity
  8
GAIKEI
  6
Continuous
 62
     1
100
AcDbSpline
210
0.0
220
0.0
230
1.0
 70
     8
 71
     3
 72
     9
 73
     5
 74
     3
 42
0.0000000001
 43
0.0000000001
 44
0.000001
 12
-0.986364735981383
 22
0.1645740186432134
 32
0.0
 13
-0.9941141373749637
 23
0.1083378136720127
 33
0.0
 40
0.0
 40
0.0
 40
0.0
 40
0.0
 40
0.0222715874947549
 40
0.0431453948552264
 40
0.0431453948552264
 40
0.0431453948552264
 40
0.0431453948552264
 10
-34.65006470675333
 20
11.99757675376423
 30
0.0
 10
-34.65738734292638
 20
11.99879852864941
 30
0.0
 10
-34.6716222406244
 20
12.00087640314635
 30
0.0
 10
-34.68591048076836
 20
12.00252210392827
 30
0.0
 10
-34.69282746310098
 20
12.00327591147908
 30
0.0
 11
-34.65006470675333
 21
11.99757675376423
 31
0.0
 11
-34.67209763820036
 21
12.00082956246729
 31
0.0
 11
-34.69282746310098
 21
12.00327591147908
 31
0.0
  0
SPLINE
  5
72
330
2
100
AcDbEntity
  8
GAIKEI
  6
Continuous
 62
     1
100
AcDbSpline
210
0.0
220
0.0
230
1.0
 70
     8
 71
     3
 72
     9
 73
     5
 74
     3
 42
0.0000000001
 43
0.0000000001
 44
0.000001
 12
0.4044746270966109
 22
-0.9145492201270839
 32
0.0
 13
0.9978440825090476
 23
-0.0656291627378931
 33
0.0
 40
0.0
 40
0.0
 40
0.0
 40
0.0
 40
0.0128894510390969
 40
0.04177723735296
 40
0.04177723735296
 40
0.04177723735296
 40
0.04177723735296
 10
-34.88521027560099
 20
12.16243271079543
 30
0.0
 10
-34.88347245696682
 20
12.15850336499687
 30
0.0
 10
-34.86567148860193
 20
12.15824843308695
 30
0.0
 10
-34.85397862888523
 20
12.15544290606843
 30
0.0
 10
-34.8443701266752
 20
12.15481094565871
 30
0.0
 11
-34.88521027560099
 21
12.16243271079543
 31
0.0
 11
-34.87306894939145
 21
12.15810394186223
 31
0.0
 11
-34.8443701266752
 21
12.15481094565871
 31
0.0
  0
SPLINE
  5
73
330
2
100
AcDbEntity
  8
GAIKEI
  6
Continuous
 62
     1
100
AcDbSpline
210
0.0
220
0.0
230
1.0
 70
     8
 71
     3
 72
     9
 73
     5
 74
     3
 42
0.0000000001
 43
0.0000000001
 44
0.000001
 12
-0.0030625663010944
 22
-0.9999953103328294
 32
0.0
 13
0.9999960456043623
 23
0.00281225454715
 33
0.0
 40
0.0
 40
0.0
 40
0.0
 40
0.0
 40
0.1528727269418912
 40
0.305668796357083
 40
0.305668796357083
 40
0.305668796357083
 40
0.305668796357083
 10
-34.88521027560099
 20
12.16243271079543
 30
0.0
 10
-34.88536633655495
 20
12.11147537412219
 30
0.0
 10
-34.84161660508026
 20
12.00599970511223
 30
0.0
 10
-34.73615277848636
 20
11.96228489934503
 30
0.0
 10
-34.68522095675333
 20
11.96242813315871
 30
0.0
 11
-34.88521027560099
 21
12.16243271079543
 31
0.0
 11
-34.82617007589773
 21
12.02142050614458
 31
0.0
 11
-34.68522095675333
 21
11.96242813315871
 31
0.0
  0
SPLINE
  5
74
330
2
100
AcDbEntity
  8
GAIKEI
  6
Continuous
 62
     1
100
AcDbSpline
210
0.0
220
0.0
230
1.0
 70
     8
 71
     3
 72
     9
 73
     5
 74
     3
 42
0.0000000001
 43
0.0000000001
 44
0.000001
 12
-0.9941852175714394
 22
0.1076835788893997
 32
0.0
 13
-0.1080757052099316
 23
0.9941426667955541
 33
0.0
 40
0.0
 40
0.0
 40
0.0
 40
0.0
 40
0.1134450372846391
 40
0.2269467131463729
 40
0.2269467131463729
 40
0.2269467131463729
 40
0.2269467131463729
 10
-34.69282746310098
 20
12.00327591147908
 30
0.0
 10
-34.7304225894594
 20
12.0073479673531
 30
0.0
 10
-34.80463450651915
 20
12.04299208230876
 30
0.0
 10
-34.84028120212145
 20
12.1171986594164
 30
0.0
 10
-34.8443701266752
 20
12.15481094565871
 30
0.0
 11
-34.69282746310098
 21
12.00327591147908
 31
0.0
 11
-34.79498020112273
 21
12.05261828579637
 31
0.0
 11
-34.8443701266752
 21
12.15481094565871
 31
0.0
  0
LINE
  5
75
330
2
100
AcDbEntity
  8
GAIKEI
  6
Continuous
 62
     1
100
AcDbLine
 10
-34.88509564549101
 20
12.19758110286733
 30
0.0
 11
-34.85006164549101
 21
12.19758110286733
 31
0.0
  0
SPLINE
  5
76
330
2
100
AcDbEntity
  8
GAIKEI
  6
Continuous
 62
     1
100
AcDbSpline
210
0.0
220
0.0
230
1.0
 70
     8
 71
     3
 72
     9
 73
     5
 74
     3
 42
0.0000000001
 43
0.0000000001
 44
0.000001
 12
0.0000596296056106
 22
-0.9999999982221552
 32
0.0
 13
-0.0057533966633092
 23
-0.9999834490764508
 33
0.0
 40
0.0
 40
0.0
 40
0.0
 40
0.0
 40
0.0176075841952256
 40
0.035148844006827
 40
0.035148844006827
 40
0.035148844006827
 40
0.035148844006827
 10
-34.88509583468302
 20
12.19758133140095
 30
0.0
 10
-34.88509548470525
 20
12.19171213667965
 30
0.0
 10
-34.88511904672222
 20
12.17999584919065
 30
0.0
 10
-34.88517663499243
 20
12.16827970062462
 30
0.0
 10
-34.88521027560099
 20
12.16243271079543
 30
0.0
 11
-34.88509583468302
 21
12.19758133140095
 31
0.0
 11
-34.88512762396017
 21
12.17997376543167
 31
0.0
 11
-34.88521027560099
 21
12.16243271079543
 31
0.0
  0
SPLINE
  5
77
330
2
100
AcDbEntity
  8
GAIKEI
  6
Continuous
 62
     1
100
AcDbSpline
210
0.0
220
0.0
230
1.0
 70
     8
 71
     3
 72
     9
 73
     5
 74
     3
 42
0.0000000001
 43
0.0000000001
 44
0.000001
 12
-0.1078701526941097
 22
0.9941649914162887
 32
0.0
 13
-0.1648786729742667
 23
0.9863138563349117
 33
0.0
 40
0.0
 40
0.0
 40
0.0
 40
0.0
 40
0.0208770338416671
 40
0.0431530836837089
 40
0.0431530836837089
 40
0.0431530836837089
 40
0.0431530836837089
 10
-34.8443701266752
 20
12.15481094565871
 30
0.0
 10
-34.84512079628463
 20
12.1617293510487
 30
0.0
 10
-34.84676380191544
 20
12.17602053575527
 30
0.0
 10
-34.84884500254447
 20
12.19025760585976
 30
0.0
 10
-34.85006928439016
 20
12.19758133140095
 30
0.0
 11
-34.8443701266752
 21
12.15481094565871
 31
0.0
 11
-34.84681209684102
 21
12.17554453682783
 31
0.0
 11
-34.85006928439016
 21
12.19758133140095
 31
0.0
  0
LINE
  5
78
330
2
100
AcDbEntity
  8
GAIKEI
  6
Continuous
 62
     1
100
AcDbLine
 10
-34.88509564549101
 20
39.01934360286731
 30
0.0
 11
-34.85006164549101
 21
39.01934360286731
 31
0.0
  0
LINE
  5
79
330
2
100
AcDbEntity
  8
GAIKEI
  6
Continuous
 62
     1
100
AcDbLine
 10
-34.88509564549101
 20
39.01934360286731
 30
0.0
 11
-34.88509564549101
 21
12.19758110286733
 31
0.0
  0
LINE
  5
7A
330
2
100
AcDbEntity
  8
GAIKEI
  6
Continuous
 62
     1
100
AcDbLine
 10
-34.85006164549101
 20
39.01934360286731
 30
0.0
 11
-34.85006164549101
 21
12.19758110286733
 31
0.0
  0
SPLINE
  5
7B
330
2
100
AcDbEntity
  8
GAIKEI
  6
Continuous
 62
     1
100
AcDbSpline
210
0.0
220
0.0
230
1.0
 70
     8
 71
     3
 72
     9
 73
     5
 74
     3
 42
0.0000000001
 43
0.0000000001
 44
0.000001
 12
0.4044746270966109
 22
0.9145492201270839
 32
0.0
 13
0.9978440825090476
 23
0.0656291627378931
 33
0.0
 40
0.0
 40
0.0
 40
0.0
 40
0.0
 40
0.0128894510390969
 40
0.0417772373529535
 40
0.0417772373529535
 40
0.0417772373529535
 40
0.0417772373529535
 10
-34.88521027560099
 20
39.05449203696736
 30
0.0
 10
-34.88347245696682
 20
39.05842138276592
 30
0.0
 10
-34.86567148860193
 20
39.05867631467586
 30
0.0
 10
-34.85397862888522
 20
39.0614818416943
 30
0.0
 10
-34.8443701266752
 20
39.06211380210402
 30
0.0
 11
-34.88521027560099
 21
39.05449203696736
 31
0.0
 11
-34.87306894939145
 21
39.05882080590055
 31
0.0
 11
-34.8443701266752
 21
39.06211380210402
 31
0.0
  0
SPLINE
  5
7C
330
2
100
AcDbEntity
  8
GAIKEI
  6
Continuous
 62
     1
100
AcDbSpline
210
0.0
220
0.0
230
1.0
 70
     8
 71
     3
 72
     9
 73
     5
 74
     3
 42
0.0000000001
 43
0.0000000001
 44
0.000001
 12
0.0057533966633093
 22
-0.9999834490764508
 32
0.0
 13
-0.0000596296056105
 23
-0.9999999982221552
 33
0.0
 40
0.0
 40
0.0
 40
0.0
 40
0.0
 40
0.0175450744589376
 40
0.0351564733689615
 40
0.0351564733689615
 40
0.0351564733689615
 40
0.0351564733689615
 10
-34.88521027560099
 20
39.05449203696736
 30
0.0
 10
-34.8851766276767
 20
39.04864377561012
 30
0.0
 10
-34.88511903930713
 20
39.03692508387567
 30
0.0
 10
-34.88509548462943
 20
39.02520625326025
 30
0.0
 10
-34.88509583468302
 20
39.01933578696736
 30
0.0
 11
-34.88521027560099
 21
39.05449203696736
 31
0.0
 11
-34.88512762396001
 21
39.0369471676338
 31
0.0
 11
-34.88509583468302
 21
39.01933578696736
 31
0.0
  0
SPLINE
  5
7D
330
2
100
AcDbEntity
  8
GAIKEI
  6
Continuous
 62
     1
100
AcDbSpline
210
0.0
220
0.0
230
1.0
 70
     8
 71
     3
 72
     9
 73
     5
 74
     3
 42
0.0000000001
 43
0.0000000001
 44
0.000001
 12
-0.1078701526941097
 22
-0.9941649914162887
 32
0.0
 13
-0.1648786729742669
 23
-0.9863138563349115
 33
0.0
 40
0.0
 40
0.0
 40
0.0
 40
0.0
 40
0.020880823583586
 40
0.0431606459137041
 40
0.0431606459137041
 40
0.0431606459137041
 40
0.0431606459137041
 10
-34.8443701266752
 20
39.06211380210402
 30
0.0
 10
-34.84512093255131
 20
39.05519414083779
 30
0.0
 10
-34.84676380375379
 20
39.04090040968754
 30
0.0
 10
-34.8488447952102
 20
39.02666075279433
 30
0.0
 10
-34.85006928439016
 20
39.01933578696736
 30
0.0
 11
-34.8443701266752
 21
39.06211380210402
 31
0.0
 11
-34.84681209684102
 21
39.04137639623769
 31
0.0
 11
-34.85006928439016
 21
39.01933578696736
 31
0.0
  0
SPLINE
  5
7E
330
2
100
AcDbEntity
  8
GAIKEI
  6
Continuous
 62
     1
100
AcDbSpline
210
0.0
220
0.0
230
1.0
 70
     8
 71
     3
 72
     9
 73
     5
 74
     3
 42
0.0000000001
 43
0.0000000001
 44
0.000001
 12
-0.9139951375439068
 22
-0.4057251391596223
 32
0.0
 13
-0.065472379584645
 23
-0.9978543819172838
 33
0.0
 40
0.0
 40
0.0
 40
0.0
 40
0.0
 40
0.012893960118603
 40
0.0417885367070464
 40
0.0417885367070464
 40
0.0417885367070464
 40
0.0417885367070464
 10
-34.68522095675333
 20
39.25449661460402
 30
0.0
 10
-34.68914929570403
 20
39.25275281334953
 30
0.0
 10
-34.68939101729707
 20
39.23495149039295
 30
0.0
 10
-34.69219686420554
 20
39.22325206684337
 30
0.0
 10
-34.69282746310098
 20
39.21364120688924
 30
0.0
 11
-34.68522095675333
 21
39.25449661460402
 31
0.0
 11
-34.68954190490526
 21
39.24234771744051
 31
0.0
 11
-34.69282746310098
 21
39.21364120688924
 31
0.0
  0
SPLINE
  5
7F
330
2
100
AcDbEntity
  8
GAIKEI
  6
Continuous
 62
     1
100
AcDbSpline
210
0.0
220
0.0
230
1.0
 70
     8
 71
     3
 72
     9
 73
     5
 74
     3
 42
0.0000000001
 43
0.0000000001
 44
0.000001
 12
-0.0030467907712903
 22
0.9999953585222264
 32
0.0
 13
0.9999960324484348
 23
-0.0028169287156312
 33
0.0
 40
0.0
 40
0.0
 40
0.0
 40
0.0
 40
0.1527821597184313
 40
0.3056727442871226
 40
0.3056727442871226
 40
0.3056727442871226
 40
0.3056727442871226
 10
-34.88521027560099
 20
39.05449203696736
 30
0.0
 10
-34.8853654406924
 20
39.10541918716183
 30
0.0
 10
-34.8416597574322
 20
39.21089623400226
 30
0.0
 10
-34.73618428274246
 20
39.25464017523004
 30
0.0
 10
-34.68522095675333
 20
39.25449661460402
 30
0.0
 11
-34.88521027560099
 21
39.05449203696736
 31
0.0
 11
-34.82624447238966
 21
39.19543719804892
 31
0.0
 11
-34.68522095675333
 21
39.25449661460402
 31
0.0
  0
SPLINE
  5
80
330
2
100
AcDbEntity
  8
GAIKEI
  6
Continuous
 62
     1
100
AcDbSpline
210
0.0
220
0.0
230
1.0
 70
     8
 71
     3
 72
     9
 73
     5
 74
     3
 42
0.0000000001
 43
0.0000000001
 44
0.000001
 12
-0.9941808204825687
 22
-0.1077241671335025
 32
0.0
 13
-0.1080689536055774
 23
-0.9941434007559449
 33
0.0
 40
0.0
 40
0.0
 40
0.0
 40
0.0
 40
0.1135166003517712
 40
0.2269439770027967
 40
0.2269439770027967
 40
0.2269439770027967
 40
0.2269439770027967
 10
-34.69282746310098
 20
39.21364120688924
 30
0.0
 10
-34.73044613872635
 20
39.20956504647967
 30
0.0
 10
-34.80466362988702
 20
39.17391098447266
 30
0.0
 10
-34.84028413404023
 20
39.09970149475825
 30
0.0
 10
-34.8443701266752
 20
39.06211380210402
 30
0.0
 11
-34.69282746310098
 21
39.21364120688924
 31
0.0
 11
-34.79503668257725
 21
39.16425123430491
 31
0.0
 11
-34.8443701266752
 21
39.06211380210402
 31
0.0
  0
LINE
  5
81
330
2
100
AcDbEntity
  8
GAIKEI
  6
Continuous
 62
     1
100
AcDbLine
 10
-34.65006464549107
 20
39.2543746028673
 30
0.0
 11
-34.65006464549107
 21
39.2193406028673
 31
0.0
  0
SPLINE
  5
82
330
2
100
AcDbEntity
  8
GAIKEI
  6
Continuous
 62
     1
100
AcDbSpline
210
0.0
220
0.0
230
1.0
 70
     8
 71
     3
 72
     9
 73
     5
 74
     3
 42
0.0000000001
 43
0.0000000001
 44
0.000001
 12
0.9999805312995993
 22
-0.0062399536673773
 32
0.0
 13
0.9999999040290692
 23
-0.0004381116892882
 33
0.0
 40
0.0
 40
0.0
 40
0.0
 40
0.0
 40
0.0175494874590807
 40
0.0351565262130933
 40
0.0351565262130933
 40
0.0351565262130933
 40
0.0351565262130933
 10
-34.68522095675333
 20
39.25449661460402
 30
0.0
 10
-34.67937124148887
 20
39.25446011194114
 30
0.0
 10
-34.66765255499489
 20
39.25439781148893
 30
0.0
 10
-34.65593371910808
 20
39.25436948618023
 30
0.0
 10
-34.65006470675333
 20
39.25436691489705
 30
0.0
 11
-34.68522095675333
 21
39.25449661460402
 31
0.0
 11
-34.66767171020367
 21
39.25440638430501
 31
0.0
 11
-34.65006470675333
 21
39.25436691489705
 31
0.0
  0
SPLINE
  5
83
330
2
100
AcDbEntity
  8
GAIKEI
  6
Continuous
 62
     1
100
AcDbSpline
210
0.0
220
0.0
230
1.0
 70
     8
 71
     3
 72
     9
 73
     5
 74
     3
 42
0.0000000001
 43
0.0000000001
 44
0.000001
 12
-0.986364735981383
 22
-0.1645740186432134
 32
0.0
 13
-0.9941141373749637
 23
-0.1083378136720127
 33
0.0
 40
0.0
 40
0.0
 40
0.0
 40
0.0
 40
0.0222715874947549
 40
0.0431453948552197
 40
0.0431453948552197
 40
0.0431453948552197
 40
0.0431453948552197
 10
-34.65006470675333
 20
39.21934036460402
 30
0.0
 10
-34.65738734292638
 20
39.21811858971884
 30
0.0
 10
-34.67162224062439
 20
39.21604071522185
 30
0.0
 10
-34.68591048076836
 20
39.21439501444004
 30
0.0
 10
-34.69282746310098
 20
39.21364120688924
 30
0.0
 11
-34.65006470675333
 21
39.21934036460402
 31
0.0
 11
-34.67209763820036
 21
39.21608755590097
 31
0.0
 11
-34.69282746310098
 21
39.21364120688924
 31
0.0
  0
LINE
  5
84
330
2
100
AcDbEntity
  8
GAIKEI
  6
Continuous
 62
     1
100
AcDbLine
 10
-34.41636814549106
 20
12.23127210286731
 30
0.0
 11
-34.41636814549106
 21
12.25785260286733
 31
0.0
  0
LINE
  5
85
330
2
100
AcDbEntity
  8
GAIKEI
  6
Continuous
 62
     1
100
AcDbLine
 10
-34.61637314549104
 20
12.4312696028673
 30
0.0
 11
-34.58979264549107
 21
12.4312696028673
 31
0.0
  0
SPLINE
  5
86
330
2
100
AcDbEntity
  8
GAIKEI
  6
Continuous
 62
     1
100
AcDbSpline
210
0.0
220
0.0
230
1.0
 70
     8
 71
     3
 72
     9
 73
     5
 74
     3
 42
0.0000000001
 43
0.0000000001
 44
0.000001
 12
0.1043962648031168
 22
-0.9945357811035043
 32
0.0
 13
0.9944834008957558
 23
-0.1048940672431561
 33
0.0
 40
0.0
 40
0.0
 40
0.0
 40
0.0
 40
0.1502246459133339
 40
0.3004483903974793
 40
0.3004483903974793
 40
0.3004483903974793
 40
0.3004483903974793
 10
-34.61636567110879
 20
12.43127731528761
 30
0.0
 10
-34.61113804047055
 20
12.3814760534328
 30
0.0
 10
-34.56575291178066
 20
12.28188712261826
 30
0.0
 10
-34.46617469236443
 20
12.23652526416944
 30
0.0
 10
-34.41637635226114
 20
12.23127273765095
 30
0.0
 11
-34.61636567110879
 21
12.43127731528761
 31
0.0
 11
-34.55220512668355
 21
12.29544296410563
 31
0.0
 11
-34.41637635226114
 21
12.23127273765095
 31
0.0
  0
SPLINE
  5
87
330
2
100
AcDbEntity
  8
GAIKEI
  6
Continuous
 62
     1
100
AcDbSpline
210
0.0
220
0.0
230
1.0
 70
     8
 71
     3
 72
     9
 73
     5
 74
     3
 42
0.0000000001
 43
0.0000000001
 44
0.000001
 12
-0.0004935846791767
 22
-0.9999998781870747
 32
0.0
 13
0.9999999974647188
 23
-0.0000712078827674
 33
0.0
 40
0.0
 40
0.0
 40
0.0
 40
0.0
 40
0.1321200165686116
 40
0.2642325369468689
 40
0.2642325369468689
 40
0.2642325369468689
 40
0.2642325369468689
 10
-34.58978486056186
 20
12.43127731528761
 30
0.0
 10
-34.58980659803386
 20
12.3872373151294
 30
0.0
 10
-34.55058724274787
 20
12.29704888785798
 30
0.0
 10
-34.46041385894225
 20
12.25784905462092
 30
0.0
 10
-34.41637635226114
 20
12.2578459188033
 30
0.0
 11
-34.58978486056186
 21
12.43127731528761
 31
0.0
 11
-34.53784760437886
 21
12.30979349100994
 31
0.0
 11
-34.41637635226114
 21
12.2578459188033
 31
0.0
  0
LINE
  5
88
330
2
100
AcDbEntity
  8
GAIKEI
  6
Continuous
 62
     1
100
AcDbLine
 10
-34.61637314549104
 20
38.78564760286736
 30
0.0
 11
-34.58979264549107
 21
38.78564760286736
 31
0.0
  0
LINE
  5
89
330
2
100
AcDbEntity
  8
GAIKEI
  6
Continuous
 62
     1
100
AcDbLine
 10
-34.61637314549104
 20
12.4312696028673
 30
0.0
 11
-34.61637314549104
 21
38.78564760286736
 31
0.0
  0
LINE
  5
8A
330
2
100
AcDbEntity
  8
GAIKEI
  6
Continuous
 62
     1
100
AcDbLine
 10
-34.58979264549107
 20
38.78564760286736
 30
0.0
 11
-34.58979264549107
 21
12.4312696028673
 31
0.0
  0
LINE
  5
8B
330
2
100
AcDbEntity
  8
GAIKEI
  6
Continuous
 62
     1
100
AcDbLine
 10
-34.41636864549106
 20
38.98565210286733
 30
0.0
 11
-34.41636864549106
 21
38.95907110286731
 31
0.0
  0
SPLINE
  5
8C
330
2
100
AcDbEntity
  8
GAIKEI
  6
Continuous
 62
     1
100
AcDbSpline
210
0.0
220
0.0
230
1.0
 70
     8
 71
     3
 72
     9
 73
     5
 74
     3
 42
0.0000000001
 43
0.0000000001
 44
0.000001
 12
0.104642441935238
 22
0.9945099091240019
 32
0.0
 13
0.994484379506783
 23
0.104884788778016
 33
0.0
 40
0.0
 40
0.0
 40
0.0
 40
0.0
 40
0.150226196322621
 40
0.3004497072682187
 40
0.3004497072682187
 40
0.3004497072682187
 40
0.3004497072682187
 10
-34.61636567110879
 20
38.78564743247518
 30
0.0
 10
-34.61112565910018
 20
38.83544791275947
 30
0.0
 10
-34.56576139784575
 20
38.93504101919337
 30
0.0
 10
-34.46617466395117
 20
38.98039995637356
 30
0.0
 10
-34.41637635226114
 20
38.98565201011189
 30
0.0
 11
-34.61636567110879
 21
38.78564743247518
 31
0.0
 11
-34.55220583821399
 21
38.92148383256682
 31
0.0
 11
-34.41637635226114
 21
38.98565201011189
 31
0.0
  0
SPLINE
  5
8D
330
2
100
AcDbEntity
  8
GAIKEI
  6
Continuous
 62
     1
100
AcDbSpline
210
0.0
220
0.0
230
1.0
 70
     8
 71
     3
 72
     9
 73
     5
 74
     3
 42
0.0000000001
 43
0.0000000001
 44
0.000001
 12
-0.9999999979780925
 22
-0.0000635909983545
 32
0.0
 13
0.0001980937106997
 23
-0.9999999803794407
 33
0.0
 40
0.0
 40
0.0
 40
0.0
 40
0.0
 40
0.13211136755034
 40
0.2642255878730202
 40
0.2642255878730202
 40
0.2642255878730202
 40
0.2642255878730202
 10
-34.41637635226114
 20
38.95907119956502
 30
0.0
 10
-34.46041347468888
 20
38.95906839920042
 30
0.0
 10
-34.55058998656688
 20
38.91986941804205
 30
0.0
 10
-34.58979358422725
 20
38.82968550505203
 30
0.0
 10
-34.58978486056186
 20
38.78564743247518
 30
0.0
 11
-34.41637635226114
 21
38.95907119956502
 31
0.0
 11
-34.53784676552199
 21
38.90712459179832
 31
0.0
 11
-34.58978486056186
 21
38.78564743247518
 31
0.0
  0
LINE
  5
8E
330
2
100
AcDbEntity
  8
GAIKEI
  6
Continuous
100
AcDbLine
 10
-34.78642464549104
 20
11.86114810286733
 30
0.0
 11
-34.78642464549104
 21
11.86121660286733
 31
0.0
  0
LINE
  5
8F
330
2
100
AcDbEntity
  8
GAIKEI
  6
Continuous
100
AcDbLine
 10
-34.78642464549104
 20
39.35570810286731
 30
0.0
 11
-34.78642464549104
 21
39.35577660286731
 31
0.0
  0
LINE
  5
90
330
2
100
AcDbEntity
  8
GAIKEI
  6
Continuous
100
AcDbLine
 10
-34.98642164549109
 20
39.15570360286734
 30
0.0
 11
-34.98649064549103
 21
39.15570360286734
 31
0.0
  0
SPLINE
  5
91
330
2
100
AcDbEntity
  8
GAIKEI
  6
Continuous
100
AcDbSpline
210
0.0
220
0.0
230
1.0
 70
     8
 71
     3
 72
     9
 73
     5
 74
     3
 42
0.0000000001
 43
0.0000000001
 44
0.000001
 12
-0.9999996993120754
 22
-0.0007754842093647
 32
0.0
 13
-0.0005570386226596
 23
-0.9999998448539743
 33
0.0
 40
0.0
 40
0.0
 40
0.0
 40
0.0
 40
0.1527426146021062
 40
0.3054864554005187
 40
0.3054864554005187
 40
0.3054864554005187
 40
0.3054864554005187
 10
-34.7864248752103
 20
39.35570816245564
 30
0.0
 10
-34.83733906476839
 20
39.35566867929373
 30
0.0
 10
-34.94259465529835
 20
39.31188009549123
 30
0.0
 10
-34.98639346204631
 20
39.20661819051918
 30
0.0
 10
-34.98642182345255
 20
39.15570358481892
 30
0.0
 11
-34.7864248752103
 21
39.35570816245564
 31
0.0
 11
-34.92723086640224
 21
39.29651277235354
 31
0.0
 11
-34.98642182345255
 21
39.15570358481892
 31
0.0
  0
LINE
  5
92
330
2
100
AcDbEntity
  8
GAIKEI
  6
Continuous
100
AcDbLine
 10
-34.98642214549109
 20
12.0612216028673
 30
0.0
 11
-34.98649064549103
 21
12.0612216028673
 31
0.0
  0
LINE
  5
93
330
2
100
AcDbEntity
  8
GAIKEI
  6
Continuous
100
AcDbLine
 10
-34.98642164549109
 20
12.0612211028673
 30
0.0
 11
-34.98642164549109
 21
39.15570360286734
 31
0.0
  0
SPLINE
  5
94
330
2
100
AcDbEntity
  8
GAIKEI
  6
Continuous
100
AcDbSpline
210
0.0
220
0.0
230
1.0
 70
     8
 71
     3
 72
     9
 73
     5
 74
     3
 42
0.0000000001
 43
0.0000000001
 44
0.000001
 12
-0.9999996993120754
 22
0.0007754842093647
 32
0.0
 13
-0.0005570386226591
 23
0.9999998448539743
 33
0.0
 40
0.0
 40
0.0
 40
0.0
 40
0.0
 40
0.1527426146021062
 40
0.3054864554005187
 40
0.3054864554005187
 40
0.3054864554005187
 40
0.3054864554005187
 10
-34.7864248752103
 20
11.86121658530715
 30
0.0
 10
-34.83733906476839
 20
11.86125606846906
 30
0.0
 10
-34.94259465529835
 20
11.90504465227153
 30
0.0
 10
-34.98639346204631
 20
12.01030655724361
 30
0.0
 10
-34.98642182345255
 20
12.06122116294386
 30
0.0
 11
-34.7864248752103
 21
11.86121658530715
 31
0.0
 11
-34.92723086640224
 21
11.92041197540925
 31
0.0
 11
-34.98642182345255
 21
12.06122116294386
 31
0.0
  0
LINE
  5
95
330
2
100
AcDbEntity
  8
GAIKEI
  6
Continuous
 62
     1
100
AcDbLine
 10
-33.65432964549111
 20
13.35846260286735
 30
0.0
 11
-33.69110314549103
 21
13.35846260286735
 31
0.0
  0
LINE
  5
96
330
2
100
AcDbEntity
  8
GAIKEI
  6
Continuous
 62
     1
100
AcDbLine
 10
-33.69110314549103
 20
13.35846260286735
 30
0.0
 11
-33.69110314549103
 21
37.85846260286735
 31
0.0
  0
LINE
  5
97
330
2
100
AcDbEntity
  8
GAIKEI
  6
Continuous
 62
     1
100
AcDbLine
 10
-33.65432964549111
 20
37.85846260286735
 30
0.0
 11
-33.69110314549103
 21
37.85846260286735
 31
0.0
  0
LINE
  5
98
330
2
100
AcDbEntity
  8
GAIKEI
  6
Continuous
 62
     1
100
AcDbLine
 10
-33.65432964549111
 20
13.35846260286735
 30
0.0
 11
-33.65432964549111
 21
37.85846260286735
 31
0.0
  0
LINE
  5
99
330
2
100
AcDbEntity
  8
GAIKEI
  6
Continuous
 62
     1
100
AcDbLine
 10
-33.59453014549111
 20
13.35846260286735
 30
0.0
 11
-33.60769114549102
 21
13.35846260286735
 31
0.0
  0
LINE
  5
9A
330
2
100
AcDbEntity
  8
GAIKEI
  6
Continuous
 62
     1
100
AcDbLine
 10
-33.60769114549102
 20
37.85846260286735
 30
0.0
 11
-33.60769114549102
 21
13.35846260286735
 31
0.0
  0
LINE
  5
9B
330
2
100
AcDbEntity
  8
GAIKEI
  6
Continuous
 62
     1
100
AcDbLine
 10
-33.59453014549111
 20
37.85846260286735
 30
0.0
 11
-33.60769114549102
 21
37.85846260286735
 31
0.0
  0
LINE
  5
9C
330
2
100
AcDbEntity
  8
GAIKEI
  6
Continuous
 62
     1
100
AcDbLine
 10
-34.88521464549105
 20
12.16242710286735
 30
0.0
 11
-34.9864211454911
 21
12.06122060286731
 31
0.0
  0
LINE
  5
9D
330
2
100
AcDbEntity
  8
GAIKEI
  6
Continuous
 62
     1
100
AcDbLine
 10
-34.98642314549103
 20
39.15570310286734
 30
0.0
 11
-34.88521164549105
 21
39.0544916028673
 31
0.0
  0
LINE
  5
9E
330
2
100
AcDbEntity
  8
GAIKEI
  6
Continuous
 62
     1
100
AcDbLine
 10
-34.85005914549108
 20
12.19758160286733
 30
0.0
 11
-34.61636764549111
 21
12.43127310286729
 31
0.0
  0
LINE
  5
9F
330
2
100
AcDbEntity
  8
GAIKEI
  6
Continuous
 62
     1
100
AcDbLine
 10
-34.85005714549102
 20
39.01933810286733
 30
0.0
 11
-34.61636564549106
 21
38.7856461028673
 31
0.0
  0
LINE
  5
A0
330
2
100
AcDbEntity
  8
GAIKEI
  6
Continuous
 62
     1
100
AcDbLine
 10
-33.65432964549111
 20
37.85846260286735
 30
0.0
 11
-33.60769114549102
 21
37.85846260286735
 31
0.0
  0
LINE
  5
A1
330
2
100
AcDbEntity
  8
GAIKEI
  6
Continuous
 62
     1
100
AcDbLine
 10
-33.65432964549111
 20
13.35846260286735
 30
0.0
 11
-33.60769114549102
 21
13.35846260286735
 31
0.0
  0
LINE
  5
A2
330
2
100
AcDbEntity
  8
GAIKEI
  6
Continuous
 62
     1
100
AcDbLine
 10
-33.59453014549111
 20
13.35846260286735
 30
0.0
 11
-33.58918214549102
 21
13.35846260286735
 31
0.0
  0
LINE
  5
A3
330
2
100
AcDbEntity
  8
GAIKEI
  6
Continuous
 62
     1
100
AcDbLine
 10
-33.58918214549102
 20
37.85846260286735
 30
0.0
 11
-33.58918214549102
 21
13.35846260286735
 31
0.0
  0
LINE
  5
A4
330
2
100
AcDbEntity
  8
GAIKEI
  6
Continuous
 62
     1
100
AcDbLine
 10
-33.58918214549102
 20
37.85846260286735
 30
0.0
 11
-33.59453014549111
 21
37.85846260286735
 31
0.0
  0
ARC
  5
A5
330
2
100
AcDbEntity
  8
GAIKEI
  6
Continuous
 62
     1
100
AcDbCircle
 10
-33.48918364549111
 20
13.35846260286735
 30
0.0
 40
0.1651475
100
AcDbArc
 50
179.9999639999983
 51
270.0000010000014
  0
SPLINE
  5
A6
330
2
100
AcDbEntity
  8
GAIKEI
  6
Continuous
 62
     1
100
AcDbSpline
210
0.0
220
0.0
230
1.0
 70
     8
 71
     3
 72
     9
 73
     5
 74
     3
 42
0.0000000001
 43
0.0000000001
 44
0.000001
 12
-0.0000108825045694
 22
-0.9999999999407855
 32
0.0
 13
0.9999999359060572
 23
-0.0003580333526479
 33
0.0
 40
0.0
 40
0.0
 40
0.0
 40
0.0
 40
0.0905206407692002
 40
0.1810380192734424
 40
0.1810380192734424
 40
0.1810380192734424
 40
0.1810380192734424
 10
-33.60768342013223
 20
13.35846237388137
 30
0.0
 10
-33.607683748496
 20
13.32828882696009
 30
0.0
 10
-33.58175785448441
 20
13.26587996612153
 30
0.0
 10
-33.51935612184035
 20
13.23995816197976
 30
0.0
 10
-33.4891836642728
 20
13.23994735923293
 30
0.0
 11
-33.60768342013223
 21
13.35846237388137
 31
0.0
 11
-33.57263880491248
 21
13.2750002261489
 31
0.0
 11
-33.4891836642728
 21
13.23994735923293
 31
0.0
  0
LINE
  5
A7
330
2
100
AcDbEntity
  8
GAIKEI
  6
Continuous
 62
     1
100
AcDbLine
 10
-33.48918364549111
 20
13.19330910286732
 30
0.0
 11
-33.48918364549111
 21
13.23995510286733
 31
0.0
  0
ARC
  5
A8
330
2
100
AcDbEntity
  8
GAIKEI
  6
Continuous
 62
     1
100
AcDbCircle
 10
-33.48918364549111
 20
13.35846260286735
 30
0.0
 40
0.1
100
AcDbArc
 50
179.9999639999983
 51
270.0000010000014
  0
LINE
  5
A9
330
2
100
AcDbEntity
  8
GAIKEI
  6
Continuous
 62
     1
100
AcDbLine
 10
-33.48918364549111
 20
13.25846410286732
 30
0.0
 11
-33.48918364549111
 21
13.2531156028673
 31
0.0
  0
LINE
  5
AA
330
2
100
AcDbEntity
  8
GAIKEI
  6
Continuous
 62
     1
100
AcDbLine
 10
-33.48918364549111
 20
13.2531156028673
 30
0.0
 11
-33.48918364549111
 21
13.23995510286733
 31
0.0
  0
LINE
  5
AB
330
2
100
AcDbEntity
  8
GAIKEI
  6
Continuous
 62
     1
100
AcDbLine
 10
-33.48918364549111
 20
13.19330910286732
 30
0.0
 11
-33.48918364549111
 21
13.15654260286732
 31
0.0
  0
ARC
  5
AC
330
2
100
AcDbEntity
  8
GAIKEI
  6
Continuous
 62
     1
100
AcDbCircle
 10
-33.48918364549111
 20
13.35846260286735
 30
0.0
 40
0.201919
100
AcDbArc
 50
179.9999639999983
 51
270.0000010000014
  0
ARC
  5
AD
330
2
100
AcDbEntity
  8
GAIKEI
  6
Continuous
 62
     1
100
AcDbCircle
 10
-33.48918364549111
 20
37.85846260286735
 30
0.0
 40
0.1651475
100
AcDbArc
 50
89.9999820000008
 51
179.9999639999983
  0
SPLINE
  5
AE
330
2
100
AcDbEntity
  8
GAIKEI
  6
Continuous
 62
     1
100
AcDbSpline
210
0.0
220
0.0
230
1.0
 70
     8
 71
     3
 72
     9
 73
     5
 74
     3
 42
0.0000000001
 43
0.0000000001
 44
0.000001
 12
-0.0000108825045694
 22
0.9999999999407855
 32
0.0
 13
0.9999999359060572
 23
0.0003580333526479
 33
0.0
 40
0.0
 40
0.0
 40
0.0
 40
0.0
 40
0.0905206407692002
 40
0.1810380192734424
 40
0.1810380192734424
 40
0.1810380192734424
 40
0.1810380192734424
 10
-33.60768342013223
 20
37.85845474448689
 30
0.0
 10
-33.607683748496
 20
37.88862829140817
 30
0.0
 10
-33.58175785448441
 20
37.95103715224679
 30
0.0
 10
-33.51935612184035
 20
37.9769589563885
 30
0.0
 10
-33.4891836642728
 20
37.97696975913533
 30
0.0
 11
-33.60768342013223
 21
37.85845474448689
 31
0.0
 11
-33.57263880491248
 21
37.94191689221936
 31
0.0
 11
-33.4891836642728
 21
37.97696975913533
 31
0.0
  0
LINE
  5
AF
330
2
100
AcDbEntity
  8
GAIKEI
  6
Continuous
 62
     1
100
AcDbLine
 10
-33.48918364549111
 20
38.02360810286734
 30
0.0
 11
-33.48918364549111
 21
37.97696960286732
 31
0.0
  0
SPLINE
  5
B0
330
2
100
AcDbEntity
  8
GAIKEI
  6
Continuous
 62
     1
100
AcDbSpline
210
0.0
220
0.0
230
1.0
 70
     8
 71
     3
 72
     9
 73
     5
 74
     3
 42
0.0000000001
 43
0.0000000001
 44
0.000001
 12
-0.9999999961343828
 22
0.0000879274394721
 32
0.0
 13
-0.0003366782114938
 23
-0.9999999433238894
 33
0.0
 40
0.0
 40
0.0
 40
0.0
 40
0.0
 40
0.0804628598389597
 40
0.1609386901306363
 40
0.1609386901306363
 40
0.1609386901306363
 40
0.1609386901306363
 10
-33.4891836642728
 20
37.96380905356893
 30
0.0
 10
-33.51600461744877
 20
37.96381141186666
 30
0.0
 10
-33.57148278026143
 20
37.94075386019199
 30
0.0
 10
-33.5945213124741
 20
37.88528001973043
 30
0.0
 10
-33.5945303439603
 20
37.85845474448689
 30
0.0
 11
-33.4891836642728
 21
37.96380905356893
 31
0.0
 11
-33.56337041817376
 21
37.932653657125
 31
0.0
 11
-33.5945303439603
 21
37.85845474448689
 31
0.0
  0
ARC
  5
B1
330
2
100
AcDbEntity
  8
GAIKEI
  6
Continuous
 62
     1
100
AcDbCircle
 10
-33.48918364549111
 20
37.85846260286735
 30
0.0
 40
0.1
100
AcDbArc
 50
89.9999820000008
 51
179.9999639999983
  0
LINE
  5
B2
330
2
100
AcDbEntity
  8
GAIKEI
  6
Continuous
 62
     1
100
AcDbLine
 10
-33.48918364549111
 20
37.95846060286732
 30
0.0
 11
-33.48918364549111
 21
37.96380910286734
 31
0.0
  0
LINE
  5
B3
330
2
100
AcDbEntity
  8
GAIKEI
  6
Continuous
 62
     1
100
AcDbLine
 10
-34.41636414549107
 20
38.98564760286729
 30
0.0
 11
-34.65005564549109
 21
39.21933960286731
 31
0.0
  0
LINE
  5
B4
330
2
100
AcDbEntity
  8
GAIKEI
  6
Continuous
 62
     1
100
AcDbLine
 10
-34.7864221454911
 20
39.35570460286732
 30
0.0
 11
-34.68521014549107
 21
39.25449260286735
 31
0.0
  0
LINE
  5
B5
330
2
100
AcDbEntity
  8
GAIKEI
  6
Continuous
 62
     1
100
AcDbLine
 10
-33.48918364549111
 20
37.97696960286732
 30
0.0
 11
-33.48918364549111
 21
37.96380910286734
 31
0.0
  0
LINE
  5
B6
330
2
100
AcDbEntity
  8
GAIKEI
  6
Continuous
 62
     1
100
AcDbLine
 10
-33.48918364549111
 20
38.06038210286732
 30
0.0
 11
-33.48918364549111
 21
38.02360810286734
 31
0.0
  0
ARC
  5
B7
330
2
100
AcDbEntity
  8
GAIKEI
  6
Continuous
 62
     1
100
AcDbCircle
 10
-33.48918364549111
 20
37.85846260286735
 30
0.0
 40
0.201919
100
AcDbArc
 50
89.9999820000008
 51
179.9999639999983
  0
LINE
  5
B8
330
2
100
AcDbEntity
  8
GAIKEI
  6
Continuous
 62
     1
100
AcDbLine
 10
-32.39917964549109
 20
12.35846260286735
 30
0.0
 11
-32.39917964549109
 21
12.70846060286732
 31
0.0
  0
LINE
  5
B9
330
2
100
AcDbEntity
  8
GAIKEI
  6
Continuous
 62
     1
100
AcDbLine
 10
-32.04918114549106
 20
12.35846260286735
 30
0.0
 11
-32.39917964549109
 21
12.35846260286735
 31
0.0
  0
LINE
  5
BA
330
2
100
AcDbEntity
  8
GAIKEI
  6
Continuous
 62
     1
100
AcDbLine
 10
-32.04918114549106
 20
12.70846060286732
 30
0.0
 11
-32.04918114549106
 21
12.35846260286735
 31
0.0
  0
LINE
  5
BB
330
2
100
AcDbEntity
  8
GAIKEI
  6
Continuous
 62
     1
100
AcDbLine
 10
-32.39917964549109
 20
12.70846060286732
 30
0.0
 11
-32.04918114549106
 21
12.70846060286732
 31
0.0
  0
LINE
  5
BC
330
2
100
AcDbEntity
  8
GAIKEI
  6
Continuous
 62
     1
100
AcDbLine
 10
-34.41636764549107
 20
12.2312736028673
 30
0.0
 11
-34.65005914549109
 21
11.99758160286728
 31
0.0
  0
LINE
  5
BD
330
2
100
AcDbEntity
  8
GAIKEI
  6
Continuous
 62
     1
100
AcDbLine
 10
-34.7864211454911
 20
11.86122060286732
 30
0.0
 11
-34.68521514549106
 21
11.96242710286731
 31
0.0
  0
LINE
  5
BE
330
2
100
AcDbEntity
  8
GAIKEI
  6
Continuous
 62
     1
100
AcDbLine
 10
-32.46917914549108
 20
14.08346060286732
 30
0.0
 11
-32.46917914549108
 21
37.13346410286732
 31
0.0
  0
LINE
  5
BF
330
2
100
AcDbEntity
  8
GAIKEI
  6
Continuous
 62
     1
100
AcDbLine
 10
8.490819854508899
 20
37.13346410286732
 30
0.0
 11
8.490819854508899
 21
14.08346060286732
 31
0.0
  0
DIMENSION
  5
C0
330
2
100
AcDbEntity
  8
SUNPO
100
AcDbDimension
  2
*D6
 10
19.02114975651896
 20
39.40599479721845
 30
0.0
 11
17.27114975651896
 21
25.6308522000428
 31
0.0
 70
    33
  1
550
 71
     5
 42
27.55028519435132
  3
STANDARD
100
AcDbAlignedDimension
 13
11.02114975651896
 23
11.85570960286713
 33
0.0
 14
11.02114975651896
 24
39.40599479721845
 34
0.0
1001
ACAD
1000
DSTYLE
1002
{
1070
   287
1070
     3
1070
   287
1070
     3
1070
   287
1070
     3
1070
   287
1070
     3
1070
   287
1070
     3
1070
   287
1070
     3
1070
   287
1070
     3
1070
   287
1070
     3
1070
   287
1070
     3
1070
   287
1070
     3
1070
   287
1070
     3
1070
   287
1070
     3
1070
   287
1070
     3
1070
   287
1070
     3
1070
   287
1070
     3
1070
   287
1070
     3
1070
   287
1070
     3
1070
   287
1070
     3
1070
   287
1070
     3
1070
   287
1070
     3
1070
   287
1070
     3
1070
   287
1070
     3
1070
   287
1070
     3
1070
   287
1070
     3
1070
   287
1070
     3
1070
   287
1070
     3
1070
    40
1040
1.0
1070
   140
1040
2.5
1070
   147
1040
0.5
1070
   172
1070
     1
1070
   279
1070
     0
1002
}
  0
LINE
  5
CD
330
2
100
AcDbEntity
  8
GAIKEI
  6
Continuous
 62
     1
100
AcDbLine
 10
10.67166685450898
 20
11.96255010286734
 30
0.0
 11
10.67166685450898
 21
11.99759210286731
 31
0.0
  0
SPLINE
  5
CE
330
2
100
AcDbEntity
  8
GAIKEI
  6
Continuous
 62
     1
100
AcDbSpline
210
0.0
220
0.0
230
1.0
 70
     8
 71
     3
 72
     9
 73
     5
 74
     3
 42
0.0000000001
 43
0.0000000001
 44
0.000001
 12
0.9999999045931781
 22
-0.0004368222001314
 32
0.0
 13
0.9999805312995993
 23
-0.0062399536673773
 33
0.0
 40
0.0
 40
0.0
 40
0.0
 40
0.0
 40
0.0176352999050047
 40
0.0351870163437349
 40
0.0351870163437349
 40
0.0351870163437349
 40
0.0351870163437349
 10
10.67166686062954
 20
11.96255020347121
 30
0.0
 10
10.67754529337037
 20
11.96254763564104
 30
0.0
 10
10.68927429530822
 20
11.96252314879956
 30
0.0
 10
10.70100316996429
 20
11.96246464045782
 30
0.0
 10
10.70685362820749
 20
11.96242813315871
 30
0.0
 11
10.67166686062954
 21
11.96255020347121
 31
0.0
 11
10.68930212785737
 21
11.96251454876051
 31
0.0
 11
10.70685362820749
 21
11.96242813315871
 31
0.0
  0
SPLINE
  5
CF
330
2
100
AcDbEntity
  8
GAIKEI
  6
Continuous
 62
     1
100
AcDbSpline
210
0.0
220
0.0
230
1.0
 70
     8
 71
     3
 72
     9
 73
     5
 74
     3
 42
0.0000000001
 43
0.0000000001
 44
0.000001
 12
-0.065472273998777
 22
-0.9978543888451005
 32
0.0
 13
-0.9139952978346196
 23
-0.4057247780653838
 33
0.0
 40
0.0
 40
0.0
 40
0.0
 40
0.0
 40
0.028890786452399
 40
0.0417811532100695
 40
0.0417811532100695
 40
0.0417811532100695
 40
0.0417811532100695
 10
10.71446013455527
 20
12.00327591147908
 30
0.0
 10
10.71382961939305
 20
11.99366631212618
 30
0.0
 10
10.71102505329692
 20
11.98196863255782
 30
0.0
 10
10.71078087307545
 20
11.96417144688936
 30
0.0
 10
10.70685362820749
 20
11.96242813315871
 30
0.0
 11
10.71446013455527
 21
12.00327591147908
 31
0.0
 11
10.71117457845496
 21
11.97457321562501
 31
0.0
 11
10.70685362820749
 21
11.96242813315871
 31
0.0
  0
SPLINE
  5
D0
330
2
100
AcDbEntity
  8
GAIKEI
  6
Continuous
 62
     1
100
AcDbSpline
210
0.0
220
0.0
230
1.0
 70
     8
 71
     3
 72
     9
 73
     5
 74
     3
 42
0.0000000001
 43
0.0000000001
 44
0.000001
 12
0.9865452057644775
 22
0.1634887059803359
 32
0.0
 13
0.994114142273108
 23
0.1083377687263445
 33
0.0
 40
0.0
 40
0.0
 40
0.0
 40
0.0
 40
0.0222978169340205
 40
0.043173466843235
 40
0.043173466843235
 40
0.043173466843235
 40
0.043173466843235
 10
10.67166686062954
 20
11.99759201255329
 30
0.0
 10
10.67899946209464
 20
11.9988071596322
 30
0.0
 10
10.69324483756573
 20
12.0008769750024
 30
0.0
 10
10.70754254162064
 20
12.00252203770179
 30
0.0
 10
10.71446013455527
 20
12.00327591147908
 30
0.0
 11
10.67166686062954
 21
11.99759201255329
 31
0.0
 11
10.6937280595793
 21
12.00083285702089
 31
0.0
 11
10.71446013455527
 21
12.00327591147908
 31
0.0
  0
LINE
  5
D1
330
2
100
AcDbEntity
  8
GAIKEI
  6
Continuous
 62
     1
100
AcDbLine
 10
10.67170385450889
 20
39.2543761028673
 30
0.0
 11
10.67170385450889
 21
39.2193421028673
 31
0.0
  0
SPLINE
  5
D2
330
2
100
AcDbEntity
  8
GAIKEI
  6
Continuous
 62
     1
100
AcDbSpline
210
0.0
220
0.0
230
1.0
 70
     8
 71
     3
 72
     9
 73
     5
 74
     3
 42
0.0000000001
 43
0.0000000001
 44
0.000001
 12
0.9139951375439068
 22
-0.4057251391596223
 32
0.0
 13
0.0654723795846449
 23
-0.9978543819172838
 33
0.0
 40
0.0
 40
0.0
 40
0.0
 40
0.0
 40
0.0128939601186589
 40
0.0417885367070963
 40
0.0417885367070963
 40
0.0417885367070963
 40
0.0417885367070963
 10
10.70685362820749
 20
39.25449661460402
 30
0.0
 10
10.71078196715821
 20
39.25275281334953
 30
0.0
 10
10.71102368875155
 20
39.23495149039292
 30
0.0
 10
10.71382953565982
 20
39.22325206684337
 30
0.0
 10
10.71446013455527
 20
39.21364120688924
 30
0.0
 11
10.70685362820749
 21
39.25449661460402
 31
0.0
 11
10.71117457635959
 21
39.24234771744051
 31
0.0
 11
10.71446013455527
 21
39.21364120688924
 31
0.0
  0
SPLINE
  5
D3
330
2
100
AcDbEntity
  8
GAIKEI
  6
Continuous
 62
     1
100
AcDbSpline
210
0.0
220
0.0
230
1.0
 70
     8
 71
     3
 72
     9
 73
     5
 74
     3
 42
0.0000000001
 43
0.0000000001
 44
0.000001
 12
0.9999999040290692
 22
0.0004381116892882
 32
0.0
 13
0.9999805312995993
 23
0.0062399536673772
 33
0.0
 40
0.0
 40
0.0
 40
0.0
 40
0.0
 40
0.0176032240398445
 40
0.03514889686232
 40
0.03514889686232
 40
0.03514889686232
 40
0.03514889686232
 10
10.67170500760214
 20
39.25436691489705
 30
0.0
 10
10.67757274838563
 20
39.25436948562313
 30
0.0
 10
10.68928904114565
 20
39.2543978188894
 30
0.0
 10
10.70100518446382
 20
39.25446011987552
 30
0.0
 10
10.70685362820749
 20
39.25449661460402
 30
0.0
 11
10.67170500760214
 21
39.25436691489705
 31
0.0
 11
10.68930819635527
 21
39.25440638430501
 31
0.0
 11
10.70685362820749
 21
39.25449661460402
 31
0.0
  0
SPLINE
  5
D4
330
2
100
AcDbEntity
  8
GAIKEI
  6
Continuous
 62
     1
100
AcDbSpline
210
0.0
220
0.0
230
1.0
 70
     8
 71
     3
 72
     9
 73
     5
 74
     3
 42
0.0000000001
 43
0.0000000001
 44
0.000001
 12
0.9863647533170553
 22
-0.1645739147428434
 32
0.0
 13
0.994114142273108
 23
-0.1083377687263446
 33
0.0
 40
0.0
 40
0.0
 40
0.0
 40
0.0
 40
0.0222678186336987
 40
0.0431378326494774
 40
0.0431378326494774
 40
0.0431378326494774
 40
0.0431378326494774
 10
10.67170500760214
 20
39.21934036460402
 30
0.0
 10
10.67902640474665
 20
39.21811879724226
 30
0.0
 10
10.69325871587371
 20
39.21604071399207
 30
0.0
 10
10.70754440919442
 20
39.21439487713982
 30
0.0
 10
10.71446013455527
 20
39.21364120688924
 30
0.0
 11
10.67170500760214
 21
39.21934036460402
 31
0.0
 11
10.69373412807714
 21
39.21608755566808
 31
0.0
 11
10.71446013455527
 21
39.21364120688924
 31
0.0
  0
SPLINE
  5
D5
330
2
100
AcDbEntity
  8
GAIKEI
  6
Continuous
 62
     1
100
AcDbSpline
210
0.0
220
0.0
230
1.0
 70
     8
 71
     3
 72
     9
 73
     5
 74
     3
 42
0.0000000001
 43
0.0000000001
 44
0.000001
 12
-0.4044746270966109
 22
0.914549220127084
 32
0.0
 13
-0.9978440825090476
 23
0.0656291627378932
 33
0.0
 40
0.0
 40
0.0
 40
0.0
 40
0.0
 40
0.0128894510391438
 40
0.0417772373529509
 40
0.0417772373529509
 40
0.0417772373529509
 40
0.0417772373529509
 10
10.9068505764498
 20
39.05449203696736
 30
0.0
 10
10.90511275781561
 20
39.05842138276594
 30
0.0
 10
10.88731178945073
 20
39.05867631467586
 30
0.0
 10
10.87561892973401
 20
39.0614818416943
 30
0.0
 10
10.86601042752401
 20
39.06211380210402
 30
0.0
 11
10.9068505764498
 21
39.05449203696736
 31
0.0
 11
10.89470925024021
 21
39.05882080590055
 31
0.0
 11
10.86601042752401
 21
39.06211380210402
 31
0.0
  0
SPLINE
  5
D6
330
2
100
AcDbEntity
  8
GAIKEI
  6
Continuous
 62
     1
100
AcDbSpline
210
0.0
220
0.0
230
1.0
 70
     8
 71
     3
 72
     9
 73
     5
 74
     3
 42
0.0000000001
 43
0.0000000001
 44
0.000001
 12
0.0030625663010943
 22
0.9999953103328294
 32
0.0
 13
-0.9999960456043623
 23
-0.0028122545471509
 33
0.0
 40
0.0
 40
0.0
 40
0.0
 40
0.0
 40
0.1528741999943411
 40
0.3056737885870191
 40
0.3056737885870191
 40
0.3056737885870191
 40
0.3056737885870191
 10
10.9068505764498
 20
39.05449203696736
 30
0.0
 10
10.90700663890753
 20
39.10544986465578
 30
0.0
 10
10.86325150640606
 20
39.2109257943776
 30
0.0
 10
10.75778662299504
 20
39.25463985171663
 30
0.0
 10
10.70685362820749
 20
39.25449661460402
 30
0.0
 11
10.9068505764498
 21
39.05449203696736
 31
0.0
 11
10.84780656204923
 21
39.19550424161826
 31
0.0
 11
10.70685362820749
 21
39.25449661460402
 31
0.0
  0
SPLINE
  5
D7
330
2
100
AcDbEntity
  8
GAIKEI
  6
Continuous
 62
     1
100
AcDbSpline
210
0.0
220
0.0
230
1.0
 70
     8
 71
     3
 72
     9
 73
     5
 74
     3
 42
0.0000000001
 43
0.0000000001
 44
0.000001
 12
0.9941852175714394
 22
-0.1076835788893997
 32
0.0
 13
0.1080757052099319
 23
-0.9941426667955539
 33
0.0
 40
0.0
 40
0.0
 40
0.0
 40
0.0
 40
0.1134468141146135
 40
0.2269467145158746
 40
0.2269467145158746
 40
0.2269467145158746
 40
0.2269467145158746
 10
10.71446013455527
 20
39.21364120688924
 30
0.0
 10
10.75205584974637
 20
39.20956908723676
 30
0.0
 10
10.82626894966598
 20
39.17393089633112
 30
0.0
 10
10.86192156693164
 20
39.09972549999267
 30
0.0
 10
10.86601042752401
 20
39.06211380210402
 30
0.0
 11
10.71446013455527
 21
39.21364120688924
 31
0.0
 11
10.8166166872741
 21
39.1643026472691
 31
0.0
 11
10.86601042752401
 21
39.06211380210402
 31
0.0
  0
LINE
  5
D8
330
2
100
AcDbEntity
  8
GAIKEI
  6
Continuous
 62
     1
100
AcDbLine
 10
10.90673635450893
 20
39.01934360286731
 30
0.0
 11
10.87170185450894
 21
39.01934360286731
 31
0.0
  0
SPLINE
  5
D9
330
2
100
AcDbEntity
  8
GAIKEI
  6
Continuous
 62
     1
100
AcDbSpline
210
0.0
220
0.0
230
1.0
 70
     8
 71
     3
 72
     9
 73
     5
 74
     3
 42
0.0000000001
 43
0.0000000001
 44
0.000001
 12
-0.0057533966633092
 22
-0.9999834490764508
 32
0.0
 13
0.0000596296056106
 23
-0.9999999982221552
 33
0.0
 40
0.0
 40
0.0
 40
0.0
 40
0.0
 40
0.0175450744589376
 40
0.0351564733689615
 40
0.0351564733689615
 40
0.0351564733689615
 40
0.0351564733689615
 10
10.9068505764498
 20
39.05449203696736
 30
0.0
 10
10.90681692852551
 20
39.04864377561012
 30
0.0
 10
10.90675934015594
 20
39.03692508387573
 30
0.0
 10
10.90673578547823
 20
39.02520625326025
 30
0.0
 10
10.90673613553183
 20
39.01933578696736
 30
0.0
 11
10.9068505764498
 21
39.05449203696736
 31
0.0
 11
10.90676792480876
 21
39.0369471676338
 31
0.0
 11
10.90673613553183
 21
39.01933578696736
 31
0.0
  0
SPLINE
  5
DA
330
2
100
AcDbEntity
  8
GAIKEI
  6
Continuous
 62
     1
100
AcDbSpline
210
0.0
220
0.0
230
1.0
 70
     8
 71
     3
 72
     9
 73
     5
 74
     3
 42
0.0000000001
 43
0.0000000001
 44
0.000001
 12
0.1078701526941096
 22
-0.9941649914162887
 32
0.0
 13
0.164878672974267
 23
-0.9863138563349115
 33
0.0
 40
0.0
 40
0.0
 40
0.0
 40
0.0
 40
0.0208808235835789
 40
0.0431606459136892
 40
0.0431606459136892
 40
0.0431606459136892
 40
0.0431606459136892
 10
10.86601042752401
 20
39.06211380210402
 30
0.0
 10
10.86676123340012
 20
39.05519414083779
 30
0.0
 10
10.86840410460254
 20
39.04090040968751
 30
0.0
 10
10.8704850960589
 20
39.02666075279433
 30
0.0
 10
10.87170958523886
 20
39.01933578696736
 30
0.0
 11
10.86601042752401
 21
39.06211380210402
 31
0.0
 11
10.86845239768978
 21
39.04137639623769
 31
0.0
 11
10.87170958523886
 21
39.01933578696736
 31
0.0
  0
LINE
  5
DB
330
2
100
AcDbEntity
  8
GAIKEI
  6
Continuous
 62
     1
100
AcDbLine
 10
10.90673635450893
 20
12.19758110286733
 30
0.0
 11
10.87170185450894
 21
12.19758110286733
 31
0.0
  0
LINE
  5
DC
330
2
100
AcDbEntity
  8
GAIKEI
  6
Continuous
 62
     1
100
AcDbLine
 10
10.90673635450893
 20
39.01934360286731
 30
0.0
 11
10.90673635450893
 21
12.19758110286733
 31
0.0
  0
LINE
  5
DD
330
2
100
AcDbEntity
  8
GAIKEI
  6
Continuous
 62
     1
100
AcDbLine
 10
10.87170185450894
 20
39.01934360286731
 30
0.0
 11
10.87170185450894
 21
12.19758110286733
 31
0.0
  0
SPLINE
  5
DE
330
2
100
AcDbEntity
  8
GAIKEI
  6
Continuous
 62
     1
100
AcDbSpline
210
0.0
220
0.0
230
1.0
 70
     8
 71
     3
 72
     9
 73
     5
 74
     3
 42
0.0000000001
 43
0.0000000001
 44
0.000001
 12
-0.4044746270966109
 22
-0.914549220127084
 32
0.0
 13
-0.9978440825090476
 23
-0.0656291627378932
 33
0.0
 40
0.0
 40
0.0
 40
0.0
 40
0.0
 40
0.0128894510391438
 40
0.0417772373529574
 40
0.0417772373529574
 40
0.0417772373529574
 40
0.0417772373529574
 10
10.9068505764498
 20
12.16243271079543
 30
0.0
 10
10.90511275781561
 20
12.15850336499684
 30
0.0
 10
10.88731178945073
 20
12.15824843308692
 30
0.0
 10
10.87561892973403
 20
12.15544290606843
 30
0.0
 10
10.86601042752401
 20
12.15481094565871
 30
0.0
 11
10.9068505764498
 21
12.16243271079543
 31
0.0
 11
10.89470925024021
 21
12.15810394186223
 31
0.0
 11
10.86601042752401
 21
12.15481094565871
 31
0.0
  0
SPLINE
  5
DF
330
2
100
AcDbEntity
  8
GAIKEI
  6
Continuous
 62
     1
100
AcDbSpline
210
0.0
220
0.0
230
1.0
 70
     8
 71
     3
 72
     9
 73
     5
 74
     3
 42
0.0000000001
 43
0.0000000001
 44
0.000001
 12
-0.0000596296056105
 22
-0.9999999982221552
 32
0.0
 13
0.0057533966633093
 23
-0.9999834490764508
 33
0.0
 40
0.0
 40
0.0
 40
0.0
 40
0.0
 40
0.0176075841952256
 40
0.035148844006827
 40
0.035148844006827
 40
0.035148844006827
 40
0.035148844006827
 10
10.90673613553183
 20
12.19758133140095
 30
0.0
 10
10.90673578555406
 20
12.19171213667965
 30
0.0
 10
10.906759347571
 20
12.17999584919062
 30
0.0
 10
10.90681693584123
 20
12.16827970062462
 30
0.0
 10
10.9068505764498
 20
12.16243271079543
 30
0.0
 11
10.90673613553183
 21
12.19758133140095
 31
0.0
 11
10.90676792480899
 21
12.17997376543167
 31
0.0
 11
10.9068505764498
 21
12.16243271079543
 31
0.0
  0
SPLINE
  5
E0
330
2
100
AcDbEntity
  8
GAIKEI
  6
Continuous
 62
     1
100
AcDbSpline
210
0.0
220
0.0
230
1.0
 70
     8
 71
     3
 72
     9
 73
     5
 74
     3
 42
0.0000000001
 43
0.0000000001
 44
0.000001
 12
0.1078701526941096
 22
0.9941649914162887
 32
0.0
 13
0.1648786729742668
 23
0.9863138563349115
 33
0.0
 40
0.0
 40
0.0
 40
0.0
 40
0.0
 40
0.0208770338416601
 40
0.043153083683694
 40
0.043153083683694
 40
0.043153083683694
 40
0.043153083683694
 10
10.86601042752401
 20
12.15481094565871
 30
0.0
 10
10.86676109713345
 20
12.1617293510487
 30
0.0
 10
10.8684041027642
 20
12.17602053575521
 30
0.0
 10
10.87048530339316
 20
12.19025760585976
 30
0.0
 10
10.87170958523886
 20
12.19758133140095
 30
0.0
 11
10.86601042752401
 21
12.15481094565871
 31
0.0
 11
10.86845239768978
 21
12.17554453682783
 31
0.0
 11
10.87170958523886
 21
12.19758133140095
 31
0.0
  0
SPLINE
  5
E1
330
2
100
AcDbEntity
  8
GAIKEI
  6
Continuous
 62
     1
100
AcDbSpline
210
0.0
220
0.0
230
1.0
 70
     8
 71
     3
 72
     9
 73
     5
 74
     3
 42
0.0000000001
 43
0.0000000001
 44
0.000001
 12
0.0030710173152067
 22
-0.9999952844152065
 32
0.0
 13
-0.9999960419441022
 23
0.0028135557804368
 33
0.0
 40
0.0
 40
0.0
 40
0.0
 40
0.0
 40
0.1528004524009516
 40
0.3056738514551642
 40
0.3056738514551642
 40
0.3056738514551642
 40
0.3056738514551642
 10
10.9068505764498
 20
12.16243271079543
 30
0.0
 10
10.90700699406149
 20
12.11149946684293
 30
0.0
 10
10.86327987625444
 20
12.00602735085513
 30
0.0
 10
10.75781122619841
 20
11.96228476054685
 30
0.0
 10
10.70685362820749
 20
11.96242813315871
 30
0.0
 11
10.9068505764498
 21
12.16243271079543
 31
0.0
 11
10.84786300082292
 21
12.02147682971076
 31
0.0
 11
10.70685362820749
 21
11.96242813315871
 31
0.0
  0
SPLINE
  5
E2
330
2
100
AcDbEntity
  8
GAIKEI
  6
Continuous
 62
     1
100
AcDbSpline
210
0.0
220
0.0
230
1.0
 70
     8
 71
     3
 72
     9
 73
     5
 74
     3
 42
0.0000000001
 43
0.0000000001
 44
0.000001
 12
0.994183993457036
 22
0.1076948798867446
 32
0.0
 13
0.1080793195351752
 23
0.9941422738666803
 33
0.0
 40
0.0
 40
0.0
 40
0.0
 40
0.0
 40
0.1135056224723522
 40
0.2269517308758888
 40
0.2269517308758888
 40
0.2269517308758888
 40
0.2269517308758888
 10
10.71446013455527
 20
12.00327591147908
 30
0.0
 10
10.75207529223173
 20
12.00735056960528
 30
0.0
 10
10.82628930622631
 20
12.04301114953492
 30
0.0
 10
10.86192336812397
 20
12.11721708826883
 30
0.0
 10
10.86601042752401
 20
12.15481094565871
 30
0.0
 11
10.71446013455527
 21
12.00327591147908
 31
0.0
 11
10.81665942985812
 21
12.0526611904304
 31
0.0
 11
10.86601042752401
 21
12.15481094565871
 31
0.0
  0
LINE
  5
E3
330
2
100
AcDbEntity
  8
GAIKEI
  6
Continuous
 62
     1
100
AcDbLine
 10
10.4379783545089
 20
12.25788410286731
 30
0.0
 11
10.4379783545089
 21
12.23131110286732
 31
0.0
  0
LINE
  5
E4
330
2
100
AcDbEntity
  8
GAIKEI
  6
Continuous
 62
     1
100
AcDbLine
 10
10.43801035450893
 20
38.98565060286728
 30
0.0
 11
10.43801035450893
 21
38.95906960286732
 31
0.0
  0
LINE
  5
E5
330
2
100
AcDbEntity
  8
GAIKEI
  6
Continuous
 62
     1
100
AcDbLine
 10
10.63800585450893
 20
38.78564760286736
 30
0.0
 11
10.61143285450889
 21
38.78564760286736
 31
0.0
  0
SPLINE
  5
E6
330
2
100
AcDbEntity
  8
GAIKEI
  6
Continuous
 62
     1
100
AcDbSpline
210
0.0
220
0.0
230
1.0
 70
     8
 71
     3
 72
     9
 73
     5
 74
     3
 42
0.0000000001
 43
0.0000000001
 44
0.000001
 12
-0.1043962648031169
 22
0.9945357811035043
 32
0.0
 13
-0.9944834008957558
 23
0.1048940672431556
 33
0.0
 40
0.0
 40
0.0
 40
0.0
 40
0.0
 40
0.1502262749603791
 40
0.300453468853132
 40
0.300453468853132
 40
0.300453468853132
 40
0.300453468853132
 10
10.63800597195761
 20
38.78564743247518
 30
0.0
 10
10.63277828463056
 20
38.8354492343785
 30
0.0
 10
10.58738797661677
 20
38.93503829325869
 30
0.0
 10
10.48780850727847
 20
38.98039936298591
 30
0.0
 10
10.43800902371531
 20
38.98565201011189
 30
0.0
 11
10.63800597195761
 21
38.78564743247518
 31
0.0
 11
10.57384161283521
 21
38.9214817836571
 31
0.0
 11
10.43800902371531
 21
38.98565201011189
 31
0.0
  0
SPLINE
  5
E7
330
2
100
AcDbEntity
  8
GAIKEI
  6
Continuous
 62
     1
100
AcDbSpline
210
0.0
220
0.0
230
1.0
 70
     8
 71
     3
 72
     9
 73
     5
 74
     3
 42
0.0000000001
 43
0.0000000001
 44
0.000001
 12
0.0004935846791766
 22
0.9999998781870747
 32
0.0
 13
-0.9999999974647188
 23
0.0000712078827684
 33
0.0
 40
0.0
 40
0.0
 40
0.0
 40
0.0
 40
0.1321180078992559
 40
0.2642325365927629
 40
0.2642325365927629
 40
0.2642325365927629
 40
0.2642325365927629
 10
10.61142516141073
 20
38.78564743247518
 30
0.0
 10
10.61144689855224
 20
38.82968676307704
 30
0.0
 10
10.5722214285432
 20
38.91987434590595
 30
0.0
 10
10.48204719983482
 20
38.95906806369973
 30
0.0
 10
10.43800902371531
 20
38.95907119956502
 30
0.0
 11
10.61142516141073
 21
38.78564743247518
 31
0.0
 11
10.55948409053046
 21
38.90712744205558
 31
0.0
 11
10.43800902371531
 21
38.95907119956502
 31
0.0
  0
LINE
  5
E8
330
2
100
AcDbEntity
  8
GAIKEI
  6
Continuous
 62
     1
100
AcDbLine
 10
10.63800585450893
 20
12.4312696028673
 30
0.0
 11
10.61143285450889
 21
12.4312696028673
 31
0.0
  0
LINE
  5
E9
330
2
100
AcDbEntity
  8
GAIKEI
  6
Continuous
 62
     1
100
AcDbLine
 10
10.63800585450893
 20
12.4312696028673
 30
0.0
 11
10.63800585450893
 21
38.78564760286736
 31
0.0
  0
LINE
  5
EA
330
2
100
AcDbEntity
  8
GAIKEI
  6
Continuous
 62
     1
100
AcDbLine
 10
10.61143285450889
 20
12.4312696028673
 30
0.0
 11
10.61143285450889
 21
38.78564760286736
 31
0.0
  0
SPLINE
  5
EB
330
2
100
AcDbEntity
  8
GAIKEI
  6
Continuous
 62
     1
100
AcDbSpline
210
0.0
220
0.0
230
1.0
 70
     8
 71
     3
 72
     9
 73
     5
 74
     3
 42
0.0000000001
 43
0.0000000001
 44
0.000001
 12
-0.1046424419352381
 22
-0.9945099091240019
 32
0.0
 13
-0.9944843795067829
 23
-0.1048847887780168
 33
0.0
 40
0.0
 40
0.0
 40
0.0
 40
0.0
 40
0.1502278253357978
 40
0.3004547857120339
 40
0.3004547857120339
 40
0.3004547857120339
 40
0.3004547857120339
 10
10.63800597195761
 20
12.43127731528761
 30
0.0
 10
10.63276590312769
 20
12.38147629498007
 30
0.0
 10
10.58739646281488
 20
12.28188306039928
 30
0.0
 10
10.48780847887363
 20
12.23652491198689
 30
0.0
 10
10.43800902371531
 20
12.23127273765095
 30
0.0
 11
10.63800597195761
 21
12.43127731528761
 31
0.0
 11
10.5738423243656
 21
12.29544091519597
 31
0.0
 11
10.43800902371531
 21
12.23127273765095
 31
0.0
  0
SPLINE
  5
EC
330
2
100
AcDbEntity
  8
GAIKEI
  6
Continuous
 62
     1
100
AcDbSpline
210
0.0
220
0.0
230
1.0
 70
     8
 71
     3
 72
     9
 73
     5
 74
     3
 42
0.0000000001
 43
0.0000000001
 44
0.000001
 12
0.9999999979780925
 22
0.0000635909983547
 32
0.0
 13
-0.0001980937106989
 23
0.9999999803794407
 33
0.0
 40
0.0
 40
0.0
 40
0.0
 40
0.0
 40
0.1321163749592035
 40
0.2642356025289421
 40
0.2642356025289421
 40
0.2642356025289421
 40
0.2642356025289421
 10
10.43800902371531
 20
12.2578459188033
 30
0.0
 10
10.48204781527933
 20
12.25784871927402
 30
0.0
 10
10.57222563791903
 20
12.29705234944578
 30
0.0
 10
10.61143388540675
 20
12.38723757362845
 30
0.0
 10
10.61142516141073
 20
12.43127731528761
 30
0.0
 11
10.43800902371531
 21
12.2578459188033
 31
0.0
 11
10.55948325167354
 21
12.30979634126726
 31
0.0
 11
10.61142516141073
 21
12.43127731528761
 31
0.0
  0
LINE
  5
ED
330
2
100
AcDbEntity
  8
GAIKEI
  6
Continuous
100
AcDbLine
 10
10.80806535450891
 20
11.86121610286733
 30
0.0
 11
10.80806535450891
 21
11.86114760286733
 31
0.0
  0
LINE
  5
EE
330
2
100
AcDbEntity
  8
GAIKEI
  6
Continuous
100
AcDbLine
 10
11.00806235450891
 20
12.0612211028673
 30
0.0
 11
11.00813085450896
 21
12.0612211028673
 31
0.0
  0
SPLINE
  5
EF
330
2
100
AcDbEntity
  8
GAIKEI
  6
Continuous
100
AcDbSpline
210
0.0
220
0.0
230
1.0
 70
     8
 71
     3
 72
     9
 73
     5
 74
     3
 42
0.0000000001
 43
0.0000000001
 44
0.000001
 12
0.9999996993120754
 22
0.0007754842093647
 32
0.0
 13
0.000557038622659
 23
0.9999998448539743
 33
0.0
 40
0.0
 40
0.0
 40
0.0
 40
0.0
 40
0.1527426146019981
 40
0.305486455400434
 40
0.305486455400434
 40
0.305486455400434
 40
0.305486455400434
 10
10.80806517605917
 20
11.86121658530715
 30
0.0
 10
10.85897936561721
 20
11.86125606846906
 30
0.0
 10
10.96423495614711
 20
11.90504465227155
 30
0.0
 10
11.00803376289512
 20
12.01030655724358
 30
0.0
 10
11.00806212430136
 20
12.06122116294386
 30
0.0
 11
10.80806517605917
 21
11.86121658530715
 31
0.0
 11
10.948871167251
 21
11.92041197540925
 31
0.0
 11
11.00806212430136
 21
12.06122116294386
 31
0.0
  0
LINE
  5
F0
330
2
100
AcDbEntity
  8
GAIKEI
  6
Continuous
100
AcDbLine
 10
11.00806185450891
 20
39.15570410286733
 30
0.0
 11
11.00813035450896
 21
39.15570410286733
 31
0.0
  0
LINE
  5
F1
330
2
100
AcDbEntity
  8
GAIKEI
  6
Continuous
100
AcDbLine
 10
11.00806235450891
 20
12.0612211028673
 30
0.0
 11
11.00806235450891
 21
39.15570360286734
 31
0.0
  0
LINE
  5
F2
330
2
100
AcDbEntity
  8
GAIKEI
  6
Continuous
100
AcDbLine
 10
10.80806535450891
 20
39.35570810286731
 30
0.0
 11
10.80806535450891
 21
39.35577660286731
 31
0.0
  0
SPLINE
  5
F3
330
2
100
AcDbEntity
  8
GAIKEI
  6
Continuous
100
AcDbSpline
210
0.0
220
0.0
230
1.0
 70
     8
 71
     3
 72
     9
 73
     5
 74
     3
 42
0.0000000001
 43
0.0000000001
 44
0.000001
 12
0.9999996993120754
 22
-0.0007754842093647
 32
0.0
 13
0.0005570386226595
 23
-0.9999998448539743
 33
0.0
 40
0.0
 40
0.0
 40
0.0
 40
0.0
 40
0.1527426146019981
 40
0.305486455400434
 40
0.305486455400434
 40
0.305486455400434
 40
0.305486455400434
 10
10.80806517605917
 20
39.35570816245564
 30
0.0
 10
10.85897936561721
 20
39.35566867929373
 30
0.0
 10
10.96423495614711
 20
39.31188009549123
 30
0.0
 10
11.00803376289512
 20
39.20661819051921
 30
0.0
 10
11.00806212430136
 20
39.15570358481892
 30
0.0
 11
10.80806517605917
 21
39.35570816245564
 31
0.0
 11
10.948871167251
 21
39.29651277235354
 31
0.0
 11
11.00806212430136
 21
39.15570358481892
 31
0.0
  0
LINE
  5
F4
330
2
100
AcDbEntity
  8
GAIKEI
  6
Continuous
 62
     1
100
AcDbLine
 10
9.67596985450892
 20
13.35846260286735
 30
0.0
 11
9.71273585450892
 21
13.35846260286735
 31
0.0
  0
LINE
  5
F5
330
2
100
AcDbEntity
  8
GAIKEI
  6
Continuous
 62
     1
100
AcDbLine
 10
9.71273585450892
 20
37.85846260286735
 30
0.0
 11
9.71273585450892
 21
13.35846260286735
 31
0.0
  0
LINE
  5
F6
330
2
100
AcDbEntity
  8
GAIKEI
  6
Continuous
 62
     1
100
AcDbLine
 10
9.71273585450892
 20
37.85846260286735
 30
0.0
 11
9.67596985450892
 21
37.85846260286735
 31
0.0
  0
LINE
  5
F7
330
2
100
AcDbEntity
  8
GAIKEI
  6
Continuous
 62
     1
100
AcDbLine
 10
9.67596985450892
 20
13.35846260286735
 30
0.0
 11
9.67596985450892
 21
37.85846260286735
 31
0.0
  0
LINE
  5
F8
330
2
100
AcDbEntity
  8
GAIKEI
  6
Continuous
 62
     1
100
AcDbLine
 10
9.616162854508999
 20
37.85846260286735
 30
0.0
 11
9.616162854508999
 21
13.35846260286735
 31
0.0
  0
LINE
  5
F9
330
2
100
AcDbEntity
  8
GAIKEI
  6
Continuous
 62
     1
100
AcDbLine
 10
9.616162854508999
 20
13.35846260286735
 30
0.0
 11
9.629323854508911
 21
13.35846260286735
 31
0.0
  0
LINE
  5
FA
330
2
100
AcDbEntity
  8
GAIKEI
  6
Continuous
 62
     1
100
AcDbLine
 10
9.629323854508911
 20
37.85846260286735
 30
0.0
 11
9.629323854508911
 21
13.35846260286735
 31
0.0
  0
LINE
  5
FB
330
2
100
AcDbEntity
  8
GAIKEI
  6
Continuous
 62
     1
100
AcDbLine
 10
9.629323854508911
 20
37.85846260286735
 30
0.0
 11
9.616162854508999
 21
37.85846260286735
 31
0.0
  0
LINE
  5
FC
330
2
100
AcDbEntity
  8
GAIKEI
  6
Continuous
 62
     1
100
AcDbLine
 10
10.90685185450893
 20
12.16242910286735
 30
0.0
 11
11.00805835450892
 21
12.0612226028673
 31
0.0
  0
LINE
  5
FD
330
2
100
AcDbEntity
  8
GAIKEI
  6
Continuous
 62
     1
100
AcDbLine
 10
11.00805835450892
 20
39.15570310286734
 30
0.0
 11
10.90685185450893
 21
39.05449710286735
 31
0.0
  0
LINE
  5
FE
330
2
100
AcDbEntity
  8
GAIKEI
  6
Continuous
 62
     1
100
AcDbLine
 10
10.871700354509
 20
12.19758210286733
 30
0.0
 11
10.63800885450898
 21
12.43127410286729
 31
0.0
  0
LINE
  5
FF
330
2
100
AcDbEntity
  8
GAIKEI
  6
Continuous
 62
     1
100
AcDbLine
 10
10.63801185450891
 20
38.78565110286729
 30
0.0
 11
10.87170335450888
 21
39.01934310286731
 31
0.0
  0
LINE
  5
100
330
2
100
AcDbEntity
  8
GAIKEI
  6
Continuous
 62
     1
100
AcDbLine
 10
9.67596985450892
 20
37.85846260286735
 30
0.0
 11
9.629323854508911
 21
37.85846260286735
 31
0.0
  0
LINE
  5
101
330
2
100
AcDbEntity
  8
GAIKEI
  6
Continuous
 62
     1
100
AcDbLine
 10
9.67596985450892
 20
13.35846260286735
 30
0.0
 11
9.629323854508911
 21
13.35846260286735
 31
0.0
  0
LINE
  5
102
330
2
100
AcDbEntity
  8
GAIKEI
  6
Continuous
 62
     1
100
AcDbLine
 10
9.616162854508999
 20
13.35846260286735
 30
0.0
 11
9.610822354508954
 21
13.35846260286735
 31
0.0
  0
LINE
  5
103
330
2
100
AcDbEntity
  8
GAIKEI
  6
Continuous
 62
     1
100
AcDbLine
 10
9.610822354508954
 20
13.35846260286735
 30
0.0
 11
9.610822354508954
 21
37.85846260286735
 31
0.0
  0
LINE
  5
104
330
2
100
AcDbEntity
  8
GAIKEI
  6
Continuous
 62
     1
100
AcDbLine
 10
9.610822354508954
 20
37.85846260286735
 30
0.0
 11
9.616162854508999
 21
37.85846260286735
 31
0.0
  0
ARC
  5
105
330
2
100
AcDbEntity
  8
GAIKEI
  6
Continuous
 62
     1
100
AcDbCircle
 10
9.510823854508927
 20
13.35846260286735
 30
0.0
 40
0.1651475
100
AcDbArc
 50
270.0000010000014
 51
359.999982999999
  0
SPLINE
  5
106
330
2
100
AcDbEntity
  8
GAIKEI
  6
Continuous
 62
     1
100
AcDbSpline
210
0.0
220
0.0
230
1.0
 70
     8
 71
     3
 72
     9
 73
     5
 74
     3
 42
0.0000000001
 43
0.0000000001
 44
0.000001
 12
0.0000108825045696
 22
-0.9999999999407855
 32
0.0
 13
-0.9999999359060572
 23
-0.0003580333526479
 33
0.0
 40
0.0
 40
0.0
 40
0.0
 40
0.0
 40
0.0905206407692429
 40
0.1810380192732787
 40
0.1810380192732787
 40
0.1810380192732787
 40
0.1810380192732787
 10
9.629323720981048
 20
13.35846237388137
 30
0.0
 10
9.629324049344816
 20
13.32828882696006
 30
0.0
 10
9.603398155333096
 20
13.26587996612167
 30
0.0
 10
9.540996422689204
 20
13.23995816197976
 30
0.0
 10
9.51082396512173
 20
13.23994735923293
 30
0.0
 11
9.629323720981048
 21
13.35846237388137
 31
0.0
 11
9.594279105761174
 21
13.2750002261489
 31
0.0
 11
9.51082396512173
 21
13.23994735923293
 31
0.0
  0
LINE
  5
107
330
2
100
AcDbEntity
  8
GAIKEI
  6
Continuous
 62
     1
100
AcDbLine
 10
9.510823854508927
 20
13.23995510286733
 30
0.0
 11
9.510823854508927
 21
13.19330910286732
 31
0.0
  0
SPLINE
  5
108
330
2
100
AcDbEntity
  8
GAIKEI
  6
Continuous
 62
     1
100
AcDbSpline
210
0.0
220
0.0
230
1.0
 70
     8
 71
     3
 72
     9
 73
     5
 74
     3
 42
0.0000000001
 43
0.0000000001
 44
0.000001
 12
0.9999999961343828
 22
-0.000087927439472
 32
0.0
 13
0.0003366782114933
 23
0.9999999433238894
 33
0.0
 40
0.0
 40
0.0
 40
0.0
 40
0.0
 40
0.080461383316494
 40
0.1609336960003102
 40
0.1609336960003102
 40
0.1609336960003102
 40
0.1609336960003102
 10
9.51082396512173
 20
13.25311569419386
 30
0.0
 10
9.537644426123549
 20
13.25311333593939
 30
0.0
 10
9.593122332142087
 20
13.27616549113361
 30
0.0
 10
9.616161613717736
 20
13.33163827117372
 30
0.0
 10
9.616170644809173
 20
13.35846237388137
 30
0.0
 11
9.51082396512173
 21
13.25311569419386
 31
0.0
 11
9.585010719022577
 21
13.28426727594046
 31
0.0
 11
9.616170644809173
 21
13.35846237388137
 31
0.0
  0
ARC
  5
109
330
2
100
AcDbEntity
  8
GAIKEI
  6
Continuous
 62
     1
100
AcDbCircle
 10
9.510823854508927
 20
13.35846260286735
 30
0.0
 40
0.1
100
AcDbArc
 50
270.0000010000014
 51
359.999982999999
  0
LINE
  5
10A
330
2
100
AcDbEntity
  8
GAIKEI
  6
Continuous
 62
     1
100
AcDbLine
 10
9.510823854508927
 20
13.2531156028673
 30
0.0
 11
9.510823854508927
 21
13.25846410286732
 31
0.0
  0
LINE
  5
10B
330
2
100
AcDbEntity
  8
GAIKEI
  6
Continuous
 62
     1
100
AcDbLine
 10
9.510823854508927
 20
13.23995510286733
 30
0.0
 11
9.510823854508927
 21
13.2531156028673
 31
0.0
  0
LINE
  5
10C
330
2
100
AcDbEntity
  8
GAIKEI
  6
Continuous
 62
     1
100
AcDbLine
 10
9.510823854508927
 20
13.15654260286732
 30
0.0
 11
9.510823854508927
 21
13.19330910286732
 31
0.0
  0
ARC
  5
10D
330
2
100
AcDbEntity
  8
GAIKEI
  6
Continuous
 62
     1
100
AcDbCircle
 10
9.510823854508927
 20
13.35846260286735
 30
0.0
 40
0.201919
100
AcDbArc
 50
270.0000010000014
 51
359.999982999999
  0
ARC
  5
10E
330
2
100
AcDbEntity
  8
GAIKEI
  6
Continuous
 62
     1
100
AcDbCircle
 10
9.510823854508927
 20
37.85846260286735
 30
0.0
 40
0.1651475
100
AcDbArc
 50
0.0
 51
89.9999820000008
  0
SPLINE
  5
10F
330
2
100
AcDbEntity
  8
GAIKEI
  6
Continuous
 62
     1
100
AcDbSpline
210
0.0
220
0.0
230
1.0
 70
     8
 71
     3
 72
     9
 73
     5
 74
     3
 42
0.0000000001
 43
0.0000000001
 44
0.000001
 12
0.0000108825045696
 22
0.9999999999407855
 32
0.0
 13
-0.9999999359060572
 23
0.0003580333526479
 33
0.0
 40
0.0
 40
0.0
 40
0.0
 40
0.0
 40
0.0905206407692429
 40
0.1810380192732787
 40
0.1810380192732787
 40
0.1810380192732787
 40
0.1810380192732787
 10
9.629323720981048
 20
37.85845474448689
 30
0.0
 10
9.629324049344816
 20
37.8886282914082
 30
0.0
 10
9.603398155333096
 20
37.95103715224661
 30
0.0
 10
9.540996422689204
 20
37.9769589563885
 30
0.0
 10
9.51082396512173
 20
37.97696975913533
 30
0.0
 11
9.629323720981048
 21
37.85845474448689
 31
0.0
 11
9.594279105761174
 21
37.94191689221936
 31
0.0
 11
9.51082396512173
 21
37.97696975913533
 31
0.0
  0
LINE
  5
110
330
2
100
AcDbEntity
  8
GAIKEI
  6
Continuous
 62
     1
100
AcDbLine
 10
9.510823854508927
 20
37.97696960286732
 30
0.0
 11
9.510823854508927
 21
38.02360810286734
 31
0.0
  0
SPLINE
  5
111
330
2
100
AcDbEntity
  8
GAIKEI
  6
Continuous
 62
     1
100
AcDbSpline
210
0.0
220
0.0
230
1.0
 70
     8
 71
     3
 72
     9
 73
     5
 74
     3
 42
0.0000000001
 43
0.0000000001
 44
0.000001
 12
0.9999999961343828
 22
0.000087927439472
 32
0.0
 13
0.000336678211494
 23
-0.9999999433238894
 33
0.0
 40
0.0
 40
0.0
 40
0.0
 40
0.0
 40
0.0804628598388582
 40
0.1609386901305554
 40
0.1609386901305554
 40
0.1609386901305554
 40
0.1609386901305554
 10
9.51082396512173
 20
37.96380905356893
 30
0.0
 10
9.537644918297672
 20
37.96381141186666
 30
0.0
 10
9.593123081110249
 20
37.94075386019193
 30
0.0
 10
9.616161613322972
 20
37.88528001973043
 30
0.0
 10
9.616170644809173
 20
37.85845474448689
 30
0.0
 11
9.51082396512173
 21
37.96380905356893
 31
0.0
 11
9.585010719022577
 21
37.932653657125
 31
0.0
 11
9.616170644809173
 21
37.85845474448689
 31
0.0
  0
ARC
  5
112
330
2
100
AcDbEntity
  8
GAIKEI
  6
Continuous
 62
     1
100
AcDbCircle
 10
9.510823854508927
 20
37.85846260286735
 30
0.0
 40
0.1
100
AcDbArc
 50
0.0
 51
89.9999820000008
  0
LINE
  5
113
330
2
100
AcDbEntity
  8
GAIKEI
  6
Continuous
 62
     1
100
AcDbLine
 10
9.510823854508927
 20
37.96380910286734
 30
0.0
 11
9.510823854508927
 21
37.95846060286732
 31
0.0
  0
LINE
  5
114
330
2
100
AcDbEntity
  8
GAIKEI
  6
Continuous
 62
     1
100
AcDbLine
 10
10.67170235450895
 20
39.2193446028673
 30
0.0
 11
10.43801035450893
 21
38.98565260286734
 31
0.0
  0
LINE
  5
115
330
2
100
AcDbEntity
  8
GAIKEI
  6
Continuous
 62
     1
100
AcDbLine
 10
10.706850354509
 20
39.25449810286733
 30
0.0
 11
10.80805685450893
 21
39.35570460286732
 31
0.0
  0
LINE
  5
116
330
2
100
AcDbEntity
  8
GAIKEI
  6
Continuous
 62
     1
100
AcDbLine
 10
9.510823854508927
 20
37.96380910286734
 30
0.0
 11
9.510823854508927
 21
37.97696960286732
 31
0.0
  0
LINE
  5
117
330
2
100
AcDbEntity
  8
GAIKEI
  6
Continuous
 62
     1
100
AcDbLine
 10
9.510823854508927
 20
38.02360810286734
 30
0.0
 11
9.510823854508927
 21
38.06038210286732
 31
0.0
  0
ARC
  5
118
330
2
100
AcDbEntity
  8
GAIKEI
  6
Continuous
 62
     1
100
AcDbCircle
 10
9.510823854508927
 20
37.85846260286735
 30
0.0
 40
0.201919
100
AcDbArc
 50
0.0
 51
89.9999820000008
  0
LINE
  5
119
330
2
100
AcDbEntity
  8
GAIKEI
  6
Continuous
 62
     1
100
AcDbLine
 10
10.43801285450898
 20
12.23127810286735
 30
0.0
 11
10.67167185450897
 21
11.9976186028673
 31
0.0
  0
LINE
  5
11A
330
2
100
AcDbEntity
  8
GAIKEI
  6
Continuous
 62
     1
100
AcDbLine
 10
10.706850354509
 20
11.96242760286731
 30
0.0
 11
10.80805685450893
 21
11.86122110286732
 31
0.0
  0
LINE
  5
11B
330
2
100
AcDbEntity
  8
GAIKEI
  6
Continuous
 62
     1
100
AcDbLine
 10
38.60960143779823
 20
38.77345910210019
 30
0.0
 11
38.76389593779819
 21
39.0193376028673
 31
0.0
  0
LINE
  5
11C
330
2
100
AcDbEntity
  8
GAIKEI
  6
Continuous
 62
     1
100
AcDbLine
 10
38.76388993779821
 20
12.1975831028673
 30
0.0
 11
38.61724243779824
 21
12.43127560286731
 31
0.0
  0
LINE
  5
11D
330
2
100
AcDbEntity
  8
GAIKEI
  6
Continuous
 62
     1
100
AcDbLine
 10
40.75698143779826
 20
39.1557046028673
 30
0.0
 11
38.82580943779826
 21
39.05449610286732
 31
0.0
  0
LINE
  5
11E
330
2
100
AcDbEntity
  8
GAIKEI
  6
Continuous
 62
     1
100
AcDbLine
 10
38.82581043779826
 20
12.16242460286727
 30
0.0
 11
40.7569829377982
 21
12.06121610286729
 31
0.0
  0
SPLINE
  5
11F
330
2
100
AcDbEntity
  8
GAIKEI
  6
Continuous
 62
     1
100
AcDbSpline
210
0.0
220
0.0
230
1.0
 70
     8
 71
     3
 72
     9
 73
     5
 74
     3
 42
0.0000000001
 43
0.0000000001
 44
0.000001
 12
-0.9986940660429823
 22
-0.0510897489770252
 32
0.0
 13
0.0131185329912131
 23
-0.9999139483436355
 33
0.0
 40
0.0
 40
0.0
 40
0.0
 40
0.0
 40
0.0591989648589363
 40
0.2000102042156897
 40
0.2000102042156897
 40
0.2000102042156897
 40
0.2000102042156897
 10
40.75698592585243
 20
39.35570053306108
 30
0.0
 10
40.73727870754559
 20
39.35469237964296
 30
0.0
 10
40.77803104630972
 20
39.24704839496548
 30
0.0
 10
40.75637018022276
 20
39.20263662559103
 30
0.0
 10
40.75698592585243
 20
39.1557035848189
 30
0.0
 11
40.75698592585243
 21
39.35570053306108
 31
0.0
 11
40.75593550760951
 21
39.29651020107375
 31
0.0
 11
40.75698592585243
 21
39.1557035848189
 31
0.0
  0
LINE
  5
120
330
2
100
AcDbEntity
  8
GAIKEI
  6
Continuous
 62
     1
100
AcDbLine
 10
40.75697843779821
 20
12.06122110286728
 30
0.0
 11
40.75697843779821
 21
39.15570360286731
 31
0.0
  0
LINE
  5
121
330
2
100
AcDbEntity
  8
GAIKEI
  6
Continuous
 62
     1
100
AcDbLine
 10
40.75697843779821
 20
39.15570310286731
 30
0.0
 11
40.8095984377982
 21
39.15570310286731
 31
0.0
  0
SPLINE
  5
122
330
2
100
AcDbEntity
  8
GAIKEI
  6
Continuous
 62
     1
100
AcDbSpline
210
0.0
220
0.0
230
1.0
 70
     8
 71
     3
 72
     9
 73
     5
 74
     3
 42
0.0000000001
 43
0.0000000001
 44
0.000001
 12
-0.9986940660429823
 22
0.0510897489770252
 32
0.0
 13
0.0131185329912131
 23
0.9999139483436355
 33
0.0
 40
0.0
 40
0.0
 40
0.0
 40
0.0
 40
0.0591989648589363
 40
0.2000102042156897
 40
0.2000102042156897
 40
0.2000102042156897
 40
0.2000102042156897
 10
40.75698592585243
 20
11.86121658530712
 30
0.0
 10
40.73727870754559
 20
11.86222473872524
 30
0.0
 10
40.77803104630972
 20
11.96986872340267
 30
0.0
 10
40.75637018022276
 20
12.01428049277717
 30
0.0
 10
40.75698592585243
 20
12.0612135335493
 30
0.0
 11
40.75698592585243
 21
11.86121658530712
 31
0.0
 11
40.75593550760951
 21
11.92040691729445
 31
0.0
 11
40.75698592585243
 21
12.0612135335493
 31
0.0
  0
LINE
  5
123
330
2
100
AcDbEntity
  8
GAIKEI
  6
Continuous
 62
     1
100
AcDbLine
 10
40.75697843779821
 20
12.06122110286728
 30
0.0
 11
40.8095984377982
 21
12.06122110286728
 31
0.0
  0
SPLINE
  5
124
330
2
100
AcDbEntity
  8
GAIKEI
  6
Continuous
 62
     1
100
AcDbSpline
210
0.0
220
0.0
230
1.0
 70
     8
 71
     3
 72
     9
 73
     5
 74
     3
 42
0.0000000001
 43
0.0000000001
 44
0.000001
 12
0.4779496510331567
 22
0.8783872329885515
 32
0.0
 13
-0.0589188432824472
 23
0.9982627759794803
 33
0.0
 40
0.0
 40
0.0
 40
0.0
 40
0.0
 40
0.0492615344403243
 40
0.1516766916408437
 40
0.1516766916408437
 40
0.1516766916408437
 40
0.1516766916408437
 10
38.7633412114968
 20
12.00327591147905
 30
0.0
 10
38.7711893892285
 20
12.01769947912231
 30
0.0
 10
38.76169588325551
 20
12.07213282222673
 30
0.0
 10
38.76535260569574
 20
12.1207318659489
 30
0.0
 10
38.7633412114968
 20
12.15481094565868
 30
0.0
 11
38.7633412114968
 21
12.00327591147905
 31
0.0
 11
38.76640894940786
 21
12.05244207700409
 31
0.0
 11
38.7633412114968
 21
12.15481094565868
 31
0.0
  0
SPLINE
  5
125
330
2
100
AcDbEntity
  8
GAIKEI
  6
Continuous
 62
     1
100
AcDbSpline
210
0.0
220
0.0
230
1.0
 70
     8
 71
     3
 72
     9
 73
     5
 74
     3
 42
0.0000000001
 43
0.0000000001
 44
0.000001
 12
0.054120045401226
 22
-0.9985344364045586
 32
0.0
 13
-0.9986449691918764
 23
0.0520406140217073
 33
0.0
 40
0.0
 40
0.0
 40
0.0
 40
0.0
 40
0.1409808087219784
 40
0.2001695318906547
 40
0.2001695318906547
 40
0.2001695318906547
 40
0.2001695318906547
 10
38.82581069391884
 20
12.16242508140092
 30
0.0
 10
38.82835398984175
 20
12.11550035060725
 30
0.0
 10
38.81091545580921
 20
12.07333034296783
 30
0.0
 10
38.84551353412727
 20
11.96140139399307
 30
0.0
 10
38.82581069391884
 20
11.96242813315868
 30
0.0
 11
38.82581069391884
 21
12.16242508140092
 31
0.0
 11
38.82960185549891
 21
12.02149603560494
 31
0.0
 11
38.82581069391884
 21
11.96242813315868
 31
0.0
  0
SPLINE
  5
126
330
2
100
AcDbEntity
  8
GAIKEI
  6
Continuous
 62
     1
100
AcDbSpline
210
0.0
220
0.0
230
1.0
 70
     8
 71
     3
 72
     9
 73
     5
 74
     3
 42
0.0000000001
 43
0.0000000001
 44
0.000001
 12
-0.0588032101926859
 22
0.9982695940831989
 32
0.0
 13
0.1041615589846991
 23
0.994560390137209
 33
0.0
 40
0.0
 40
0.0
 40
0.0
 40
0.0
 40
0.0207440243980621
 40
0.0428112243212617
 40
0.0428112243212617
 40
0.0428112243212617
 40
0.0428112243212617
 10
38.7633412114968
 20
12.15481094565868
 30
0.0
 10
38.76293460642115
 20
12.16171365526384
 30
0.0
 10
38.76241073351115
 20
12.17598411155532
 30
0.0
 10
38.76313197264876
 20
12.19026561041264
 30
0.0
 10
38.76389815729758
 20
12.19758133140092
 30
0.0
 11
38.7633412114968
 21
12.15481094565868
 31
0.0
 11
38.76271831315657
 21
12.17554531913876
 31
0.0
 11
38.76389815729758
 21
12.19758133140092
 31
0.0
  0
SPLINE
  5
127
330
2
100
AcDbEntity
  8
GAIKEI
  6
Continuous
 62
     1
100
AcDbSpline
210
0.0
220
0.0
230
1.0
 70
     8
 71
     3
 72
     9
 73
     5
 74
     3
 42
0.0000000001
 43
0.0000000001
 44
0.000001
 12
-0.0002686405243752
 22
-0.9999999639161337
 32
0.0
 13
0.1172432147065857
 23
-0.9931032315954196
 33
0.0
 40
0.0
 40
0.0
 40
0.0
 40
0.0
 40
0.0176196253798999
 40
0.0352474424880968
 40
0.0352474424880968
 40
0.0352474424880968
 40
0.0352474424880968
 10
38.82349898737587
 20
12.19758133140092
 30
0.0
 10
38.82349740959407
 20
12.19170812315289
 30
0.0
 10
38.82396471276398
 20
12.17995676106105
 30
0.0
 10
38.82512177993684
 20
12.1682604954463
 30
0.0
 10
38.82581069391884
 20
12.16242508140092
 30
0.0
 11
38.82349898737587
 21
12.19758133140092
 31
0.0
 11
38.82413699802461
 21
12.17997226041436
 31
0.0
 11
38.82581069391884
 21
12.16242508140092
 31
0.0
  0
SPLINE
  5
128
330
2
100
AcDbEntity
  8
GAIKEI
  6
Continuous
 62
     1
100
AcDbSpline
210
0.0
220
0.0
230
1.0
 70
     8
 71
     3
 72
     9
 73
     5
 74
     3
 42
0.0000000001
 43
0.0000000001
 44
0.000001
 12
-0.9930967486082368
 22
-0.1172981155166132
 32
0.0
 13
-0.991630435699232
 23
-0.1291087874428041
 33
0.0
 40
0.0
 40
0.0
 40
0.0
 40
0.0
 40
0.0368861725404543
 40
0.0629319564268772
 40
0.0629319564268772
 40
0.0629319564268772
 40
0.0629319564268772
 10
38.82581069391884
 20
12.16242508140092
 30
0.0
 10
38.813600181246
 20
12.16098285522505
 30
0.0
 10
38.79277335073154
 20
12.15847542268386
 30
0.0
 10
38.7719504755046
 20
12.15593185885055
 30
0.0
 10
38.7633412114968
 20
12.15481094565868
 30
0.0
 11
38.82581069391884
 21
12.16242508140092
 31
0.0
 11
38.78918729793944
 21
12.15803009869231
 31
0.0
 11
38.7633412114968
 21
12.15481094565868
 31
0.0
  0
LINE
  5
129
330
2
100
AcDbEntity
  8
GAIKEI
  6
Continuous
 62
     1
100
AcDbLine
 10
38.76389793779825
 20
39.01934360286728
 30
0.0
 11
38.76389793779825
 21
12.1975811028673
 31
0.0
  0
LINE
  5
12A
330
2
100
AcDbEntity
  8
GAIKEI
  6
Continuous
 62
     1
100
AcDbLine
 10
38.82349893779823
 20
39.01934360286728
 30
0.0
 11
38.82349893779823
 21
12.1975811028673
 31
0.0
  0
LINE
  5
12B
330
2
100
AcDbEntity
  8
GAIKEI
  6
Continuous
 62
     1
100
AcDbLine
 10
38.82349893779823
 20
12.1975811028673
 30
0.0
 11
38.76389793779825
 21
12.1975811028673
 31
0.0
  0
SPLINE
  5
12C
330
2
100
AcDbEntity
  8
GAIKEI
  6
Continuous
 62
     1
100
AcDbSpline
210
0.0
220
0.0
230
1.0
 70
     8
 71
     3
 72
     9
 73
     5
 74
     3
 42
0.0000000001
 43
0.0000000001
 44
0.000001
 12
-0.0588032101926859
 22
-0.9982695940831989
 32
0.0
 13
0.1041615589846991
 23
-0.994560390137209
 33
0.0
 40
0.0
 40
0.0
 40
0.0
 40
0.0
 40
0.0207478393860798
 40
0.0428188466135038
 40
0.0428188466135038
 40
0.0428188466135038
 40
0.0428188466135038
 10
38.7633412114968
 20
39.06211380210399
 30
0.0
 10
38.76293453164331
 20
39.05520982303665
 30
0.0
 10
38.76241083314319
 20
39.04093682586122
 30
0.0
 10
38.76313184045719
 20
39.02665277015362
 30
0.0
 10
38.76389815729758
 20
39.01933578696733
 30
0.0
 11
38.7633412114968
 21
39.06211380210399
 31
0.0
 11
38.76271831315657
 21
39.04137561392671
 31
0.0
 11
38.76389815729758
 21
39.01933578696733
 31
0.0
  0
SPLINE
  5
12D
330
2
100
AcDbEntity
  8
GAIKEI
  6
Continuous
 62
     1
100
AcDbSpline
210
0.0
220
0.0
230
1.0
 70
     8
 71
     3
 72
     9
 73
     5
 74
     3
 42
0.0000000001
 43
0.0000000001
 44
0.000001
 12
-0.117243214706586
 22
-0.9931032315954196
 32
0.0
 13
0.0002686405243751
 23
-0.9999999639161337
 33
0.0
 40
0.0
 40
0.0
 40
0.0
 40
0.0
 40
0.017631616006779
 40
0.035255053954395
 40
0.035255053954395
 40
0.035255053954395
 40
0.035255053954395
 10
38.82581069391884
 20
39.05449966636187
 30
0.0
 10
38.8251216314718
 20
39.04866299475035
 30
0.0
 10
38.82396472521826
 20
39.03696415923543
 30
0.0
 10
38.82349740925267
 20
39.02521026607124
 30
0.0
 10
38.82349898737587
 20
39.01933578696733
 30
0.0
 11
38.82581069391884
 21
39.05449966636187
 31
0.0
 11
38.82413699802461
 21
39.03694867265105
 31
0.0
 11
38.82349898737587
 21
39.01933578696733
 31
0.0
  0
LINE
  5
12E
330
2
100
AcDbEntity
  8
GAIKEI
  6
Continuous
 62
     1
100
AcDbLine
 10
38.82349893779823
 20
39.01934360286728
 30
0.0
 11
38.76389793779825
 21
39.01934360286728
 31
0.0
  0
SPLINE
  5
12F
330
2
100
AcDbEntity
  8
GAIKEI
  6
Continuous
 62
     1
100
AcDbSpline
210
0.0
220
0.0
230
1.0
 70
     8
 71
     3
 72
     9
 73
     5
 74
     3
 42
0.0000000001
 43
0.0000000001
 44
0.000001
 12
0.4779823182660963
 22
-0.8783694572473294
 32
0.0
 13
-0.058916846215057
 23
-0.9982628938471426
 33
0.0
 40
0.0
 40
0.0
 40
0.0
 40
0.0
 40
0.0492145710715455
 40
0.1516690372111757
 40
0.1516690372111757
 40
0.1516690372111757
 40
0.1516690372111757
 10
38.7633412114968
 20
39.21364120688921
 30
0.0
 10
38.77118244308788
 20
39.19923168152894
 30
0.0
 10
38.76169351485642
 20
39.1448015973931
 30
0.0
 10
38.76535330950533
 20
39.09620596605603
 30
0.0
 10
38.7633412114968
 20
39.06211380210399
 30
0.0
 11
38.7633412114968
 21
39.21364120688921
 31
0.0
 11
38.76640787978394
 21
39.16452202938192
 31
0.0
 11
38.7633412114968
 21
39.06211380210399
 31
0.0
  0
SPLINE
  5
130
330
2
100
AcDbEntity
  8
GAIKEI
  6
Continuous
 62
     1
100
AcDbSpline
210
0.0
220
0.0
230
1.0
 70
     8
 71
     3
 72
     9
 73
     5
 74
     3
 42
0.0000000001
 43
0.0000000001
 44
0.000001
 12
0.0541245663902453
 22
0.9985341913590481
 32
0.0
 13
-0.998645573378363
 23
-0.0520290185550401
 33
0.0
 40
0.0
 40
0.0
 40
0.0
 40
0.0
 40
0.1410371238712438
 40
0.2001696693490351
 40
0.2001696693490351
 40
0.2001696693490351
 40
0.2001696693490351
 10
38.82581069391884
 20
39.05449966636187
 30
0.0
 10
38.82835521831032
 20
39.10144312984065
 30
0.0
 10
38.81091266242967
 20
39.14360400220775
 30
0.0
 10
38.8454948455135
 20
39.25552215070596
 30
0.0
 10
38.82581069391884
 20
39.254496614604
 30
0.0
 11
38.82581069391884
 21
39.05449966636187
 31
0.0
 11
38.8296023172019
 21
39.19548503524382
 31
0.0
 11
38.82581069391884
 21
39.254496614604
 31
0.0
  0
SPLINE
  5
131
330
2
100
AcDbEntity
  8
GAIKEI
  6
Continuous
 62
     1
100
AcDbSpline
210
0.0
220
0.0
230
1.0
 70
     8
 71
     3
 72
     9
 73
     5
 74
     3
 42
0.0000000001
 43
0.0000000001
 44
0.000001
 12
-0.9930967486082368
 22
0.1172981155166132
 32
0.0
 13
-0.9916304356992322
 23
0.1291087874428037
 33
0.0
 40
0.0
 40
0.0
 40
0.0
 40
0.0
 40
0.0368861725404543
 40
0.0629319564268632
 40
0.0629319564268632
 40
0.0629319564268632
 40
0.0629319564268632
 10
38.82581069391884
 20
39.05449966636187
 30
0.0
 10
38.813600181246
 20
39.05594189253773
 30
0.0
 10
38.79277335073152
 20
39.05844932507898
 30
0.0
 10
38.7719504755046
 20
39.06099288891212
 30
0.0
 10
38.7633412114968
 20
39.06211380210399
 30
0.0
 11
38.82581069391884
 21
39.05449966636187
 31
0.0
 11
38.78918729793944
 21
39.05889464907048
 31
0.0
 11
38.7633412114968
 21
39.06211380210399
 31
0.0
  0
SPLINE
  5
132
330
2
100
AcDbEntity
  8
GAIKEI
  6
Continuous
100
AcDbSpline
210
0.0
220
0.0
230
1.0
 70
     8
 71
     3
 72
     9
 73
     5
 74
     3
 42
0.0000000001
 43
0.0000000001
 44
0.000001
 12
-0.5313504305953538
 22
-0.8471521232376934
 32
0.0
 13
0.47609226227362
 23
-0.8793953364688642
 33
0.0
 40
0.0
 40
0.0
 40
0.0
 40
0.0
 40
0.0034653098034134
 40
0.0059912507594003
 40
0.0059912507594003
 40
0.0059912507594003
 40
0.0059912507594003
 10
38.76389815729758
 20
39.21934799399858
 30
0.0
 10
38.76328439267884
 20
39.2183694458127
 30
0.0
 10
38.76236162913349
 20
39.21642979864467
 30
0.0
 10
38.7629403511821
 20
39.21438164045483
 30
0.0
 10
38.7633412114968
 20
39.21364120688921
 30
0.0
 11
38.76389815729758
 21
39.21934799399858
 31
0.0
 11
38.76271831804618
 21
39.21608972332141
 31
0.0
 11
38.7633412114968
 21
39.21364120688921
 31
0.0
  0
SPLINE
  5
133
330
2
100
AcDbEntity
  8
GAIKEI
  6
Continuous
100
AcDbSpline
210
0.0
220
0.0
230
1.0
 70
     8
 71
     3
 72
     9
 73
     5
 74
     3
 42
0.0000000001
 43
0.0000000001
 44
0.000001
 12
-0.9986290886555543
 22
-0.0523444676253086
 32
0.0
 13
-0.450990132811099
 23
-0.8925289351651448
 33
0.0
 40
0.0
 40
0.0
 40
0.0
 40
0.0
 40
0.038515461469869
 40
0.0771463181324901
 40
0.0771463181324901
 40
0.0771463181324901
 40
0.0771463181324901
 10
38.82581069391884
 20
39.254496614604
 30
0.0
 10
38.81298980718991
 20
39.25382459082866
 30
0.0
 10
38.78744791692577
 20
39.24499410991066
 30
0.0
 10
38.76914858988909
 20
39.22513425934307
 30
0.0
 10
38.7633412114968
 20
39.21364120688921
 30
0.0
 11
38.82581069391884
 21
39.254496614604
 31
0.0
 11
38.789290659844
 21
39.24225894191002
 31
0.0
 11
38.7633412114968
 21
39.21364120688921
 31
0.0
  0
SPLINE
  5
134
330
2
100
AcDbEntity
  8
GAIKEI
  6
Continuous
 62
     1
100
AcDbSpline
210
0.0
220
0.0
230
1.0
 70
     8
 71
     3
 72
     9
 73
     5
 74
     3
 42
0.0000000001
 43
0.0000000001
 44
0.000001
 12
-0.5217951880808808
 22
0.8530707952424807
 32
0.0
 13
0.4760922622736198
 23
0.8793953364688642
 33
0.0
 40
0.0
 40
0.0
 40
0.0
 40
0.0
 40
0.0034346311019984
 40
0.0059566485229397
 40
0.0059566485229397
 40
0.0059566485229397
 40
0.0059566485229397
 10
38.76384475153597
 20
11.99759201255327
 30
0.0
 10
38.76324736020868
 20
11.99856867371511
 30
0.0
 10
38.76235673138836
 20
12.00050632974378
 30
0.0
 10
38.76294097383699
 20
12.00253662802623
 30
0.0
 10
38.7633412114968
 20
12.00327591147905
 30
0.0
 11
38.76384475153597
 21
11.99759201255327
 31
0.0
 11
38.76270968678139
 21
12.00083367565347
 31
0.0
 11
38.7633412114968
 21
12.00327591147905
 31
0.0
  0
SPLINE
  5
135
330
2
100
AcDbEntity
  8
GAIKEI
  6
Continuous
 62
     1
100
AcDbSpline
210
0.0
220
0.0
230
1.0
 70
     8
 71
     3
 72
     9
 73
     5
 74
     3
 42
0.0000000001
 43
0.0000000001
 44
0.000001
 12
0.4509901328110985
 22
-0.892528935165145
 32
0.0
 13
0.9986290886555543
 23
-0.0523444676253087
 33
0.0
 40
0.0
 40
0.0
 40
0.0
 40
0.0
 40
0.0386280192691323
 40
0.077142279357971
 40
0.077142279357971
 40
0.077142279357971
 40
0.077142279357971
 10
38.7633412114968
 20
12.00327591147905
 30
0.0
 10
38.7691481633436
 20
11.9917837031771
 30
0.0
 10
38.78744883863921
 20
11.97192581172328
 30
0.0
 10
38.81299020710125
 20
11.96310013597212
 30
0.0
 10
38.82581069391884
 20
11.96242813315868
 30
0.0
 11
38.7633412114968
 21
12.00327591147905
 31
0.0
 11
38.789290659844
 21
11.97466199115544
 31
0.0
 11
38.82581069391884
 21
11.96242813315868
 31
0.0
  0
LINE
  5
136
330
2
100
AcDbEntity
  8
GAIKEI
  6
Continuous
100
AcDbLine
 10
38.60960143779826
 20
38.78564760286733
 30
0.0
 11
38.60960143779826
 21
38.95907110286728
 31
0.0
  0
LINE
  5
137
330
2
100
AcDbEntity
  8
GAIKEI
  6
Continuous
100
AcDbLine
 10
38.60960143779826
 20
12.43126960286727
 30
0.0
 11
38.60960143779826
 21
38.78564760286733
 31
0.0
  0
LINE
  5
138
330
2
100
AcDbEntity
  8
GAIKEI
  6
Continuous
100
AcDbLine
 10
38.60960143779826
 20
12.25784610286732
 30
0.0
 11
38.60960143779826
 21
12.43126960286727
 31
0.0
  0
LINE
  5
139
330
2
100
AcDbEntity
  8
GAIKEI
  6
Continuous
100
AcDbLine
 10
38.82581093779825
 20
11.96242810286728
 30
0.0
 11
40.75697543779827
 21
11.86122010286729
 31
0.0
  0
LINE
  5
13A
330
2
100
AcDbEntity
  8
GAIKEI
  6
Continuous
100
AcDbLine
 10
38.82345543779823
 20
11.96255110286731
 30
0.0
 11
38.82580943779826
 21
11.96242710286728
 31
0.0
  0
LINE
  5
13B
330
2
100
AcDbEntity
  8
GAIKEI
  6
Continuous
100
AcDbLine
 10
38.61724593779817
 20
12.23128260286725
 30
0.0
 11
38.76387693779824
 21
11.99761610286728
 31
0.0
  0
LINE
  5
13C
330
2
100
AcDbEntity
  8
GAIKEI
  6
Continuous
100
AcDbLine
 10
38.76389693779825
 20
39.21934110286727
 30
0.0
 11
38.61724943779822
 21
38.98564860286731
 31
0.0
  0
LINE
  5
13D
330
2
100
AcDbEntity
  8
GAIKEI
  6
Continuous
100
AcDbLine
 10
38.82580993779825
 20
39.25449260286732
 30
0.0
 11
40.7569819377982
 21
39.3557011028673
 31
0.0
  0
LINE
  5
13E
330
2
100
AcDbEntity
  8
GAIKEI
  6
Continuous
100
AcDbLine
 10
38.82349843779824
 20
39.25437810286732
 30
0.0
 11
38.82581443779825
 21
39.2544996028673
 31
0.0
  0
LINE
  5
13F
330
2
100
AcDbEntity
  8
GAIKEI
  6
Continuous
100
AcDbLine
 10
40.01958343779816
 20
11.89986910286731
 30
0.0
 11
40.01959793779824
 21
11.89986460286727
 31
0.0
  0
ARC
  5
140
330
2
100
AcDbEntity
  8
GAIKEI
  6
Continuous
100
AcDbCircle
 10
40.75959493779819
 20
39.30577360286728
 30
0.0
 40
0.05
100
AcDbArc
 50
0.0
 51
92.99996499999718
  0
ARC
  5
141
330
2
100
AcDbEntity
  8
GAIKEI
  6
Continuous
100
AcDbCircle
 10
40.75959493779819
 20
11.9111511028673
 30
0.0
 40
0.05
100
AcDbArc
 50
266.9999630000031
 51
359.999982999999
  0
ARC
  5
142
330
2
100
AcDbEntity
  8
GAIKEI
  6
Continuous
100
AcDbCircle
 10
38.65959693779828
 20
38.95907110286728
 30
0.0
 40
0.05
100
AcDbArc
 50
147.8907530000015
 51
179.9999639999983
  0
ARC
  5
143
330
2
100
AcDbEntity
  8
GAIKEI
  6
Continuous
100
AcDbCircle
 10
38.65959693779828
 20
12.25788410286728
 30
0.0
 40
0.05
100
AcDbArc
 50
179.9999639999983
 51
212.0989570000003
  0
ARC
  5
144
330
2
100
AcDbEntity
  8
GAIKEI
  6
Continuous
100
AcDbCircle
 10
38.82742043779823
 20
39.17947660286731
 30
0.0
 40
0.075
100
AcDbArc
 50
92.99996499999718
 51
147.8907530000015
  0
ARC
  5
145
330
2
100
AcDbEntity
  8
GAIKEI
  6
Continuous
 62
     7
100
AcDbCircle
 10
38.82738243779821
 20
12.03744810286727
 30
0.0
 40
0.075
100
AcDbArc
 50
212.0989570000003
 51
266.9999630000031
  0
LINE
  5
146
330
2
100
AcDbEntity
  8
GAIKEI
  6
Continuous
100
AcDbLine
 10
40.8095984377982
 20
12.06122110286728
 30
0.0
 11
40.8095984377982
 21
11.9111511028673
 31
0.0
  0
LINE
  5
147
330
2
100
AcDbEntity
  8
GAIKEI
  6
Continuous
100
AcDbLine
 10
40.8095984377982
 20
39.15570360286731
 30
0.0
 11
40.8095984377982
 21
12.06122110286728
 31
0.0
  0
LINE
  5
148
330
2
100
AcDbEntity
  8
GAIKEI
  6
Continuous
100
AcDbLine
 10
40.8095984377982
 20
39.30577360286728
 30
0.0
 11
40.8095984377982
 21
39.15570360286731
 31
0.0
  0
LINE
  5
149
330
2
100
AcDbEntity
  8
GAIKEI
  6
Continuous
 62
     1
100
AcDbLine
 10
42.64871793779824
 20
17.79615760286728
 30
0.0
 11
42.64871793779824
 21
30.46075710286729
 31
0.0
  0
LINE
  5
14A
330
2
100
AcDbEntity
  8
GAIKEI
  6
Continuous
 62
     1
100
AcDbLine
 10
42.43357043779818
 20
30.45846260286729
 30
0.0
 11
42.43357043779818
 21
17.79845260286728
 31
0.0
  0
LINE
  5
14B
330
2
100
AcDbEntity
  8
GAIKEI
  6
Continuous
100
AcDbLine
 10
42.99959843779819
 20
34.68110810286729
 30
0.0
 11
42.99959843779819
 21
16.82279360286728
 31
0.0
  0
LINE
  5
14C
330
2
100
AcDbEntity
  8
GAIKEI
  6
Continuous
 62
     1
100
AcDbLine
 10
41.9995984377982
 20
16.03668510286726
 30
0.0
 11
41.9995984377982
 21
14.05658260286728
 31
0.0
  0
LINE
  5
14D
330
2
100
AcDbEntity
  8
GAIKEI
  6
Continuous
 62
     1
100
AcDbLine
 10
41.9995984377982
 20
14.05655810286728
 30
0.0
 11
41.9995984377982
 21
13.3137116028673
 31
0.0
  0
ARC
  5
14E
330
2
100
AcDbEntity
  8
GAIKEI
  6
Continuous
 62
     1
100
AcDbCircle
 10
41.89098793779826
 20
15.23346260286732
 30
0.0
 40
0.288611
100
AcDbArc
 50
295.2165849999994
 51
64.78341500000057
  0
LINE
  5
14F
330
2
100
AcDbEntity
  8
GAIKEI
  6
Continuous
100
AcDbLine
 10
42.79576893779821
 20
16.11255010286729
 30
0.0
 11
42.7510574377982
 21
16.10056960286729
 31
0.0
  0
LINE
  5
150
330
2
100
AcDbEntity
  8
GAIKEI
  6
Continuous
100
AcDbLine
 10
42.75106893779823
 20
16.10058510286726
 30
0.0
 11
42.72458593779819
 21
16.09348910286732
 31
0.0
  0
LINE
  5
151
330
2
100
AcDbEntity
  8
GAIKEI
  6
Continuous
 62
     1
100
AcDbLine
 10
42.84080693779819
 20
16.5723101028673
 30
0.0
 11
42.43206093779824
 21
16.38170910286729
 31
0.0
  0
LINE
  5
152
330
2
100
AcDbEntity
  8
GAIKEI
  6
Continuous
 62
     1
100
AcDbLine
 10
42.43206293779829
 20
16.38171060286729
 30
0.0
 11
42.1295034377982
 21
16.24062460286731
 31
0.0
  0
LINE
  5
153
330
2
100
AcDbEntity
  8
GAIKEI
  6
Continuous
 62
     1
100
AcDbLine
 10
42.47000243779822
 20
17.79845260286728
 30
0.0
 11
42.61369143779816
 21
17.79845260286728
 31
0.0
  0
LINE
  5
154
330
2
100
AcDbEntity
  8
GAIKEI
  6
Continuous
 62
     1
100
AcDbLine
 10
42.47000243779822
 20
17.79845260286728
 30
0.0
 11
42.43357043779818
 21
17.79845260286728
 31
0.0
  0
LINE
  5
155
330
2
100
AcDbEntity
  8
GAIKEI
  6
Continuous
 62
     1
100
AcDbLine
 10
42.61364393779823
 20
17.79845260286728
 30
0.0
 11
42.62139693779826
 21
17.79845260286728
 31
0.0
  0
LINE
  5
156
330
2
100
AcDbEntity
  8
GAIKEI
  6
Continuous
 62
     1
100
AcDbLine
 10
42.43357043779818
 20
17.04845260286728
 30
0.0
 11
42.47000243779822
 21
17.04845260286728
 31
0.0
  0
LINE
  5
157
330
2
100
AcDbEntity
  8
GAIKEI
  6
Continuous
 62
     1
100
AcDbLine
 10
42.47000243779822
 20
17.04845260286728
 30
0.0
 11
42.61371393779822
 21
17.04845260286728
 31
0.0
  0
LINE
  5
158
330
2
100
AcDbEntity
  8
GAIKEI
  6
Continuous
 62
     1
100
AcDbLine
 10
42.61364843779822
 20
17.04845260286728
 30
0.0
 11
42.62139693779826
 21
17.04845260286728
 31
0.0
  0
ARC
  5
159
330
2
100
AcDbEntity
  8
GAIKEI
  6
Continuous
 62
     1
100
AcDbCircle
 10
42.22459843779822
 20
16.03668510286726
 30
0.0
 40
0.225
100
AcDbArc
 50
115.0000039999968
 51
179.9999639999983
  0
ARC
  5
15A
330
2
100
AcDbEntity
  8
GAIKEI
  6
Continuous
 62
     1
100
AcDbCircle
 10
42.72459843779822
 20
16.71412660286725
 30
0.0
 40
0.275
100
AcDbArc
 50
290.0000139999979
 51
0.0
  0
LINE
  5
15B
330
2
100
AcDbEntity
  8
GAIKEI
  6
Continuous
 62
     1
100
AcDbLine
 10
42.77392893779821
 20
16.43943360286729
 30
0.0
 11
42.81864243779827
 21
16.4557081028673
 31
0.0
  0
ARC
  5
15C
330
2
100
AcDbEntity
  8
GAIKEI
  6
Continuous
 62
     1
100
AcDbCircle
 10
42.7995984377982
 20
16.3689606028673
 30
0.0
 40
0.075
100
AcDbArc
 50
109.9999780000023
 51
179.9999639999983
  0
LINE
  5
15D
330
2
100
AcDbEntity
  8
GAIKEI
  6
Continuous
 62
     1
100
AcDbLine
 10
42.72459843779822
 20
16.51810610286728
 30
0.0
 11
42.72459843779822
 21
16.36210010286729
 31
0.0
  0
LINE
  5
15E
330
2
100
AcDbEntity
  8
GAIKEI
  6
Continuous
100
AcDbLine
 10
42.72459843779822
 20
15.65885310286725
 30
0.0
 11
42.72459843779822
 21
13.59015160286728
 31
0.0
  0
LINE
  5
15F
330
2
100
AcDbEntity
  8
GAIKEI
  6
Continuous
100
AcDbLine
 10
42.72459843779822
 20
13.59015160286728
 30
0.0
 11
42.72459843779822
 21
13.35169960286728
 31
0.0
  0
LINE
  5
160
330
2
100
AcDbEntity
  8
GAIKEI
  6
Continuous
100
AcDbLine
 10
42.46399193779828
 20
13.07707810286726
 30
0.0
 11
41.99555993779822
 21
13.05252860286728
 31
0.0
  0
LINE
  5
161
330
2
100
AcDbEntity
  8
GAIKEI
  6
Continuous
100
AcDbLine
 10
41.99555943779827
 20
13.0525431028673
 30
0.0
 11
41.73899193779826
 21
13.03909710286731
 31
0.0
  0
LINE
  5
162
330
2
100
AcDbEntity
  8
GAIKEI
  6
Continuous
100
AcDbLine
 10
41.73899193779826
 20
13.0390826028673
 30
0.0
 11
40.96282343779821
 21
12.99840510286728
 31
0.0
  0
LINE
  5
163
330
2
100
AcDbEntity
  8
GAIKEI
  6
Continuous
 62
     1
100
AcDbLine
 10
42.70480593779822
 20
18.53346260286727
 30
0.0
 11
42.68231893779821
 21
18.53346260286727
 31
0.0
  0
LINE
  5
164
330
2
100
AcDbEntity
  8
GAIKEI
  6
Continuous
 62
     1
100
AcDbLine
 10
42.68407693779827
 20
17.93346260286731
 30
0.0
 11
42.70304993779816
 21
17.93346260286731
 31
0.0
  0
ARC
  5
165
330
2
100
AcDbEntity
  8
GAIKEI
  6
Continuous
100
AcDbCircle
 10
42.44959843779824
 20
13.35169960286728
 30
0.0
 40
0.275
100
AcDbArc
 50
316.1660690000031
 51
317.7622019999985
  0
ARC
  5
166
330
2
100
AcDbEntity
  8
GAIKEI
  6
Continuous
100
AcDbCircle
 10
42.44959843779824
 20
13.35169960286728
 30
0.0
 40
0.275
100
AcDbArc
 50
281.9388440000011
 51
284.2289240000027
  0
LINE
  5
167
330
2
100
AcDbEntity
  8
GAIKEI
  6
Continuous
 62
     1
100
AcDbLine
 10
42.99959843779819
 20
16.8215481028673
 30
0.0
 11
42.99959843779819
 21
16.71412660286725
 31
0.0
  0
LINE
  5
168
330
2
100
AcDbEntity
  8
GAIKEI
  6
Continuous
100
AcDbLine
 10
42.99959843779819
 20
16.71412660286725
 30
0.0
 11
42.99959843779819
 21
16.38522010286729
 31
0.0
  0
LINE
  5
169
330
2
100
AcDbEntity
  8
GAIKEI
  6
Continuous
100
AcDbLine
 10
42.99959843779819
 20
16.38522010286729
 30
0.0
 11
42.99959843779819
 21
16.37818910286725
 31
0.0
  0
LINE
  5
16A
330
2
100
AcDbEntity
  8
GAIKEI
  6
Continuous
100
AcDbLine
 10
41.99555993779822
 20
13.05252860286728
 30
0.0
 11
41.99555843779816
 21
13.05252860286728
 31
0.0
  0
ELLIPSE
  5
16B
330
2
100
AcDbEntity
  8
GAIKEI
  6
Continuous
 62
     1
100
AcDbEllipse
 10
42.73171793779826
 20
17.42345260286728
 30
0.0
 11
-0.0000000000000001
 21
-0.2049999237060547
 31
0.0
210
0.0
220
0.0
230
1.0
 40
0.140541
 41
0.0
 42
6.283185307179585
  0
LINE
  5
16C
330
2
100
AcDbEntity
  8
GAIKEI
  6
Continuous
 62
     1
100
AcDbLine
 10
42.68514943779817
 20
17.0984526028673
 30
0.0
 11
42.68514943779817
 21
17.74845260286727
 31
0.0
  0
LINE
  5
16D
330
2
100
AcDbEntity
  8
GAIKEI
  6
Continuous
 62
     1
100
AcDbLine
 10
42.73073993779823
 20
17.74845260286727
 30
0.0
 11
42.68514943779817
 21
17.74845260286727
 31
0.0
  0
LINE
  5
16E
330
2
100
AcDbEntity
  8
GAIKEI
  6
Continuous
 62
     1
100
AcDbLine
 10
42.73073993779823
 20
17.0984526028673
 30
0.0
 11
42.68514943779817
 21
17.0984526028673
 31
0.0
  0
LINE
  5
16F
330
2
100
AcDbEntity
  8
GAIKEI
  6
Continuous
 62
     1
100
AcDbLine
 10
40.8095984377982
 20
14.01180710286732
 30
0.0
 11
40.92781793779827
 21
14.01180710286732
 31
0.0
  0
LINE
  5
170
330
2
100
AcDbEntity
  8
GAIKEI
  6
Continuous
 62
     1
100
AcDbLine
 10
42.81864293779827
 20
16.37818060286727
 30
0.0
 11
42.7739314377982
 21
16.36620010286728
 31
0.0
  0
LINE
  5
171
330
2
100
AcDbEntity
  8
GAIKEI
  6
Continuous
 62
     1
100
AcDbLine
 10
42.40204293779825
 20
13.59013960286731
 30
0.0
 11
42.53309493779821
 21
16.31452860286728
 31
0.0
  0
LINE
  5
172
330
2
100
AcDbEntity
  8
GAIKEI
  6
Continuous
 62
     1
100
AcDbLine
 10
42.53307993779825
 20
16.31453160286727
 30
0.0
 11
42.14764043779823
 21
16.05408160286728
 31
0.0
  0
LINE
  5
173
330
2
100
AcDbEntity
  8
GAIKEI
  6
Continuous
 62
     1
100
AcDbLine
 10
42.47000243779822
 20
17.04845260286728
 30
0.0
 11
42.47000243779822
 21
17.79845260286728
 31
0.0
  0
LINE
  5
174
330
2
100
AcDbEntity
  8
GAIKEI
  6
Continuous
 62
     1
100
AcDbLine
 10
42.43357043779818
 20
17.04845260286728
 30
0.0
 11
42.43357043779818
 21
16.91078160286727
 31
0.0
  0
LINE
  5
175
330
2
100
AcDbEntity
  8
GAIKEI
  6
Continuous
 62
     1
100
AcDbLine
 10
42.43355893779827
 20
16.91078210286727
 30
0.0
 11
42.01678143779824
 21
16.71643560286728
 31
0.0
  0
LINE
  5
176
330
2
100
AcDbEntity
  8
GAIKEI
  6
Continuous
 62
     1
100
AcDbLine
 10
41.78177443779818
 20
16.03668510286726
 30
0.0
 11
41.78177443779818
 21
14.05658260286728
 31
0.0
  0
LINE
  5
177
330
2
100
AcDbEntity
  8
GAIKEI
  6
Continuous
 62
     1
100
AcDbLine
 10
41.78177343779824
 20
14.05658310286728
 30
0.0
 11
40.92781843779826
 21
14.01182910286727
 31
0.0
  0
LINE
  5
178
330
2
100
AcDbEntity
  8
GAIKEI
  6
Continuous
 62
     1
100
AcDbLine
 10
42.69607943779826
 20
17.05077210286728
 30
0.0
 11
42.64871793779824
 21
17.05077210286728
 31
0.0
  0
LINE
  5
179
330
2
100
AcDbEntity
  8
GAIKEI
  6
Continuous
 62
     1
100
AcDbLine
 10
41.9995984377982
 20
16.03670960286726
 30
0.0
 11
41.78177443779818
 21
16.03670960286726
 31
0.0
  0
LINE
  5
17A
330
2
100
AcDbEntity
  8
GAIKEI
  6
Continuous
 62
     1
100
AcDbLine
 10
42.14764493779822
 20
13.57680710286726
 30
0.0
 11
42.40204393779825
 21
13.59013960286731
 31
0.0
  0
LINE
  5
17B
330
2
100
AcDbEntity
  8
GAIKEI
  6
Continuous
 62
     1
100
AcDbLine
 10
42.14764343779822
 20
16.05406760286732
 30
0.0
 11
42.14764343779822
 21
15.36398010286731
 31
0.0
  0
LINE
  5
17C
330
2
100
AcDbEntity
  8
GAIKEI
  6
Continuous
 62
     1
100
AcDbLine
 10
42.14764343779822
 20
15.10294460286727
 30
0.0
 11
42.14764343779822
 21
13.57682160286728
 31
0.0
  0
LINE
  5
17D
330
2
100
AcDbEntity
  8
GAIKEI
  6
Continuous
 62
     1
100
AcDbLine
 10
42.64871793779824
 20
17.79615760286728
 30
0.0
 11
42.69607943779826
 21
17.79615760286728
 31
0.0
  0
LINE
  5
17E
330
2
100
AcDbEntity
  8
GAIKEI
  6
Continuous
 62
     1
100
AcDbLine
 10
42.64871793779824
 20
16.91078160286727
 30
0.0
 11
42.64871793779824
 21
17.05077210286728
 31
0.0
  0
LINE
  5
17F
330
2
100
AcDbEntity
  8
GAIKEI
  6
Continuous
 62
     1
100
AcDbLine
 10
42.81865643779823
 20
16.37818910286725
 30
0.0
 11
42.99959693779825
 21
16.37818910286725
 31
0.0
  0
LINE
  5
180
330
2
100
AcDbEntity
  8
GAIKEI
  6
Continuous
 62
     1
100
AcDbLine
 10
42.81865493779824
 20
16.38522010286729
 30
0.0
 11
42.99959843779819
 21
16.38522010286729
 31
0.0
  0
LINE
  5
181
330
2
100
AcDbEntity
  8
GAIKEI
  6
Continuous
 62
     1
100
AcDbLine
 10
42.81865493779824
 20
16.38522010286729
 30
0.0
 11
42.81865493779824
 21
16.37818910286725
 31
0.0
  0
LINE
  5
182
330
2
100
AcDbEntity
  8
GAIKEI
  6
Continuous
 62
     1
100
AcDbLine
 10
42.76788843779823
 20
16.51099460286727
 30
0.0
 11
42.84081993779821
 21
16.53753960286727
 31
0.0
  0
LINE
  5
183
330
2
100
AcDbEntity
  8
GAIKEI
  6
Continuous
 62
     1
100
AcDbLine
 10
42.76790243779825
 20
16.53829660286729
 30
0.0
 11
42.76790243779825
 21
16.51100160286725
 31
0.0
  0
LINE
  5
184
330
2
100
AcDbEntity
  8
GAIKEI
  6
Continuous
 62
     1
100
AcDbLine
 10
42.84081843779822
 20
16.53753960286727
 30
0.0
 11
42.84081843779822
 21
16.57230510286726
 31
0.0
  0
LINE
  5
185
330
2
100
AcDbEntity
  8
GAIKEI
  6
Continuous
 62
     1
100
AcDbLine
 10
42.77394493779823
 20
16.3689606028673
 30
0.0
 11
42.72459843779822
 21
16.3689606028673
 31
0.0
  0
LINE
  5
186
330
2
100
AcDbEntity
  8
GAIKEI
  6
Continuous
 62
     1
100
AcDbLine
 10
42.77394643779828
 20
16.36620160286728
 30
0.0
 11
42.77394643779828
 21
16.3689606028673
 31
0.0
  0
LINE
  5
187
330
2
100
AcDbEntity
  8
GAIKEI
  6
Continuous
 62
     1
100
AcDbLine
 10
42.77393943779824
 20
16.36895110286727
 30
0.0
 11
42.81865293779818
 21
16.38522560286728
 31
0.0
  0
LINE
  5
188
330
2
100
AcDbEntity
  8
GAIKEI
  6
Continuous
 62
     1
100
AcDbLine
 10
42.68407693779827
 20
18.08346260286728
 30
0.0
 11
42.68407693779827
 21
17.93346260286731
 31
0.0
  0
LINE
  5
189
330
2
100
AcDbEntity
  8
GAIKEI
  6
Continuous
 62
     1
100
AcDbLine
 10
42.70304993779816
 20
17.93346260286731
 30
0.0
 11
42.70304993779816
 21
18.08346260286728
 31
0.0
  0
LINE
  5
18A
330
2
100
AcDbEntity
  8
GAIKEI
  6
Continuous
 62
     1
100
AcDbLine
 10
42.70304993779816
 20
18.08346910286727
 30
0.0
 11
42.70480643779822
 21
18.18345360286727
 31
0.0
  0
LINE
  5
18B
330
2
100
AcDbEntity
  8
GAIKEI
  6
Continuous
 62
     1
100
AcDbLine
 10
42.70480593779822
 20
18.18346260286731
 30
0.0
 11
42.70480593779822
 21
18.53346260286727
 31
0.0
  0
LINE
  5
18C
330
2
100
AcDbEntity
  8
GAIKEI
  6
Continuous
 62
     1
100
AcDbLine
 10
42.68231893779821
 20
18.53346260286727
 30
0.0
 11
42.68231893779821
 21
18.18346260286731
 31
0.0
  0
LINE
  5
18D
330
2
100
AcDbEntity
  8
GAIKEI
  6
Continuous
 62
     1
100
AcDbLine
 10
42.6823204377982
 20
18.18347360286728
 30
0.0
 11
42.6840774377982
 21
18.08346460286728
 31
0.0
  0
LINE
  5
18E
330
2
100
AcDbEntity
  8
GAIKEI
  6
Continuous
 62
     1
100
AcDbLine
 10
42.68232243779826
 20
18.18346260286731
 30
0.0
 11
42.70480593779822
 21
18.18346260286731
 31
0.0
  0
LINE
  5
18F
330
2
100
AcDbEntity
  8
GAIKEI
  6
Continuous
 62
     1
100
AcDbLine
 10
42.68407693779827
 20
18.08346260286728
 30
0.0
 11
42.70304993779816
 21
18.08346260286728
 31
0.0
  0
SPLINE
  5
190
330
2
100
AcDbEntity
  8
GAIKEI
  6
Continuous
 62
     1
100
AcDbSpline
210
0.0
220
0.0
230
1.0
 70
     8
 71
     3
 72
     9
 73
     5
 74
     3
 42
0.0000000001
 43
0.0000000001
 44
0.000001
 12
-0.0031659149377316
 22
0.9999949884787458
 32
0.0
 13
0.902301036189104
 23
0.4311065298647996
 33
0.0
 40
0.0
 40
0.0
 40
0.0
 40
0.0
 40
0.0138991312812733
 40
0.0278118047885577
 40
0.0278118047885577
 40
0.0278118047885577
 40
0.0278118047885577
 10
41.99959823053987
 20
14.94974655356887
 30
0.0
 10
41.99958356271742
 20
14.9543795741107
 30
0.0
 10
42.00252386051005
 20
14.96375725315985
 30
0.0
 10
42.00976312253368
 20
14.97035469397826
 30
0.0
 10
42.01394759577428
 20
14.97235397544389
 30
0.0
 11
41.99959823053987
 21
14.94974655356887
 31
0.0
 11
42.003595545075
 21
14.96305911984925
 31
0.0
 11
42.01394759577428
 21
14.97235397544389
 31
0.0
  0
SPLINE
  5
191
330
2
100
AcDbEntity
  8
GAIKEI
  6
Continuous
 62
     1
100
AcDbSpline
210
0.0
220
0.0
230
1.0
 70
     8
 71
     3
 72
     9
 73
     5
 74
     3
 42
0.0000000001
 43
0.0000000001
 44
0.000001
 12
-0.908156955238217
 22
0.4186298420471854
 32
0.0
 13
-0.0000013686223068
 23
0.9999999999990635
 33
0.0
 40
0.0
 40
0.0
 40
0.0
 40
0.0
 40
0.0139109155468177
 40
0.0278263591967673
 40
0.0278263591967673
 40
0.0278263591967673
 40
0.0278263591967673
 10
42.01394759577428
 20
15.49457077231889
 30
0.0
 10
42.00973649753843
 20
15.4965119471116
 30
0.0
 10
42.0024879706005
 20
15.50316505245101
 30
0.0
 10
41.9995982368882
 20
15.5125397129772
 30
0.0
 10
41.99959823053987
 20
15.51717819419386
 30
0.0
 11
42.01394759577428
 21
15.49457077231889
 31
0.0
 11
42.0035775092202
 21
15.50384396237021
 31
0.0
 11
41.99959823053987
 21
15.51717819419386
 31
0.0
  0
SPLINE
  5
192
330
2
100
AcDbEntity
  8
GAIKEI
  6
Continuous
 62
     1
100
AcDbSpline
210
0.0
220
0.0
230
1.0
 70
     8
 71
     3
 72
     9
 73
     5
 74
     3
 42
0.0000000001
 43
0.0000000001
 44
0.000001
 12
0.3408450750856852
 22
-0.9401194789971292
 32
0.0
 13
0.9065314612659387
 23
-0.4221382590278238
 33
0.0
 40
0.0
 40
0.0
 40
0.0
 40
0.0
 40
0.0098325574653933
 40
0.0193667299629971
 40
0.0193667299629971
 40
0.0193667299629971
 40
0.0193667299629971
 10
42.0011286870828
 20
15.50860885825639
 30
0.0
 10
42.00224581334532
 20
15.50552759865587
 30
0.0
 10
42.00575823483811
 20
15.49988957572037
 30
0.0
 10
42.01106658666555
 20
15.49591235197869
 30
0.0
 10
42.01394759577428
 20
15.49457077231889
 30
0.0
 11
42.0011286870828
 21
15.50860885825639
 31
0.0
 11
42.00627589908143
 21
15.50023158413054
 31
0.0
 11
42.01394759577428
 21
15.49457077231889
 31
0.0
  0
SPLINE
  5
193
330
2
100
AcDbEntity
  8
GAIKEI
  6
Continuous
100
AcDbSpline
210
0.0
220
0.0
230
1.0
 70
     8
 71
     3
 72
    11
 73
     7
 74
     5
 42
0.0000000001
 43
0.0000000001
 44
0.000001
 12
-0.0000000000003039
 22
-1.0
 32
0.0
 13
-0.965925895331204
 23
-0.2588187874336249
 33
0.0
 40
0.0
 40
0.0
 40
0.0
 40
0.0
 40
0.0871479188600683
 40
0.1791254035382732
 40
0.2710914967672249
 40
0.3582326968896873
 40
0.3582326968896873
 40
0.3582326968896873
 40
0.3582326968896873
 10
42.99959823053987
 20
16.3781889363814
 30
0.0
 10
42.99959823053986
 20
16.34913963009472
 30
0.0
 10
42.98957302535771
 20
16.28912897132417
 30
0.0
 10
42.94710289029589
 20
16.20745017330634
 30
0.0
 10
42.87919909715457
 20
16.14529014292924
 30
0.0
 10
42.82383169191698
 20
16.12008186296515
 30
0.0
 10
42.7957743780008
 20
16.1125639363814
 30
0.0
 11
42.99959823053987
 21
16.3781889363814
 31
0.0
 11
42.98557463390366
 21
16.29217617160182
 31
0.0
 11
42.94278670710227
 21
16.21075729575639
 31
0.0
 11
42.87522224630609
 21
16.14836508133081
 31
0.0
 11
42.7957743780008
 21
16.1125639363814
 31
0.0
  0
SPLINE
  5
194
330
2
100
AcDbEntity
  8
GAIKEI
  6
Continuous
100
AcDbSpline
210
0.0
220
0.0
230
1.0
 70
     8
 71
     3
 72
     9
 73
     5
 74
     3
 42
0.0000000001
 43
0.0000000001
 44
0.000001
 12
0.000292441292299
 22
-0.9999999572390445
 32
0.0
 13
-0.0134279012734896
 23
-0.9999098416694327
 33
0.0
 40
0.0
 40
0.0
 40
0.0
 40
0.0
 40
0.0019716753007924
 40
0.0039551967672422
 40
0.0039551967672422
 40
0.0039551967672422
 40
0.0039551967672422
 10
42.72459823053984
 20
13.3516996785689
 30
0.0
 10
42.7245984227396
 20
13.35104245349674
 30
0.0
 10
42.72459355723303
 20
13.34972404939154
 30
0.0
 10
42.72457964289621
 20
13.34840571465568
 30
0.0
 10
42.7245707647194
 20
13.34774460044386
 30
0.0
 11
42.72459823053984
 21
13.3516996785689
 31
0.0
 11
42.72459132108131
 21
13.34972801284564
 31
0.0
 11
42.7245707647194
 21
13.34774460044386
 31
0.0
  0
SPLINE
  5
195
330
2
100
AcDbEntity
  8
GAIKEI
  6
Continuous
100
AcDbSpline
210
0.0
220
0.0
230
1.0
 70
     8
 71
     3
 72
    11
 73
     7
 74
     5
 42
0.0000000001
 43
0.0000000001
 44
0.000001
 12
-0.0149572399466855
 22
-0.9998881342296133
 32
0.0
 13
-0.9986281369103121
 23
-0.0523626218885118
 33
0.0
 40
0.0
 40
0.0
 40
0.0
 40
0.0
 40
0.0840092266952677
 40
0.1832760806507437
 40
0.308793018610158
 40
0.4109809135887296
 40
0.4109809135887296
 40
0.4109809135887296
 40
0.4109809135887296
 10
42.7245707647194
 20
13.34774460044386
 30
0.0
 10
42.72415191599892
 20
13.31974465746438
 30
0.0
 10
42.71378711341006
 20
13.25842420869986
 30
0.0
 10
42.66326263218828
 20
13.16624204647238
 30
0.0
 10
42.57368101015901
 20
13.09729478630842
 30
0.0
 10
42.49800469689702
 20
13.078873912271
 30
0.0
 10
42.46398879450461
 20
13.07709030356889
 30
0.0
 11
42.7245707647194
 21
13.34774460044386
 31
0.0
 11
42.71052787176055
 21
13.26491688933854
 31
0.0
 11
42.6627207891336
 21
13.17792038169389
 31
0.0
 11
42.56325165618583
 21
13.10136706114221
 31
0.0
 11
42.46398879450461
 21
13.07709030356889
 31
0.0
  0
SPLINE
  5
196
330
2
100
AcDbEntity
  8
GAIKEI
  6
Continuous
 62
     1
100
AcDbSpline
210
0.0
220
0.0
230
1.0
 70
     8
 71
     3
 72
    11
 73
     7
 74
     5
 42
0.0000000001
 43
0.0000000001
 44
0.000001
 12
-0.0000599896607722
 22
-0.9999999982006205
 32
0.0
 13
-0.9986270049495672
 23
-0.0523842054960955
 33
0.0
 40
0.0
 40
0.0
 40
0.0
 40
0.0
 40
0.0890360234871626
 40
0.1952884082718385
 40
0.3150464457908486
 40
0.4149778948723734
 40
0.4149778948723734
 40
0.4149778948723734
 40
0.4149778948723734
 10
41.99959823053987
 20
13.31371139731888
 30
0.0
 10
41.99959645012626
 20
13.28403272287656
 30
0.0
 10
41.98890174827198
 20
13.21849264704136
 30
0.0
 10
41.93553256306647
 20
13.12500918664392
 30
0.0
 10
41.84528241207871
 20
13.05826155989814
 30
0.0
 10
41.7722535424035
 20
13.04084696550694
 30
0.0
 10
41.73898879450464
 20
13.03910202231887
 30
0.0
 11
41.99959823053987
 21
13.31371139731888
 31
0.0
 11
41.98519182808385
 21
13.22584809508802
 31
0.0
 11
41.93245192927022
 21
13.13360885825639
 31
0.0
 11
41.8361682867733
 21
13.06239467355092
 31
0.0
 11
41.73898879450464
 21
13.03910202231887
 31
0.0
  0
SPLINE
  5
197
330
2
100
AcDbEntity
  8
GAIKEI
  6
Continuous
 62
     1
100
AcDbSpline
210
0.0
220
0.0
230
1.0
 70
     8
 71
     3
 72
    11
 73
     7
 74
     5
 42
0.0000000001
 43
0.0000000001
 44
0.000001
 12
0.9045397984578935
 22
0.4263892036693161
 32
0.0
 13
-0.0004615066986664
 23
0.999999893505778
 33
0.0
 40
0.0
 40
0.0
 40
0.0
 40
0.0
 40
0.0479436507060061
 40
0.1129199737131146
 40
0.211063790536969
 40
0.3105293400498738
 40
0.3105293400498738
 40
0.3105293400498738
 40
0.3105293400498738
 10
42.84081679743437
 20
16.57230514731887
 30
0.0
 10
42.85527244415002
 20
16.57911936566739
 30
0.0
 10
42.88788533535426
 20
16.59831073711817
 30
0.0
 10
42.94102821163348
 20
16.64533975146119
 30
0.0
 10
42.98715772719262
 20
16.72198985667941
 30
0.0
 10
42.99961200600008
 20
16.78839313174129
 30
0.0
 10
42.99959670466094
 20
16.8215483113814
 30
0.0
 11
42.84081679743437
 21
16.57230514731887
 31
0.0
 11
42.88221308526303
 21
16.596491394161
 31
0.0
 11
42.93070784968048
 21
16.63973678794386
 31
0.0
 11
42.9814352534934
 21
16.72375424915989
 31
0.0
 11
42.99959670466094
 21
16.8215483113814
 31
0.0
  0
SPLINE
  5
198
330
2
100
AcDbEntity
  8
GAIKEI
  6
Continuous
100
AcDbSpline
210
0.0
220
0.0
230
1.0
 70
     8
 71
     3
 72
    11
 73
     7
 74
     5
 42
0.0000000001
 43
0.0000000001
 44
0.000001
 12
-0.9986295168196363
 22
-0.0523362984608151
 32
0.0
 13
-0.6795959336346092
 23
-0.7335866458621667
 33
0.0
 40
0.0
 40
0.0
 40
0.0
 40
0.0
 40
0.0817662733904497
 40
0.1696946323474981
 40
0.1709855722048744
 40
0.1722748498164618
 40
0.1722748498164618
 40
0.1722748498164618
 40
0.1722748498164618
 10
40.96282302302031
 20
12.99840378013138
 30
0.0
 10
40.93560495165763
 20
12.99697733210197
 30
0.0
 10
40.87938109377484
 20
12.98305194324658
 30
0.0
 10
40.83118268595439
 20
12.94963150297414
 30
0.0
 10
40.81047675308556
 20
12.92769089446071
 30
0.0
 10
40.80989029314731
 20
12.92706174934443
 30
0.0
 10
40.80959823053993
 20
12.92674648373153
 30
0.0
 11
40.96282302302031
 21
12.99840378013138
 31
0.0
 11
40.8833712387117
 21
12.97909066271174
 31
0.0
 11
40.81136275690702
 21
12.92862838950637
 31
0.0
 11
40.81047717671876
 21
12.92768956541343
 31
0.0
 11
40.80959823053993
 21
12.92674648373153
 31
0.0
  0
SPLINE
  5
199
330
2
100
AcDbEntity
  8
GAIKEI
  6
Continuous
100
AcDbSpline
210
0.0
220
0.0
230
1.0
 70
     8
 71
     3
 72
     9
 73
     5
 74
     3
 42
0.0000000001
 43
0.0000000001
 44
0.000001
 12
0.0003168874830853
 22
-0.9999999497911604
 32
0.0
 13
-0.3716621781607892
 23
-0.9283680441100813
 33
0.0
 40
0.0
 40
0.0
 40
0.0
 40
0.0
 40
0.0509746830439424
 40
0.1042847118314319
 40
0.1042847118314319
 40
0.1042847118314319
 40
0.1042847118314319
 10
42.99959823053987
 20
16.3781889363814
 30
0.0
 10
42.99960361495287
 20
16.36119737621988
 30
0.0
 10
42.99632391835968
 20
16.32637116414301
 30
0.0
 10
42.98661191173477
 20
16.29273292043368
 30
0.0
 10
42.98000747126244
 20
16.27623581138138
 30
0.0
 11
42.99959823053987
 21
16.3781889363814
 31
0.0
 11
42.99485965628011
 21
16.32743543308859
 31
0.0
 11
42.98000747126244
 21
16.27623581138138
 31
0.0
  0
SPLINE
  5
19A
330
2
100
AcDbEntity
  8
GAIKEI
  6
Continuous
100
AcDbSpline
210
0.0
220
0.0
230
1.0
 70
     8
 71
     3
 72
     9
 73
     5
 74
     3
 42
0.0000000001
 43
0.0000000001
 44
0.000001
 12
-0.8184625475723452
 22
-0.5745598821893036
 32
0.0
 13
-0.9660093301794425
 23
-0.2585072030065406
 33
0.0
 40
0.0
 40
0.0
 40
0.0
 40
0.0
 40
0.0417253293825005
 40
0.0819174251423861
 40
0.0819174251423861
 40
0.0819174251423861
 40
0.0819174251423861
 10
42.86999923151651
 20
16.14647506919388
 30
0.0
 10
42.85861569172162
 20
16.1384838357491
 30
0.0
 10
42.8346140381114
 20
16.12505809086349
 30
0.0
 10
42.80871635783531
 20
16.11602725180069
 30
0.0
 10
42.7957743780008
 20
16.1125639363814
 30
0.0
 11
42.86999923151651
 21
16.14647506919388
 31
0.0
 11
42.8336721354415
 21
16.12594638463739
 31
0.0
 11
42.7957743780008
 21
16.1125639363814
 31
0.0
  0
SPLINE
  5
19B
330
2
100
AcDbEntity
  8
GAIKEI
  6
Continuous
 62
     1
100
AcDbSpline
210
0.0
220
0.0
230
1.0
 70
     8
 71
     3
 72
     9
 73
     5
 74
     3
 42
0.0000000001
 43
0.0000000001
 44
0.000001
 12
0.0052821793657845
 22
-0.9999860491932613
 32
0.0
 13
-0.0053340466296892
 23
-0.999985773872085
 33
0.0
 40
0.0
 40
0.0
 40
0.0
 40
0.0
 40
0.0006240934520209
 40
0.001245121572881
 40
0.001245121572881
 40
0.001245121572881
 40
0.001245121572881
 10
42.99959670466094
 20
16.82279342856887
 30
0.0
 10
42.99959780351879
 20
16.8225854003204
 30
0.0
 10
42.9995989077696
 20
16.82217035910082
 30
0.0
 10
42.99959780885859
 20
16.82175531781007
 30
0.0
 10
42.99959670466094
 20
16.8215483113814
 30
0.0
 11
42.99959670466094
 21
16.82279342856887
 31
0.0
 11
42.99959836759305
 21
16.82216933734415
 31
0.0
 11
42.99959670466094
 21
16.8215483113814
 31
0.0
  0
SPLINE
  5
19C
330
2
100
AcDbEntity
  8
GAIKEI
  6
Continuous
 62
     1
100
AcDbSpline
210
0.0
220
0.0
230
1.0
 70
     8
 71
     3
 72
     9
 73
     5
 74
     3
 42
0.0000000001
 43
0.0000000001
 44
0.000001
 12
0.0000125489843945
 22
0.9999999999212615
 32
0.0
 13
-0.2770614521886159
 23
0.9608522007630181
 33
0.0
 40
0.0
 40
0.0
 40
0.0
 40
0.0
 40
0.1015573118902427
 40
0.1852141835803591
 40
0.1852141835803591
 40
0.1852141835803591
 40
0.1852141835803591
 10
42.73528090876246
 20
17.4234770223189
 30
0.0
 10
42.73528133357617
 20
17.45732945961299
 30
0.0
 10
42.73215296633575
 20
17.51882178509245
 30
0.0
 10
42.72682041677701
 20
17.5809359889156
 30
0.0
 10
42.719094385325
 20
17.60772995200639
 30
0.0
 11
42.73528090876246
 21
17.4234770223189
 31
0.0
 11
42.73118695035307
 21
17.52495154586322
 31
0.0
 11
42.719094385325
 21
17.60772995200639
 31
0.0
  0
SPLINE
  5
19D
330
2
100
AcDbEntity
  8
GAIKEI
  6
Continuous
 62
     1
100
AcDbSpline
210
0.0
220
0.0
230
1.0
 70
     8
 71
     3
 72
     9
 73
     5
 74
     3
 42
0.0000000001
 43
0.0000000001
 44
0.000001
 12
0.2770614337737128
 22
0.96085220607295
 32
0.0
 13
-0.0000125486557872
 23
0.9999999999212656
 33
0.0
 40
0.0
 40
0.0
 40
0.0
 40
0.0
 40
0.0836804155453407
 40
0.1852627411183796
 40
0.1852627411183796
 40
0.1852627411183796
 40
0.1852627411183796
 10
42.719094385325
 20
17.23917526450637
 30
0.0
 10
42.72682259062825
 20
17.265976768467
 30
0.0
 10
42.73215148704332
 20
17.32810804233412
 30
0.0
 10
42.73528133366967
 20
17.38961624713056
 30
0.0
 10
42.73528090876246
 20
17.4234770223189
 30
0.0
 11
42.719094385325
 21
17.23917526450637
 31
0.0
 11
42.7311869466279
 21
17.32197746482379
 31
0.0
 11
42.73528090876246
 21
17.4234770223189
 31
0.0
  0
SPLINE
  5
19E
330
2
100
AcDbEntity
  8
GAIKEI
  6
Continuous
 62
     1
100
AcDbSpline
210
0.0
220
0.0
230
1.0
 70
     8
 71
     3
 72
    11
 73
     7
 74
     5
 42
0.0000000001
 43
0.0000000001
 44
0.000001
 12
0.9999999997740543
 22
-0.0000212577399572
 32
0.0
 13
-0.9999998707642351
 23
0.0005084009371044
 33
0.0
 40
0.0
 40
0.0
 40
0.0
 40
0.0
 40
0.1018696786656533
 40
0.3348157814707892
 40
0.5619178657768933
 40
0.6612922325897395
 40
0.6612922325897395
 40
0.6612922325897395
 40
0.6612922325897395
 10
42.73073836725851
 20
17.74845260825637
 30
0.0
 10
42.76469492680606
 20
17.74845188641666
 30
0.0
 10
42.75818488847106
 20
17.57798707466088
 30
0.0
 10
42.7890739040558
 20
17.42093958761396
 30
0.0
 10
42.75824947024176
 20
17.26445439666133
 30
0.0
 10
42.76386315191522
 20
17.09846018164512
 30
0.0
 10
42.73073836725851
 20
17.09847702231886
 30
0.0
 11
42.73073836725851
 21
17.74845260825637
 31
0.0
 11
42.76303922392478
 21
17.65183905301367
 31
0.0
 11
42.77641097468048
 21
17.41927780356886
 31
0.0
 11
42.76263180917536
 21
17.19259484436381
 31
0.0
 11
42.73073836725851
 21
17.09847702231886
 31
0.0
  0
SPLINE
  5
19F
330
2
100
AcDbEntity
  8
GAIKEI
  6
Continuous
 62
     1
100
AcDbSpline
210
0.0
220
0.0
230
1.0
 70
     8
 71
     3
 72
     9
 73
     5
 74
     3
 42
0.0000000001
 43
0.0000000001
 44
0.000001
 12
-0.6916157688094791
 22
-0.7222656217307267
 32
0.0
 13
-0.9021431540926261
 23
-0.4314368198517699
 33
0.0
 40
0.0
 40
0.0
 40
0.0
 40
0.0
 40
0.0875133195628167
 40
0.1841807276743406
 40
0.1841807276743406
 40
0.1841807276743406
 40
0.1841807276743406
 10
42.66638137262961
 20
16.49054245200639
 30
0.0
 10
42.64620617536611
 20
16.46947316461847
 30
0.0
 10
42.5978638122001
 20
16.43066793666864
 30
0.0
 10
42.54359518403023
 20
16.40156355234435
 30
0.0
 10
42.51452590387967
 20
16.38766159263136
 30
0.0
 11
42.66638137262961
 21
16.49054245200639
 31
0.0
 11
42.59892776173265
 21
16.43478613939769
 31
0.0
 11
42.51452590387967
 21
16.38766159263136
 31
0.0
  0
SPLINE
  5
1A0
330
2
100
AcDbEntity
  8
GAIKEI
  6
Continuous
 62
     1
100
AcDbSpline
210
0.0
220
0.0
230
1.0
 70
     8
 71
     3
 72
    13
 73
     9
 74
     7
 42
0.0000000001
 43
0.0000000001
 44
0.000001
 12
-0.4749260890572929
 22
-0.8800256870868851
 32
0.0
 13
0.0923545500484246
 23
-0.9957261857987631
 33
0.0
 40
0.0
 40
0.0
 40
0.0
 40
0.0
 40
0.0233826603300577
 40
0.0478732377288896
 40
0.0805348136459431
 40
0.1151684860526222
 40
0.1519624586659832
 40
0.1910042954666424
 40
0.1910042954666424
 40
0.1910042954666424
 40
0.1910042954666424
 10
42.69163924616478
 20
16.50274948325639
 30
0.0
 10
42.68793756769068
 20
16.49589036934876
 30
0.0
 10
42.68339658778107
 20
16.48035451657657
 30
0.0
 10
42.67850465686544
 20
16.45403421504434
 30
0.0
 10
42.6733564406839
 20
16.42382599674536
 30
0.0
 10
42.67071479410482
 20
16.38920022242516
 30
0.0
 10
42.66969295955862
 20
16.35238086756146
 30
0.0
 10
42.67075808882068
 20
16.32708476279606
 30
0.0
 10
42.67195998591094
 20
16.31412643638137
 30
0.0
 11
42.69163924616478
 21
16.50274948325639
 31
0.0
 11
42.68389214810631
 21
16.48068736192468
 31
0.0
 11
42.67905074518828
 21
16.4566801473189
 31
0.0
 11
42.67395481158334
 21
16.42441857112166
 31
0.0
 11
42.67104140680939
 21
16.3899076863814
 31
0.0
 11
42.67013055892593
 21
16.35312503007097
 31
0.0
 11
42.67195998591094
 21
16.31412643638137
 31
0.0
  0
SPLINE
  5
1A1
330
2
100
AcDbEntity
  8
GAIKEI
  6
Continuous
 62
     1
100
AcDbSpline
210
0.0
220
0.0
230
1.0
 70
     8
 71
     3
 72
     9
 73
     5
 74
     3
 42
0.0000000001
 43
0.0000000001
 44
0.000001
 12
-0.9995208894547864
 22
-0.0309514384724301
 32
0.0
 13
-0.9994839573027569
 23
-0.0321219410126682
 33
0.0
 40
0.0
 40
0.0
 40
0.0
 40
0.0
 40
0.0612772230117543
 40
0.1388645484924925
 40
0.1388645484924925
 40
0.1388645484924925
 40
0.1388645484924925
 10
42.67195998591094
 20
16.31412643638137
 30
0.0
 10
42.65154403109493
 20
16.31349423031543
 30
0.0
 10
42.60524824137807
 20
16.31501545773389
 30
0.0
 10
42.55894647175033
 20
16.31537222727468
 30
0.0
 10
42.53309737604766
 20
16.31454147544386
 30
0.0
 11
42.67195998591094
 21
16.31412643638137
 31
0.0
 11
42.61068467062628
 21
16.31461103876754
 31
0.0
 11
42.53309737604766
 21
16.31454147544386
 31
0.0
  0
SPLINE
  5
1A2
330
2
100
AcDbEntity
  8
GAIKEI
  6
Continuous
 62
     1
100
AcDbSpline
210
0.0
220
0.0
230
1.0
 70
     8
 71
     3
 72
     9
 73
     5
 74
     3
 42
0.0000000001
 43
0.0000000001
 44
0.000001
 12
-0.393786775079146
 22
0.9192018144960147
 32
0.0
 13
-0.1080739460879051
 23
0.9941428580324805
 33
0.0
 40
0.0
 40
0.0
 40
0.0
 40
0.0
 40
0.0397856213989312
 40
0.0756183658718827
 40
0.0756183658718827
 40
0.0756183658718827
 40
0.0756183658718827
 10
42.53309737604766
 20
16.31454147544386
 30
0.0
 10
42.52787502553259
 20
16.3267318139041
 30
0.0
 10
42.52042847237908
 20
16.35094860388022
 30
0.0
 10
42.51581676591112
 20
16.37578730363086
 30
0.0
 10
42.51452590387967
 20
16.38766159263136
 30
0.0
 11
42.53309737604766
 21
16.31454147544386
 31
0.0
 11
42.52082488921186
 21
16.35238702368619
 31
0.0
 11
42.51452590387967
 21
16.38766159263136
 31
0.0
  0
SPLINE
  5
1A3
330
2
100
AcDbEntity
  8
GAIKEI
  6
Continuous
 62
     1
100
AcDbSpline
210
0.0
220
0.0
230
1.0
 70
     8
 71
     3
 72
     9
 73
     5
 74
     3
 42
0.0000000001
 43
0.0000000001
 44
0.000001
 12
-0.1080852404165633
 22
0.9941416301534172
 32
0.0
 13
0.8802450394289985
 23
0.4745194100989347
 33
0.0
 40
0.0
 40
0.0
 40
0.0
 40
0.0
 40
0.0244302827130409
 40
0.0384807632995955
 40
0.0384807632995955
 40
0.0384807632995955
 40
0.0384807632995955
 10
42.51452590387967
 20
16.38766159263136
 30
0.0
 10
42.51364571955284
 20
16.39575731299183
 30
0.0
 10
42.51310366839526
 20
16.40831918168646
 30
0.0
 10
42.5187269513673
 20
16.42179172310739
 30
0.0
 10
42.52284957331326
 20
16.42401413169389
 30
0.0
 11
42.51452590387967
 21
16.38766159263136
 31
0.0
 11
42.51544274327065
 21
16.41207371872551
 31
0.0
 11
42.52284957331326
 21
16.42401413169389
 31
0.0
  0
SPLINE
  5
1A4
330
2
100
AcDbEntity
  8
GAIKEI
  6
Continuous
 62
     1
100
AcDbSpline
210
0.0
220
0.0
230
1.0
 70
     8
 71
     3
 72
     9
 73
     5
 74
     3
 42
0.0000000001
 43
0.0000000001
 44
0.000001
 12
0.8846378794708444
 22
0.4662786958518775
 32
0.0
 13
0.9043809292438737
 23
0.4267260653158972
 33
0.0
 40
0.0
 40
0.0
 40
0.0
 40
0.0
 40
0.0002719763256554
 40
0.0005473136808019
 40
0.0005473136808019
 40
0.0005473136808019
 40
0.0005473136808019
 10
42.52284957331326
 20
16.42401413169389
 30
0.0
 10
42.52292977349992
 20
16.42405640394938
 30
0.0
 10
42.52309217716542
 20
16.42413956207002
 30
0.0
 10
42.52325637715782
 20
16.42421910777682
 30
0.0
 10
42.52333938044219
 20
16.42425827231889
 30
0.0
 11
42.52284957331326
 21
16.42401413169389
 31
0.0
 11
42.52309161538912
 21
16.42413817926243
 31
0.0
 11
42.52333938044219
 21
16.42425827231889
 31
0.0
  0
SPLINE
  5
1A5
330
2
100
AcDbEntity
  8
GAIKEI
  6
Continuous
 62
     1
100
AcDbSpline
210
0.0
220
0.0
230
1.0
 70
     8
 71
     3
 72
     9
 73
     5
 74
     3
 42
0.0000000001
 43
0.0000000001
 44
0.000001
 12
0.872203858830659
 22
0.4891425442965557
 32
0.0
 13
0.9085335268191075
 23
0.4178119560826785
 33
0.0
 40
0.0
 40
0.0
 40
0.0
 40
0.0
 40
0.0139733354190412
 40
0.0345211624247872
 40
0.0345211624247872
 40
0.0345211624247872
 40
0.0345211624247872
 10
42.65226699274686
 20
16.48297409263139
 30
0.0
 10
42.65632952510459
 20
16.48525241024444
 30
0.0
 10
42.66655442140664
 20
16.49053407274647
 30
0.0
 10
42.67677387146052
 20
16.49583503961653
 30
0.0
 10
42.68299666803986
 20
16.49869674888137
 30
0.0
 11
42.65226699274686
 21
16.48297409263139
 31
0.0
 11
42.66460667189855
 21
16.48953046250787
 31
0.0
 11
42.68299666803986
 21
16.49869674888137
 31
0.0
  0
SPLINE
  5
1A6
330
2
100
AcDbEntity
  8
GAIKEI
  6
Continuous
 62
     1
100
AcDbSpline
210
0.0
220
0.0
230
1.0
 70
     8
 71
     3
 72
    15
 73
    11
 74
     9
 42
0.0000000001
 43
0.0000000001
 44
0.000001
 12
-0.9986204773717592
 22
-0.0525084962058521
 32
0.0
 13
0.0109691389257065
 23
0.9999398371858323
 33
0.0
 40
0.0
 40
0.0
 40
0.0
 40
0.0
 40
0.0219797549533733
 40
0.0810159572441243
 40
0.1742112859274281
 40
0.2977421290872769
 40
0.4476781956544684
 40
0.6200612241254503
 40
0.8109235293934652
 40
1.016295362491756
 40
1.016295362491756
 40
1.016295362491756
 40
1.016295362491756
 10
40.96282454889913
 20
12.9984281941939
 30
0.0
 10
40.95550807110444
 20
12.99804348623405
 30
0.0
 10
40.95260809435525
 20
13.03830823310798
 30
0.0
 10
40.94312012563539
 20
13.08366909763234
 30
0.0
 10
40.93847831806761
 20
13.18196672067637
 30
0.0
 10
40.93269555455741
 20
13.30138737265989
 30
0.0
 10
40.9291023934692
 20
13.45093116696972
 30
0.0
 10
40.92674878705287
 20
13.62165746718571
 30
0.0
 10
40.9262141133854
 20
13.81130153541503
 30
0.0
 10
40.92706691764239
 20
13.9433539413269
 30
0.0
 10
40.92781783503196
 20
14.01180710044386
 30
0.0
 11
40.96282454889913
 21
12.9984281941939
 31
0.0
 11
40.95382373134103
 21
13.01848112738767
 31
0.0
 11
40.94584263081393
 21
13.07697528971292
 31
0.0
 11
40.93903209999157
 21
13.16992141375917
 31
0.0
 11
40.93354299154785
 21
13.29333023211617
 31
0.0
 11
40.92952615815628
 21
13.44321247737352
 31
0.0
 11
40.92713245249083
 21
13.61557888212078
 31
0.0
 11
40.92651272722483
 21
13.80644017894772
 31
0.0
 11
40.92781783503196
 21
14.01180710044386
 31
0.0
  0
SPLINE
  5
1A7
330
2
100
AcDbEntity
  8
GAIKEI
  6
Continuous
 62
     1
100
AcDbSpline
210
0.0
220
0.0
230
1.0
 70
     8
 71
     3
 72
    11
 73
     7
 74
     5
 42
0.0000000001
 43
0.0000000001
 44
0.000001
 12
0.9658702916929252
 22
0.2590262141657169
 32
0.0
 13
-0.2302768057133745
 23
0.9731251680798543
 33
0.0
 40
0.0
 40
0.0
 40
0.0
 40
0.0
 40
0.0363980845229596
 40
0.0984862465542354
 40
0.1852465208480462
 40
0.2799185680584268
 40
0.2799185680584268
 40
0.2799185680584268
 40
0.2799185680584268
 10
42.75106460016874
 20
16.10057663169388
 30
0.0
 10
42.76278320967382
 20
16.10371931770618
 30
0.0
 10
42.78583848804504
 20
16.13298208506839
 30
0.0
 10
42.79458088519766
 20
16.19417089734398
 30
0.0
 10
42.79173346350219
 20
16.27578903355518
 30
0.0
 10
42.78121207990856
 20
16.33549238107585
 30
0.0
 10
42.77394515436791
 20
16.36620163169388
 30
0.0
 11
42.75106460016874
 21
16.10057663169388
 31
0.0
 11
42.77731010776657
 21
16.1257962777901
 31
0.0
 11
42.79189101618444
 21
16.18614792075638
 31
0.0
 11
42.78990459531937
 21
16.27288539922628
 31
0.0
 11
42.77394515436791
 21
16.36620163169388
 31
0.0
  0
SPLINE
  5
1A8
330
2
100
AcDbEntity
  8
GAIKEI
  6
Continuous
 62
     1
100
AcDbSpline
210
0.0
220
0.0
230
1.0
 70
     8
 71
     3
 72
     9
 73
     5
 74
     3
 42
0.0000000001
 43
0.0000000001
 44
0.000001
 12
0.2302337562627632
 22
-0.9731353541399771
 32
0.0
 13
-0.9659193406816942
 23
-0.2588432485058105
 33
0.0
 40
0.0
 40
0.0
 40
0.0
 40
0.0
 40
0.1808831340751309
 40
0.2755126404910702
 40
0.2755126404910702
 40
0.2755126404910702
 40
0.2755126404910702
 10
42.81865645807883
 20
16.3781889363814
 30
0.0
 10
42.83253825921306
 20
16.31951434546934
 30
0.0
 10
42.84644443943387
 20
16.24041888772257
 30
0.0
 10
42.82624253481624
 20
16.12070425860062
 30
0.0
 10
42.7957743780008
 20
16.11253952231888
 30
0.0
 11
42.81865645807883
 21
16.3781889363814
 31
0.0
 11
42.83609579217338
 21
16.19814940166358
 31
0.0
 11
42.7957743780008
 21
16.11253952231888
 31
0.0
  0
SPLINE
  5
1A9
330
2
100
AcDbEntity
  8
GAIKEI
  6
Continuous
 62
     1
100
AcDbSpline
210
0.0
220
0.0
230
1.0
 70
     8
 71
     3
 72
     9
 73
     5
 74
     3
 42
0.0000000001
 43
0.0000000001
 44
0.000001
 12
0.6244783771675451
 22
0.7810420964648382
 32
0.0
 13
-0.9659193406816942
 23
-0.2588432485058105
 33
0.0
 40
0.0
 40
0.0
 40
0.0
 40
0.0
 40
0.0493890930976265
 40
0.0790210288041879
 40
0.0790210288041879
 40
0.0790210288041879
 40
0.0790210288041879
 10
42.72459823053984
 20
16.30448288169387
 30
0.0
 10
42.73487903744229
 20
16.31734120196569
 30
0.0
 10
42.73823714836082
 20
16.32935387067724
 30
0.0
 10
42.78348584096818
 20
16.36875830719316
 30
0.0
 10
42.77394515436791
 20
16.36620163169388
 30
0.0
 11
42.72459823053984
 21
16.30448288169387
 31
0.0
 11
42.75544005793252
 21
16.34305710044387
 31
0.0
 11
42.77394515436791
 21
16.36620163169388
 31
0.0
  0
SPLINE
  5
1AA
330
2
100
AcDbEntity
  8
GAIKEI
  6
Continuous
 62
     1
100
AcDbSpline
210
0.0
220
0.0
230
1.0
 70
     8
 71
     3
 72
     9
 73
     5
 74
     3
 42
0.0000000001
 43
0.0000000001
 44
0.000001
 12
0.0031185247879724
 22
-0.9999951373897509
 32
0.0
 13
-0.9995806392581117
 23
-0.0289576521897886
 33
0.0
 40
0.0
 40
0.0
 40
0.0
 40
0.0
 40
0.0129602085479908
 40
0.0526408488811267
 40
0.0526408488811267
 40
0.0526408488811267
 40
0.0526408488811267
 10
42.72459823053984
 20
16.31454147544386
 30
0.0
 10
42.7246117027837
 20
16.31022142693467
 30
0.0
 10
42.69610360033711
 20
16.32051431274635
 30
0.0
 10
42.68518131918773
 20
16.31450945577518
 30
0.0
 10
42.67195998591094
 20
16.31412643638137
 30
0.0
 11
42.72459823053984
 21
16.31454147544386
 31
0.0
 11
42.71163951892023
 21
16.31430246691852
 31
0.0
 11
42.67195998591094
 21
16.31412643638137
 31
0.0
  0
SPLINE
  5
1AB
330
2
100
AcDbEntity
  8
GAIKEI
  6
Continuous
 62
     1
100
AcDbSpline
210
0.0
220
0.0
230
1.0
 70
     8
 71
     3
 72
     9
 73
     5
 74
     3
 42
0.0000000001
 43
0.0000000001
 44
0.000001
 12
0.0000745212456325
 22
0.999999997223292
 32
0.0
 13
-0.0000688173136383
 23
0.9999999976320887
 33
0.0
 40
0.0
 40
0.0
 40
0.0
 40
0.0
 40
0.0237773560116134
 40
0.0475585937805471
 40
0.0475585937805471
 40
0.0475585937805471
 40
0.0475585937805471
 10
42.72459823053984
 20
16.31454147544386
 30
0.0
 10
42.72459882117924
 20
16.32246726075905
 30
0.0
 10
42.72459936670691
 20
16.33832012536095
 30
0.0
 10
42.72459877606013
 20
16.35417298995634
 30
0.0
 10
42.72459823053984
 20
16.36210006919387
 30
0.0
 11
42.72459823053984
 21
16.31454147544386
 31
0.0
 11
42.72459908291594
 21
16.33831883144265
 31
0.0
 11
42.72459823053984
 21
16.36210006919387
 31
0.0
  0
SPLINE
  5
1AC
330
2
100
AcDbEntity
  8
GAIKEI
  6
Continuous
 62
     1
100
AcDbSpline
210
0.0
220
0.0
230
1.0
 70
     8
 71
     3
 72
     9
 73
     5
 74
     3
 42
0.0000000001
 43
0.0000000001
 44
0.000001
 12
0.0000918858355736
 22
0.9999999957784966
 32
0.0
 13
-0.9988995336265588
 23
-0.0469011910365134
 33
0.0
 40
0.0
 40
0.0
 40
0.0
 40
0.0
 40
0.0896605875681049
 40
0.3228655176534299
 40
0.3228655176534299
 40
0.3228655176534299
 40
0.3228655176534299
 10
42.72459823053984
 20
13.59015182700639
 30
0.0
 10
42.72460097671917
 20
13.62003868940292
 30
0.0
 10
42.54873114218262
 20
13.56633178358791
 30
0.0
 10
42.47969059463582
 20
13.59379768999858
 30
0.0
 10
42.40204116266861
 20
13.59015182700639
 30
0.0
 11
42.72459823053984
 21
13.59015182700639
 31
0.0
 11
42.63515975268896
 21
13.59646887701635
 31
0.0
 11
42.40204116266861
 21
13.59015182700639
 31
0.0
  0
SPLINE
  5
1AD
330
2
100
AcDbEntity
  8
GAIKEI
  6
Continuous
100
AcDbSpline
210
0.0
220
0.0
230
1.0
 70
     8
 71
     3
 72
    11
 73
     7
 74
     5
 42
0.0000000001
 43
0.0000000001
 44
0.000001
 12
0.0000082941986441
 22
0.9999999999656031
 32
0.0
 13
-0.0000017531034628
 23
0.9999999999984634
 33
0.0
 40
0.0
 40
0.0
 40
0.0
 40
0.0
 40
0.163889959455046
 40
0.3277936220168252
 40
0.4917225927130942
 40
0.6556884765655675
 40
0.6556884765655675
 40
0.6556884765655675
 40
0.6556884765655675
 10
42.72459823053984
 20
15.65885299888137
 30
0.0
 10
42.72459868365181
 20
15.71348298536452
 30
0.0
 10
42.72459918475021
 20
15.82274752603652
 30
0.0
 10
42.72459912273613
 20
15.98665505694114
 30
0.0
 10
42.72459864883217
 20
16.15058789597731
 30
0.0
 10
42.72459832635623
 20
16.25988618082644
 30
0.0
 10
42.72459823053984
 20
16.31454147544386
 30
0.0
 11
42.72459823053984
 21
15.65885299888137
 31
0.0
 11
42.72459904905647
 21
15.82274295833591
 31
0.0
 11
42.72459905393967
 21
15.98664662089831
 31
0.0
 11
42.72459864712286
 21
16.15057559159285
 31
0.0
 11
42.72459823053984
 21
16.31454147544386
 31
0.0
  0
SPLINE
  5
1AE
330
2
100
AcDbEntity
  8
GAIKEI
  6
Continuous
 62
     1
100
AcDbSpline
210
0.0
220
0.0
230
1.0
 70
     8
 71
     3
 72
    13
 73
     9
 74
     7
 42
0.0000000001
 43
0.0000000001
 44
0.000001
 12
0.0516293796602585
 22
0.9986663142190673
 32
0.0
 13
-0.9063078208429997
 23
-0.4226181892427413
 33
0.0
 40
0.0
 40
0.0
 40
0.0
 40
0.0
 40
0.0208662906326748
 40
0.0416616712606876
 40
0.0994767599866091
 40
0.1464438777767995
 40
0.1777860063498509
 40
0.188973582432765
 40
0.188973582432765
 40
0.188973582432765
 40
0.188973582432765
 10
42.14764663141878
 20
16.05406784263138
 30
0.0
 10
42.14800573596583
 20
16.06101399648389
 30
0.0
 10
42.14842377031385
 20
16.07487807889592
 30
0.0
 10
42.1482487493207
 20
16.10819292864604
 30
0.0
 10
42.14611244069607
 20
16.14851690568159
 30
0.0
 10
42.14240409537945
 20
16.19851801125028
 30
0.0
 10
42.13657131829715
 20
16.21852228335658
 30
0.0
 10
42.13437298493601
 20
16.24287531232591
 30
0.0
 10
42.13099318903593
 20
16.24129928794386
 30
0.0
 11
42.14764663141878
 21
16.05406784263138
 31
0.0
 11
42.14830076534028
 21
16.07492297735698
 31
0.0
 11
42.14822951716096
 21
16.0957182332564
 31
0.0
 11
42.14560110449705
 21
16.15347353175846
 31
0.0
 11
42.1409095473002
 21
16.20020572632572
 31
0.0
 11
42.13556889300238
 21
16.23108943803012
 31
0.0
 11
42.13099318903593
 21
16.24129928794386
 31
0.0
  0
SPLINE
  5
1AF
330
2
100
AcDbEntity
  8
GAIKEI
  6
Continuous
 62
     1
100
AcDbSpline
210
0.0
220
0.0
230
1.0
 70
     8
 71
     3
 72
     9
 73
     5
 74
     3
 42
0.0000000001
 43
0.0000000001
 44
0.000001
 12
1.0
 22
0.0000000000000001
 32
0.0
 13
-0.0182506189444641
 23
0.9998334435835522
 33
0.0
 40
0.0
 40
0.0
 40
0.0
 40
0.0
 40
0.0000024044498746
 40
0.0000032259069683
 40
0.0000032259069683
 40
0.0000032259069683
 40
0.0000032259069683
 10
42.77538405817657
 20
16.54178756919387
 30
0.0
 10
42.77538485965986
 20
16.54178756919387
 30
0.0
 10
42.77538567137945
 20
16.54178679241974
 30
0.0
 10
42.77538711493173
 20
16.54178729542045
 30
0.0
 10
42.77538710993437
 20
16.54178756919387
 30
0.0
 11
42.77538405817657
 21
16.54178756919387
 31
0.0
 11
42.77538596552526
 21
16.54178756919387
 31
0.0
 11
42.77538710993437
 21
16.54178756919387
 31
0.0
  0
SPLINE
  5
1B0
330
2
100
AcDbEntity
  8
GAIKEI
  6
Continuous
 62
     1
100
AcDbSpline
210
0.0
220
0.0
230
1.0
 70
     8
 71
     3
 72
     9
 73
     5
 74
     3
 42
0.0000000001
 43
0.0000000001
 44
0.000001
 12
0.9383347623328536
 22
0.3457280344400021
 32
0.0
 13
0.6923985827665718
 23
0.7215152129947385
 33
0.0
 40
0.0
 40
0.0
 40
0.0
 40
0.0
 40
0.000047745121333
 40
0.0000963832551952
 40
0.0000963832551952
 40
0.0000963832551952
 40
0.0000963832551952
 10
42.84081679743437
 20
16.57230514731887
 30
0.0
 10
42.84083173107006
 20
16.57231064959453
 30
0.0
 10
42.84086138560519
 20
16.57232322034559
 30
0.0
 10
42.84088796923685
 20
16.57234227772602
 30
0.0
 10
42.84089919489517
 20
16.57235397544386
 30
0.0
 11
42.84081679743437
 21
16.57230514731887
 31
0.0
 11
42.84086015706023
 21
16.57232455746376
 31
0.0
 11
42.84089919489517
 21
16.57235397544386
 31
0.0
  0
SPLINE
  5
1B1
330
2
100
AcDbEntity
  8
GAIKEI
  6
Continuous
 62
     1
100
AcDbSpline
210
0.0
220
0.0
230
1.0
 70
     8
 71
     3
 72
     9
 73
     5
 74
     3
 42
0.0000000001
 43
0.0000000001
 44
0.000001
 12
0.9063648234579412
 22
0.4224959251851493
 32
0.0
 13
0.905972949292439
 23
0.4233355821926147
 33
0.0
 40
0.0
 40
0.0
 40
0.0
 40
0.0
 40
0.0038740397928197
 40
0.0074573180996331
 40
0.0074573180996331
 40
0.0074573180996331
 40
0.0074573180996331
 10
42.77538710993437
 20
16.54178756919387
 30
0.0
 10
42.77655754106532
 20
16.54233315786936
 30
0.0
 10
42.7788113709338
 20
16.54338164090219
 30
0.0
 10
42.78106463575046
 20
16.544431340187
 30
0.0
 10
42.78214675348905
 20
16.5449369832564
 30
0.0
 11
42.77538710993437
 21
16.54178756919387
 31
0.0
 11
42.7788990278514
 21
16.5434229933347
 31
0.0
 11
42.78214675348905
 21
16.5449369832564
 31
0.0
  0
SPLINE
  5
1B2
330
2
100
AcDbEntity
  8
GAIKEI
  6
Continuous
 62
     1
100
AcDbSpline
210
0.0
220
0.0
230
1.0
 70
     8
 71
     3
 72
    15
 73
    11
 74
     9
 42
0.0000000001
 43
0.0000000001
 44
0.000001
 12
-0.9062713727623233
 22
-0.4226963436221022
 32
0.0
 13
-0.0000985781391255
 23
-0.9999999951411753
 33
0.0
 40
0.0
 40
0.0
 40
0.0
 40
0.0
 40
0.0846881523871611
 40
0.1693395210165478
 40
0.2946380929078122
 40
0.4144376473685976
 40
0.5331731129070084
 40
0.6520552466433425
 40
0.7193388593366646
 40
0.7907739520440093
 40
0.7907739520440093
 40
0.7907739520440093
 40
0.7907739520440093
 10
42.01678725641878
 20
16.71642135825638
 30
0.0
 10
41.9912037737119
 20
16.70448890080232
 30
0.0
 10
41.94083528477378
 20
16.67889818043488
 30
0.0
 10
41.85981399617054
 20
16.62197820040171
 30
0.0
 10
41.7946026336551
 20
16.52991007158241
 30
0.0
 10
41.75883892498595
 20
16.41252602369661
 30
0.0
 10
41.75269574362282
 20
16.29266093406201
 30
0.0
 10
41.76446891690362
 20
16.1915117831266
 30
0.0
 10
41.77796891439821
 20
16.10675325868198
 30
0.0
 10
41.78177678634878
 20
16.06052114164728
 30
0.0
 10
41.78177443903595
 20
16.03670944419386
 30
0.0
 11
42.01678725641878
 21
16.71642135825638
 31
0.0
 11
41.94177447718286
 21
16.67711142969014
 31
0.0
 11
41.87362624567654
 21
16.62689499106889
 31
0.0
 11
41.79988526597187
 21
16.52559319113365
 31
0.0
 11
41.76361342829361
 21
16.41141647544387
 31
0.0
 11
41.75600800368201
 21
16.29292475054032
 31
0.0
 11
41.76750747126246
 21
16.17460006919387
 31
0.0
 11
41.77693591906026
 21
16.10798035279552
 31
0.0
 11
41.78177443903595
 21
16.03670944419386
 31
0.0
  0
SPLINE
  5
1B3
330
2
100
AcDbEntity
  8
GAIKEI
  6
Continuous
 62
     1
100
AcDbSpline
210
0.0
220
0.0
230
1.0
 70
     8
 71
     3
 72
     9
 73
     5
 74
     3
 42
0.0000000001
 43
0.0000000001
 44
0.000001
 12
0.9844154825462021
 22
-0.1758583456175114
 32
0.0
 13
0.9515007015799632
 23
-0.3076465746483097
 33
0.0
 40
0.0
 40
0.0
 40
0.0
 40
0.0
 40
0.0011862325552743
 40
0.0023960848980659
 40
0.0023960848980659
 40
0.0023960848980659
 40
0.0023960848980659
 10
42.69609328669221
 20
17.7961576863814
 30
0.0
 10
42.69648253525665
 20
17.79608815008316
 30
0.0
 10
42.69726990887309
 20
17.79595557629625
 30
0.0
 10
42.69804873393773
 20
17.79576906004524
 30
0.0
 10
42.6984324590554
 20
17.79564499106888
 30
0.0
 11
42.69609328669221
 21
17.7961576863814
 31
0.0
 11
42.69725937785298
 21
17.79594440070613
 31
0.0
 11
42.6984324590554
 21
17.79564499106888
 31
0.0
  0
SPLINE
  5
1B4
330
2
100
AcDbEntity
  8
GAIKEI
  6
Continuous
 62
     1
100
AcDbSpline
210
0.0
220
0.0
230
1.0
 70
     8
 71
     3
 72
     9
 73
     5
 74
     3
 42
0.0000000001
 43
0.0000000001
 44
0.000001
 12
-0.9475963725605721
 22
-0.3194700529158333
 32
0.0
 13
-0.9834331991941777
 23
-0.1812709097530677
 33
0.0
 40
0.0
 40
0.0
 40
0.0
 40
0.0
 40
0.001765874985238
 40
0.0030298161734819
 40
0.0030298161734819
 40
0.0030298161734819
 40
0.0030298161734819
 10
42.69903060358657
 20
17.05150436606888
 30
0.0
 10
42.69847282467644
 20
17.05131631801055
 30
0.0
 10
42.69750183556439
 20
17.05102934819345
 30
0.0
 10
42.69650762060099
 20
17.05084831611691
 30
0.0
 10
42.69609328669221
 20
17.05077194419388
 30
0.0
 11
42.69903060358657
 21
17.05150436606888
 31
0.0
 11
42.69733326502799
 21
17.05101680971378
 31
0.0
 11
42.69609328669221
 21
17.05077194419388
 31
0.0
  0
SPLINE
  5
1B5
330
2
100
AcDbEntity
  8
GAIKEI
  6
Continuous
 62
     1
100
AcDbSpline
210
0.0
220
0.0
230
1.0
 70
     8
 71
     3
 72
    21
 73
    17
 74
    15
 42
0.0000000001
 43
0.0000000001
 44
0.000001
 12
0.9297768174754152
 22
0.3681237151900004
 32
0.0
 13
-0.8755907480593464
 23
0.4830536635953343
 33
0.0
 40
0.0
 40
0.0
 40
0.0
 40
0.0
 40
0.0209317901042983
 40
0.0381307792655995
 40
0.0974628065951269
 40
0.1742137371517804
 40
0.2494051149913416
 40
0.334458138807061
 40
0.4234959258178045
 40
0.5106229759651636
 40
0.5884661667045281
 40
0.6541389611438494
 40
0.6774265049538253
 40
0.69843852637706
 40
0.7389419334642057
 40
0.7875665955627009
 40
0.7875665955627009
 40
0.7875665955627009
 40
0.7875665955627009
 10
42.69903060358657
 20
17.05150436606888
 30
0.0
 10
42.70551790131565
 20
17.05407286218181
 30
0.0
 10
42.71697139231757
 20
17.06009991077587
 30
0.0
 10
42.73976232848157
 20
17.08381796004156
 30
0.0
 10
42.75656413300175
 20
17.13406881576893
 30
0.0
 10
42.76554568850348
 20
17.20347214089452
 30
0.0
 10
42.77298828913131
 20
17.28227911449616
 30
0.0
 10
42.7764155638708
 20
17.36529317512517
 30
0.0
 10
42.77711438750642
 20
17.45238831803047
 30
0.0
 10
42.7745648686713
 20
17.53704095862557
 30
0.0
 10
42.76901912951262
 20
17.61374721750036
 30
0.0
 10
42.76222297511535
 20
17.66896412753019
 30
0.0
 10
42.7551553711581
 20
17.70498976603503
 30
0.0
 10
42.7486308310928
 20
17.73236266057353
 30
0.0
 10
42.73778586680331
 20
17.76857566866206
 30
0.0
 10
42.71262422714238
 20
17.78781555067962
 30
0.0
 10
42.6984324590554
 20
17.79564499106888
 30
0.0
 11
42.69903060358657
 21
17.05150436606888
 31
0.0
 11
42.71732778710028
 21
17.06167090532071
 31
0.0
 11
42.72942916315705
 21
17.07389206138137
 31
0.0
 11
42.75291819684926
 21
17.12837622910993
 31
0.0
 11
42.76518050593042
 21
17.20414108481887
 31
0.0
 11
42.77205475144628
 21
17.27901743054585
 31
0.0
 11
42.77589967376243
 21
17.3639833438132
 31
0.0
 11
42.77654641963332
 21
17.45301860609899
 31
0.0
 11
42.77382613581326
 21
17.54010299888139
 31
0.0
 11
42.76802048128084
 21
17.61772922261852
 31
0.0
 11
42.75935470026641
 21
17.68282760825636
 31
0.0
 11
42.75485315473045
 21
17.70567586393954
 31
0.0
 11
42.74997512262965
 21
17.72611374106887
 31
0.0
 11
42.73520099124342
 21
17.76382621076951
 31
0.0
 11
42.6984324590554
 21
17.79564499106888
 31
0.0
  0
SPLINE
  5
1B6
330
2
100
AcDbEntity
  8
GAIKEI
  6
Continuous
 62
     1
100
AcDbSpline
210
0.0
220
0.0
230
1.0
 70
     8
 71
     3
 72
     9
 73
     5
 74
     3
 42
0.0000000001
 43
0.0000000001
 44
0.000001
 12
0.9530545887837252
 22
-0.3027985316977023
 32
0.0
 13
-0.0000229140884213
 23
-0.9999999997374724
 33
0.0
 40
0.0
 40
0.0
 40
0.0
 40
0.0
 40
0.0315598744427792
 40
0.0618151133452398
 40
0.0618151133452398
 40
0.0618151133452398
 40
0.0618151133452398
 10
42.69609328669221
 20
17.7961576863814
 30
0.0
 10
42.70611938107859
 20
17.79297225850078
 30
0.0
 10
42.72371568170801
 20
17.77938966636594
 30
0.0
 10
42.73073859834892
 20
17.75853768788786
 30
0.0
 10
42.73073836725851
 20
17.74845260825637
 30
0.0
 11
42.69609328669221
 21
17.7961576863814
 31
0.0
 11
42.7213318931368
 21
17.7772084861684
 31
0.0
 11
42.73073836725851
 21
17.74845260825637
 31
0.0
  0
SPLINE
  5
1B7
330
2
100
AcDbEntity
  8
GAIKEI
  6
Continuous
 62
     1
100
AcDbSpline
210
0.0
220
0.0
230
1.0
 70
     8
 71
     3
 72
     9
 73
     5
 74
     3
 42
0.0000000001
 43
0.0000000001
 44
0.000001
 12
0.0000229121162679
 22
-0.9999999997375176
 32
0.0
 13
-0.9530270988373137
 23
-0.3028850423539153
 33
0.0
 40
0.0
 40
0.0
 40
0.0
 40
0.0
 40
0.0302551205998128
 40
0.0618150551362029
 40
0.0618150551362029
 40
0.0618150551362029
 40
0.0618150551362029
 10
42.73073836725851
 20
17.09847702231886
 30
0.0
 10
42.73073859832813
 20
17.08839198212158
 30
0.0
 10
42.72371569169171
 20
17.06753966889749
 30
0.0
 10
42.70611911097579
 20
17.05395828823012
 30
0.0
 10
42.69609328669221
 20
17.05077194419388
 30
0.0
 11
42.73073836725851
 21
17.09847702231886
 31
0.0
 11
42.72133186780533
 21
17.06972127404694
 31
0.0
 11
42.69609328669221
 21
17.05077194419388
 31
0.0
  0
SPLINE
  5
1B8
330
2
100
AcDbEntity
  8
GAIKEI
  6
Continuous
 62
     1
100
AcDbSpline
210
0.0
220
0.0
230
1.0
 70
     8
 71
     3
 72
     9
 73
     5
 74
     3
 42
0.0000000001
 43
0.0000000001
 44
0.000001
 12
-0.9999999391769703
 22
0.000348777946059
 32
0.0
 13
-0.9999999672787847
 23
0.0002558171792685
 33
0.0
 40
0.0
 40
0.0
 40
0.0
 40
0.0
 40
0.0112615178916949
 40
0.0274217713311756
 40
0.0274217713311756
 40
0.0274217713311756
 40
0.0274217713311756
 10
42.64871779841096
 20
17.05077194419388
 30
0.0
 10
42.64496395934204
 20
17.05077325345024
 30
0.0
 10
42.63590971260291
 20
17.04920164972182
 30
0.0
 10
42.62678216168585
 20
17.04847564429542
 30
0.0
 10
42.62139541071562
 20
17.0484770223189
 30
0.0
 11
42.64871779841096
 21
17.05077194419388
 31
0.0
 11
42.63751490873002
 21
17.04962402552442
 31
0.0
 11
42.62139541071562
 21
17.0484770223189
 31
0.0
  0
SPLINE
  5
1B9
330
2
100
AcDbEntity
  8
GAIKEI
  6
Continuous
 62
     1
100
AcDbSpline
210
0.0
220
0.0
230
1.0
 70
     8
 71
     3
 72
     9
 73
     5
 74
     3
 42
0.0000000001
 43
0.0000000001
 44
0.000001
 12
-0.308306392599573
 22
-0.9512871113823829
 32
0.0
 13
-0.9999974355789426
 23
0.0022646932549037
 33
0.0
 40
0.0
 40
0.0
 40
0.0
 40
0.0
 40
0.045642214125596
 40
0.0912348413888005
 40
0.0912348413888005
 40
0.0912348413888005
 40
0.0912348413888005
 10
42.68515120905547
 20
17.09847702231886
 30
0.0
 10
42.68046061359304
 20
17.08400407230797
 30
0.0
 10
42.65949060117792
 20
17.05879246084944
 30
0.0
 10
42.62888112217162
 20
17.04844260454709
 30
0.0
 10
42.61368361872345
 20
17.0484770223189
 30
0.0
 11
42.68515120905547
 21
17.09847702231886
 31
0.0
 11
42.65706579175506
 21
17.06249785711802
 31
0.0
 11
42.61368361872345
 21
17.0484770223189
 31
0.0
  0
SPLINE
  5
1BA
330
2
100
AcDbEntity
  8
GAIKEI
  6
Continuous
 62
     1
100
AcDbSpline
210
0.0
220
0.0
230
1.0
 70
     8
 71
     3
 72
     9
 73
     5
 74
     3
 42
0.0000000001
 43
0.0000000001
 44
0.000001
 12
-0.3095689451657724
 22
0.9508769995056937
 32
0.0
 13
-0.9999998770198082
 23
0.0004959439167434
 33
0.0
 40
0.0
 40
0.0
 40
0.0
 40
0.0
 40
0.0444384738348757
 40
0.0913808111171996
 40
0.0913808111171996
 40
0.0913808111171996
 40
0.0913808111171996
 10
42.68515120905547
 20
17.74845260825637
 30
0.0
 10
42.68056561856552
 20
17.76253778247727
 30
0.0
 10
42.66022356981061
 20
17.78819503070201
 30
0.0
 10
42.62931732964971
 20
17.79844484800085
 30
0.0
 10
42.61366988581326
 20
17.79845260825638
 30
0.0
 11
42.68515120905547
 21
17.74845260825637
 31
0.0
 11
42.65828241419709
 21
17.78384932061706
 31
0.0
 11
42.61366988581326
 21
17.79845260825638
 31
0.0
  0
SPLINE
  5
1BB
330
2
100
AcDbEntity
  8
GAIKEI
  6
Continuous
 62
     1
100
AcDbSpline
210
0.0
220
0.0
230
1.0
 70
     8
 71
     3
 72
    11
 73
     7
 74
     5
 42
0.0000000001
 43
0.0000000001
 44
0.000001
 12
0.9206720085844112
 22
0.3903371012460203
 32
0.0
 13
0.3669927018215404
 23
-0.930223820813962
 33
0.0
 40
0.0
 40
0.0
 40
0.0
 40
0.0
 40
0.0835933354992711
 40
0.1618483972606501
 40
0.2033215610220337
 40
0.228445308828162
 40
0.228445308828162
 40
0.228445308828162
 40
0.228445308828162
 10
42.43357192438745
 20
16.9107817098189
 30
0.0
 10
42.4592259390869
 20
16.92165823657299
 30
0.0
 10
42.51142847861735
 20
16.93729173553757
 30
0.0
 10
42.5791621670433
 20
16.94328051080467
 30
0.0
 10
42.62820915490446
 20
16.93527403455911
 30
0.0
 10
42.64564438771521
 20
16.91857194604469
 30
0.0
 10
42.64871779841096
 20
16.9107817098189
 30
0.0
 11
42.43357192438745
 21
16.9107817098189
 31
0.0
 11
42.51360697907117
 21
16.93490803387644
 31
0.0
 11
42.5916941778054
 21
16.94002975669386
 31
0.0
 11
42.63176059959207
 21
16.92932037521038
 31
0.0
 11
42.64871779841096
 21
16.9107817098189
 31
0.0
  0
SPLINE
  5
1BC
330
2
100
AcDbEntity
  8
GAIKEI
  6
Continuous
 62
     1
100
AcDbSpline
210
0.0
220
0.0
230
1.0
 70
     8
 71
     3
 72
    11
 73
     7
 74
     5
 42
0.0000000001
 43
0.0000000001
 44
0.000001
 12
-0.9062224287603585
 22
-0.4228012649125793
 32
0.0
 13
-0.0171089372894947
 23
0.9998536314205315
 33
0.0
 40
0.0
 40
0.0
 40
0.0
 40
0.0
 40
0.0141867535874447
 40
0.1001140394792198
 40
0.324754483239901
 40
0.5308707508585052
 40
0.5308707508585052
 40
0.5308707508585052
 40
0.5308707508585052
 10
42.43207656305938
 20
16.38170456138138
 30
0.0
 10
42.42779111162863
 20
16.37970516892747
 30
0.0
 10
42.43908900154586
 20
16.43949510604656
 30
0.0
 10
42.45421636149113
 20
16.50238519772122
 30
0.0
 10
42.4474628912155
 20
16.70759179035758
 30
0.0
 10
42.43474740115313
 20
16.84208634359447
 30
0.0
 10
42.43357192438745
 20
16.9107817098189
 30
0.0
 11
42.43207656305938
 21
16.38170456138138
 31
0.0
 11
42.43086034145861
 21
16.39583991017824
 31
0.0
 11
42.4463374273171
 21
16.4803617879439
 31
0.0
 11
42.4452944791536
 21
16.70499981024042
 31
0.0
 11
42.43357192438745
 21
16.9107817098189
 31
0.0
  0
SPLINE
  5
1BD
330
2
100
AcDbEntity
  8
GAIKEI
  6
Continuous
 62
     1
100
AcDbSpline
210
0.0
220
0.0
230
1.0
 70
     8
 71
     3
 72
    11
 73
     7
 74
     5
 42
0.0000000001
 43
0.0000000001
 44
0.000001
 12
0.0459695640841166
 22
-0.9989428407961671
 32
0.0
 13
-0.9063241642099516
 23
-0.4225831390024132
 33
0.0
 40
0.0
 40
0.0
 40
0.0
 40
0.0
 40
0.1346280715471396
 40
0.2712585045683951
 40
0.3791316959943825
 40
0.4876424189425521
 40
0.4876424189425521
 40
0.4876424189425521
 40
0.4876424189425521
 10
42.67662459772734
 20
16.77215866294389
 30
0.0
 10
42.67868752898151
 20
16.72733008019648
 30
0.0
 10
42.6675801134331
 20
16.63565971377335
 30
0.0
 10
42.61046764296582
 20
16.51992424808463
 30
0.0
 10
42.52684817606116
 20
16.43531598143519
 30
0.0
 10
42.46485852648731
 20
16.39698949535435
 30
0.0
 10
42.43207656305938
 20
16.38170456138138
 30
0.0
 11
42.67662459772734
 21
16.77215866294389
 31
0.0
 11
42.66033348005911
 21
16.63851929154876
 31
0.0
 11
42.59955245417259
 21
16.51615280356887
 31
0.0
 11
42.52433206086343
 21
16.43883186010455
 31
0.0
 11
42.43207656305938
 21
16.38170456138138
 31
0.0
  0
SPLINE
  5
1BE
330
2
100
AcDbEntity
  8
GAIKEI
  6
Continuous
 62
     1
100
AcDbSpline
210
0.0
220
0.0
230
1.0
 70
     8
 71
     3
 72
     9
 73
     5
 74
     3
 42
0.0000000001
 43
0.0000000001
 44
0.000001
 12
-0.9079604743404313
 22
0.419055816133721
 32
0.0
 13
-0.0000099217163909
 23
0.9999999999507798
 33
0.0
 40
0.0
 40
0.0
 40
0.0
 40
0.0
 40
0.0518332651233437
 40
0.142723965502712
 40
0.142723965502712
 40
0.142723965502712
 40
0.142723965502712
 10
42.67662459772734
 20
16.77215866294389
 30
0.0
 10
42.66093707906466
 20
16.7793990066836
 30
0.0
 10
42.65685784571276
 20
16.83902160785877
 30
0.0
 10
42.6487180990082
 20
16.88048480969394
 30
0.0
 10
42.64871779841096
 20
16.9107817098189
 30
0.0
 11
42.67662459772734
 21
16.77215866294389
 31
0.0
 11
42.6574392483275
 21
16.82031111267096
 31
0.0
 11
42.64871779841096
 21
16.9107817098189
 31
0.0
  0
SPLINE
  5
1BF
330
2
100
AcDbEntity
  8
GAIKEI
  6
Continuous
 62
     1
100
AcDbSpline
210
0.0
220
0.0
230
1.0
 70
     8
 71
     3
 72
    11
 73
     7
 74
     5
 42
0.0000000001
 43
0.0000000001
 44
0.000001
 12
0.9062638055290031
 22
0.4227125675776501
 32
0.0
 13
-0.4074283156467248
 23
0.9132371913195788
 33
0.0
 40
0.0
 40
0.0
 40
0.0
 40
0.0
 40
0.0482774859597102
 40
0.1573969605920602
 40
0.3199553894981788
 40
0.5002991426603375
 40
0.5002991426603375
 40
0.5002991426603375
 40
0.5002991426603375
 10
42.12951156061788
 20
16.2406156941939
 30
0.0
 10
42.14409560666696
 20
16.2474181942093
 30
0.0
 10
42.15118422454404
 20
16.31253931845137
 30
0.0
 10
42.13012415446864
 20
16.40869990322622
 30
0.0
 10
42.08434826108891
 20
16.55666187850039
 30
0.0
 10
42.04127964028153
 20
16.66152248405311
 30
0.0
 10
42.01678725641878
 20
16.71642135825638
 30
0.0
 11
42.12951156061788
 21
16.2406156941939
 31
0.0
 11
42.14680187639501
 21
16.28569125380997
 31
0.0
 11
42.13208724421164
 21
16.3938139363814
 31
0.0
 11
42.0842735103694
 21
16.54918149223042
 31
0.0
 11
42.01678725641878
 21
16.71642135825638
 31
0.0
  0
SPLINE
  5
1C0
330
2
100
AcDbEntity
  8
GAIKEI
  6
Continuous
 62
     1
100
AcDbSpline
210
0.0
220
0.0
230
1.0
 70
     8
 71
     3
 72
     9
 73
     5
 74
     3
 42
0.0000000001
 43
0.0000000001
 44
0.000001
 12
0.0052138166022866
 22
0.9999864079658472
 32
0.0
 13
-0.9988622874322249
 23
-0.0476878469388517
 33
0.0
 40
0.0
 40
0.0
 40
0.0
 40
0.0
 40
0.0619854999220253
 40
0.2180177407711512
 40
0.2180177407711512
 40
0.2180177407711512
 40
0.2180177407711512
 10
41.99959823053987
 20
14.05655807700637
 30
0.0
 10
41.9997059575494
 20
14.07721962947738
 30
0.0
 10
41.88043726000986
 20
14.04024935003343
 30
0.0
 10
41.83372601270519
 20
14.05903835754608
 30
0.0
 10
41.78177443903595
 20
14.05655807700637
 30
0.0
 11
41.99959823053987
 21
14.05655807700637
 31
0.0
 11
41.9377508265043
 21
14.06070390042546
 31
0.0
 11
41.78177443903595
 21
14.05655807700637
 31
0.0
  0
SPLINE
  5
1C1
330
2
100
AcDbEntity
  8
GAIKEI
  6
Continuous
 62
     1
100
AcDbSpline
210
0.0
220
0.0
230
1.0
 70
     8
 71
     3
 72
    11
 73
     7
 74
     5
 42
0.0000000001
 43
0.0000000001
 44
0.000001
 12
0.9987931707841159
 22
0.0491141730563801
 32
0.0
 13
-0.0012296785474826
 23
0.9999992439450492
 33
0.0
 40
0.0
 40
0.0
 40
0.0
 40
0.0
 40
0.0835095761443977
 40
0.3531564024828555
 40
0.6744377320265802
 40
1.019744032477814
 40
1.019744032477814
 40
1.019744032477814
 40
1.019744032477814
 10
41.73898879450464
 20
13.03910202231887
 30
0.0
 10
41.76679172595402
 20
13.04046919024375
 30
0.0
 10
41.73114176301072
 20
13.22260563916001
 30
0.0
 10
41.79447942148323
 20
13.38887475246088
 30
0.0
 10
41.77795530245241
 20
13.72532600658366
 30
0.0
 10
41.78191597761927
 20
13.94145606387948
 30
0.0
 10
41.78177443903595
 20
14.05655807700637
 30
0.0
 11
41.73898879450464
 21
13.03910202231887
 31
0.0
 11
41.7537789561106
 21
13.12129208202347
 31
0.0
 11
41.77590285700463
 21
13.3900297566939
 31
0.0
 11
41.78203179193625
 21
13.71125261554184
 31
0.0
 11
41.78177443903595
 21
14.05655807700637
 31
0.0
  0
SPLINE
  5
1C2
330
2
100
AcDbEntity
  8
GAIKEI
  6
Continuous
100
AcDbSpline
210
0.0
220
0.0
230
1.0
 70
     8
 71
     3
 72
     9
 73
     5
 74
     3
 42
0.0000000001
 43
0.0000000001
 44
0.000001
 12
0.9986643271656944
 22
0.0516678008695067
 32
0.0
 13
0.8771176913776097
 23
0.4802754995545917
 33
0.0
 40
0.0
 40
0.0
 40
0.0
 40
0.0
 40
0.0614959273946499
 40
0.1233354638351055
 40
0.1233354638351055
 40
0.1233354638351055
 40
0.1233354638351055
 10
41.73898879450464
 20
13.03910202231887
 30
0.0
 10
41.75946005748964
 20
13.04016114209585
 30
0.0
 10
41.80038303839957
 20
13.04705186011972
 30
0.0
 10
41.8388056443831
 20
13.06272252537934
 30
0.0
 10
41.85688582819594
 20
13.07262253013138
 30
0.0
 11
41.73898879450464
 21
13.03910202231887
 31
0.0
 11
41.79964760702765
 21
13.04921641719224
 31
0.0
 11
41.85688582819594
 21
13.07262253013138
 31
0.0
  0
SPLINE
  5
1C3
330
2
100
AcDbEntity
  8
GAIKEI
  6
Continuous
 62
     1
100
AcDbSpline
210
0.0
220
0.0
230
1.0
 70
     8
 71
     3
 72
     9
 73
     5
 74
     3
 42
0.0000000001
 43
0.0000000001
 44
0.000001
 12
0.3355890067968437
 22
0.942008502359245
 32
0.0
 13
-0.0001494369176451
 23
0.9999999888343038
 33
0.0
 40
0.0
 40
0.0
 40
0.0
 40
0.0
 40
0.0471832981822787
 40
0.0943274247918851
 40
0.0943274247918851
 40
0.0943274247918851
 40
0.0943274247918851
 10
41.9835429326882
 20
13.22110885825637
 30
0.0
 10
41.98882099807967
 20
13.23592454760873
 30
0.0
 10
41.99685557227287
 20
13.26649892611223
 30
0.0
 10
41.99960057889753
 20
13.29799668862449
 30
0.0
 10
41.99959823053987
 20
13.31371139731888
 30
0.0
 11
41.9835429326882
 21
13.22110885825637
 31
0.0
 11
41.99553617301122
 21
13.26674200442321
 31
0.0
 11
41.99959823053987
 21
13.31371139731888
 31
0.0
  0
SPLINE
  5
1C4
330
2
100
AcDbEntity
  8
GAIKEI
  6
Continuous
 62
     1
100
AcDbSpline
210
0.0
220
0.0
230
1.0
 70
     8
 71
     3
 72
    11
 73
     7
 74
     5
 42
0.0000000001
 43
0.0000000001
 44
0.000001
 12
0.9986292281347646
 22
0.0523418065695528
 32
0.0
 13
-0.0461856026335724
 23
0.9989328756775272
 33
0.0
 40
0.0
 40
0.0
 40
0.0
 40
0.0
 40
0.0748355413161146
 40
0.2037213159894192
 40
0.3827473789693889
 40
0.573889489119569
 40
0.573889489119569
 40
0.573889489119569
 40
0.573889489119569
 10
41.99555770319594
 20
13.05252975669387
 30
0.0
 10
42.02046868948312
 20
13.05383543250323
 30
0.0
 10
42.07937813092877
 20
13.10381399094399
 30
0.0
 10
42.12189863494379
 20
13.22418122529257
 30
0.0
 10
42.14852942175759
 20
13.38947709188821
 30
0.0
 10
42.15058930260076
 20
13.51317570296291
 30
0.0
 10
42.14764663141878
 20
13.57682174888137
 30
0.0
 11
41.99555770319594
 21
13.05252975669387
 31
0.0
 11
42.05885326054604
 21
13.09245601740363
 31
0.0
 11
42.11321364802032
 21
13.20931686606886
 31
0.0
 11
42.1437440229022
 21
13.38572040519861
 31
0.0
 11
42.14764663141878
 21
13.57682174888137
 31
0.0
  0
SPLINE
  5
1C5
330
2
100
AcDbEntity
  8
GAIKEI
  6
Continuous
 62
     1
100
AcDbSpline
210
0.0
220
0.0
230
1.0
 70
     8
 71
     3
 72
    13
 73
     9
 74
     7
 42
0.0000000001
 43
0.0000000001
 44
0.000001
 12
-0.0438128177296179
 22
-0.999039757468436
 32
0.0
 13
0.9976004850565461
 23
0.0692334616709594
 33
0.0
 40
0.0
 40
0.0
 40
0.0
 40
0.0
 40
0.0862374587927772
 40
0.1995399727469298
 40
0.2827204101320622
 40
0.3559949025680706
 40
0.4828855543916537
 40
0.5170668924450512
 40
0.5170668924450512
 40
0.5170668924450512
 40
0.5170668924450512
 10
42.40204116266861
 20
13.59015182700639
 30
0.0
 10
42.4007817273141
 20
13.56143361036737
 30
0.0
 10
42.4094865814604
 20
13.49506462544681
 30
0.0
 10
42.42471237198498
 20
13.40181872350192
 30
0.0
 10
42.43986742920665
 20
13.31446342106355
 30
0.0
 10
42.44745693795117
 20
13.21504970605753
 30
0.0
 10
42.47890348945958
 20
13.16410319121274
 30
0.0
 10
42.4526223546973
 20
13.07630147278288
 30
0.0
 10
42.46398879450461
 20
13.07709030356889
 30
0.0
 11
42.40204116266861
 21
13.59015182700639
 31
0.0
 11
42.40868794664456
 21
13.50417144742491
 31
0.0
 11
42.42648726862589
 21
13.39227585044389
 31
0.0
 11
42.43912470221826
 21
13.31006104042868
 31
0.0
 11
42.44890242975858
 21
13.2374418660689
 31
0.0
 11
42.46162044326448
 21
13.11119019598587
 31
0.0
 11
42.46398879450461
 21
13.07709030356889
 31
0.0
  0
SPLINE
  5
1C6
330
2
100
AcDbEntity
  8
GAIKEI
  6
Continuous
 62
     1
100
AcDbSpline
210
0.0
220
0.0
230
1.0
 70
     8
 71
     3
 72
    15
 73
    11
 74
     9
 42
0.0000000001
 43
0.0000000001
 44
0.000001
 12
1.0
 22
0.0000000000000001
 32
0.0
 13
0.9851673664906273
 23
0.1715962120850044
 33
0.0
 40
0.0
 40
0.0
 40
0.0
 40
0.0
 40
0.0071046163026414
 40
0.0252497055759342
 40
0.0883146186554448
 40
0.1680336479174127
 40
0.2438603299681318
 40
0.3008182483549946
 40
0.3078091750097988
 40
0.3148412565658999
 40
0.3148412565658999
 40
0.3148412565658999
 40
0.3148412565658999
 10
41.99959823053987
 20
13.31371139731888
 30
0.0
 10
42.00196643597408
 20
13.31371139731888
 30
0.0
 10
41.99993009679295
 20
13.32696418279704
 30
0.0
 10
42.01241426587812
 20
13.34895439007579
 30
0.0
 10
42.02297364767878
 20
13.40603442971596
 30
0.0
 10
42.0503844742777
 20
13.47238751438502
 30
0.0
 10
42.08127118280958
 20
13.53542857351004
 30
0.0
 10
42.11732114665141
 20
13.57152595159815
 30
0.0
 10
42.14072157843943
 20
13.57572640788857
 30
0.0
 10
42.14533737232959
 20
13.57641952269534
 30
0.0
 10
42.14764663141878
 20
13.57682174888137
 30
0.0
 11
41.99959823053987
 21
13.31371139731888
 31
0.0
 11
42.00126367425943
 21
13.32061868455892
 31
0.0
 11
42.0057566778054
 21
13.33819870200639
 31
0.0
 11
42.02354513487077
 21
13.39870283443795
 31
0.0
 11
42.05168728679663
 21
13.47328918682203
 31
0.0
 11
42.08888699189308
 21
13.53936349992327
 31
0.0
 11
42.13384810846949
 21
13.57433151450638
 31
0.0
 11
42.14070569480881
 21
13.57569084098318
 31
0.0
 11
42.14764663141878
 21
13.57682174888137
 31
0.0
  0
SPLINE
  5
1C7
330
2
100
AcDbEntity
  8
GAIKEI
  6
Continuous
 62
     1
100
AcDbSpline
210
0.0
220
0.0
230
1.0
 70
     8
 71
     3
 72
    11
 73
     7
 74
     5
 42
0.0000000001
 43
0.0000000001
 44
0.000001
 12
1.0
 22
0.0000000000000001
 32
0.0
 13
0.7997332789828673
 23
0.6003554634442093
 33
0.0
 40
0.0
 40
0.0
 40
0.0
 40
0.0
 40
0.0047570016072693
 40
0.0195210778766771
 40
0.0788019557121214
 40
0.1546231101910458
 40
0.1546231101910458
 40
0.1546231101910458
 40
0.1546231101910458
 10
41.99959823053987
 20
16.03670944419386
 30
0.0
 10
42.00118389774229
 20
16.03670944419386
 30
0.0
 10
42.00642466196116
 20
16.03170382719449
 30
0.0
 10
42.03259926177636
 20
16.02726230531112
 30
0.0
 10
42.08254193347342
 20
16.0215768277371
 30
0.0
 10
42.12743439792288
 20
16.0388946278527
 30
0.0
 10
42.14764663141878
 20
16.05406784263138
 30
0.0
 11
41.99959823053987
 21
16.03670944419386
 31
0.0
 11
42.00381167596603
 21
16.03450079333666
 31
0.0
 11
42.01781569880156
 21
16.02982467856887
 31
0.0
 11
42.07700460171437
 21
16.0265244055233
 31
0.0
 11
42.14764663141878
 21
16.05406784263138
 31
0.0
  0
SPLINE
  5
1C8
330
2
100
AcDbEntity
  8
GAIKEI
  6
Continuous
100
AcDbSpline
210
0.0
220
0.0
230
1.0
 70
     8
 71
     3
 72
     9
 73
     5
 74
     3
 42
0.0000000001
 43
0.0000000001
 44
0.000001
 12
0.1987693773783357
 22
0.9800462920784042
 32
0.0
 13
0.3381789155803088
 23
0.9410818354728384
 33
0.0
 40
0.0
 40
0.0
 40
0.0
 40
0.0
 40
0.0000365571486808
 40
0.000076344501573
 40
0.000076344501573
 40
0.000076344501573
 40
0.000076344501573
 10
41.98331099909447
 20
13.22030319419386
 30
0.0
 10
41.9833134212417
 20
13.22031513675986
 30
0.0
 10
41.98331975224961
 20
13.22033982465532
 30
0.0
 10
41.98332787631784
 20
13.22036395532967
 30
0.0
 10
41.98333236139913
 20
13.22037643638137
 30
0.0
 11
41.98331099909447
 21
13.22030319419386
 31
0.0
 11
41.98331998648794
 21
13.22033864177169
 31
0.0
 11
41.98333236139913
 21
13.22037643638137
 31
0.0
  0
SPLINE
  5
1C9
330
2
100
AcDbEntity
  8
GAIKEI
  6
Continuous
100
AcDbSpline
210
0.0
220
0.0
230
1.0
 70
     8
 71
     3
 72
     9
 73
     5
 74
     3
 42
0.0000000001
 43
0.0000000001
 44
0.000001
 12
0.9986463439460118
 22
0.0520142261623115
 32
0.0
 13
0.9828597313071451
 23
0.1843549526724105
 33
0.0
 40
0.0
 40
0.0
 40
0.0
 40
0.0
 40
0.0174359930999539
 40
0.0367694639261733
 40
0.0367694639261733
 40
0.0367694639261733
 40
0.0367694639261733
 10
41.73860732477814
 20
13.0390776082564
 30
0.0
 10
41.74441145503225
 20
13.03937991481922
 30
0.0
 10
41.75657073374099
 20
13.04100852356396
 30
0.0
 10
41.76878299938748
 20
13.04221082361917
 30
0.0
 10
41.77511702936797
 20
13.04339889731889
 30
0.0
 11
41.73860732477814
 21
13.0390776082564
 31
0.0
 11
41.75595505547434
 21
13.04082961158528
 31
0.0
 11
41.77511702936797
 21
13.04339889731889
 31
0.0
  0
SPLINE
  5
1CA
330
2
100
AcDbEntity
  8
GAIKEI
  6
Continuous
100
AcDbSpline
210
0.0
220
0.0
230
1.0
 70
     8
 71
     3
 72
     9
 73
     5
 74
     3
 42
0.0000000001
 43
0.0000000001
 44
0.000001
 12
0.7170394262365658
 22
0.6970326113047629
 32
0.0
 13
0.323299954190388
 23
0.9462965389456378
 33
0.0
 40
0.0
 40
0.0
 40
0.0
 40
0.0
 40
0.0060931967733696
 40
0.0118654812582937
 40
0.0118654812582937
 40
0.0118654812582937
 40
0.0118654812582937
 10
41.93981887262961
 20
13.14339889731886
 30
0.0
 10
41.94127522673572
 20
13.14481461627156
 30
0.0
 10
41.94392739829297
 20
13.14777917473739
 30
0.0
 10
41.94582675670747
 20
13.15131934397976
 30
0.0
 10
41.94644881647732
 20
13.15314010825639
 30
0.0
 11
41.93981887262961
 21
13.14339889731886
 31
0.0
 11
41.943800193795
 21
13.14801023524885
 31
0.0
 11
41.94644881647732
 21
13.15314010825639
 31
0.0
  0
SPLINE
  5
1CB
330
2
100
AcDbEntity
  8
GAIKEI
  6
Continuous
 62
     1
100
AcDbSpline
210
0.0
220
0.0
230
1.0
 70
     8
 71
     3
 72
     9
 73
     5
 74
     3
 42
0.0000000001
 43
0.0000000001
 44
0.000001
 12
-0.9041492712219852
 22
0.4272166843052288
 32
0.0
 13
-0.6794068998839366
 23
0.7337617218076305
 33
0.0
 40
0.0
 40
0.0
 40
0.0
 40
0.0
 40
0.0048463816683713
 40
0.0096987194609383
 40
0.0096987194609383
 40
0.0096987194609383
 40
0.0096987194609383
 10
42.01394606989518
 20
15.49457077231889
 30
0.0
 10
42.01248545241067
 20
15.49526092402129
 30
0.0
 10
42.00973414841548
 20
15.49699838185887
 30
0.0
 10
42.00727214667248
 20
15.49912125709522
 30
0.0
 10
42.00617324274688
 20
15.50030807700639
 30
0.0
 11
42.01394606989518
 21
15.49457077231889
 31
0.0
 11
42.00980863308259
 21
15.49709438054523
 31
0.0
 11
42.00617324274688
 21
15.50030807700639
 31
0.0
  0
SPLINE
  5
1CC
330
2
100
AcDbEntity
  8
GAIKEI
  6
Continuous
 62
     1
100
AcDbSpline
210
0.0
220
0.0
230
1.0
 70
    24
 71
     3
 72
    11
 73
     7
 74
     5
 42
0.0000000001
 43
0.0000000001
 44
0.000001
 12
-0.0000000000000002
 22
1.0
 32
0.0
 13
-0.0000000000000002
 23
1.0
 33
0.0
 40
0.0
 40
0.0
 40
0.0
 40
0.0
 40
0.13055419921875
 40
0.2611083984375
 40
0.39166259765625
 40
0.522216796875
 40
0.522216796875
 40
0.522216796875
 40
0.522216796875
 10
42.01394606989518
 20
14.97235397544389
 30
0.0
 10
42.01394606989518
 20
15.01587204185014
 30
0.0
 10
42.01394606989516
 20
15.10290817466267
 30
0.0
 10
42.01394606989519
 20
15.23346237388139
 30
0.0
 10
42.01394606989516
 20
15.36401657310017
 30
0.0
 10
42.01394606989518
 20
15.45105270591264
 30
0.0
 10
42.01394606989518
 20
15.49457077231889
 30
0.0
 11
42.01394606989518
 21
14.97235397544389
 31
0.0
 11
42.01394606989518
 21
15.10290817466264
 31
0.0
 11
42.01394606989518
 21
15.23346237388139
 31
0.0
 11
42.01394606989518
 21
15.36401657310014
 31
0.0
 11
42.01394606989518
 21
15.49457077231889
 31
0.0
  0
SPLINE
  5
1CD
330
2
100
AcDbEntity
  8
GAIKEI
  6
Continuous
100
AcDbSpline
210
0.0
220
0.0
230
1.0
 70
     8
 71
     3
 72
     9
 73
     5
 74
     3
 42
0.0000000001
 43
0.0000000001
 44
0.000001
 12
0.9964149559530451
 22
0.0846004465300951
 32
0.0
 13
0.8863949201347114
 23
0.4629298495013889
 33
0.0
 40
0.0
 40
0.0
 40
0.0
 40
0.0
 40
0.0549383756856121
 40
0.1104511970150351
 40
0.1104511970150351
 40
0.1104511970150351
 40
0.1104511970150351
 10
42.47206679743439
 20
13.07762741294388
 30
0.0
 10
42.49031393716403
 20
13.07917668331544
 30
0.0
 10
42.52676661277681
 20
13.08599213946948
 30
0.0
 10
42.56120059182999
 20
13.09977412289441
 30
0.0
 10
42.57760268610624
 20
13.10834030356889
 30
0.0
 11
42.47206679743439
 21
13.07762741294388
 31
0.0
 11
42.52607794043316
 21
13.08768043142444
 31
0.0
 11
42.57760268610624
 21
13.10834030356889
 31
0.0
  0
SPLINE
  5
1CE
330
2
100
AcDbEntity
  8
GAIKEI
  6
Continuous
100
AcDbSpline
210
0.0
220
0.0
230
1.0
 70
     8
 71
     3
 72
     9
 73
     5
 74
     3
 42
0.0000000001
 43
0.0000000001
 44
0.000001
 12
0.3547102003781057
 22
0.9349762958213027
 32
0.0
 13
0.0160765725421326
 23
0.9998707635566196
 33
0.0
 40
0.0
 40
0.0
 40
0.0
 40
0.0
 40
0.0481786276402075
 40
0.0959362969183972
 40
0.0959362969183972
 40
0.0959362969183972
 40
0.0959362969183972
 10
42.70659896296158
 20
13.25387253013136
 30
0.0
 10
42.71229544651631
 20
13.26888782173429
 30
0.0
 10
42.72103918428846
 20
13.29983842172407
 30
0.0
 10
42.72431483817453
 20
13.3318274346949
 30
0.0
 10
42.7245707647194
 20
13.34774460044386
 30
0.0
 11
42.70659896296158
 21
13.25387253013136
 31
0.0
 11
42.71969950099199
 21
13.30023600754029
 31
0.0
 11
42.7245707647194
 21
13.34774460044386
 31
0.0
  0
SPLINE
  5
1CF
330
2
100
AcDbEntity
  8
GAIKEI
  6
Continuous
 62
     1
100
AcDbSpline
210
0.0
220
0.0
230
1.0
 70
     8
 71
     3
 72
    25
 73
    21
 74
    19
 42
0.0000000001
 43
0.0000000001
 44
0.000001
 12
-0.8933613361674668
 22
-0.449338984555178
 32
0.0
 13
-0.9078999136212614
 23
0.4191870070106015
 33
0.0
 40
0.0
 40
0.0
 40
0.0
 40
0.0
 40
0.0001346963123387
 40
0.0002702687501177
 40
0.0225092776346798
 40
0.0446848819520689
 40
0.0667386137504729
 40
0.0886170608596014
 40
0.1102744623072612
 40
0.1316756415035021
 40
0.1527993316303451
 40
0.1736418961431768
 40
0.1942213896890275
 40
0.2145817986374659
 40
0.2347971310884279
 40
0.2549748200764945
 40
0.2752577252038197
 40
0.2958239797064443
 40
0.3168841552545708
 40
0.3386748403856044
 40
0.3386748403856044
 40
0.3386748403856044
 40
0.3386748403856044
 10
42.99959670466094
 20
16.82279342856887
 30
0.0
 10
42.99955659383509
 20
16.82277325380079
 30
0.0
 10
42.99947638862166
 20
16.82273222295157
 30
0.0
 10
42.9927578161994
 20
16.81939183197326
 30
0.0
 10
42.97918319244871
 20
16.81335666568665
 30
0.0
 10
42.95909343815634
 20
16.80401683973446
 30
0.0
 10
42.9389446424961
 20
16.79509031552729
 30
0.0
 10
42.91880932913601
 20
16.78656827736901
 30
0.0
 10
42.89866584979174
 20
16.77863699834105
 30
0.0
 10
42.87851709916671
 20
16.77143130190998
 30
0.0
 10
42.8583590220436
 20
16.76510008276332
 30
0.0
 10
42.83818894232935
 20
16.75978925896802
 30
0.0
 10
42.8180035015598
 20
16.75564660814518
 30
0.0
 10
42.79779954514881
 20
16.75282086788868
 30
0.0
 10
42.77757454504467
 20
16.75146223132748
 30
0.0
 10
42.75732733653919
 20
16.75172216956343
 30
0.0
 10
42.73705915164349
 20
16.75375277292957
 30
0.0
 10
42.71677307902659
 20
16.75770585419499
 30
0.0
 10
42.69647776459859
 20
16.76373043277186
 30
0.0
 10
42.68321918477674
 20
16.7691138722503
 30
0.0
 10
42.67662459772734
 20
16.77215866294389
 30
0.0
 11
42.99959670466094
 21
16.82279342856887
 31
0.0
 11
42.99947699173546
 21
16.8227316964836
 31
0.0
 11
42.99935561579374
 21
16.82267135825637
 31
0.0
 11
42.97919114285074
 21
16.81329287624155
 31
0.0
 11
42.95902859660745
 21
16.80406167266571
 31
0.0
 11
42.93886738660851
 21
16.79512394325067
 31
0.0
 11
42.91870692239885
 21
16.7866258837183
 31
0.0
 11
42.898546613523
 21
16.77871368979058
 31
0.0
 11
42.87838586952583
 21
16.77153355718926
 31
0.0
 11
42.85822409995214
 21
16.76523168163632
 31
0.0
 11
42.8380607143466
 21
16.75995425885352
 31
0.0
 11
42.81789512225404
 21
16.75584748456285
 31
0.0
 11
42.79772673321915
 21
16.7530575544861
 31
0.0
 11
42.77755495678658
 21
16.75173066434522
 31
0.0
 11
42.75737920250143
 21
16.75201300986205
 31
0.0
 11
42.73719887990816
 21
16.75405078675843
 31
0.0
 11
42.71701339855158
 21
16.75799019075632
 31
0.0
 11
42.6968221679763
 21
16.76397741757748
 31
0.0
 11
42.67662459772734
 21
16.77215866294389
 31
0.0
  0
SPLINE
  5
1D0
330
2
100
AcDbEntity
  8
GAIKEI
  6
Continuous
 62
     1
100
AcDbSpline
210
0.0
220
0.0
230
1.0
 70
     8
 71
     3
 72
     9
 73
     5
 74
     3
 42
0.0000000001
 43
0.0000000001
 44
0.000001
 12
0.4311932620216505
 22
0.9022595916847482
 32
0.0
 13
0.5150005978191635
 23
0.8571898180950963
 33
0.0
 40
0.0
 40
0.0
 40
0.0
 40
0.0
 40
0.0016065298729578
 40
0.0031866031550714
 40
0.0031866031550714
 40
0.0031866031550714
 40
0.0031866031550714
 10
42.95448562067659
 20
16.67047409263139
 30
0.0
 10
42.95471652896208
 20
16.67095726162713
 30
0.0
 10
42.95524042393853
 20
16.67188355303904
 30
0.0
 10
42.95580739202634
 20
16.67278140745082
 30
0.0
 10
42.95607863825464
 20
16.6732328816939
 30
0.0
 11
42.95448562067659
 21
16.67047409263139
 31
0.0
 11
42.95525544884336
 21
16.67188497787973
 31
0.0
 11
42.95607863825464
 21
16.6732328816939
 31
0.0
  0
SPLINE
  5
1D1
330
2
100
AcDbEntity
  8
GAIKEI
  6
Continuous
 62
     1
100
AcDbSpline
210
0.0
220
0.0
230
1.0
 70
     8
 71
     3
 72
     9
 73
     5
 74
     3
 42
0.0000000001
 43
0.0000000001
 44
0.000001
 12
0.460844642345128
 22
0.8874808254952844
 32
0.0
 13
0.1533572646642287
 23
0.9881708098171619
 33
0.0
 40
0.0
 40
0.0
 40
0.0
 40
0.0
 40
0.0422825018169649
 40
0.0839495839752555
 40
0.0839495839752555
 40
0.0839495839752555
 40
0.0839495839752555
 10
42.96878310602799
 20
16.69542526450638
 30
0.0
 10
42.97527832750374
 20
16.7079335677119
 30
0.0
 10
42.98623823021837
 20
16.73382266315281
 30
0.0
 10
42.99292723166607
 20
16.76114389244168
 30
0.0
 10
42.99505721491485
 20
16.77486862388136
 30
0.0
 11
42.96878310602799
 21
16.69542526450638
 31
0.0
 11
42.98523433816344
 21
16.73437515345099
 31
0.0
 11
42.99505721491485
 21
16.77486862388136
 31
0.0
  0
SPLINE
  5
1D2
330
2
100
AcDbEntity
  8
GAIKEI
  6
Continuous
 62
     1
100
AcDbSpline
210
0.0
220
0.0
230
1.0
 70
     8
 71
     3
 72
     9
 73
     5
 74
     3
 42
0.0000000001
 43
0.0000000001
 44
0.000001
 12
0.2658231322721537
 22
0.964021816324206
 32
0.0
 13
0.0789747516234176
 23
0.9968766165408935
 33
0.0
 40
0.0
 40
0.0
 40
0.0
 40
0.0
 40
0.0034081539988279
 40
0.0067464152383362
 40
0.0067464152383362
 40
0.0067464152383362
 40
0.0067464152383362
 10
42.9978480474343
 20
16.79354538169386
 30
0.0
 10
42.99815003615805
 20
16.79464055996328
 30
0.0
 10
42.99856166211807
 20
16.79686026672806
 30
0.0
 10
42.99875351515154
 20
16.79910114256651
 30
0.0
 10
42.99884139460229
 20
16.80021042075637
 30
0.0
 11
42.9978480474343
 21
16.79354538169386
 31
0.0
 11
42.99851051534247
 21
16.79688940194134
 31
0.0
 11
42.99884139460229
 21
16.80021042075637
 31
0.0
  0
SPLINE
  5
1D3
330
2
100
AcDbEntity
  8
GAIKEI
  6
Continuous
 62
     1
100
AcDbSpline
210
0.0
220
0.0
230
1.0
 70
     8
 71
     3
 72
     9
 73
     5
 74
     3
 42
0.0000000001
 43
0.0000000001
 44
0.000001
 12
0.9070335710837987
 22
0.421058310601954
 32
0.0
 13
0.8399984846953371
 23
0.5425887445474127
 33
0.0
 40
0.0
 40
0.0
 40
0.0
 40
0.0
 40
0.0167742836438133
 40
0.0360144861109719
 40
0.0360144861109719
 40
0.0360144861109719
 40
0.0360144861109719
 10
42.84090529841094
 20
16.57235397544386
 30
0.0
 10
42.84597691120954
 20
16.57470829262141
 30
0.0
 10
42.85667771524553
 20
16.58017179322382
 30
0.0
 10
42.86699540739535
 20
16.58633019103087
 30
0.0
 10
42.8723826543679
 20
16.58981003013136
 30
0.0
 11
42.84090529841094
 21
16.57235397544386
 31
0.0
 11
42.8558615141799
 21
16.57994936999566
 31
0.0
 11
42.8723826543679
 21
16.58981003013136
 31
0.0
  0
SPLINE
  5
1D4
330
2
100
AcDbEntity
  8
GAIKEI
  6
Continuous
 62
     1
100
AcDbSpline
210
0.0
220
0.0
230
1.0
 70
     8
 71
     3
 72
     9
 73
     5
 74
     3
 42
0.0000000001
 43
0.0000000001
 44
0.000001
 12
0.9999999993791853
 22
-0.0000352367603293
 32
0.0
 13
0.9999999364127145
 23
-0.0003566154330875
 33
0.0
 40
0.0
 40
0.0
 40
0.0
 40
0.0
 40
0.0161603350744067
 40
0.0274217730175774
 40
0.0274217730175774
 40
0.0274217730175774
 40
0.0274217730175774
 10
42.62139541071562
 20
17.79845260825638
 30
0.0
 10
42.62678218907041
 20
17.79845241844376
 30
0.0
 10
42.63590974959479
 20
17.79772673990715
 30
0.0
 10
42.64496398600193
 20
17.79615902504892
 30
0.0
 10
42.64871779841096
 20
17.7961576863814
 30
0.0
 11
42.62139541071562
 21
17.79845260825638
 31
0.0
 11
42.6375149944117
 21
17.797305652358
 31
0.0
 11
42.64871779841096
 21
17.7961576863814
 31
0.0
  0
SPLINE
  5
1D5
330
2
100
AcDbEntity
  8
GAIKEI
  6
Continuous
100
AcDbSpline
210
0.0
220
0.0
230
1.0
 70
     8
 71
     3
 72
     9
 73
     5
 74
     3
 42
0.0000000001
 43
0.0000000001
 44
0.000001
 12
0.4735930250987968
 22
0.8807438030311484
 32
0.0
 13
0.0259809635691539
 23
0.9996624377918868
 33
0.0
 40
0.0
 40
0.0
 40
0.0
 40
0.0
 40
0.0001031924152884
 40
0.0002079496049655
 40
0.0002079496049655
 40
0.0002079496049655
 40
0.0002079496049655
 10
42.69522200983672
 20
13.2280424520064
 30
0.0
 10
42.69523830023944
 20
13.22807274736649
 30
0.0
 10
42.69527069170379
 20
13.22813401743815
 30
0.0
 10
42.69528824127767
 20
13.22820285723048
 30
0.0
 10
42.69528914850858
 20
13.22823776450636
 30
0.0
 11
42.69522200983672
 21
13.2280424520064
 31
0.0
 11
42.69526723693505
 21
13.22813452433146
 31
0.0
 11
42.69528914850858
 21
13.22823776450636
 31
0.0
  0
SPLINE
  5
1D6
330
2
100
AcDbEntity
  8
GAIKEI
  6
Continuous
 62
     1
100
AcDbSpline
210
0.0
220
0.0
230
1.0
 70
     8
 71
     3
 72
    11
 73
     7
 74
     5
 42
0.0000000001
 43
0.0000000001
 44
0.000001
 12
0.6062094009821455
 22
0.7953050748994805
 32
0.0
 13
-0.9396359662936335
 23
-0.3421757601692874
 33
0.0
 40
0.0
 40
0.0
 40
0.0
 40
0.0
 40
0.0406408705523487
 40
0.0742980625665844
 40
0.0892834974314867
 40
0.1083289965229143
 40
0.1083289965229143
 40
0.1083289965229143
 40
0.1083289965229143
 10
42.81865645807883
 20
16.38522018638136
 30
0.0
 10
42.82686875067648
 20
16.39599414991423
 30
0.0
 10
42.83817959033846
 20
16.4145767828503
 30
0.0
 10
42.85889505243889
 20
16.44828808409269
 30
0.0
 10
42.83580449329803
 20
16.46305721077414
 30
0.0
 10
42.82462173672627
 20
16.4578758875287
 30
0.0
 10
42.81865645807883
 20
16.4557035848189
 30
0.0
 11
42.81865645807883
 21
16.38522018638136
 31
0.0
 11
42.84101703402305
 21
16.41915636208537
 31
0.0
 11
42.84988051813743
 21
16.45162643638136
 31
0.0
 11
42.83727299948563
 21
16.45972737693992
 31
0.0
 11
42.81865645807883
 21
16.4557035848189
 31
0.0
  0
SPLINE
  5
1D7
330
2
100
AcDbEntity
  8
GAIKEI
  6
Continuous
 62
     1
100
AcDbSpline
210
0.0
220
0.0
230
1.0
 70
     8
 71
     3
 72
     9
 73
     5
 74
     3
 42
0.0000000001
 43
0.0000000001
 44
0.000001
 12
0.3585841896350068
 22
0.9334973909678621
 32
0.0
 13
0.7586142778864922
 23
0.6515400044408296
 33
0.0
 40
0.0
 40
0.0
 40
0.0
 40
0.0
 40
0.0179919007400368
 40
0.0360065758307801
 40
0.0360065758307801
 40
0.0360065758307801
 40
0.0360065758307801
 10
42.72990218561804
 20
16.39652389731887
 30
0.0
 10
42.73205272266699
 20
16.402122361452
 30
0.0
 10
42.73780737733527
 20
16.41281078253536
 30
0.0
 10
42.74595073191065
 20
16.42181068890602
 30
0.0
 10
42.75050612848909
 20
16.42572311606889
 30
0.0
 11
42.72990218561804
 21
16.39652389731887
 31
0.0
 11
42.73840110239293
 21
16.41238210049155
 31
0.0
 11
42.75050612848909
 21
16.42572311606889
 31
0.0
  0
SPLINE
  5
1D8
330
2
100
AcDbEntity
  8
GAIKEI
  6
Continuous
 62
     1
100
AcDbSpline
210
0.0
220
0.0
230
1.0
 70
     8
 71
     3
 72
     9
 73
     5
 74
     3
 42
0.0000000001
 43
0.0000000001
 44
0.000001
 12
-0.0149599561561743
 22
-0.9998880935943809
 32
0.0
 13
0.9397895353082546
 23
0.3417537553928196
 33
0.0
 40
0.0
 40
0.0
 40
0.0
 40
0.0
 40
0.0548407234813615
 40
0.0722917377796988
 40
0.0722917377796988
 40
0.0722917377796988
 40
0.0722917377796988
 10
42.76790114802023
 20
16.5110014363814
 30
0.0
 10
42.76762767641393
 20
16.49272324089702
 30
0.0
 10
42.76996106831028
 20
16.47976244969626
 30
0.0
 10
42.76847839416187
 20
16.43745583596993
 30
0.0
 10
42.77394515436791
 20
16.43944381919388
 30
0.0
 11
42.76790114802023
 21
16.5110014363814
 31
0.0
 11
42.76897223585004
 21
16.45617208799044
 31
0.0
 11
42.77394515436791
 21
16.43944381919388
 31
0.0
  0
SPLINE
  5
1D9
330
2
100
AcDbEntity
  8
GAIKEI
  6
Continuous
 62
     1
100
AcDbSpline
210
0.0
220
0.0
230
1.0
 70
     8
 71
     3
 72
     9
 73
     5
 74
     3
 42
0.0000000001
 43
0.0000000001
 44
0.000001
 12
0.0000113237978235
 22
0.9999999999358857
 32
0.0
 13
0.9495162044764233
 23
0.3137179902981129
 33
0.0
 40
0.0
 40
0.0
 40
0.0
 40
0.0
 40
0.0308435205577715
 40
0.0678536025458698
 40
0.0678536025458698
 40
0.0678536025458698
 40
0.0678536025458698
 10
42.72459823053984
 20
16.46283249106889
 30
0.0
 10
42.72459834696177
 20
16.47311366458749
 30
0.0
 10
42.73565305960578
 20
16.49549783397032
 30
0.0
 10
42.75618725716133
 20
16.50713119353403
 30
0.0
 10
42.76790114802023
 20
16.5110014363814
 30
0.0
 11
42.72459823053984
 21
16.46283249106889
 31
0.0
 11
42.73660766208664
 21
16.49124299582726
 31
0.0
 11
42.76790114802023
 21
16.5110014363814
 31
0.0
  0
SPLINE
  5
1DA
330
2
100
AcDbEntity
  8
GAIKEI
  6
Continuous
 62
     1
100
AcDbSpline
210
0.0
220
0.0
230
1.0
 70
     8
 71
     3
 72
     9
 73
     5
 74
     3
 42
0.0000000001
 43
0.0000000001
 44
0.000001
 12
0.0575952689859579
 22
-0.9983400147196521
 32
0.0
 13
-0.942316579022203
 23
-0.3347229673922785
 33
0.0
 40
0.0
 40
0.0
 40
0.0
 40
0.0
 40
0.056082119621389
 40
0.0877960134398312
 40
0.0877960134398312
 40
0.0877960134398312
 40
0.0877960134398312
 10
42.84081679743437
 20
16.53753952231889
 30
0.0
 10
42.84189348568934
 20
16.51887651427611
 30
0.0
 10
42.84298267355466
 20
16.49080474570877
 30
0.0
 10
42.82861796738899
 20
16.4592420410344
 30
0.0
 10
42.81865645807883
 20
16.4557035848189
 30
0.0
 11
42.84081679743437
 21
16.53753952231889
 31
0.0
 11
42.83697903689651
 21
16.48158983659627
 31
0.0
 11
42.81865645807883
 21
16.4557035848189
 31
0.0
  0
SPLINE
  5
1DB
330
2
100
AcDbEntity
  8
GAIKEI
  6
Continuous
 62
     1
100
AcDbSpline
210
0.0
220
0.0
230
1.0
 70
     8
 71
     3
 72
    11
 73
     7
 74
     5
 42
0.0000000001
 43
0.0000000001
 44
0.000001
 12
0.9496676132627516
 22
0.3132593563165015
 32
0.0
 13
-0.0006095040085248
 23
0.9999998142524145
 33
0.0
 40
0.0
 40
0.0
 40
0.0
 40
0.0
 40
0.0702847155108609
 40
0.1373751091374725
 40
0.1980510165866838
 40
0.2524457670726444
 40
0.2524457670726444
 40
0.2524457670726444
 40
0.2524457670726444
 10
42.84081679743437
 20
16.53753952231889
 30
0.0
 10
42.86306583677705
 20
16.54487863723216
 30
0.0
 10
42.9051518220519
 20
16.56399373081032
 30
0.0
 10
42.957634502317
 20
16.60549542805663
 30
0.0
 10
42.99145707464449
 20
16.65736508356164
 30
0.0
 10
42.99960775593376
 20
16.69599485625397
 30
0.0
 10
42.99959670466094
 20
16.7141264363814
 30
0.0
 11
42.84081679743437
 21
16.53753952231889
 31
0.0
 11
42.90464246135863
 21
16.56696914207819
 31
0.0
 11
42.95653945368431
 21
16.60948776450638
 31
0.0
 11
42.98894880616197
 21
16.66078302390437
 31
0.0
 11
42.99959670466094
 21
16.7141264363814
 31
0.0
  0
SPLINE
  5
1DC
330
2
100
AcDbEntity
  8
GAIKEI
  6
Continuous
 62
     1
100
AcDbSpline
210
0.0
220
0.0
230
1.0
 70
     8
 71
     3
 72
     9
 73
     5
 74
     3
 42
0.0000000001
 43
0.0000000001
 44
0.000001
 12
-0.9399821002609511
 22
-0.3412237553116884
 32
0.0
 13
0.3058514787188821
 23
-0.9520792367053665
 33
0.0
 40
0.0
 40
0.0
 40
0.0
 40
0.0
 40
0.0251791174283504
 40
0.0726432870300763
 40
0.0726432870300763
 40
0.0726432870300763
 40
0.0726432870300763
 10
42.77394515436791
 20
16.43944381919388
 30
0.0
 10
42.76605584780689
 20
16.43657991485909
 30
0.0
 10
42.76425134850105
 20
16.40439129634021
 30
0.0
 10
42.76910615888162
 20
16.38402363754483
 30
0.0
 10
42.77394515436791
 20
16.36896042075639
 30
0.0
 11
42.77394515436791
 21
16.43944381919388
 31
0.0
 11
42.76560548108719
 21
16.41568523418786
 31
0.0
 11
42.77394515436791
 21
16.36896042075639
 31
0.0
  0
SPLINE
  5
1DD
330
2
100
AcDbEntity
  8
GAIKEI
  6
Continuous
 62
     1
100
AcDbSpline
210
0.0
220
0.0
230
1.0
 70
     8
 71
     3
 72
     9
 73
     5
 74
     3
 42
0.0000000001
 43
0.0000000001
 44
0.000001
 12
0.0746711712063641
 22
0.9972082110525716
 32
0.0
 13
-0.0746711675037705
 23
0.9972082113298226
 33
0.0
 40
0.0
 40
0.0
 40
0.0
 40
0.0
 40
0.153278757108425
 40
0.3293581357383996
 40
0.3293581357383996
 40
0.3293581357383996
 40
0.3293581357383996
 10
42.71453963678985
 20
17.25887741294386
 30
0.0
 10
42.71835480489463
 20
17.30982769133334
 30
0.0
 10
42.72145480430411
 20
17.41964980838011
 30
0.0
 10
42.71892232104839
 20
17.52952295022615
 30
0.0
 10
42.71453963678985
 20
17.58805221763137
 30
0.0
 11
42.71453963678985
 21
17.25887741294386
 31
0.0
 11
42.72001929145957
 21
17.41205815520769
 31
0.0
 11
42.71453963678985
 21
17.58805221763137
 31
0.0
  0
SPLINE
  5
1DE
330
2
100
AcDbEntity
  8
GAIKEI
  6
Continuous
 62
     1
100
AcDbSpline
210
0.0
220
0.0
230
1.0
 70
     8
 71
     3
 72
     9
 73
     5
 74
     3
 42
0.0000000001
 43
0.0000000001
 44
0.000001
 12
0.0776806296407132
 22
0.9969782945373598
 32
0.0
 13
-0.0775981689672212
 23
0.9969847161180229
 33
0.0
 40
0.0
 40
0.0
 40
0.0
 40
0.0
 40
0.1793447788253021
 40
0.3586916076347431
 40
0.3586916076347431
 40
0.3586916076347431
 40
0.3586916076347431
 10
42.72045546930937
 20
17.24422897544386
 30
0.0
 10
42.72509934109002
 20
17.30382992601966
 30
0.0
 10
42.72837286734194
 20
17.42346466408761
 30
0.0
 10
42.72509446448459
 20
17.54309863939562
 30
0.0
 10
42.72045546930937
 20
17.60270065513137
 30
0.0
 11
42.72045546930937
 21
17.24422897544386
 31
0.0
 11
42.72673388507857
 21
17.42346379008776
 31
0.0
 11
42.72045546930937
 21
17.60270065513137
 31
0.0
  0
SPLINE
  5
1DF
330
2
100
AcDbEntity
  8
GAIKEI
  6
Continuous
 62
     1
100
AcDbSpline
210
0.0
220
0.0
230
1.0
 70
     8
 71
     3
 72
    23
 73
    19
 74
    17
 42
0.0000000001
 43
0.0000000001
 44
0.000001
 12
-0.2289996375999708
 22
0.9734265077442067
 32
0.0
 13
-0.9781583672441666
 23
0.2078610319185067
 33
0.0
 40
0.0
 40
0.0
 40
0.0
 40
0.0
 40
0.0116939007289234
 40
0.022769961066612
 40
0.0332416562571769
 40
0.0431229724815487
 40
0.0524296382610928
 40
0.0611795158950438
 40
0.0693930856571137
 40
0.0770940390320231
 40
0.0843099928012025
 40
0.0910733227831875
 40
0.0974220880576136
 40
0.1034009658827723
 40
0.1090620398849726
 40
0.1144651896621403
 40
0.1196777606090859
 40
0.1247724334445524
 40
0.1247724334445524
 40
0.1247724334445524
 40
0.1247724334445524
 10
41.80720375377197
 20
37.96396082596923
 30
0.0
 10
41.80631112076229
 20
37.96775521028539
 30
0.0
 10
41.80447388349657
 20
37.97512075670866
 30
0.0
 10
41.80146669899278
 20
37.98578729582866
 30
0.0
 10
41.79829031178238
 20
37.99577274786447
 30
0.0
 10
41.79494955547475
 20
38.00508035511544
 30
0.0
 10
41.79144966250892
 20
38.01371333484826
 30
0.0
 10
41.78779568939812
 20
38.0216748812073
 30
0.0
 10
41.78399259659719
 20
38.02896822485727
 30
0.0
 10
41.78004517648189
 20
38.03559658706698
 30
0.0
 10
41.77595801302767
 20
38.04156312770079
 30
0.0
 10
41.7717354351838
 20
38.04687084282688
 30
0.0
 10
41.76738152871666
 20
38.05152241367969
 30
0.0
 10
41.76290016955718
 20
38.05551998132651
 30
0.0
 10
41.75829543849919
 20
38.05886499132785
 30
0.0
 10
41.7535714523463
 20
38.0615579084546
 30
0.0
 10
41.74873527568387
 20
38.06359902150635
 30
0.0
 10
41.74541677249528
 20
38.06453027766793
 30
0.0
 10
41.7437556402078
 20
38.06488327231889
 30
0.0
 11
41.80720375377197
 21
37.96396082596923
 31
0.0
 11
41.80436516533674
 21
37.97530402322641
 31
0.0
 11
41.80135154418738
 21
37.98596221330203
 31
0.0
 11
41.79816819965802
 21
37.9959383107533
 31
0.0
 11
41.79482044108286
 21
38.00523523013735
 31
0.0
 11
41.79131357779565
 21
38.01385588601144
 31
0.0
 11
41.78765291913069
 21
38.02180319293271
 31
0.0
 11
41.78384377442225
 21
38.02908006545832
 31
0.0
 11
41.77989145300424
 21
38.03568941814544
 31
0.0
 11
41.77580126421091
 21
38.0416341655513
 31
0.0
 11
41.77157851737584
 21
38.04691722223302
 31
0.0
 11
41.76722852183385
 21
38.05154150274783
 31
0.0
 11
41.76275658691847
 21
38.05550992165283
 31
0.0
 11
41.75816802196428
 21
38.05882539350532
 31
0.0
 11
41.7534681363048
 21
38.06149083286229
 31
0.0
 11
41.7486622392748
 21
38.06350915428115
 31
0.0
 11
41.7437556402078
 21
38.06488327231889
 31
0.0
  0
SPLINE
  5
1E0
330
2
100
AcDbEntity
  8
GAIKEI
  6
Continuous
 62
     1
100
AcDbSpline
210
0.0
220
0.0
230
1.0
 70
     8
 71
     3
 72
     9
 73
     5
 74
     3
 42
0.0000000001
 43
0.0000000001
 44
0.000001
 12
0.1993298990089915
 22
0.9799324422433748
 32
0.0
 13
0.1209459382413001
 23
0.9926590955725595
 33
0.0
 40
0.0
 40
0.0
 40
0.0
 40
0.0
 40
0.1809630845556675
 40
0.3644278195890174
 40
0.3644278195890174
 40
0.3644278195890174
 40
0.3644278195890174
 10
41.7437556402078
 20
37.06229538169387
 30
0.0
 10
41.75577942466408
 20
37.12140591416204
 30
0.0
 10
41.77757270679214
 20
37.24094440114587
 30
0.0
 10
41.79486552656501
 20
37.36122003118487
 30
0.0
 10
41.80226196473594
 20
37.42192601050076
 30
0.0
 11
41.7437556402078
 21
37.06229538169387
 31
0.0
 11
41.7763123931642
 21
37.24030572407955
 31
0.0
 11
41.80226196473594
 21
37.42192601050076
 31
0.0
  0
SPLINE
  5
1E1
330
2
100
AcDbEntity
  8
GAIKEI
  6
Continuous
 62
     1
100
AcDbSpline
210
0.0
220
0.0
230
1.0
 70
     8
 71
     3
 72
    23
 73
    19
 74
    17
 42
0.0000000001
 43
0.0000000001
 44
0.000001
 12
-0.1327363516859639
 22
-0.9911513814453876
 32
0.0
 13
-0.0048586625128141
 23
-0.9999881966296335
 33
0.0
 40
0.0
 40
0.0
 40
0.0
 40
0.0
 40
0.022796480476338
 40
0.0449318387249759
 40
0.0663338159538042
 40
0.0869299866634895
 40
0.1066478450112636
 40
0.1254148238887609
 40
0.1431583162088141
 40
0.1598057005278285
 40
0.1752843744663701
 40
0.1895218019682179
 40
0.2024455856535055
 40
0.2139835868039749
 40
0.224064142078862
 40
0.2326164958200639
 40
0.2395717788525066
 40
0.2448655879478953
 40
0.2448655879478953
 40
0.2448655879478953
 40
0.2448655879478953
 10
41.04673949520164
 20
37.46005943649775
 30
0.0
 10
41.04573085465175
 20
37.45252784879233
 30
0.0
 10
41.04371514244704
 20
37.43768679668594
 30
0.0
 10
41.04067356405789
 20
37.41578569335274
 30
0.0
 10
41.03767599099408
 20
37.3946190368969
 30
0.0
 10
41.03474750897674
 20
37.37425652837738
 30
0.0
 10
41.03191208957336
 20
37.35476803833439
 30
0.0
 10
41.0291939674956
 20
37.33622340191403
 30
0.0
 10
41.0266172812755
 20
37.31869246520219
 30
0.0
 10
41.02420614760288
 20
37.30224507265447
 30
0.0
 10
41.0219846216249
 20
37.28695107148738
 30
0.0
 10
41.01997665613611
 20
37.27288030087985
 30
0.0
 10
41.01820607361583
 20
37.26010261146345
 30
0.0
 10
41.01669633350384
 20
37.24868776652872
 30
0.0
 10
41.01547065661191
 20
37.23870565111596
 30
0.0
 10
41.01455040454605
 20
37.2302253420724
 30
0.0
 10
41.01395697469809
 20
37.22331683543453
 30
0.0
 10
41.01375780512706
 20
37.21923574514742
 30
0.0
 10
41.01374923151647
 20
37.2174711629439
 30
0.0
 11
41.04673949520164
 21
37.46005943649775
 31
0.0
 11
41.04367501885119
 21
37.43746993960642
 31
0.0
 11
41.04063095241653
 21
37.41554489201926
 31
0.0
 11
41.03763156762588
 21
37.39435413259375
 31
0.0
 11
41.03470113620827
 21
37.37396750018738
 31
0.0
 11
41.03186392989218
 21
37.35445483365769
 31
0.0
 11
41.02914422040626
 21
37.33588597186221
 31
0.0
 11
41.02656627947928
 21
37.3183307536585
 31
0.0
 11
41.02415437883993
 21
37.30185901790404
 31
0.0
 11
41.02193279021659
 21
37.28654060345636
 31
0.0
 11
41.0199257853383
 21
37.2724453491729
 31
0.0
 11
41.01815763593347
 21
37.25964309391131
 31
0.0
 11
41.01665261373105
 21
37.24820367652907
 31
0.0
 11
41.01543499045933
 21
37.23819693588368
 31
0.0
 11
41.01452903784715
 21
37.22969271083267
 31
0.0
 11
41.01395902762337
 21
37.22276084023358
 31
0.0
 11
41.01374923151647
 21
37.2174711629439
 31
0.0
  0
SPLINE
  5
1E2
330
2
100
AcDbEntity
  8
GAIKEI
  6
Continuous
 62
     1
100
AcDbSpline
210
0.0
220
0.0
230
1.0
 70
     8
 71
     3
 72
    11
 73
     7
 74
     5
 42
0.0000000001
 43
0.0000000001
 44
0.000001
 12
0.9779837734385242
 22
-0.2086809499953101
 32
0.0
 13
0.2104055811528763
 23
-0.9776141833155451
 33
0.0
 40
0.0
 40
0.0
 40
0.0
 40
0.0
 40
0.0141195454353476
 40
0.0612119679437588
 40
0.0854423976541352
 40
0.1133769239909463
 40
0.1133769239909463
 40
0.1133769239909463
 40
0.1133769239909463
 10
41.01374923151647
 20
38.22005905356886
 30
0.0
 10
41.01835212695783
 20
38.21907689351721
 30
0.0
 10
41.03547959648413
 20
38.20608822464254
 30
0.0
 10
41.04890938635387
 20
38.18023887884695
 30
0.0
 10
41.0594235058474
 20
38.14891445377026
 30
0.0
 10
41.06357479132904
 20
38.13199312523975
 30
0.0
 10
41.06553398474509
 20
38.12289006218938
 30
0.0
 11
41.01374923151647
 21
38.22005905356886
 31
0.0
 11
41.02585405644683
 21
38.21278956483397
 31
0.0
 11
41.05090896052033
 21
38.17291549888139
 31
0.0
 11
41.05873430118745
 21
38.14998349804339
 31
0.0
 11
41.06553398474509
 21
38.12289006218938
 31
0.0
  0
LINE
  5
1E3
330
2
100
AcDbEntity
  8
GAIKEI
  6
Continuous
100
AcDbLine
 10
42.64870643779821
 20
37.68755360286727
 30
0.0
 11
42.65611843779825
 21
37.63481660286729
 31
0.0
  0
LINE
  5
1E4
330
2
100
AcDbEntity
  8
GAIKEI
  6
Continuous
 62
     1
100
AcDbLine
 10
41.4295984377982
 20
37.43493960286727
 30
0.0
 11
41.4295984377982
 21
37.21747110286728
 31
0.0
  0
LINE
  5
1E5
330
2
100
AcDbEntity
  8
GAIKEI
  6
Continuous
 62
     1
100
AcDbLine
 10
41.4295984377982
 20
37.21747110286728
 30
0.0
 11
41.4295984377982
 21
33.31871610286729
 31
0.0
  0
LINE
  5
1E6
330
2
100
AcDbEntity
  8
GAIKEI
  6
Continuous
 62
     1
100
AcDbLine
 10
42.47000243779822
 20
31.20846260286729
 30
0.0
 11
42.61369143779816
 21
31.20846260286729
 31
0.0
  0
LINE
  5
1E7
330
2
100
AcDbEntity
  8
GAIKEI
  6
Continuous
 62
     1
100
AcDbLine
 10
42.47000243779822
 20
31.20846260286729
 30
0.0
 11
42.43357043779818
 21
31.20846260286729
 31
0.0
  0
LINE
  5
1E8
330
2
100
AcDbEntity
  8
GAIKEI
  6
Continuous
 62
     1
100
AcDbLine
 10
42.61364393779823
 20
31.20846260286729
 30
0.0
 11
42.62139693779826
 21
31.20846260286729
 31
0.0
  0
LINE
  5
1E9
330
2
100
AcDbEntity
  8
GAIKEI
  6
Continuous
 62
     1
100
AcDbLine
 10
42.43357043779818
 20
30.45846260286729
 30
0.0
 11
42.47000243779822
 21
30.45846260286729
 31
0.0
  0
LINE
  5
1EA
330
2
100
AcDbEntity
  8
GAIKEI
  6
Continuous
 62
     1
100
AcDbLine
 10
42.47000243779822
 20
30.45846260286729
 30
0.0
 11
42.61371393779822
 21
30.45846260286729
 31
0.0
  0
LINE
  5
1EB
330
2
100
AcDbEntity
  8
GAIKEI
  6
Continuous
 62
     1
100
AcDbLine
 10
42.62139693779826
 20
30.45846260286729
 30
0.0
 11
42.61364843779822
 21
30.45846260286729
 31
0.0
  0
LINE
  5
1EC
330
2
100
AcDbEntity
  8
GAIKEI
  6
Continuous
 62
     7
100
AcDbLine
 10
40.92781343779828
 20
38.23832360286733
 30
0.0
 11
41.01374793779823
 21
38.22005810286729
 31
0.0
  0
LINE
  5
1ED
330
2
100
AcDbEntity
  8
GAIKEI
  6
Continuous
 62
     1
100
AcDbLine
 10
41.01374943779823
 20
38.2200741028673
 30
0.0
 11
41.01399343779823
 21
38.22002010286733
 31
0.0
  0
LINE
  5
1EE
330
2
100
AcDbEntity
  8
GAIKEI
  6
Continuous
100
AcDbLine
 10
41.01398893779824
 20
38.2200046028673
 30
0.0
 11
41.74374793779825
 21
38.06489160286728
 31
0.0
  0
LINE
  5
1EF
330
2
100
AcDbEntity
  8
GAIKEI
  6
Continuous
100
AcDbLine
 10
41.74374793779825
 20
38.06489160286728
 30
0.0
 11
42.43356493779825
 21
37.9182666028673
 31
0.0
  0
ARC
  5
1F0
330
2
100
AcDbEntity
  8
GAIKEI
  6
Continuous
100
AcDbCircle
 10
42.37639443779821
 20
37.64928260286726
 30
0.0
 40
0.275
100
AcDbArc
 50
7.9999990000023
 51
77.99999500000312
  0
LINE
  5
1F1
330
2
100
AcDbEntity
  8
GAIKEI
  6
Continuous
100
AcDbLine
 10
42.70480593779822
 20
31.96847210286731
 30
0.0
 11
42.68231893779821
 21
31.96847210286731
 31
0.0
  0
LINE
  5
1F2
330
2
100
AcDbEntity
  8
GAIKEI
  6
Continuous
 62
     1
100
AcDbLine
 10
42.68407693779827
 20
31.36847210286729
 30
0.0
 11
42.70304993779816
 21
31.36847210286729
 31
0.0
  0
ELLIPSE
  5
1F3
330
2
100
AcDbEntity
  8
GAIKEI
  6
Continuous
 62
     1
100
AcDbEllipse
 10
42.73171793779826
 20
30.83346260286729
 30
0.0
 11
-0.0000000000000001
 21
-0.2049999237060547
 31
0.0
210
0.0
220
0.0
230
1.0
 40
0.140541
 41
0.0
 42
6.283185307179585
  0
LINE
  5
1F4
330
2
100
AcDbEntity
  8
GAIKEI
  6
Continuous
 62
     1
100
AcDbLine
 10
42.68514943779817
 20
30.5084626028673
 30
0.0
 11
42.68514943779817
 21
31.15846260286728
 31
0.0
  0
LINE
  5
1F5
330
2
100
AcDbEntity
  8
GAIKEI
  6
Continuous
 62
     1
100
AcDbLine
 10
42.73073993779823
 20
31.15846260286728
 30
0.0
 11
42.68514943779817
 21
31.15846260286728
 31
0.0
  0
LINE
  5
1F6
330
2
100
AcDbEntity
  8
GAIKEI
  6
Continuous
 62
     1
100
AcDbLine
 10
42.73073993779823
 20
30.5084626028673
 30
0.0
 11
42.68514943779817
 21
30.5084626028673
 31
0.0
  0
LINE
  5
1F7
330
2
100
AcDbEntity
  8
GAIKEI
  6
Continuous
 62
     1
100
AcDbLine
 10
40.94459843779825
 20
37.23215860286732
 30
0.0
 11
41.01374793779823
 21
37.21746010286731
 31
0.0
  0
LINE
  5
1F8
330
2
100
AcDbEntity
  8
GAIKEI
  6
Continuous
 62
     1
100
AcDbLine
 10
41.01375243779822
 20
37.21747110286728
 30
0.0
 11
41.01375243779822
 21
33.31871610286729
 31
0.0
  0
LINE
  5
1F9
330
2
100
AcDbEntity
  8
GAIKEI
  6
Continuous
 62
     1
100
AcDbLine
 10
41.52656693779826
 20
32.44398610286729
 30
0.0
 11
41.63211793779825
 21
32.38902810286729
 31
0.0
  0
LINE
  5
1FA
330
2
100
AcDbEntity
  8
GAIKEI
  6
Continuous
 62
     1
100
AcDbLine
 10
42.43357043779818
 20
31.9717191028673
 30
0.0
 11
42.43357043779818
 21
31.20846260286729
 31
0.0
  0
LINE
  5
1FB
330
2
100
AcDbEntity
  8
GAIKEI
  6
Continuous
 62
     1
100
AcDbLine
 10
42.47000243779822
 20
30.45846260286729
 30
0.0
 11
42.47000243779822
 21
31.20846260286729
 31
0.0
  0
LINE
  5
1FC
330
2
100
AcDbEntity
  8
GAIKEI
  6
Continuous
 62
     1
100
AcDbLine
 10
42.25133543779825
 20
36.9544026028673
 30
0.0
 11
41.74374943779818
 21
37.0622936028673
 31
0.0
  0
LINE
  5
1FD
330
2
100
AcDbEntity
  8
GAIKEI
  6
Continuous
 62
     1
100
AcDbLine
 10
41.74375193779823
 20
37.06229860286729
 30
0.0
 11
41.80261493779821
 21
33.4561626028673
 31
0.0
  0
LINE
  5
1FE
330
2
100
AcDbEntity
  8
GAIKEI
  6
Continuous
 62
     1
100
AcDbLine
 10
41.80260593779823
 20
33.45615310286732
 30
0.0
 11
42.29753843779824
 21
33.19845210286732
 31
0.0
  0
LINE
  5
1FF
330
2
100
AcDbEntity
  8
GAIKEI
  6
Continuous
 62
     1
100
AcDbLine
 10
42.4534189377982
 20
34.3319281028673
 30
0.0
 11
42.4534189377982
 21
35.48496760286727
 31
0.0
  0
LINE
  5
200
330
2
100
AcDbEntity
  8
GAIKEI
  6
Continuous
 62
     1
100
AcDbLine
 10
41.4295984377982
 20
33.31871610286729
 30
0.0
 11
41.01375243779822
 21
33.31871610286729
 31
0.0
  0
LINE
  5
201
330
2
100
AcDbEntity
  8
GAIKEI
  6
Continuous
 62
     1
100
AcDbLine
 10
42.21584693779826
 20
32.60443860286731
 30
0.0
 11
41.6731829377982
 21
32.88699260286731
 31
0.0
  0
LINE
  5
202
330
2
100
AcDbEntity
  8
GAIKEI
  6
Continuous
 62
     1
100
AcDbLine
 10
42.64871793779824
 20
31.20616760286728
 30
0.0
 11
42.64871793779824
 21
31.9717191028673
 31
0.0
  0
LINE
  5
203
330
2
100
AcDbEntity
  8
GAIKEI
  6
Continuous
 62
     1
100
AcDbLine
 10
42.69607943779826
 20
30.46075710286729
 30
0.0
 11
42.64871793779824
 21
30.46075710286729
 31
0.0
  0
LINE
  5
204
330
2
100
AcDbEntity
  8
GAIKEI
  6
Continuous
 62
     1
100
AcDbLine
 10
42.64871793779824
 20
31.20616760286728
 30
0.0
 11
42.69607943779826
 21
31.20616760286728
 31
0.0
  0
LINE
  5
205
330
2
100
AcDbEntity
  8
GAIKEI
  6
Continuous
 62
     1
100
AcDbLine
 10
42.67307543779824
 20
32.06088610286733
 30
0.0
 11
42.76363643779823
 21
32.1804021028673
 31
0.0
  0
LINE
  5
206
330
2
100
AcDbEntity
  8
GAIKEI
  6
Continuous
 62
     1
100
AcDbLine
 10
42.79865443779826
 20
33.11730010286729
 30
0.0
 11
42.86415643779824
 21
33.11730010286729
 31
0.0
  0
LINE
  5
207
330
2
100
AcDbEntity
  8
GAIKEI
  6
Continuous
 62
     1
100
AcDbLine
 10
41.67317793779822
 20
33.05366060286733
 30
0.0
 11
42.2372359377982
 21
32.75996710286731
 31
0.0
  0
LINE
  5
208
330
2
100
AcDbEntity
  8
GAIKEI
  6
Continuous
 62
     1
100
AcDbLine
 10
41.67318693779819
 20
32.88697810286729
 30
0.0
 11
41.67318693779819
 21
33.05367710286728
 31
0.0
  0
LINE
  5
209
330
2
100
AcDbEntity
  8
GAIKEI
  6
Continuous
 62
     1
100
AcDbLine
 10
42.68407693779827
 20
31.51847210286732
 30
0.0
 11
42.68407693779827
 21
31.36847210286729
 31
0.0
  0
LINE
  5
20A
330
2
100
AcDbEntity
  8
GAIKEI
  6
Continuous
 62
     1
100
AcDbLine
 10
42.70304993779816
 20
31.36847210286729
 30
0.0
 11
42.70304993779816
 21
31.51847210286732
 31
0.0
  0
LINE
  5
20B
330
2
100
AcDbEntity
  8
GAIKEI
  6
Continuous
 62
     1
100
AcDbLine
 10
42.70304943779822
 20
31.51847660286725
 30
0.0
 11
42.70480593779822
 21
31.61846110286731
 31
0.0
  0
LINE
  5
20C
330
2
100
AcDbEntity
  8
GAIKEI
  6
Continuous
 62
     1
100
AcDbLine
 10
42.70480593779822
 20
31.61847210286729
 30
0.0
 11
42.70480593779822
 21
31.96847210286731
 31
0.0
  0
LINE
  5
20D
330
2
100
AcDbEntity
  8
GAIKEI
  6
Continuous
 62
     1
100
AcDbLine
 10
42.68231893779821
 20
31.96847210286731
 30
0.0
 11
42.68231893779821
 21
31.61847210286729
 31
0.0
  0
LINE
  5
20E
330
2
100
AcDbEntity
  8
GAIKEI
  6
Continuous
 62
     1
100
AcDbLine
 10
42.68231943779821
 20
31.61845660286727
 30
0.0
 11
42.68407593779826
 21
31.51847210286732
 31
0.0
  0
LINE
  5
20F
330
2
100
AcDbEntity
  8
GAIKEI
  6
Continuous
 62
     1
100
AcDbLine
 10
42.68232243779826
 20
31.61847210286729
 30
0.0
 11
42.70480593779822
 21
31.61847210286729
 31
0.0
  0
LINE
  5
210
330
2
100
AcDbEntity
  8
GAIKEI
  6
Continuous
 62
     1
100
AcDbLine
 10
42.68407693779827
 20
31.51847210286732
 30
0.0
 11
42.70304993779816
 21
31.51847210286732
 31
0.0
  0
SPLINE
  5
211
330
2
100
AcDbEntity
  8
GAIKEI
  6
Continuous
100
AcDbSpline
210
0.0
220
0.0
230
1.0
 70
     8
 71
     3
 72
     9
 73
     5
 74
     3
 42
0.0000000001
 43
0.0000000001
 44
0.000001
 12
0.6817781052028194
 22
-0.7315590306093238
 32
0.0
 13
0.9781476741888049
 23
-0.2079113452388582
 33
0.0
 40
0.0
 40
0.0
 40
0.0
 40
0.0
 40
0.0706421812361751
 40
0.1375054895056865
 40
0.1375054895056865
 40
0.1375054895056865
 40
0.1375054895056865
 10
40.80959823053993
 20
38.30545312623227
 30
0.0
 10
40.82565232803013
 20
38.28822681769052
 30
0.0
 10
40.86251631664663
 20
38.25961283475186
 30
0.0
 10
40.90601710520782
 20
38.24295465244203
 30
0.0
 10
40.92781783503196
 20
38.23832077231887
 30
0.0
 11
40.80959823053993
 21
38.30545312623227
 31
0.0
 11
40.86528139984304
 21
38.26198290172491
 31
0.0
 11
40.92781783503196
 21
38.23832077231887
 31
0.0
  0
SPLINE
  5
212
330
2
100
AcDbEntity
  8
GAIKEI
  6
Continuous
 62
     1
100
AcDbSpline
210
0.0
220
0.0
230
1.0
 70
     8
 71
     3
 72
     9
 73
     5
 74
     3
 42
0.0000000001
 43
0.0000000001
 44
0.000001
 12
0.0000109810031928
 22
-0.9999999999397088
 32
0.0
 13
0.0355449052590373
 23
-0.9993680801937424
 33
0.0
 40
0.0
 40
0.0
 40
0.0
 40
0.0
 40
0.0245633524629562
 40
0.050302655773261
 40
0.050302655773261
 40
0.050302655773261
 40
0.050302655773261
 10
42.70290633600851
 20
30.83346237388136
 30
0.0
 10
42.70290642591859
 20
30.82527458972754
 30
0.0
 10
42.70304552365174
 20
30.80850674459146
 30
0.0
 10
42.70348180110492
 20
30.79174375117629
 30
0.0
 10
42.70378676813746
 20
30.78316940513136
 30
0.0
 11
42.70290633600851
 21
30.83346237388136
 31
0.0
 11
42.70311413026488
 21
30.80889997553712
 31
0.0
 11
42.70378676813746
 21
30.78316940513136
 31
0.0
  0
SPLINE
  5
213
330
2
100
AcDbEntity
  8
GAIKEI
  6
Continuous
 62
     1
100
AcDbSpline
210
0.0
220
0.0
230
1.0
 70
     8
 71
     3
 72
     9
 73
     5
 74
     3
 42
0.0000000001
 43
0.0000000001
 44
0.000001
 12
0.0453297604757656
 22
-0.9989720780958844
 32
0.0
 13
0.1003260632803439
 23
-0.9949546125460541
 33
0.0
 40
0.0
 40
0.0
 40
0.0
 40
0.0
 40
0.0287558432284917
 40
0.0566656525230136
 40
0.0566656525230136
 40
0.0566656525230136
 40
0.0566656525230136
 10
42.70430098932874
 20
30.77047409263136
 30
0.0
 10
42.70473548782402
 20
30.76089866447558
 30
0.0
 10
42.70580594155411
 20
30.74203856849394
 30
0.0
 10
42.70737458690542
 20
30.72321186910816
 30
0.0
 10
42.70830794733657
 20
30.71395553794386
 30
0.0
 11
42.70430098932874
 21
30.77047409263136
 31
0.0
 11
42.70595120035759
 21
30.74176577177528
 31
0.0
 11
42.70830794733657
 21
30.71395553794386
 31
0.0
  0
SPLINE
  5
214
330
2
100
AcDbEntity
  8
GAIKEI
  6
Continuous
 62
     1
100
AcDbSpline
210
0.0
220
0.0
230
1.0
 70
     8
 71
     3
 72
     9
 73
     5
 74
     3
 42
0.0000000001
 43
0.0000000001
 44
0.000001
 12
0.1310139250780819
 22
-0.9913805280696383
 32
0.0
 13
0.1633163299496091
 23
-0.9865737561742612
 33
0.0
 40
0.0
 40
0.0
 40
0.0
 40
0.0
 40
0.0082089807420087
 40
0.0160176671541709
 40
0.0160176671541709
 40
0.0160176671541709
 40
0.0160176671541709
 10
42.71072799128219
 20
30.69303268638137
 30
0.0
 10
42.71108648821149
 20
30.69031994516038
 30
0.0
 10
42.71182326550472
 20
30.68503157082267
 30
0.0
 10
42.71264664594653
 20
30.67975590818037
 30
0.0
 10
42.71307174128205
 20
30.67718795981889
 30
0.0
 11
42.71072799128219
 21
30.69303268638137
 31
0.0
 11
42.71186475653863
 21
30.68490285199763
 31
0.0
 11
42.71307174128205
 21
30.67718795981889
 31
0.0
  0
SPLINE
  5
215
330
2
100
AcDbEntity
  8
GAIKEI
  6
Continuous
 62
     1
100
AcDbSpline
210
0.0
220
0.0
230
1.0
 70
     8
 71
     3
 72
     9
 73
     5
 74
     3
 42
0.0000000001
 43
0.0000000001
 44
0.000001
 12
-0.1859387165147661
 22
-0.9825613434798061
 32
0.0
 13
-0.1261313848386049
 23
-0.9920135451488027
 33
0.0
 40
0.0
 40
0.0
 40
0.0
 40
0.0
 40
0.0130505208512949
 40
0.0273759797142768
 40
0.0273759797142768
 40
0.0273759797142768
 40
0.0273759797142768
 10
42.71453963678985
 20
30.99803756919389
 30
0.0
 10
42.71373077109086
 20
30.9937632567603
 30
0.0
 10
42.71220975560443
 20
30.98476353160126
 30
0.0
 10
42.71095492172595
 20
30.97572380435472
 30
0.0
 10
42.710352625071
 20
30.97098678794387
 30
0.0
 11
42.71453963678985
 21
30.99803756919389
 31
0.0
 11
42.71234203258254
 21
30.9851732574094
 31
0.0
 11
42.710352625071
 21
30.97098678794387
 31
0.0
  0
SPLINE
  5
216
330
2
100
AcDbEntity
  8
GAIKEI
  6
Continuous
 62
     1
100
AcDbSpline
210
0.0
220
0.0
230
1.0
 70
     8
 71
     3
 72
     9
 73
     5
 74
     3
 42
0.0000000001
 43
0.0000000001
 44
0.000001
 12
-0.105815628239291
 22
-0.9943857666018375
 32
0.0
 13
-0.0571482335949468
 23
-0.9983657042371685
 33
0.0
 40
0.0
 40
0.0
 40
0.0
 40
0.0
 40
0.0228639394764164
 40
0.0465871185610727
 40
0.0465871185610727
 40
0.0465871185610727
 40
0.0465871185610727
 10
42.70874740046159
 20
30.9572172566939
 30
0.0
 10
42.70794094642169
 20
30.94963873136595
 30
0.0
 10
42.70653026191299
 20
30.9341717381478
 30
0.0
 10
42.70548684967616
 20
30.91867651261677
 30
0.0
 10
42.70503493708284
 20
30.91078170981891
 30
0.0
 11
42.70874740046159
 21
30.9572172566939
 31
0.0
 11
42.70664572210708
 21
30.93445000570895
 31
0.0
 11
42.70503493708284
 21
30.91078170981891
 31
0.0
  0
SPLINE
  5
217
330
2
100
AcDbEntity
  8
GAIKEI
  6
Continuous
 62
     1
100
AcDbSpline
210
0.0
220
0.0
230
1.0
 70
     8
 71
     3
 72
     9
 73
     5
 74
     3
 42
0.0000000001
 43
0.0000000001
 44
0.000001
 12
-0.0344846882130546
 22
-0.9994052262615243
 32
0.0
 13
-0.000011308086385
 23
-0.9999999999360635
 33
0.0
 40
0.0
 40
0.0
 40
0.0
 40
0.0
 40
0.0250059004507406
 40
0.0488858411365394
 40
0.0488858411365394
 40
0.0488858411365394
 40
0.0488858411365394
 10
42.70373794001253
 20
30.88233932700641
 30
0.0
 10
42.70345049978568
 20
30.87400898447379
 30
0.0
 10
42.70303815604019
 20
30.85771790578784
 30
0.0
 10
42.70290642602065
 20
30.84142235410946
 30
0.0
 10
42.70290633600851
 20
30.83346237388136
 30
0.0
 11
42.70373794001253
 21
30.88233932700641
 31
0.0
 11
42.70310305347741
 21
30.85734143552068
 31
0.0
 11
42.70290633600851
 21
30.83346237388136
 31
0.0
  0
SPLINE
  5
218
330
2
100
AcDbEntity
  8
GAIKEI
  6
Continuous
 62
     1
100
AcDbSpline
210
0.0
220
0.0
230
1.0
 70
     8
 71
     3
 72
     9
 73
     5
 74
     3
 42
0.0000000001
 43
0.0000000001
 44
0.000001
 12
0.0000125487409394
 22
0.9999999999212645
 32
0.0
 13
-0.2770612615606004
 23
0.9608522557305303
 33
0.0
 40
0.0
 40
0.0
 40
0.0
 40
0.0
 40
0.1015699736226957
 40
0.1852384637154195
 40
0.1852384637154195
 40
0.1852384637154195
 40
0.1852384637154195
 10
42.73528090876246
 20
30.83346237388136
 30
0.0
 10
42.73528133362089
 20
30.86731903175291
 30
0.0
 10
42.73215225065882
 20
30.92881930011927
 30
0.0
 10
42.72682148446432
 20
30.99094203181832
 30
0.0
 10
42.719094385325
 20
31.01773971763137
 30
0.0
 11
42.73528090876246
 21
30.83346237388136
 31
0.0
 11
42.73118694737306
 21
30.93494956937318
 31
0.0
 11
42.719094385325
 21
31.01773971763137
 31
0.0
  0
SPLINE
  5
219
330
2
100
AcDbEntity
  8
GAIKEI
  6
Continuous
 62
     1
100
AcDbSpline
210
0.0
220
0.0
230
1.0
 70
     8
 71
     3
 72
     9
 73
     5
 74
     3
 42
0.0000000001
 43
0.0000000001
 44
0.000001
 12
0.2770614045316148
 22
0.9608522145048992
 32
0.0
 13
-0.0000125488927956
 23
0.9999999999212628
 33
0.0
 40
0.0
 40
0.0
 40
0.0
 40
0.0
 40
0.0836687971072862
 40
0.1852384609453592
 40
0.1852384609453592
 40
0.1852384609453592
 40
0.1852384609453592
 10
42.719094385325
 20
30.64918503013141
 30
0.0
 10
42.72682151680569
 20
30.67598281312658
 30
0.0
 10
42.73215220640253
 20
30.7381055563246
 30
0.0
 10
42.73528133362474
 20
30.79960581927134
 30
0.0
 10
42.73528090876246
 20
30.83346237388136
 30
0.0
 11
42.719094385325
 21
30.64918503013141
 31
0.0
 11
42.73118694960786
 21
30.73197548833375
 31
0.0
 11
42.73528090876246
 21
30.83346237388136
 31
0.0
  0
SPLINE
  5
21A
330
2
100
AcDbEntity
  8
GAIKEI
  6
Continuous
 62
     1
100
AcDbSpline
210
0.0
220
0.0
230
1.0
 70
     8
 71
     3
 72
    11
 73
     7
 74
     5
 42
0.0000000001
 43
0.0000000001
 44
0.000001
 12
0.9999999089378855
 22
0.0004267601443224
 32
0.0
 13
-0.9999999938086544
 23
0.000111277542048
 33
0.0
 40
0.0
 40
0.0
 40
0.0
 40
0.0
 40
0.1018710400961616
 40
0.3348401831194121
 40
0.5619403611231765
 40
0.6613164609901622
 40
0.6613164609901622
 40
0.6613164609901622
 40
0.6613164609901622
 10
42.73073836725851
 20
31.15846237388141
 30
0.0
 10
42.76469537753169
 20
31.15847686538132
 30
0.0
 10
42.75818510371474
 20
30.98796778360693
 30
0.0
 10
42.78907440351367
 20
30.83094332792953
 30
0.0
 10
42.75824828824086
 20
30.67442535949505
 30
0.0
 10
42.76386373367574
 20
30.50845868777199
 30
0.0
 10
42.73073836725851
 20
30.50846237388137
 30
0.0
 11
42.73073836725851
 21
31.15846237388141
 31
0.0
 11
42.7630395862827
 21
31.06184750395548
 31
0.0
 11
42.77641097468048
 21
30.82926315513137
 31
0.0
 11
42.7626315194719
 21
30.60258212366032
 31
0.0
 11
42.73073836725851
 21
30.50846237388137
 31
0.0
  0
SPLINE
  5
21B
330
2
100
AcDbEntity
  8
GAIKEI
  6
Continuous
 62
     1
100
AcDbSpline
210
0.0
220
0.0
230
1.0
 70
     8
 71
     3
 72
     9
 73
     5
 74
     3
 42
0.0000000001
 43
0.0000000001
 44
0.000001
 12
-0.9781402373425818
 22
0.2079463298339211
 32
0.0
 13
-0.0555023426353203
 23
-0.9984585569576694
 33
0.0
 40
0.0
 40
0.0
 40
0.0
 40
0.0
 40
0.0221723887980689
 40
0.0848387938869102
 40
0.0848387938869102
 40
0.0848387938869102
 40
0.0848387938869102
 10
40.92781783503196
 20
38.23832077231887
 30
0.0
 10
40.92058859981816
 20
38.23985766127695
 30
0.0
 10
40.91798749546824
 20
38.19423481479092
 30
0.0
 10
40.91442576643823
 20
38.1763754323587
 30
0.0
 10
40.91326638900923
 20
38.15551882956047
 30
0.0
 11
40.92781783503196
 21
38.23832077231887
 31
0.0
 11
40.91916378274132
 21
38.21790623277249
 31
0.0
 11
40.91326638900923
 21
38.15551882956047
 31
0.0
  0
SPLINE
  5
21C
330
2
100
AcDbEntity
  8
GAIKEI
  6
Continuous
 62
     1
100
AcDbSpline
210
0.0
220
0.0
230
1.0
 70
     8
 71
     3
 72
    11
 73
     7
 74
     5
 42
0.0000000001
 43
0.0000000001
 44
0.000001
 12
0.0000326006820759
 22
-0.9999999994685978
 32
0.0
 13
0.8869632378831427
 23
-0.4618400314436282
 33
0.0
 40
0.0
 40
0.0
 40
0.0
 40
0.0
 40
0.2653420433068494
 40
0.5298449189574162
 40
0.7972337768848058
 40
1.062940425960427
 40
1.062940425960427
 40
1.062940425960427
 40
1.062940425960427
 10
41.01374923151647
 20
33.31871628013138
 30
0.0
 10
41.01375211496034
 20
33.23026893240945
 30
0.0
 10
41.03613264516687
 20
33.05286193514803
 30
0.0
 10
41.13646452942613
 20
32.80344565260282
 30
0.0
 10
41.30178651736239
 20
32.59085338071296
 30
0.0
 10
41.44801232282287
 20
32.48488949054018
 30
0.0
 10
41.5265696660866
 20
32.44398483481891
 30
0.0
 11
41.01374923151647
 21
33.31871628013138
 31
0.0
 11
41.04727733502599
 21
33.05550096478945
 31
0.0
 11
41.14681044977814
 21
32.81043991294391
 31
0.0
 11
41.31112281037039
 21
32.59949388014971
 31
0.0
 11
41.5265696660866
 21
32.44398483481891
 31
0.0
  0
SPLINE
  5
21D
330
2
100
AcDbEntity
  8
GAIKEI
  6
Continuous
 62
     1
100
AcDbSpline
210
0.0
220
0.0
230
1.0
 70
     8
 71
     3
 72
     9
 73
     5
 74
     3
 42
0.0000000001
 43
0.0000000001
 44
0.000001
 12
0.9705136127872762
 22
-0.2410463179444749
 32
0.0
 13
-0.0224174019557706
 23
-0.9997486984685469
 33
0.0
 40
0.0
 40
0.0
 40
0.0
 40
0.0
 40
0.019175078109815
 40
0.0900284956281194
 40
0.0900284956281194
 40
0.0900284956281194
 40
0.0900284956281194
 10
42.43357192438745
 20
37.9182768270064
 30
0.0
 10
42.43977514916473
 20
37.91673613301484
 30
0.0
 10
42.43162429443576
 20
37.87380516275494
 30
0.0
 10
42.43947145706225
 20
37.85220021373723
 30
0.0
 10
42.43894200721544
 20
37.82858834308857
 30
0.0
 11
42.43357192438745
 21
37.9182768270064
 31
0.0
 11
42.437028095224
 21
37.8994152196079
 31
0.0
 11
42.43894200721544
 21
37.82858834308857
 31
0.0
  0
SPLINE
  5
21E
330
2
100
AcDbEntity
  8
GAIKEI
  6
Continuous
 62
     1
100
AcDbSpline
210
0.0
220
0.0
230
1.0
 70
     8
 71
     3
 72
    13
 73
     9
 74
     7
 42
0.0000000001
 43
0.0000000001
 44
0.000001
 12
-0.7788785164531645
 22
0.6271748214076501
 32
0.0
 13
-0.2973529479437953
 23
0.954767628456859
 33
0.0
 40
0.0
 40
0.0
 40
0.0
 40
0.0
 40
0.0534856951313029
 40
0.1056731713253783
 40
0.1192855942342547
 40
0.1480885522495556
 40
0.2886663040047827
 40
0.4517257466145298
 40
0.4517257466145298
 40
0.4517257466145298
 40
0.4517257466145298
 10
41.7437556402078
 20
37.06229538169387
 30
0.0
 10
41.72986935391603
 20
37.07347700879115
 30
0.0
 10
41.70236419196382
 20
37.09548908503015
 30
0.0
 10
41.67124625727668
 20
37.12021898015729
 30
0.0
 10
41.64647712660763
 20
37.13977088929403
 30
0.0
 10
41.60461112660387
 20
37.18455624570328
 30
0.0
 10
41.55404774928252
 20
37.28531135521112
 30
0.0
 10
41.52039477613508
 20
37.38043879571936
 30
0.0
 10
41.50423270748504
 20
37.43233342149202
 30
0.0
 11
41.7437556402078
 21
37.06229538169387
 31
0.0
 11
41.70200974580549
 21
37.09573211443311
 31
0.0
 11
41.66114303034444
 21
37.12818893638141
 31
0.0
 11
41.65059793602941
 21
37.13679702515768
 31
0.0
 11
41.63055831354765
 21
37.15748581138141
 31
0.0
 11
41.56015200645746
 21
37.27916203712798
 31
0.0
 11
41.50423270748504
 21
37.43233342149202
 31
0.0
  0
SPLINE
  5
21F
330
2
100
AcDbEntity
  8
GAIKEI
  6
Continuous
 62
     1
100
AcDbSpline
210
0.0
220
0.0
230
1.0
 70
     8
 71
     3
 72
    11
 73
     7
 74
     5
 42
0.0000000001
 43
0.0000000001
 44
0.000001
 12
0.0001802441902063
 22
-0.9999999837560158
 32
0.0
 13
-0.9801226633020579
 23
0.1983924516751602
 33
0.0
 40
0.0
 40
0.0
 40
0.0
 40
0.0
 40
0.0286543233230286
 40
0.0994111525343256
 40
0.2608058764931735
 40
0.4277649549187315
 40
0.4277649549187315
 40
0.4277649549187315
 40
0.4277649549187315
 10
41.42959548395779
 20
37.2174711629439
 30
0.0
 10
41.42959720554957
 20
37.20791972199137
 30
0.0
 10
41.39545070908304
 20
37.18462720094641
 30
0.0
 10
41.31112894713178
 20
37.18663260004522
 30
0.0
 10
41.17627119950995
 20
37.18910175011842
 30
0.0
 10
41.06829602371944
 20
37.20643002264447
 30
0.0
 10
41.01374923151647
 20
37.2174711629439
 30
0.0
 11
41.42959548395779
 21
37.2174711629439
 31
0.0
 11
41.41007806592338
 21
37.19649099779017
 31
0.0
 11
41.34011794489518
 21
37.18590378013138
 31
0.0
 11
41.17886912172449
 21
37.19276363033694
 31
0.0
 11
41.01374923151647
 21
37.2174711629439
 31
0.0
  0
SPLINE
  5
220
330
2
100
AcDbEntity
  8
GAIKEI
  6
Continuous
 62
     1
100
AcDbSpline
210
0.0
220
0.0
230
1.0
 70
     8
 71
     3
 72
     9
 73
     5
 74
     3
 42
0.0000000001
 43
0.0000000001
 44
0.000001
 12
-0.7079810533174698
 22
0.7062314267600148
 32
0.0
 13
-0.9781102223970357
 23
0.2080874644048063
 33
0.0
 40
0.0
 40
0.0
 40
0.0
 40
0.0
 40
0.1506379115279709
 40
0.301271418392478
 40
0.301271418392478
 40
0.301271418392478
 40
0.301271418392478
 10
41.27584871839988
 20
38.07782261926334
 30
0.0
 10
41.24029912264218
 20
38.11328436165752
 30
0.0
 10
41.15846026101457
 20
38.17410674844072
 30
0.0
 10
41.06286128914969
 20
38.20961073873625
 30
0.0
 10
41.01374923151647
 20
38.22005905356886
 30
0.0
 11
41.27584871839988
 21
38.07782261926334
 31
0.0
 11
41.15501947663026
 21
38.16777869496801
 31
0.0
 11
41.01374923151647
 21
38.22005905356886
 31
0.0
  0
SPLINE
  5
221
330
2
100
AcDbEntity
  8
GAIKEI
  6
Continuous
 62
     1
100
AcDbSpline
210
0.0
220
0.0
230
1.0
 70
     8
 71
     3
 72
    11
 73
     7
 74
     5
 42
0.0000000001
 43
0.0000000001
 44
0.000001
 12
0.1860934066381468
 22
-0.9825320574952298
 32
0.0
 13
-0.4459026031966084
 23
-0.8950814870515912
 33
0.0
 40
0.0
 40
0.0
 40
0.0
 40
0.0
 40
0.0652635300697767
 40
0.1742344308888469
 40
0.316404087036454
 40
0.4703086800425077
 40
0.4703086800425077
 40
0.4703086800425077
 40
0.4703086800425077
 10
41.67318526667273
 20
32.88700241294387
 30
0.0
 10
41.6772336375527
 20
32.86562790945092
 30
0.0
 10
41.66862864911782
 20
32.80649692066149
 30
0.0
 10
41.64057524682507
 20
32.70552611597864
 30
0.0
 10
41.59076649132595
 20
32.57947378261923
 30
0.0
 10
41.54944515230837
 20
32.48990388547623
 30
0.0
 10
41.5265696660866
 20
32.44398483481891
 30
0.0
 11
41.67318526667273
 21
32.88700241294387
 31
0.0
 11
41.66982612249173
 21
32.82182517197615
 31
0.0
 11
41.64189559382103
 21
32.7164946004439
 31
0.0
 11
41.59107577194478
 21
32.58371829547295
 31
0.0
 11
41.5265696660866
 21
32.44398483481891
 31
0.0
  0
SPLINE
  5
222
330
2
100
AcDbEntity
  8
GAIKEI
  6
Continuous
 62
     1
100
AcDbSpline
210
0.0
220
0.0
230
1.0
 70
     8
 71
     3
 72
    11
 73
     7
 74
     5
 42
0.0000000001
 43
0.0000000001
 44
0.000001
 12
0.0000300605268664
 22
-0.9999999995481823
 32
0.0
 13
0.8942980255393621
 23
-0.4474718332100899
 33
0.0
 40
0.0
 40
0.0
 40
0.0
 40
0.0
 40
0.1502550329510101
 40
0.3028759186895784
 40
0.4126887377108816
 40
0.5203387587409666
 40
0.5203387587409666
 40
0.5203387587409666
 40
0.5203387587409666
 10
41.42959548395779
 20
33.31871628013138
 30
0.0
 10
41.42959698953961
 20
33.26863126917036
 30
0.0
 10
41.44248856549316
 20
33.16709516926702
 30
0.0
 10
41.49941573498779
 20
33.0392470925897
 30
0.0
 10
41.58041508833439
 20
32.94457494995569
 30
0.0
 10
41.64109486625391
 20
32.90305919702902
 30
0.0
 10
41.67318526667273
 20
32.88700241294387
 30
0.0
 11
41.42959548395779
 21
33.31871628013138
 31
0.0
 11
41.44949646142348
 21
33.1697853959245
 31
0.0
 11
41.51250258845002
 21
33.03077682700641
 31
0.0
 11
41.5842239019087
 21
32.94762085108474
 31
0.0
 11
41.67318526667273
 21
32.88700241294387
 31
0.0
  0
SPLINE
  5
223
330
2
100
AcDbEntity
  8
GAIKEI
  6
Continuous
100
AcDbSpline
210
0.0
220
0.0
230
1.0
 70
     8
 71
     3
 72
     9
 73
     5
 74
     3
 42
0.0000000001
 43
0.0000000001
 44
0.000001
 12
-0.0096960121699291
 22
-0.9999529925691511
 32
0.0
 13
-0.0189912401024833
 23
-0.9998196501366484
 33
0.0
 40
0.0
 40
0.0
 40
0.0
 40
0.0
 40
0.0078012111648681
 40
0.015486062332534
 40
0.015486062332534
 40
0.015486062332534
 40
0.015486062332534
 10
42.43379260215138
 20
31.98720365789652
 30
0.0
 10
42.43376738860525
 20
31.98460337641319
 30
0.0
 10
42.43370598166619
 20
31.97944170123558
 30
0.0
 10
42.43362057267201
 20
31.97428036488748
 30
0.0
 10
42.43357192438745
 20
31.97171920981887
 30
0.0
 11
42.43379260215138
 21
31.98720365789652
 31
0.0
 11
42.43369941889798
 21
31.97940300490657
 31
0.0
 11
42.43357192438745
 21
31.97171920981887
 31
0.0
  0
SPLINE
  5
224
330
2
100
AcDbEntity
  8
GAIKEI
  6
Continuous
 62
     1
100
AcDbSpline
210
0.0
220
0.0
230
1.0
 70
     8
 71
     3
 72
    11
 73
     7
 74
     5
 42
0.0000000001
 43
0.0000000001
 44
0.000001
 12
-0.3434387808949519
 22
-0.9391750655641308
 32
0.0
 13
-0.9038317308767661
 23
0.4278880721173575
 33
0.0
 40
0.0
 40
0.0
 40
0.0
 40
0.0
 40
0.0276536126384907
 40
0.0861007837686323
 40
0.1559362172573861
 40
0.230449101919952
 40
0.230449101919952
 40
0.230449101919952
 40
0.230449101919952
 10
42.64871779841096
 20
31.97171920981887
 30
0.0
 10
42.64555202407365
 20
31.96306201533125
 30
0.0
 10
42.62323808432689
 20
31.94115928061808
 30
0.0
 10
42.5687165336721
 20
31.93654629379262
 30
0.0
 10
42.50206070974925
 20
31.94502413883021
 30
0.0
 10
42.45602096089318
 20
31.96109148496347
 30
0.0
 10
42.43357192438745
 20
31.97171920981887
 30
0.0
 11
42.64871779841096
 21
31.97171920981887
 31
0.0
 11
42.63041396078384
 21
31.9509894491795
 31
0.0
 11
42.5732554571023
 21
31.93878463950639
 31
0.0
 11
42.50392623485899
 21
31.94717746575165
 31
0.0
 11
42.43357192438745
 21
31.97171920981887
 31
0.0
  0
SPLINE
  5
225
330
2
100
AcDbEntity
  8
GAIKEI
  6
Continuous
 62
     1
100
AcDbSpline
210
0.0
220
0.0
230
1.0
 70
     8
 71
     3
 72
     9
 73
     5
 74
     3
 42
0.0000000001
 43
0.0000000001
 44
0.000001
 12
0.0000218853907853
 22
0.9999999997605149
 32
0.0
 13
0.6039141898902651
 23
0.797049340536196
 33
0.0
 40
0.0
 40
0.0
 40
0.0
 40
0.0
 40
0.049823326069985
 40
0.0931170738932073
 40
0.0931170738932073
 40
0.0931170738932073
 40
0.0931170738932073
 10
42.64871779841096
 20
31.97171920981887
 30
0.0
 10
42.6487181618786
 20
31.98832698517157
 30
0.0
 10
42.6550141698862
 20
32.01878172745754
 30
0.0
 10
42.66436627069238
 20
32.04937694835158
 30
0.0
 10
42.67308150690704
 20
32.06087936606886
 30
0.0
 11
42.64871779841096
 21
31.97171920981887
 31
0.0
 11
42.65633146322076
 21
32.02095701244358
 31
0.0
 11
42.67308150690704
 21
32.06087936606886
 31
0.0
  0
SPLINE
  5
226
330
2
100
AcDbEntity
  8
GAIKEI
  6
Continuous
 62
     1
100
AcDbSpline
210
0.0
220
0.0
230
1.0
 70
     8
 71
     3
 72
     9
 73
     5
 74
     3
 42
0.0000000001
 43
0.0000000001
 44
0.000001
 12
0.2422660977847259
 22
-0.9702098421806294
 32
0.0
 13
-0.0026216298139756
 23
-0.9999965635226546
 33
0.0
 40
0.0
 40
0.0
 40
0.0
 40
0.0
 40
0.0660170405500321
 40
0.1264506753942177
 40
0.1264506753942177
 40
0.1264506753942177
 40
0.1264506753942177
 10
42.65790756075339
 20
32.18617432789657
 30
0.0
 10
42.6632387910205
 20
32.16482420039881
 30
0.0
 10
42.67076992758295
 20
32.12321272354333
 30
0.0
 10
42.67313431844665
 20
32.08102384179066
 30
0.0
 10
42.67308150690704
 20
32.06087936606886
 30
0.0
 11
42.65790756075339
 21
32.18617432789657
 31
0.0
 11
42.66969447654403
 21
32.12121703819
 31
0.0
 11
42.67308150690704
 21
32.06087936606886
 31
0.0
  0
SPLINE
  5
227
330
2
100
AcDbEntity
  8
GAIKEI
  6
Continuous
 62
     1
100
AcDbSpline
210
0.0
220
0.0
230
1.0
 70
     8
 71
     3
 72
     9
 73
     5
 74
     3
 42
0.0000000001
 43
0.0000000001
 44
0.000001
 12
0.9999999830750255
 22
0.0001839835551072
 32
0.0
 13
0.9999998666007757
 23
0.000516525343909
 33
0.0
 40
0.0
 40
0.0
 40
0.0
 40
0.0
 40
0.0161603733708376
 40
0.0274217525351354
 40
0.0274217525351354
 40
0.0274217525351354
 40
0.0274217525351354
 10
42.62139541071562
 20
31.20846237388136
 30
0.0
 10
42.62678220174805
 20
31.20846336496234
 30
0.0
 10
42.63590964343778
 20
31.20773708120356
 30
0.0
 10
42.64496400585694
 20
31.20616551307714
 30
0.0
 10
42.64871779841096
 20
31.20616745200639
 30
0.0
 11
42.62139541071562
 21
31.20846237388136
 31
0.0
 11
42.63751498472603
 21
31.20731475302577
 31
0.0
 11
42.64871779841096
 21
31.20616745200639
 31
0.0
  0
SPLINE
  5
228
330
2
100
AcDbEntity
  8
GAIKEI
  6
Continuous
 62
     1
100
AcDbSpline
210
0.0
220
0.0
230
1.0
 70
     8
 71
     3
 72
     9
 73
     5
 74
     3
 42
0.0000000001
 43
0.0000000001
 44
0.000001
 12
-0.9999998625261078
 22
-0.0005243546180195
 32
0.0
 13
-0.9999999993304482
 23
0.0000365937675033
 33
0.0
 40
0.0
 40
0.0
 40
0.0
 40
0.0
 40
0.0112628768630546
 40
0.0274239134728908
 40
0.0274239134728908
 40
0.0274239134728908
 40
0.0274239134728908
 10
42.64871779841096
 20
30.46078170981886
 30
0.0
 10
42.64496350663939
 20
30.46077974123836
 30
0.0
 10
42.63591051767774
 20
30.45919535867322
 30
0.0
 10
42.6267824229153
 20
30.45846217675029
 30
0.0
 10
42.62139541071562
 20
30.45846237388136
 30
0.0
 11
42.64871779841096
 21
30.46078170981886
 31
0.0
 11
42.63751486924204
 21
30.45962091915985
 31
0.0
 11
42.62139541071562
 21
30.45846237388136
 31
0.0
  0
SPLINE
  5
229
330
2
100
AcDbEntity
  8
GAIKEI
  6
Continuous
 62
     1
100
AcDbSpline
210
0.0
220
0.0
230
1.0
 70
     8
 71
     3
 72
     9
 73
     5
 74
     3
 42
0.0000000001
 43
0.0000000001
 44
0.000001
 12
-0.3095430358008607
 22
0.9508854342070801
 32
0.0
 13
-0.9999966472674461
 23
-0.0025894891131022
 33
0.0
 40
0.0
 40
0.0
 40
0.0
 40
0.0
 40
0.0444472684778787
 40
0.091387627662171
 40
0.091387627662171
 40
0.091387627662171
 40
0.091387627662171
 10
42.68515120905547
 20
31.15846237388141
 30
0.0
 10
42.68056509491624
 20
31.17255046061004
 30
0.0
 10
42.66023437551969
 20
31.19820123386418
 30
0.0
 10
42.62931661974853
 20
31.2085028910644
 30
0.0
 10
42.61366988581326
 20
31.20846237388136
 30
0.0
 11
42.68515120905547
 21
31.15846237388141
 31
0.0
 11
42.65828444969574
 21
31.19387167247001
 31
0.0
 11
42.61366988581326
 21
31.20846237388136
 31
0.0
  0
SPLINE
  5
22A
330
2
100
AcDbEntity
  8
GAIKEI
  6
Continuous
 62
     1
100
AcDbSpline
210
0.0
220
0.0
230
1.0
 70
     8
 71
     3
 72
     9
 73
     5
 74
     3
 42
0.0000000001
 43
0.0000000001
 44
0.000001
 12
0.9999999475265104
 22
-0.0003239552077724
 32
0.0
 13
0.3083314400853357
 23
0.9512789932795232
 33
0.0
 40
0.0
 40
0.0
 40
0.0
 40
0.0
 40
0.04559399363997
 40
0.0912305317992544
 40
0.0912305317992544
 40
0.0912305317992544
 40
0.0912305317992544
 10
42.61368361872345
 20
30.45846237388136
 30
0.0
 10
42.62888161580595
 20
30.45845745041081
 30
0.0
 10
42.65948388626426
 20
30.46877561166699
 30
0.0
 10
42.68046081587842
 20
30.49399134718906
 30
0.0
 10
42.68515120905547
 20
30.50846237388137
 30
0.0
 11
42.61368361872345
 21
30.45846237388136
 31
0.0
 11
42.65706462201385
 21
30.47249128838118
 31
0.0
 11
42.68515120905547
 21
30.50846237388137
 31
0.0
  0
SPLINE
  5
22B
330
2
100
AcDbEntity
  8
GAIKEI
  6
Continuous
 62
     1
100
AcDbSpline
210
0.0
220
0.0
230
1.0
 70
     8
 71
     3
 72
     9
 73
     5
 74
     3
 42
0.0000000001
 43
0.0000000001
 44
0.000001
 12
0.9834569742310373
 22
-0.181141877643832
 32
0.0
 13
0.9506025391832636
 23
-0.3104107158239418
 33
0.0
 40
0.0
 40
0.0
 40
0.0
 40
0.0
 40
0.0011886123522044
 40
0.0024013747551349
 40
0.0024013747551349
 40
0.0024013747551349
 40
0.0024013747551349
 10
42.69609328669221
 20
31.20616745200639
 30
0.0
 10
42.6964829363947
 20
31.20609568284863
 30
0.0
 10
42.69727026570314
 20
31.20595191897812
 30
0.0
 10
42.69804817404884
 20
31.20575582744661
 30
0.0
 10
42.6984324590554
 20
31.2056303426314
 30
0.0
 11
42.69609328669221
 21
31.20616745200639
 31
0.0
 11
42.69725937780637
 21
31.20594129433553
 31
0.0
 11
42.6984324590554
 21
31.2056303426314
 31
0.0
  0
SPLINE
  5
22C
330
2
100
AcDbEntity
  8
GAIKEI
  6
Continuous
 62
     1
100
AcDbSpline
210
0.0
220
0.0
230
1.0
 70
     8
 71
     3
 72
     9
 73
     5
 74
     3
 42
0.0000000001
 43
0.0000000001
 44
0.000001
 12
-0.9467037320692217
 22
-0.3221056405687543
 32
0.0
 13
-0.9843931795112441
 23
-0.1759831472946866
 33
0.0
 40
0.0
 40
0.0
 40
0.0
 40
0.0
 40
0.0017667654173177
 40
0.0030300833170081
 40
0.0030300833170081
 40
0.0030300833170081
 40
0.0030300833170081
 10
42.69903060358657
 20
30.46151413169386
 30
0.0
 10
42.69847306911515
 20
30.46132443665837
 30
0.0
 10
42.69750258658459
 20
30.46103489748615
 30
0.0
 10
42.69650782053355
 20
30.46085581737219
 30
0.0
 10
42.69609328669221
 20
30.46078170981886
 30
0.0
 11
42.69903060358657
 21
30.46151413169386
 31
0.0
 11
42.69733326502799
 21
30.46102336036674
 31
0.0
 11
42.69609328669221
 21
30.46078170981886
 31
0.0
  0
SPLINE
  5
22D
330
2
100
AcDbEntity
  8
GAIKEI
  6
Continuous
 62
     1
100
AcDbSpline
210
0.0
220
0.0
230
1.0
 70
     8
 71
     3
 72
    21
 73
    17
 74
    15
 42
0.0000000001
 43
0.0000000001
 44
0.000001
 12
0.924163803656182
 22
0.3819964188467452
 32
0.0
 13
-0.8756162208031852
 23
0.4830074884164297
 33
0.0
 40
0.0
 40
0.0
 40
0.0
 40
0.0
 40
0.0209159236453989
 40
0.0380989559653477
 40
0.0974421966529603
 40
0.1742051809481311
 40
0.2493927632403631
 40
0.3344374018510312
 40
0.4234667938638267
 40
0.5105900305197841
 40
0.5884453908098149
 40
0.6541302847763988
 40
0.6774058509379163
 40
0.6984059988422758
 40
0.738910284924854
 40
0.7875343223638717
 40
0.7875343223638717
 40
0.7875343223638717
 40
0.7875343223638717
 10
42.69903060358657
 20
30.46151413169386
 30
0.0
 10
42.70547385010428
 20
30.46417740100367
 30
0.0
 10
42.71691755026057
 20
30.47014767458515
 30
0.0
 10
42.73983011054463
 20
30.49376190503804
 30
0.0
 10
42.75653077102967
 20
30.54409254917479
 30
0.0
 10
42.76555424524505
 20
30.61346930416784
 30
0.0
 10
42.77298537529174
 20
30.69228578657805
 30
0.0
 10
42.77641643516645
 20
30.77529008219898
 30
0.0
 10
42.7771141266627
 20
30.86237918837105
 30
0.0
 10
42.77456476635854
 20
30.94703165115303
 30
0.0
 10
42.7690179049311
 20
31.02374455246704
 30
0.0
 10
42.76222615637364
 20
31.07896630438864
 30
0.0
 10
42.75515566753326
 20
31.11498744506122
 30
0.0
 10
42.74862795976221
 20
31.14235175508663
 30
0.0
 10
42.73778701260356
 20
31.17856173059056
 30
0.0
 10
42.71262445768956
 20
31.19780175123137
 30
0.0
 10
42.6984324590554
 20
31.2056303426314
 30
0.0
 11
42.69903060358657
 21
30.46151413169386
 31
0.0
 11
42.71728943821702
 21
30.47171689715864
 31
0.0
 11
42.72942916315705
 21
30.48387741294388
 31
0.0
 11
42.75291819832628
 21
30.53837378525711
 31
0.0
 11
42.76518050593042
 21
30.61415085044391
 31
0.0
 11
42.77205475171186
 21
30.68902338391715
 31
0.0
 11
42.77589967412459
 21
30.77398090321586
 31
0.0
 11
42.77654641991105
 21
30.86300777112862
 31
0.0
 11
42.77382613581326
 21
30.95008835044391
 31
0.0
 11
42.76802048059758
 21
31.02772677993633
 31
0.0
 11
42.75935470026641
 21
31.09283737388139
 31
0.0
 11
42.7548531545053
 21
31.11567342217555
 31
0.0
 11
42.74997512262965
 21
31.13609909263138
 31
0.0
 11
42.73520099105517
 21
31.1738125058105
 31
0.0
 11
42.6984324590554
 21
31.2056303426314
 31
0.0
  0
SPLINE
  5
22E
330
2
100
AcDbEntity
  8
GAIKEI
  6
Continuous
 62
     1
100
AcDbSpline
210
0.0
220
0.0
230
1.0
 70
     8
 71
     3
 72
     9
 73
     5
 74
     3
 42
0.0000000001
 43
0.0000000001
 44
0.000001
 12
0.9530205584077666
 22
-0.3029056210309556
 32
0.0
 13
-0.0000229125183228
 23
-0.9999999997375084
 33
0.0
 40
0.0
 40
0.0
 40
0.0
 40
0.0
 40
0.0315601488940488
 40
0.0618149267785152
 40
0.0618149267785152
 40
0.0618149267785152
 40
0.0618149267785152
 10
42.69609328669221
 20
31.20616745200639
 30
0.0
 10
42.70611911026636
 20
31.20298086983954
 30
0.0
 10
42.72371546385942
 20
31.1893994905418
 30
0.0
 10
42.73073859832956
 20
31.16854729984024
 30
0.0
 10
42.73073836725851
 20
31.15846237388141
 30
0.0
 11
42.69609328669221
 21
31.20616745200639
 31
0.0
 11
42.72133186407896
 21
31.18721776080017
 31
0.0
 11
42.73073836725851
 21
31.15846237388141
 31
0.0
  0
SPLINE
  5
22F
330
2
100
AcDbEntity
  8
GAIKEI
  6
Continuous
 62
     1
100
AcDbSpline
210
0.0
220
0.0
230
1.0
 70
     8
 71
     3
 72
     9
 73
     5
 74
     3
 42
0.0000000001
 43
0.0000000001
 44
0.000001
 12
0.0000229136863035
 22
-0.9999999997374816
 32
0.0
 13
-0.9530611355513151
 23
-0.3027779250566955
 33
0.0
 40
0.0
 40
0.0
 40
0.0
 40
0.0
 40
0.0302439637887057
 40
0.0617963100788641
 40
0.0617963100788641
 40
0.0617963100788641
 40
0.0617963100788641
 10
42.73073836725851
 20
30.50846237388137
 30
0.0
 10
42.73073859825873
 20
30.49838105262111
 30
0.0
 10
42.72371517848575
 20
30.47753353293155
 30
0.0
 10
42.70611705835375
 20
30.46396616113233
 30
0.0
 10
42.69609328669221
 20
30.46078170981886
 30
0.0
 11
42.73073836725851
 21
30.50846237388137
 31
0.0
 11
42.72133189760828
 21
30.47971834164744
 31
0.0
 11
42.69609328669221
 21
30.46078170981886
 31
0.0
  0
SPLINE
  5
230
330
2
100
AcDbEntity
  8
GAIKEI
  6
Continuous
 62
     1
100
AcDbSpline
210
0.0
220
0.0
230
1.0
 70
     8
 71
     3
 72
     9
 73
     5
 74
     3
 42
0.0000000001
 43
0.0000000001
 44
0.000001
 12
0.4698969807026943
 22
-0.8827212626455146
 32
0.0
 13
0.0255481131960096
 23
-0.9996735936855209
 33
0.0
 40
0.0
 40
0.0
 40
0.0
 40
0.0
 40
0.1235277676275018
 40
0.2424664005844932
 40
0.2424664005844932
 40
0.2424664005844932
 40
0.2424664005844932
 10
42.70182557575944
 20
32.41321509398708
 30
0.0
 10
42.7211740174398
 20
32.37686823164978
 30
0.0
 10
42.75079471557892
 20
32.30079659129271
 30
0.0
 10
42.76263105998585
 20
32.22004388628093
 30
0.0
 10
42.7636439458719
 20
32.18041061606888
 30
0.0
 11
42.70182557575944
 21
32.41321509398708
 31
0.0
 11
42.74673837957223
 21
32.29814199996278
 31
0.0
 11
42.7636439458719
 21
32.18041061606888
 31
0.0
  0
SPLINE
  5
231
330
2
100
AcDbEntity
  8
GAIKEI
  6
Continuous
 62
     1
100
AcDbSpline
210
0.0
220
0.0
230
1.0
 70
     8
 71
     3
 72
    11
 73
     7
 74
     5
 42
0.0000000001
 43
0.0000000001
 44
0.000001
 12
0.6039065656434936
 22
0.7970551172740069
 32
0.0
 13
-0.0000192542120177
 23
0.9999999998146378
 33
0.0
 40
0.0
 40
0.0
 40
0.0
 40
0.0
 40
0.0851920209421744
 40
0.2307797871756305
 40
0.5599549317715096
 40
0.9475962823601275
 40
0.9475962823601275
 40
0.9475962823601275
 40
0.9475962823601275
 10
42.7636439458719
 20
32.18041061606888
 30
0.0
 10
42.78079328613438
 20
32.20304486148317
 30
0.0
 10
42.80320993409171
 20
32.27924510571489
 30
0.0
 10
42.8371551618495
 20
32.46120262344053
 30
0.0
 10
42.85807265666882
 20
32.74959075958051
 30
0.0
 10
42.86415760321498
 20
32.98808648100081
 30
0.0
 10
42.86415511530541
 20
33.11730026450638
 30
0.0
 11
42.7636439458719
 21
32.18041061606888
 31
0.0
 11
42.79619431582008
 21
32.25913917344693
 31
0.0
 11
42.8244013921608
 21
32.40196823325638
 31
0.0
 11
42.8542704359368
 21
32.7297853945797
 31
0.0
 11
42.86415511530541
 21
33.11730026450638
 31
0.0
  0
SPLINE
  5
232
330
2
100
AcDbEntity
  8
GAIKEI
  6
Continuous
 62
     1
100
AcDbSpline
210
0.0
220
0.0
230
1.0
 70
     8
 71
     3
 72
     9
 73
     5
 74
     3
 42
0.0000000001
 43
0.0000000001
 44
0.000001
 12
0.0000019789566779
 22
0.999999999998042
 32
0.0
 13
0.000001279285824
 23
0.9999999999991818
 33
0.0
 40
0.0
 40
0.0
 40
0.0
 40
0.0
 40
0.2381439394170699
 40
0.4762881025506591
 40
0.4762881025506591
 40
0.4762881025506591
 40
0.4762881025506591
 10
42.86415511530541
 20
33.11730026450638
 30
0.0
 10
42.86415527239758
 20
33.19668157764525
 30
0.0
 10
42.86415555592339
 20
33.35544427849527
 30
0.0
 10
42.86415578390836
 20
33.51420697934529
 30
0.0
 10
42.86415588545984
 20
33.59358836705641
 30
0.0
 11
42.86415511530541
 21
33.11730026450638
 31
0.0
 11
42.86415554203805
 21
33.35544420392305
 31
0.0
 11
42.86415588545984
 21
33.59358836705641
 31
0.0
  0
SPLINE
  5
233
330
2
100
AcDbEntity
  8
GAIKEI
  6
Continuous
 62
     1
100
AcDbSpline
210
0.0
220
0.0
230
1.0
 70
     8
 71
     3
 72
    11
 73
     7
 74
     5
 42
0.0000000001
 43
0.0000000001
 44
0.000001
 12
0.0112344764187383
 22
0.9999368912784431
 32
0.0
 13
-0.0373768724128105
 23
0.9993012405719492
 33
0.0
 40
0.0
 40
0.0
 40
0.0
 40
0.0
 40
0.0514963842579243
 40
0.1456922108012807
 40
0.2843193963424432
 40
0.4261069348414459
 40
0.4261069348414459
 40
0.4261069348414459
 40
0.4261069348414459
 10
41.67318526667273
 20
33.05367721763136
 30
0.0
 10
41.67337811164427
 20
33.07084159576036
 30
0.0
 10
41.69705280315393
 20
33.11591243132929
 30
0.0
 10
41.73817058379711
 20
33.19950148067653
 30
0.0
 10
41.78799137129895
 20
33.31493879516782
 30
0.0
 10
41.80438294392859
 20
33.40893796429981
 30
0.0
 10
41.80261641901651
 20
33.45616745200639
 30
0.0
 11
41.67318526667273
 21
33.05367721763136
 31
0.0
 11
41.68978977070847
 21
33.10242334228642
 31
0.0
 11
41.73130294245382
 21
33.18697799888136
 31
0.0
 11
41.7824636549133
 21
33.31581913761019
 31
0.0
 11
41.80261641901651
 21
33.45616745200639
 31
0.0
  0
SPLINE
  5
234
330
2
100
AcDbEntity
  8
GAIKEI
  6
Continuous
 62
     1
100
AcDbSpline
210
0.0
220
0.0
230
1.0
 70
     8
 71
     3
 72
    11
 73
     7
 74
     5
 42
0.0000000001
 43
0.0000000001
 44
0.000001
 12
0.0000475799142233
 22
-0.9999999988680759
 32
0.0
 13
0.8873183146659597
 23
-0.4611574660117311
 33
0.0
 40
0.0
 40
0.0
 40
0.0
 40
0.0
 40
0.1240615000473999
 40
0.2461758830419786
 40
0.3680919265193894
 40
0.4914109566322638
 40
0.4914109566322638
 40
0.4914109566322638
 40
0.4914109566322638
 10
41.42959548395779
 20
33.45448288169391
 30
0.0
 10
41.42959745156963
 20
33.4131290483916
 30
0.0
 10
41.44120571186961
 20
33.33062372662122
 30
0.0
 10
41.49115988808027
 20
33.21699490432482
 30
0.0
 10
41.56909081020036
 20
33.12072313394583
 30
0.0
 10
41.63671085535073
 20
33.07263371477731
 30
0.0
 10
41.67318526667273
 20
33.05367721763136
 30
0.0
 11
41.42959548395779
 21
33.45448288169391
 31
0.0
 11
41.4468334435526
 21
33.3316242783952
 31
0.0
 11
41.49585651434168
 21
33.21978228536134
 31
0.0
 11
41.57264651561726
 21
33.12508917447812
 31
0.0
 11
41.67318526667273
 21
33.05367721763136
 31
0.0
  0
SPLINE
  5
235
330
2
100
AcDbEntity
  8
GAIKEI
  6
Continuous
 62
     1
100
AcDbSpline
210
0.0
220
0.0
230
1.0
 70
     8
 71
     3
 72
    11
 73
     7
 74
     5
 42
0.0000000001
 43
0.0000000001
 44
0.000001
 12
0.000082107106156
 22
0.9999999966292115
 32
0.0
 13
0.874835682756009
 23
-0.4844197850798702
 33
0.0
 40
0.0
 40
0.0
 40
0.0
 40
0.0
 40
0.049737939134696
 40
0.1156972337652593
 40
0.2520998538306648
 40
0.4180039880750192
 40
0.4180039880750192
 40
0.4180039880750192
 40
0.4180039880750192
 10
41.42959548395779
 20
33.45616745200639
 30
0.0
 10
41.42959684523721
 20
33.47274676499541
 30
0.0
 10
41.4485448216124
 20
33.51290461220819
 30
0.0
 10
41.53642152671625
 20
33.53349524013993
 30
0.0
 10
41.65792343225776
 20
33.51854407167912
 30
0.0
 10
41.75423680016528
 20
33.48295653369121
 30
0.0
 10
41.80261641901651
 20
33.45616745200639
 30
0.0
 11
41.42959548395779
 21
33.45616745200639
 31
0.0
 11
41.44984071784373
 21
33.50159944143778
 31
0.0
 11
41.51146651667258
 21
33.52511276450636
 31
0.0
 11
41.64749333209946
 21
33.51499497844637
 31
0.0
 11
41.80261641901651
 21
33.45616745200639
 31
0.0
  0
SPLINE
  5
236
330
2
100
AcDbEntity
  8
GAIKEI
  6
Continuous
 62
     1
100
AcDbSpline
210
0.0
220
0.0
230
1.0
 70
     8
 71
     3
 72
     9
 73
     5
 74
     3
 42
0.0000000001
 43
0.0000000001
 44
0.000001
 12
0.0746711712063641
 22
0.9972082110525716
 32
0.0
 13
-0.0746711675037705
 23
0.9972082113298226
 33
0.0
 40
0.0
 40
0.0
 40
0.0
 40
0.0
 40
0.1532665578872934
 40
0.3293337353974581
 40
0.3293337353974581
 40
0.3293337353974581
 40
0.3293337353974581
 10
42.71453963678985
 20
30.66888717856889
 30
0.0
 10
42.71835450125125
 20
30.71983340190389
 30
0.0
 10
42.7214551158218
 20
30.82964736347242
 30
0.0
 10
42.71892201735778
 20
30.93951235747429
 30
0.0
 10
42.71453963678985
 20
30.99803756919389
 30
0.0
 11
42.71453963678985
 21
30.66888717856889
 31
0.0
 11
42.72001929145957
 21
30.82205571380141
 31
0.0
 11
42.71453963678985
 21
30.99803756919389
 31
0.0
  0
SPLINE
  5
237
330
2
100
AcDbEntity
  8
GAIKEI
  6
Continuous
 62
     1
100
AcDbSpline
210
0.0
220
0.0
230
1.0
 70
     8
 71
     3
 72
     9
 73
     5
 74
     3
 42
0.0000000001
 43
0.0000000001
 44
0.000001
 12
0.0776806296407132
 22
0.9969782945373598
 32
0.0
 13
-0.0775981689672212
 23
0.9969847161180229
 33
0.0
 40
0.0
 40
0.0
 40
0.0
 40
0.0
 40
0.1793447788252453
 40
0.3586916076347432
 40
0.3586916076347432
 40
0.3586916076347432
 40
0.3586916076347432
 10
42.72045546930937
 20
30.65423874106889
 30
0.0
 10
42.72509934109002
 20
30.71383969164469
 30
0.0
 10
42.7283728673419
 20
30.83347442971257
 30
0.0
 10
42.72509446448459
 20
30.95310840502063
 30
0.0
 10
42.72045546930937
 20
31.01271042075641
 30
0.0
 11
42.72045546930937
 21
30.65423874106889
 31
0.0
 11
42.72673388507857
 21
30.83347355571274
 31
0.0
 11
42.72045546930937
 21
31.01271042075641
 31
0.0
  0
SPLINE
  5
238
330
2
100
AcDbEntity
  8
GAIKEI
  6
Continuous
 62
     1
100
AcDbSpline
210
0.0
220
0.0
230
1.0
 70
     8
 71
     3
 72
     9
 73
     5
 74
     3
 42
0.0000000001
 43
0.0000000001
 44
0.000001
 12
0.9476067522711588
 22
-0.3194392634760274
 32
0.0
 13
0.9781595216317647
 23
-0.207855599494258
 33
0.0
 40
0.0
 40
0.0
 40
0.0
 40
0.0
 40
0.0000303572917032
 40
0.0000610584877203
 40
0.0000610584877203
 40
0.0000610584877203
 40
0.0000610584877203
 10
41.01046240352857
 20
38.22070648740086
 30
0.0
 10
41.01047199245344
 20
38.22070325496389
 30
0.0
 10
41.0104930211146
 20
38.22070538259536
 30
0.0
 10
41.01051342846618
 20
38.22070861453937
 30
0.0
 10
41.01052343868857
 20
38.22070648740086
 30
0.0
 11
41.01046240352857
 21
38.22070648740086
 31
0.0
 11
41.01049298126477
 21
38.2207055222423
 31
0.0
 11
41.01052343868857
 21
38.22070648740086
 31
0.0
  0
ELLIPSE
  5
239
330
2
100
AcDbEntity
  8
GAIKEI
  6
Continuous
 62
     1
100
AcDbEllipse
 10
40.9273484377982
 20
33.28844760286731
 30
0.0
 11
0.0
 21
-0.1249999999999998
 31
0.0
210
0.0
220
0.0
230
1.0
 40
0.0524
 41
0.0
 42
6.283185307179585
  0
ELLIPSE
  5
23A
330
2
100
AcDbEntity
  8
GAIKEI
  6
Continuous
 62
     1
100
AcDbEllipse
 10
40.9273484377982
 20
32.74844760286729
 30
0.0
 11
0.0
 21
-0.1249999999999998
 31
0.0
210
0.0
220
0.0
230
1.0
 40
0.0524
 41
0.0
 42
6.283185307179585
  0
ARC
  5
23B
330
2
100
AcDbEntity
  8
GAIKEI
  6
Continuous
100
AcDbCircle
 10
42.33629743779826
 20
32.32425760286728
 30
0.0
 40
0.35
100
AcDbArc
 50
282.0947570000017
 51
352.1695429999986
  0
LINE
  5
23C
330
2
100
AcDbEntity
  8
GAIKEI
  6
Continuous
100
AcDbLine
 10
42.40963243779819
 20
31.98202660286731
 30
0.0
 11
40.89959843779823
 21
31.65844760286731
 31
0.0
  0
LINE
  5
23D
330
2
100
AcDbEntity
  8
GAIKEI
  6
Continuous
100
AcDbLine
 10
40.8095984377982
 20
31.65844760286731
 30
0.0
 11
40.89959843779823
 21
31.65844760286731
 31
0.0
  0
LINE
  5
23E
330
2
100
AcDbEntity
  8
GAIKEI
  6
Continuous
100
AcDbLine
 10
42.69582093779817
 20
32.36955160286729
 30
0.0
 11
42.68303393779828
 21
32.27657260286728
 31
0.0
  0
LINE
  5
23F
330
2
100
AcDbEntity
  8
GAIKEI
  6
Continuous
100
AcDbLine
 10
42.53435893779825
 20
34.53880310286726
 30
0.0
 11
42.25124943779817
 21
32.48019310286728
 31
0.0
  0
ARC
  5
240
330
2
100
AcDbEntity
  8
GAIKEI
  6
Continuous
100
AcDbCircle
 10
42.10264793779825
 20
32.50062910286729
 30
0.0
 40
0.15
100
AcDbArc
 50
271.9999999999971
 51
352.1695429999986
  0
LINE
  5
241
330
2
100
AcDbEntity
  8
GAIKEI
  6
Continuous
100
AcDbLine
 10
42.87251943779821
 20
33.65440360286729
 30
0.0
 11
42.69582093779817
 21
32.36955160286729
 31
0.0
  0
LINE
  5
242
330
2
100
AcDbEntity
  8
GAIKEI
  6
Continuous
 62
     1
100
AcDbLine
 10
42.48284393779821
 20
34.54588760286728
 30
0.0
 11
42.20609593779821
 21
32.53353760286731
 31
0.0
  0
LINE
  5
243
330
2
100
AcDbEntity
  8
GAIKEI
  6
Continuous
100
AcDbLine
 10
42.98561143779821
 20
34.47674460286729
 30
0.0
 11
42.87251943779821
 21
33.65440360286729
 31
0.0
  0
ARC
  5
244
330
2
100
AcDbEntity
  8
GAIKEI
  6
Continuous
100
AcDbCircle
 10
41.4995984377982
 20
34.68110810286729
 30
0.0
 40
1.5
100
AcDbArc
 50
352.1695429999986
 51
0.0
  0
ARC
  5
245
330
2
100
AcDbEntity
  8
GAIKEI
  6
Continuous
 62
     1
100
AcDbCircle
 10
41.4995984377982
 20
34.68110810286729
 30
0.0
 40
0.9925
100
AcDbArc
 50
352.1695429999986
 51
0.0
  0
ARC
  5
246
330
2
100
AcDbEntity
  8
GAIKEI
  6
Continuous
100
AcDbCircle
 10
41.4995984377982
 20
34.68110810286729
 30
0.0
 40
1.044499999999999
100
AcDbArc
 50
352.1695429999986
 51
0.0
  0
LINE
  5
247
330
2
100
AcDbEntity
  8
GAIKEI
  6
Continuous
 62
     7
100
AcDbLine
 10
41.05483293779818
 20
32.3138686028673
 30
0.0
 11
42.10788593779821
 21
32.35064210286728
 31
0.0
  0
ARC
  5
248
330
2
100
AcDbEntity
  8
GAIKEI
  6
Continuous
100
AcDbCircle
 10
41.04959843779821
 20
32.46377710286728
 30
0.0
 40
0.15
100
AcDbArc
 50
180.0
 51
271.9999999999971
  0
LINE
  5
249
330
2
100
AcDbEntity
  8
GAIKEI
  6
Continuous
 62
     1
100
AcDbLine
 10
40.99634343779823
 20
32.35507610286729
 30
0.0
 11
41.35408893779825
 21
32.36756910286729
 31
0.0
  0
LINE
  5
24A
330
2
100
AcDbEntity
  8
GAIKEI
  6
Continuous
 62
     1
100
AcDbLine
 10
41.35408893779825
 20
32.36756910286729
 30
0.0
 11
41.35377993779823
 21
32.37641860286729
 31
0.0
  0
LINE
  5
24B
330
2
100
AcDbEntity
  8
GAIKEI
  6
Continuous
 62
     1
100
AcDbLine
 10
41.34627843779819
 20
32.37904610286731
 30
0.0
 11
42.06272993779825
 21
32.40406510286729
 31
0.0
  0
ARC
  5
24C
330
2
100
AcDbEntity
  8
GAIKEI
  6
Continuous
 62
     1
100
AcDbCircle
 10
42.05749493779822
 20
32.55397360286727
 30
0.0
 40
0.15
100
AcDbArc
 50
271.9999999999971
 51
352.1695429999986
  0
ARC
  5
24D
330
2
100
AcDbEntity
  8
GAIKEI
  6
Continuous
 62
     1
100
AcDbCircle
 10
40.9945984377982
 20
32.40504560286726
 30
0.0
 40
0.05
100
AcDbArc
 50
180.0
 51
271.9999999999971
  0
LINE
  5
24E
330
2
100
AcDbEntity
  8
GAIKEI
  6
Continuous
 62
     1
100
AcDbLine
 10
40.94459843779825
 20
32.40504560286726
 30
0.0
 11
40.94459843779825
 21
37.41184960286731
 31
0.0
  0
ELLIPSE
  5
24F
330
2
100
AcDbEntity
  8
GAIKEI
  6
Continuous
 62
     1
100
AcDbEllipse
 10
40.9273484377982
 20
36.52844760286732
 30
0.0
 11
0.0
 21
0.1249999999999998
 31
0.0
210
0.0
220
0.0
230
1.0
 40
0.0524
 41
0.0
 42
6.283185307179585
  0
ELLIPSE
  5
250
330
2
100
AcDbEntity
  8
GAIKEI
  6
Continuous
 62
     1
100
AcDbEllipse
 10
40.9273484377982
 20
37.06844760286728
 30
0.0
 11
0.0
 21
0.1249999999999998
 31
0.0
210
0.0
220
0.0
230
1.0
 40
0.0524
 41
0.0
 42
6.283185307179585
  0
ARC
  5
251
330
2
100
AcDbEntity
  8
GAIKEI
  6
Continuous
100
AcDbCircle
 10
42.33629743779826
 20
37.49263810286729
 30
0.0
 40
0.35
100
AcDbArc
 50
7.830456999998134
 51
77.90524299999828
  0
LINE
  5
252
330
2
100
AcDbEntity
  8
GAIKEI
  6
Continuous
100
AcDbLine
 10
42.40963243779819
 20
37.83486910286726
 30
0.0
 11
40.89959843779823
 21
38.15844760286731
 31
0.0
  0
LINE
  5
253
330
2
100
AcDbEntity
  8
GAIKEI
  6
Continuous
100
AcDbLine
 10
40.8095984377982
 20
38.15844760286731
 30
0.0
 11
40.89959843779823
 21
38.15844760286731
 31
0.0
  0
LINE
  5
254
330
2
100
AcDbEntity
  8
GAIKEI
  6
Continuous
100
AcDbLine
 10
42.69582093779817
 20
37.44734410286728
 30
0.0
 11
42.68303393779828
 21
37.54032310286729
 31
0.0
  0
LINE
  5
255
330
2
100
AcDbEntity
  8
GAIKEI
  6
Continuous
100
AcDbLine
 10
42.53435893779825
 20
35.2780926028673
 30
0.0
 11
42.25124943779817
 21
37.33670260286729
 31
0.0
  0
ARC
  5
256
330
2
100
AcDbEntity
  8
GAIKEI
  6
Continuous
100
AcDbCircle
 10
42.10264793779825
 20
37.31626610286728
 30
0.0
 40
0.15
100
AcDbArc
 50
7.830456999998134
 51
88.00000000000284
  0
LINE
  5
257
330
2
100
AcDbEntity
  8
GAIKEI
  6
Continuous
100
AcDbLine
 10
42.87251943779821
 20
36.16249210286728
 30
0.0
 11
42.69582093779817
 21
37.44734410286728
 31
0.0
  0
LINE
  5
258
330
2
100
AcDbEntity
  8
GAIKEI
  6
Continuous
 62
     1
100
AcDbLine
 10
42.48284393779821
 20
35.27100760286729
 30
0.0
 11
42.20609593779821
 21
37.28335810286731
 31
0.0
  0
LINE
  5
259
330
2
100
AcDbEntity
  8
GAIKEI
  6
Continuous
100
AcDbLine
 10
42.98561143779821
 20
35.34015060286729
 30
0.0
 11
42.87251943779821
 21
36.16249210286728
 31
0.0
  0
ARC
  5
25A
330
2
100
AcDbEntity
  8
GAIKEI
  6
Continuous
100
AcDbCircle
 10
41.4995984377982
 20
35.13578760286728
 30
0.0
 40
1.5
100
AcDbArc
 50
0.0
 51
7.830456999998134
  0
LINE
  5
25B
330
2
100
AcDbEntity
  8
GAIKEI
  6
Continuous
100
AcDbLine
 10
42.54409843779822
 20
34.68110810286729
 30
0.0
 11
42.54409843779822
 21
35.13578760286728
 31
0.0
  0
LINE
  5
25C
330
2
100
AcDbEntity
  8
GAIKEI
  6
Continuous
 62
     1
100
AcDbLine
 10
42.4920984377982
 20
34.68110810286729
 30
0.0
 11
42.4920984377982
 21
35.13578760286728
 31
0.0
  0
ARC
  5
25D
330
2
100
AcDbEntity
  8
GAIKEI
  6
Continuous
 62
     1
100
AcDbCircle
 10
41.4995984377982
 20
35.13578760286728
 30
0.0
 40
0.9925
100
AcDbArc
 50
0.0
 51
7.830456999998134
  0
ARC
  5
25E
330
2
100
AcDbEntity
  8
GAIKEI
  6
Continuous
100
AcDbCircle
 10
41.4995984377982
 20
35.13578760286728
 30
0.0
 40
1.044499999999999
100
AcDbArc
 50
0.0
 51
7.830456999998134
  0
LINE
  5
25F
330
2
100
AcDbEntity
  8
GAIKEI
  6
Continuous
100
AcDbLine
 10
42.99959843779819
 20
34.68110810286729
 30
0.0
 11
42.99959843779819
 21
35.13578760286728
 31
0.0
  0
LINE
  5
260
330
2
100
AcDbEntity
  8
GAIKEI
  6
Continuous
100
AcDbLine
 10
40.89959843779823
 20
32.46377710286728
 30
0.0
 11
40.89959843779823
 21
37.35311810286729
 31
0.0
  0
LINE
  5
261
330
2
100
AcDbEntity
  8
GAIKEI
  6
Continuous
100
AcDbLine
 10
41.05483293779818
 20
37.50302660286727
 30
0.0
 11
42.10788593779821
 21
37.46625360286728
 31
0.0
  0
ARC
  5
262
330
2
100
AcDbEntity
  8
GAIKEI
  6
Continuous
100
AcDbCircle
 10
41.04959843779821
 20
37.35311810286729
 30
0.0
 40
0.15
100
AcDbArc
 50
88.00000000000284
 51
180.0
  0
LINE
  5
263
330
2
100
AcDbEntity
  8
GAIKEI
  6
Continuous
 62
     1
100
AcDbLine
 10
40.99634343779823
 20
37.46181910286728
 30
0.0
 11
41.35408893779825
 21
37.44932660286727
 31
0.0
  0
LINE
  5
264
330
2
100
AcDbEntity
  8
GAIKEI
  6
Continuous
 62
     1
100
AcDbLine
 10
41.35408893779825
 20
37.44932660286727
 30
0.0
 11
41.35377993779823
 21
37.44047710286728
 31
0.0
  0
LINE
  5
265
330
2
100
AcDbEntity
  8
GAIKEI
  6
Continuous
 62
     1
100
AcDbLine
 10
41.34627843779819
 20
37.43784910286726
 30
0.0
 11
42.06272993779825
 21
37.41283010286728
 31
0.0
  0
ARC
  5
266
330
2
100
AcDbEntity
  8
GAIKEI
  6
Continuous
 62
     1
100
AcDbCircle
 10
42.05749493779822
 20
37.2629216028673
 30
0.0
 40
0.15
100
AcDbArc
 50
7.830456999998134
 51
88.00000000000284
  0
ARC
  5
267
330
2
100
AcDbEntity
  8
GAIKEI
  6
Continuous
 62
     1
100
AcDbCircle
 10
40.9945984377982
 20
37.41184960286731
 30
0.0
 40
0.05
100
AcDbArc
 50
88.00000000000284
 51
180.0
  0
LINE
  5
268
330
2
100
AcDbEntity
  8
WAKU
 62
     4
100
AcDbLine
 10
66.32140841368533
 20
-45.23059125108218
 30
0.0
 11
-58.67859158631444
 21
-45.23059125108218
 31
0.0
  0
LINE
  5
26A
330
2
100
AcDbEntity
  8
WAKU
 62
     1
100
AcDbLine
 10
-58.67859158631444
 20
-40.23059125108218
 30
0.0
 11
66.32140841368533
 21
-40.23059125108218
 31
0.0
  0
LINE
  5
26B
330
2
100
AcDbEntity
  8
WAKU
 62
     1
100
AcDbLine
 10
-58.67859158631444
 20
-35.23059125108219
 30
0.0
 11
66.32140841368533
 21
-35.23059125108219
 31
0.0
  0
LINE
  5
26C
330
2
100
AcDbEntity
  8
WAKU
 62
     1
100
AcDbLine
 10
-58.67859158631444
 20
-25.23059125108219
 30
0.0
 11
66.32140841368533
 21
-25.23059125108219
 31
0.0
  0
LINE
  5
26D
330
2
100
AcDbEntity
  8
WAKU
 62
     1
100
AcDbLine
 10
-58.67859158631444
 20
-15.23059125108219
 30
0.0
 11
66.32140841368533
 21
-15.23059125108219
 31
0.0
  0
LINE
  5
26E
330
2
100
AcDbEntity
  8
WAKU
 62
     4
100
AcDbLine
 10
-58.67859158631444
 20
-10.23059125108219
 30
0.0
 11
66.32140841368533
 21
-10.23059125108219
 31
0.0
  0
LINE
  5
26F
330
2
100
AcDbEntity
  8
WAKU
 62
     1
100
AcDbLine
 10
-58.67859158631444
 20
-30.23059125108219
 30
0.0
 11
66.32140841368533
 21
-30.23059125108219
 31
0.0
  0
LINE
  5
270
330
2
100
AcDbEntity
  8
WAKU
 62
     1
100
AcDbLine
 10
-58.67859158631444
 20
-20.23059125108219
 30
0.0
 11
66.32140841368533
 21
-20.23059125108219
 31
0.0
  0
LINE
  5
271
330
2
100
AcDbEntity
  8
WAKU
 62
     4
100
AcDbLine
 10
-58.67859158631467
 20
-10.23059125108219
 30
0.0
 11
-58.67859158631444
 21
-45.23059125108218
 31
0.0
  0
TEXT
  5
272
330
2
100
AcDbEntity
  8
MOJI1
100
AcDbText
 10
-17.17859158631444
 20
-29.23059125108219
 30
0.0
 40
3.0
  1
７３７２８０画素（水平１０２４×垂直７２０）
100
AcDbText
  0
TEXT
  5
273
330
2
100
AcDbEntity
  8
MOJI1
100
AcDbText
 10
-17.17859158631444
 20
-44.23059125108219
 30
0.0
 40
3.0
  1
シリアル
100
AcDbText
  0
TEXT
  5
274
330
2
100
AcDbEntity
  8
MOJI1
100
AcDbText
 10
-17.17859158631444
 20
-39.23059125108219
 30
0.0
 40
3.0
  1
ビデオ／Ｓビデオ／ＰＣ／外部スピーカ
100
AcDbText
  0
TEXT
  5
275
330
2
100
AcDbEntity
  8
MOJI1
100
AcDbText
 10
-17.17859158631444
 20
-14.23059125108219
 30
0.0
 40
3.0
  1
ＡＣ１００Ｖ　５０Ｈｚ／６０Ｈｚ
100
AcDbText
  0
TEXT
  5
276
330
2
100
AcDbEntity
  8
MOJI1
100
AcDbText
 10
-17.17859158631444
 20
-34.23059125108219
 30
0.0
 40
3.0
  1
１６Ｗ（８Ｗ＋８Ｗ）
100
AcDbText
  0
TEXT
  5
277
330
2
100
AcDbEntity
  8
MOJI1
100
AcDbText
 10
-17.17859158631444
 20
-24.23059125108219
 30
0.0
 40
3.0
  1
３７Ｖ型（１６：９）
100
AcDbText
  0
TEXT
  5
278
330
2
100
AcDbEntity
  8
MOJI1
100
AcDbText
 10
-17.17859158631444
 20
-19.23059125108219
 30
0.0
 40
3.0
  1
２８５Ｗ
100
AcDbText
  0
TEXT
  5
279
330
2
100
AcDbEntity
  8
MOJI1
100
AcDbText
 10
-56.17859158631444
 20
-39.23059125108219
 30
0.0
 40
3.0
  1
接続端子
100
AcDbText
  0
TEXT
  5
27A
330
2
100
AcDbEntity
  8
MOJI1
100
AcDbText
 10
-56.17859158631444
 20
-34.23059125108219
 30
0.0
 40
3.0
  1
音声最大出力
100
AcDbText
  0
TEXT
  5
27B
330
2
100
AcDbEntity
  8
MOJI1
100
AcDbText
 10
-56.17859158631444
 20
-24.23059125108219
 30
0.0
 40
3.0
  1
パネルサイズ
100
AcDbText
  0
TEXT
  5
27C
330
2
100
AcDbEntity
  8
MOJI1
100
AcDbText
 10
-56.17859158631444
 20
-19.23059125108219
 30
0.0
 40
3.0
  1
消費電力
100
AcDbText
  0
TEXT
  5
27D
330
2
100
AcDbEntity
  8
MOJI1
100
AcDbText
 10
-56.17859158631444
 20
-29.23059125108219
 30
0.0
 40
3.0
  1
画素数
100
AcDbText
  0
TEXT
  5
27E
330
2
100
AcDbEntity
  8
MOJI1
100
AcDbText
 10
-56.17859158631444
 20
-14.23059125108219
 30
0.0
 40
3.0
  1
電  源
100
AcDbText
  0
LINE
  5
27F
330
2
100
AcDbEntity
  8
WAKU
 62
     4
100
AcDbLine
 10
-18.67859158631467
 20
-10.23059125108219
 30
0.0
 11
-18.67859158631467
 21
-45.23059125108218
 31
0.0
  0
LINE
  5
280
330
2
100
AcDbEntity
  8
WAKU
 62
     4
100
AcDbLine
 10
66.32140841368533
 20
-10.23059125108219
 30
0.0
 11
66.32140841368533
 21
-45.23059125108218
 31
0.0
  0
ENDSEC
  0
SECTION
  2
OBJECTS
  0
DICTIONARY
  5
9
330
0
100
AcDbDictionary
281
     1
  3
ACAD_COLOR
350
2E0
  3
ACAD_GROUP
350
32
  3
ACAD_LAYOUT
350
D
  3
ACAD_MATERIAL
350
2DF
  3
ACAD_MLINESTYLE
350
33
  3
ACAD_PLOTSETTINGS
350
34
  3
ACAD_PLOTSTYLENAME
350
8
  3
ACDBHEADERROUNDTRIPXREC
350
303
  3
AcDbVariableDictionary
350
283
  0
DICTIONARY
  5
19
330
18
100
AcDbDictionary
280
     1
281
     1
  3
ACAD_LAYERFILTERS
360
1A
  3
ACAD_LAYERSTATES
360
1C
  0
DICTIONARY
  5
3
330
2
100
AcDbDictionary
280
     1
281
     1
  3
ACAD_LAYOUTSELFREF
360
2AE
  0
DICTIONARY
  5
11
330
10
100
AcDbDictionary
280
     1
281
     1
  3
ACAD_LAYOUTSELFREF
360
2B3
  0
DICTIONARY
  5
2E0
102
{ACAD_REACTORS
330
9
102
}
330
9
100
AcDbDictionary
281
     1
  0
DICTIONARY
  5
32
102
{ACAD_REACTORS
330
9
102
}
330
9
100
AcDbDictionary
281
     1
  0
DICTIONARY
  5
D
102
{ACAD_REACTORS
330
9
102
}
330
9
100
AcDbDictionary
281
     1
  3
Model
350
C
  3
ﾚｲｱｳﾄ1
350
15
  0
DICTIONARY
  5
2DF
102
{ACAD_REACTORS
330
9
102
}
330
9
100
AcDbDictionary
281
     1
  0
DICTIONARY
  5
33
102
{ACAD_REACTORS
330
9
102
}
330
9
100
AcDbDictionary
281
     1
  3
STANDARD
350
36
  0
DICTIONARY
  5
34
102
{ACAD_REACTORS
330
9
102
}
330
9
100
AcDbDictionary
281
     1
  0
ACDBDICTIONARYWDFLT
  5
8
102
{ACAD_REACTORS
330
9
102
}
330
9
100
AcDbDictionary
281
     1
  3
Normal
350
7
100
AcDbDictionaryWithDefault
340
7
  0
DICTIONARY
  5
303
102
{ACAD_REACTORS
330
9
102
}
330
9
100
AcDbDictionary
281
     1
  3
COLORDICT
350
305
  3
MATERIALDICT
350
304
  0
DICTIONARY
  5
283
102
{ACAD_REACTORS
330
9
102
}
330
9
100
AcDbDictionary
281
     1
  3
DIMASSOC
350
285
  3
HIDETEXT
350
284
  3
PROJECTNAME
350
301
  0
DICTIONARY
  5
1A
102
{ACAD_REACTORS
330
19
102
}
330
19
100
AcDbDictionary
280
     1
281
     1
  3
ロック画層
360
1B
  0
DICTIONARY
  5
1C
102
{ACAD_REACTORS
330
19
102
}
330
19
100
AcDbDictionary
281
     1
  0
XRECORD
  5
2AE
102
{ACAD_REACTORS
330
3
102
}
330
3
100
AcDbXrecord
280
     1
340
2
  0
XRECORD
  5
2B3
102
{ACAD_REACTORS
330
11
102
}
330
11
100
AcDbXrecord
280
     1
340
10
  0
LAYOUT
  5
C
102
{ACAD_XDICTIONARY
360
306
102
}
102
{ACAD_REACTORS
330
D
102
}
330
D
100
AcDbPlotSettings
  1

  2
\\URANUS\8FPAM09
  4
A4
  6

 40
4.180416584014892
 41
4.349743366241455
 42
4.222747802734375
 43
4.349761962890625
 44
210.0156707763672
 45
297.0106506347656
 46
6.099999999999999
 47
0.0
 48
0.0
 49
0.0
140
0.0
141
0.0
142
1.0
143
1.368209764686345
 70
 11956
 72
     1
 73
     0
 74
     1
  7
tmsacad.ctb
 75
     0
147
0.7308820809572607
148
0.5671991949084259
149
0.1357563133815347
100
AcDbLayout
  1
Model
 70
     1
 71
     0
 10
0.0
 20
0.0
 11
12.0
 21
9.0
 12
0.0
 22
0.0
 32
0.0
 14
0.0
 24
0.0
 34
0.0
 15
0.0
 25
0.0
 35
0.0
146
0.0
 13
0.0
 23
0.0
 33
0.0
 16
1.0
 26
0.0
 36
0.0
 17
0.0
 27
1.0
 37
0.0
 76
     0
330
2
  0
LAYOUT
  5
15
102
{ACAD_XDICTIONARY
360
308
102
}
102
{ACAD_REACTORS
330
D
102
}
330
D
100
AcDbPlotSettings
  1

  2
C:\Documents and Settings\10773\Application Data\Autodesk\AutoCAD 2004\R16.0\jpn\plotters\8FPAM09.pc3
  4
A3
  6

 40
4.349750041961669
 41
3.545409202575683
 42
4.3497314453125
 43
3.503082275390625
 44
297.0106506347656
 45
419.9889831542968
 46
0.0
 47
0.0
 48
0.0
 49
0.0
140
0.0
141
0.0
142
1.0
143
1.0
 70
   688
 72
     0
 73
     1
 74
     5
  7
tmsacad.ctb
 75
    16
147
1.0
148
0.0
149
0.0
100
AcDbLayout
  1
ﾚｲｱｳﾄ1
 70
     1
 71
     1
 10
-0.1379166250153789
 20
-0.1712500016520342
 11
16.39708271176796
 21
11.52208270050409
 12
0.0
 22
0.0
 32
0.0
 14
1.000000000000000E+20
 24
1.000000000000000E+20
 34
1.000000000000000E+20
 15
-1.000000000000000E+20
 25
-1.000000000000000E+20
 35
-1.000000000000000E+20
146
0.0
 13
0.0
 23
0.0
 33
0.0
 16
1.0
 26
0.0
 36
0.0
 17
0.0
 27
1.0
 37
0.0
 76
     0
330
10
  0
MLINESTYLE
  5
36
102
{ACAD_REACTORS
330
33
102
}
330
33
100
AcDbMlineStyle
  2
STANDARD
 70
     0
  3

 62
   256
 51
90.0
 52
90.0
 71
     2
 49
0.5
 62
   256
  6
BYLAYER
 49
-0.5
 62
   256
  6
BYLAYER
  0
ACDBPLACEHOLDER
  5
7
102
{ACAD_REACTORS
330
8
102
}
330
8
  0
XRECORD
  5
305
102
{ACAD_REACTORS
330
303
102
}
330
303
100
AcDbXrecord
280
     1
340
2E0
  0
XRECORD
  5
304
102
{ACAD_REACTORS
330
303
102
}
330
303
100
AcDbXrecord
280
     1
340
2DF
  0
DICTIONARYVAR
  5
285
102
{ACAD_REACTORS
330
283
102
}
330
283
100
DictionaryVariables
280
     0
  1
1
  0
DICTIONARYVAR
  5
284
102
{ACAD_REACTORS
330
283
102
}
330
283
100
DictionaryVariables
280
     0
  1
1
  0
DICTIONARYVAR
  5
301
102
{ACAD_REACTORS
330
283
102
}
330
283
100
DictionaryVariables
280
     0
  1

  0
XRECORD
  5
1B
102
{ACAD_REACTORS
330
1A
102
}
330
1A
100
AcDbXrecord
280
     1
  1
ロック画層
  1
*
  1
*
  1
*
 70
   256
  1
*
  1
*
  0
DICTIONARY
  5
306
330
C
100
AcDbDictionary
280
     1
281
     1
  3
ACAD_XREC_ROUNDTRIP
360
307
  0
DICTIONARY
  5
308
330
15
100
AcDbDictionary
280
     1
281
     1
  3
ACAD_XREC_ROUNDTRIP
360
309
  0
XRECORD
  5
307
102
{ACAD_REACTORS
330
306
102
}
330
306
100
AcDbXrecord
280
     1
102
SHADEPLOT
 70
     0
102
SHADEPLOTRESLEVEL
 70
     2
102
SHADEPLOTCUSTOMDPI
 70
   300
  0
XRECORD
  5
309
102
{ACAD_REACTORS
330
308
102
}
330
308
100
AcDbXrecord
280
     1
102
SHADEPLOT
 70
     0
102
SHADEPLOTRESLEVEL
 70
     2
102
SHADEPLOTCUSTOMDPI
 70
   300
  0
ENDSEC
  0
EOF
