  0
SECTION
  2
HEADER
  9
$ACADVER
  1
AC1015
  9
$ACADMAINTVER
 70
    20
  9
$DWGCODEPAGE
  3
ANSI_932
  9
$INSBASE
 10
0.0
 20
372.4992141396417
 30
0.0
  9
$EXTMIN
 10
-64.43999558731184
 20
-54.0474962655162
 30
-0.0015258207003583
  9
$EXTMAX
 10
60.6405133826529
 20
59.08358565010985
 30
0.0000000349246037
  9
$LIMMIN
 10
-1101.784450318844
 20
-1579.160531687244
  9
$LIMMAX
 10
-508.2420711400536
 20
-1161.440814074914
  9
$ORTHOMODE
 70
     1
  9
$REGENMODE
 70
     1
  9
$FILLMODE
 70
     1
  9
$QTEXTMODE
 70
     0
  9
$MIRRTEXT
 70
     1
  9
$LTSCALE
 40
1.0
  9
$ATTMODE
 70
     1
  9
$TEXTSIZE
 40
2.5
  9
$TRACEWID
 40
0.5
  9
$TEXTSTYLE
  7
STANDARD
  9
$CLAYER
  8
0
  9
$CELTYPE
  6
BYLAYER
  9
$CECOLOR
 62
   256
  9
$CELTSCALE
 40
1.0
  9
$DISPSILH
 70
     0
  9
$DIMSCALE
 40
1.0
  9
$DIMASZ
 40
2.0
  9
$DIMEXO
 40
2.0
  9
$DIMDLI
 40
8.0
  9
$DIMRND
 40
0.0
  9
$DIMDLE
 40
0.0
  9
$DIMEXE
 40
2.0
  9
$DIMTP
 40
0.0
  9
$DIMTM
 40
0.0
  9
$DIMTXT
 40
2.5
  9
$DIMCEN
 40
0.0
  9
$DIMTSZ
 40
0.0
  9
$DIMTOL
 70
     0
  9
$DIMLIM
 70
     0
  9
$DIMTIH
 70
     0
  9
$DIMTOH
 70
     0
  9
$DIMSE1
 70
     0
  9
$DIMSE2
 70
     0
  9
$DIMTAD
 70
     3
  9
$DIMZIN
 70
     0
  9
$DIMBLK
  1

  9
$DIMASO
 70
     1
  9
$DIMSHO
 70
     1
  9
$DIMPOST
  1

  9
$DIMAPOST
  1

  9
$DIMALT
 70
     0
  9
$DIMALTD
 70
     2
  9
$DIMALTF
 40
25.4
  9
$DIMLFAC
 40
1.0
  9
$DIMTOFL
 70
     1
  9
$DIMTVP
 40
0.0
  9
$DIMTIX
 70
     0
  9
$DIMSOXD
 70
     0
  9
$DIMSAH
 70
     1
  9
$DIMBLK1
  1
OPEN30
  9
$DIMBLK2
  1
OPEN30
  9
$DIMSTYLE
  2
STANDARD
  9
$DIMCLRD
 70
     0
  9
$DIMCLRE
 70
     0
  9
$DIMCLRT
 70
     0
  9
$DIMTFAC
 40
1.0
  9
$DIMGAP
 40
0.5
  9
$DIMJUST
 70
     0
  9
$DIMSD1
 70
     0
  9
$DIMSD2
 70
     0
  9
$DIMTOLJ
 70
     1
  9
$DIMTZIN
 70
     0
  9
$DIMALTZ
 70
     0
  9
$DIMALTTZ
 70
     0
  9
$DIMUPT
 70
     0
  9
$DIMDEC
 70
     4
  9
$DIMTDEC
 70
     4
  9
$DIMALTU
 70
     2
  9
$DIMALTTD
 70
     2
  9
$DIMTXSTY
  7
STANDARD
  9
$DIMAUNIT
 70
     0
  9
$DIMADEC
 70
     0
  9
$DIMALTRND
 40
0.0
  9
$DIMAZIN
 70
     0
  9
$DIMDSEP
 70
    46
  9
$DIMATFIT
 70
     3
  9
$DIMFRAC
 70
     0
  9
$DIMLDRBLK
  1
OPEN30
  9
$DIMLUNIT
 70
     2
  9
$DIMLWD
 70
    -2
  9
$DIMLWE
 70
    -2
  9
$DIMTMOVE
 70
     0
  9
$LUNITS
 70
     2
  9
$LUPREC
 70
     4
  9
$SKETCHINC
 40
0.1
  9
$FILLETRAD
 40
0.0
  9
$AUNITS
 70
     0
  9
$AUPREC
 70
     0
  9
$MENU
  1
ACAD
  9
$ELEVATION
 40
0.0
  9
$PELEVATION
 40
0.0
  9
$THICKNESS
 40
0.0
  9
$LIMCHECK
 70
     0
  9
$CHAMFERA
 40
0.0
  9
$CHAMFERB
 40
0.0
  9
$CHAMFERC
 40
0.0
  9
$CHAMFERD
 40
0.0
  9
$SKPOLY
 70
     0
  9
$TDCREATE
 40
2451815.565532581
  9
$TDUCREATE
 40
2451815.190532581
  9
$TDUPDATE
 40
2455860.703679572
  9
$TDUUPDATE
 40
2455860.328679572
  9
$TDINDWG
 40
0.6609237616
  9
$TDUSRTIMER
 40
0.6609237616
  9
$USRTIMER
 70
     1
  9
$ANGBASE
 50
0.0
  9
$ANGDIR
 70
     0
  9
$PDMODE
 70
     0
  9
$PDSIZE
 40
0.0
  9
$PLINEWID
 40
0.0
  9
$SPLFRAME
 70
     0
  9
$SPLINETYPE
 70
     6
  9
$SPLINESEGS
 70
     8
  9
$HANDSEED
  5
22A
  9
$SURFTAB1
 70
     6
  9
$SURFTAB2
 70
     6
  9
$SURFTYPE
 70
     6
  9
$SURFU
 70
     6
  9
$SURFV
 70
     6
  9
$UCSBASE
  2

  9
$UCSNAME
  2

  9
$UCSORG
 10
0.0
 20
0.0
 30
0.0
  9
$UCSXDIR
 10
1.0
 20
0.0
 30
0.0
  9
$UCSYDIR
 10
0.0
 20
1.0
 30
0.0
  9
$UCSORTHOREF
  2

  9
$UCSORTHOVIEW
 70
     0
  9
$UCSORGTOP
 10
0.0
 20
0.0
 30
0.0
  9
$UCSORGBOTTOM
 10
0.0
 20
0.0
 30
0.0
  9
$UCSORGLEFT
 10
0.0
 20
0.0
 30
0.0
  9
$UCSORGRIGHT
 10
0.0
 20
0.0
 30
0.0
  9
$UCSORGFRONT
 10
0.0
 20
0.0
 30
0.0
  9
$UCSORGBACK
 10
0.0
 20
0.0
 30
0.0
  9
$PUCSBASE
  2

  9
$PUCSNAME
  2

  9
$PUCSORG
 10
0.0
 20
0.0
 30
0.0
  9
$PUCSXDIR
 10
1.0
 20
0.0
 30
0.0
  9
$PUCSYDIR
 10
0.0
 20
1.0
 30
0.0
  9
$PUCSORTHOREF
  2

  9
$PUCSORTHOVIEW
 70
     0
  9
$PUCSORGTOP
 10
0.0
 20
0.0
 30
0.0
  9
$PUCSORGBOTTOM
 10
0.0
 20
0.0
 30
0.0
  9
$PUCSORGLEFT
 10
0.0
 20
0.0
 30
0.0
  9
$PUCSORGRIGHT
 10
0.0
 20
0.0
 30
0.0
  9
$PUCSORGFRONT
 10
0.0
 20
0.0
 30
0.0
  9
$PUCSORGBACK
 10
0.0
 20
0.0
 30
0.0
  9
$USERI1
 70
     0
  9
$USERI2
 70
     0
  9
$USERI3
 70
     0
  9
$USERI4
 70
     0
  9
$USERI5
 70
     0
  9
$USERR1
 40
0.0
  9
$USERR2
 40
0.0
  9
$USERR3
 40
0.0
  9
$USERR4
 40
0.0
  9
$USERR5
 40
0.0
  9
$WORLDVIEW
 70
     1
  9
$SHADEDGE
 70
     3
  9
$SHADEDIF
 70
    70
  9
$TILEMODE
 70
     1
  9
$MAXACTVP
 70
    48
  9
$PINSBASE
 10
0.0
 20
0.0
 30
0.0
  9
$PLIMCHECK
 70
     0
  9
$PEXTMIN
 10
1.000000000000000E+20
 20
1.000000000000000E+20
 30
1.000000000000000E+20
  9
$PEXTMAX
 10
-1.000000000000000E+20
 20
-1.000000000000000E+20
 30
-1.000000000000000E+20
  9
$PLIMMIN
 10
0.0
 20
0.0
  9
$PLIMMAX
 10
12.0
 20
9.0
  9
$UNITMODE
 70
     0
  9
$VISRETAIN
 70
     1
  9
$PLINEGEN
 70
     0
  9
$PSLTSCALE
 70
     1
  9
$TREEDEPTH
 70
  3020
  9
$CMLSTYLE
  2
STANDARD
  9
$CMLJUST
 70
     0
  9
$CMLSCALE
 40
1.0
  9
$PROXYGRAPHICS
 70
     1
  9
$MEASUREMENT
 70
     0
  9
$CELWEIGHT
370
    -1
  9
$ENDCAPS
280
     0
  9
$JOINSTYLE
280
     0
  9
$LWDISPLAY
290
     0
  9
$INSUNITS
 70
     0
  9
$HYPERLINKBASE
  1

  9
$STYLESHEET
  1

  9
$XEDIT
290
     1
  9
$CEPSNTYPE
380
     0
  9
$PSTYLEMODE
290
     1
  9
$FINGERPRINTGUID
  2
{1754B7AB-9B3C-11D4-AD9E-00104B1004F2}
  9
$VERSIONGUID
  2
{F7C267A5-8861-464D-BE09-6284D62FC72F}
  9
$EXTNAMES
290
     1
  9
$PSVPSCALE
 40
0.0
  9
$OLESTARTUP
290
     0
  0
ENDSEC
  0
SECTION
  2
CLASSES
  0
CLASS
  1
ACDBDICTIONARYWDFLT
  2
AcDbDictionaryWithDefault
  3
ObjectDBX Classes
 90
        0
280
     0
281
     0
  0
CLASS
  1
ACDBPLACEHOLDER
  2
AcDbPlaceHolder
  3
ObjectDBX Classes
 90
        0
280
     0
281
     0
  0
CLASS
  1
LAYOUT
  2
AcDbLayout
  3
ObjectDBX Classes
 90
        0
280
     0
281
     0
  0
CLASS
  1
DICTIONARYVAR
  2
AcDbDictionaryVar
  3
ObjectDBX Classes
 90
        0
280
     0
281
     0
  0
CLASS
  1
SORTENTSTABLE
  2
AcDbSortentsTable
  3
ObjectDBX Classes
 90
    32768
280
     0
281
     0
  0
ENDSEC
  0
SECTION
  2
TABLES
  0
TABLE
  2
VPORT
  5
21
330
0
100
AcDbSymbolTable
 70
     3
  0
VPORT
  5
222
330
21
100
AcDbSymbolTableRecord
100
AcDbViewportTableRecord
  2
*Active
 70
     0
 10
0.0
 20
0.0
 11
1.0
 21
1.0
 12
-1.899741102329471
 22
2.518044692296825
 13
0.0
 23
0.0
 14
1.0
 24
1.0
 15
0.0
 25
0.0
 16
0.0
 26
0.0
 36
1.0
 17
0.0
 27
0.0
 37
0.0
 40
113.9753437209665
 41
2.144458281444582
 42
50.0
 43
0.0
 44
0.0
 50
0.0
 51
0.0
 71
     0
 72
  1000
 73
     1
 74
     0
 75
     0
 76
     1
 77
     0
 78
     0
281
     0
 65
     1
110
0.0
120
0.0
130
0.0
111
1.0
121
0.0
131
0.0
112
0.0
122
1.0
132
0.0
 79
     0
146
0.0
  0
ENDTAB
  0
TABLE
  2
LTYPE
  5
1C
330
0
100
AcDbSymbolTable
 70
     1
  0
LTYPE
  5
1D
330
1C
100
AcDbSymbolTableRecord
100
AcDbLinetypeTableRecord
  2
BYBLOCK
 70
     0
  3

 72
    65
 73
     0
 40
0.0
  0
LTYPE
  5
1E
330
1C
100
AcDbSymbolTableRecord
100
AcDbLinetypeTableRecord
  2
BYLAYER
 70
     0
  3

 72
    65
 73
     0
 40
0.0
  0
LTYPE
  5
A
330
1C
100
AcDbSymbolTableRecord
100
AcDbLinetypeTableRecord
  2
CONTINUOUS
 70
     0
  3
Solid line
 72
    65
 73
     0
 40
0.0
  0
ENDTAB
  0
TABLE
  2
LAYER
  5
14
102
{ACAD_XDICTIONARY
360
15
102
}
330
0
100
AcDbSymbolTable
 70
     7
  0
LAYER
  5
6
330
14
100
AcDbSymbolTableRecord
100
AcDbLayerTableRecord
  2
0
 70
     0
 62
     7
  6
CONTINUOUS
370
    -3
390
7
  0
LAYER
  5
44
330
14
100
AcDbSymbolTableRecord
100
AcDbLayerTableRecord
  2
DEFPOINTS
 70
     0
 62
     7
  6
CONTINUOUS
290
     0
370
    -3
390
7
  0
LAYER
  5
1CD
330
14
100
AcDbSymbolTableRecord
100
AcDbLayerTableRecord
  2
WAKU
 70
     0
 62
     4
  6
CONTINUOUS
370
    -3
390
7
  0
LAYER
  5
35
330
14
100
AcDbSymbolTableRecord
100
AcDbLayerTableRecord
  2
MOJI1
 70
     0
 62
     2
  6
CONTINUOUS
370
    -3
390
7
  0
LAYER
  5
64
330
14
100
AcDbSymbolTableRecord
100
AcDbLayerTableRecord
  2
GAIKEI
 70
     0
 62
     7
  6
CONTINUOUS
370
    -3
390
7
  0
LAYER
  5
39
330
14
100
AcDbSymbolTableRecord
100
AcDbLayerTableRecord
  2
SUNPO
 70
     0
 62
     3
  6
CONTINUOUS
370
    -3
390
7
  0
LAYER
  5
37
330
14
100
AcDbSymbolTableRecord
100
AcDbLayerTableRecord
  2
TOUROKU
 70
     0
 62
     1
  6
CONTINUOUS
370
    -3
390
7
  0
ENDTAB
  0
TABLE
  2
STYLE
  5
19
330
0
100
AcDbSymbolTable
 70
     1
  0
STYLE
  5
1A
330
19
100
AcDbSymbolTableRecord
100
AcDbTextStyleTableRecord
  2
STANDARD
 70
     0
 40
0.0
 41
1.0
 50
0.0
 71
     0
 42
2.5
  3
MONOTXT.shx
  4
BIGFONT.shx
  0
ENDTAB
  0
TABLE
  2
VIEW
  5
1F
330
0
100
AcDbSymbolTable
 70
     0
  0
ENDTAB
  0
TABLE
  2
UCS
  5
20
330
0
100
AcDbSymbolTable
 70
     0
  0
ENDTAB
  0
TABLE
  2
APPID
  5
23
330
0
100
AcDbSymbolTable
 70
     1
  0
APPID
  5
24
330
23
100
AcDbSymbolTableRecord
100
AcDbRegAppTableRecord
  2
ACAD
 70
     0
  0
ENDTAB
  0
TABLE
  2
DIMSTYLE
  5
25
330
0
100
AcDbSymbolTable
 70
     1
100
AcDbDimStyleTable
 71
     0
  0
DIMSTYLE
105
33
102
{ACAD_REACTORS
330
55
330
48
330
38
102
}
330
25
100
AcDbSymbolTableRecord
100
AcDbDimStyleTableRecord
  2
STANDARD
 70
     0
 40
0.0
 41
2.0
 42
2.0
 43
8.0
 44
2.0
 73
     0
 74
     0
 77
     3
140
3.0
141
0.0
173
     1
279
     2
288
     1
340
1A
341
2C
343
2C
344
2C
  0
ENDTAB
  0
TABLE
  2
BLOCK_RECORD
  5
1
330
0
100
AcDbSymbolTable
 70
     7
  0
BLOCK_RECORD
  5
2
102
{ACAD_XDICTIONARY
360
3
102
}
330
1
100
AcDbSymbolTableRecord
100
AcDbBlockTableRecord
  2
*MODEL_SPACE
340
C
  0
BLOCK_RECORD
  5
E
102
{ACAD_XDICTIONARY
360
F
102
}
330
1
100
AcDbSymbolTableRecord
100
AcDbBlockTableRecord
  2
*PAPER_SPACE
340
13
  0
BLOCK_RECORD
  5
2C
330
1
100
AcDbSymbolTableRecord
100
AcDbBlockTableRecord
  2
_OPEN30
340
0
102
{BLKREFS
331
4E
331
4F
331
5B
331
5C
331
40
331
41
331
1FD
331
1FE
331
209
331
20A
331
216
331
217
102
}
  0
BLOCK_RECORD
  5
56
330
1
100
AcDbSymbolTableRecord
100
AcDbBlockTableRecord
  2
*D1
340
0
  0
BLOCK_RECORD
  5
49
330
1
100
AcDbSymbolTableRecord
100
AcDbBlockTableRecord
  2
*D2
340
0
  0
BLOCK_RECORD
  5
3A
330
1
100
AcDbSymbolTableRecord
100
AcDbBlockTableRecord
  2
*D3
340
0
  0
BLOCK_RECORD
  5
1F9
330
1
100
AcDbSymbolTableRecord
100
AcDbBlockTableRecord
  2
*D4
340
0
  0
BLOCK_RECORD
  5
205
330
1
100
AcDbSymbolTableRecord
100
AcDbBlockTableRecord
  2
*D5
340
0
  0
BLOCK_RECORD
  5
211
330
1
100
AcDbSymbolTableRecord
100
AcDbBlockTableRecord
  2
*D6
340
0
  0
ENDTAB
  0
ENDSEC
  0
SECTION
  2
BLOCKS
  0
BLOCK
  5
5
330
2
100
AcDbEntity
  8
0
100
AcDbBlockBegin
  2
*MODEL_SPACE
 70
     0
 10
0.0
 20
0.0
 30
0.0
  3
*MODEL_SPACE
  1

  0
ENDBLK
  5
B
330
2
100
AcDbEntity
  8
0
100
AcDbBlockEnd
  0
BLOCK
  5
11
330
E
100
AcDbEntity
 67
     1
  8
0
100
AcDbBlockBegin
  2
*PAPER_SPACE
 70
     0
 10
0.0
 20
0.0
 30
0.0
  3
*PAPER_SPACE
  1

  0
ENDBLK
  5
12
330
E
100
AcDbEntity
 67
     1
  8
0
100
AcDbBlockEnd
  0
BLOCK
  5
2D
330
2C
100
AcDbEntity
  8
0
100
AcDbBlockBegin
  2
_OPEN30
 70
     0
 10
0.0
 20
0.0
 30
0.0
  3
_OPEN30
  1

  0
LINE
  5
2E
330
2C
100
AcDbEntity
  8
0
  6
ByBlock
 62
     0
100
AcDbLine
 10
-1.0
 20
0.26794919
 30
0.0
 11
0.0
 21
0.0
 31
0.0
  0
LINE
  5
2F
330
2C
100
AcDbEntity
  8
0
  6
ByBlock
 62
     0
100
AcDbLine
 10
0.0
 20
0.0
 30
0.0
 11
-1.0
 21
-0.26794919
 31
0.0
  0
LINE
  5
30
330
2C
100
AcDbEntity
  8
0
  6
ByBlock
 62
     0
100
AcDbLine
 10
0.0
 20
0.0
 30
0.0
 11
-1.0
 21
0.0
 31
0.0
  0
ENDBLK
  5
31
330
2C
100
AcDbEntity
  8
0
100
AcDbBlockEnd
  0
BLOCK
  5
57
330
56
100
AcDbEntity
  8
0
100
AcDbBlockBegin
  2
*D1
 70
     1
 10
0.0
 20
0.0
 30
0.0
  3
*D1
  1

  0
LINE
  5
58
330
56
100
AcDbEntity
  8
SUNPO
 62
     0
370
    -2
100
AcDbLine
 10
25.9552091483673
 20
344.917271650954
 30
0.0
 11
25.9552091483673
 21
352.9172716509541
 31
0.0
  0
LINE
  5
59
330
56
100
AcDbEntity
  8
SUNPO
 62
     0
370
    -2
100
AcDbLine
 10
74.35521376171594
 20
344.917271650954
 30
0.0
 11
74.35521376171594
 21
352.9172716509541
 31
0.0
  0
LINE
  5
5A
330
56
100
AcDbEntity
  8
SUNPO
 62
     0
370
    -2
100
AcDbLine
 10
27.95520914836731
 20
350.917271650954
 30
0.0
 11
72.35521376171594
 21
350.917271650954
 31
0.0
  0
INSERT
  5
5B
330
56
100
AcDbEntity
  8
SUNPO
 62
     0
370
    -2
100
AcDbBlockReference
  2
_OPEN30
 10
25.9552091483673
 20
350.917271650954
 30
0.0
 41
2.0
 42
2.0
 43
2.0
 50
180.0
  0
INSERT
  5
5C
330
56
100
AcDbEntity
  8
SUNPO
 62
     0
370
    -2
100
AcDbBlockReference
  2
_OPEN30
 10
74.35521376171594
 20
350.917271650954
 30
0.0
 41
2.0
 42
2.0
 43
2.0
  0
MTEXT
  5
5D
330
56
100
AcDbEntity
  8
SUNPO
 62
     0
100
AcDbMText
 10
50.15521145504163
 20
352.6672716509541
 30
0.0
 40
2.5
 41
0.0
 71
     5
 72
     1
  1
\A1;968
 73
     1
 44
1.0
1001
ACAD
1000
MTEXTBEGIN
1070
    73
1070
     1
1070
    44
1040
1.0
1070
    74
1070
     0
1000
MTEXTEND
  0
POINT
  5
5E
330
56
100
AcDbEntity
  8
DEFPOINTS
 62
     0
100
AcDbPoint
 10
25.9552091483673
 20
342.917271650954
 30
0.0
  0
POINT
  5
5F
330
56
100
AcDbEntity
  8
DEFPOINTS
 62
     0
100
AcDbPoint
 10
74.35521376171594
 20
342.917271650954
 30
0.0
  0
POINT
  5
60
330
56
100
AcDbEntity
  8
DEFPOINTS
 62
     0
100
AcDbPoint
 10
74.35521376171594
 20
350.917271650954
 30
0.0
  0
ENDBLK
  5
61
330
56
100
AcDbEntity
  8
0
100
AcDbBlockEnd
  0
BLOCK
  5
4A
330
49
100
AcDbEntity
  8
0
100
AcDbBlockBegin
  2
*D2
 70
     1
 10
0.0
 20
0.0
 30
0.0
  3
*D2
  1

  0
LINE
  5
4B
330
49
100
AcDbEntity
  8
SUNPO
 62
     0
370
    -2
100
AcDbLine
 10
76.35050061356681
 20
314.8778089318122
 30
0.0
 11
84.3505006135668
 21
314.8778089318122
 31
0.0
  0
LINE
  5
4C
330
49
100
AcDbEntity
  8
SUNPO
 62
     0
370
    -2
100
AcDbLine
 10
76.35050061356681
 20
342.9278129736094
 30
0.0
 11
84.3505006135668
 21
342.9278129736094
 31
0.0
  0
LINE
  5
4D
330
49
100
AcDbEntity
  8
SUNPO
 62
     0
370
    -2
100
AcDbLine
 10
82.35050061356679
 20
316.8778089318122
 30
0.0
 11
82.35050061356679
 21
340.9278129736094
 31
0.0
  0
INSERT
  5
4E
330
49
100
AcDbEntity
  8
SUNPO
 62
     0
370
    -2
100
AcDbBlockReference
  2
_OPEN30
 10
82.35050061356679
 20
314.8778089318122
 30
0.0
 41
2.0
 42
2.0
 43
2.0
 50
270.0
  0
INSERT
  5
4F
330
49
100
AcDbEntity
  8
SUNPO
 62
     0
370
    -2
100
AcDbBlockReference
  2
_OPEN30
 10
82.35050061356679
 20
342.9278129736094
 30
0.0
 41
2.0
 42
2.0
 43
2.0
 50
90.0
  0
MTEXT
  5
50
330
49
100
AcDbEntity
  8
SUNPO
 62
     0
100
AcDbMText
 10
80.60050061356674
 20
328.9028109527108
 30
0.0
 40
2.5
 41
0.0
 71
     5
 72
     1
  1
\A1;561
 11
0.0000000000000001
 21
1.0
 31
0.0
 73
     1
 44
1.0
1001
ACAD
1000
MTEXTBEGIN
1070
    73
1070
     1
1070
    44
1040
1.0
1070
    74
1070
     0
1000
MTEXTEND
  0
POINT
  5
51
330
49
100
AcDbEntity
  8
DEFPOINTS
 62
     0
100
AcDbPoint
 10
74.35050061356681
 20
314.8778089318122
 30
0.0
  0
POINT
  5
52
330
49
100
AcDbEntity
  8
DEFPOINTS
 62
     0
100
AcDbPoint
 10
74.35050061356681
 20
342.9278129736094
 30
0.0
  0
POINT
  5
53
330
49
100
AcDbEntity
  8
DEFPOINTS
 62
     0
100
AcDbPoint
 10
82.35050061356679
 20
342.9278129736094
 30
0.0
  0
ENDBLK
  5
54
330
49
100
AcDbEntity
  8
0
100
AcDbBlockEnd
  0
BLOCK
  5
3B
330
3A
100
AcDbEntity
  8
0
100
AcDbBlockBegin
  2
*D3
 70
     1
 10
0.0
 20
0.0
 30
0.0
  3
*D3
  1

  0
LINE
  5
3C
330
3A
100
AcDbEntity
  8
SUNPO
 62
     0
370
    -2
100
AcDbLine
 10
94.13118521184618
 20
344.9172716509541
 30
0.0
 11
94.13118521184618
 21
352.9172716509541
 31
0.0
  0
LINE
  5
3D
330
3A
100
AcDbEntity
  8
SUNPO
 62
     0
370
    -2
100
AcDbLine
 10
99.88258027684619
 20
344.9172716509541
 30
0.0
 11
99.88258027684619
 21
352.9172716509541
 31
0.0
  0
LINE
  5
3E
330
3A
100
AcDbEntity
  8
SUNPO
 62
     0
370
    -2
100
AcDbLine
 10
96.13118521184617
 20
350.9172716509541
 30
0.0
 11
97.88258027684619
 21
350.9172716509541
 31
0.0
  0
LINE
  5
3F
330
3A
100
AcDbEntity
  8
SUNPO
 62
     0
370
    -2
100
AcDbLine
 10
99.88258027684619
 20
350.9172716509541
 30
0.0
 11
109.5492469435128
 21
350.9172716509541
 31
0.0
  0
INSERT
  5
40
330
3A
100
AcDbEntity
  8
SUNPO
 62
     0
370
    -2
100
AcDbBlockReference
  2
_OPEN30
 10
94.13118521184618
 20
350.9172716509541
 30
0.0
 41
2.0
 42
2.0
 43
2.0
 50
180.0
  0
INSERT
  5
41
330
3A
100
AcDbEntity
  8
SUNPO
 62
     0
370
    -2
100
AcDbBlockReference
  2
_OPEN30
 10
99.88258027684619
 20
350.9172716509541
 30
0.0
 41
2.0
 42
2.0
 43
2.0
  0
MTEXT
  5
42
330
3A
100
AcDbEntity
  8
SUNPO
 62
     0
100
AcDbMText
 10
105.7159136101795
 20
352.6672716509541
 30
0.0
 40
2.5
 41
0.0
 71
     5
 72
     1
  1
\A1;116
 73
     1
 44
1.0
1001
ACAD
1000
MTEXTBEGIN
1070
    73
1070
     1
1070
    44
1040
1.0
1070
    74
1070
     0
1000
MTEXTEND
  0
POINT
  5
43
330
3A
100
AcDbEntity
  8
DEFPOINTS
 62
     0
100
AcDbPoint
 10
94.13118521184618
 20
342.9172716509541
 30
0.0
  0
POINT
  5
45
330
3A
100
AcDbEntity
  8
DEFPOINTS
 62
     0
100
AcDbPoint
 10
99.88258027684619
 20
342.9172716509541
 30
0.0
  0
POINT
  5
46
330
3A
100
AcDbEntity
  8
DEFPOINTS
 62
     0
100
AcDbPoint
 10
99.88258027684619
 20
350.9172716509541
 30
0.0
  0
ENDBLK
  5
47
330
3A
100
AcDbEntity
  8
0
100
AcDbBlockEnd
  0
BLOCK
  5
203
330
1F9
100
AcDbEntity
  8
0
100
AcDbBlockBegin
  2
*D4
 70
     1
 10
0.0
 20
0.0
 30
0.0
  3
*D4
  1

  0
LINE
  5
1FA
330
1F9
100
AcDbEntity
  8
SUNPO
 62
     0
370
    -2
100
AcDbLine
 10
-40.48200215228838
 20
33.48723665540934
 30
0.0
 11
-40.48200215228838
 21
41.48723665540933
 31
0.0
  0
LINE
  5
1FB
330
1F9
100
AcDbEntity
  8
SUNPO
 62
     0
370
    -2
100
AcDbLine
 10
7.918002461060254
 20
33.48723665540934
 30
0.0
 11
7.918002461060255
 21
41.48723665540933
 31
0.0
  0
LINE
  5
1FC
330
1F9
100
AcDbEntity
  8
SUNPO
 62
     0
370
    -2
100
AcDbLine
 10
-38.48200215228839
 20
39.48723665540934
 30
0.0
 11
5.918002461060255
 21
39.48723665540934
 31
0.0
  0
INSERT
  5
1FD
330
1F9
100
AcDbEntity
  8
SUNPO
 62
     0
370
    -2
100
AcDbBlockReference
  2
_OPEN30
 10
-40.48200215228838
 20
39.48723665540934
 30
0.0
 41
2.0
 42
2.0
 43
2.0
 50
180.0
  0
INSERT
  5
1FE
330
1F9
100
AcDbEntity
  8
SUNPO
 62
     0
370
    -2
100
AcDbBlockReference
  2
_OPEN30
 10
7.918002461060255
 20
39.48723665540934
 30
0.0
 41
2.0
 42
2.0
 43
2.0
  0
MTEXT
  5
1FF
330
1F9
100
AcDbEntity
  8
SUNPO
 62
     0
100
AcDbMText
 10
-16.28199984561407
 20
41.23723665540933
 30
0.0
 40
2.5
 41
0.0
 71
     5
 72
     1
  1
\A1;968
 73
     1
 44
1.0
1001
ACAD
1000
MTEXTBEGIN
1070
    73
1070
     1
1070
    44
1040
1.0
1070
    74
1070
     0
1000
MTEXTEND
  0
POINT
  5
200
330
1F9
100
AcDbEntity
  8
DEFPOINTS
 62
     0
100
AcDbPoint
 10
-40.48200215228838
 20
31.48723665540933
 30
0.0
  0
POINT
  5
201
330
1F9
100
AcDbEntity
  8
DEFPOINTS
 62
     0
100
AcDbPoint
 10
7.918002461060254
 20
31.48723665540933
 30
0.0
  0
POINT
  5
202
330
1F9
100
AcDbEntity
  8
DEFPOINTS
 62
     0
100
AcDbPoint
 10
7.918002461060255
 20
39.48723665540934
 30
0.0
  0
ENDBLK
  5
204
330
1F9
100
AcDbEntity
  8
0
100
AcDbBlockEnd
  0
BLOCK
  5
20F
330
205
100
AcDbEntity
  8
0
100
AcDbBlockBegin
  2
*D5
 70
     1
 10
0.0
 20
0.0
 30
0.0
  3
*D5
  1

  0
LINE
  5
206
330
205
100
AcDbEntity
  8
SUNPO
 62
     0
370
    -2
100
AcDbLine
 10
9.913289312911118
 20
3.44777393626748
 30
0.0
 11
17.9132893129111
 21
3.447773936267478
 31
0.0
  0
LINE
  5
207
330
205
100
AcDbEntity
  8
SUNPO
 62
     0
370
    -2
100
AcDbLine
 10
9.913289312911118
 20
31.49777797806473
 30
0.0
 11
17.9132893129111
 21
31.49777797806473
 31
0.0
  0
LINE
  5
208
330
205
100
AcDbEntity
  8
SUNPO
 62
     0
370
    -2
100
AcDbLine
 10
15.9132893129111
 20
5.447773936267479
 30
0.0
 11
15.9132893129111
 21
29.49777797806473
 31
0.0
  0
INSERT
  5
209
330
205
100
AcDbEntity
  8
SUNPO
 62
     0
370
    -2
100
AcDbBlockReference
  2
_OPEN30
 10
15.9132893129111
 20
3.447773936267478
 30
0.0
 41
2.0
 42
2.0
 43
2.0
 50
270.0
  0
INSERT
  5
20A
330
205
100
AcDbEntity
  8
SUNPO
 62
     0
370
    -2
100
AcDbBlockReference
  2
_OPEN30
 10
15.9132893129111
 20
31.49777797806473
 30
0.0
 41
2.0
 42
2.0
 43
2.0
 50
90.0
  0
MTEXT
  5
20B
330
205
100
AcDbEntity
  8
SUNPO
 62
     0
100
AcDbMText
 10
14.1632893129111
 20
17.4727759571661
 30
0.0
 40
2.5
 41
0.0
 71
     5
 72
     1
  1
\A1;561
 11
0.0000000000000001
 21
1.0
 31
0.0
 73
     1
 44
1.0
1001
ACAD
1000
MTEXTBEGIN
1070
    73
1070
     1
1070
    44
1040
1.0
1070
    74
1070
     0
1000
MTEXTEND
  0
POINT
  5
20C
330
205
100
AcDbEntity
  8
DEFPOINTS
 62
     0
100
AcDbPoint
 10
7.913289312911118
 20
3.447773936267481
 30
0.0
  0
POINT
  5
20D
330
205
100
AcDbEntity
  8
DEFPOINTS
 62
     0
100
AcDbPoint
 10
7.913289312911118
 20
31.49777797806474
 30
0.0
  0
POINT
  5
20E
330
205
100
AcDbEntity
  8
DEFPOINTS
 62
     0
100
AcDbPoint
 10
15.9132893129111
 20
31.49777797806473
 30
0.0
  0
ENDBLK
  5
210
330
205
100
AcDbEntity
  8
0
100
AcDbBlockEnd
  0
BLOCK
  5
21C
330
211
100
AcDbEntity
  8
0
100
AcDbBlockBegin
  2
*D6
 70
     1
 10
0.0
 20
0.0
 30
0.0
  3
*D6
  1

  0
LINE
  5
212
330
211
100
AcDbEntity
  8
SUNPO
 62
     0
370
    -2
100
AcDbLine
 10
27.69397391119048
 20
33.48723665540939
 30
0.0
 11
27.69397391119048
 21
41.48723665540939
 31
0.0
  0
LINE
  5
213
330
211
100
AcDbEntity
  8
SUNPO
 62
     0
370
    -2
100
AcDbLine
 10
33.44536897619049
 20
33.48723665540939
 30
0.0
 11
33.44536897619049
 21
41.48723665540939
 31
0.0
  0
LINE
  5
214
330
211
100
AcDbEntity
  8
SUNPO
 62
     0
370
    -2
100
AcDbLine
 10
29.69397391119048
 20
39.48723665540939
 30
0.0
 11
31.4453689761905
 21
39.48723665540939
 31
0.0
  0
LINE
  5
215
330
211
100
AcDbEntity
  8
SUNPO
 62
     0
370
    -2
100
AcDbLine
 10
33.44536897619049
 20
39.48723665540939
 30
0.0
 11
43.11203564285715
 21
39.48723665540939
 31
0.0
  0
INSERT
  5
216
330
211
100
AcDbEntity
  8
SUNPO
 62
     0
370
    -2
100
AcDbBlockReference
  2
_OPEN30
 10
27.69397391119048
 20
39.48723665540939
 30
0.0
 41
2.0
 42
2.0
 43
2.0
 50
180.0
  0
INSERT
  5
217
330
211
100
AcDbEntity
  8
SUNPO
 62
     0
370
    -2
100
AcDbBlockReference
  2
_OPEN30
 10
33.44536897619049
 20
39.48723665540939
 30
0.0
 41
2.0
 42
2.0
 43
2.0
  0
MTEXT
  5
218
330
211
100
AcDbEntity
  8
SUNPO
 62
     0
100
AcDbMText
 10
39.27870230952383
 20
41.23723665540938
 30
0.0
 40
2.5
 41
0.0
 71
     5
 72
     1
  1
\A1;116
 73
     1
 44
1.0
1001
ACAD
1000
MTEXTBEGIN
1070
    73
1070
     1
1070
    44
1040
1.0
1070
    74
1070
     0
1000
MTEXTEND
  0
POINT
  5
219
330
211
100
AcDbEntity
  8
DEFPOINTS
 62
     0
100
AcDbPoint
 10
27.69397391119048
 20
31.48723665540939
 30
0.0
  0
POINT
  5
21A
330
211
100
AcDbEntity
  8
DEFPOINTS
 62
     0
100
AcDbPoint
 10
33.44536897619049
 20
31.48723665540939
 30
0.0
  0
POINT
  5
21B
330
211
100
AcDbEntity
  8
DEFPOINTS
 62
     0
100
AcDbPoint
 10
33.44536897619049
 20
39.48723665540939
 30
0.0
  0
ENDBLK
  5
21D
330
211
100
AcDbEntity
  8
0
100
AcDbBlockEnd
  0
ENDSEC
  0
SECTION
  2
ENTITIES
  0
TEXT
  5
34
330
2
100
AcDbEntity
  8
MOJI1
100
AcDbText
 10
-37.43721130065592
 20
55.06917914409746
 30
0.0
 40
4.0
  1
フルハイビジョン液晶ディスプレイ
100
AcDbText
  0
TEXT
  5
36
330
2
100
AcDbEntity
  8
TOUROKU
100
AcDbText
 10
40.02940539893825
 20
49.069179144097
 30
0.0
 40
2.0
  1
ＴＨ４２ＬＦ３０Ｊ
 72
     2
 11
60.56273873227159
 21
49.069179144097
 31
0.0
100
AcDbText
  0
DIMENSION
  5
38
330
2
100
AcDbEntity
  8
SUNPO
100
AcDbDimension
  2
*D6
 10
33.44536897619049
 20
39.48723665540939
 30
0.0
 11
39.27870230952383
 21
41.23723665540938
 31
0.0
 70
    33
  1
116
 71
     5
 42
5.751395065000011
  3
STANDARD
100
AcDbAlignedDimension
 13
27.69397391119048
 23
31.48723665540939
 33
0.0
 14
33.44536897619049
 24
31.48723665540939
 34
0.0
1001
ACAD
1000
DSTYLE
1002
{
1070
   287
1070
     3
1070
   287
1070
     3
1070
   287
1070
     3
1070
   287
1070
     3
1070
   287
1070
     3
1070
   287
1070
     3
1070
   287
1070
     3
1070
   287
1070
     3
1070
   287
1070
     3
1070
   287
1070
     3
1070
   287
1070
     3
1070
   287
1070
     3
1070
   287
1070
     3
1070
   287
1070
     3
1070
   287
1070
     3
1070
   287
1070
     3
1070
   287
1070
     3
1070
   287
1070
     3
1070
   287
1070
     3
1070
   287
1070
     3
1070
   287
1070
     3
1070
   287
1070
     3
1070
   287
1070
     3
1070
   287
1070
     3
1070
   287
1070
     3
1070
   287
1070
     3
1070
   287
1070
     3
1070
   287
1070
     3
1070
   287
1070
     3
1070
   287
1070
     3
1070
   287
1070
     3
1070
   287
1070
     3
1070
   287
1070
     3
1070
   287
1070
     3
1070
   287
1070
     3
1070
    40
1040
1.0
1070
   140
1040
2.5
1070
   147
1040
0.5
1070
   172
1070
     1
1070
   279
1070
     0
1002
}
  0
DIMENSION
  5
48
330
2
100
AcDbEntity
  8
SUNPO
100
AcDbDimension
  2
*D5
 10
15.9132893129111
 20
31.49777797806473
 30
0.0
 11
14.1632893129111
 21
17.4727759571661
 31
0.0
 70
    33
  1
561
 71
     5
 42
28.05000404179725
  3
STANDARD
100
AcDbAlignedDimension
 13
7.913289312911118
 23
3.447773936267481
 33
0.0
 14
7.913289312911118
 24
31.49777797806474
 34
0.0
1001
ACAD
1000
DSTYLE
1002
{
1070
   287
1070
     3
1070
   287
1070
     3
1070
   287
1070
     3
1070
   287
1070
     3
1070
   287
1070
     3
1070
   287
1070
     3
1070
   287
1070
     3
1070
   287
1070
     3
1070
   287
1070
     3
1070
   287
1070
     3
1070
   287
1070
     3
1070
   287
1070
     3
1070
   287
1070
     3
1070
   287
1070
     3
1070
   287
1070
     3
1070
   287
1070
     3
1070
   287
1070
     3
1070
   287
1070
     3
1070
   287
1070
     3
1070
   287
1070
     3
1070
   287
1070
     3
1070
   287
1070
     3
1070
   287
1070
     3
1070
   287
1070
     3
1070
   287
1070
     3
1070
   287
1070
     3
1070
   287
1070
     3
1070
   287
1070
     3
1070
   287
1070
     3
1070
   287
1070
     3
1070
   287
1070
     3
1070
   287
1070
     3
1070
   287
1070
     3
1070
   287
1070
     3
1070
   287
1070
     3
1070
    40
1040
1.0
1070
   140
1040
2.5
1070
   147
1040
0.5
1070
   172
1070
     1
1070
   279
1070
     0
1002
}
  0
DIMENSION
  5
55
330
2
100
AcDbEntity
  8
SUNPO
100
AcDbDimension
  2
*D4
 10
7.918002461060255
 20
39.48723665540934
 30
0.0
 11
-16.28199984561407
 21
41.23723665540933
 31
0.0
 70
    33
  1
968
 71
     5
 42
48.40000461334864
  3
STANDARD
100
AcDbAlignedDimension
 13
-40.48200215228838
 23
31.48723665540933
 33
0.0
 14
7.918002461060254
 24
31.48723665540933
 34
0.0
1001
ACAD
1000
DSTYLE
1002
{
1070
   287
1070
     3
1070
   287
1070
     3
1070
   287
1070
     3
1070
   287
1070
     3
1070
   287
1070
     3
1070
   287
1070
     3
1070
   287
1070
     3
1070
   287
1070
     3
1070
   287
1070
     3
1070
   287
1070
     3
1070
   287
1070
     3
1070
   287
1070
     3
1070
   287
1070
     3
1070
   287
1070
     3
1070
   287
1070
     3
1070
   287
1070
     3
1070
   287
1070
     3
1070
   287
1070
     3
1070
   287
1070
     3
1070
   287
1070
     3
1070
   287
1070
     3
1070
   287
1070
     3
1070
   287
1070
     3
1070
   287
1070
     3
1070
   287
1070
     3
1070
   287
1070
     3
1070
   287
1070
     3
1070
   287
1070
     3
1070
   287
1070
     3
1070
   287
1070
     3
1070
   287
1070
     3
1070
   287
1070
     3
1070
   287
1070
     3
1070
   287
1070
     3
1070
   287
1070
     3
1070
    40
1040
1.0
1070
   140
1040
2.5
1070
   147
1040
0.5
1070
   172
1070
     1
1070
   279
1070
     0
1002
}
  0
TEXT
  5
62
330
2
100
AcDbEntity
  8
TOUROKU
100
AcDbText
 10
35.91102050468123
 20
2.725537245074633
 30
0.0
 40
1.5
  1
Ｓ＝１／２０
 41
0.7
 72
     2
 11
42.98102050468123
 21
2.725537245074633
 31
0.0
100
AcDbText
  0
LINE
  5
63
330
2
100
AcDbEntity
  8
GAIKEI
  6
Continuous
 62
     7
100
AcDbLine
 10
-40.48199707151167
 20
31.24602525960722
 30
0.0
 11
-40.48199707151167
 21
3.699343504807245
 31
0.0
  0
LINE
  5
65
330
2
100
AcDbEntity
  8
GAIKEI
  6
Continuous
 62
     1
100
AcDbLine
 10
-40.34098056406548
 20
31.24602525960722
 30
0.0
 11
-40.34098056406548
 21
3.699343504807245
 31
0.0
  0
LINE
  5
66
330
2
100
AcDbEntity
  8
GAIKEI
  6
Continuous
 62
     1
100
AcDbLine
 10
-40.23280938151907
 20
3.591172322260831
 30
0.0
 11
-40.23280938151907
 21
3.45015581481465
 31
0.0
  0
LINE
  5
67
330
2
100
AcDbEntity
  8
GAIKEI
  6
Continuous
 62
     1
100
AcDbLine
 10
-40.23280938151907
 20
31.3541964421737
 30
0.0
 11
-40.23280938151907
 21
31.49521294961983
 31
0.0
  0
LINE
  5
68
330
2
100
AcDbEntity
  8
GAIKEI
  6
Continuous
 62
     1
100
AcDbLine
 10
-39.64812300743989
 20
30.54083023805197
 30
0.0
 11
-39.64812300101832
 21
4.403616859021838
 31
0.0
  0
LINE
  5
69
330
2
100
AcDbEntity
  8
GAIKEI
  6
Continuous
 62
     1
100
AcDbLine
 10
-39.54389227699408
 20
4.388260609332292
 30
0.0
 11
-39.54389227699408
 21
30.55710815508223
 31
0.0
  0
LINE
  5
6A
330
2
100
AcDbEntity
  8
GAIKEI
  6
Continuous
 62
     7
100
AcDbLine
 10
7.668809690280937
 20
3.45015581481465
 30
0.0
 11
-40.23280938151907
 21
3.45015581481465
 31
0.0
  0
LINE
  5
6B
330
2
100
AcDbEntity
  8
GAIKEI
  6
Continuous
 62
     1
100
AcDbLine
 10
-40.23280938151907
 20
3.591172322260831
 30
0.0
 11
7.668809690280937
 21
3.591172322260831
 31
0.0
  0
LINE
  5
6C
330
2
100
AcDbEntity
  8
GAIKEI
  6
Continuous
 62
     1
100
AcDbLine
 10
-40.34098056406548
 20
3.699343504807245
 30
0.0
 11
-40.48199707151167
 21
3.699343504807245
 31
0.0
  0
LINE
  5
6D
330
2
100
AcDbEntity
  8
GAIKEI
  6
Continuous
 62
     1
100
AcDbLine
 10
7.776980872847332
 20
3.699343504807245
 30
0.0
 11
7.917997380293513
 21
3.699343504807245
 31
0.0
  0
LINE
  5
6E
330
2
100
AcDbEntity
  8
GAIKEI
  6
Continuous
 62
     1
100
AcDbLine
 10
3.485294932130955
 20
3.791865947157248
 30
0.0
 11
3.840381062230932
 21
3.791865947157248
 31
0.0
  0
LINE
  5
6F
330
2
100
AcDbEntity
  8
GAIKEI
  6
Continuous
 62
     1
100
AcDbLine
 10
4.140453848230947
 20
3.791865947157248
 30
0.0
 11
4.495539978330953
 21
3.791865947157248
 31
0.0
  0
LINE
  5
70
330
2
100
AcDbEntity
  8
GAIKEI
  6
Continuous
 62
     1
100
AcDbLine
 10
4.761854575905942
 20
3.910644758282273
 30
0.0
 11
4.879383083755953
 21
3.910644758282273
 31
0.0
  0
LINE
  5
71
330
2
100
AcDbEntity
  8
GAIKEI
  6
Continuous
 62
     1
100
AcDbLine
 10
4.879383083755953
 20
4.028173266132284
 30
0.0
 11
4.761854575905942
 21
4.028173266132284
 31
0.0
  0
LINE
  5
72
330
2
100
AcDbEntity
  8
GAIKEI
  6
Continuous
 62
     1
100
AcDbLine
 10
4.495539978330953
 20
4.146952077257253
 30
0.0
 11
4.140453848230947
 21
4.146952077257253
 31
0.0
  0
LINE
  5
73
330
2
100
AcDbEntity
  8
GAIKEI
  6
Continuous
 62
     1
100
AcDbLine
 10
3.840381062230932
 20
4.146952077257253
 30
0.0
 11
3.485294932130955
 21
4.146952077257253
 31
0.0
  0
LINE
  5
74
330
2
100
AcDbEntity
  8
GAIKEI
  6
Continuous
 62
     1
100
AcDbLine
 10
-39.52761435994379
 20
4.284029878886428
 30
0.0
 11
6.964536336086354
 21
4.284029885307973
 31
0.0
  0
LINE
  5
75
330
2
100
AcDbEntity
  8
GAIKEI
  6
Continuous
 62
     1
100
AcDbLine
 10
6.979892585755919
 20
4.388260609332292
 30
0.0
 11
-39.54389227699408
 21
4.388260609332292
 31
0.0
  0
LINE
  5
76
330
2
100
AcDbEntity
  8
GAIKEI
  6
Continuous
 62
     1
100
AcDbLine
 10
-39.54389227699408
 20
30.55710815508223
 30
0.0
 11
6.979892585755919
 21
30.55710815508223
 31
0.0
  0
LINE
  5
77
330
2
100
AcDbEntity
  8
GAIKEI
  6
Continuous
 62
     1
100
AcDbLine
 10
6.963614668725654
 20
30.66133888554805
 30
0.0
 11
-39.52853602730448
 21
30.66133887912656
 31
0.0
  0
LINE
  5
78
330
2
100
AcDbEntity
  8
GAIKEI
  6
Continuous
 62
     1
100
AcDbLine
 10
-40.34098056406548
 20
31.24602525960722
 30
0.0
 11
-40.48199707151167
 21
31.24602525960722
 31
0.0
  0
LINE
  5
79
330
2
100
AcDbEntity
  8
GAIKEI
  6
Continuous
 62
     1
100
AcDbLine
 10
7.776980872847332
 20
31.24602525960722
 30
0.0
 11
7.917997380293513
 21
31.24602525960722
 31
0.0
  0
LINE
  5
7A
330
2
100
AcDbEntity
  8
GAIKEI
  6
Continuous
 62
     1
100
AcDbLine
 10
7.668809690280937
 20
31.3541964421737
 30
0.0
 11
-40.23280938151907
 21
31.3541964421737
 31
0.0
  0
LINE
  5
7B
330
2
100
AcDbEntity
  8
GAIKEI
  6
Continuous
 62
     7
100
AcDbLine
 10
-40.23280938151907
 20
31.49521294961983
 30
0.0
 11
7.668809690280937
 21
31.49521294961983
 31
0.0
  0
LINE
  5
7C
330
2
100
AcDbEntity
  8
GAIKEI
  6
Continuous
 62
     1
100
AcDbLine
 10
3.485294932130955
 20
4.146952077257253
 30
0.0
 11
3.485294932130955
 21
3.791865947157248
 31
0.0
  0
LINE
  5
7D
330
2
100
AcDbEntity
  8
GAIKEI
  6
Continuous
 62
     1
100
AcDbLine
 10
3.840381062230932
 20
3.791865947157248
 30
0.0
 11
3.840381062230932
 21
4.146952077257253
 31
0.0
  0
LINE
  5
7E
330
2
100
AcDbEntity
  8
GAIKEI
  6
Continuous
 62
     1
100
AcDbLine
 10
4.140453848230947
 20
4.146952077257253
 30
0.0
 11
4.140453848230947
 21
3.791865947157248
 31
0.0
  0
LINE
  5
7F
330
2
100
AcDbEntity
  8
GAIKEI
  6
Continuous
 62
     1
100
AcDbLine
 10
4.495539978330953
 20
3.791865947157248
 30
0.0
 11
4.495539978330953
 21
4.146952077257253
 31
0.0
  0
LINE
  5
80
330
2
100
AcDbEntity
  8
GAIKEI
  6
Continuous
 62
     1
100
AcDbLine
 10
4.761854575905942
 20
4.028173266132284
 30
0.0
 11
4.761854575905942
 21
3.910644758282273
 31
0.0
  0
LINE
  5
81
330
2
100
AcDbEntity
  8
GAIKEI
  6
Continuous
 62
     1
100
AcDbLine
 10
4.879383083755953
 20
3.910644758282273
 30
0.0
 11
4.879383083755953
 21
4.028173266132284
 31
0.0
  0
LINE
  5
82
330
2
100
AcDbEntity
  8
GAIKEI
  6
Continuous
 62
     1
100
AcDbLine
 10
6.979892585755919
 20
30.55710815508223
 30
0.0
 11
6.979892585755919
 21
4.388260609332292
 31
0.0
  0
LINE
  5
83
330
2
100
AcDbEntity
  8
GAIKEI
  6
Continuous
 62
     1
100
AcDbLine
 10
7.084123316221763
 20
4.404538526382566
 30
0.0
 11
7.08412330980019
 21
30.54175190541264
 31
0.0
  0
LINE
  5
84
330
2
100
AcDbEntity
  8
GAIKEI
  6
Continuous
 62
     1
100
AcDbLine
 10
7.668809690280937
 20
3.591172322260831
 30
0.0
 11
7.668809690280937
 21
3.45015581481465
 31
0.0
  0
LINE
  5
85
330
2
100
AcDbEntity
  8
GAIKEI
  6
Continuous
 62
     1
100
AcDbLine
 10
7.668809690280937
 20
31.3541964421737
 30
0.0
 11
7.668809690280937
 21
31.49521294961983
 31
0.0
  0
LINE
  5
86
330
2
100
AcDbEntity
  8
GAIKEI
  6
Continuous
 62
     1
100
AcDbLine
 10
7.776980872827351
 20
3.699343504807245
 30
0.0
 11
7.776980872827351
 21
31.24602525960722
 31
0.0
  0
LINE
  5
87
330
2
100
AcDbEntity
  8
GAIKEI
  6
Continuous
 62
     7
100
AcDbLine
 10
7.917997380293513
 20
3.699343504807245
 30
0.0
 11
7.917997380293513
 21
31.24602525960722
 31
0.0
  0
LINE
  5
88
330
2
100
AcDbEntity
  8
GAIKEI
  6
Continuous
 62
     1
100
AcDbLine
 10
31.62166634340295
 20
30.9571540211075
 30
0.0
 11
31.62181435336441
 21
30.95721473575452
 31
0.0
  0
LINE
  5
89
330
2
100
AcDbEntity
  8
GAIKEI
  6
Continuous
 62
     1
100
AcDbLine
 10
32.1825284222337
 20
30.65582068544711
 30
0.0
 11
32.23618350121134
 21
30.67736704865775
 31
0.0
  0
LINE
  5
8A
330
2
100
AcDbEntity
  8
GAIKEI
  6
Continuous
 62
     1
100
AcDbLine
 10
29.7594749214905
 20
3.49429376770729
 30
0.0
 11
30.0095355764905
 21
3.49429376770729
 31
0.0
  0
LINE
  5
8B
330
2
100
AcDbEntity
  8
GAIKEI
  6
Continuous
 62
     7
100
AcDbLine
 10
28.91927112069047
 20
3.509297407007238
 30
0.0
 11
30.91379589869396
 21
3.509297407007238
 31
0.0
  0
LINE
  5
8C
330
2
100
AcDbEntity
  8
GAIKEI
  6
Continuous
 62
     1
100
AcDbLine
 10
27.69397391119048
 20
3.699343504807245
 30
0.0
 11
28.91927112069047
 21
3.699343504807245
 31
0.0
  0
LINE
  5
8D
330
2
100
AcDbEntity
  8
GAIKEI
  6
Continuous
 62
     1
100
AcDbLine
 10
27.62895814089046
 20
3.722385523985963
 30
0.0
 11
27.69397391119048
 21
3.722385523985963
 31
0.0
  0
LINE
  5
8E
330
2
100
AcDbEntity
  8
GAIKEI
  6
Continuous
 62
     1
100
AcDbLine
 10
27.62895814089046
 20
3.722556827577477
 30
0.0
 11
27.69397391119048
 21
3.722556827577477
 31
0.0
  0
LINE
  5
8F
330
2
100
AcDbEntity
  8
GAIKEI
  6
Continuous
 62
     1
100
AcDbLine
 10
27.60395207539048
 20
3.742392927784749
 30
0.0
 11
27.62895814089046
 21
3.742392927784749
 31
0.0
  0
LINE
  5
90
330
2
100
AcDbEntity
  8
GAIKEI
  6
Continuous
 62
     1
100
AcDbLine
 10
27.60395207539048
 20
3.742561647089587
 30
0.0
 11
27.62895814089046
 21
3.742561647089587
 31
0.0
  0
LINE
  5
91
330
2
100
AcDbEntity
  8
GAIKEI
  6
Continuous
 62
     1
100
AcDbLine
 10
28.91927112069047
 20
3.759358062007265
 30
0.0
 11
30.91489541555404
 21
3.759358062007265
 31
0.0
  0
LINE
  5
92
330
2
100
AcDbEntity
  8
GAIKEI
  6
Continuous
 62
     1
100
AcDbLine
 10
30.99929169971375
 20
3.773650966430579
 30
0.0
 11
30.91512020479917
 21
3.773650966430579
 31
0.0
  0
LINE
  5
93
330
2
100
AcDbEntity
  8
GAIKEI
  6
Continuous
 62
     7
100
AcDbLine
 10
27.81444032578253
 20
3.468567743073151
 30
0.0
 11
28.86925898969048
 21
3.45015581481465
 31
0.0
  0
LINE
  5
94
330
2
100
AcDbEntity
  8
GAIKEI
  6
Continuous
 62
     1
100
AcDbLine
 10
31.0002806096249
 20
3.756691388896001
 30
0.0
 11
30.91489541555404
 21
3.759358062027217
 31
0.0
  0
LINE
  5
95
330
2
100
AcDbEntity
  8
GAIKEI
  6
Continuous
 62
     7
100
AcDbLine
 10
27.70830737567212
 20
31.38925984967409
 30
0.0
 11
27.77965586232307
 21
31.46186459718513
 31
0.0
  0
LINE
  5
96
330
2
100
AcDbEntity
  8
GAIKEI
  6
Continuous
 62
     1
100
AcDbLine
 10
29.75798128717281
 20
28.87492631158011
 30
0.0
 11
29.7594749214905
 21
28.87545025020722
 31
0.0
  0
LINE
  5
97
330
2
100
AcDbEntity
  8
GAIKEI
  6
Continuous
 62
     1
100
AcDbLine
 10
31.31557123718204
 20
4.009443261560818
 30
0.0
 11
33.36381083009281
 21
4.394195450274082
 31
0.0
  0
LINE
  5
98
330
2
100
AcDbEntity
  8
GAIKEI
  6
Continuous
 62
     1
100
AcDbLine
 10
31.56872925512195
 20
4.307337088509996
 30
0.0
 11
33.35406240304312
 21
4.642704522460405
 31
0.0
  0
LINE
  5
99
330
2
100
AcDbEntity
  8
GAIKEI
  6
Continuous
 62
     1
100
AcDbLine
 10
27.62895814089046
 20
4.124301183030297
 30
0.0
 11
27.60395207539048
 21
4.124301183030297
 31
0.0
  0
LINE
  5
9A
330
2
100
AcDbEntity
  8
GAIKEI
  6
Continuous
 62
     1
100
AcDbLine
 10
27.62895814089046
 20
4.144146046623234
 30
0.0
 11
27.69397391119048
 21
4.144146046623234
 31
0.0
  0
LINE
  5
9B
330
2
100
AcDbEntity
  8
GAIKEI
  6
Continuous
 62
     1
100
AcDbLine
 10
33.44536897619048
 20
4.642704522460405
 30
0.0
 11
33.35406240304312
 21
4.642704522460405
 31
0.0
  0
LINE
  5
9C
330
2
100
AcDbEntity
  8
GAIKEI
  6
Continuous
 62
     1
100
AcDbLine
 10
29.98250861051855
 20
5.449768089807264
 30
0.0
 11
29.95452223239047
 21
5.449768089807264
 31
0.0
  0
LINE
  5
9D
330
2
100
AcDbEntity
  8
GAIKEI
  6
Continuous
 62
     1
100
AcDbLine
 10
29.81448826559049
 20
5.449768089807264
 30
0.0
 11
29.78650188748242
 21
5.449768089807264
 31
0.0
  0
LINE
  5
9E
330
2
100
AcDbEntity
  8
GAIKEI
  6
Continuous
 62
     1
100
AcDbLine
 10
29.78650188748242
 20
5.489777794607221
 30
0.0
 11
29.81448826559049
 21
5.489777794607221
 31
0.0
  0
LINE
  5
9F
330
2
100
AcDbEntity
  8
GAIKEI
  6
Continuous
 62
     1
100
AcDbLine
 10
29.95452223239047
 20
5.489777794607221
 30
0.0
 11
29.98250861051855
 21
5.489777794607221
 31
0.0
  0
LINE
  5
A0
330
2
100
AcDbEntity
  8
GAIKEI
  6
Continuous
 62
     1
100
AcDbLine
 10
30.0095355764905
 20
6.069918514207245
 30
0.0
 11
29.95952344549051
 21
6.069918514207245
 31
0.0
  0
LINE
  5
A1
330
2
100
AcDbEntity
  8
GAIKEI
  6
Continuous
 62
     1
100
AcDbLine
 10
29.80948705249048
 20
6.069918514207245
 30
0.0
 11
29.7594749214905
 21
6.069918514207245
 31
0.0
  0
LINE
  5
A2
330
2
100
AcDbEntity
  8
GAIKEI
  6
Continuous
 62
     1
100
AcDbLine
 10
30.01102921080815
 20
6.070442452854422
 30
0.0
 11
29.96004738411765
 21
6.070442452854422
 31
0.0
  0
LINE
  5
A3
330
2
100
AcDbEntity
  8
GAIKEI
  6
Continuous
 62
     1
100
AcDbLine
 10
29.80896311386334
 20
6.070442452854422
 30
0.0
 11
29.75798128717281
 21
6.070442452854422
 31
0.0
  0
LINE
  5
A4
330
2
100
AcDbEntity
  8
GAIKEI
  6
Continuous
 62
     7
100
AcDbLine
 10
27.70832651435441
 20
3.556123551210589
 30
0.0
 11
27.77968364442194
 21
3.483527299080265
 31
0.0
  0
LINE
  5
A5
330
2
100
AcDbEntity
  8
GAIKEI
  6
Continuous
 62
     7
100
AcDbLine
 10
27.70830737567212
 20
3.556108914760443
 30
0.0
 11
27.77965586232307
 21
3.48350416724935
 31
0.0
  0
LINE
  5
A6
330
2
100
AcDbEntity
  8
GAIKEI
  6
Continuous
 62
     1
100
AcDbLine
 10
31.81267026181302
 20
30.83689283115496
 30
0.0
 11
31.83154006469411
 21
30.85388327799729
 31
0.0
  0
LINE
  5
A7
330
2
100
AcDbEntity
  8
GAIKEI
  6
Continuous
 62
     1
100
AcDbLine
 10
29.88450524899048
 20
28.9761454810382
 30
0.0
 11
29.75798128717281
 21
28.87492631158011
 31
0.0
  0
LINE
  5
A8
330
2
100
AcDbEntity
  8
GAIKEI
  6
Continuous
 62
     1
100
AcDbLine
 10
29.88450524899048
 20
28.97547451220726
 30
0.0
 11
29.7594749214905
 21
28.87545025020722
 31
0.0
  0
LINE
  5
A9
330
2
100
AcDbEntity
  8
GAIKEI
  6
Continuous
 62
     1
100
AcDbLine
 10
29.95952344549051
 20
6.269967038207255
 30
0.0
 11
29.80948705249048
 21
6.269967038207255
 31
0.0
  0
LINE
  5
AA
330
2
100
AcDbEntity
  8
GAIKEI
  6
Continuous
 62
     1
100
AcDbLine
 10
29.96004738411765
 20
6.270490976854432
 30
0.0
 11
29.80896311386334
 21
6.270490976854432
 31
0.0
  0
LINE
  5
AB
330
2
100
AcDbEntity
  8
GAIKEI
  6
Continuous
 62
     1
100
AcDbLine
 10
33.06833090062133
 20
6.96433749104267
 30
0.0
 11
32.98620752188018
 21
6.964337455854149
 31
0.0
  0
LINE
  5
AC
330
2
100
AcDbEntity
  8
GAIKEI
  6
Continuous
 62
     1
100
AcDbLine
 10
29.75798128717281
 20
6.070442452854422
 30
0.0
 11
29.7594749214905
 21
6.069918514207245
 31
0.0
  0
LINE
  5
AD
330
2
100
AcDbEntity
  8
GAIKEI
  6
Continuous
 62
     1
100
AcDbLine
 10
31.61553726454656
 20
30.95058138870224
 30
0.0
 11
31.62166634340295
 21
30.9571540211075
 31
0.0
  0
LINE
  5
AE
330
2
100
AcDbEntity
  8
GAIKEI
  6
Continuous
 62
     1
100
AcDbLine
 10
29.75798128717281
 20
6.070442452854422
 30
0.0
 11
29.88450524899048
 21
5.969223283396331
 31
0.0
  0
LINE
  5
AF
330
2
100
AcDbEntity
  8
GAIKEI
  6
Continuous
 62
     1
100
AcDbLine
 10
29.7594749214905
 20
6.069918514207245
 30
0.0
 11
29.88450524899048
 21
5.969894252207268
 31
0.0
  0
LINE
  5
B0
330
2
100
AcDbEntity
  8
GAIKEI
  6
Continuous
 62
     1
100
AcDbLine
 10
31.65927590612171
 20
30.95673763644874
 30
0.0
 11
31.64522242123229
 21
30.93874999606601
 31
0.0
  0
LINE
  5
B1
330
2
100
AcDbEntity
  8
GAIKEI
  6
Continuous
 62
     1
100
AcDbLine
 10
31.7714259288602
 20
30.80974792437519
 30
0.0
 11
31.78066309155702
 21
30.82157095348271
 31
0.0
  0
LINE
  5
B2
330
2
100
AcDbEntity
  8
GAIKEI
  6
Continuous
 62
     1
100
AcDbLine
 10
32.08258505791633
 20
30.62601228058617
 30
0.0
 11
32.13329018783094
 21
30.68862790132312
 31
0.0
  0
LINE
  5
B3
330
2
100
AcDbEntity
  8
GAIKEI
  6
Continuous
 62
     1
100
AcDbLine
 10
32.12859633492457
 20
30.59006433119021
 30
0.0
 11
32.1825284222337
 21
30.65582068544711
 31
0.0
  0
LINE
  5
B4
330
2
100
AcDbEntity
  8
GAIKEI
  6
Continuous
 62
     1
100
AcDbLine
 10
29.80896311386334
 20
6.070442452854422
 30
0.0
 11
29.80948705249048
 21
6.069918514207245
 31
0.0
  0
LINE
  5
B5
330
2
100
AcDbEntity
  8
GAIKEI
  6
Continuous
 62
     1
100
AcDbLine
 10
29.80896311386334
 20
6.270490976854432
 30
0.0
 11
29.80948705249048
 21
6.269967038207255
 31
0.0
  0
LINE
  5
B6
330
2
100
AcDbEntity
  8
GAIKEI
  6
Continuous
 62
     1
100
AcDbLine
 10
32.69472717085108
 20
30.24998525629883
 30
0.0
 11
32.64623818278639
 21
30.18563819578185
 31
0.0
  0
LINE
  5
B7
330
2
100
AcDbEntity
  8
GAIKEI
  6
Continuous
 62
     1
100
AcDbLine
 10
31.89149045588994
 20
30.77531174645628
 30
0.0
 11
31.90341119535819
 21
30.79773139665241
 31
0.0
  0
LINE
  5
B8
330
2
100
AcDbEntity
  8
GAIKEI
  6
Continuous
 62
     1
100
AcDbLine
 10
32.53187452440591
 20
30.38288159712806
 30
0.0
 11
32.48740570231729
 21
30.30973172979213
 31
0.0
  0
LINE
  5
B9
330
2
100
AcDbEntity
  8
GAIKEI
  6
Continuous
 62
     1
100
AcDbLine
 10
33.0510331175112
 20
29.81000922030563
 30
0.0
 11
33.06413053793654
 21
29.83017747914164
 31
0.0
  0
LINE
  5
BA
330
2
100
AcDbEntity
  8
GAIKEI
  6
Continuous
 62
     1
100
AcDbLine
 10
32.98620754184503
 20
11.01127877245312
 30
0.0
 11
33.44536897619048
 21
10.97110735220724
 31
0.0
  0
LINE
  5
BB
330
2
100
AcDbEntity
  8
GAIKEI
  6
Continuous
 62
     1
100
AcDbLine
 10
29.75798128717281
 20
19.8727427315801
 30
0.0
 11
29.7594749214905
 21
19.87326667020727
 31
0.0
  0
LINE
  5
BC
330
2
100
AcDbEntity
  8
GAIKEI
  6
Continuous
 62
     1
100
AcDbLine
 10
27.60395207539048
 20
3.742393639777446
 30
0.0
 11
27.60395207539048
 21
4.124301183030297
 31
0.0
  0
LINE
  5
BD
330
2
100
AcDbEntity
  8
GAIKEI
  6
Continuous
 62
     1
100
AcDbLine
 10
27.62895814089046
 20
3.722384378267975
 30
0.0
 11
27.62895814089046
 21
4.144146046623234
 31
0.0
  0
LINE
  5
BE
330
2
100
AcDbEntity
  8
GAIKEI
  6
Continuous
 62
     7
100
AcDbLine
 10
27.69397391119048
 20
3.591172322260831
 30
0.0
 11
27.69397391119048
 21
31.3541964421737
 31
0.0
  0
LINE
  5
BF
330
2
100
AcDbEntity
  8
GAIKEI
  6
Continuous
 62
     7
100
AcDbLine
 10
27.81449169802343
 20
31.47512326654328
 30
0.0
 11
27.8144917239097
 21
31.47680191851896
 31
0.0
  0
LINE
  5
C0
330
2
100
AcDbEntity
  8
GAIKEI
  6
Continuous
 62
     1
100
AcDbLine
 10
27.81444032578253
 20
3.699343504807245
 30
0.0
 11
27.81444032578253
 21
31.24602525960722
 31
0.0
  0
LINE
  5
C1
330
2
100
AcDbEntity
  8
GAIKEI
  6
Continuous
 62
     1
100
AcDbLine
 10
27.8144917239097
 20
31.24602525960722
 30
0.0
 11
27.81449169802343
 21
31.47512326654328
 31
0.0
  0
LINE
  5
C2
330
2
100
AcDbEntity
  8
GAIKEI
  6
Continuous
 62
     1
100
AcDbLine
 10
27.8144917239097
 20
3.468566845915518
 30
0.0
 11
27.8144917239097
 21
3.699343504807245
 31
0.0
  0
LINE
  5
C3
330
2
100
AcDbEntity
  8
GAIKEI
  6
Continuous
 62
     1
100
AcDbLine
 10
29.21434269359048
 20
31.45107499670724
 30
0.0
 11
29.21284905927283
 21
31.43607135740729
 31
0.0
  0
LINE
  5
C4
330
2
100
AcDbEntity
  8
GAIKEI
  6
Continuous
 62
     1
100
AcDbLine
 10
29.80896311386334
 20
19.8727427315801
 30
0.0
 11
29.80948705249048
 21
19.87326667020727
 31
0.0
  0
LINE
  5
C5
330
2
100
AcDbEntity
  8
GAIKEI
  6
Continuous
 62
     1
100
AcDbLine
 10
29.80896311386334
 20
19.67269420758009
 30
0.0
 11
29.80948705249048
 21
19.67321814620726
 31
0.0
  0
LINE
  5
C6
330
2
100
AcDbEntity
  8
GAIKEI
  6
Continuous
 62
     1
100
AcDbLine
 10
29.88450524899048
 20
19.97396190103825
 30
0.0
 11
29.75798128717281
 21
19.8727427315801
 31
0.0
  0
LINE
  5
C7
330
2
100
AcDbEntity
  8
GAIKEI
  6
Continuous
 62
     1
100
AcDbLine
 10
29.88450524899048
 20
19.97329093220725
 30
0.0
 11
29.7594749214905
 21
19.87326667020727
 31
0.0
  0
LINE
  5
C8
330
2
100
AcDbEntity
  8
GAIKEI
  6
Continuous
 62
     1
100
AcDbLine
 10
29.7594749214905
 20
3.49429376770729
 30
0.0
 11
29.75798128717281
 21
3.509297407007238
 31
0.0
  0
LINE
  5
C9
330
2
100
AcDbEntity
  8
GAIKEI
  6
Continuous
 62
     1
100
AcDbLine
 10
28.86925898969048
 20
3.45015581481465
 30
0.0
 11
28.86925898969048
 21
31.49521294961983
 31
0.0
  0
LINE
  5
CA
330
2
100
AcDbEntity
  8
GAIKEI
  6
Continuous
 62
     1
100
AcDbLine
 10
28.91927112069047
 20
3.499294980807235
 30
0.0
 11
28.91927112069047
 21
31.44607378360723
 31
0.0
  0
LINE
  5
CB
330
2
100
AcDbEntity
  8
GAIKEI
  6
Continuous
 62
     1
100
AcDbLine
 10
29.21434269359048
 20
31.45107499670724
 30
0.0
 11
29.21350398255177
 21
31.43607135740729
 31
0.0
  0
LINE
  5
CC
330
2
100
AcDbEntity
  8
GAIKEI
  6
Continuous
 62
     1
100
AcDbLine
 10
29.7594749214905
 20
31.45107499670724
 30
0.0
 11
29.75798128717281
 21
31.43607135740729
 31
0.0
  0
LINE
  5
CD
330
2
100
AcDbEntity
  8
GAIKEI
  6
Continuous
 62
     1
100
AcDbLine
 10
29.98250861051855
 20
14.45195166980727
 30
0.0
 11
29.95452223239047
 21
14.45195166980727
 31
0.0
  0
LINE
  5
CE
330
2
100
AcDbEntity
  8
GAIKEI
  6
Continuous
 62
     1
100
AcDbLine
 10
29.81448826559049
 20
14.45195166980727
 30
0.0
 11
29.78650188748242
 21
14.45195166980727
 31
0.0
  0
LINE
  5
CF
330
2
100
AcDbEntity
  8
GAIKEI
  6
Continuous
 62
     1
100
AcDbLine
 10
29.78650188748242
 20
14.49196137460728
 30
0.0
 11
29.81448826559049
 21
14.49196137460728
 31
0.0
  0
LINE
  5
D0
330
2
100
AcDbEntity
  8
GAIKEI
  6
Continuous
 62
     1
100
AcDbLine
 10
29.95452223239047
 20
14.49196137460728
 30
0.0
 11
29.98250861051855
 21
14.49196137460728
 31
0.0
  0
LINE
  5
D1
330
2
100
AcDbEntity
  8
GAIKEI
  6
Continuous
 62
     1
100
AcDbLine
 10
30.0095355764905
 20
15.07210209420725
 30
0.0
 11
29.95952344549051
 21
15.07210209420725
 31
0.0
  0
LINE
  5
D2
330
2
100
AcDbEntity
  8
GAIKEI
  6
Continuous
 62
     1
100
AcDbLine
 10
29.80948705249048
 20
15.07210209420725
 30
0.0
 11
29.7594749214905
 21
15.07210209420725
 31
0.0
  0
LINE
  5
D3
330
2
100
AcDbEntity
  8
GAIKEI
  6
Continuous
 62
     1
100
AcDbLine
 10
30.01102921080815
 20
15.07262603285443
 30
0.0
 11
29.96004738411765
 21
15.07262603285443
 31
0.0
  0
LINE
  5
D4
330
2
100
AcDbEntity
  8
GAIKEI
  6
Continuous
 62
     1
100
AcDbLine
 10
29.80896311386334
 20
15.07262603285443
 30
0.0
 11
29.75798128717281
 21
15.07262603285443
 31
0.0
  0
LINE
  5
D5
330
2
100
AcDbEntity
  8
GAIKEI
  6
Continuous
 62
     1
100
AcDbLine
 10
29.95952344549051
 20
15.27215061820726
 30
0.0
 11
29.80948705249048
 21
15.27215061820726
 31
0.0
  0
LINE
  5
D6
330
2
100
AcDbEntity
  8
GAIKEI
  6
Continuous
 62
     1
100
AcDbLine
 10
29.96004738411765
 20
15.27267455685444
 30
0.0
 11
29.80896311386334
 21
15.27267455685444
 31
0.0
  0
LINE
  5
D7
330
2
100
AcDbEntity
  8
GAIKEI
  6
Continuous
 62
     1
100
AcDbLine
 10
29.75798128717281
 20
15.07262603285443
 30
0.0
 11
29.7594749214905
 21
15.07210209420725
 31
0.0
  0
LINE
  5
D8
330
2
100
AcDbEntity
  8
GAIKEI
  6
Continuous
 62
     1
100
AcDbLine
 10
29.75798128717281
 20
15.07262603285443
 30
0.0
 11
29.88450524899048
 21
14.97140686339628
 31
0.0
  0
LINE
  5
D9
330
2
100
AcDbEntity
  8
GAIKEI
  6
Continuous
 62
     1
100
AcDbLine
 10
29.7594749214905
 20
15.07210209420725
 30
0.0
 11
29.88450524899048
 21
14.97207783220722
 31
0.0
  0
LINE
  5
DA
330
2
100
AcDbEntity
  8
GAIKEI
  6
Continuous
 62
     1
100
AcDbLine
 10
29.80896311386334
 20
15.07262603285443
 30
0.0
 11
29.80948705249048
 21
15.07210209420725
 31
0.0
  0
LINE
  5
DB
330
2
100
AcDbEntity
  8
GAIKEI
  6
Continuous
 62
     1
100
AcDbLine
 10
29.33937302109047
 20
31.45107499670724
 30
0.0
 11
29.33937302109047
 21
31.43607135740729
 31
0.0
  0
LINE
  5
DC
330
2
100
AcDbEntity
  8
GAIKEI
  6
Continuous
 62
     1
100
AcDbLine
 10
29.80896311386334
 20
28.87492631158011
 30
0.0
 11
29.80896311386334
 21
28.6748777875801
 31
0.0
  0
LINE
  5
DD
330
2
100
AcDbEntity
  8
GAIKEI
  6
Continuous
 62
     1
100
AcDbLine
 10
29.80896311386334
 20
19.8727427315801
 30
0.0
 11
29.80896311386334
 21
19.67269420758009
 31
0.0
  0
LINE
  5
DE
330
2
100
AcDbEntity
  8
GAIKEI
  6
Continuous
 62
     1
100
AcDbLine
 10
29.80896311386334
 20
15.27267455685444
 30
0.0
 11
29.80896311386334
 21
15.07262603285443
 31
0.0
  0
LINE
  5
DF
330
2
100
AcDbEntity
  8
GAIKEI
  6
Continuous
 62
     1
100
AcDbLine
 10
29.80896311386334
 20
6.270490976854432
 30
0.0
 11
29.80896311386334
 21
6.070442452854422
 31
0.0
  0
LINE
  5
E0
330
2
100
AcDbEntity
  8
GAIKEI
  6
Continuous
 62
     1
100
AcDbLine
 10
29.80948705249048
 20
28.87545025020722
 30
0.0
 11
29.80948705249048
 21
28.67540172620727
 31
0.0
  0
LINE
  5
E1
330
2
100
AcDbEntity
  8
GAIKEI
  6
Continuous
 62
     1
100
AcDbLine
 10
29.80948705249048
 20
19.87326667020727
 30
0.0
 11
29.80948705249048
 21
19.67321814620726
 31
0.0
  0
LINE
  5
E2
330
2
100
AcDbEntity
  8
GAIKEI
  6
Continuous
 62
     1
100
AcDbLine
 10
29.80948705249048
 20
15.27215061820726
 30
0.0
 11
29.80948705249048
 21
15.07210209420725
 31
0.0
  0
LINE
  5
E3
330
2
100
AcDbEntity
  8
GAIKEI
  6
Continuous
 62
     1
100
AcDbLine
 10
29.80948705249048
 20
6.269967038207255
 30
0.0
 11
29.80948705249048
 21
6.069918514207245
 31
0.0
  0
LINE
  5
E4
330
2
100
AcDbEntity
  8
GAIKEI
  6
Continuous
 62
     1
100
AcDbLine
 10
29.86450039659047
 20
5.371769580699208
 30
0.0
 11
29.86450039659047
 21
5.399755958807247
 31
0.0
  0
LINE
  5
E5
330
2
100
AcDbEntity
  8
GAIKEI
  6
Continuous
 62
     1
100
AcDbLine
 10
29.86450039659047
 20
5.539789925607237
 30
0.0
 11
29.86450039659047
 21
5.567776303735286
 31
0.0
  0
LINE
  5
E6
330
2
100
AcDbEntity
  8
GAIKEI
  6
Continuous
 62
     1
100
AcDbLine
 10
29.86450039659047
 20
14.37395316069921
 30
0.0
 11
29.86450039659047
 21
14.40193953880725
 31
0.0
  0
LINE
  5
E7
330
2
100
AcDbEntity
  8
GAIKEI
  6
Continuous
 62
     1
100
AcDbLine
 10
29.86450039659047
 20
14.54197350560724
 30
0.0
 11
29.86450039659047
 21
14.56995988373535
 31
0.0
  0
LINE
  5
E8
330
2
100
AcDbEntity
  8
GAIKEI
  6
Continuous
 62
     1
100
AcDbLine
 10
29.86450039659047
 20
20.37540888069918
 30
0.0
 11
29.86450039659047
 21
20.40339525880722
 31
0.0
  0
LINE
  5
E9
330
2
100
AcDbEntity
  8
GAIKEI
  6
Continuous
 62
     1
100
AcDbLine
 10
29.86450039659047
 20
20.54342922560727
 30
0.0
 11
29.86450039659047
 21
20.57141560373532
 31
0.0
  0
LINE
  5
EA
330
2
100
AcDbEntity
  8
GAIKEI
  6
Continuous
 62
     1
100
AcDbLine
 10
29.86450039659047
 20
29.37759246069919
 30
0.0
 11
29.86450039659047
 21
29.40557883880729
 31
0.0
  0
LINE
  5
EB
330
2
100
AcDbEntity
  8
GAIKEI
  6
Continuous
 62
     1
100
AcDbLine
 10
29.86450039659047
 20
29.54561280560722
 30
0.0
 11
29.86450039659047
 21
29.57359918373533
 31
0.0
  0
LINE
  5
EC
330
2
100
AcDbEntity
  8
GAIKEI
  6
Continuous
 62
     1
100
AcDbLine
 10
29.88450524899048
 20
31.45107499670724
 30
0.0
 11
29.88450524899048
 21
31.43607135740729
 31
0.0
  0
LINE
  5
ED
330
2
100
AcDbEntity
  8
GAIKEI
  6
Continuous
 62
     1
100
AcDbLine
 10
29.88450524899048
 20
28.9761454810382
 30
0.0
 11
29.88450524899048
 21
28.97547451220726
 31
0.0
  0
LINE
  5
EE
330
2
100
AcDbEntity
  8
GAIKEI
  6
Continuous
 62
     1
100
AcDbLine
 10
29.88450524899048
 20
19.97396190103825
 30
0.0
 11
29.88450524899048
 21
19.97329093220725
 31
0.0
  0
LINE
  5
EF
330
2
100
AcDbEntity
  8
GAIKEI
  6
Continuous
 62
     1
100
AcDbLine
 10
29.88450524899048
 20
3.49429376770729
 30
0.0
 11
29.88450524899048
 21
3.509297407007238
 31
0.0
  0
LINE
  5
F0
330
2
100
AcDbEntity
  8
GAIKEI
  6
Continuous
 62
     1
100
AcDbLine
 10
29.88450524899048
 20
5.969223283396331
 30
0.0
 11
29.88450524899048
 21
5.969894252207268
 31
0.0
  0
LINE
  5
F1
330
2
100
AcDbEntity
  8
GAIKEI
  6
Continuous
 62
     1
100
AcDbLine
 10
29.88450524899048
 20
14.97140686339628
 30
0.0
 11
29.88450524899048
 21
14.97207783220722
 31
0.0
  0
LINE
  5
F2
330
2
100
AcDbEntity
  8
GAIKEI
  6
Continuous
 62
     1
100
AcDbLine
 10
29.90451010139049
 20
29.57359918373533
 30
0.0
 11
29.90451010139049
 21
29.54561280560722
 31
0.0
  0
LINE
  5
F3
330
2
100
AcDbEntity
  8
GAIKEI
  6
Continuous
 62
     1
100
AcDbLine
 10
29.90451010139049
 20
29.40557883880729
 30
0.0
 11
29.90451010139049
 21
29.37759246069919
 31
0.0
  0
LINE
  5
F4
330
2
100
AcDbEntity
  8
GAIKEI
  6
Continuous
 62
     1
100
AcDbLine
 10
29.90451010139049
 20
20.57141560373532
 30
0.0
 11
29.90451010139049
 21
20.54342922560727
 31
0.0
  0
LINE
  5
F5
330
2
100
AcDbEntity
  8
GAIKEI
  6
Continuous
 62
     1
100
AcDbLine
 10
29.90451010139049
 20
20.40339525880722
 30
0.0
 11
29.90451010139049
 21
20.37540888069918
 31
0.0
  0
LINE
  5
F6
330
2
100
AcDbEntity
  8
GAIKEI
  6
Continuous
 62
     1
100
AcDbLine
 10
29.90451010139049
 20
14.56995988373535
 30
0.0
 11
29.90451010139049
 21
14.54197350560724
 31
0.0
  0
LINE
  5
F7
330
2
100
AcDbEntity
  8
GAIKEI
  6
Continuous
 62
     1
100
AcDbLine
 10
29.90451010139049
 20
14.40193953880725
 30
0.0
 11
29.90451010139049
 21
14.37395316069921
 31
0.0
  0
LINE
  5
F8
330
2
100
AcDbEntity
  8
GAIKEI
  6
Continuous
 62
     1
100
AcDbLine
 10
29.90451010139049
 20
5.567776303735286
 30
0.0
 11
29.90451010139049
 21
5.539789925607237
 31
0.0
  0
LINE
  5
F9
330
2
100
AcDbEntity
  8
GAIKEI
  6
Continuous
 62
     1
100
AcDbLine
 10
29.90451010139049
 20
5.399755958807247
 30
0.0
 11
29.90451010139049
 21
5.371769580699208
 31
0.0
  0
LINE
  5
FA
330
2
100
AcDbEntity
  8
GAIKEI
  6
Continuous
 62
     1
100
AcDbLine
 10
29.95952344549051
 20
6.069918514207245
 30
0.0
 11
29.95952344549051
 21
6.269967038207255
 31
0.0
  0
LINE
  5
FB
330
2
100
AcDbEntity
  8
GAIKEI
  6
Continuous
 62
     1
100
AcDbLine
 10
29.95952344549051
 20
15.07210209420725
 30
0.0
 11
29.95952344549051
 21
15.27215061820726
 31
0.0
  0
LINE
  5
FC
330
2
100
AcDbEntity
  8
GAIKEI
  6
Continuous
 62
     1
100
AcDbLine
 10
29.95952344549051
 20
19.67321814620726
 30
0.0
 11
29.95952344549051
 21
19.87326667020727
 31
0.0
  0
LINE
  5
FD
330
2
100
AcDbEntity
  8
GAIKEI
  6
Continuous
 62
     1
100
AcDbLine
 10
29.95952344549051
 20
28.67540172620727
 30
0.0
 11
29.95952344549051
 21
28.87545025020722
 31
0.0
  0
LINE
  5
FE
330
2
100
AcDbEntity
  8
GAIKEI
  6
Continuous
 62
     1
100
AcDbLine
 10
29.96004738411765
 20
6.070442452854422
 30
0.0
 11
29.96004738411765
 21
6.270490976854432
 31
0.0
  0
LINE
  5
FF
330
2
100
AcDbEntity
  8
GAIKEI
  6
Continuous
 62
     1
100
AcDbLine
 10
29.96004738411765
 20
15.07262603285443
 30
0.0
 11
29.96004738411765
 21
15.27267455685444
 31
0.0
  0
LINE
  5
100
330
2
100
AcDbEntity
  8
GAIKEI
  6
Continuous
 62
     1
100
AcDbLine
 10
29.96004738411765
 20
19.67269420758009
 30
0.0
 11
29.96004738411765
 21
19.8727427315801
 31
0.0
  0
LINE
  5
101
330
2
100
AcDbEntity
  8
GAIKEI
  6
Continuous
 62
     1
100
AcDbLine
 10
29.96004738411765
 20
28.6748777875801
 30
0.0
 11
29.96004738411765
 21
28.87492631158011
 31
0.0
  0
LINE
  5
102
330
2
100
AcDbEntity
  8
GAIKEI
  6
Continuous
 62
     1
100
AcDbLine
 10
29.80896311386334
 20
15.27267455685444
 30
0.0
 11
29.80948705249048
 21
15.27215061820726
 31
0.0
  0
LINE
  5
103
330
2
100
AcDbEntity
  8
GAIKEI
  6
Continuous
 62
     1
100
AcDbLine
 10
29.46440334859048
 20
31.45107499670724
 30
0.0
 11
29.46589698290813
 21
31.43607135740729
 31
0.0
  0
LINE
  5
104
330
2
100
AcDbEntity
  8
GAIKEI
  6
Continuous
 62
     1
100
AcDbLine
 10
30.91512020479917
 20
31.16832277422304
 30
0.0
 11
30.91512020479917
 21
3.773650966430579
 31
0.0
  0
LINE
  5
105
330
2
100
AcDbEntity
  8
GAIKEI
  6
Continuous
 62
     1
100
AcDbLine
 10
30.99929169971375
 20
31.16832277422304
 30
0.0
 11
30.99929169971375
 21
3.773651067014952
 31
0.0
  0
LINE
  5
106
330
2
100
AcDbEntity
  8
GAIKEI
  6
Continuous
 62
     1
100
AcDbLine
 10
30.0095355764905
 20
3.49429376770729
 30
0.0
 11
30.01102921080815
 21
3.509297407007238
 31
0.0
  0
LINE
  5
107
330
2
100
AcDbEntity
  8
GAIKEI
  6
Continuous
 62
     1
100
AcDbLine
 10
33.06415329213582
 20
29.83033855451231
 30
0.0
 11
33.06413053793654
 21
29.83017747914164
 31
0.0
  0
LINE
  5
108
330
2
100
AcDbEntity
  8
GAIKEI
  6
Continuous
 62
     1
100
AcDbLine
 10
29.96004738411765
 20
15.27267455685444
 30
0.0
 11
29.95952344549051
 21
15.27215061820726
 31
0.0
  0
LINE
  5
109
330
2
100
AcDbEntity
  8
GAIKEI
  6
Continuous
 62
     1
100
AcDbLine
 10
29.88450524899048
 20
14.97207783220722
 30
0.0
 11
30.0095355764905
 21
15.07210209420725
 31
0.0
  0
LINE
  5
10A
330
2
100
AcDbEntity
  8
GAIKEI
  6
Continuous
 62
     1
100
AcDbLine
 10
29.88450524899048
 20
14.97140686339628
 30
0.0
 11
30.01102921080815
 21
15.07262603285443
 31
0.0
  0
LINE
  5
10B
330
2
100
AcDbEntity
  8
GAIKEI
  6
Continuous
 62
     1
100
AcDbLine
 10
30.01102921080815
 20
15.07262603285443
 30
0.0
 11
30.0095355764905
 21
15.07210209420725
 31
0.0
  0
LINE
  5
10C
330
2
100
AcDbEntity
  8
GAIKEI
  6
Continuous
 62
     1
100
AcDbLine
 10
30.0095355764905
 20
31.45107499670724
 30
0.0
 11
30.01102921080815
 21
31.43607135740729
 31
0.0
  0
LINE
  5
10D
330
2
100
AcDbEntity
  8
GAIKEI
  6
Continuous
 62
     1
100
AcDbLine
 10
29.96004738411765
 20
19.67269420758009
 30
0.0
 11
29.95952344549051
 21
19.67321814620726
 31
0.0
  0
LINE
  5
10E
330
2
100
AcDbEntity
  8
GAIKEI
  6
Continuous
 62
     1
100
AcDbLine
 10
29.96004738411765
 20
19.8727427315801
 30
0.0
 11
29.95952344549051
 21
19.87326667020727
 31
0.0
  0
LINE
  5
10F
330
2
100
AcDbEntity
  8
GAIKEI
  6
Continuous
 62
     1
100
AcDbLine
 10
32.53187452440591
 20
30.38288159712806
 30
0.0
 11
32.53147122554128
 21
30.46570288551493
 31
0.0
  0
LINE
  5
110
330
2
100
AcDbEntity
  8
GAIKEI
  6
Continuous
 62
     1
100
AcDbLine
 10
32.98620752188018
 20
6.964334362283807
 30
0.0
 11
32.98620754184503
 21
11.01127877245312
 31
0.0
  0
LINE
  5
111
330
2
100
AcDbEntity
  8
GAIKEI
  6
Continuous
 62
     7
100
AcDbLine
 10
33.06833090062133
 20
6.96433749104267
 30
0.0
 11
33.06833088631788
 21
11.00409391080484
 31
0.0
  0
LINE
  5
112
330
2
100
AcDbEntity
  8
GAIKEI
  6
Continuous
 62
     1
100
AcDbLine
 10
33.35406240304312
 20
10.97909564227609
 30
0.0
 11
33.35406240304312
 21
4.642704522460405
 31
0.0
  0
LINE
  5
113
330
2
100
AcDbEntity
  8
GAIKEI
  6
Continuous
 62
     7
100
AcDbLine
 10
33.44536897619048
 20
29.30677991300621
 30
0.0
 11
33.44536897619048
 21
4.492500361406371
 31
0.0
  0
LINE
  5
114
330
2
100
AcDbEntity
  8
GAIKEI
  6
Continuous
 62
     1
100
AcDbLine
 10
29.80896311386334
 20
19.67269420758009
 30
0.0
 11
29.96004738411765
 21
19.67269420758009
 31
0.0
  0
LINE
  5
115
330
2
100
AcDbEntity
  8
GAIKEI
  6
Continuous
 62
     1
100
AcDbLine
 10
29.80948705249048
 20
19.67321814620726
 30
0.0
 11
29.95952344549051
 21
19.67321814620726
 31
0.0
  0
LINE
  5
116
330
2
100
AcDbEntity
  8
GAIKEI
  6
Continuous
 62
     1
100
AcDbLine
 10
29.75798128717281
 20
19.8727427315801
 30
0.0
 11
29.80896311386334
 21
19.8727427315801
 31
0.0
  0
LINE
  5
117
330
2
100
AcDbEntity
  8
GAIKEI
  6
Continuous
 62
     1
100
AcDbLine
 10
29.96004738411765
 20
19.8727427315801
 30
0.0
 11
30.01102921080815
 21
19.8727427315801
 31
0.0
  0
LINE
  5
118
330
2
100
AcDbEntity
  8
GAIKEI
  6
Continuous
 62
     1
100
AcDbLine
 10
29.7594749214905
 20
19.87326667020727
 30
0.0
 11
29.80948705249048
 21
19.87326667020727
 31
0.0
  0
LINE
  5
119
330
2
100
AcDbEntity
  8
GAIKEI
  6
Continuous
 62
     1
100
AcDbLine
 10
29.95952344549051
 20
19.87326667020727
 30
0.0
 11
30.0095355764905
 21
19.87326667020727
 31
0.0
  0
LINE
  5
11A
330
2
100
AcDbEntity
  8
GAIKEI
  6
Continuous
 62
     1
100
AcDbLine
 10
30.01102921080815
 20
19.8727427315801
 30
0.0
 11
30.0095355764905
 21
19.87326667020727
 31
0.0
  0
LINE
  5
11B
330
2
100
AcDbEntity
  8
GAIKEI
  6
Continuous
 62
     1
100
AcDbLine
 10
30.0095355764905
 20
19.87326667020727
 30
0.0
 11
29.88450524899048
 21
19.97329093220725
 31
0.0
  0
LINE
  5
11C
330
2
100
AcDbEntity
  8
GAIKEI
  6
Continuous
 62
     1
100
AcDbLine
 10
30.01102921080815
 20
19.8727427315801
 30
0.0
 11
29.88450524899048
 21
19.97396190103825
 31
0.0
  0
LINE
  5
11D
330
2
100
AcDbEntity
  8
GAIKEI
  6
Continuous
 62
     1
100
AcDbLine
 10
29.98250861051855
 20
20.45340738980724
 30
0.0
 11
29.95452223239047
 21
20.45340738980724
 31
0.0
  0
LINE
  5
11E
330
2
100
AcDbEntity
  8
GAIKEI
  6
Continuous
 62
     1
100
AcDbLine
 10
29.81448826559049
 20
20.45340738980724
 30
0.0
 11
29.78650188748242
 21
20.45340738980724
 31
0.0
  0
LINE
  5
11F
330
2
100
AcDbEntity
  8
GAIKEI
  6
Continuous
 62
     1
100
AcDbLine
 10
29.78650188748242
 20
20.49341709460725
 30
0.0
 11
29.81448826559049
 21
20.49341709460725
 31
0.0
  0
LINE
  5
120
330
2
100
AcDbEntity
  8
GAIKEI
  6
Continuous
 62
     1
100
AcDbLine
 10
29.95452223239047
 20
20.49341709460725
 30
0.0
 11
29.98250861051855
 21
20.49341709460725
 31
0.0
  0
LINE
  5
121
330
2
100
AcDbEntity
  8
GAIKEI
  6
Continuous
 62
     1
100
AcDbLine
 10
32.69655466865106
 20
30.25792808938149
 30
0.0
 11
32.6793318482039
 21
30.34583033619157
 31
0.0
  0
LINE
  5
122
330
2
100
AcDbEntity
  8
GAIKEI
  6
Continuous
 62
     1
100
AcDbLine
 10
33.06415258440416
 20
29.83033746252738
 30
0.0
 11
33.05855374042213
 21
29.86350197701018
 31
0.0
  0
LINE
  5
123
330
2
100
AcDbEntity
  8
GAIKEI
  6
Continuous
 62
     1
100
AcDbLine
 10
33.05855395795487
 20
29.86350180704892
 30
0.0
 11
33.06413053793654
 21
29.83017747914164
 31
0.0
  0
LINE
  5
124
330
2
100
AcDbEntity
  8
GAIKEI
  6
Continuous
 62
     7
100
AcDbLine
 10
30.99945154700652
 20
3.55767952484939
 30
0.0
 11
30.99905207955123
 21
3.556962416906856
 31
0.0
  0
LINE
  5
125
330
2
100
AcDbEntity
  8
GAIKEI
  6
Continuous
 62
     1
100
AcDbLine
 10
29.96004738411765
 20
6.270490976854432
 30
0.0
 11
29.95952344549051
 21
6.269967038207255
 31
0.0
  0
LINE
  5
126
330
2
100
AcDbEntity
  8
GAIKEI
  6
Continuous
 62
     1
100
AcDbLine
 10
32.65273062264004
 20
6.464959934048238
 30
0.0
 11
30.99929169971375
 21
3.773651067014952
 31
0.0
  0
LINE
  5
127
330
2
100
AcDbEntity
  8
GAIKEI
  6
Continuous
 62
     7
100
AcDbLine
 10
32.85444118222532
 20
6.576986477775562
 30
0.0
 11
30.99905207955123
 21
3.556962416906856
 31
0.0
  0
LINE
  5
128
330
2
100
AcDbEntity
  8
GAIKEI
  6
Continuous
 62
     7
100
AcDbLine
 10
31.56872925512195
 20
4.307337088509996
 30
0.0
 11
32.93094710424976
 21
6.524624381285207
 31
0.0
  0
LINE
  5
129
330
2
100
AcDbEntity
  8
GAIKEI
  6
Continuous
 62
     1
100
AcDbLine
 10
29.88450524899048
 20
5.969894252207268
 30
0.0
 11
30.0095355764905
 21
6.069918514207245
 31
0.0
  0
LINE
  5
12A
330
2
100
AcDbEntity
  8
GAIKEI
  6
Continuous
 62
     1
100
AcDbLine
 10
29.88450524899048
 20
5.969223283396331
 30
0.0
 11
30.01102921080815
 21
6.070442452854422
 31
0.0
  0
LINE
  5
12B
330
2
100
AcDbEntity
  8
GAIKEI
  6
Continuous
 62
     7
100
AcDbLine
 10
28.91927112069047
 20
3.499294980807235
 30
0.0
 11
28.86925898969048
 21
3.459285276007221
 31
0.0
  0
LINE
  5
12C
330
2
100
AcDbEntity
  8
GAIKEI
  6
Continuous
 62
     1
100
AcDbLine
 10
29.96004738411765
 20
28.6748777875801
 30
0.0
 11
29.95952344549051
 21
28.67540172620727
 31
0.0
  0
LINE
  5
12D
330
2
100
AcDbEntity
  8
GAIKEI
  6
Continuous
 62
     1
100
AcDbLine
 10
29.96004738411765
 20
28.87492631158011
 30
0.0
 11
29.95952344549051
 21
28.87545025020722
 31
0.0
  0
LINE
  5
12E
330
2
100
AcDbEntity
  8
GAIKEI
  6
Continuous
 62
     1
100
AcDbLine
 10
30.01102921080815
 20
6.070442452854422
 30
0.0
 11
30.0095355764905
 21
6.069918514207245
 31
0.0
  0
LINE
  5
12F
330
2
100
AcDbEntity
  8
GAIKEI
  6
Continuous
 62
     1
100
AcDbLine
 10
30.0095355764905
 20
28.87545025020722
 30
0.0
 11
29.88450524899048
 21
28.97547451220726
 31
0.0
  0
LINE
  5
130
330
2
100
AcDbEntity
  8
GAIKEI
  6
Continuous
 62
     1
100
AcDbLine
 10
30.01102921080815
 20
28.87492631158011
 30
0.0
 11
29.88450524899048
 21
28.9761454810382
 31
0.0
  0
LINE
  5
131
330
2
100
AcDbEntity
  8
GAIKEI
  6
Continuous
 62
     7
100
AcDbLine
 10
28.91927112069047
 20
31.44607378360723
 30
0.0
 11
28.86925898969048
 21
31.48608348840725
 31
0.0
  0
LINE
  5
132
330
2
100
AcDbEntity
  8
GAIKEI
  6
Continuous
 62
     1
100
AcDbLine
 10
29.80896311386334
 20
28.6748777875801
 30
0.0
 11
29.96004738411765
 21
28.6748777875801
 31
0.0
  0
LINE
  5
133
330
2
100
AcDbEntity
  8
GAIKEI
  6
Continuous
 62
     1
100
AcDbLine
 10
29.80948705249048
 20
28.67540172620727
 30
0.0
 11
29.95952344549051
 21
28.67540172620727
 31
0.0
  0
LINE
  5
134
330
2
100
AcDbEntity
  8
GAIKEI
  6
Continuous
 62
     1
100
AcDbLine
 10
29.75798128717281
 20
28.87492631158011
 30
0.0
 11
29.80896311386334
 21
28.87492631158011
 31
0.0
  0
LINE
  5
135
330
2
100
AcDbEntity
  8
GAIKEI
  6
Continuous
 62
     1
100
AcDbLine
 10
29.96004738411765
 20
28.87492631158011
 30
0.0
 11
30.01102921080815
 21
28.87492631158011
 31
0.0
  0
LINE
  5
136
330
2
100
AcDbEntity
  8
GAIKEI
  6
Continuous
 62
     1
100
AcDbLine
 10
29.7594749214905
 20
28.87545025020722
 30
0.0
 11
29.80948705249048
 21
28.87545025020722
 31
0.0
  0
LINE
  5
137
330
2
100
AcDbEntity
  8
GAIKEI
  6
Continuous
 62
     1
100
AcDbLine
 10
29.95952344549051
 20
28.87545025020722
 30
0.0
 11
30.0095355764905
 21
28.87545025020722
 31
0.0
  0
LINE
  5
138
330
2
100
AcDbEntity
  8
GAIKEI
  6
Continuous
 62
     1
100
AcDbLine
 10
30.01102921080815
 20
28.87492631158011
 30
0.0
 11
30.0095355764905
 21
28.87545025020722
 31
0.0
  0
LINE
  5
139
330
2
100
AcDbEntity
  8
GAIKEI
  6
Continuous
 62
     1
100
AcDbLine
 10
30.99929169971375
 20
31.16832277422304
 30
0.0
 11
32.65272861939417
 21
29.87651627455318
 31
0.0
  0
LINE
  5
13A
330
2
100
AcDbEntity
  8
GAIKEI
  6
Continuous
 62
     7
100
AcDbLine
 10
30.99690846099264
 20
31.41486728948417
 30
0.0
 11
33.29159626704535
 21
29.6220606893138
 31
0.0
  0
LINE
  5
13B
330
2
100
AcDbEntity
  8
GAIKEI
  6
Continuous
 62
     1
100
AcDbLine
 10
31.39658744006536
 20
31.1216437394827
 30
0.0
 11
31.78066309155702
 21
30.82157095348271
 31
0.0
  0
LINE
  5
13C
330
2
100
AcDbEntity
  8
GAIKEI
  6
Continuous
 62
     1
100
AcDbLine
 10
31.65534989314352
 20
30.95980497396567
 30
0.0
 11
33.05855395703466
 21
29.86350180776913
 31
0.0
  0
LINE
  5
13D
330
2
100
AcDbEntity
  8
GAIKEI
  6
Continuous
 62
     1
100
AcDbLine
 10
32.04679157154712
 20
30.68571036960327
 30
0.0
 11
32.03890955213541
 21
30.69186847808112
 31
0.0
  0
LINE
  5
13E
330
2
100
AcDbEntity
  8
GAIKEI
  6
Continuous
 62
     1
100
AcDbLine
 10
31.83154006469411
 20
30.85388327799729
 30
0.0
 11
31.90341119535819
 21
30.79773139665241
 31
0.0
  0
LINE
  5
13F
330
2
100
AcDbEntity
  8
GAIKEI
  6
Continuous
 62
     1
100
AcDbLine
 10
32.2254524854238
 20
30.67305777601564
 30
0.0
 11
32.20004966070545
 21
30.69290463783324
 31
0.0
  0
LINE
  5
140
330
2
100
AcDbEntity
  8
GAIKEI
  6
Continuous
 62
     1
100
AcDbLine
 10
32.39631295855662
 20
30.55226020525799
 30
0.0
 11
32.23618350121134
 21
30.67736704865775
 31
0.0
  0
LINE
  5
141
330
2
100
AcDbEntity
  8
GAIKEI
  6
Continuous
 62
     1
100
AcDbLine
 10
29.98250861051855
 20
29.45559096980725
 30
0.0
 11
29.95452223239047
 21
29.45559096980725
 31
0.0
  0
LINE
  5
142
330
2
100
AcDbEntity
  8
GAIKEI
  6
Continuous
 62
     1
100
AcDbLine
 10
29.81448826559049
 20
29.45559096980725
 30
0.0
 11
29.78650188748242
 21
29.45559096980725
 31
0.0
  0
LINE
  5
143
330
2
100
AcDbEntity
  8
GAIKEI
  6
Continuous
 62
     1
100
AcDbLine
 10
29.78650188748242
 20
29.49560067460726
 30
0.0
 11
29.81448826559049
 21
29.49560067460726
 31
0.0
  0
LINE
  5
144
330
2
100
AcDbEntity
  8
GAIKEI
  6
Continuous
 62
     1
100
AcDbLine
 10
29.95452223239047
 20
29.49560067460726
 30
0.0
 11
29.98250861051855
 21
29.49560067460726
 31
0.0
  0
LINE
  5
145
330
2
100
AcDbEntity
  8
GAIKEI
  6
Continuous
 62
     1
100
AcDbLine
 10
31.65534989314352
 20
30.95980497396567
 30
0.0
 11
31.62166634340295
 21
30.9571540211075
 31
0.0
  0
LINE
  5
146
330
2
100
AcDbEntity
  8
GAIKEI
  6
Continuous
 62
     1
100
AcDbLine
 10
31.65116498518742
 20
30.95947847905069
 30
0.0
 11
31.62181382859714
 21
30.95721417403826
 31
0.0
  0
LINE
  5
147
330
2
100
AcDbEntity
  8
GAIKEI
  6
Continuous
 62
     1
100
AcDbLine
 10
32.14055497308561
 20
30.69232265986801
 30
0.0
 11
32.19338299235068
 21
30.69501210774354
 31
0.0
  0
LINE
  5
148
330
2
100
AcDbEntity
  8
GAIKEI
  6
Continuous
 62
     1
100
AcDbLine
 10
31.39658744006536
 20
31.1216437394827
 30
0.0
 11
31.37221749018229
 21
31.1216437394827
 31
0.0
  0
LINE
  5
149
330
2
100
AcDbEntity
  8
GAIKEI
  6
Continuous
 62
     1
100
AcDbLine
 10
30.91460102346593
 20
31.18601070240726
 30
0.0
 11
28.91927112069047
 21
31.18601070240726
 31
0.0
  0
LINE
  5
14A
330
2
100
AcDbEntity
  8
GAIKEI
  6
Continuous
 62
     1
100
AcDbLine
 10
27.69397391119048
 20
31.24602525960722
 30
0.0
 11
28.91927112069047
 21
31.24602525960722
 31
0.0
  0
LINE
  5
14B
330
2
100
AcDbEntity
  8
GAIKEI
  6
Continuous
 62
     7
100
AcDbLine
 10
27.81444032578253
 20
31.47680102136138
 30
0.0
 11
28.86925898969048
 21
31.49521294961983
 31
0.0
  0
LINE
  5
14C
330
2
100
AcDbEntity
  8
GAIKEI
  6
Continuous
 62
     7
100
AcDbLine
 10
30.93532737629394
 20
31.43607135740729
 30
0.0
 11
28.91927112069047
 21
31.43607135740729
 31
0.0
  0
LINE
  5
14D
330
2
100
AcDbEntity
  8
GAIKEI
  6
Continuous
 62
     1
100
AcDbLine
 10
29.21434269359048
 20
31.45107499670724
 30
0.0
 11
29.46440334859048
 21
31.45107499670724
 31
0.0
  0
LINE
  5
14E
330
2
100
AcDbEntity
  8
GAIKEI
  6
Continuous
 62
     1
100
AcDbLine
 10
29.7594749214905
 20
31.45107499670724
 30
0.0
 11
30.0095355764905
 21
31.45107499670724
 31
0.0
  0
ARC
  5
14F
330
2
100
AcDbEntity
  8
GAIKEI
  6
Continuous
 62
     7
100
AcDbCircle
 10
7.668809690280937
 20
31.24602525960722
 30
0.0
 40
0.2491876900126089
100
AcDbArc
 50
0.0
 51
90.0
  0
ARC
  5
150
330
2
100
AcDbEntity
  8
GAIKEI
  6
Continuous
 62
     7
100
AcDbCircle
 10
7.668809690280937
 20
3.699343504807245
 30
0.0
 40
0.2491876900126089
100
AcDbArc
 50
270.0
 51
0.0
  0
ARC
  5
151
330
2
100
AcDbEntity
  8
GAIKEI
  6
Continuous
 62
     7
100
AcDbCircle
 10
-40.23280938151907
 20
3.699343504807245
 30
0.0
 40
0.2491876900126089
100
AcDbArc
 50
180.0
 51
270.0
  0
ARC
  5
152
330
2
100
AcDbEntity
  8
GAIKEI
  6
Continuous
 62
     7
100
AcDbCircle
 10
-40.23280938151907
 20
31.24602525960722
 30
0.0
 40
0.2491876900126089
100
AcDbArc
 50
90.0
 51
180.0
  0
ARC
  5
153
330
2
100
AcDbEntity
  8
GAIKEI
  6
Continuous
 62
     1
100
AcDbCircle
 10
7.668809690280937
 20
3.699343504807245
 30
0.0
 40
0.1081539710515752
100
AcDbArc
 50
269.999999999899
 51
0.0
  0
ARC
  5
154
330
2
100
AcDbEntity
  8
GAIKEI
  6
Continuous
 62
     1
100
AcDbCircle
 10
-40.23280938151907
 20
3.699343504807245
 30
0.0
 40
0.1081539710515752
100
AcDbArc
 50
179.999999999899
 51
270.0000000000977
  0
ARC
  5
155
330
2
100
AcDbEntity
  8
GAIKEI
  6
Continuous
 62
     1
100
AcDbCircle
 10
-40.23280938151907
 20
31.24602525960722
 30
0.0
 40
0.1081539710515752
100
AcDbArc
 50
89.99999999989903
 51
180.0000000001009
  0
ARC
  5
156
330
2
100
AcDbEntity
  8
GAIKEI
  6
Continuous
 62
     1
100
AcDbCircle
 10
7.668809690280937
 20
31.24602525960722
 30
0.0
 40
0.1081539710515752
100
AcDbArc
 50
0.0
 51
90.00000000009769
  0
ARC
  5
157
330
2
100
AcDbEntity
  8
GAIKEI
  6
Continuous
 62
     1
100
AcDbCircle
 10
29.81448826559049
 20
29.54561280560722
 30
0.0
 40
0.050012131
100
AcDbArc
 50
270.0
 51
0.0
  0
ARC
  5
158
330
2
100
AcDbEntity
  8
GAIKEI
  6
Continuous
 62
     1
100
AcDbCircle
 10
29.81448826559049
 20
29.40557883880729
 30
0.0
 40
0.050012131
100
AcDbArc
 50
0.0
 51
90.0
  0
ARC
  5
159
330
2
100
AcDbEntity
  8
GAIKEI
  6
Continuous
 62
     1
100
AcDbCircle
 10
29.95452223239047
 20
29.40557883880729
 30
0.0
 40
0.050012131
100
AcDbArc
 50
90.0
 51
180.0
  0
ARC
  5
15A
330
2
100
AcDbEntity
  8
GAIKEI
  6
Continuous
 62
     1
100
AcDbCircle
 10
29.95452223239047
 20
29.54561280560722
 30
0.0
 40
0.050012131
100
AcDbArc
 50
180.0
 51
270.0
  0
ARC
  5
15B
330
2
100
AcDbEntity
  8
GAIKEI
  6
Continuous
 62
     1
100
AcDbCircle
 10
29.88450524899048
 20
29.47559582220725
 30
0.0
 40
0.100024262
100
AcDbArc
 50
168.4630409671985
 51
191.5369590328015
  0
ARC
  5
15C
330
2
100
AcDbEntity
  8
GAIKEI
  6
Continuous
 62
     1
100
AcDbCircle
 10
29.88450524899048
 20
29.47559582220725
 30
0.0
 40
0.100024262
100
AcDbArc
 50
348.4630409671984
 51
11.53695903280153
  0
ARC
  5
15D
330
2
100
AcDbEntity
  8
GAIKEI
  6
Continuous
 62
     1
100
AcDbCircle
 10
29.88450524899048
 20
29.47559582220725
 30
0.0
 40
0.100024262
100
AcDbArc
 50
258.4630409671984
 51
281.5369590328016
  0
ARC
  5
15E
330
2
100
AcDbEntity
  8
GAIKEI
  6
Continuous
 62
     1
100
AcDbCircle
 10
29.88450524899048
 20
29.47559582220725
 30
0.0
 40
0.100024262
100
AcDbArc
 50
78.46304096719848
 51
101.5369590328015
  0
ARC
  5
15F
330
2
100
AcDbEntity
  8
GAIKEI
  6
Continuous
 62
     1
100
AcDbCircle
 10
29.81448826559049
 20
20.54342922560727
 30
0.0
 40
0.050012131
100
AcDbArc
 50
270.0
 51
0.0
  0
ARC
  5
160
330
2
100
AcDbEntity
  8
GAIKEI
  6
Continuous
 62
     1
100
AcDbCircle
 10
29.81448826559049
 20
20.40339525880722
 30
0.0
 40
0.050012131
100
AcDbArc
 50
0.0
 51
90.0
  0
ARC
  5
161
330
2
100
AcDbEntity
  8
GAIKEI
  6
Continuous
 62
     1
100
AcDbCircle
 10
29.95452223239047
 20
20.40339525880722
 30
0.0
 40
0.050012131
100
AcDbArc
 50
90.0
 51
180.0
  0
ARC
  5
162
330
2
100
AcDbEntity
  8
GAIKEI
  6
Continuous
 62
     1
100
AcDbCircle
 10
29.95452223239047
 20
20.54342922560727
 30
0.0
 40
0.050012131
100
AcDbArc
 50
180.0
 51
270.0
  0
CIRCLE
  5
163
330
2
100
AcDbEntity
  8
GAIKEI
  6
Continuous
 62
     1
100
AcDbCircle
 10
29.88450524899048
 20
20.47341224220724
 30
0.0
 40
0.200048524
  0
ARC
  5
164
330
2
100
AcDbEntity
  8
GAIKEI
  6
Continuous
 62
     1
100
AcDbCircle
 10
29.88450524899048
 20
20.47341224220724
 30
0.0
 40
0.100024262
100
AcDbArc
 50
168.4630409671985
 51
191.5369590328015
  0
ARC
  5
165
330
2
100
AcDbEntity
  8
GAIKEI
  6
Continuous
 62
     1
100
AcDbCircle
 10
29.88450524899048
 20
20.47341224220724
 30
0.0
 40
0.100024262
100
AcDbArc
 50
348.4630409671984
 51
11.53695903280153
  0
ARC
  5
166
330
2
100
AcDbEntity
  8
GAIKEI
  6
Continuous
 62
     1
100
AcDbCircle
 10
29.88450524899048
 20
20.47341224220724
 30
0.0
 40
0.100024262
100
AcDbArc
 50
258.4630409671984
 51
281.5369590328016
  0
ARC
  5
167
330
2
100
AcDbEntity
  8
GAIKEI
  6
Continuous
 62
     1
100
AcDbCircle
 10
29.88450524899048
 20
20.47341224220724
 30
0.0
 40
0.100024262
100
AcDbArc
 50
78.46304096719848
 51
101.5369590328015
  0
CIRCLE
  5
168
330
2
100
AcDbEntity
  8
GAIKEI
  6
Continuous
 62
     1
100
AcDbCircle
 10
29.88450524899048
 20
20.47341224220724
 30
0.0
 40
0.1600357708205816
  0
ARC
  5
169
330
2
100
AcDbEntity
  8
GAIKEI
  6
Continuous
 62
     1
100
AcDbCircle
 10
29.88450524899048
 20
20.47341224220724
 30
0.0
 40
0.0718349346043344
100
AcDbArc
 50
253.8215218709984
 51
286.1784781290017
  0
ARC
  5
16A
330
2
100
AcDbEntity
  8
GAIKEI
  6
Continuous
 62
     1
100
AcDbCircle
 10
29.88450524899048
 20
20.47341224220724
 30
0.0
 40
0.0718349346043344
100
AcDbArc
 50
73.82152187100145
 51
106.1784781289985
  0
ARC
  5
16B
330
2
100
AcDbEntity
  8
GAIKEI
  6
Continuous
 62
     1
100
AcDbCircle
 10
29.88450524899048
 20
20.47341224220724
 30
0.0
 40
0.0669823290107421
100
AcDbArc
 50
162.2752211756992
 51
197.7247788243008
  0
ARC
  5
16C
330
2
100
AcDbEntity
  8
GAIKEI
  6
Continuous
 62
     1
100
AcDbCircle
 10
29.88450524899048
 20
20.47341224220724
 30
0.0
 40
0.0718349346043344
100
AcDbArc
 50
343.8215218709983
 51
16.17847812900168
  0
ARC
  5
16D
330
2
100
AcDbEntity
  8
GAIKEI
  6
Continuous
 62
     1
100
AcDbCircle
 10
29.88450524899048
 20
20.47341224220724
 30
0.0
 40
0.0718349346043344
100
AcDbArc
 50
163.8215218709983
 51
196.1784781290017
  0
ARC
  5
16E
330
2
100
AcDbEntity
  8
GAIKEI
  6
Continuous
 62
     1
100
AcDbCircle
 10
29.88450524899048
 20
20.47341224220724
 30
0.0
 40
0.0669823290107421
100
AcDbArc
 50
342.2752211756992
 51
17.72477882430082
  0
ARC
  5
16F
330
2
100
AcDbEntity
  8
GAIKEI
  6
Continuous
 62
     1
100
AcDbCircle
 10
29.88450524899048
 20
20.47341224220724
 30
0.0
 40
0.0669823290107421
100
AcDbArc
 50
72.27522117569918
 51
107.7247788243008
  0
ARC
  5
170
330
2
100
AcDbEntity
  8
GAIKEI
  6
Continuous
 62
     1
100
AcDbCircle
 10
29.88450524899048
 20
20.47341224220724
 30
0.0
 40
0.0669823290107421
100
AcDbArc
 50
252.2752211756992
 51
287.7247788243008
  0
ARC
  5
171
330
2
100
AcDbEntity
  8
GAIKEI
  6
Continuous
 62
     1
100
AcDbCircle
 10
29.81448826559049
 20
14.54197350560724
 30
0.0
 40
0.050012131
100
AcDbArc
 50
270.0
 51
0.0
  0
ARC
  5
172
330
2
100
AcDbEntity
  8
GAIKEI
  6
Continuous
 62
     1
100
AcDbCircle
 10
29.81448826559049
 20
14.40193953880725
 30
0.0
 40
0.050012131
100
AcDbArc
 50
0.0
 51
90.0
  0
ARC
  5
173
330
2
100
AcDbEntity
  8
GAIKEI
  6
Continuous
 62
     1
100
AcDbCircle
 10
29.95452223239047
 20
14.40193953880725
 30
0.0
 40
0.050012131
100
AcDbArc
 50
90.0
 51
180.0
  0
ARC
  5
174
330
2
100
AcDbEntity
  8
GAIKEI
  6
Continuous
 62
     1
100
AcDbCircle
 10
29.95452223239047
 20
14.54197350560724
 30
0.0
 40
0.050012131
100
AcDbArc
 50
180.0
 51
270.0
  0
ARC
  5
175
330
2
100
AcDbEntity
  8
GAIKEI
  6
Continuous
 62
     1
100
AcDbCircle
 10
29.88450524899048
 20
14.47195652220728
 30
0.0
 40
0.100024262
100
AcDbArc
 50
168.4630409671985
 51
191.5369590328015
  0
ARC
  5
176
330
2
100
AcDbEntity
  8
GAIKEI
  6
Continuous
 62
     1
100
AcDbCircle
 10
29.88450524899048
 20
14.47195652220728
 30
0.0
 40
0.100024262
100
AcDbArc
 50
348.4630409671984
 51
11.53695903280153
  0
ARC
  5
177
330
2
100
AcDbEntity
  8
GAIKEI
  6
Continuous
 62
     1
100
AcDbCircle
 10
29.88450524899048
 20
14.47195652220728
 30
0.0
 40
0.100024262
100
AcDbArc
 50
258.4630409671984
 51
281.5369590328016
  0
ARC
  5
178
330
2
100
AcDbEntity
  8
GAIKEI
  6
Continuous
 62
     1
100
AcDbCircle
 10
29.88450524899048
 20
14.47195652220728
 30
0.0
 40
0.100024262
100
AcDbArc
 50
78.46304096719848
 51
101.5369590328015
  0
ARC
  5
179
330
2
100
AcDbEntity
  8
GAIKEI
  6
Continuous
 62
     1
100
AcDbCircle
 10
29.88450524899048
 20
14.47195652220728
 30
0.0
 40
0.0718349346043344
100
AcDbArc
 50
253.8215218709984
 51
286.1784781290017
  0
ARC
  5
17A
330
2
100
AcDbEntity
  8
GAIKEI
  6
Continuous
 62
     1
100
AcDbCircle
 10
29.88450524899048
 20
14.47195652220728
 30
0.0
 40
0.0718349346043344
100
AcDbArc
 50
73.82152187100145
 51
106.1784781289985
  0
ARC
  5
17B
330
2
100
AcDbEntity
  8
GAIKEI
  6
Continuous
 62
     1
100
AcDbCircle
 10
29.88450524899048
 20
14.47195652220728
 30
0.0
 40
0.0669823290107421
100
AcDbArc
 50
162.2752211756992
 51
197.7247788243008
  0
ARC
  5
17C
330
2
100
AcDbEntity
  8
GAIKEI
  6
Continuous
 62
     1
100
AcDbCircle
 10
29.88450524899048
 20
14.47195652220728
 30
0.0
 40
0.0718349346043344
100
AcDbArc
 50
343.8215218709983
 51
16.17847812900168
  0
ARC
  5
17D
330
2
100
AcDbEntity
  8
GAIKEI
  6
Continuous
 62
     1
100
AcDbCircle
 10
29.88450524899048
 20
14.47195652220728
 30
0.0
 40
0.0718349346043344
100
AcDbArc
 50
163.8215218709983
 51
196.1784781290017
  0
ARC
  5
17E
330
2
100
AcDbEntity
  8
GAIKEI
  6
Continuous
 62
     1
100
AcDbCircle
 10
29.88450524899048
 20
14.47195652220728
 30
0.0
 40
0.0669823290107421
100
AcDbArc
 50
342.2752211756992
 51
17.72477882430082
  0
ARC
  5
17F
330
2
100
AcDbEntity
  8
GAIKEI
  6
Continuous
 62
     1
100
AcDbCircle
 10
29.88450524899048
 20
14.47195652220728
 30
0.0
 40
0.0669823290107421
100
AcDbArc
 50
72.27522117569918
 51
107.7247788243008
  0
ARC
  5
180
330
2
100
AcDbEntity
  8
GAIKEI
  6
Continuous
 62
     1
100
AcDbCircle
 10
29.88450524899048
 20
14.47195652220728
 30
0.0
 40
0.0669823290107421
100
AcDbArc
 50
252.2752211756992
 51
287.7247788243008
  0
ARC
  5
181
330
2
100
AcDbEntity
  8
GAIKEI
  6
Continuous
 62
     1
100
AcDbCircle
 10
29.81448826559049
 20
5.539789925607237
 30
0.0
 40
0.050012131
100
AcDbArc
 50
270.0
 51
0.0
  0
ARC
  5
182
330
2
100
AcDbEntity
  8
GAIKEI
  6
Continuous
 62
     1
100
AcDbCircle
 10
29.81448826559049
 20
5.399755958807247
 30
0.0
 40
0.050012131
100
AcDbArc
 50
0.0
 51
90.0
  0
ARC
  5
183
330
2
100
AcDbEntity
  8
GAIKEI
  6
Continuous
 62
     1
100
AcDbCircle
 10
29.95452223239047
 20
5.399755958807247
 30
0.0
 40
0.050012131
100
AcDbArc
 50
90.0
 51
180.0
  0
ARC
  5
184
330
2
100
AcDbEntity
  8
GAIKEI
  6
Continuous
 62
     1
100
AcDbCircle
 10
29.95452223239047
 20
5.539789925607237
 30
0.0
 40
0.050012131
100
AcDbArc
 50
180.0
 51
270.0
  0
ARC
  5
185
330
2
100
AcDbEntity
  8
GAIKEI
  6
Continuous
 62
     1
100
AcDbCircle
 10
29.88450524899048
 20
5.469772942207271
 30
0.0
 40
0.100024262
100
AcDbArc
 50
168.4630409671985
 51
191.5369590328015
  0
ARC
  5
186
330
2
100
AcDbEntity
  8
GAIKEI
  6
Continuous
 62
     1
100
AcDbCircle
 10
29.88450524899048
 20
5.469772942207271
 30
0.0
 40
0.100024262
100
AcDbArc
 50
348.4630409671984
 51
11.53695903280153
  0
ARC
  5
187
330
2
100
AcDbEntity
  8
GAIKEI
  6
Continuous
 62
     1
100
AcDbCircle
 10
29.88450524899048
 20
5.469772942207271
 30
0.0
 40
0.100024262
100
AcDbArc
 50
258.4630409671984
 51
281.5369590328016
  0
ARC
  5
188
330
2
100
AcDbEntity
  8
GAIKEI
  6
Continuous
 62
     1
100
AcDbCircle
 10
29.88450524899048
 20
5.469772942207271
 30
0.0
 40
0.100024262
100
AcDbArc
 50
78.46304096719848
 51
101.5369590328015
  0
ARC
  5
189
330
2
100
AcDbEntity
  8
GAIKEI
  6
Continuous
 62
     1
100
AcDbCircle
 10
32.92483121273205
 20
31.22873272214952
 30
0.0
 40
0.8584559459413119
100
AcDbArc
 50
232.0000000000018
 51
242.7278205069016
  0
ARC
  5
18A
330
2
100
AcDbEntity
  8
GAIKEI
  6
Continuous
 62
     1
100
AcDbCircle
 10
32.98957319162088
 20
31.06789917741992
 30
0.0
 40
0.7815789516091725
100
AcDbArc
 50
234.0906417228021
 51
246.1510863001998
  0
ARC
  5
18B
330
2
100
AcDbEntity
  8
GAIKEI
  6
Continuous
 62
     1
100
AcDbCircle
 10
32.14106647421591
 20
30.68233332030229
 30
0.0
 40
0.0100024262
100
AcDbArc
 50
92.93125318750023
 51
141.0112616236021
  0
ARC
  5
18C
330
2
100
AcDbEntity
  8
GAIKEI
  6
Continuous
 62
     1
100
AcDbCircle
 10
32.68673831182426
 20
30.25600775678345
 30
0.0
 40
0.0100024262
100
AcDbArc
 50
322.9887383763
 51
11.06874681239976
  0
ARC
  5
18D
330
2
100
AcDbEntity
  8
GAIKEI
  6
Continuous
 62
     1
100
AcDbCircle
 10
32.19389155222757
 20
30.68502261842156
 30
0.0
 40
0.0100024262
100
AcDbArc
 50
52.00000000000176
 51
92.91438322009787
  0
ARC
  5
18E
330
2
100
AcDbEntity
  8
GAIKEI
  6
Continuous
 62
     1
100
AcDbCircle
 10
32.66951605765448
 20
30.34390711347248
 30
0.0
 40
0.0100024262
100
AcDbArc
 50
11.0856167800005
 51
66.15108630030033
  0
ARC
  5
18F
330
2
100
AcDbEntity
  8
GAIKEI
  6
Continuous
 62
     1
100
AcDbCircle
 10
32.02351428096074
 20
30.67216342956192
 30
0.0
 40
0.0250060655
100
AcDbArc
 50
51.99992263810223
 51
141.9999999999991
  0
ARC
  5
190
330
2
100
AcDbEntity
  8
GAIKEI
  6
Continuous
 62
     1
100
AcDbCircle
 10
32.03139630037242
 20
30.66600532108407
 30
0.0
 40
0.0250060655
100
AcDbArc
 50
321.9999999999992
 51
52.00007736189991
  0
ARC
  5
191
330
2
100
AcDbEntity
  8
GAIKEI
  6
Continuous
 62
     7
100
AcDbCircle
 10
27.81536455594486
 20
3.518571359827888
 30
0.0
 40
0.050012131
100
AcDbArc
 50
224.480694653099
 51
268.9999999618999
  0
ARC
  5
192
330
2
100
AcDbEntity
  8
GAIKEI
  6
Continuous
 62
     7
100
AcDbCircle
 10
27.81531315781766
 20
31.42679650744901
 30
0.0
 40
0.050012131
100
AcDbArc
 50
90.9999999999985
 51
135.4773140750011
  0
ARC
  5
193
330
2
100
AcDbEntity
  8
GAIKEI
  6
Continuous
 62
     7
100
AcDbCircle
 10
27.81536455594486
 20
31.42679740460659
 30
0.0
 40
0.050012131
100
AcDbArc
 50
105.8632584424002
 51
135.5193053469009
  0
ARC
  5
194
330
2
100
AcDbEntity
  8
GAIKEI
  6
Continuous
 62
     7
100
AcDbCircle
 10
27.81531315781766
 20
3.518572256985521
 30
0.0
 40
0.050012131
100
AcDbArc
 50
224.5226859249989
 51
254.1941038262008
  0
ARC
  5
195
330
2
100
AcDbEntity
  8
GAIKEI
  6
Continuous
 62
     7
100
AcDbCircle
 10
27.74398604219047
 20
3.591189366975186
 30
0.0
 40
0.050012131
100
AcDbArc
 50
180.0195270523
 51
224.519021902398
  0
ARC
  5
196
330
2
100
AcDbEntity
  8
GAIKEI
  6
Continuous
 62
     7
100
AcDbCircle
 10
27.74398604219047
 20
31.35421350727302
 30
0.0
 40
0.050012131
100
AcDbArc
 50
135.5122450881978
 51
180.0195504295008
  0
ARC
  5
197
330
2
100
AcDbEntity
  8
GAIKEI
  6
Continuous
 62
     7
100
AcDbCircle
 10
27.74398604219047
 20
3.591155257161517
 30
0.0
 40
0.050012131
100
AcDbArc
 50
179.9804495704991
 51
209.6531183009
  0
CIRCLE
  5
198
330
2
100
AcDbEntity
  8
GAIKEI
  6
Continuous
 62
     1
100
AcDbCircle
 10
29.88450524899048
 20
20.47341224220724
 30
0.0
 40
0.250060655
  0
CIRCLE
  5
199
330
2
100
AcDbEntity
  8
GAIKEI
  6
Continuous
 62
     1
100
AcDbCircle
 10
29.88450524899048
 20
29.47559582220725
 30
0.0
 40
0.250060655
  0
CIRCLE
  5
19A
330
2
100
AcDbEntity
  8
GAIKEI
  6
Continuous
 62
     1
100
AcDbCircle
 10
29.88450524899048
 20
14.47195652220728
 30
0.0
 40
0.250060655
  0
CIRCLE
  5
19B
330
2
100
AcDbEntity
  8
GAIKEI
  6
Continuous
 62
     1
100
AcDbCircle
 10
29.88450524899048
 20
5.469772942207271
 30
0.0
 40
0.250060655
  0
ARC
  5
19C
330
2
100
AcDbEntity
  8
GAIKEI
  6
Continuous
 62
     7
100
AcDbCircle
 10
33.04527192819046
 20
29.30677991300621
 30
0.0
 40
0.400097048
100
AcDbArc
 50
0.0
 51
52.00000000000176
  0
ARC
  5
19D
330
2
100
AcDbEntity
  8
GAIKEI
  6
Continuous
 62
     7
100
AcDbCircle
 10
30.93532792244639
 20
31.33604709540725
 30
0.0
 40
0.100024262
100
AcDbArc
 50
52.0002465327014
 51
90.0003128535015
  0
ARC
  5
19E
330
2
100
AcDbEntity
  8
GAIKEI
  6
Continuous
 62
     7
100
AcDbCircle
 10
30.9138267211903
 20
3.609321669007272
 30
0.0
 40
0.100024262
100
AcDbArc
 50
270.0
 51
328.4349999999993
  0
ARC
  5
19F
330
2
100
AcDbEntity
  8
GAIKEI
  6
Continuous
 62
     1
100
AcDbCircle
 10
31.33403754625121
 20
3.911138664824761
 30
0.0
 40
0.1000241839010562
100
AcDbArc
 50
100.6389085999981
 51
148.4351795027007
  0
ARC
  5
1A0
330
2
100
AcDbEntity
  8
GAIKEI
  6
Continuous
 62
     1
100
AcDbCircle
 10
33.34534471419047
 20
4.492500361406371
 30
0.0
 40
0.100024262
100
AcDbArc
 50
280.6387666094997
 51
0.0
  0
SPLINE
  5
1A1
330
2
100
AcDbEntity
  8
GAIKEI
  6
Continuous
 62
     1
100
AcDbSpline
210
0.0
220
0.0
230
1.0
 70
     8
 71
     3
 72
    15
 73
    11
 74
     9
 42
0.0000000001
 43
0.0000000001
 44
0.0000000001
 12
0.9999553178100127
 22
0.0094531679069449
 32
0.0
 13
-0.0027644829438933
 23
0.9999961788097257
 33
0.0
 40
0.0
 40
0.0
 40
0.0
 40
0.0
 40
0.0224421439744079
 40
0.0433085356982433
 40
0.0637327965726178
 40
0.0864143208205543
 40
0.1137320846697268
 40
0.147231027375088
 40
0.1667940256166532
 40
0.1875416733468667
 40
0.1875416733468667
 40
0.1875416733468667
 40
0.1875416733468667
 10
6.964536336086325
 20
4.284029885307973
 30
0.0
 10
6.972016716489747
 20
4.284100601759689
 30
0.0
 10
6.986462025985389
 20
4.285832993244412
 30
0.0
 10
7.006895570049138
 20
4.291932881902539
 30
0.0
 10
7.026166641323683
 20
4.301289232767771
 30
0.0
 10
7.045211009017322
 20
4.315273024007979
 30
0.0
 10
7.063771313094875
 20
4.336309324605281
 30
0.0
 10
7.076436990861239
 20
4.360318354043329
 30
0.0
 10
7.082941289987971
 20
4.384145920595528
 30
0.0
 10
7.084142435061181
 20
4.397622670232749
 30
0.0
 10
7.084123316221763
 20
4.404538526382566
 30
0.0
 11
6.964536336086325
 21
4.284029885307973
 31
0.0
 11
6.986837224495474
 21
4.286543886567073
 31
0.0
 11
7.006833054667026
 21
4.292508203738634
 31
0.0
 11
7.025188448912558
 21
4.301465320147144
 31
0.0
 11
7.04346190374278
 21
4.314901554395532
 31
0.0
 11
7.061603294899498
 21
4.335325808326047
 31
0.0
 11
7.07716415055853
 21
4.364991258491784
 31
0.0
 11
7.082283151149198
 21
4.383872644382449
 31
0.0
 11
7.084123316221763
 21
4.404538526382566
 31
0.0
  0
SPLINE
  5
1A2
330
2
100
AcDbEntity
  8
GAIKEI
  6
Continuous
 62
     1
100
AcDbSpline
210
0.0
220
0.0
230
1.0
 70
     8
 71
     3
 72
    15
 73
    11
 74
     9
 42
0.0000000001
 43
0.0000000001
 44
0.0000000001
 12
-0.0094531679069449
 22
0.9999553178100127
 32
0.0
 13
-0.9999961788097257
 23
-0.0027644829438933
 33
0.0
 40
0.0
 40
0.0
 40
0.0
 40
0.0
 40
0.0224421439743733
 40
0.0433085356982522
 40
0.0637327965726018
 40
0.086414320820549
 40
0.1137320846697027
 40
0.1472310273750135
 40
0.1667940256166135
 40
0.1875416733467987
 40
0.1875416733467987
 40
0.1875416733467987
 40
0.1875416733467987
 10
7.08412330980019
 20
30.5417519054127
 30
0.0
 10
7.084052593348459
 20
30.54923228581612
 30
0.0
 10
7.082320201863836
 20
30.56367759531162
 30
0.0
 10
7.076220313205567
 20
30.58411113937558
 30
0.0
 10
7.066863962340519
 20
30.60338221065007
 30
0.0
 10
7.052880171100184
 20
30.62242657834361
 30
0.0
 10
7.03184387050291
 20
30.64098688242132
 30
0.0
 10
7.007834841064862
 20
30.65365256018742
 30
0.0
 10
6.98400727451262
 20
30.66015685931438
 30
0.0
 10
6.970530524875485
 20
30.66135800438753
 30
0.0
 10
6.963614668725654
 20
30.66133888554811
 30
0.0
 11
7.08412330980019
 21
30.5417519054127
 31
0.0
 11
7.081609308541146
 21
30.56405279382182
 31
0.0
 11
7.075644991369529
 21
30.5840486239934
 31
0.0
 11
7.066687874961075
 21
30.60240401823893
 31
0.0
 11
7.05325164071263
 21
30.62067747306912
 31
0.0
 11
7.032827386782116
 21
30.63881886422581
 31
0.0
 11
7.003161936616436
 21
30.65437971988484
 31
0.0
 11
6.984280550725742
 21
30.65949872047554
 31
0.0
 11
6.963614668725654
 21
30.66133888554811
 31
0.0
  0
SPLINE
  5
1A3
330
2
100
AcDbEntity
  8
GAIKEI
  6
Continuous
 62
     1
100
AcDbSpline
210
0.0
220
0.0
230
1.0
 70
     8
 71
     3
 72
    15
 73
    11
 74
     9
 42
0.0000000001
 43
0.0000000001
 44
0.0000000001
 12
-0.9999553178100127
 22
-0.0094531679069449
 32
0.0
 13
0.0027644829438933
 23
-0.9999961788097257
 33
0.0
 40
0.0
 40
0.0
 40
0.0
 40
0.0
 40
0.0224421439942845
 40
0.043308535698962
 40
0.0637327965733366
 40
0.086414320821273
 40
0.1137320846704267
 40
0.1472310273757879
 40
0.1667940256173605
 40
0.1875416733475715
 40
0.1875416733475715
 40
0.1875416733475715
 40
0.1875416733475715
 10
-39.52853602730448
 20
30.66133887912656
 30
0.0
 10
-39.53601640771453
 20
30.66126816267479
 30
0.0
 10
-39.55046171721163
 20
30.65953577119626
 30
0.0
 10
-39.57089526127258
 20
30.65343588252745
 30
0.0
 10
-39.59016633254197
 20
30.64407953166733
 30
0.0
 10
-39.60921070023542
 20
30.63009574042644
 30
0.0
 10
-39.62777100431302
 20
30.60905943982926
 30
0.0
 10
-39.64043668207934
 20
30.58505041039115
 30
0.0
 10
-39.64694098120616
 20
30.56122284383906
 30
0.0
 10
-39.64814212627932
 20
30.54774609420178
 30
0.0
 10
-39.64812300743989
 20
30.54083023805197
 30
0.0
 11
-39.52853602730448
 21
30.66133887912656
 31
0.0
 11
-39.55083691573364
 21
30.65882487786752
 31
0.0
 11
-39.57083274588518
 21
30.6528605606959
 31
0.0
 11
-39.58918814013072
 21
30.64390344428739
 31
0.0
 11
-39.60746159496094
 21
30.630467210039
 31
0.0
 11
-39.62560298611763
 21
30.61004295610849
 31
0.0
 11
-39.64116384177666
 21
30.58037750594275
 31
0.0
 11
-39.64628284236736
 21
30.56149612005209
 31
0.0
 11
-39.64812300743989
 21
30.54083023805197
 31
0.0
  0
SPLINE
  5
1A4
330
2
100
AcDbEntity
  8
GAIKEI
  6
Continuous
 62
     1
100
AcDbSpline
210
0.0
220
0.0
230
1.0
 70
     8
 71
     3
 72
    15
 73
    11
 74
     9
 42
0.0000000001
 43
0.0000000001
 44
0.0000000001
 12
0.0094531679069449
 22
-0.9999553178100127
 32
0.0
 13
0.9999961788097257
 23
0.0027644829438933
 33
0.0
 40
0.0
 40
0.0
 40
0.0
 40
0.0
 40
0.0224421439942531
 40
0.0433085356989115
 40
0.0637327965733122
 40
0.0864143208093896
 40
0.1137320846735029
 40
0.1472310273788654
 40
0.1667940256204231
 40
0.1875416733506366
 40
0.1875416733506366
 40
0.1875416733506366
 40
0.1875416733506366
 10
-39.64812300101832
 20
4.403616859021838
 30
0.0
 10
-39.64805228456653
 20
4.396136478611822
 30
0.0
 10
-39.64631989308776
 20
4.381691169114901
 30
0.0
 10
-39.64022000442017
 20
4.361257625052985
 30
0.0
 10
-39.6308636535565
 20
4.341986553791343
 30
0.0
 10
-39.61687986234067
 20
4.322942186077114
 30
0.0
 10
-39.59584356171887
 20
4.304381882022369
 30
0.0
 10
-39.57183453228412
 20
4.291716204245858
 30
0.0
 10
-39.54800696573048
 20
4.28521190512049
 30
0.0
 10
-39.53453021609361
 20
4.28401076004701
 30
0.0
 10
-39.52761435994379
 20
4.284029878886428
 30
0.0
 11
-39.64812300101832
 21
4.403616859021838
 31
0.0
 11
-39.64560899975931
 21
4.381315970592709
 31
0.0
 11
-39.63964468258766
 21
4.361320140441193
 31
0.0
 11
-39.63068756617921
 21
4.342964746195605
 31
0.0
 11
-39.6172513319508
 21
4.324691291365411
 31
0.0
 11
-39.59682707800027
 21
4.306549900208722
 31
0.0
 11
-39.56716162783457
 21
4.290989044549633
 31
0.0
 11
-39.5482802419439
 21
4.285870043958993
 31
0.0
 11
-39.52761435994379
 21
4.284029878886428
 31
0.0
  0
SPLINE
  5
1A5
330
2
100
AcDbEntity
  8
GAIKEI
  6
Continuous
 62
     1
100
AcDbSpline
210
0.0
220
0.0
230
1.0
 70
     8
 71
     3
 72
     8
 73
     4
 74
     2
 42
0.0000000001
 43
0.0000000001
 44
0.0000000001
 12
0.646281025680076
 22
-0.7630994927569465
 32
0.0
 13
0.6605543086790944
 23
-0.750778266391272
 33
0.0
 40
0.0
 40
0.0
 40
0.0
 40
0.0
 40
0.0013573050759197
 40
0.0013573050759197
 40
0.0013573050759197
 40
0.0013573050759197
 10
32.18616336801031
 20
30.65862077303961
 30
0.0
 10
32.18645576818253
 20
30.65827552010131
 30
0.0
 10
32.18675144330047
 20
30.65793301452732
 30
0.0
 10
32.18705030120583
 20
30.65759333614335
 30
0.0
 11
32.18616336801031
 21
30.65862077303961
 31
0.0
 11
32.18705030120583
 21
30.65759333614335
 31
0.0
  0
SPLINE
  5
1A6
330
2
100
AcDbEntity
  8
GAIKEI
  6
Continuous
 62
     1
100
AcDbSpline
210
0.0
220
0.0
230
1.0
 70
     8
 71
     3
 72
     8
 73
     4
 74
     2
 42
0.0000000001
 43
0.0000000001
 44
0.0000000001
 12
-0.9017202067986458
 22
0.4323200997536518
 32
0.0
 13
-0.9987066253369802
 23
-0.0508436476663589
 33
0.0
 40
0.0
 40
0.0
 40
0.0
 40
0.0
 40
0.0019697849716741
 40
0.0019697849716741
 40
0.0019697849716741
 40
0.0019697849716741
 10
32.19530891464462
 20
30.6945987360557
 30
0.0
 10
32.19471684967394
 20
30.69488259526753
 30
0.0
 10
32.19403873811791
 20
30.69504549142795
 30
0.0
 10
32.19338299235068
 20
30.6950121077436
 30
0.0
 11
32.19530891464462
 21
30.6945987360557
 31
0.0
 11
32.19338299235068
 21
30.6950121077436
 31
0.0
  0
SPLINE
  5
1A7
330
2
100
AcDbEntity
  8
GAIKEI
  6
Continuous
 62
     1
100
AcDbSpline
210
0.0
220
0.0
230
1.0
 70
     8
 71
     3
 72
     8
 73
     4
 74
     2
 42
0.0000000001
 43
0.0000000001
 44
0.0000000001
 12
0.7739279189693887
 22
0.633273697732435
 32
0.0
 13
0.8220077562318428
 23
0.5694762933561777
 33
0.0
 40
0.0
 40
0.0
 40
0.0
 40
0.0
 40
0.0000789769634423
 40
0.0000789769634423
 40
0.0000789769634423
 40
0.0000789769634423
 10
31.62177800386743
 20
30.95725915872981
 30
0.0
 10
31.62179837802643
 20
30.95727583007437
 30
0.0
 10
31.62181940730716
 20
30.9572917368323
 30
0.0
 10
31.62184104719933
 20
30.95730672866841
 30
0.0
 11
31.62177800386743
 21
30.95725915872981
 31
0.0
 11
31.62184104719933
 21
30.95730672866841
 31
0.0
  0
SPLINE
  5
1A8
330
2
100
AcDbEntity
  8
GAIKEI
  6
Continuous
 62
     1
100
AcDbSpline
210
0.0
220
0.0
230
1.0
 70
     8
 71
     3
 72
    12
 73
     8
 74
     6
 42
0.0000000001
 43
0.0000000001
 44
0.0000000001
 12
0.8220077250714343
 22
0.5694763383345136
 32
0.0
 13
0.7417352064424679
 23
-0.6706928384318336
 33
0.0
 40
0.0
 40
0.0
 40
0.0
 40
0.0
 40
0.0040615114698239
 40
0.0088157854661092
 40
0.0149945110640055
 40
0.0221873274875101
 40
0.0299117268156956
 40
0.0299117268156956
 40
0.0299117268156956
 40
0.0299117268156956
 10
31.62184104719933
 20
30.95730672866841
 30
0.0
 10
31.62295391180055
 20
30.95807770689504
 30
0.0
 10
31.62566042604217
 20
30.95448250744113
 30
0.0
 10
31.62952492786859
 20
30.95242195352188
 30
0.0
 10
31.63425746758242
 20
30.94825199700034
 30
0.0
 10
31.63959131148225
 20
30.9438102034751
 30
0.0
 10
31.64331260158885
 20
30.94047689583618
 30
0.0
 10
31.64522242123229
 20
30.93874999606601
 30
0.0
 11
31.62184104719933
 21
30.95730672866841
 31
0.0
 11
31.62535553117658
 21
30.95527097873457
 31
0.0
 11
31.62916476632904
 21
30.95242618545825
 31
0.0
 11
31.63396912197908
 21
30.94854098059852
 31
0.0
 11
31.63944520324364
 21
30.94387738305091
 31
0.0
 11
31.64522242123229
 21
30.93874999606601
 31
0.0
  0
SPLINE
  5
1A9
330
2
100
AcDbEntity
  8
GAIKEI
  6
Continuous
 62
     1
100
AcDbSpline
210
0.0
220
0.0
230
1.0
 70
     8
 71
     3
 72
     8
 73
     4
 74
     2
 42
0.0000000001
 43
0.0000000001
 44
0.0000000001
 12
-0.3508351228921559
 22
-0.9364372464534108
 32
0.0
 13
-0.4250428819181636
 23
-0.9051732146560137
 33
0.0
 40
0.0
 40
0.0
 40
0.0
 40
0.0
 40
0.0000793668704644
 40
0.0000793668704644
 40
0.0000793668704644
 40
0.0000793668704644
 10
33.06423746311242
 20
29.83038664267662
 30
0.0
 10
33.06422818155051
 20
29.83036186864541
 30
0.0
 10
33.06421784990194
 20
29.83033746720173
 30
0.0
 10
33.06420660512748
 20
29.83031352027996
 30
0.0
 11
33.06423746311242
 21
29.83038664267662
 31
0.0
 11
33.06420660512748
 21
29.83031352027996
 31
0.0
  0
SPLINE
  5
1AA
330
2
100
AcDbEntity
  8
GAIKEI
  6
Continuous
 62
     1
100
AcDbSpline
210
0.0
220
0.0
230
1.0
 70
     8
 71
     3
 72
    19
 73
    15
 74
    13
 42
0.0000000001
 43
0.0000000001
 44
0.0000000001
 12
0.8120036021779666
 22
-0.5836524222943023
 32
0.0
 13
0.8119947503892907
 23
-0.5836647371053295
 33
0.0
 40
0.0
 40
0.0
 40
0.0
 40
0.0
 40
0.1600092659860799
 40
0.3049635413825598
 40
0.4350781884343906
 40
0.5506012155123634
 40
0.6517742393549263
 40
0.7387987392519852
 40
0.8119201686613404
 40
0.8714330197923668
 40
0.9175220367060504
 40
0.9502452346343527
 40
0.9697214591624547
 40
0.9761547743638162
 40
0.9761547743638162
 40
0.9761547743638162
 40
0.9761547743638162
 10
32.65272861939414
 20
29.87651609260905
 30
0.0
 10
32.69603798618165
 20
29.84538616071495
 30
0.0
 10
32.77858169037619
 20
29.78605508055796
 30
0.0
 10
32.89634329613163
 20
29.70141015687977
 30
0.0
 10
33.00206385483742
 20
29.62541999506237
 30
0.0
 10
33.09593427658163
 20
29.55794756816556
 30
0.0
 10
33.17814158131887
 20
29.49885836589999
 30
0.0
 10
33.24887215063976
 20
29.44801844900747
 30
0.0
 10
33.30832666321314
 20
29.40528357093433
 30
0.0
 10
33.35670126165661
 20
29.37051273212797
 30
0.0
 10
33.39414138342231
 20
29.34360143871993
 30
0.0
 10
33.42074485581021
 20
29.32447927407645
 30
0.0
 10
33.43661487819675
 20
29.3130722614651
 30
0.0
 10
33.44362770398689
 20
29.30803146436165
 30
0.0
 10
33.4453689767106
 20
29.30677983128641
 30
0.0
 11
32.65272861939414
 21
29.87651609260905
 31
0.0
 11
32.78265660593596
 21
29.7831261385744
 31
0.0
 11
32.90035989228042
 21
29.69852307515805
 31
0.0
 11
33.00601333782166
 21
29.62258118406566
 31
0.0
 11
33.09981835559461
 21
29.55515575543615
 31
0.0
 11
33.18197112842566
 21
29.49610575399993
 31
0.0
 11
33.25263526143903
 21
29.44531359035432
 31
0.0
 11
33.31201006301916
 21
29.40263600400988
 31
0.0
 11
33.36033466146933
 21
29.36790111327486
 31
0.0
 11
33.39775907029696
 21
29.34100109275494
 31
0.0
 11
33.42433039804877
 21
29.32190208167686
 31
0.0
 11
33.44014514343161
 21
29.31053470949393
 31
0.0
 11
33.4453689767106
 21
29.30677983128641
 31
0.0
  0
SPLINE
  5
1AB
330
2
100
AcDbEntity
  8
GAIKEI
  6
Continuous
 62
     1
100
AcDbSpline
210
0.0
220
0.0
230
1.0
 70
     8
 71
     3
 72
    11
 73
     7
 74
     5
 42
0.0000000001
 43
0.0000000001
 44
0.0000000001
 12
-0.5553447192262191
 22
-0.8316202515737288
 32
0.0
 13
-0.5553416908296799
 23
-0.8316222738878703
 33
0.0
 40
0.0
 40
0.0
 40
0.0
 40
0.0
 40
0.1297985200383624
 40
0.2724857014953108
 40
0.4290945499148938
 40
0.6004845226283013
 40
0.6004845226283013
 40
0.6004845226283013
 40
0.6004845226283013
 10
32.98620752188018
 20
6.964334362283807
 30
0.0
 10
32.96217988099129
 20
6.928353336321094
 30
0.0
 10
32.91173662047382
 20
6.852819859737735
 30
0.0
 10
32.83230535207314
 20
6.733871600587747
 30
0.0
 10
32.74517476495535
 20
6.603393990706706
 30
0.0
 10
32.68445728838602
 20
6.512470506991462
 30
0.0
 10
32.65273062264004
 20
6.464959934048295
 30
0.0
 11
32.98620752188018
 21
6.964334362283807
 31
0.0
 11
32.91412315463316
 21
6.856392249080727
 31
0.0
 11
32.834882418109
 21
6.737730808725245
 31
0.0
 11
32.74791089247575
 21
6.60749147084175
 31
0.0
 11
32.65273062264004
 21
6.464959934048295
 31
0.0
  0
SPLINE
  5
1AC
330
2
100
AcDbEntity
  8
GAIKEI
  6
Continuous
 62
     1
100
AcDbSpline
210
0.0
220
0.0
230
1.0
 70
     8
 71
     3
 72
    21
 73
    17
 74
    15
 42
0.0000000001
 43
0.0000000001
 44
0.0000000001
 12
-0.9999999949185339
 22
-0.0001008113690369
 32
0.0
 13
0.0350017569080724
 23
-0.9993872507758684
 33
0.0
 40
0.0
 40
0.0
 40
0.0
 40
0.0
 40
0.0033348637262579
 40
0.0081320122636412
 40
0.01560637026548
 40
0.0260186780514691
 40
0.0393289901317166
 40
0.0554319175222884
 40
0.0741094116716353
 40
0.0951160748921924
 40
0.1181826735714281
 40
0.1429941326145597
 40
0.1692033863577317
 40
0.1964936494904885
 40
0.2245051774938036
 40
0.2528338100082918
 40
0.2528338100082918
 40
0.2528338100082918
 40
0.2528338100082918
 10
30.91646896069494
 20
31.43607135740729
 30
0.0
 10
30.91535733945851
 20
31.43607124534322
 30
0.0
 10
30.91263126081677
 20
31.43470155307739
 30
0.0
 10
30.91075195618826
 20
31.42960049870396
 30
0.0
 10
30.90952013674391
 20
31.42220369523051
 30
0.0
 10
30.90896688276908
 20
31.41177198971184
 30
0.0
 10
30.90886778776051
 20
31.39851091090577
 30
0.0
 10
30.90913442329887
 20
31.38247658325219
 30
0.0
 10
30.90962840770178
 20
31.36388930229703
 30
0.0
 10
30.91025194193847
 20
31.34298106292135
 30
0.0
 10
30.91092691324255
 20
31.32002959743159
 30
0.0
 10
30.91160745914144
 20
31.29534313059486
 30
0.0
 10
30.91227869556275
 20
31.26924811325137
 30
0.0
 10
30.91295791004004
 20
31.24208624931526
 30
0.0
 10
30.9136927285405
 20
31.2142191214146
 30
0.0
 10
30.91427050616299
 20
31.19544779379623
 30
0.0
 10
30.91460102346593
 20
31.18601070240726
 30
0.0
 11
30.91646896069494
 21
31.43607135740729
 31
0.0
 11
30.91341523183897
 21
31.43473118721403
 31
0.0
 11
30.91119832840434
 21
31.43047701593736
 31
0.0
 11
30.90979389816411
 21
31.42313578966105
 31
0.0
 11
30.90908795320928
 21
31.41274744065118
 31
0.0
 11
30.90892311940701
 21
31.39943814925414
 31
0.0
 11
30.90914482930521
 21
31.38333674821985
 31
0.0
 11
30.90961729360669
 21
31.36466523073512
 31
0.0
 11
30.91023009012733
 21
31.34366750752315
 31
0.0
 11
30.9109030056905
 21
31.32061072632382
 31
0.0
 11
30.91158720725122
 21
31.2958087028565
 31
0.0
 11
30.9122663657887
 21
31.26960825008456
 31
0.0
 11
30.91295801003474
 21
31.24232675287323
 31
0.0
 11
30.91371039633441
 21
31.21432533119616
 31
0.0
 11
30.91460102346593
 21
31.18601070240726
 31
0.0
  0
SPLINE
  5
1AD
330
2
100
AcDbEntity
  8
GAIKEI
  6
Continuous
 62
     1
100
AcDbSpline
210
0.0
220
0.0
230
1.0
 70
     8
 71
     3
 72
    20
 73
    16
 74
    14
 42
0.0000000001
 43
0.0000000001
 44
0.0000000001
 12
-0.0187391985764692
 22
-0.9998244058016947
 32
0.0
 13
0.9999995966151708
 23
-0.0008982034823148
 33
0.0
 40
0.0
 40
0.0
 40
0.0
 40
0.0
 40
0.0278267080093981
 40
0.0554253627297557
 40
0.0823983470988255
 40
0.1083588300693123
 40
0.1329638098509019
 40
0.1558781055389511
 40
0.1767972157069905
 40
0.1954914671340711
 40
0.2117465160898543
 40
0.2253427328770218
 40
0.2360976236080071
 40
0.2438704070372471
 40
0.250118372430393
 40
0.250118372430393
 40
0.250118372430393
 40
0.250118372430393
 10
30.91489541555404
 20
3.759358062007265
 30
0.0
 10
30.91472159881833
 20
3.750084121406985
 30
0.0
 10
30.9145522191911
 20
3.731608774255789
 30
0.0
 10
30.91466304404244
 20
3.704142508204938
 30
0.0
 10
30.9149850978489
 20
3.677300179309156
 30
0.0
 10
30.91538378387514
 20
3.651457370865671
 30
0.0
 10
30.9157461700602
 20
3.626965902308256
 30
0.0
 10
30.91599435248995
 20
3.604157298330733
 30
0.0
 10
30.91605896099546
 20
3.583304896706181
 30
0.0
 10
30.91597275007111
 20
3.564712710276694
 30
0.0
 10
30.91557886114415
 20
3.54844066128021
 30
0.0
 10
30.91540557749571
 20
3.535175807729956
 30
0.0
 10
30.91418844456737
 20
3.523787161423172
 30
0.0
 10
30.91539808486329
 20
3.517241979592711
 30
0.0
 10
30.91171324440303
 20
3.509299277655316
 30
0.0
 10
30.91379589869396
 20
3.509297407007238
 30
0.0
 11
30.91489541555404
 21
3.759358062007265
 31
0.0
 11
30.91461300665262
 21
3.731532787096625
 31
0.0
 11
30.9147009300394
 21
3.703934272429137
 31
0.0
 11
30.91500485287929
 21
3.676963000366413
 31
0.0
 11
30.91538795462486
 21
3.651005344287455
 31
0.0
 11
30.9157378768424
 21
3.626402852858859
 31
0.0
 11
30.91597052611408
 21
3.603489738247446
 31
0.0
 11
30.91603279853897
 21
3.582570720766511
 31
0.0
 11
30.91590328250339
 21
3.563876917996196
 31
0.0
 11
30.91559133391678
 21
3.547624862598979
 31
0.0
 11
30.9151382222895
 21
3.534036198176863
 31
0.0
 11
30.91461679965263
 21
3.52329395478597
 31
0.0
 11
30.91412967091412
 21
3.51553645081691
 31
0.0
 11
30.91379589869396
 21
3.509297407007238
 31
0.0
  0
SPLINE
  5
1AE
330
2
100
AcDbEntity
  8
GAIKEI
  6
Continuous
 62
     1
100
AcDbSpline
210
0.0
220
0.0
230
1.0
 70
     8
 71
     3
 72
    21
 73
    17
 74
    15
 42
0.0000000001
 43
0.0000000001
 44
0.0000000001
 12
-0.8071819081793133
 22
-0.590302775792222
 32
0.0
 13
0.0066432863556147
 23
-0.9999779331297252
 33
0.0
 40
0.0
 40
0.0
 40
0.0
 40
0.0
 40
0.0033603650361155
 40
0.0084653611582111
 40
0.015821057891248
 40
0.0254616002321502
 40
0.037275808265153
 40
0.0511365346953067
 40
0.0668408235446315
 40
0.0841782849533282
 40
0.1029287987841318
 40
0.1228406822072668
 40
0.1436409219932647
 40
0.1650815815472904
 40
0.1868792722199723
 40
0.2087103373767448
 40
0.2087103373767448
 40
0.2087103373767448
 40
0.2087103373767448
 10
30.99250104980593
 20
31.39866565779778
 30
0.0
 10
30.99159690785191
 20
31.39800444686159
 30
0.0
 10
30.99014278345965
 20
31.39535889531373
 30
0.0
 10
30.98958581174335
 20
31.39010460894411
 30
0.0
 10
30.98972149128844
 20
31.38272368987634
 30
0.0
 10
30.99053845479403
 20
31.37315487447933
 30
0.0
 10
30.99176860339927
 20
31.36144698646428
 30
0.0
 10
30.99323848508294
 20
31.34773259928875
 30
0.0
 10
30.99475924311666
 20
31.3321721182852
 30
0.0
 10
30.99618663779001
 20
31.31496639147917
 30
0.0
 10
30.99741199135481
 20
31.29633906872243
 30
0.0
 10
30.9983704807336
 20
31.27654043482789
 30
0.0
 10
30.99904150208809
 20
31.25583294859166
 30
0.0
 10
30.9994484635186
 20
31.23449015957715
 30
0.0
 10
30.99965715830803
 20
31.21280119753431
 30
0.0
 10
30.99973512317819
 20
31.19825849073891
 30
0.0
 10
30.99978346651727
 20
31.19098162960109
 30
0.0
 11
30.99250104980593
 21
31.39866565779778
 31
0.0
 11
30.9906246359208
 21
31.39587798419643
 31
0.0
 11
30.98975151443545
 21
31.39084820842823
 31
0.0
 11
30.9897781923865
 21
31.38349256007371
 31
0.0
 11
30.99050487341106
 21
31.37387944448534
 31
0.0
 11
30.99170106280013
 21
31.36212594958414
 31
0.0
 11
30.99315286371064
 21
31.34834146514374
 31
0.0
 11
30.99466998558546
 21
31.33271062929021
 31
0.0
 11
30.99610039506723
 21
31.31543227587292
 31
0.0
 11
30.99733417981548
 21
31.29672239762334
 31
0.0
 11
30.99830432335461
 21
31.27683416183004
 31
0.0
 11
30.99898909733417
 21
31.25604519697481
 31
0.0
 11
30.99941272911079
 21
31.23460872295903
 31
0.0
 11
30.9996415839421
 21
31.21281223369749
 31
0.0
 11
30.99978346651727
 21
31.19098162960109
 31
0.0
  0
SPLINE
  5
1AF
330
2
100
AcDbEntity
  8
GAIKEI
  6
Continuous
 62
     1
100
AcDbSpline
210
0.0
220
0.0
230
1.0
 70
     8
 71
     3
 72
     9
 73
     5
 74
     3
 42
0.0000000001
 43
0.0000000001
 44
0.0000000001
 12
0.0066255207494568
 22
-0.9999780509965198
 32
0.0
 13
-0.0502229628555077
 23
-0.9987380307177726
 33
0.0
 40
0.0
 40
0.0
 40
0.0
 40
0.0
 40
0.0113553596509137
 40
0.0226664820504846
 40
0.0226664820504846
 40
0.0226664820504846
 40
0.0226664820504846
 10
30.99978346651727
 20
31.19098162960109
 30
0.0
 10
30.99980854490759
 20
31.18719659279708
 30
0.0
 10
30.99975222022486
 20
31.17964017482638
 30
0.0
 10
30.99948105907379
 20
31.17208839025989
 30
0.0
 10
30.99929169971375
 20
31.16832277422304
 30
0.0
 11
30.99978346651727
 21
31.19098162960109
 31
0.0
 11
30.99969819133281
 21
31.17962659014961
 31
0.0
 11
30.99929169971375
 21
31.16832277422304
 31
0.0
  0
SPLINE
  5
1B0
330
2
100
AcDbEntity
  8
GAIKEI
  6
Continuous
 62
     1
100
AcDbSpline
210
0.0
220
0.0
230
1.0
 70
     8
 71
     3
 72
    14
 73
    10
 74
     8
 42
0.0000000001
 43
0.0000000001
 44
0.0000000001
 12
0.523466945167086
 22
0.8520459831003483
 32
0.0
 13
0.0421672858208564
 23
0.9991105644554572
 33
0.0
 40
0.0
 40
0.0
 40
0.0
 40
0.0
 40
0.0719676168549203
 40
0.1396263609714541
 40
0.20285481178295
 40
0.2615904413033574
 40
0.315958656439868
 40
0.3663758362406237
 40
0.4133693284386678
 40
0.4133693284386678
 40
0.4133693284386678
 40
0.4133693284386678
 10
32.85444138357417
 20
6.576986805535057
 30
0.0
 10
32.86699893975618
 20
6.597426711819878
 30
0.0
 10
32.89011561904556
 20
6.637867891314272
 30
0.0
 10
32.91971319620886
 20
6.698718983218839
 30
0.0
 10
32.9434197113139
 20
6.757368467453716
 30
0.0
 10
32.96154903235363
 20
6.813333209845097
 30
0.0
 10
32.97451754060162
 20
6.866327844868521
 30
0.0
 10
32.98278824841269
 20
6.916288406953697
 30
0.0
 10
32.98554681123711
 20
6.948683491290978
 30
0.0
 10
32.98620734057619
 20
6.96433405612953
 30
0.0
 11
32.85444138357417
 21
6.576986805535057
 31
0.0
 11
32.89009988390097
 21
6.639499278132291
 31
0.0
 11
32.91962912612794
 21
6.700373981490315
 31
0.0
 11
32.94325351710739
 21
6.7590231515004
 31
0.0
 11
32.96128110043873
 21
6.814923781321454
 31
0.0
 11
32.97413084948863
 21
6.867751678937054
 31
0.0
 11
32.98229183956778
 21
6.917503967929519
 31
0.0
 11
32.98620734057619
 21
6.96433405612953
 31
0.0
  0
SPLINE
  5
1B1
330
2
100
AcDbEntity
  8
GAIKEI
  6
Continuous
 62
     1
100
AcDbSpline
210
0.0
220
0.0
230
1.0
 70
     8
 71
     3
 72
    19
 73
    15
 74
    13
 42
0.0000000001
 43
0.0000000001
 44
0.0000000001
 12
0.0416074410887579
 22
-0.9991340354757442
 32
0.0
 13
-0.2357217871953549
 23
-0.9718205796552302
 33
0.0
 40
0.0
 40
0.0
 40
0.0
 40
0.0
 40
0.0199611152075611
 40
0.0400759574275717
 40
0.0600267626005415
 40
0.0795053082422936
 40
0.098238166174329
 40
0.1159620455299996
 40
0.1324408340855916
 40
0.1475016275266425
 40
0.160987872417218
 40
0.1727384792241769
 40
0.1826179317682741
 40
0.1905166136829351
 40
0.1905166136829351
 40
0.1905166136829351
 40
0.1905166136829351
 10
31.00028068322274
 20
3.756691386595434
 30
0.0
 10
31.00055752686443
 20
3.750043443398794
 30
0.0
 10
31.00128643159584
 20
3.736703564236051
 30
0.0
 10
31.00266342354118
 20
3.716741976027037
 30
0.0
 10
31.0041204911695
 20
3.696947472504518
 30
0.0
 10
31.00546968217427
 20
3.677606918355422
 30
0.0
 10
31.0065571335243
 20
3.658992905015452
 30
0.0
 10
31.00726860685604
 20
3.64136076626346
 30
0.0
 10
31.00753248762516
 20
3.624939718116365
 30
0.0
 10
31.00732028943543
 20
3.609929830884141
 30
0.0
 10
31.00664500912264
 20
3.596510925962945
 30
0.0
 10
31.00556388444838
 20
3.584851202743266
 30
0.0
 10
31.00417485334606
 20
3.5751029007846
 30
0.0
 10
31.00301075326328
 20
3.569287269401513
 30
0.0
 10
31.00239012279081
 20
3.566728568855921
 30
0.0
 11
31.00028068322274
 21
3.756691386595434
 31
0.0
 11
31.00133087683889
 21
3.73675791691005
 31
0.0
 11
31.00268264464526
 21
3.716688547180694
 31
0.0
 11
31.00411919353621
 21
3.69678952825177
 31
0.0
 11
31.00544968736233
 21
3.677356475828219
 31
0.0
 11
31.00651898705289
 21
3.658654161413323
 31
0.0
 11
31.00721109483135
 21
3.640943800427805
 31
0.0
 11
31.00745338790225
 21
3.624466793226019
 31
0.0
 11
31.00721716632407
 21
3.609407852412005
 31
0.0
 11
31.00651481452079
 21
3.595939908872139
 31
0.0
 11
31.00540252530266
 21
3.584242064069485
 31
0.0
 11
31.00398044426103
 21
3.574465496774053
 31
0.0
 11
31.00239012279081
 21
3.566728568855921
 31
0.0
  0
SPLINE
  5
1B2
330
2
100
AcDbEntity
  8
GAIKEI
  6
Continuous
 62
     7
100
AcDbSpline
210
0.0
220
0.0
230
1.0
 70
     8
 71
     3
 72
     9
 73
     5
 74
     3
 42
0.0000000001
 43
0.0000000001
 44
0.0000000001
 12
-0.2357217880264959
 22
-0.9718205794536313
 32
0.0
 13
-0.4474755542504238
 23
-0.8942961636663081
 33
0.0
 40
0.0
 40
0.0
 40
0.0
 40
0.0
 40
0.0058291958694327
 40
0.0095260135160224
 40
0.0095260135160224
 40
0.0095260135160224
 40
0.0095260135160224
 10
31.00239012279081
 20
3.566728568855921
 30
0.0
 10
31.00193209996645
 20
3.564840258020069
 30
0.0
 10
31.00109197694161
 20
3.561778547707376
 30
0.0
 10
31.0000029588483
 20
3.558781541462451
 30
0.0
 10
30.99945154700652
 20
3.55767952484939
 30
0.0
 11
31.00239012279081
 21
3.566728568855921
 31
0.0
 11
31.00081071816862
 21
3.561117418748892
 31
0.0
 11
30.99945154700652
 21
3.55767952484939
 31
0.0
  0
SPLINE
  5
1B3
330
2
100
AcDbEntity
  8
GAIKEI
  6
Continuous
 62
     1
100
AcDbSpline
210
0.0
220
0.0
230
1.0
 70
     8
 71
     3
 72
     9
 73
     5
 74
     3
 42
0.0000000001
 43
0.0000000001
 44
0.0000000001
 12
0.0749593571158305
 22
-0.9971865897517783
 32
0.0
 13
0.0416192567977886
 23
-0.999133543358244
 33
0.0
 40
0.0
 40
0.0
 40
0.0
 40
0.0
 40
0.0084725223525118
 40
0.0169890733818161
 40
0.0169890733818161
 40
0.0169890733818161
 40
0.0169890733818161
 10
30.99929169315215
 20
3.773651056332369
 30
0.0
 10
30.99950339142838
 20
3.770834827775274
 30
0.0
 10
30.99988014763069
 20
3.765184049369167
 30
0.0
 10
31.0001625323813
 20
3.759527777197774
 30
0.0
 10
31.00028068322274
 20
3.756691386595434
 30
0.0
 11
30.99929169315215
 21
3.773651056332369
 31
0.0
 11
30.99985570049844
 21
3.765197327526266
 31
0.0
 11
31.00028068322274
 21
3.756691386595434
 31
0.0
  0
SPLINE
  5
1B4
330
2
100
AcDbEntity
  8
GAIKEI
  6
Continuous
 62
     7
100
AcDbSpline
210
0.0
220
0.0
230
1.0
 70
     8
 71
     3
 72
     8
 73
     4
 74
     2
 42
0.0000000001
 43
0.0000000001
 44
0.0000000001
 12
-0.5162690488801386
 22
-0.856426452865859
 32
0.0
 13
-0.5232458941927535
 23
-0.8521817495173351
 33
0.0
 40
0.0
 40
0.0
 40
0.0
 40
0.0
 40
0.0008143773208019
 40
0.0008143773208019
 40
0.0008143773208019
 40
0.0008143773208019
 10
30.99945154766667
 20
3.557679524449326
 30
0.0
 10
30.99931140173172
 20
3.557447039689293
 30
0.0
 10
30.99917030479789
 20
3.557215125568632
 30
0.0
 10
30.99902826493474
 20
3.556983793071935
 30
0.0
 11
30.99945154766667
 21
3.557679524449326
 31
0.0
 11
30.99902826493474
 21
3.556983793071935
 31
0.0
  0
SPLINE
  5
1B5
330
2
100
AcDbEntity
  8
GAIKEI
  6
Continuous
 62
     7
100
AcDbSpline
210
0.0
220
0.0
230
1.0
 70
     8
 71
     3
 72
     8
 73
     4
 74
     2
 42
0.0000000001
 43
0.0000000001
 44
0.0000000001
 12
-0.5232458997593769
 22
-0.8521817460993869
 32
0.0
 13
-0.6158335552307735
 23
-0.7878762797875223
 33
0.0
 40
0.0
 40
0.0
 40
0.0
 40
0.0
 40
0.0112837394681735
 40
0.0112837394681735
 40
0.0112837394681735
 40
0.0112837394681735
 10
30.99902826493474
 20
3.556983793071935
 30
0.0
 10
30.99706020813118
 20
3.553778527471081
 30
0.0
 10
30.99490755030229
 20
3.550679633874267
 30
0.0
 10
30.99259124850462
 20
3.547716236982864
 30
0.0
 11
30.99902826493474
 21
3.556983793071935
 31
0.0
 11
30.99259124850462
 21
3.547716236982864
 31
0.0
  0
SPLINE
  5
1B6
330
2
100
AcDbEntity
  8
GAIKEI
  6
Continuous
 62
     7
100
AcDbSpline
210
0.0
220
0.0
230
1.0
 70
     8
 71
     3
 72
     8
 73
     4
 74
     2
 42
0.0000000001
 43
0.0000000001
 44
0.0000000001
 12
-0.6158335559903884
 22
-0.7878762791937787
 32
0.0
 13
-0.6371606047235941
 23
-0.7707310580145736
 33
0.0
 40
0.0
 40
0.0
 40
0.0
 40
0.0
 40
0.0027346002732708
 40
0.0027346002732708
 40
0.0027346002732708
 40
0.0027346002732708
 10
30.99259124850462
 20
3.547716236982864
 30
0.0
 10
30.99202989563446
 20
3.546998061420083
 30
0.0
 10
30.99145867479629
 20
3.546287490474412
 30
0.0
 10
30.99087788160836
 20
3.545584943353787
 30
0.0
 11
30.99259124850462
 21
3.547716236982864
 31
0.0
 11
30.99087788160836
 21
3.545584943353787
 31
0.0
  0
SPLINE
  5
1B7
330
2
100
AcDbEntity
  8
GAIKEI
  6
Continuous
 62
     7
100
AcDbSpline
210
0.0
220
0.0
230
1.0
 70
     8
 71
     3
 72
     8
 73
     4
 74
     2
 42
0.0000000001
 43
0.0000000001
 44
0.0000000001
 12
-0.6371606042324272
 22
-0.7707310584206195
 32
0.0
 13
-0.7255142398871499
 23
-0.6882071546569181
 33
0.0
 40
0.0
 40
0.0
 40
0.0
 40
0.0
 40
0.0120895507000002
 40
0.0120895507000002
 40
0.0120895507000002
 40
0.0120895507000002
 10
30.99087788160836
 20
3.545584943353787
 30
0.0
 10
30.98831021979872
 20
3.542479012618173
 30
0.0
 10
30.98554929494979
 20
3.539523340615005
 30
0.0
 10
30.9826255812209
 20
3.536749968852234
 30
0.0
 11
30.99087788160836
 21
3.545584943353787
 31
0.0
 11
30.9826255812209
 21
3.536749968852234
 31
0.0
  0
SPLINE
  5
1B8
330
2
100
AcDbEntity
  8
GAIKEI
  6
Continuous
 62
     7
100
AcDbSpline
210
0.0
220
0.0
230
1.0
 70
     8
 71
     3
 72
     8
 73
     4
 74
     2
 42
0.0000000001
 43
0.0000000001
 44
0.0000000001
 12
-0.7255142403706318
 22
-0.6882071541472273
 32
0.0
 13
-0.742944611852384
 23
-0.6693528992388922
 33
0.0
 40
0.0
 40
0.0
 40
0.0
 40
0.0
 40
0.0025657882133921
 40
0.0025657882133921
 40
0.0025657882133921
 40
0.0025657882133921
 10
30.9826255812209
 20
3.536749968852234
 30
0.0
 10
30.98200507592537
 20
3.536161370917398
 30
0.0
 10
30.98137696589163
 20
3.535580687443541
 30
0.0
 10
30.98074155304886
 20
3.535008214850392
 30
0.0
 11
30.9826255812209
 21
3.536749968852234
 31
0.0
 11
30.98074155304886
 21
3.535008214850392
 31
0.0
  0
SPLINE
  5
1B9
330
2
100
AcDbEntity
  8
GAIKEI
  6
Continuous
 62
     7
100
AcDbSpline
210
0.0
220
0.0
230
1.0
 70
     8
 71
     3
 72
     8
 73
     4
 74
     2
 42
0.0000000001
 43
0.0000000001
 44
0.0000000001
 12
-0.7429446118967354
 22
-0.6693528991896646
 32
0.0
 13
-0.8192232704105519
 23
-0.5734747014627935
 33
0.0
 40
0.0
 40
0.0
 40
0.0
 40
0.0
 40
0.0122597526993414
 40
0.0122597526993414
 40
0.0122597526993414
 40
0.0122597526993414
 10
30.98074155304886
 20
3.535008214850392
 30
0.0
 10
30.97770544731181
 20
3.532272847846172
 30
0.0
 10
30.97449537969786
 20
3.529719157628846
 30
0.0
 10
30.9711475547976
 20
3.52737560495575
 30
0.0
 11
30.98074155304886
 21
3.535008214850392
 31
0.0
 11
30.9711475547976
 21
3.52737560495575
 31
0.0
  0
SPLINE
  5
1BA
330
2
100
AcDbEntity
  8
GAIKEI
  6
Continuous
 62
     7
100
AcDbSpline
210
0.0
220
0.0
230
1.0
 70
     8
 71
     3
 72
     8
 73
     4
 74
     2
 42
0.0000000001
 43
0.0000000001
 44
0.0000000001
 12
-0.8192232724233894
 22
-0.5734746985874033
 32
0.0
 13
-0.8327501591895341
 23
-0.5536489613191788
 33
0.0
 40
0.0
 40
0.0
 40
0.0
 40
0.0
 40
0.0023978559334346
 40
0.0023978559334346
 40
0.0023978559334346
 40
0.0023978559334346
 10
30.9711475547976
 20
3.52737560495575
 30
0.0
 10
30.97049276166941
 20
3.526917235052849
 30
0.0
 10
30.96983242439825
 20
3.526466684590275
 30
0.0
 10
30.96916681942815
 20
3.526024161107955
 30
0.0
 11
30.9711475547976
 21
3.52737560495575
 31
0.0
 11
30.96916681942815
 21
3.526024161107955
 31
0.0
  0
SPLINE
  5
1BB
330
2
100
AcDbEntity
  8
GAIKEI
  6
Continuous
 62
     7
100
AcDbSpline
210
0.0
220
0.0
230
1.0
 70
     8
 71
     3
 72
     8
 73
     4
 74
     2
 42
0.0000000001
 43
0.0000000001
 44
0.0000000001
 12
-0.8327501599376546
 22
-0.5536489601939217
 32
0.0
 13
-0.8951623165274533
 23
-0.4457403134889232
 33
0.0
 40
0.0
 40
0.0
 40
0.0
 40
0.0
 40
0.0124684303247
 40
0.0124684303247
 40
0.0124684303247
 40
0.0124684303247
 10
30.96916681942815
 20
3.526024161107955
 30
0.0
 10
30.96570579031247
 20
3.523723116613098
 30
0.0
 10
30.96209399943769
 20
3.521634313542847
 30
0.0
 10
30.95837357644672
 20
3.519781752862286
 30
0.0
 11
30.96916681942815
 21
3.526024161107955
 31
0.0
 11
30.95837357644672
 21
3.519781752862286
 31
0.0
  0
SPLINE
  5
1BC
330
2
100
AcDbEntity
  8
GAIKEI
  6
Continuous
 62
     7
100
AcDbSpline
210
0.0
220
0.0
230
1.0
 70
     8
 71
     3
 72
     8
 73
     4
 74
     2
 42
0.0000000001
 43
0.0000000001
 44
0.0000000001
 12
-0.8951623177719142
 22
-0.4457403109897228
 32
0.0
 13
-0.9047197913043135
 23
-0.4260071586514473
 33
0.0
 40
0.0
 40
0.0
 40
0.0
 40
0.0
 40
0.0021902090302732
 40
0.0021902090302732
 40
0.0021902090302732
 40
0.0021902090302732
 10
30.95837357644672
 20
3.519781752862286
 30
0.0
 10
30.95772004558273
 20
3.519456331377512
 30
0.0
 10
30.95706290980181
 20
3.519138050953642
 30
0.0
 10
30.95640240131621
 20
3.518827036045024
 30
0.0
 11
30.95837357644672
 21
3.519781752862286
 31
0.0
 11
30.95640240131621
 21
3.518827036045024
 31
0.0
  0
SPLINE
  5
1BD
330
2
100
AcDbEntity
  8
GAIKEI
  6
Continuous
 62
     7
100
AcDbSpline
210
0.0
220
0.0
230
1.0
 70
     8
 71
     3
 72
     8
 73
     4
 74
     2
 42
0.0000000001
 43
0.0000000001
 44
0.0000000001
 12
-0.9047197923766182
 22
-0.4260071563741726
 32
0.0
 13
-0.9517644447063513
 23
-0.3068296625048019
 33
0.0
 40
0.0
 40
0.0
 40
0.0
 40
0.0
 40
0.0128189715328883
 40
0.0128189715328883
 40
0.0128189715328883
 40
0.0128189715328883
 10
30.95640240131621
 20
3.518827036045024
 30
0.0
 10
30.9525365422283
 20
3.517006711508258
 30
0.0
 10
30.94854560385612
 20
3.51543153190687
 30
0.0
 10
30.94447872341522
 20
3.514120451670521
 30
0.0
 11
30.95640240131621
 21
3.518827036045024
 31
0.0
 11
30.94447872341522
 21
3.514120451670521
 31
0.0
  0
SPLINE
  5
1BE
330
2
100
AcDbEntity
  8
GAIKEI
  6
Continuous
 62
     7
100
AcDbSpline
210
0.0
220
0.0
230
1.0
 70
     8
 71
     3
 72
     8
 73
     4
 74
     2
 42
0.0000000001
 43
0.0000000001
 44
0.0000000001
 12
-0.9517644445236273
 22
-0.306829663071599
 32
0.0
 13
-0.9572508361209706
 23
-0.2892591169621148
 33
0.0
 40
0.0
 40
0.0
 40
0.0
 40
0.0
 40
0.0018392766294761
 40
0.0018392766294761
 40
0.0018392766294761
 40
0.0018392766294761
 10
30.94447872341522
 20
3.514120451670521
 30
0.0
 10
30.94389520404869
 20
3.513932336794368
 30
0.0
 10
30.94330992950669
 20
3.513749581626655
 30
0.0
 10
30.94272304647621
 20
3.513572239115433
 30
0.0
 11
30.94447872341522
 21
3.514120451670521
 31
0.0
 11
30.94272304647621
 21
3.513572239115433
 31
0.0
  0
SPLINE
  5
1BF
330
2
100
AcDbEntity
  8
GAIKEI
  6
Continuous
 62
     7
100
AcDbSpline
210
0.0
220
0.0
230
1.0
 70
     8
 71
     3
 72
     8
 73
     4
 74
     2
 42
0.0000000001
 43
0.0000000001
 44
0.0000000001
 12
-0.95725083624447
 22
-0.2892591165534161
 32
0.0
 13
-0.9877787849052207
 23
-0.1558623498192097
 33
0.0
 40
0.0
 40
0.0
 40
0.0
 40
0.0
 40
0.0136824134913813
 40
0.0136824134913813
 40
0.0136824134913813
 40
0.0136824134913813
 10
30.94272304647621
 20
3.513572239115433
 30
0.0
 10
30.93835721255738
 20
3.512252984835811
 30
0.0
 10
30.93389050865607
 20
3.511230759142904
 30
0.0
 10
30.9293854427317
 20
3.510519901436907
 30
0.0
 11
30.94272304647621
 21
3.513572239115433
 31
0.0
 11
30.9293854427317
 21
3.510519901436907
 31
0.0
  0
SPLINE
  5
1C0
330
2
100
AcDbEntity
  8
GAIKEI
  6
Continuous
 62
     7
100
AcDbSpline
210
0.0
220
0.0
230
1.0
 70
     8
 71
     3
 72
     8
 73
     4
 74
     2
 42
0.0000000001
 43
0.0000000001
 44
0.0000000001
 12
-0.9877787849787559
 22
-0.1558623493531799
 32
0.0
 13
-0.9892514121549414
 23
-0.1462246338667132
 33
0.0
 40
0.0
 40
0.0
 40
0.0
 40
0.0
 40
0.0009732466014699
 40
0.0009732466014699
 40
0.0009732466014699
 40
0.0009732466014699
 10
30.9293854427317
 20
3.510519901436907
 30
0.0
 10
30.92906499194987
 20
3.510469337269626
 30
0.0
 10
30.92874429093334
 20
3.510420334221976
 30
0.0
 10
30.92842336240838
 20
3.510372896679314
 30
0.0
 11
30.9293854427317
 21
3.510519901436907
 31
0.0
 11
30.92842336240838
 21
3.510372896679314
 31
0.0
  0
SPLINE
  5
1C1
330
2
100
AcDbEntity
  8
GAIKEI
  6
Continuous
 62
     7
100
AcDbSpline
210
0.0
220
0.0
230
1.0
 70
     8
 71
     3
 72
     8
 73
     4
 74
     2
 42
0.0000000001
 43
0.0000000001
 44
0.0000000001
 12
-0.989251412979611
 22
-0.1462246282875878
 32
0.0
 13
-1.0
 23
0.0000000040918283
 33
0.0
 40
0.0
 40
0.0
 40
0.0
 40
0.0
 40
0.0146669483107898
 40
0.0146669483107898
 40
0.0146669483107898
 40
0.0146669483107898
 10
30.92842336240838
 20
3.510372896679314
 30
0.0
 10
30.92358692929487
 20
3.509658006991003
 30
0.0
 10
30.91868488146423
 20
3.509297406987229
 30
0.0
 10
30.91379589869396
 20
3.509297407007238
 30
0.0
 11
30.92842336240838
 21
3.510372896679314
 31
0.0
 11
30.91379589869396
 21
3.509297407007238
 31
0.0
  0
SPLINE
  5
1C2
330
2
100
AcDbEntity
  8
GAIKEI
  6
Continuous
 62
     1
100
AcDbSpline
210
0.0
220
0.0
230
1.0
 70
     8
 71
     3
 72
     9
 73
     5
 74
     3
 42
0.0000000001
 43
0.0000000001
 44
0.0000000001
 12
-0.0000001147524012
 22
-0.9999999999999934
 32
0.0
 13
-0.0312160397220758
 23
-0.9995126606822296
 33
0.0
 40
0.0
 40
0.0
 40
0.0
 40
0.0
 40
0.0071203720182082
 40
0.0142951073831046
 40
0.0142951073831046
 40
0.0142951073831046
 40
0.0142951073831046
 10
30.91512020479917
 20
3.773650966430636
 30
0.0
 10
30.9151202045268
 20
3.771277509091248
 30
0.0
 10
30.91508232316585
 20
3.766512401921545
 30
0.0
 10
30.91497007116209
 20
3.761748474952014
 30
0.0
 10
30.91489541555404
 20
3.759358062007265
 30
0.0
 11
30.91512020479917
 21
3.773650966430636
 31
0.0
 11
30.91506401570987
 21
3.766530816118745
 31
0.0
 11
30.91489541555404
 21
3.759358062007265
 31
0.0
  0
SPLINE
  5
1C3
330
2
100
AcDbEntity
  8
GAIKEI
  6
Continuous
 62
     7
100
AcDbSpline
210
0.0
220
0.0
230
1.0
 70
     8
 71
     3
 72
    14
 73
    10
 74
     8
 42
0.0000000001
 43
0.0000000001
 44
0.0000000001
 12
0.5234722536132514
 22
0.8520427217558188
 32
0.0
 13
-0.0000180484902437
 23
0.999999999837126
 33
0.0
 40
0.0
 40
0.0
 40
0.0
 40
0.0
 40
0.0796826130569817
 40
0.1550258372565842
 40
0.2258945185832796
 40
0.2922036255770135
 40
0.3540643095544135
 40
0.4119125232462032
 40
0.4663116601303906
 40
0.4663116601303906
 40
0.4663116601303906
 40
0.4663116601303906
 10
32.93094710424973
 20
6.524624381285207
 30
0.0
 10
32.94485098325997
 20
6.547255378120439
 30
0.0
 10
32.97033130547339
 20
6.592276321116401
 30
0.0
 10
33.00245936575371
 20
6.660451259559806
 30
0.0
 10
33.02773223532148
 20
6.726705561765129
 30
0.0
 10
33.04652527213653
 20
6.790404696694395
 30
0.0
 10
33.05933005647185
 20
6.851142686065998
 30
0.0
 10
33.06668475470007
 20
6.908772436470826
 30
0.0
 10
33.06833122789543
 20
6.946204445417549
 30
0.0
 10
33.06833090062133
 20
6.96433749104267
 30
0.0
 11
32.93094710424973
 21
6.524624381285207
 31
0.0
 11
32.97013792826107
 21
6.594003038932214
 31
0.0
 11
33.00219089716603
 21
6.66218814446978
 31
0.0
 11
33.0273774500653
 21
6.728430182074589
 31
0.0
 11
33.04606766192455
 21
6.79205072632692
 31
0.0
 11
33.05875612381249
 21
6.852596140332195
 31
0.0
 11
33.06600839417149
 21
6.909987955096767
 31
0.0
 11
33.06833090062133
 21
6.96433749104267
 31
0.0
  0
SPLINE
  5
1C4
330
2
100
AcDbEntity
  8
GAIKEI
  6
Continuous
 62
     1
100
AcDbSpline
210
0.0
220
0.0
230
1.0
 70
     8
 71
     3
 72
     9
 73
     5
 74
     3
 42
0.0000000001
 43
0.0000000001
 44
0.0000000001
 12
0.05825760028035
 22
-0.9983015836958163
 32
0.0
 13
-0.0000001367762324
 23
-0.9999999999999907
 33
0.0
 40
0.0
 40
0.0
 40
0.0
 40
0.0
 40
0.0088790550087102
 40
0.0176974251815568
 40
0.0176974251815568
 40
0.0176974251815568
 40
0.0176974251815568
 10
30.91460102346593
 20
31.18601070240726
 30
0.0
 10
30.91477344761179
 20
31.18305604418163
 30
0.0
 10
30.91503276826802
 20
31.17716168142488
 30
0.0
 10
30.91512020520122
 20
31.17126223094732
 30
0.0
 10
30.91512020479917
 20
31.16832277422304
 30
0.0
 11
30.91460102346593
 21
31.18601070240726
 31
0.0
 11
30.91499039135147
 21
31.17714018886534
 31
0.0
 11
30.91512020479917
 21
31.16832277422304
 31
0.0
  0
SPLINE
  5
1C5
330
2
100
AcDbEntity
  8
GAIKEI
  6
Continuous
 62
     7
100
AcDbSpline
210
0.0
220
0.0
230
1.0
 70
     8
 71
     3
 72
    22
 73
    18
 74
    16
 42
0.0000000001
 43
0.0000000001
 44
0.0000000001
 12
-0.9828421423438136
 22
-0.1844487008168466
 32
0.0
 13
0.6576857404589426
 23
0.7532924178544296
 33
0.0
 40
0.0
 40
0.0
 40
0.0
 40
0.0
 40
0.0039052130409655
 40
0.0096843613820291
 40
0.0182686332643812
 40
0.0298363944443735
 40
0.0445426767470312
 40
0.0625975325596032
 40
0.08427335501229
 40
0.1097825158947938
 40
0.1392763145760039
 40
0.1727965368709719
 40
0.2101993624341131
 40
0.2511836061689292
 40
0.2953417178862149
 40
0.3421420481263077
 40
0.3910420318190582
 40
0.3910420318190582
 40
0.3910420318190582
 40
0.3910420318190582
 10
31.31557113457714
 20
4.009443242296129
 30
0.0
 10
31.31429173192664
 20
4.009203138472173
 30
0.0
 10
31.31895342984182
 20
4.014439653770921
 30
0.0
 10
31.32095271255194
 20
4.017725508057367
 30
0.0
 10
31.32710786278024
 20
4.025210348245764
 30
0.0
 10
31.33411344403672
 20
4.033928073177889
 30
0.0
 10
31.34364542393011
 20
4.045436850099406
 30
0.0
 10
31.35522833986252
 20
4.05932567316654
 30
0.0
 10
31.3692483303825
 20
4.075977616919033
 30
0.0
 10
31.38576660330669
 20
4.095472961517202
 30
0.0
 10
31.40490585542372
 20
4.117934930658748
 30
0.0
 10
31.42667361646263
 20
4.143361439893567
 30
0.0
 10
31.45099162949064
 20
4.171647936424278
 30
0.0
 10
31.47767887766141
 20
4.202573291703231
 30
0.0
 10
31.50647055959776
 20
4.235820277353013
 30
0.0
 10
31.53704713396657
 20
4.271011892127319
 30
0.0
 10
31.55800864716649
 20
4.295058363458508
 30
0.0
 10
31.56872892116096
 20
4.307337025774813
 30
0.0
 11
31.31557113457714
 21
4.009443242296129
 31
0.0
 11
31.31746568692193
 21
4.012858115691756
 31
0.0
 11
31.32094318738845
 21
4.017473908803822
 31
0.0
 11
31.32626661390489
 21
4.024208213064412
 31
0.0
 11
31.33355427048727
 21
4.033191706831019
 31
0.0
 11
31.34291051896966
 21
4.044537867128724
 31
0.0
 11
31.3544752973356
 21
4.05840270465967
 31
0.0
 11
31.368429751424
 21
4.074989280258478
 31
0.0
 11
31.38491750593272
 21
4.094453895337892
 31
0.0
 11
31.40404315761276
 21
4.116905924387879
 31
0.0
 11
31.42584038139245
 21
4.142371319303379
 31
0.0
 11
31.4502217535061
 21
4.170735382022996
 31
0.0
 11
31.47699634574195
 21
4.201764875172557
 31
0.0
 11
31.50590281622868
 21
4.235146828297501
 31
0.0
 11
31.53659742710881
 21
4.27047545370948
 31
0.0
 11
31.56872892116096
 21
4.307337025774813
 31
0.0
  0
SPLINE
  5
1C6
330
2
100
AcDbEntity
  8
GAIKEI
  6
Continuous
 62
     1
100
AcDbSpline
210
0.0
220
0.0
230
1.0
 70
     8
 71
     3
 72
    16
 73
    12
 74
    10
 42
0.0000000001
 43
0.0000000001
 44
0.0000000001
 12
-0.8502586166102704
 22
0.5263651630569687
 32
0.0
 13
0.523465517889783
 23
0.852046859967444
 33
0.0
 40
0.0
 40
0.0
 40
0.0
 40
0.0
 40
0.0147886486613218
 40
0.0290817845542964
 40
0.0425607296836265
 40
0.0549251631716026
 40
0.065899968026759
 40
0.0752416458062312
 40
0.0827443788358423
 40
0.0882464324162776
 40
0.0928932001299201
 40
0.0928932001299201
 40
0.0928932001299201
 40
0.0928932001299201
 10
32.93094710424973
 20
6.524624381285207
 30
0.0
 10
32.92675571226562
 20
6.527219124439852
 30
0.0
 10
32.91853022358299
 20
6.532349668014603
 30
0.0
 10
32.90654852284112
 20
6.539943500507149
 30
0.0
 10
32.89529783141929
 20
6.547193276204154
 30
0.0
 10
32.88506187175051
 20
6.553933702531594
 30
0.0
 10
32.87596476392207
 20
6.560022044461504
 30
0.0
 10
32.86852115407102
 20
6.565294196341483
 30
0.0
 10
32.86201776558141
 20
6.569703300326182
 30
0.0
 10
32.85855056197225
 20
6.57320631883033
 30
0.0
 10
32.85362862718553
 20
6.575663878792454
 30
0.0
 10
32.85443943474144
 20
6.576983633405575
 30
0.0
 11
32.93094710424973
 21
6.524624381285207
 31
0.0
 11
32.91839999804921
 21
6.532452168662302
 31
0.0
 11
32.90632820876212
 21
6.540104987558834
 31
0.0
 11
32.8950015695595
 21
6.547411779342724
 31
0.0
 11
32.88467325799238
 21
6.554209219717677
 31
0.0
 11
32.87557413677908
 21
6.560345369549168
 31
0.0
 11
32.8679075934335
 21
6.565683071008209
 31
0.0
 11
32.86184499400241
 21
6.570103013434504
 31
0.0
 11
32.85752185255626
 21
6.573506400223948
 31
0.0
 11
32.85443943474144
 21
6.576983633405575
 31
0.0
  0
SPLINE
  5
1C7
330
2
100
AcDbEntity
  8
GAIKEI
  6
Continuous
 62
     1
100
AcDbSpline
210
0.0
220
0.0
230
1.0
 70
     8
 71
     3
 72
    16
 73
    12
 74
    10
 42
0.0000000001
 43
0.0000000001
 44
0.0000000001
 12
-0.8502585894398855
 22
0.5263652069463716
 32
0.0
 13
0.5234655178631731
 23
0.8520468599837924
 33
0.0
 40
0.0
 40
0.0
 40
0.0
 40
0.0
 40
0.0147886559997802
 40
0.0290817968843254
 40
0.0425607444917193
 40
0.0549251781548093
 40
0.0658999812581252
 40
0.0752416560266664
 40
0.0827443854954791
 40
0.0882464357027656
 40
0.0928931997439331
 40
0.0928931997439331
 40
0.0928931997439331
 40
0.0928931997439331
 10
31.56872994010809
 20
4.30733820346046
 30
0.0
 10
31.56453854617806
 20
4.309932948119069
 30
0.0
 10
31.55631305426039
 20
4.315063494273772
 30
0.0
 10
31.54433134968203
 20
4.322657329930564
 30
0.0
 10
31.53308065638993
 20
4.329907107436497
 30
0.0
 10
31.52284469671343
 20
4.336647534283656
 30
0.0
 10
31.51374759027522
 20
4.342735875561118
 30
0.0
 10
31.5063039828091
 20
4.348008026011655
 30
0.0
 10
31.49980059701384
 20
4.35241712790787
 30
0.0
 10
31.49633339581337
 20
4.355920144473486
 30
0.0
 10
31.49141146368476
 20
4.358377701990775
 30
0.0
 10
31.49222227059983
 20
4.359697455560876
 30
0.0
 11
31.56872994010809
 21
4.30733820346046
 31
0.0
 11
31.5561828280662
 21
4.315165995338645
 31
0.0
 11
31.54411103489815
 21
4.322818817435972
 31
0.0
 11
31.53278439389507
 21
4.330125611000198
 31
0.0
 11
31.52245608240799
 21
4.33692305181529
 31
0.0
 11
31.51335696279506
 21
4.343059200886671
 31
0.0
 11
31.5056904219901
 21
4.348396900725276
 31
0.0
 11
31.49962782541971
 21
4.352816841031085
 31
0.0
 11
31.49530468653416
 21
4.356220225619949
 31
0.0
 11
31.49222227059983
 21
4.359697455560876
 31
0.0
  0
SPLINE
  5
1C8
330
2
100
AcDbEntity
  8
GAIKEI
  6
Continuous
 62
     1
100
AcDbSpline
210
0.0
220
0.0
230
1.0
 70
     8
 71
     3
 72
    21
 73
    17
 74
    15
 42
0.0000000001
 43
0.0000000001
 44
0.0000000001
 12
0.0728311675811268
 22
-0.9973442841009166
 32
0.0
 13
-0.9827648285956859
 23
-0.18486019494551
 33
0.0
 40
0.0
 40
0.0
 40
0.0
 40
0.0
 40
0.0279951515161364
 40
0.0555831202243501
 40
0.0824184649470313
 40
0.1081695639434499
 40
0.132523338797366
 40
0.1551861743860568
 40
0.1758865825441447
 40
0.1943786283396321
 40
0.2104438902992937
 40
0.2238935308796313
 40
0.2345707013767292
 40
0.2423533495841555
 40
0.2471654621885581
 40
0.2490675194682664
 40
0.2490675194682664
 40
0.2490675194682664
 40
0.2490675194682664
 10
33.35406240304312
 20
4.642704522460405
 30
0.0
 10
33.3547420429003
 20
4.633397587678018
 30
0.0
 10
33.35605699974582
 20
4.61491655185307
 30
0.0
 10
33.35790233876607
 20
4.587505704611999
 30
0.0
 10
33.35959150470613
 20
4.560834278751599
 30
0.0
 10
33.36110448405325
 20
4.535232062317732
 30
0.0
 10
33.36242303717452
 20
4.51101213391388
 30
0.0
 10
33.36353227519136
 20
4.488466254494824
 30
0.0
 10
33.36441887021909
 20
4.467868991115892
 30
0.0
 10
33.36507618642097
 20
4.449454209477153
 30
0.0
 10
33.36548976038591
 20
4.433478208297117
 30
0.0
 10
33.36568250214714
 20
4.420021121999354
 30
0.0
 10
33.36559015798056
 20
4.409543361862461
 30
0.0
 10
33.36539743768528
 20
4.401417842500677
 30
0.0
 10
33.36478958513303
 20
4.397286148535954
 30
0.0
 10
33.36443392175826
 20
4.394312655167254
 30
0.0
 10
33.36381083009277
 20
4.394195450274082
 30
0.0
 11
33.35406240304312
 21
4.642704522460405
 31
0.0
 11
33.35604875919595
 21
4.614779929398991
 31
0.0
 11
33.35790071282796
 21
4.587254190804173
 31
0.0
 11
33.35959511746466
 21
4.560472392520409
 31
0.0
 11
33.36111152304577
 21
4.534765980603594
 31
0.0
 11
33.36243173305741
 21
4.510448016150121
 31
0.0
 11
33.36354017420217
 21
4.487812303765736
 31
0.0
 11
33.36442386885216
 21
4.46713076654828
 31
0.0
 11
33.36507259166712
 21
4.448650103237355
 31
0.0
 11
33.36547889530058
 21
4.432589979975375
 31
0.0
 11
33.36563814518843
 21
4.41914128222379
 31
0.0
 11
33.3655485112067
 21
4.408464487968331
 31
0.0
 11
33.36521101698372
 21
4.400689160916044
 31
0.0
 11
33.36462948372636
 21
4.395912316059025
 31
0.0
 11
33.36381083009277
 21
4.394195450274082
 31
0.0
  0
SPLINE
  5
1C9
330
2
100
AcDbEntity
  8
GAIKEI
  6
Continuous
 62
     1
100
AcDbSpline
210
0.0
220
0.0
230
1.0
 70
     8
 71
     3
 72
    10
 73
     6
 74
     4
 42
0.0000000001
 43
0.0000000001
 44
0.0000000001
 12
0.7882400104209305
 22
-0.6153679273179678
 32
0.0
 13
-0.807488499039146
 23
-0.5898833138168152
 33
0.0
 40
0.0
 40
0.0
 40
0.0
 40
0.0
 40
0.0059174218285824
 40
0.0115510027318587
 40
0.0200771496075712
 40
0.0200771496075712
 40
0.0200771496075712
 40
0.0200771496075712
 10
30.99690846099264
 20
31.41486728948417
 30
0.0
 10
30.99846324387391
 20
31.41365349228227
 30
0.0
 10
31.00133803937132
 20
31.41020077640013
 30
0.0
 10
30.99853687616765
 20
31.40323888158065
 30
0.0
 10
30.99479597165367
 20
31.4003421350555
 30
0.0
 10
30.99250104980593
 20
31.39866565779778
 30
0.0
 11
30.99690846099264
 21
31.41486728948417
 31
0.0
 11
31.00023128458054
 21
31.40997089034795
 31
0.0
 11
30.99866100751234
 21
31.40456057947677
 31
0.0
 11
30.99250104980593
 21
31.39866565779778
 31
0.0
  0
TEXT
  5
1CA
330
2
100
AcDbEntity
  8
MOJI1
100
AcDbText
 10
-61.93721130065569
 20
-52.93082085590265
 30
0.0
 40
3.0
  1
質　量
100
AcDbText
  0
TEXT
  5
1CB
330
2
100
AcDbEntity
  8
MOJI1
100
AcDbText
 10
-21.93721130065569
 20
-52.93082085590265
 30
0.0
 40
3.0
  1
約２１ ｋｇ
100
AcDbText
  0
LINE
  5
1CC
330
2
100
AcDbEntity
  8
WAKU
 62
     1
100
AcDbLine
 10
-64.43721130065569
 20
-48.93082085590265
 30
0.0
 11
60.56278869934408
 21
-48.93082085590265
 31
0.0
  0
TEXT
  5
1CE
330
2
100
AcDbEntity
  8
MOJI1
100
AcDbText
 10
-61.93721130065569
 20
-42.93082085590265
 30
0.0
 40
3.0
  1
入出力端子
100
AcDbText
  0
LINE
  5
1CF
330
2
100
AcDbEntity
  8
WAKU
 62
     1
100
AcDbLine
 10
-64.43721130065569
 20
-43.93082085590265
 30
0.0
 11
60.56278869934408
 21
-43.93082085590265
 31
0.0
  0
TEXT
  5
1D0
330
2
100
AcDbEntity
  8
MOJI1
100
AcDbText
 10
-21.93721130065569
 20
-47.93082085590265
 30
0.0
 40
3.0
  1
ＨＤＭＩ入力、ＰＣ入力、音声入力、外部制御端子、ＳＬＯＴ２．０
 41
0.7400000000000001
100
AcDbText
  0
LINE
  5
1D1
330
2
100
AcDbEntity
  8
WAKU
 62
     4
100
AcDbLine
 10
60.56278869934408
 20
-13.93082085590265
 30
0.0
 11
60.56278869934408
 21
-53.93082085590265
 31
0.0
  0
TEXT
  5
1D2
330
2
100
AcDbEntity
  8
MOJI1
100
AcDbText
 10
-61.93721130065569
 20
-32.93082085590266
 30
0.0
 40
3.0
  1
画素数
100
AcDbText
  0
TEXT
  5
1D3
330
2
100
AcDbEntity
  8
MOJI1
100
AcDbText
 10
-61.93721130065569
 20
-17.93082085590265
 30
0.0
 40
3.0
  1
電  源
100
AcDbText
  0
TEXT
  5
1D4
330
2
100
AcDbEntity
  8
MOJI1
100
AcDbText
 10
-61.93721130065569
 20
-22.93082085590265
 30
0.0
 40
3.0
  1
消費電力
100
AcDbText
  0
TEXT
  5
1D5
330
2
100
AcDbEntity
  8
MOJI1
100
AcDbText
 10
-61.93721130065569
 20
-37.93082085590266
 30
0.0
 40
3.0
  1
コントラスト
100
AcDbText
  0
TEXT
  5
1D6
330
2
100
AcDbEntity
  8
MOJI1
100
AcDbText
 10
-61.93721130065569
 20
-27.93082085590266
 30
0.0
 40
3.0
  1
画面サイズ
100
AcDbText
  0
LINE
  5
1D7
330
2
100
AcDbEntity
  8
WAKU
 62
     4
100
AcDbLine
 10
-64.43721130065592
 20
-13.93082085590265
 30
0.0
 11
-64.43721130065569
 21
-53.93082085590265
 31
0.0
  0
LINE
  5
1D8
330
2
100
AcDbEntity
  8
WAKU
 62
     4
100
AcDbLine
 10
-24.43721130065592
 20
-13.93082085590265
 30
0.0
 11
-24.43721130065592
 21
-53.93082085590265
 31
0.0
  0
TEXT
  5
1D9
330
2
100
AcDbEntity
  8
MOJI1
100
AcDbText
 10
-21.93721130065569
 20
-42.93082085590265
 30
0.0
 40
3.0
  1
ビデオ入力、ＲＧＢ／コンポーネント入力、ＤＶＩ－Ｄ入力／出力、
 41
0.75
100
AcDbText
  0
TEXT
  5
1DA
330
2
100
AcDbEntity
  8
MOJI1
100
AcDbText
 10
-21.93721130065569
 20
-17.93082085590265
 30
0.0
 40
3.0
  1
ＡＣ１００Ｖ　５０Ｈｚ／６０Ｈｚ
100
AcDbText
  0
TEXT
  5
1DB
330
2
100
AcDbEntity
  8
MOJI1
100
AcDbText
 10
-21.93721130065569
 20
-32.93082085590266
 30
0.0
 40
3.0
  1
１９２０×１０８０画素
100
AcDbText
  0
LINE
  5
1DC
330
2
100
AcDbEntity
  8
WAKU
 62
     4
100
AcDbLine
 10
60.56278869934408
 20
-53.93082085590265
 30
0.0
 11
-64.43721130065569
 21
-53.93082085590265
 31
0.0
  0
LINE
  5
1DD
330
2
100
AcDbEntity
  8
WAKU
 62
     1
100
AcDbLine
 10
-64.43721130065569
 20
-38.93082085590265
 30
0.0
 11
60.56278869934408
 21
-38.93082085590265
 31
0.0
  0
LINE
  5
1DE
330
2
100
AcDbEntity
  8
WAKU
 62
     1
100
AcDbLine
 10
-64.43721130065569
 20
-28.93082085590265
 30
0.0
 11
60.56278869934408
 21
-28.93082085590265
 31
0.0
  0
LINE
  5
1DF
330
2
100
AcDbEntity
  8
WAKU
 62
     1
100
AcDbLine
 10
-64.43721130065569
 20
-18.93082085590265
 30
0.0
 11
60.56278869934408
 21
-18.93082085590265
 31
0.0
  0
LINE
  5
1E0
330
2
100
AcDbEntity
  8
WAKU
 62
     4
100
AcDbLine
 10
-64.43721130065569
 20
-13.93082085590265
 30
0.0
 11
60.56278869934408
 21
-13.93082085590265
 31
0.0
  0
LINE
  5
1E1
330
2
100
AcDbEntity
  8
WAKU
 62
     1
100
AcDbLine
 10
-64.43721130065569
 20
-33.93082085590265
 30
0.0
 11
60.56278869934408
 21
-33.93082085590265
 31
0.0
  0
LINE
  5
1E2
330
2
100
AcDbEntity
  8
WAKU
 62
     1
100
AcDbLine
 10
-64.43721130065569
 20
-23.93082085590265
 30
0.0
 11
60.56278869934408
 21
-23.93082085590265
 31
0.0
  0
TEXT
  5
1E3
330
2
100
AcDbEntity
  8
MOJI1
100
AcDbText
 10
-21.93721130065569
 20
-37.93082085590266
 30
0.0
 40
3.0
  1
１２００：１
100
AcDbText
  0
TEXT
  5
1E4
330
2
100
AcDbEntity
  8
MOJI1
100
AcDbText
 10
-21.93721130065569
 20
-27.93082085590266
 30
0.0
 40
3.0
  1
４２Ｖ型　１６：９
100
AcDbText
  0
TEXT
  5
1E5
330
2
100
AcDbEntity
  8
MOJI1
100
AcDbText
 10
-21.93721130065569
 20
-22.93082085590265
 30
0.0
 40
3.0
  1
３００Ｗ
100
AcDbText
  0
ENDSEC
  0
SECTION
  2
OBJECTS
  0
DICTIONARY
  5
9
330
0
100
AcDbDictionary
281
     1
  3
ACAD_COLOR
350
2B
  3
ACAD_GROUP
350
27
  3
ACAD_LAYOUT
350
D
  3
ACAD_MATERIAL
350
2A
  3
ACAD_MLINESTYLE
350
28
  3
ACAD_PLOTSETTINGS
350
29
  3
ACAD_PLOTSTYLENAME
350
8
  3
ACDBHEADERROUNDTRIPXREC
350
223
  3
AcDbVariableDictionary
350
21E
  0
DICTIONARY
  5
15
330
14
100
AcDbDictionary
280
     1
281
     1
  3
ACAD_LAYERFILTERS
360
16
  3
ACAD_LAYERSTATES
360
18
  0
DICTIONARY
  5
3
330
2
100
AcDbDictionary
280
     1
281
     1
  3
ACAD_LAYOUTSELFREF
360
4
  0
DICTIONARY
  5
F
330
E
100
AcDbDictionary
280
     1
281
     1
  3
ACAD_LAYOUTSELFREF
360
10
  0
DICTIONARY
  5
2B
102
{ACAD_REACTORS
330
9
102
}
330
9
100
AcDbDictionary
281
     1
  0
DICTIONARY
  5
27
102
{ACAD_REACTORS
330
9
102
}
330
9
100
AcDbDictionary
281
     1
  0
DICTIONARY
  5
D
102
{ACAD_REACTORS
330
9
102
}
330
9
100
AcDbDictionary
281
     1
  3
Model
350
C
  3
ﾚｲｱｳﾄ1
350
13
  0
DICTIONARY
  5
2A
102
{ACAD_REACTORS
330
9
102
}
330
9
100
AcDbDictionary
281
     1
  0
DICTIONARY
  5
28
102
{ACAD_REACTORS
330
9
102
}
330
9
100
AcDbDictionary
281
     1
  3
STANDARD
350
32
  0
DICTIONARY
  5
29
102
{ACAD_REACTORS
330
9
102
}
330
9
100
AcDbDictionary
281
     1
  0
ACDBDICTIONARYWDFLT
  5
8
102
{ACAD_REACTORS
330
9
102
}
330
9
100
AcDbDictionary
281
     1
  3
Normal
350
7
100
AcDbDictionaryWithDefault
340
7
  0
DICTIONARY
  5
223
102
{ACAD_REACTORS
330
9
102
}
330
9
100
AcDbDictionary
281
     1
  3
COLORDICT
350
225
  3
MATERIALDICT
350
224
  0
DICTIONARY
  5
21E
102
{ACAD_REACTORS
330
9
102
}
330
9
100
AcDbDictionary
281
     1
  3
DIMASSOC
350
220
  3
HIDETEXT
350
21F
  3
PROJECTNAME
350
221
  0
DICTIONARY
  5
16
102
{ACAD_REACTORS
330
15
102
}
330
15
100
AcDbDictionary
280
     1
281
     1
  3
ロック画層
360
17
  0
DICTIONARY
  5
18
102
{ACAD_REACTORS
330
15
102
}
330
15
100
AcDbDictionary
281
     1
  0
XRECORD
  5
4
102
{ACAD_REACTORS
330
3
102
}
330
3
100
AcDbXrecord
280
     1
340
2
  0
XRECORD
  5
10
102
{ACAD_REACTORS
330
F
102
}
330
F
100
AcDbXrecord
280
     1
340
E
  0
LAYOUT
  5
C
102
{ACAD_XDICTIONARY
360
226
102
}
102
{ACAD_REACTORS
330
D
102
}
330
D
100
AcDbPlotSettings
  1

  2
\\MARS\NX800A(RPDL)
  4
A4
  6

 40
5.831416606903076
 41
4.942422866821289
 42
7.609405517578125
 43
5.789093017578125
 44
209.9733276367187
 45
296.9683227539062
 46
4.23
 47
0.0
 48
0.0
 49
0.0
140
0.0
141
0.0
142
1.0
143
1.377557041813
 70
 11956
 72
     1
 73
     0
 74
     1
  7
tmsacad.ctb
 75
     0
147
0.7259227528494222
148
0.5228791232484547
149
0.0333900090324306
100
AcDbLayout
  1
Model
 70
     1
 71
     0
 10
0.0
 20
0.0
 11
12.0
 21
9.0
 12
0.0
 22
0.0
 32
0.0
 14
0.0
 24
0.0
 34
0.0
 15
0.0
 25
0.0
 35
0.0
146
0.0
 13
0.0
 23
0.0
 33
0.0
 16
1.0
 26
0.0
 36
0.0
 17
0.0
 27
1.0
 37
0.0
 76
     0
330
2
  0
LAYOUT
  5
13
102
{ACAD_XDICTIONARY
360
228
102
}
102
{ACAD_REACTORS
330
D
102
}
330
D
100
AcDbPlotSettings
  1

  2
C:\Program Files\ACAD2000\plotters\DWF ePlot.pc3
  4

  6

 40
0.0
 41
0.0
 42
0.0
 43
0.0
 44
0.0
 45
0.0
 46
0.0
 47
0.0
 48
0.0
 49
0.0
140
0.0
141
0.0
142
1.0
143
1.0
 70
   688
 72
     0
 73
     0
 74
     5
  7
tmsacad.ctb
 75
    16
147
1.0
148
0.0
149
0.0
100
AcDbLayout
  1
ﾚｲｱｳﾄ1
 70
     1
 71
     1
 10
0.0
 20
0.0
 11
12.0
 21
9.0
 12
0.0
 22
0.0
 32
0.0
 14
1.000000000000000E+20
 24
1.000000000000000E+20
 34
1.000000000000000E+20
 15
-1.000000000000000E+20
 25
-1.000000000000000E+20
 35
-1.000000000000000E+20
146
0.0
 13
0.0
 23
0.0
 33
0.0
 16
1.0
 26
0.0
 36
0.0
 17
0.0
 27
1.0
 37
0.0
 76
     0
330
E
  0
MLINESTYLE
  5
32
102
{ACAD_REACTORS
330
28
102
}
330
28
100
AcDbMlineStyle
  2
STANDARD
 70
     0
  3

 62
   256
 51
90.0
 52
90.0
 71
     2
 49
0.5
 62
   256
  6
BYLAYER
 49
-0.5
 62
   256
  6
BYLAYER
  0
ACDBPLACEHOLDER
  5
7
102
{ACAD_REACTORS
330
8
102
}
330
8
  0
XRECORD
  5
225
102
{ACAD_REACTORS
330
223
102
}
330
223
100
AcDbXrecord
280
     1
340
2B
  0
XRECORD
  5
224
102
{ACAD_REACTORS
330
223
102
}
330
223
100
AcDbXrecord
280
     1
340
2A
  0
DICTIONARYVAR
  5
220
102
{ACAD_REACTORS
330
21E
102
}
330
21E
100
DictionaryVariables
280
     0
  1
1
  0
DICTIONARYVAR
  5
21F
102
{ACAD_REACTORS
330
21E
102
}
330
21E
100
DictionaryVariables
280
     0
  1
1
  0
DICTIONARYVAR
  5
221
102
{ACAD_REACTORS
330
21E
102
}
330
21E
100
DictionaryVariables
280
     0
  1

  0
XRECORD
  5
17
102
{ACAD_REACTORS
330
16
102
}
330
16
100
AcDbXrecord
280
     1
  1
ロック画層
  1
*
  1
*
  1
*
 70
   256
  1
*
  1
*
  0
DICTIONARY
  5
226
330
C
100
AcDbDictionary
280
     1
281
     1
  3
ACAD_XREC_ROUNDTRIP
360
227
  0
DICTIONARY
  5
228
330
13
100
AcDbDictionary
280
     1
281
     1
  3
ACAD_XREC_ROUNDTRIP
360
229
  0
XRECORD
  5
227
102
{ACAD_REACTORS
330
226
102
}
330
226
100
AcDbXrecord
280
     1
102
SHADEPLOT
 70
     0
102
SHADEPLOTRESLEVEL
 70
     2
102
SHADEPLOTCUSTOMDPI
 70
   300
  0
XRECORD
  5
229
102
{ACAD_REACTORS
330
228
102
}
330
228
100
AcDbXrecord
280
     1
102
SHADEPLOT
 70
     0
102
SHADEPLOTRESLEVEL
 70
     2
102
SHADEPLOTCUSTOMDPI
 70
   300
  0
ENDSEC
  0
EOF
