  0
SECTION
  2
HEADER
  9
$ACADVER
  1
AC1015
  9
$ACADMAINTVER
 70
    20
  9
$DWGCODEPAGE
  3
ANSI_932
  9
$INSBASE
 10
129.0
 20
372.4992141396417
 30
0.0
  9
$EXTMIN
 10
-70.49227834147041
 20
-55.13181975197586
 30
-0.0015258207003583
  9
$EXTMAX
 10
54.58823062849432
 20
57.99926216364929
 30
0.0000000349246037
  9
$LIMMIN
 10
-1101.784450318844
 20
-1579.160531687244
  9
$LIMMAX
 10
-508.2420711400536
 20
-1161.440814074914
  9
$ORTHOMODE
 70
     0
  9
$REGENMODE
 70
     1
  9
$FILLMODE
 70
     1
  9
$QTEXTMODE
 70
     0
  9
$MIRRTEXT
 70
     1
  9
$LTSCALE
 40
1.0
  9
$ATTMODE
 70
     1
  9
$TEXTSIZE
 40
3.0
  9
$TRACEWID
 40
0.5
  9
$TEXTSTYLE
  7
STANDARD
  9
$CLAYER
  8
GAIKEI
  9
$CELTYPE
  6
BYLAYER
  9
$CECOLOR
 62
   256
  9
$CELTSCALE
 40
1.0
  9
$DISPSILH
 70
     0
  9
$DIMSCALE
 40
1.0
  9
$DIMASZ
 40
2.0
  9
$DIMEXO
 40
2.0
  9
$DIMDLI
 40
8.0
  9
$DIMRND
 40
0.0
  9
$DIMDLE
 40
0.0
  9
$DIMEXE
 40
2.0
  9
$DIMTP
 40
0.0
  9
$DIMTM
 40
0.0
  9
$DIMTXT
 40
2.5
  9
$DIMCEN
 40
0.0
  9
$DIMTSZ
 40
0.0
  9
$DIMTOL
 70
     0
  9
$DIMLIM
 70
     0
  9
$DIMTIH
 70
     0
  9
$DIMTOH
 70
     0
  9
$DIMSE1
 70
     0
  9
$DIMSE2
 70
     0
  9
$DIMTAD
 70
     3
  9
$DIMZIN
 70
     0
  9
$DIMBLK
  1

  9
$DIMASO
 70
     1
  9
$DIMSHO
 70
     1
  9
$DIMPOST
  1

  9
$DIMAPOST
  1

  9
$DIMALT
 70
     0
  9
$DIMALTD
 70
     2
  9
$DIMALTF
 40
25.4
  9
$DIMLFAC
 40
1.0
  9
$DIMTOFL
 70
     1
  9
$DIMTVP
 40
0.0
  9
$DIMTIX
 70
     0
  9
$DIMSOXD
 70
     0
  9
$DIMSAH
 70
     1
  9
$DIMBLK1
  1
OPEN30
  9
$DIMBLK2
  1
OPEN30
  9
$DIMSTYLE
  2
STANDARD
  9
$DIMCLRD
 70
     0
  9
$DIMCLRE
 70
     0
  9
$DIMCLRT
 70
     0
  9
$DIMTFAC
 40
1.0
  9
$DIMGAP
 40
0.5
  9
$DIMJUST
 70
     0
  9
$DIMSD1
 70
     0
  9
$DIMSD2
 70
     0
  9
$DIMTOLJ
 70
     1
  9
$DIMTZIN
 70
     0
  9
$DIMALTZ
 70
     0
  9
$DIMALTTZ
 70
     0
  9
$DIMUPT
 70
     0
  9
$DIMDEC
 70
     4
  9
$DIMTDEC
 70
     4
  9
$DIMALTU
 70
     2
  9
$DIMALTTD
 70
     2
  9
$DIMTXSTY
  7
STANDARD
  9
$DIMAUNIT
 70
     0
  9
$DIMADEC
 70
     0
  9
$DIMALTRND
 40
0.0
  9
$DIMAZIN
 70
     0
  9
$DIMDSEP
 70
    46
  9
$DIMATFIT
 70
     3
  9
$DIMFRAC
 70
     0
  9
$DIMLDRBLK
  1
OPEN30
  9
$DIMLUNIT
 70
     2
  9
$DIMLWD
 70
    -2
  9
$DIMLWE
 70
    -2
  9
$DIMTMOVE
 70
     0
  9
$LUNITS
 70
     2
  9
$LUPREC
 70
     4
  9
$SKETCHINC
 40
0.1
  9
$FILLETRAD
 40
0.0
  9
$AUNITS
 70
     0
  9
$AUPREC
 70
     0
  9
$MENU
  1
ACAD
  9
$ELEVATION
 40
0.0
  9
$PELEVATION
 40
0.0
  9
$THICKNESS
 40
0.0
  9
$LIMCHECK
 70
     0
  9
$CHAMFERA
 40
0.0
  9
$CHAMFERB
 40
0.0
  9
$CHAMFERC
 40
0.0
  9
$CHAMFERD
 40
0.0
  9
$SKPOLY
 70
     0
  9
$TDCREATE
 40
2451815.565532581
  9
$TDUCREATE
 40
2451815.190532581
  9
$TDUPDATE
 40
2456233.445703866
  9
$TDUUPDATE
 40
2456233.070703866
  9
$TDINDWG
 40
0.7689716551
  9
$TDUSRTIMER
 40
0.7689716551
  9
$USRTIMER
 70
     1
  9
$ANGBASE
 50
0.0
  9
$ANGDIR
 70
     0
  9
$PDMODE
 70
     0
  9
$PDSIZE
 40
0.0
  9
$PLINEWID
 40
0.0
  9
$SPLFRAME
 70
     0
  9
$SPLINETYPE
 70
     6
  9
$SPLINESEGS
 70
     8
  9
$HANDSEED
  5
337
  9
$SURFTAB1
 70
     6
  9
$SURFTAB2
 70
     6
  9
$SURFTYPE
 70
     6
  9
$SURFU
 70
     6
  9
$SURFV
 70
     6
  9
$UCSBASE
  2

  9
$UCSNAME
  2

  9
$UCSORG
 10
0.0
 20
0.0
 30
0.0
  9
$UCSXDIR
 10
1.0
 20
0.0
 30
0.0
  9
$UCSYDIR
 10
0.0
 20
1.0
 30
0.0
  9
$UCSORTHOREF
  2

  9
$UCSORTHOVIEW
 70
     0
  9
$UCSORGTOP
 10
0.0
 20
0.0
 30
0.0
  9
$UCSORGBOTTOM
 10
0.0
 20
0.0
 30
0.0
  9
$UCSORGLEFT
 10
0.0
 20
0.0
 30
0.0
  9
$UCSORGRIGHT
 10
0.0
 20
0.0
 30
0.0
  9
$UCSORGFRONT
 10
0.0
 20
0.0
 30
0.0
  9
$UCSORGBACK
 10
0.0
 20
0.0
 30
0.0
  9
$PUCSBASE
  2

  9
$PUCSNAME
  2

  9
$PUCSORG
 10
0.0
 20
0.0
 30
0.0
  9
$PUCSXDIR
 10
1.0
 20
0.0
 30
0.0
  9
$PUCSYDIR
 10
0.0
 20
1.0
 30
0.0
  9
$PUCSORTHOREF
  2

  9
$PUCSORTHOVIEW
 70
     0
  9
$PUCSORGTOP
 10
0.0
 20
0.0
 30
0.0
  9
$PUCSORGBOTTOM
 10
0.0
 20
0.0
 30
0.0
  9
$PUCSORGLEFT
 10
0.0
 20
0.0
 30
0.0
  9
$PUCSORGRIGHT
 10
0.0
 20
0.0
 30
0.0
  9
$PUCSORGFRONT
 10
0.0
 20
0.0
 30
0.0
  9
$PUCSORGBACK
 10
0.0
 20
0.0
 30
0.0
  9
$USERI1
 70
     0
  9
$USERI2
 70
     0
  9
$USERI3
 70
     0
  9
$USERI4
 70
     0
  9
$USERI5
 70
     0
  9
$USERR1
 40
0.0
  9
$USERR2
 40
0.0
  9
$USERR3
 40
0.0
  9
$USERR4
 40
0.0
  9
$USERR5
 40
0.0
  9
$WORLDVIEW
 70
     1
  9
$SHADEDGE
 70
     3
  9
$SHADEDIF
 70
    70
  9
$TILEMODE
 70
     1
  9
$MAXACTVP
 70
    48
  9
$PINSBASE
 10
0.0
 20
0.0
 30
0.0
  9
$PLIMCHECK
 70
     0
  9
$PEXTMIN
 10
1.000000000000000E+20
 20
1.000000000000000E+20
 30
1.000000000000000E+20
  9
$PEXTMAX
 10
-1.000000000000000E+20
 20
-1.000000000000000E+20
 30
-1.000000000000000E+20
  9
$PLIMMIN
 10
0.0
 20
0.0
  9
$PLIMMAX
 10
12.0
 20
9.0
  9
$UNITMODE
 70
     0
  9
$VISRETAIN
 70
     1
  9
$PLINEGEN
 70
     0
  9
$PSLTSCALE
 70
     1
  9
$TREEDEPTH
 70
  3020
  9
$CMLSTYLE
  2
STANDARD
  9
$CMLJUST
 70
     0
  9
$CMLSCALE
 40
1.0
  9
$PROXYGRAPHICS
 70
     1
  9
$MEASUREMENT
 70
     0
  9
$CELWEIGHT
370
    -1
  9
$ENDCAPS
280
     0
  9
$JOINSTYLE
280
     0
  9
$LWDISPLAY
290
     0
  9
$INSUNITS
 70
     0
  9
$HYPERLINKBASE
  1

  9
$STYLESHEET
  1

  9
$XEDIT
290
     1
  9
$CEPSNTYPE
380
     0
  9
$PSTYLEMODE
290
     1
  9
$FINGERPRINTGUID
  2
{1754B7AB-9B3C-11D4-AD9E-00104B1004F2}
  9
$VERSIONGUID
  2
{16C6E09A-7F58-4071-89AC-F4D1F09670F9}
  9
$EXTNAMES
290
     1
  9
$PSVPSCALE
 40
0.0
  9
$OLESTARTUP
290
     0
  0
ENDSEC
  0
SECTION
  2
CLASSES
  0
CLASS
  1
ACDBDICTIONARYWDFLT
  2
AcDbDictionaryWithDefault
  3
ObjectDBX Classes
 90
        0
280
     0
281
     0
  0
CLASS
  1
ACDBPLACEHOLDER
  2
AcDbPlaceHolder
  3
ObjectDBX Classes
 90
        0
280
     0
281
     0
  0
CLASS
  1
LAYOUT
  2
AcDbLayout
  3
ObjectDBX Classes
 90
        0
280
     0
281
     0
  0
CLASS
  1
DICTIONARYVAR
  2
AcDbDictionaryVar
  3
ObjectDBX Classes
 90
        0
280
     0
281
     0
  0
CLASS
  1
TABLESTYLE
  2
AcDbTableStyle
  3
ObjectDBX Classes
 90
    34815
280
     1
281
     0
  0
CLASS
  1
SORTENTSTABLE
  2
AcDbSortentsTable
  3
ObjectDBX Classes
 90
    32768
280
     0
281
     0
  0
ENDSEC
  0
SECTION
  2
TABLES
  0
TABLE
  2
VPORT
  5
21
330
0
100
AcDbSymbolTable
 70
     3
  0
VPORT
  5
32F
330
21
100
AcDbSymbolTableRecord
100
AcDbViewportTableRecord
  2
*Active
 70
     0
 10
0.0
 20
0.0
 11
1.0
 21
1.0
 12
-7.952023856488033
 22
1.433721205836718
 13
0.0
 23
0.0
 14
1.0
 24
1.0
 15
0.0
 25
0.0
 16
0.0
 26
0.0
 36
1.0
 17
0.0
 27
0.0
 37
0.0
 40
113.9870547926664
 41
2.21590909090909
 42
50.0
 43
0.0
 44
0.0
 50
0.0
 51
0.0
 71
     0
 72
  1000
 73
     1
 74
     0
 75
     0
 76
     1
 77
     0
 78
     0
281
     0
 65
     1
110
0.0
120
0.0
130
0.0
111
1.0
121
0.0
131
0.0
112
0.0
122
1.0
132
0.0
 79
     0
146
0.0
  0
ENDTAB
  0
TABLE
  2
LTYPE
  5
1C
330
0
100
AcDbSymbolTable
 70
     1
  0
LTYPE
  5
1D
330
1C
100
AcDbSymbolTableRecord
100
AcDbLinetypeTableRecord
  2
BYBLOCK
 70
     0
  3

 72
    65
 73
     0
 40
0.0
  0
LTYPE
  5
1E
330
1C
100
AcDbSymbolTableRecord
100
AcDbLinetypeTableRecord
  2
BYLAYER
 70
     0
  3

 72
    65
 73
     0
 40
0.0
  0
LTYPE
  5
A
330
1C
100
AcDbSymbolTableRecord
100
AcDbLinetypeTableRecord
  2
CONTINUOUS
 70
     0
  3
Solid line
 72
    65
 73
     0
 40
0.0
  0
ENDTAB
  0
TABLE
  2
LAYER
  5
14
102
{ACAD_XDICTIONARY
360
15
102
}
330
0
100
AcDbSymbolTable
 70
     7
  0
LAYER
  5
6
330
14
100
AcDbSymbolTableRecord
100
AcDbLayerTableRecord
  2
0
 70
     0
 62
     7
  6
CONTINUOUS
370
    -3
390
7
  0
LAYER
  5
2DD
330
14
100
AcDbSymbolTableRecord
100
AcDbLayerTableRecord
  2
WAKU
 70
     0
 62
     4
  6
CONTINUOUS
370
    -3
390
7
  0
LAYER
  5
37
330
14
100
AcDbSymbolTableRecord
100
AcDbLayerTableRecord
  2
MOJI1
 70
     0
 62
     2
  6
CONTINUOUS
370
    -3
390
7
  0
LAYER
  5
34
330
14
100
AcDbSymbolTableRecord
100
AcDbLayerTableRecord
  2
GAIKEI
 70
     0
 62
     7
  6
CONTINUOUS
370
    -3
390
7
  0
LAYER
  5
39
330
14
100
AcDbSymbolTableRecord
100
AcDbLayerTableRecord
  2
TOUROKU
 70
     0
 62
     1
  6
CONTINUOUS
370
    -3
390
7
  0
LAYER
  5
53
330
14
100
AcDbSymbolTableRecord
100
AcDbLayerTableRecord
  2
DEFPOINTS
 70
     0
 62
     7
  6
CONTINUOUS
290
     0
370
    -3
390
7
  0
LAYER
  5
48
330
14
100
AcDbSymbolTableRecord
100
AcDbLayerTableRecord
  2
SUNPO
 70
     0
 62
     3
  6
CONTINUOUS
370
    -3
390
7
  0
ENDTAB
  0
TABLE
  2
STYLE
  5
19
330
0
100
AcDbSymbolTable
 70
     1
  0
STYLE
  5
1A
330
19
100
AcDbSymbolTableRecord
100
AcDbTextStyleTableRecord
  2
STANDARD
 70
     0
 40
0.0
 41
1.0
 50
0.0
 71
     0
 42
3.0
  3
MONOTXT.shx
  4
BIGFONT.shx
  0
ENDTAB
  0
TABLE
  2
VIEW
  5
1F
330
0
100
AcDbSymbolTable
 70
     0
  0
ENDTAB
  0
TABLE
  2
UCS
  5
20
330
0
100
AcDbSymbolTable
 70
     0
  0
ENDTAB
  0
TABLE
  2
APPID
  5
23
330
0
100
AcDbSymbolTable
 70
     1
  0
APPID
  5
24
330
23
100
AcDbSymbolTableRecord
100
AcDbRegAppTableRecord
  2
ACAD
 70
     0
  0
ENDTAB
  0
TABLE
  2
DIMSTYLE
  5
25
330
0
100
AcDbSymbolTable
 70
     1
100
AcDbDimStyleTable
 71
     1
340
26
  0
DIMSTYLE
105
26
102
{ACAD_REACTORS
330
64
330
57
330
47
102
}
330
25
100
AcDbSymbolTableRecord
100
AcDbDimStyleTableRecord
  2
STANDARD
 70
     0
 40
0.0
 41
2.0
 42
2.0
 43
8.0
 44
2.0
 73
     0
 74
     0
 77
     3
140
3.0
141
0.0
173
     1
279
     2
288
     1
340
1A
341
27
343
27
344
27
  0
ENDTAB
  0
TABLE
  2
BLOCK_RECORD
  5
1
330
0
100
AcDbSymbolTable
 70
     7
  0
BLOCK_RECORD
  5
2
102
{ACAD_XDICTIONARY
360
3
102
}
330
1
100
AcDbSymbolTableRecord
100
AcDbBlockTableRecord
  2
*MODEL_SPACE
340
C
  0
BLOCK_RECORD
  5
E
102
{ACAD_XDICTIONARY
360
F
102
}
330
1
100
AcDbSymbolTableRecord
100
AcDbBlockTableRecord
  2
*PAPER_SPACE
340
13
  0
BLOCK_RECORD
  5
27
102
{ACAD_XDICTIONARY
360
28
102
}
330
1
100
AcDbSymbolTableRecord
100
AcDbBlockTableRecord
  2
_OPEN30
340
0
102
{BLKREFS
331
6A
331
6B
331
5D
331
5E
331
4F
331
50
331
30A
331
30B
331
316
331
317
331
323
331
324
102
}
  0
BLOCK_RECORD
  5
65
330
1
100
AcDbSymbolTableRecord
100
AcDbBlockTableRecord
  2
*D1
340
0
  0
BLOCK_RECORD
  5
58
330
1
100
AcDbSymbolTableRecord
100
AcDbBlockTableRecord
  2
*D2
340
0
  0
BLOCK_RECORD
  5
49
330
1
100
AcDbSymbolTableRecord
100
AcDbBlockTableRecord
  2
*D3
340
0
  0
BLOCK_RECORD
  5
306
330
1
100
AcDbSymbolTableRecord
100
AcDbBlockTableRecord
  2
*D4
340
0
  0
BLOCK_RECORD
  5
312
330
1
100
AcDbSymbolTableRecord
100
AcDbBlockTableRecord
  2
*D5
340
0
  0
BLOCK_RECORD
  5
31E
330
1
100
AcDbSymbolTableRecord
100
AcDbBlockTableRecord
  2
*D6
340
0
  0
ENDTAB
  0
ENDSEC
  0
SECTION
  2
BLOCKS
  0
BLOCK
  5
5
330
2
100
AcDbEntity
  8
0
100
AcDbBlockBegin
  2
*MODEL_SPACE
 70
     0
 10
0.0
 20
0.0
 30
0.0
  3
*MODEL_SPACE
  1

  0
ENDBLK
  5
B
330
2
100
AcDbEntity
  8
0
100
AcDbBlockEnd
  0
BLOCK
  5
11
330
E
100
AcDbEntity
 67
     1
  8
0
100
AcDbBlockBegin
  2
*PAPER_SPACE
 70
     0
 10
0.0
 20
0.0
 30
0.0
  3
*PAPER_SPACE
  1

  0
ENDBLK
  5
12
330
E
100
AcDbEntity
 67
     1
  8
0
100
AcDbBlockEnd
  0
BLOCK
  5
29
330
27
100
AcDbEntity
  8
0
100
AcDbBlockBegin
  2
_OPEN30
 70
     0
 10
0.0
 20
0.0
 30
0.0
  3
_OPEN30
  1

  0
LINE
  5
2A
330
27
100
AcDbEntity
  8
0
  6
ByBlock
 62
     0
100
AcDbLine
 10
-1.0
 20
0.26794919
 30
0.0
 11
0.0
 21
0.0
 31
0.0
  0
LINE
  5
2B
330
27
100
AcDbEntity
  8
0
  6
ByBlock
 62
     0
100
AcDbLine
 10
0.0
 20
0.0
 30
0.0
 11
-1.0
 21
-0.26794919
 31
0.0
  0
LINE
  5
2C
330
27
100
AcDbEntity
  8
0
  6
ByBlock
 62
     0
100
AcDbLine
 10
0.0
 20
0.0
 30
0.0
 11
-1.0
 21
0.0
 31
0.0
  0
ENDBLK
  5
2D
330
27
100
AcDbEntity
  8
0
100
AcDbBlockEnd
  0
BLOCK
  5
66
330
65
100
AcDbEntity
  8
0
100
AcDbBlockBegin
  2
*D1
 70
     1
 10
0.0
 20
0.0
 30
0.0
  3
*D1
  1

  0
LINE
  5
67
330
65
100
AcDbEntity
  8
SUNPO
 62
     0
370
    -2
100
AcDbLine
 10
154.4291069505289
 20
343.7608531387004
 30
0.0
 11
154.4291069505289
 21
351.7581943739636
 31
0.0
  0
LINE
  5
68
330
65
100
AcDbEntity
  8
SUNPO
 62
     0
370
    -2
100
AcDbLine
 10
202.8290841038265
 20
343.7608531387003
 30
0.0
 11
202.8290841038265
 21
351.7581943739636
 31
0.0
  0
LINE
  5
69
330
65
100
AcDbEntity
  8
SUNPO
 62
     0
370
    -2
100
AcDbLine
 10
156.4291069505289
 20
349.7581943739636
 30
0.0
 11
200.8290841038265
 21
349.7581943739636
 31
0.0
  0
INSERT
  5
6A
330
65
100
AcDbEntity
  8
SUNPO
 62
     0
370
    -2
100
AcDbBlockReference
  2
_OPEN30
 10
154.4291069505289
 20
349.7581943739636
 30
0.0
 41
2.0
 42
2.0
 43
2.0
 50
180.0
  0
INSERT
  5
6B
330
65
100
AcDbEntity
  8
SUNPO
 62
     0
370
    -2
100
AcDbBlockReference
  2
_OPEN30
 10
202.8290841038265
 20
349.7581943739636
 30
0.0
 41
2.0
 42
2.0
 43
2.0
  0
MTEXT
  5
6C
330
65
100
AcDbEntity
  8
SUNPO
 62
     0
100
AcDbMText
 10
178.6290955271777
 20
351.5081943739635
 30
0.0
 40
2.5
 41
0.0
 71
     5
 72
     1
  1
\A1;968
 73
     1
 44
1.0
1001
ACAD
1000
MTEXTBEGIN
1070
    73
1070
     1
1070
    44
1040
1.0
1070
    74
1070
     0
1000
MTEXTEND
  0
POINT
  5
6D
330
65
100
AcDbEntity
  8
DEFPOINTS
 62
     0
100
AcDbPoint
 10
154.4291069505289
 20
341.7608531387004
 30
0.0
  0
POINT
  5
6E
330
65
100
AcDbEntity
  8
DEFPOINTS
 62
     0
100
AcDbPoint
 10
202.8290841038265
 20
341.7608531387003
 30
0.0
  0
POINT
  5
6F
330
65
100
AcDbEntity
  8
DEFPOINTS
 62
     0
100
AcDbPoint
 10
202.8290841038265
 20
349.7581943739636
 30
0.0
  0
ENDBLK
  5
70
330
65
100
AcDbEntity
  8
0
100
AcDbBlockEnd
  0
BLOCK
  5
59
330
58
100
AcDbEntity
  8
0
100
AcDbBlockBegin
  2
*D2
 70
     1
 10
0.0
 20
0.0
 30
0.0
  3
*D2
  1

  0
LINE
  5
5A
330
58
100
AcDbEntity
  8
SUNPO
 62
     0
370
    -2
100
AcDbLine
 10
204.8316570230914
 20
313.7161886648763
 30
0.0
 11
213.1433143262985
 21
313.7161886648763
 31
0.0
  0
LINE
  5
5B
330
58
100
AcDbEntity
  8
SUNPO
 62
     0
370
    -2
100
AcDbLine
 10
204.8316570230913
 20
341.7661706681739
 30
0.0
 11
213.1433143262986
 21
341.7661706681739
 31
0.0
  0
LINE
  5
5C
330
58
100
AcDbEntity
  8
SUNPO
 62
     0
370
    -2
100
AcDbLine
 10
211.1433143262985
 20
315.7161886648763
 30
0.0
 11
211.1433143262986
 21
339.7661706681739
 31
0.0
  0
INSERT
  5
5D
330
58
100
AcDbEntity
  8
SUNPO
 62
     0
370
    -2
100
AcDbBlockReference
  2
_OPEN30
 10
211.1433143262985
 20
313.7161886648763
 30
0.0
 41
2.0
 42
2.0
 43
2.0
 50
270.0
  0
INSERT
  5
5E
330
58
100
AcDbEntity
  8
SUNPO
 62
     0
370
    -2
100
AcDbBlockReference
  2
_OPEN30
 10
211.1433143262986
 20
341.7661706681739
 30
0.0
 41
2.0
 42
2.0
 43
2.0
 50
90.0
  0
MTEXT
  5
5F
330
58
100
AcDbEntity
  8
SUNPO
 62
     0
100
AcDbMText
 10
209.3933143262985
 20
327.7411796665252
 30
0.0
 40
2.5
 41
0.0
 71
     5
 72
     1
  1
\A1;561
 11
0.0000000000000001
 21
1.0
 31
0.0
 73
     1
 44
1.0
1001
ACAD
1000
MTEXTBEGIN
1070
    73
1070
     1
1070
    44
1040
1.0
1070
    74
1070
     0
1000
MTEXTEND
  0
POINT
  5
60
330
58
100
AcDbEntity
  8
DEFPOINTS
 62
     0
100
AcDbPoint
 10
202.8316570230914
 20
313.7161886648763
 30
0.0
  0
POINT
  5
61
330
58
100
AcDbEntity
  8
DEFPOINTS
 62
     0
100
AcDbPoint
 10
202.8316570230913
 20
341.7661706681739
 30
0.0
  0
POINT
  5
62
330
58
100
AcDbEntity
  8
DEFPOINTS
 62
     0
100
AcDbPoint
 10
211.1433143262986
 20
341.7661706681739
 30
0.0
  0
ENDBLK
  5
63
330
58
100
AcDbEntity
  8
0
100
AcDbBlockEnd
  0
BLOCK
  5
4A
330
49
100
AcDbEntity
  8
0
100
AcDbBlockBegin
  2
*D3
 70
     1
 10
0.0
 20
0.0
 30
0.0
  3
*D3
  1

  0
LINE
  5
4B
330
49
100
AcDbEntity
  8
SUNPO
  6
Continuous
 62
     0
370
    -2
100
AcDbLine
 10
226.7071525402843
 20
343.7608531387002
 30
0.0
 11
226.7071525402843
 21
351.7581943739634
 31
0.0
  0
LINE
  5
4C
330
49
100
AcDbEntity
  8
SUNPO
  6
Continuous
 62
     0
370
    -2
100
AcDbLine
 10
232.5071525152844
 20
343.7608531387002
 30
0.0
 11
232.5071525152844
 21
351.7581943739634
 31
0.0
  0
LINE
  5
4D
330
49
100
AcDbEntity
  8
SUNPO
  6
Continuous
 62
     0
370
    -2
100
AcDbLine
 10
228.7071525402843
 20
349.7581943739634
 30
0.0
 11
230.5071525152844
 21
349.7581943739634
 31
0.0
  0
LINE
  5
4E
330
49
100
AcDbEntity
  8
SUNPO
  6
Continuous
 62
     0
370
    -2
100
AcDbLine
 10
232.5071525152844
 20
349.7581943739634
 30
0.0
 11
242.173819181951
 21
349.7581943739634
 31
0.0
  0
INSERT
  5
4F
330
49
100
AcDbEntity
  8
SUNPO
  6
Continuous
 62
     0
370
    -2
100
AcDbBlockReference
  2
_OPEN30
 10
226.7071525402843
 20
349.7581943739634
 30
0.0
 41
2.0
 42
2.0
 43
2.0
 50
180.0
  0
INSERT
  5
50
330
49
100
AcDbEntity
  8
SUNPO
  6
Continuous
 62
     0
370
    -2
100
AcDbBlockReference
  2
_OPEN30
 10
232.5071525152844
 20
349.7581943739634
 30
0.0
 41
2.0
 42
2.0
 43
2.0
  0
MTEXT
  5
51
330
49
100
AcDbEntity
  8
SUNPO
  6
Continuous
 62
     0
100
AcDbMText
 10
238.3404858486177
 20
351.5081943739634
 30
0.0
 40
2.5
 41
0.0
 71
     5
 72
     1
  1
\A1;116
 73
     1
 44
1.0
1001
ACAD
1000
MTEXTBEGIN
1070
    73
1070
     1
1070
    44
1040
1.0
1070
    74
1070
     0
1000
MTEXTEND
  0
POINT
  5
52
330
49
100
AcDbEntity
  8
DEFPOINTS
  6
Continuous
 62
     0
100
AcDbPoint
 10
226.7071525402843
 20
341.7608531387002
 30
0.0
  0
POINT
  5
54
330
49
100
AcDbEntity
  8
DEFPOINTS
  6
Continuous
 62
     0
100
AcDbPoint
 10
232.5071525152844
 20
341.7608531387002
 30
0.0
  0
POINT
  5
55
330
49
100
AcDbEntity
  8
DEFPOINTS
  6
Continuous
 62
     0
100
AcDbPoint
 10
232.5071525152844
 20
349.7581943739634
 30
0.0
  0
ENDBLK
  5
56
330
49
100
AcDbEntity
  8
0
100
AcDbBlockEnd
  0
BLOCK
  5
310
330
306
100
AcDbEntity
  8
0
100
AcDbBlockBegin
  2
*D4
 70
     1
 10
0.0
 20
0.0
 30
0.0
  3
*D4
  1

  0
LINE
  5
307
330
306
100
AcDbEntity
  8
SUNPO
 62
     0
370
    -2
100
AcDbLine
 10
-47.01099124561181
 20
31.20632534187092
 30
0.0
 11
-47.01099124561181
 21
39.20366657713407
 31
0.0
  0
LINE
  5
308
330
306
100
AcDbEntity
  8
SUNPO
 62
     0
370
    -2
100
AcDbLine
 10
1.388985907685764
 20
31.20632534187081
 30
0.0
 11
1.388985907685765
 21
39.20366657713407
 31
0.0
  0
LINE
  5
309
330
306
100
AcDbEntity
  8
SUNPO
 62
     0
370
    -2
100
AcDbLine
 10
-45.01099124561181
 20
37.20366657713408
 30
0.0
 11
-0.6110140923142349
 21
37.20366657713408
 31
0.0
  0
INSERT
  5
30A
330
306
100
AcDbEntity
  8
SUNPO
 62
     0
370
    -2
100
AcDbBlockReference
  2
_OPEN30
 10
-47.01099124561181
 20
37.20366657713408
 30
0.0
 41
2.0
 42
2.0
 43
2.0
 50
180.0
  0
INSERT
  5
30B
330
306
100
AcDbEntity
  8
SUNPO
 62
     0
370
    -2
100
AcDbBlockReference
  2
_OPEN30
 10
1.388985907685765
 20
37.20366657713408
 30
0.0
 41
2.0
 42
2.0
 43
2.0
  0
MTEXT
  5
30C
330
306
100
AcDbEntity
  8
SUNPO
 62
     0
100
AcDbMText
 10
-22.81100266896303
 20
38.95366657713407
 30
0.0
 40
2.5
 41
0.0
 71
     5
 72
     1
  1
\A1;968
 73
     1
 44
1.0
1001
ACAD
1000
MTEXTBEGIN
1070
    73
1070
     1
1070
    44
1040
1.0
1070
    74
1070
     0
1000
MTEXTEND
  0
POINT
  5
30D
330
306
100
AcDbEntity
  8
DEFPOINTS
 62
     0
100
AcDbPoint
 10
-47.01099124561181
 20
29.20632534187092
 30
0.0
  0
POINT
  5
30E
330
306
100
AcDbEntity
  8
DEFPOINTS
 62
     0
100
AcDbPoint
 10
1.388985907685764
 20
29.20632534187081
 30
0.0
  0
POINT
  5
30F
330
306
100
AcDbEntity
  8
DEFPOINTS
 62
     0
100
AcDbPoint
 10
1.388985907685765
 20
37.20366657713408
 30
0.0
  0
ENDBLK
  5
311
330
306
100
AcDbEntity
  8
0
100
AcDbBlockEnd
  0
BLOCK
  5
31C
330
312
100
AcDbEntity
  8
0
100
AcDbBlockBegin
  2
*D5
 70
     1
 10
0.0
 20
0.0
 30
0.0
  3
*D5
  1

  0
LINE
  5
313
330
312
100
AcDbEntity
  8
SUNPO
 62
     0
370
    -2
100
AcDbLine
 10
3.391558826950614
 20
1.16166086804685
 30
0.0
 11
11.7032161301578
 21
1.161660868046848
 31
0.0
  0
LINE
  5
314
330
312
100
AcDbEntity
  8
SUNPO
 62
     0
370
    -2
100
AcDbLine
 10
3.391558826950586
 20
29.21164287134445
 30
0.0
 11
11.70321613015781
 21
29.21164287134445
 31
0.0
  0
LINE
  5
315
330
312
100
AcDbEntity
  8
SUNPO
 62
     0
370
    -2
100
AcDbLine
 10
9.703216130157805
 20
3.161660868046849
 30
0.0
 11
9.703216130157811
 21
27.21164287134445
 31
0.0
  0
INSERT
  5
316
330
312
100
AcDbEntity
  8
SUNPO
 62
     0
370
    -2
100
AcDbBlockReference
  2
_OPEN30
 10
9.703216130157805
 20
1.161660868046849
 30
0.0
 41
2.0
 42
2.0
 43
2.0
 50
270.0
  0
INSERT
  5
317
330
312
100
AcDbEntity
  8
SUNPO
 62
     0
370
    -2
100
AcDbBlockReference
  2
_OPEN30
 10
9.703216130157812
 20
29.21164287134445
 30
0.0
 41
2.0
 42
2.0
 43
2.0
 50
90.0
  0
MTEXT
  5
318
330
312
100
AcDbEntity
  8
SUNPO
 62
     0
100
AcDbMText
 10
7.953216130157806
 20
15.18665186969565
 30
0.0
 40
2.5
 41
0.0
 71
     5
 72
     1
  1
\A1;561
 11
0.0000000000000001
 21
1.0
 31
0.0
 73
     1
 44
1.0
1001
ACAD
1000
MTEXTBEGIN
1070
    73
1070
     1
1070
    44
1040
1.0
1070
    74
1070
     0
1000
MTEXTEND
  0
POINT
  5
319
330
312
100
AcDbEntity
  8
DEFPOINTS
 62
     0
100
AcDbPoint
 10
1.391558826950614
 20
1.161660868046851
 30
0.0
  0
POINT
  5
31A
330
312
100
AcDbEntity
  8
DEFPOINTS
 62
     0
100
AcDbPoint
 10
1.391558826950586
 20
29.21164287134445
 30
0.0
  0
POINT
  5
31B
330
312
100
AcDbEntity
  8
DEFPOINTS
 62
     0
100
AcDbPoint
 10
9.703216130157812
 20
29.21164287134445
 30
0.0
  0
ENDBLK
  5
31D
330
312
100
AcDbEntity
  8
0
100
AcDbBlockEnd
  0
BLOCK
  5
329
330
31E
100
AcDbEntity
  8
0
100
AcDbBlockBegin
  2
*D6
 70
     1
 10
0.0
 20
0.0
 30
0.0
  3
*D6
  1

  0
LINE
  5
31F
330
31E
100
AcDbEntity
  8
SUNPO
  6
Continuous
 62
     0
370
    -2
100
AcDbLine
 10
25.26705434414356
 20
31.20632534187075
 30
0.0
 11
25.26705434414356
 21
39.20366657713396
 31
0.0
  0
LINE
  5
320
330
31E
100
AcDbEntity
  8
SUNPO
  6
Continuous
 62
     0
370
    -2
100
AcDbLine
 10
31.06705431914361
 20
31.20632534187075
 30
0.0
 11
31.06705431914361
 21
39.20366657713396
 31
0.0
  0
LINE
  5
321
330
31E
100
AcDbEntity
  8
SUNPO
  6
Continuous
 62
     0
370
    -2
100
AcDbLine
 10
27.26705434414356
 20
37.20366657713396
 30
0.0
 11
29.06705431914361
 21
37.20366657713396
 31
0.0
  0
LINE
  5
322
330
31E
100
AcDbEntity
  8
SUNPO
  6
Continuous
 62
     0
370
    -2
100
AcDbLine
 10
31.06705431914361
 20
37.20366657713396
 30
0.0
 11
40.73372098581027
 21
37.20366657713396
 31
0.0
  0
INSERT
  5
323
330
31E
100
AcDbEntity
  8
SUNPO
  6
Continuous
 62
     0
370
    -2
100
AcDbBlockReference
  2
_OPEN30
 10
25.26705434414356
 20
37.20366657713396
 30
0.0
 41
2.0
 42
2.0
 43
2.0
 50
180.0
  0
INSERT
  5
324
330
31E
100
AcDbEntity
  8
SUNPO
  6
Continuous
 62
     0
370
    -2
100
AcDbBlockReference
  2
_OPEN30
 10
31.06705431914361
 20
37.20366657713396
 30
0.0
 41
2.0
 42
2.0
 43
2.0
  0
MTEXT
  5
325
330
31E
100
AcDbEntity
  8
SUNPO
  6
Continuous
 62
     0
100
AcDbMText
 10
36.90038765247694
 20
38.95366657713396
 30
0.0
 40
2.5
 41
0.0
 71
     5
 72
     1
  1
\A1;116
 73
     1
 44
1.0
1001
ACAD
1000
MTEXTBEGIN
1070
    73
1070
     1
1070
    44
1040
1.0
1070
    74
1070
     0
1000
MTEXTEND
  0
POINT
  5
326
330
31E
100
AcDbEntity
  8
DEFPOINTS
  6
Continuous
 62
     0
100
AcDbPoint
 10
25.26705434414356
 20
29.20632534187075
 30
0.0
  0
POINT
  5
327
330
31E
100
AcDbEntity
  8
DEFPOINTS
  6
Continuous
 62
     0
100
AcDbPoint
 10
31.06705431914361
 20
29.20632534187075
 30
0.0
  0
POINT
  5
328
330
31E
100
AcDbEntity
  8
DEFPOINTS
  6
Continuous
 62
     0
100
AcDbPoint
 10
31.06705431914361
 20
37.20366657713396
 30
0.0
  0
ENDBLK
  5
32A
330
31E
100
AcDbEntity
  8
0
100
AcDbBlockEnd
  0
ENDSEC
  0
SECTION
  2
ENTITIES
  0
TEXT
  5
36
330
2
100
AcDbEntity
  8
MOJI1
100
AcDbText
 10
-43.44009819614052
 20
53.94468634281242
 30
0.0
 40
4.0
  1
フルハイビジョン液晶ディスプレイ
100
AcDbText
  0
TEXT
  5
38
330
2
100
AcDbEntity
  8
TOUROKU
100
AcDbText
 10
36.42651850345338
 20
47.94468634281241
 30
0.0
 40
2.0
  1
ＴＨ４２ＬＦ５Ｊ
 72
     2
 11
54.55985183678672
 21
47.94468634281241
 31
0.0
100
AcDbText
  0
LINE
  5
3A
330
2
100
AcDbEntity
  8
GAIKEI
  6
Continuous
 62
     7
370
     9
100
AcDbLine
 10
28.83529005891507
 20
1.675268324849469
 30
0.0
 11
28.58563495667914
 21
1.268903721264223
 31
0.0
  0
LINE
  5
3B
330
2
100
AcDbEntity
  8
GAIKEI
  6
Continuous
 62
     1
370
     9
100
AcDbLine
 10
-3.056847749341585
 20
1.508389326045517
 30
0.0
 11
-2.702723072841592
 21
1.508389326045517
 31
0.0
  0
LINE
  5
3C
330
2
100
AcDbEntity
  8
GAIKEI
  6
Continuous
 62
     1
370
     9
100
AcDbLine
 10
-2.403462782841586
 20
1.508389326045517
 30
0.0
 11
-2.049338106341565
 21
1.508389326045517
 31
0.0
  0
LINE
  5
3D
330
2
100
AcDbEntity
  8
GAIKEI
  6
Continuous
 62
     1
370
     9
100
AcDbLine
 10
-1.783744598966592
 20
1.626846524170503
 30
0.0
 11
-1.6665343187166
 21
1.626846524170503
 31
0.0
  0
LINE
  5
3E
330
2
100
AcDbEntity
  8
GAIKEI
  6
Continuous
 62
     1
370
     9
100
AcDbLine
 10
-1.6665343187166
 20
1.744056804420495
 30
0.0
 11
-1.783744598966592
 21
1.744056804420495
 31
0.0
  0
LINE
  5
3F
330
2
100
AcDbEntity
  8
GAIKEI
  6
Continuous
 62
     1
370
     9
100
AcDbLine
 10
-2.049338106341565
 20
1.862514002545538
 30
0.0
 11
-2.403462782841586
 21
1.862514002545538
 31
0.0
  0
LINE
  5
40
330
2
100
AcDbEntity
  8
GAIKEI
  6
Continuous
 62
     1
370
     9
100
AcDbLine
 10
-2.702723072841592
 20
1.862514002545538
 30
0.0
 11
-3.056847749341585
 21
1.862514002545538
 31
0.0
  0
LINE
  5
41
330
2
100
AcDbEntity
  8
GAIKEI
  6
Continuous
 62
     1
370
     9
100
AcDbLine
 10
-3.056847749341585
 20
1.862514002545538
 30
0.0
 11
-3.056847749341585
 21
1.508389326045517
 31
0.0
  0
LINE
  5
42
330
2
100
AcDbEntity
  8
GAIKEI
  6
Continuous
 62
     1
370
     9
100
AcDbLine
 10
-2.702723072841592
 20
1.508389326045517
 30
0.0
 11
-2.702723072841592
 21
1.862514002545538
 31
0.0
  0
LINE
  5
43
330
2
100
AcDbEntity
  8
GAIKEI
  6
Continuous
 62
     1
370
     9
100
AcDbLine
 10
-2.403462782841586
 20
1.862514002545538
 30
0.0
 11
-2.403462782841586
 21
1.508389326045517
 31
0.0
  0
LINE
  5
44
330
2
100
AcDbEntity
  8
GAIKEI
  6
Continuous
 62
     1
370
     9
100
AcDbLine
 10
-2.049338106341565
 20
1.508389326045517
 30
0.0
 11
-2.049338106341565
 21
1.862514002545538
 31
0.0
  0
LINE
  5
45
330
2
100
AcDbEntity
  8
GAIKEI
  6
Continuous
 62
     1
370
     9
100
AcDbLine
 10
-1.783744598966592
 20
1.744056804420495
 30
0.0
 11
-1.783744598966592
 21
1.626846524170503
 31
0.0
  0
LINE
  5
46
330
2
100
AcDbEntity
  8
GAIKEI
  6
Continuous
 62
     1
370
     9
100
AcDbLine
 10
-1.6665343187166
 20
1.626846524170503
 30
0.0
 11
-1.6665343187166
 21
1.744056804420495
 31
0.0
  0
DIMENSION
  5
47
330
2
100
AcDbEntity
  8
SUNPO
  6
Continuous
 62
     3
100
AcDbDimension
  2
*D6
 10
31.06705431914361
 20
37.20366657713396
 30
0.0
 11
36.90038765247694
 21
38.95366657713396
 31
0.0
 70
    33
  1
116
 71
     5
 42
5.799999975000048
  3
STANDARD
100
AcDbAlignedDimension
 13
25.26705434414356
 23
29.20632534187075
 33
0.0
 14
31.06705431914361
 24
29.20632534187075
 34
0.0
1001
ACAD
1000
DSTYLE
1002
{
1070
   287
1070
     3
1070
   287
1070
     3
1070
   287
1070
     3
1070
   287
1070
     3
1070
   287
1070
     3
1070
   287
1070
     3
1070
   287
1070
     3
1070
   287
1070
     3
1070
   287
1070
     3
1070
   287
1070
     3
1070
   287
1070
     3
1070
   287
1070
     3
1070
   287
1070
     3
1070
   287
1070
     3
1070
   287
1070
     3
1070
   287
1070
     3
1070
   287
1070
     3
1070
   287
1070
     3
1070
   287
1070
     3
1070
   287
1070
     3
1070
   287
1070
     3
1070
   287
1070
     3
1070
   287
1070
     3
1070
   287
1070
     3
1070
   287
1070
     3
1070
   287
1070
     3
1070
   287
1070
     3
1070
   287
1070
     3
1070
   287
1070
     3
1070
   287
1070
     3
1070
   287
1070
     3
1070
   287
1070
     3
1070
   287
1070
     3
1070
   287
1070
     3
1070
    40
1040
1.0
1070
   140
1040
2.5
1070
   147
1040
0.5
1070
   172
1070
     1
1070
   279
1070
     0
1002
}
  0
DIMENSION
  5
57
330
2
100
AcDbEntity
  8
SUNPO
100
AcDbDimension
  2
*D5
 10
9.703216130157812
 20
29.21164287134445
 30
0.0
 11
7.953216130157806
 21
15.18665186969565
 31
0.0
 70
    33
  1
561
 71
     5
 42
28.0499820032976
  3
STANDARD
100
AcDbAlignedDimension
 13
1.391558826950614
 23
1.161660868046851
 33
0.0
 14
1.391558826950586
 24
29.21164287134445
 34
0.0
1001
ACAD
1000
DSTYLE
1002
{
1070
   287
1070
     3
1070
   287
1070
     3
1070
   287
1070
     3
1070
   287
1070
     3
1070
   287
1070
     3
1070
   287
1070
     3
1070
   287
1070
     3
1070
   287
1070
     3
1070
   287
1070
     3
1070
   287
1070
     3
1070
   287
1070
     3
1070
   287
1070
     3
1070
   287
1070
     3
1070
   287
1070
     3
1070
   287
1070
     3
1070
   287
1070
     3
1070
   287
1070
     3
1070
   287
1070
     3
1070
   287
1070
     3
1070
   287
1070
     3
1070
   287
1070
     3
1070
   287
1070
     3
1070
   287
1070
     3
1070
   287
1070
     3
1070
   287
1070
     3
1070
   287
1070
     3
1070
   287
1070
     3
1070
   287
1070
     3
1070
   287
1070
     3
1070
   287
1070
     3
1070
   287
1070
     3
1070
   287
1070
     3
1070
   287
1070
     3
1070
   287
1070
     3
1070
    40
1040
1.0
1070
   140
1040
2.5
1070
   147
1040
0.5
1070
   172
1070
     1
1070
   279
1070
     0
1002
}
  0
DIMENSION
  5
64
330
2
100
AcDbEntity
  8
SUNPO
100
AcDbDimension
  2
*D4
 10
1.388985907685765
 20
37.20366657713408
 30
0.0
 11
-22.81100266896303
 21
38.95366657713407
 31
0.0
 70
    33
  1
968
 71
     5
 42
48.39997715329758
  3
STANDARD
100
AcDbAlignedDimension
 13
-47.01099124561181
 23
29.20632534187092
 33
0.0
 14
1.388985907685764
 24
29.20632534187081
 34
0.0
1001
ACAD
1000
DSTYLE
1002
{
1070
   287
1070
     3
1070
   287
1070
     3
1070
   287
1070
     3
1070
   287
1070
     3
1070
   287
1070
     3
1070
   287
1070
     3
1070
   287
1070
     3
1070
   287
1070
     3
1070
   287
1070
     3
1070
   287
1070
     3
1070
   287
1070
     3
1070
   287
1070
     3
1070
   287
1070
     3
1070
   287
1070
     3
1070
   287
1070
     3
1070
   287
1070
     3
1070
   287
1070
     3
1070
   287
1070
     3
1070
   287
1070
     3
1070
   287
1070
     3
1070
   287
1070
     3
1070
   287
1070
     3
1070
   287
1070
     3
1070
   287
1070
     3
1070
   287
1070
     3
1070
   287
1070
     3
1070
   287
1070
     3
1070
   287
1070
     3
1070
   287
1070
     3
1070
   287
1070
     3
1070
   287
1070
     3
1070
   287
1070
     3
1070
   287
1070
     3
1070
   287
1070
     3
1070
    40
1040
1.0
1070
   140
1040
2.5
1070
   147
1040
0.5
1070
   172
1070
     1
1070
   279
1070
     0
1002
}
  0
SPLINE
  5
71
330
2
100
AcDbEntity
  8
GAIKEI
  6
Continuous
 62
     7
370
     9
100
AcDbSpline
210
0.0
220
0.0
230
1.0
 70
     8
 71
     3
 72
     9
 73
     5
 74
     3
 42
0.0000000001
 43
0.0000000001
 44
0.000001
 12
-0.9537384944178693
 22
0.3006374631770563
 32
0.0
 13
-0.9995527586584513
 23
-0.0299045591554179
 33
0.0
 40
0.0
 40
0.0
 40
0.0
 40
0.0
 40
0.0008437581373899
 40
0.0049945018712884
 40
0.0049945018712884
 40
0.0049945018712884
 40
0.0049945018712884
 10
28.53205016740873
 20
29.15143465229437
 30
0.0
 10
28.53178192587018
 20
29.15151920739635
 30
0.0
 10
28.53018028097782
 20
29.15197295648261
 30
0.0
 10
28.52849468552932
 20
29.15215263774797
 30
0.0
 10
28.52711172307943
 20
29.15211126236079
 30
0.0
 11
28.53205016740873
 21
29.15143465229437
 31
0.0
 11
28.53123923932566
 21
29.15166519799607
 31
0.0
 11
28.52711172307943
 21
29.15211126236079
 31
0.0
  0
SPLINE
  5
72
330
2
100
AcDbEntity
  8
GAIKEI
  6
Continuous
 62
     1
370
     9
100
AcDbSpline
210
0.0
220
0.0
230
1.0
 70
     8
 71
     3
 72
    11
 73
     7
 74
     5
 42
0.0000000001
 43
0.0000000001
 44
0.000001
 12
-0.7897419552073871
 22
0.6134391935515806
 32
0.0
 13
-0.7872077909930843
 23
0.6166878414561041
 33
0.0
 40
0.0
 40
0.0
 40
0.0
 40
0.0
 40
0.0111514329066703
 40
0.0271431189696868
 40
0.0411462017419418
 40
0.0520106426125382
 40
0.0520106426125382
 40
0.0520106426125382
 40
0.0520106426125382
 10
29.55883362745158
 20
28.36930475619169
 30
0.0
 10
29.55589804264255
 20
28.37158499819475
 30
0.0
 10
29.54875698933279
 20
28.37714072091586
 30
0.0
 10
29.53788409078285
 20
28.385501327165
 30
0.0
 10
29.52720856263966
 20
28.39395925606254
 30
0.0
 10
29.52068081540586
 20
28.39906795827858
 30
0.0
 10
29.51782995790649
 20
28.40130128114163
 30
0.0
 11
29.55883362745158
 21
28.36930475619169
 31
0.0
 11
29.55002446910607
 21
28.37614239197995
 31
0.0
 11
29.53738334598654
 21
28.38593708492317
 31
0.0
 11
29.52637823704026
 21
28.39459583097795
 31
0.0
 11
29.51782995790649
 21
28.40130128114163
 31
0.0
  0
SPLINE
  5
73
330
2
100
AcDbEntity
  8
GAIKEI
  6
Continuous
 62
     1
370
     9
100
AcDbSpline
210
0.0
220
0.0
230
1.0
 70
     8
 71
     3
 72
    16
 73
    12
 74
    10
 42
0.0000000001
 43
0.0000000001
 44
0.000001
 12
-0.0029160005769672
 22
0.9999957484612799
 32
0.0
 13
-0.0012336510897208
 23
0.9999992390522049
 33
0.0
 40
0.0
 40
0.0
 40
0.0
 40
0.0
 40
0.011112607444541
 40
0.0239869899665184
 40
0.0380342757905739
 40
0.0528318030692917
 40
0.0627958293292646
 40
0.0725894219800515
 40
0.0819861291154199
 40
0.0907294491921488
 40
0.0981473501877999
 40
0.0981473501877999
 40
0.0981473501877999
 40
0.0981473501877999
 10
31.0420870708524
 20
6.128539014048897
 30
0.0
 10
31.04207626939583
 20
6.132243200781829
 30
0.0
 10
31.0420670614148
 20
6.140238879646119
 30
0.0
 10
31.04209993524916
 20
6.152916950801511
 30
0.0
 10
31.04217250253029
 20
6.166823174441447
 30
0.0
 10
31.04227182031016
 20
6.179759080926487
 30
0.0
 10
31.04236906197741
 20
6.191277051035967
 30
0.0
 10
31.04245053236724
 20
6.200994820527967
 30
0.0
 10
31.04252004353972
 20
6.210305763533028
 30
0.0
 10
31.04257025793717
 20
6.218824951182
 30
0.0
 10
31.04257177134306
 20
6.22421204835075
 30
0.0
 10
31.04256872097585
 20
6.226684680134439
 30
0.0
 11
31.0420870708524
 21
6.128539014048897
 31
0.0
 11
31.04207316376466
 21
6.139651626635213
 31
0.0
 11
31.04210330932597
 21
6.152525973472222
 31
0.0
 11
31.0421758053393
 21
6.1665730692294
 31
0.0
 11
31.04228544450496
 21
6.181370187447441
 31
0.0
 11
31.04236844287334
 21
6.191333866043066
 31
0.0
 11
31.04244911198061
 21
6.201127124415563
 31
0.0
 11
31.04251812024063
 21
6.210523575638148
 31
0.0
 11
31.04256301146313
 21
6.219266773969479
 31
0.0
 11
31.04256872097585
 21
6.226684680134439
 31
0.0
  0
SPLINE
  5
74
330
2
100
AcDbEntity
  8
GAIKEI
  6
Continuous
 62
     1
370
     9
100
AcDbSpline
210
0.0
220
0.0
230
1.0
 70
     8
 71
     3
 72
    11
 73
     7
 74
     5
 42
0.0000000001
 43
0.0000000001
 44
0.000001
 12
0.005928392403368
 22
0.9999824269273494
 32
0.0
 13
0.0007486615046249
 23
0.9999997197529364
 33
0.0
 40
0.0
 40
0.0
 40
0.0
 40
0.0
 40
0.0174262721302719
 40
0.0370205321556309
 40
0.0575922990275344
 40
0.0601158877824113
 40
0.0601158877824113
 40
0.0601158877824113
 40
0.0601158877824113
 10
31.04225698419771
 20
5.993897866460542
 30
0.0
 10
31.04229142079081
 20
5.999706521759605
 30
0.0
 10
31.04233695150799
 20
6.01204672961262
 30
0.0
 10
31.04226163855043
 20
6.031244082572698
 30
0.0
 10
31.04224032147539
 20
6.045473948499704
 30
0.0
 10
31.04224309070531
 20
6.053172400616574
 30
0.0
 10
31.04224372047656
 20
6.054013596632444
 30
0.0
 11
31.04225698419771
 21
5.993897866460542
 31
0.0
 11
31.04231446974046
 21
6.011324055591273
 31
0.0
 11
31.04226964360959
 21
6.030918273776705
 31
0.0
 11
31.04224234711563
 21
6.051490008764289
 31
0.0
 11
31.04224372047656
 21
6.054013596632444
 31
0.0
  0
SPLINE
  5
75
330
2
100
AcDbEntity
  8
GAIKEI
  6
Continuous
 62
     1
370
     9
100
AcDbSpline
210
0.0
220
0.0
230
1.0
 70
     8
 71
     3
 72
     9
 73
     5
 74
     3
 42
0.0000000001
 43
0.0000000001
 44
0.000001
 12
0.0083496023277133
 22
0.9999651414629257
 32
0.0
 13
-0.0349453775687242
 23
0.9993892237694879
 33
0.0
 40
0.0
 40
0.0
 40
0.0
 40
0.0
 40
0.0133176020243445
 40
0.0181607327349604
 40
0.0181607327349604
 40
0.0181607327349604
 40
0.0181607327349604
 10
31.04218948590642
 20
5.992438524073179
 30
0.0
 10
31.04222655146671
 20
5.996877570003903
 30
0.0
 10
31.04218099248385
 20
6.002932363099944
 30
0.0
 10
31.04200439899228
 20
6.008983427622979
 30
0.0
 10
31.04194798398186
 20
6.010596818503472
 30
0.0
 11
31.04218948590642
 21
5.992438524073179
 31
0.0
 11
31.04208927793252
 21
6.005755825079802
 31
0.0
 11
31.04194798398186
 21
6.010596818503472
 31
0.0
  0
SPLINE
  5
76
330
2
100
AcDbEntity
  8
GAIKEI
  6
Continuous
 62
     7
370
     9
100
AcDbSpline
210
0.0
220
0.0
230
1.0
 70
     8
 71
     3
 72
    38
 73
    34
 74
    32
 42
0.0000000001
 43
0.0000000001
 44
0.000001
 12
0.981278030612886
 22
0.1925965384852385
 32
0.0
 13
-0.0000332429813612
 23
0.9999999994474521
 33
0.0
 40
0.0
 40
0.0
 40
0.0
 40
0.0
 40
0.0075404390152061
 40
0.0241716520484238
 40
0.0386314734886534
 40
0.0505905027899649
 40
0.0634600575198875
 40
0.0764245941047315
 40
0.0897089537734626
 40
0.0994164776320666
 40
0.1076154746405887
 40
0.1142654611458292
 40
0.1170947835202667
 40
0.1197518299414319
 40
0.122267972529499
 40
0.1269929068325747
 40
0.13195209049706
 40
0.13633600674649
 40
0.1409047015245188
 40
0.1532855074941322
 40
0.1661160487363404
 40
0.1727752399402254
 40
0.1794185180817419
 40
0.1857626239126551
 40
0.1915785028298088
 40
0.1966929348968335
 40
0.2025772217868044
 40
0.2106683274587633
 40
0.221133008006031
 40
0.2341424068710519
 40
0.2498363983321771
 40
0.2682801381820318
 40
0.2878290990958968
 40
0.2878290990958968
 40
0.2878290990958968
 40
0.2878290990958968
 10
30.96093732138547
 20
2.110824525740554
 30
0.0
 10
30.96340374376775
 20
2.111308613224878
 30
0.0
 10
30.97125346329466
 20
2.113154103187923
 30
0.0
 10
30.98340642093769
 20
2.117605406279551
 30
0.0
 10
30.99600178542906
 20
2.124581909038681
 30
0.0
 10
31.0065510751225
 20
2.132392765130418
 30
0.0
 10
31.01569762827069
 20
2.141106890934224
 30
0.0
 10
31.02392473047837
 20
2.151269580258713
 30
0.0
 10
31.03019969541225
 20
2.161524750962144
 30
0.0
 10
31.03457763672714
 20
2.170972427126457
 30
0.0
 10
31.0373406317261
 20
2.178687248100573
 30
0.0
 10
31.03891434186281
 20
2.184370839881523
 30
0.0
 10
31.03979950463423
 20
2.188318934350149
 30
0.0
 10
31.0402891258762
 20
2.19094169335085
 30
0.0
 10
31.04079192399601
 20
2.19420296838831
 30
0.0
 10
31.04122958725412
 20
2.198248590356911
 30
0.0
 10
31.04148441658225
 20
2.202932395527341
 30
0.0
 10
31.04160908120466
 20
2.207568099577315
 30
0.0
 10
31.04172611072198
 20
2.214678334609004
 30
0.0
 10
31.04175866761543
 20
2.224605680771787
 30
0.0
 10
31.04159277910503
 20
2.2352282489162
 30
0.0
 10
31.04140657537318
 20
2.243937246112864
 30
0.0
 10
31.04131260454139
 20
2.250485504858488
 30
0.0
 10
31.04126294453334
 20
2.256753076514996
 30
0.0
 10
31.04126004792909
 20
2.26251137280559
 30
0.0
 10
31.04133516229388
 20
2.26811580322925
 30
0.0
 10
31.04141829047236
 20
2.274478535202547
 30
0.0
 10
31.04146625093278
 20
2.282625143566519
 30
0.0
 10
31.04151004775639
 20
2.293146765456071
 30
0.0
 10
31.04154042721663
 20
2.306202766435262
 30
0.0
 10
31.04156213880705
 20
2.321918459668495
 30
0.0
 10
31.04157406322264
 20
2.339814021952577
 30
0.0
 10
31.04157670377123
 20
2.352478255439166
 30
0.0
 10
31.04157648714931
 20
2.358994575740211
 30
0.0
 11
30.96093732138547
 21
2.110824525740554
 31
0.0
 11
30.96827830991549
 21
2.112551716619918
 31
0.0
 11
30.98389464012075
 21
2.118272522380721
 31
0.0
 11
30.99654393171409
 21
2.125278384129956
 31
0.0
 11
31.00615491455153
 21
2.132395100192866
 31
0.0
 11
31.01547229338769
 21
2.141272729710863
 31
0.0
 11
31.02362913689592
 21
2.151349717443167
 31
0.0
 11
31.03056259994753
 21
2.162681182365304
 31
0.0
 11
31.03464366780656
 21
2.171489215573387
 31
0.0
 11
31.03740934563018
 21
2.179207703414817
 31
0.0
 11
31.03918018650836
 21
2.185617603429875
 31
0.0
 11
31.03979567658166
 21
2.188379181885181
 31
0.0
 11
31.04028430985056
 21
2.190990926891629
 31
0.0
 11
31.04066739453413
 21
2.19347775192665
 31
0.0
 11
31.04118092340639
 21
2.198174731258177
 31
0.0
 11
31.04147137323241
 21
2.203125443140038
 31
0.0
 11
31.0416005436623
 21
2.207507492799152
 31
0.0
 11
31.04167837020191
 21
2.212075560030882
 31
0.0
 11
31.0417202539345
 21
2.224456371267422
 31
0.0
 11
31.04154464913779
 21
2.237285761988687
 31
0.0
 11
31.04141440045657
 21
2.243943694856397
 31
0.0
 11
31.0413185113149
 21
2.250586288812542
 31
0.0
 11
31.04126973571715
 21
2.256930209320671
 31
0.0
 11
31.04127422953752
 21
2.262746085512446
 31
0.0
 11
31.04133138440068
 21
2.267860196343235
 31
0.0
 11
31.04140265687556
 21
2.273744049067488
 31
0.0
 11
31.04145943224001
 21
2.28183495116059
 31
0.0
 11
31.04150348770054
 21
2.29229953225672
 31
0.0
 11
31.04153626727566
 21
2.305308880654763
 31
0.0
 11
31.0415588877234
 21
2.321002844492454
 31
0.0
 11
31.04157214327268
 21
2.339446566609524
 31
0.0
 11
31.04157648714931
 21
2.358994575740211
 31
0.0
  0
SPLINE
  5
77
330
2
100
AcDbEntity
  8
GAIKEI
  6
Continuous
 62
     1
370
     9
100
AcDbSpline
210
0.0
220
0.0
230
1.0
 70
     8
 71
     3
 72
    16
 73
    12
 74
    10
 42
0.0000000001
 43
0.0000000001
 44
0.000001
 12
0.5233208202836677
 22
0.8521357398077077
 32
0.0
 13
0.0442575119890783
 23
0.9990201562694
 33
0.0
 40
0.0
 40
0.0
 40
0.0
 40
0.0
 40
0.0507802195865533
 40
0.1032324778556768
 40
0.1555035985325512
 40
0.207560827757416
 40
0.2490560569027464
 40
0.2904307112296334
 40
0.3316401941740492
 40
0.3726143625477512
 40
0.4133213689717202
 40
0.4133213689717202
 40
0.4133213689717202
 40
0.4133213689717202
 10
30.44954116735437
 20
4.302789806101429
 30
0.0
 10
30.45839928274379
 20
4.317213686096408
 30
0.0
 10
30.47571135547051
 20
4.346969051498604
 30
0.0
 10
30.49966168027152
 20
4.392961896002645
 30
0.0
 10
30.52133108449573
 20
4.440546446423979
 30
0.0
 10
30.53895233780651
 20
4.485879194726692
 30
0.0
 10
30.55291843146807
 20
4.528650703016694
 30
0.0
 10
30.56371361176684
 20
4.568597613228348
 30
0.0
 10
30.57221813221364
 20
4.608919761344282
 30
0.0
 10
30.57822032205522
 20
4.649469941781831
 30
0.0
 10
30.58032501483285
 20
4.676641138345758
 30
0.0
 10
30.58092554510779
 20
4.690196844985393
 30
0.0
 11
30.44954116735437
 21
4.302789806101429
 31
0.0
 11
30.47508825962422
 21
4.346674855130459
 31
0.0
 11
30.49927355391219
 21
4.393218384114504
 31
0.0
 11
30.52090478124217
 21
4.440803639100295
 31
0.0
 11
30.53972580693716
 21
4.489339423044043
 31
0.0
 11
30.55258715981302
 21
4.528791146635342
 31
0.0
 11
30.56335054137765
 21
4.568741228008263
 31
0.0
 11
30.57182063617961
 21
4.60907078162694
 31
0.0
 11
30.5777588307721
 21
4.64961221417991
 31
0.0
 11
30.58092554510779
 21
4.690196844985393
 31
0.0
  0
SPLINE
  5
78
330
2
100
AcDbEntity
  8
GAIKEI
  6
Continuous
 62
     1
370
     9
100
AcDbSpline
210
0.0
220
0.0
230
1.0
 70
     8
 71
     3
 72
    17
 73
    13
 74
    11
 42
0.0000000001
 43
0.0000000001
 44
0.000001
 12
0.5257010968776986
 22
0.8506693580596309
 32
0.0
 13
0.0034062365380786
 23
0.9999941987594962
 33
0.0
 40
0.0
 40
0.0
 40
0.0
 40
0.0
 40
0.0600731398660409
 40
0.1189740845507126
 40
0.1769033847885232
 40
0.2340711640635201
 40
0.274921789775813
 40
0.3149083971935854
 40
0.3541295321104903
 40
0.3926896102000362
 40
0.4306984739443959
 40
0.4682698991310988
 40
0.4682698991310988
 40
0.4682698991310988
 40
0.4682698991310988
 10
30.52542883687249
 20
4.248699987707823
 30
0.0
 10
30.53595567537931
 20
4.265734114150006
 30
0.0
 10
30.55582916301512
 20
4.300082445370549
 30
0.0
 10
30.5824599835
 20
4.352729125055077
 30
0.0
 10
30.60552139921631
 20
4.405985104843239
 30
0.0
 10
30.62324565565766
 20
4.454889510096847
 30
0.0
 10
30.63654772848366
 20
4.498942829975817
 30
0.0
 10
30.64623732314823
 20
4.537788842731742
 30
0.0
 10
30.65380178266344
 20
4.576326729588743
 30
0.0
 10
30.65923629430552
 20
4.614557589690434
 30
0.0
 10
30.66254776166926
 20
4.652478641592836
 30
0.0
 10
30.66332492616272
 20
4.677675520150842
 30
0.0
 10
30.66336758521646
 20
4.690199255892764
 30
0.0
 11
30.52542883687249
 21
4.248699987707823
 31
0.0
 11
30.5555235450446
 21
4.300690264738818
 31
0.0
 11
30.58207093922761
 21
4.353269218428692
 31
0.0
 11
30.60507101942142
 21
4.406436848777389
 31
0.0
 11
30.62452378562625
 21
4.460193155784963
 31
0.0
 11
30.63630670519876
 21
4.499307508962147
 31
0.0
 11
30.64596604358167
 21
4.538109860875636
 31
0.0
 11
30.65350180077485
 21
4.57660021152543
 31
0.0
 11
30.65891397677842
 21
4.614778560911531
 31
0.0
 11
30.66220257159228
 21
4.652644909033995
 31
0.0
 11
30.66336758521646
 21
4.690199255892764
 31
0.0
  0
SPLINE
  5
79
330
2
100
AcDbEntity
  8
GAIKEI
  6
Continuous
 62
     1
370
     9
100
AcDbSpline
210
0.0
220
0.0
230
1.0
 70
     8
 71
     3
 72
    24
 73
    20
 74
    18
 42
0.0000000001
 43
0.0000000001
 44
0.000001
 12
0.0730909859593115
 22
-0.9973252768136861
 32
0.0
 13
-0.2590853210246897
 23
-0.9658544385307411
 33
0.0
 40
0.0
 40
0.0
 40
0.0
 40
0.0
 40
0.0270008951323592
 40
0.0529426471622504
 40
0.0775841163579691
 40
0.1007332223121225
 40
0.1222446367312412
 40
0.1420165497733997
 40
0.1599869153276756
 40
0.1761293609805658
 40
0.1893862993363299
 40
0.2015030212609808
 40
0.2124038688339786
 40
0.22202023682178
 40
0.2302911983213026
 40
0.2386587240647306
 40
0.2447616804127144
 40
0.2485530483220739
 40
0.2486865886495557
 40
0.2486865886495557
 40
0.2486865886495557
 40
0.2486865886495557
 10
30.950266411916
 20
2.359081513981891
 30
0.0
 10
30.95092425259833
 20
2.350105288911208
 30
0.0
 10
30.95218524024261
 20
2.332502814099598
 30
0.0
 10
30.95395169115716
 20
2.306701791775083
 30
0.0
 10
30.95553668781582
 20
2.282175442708648
 30
0.0
 10
30.95692974308974
 20
2.25911674739541
 30
0.0
 10
30.95812797551293
 20
2.237672643472421
 30
0.0
 10
30.95913688639376
 20
2.217947120427083
 30
0.0
 10
30.9599678911319
 20
2.200004713557063
 30
0.0
 10
30.96062566249756
 20
2.184228444803522
 30
0.0
 10
30.96114021264674
 20
2.170399275914462
 30
0.0
 10
30.96151930166508
 20
2.158313572321844
 30
0.0
 10
30.96178010799685
 20
2.147438780361255
 30
0.0
 10
30.96192048757118
 20
2.13784300531438
 30
0.0
 10
30.96193231650881
 20
2.129092780811276
 30
0.0
 10
30.96181348796964
 20
2.121507142471045
 30
0.0
 10
30.96146567552807
 20
2.115439599306228
 30
0.0
 10
30.96111749861868
 20
2.112094315979447
 30
0.0
 10
30.96077561829719
 20
2.110831319094017
 30
0.0
 10
30.96076408551767
 20
2.110788325588032
 30
0.0
 11
30.950266411916
 21
2.359081513981891
 31
0.0
 11
30.95219501945769
 21
2.332149787604919
 31
0.0
 11
30.95396338778414
 21
2.306268379097048
 31
0.0
 11
30.95555004837684
 21
2.281678046201534
 31
0.0
 11
30.9569436193143
 21
2.258570925476306
 31
0.0
 11
30.95814173853978
 21
2.237092903707093
 31
0.0
 11
30.95914994562929
 21
2.21734671379005
 31
0.0
 11
30.95998054996409
 21
2.199395555665319
 31
0.0
 11
30.960651516935
 21
2.183267062704771
 31
0.0
 11
30.96113989399646
 21
2.170019125821681
 31
0.0
 11
30.96151533661708
 21
2.157908225382698
 31
0.0
 11
30.96177134056552
 21
2.147010388792352
 31
0.0
 11
30.96190318022059
 21
2.137394930522589
 31
0.0
 11
30.96190795109067
 21
2.129123978553934
 31
0.0
 11
30.96173380042683
 21
2.120758281120743
 31
0.0
 11
30.96136166500037
 21
2.114666712389521
 31
0.0
 11
30.96079820697929
 21
2.110917439316665
 31
0.0
 11
30.96076408551767
 21
2.110788325588032
 31
0.0
  0
SPLINE
  5
7A
330
2
100
AcDbEntity
  8
GAIKEI
  6
Continuous
 62
     1
370
     9
100
AcDbSpline
210
0.0
220
0.0
230
1.0
 70
     8
 71
     3
 72
    15
 73
    11
 74
     9
 42
0.0000000001
 43
0.0000000001
 44
0.000001
 12
-0.8504534066111308
 22
0.5260503808415337
 32
0.0
 13
-0.6010771726946214
 23
0.7991909862263466
 33
0.0
 40
0.0
 40
0.0
 40
0.0
 40
0.0
 40
0.0184965441917009
 40
0.0360893306817547
 40
0.0521664758625512
 40
0.0661692918092468
 40
0.0776126582796041
 40
0.0861038133765272
 40
0.0913638532332236
 40
0.0929244360487492
 40
0.0929244360487492
 40
0.0929244360487492
 40
0.0929244360487492
 10
30.52542252262583
 20
4.248689747126036
 30
0.0
 10
30.52017903961971
 20
4.251933118498129
 30
0.0
 10
30.50997784811424
 20
4.25830957457839
 30
0.0
 10
30.49531601170253
 20
4.267657876870885
 30
0.0
 10
30.48200008212507
 20
4.276333862313549
 30
0.0
 10
30.47051673969316
 20
4.284053040377557
 30
0.0
 10
30.46119169968176
 20
4.290481453493384
 30
0.0
 10
30.45452001045888
 20
4.295541296112219
 30
0.0
 10
30.45039892600849
 20
4.298630565360497
 30
0.0
 10
30.44897301805759
 20
4.300410531298666
 30
0.0
 10
30.4486603411554
 20
4.300826265871819
 30
0.0
 11
30.52542252262583
 21
4.248689747126036
 31
0.0
 11
30.50973832571356
 21
4.258493811198604
 31
0.0
 11
30.49490672604134
 21
4.267955822374574
 31
0.0
 11
30.48144518163383
 21
4.276745661602831
 31
0.0
 11
30.46982335081049
 21
4.28455666116406
 31
0.0
 11
30.46044670632898
 21
4.291116303966987
 31
0.0
 11
30.45364238889141
 21
4.29619573136631
 31
0.0
 11
30.44964779356917
 21
4.299617727786937
 31
0.0
 11
30.4486603411554
 21
4.300826265871819
 31
0.0
  0
SPLINE
  5
7B
330
2
100
AcDbEntity
  8
GAIKEI
  6
Continuous
 62
     1
370
     9
100
AcDbSpline
210
0.0
220
0.0
230
1.0
 70
     8
 71
     3
 72
    15
 73
    11
 74
     9
 42
0.0000000001
 43
0.0000000001
 44
0.000001
 12
-0.8504533920894472
 22
0.5260504043184011
 32
0.0
 13
-0.46906156670817
 23
0.8831654695680063
 33
0.0
 40
0.0
 40
0.0
 40
0.0
 40
0.0
 40
0.0184966227781503
 40
0.0360894080042637
 40
0.0521665493068865
 40
0.0661693587093703
 40
0.0776127162604261
 40
0.0861038615289105
 40
0.0913639488374869
 40
0.0933131124313126
 40
0.0933131124313126
 40
0.0933131124313126
 40
0.0933131124313126
 10
29.15764011800991
 20
2.022345126433663
 30
0.0
 10
29.1523966128153
 20
2.025588511730632
 30
0.0
 10
29.14219501088093
 20
2.031964691957114
 30
0.0
 10
29.12753484731826
 20
2.04131432335231
 30
0.0
 10
29.11421350809587
 20
2.049986087112245
 30
0.0
 10
29.1027465062389
 20
2.057718000688225
 30
0.0
 10
29.09337659720393
 20
2.064111413838304
 30
0.0
 10
29.08681183344808
 20
2.06925465369818
 30
0.0
 10
29.08238933594996
 20
2.072268845449571
 30
0.0
 10
29.08112469788955
 20
2.074344441856339
 30
0.0
 10
29.08081993864653
 20
2.074918253183227
 30
0.0
 11
29.15764011800991
 21
2.022345126433663
 31
0.0
 11
29.14195592021338
 21
2.032149191724329
 31
0.0
 11
29.12712432187788
 21
2.041611202788885
 31
0.0
 11
29.11366278117271
 21
2.050401040457984
 31
0.0
 11
29.10204095646196
 21
2.05821203695325
 31
0.0
 11
29.09266432044029
 21
2.064771675189433
 31
0.0
 11
29.08586001363563
 21
2.069851096595925
 31
0.0
 11
29.08186543083611
 21
2.073273085740993
 31
0.0
 11
29.08081993864653
 21
2.074918253183227
 31
0.0
  0
SPLINE
  5
7C
330
2
100
AcDbEntity
  8
GAIKEI
  6
Continuous
 62
     7
370
     9
100
AcDbSpline
210
0.0
220
0.0
230
1.0
 70
     8
 71
     3
 72
     9
 73
     5
 74
     3
 42
0.0000000001
 43
0.0000000001
 44
0.000001
 12
-0.8545916602033374
 22
-0.519300581851112
 32
0.0
 13
-0.8096617886544395
 23
-0.5868967438935863
 33
0.0
 40
0.0
 40
0.0
 40
0.0
 40
0.0
 40
0.0057019650827585
 40
0.0081570492997555
 40
0.0081570492997555
 40
0.0081570492997555
 40
0.0081570492997555
 10
28.86983671707378
 20
1.710357433619492
 30
0.0
 10
28.8682124331383
 20
1.709370422357778
 30
0.0
 10
28.8659281213144
 20
1.707892048728695
 30
0.0
 10
28.86370713506713
 20
1.706323227327004
 30
0.0
 10
28.86304453910765
 20
1.705842933682674
 30
0.0
 11
28.86983671707378
 21
1.710357433619492
 31
0.0
 11
28.86504968457661
 21
1.707259356962993
 31
0.0
 11
28.86304453910765
 21
1.705842933682674
 31
0.0
  0
SPLINE
  5
7D
330
2
100
AcDbEntity
  8
GAIKEI
  6
Continuous
 62
     1
370
     9
100
AcDbSpline
210
0.0
220
0.0
230
1.0
 70
     8
 71
     3
 72
     9
 73
     5
 74
     3
 42
0.0000000001
 43
0.0000000001
 44
0.000001
 12
0.0116506784732704
 22
0.9999321285422889
 32
0.0
 13
0.5857595980071279
 23
0.8104848507791666
 33
0.0
 40
0.0
 40
0.0
 40
0.0
 40
0.0
 40
0.000878824855874
 40
0.001223957392963
 40
0.001223957392963
 40
0.001223957392963
 40
0.001223957392963
 10
28.90344716979041
 20
1.723233125729564
 30
0.0
 10
28.90345058275904
 20
1.723526047465838
 30
0.0
 10
28.9035419871166
 20
1.723941648401591
 30
0.0
 10
28.90375224444992
 20
1.724293164439245
 30
0.0
 10
28.90381963268197
 20
1.724386406003532
 30
0.0
 11
28.90344716979041
 21
1.723233125729564
 31
0.0
 11
28.90364236761104
 21
1.724090488547631
 31
0.0
 11
28.90381963268197
 21
1.724386406003532
 31
0.0
  0
SPLINE
  5
7E
330
2
100
AcDbEntity
  8
GAIKEI
  6
Continuous
 62
     1
370
     9
100
AcDbSpline
210
0.0
220
0.0
230
1.0
 70
     8
 71
     3
 72
    37
 73
    33
 74
    31
 42
0.0000000001
 43
0.0000000001
 44
0.000001
 12
0.5655161629949772
 22
0.8247372123236822
 32
0.0
 13
0.6574024232532068
 23
0.7535396830299063
 33
0.0
 40
0.0
 40
0.0
 40
0.0
 40
0.0
 40
0.0025130908440631
 40
0.0085500823469553
 40
0.0171905901136992
 40
0.0284158790709355
 40
0.0421990309822754
 40
0.0496392679239824
 40
0.0577016437133884
 40
0.0663859302522477
 40
0.0756912765021321
 40
0.0856161905621488
 40
0.1035283728901583
 40
0.1231410853407109
 40
0.1444345641827402
 40
0.1538325776599418
 40
0.1636215305756961
 40
0.1738013004718033
 40
0.1843713628107991
 40
0.1953307690861907
 40
0.2066781242301459
 40
0.2349487543599364
 40
0.2653279091309448
 40
0.2733313045197693
 40
0.2816929486204552
 40
0.2904127774787676
 40
0.2994904226389363
 40
0.3089251804620392
 40
0.3187159799188368
 40
0.3288613491620923
 40
0.3585720981847004
 40
0.390888809734538
 40
0.390888809734538
 40
0.390888809734538
 40
0.390888809734538
 10
28.9041267033781
 20
1.724865974944805
 30
0.0
 10
28.90460043454189
 20
1.725556854790511
 30
0.0
 10
28.90623214828409
 20
1.727894155916544
 30
0.0
 10
28.90974446594635
 20
1.732424227620072
 30
0.0
 10
28.91510089690931
 20
1.739195251385353
 30
0.0
 10
28.92217023226502
 20
1.747904053803836
 30
0.0
 10
28.9290466937166
 20
1.756252942705145
 30
0.0
 10
28.93529138192645
 20
1.763756251267125
 30
0.0
 10
28.94046389110051
 20
1.769940573729456
 30
0.0
 10
28.94604774590661
 20
1.77659133032472
 30
0.0
 10
28.9520411482664
 20
1.783708870870668
 30
0.0
 10
28.96002715629985
 20
1.79316975328436
 30
0.0
 10
28.97024639088519
 20
1.805241722108689
 30
0.0
 10
28.98293901483882
 20
1.820184872737456
 30
0.0
 10
28.99381862956636
 20
1.832944286210022
 30
0.0
 10
29.00259190443634
 20
1.843196298453165
 30
0.0
 10
29.00896328309676
 20
1.850627876585519
 30
0.0
 10
29.01559387650318
 20
1.858351826099067
 30
0.0
 10
29.02248248432775
 20
1.866368472734848
 30
0.0
 10
29.02962788759692
 20
1.874677600829784
 30
0.0
 10
29.04062452731327
 20
1.887456654433833
 30
0.0
 10
29.05585370486557
 20
1.905133536293192
 30
0.0
 10
29.07037384917851
 20
1.921949999757885
 30
0.0
 10
29.08057545227075
 20
1.933727406542402
 30
0.0
 10
29.08605497323947
 20
1.940043385857734
 30
0.0
 10
29.0917718373419
 20
1.946627513726525
 30
0.0
 10
29.09772498601163
 20
1.95348020703841
 30
0.0
 10
29.10391314067794
 20
1.960601629671771
 30
0.0
 10
29.11033509019836
 20
1.967991400480798
 30
0.0
 10
29.12119105056163
 20
1.980482061301529
 30
0.0
 10
29.13697167246676
 20
1.998640826315295
 30
0.0
 10
29.15055745379138
 20
2.014226602483972
 30
0.0
 10
29.15763914861953
 20
2.022343910676568
 30
0.0
 11
28.9041267033781
 21
1.724865974944805
 31
0.0
 11
28.90557041853333
 21
1.726923003955164
 31
0.0
 11
28.9092194809042
 21
1.731732305197851
 31
0.0
 11
28.91457960632948
 21
1.738509273870192
 31
0.0
 11
28.92164286268121
 21
1.747233803874735
 31
0.0
 11
28.93040344651331
 21
1.757874638388216
 31
0.0
 11
28.93516175032221
 21
1.763594398056341
 31
0.0
 11
28.94033355519969
 21
1.769779405599308
 31
0.0
 11
28.94591698724338
 21
1.776430879218878
 31
0.0
 11
28.95191029956402
 21
1.783549141650041
 31
0.0
 11
28.95831188399495
 21
1.791133574493471
 31
0.0
 11
28.96988457720068
 21
1.804805407384492
 31
0.0
 11
28.98258165874552
 21
1.81975340334219
 31
0.0
 11
28.9963988208765
 21
1.835955200966623
 31
0.0
 11
29.00250903754704
 21
1.843095782469674
 31
0.0
 11
29.00888006672563
 21
1.850527712257814
 31
0.0
 11
29.01551054828542
 21
1.858251987190556
 31
0.0
 11
29.02239919883164
 21
1.866269013171915
 31
0.0
 11
29.02954482056634
 21
1.874578566149182
 31
0.0
 11
29.0369463104604
 21
1.883179752803471
 31
0.0
 11
29.05539953975562
 21
1.904597195345161
 31
0.0
 11
29.07525866905246
 21
1.92758649780643
 31
0.0
 11
29.08049883413219
 21
1.933635878433221
 31
0.0
 11
29.08597795128077
 21
1.939952235243708
 31
0.0
 11
29.09169471562507
 21
1.946536611811097
 31
0.0
 11
29.09764785703317
 21
1.953389621473434
 31
0.0
 11
29.10383615044486
 21
1.960511395905314
 31
0.0
 11
29.11025842678822
 21
1.96790153198151
 31
0.0
 11
29.11691358448809
 21
1.975559037059554
 31
0.0
 11
29.13640805574653
 21
1.997979879705781
 31
0.0
 11
29.15763914861953
 21
2.022343910676568
 31
0.0
  0
SPLINE
  5
7F
330
2
100
AcDbEntity
  8
GAIKEI
  6
Continuous
 62
     7
370
     9
100
AcDbSpline
210
0.0
220
0.0
230
1.0
 70
     8
 71
     3
 72
    34
 73
    30
 74
    28
 42
0.0000000001
 43
0.0000000001
 44
0.000001
 12
-0.0004165516897558
 22
0.9999999132423409
 32
0.0
 13
-0.7704815932448696
 23
0.6374622455258409
 33
0.0
 40
0.0
 40
0.0
 40
0.0
 40
0.0
 40
0.0166306968023152
 40
0.0320983837269064
 40
0.0444642295569513
 40
0.067232309875667
 40
0.0909449556880637
 40
0.1094481535665898
 40
0.1282454607984428
 40
0.1473127355149172
 40
0.1653913231773957
 40
0.1814104535096407
 40
0.1973128351028504
 40
0.2169907705486896
 40
0.2368999142500967
 40
0.2568093439977757
 40
0.2685411966816173
 40
0.280273938236502
 40
0.2913434708833733
 40
0.299435065409968
 40
0.302627405531711
 40
0.3053946738522797
 40
0.3112161577514325
 40
0.3174242640810987
 40
0.3240303114417633
 40
0.3310530110027726
 40
0.3385184128446084
 40
0.3464598102144282
 40
0.3521095587728911
 40
0.3521095587728911
 40
0.3521095587728911
 40
0.3521095587728911
 10
31.04117183258666
 20
27.01508316176847
 30
0.0
 10
31.04116952340504
 20
27.02062672688828
 30
0.0
 10
31.04094248684723
 20
27.03132739345381
 30
0.0
 10
31.04003827650291
 20
27.04612482163793
 30
0.0
 10
31.03842618582462
 20
27.0629170772109
 30
0.0
 10
31.03569840920892
 20
27.08235329897656
 30
0.0
 10
31.03144947390072
 20
27.10360698072765
 30
0.0
 10
31.02641879066784
 20
27.12331975646873
 30
0.0
 10
31.02093085556484
 20
27.14129694661398
 30
0.0
 10
31.01464966604022
 20
27.15886244079622
 30
0.0
 10
31.00791512543196
 20
27.1752611446301
 30
0.0
 10
31.00093277959849
 20
27.1903995778639
 30
0.0
 10
30.99311197884208
 20
27.20572332351759
 30
0.0
 10
30.98397851776378
 20
27.22181630921659
 30
0.0
 10
30.97334731038981
 20
27.23856761166559
 30
0.0
 10
30.96342745706534
 20
27.25260787965033
 30
0.0
 10
30.95462491536063
 20
27.26407962816768
 30
0.0
 10
30.94735244148694
 20
27.27300498986892
 30
0.0
 10
30.94062250689581
 20
27.28080132884105
 30
0.0
 10
30.93562048411988
 20
27.28632467578899
 30
0.0
 10
30.93242750518792
 20
27.28975142671669
 30
0.0
 10
30.92973072795869
 20
27.2926060927058
 30
0.0
 10
30.92630997992697
 20
27.2961596073302
 30
0.0
 10
30.9219377606824
 20
27.30057255518767
 30
0.0
 10
30.91720845859834
 20
27.30519426863714
 30
0.0
 10
30.91209244999487
 20
27.31001842445829
 30
0.0
 10
30.90655468150524
 20
27.31504223033676
 30
0.0
 10
30.90125966427328
 20
27.31965030090379
 30
0.0
 10
30.89779112305194
 20
27.32256494578166
 30
0.0
 10
30.89634011396169
 20
27.32376544624924
 30
0.0
 11
31.04117183258666
 21
27.01508316176847
 31
0.0
 11
31.04082092045747
 21
27.03171048233486
 31
0.0
 11
31.03987709686555
 21
27.04714932656088
 31
0.0
 11
31.03869544299062
 21
27.05945857918562
 31
0.0
 11
31.03553089768968
 21
27.08200567586511
 31
0.0
 11
31.03088246276377
 21
27.10525824501872
 31
0.0
 11
31.02630715536867
 21
27.12318685260357
 31
0.0
 11
31.0208188643295
 21
27.14116510342501
 31
0.0
 11
31.01439871384105
 21
27.15911900818867
 31
0.0
 11
31.00753082753596
 21
27.17584226959593
 31
0.0
 11
31.00082158578658
 21
27.19038869685738
 31
0.0
 11
30.99359255734317
 21
27.20455297419397
 31
0.0
 11
30.98387971568695
 21
27.22166675573129
 31
0.0
 11
30.97321149826417
 21
27.23847635033019
 31
0.0
 11
30.96172308003963
 21
27.25473674161401
 31
0.0
 11
30.95458123487475
 21
27.26404424018199
 31
0.0
 11
30.94716998001502
 21
27.27313979203842
 31
0.0
 11
30.93993687496754
 21
27.28151919656989
 31
0.0
 11
30.93450503967551
 21
27.28751643968263
 31
0.0
 11
30.93232902509658
 21
27.28985215256086
 31
0.0
 11
30.93042876452211
 21
27.29186374275156
 31
0.0
 11
30.92639054971005
 21
27.29605681977557
 31
0.0
 11
30.92202057422003
 21
27.30046633806762
 31
0.0
 11
30.91729550676013
 21
27.30508305183338
 31
0.0
 11
30.91218593812033
 21
27.30990091344916
 31
0.0
 11
30.90665667195117
 21
27.31491700008746
 31
0.0
 11
30.9006670395911
 21
27.3201314478988
 31
0.0
 11
30.89634011396169
 21
27.32376544624924
 31
0.0
  0
SPLINE
  5
80
330
2
100
AcDbEntity
  8
GAIKEI
  6
Continuous
 62
     7
370
     9
100
AcDbSpline
210
0.0
220
0.0
230
1.0
 70
     8
 71
     3
 72
     9
 73
     5
 74
     3
 42
0.0000000001
 43
0.0000000001
 44
0.000001
 12
-0.9537759318338606
 22
0.300518671390732
 32
0.0
 13
-0.9995574705555542
 23
-0.029746647820928
 33
0.0
 40
0.0
 40
0.0
 40
0.0
 40
0.0
 40
0.0008511550201933
 40
0.005006089545271
 40
0.005006089545271
 40
0.005006089545271
 40
0.005006089545271
 10
28.53206177052271
 20
29.15143296087342
 30
0.0
 10
28.53179116679854
 20
29.15151822353204
 30
0.0
 10
28.53018567395026
 20
29.15197259358945
 30
0.0
 10
28.5284962851191
 20
29.15215246242144
 30
0.0
 10
28.5271119198377
 20
29.15211126396343
 30
0.0
 11
28.53206177052271
 21
29.15143296087342
 31
0.0
 11
28.53124366136063
 21
29.15166529884653
 31
0.0
 11
28.5271119198377
 21
29.15211126396343
 31
0.0
  0
SPLINE
  5
81
330
2
100
AcDbEntity
  8
GAIKEI
  6
Continuous
 62
     7
370
     9
100
AcDbSpline
210
0.0
220
0.0
230
1.0
 70
     8
 71
     3
 72
    14
 73
    10
 74
     8
 42
0.0000000001
 43
0.0000000001
 44
0.000001
 12
-0.7519343763483377
 22
0.6592379643691924
 32
0.0
 13
-0.994514893107334
 23
0.1045950638783105
 33
0.0
 40
0.0
 40
0.0
 40
0.0
 40
0.0
 40
0.008359809005884
 40
0.0158103994565448
 40
0.0216185287029777
 40
0.0284550539745081
 40
0.0375121397883791
 40
0.0487552023523187
 40
0.0620894105697367
 40
0.0620894105697367
 40
0.0620894105697367
 40
0.0620894105697367
 10
28.58631607823225
 20
29.12738701176306
 30
0.0
 10
28.58422073564182
 20
29.12922404625357
 30
0.0
 10
28.58011155695681
 20
29.13253567827218
 30
0.0
 10
28.57415651680287
 20
29.13660433196702
 30
0.0
 10
28.56839032295594
 20
29.14002066818853
 30
0.0
 10
28.56192337259301
 20
29.14327665285163
 30
0.0
 10
28.55352400939185
 20
29.14666881061078
 30
0.0
 10
28.54274392619365
 20
29.1498215107136
 30
0.0
 10
28.53464064044937
 20
29.15119507762347
 30
0.0
 10
28.53022028422936
 20
29.15165997507688
 30
0.0
 11
28.58631607823225
 21
29.12738701176306
 31
0.0
 11
28.57980680355263
 21
29.13263310822572
 31
0.0
 11
28.57365635904853
 21
29.13683820440724
 31
0.0
 11
28.56865630049668
 21
29.13979347719806
 31
0.0
 11
28.56255152390179
 21
29.14287082685417
 31
0.0
 11
28.55415653036613
 21
29.14627015527333
 31
0.0
 11
28.54336720542221
 21
29.14943177651707
 31
0.0
 11
28.53022028422936
 21
29.15165997507688
 31
0.0
  0
SPLINE
  5
82
330
2
100
AcDbEntity
  8
GAIKEI
  6
Continuous
 62
     1
370
     9
100
AcDbSpline
210
0.0
220
0.0
230
1.0
 70
     8
 71
     3
 72
    10
 73
     6
 74
     4
 42
0.0000000001
 43
0.0000000001
 44
0.000001
 12
0.2382020815216927
 22
-0.971215613732982
 32
0.0
 13
-0.8585172946736403
 23
-0.5127846085309639
 33
0.0
 40
0.0
 40
0.0
 40
0.0
 40
0.0
 40
0.0035855031894314
 40
0.0085054019590673
 40
0.015381756975653
 40
0.015381756975653
 40
0.015381756975653
 40
0.015381756975653
 10
28.58650459202568
 20
29.12711496324289
 30
0.0
 10
28.58678928346669
 20
29.12595419768269
 30
0.0
 10
28.58701296711519
 20
29.12296240347587
 30
0.0
 10
28.58391155342616
 20
29.11856941996695
 30
0.0
 10
28.58102498560464
 20
29.11587651634722
 30
0.0
 10
28.57905716236928
 20
29.11470115334214
 30
0.0
 11
28.58650459202568
 21
29.12711496324289
 31
0.0
 11
28.5866339133641
 21
29.12353093866727
 31
0.0
 11
28.5842167840882
 21
29.11924527861265
 31
0.0
 11
28.57905716236928
 21
29.11470115334214
 31
0.0
  0
SPLINE
  5
83
330
2
100
AcDbEntity
  8
GAIKEI
  6
Continuous
 62
     1
370
     9
100
AcDbSpline
210
0.0
220
0.0
230
1.0
 70
     8
 71
     3
 72
     9
 73
     5
 74
     3
 42
0.0000000001
 43
0.0000000001
 44
0.000001
 12
0.8177767468554398
 22
-0.5755355699715996
 32
0.0
 13
0.3411272475233207
 23
-0.9400171280339328
 33
0.0
 40
0.0
 40
0.0
 40
0.0
 40
0.0
 40
0.0045361893056035
 40
0.0049147100177885
 40
0.0049147100177885
 40
0.0049147100177885
 40
0.0049147100177885
 10
28.58348257955265
 20
29.13096897500913
 30
0.0
 10
28.58471910959713
 20
29.13009872890996
 30
0.0
 10
28.58586326050176
 20
29.1287577476088
 30
0.0
 10
28.58646155078279
 20
29.12723356856048
 30
0.0
 10
28.58650459202568
 20
29.12711496324289
 30
0.0
 11
28.58348257955265
 21
29.13096897500913
 31
0.0
 11
28.58636715371586
 21
29.12746721501833
 31
0.0
 11
28.58650459202568
 21
29.12711496324289
 31
0.0
  0
SPLINE
  5
84
330
2
100
AcDbEntity
  8
GAIKEI
  6
Continuous
 62
     7
370
     9
100
AcDbSpline
210
0.0
220
0.0
230
1.0
 70
     8
 71
     3
 72
     9
 73
     5
 74
     3
 42
0.0000000001
 43
0.0000000001
 44
0.000001
 12
-0.4481256717433423
 22
-0.8939705712855307
 32
0.0
 13
-0.5054675575080278
 23
-0.862845610933305
 33
0.0
 40
0.0
 40
0.0
 40
0.0
 40
0.0
 40
0.0004576621642059
 40
0.0006145221863647
 40
0.0006145221863647
 40
0.0006145221863647
 40
0.0006145221863647
 10
28.58603605505391
 20
1.269623767395103
 30
0.0
 10
28.58596769166565
 20
1.269487388559639
 30
0.0
 10
28.58587142527901
 20
1.26930645266151
 30
0.0
 10
28.58576936039526
 20
1.269128846157457
 30
0.0
 10
28.58574293117783
 20
1.269083730830232
 30
0.0
 11
28.58603605505391
 21
1.269623767395103
 31
0.0
 11
28.58582108604958
 21
1.269219727442248
 31
0.0
 11
28.58574293117783
 21
1.269083730830232
 31
0.0
  0
SPLINE
  5
85
330
2
100
AcDbEntity
  8
GAIKEI
  6
Continuous
 62
     1
370
     9
100
AcDbSpline
210
0.0
220
0.0
230
1.0
 70
     8
 71
     3
 72
    15
 73
    11
 74
     9
 42
0.0000000001
 43
0.0000000001
 44
0.000001
 12
-0.6165063068845515
 22
0.787349968928412
 32
0.0
 13
-0.9984574580452434
 23
0.0555221079735923
 33
0.0
 40
0.0
 40
0.0
 40
0.0
 40
0.0
 40
0.0106820892665751
 40
0.0215835132611105
 40
0.032643558400314
 40
0.0437974018465899
 40
0.0549779786996503
 40
0.0661183226972096
 40
0.0771537117059874
 40
0.0827382829622845
 40
0.0827382829622845
 40
0.0827382829622845
 40
0.0827382829622845
 10
28.5790568902986
 20
29.11470092900936
 30
0.0
 10
28.57686169849742
 20
29.11750444322672
 30
0.0
 10
28.57211866114165
 20
29.12293568632663
 30
0.0
 10
28.56409957248587
 20
29.13032173210871
 30
0.0
 10
28.55517823372117
 20
29.13686257804534
 30
0.0
 10
28.54549030984586
 20
29.14239407091003
 30
0.0
 10
28.53520483985426
 20
29.14678464825096
 30
0.0
 10
28.52451892821381
 20
29.14994460041419
 30
0.0
 10
28.51537963152333
 20
29.15152834455404
 30
0.0
 10
28.50985664427194
 20
29.15199850438069
 30
0.0
 10
28.50799799199831
 20
29.15210186010347
 30
0.0
 11
28.5790568902986
 21
29.11470092900936
 31
0.0
 11
28.57203048410918
 21
29.12274716434695
 31
0.0
 11
28.56401063964637
 21
29.13013108662074
 31
0.0
 11
28.55509009279911
 21
29.13666932161106
 31
0.0
 11
28.54540309495713
 21
29.14219839009468
 31
0.0
 11
28.53511970751697
 21
29.14658673747414
 31
0.0
 11
28.52443625163664
 21
29.14974447895946
 31
0.0
 11
28.51356298144452
 21
29.15162943057783
 31
0.0
 11
28.50799799199831
 21
29.15210186010347
 31
0.0
  0
SPLINE
  5
86
330
2
100
AcDbEntity
  8
GAIKEI
  6
Continuous
 62
     1
370
     9
100
AcDbSpline
210
0.0
220
0.0
230
1.0
 70
     8
 71
     3
 72
    22
 73
    18
 74
    16
 42
0.0000000001
 43
0.0000000001
 44
0.000001
 12
-0.6695002711319422
 22
-0.7428118112646406
 32
0.0
 13
0.0044277174563084
 23
-0.9999901976110201
 33
0.0
 40
0.0
 40
0.0
 40
0.0
 40
0.0
 40
0.0034325474994725
 40
0.0083791523903022
 40
0.0115958684814083
 40
0.0153496175333786
 40
0.0196609738657484
 40
0.0245453923504003
 40
0.0379825226040103
 40
0.0540990005697881
 40
0.0729282957333993
 40
0.0933274622878265
 40
0.114797731038434
 40
0.1372454459986182
 40
0.1605786242415276
 40
0.184707889020436
 40
0.2095475847921544
 40
0.2095475847921544
 40
0.2095475847921544
 40
0.2095475847921544
 10
28.57905716236928
 20
29.11470115334214
 30
0.0
 10
28.57829113187543
 20
29.11385124106704
 30
0.0
 10
28.57664415315682
 20
29.11148585175136
 30
0.0
 10
28.57630648510482
 20
29.10751920618242
 30
0.0
 10
28.57616594029796
 20
29.1035702994098
 30
0.0
 10
28.57628277618593
 20
29.09980324104419
 30
0.0
 10
28.57655106941255
 20
29.09549699584858
 30
0.0
 10
28.57719362348499
 20
29.08797865462975
 30
0.0
 10
28.57839126086756
 20
29.0765621826821
 30
0.0
 10
28.58010362716362
 20
29.06052563951363
 30
0.0
 10
28.58186226945822
 20
29.04216037672359
 30
0.0
 10
28.58333965345338
 20
29.02197966494123
 30
0.0
 10
28.58446964944466
 20
29.00056928521826
 30
0.0
 10
28.58529405256394
 20
28.97816665268431
 30
0.0
 10
28.58585591392085
 20
28.95486953475609
 30
0.0
 10
28.58619770828611
 20
28.93077102769007
 30
0.0
 10
28.5863326695341
 20
28.91444847257697
 30
0.0
 10
28.58636933058562
 20
28.9061686551492
 30
0.0
 11
28.57905716236928
 21
29.11470115334214
 31
0.0
 11
28.57717794785571
 21
29.11182854616857
 31
0.0
 11
28.57630891495671
 21
29.10695906089302
 31
0.0
 11
28.57620604605882
 21
29.1037440322583
 31
0.0
 11
28.57629601255661
 21
29.09999139150142
 31
0.0
 11
28.57655562130606
 21
29.09568788087631
 31
0.0
 11
28.57696005066453
 21
29.09082025175172
 31
0.0
 11
28.5783027777382
 21
29.07745040371617
 31
0.0
 11
28.57998168120935
 21
29.06142162909839
 31
0.0
 11
28.58174612185616
 21
29.04267519748044
 31
0.0
 11
28.58324724182592
 21
29.02233134379685
 31
0.0
 11
28.58439768521942
 21
29.0008919226338
 31
0.0
 11
28.58523768105175
 21
28.97845993124867
 31
0.0
 11
28.58581250186512
 21
28.9551338351697
 31
0.0
 11
28.58617186232971
 21
28.93100724568967
 31
0.0
 11
28.58636933058562
 21
28.9061686551492
 31
0.0
  0
SPLINE
  5
87
330
2
100
AcDbEntity
  8
GAIKEI
  6
Continuous
 62
     1
370
     9
100
AcDbSpline
210
0.0
220
0.0
230
1.0
 70
     8
 71
     3
 72
    28
 73
    24
 74
    22
 42
0.0000000001
 43
0.0000000001
 44
0.000001
 12
-0.9931776468461686
 22
-0.1166111564349952
 32
0.0
 13
0.0334178002205172
 23
-0.9994414693359594
 33
0.0
 40
0.0
 40
0.0
 40
0.0
 40
0.0
 40
0.001308356021468
 40
0.0031654591349219
 40
0.005460473403981
 40
0.0084037012993476
 40
0.0117248316066956
 40
0.0149627118772927
 40
0.0189300131246067
 40
0.0279462469564261
 40
0.0400836806307394
 40
0.0501772455811069
 40
0.0620460609866575
 40
0.0758210872253152
 40
0.0907939905109416
 40
0.1062578173047048
 40
0.1220143613400238
 40
0.1458109250386523
 40
0.1693424840849833
 40
0.1921795411807025
 40
0.2139823516011162
 40
0.2344929534596752
 40
0.2535262355968535
 40
0.2535262355968535
 40
0.2535262355968535
 40
0.2535262355968535
 10
28.50227398411556
 20
29.15223773965244
 30
0.0
 10
28.50184084079734
 20
29.15218688334955
 30
0.0
 10
28.5007959720952
 20
29.1519200075428
 30
0.0
 10
28.49934126914078
 20
29.15073171711566
 30
0.0
 10
28.49810771406604
 20
29.14868428890605
 30
0.0
 10
28.49716315936399
 20
29.14597924397725
 30
0.0
 10
28.49649269138808
 20
29.14287881497563
 30
0.0
 10
28.4960183072038
 20
29.13940033089171
 30
0.0
 10
28.49554974477965
 20
29.13401206604641
 30
0.0
 10
28.49523792058773
 20
29.12564070469
 30
0.0
 10
28.49518215275566
 20
29.1152246181768
 30
0.0
 10
28.49529786755139
 20
29.10385834969913
 30
0.0
 10
28.49552821210969
 20
29.09194798185018
 30
0.0
 10
28.49589083892229
 20
29.07841386683049
 30
0.0
 10
28.49630805753077
 20
29.06368253368134
 30
0.0
 10
28.49671787096622
 20
29.04829022140626
 30
0.0
 10
28.49720041007865
 20
29.02995759499959
 30
0.0
 10
28.49774691439689
 20
29.00893647437545
 30
0.0
 10
28.49836122191425
 20
28.98555614974555
 30
0.0
 10
28.49897479880173
 20
28.96284062184452
 30
0.0
 10
28.49958833392259
 20
28.94113246131701
 30
0.0
 10
28.50019903333558
 20
28.92069266776355
 30
0.0
 10
28.50062686732403
 20
28.90751830361507
 30
0.0
 10
28.5008388841307
 20
28.90117741979322
 30
0.0
 11
28.50227398411556
 21
29.15223773965244
 31
0.0
 11
28.50101167363448
 21
29.15189319120066
 31
0.0
 11
28.4995351101029
 21
29.15076713468102
 31
0.0
 11
28.49828468670967
 21
29.14884280792177
 31
0.0
 11
28.49726040345496
 21
29.14608363937151
 31
0.0
 11
28.49653025220959
 21
29.14284381132239
 31
0.0
 11
28.49607532267885
 21
29.13963807805817
 31
0.0
 11
28.49571618003785
 21
29.13568708932757
 31
0.0
 11
28.49531816761993
 21
29.12667967535879
 31
0.0
 11
28.49521350255225
 21
29.11454271443
 31
0.0
 11
28.49530669659043
 21
29.10444959048323
 31
0.0
 11
28.49553026722873
 21
29.0925828896988
 31
0.0
 11
28.4958842144672
 21
29.07881241884707
 31
0.0
 11
28.49629997980855
 21
29.06384529480408
 31
0.0
 11
28.49671522220388
 21
29.04838704825835
 31
0.0
 11
28.49712994165333
 21
29.03263596603654
 31
0.0
 11
28.49775104030385
 21
29.00884751251851
 31
0.0
 11
28.49837096232596
 21
28.98532412298715
 31
0.0
 11
28.49898970771972
 21
28.96249545132412
 31
0.0
 11
28.49960727648511
 21
28.94070139032476
 31
0.0
 11
28.50022366862209
 21
28.92020005315044
 31
0.0
 11
28.5008388841307
 21
28.90117741979322
 31
0.0
  0
CIRCLE
  5
88
330
2
100
AcDbEntity
  8
GAIKEI
  6
Continuous
 62
     1
370
     9
100
AcDbCircle
 10
27.46653485414356
 20
3.189528869695664
 30
0.0
 40
0.25108225
  0
CIRCLE
  5
89
330
2
100
AcDbEntity
  8
GAIKEI
  6
Continuous
 62
     1
370
     9
100
AcDbCircle
 10
27.46653485414356
 20
12.22848986969564
 30
0.0
 40
0.25108225
  0
CIRCLE
  5
8A
330
2
100
AcDbEntity
  8
GAIKEI
  6
Continuous
 62
     1
370
     9
100
AcDbCircle
 10
27.46653485414356
 20
27.18377486969564
 30
0.0
 40
0.25108225
  0
CIRCLE
  5
8B
330
2
100
AcDbEntity
  8
GAIKEI
  6
Continuous
 62
     1
370
     9
100
AcDbCircle
 10
27.46653485414356
 20
18.14481386969567
 30
0.0
 40
0.25108225
  0
SPLINE
  5
8C
330
2
100
AcDbEntity
  8
GAIKEI
  6
Continuous
 62
     1
370
     9
100
AcDbSpline
210
0.0
220
0.0
230
1.0
 70
     8
 71
     3
 72
    29
 73
    25
 74
    23
 42
0.0000000001
 43
0.0000000001
 44
0.000001
 12
-0.0153432903492377
 22
-0.9998822847921944
 32
0.0
 13
0.0837524212352597
 23
-0.9964865939576064
 33
0.0
 40
0.0
 40
0.0
 40
0.0
 40
0.0
 40
0.0150602162585011
 40
0.0323731682679653
 40
0.0518089026441785
 40
0.0731540012427579
 40
0.0960896103821975
 40
0.1181009527120254
 40
0.1370683906452501
 40
0.1531526225065818
 40
0.1665672360763557
 40
0.1775524014630018
 40
0.1869391814023559
 40
0.1964682699274412
 40
0.2059571652396858
 40
0.2151992139470308
 40
0.223963336193643
 40
0.2319945708999427
 40
0.2393296883783833
 40
0.2444902481634843
 40
0.2478838707240181
 40
0.2498949761080894
 40
0.2508752434466383
 40
0.2511392113201354
 40
0.2511392113201354
 40
0.2511392113201354
 40
0.2511392113201354
 10
28.50113445107115
 20
1.472124569954075
 30
0.0
 10
28.50105742664755
 20
1.467105088806761
 30
0.0
 10
28.50092941196115
 20
1.456314642734014
 30
0.0
 10
28.50088605370297
 20
1.439044875862066
 30
0.0
 10
28.50095084024517
 20
1.419680322368037
 30
0.0
 10
28.50112860932606
 20
1.398442146006345
 30
0.0
 10
28.50142570548909
 20
1.376346746556635
 30
0.0
 10
28.50174471218173
 20
1.355044341217762
 30
0.0
 10
28.50198761876106
 20
1.336024871741642
 30
0.0
 10
28.50216087674164
 20
1.319870355689602
 30
0.0
 10
28.50226128255878
 20
1.306376028262491
 30
0.0
 10
28.50228871998189
 20
1.295113792489416
 30
0.0
 10
28.50223946427451
 20
1.285146829068253
 30
0.0
 10
28.50213643667615
 20
1.27567908288745
 30
0.0
 10
28.50197560557575
 20
1.266260374188846
 30
0.0
 10
28.50175694224555
 20
1.257097898475194
 30
0.0
 10
28.50148407678171
 20
1.248422905246002
 30
0.0
 10
28.50114422351345
 20
1.240386495652558
 30
0.0
 10
28.50078267587964
 20
1.233553435067619
 30
0.0
 10
28.50049015905592
 20
1.228265707395848
 30
0.0
 10
28.50023947194299
 20
1.224751245518973
 30
0.0
 10
28.50012789513082
 20
1.222628424597473
 30
0.0
 10
28.49999351812835
 20
1.221546028764578
 30
0.0
 10
28.50002310079316
 20
1.22113166994228
 30
0.0
 10
28.50003047010932
 20
1.221043989793201
 30
0.0
 11
28.50113445107115
 21
1.472124569954075
 31
0.0
 11
28.50096116119011
 21
1.457065378169545
 31
0.0
 11
28.50090475222959
 21
1.439752518665159
 31
0.0
 11
28.50096522418983
 21
1.42031687961537
 31
0.0
 11
28.50114257707071
 21
1.398972518769255
 31
0.0
 11
28.50143681087235
 21
1.376038797512762
 31
0.0
 11
28.50175222233474
 21
1.354029715191586
 31
0.0
 11
28.50199389194779
 21
1.335063816603849
 31
0.0
 11
28.50216181971132
 21
1.318980460816419
 31
0.0
 11
28.50225600562556
 21
1.305566177154332
 31
0.0
 11
28.50227644969027
 21
1.29458103000411
 31
0.0
 11
28.50223147634824
 21
1.285194357035379
 31
0.0
 11
28.50212743601401
 21
1.275665835594168
 31
0.0
 11
28.50196432868762
 21
1.266178341165982
 31
0.0
 11
28.50174215436903
 21
1.256938962060246
 31
0.0
 11
28.50146091305811
 21
1.248179352078466
 31
0.0
 11
28.50112060475499
 21
1.240155329288654
 31
0.0
 11
28.50074194577383
 21
1.232829990916116
 31
0.0
 11
28.50044207474212
 21
1.227678149939833
 31
0.0
 11
28.50022099165978
 21
1.224291736420695
 31
0.0
 11
28.50007869652689
 21
1.222285675512068
 31
0.0
 11
28.5000151893434
 21
1.221307526309658
 31
0.0
 11
28.50003047010932
 21
1.221043989793201
 31
0.0
  0
SPLINE
  5
8D
330
2
100
AcDbEntity
  8
GAIKEI
  6
Continuous
 62
     1
370
     9
100
AcDbSpline
210
0.0
220
0.0
230
1.0
 70
     8
 71
     3
 72
    19
 73
    15
 74
    13
 42
0.0000000001
 43
0.0000000001
 44
0.000001
 12
0.0464280128668263
 22
-0.9989216383787258
 32
0.0
 13
-0.3943400514212621
 23
-0.9189645933576963
 33
0.0
 40
0.0
 40
0.0
 40
0.0
 40
0.0
 40
0.0238840718349683
 40
0.0472316602884177
 40
0.0699630835514625
 40
0.0919753808009387
 40
0.1131466522208631
 40
0.1333426477633859
 40
0.1514187917915442
 40
0.1667201398924452
 40
0.1792739663475288
 40
0.189114169784951
 40
0.1962818086260202
 40
0.2008323497146804
 40
0.2008323497146804
 40
0.2008323497146804
 40
0.2008323497146804
 10
28.58686857860994
 20
1.469448669971825
 30
0.0
 10
28.58723820860809
 20
1.461495897915654
 30
0.0
 10
28.58806071764588
 20
1.445772844789416
 30
0.0
 10
28.589624305033
 20
1.422503879628948
 30
0.0
 10
28.59123627394075
 20
1.399864202900971
 30
0.0
 10
28.59269481432955
 20
1.377940681343716
 30
0.0
 10
28.59376699470636
 20
1.356839905428728
 30
0.0
 10
28.59420864322942
 20
1.337025982642103
 30
0.0
 10
28.59383803348567
 20
1.319165171854365
 30
0.0
 10
28.59281134163996
 20
1.303884896929559
 30
0.0
 10
28.5913695445183
 20
1.291393934826714
 30
0.0
 10
28.58965792683898
 20
1.281690280449424
 30
0.0
 10
28.58803944754951
 20
1.274671623139681
 30
0.0
 10
28.58663420858955
 20
1.271017696108799
 30
0.0
 10
28.58603605505391
 20
1.269623767395103
 30
0.0
 11
28.58686857860994
 21
1.469448669971825
 31
0.0
 11
28.58812870329376
 21
1.445598217186045
 31
0.0
 11
28.58965280405897
 21
1.422300451293779
 31
0.0
 11
28.59123450470509
 21
1.399624138827107
 31
0.0
 11
28.59265402211736
 21
1.37765767234822
 31
0.0
 11
28.59367976852804
 21
1.356511274984256
 31
0.0
 11
28.59407056001862
 21
1.336319068343868
 31
0.0
 11
28.59366681218251
 21
1.318247436720241
 31
0.0
 11
28.59261539219517
 21
1.30298225774851
 31
0.0
 11
28.59112653361933
 21
1.290517038637403
 31
0.0
 11
28.58940449294914
 21
1.280828703731799
 31
0.0
 11
28.58764547880424
 21
1.273880336399884
 31
0.0
 11
28.58603605505391
 21
1.269623767395103
 31
0.0
  0
ELLIPSE
  5
8E
330
2
100
AcDbEntity
  8
GAIKEI
  6
Continuous
 62
     1
370
     9
100
AcDbEllipse
 10
29.98867071859701
 20
26.98513225237002
 30
0.0
 11
1.067924169984564
 21
0.0477580015025806
 31
0.0
210
0.0
220
0.0
230
1.0
 40
0.624315
 41
6.255280300218315
 42
6.305399996911374
  0
ELLIPSE
  5
8F
330
2
100
AcDbEntity
  8
GAIKEI
  6
Continuous
 62
     1
370
     9
100
AcDbEllipse
 10
29.90800803496194
 20
27.58633162640206
 30
0.0
 11
-0.2473306706143662
 21
-0.3165688200249796
 31
0.0
210
0.0
220
0.0
230
1.0
 40
0.7752800000000001
 41
2.115407648783984
 42
3.141592653589792
  0
ELLIPSE
  5
90
330
2
100
AcDbEntity
  8
GAIKEI
  6
Continuous
 62
     1
370
     9
100
AcDbEllipse
 10
29.90800803496194
 20
4.188781589198015
 30
0.0
 11
-0.3422941483367174
 21
0.2102926400352274
 31
0.0
210
0.0
220
0.0
230
1.0
 40
0.6319369999996406
 41
3.141592653589168
 42
3.912890455840594
  0
ELLIPSE
  5
91
330
2
100
AcDbEntity
  8
GAIKEI
  6
Continuous
 62
     1
370
     9
100
AcDbEllipse
 10
28.18814202679078
 20
28.89992445883525
 30
0.0
 11
-0.2465817768435595
 21
-0.3155911464357199
 31
0.0
210
0.0
220
0.0
230
1.0
 40
0.990881
 41
2.188240605494088
 42
2.245257060713214
  0
ELLIPSE
  5
92
330
2
100
AcDbEntity
  8
GAIKEI
  6
Continuous
 62
     1
370
     9
100
AcDbEllipse
 10
28.07251001343639
 20
1.452951429561835
 30
0.0
 11
-0.4397816114050922
 21
0.2703651304956109
 31
0.0
210
0.0
220
0.0
230
1.0
 40
0.9897759999721523
 41
3.729599035032543
 42
3.762872864570343
  0
ARC
  5
93
330
2
100
AcDbEntity
  8
GAIKEI
  6
Continuous
 62
     1
370
     9
100
AcDbCircle
 10
30.64021449414355
 20
27.01426924272062
 30
0.0
 40
0.4167965350000002
100
AcDbArc
 50
4.598948000000112
 51
34.20172899999994
  0
ARC
  5
94
330
2
100
AcDbEntity
  8
GAIKEI
  6
Continuous
 62
     1
370
     9
100
AcDbCircle
 10
25.77809008220061
 20
6.23731908339846
 30
0.0
 40
5.2645034024164
100
AcDbArc
 50
359.4701889999996
 51
359.8794880000008
  0
ARC
  5
95
330
2
100
AcDbEntity
  8
GAIKEI
  6
Continuous
 62
     1
370
     9
100
AcDbCircle
 10
31.05701102914355
 20
24.78342855969561
 30
0.0
 40
0.01004329
100
AcDbArc
 50
270.0
 51
0.0
  0
ARC
  5
96
330
2
100
AcDbEntity
  8
GAIKEI
  6
Continuous
 62
     1
370
     9
100
AcDbCircle
 10
31.05701102914355
 20
25.56680517969562
 30
0.0
 40
0.01004329
100
AcDbArc
 50
0.0
 51
90.0
  0
ARC
  5
97
330
2
100
AcDbEntity
  8
GAIKEI
  6
Continuous
 62
     1
370
     9
100
AcDbCircle
 10
31.05701102914355
 20
5.589875179695582
 30
0.0
 40
0.01004329
100
AcDbArc
 50
0.0
 51
90.0
  0
ARC
  5
98
330
2
100
AcDbEntity
  8
GAIKEI
  6
Continuous
 62
     1
370
     9
100
AcDbCircle
 10
31.05701102914355
 20
4.806498559695626
 30
0.0
 40
0.01004329
100
AcDbArc
 50
270.0
 51
0.0
  0
ARC
  5
99
330
2
100
AcDbEntity
  8
GAIKEI
  6
Continuous
 62
     1
370
     9
100
AcDbCircle
 10
-727.4989755886645
 20
8.277340068544617
 30
0.0
 40
758.5442343615818
100
AcDbArc
 50
359.8307910000001
 51
359.8446070000004
  0
ARC
  5
9A
330
2
100
AcDbEntity
  8
GAIKEI
  6
Continuous
 62
     7
370
     9
100
AcDbCircle
 10
85.95782061414718
 20
2.383445777066242
 30
0.0
 40
54.9162495364522
100
AcDbArc
 50
180.0254680000007
 51
180.1842460000004
  0
ARC
  5
9B
330
2
100
AcDbEntity
  8
GAIKEI
  6
Continuous
 62
     7
370
     9
100
AcDbCircle
 10
28.92198875609518
 20
1.624526576874245
 30
0.0
 40
0.1004329
100
AcDbArc
 50
100.6387670000008
 51
121.2834739999995
  0
ARC
  5
9C
330
2
100
AcDbEntity
  8
GAIKEI
  6
Continuous
 62
     7
370
     9
100
AcDbCircle
 10
28.92198875609518
 20
1.624526576874245
 30
0.0
 40
0.1004329
100
AcDbArc
 50
125.9374470000009
 51
148.4349990000012
  0
ARC
  5
9D
330
2
100
AcDbEntity
  8
GAIKEI
  6
Continuous
 62
     1
370
     9
100
AcDbCircle
 10
5067.634761066944
 20
-3359.362971878103
 30
0.0
 40
6057.12516211681
100
AcDbArc
 50
146.2625730000002
 51
146.2682769999998
  0
ARC
  5
9E
330
2
100
AcDbEntity
  8
GAIKEI
  6
Continuous
 62
     1
370
     9
100
AcDbCircle
 10
-2905.639772156837
 20
-4057.834755692162
 30
0.0
 40
5030.913548801608
100
AcDbArc
 50
54.28687900000082
 51
54.2980300000004
  0
ARC
  5
9F
330
2
100
AcDbEntity
  8
GAIKEI
  6
Continuous
 62
     1
370
     9
100
AcDbCircle
 10
30.64021449414355
 20
27.01426924272062
 30
0.0
 40
0.4017316
100
AcDbArc
 50
50.39913900000022
 51
51.99999999999918
  0
ARC
  5
A0
330
2
100
AcDbEntity
  8
GAIKEI
  6
Continuous
 62
     7
370
     9
100
AcDbCircle
 10
30.53092421582676
 20
27.06365712129565
 30
0.0
 40
0.4300990734707998
100
AcDbArc
 50
44.31172399999876
 51
51.9822549999998
  0
ARC
  5
A1
330
2
100
AcDbEntity
  8
GAIKEI
  6
Continuous
 62
     7
370
     9
100
AcDbCircle
 10
28.50006150596573
 20
1.32147692969562
 30
0.0
 40
0.1004329
100
AcDbArc
 50
279.2042550000001
 51
281.7764760000015
  0
ARC
  5
A2
330
2
100
AcDbEntity
  8
GAIKEI
  6
Continuous
 62
     7
370
     9
100
AcDbCircle
 10
28.50006150596573
 20
1.32147692969562
 30
0.0
 40
0.1004329
100
AcDbArc
 50
281.7764760000015
 51
326.8022930000008
  0
ARC
  5
A3
330
2
100
AcDbEntity
  8
GAIKEI
  6
Continuous
 62
     7
370
     9
100
AcDbCircle
 10
28.50006150596573
 20
1.32147692969562
 30
0.0
 40
0.1004329
100
AcDbArc
 50
326.8022930000008
 51
328.4349999999993
  0
ARC
  5
A4
330
2
100
AcDbEntity
  8
GAIKEI
  6
Continuous
 62
     7
370
     9
100
AcDbCircle
 10
28.50006150596573
 20
1.32147692969562
 30
0.0
 40
0.1004329
100
AcDbArc
 50
270.0
 51
279.2042550000001
  0
ARC
  5
A5
330
2
100
AcDbEntity
  8
GAIKEI
  6
Continuous
 62
     1
370
     9
100
AcDbCircle
 10
70.92639243997672
 20
-698.5536057804811
 30
0.0
 40
728.6908816452382
100
AcDbArc
 50
93.33100299999962
 51
93.33774000000129
  0
ARC
  5
A6
330
2
100
AcDbEntity
  8
GAIKEI
  6
Continuous
 62
     1
370
     9
100
AcDbCircle
 10
28.19650045446037
 20
28.88335664591966
 30
0.0
 40
0.3048596489023998
100
AcDbArc
 50
0.0113870000006249
 51
3.35117300000071
  0
ARC
  5
A7
330
2
100
AcDbEntity
  8
GAIKEI
  6
Continuous
 62
     1
370
     9
100
AcDbCircle
 10
28.04159937807174
 20
1.486530968811052
 30
0.0
 40
0.4597607252910001
100
AcDbArc
 50
358.2043609999995
 51
359.9933470000004
  0
ARC
  5
A8
330
2
100
AcDbEntity
  8
GAIKEI
  6
Continuous
 62
     1
370
     9
100
AcDbCircle
 10
60.55151398079988
 20
1026.3299035003
 30
0.0
 40
1025.358810645285
100
AcDbArc
 50
268.2087719999993
 51
268.2135660000002
  0
LINE
  5
A9
330
2
100
AcDbEntity
  8
GAIKEI
  6
Continuous
 62
     7
370
     9
100
AcDbLine
 10
28.50455607910652
 20
29.15222596424121
 30
0.0
 11
28.50228247911633
 21
29.15222054086462
 31
0.0
  0
LINE
  5
AA
330
2
100
AcDbEntity
  8
GAIKEI
  6
Continuous
 62
     7
370
     9
100
AcDbLine
 10
28.50232666959232
 20
29.15224263610264
 30
0.0
 11
28.50271454145224
 21
29.15225970969562
 31
0.0
  0
LINE
  5
AB
330
2
100
AcDbEntity
  8
GAIKEI
  6
Continuous
 62
     7
370
     9
100
AcDbLine
 10
28.50458821763453
 20
29.15224123004202
 30
0.0
 11
28.50271494318377
 21
29.15225970969562
 31
0.0
  0
LINE
  5
AC
330
2
100
AcDbEntity
  8
GAIKEI
  6
Continuous
 62
     7
370
     9
100
AcDbLine
 10
28.52188236128302
 20
29.15211126986946
 30
0.0
 11
28.50782978991492
 21
29.15211126986946
 31
0.0
  0
LINE
  5
AD
330
2
100
AcDbEntity
  8
GAIKEI
  6
Continuous
 62
     7
370
     9
100
AcDbLine
 10
28.50798887562854
 20
29.15211388112488
 30
0.0
 11
28.50458821763453
 21
29.15224123004202
 31
0.0
  0
LINE
  5
AE
330
2
100
AcDbEntity
  8
GAIKEI
  6
Continuous
 62
     1
370
     9
100
AcDbLine
 10
26.79363442414359
 20
29.16732464469561
 30
0.0
 11
26.79213455921496
 21
29.15225970969562
 31
0.0
  0
LINE
  5
AF
330
2
100
AcDbEntity
  8
GAIKEI
  6
Continuous
 62
     1
370
     9
100
AcDbLine
 10
30.96005471440998
 20
2.109557224134221
 30
0.0
 11
30.96075915077057
 21
2.11077045356626
 31
0.0
  0
LINE
  5
B0
330
2
100
AcDbEntity
  8
GAIKEI
  6
Continuous
 62
     7
370
     9
100
AcDbLine
 10
31.04163535475095
 20
2.206369718954988
 30
0.0
 11
31.04157650107152
 21
2.206395831509041
 31
0.0
  0
LINE
  5
B1
330
2
100
AcDbEntity
  8
GAIKEI
  6
Continuous
 62
     1
370
     9
100
AcDbLine
 10
31.04081963873716
 20
8.805469887913204
 30
0.0
 11
31.04194609414355
 21
8.80536804895263
 31
0.0
  0
LINE
  5
B2
330
2
100
AcDbEntity
  8
GAIKEI
  6
Continuous
 62
     1
370
     9
100
AcDbLine
 10
30.96075774470995
 20
2.11076643625023
 30
0.0
 11
30.96005471440998
 21
2.109557224134221
 31
0.0
  0
LINE
  5
B3
330
2
100
AcDbEntity
  8
GAIKEI
  6
Continuous
 62
     1
370
     9
100
AcDbLine
 10
31.04194609414355
 20
2.832992074695653
 30
0.0
 11
31.04194609414355
 21
2.618128137959445
 31
0.0
  0
LINE
  5
B4
330
2
100
AcDbEntity
  8
GAIKEI
  6
Continuous
 62
     7
370
     9
100
AcDbLine
 10
28.86055756674955
 20
1.703980851856385
 30
0.0
 11
28.86504972950081
 21
1.707259383444011
 31
0.0
  0
LINE
  5
B5
330
2
100
AcDbEntity
  8
GAIKEI
  6
Continuous
 62
     1
370
     9
100
AcDbLine
 10
28.8364153053817
 20
1.677099785305586
 30
0.0
 11
28.83897775039236
 21
1.681059251955218
 31
0.0
  0
LINE
  5
B6
330
2
100
AcDbEntity
  8
GAIKEI
  6
Continuous
 62
     1
370
     9
100
AcDbLine
 10
28.50006150596573
 20
1.221044029695633
 30
0.0
 11
28.33283771447873
 21
1.221044029695633
 31
0.0
  0
LINE
  5
B7
330
2
100
AcDbEntity
  8
GAIKEI
  6
Continuous
 62
     7
370
     9
100
AcDbLine
 10
28.33283771447873
 20
1.221044029695633
 30
0.0
 11
28.14947857414359
 21
1.221044029695633
 31
0.0
  0
LINE
  5
B8
330
2
100
AcDbEntity
  8
GAIKEI
  6
Continuous
 62
     1
370
     9
100
AcDbLine
 10
31.04194609414355
 20
2.832992074695653
 30
0.0
 11
31.04194609414355
 21
2.618128137959445
 31
0.0
  0
LINE
  5
B9
330
2
100
AcDbEntity
  8
GAIKEI
  6
Continuous
 62
     1
370
     9
100
AcDbLine
 10
30.98493174287415
 20
27.24855409019563
 30
0.0
 11
30.96655613775857
 21
27.24855409019563
 31
0.0
  0
LINE
  5
BA
330
2
100
AcDbEntity
  8
GAIKEI
  6
Continuous
 62
     1
370
     9
100
AcDbLine
 10
31.05701102914355
 20
26.94725539019567
 30
0.0
 11
31.04194609414355
 21
26.94658168630247
 31
0.0
  0
LINE
  5
BB
330
2
100
AcDbEntity
  8
GAIKEI
  6
Continuous
 62
     1
370
     9
100
AcDbLine
 10
31.05701102914355
 20
26.94725539019567
 30
0.0
 11
31.05701102914355
 21
27.01426924272062
 31
0.0
  0
LINE
  5
BC
330
2
100
AcDbEntity
  8
GAIKEI
  6
Continuous
 62
     1
370
     9
100
AcDbLine
 10
31.05566904473369
 20
27.04768829019565
 30
0.0
 11
31.04050910021039
 21
27.04821757157868
 31
0.0
  0
LINE
  5
BD
330
2
100
AcDbEntity
  8
GAIKEI
  6
Continuous
 62
     1
370
     9
100
AcDbLine
 10
29.24189084302799
 20
28.63568168248509
 30
0.0
 11
28.98479447011016
 21
28.836547482485
 31
0.0
  0
LINE
  5
BE
330
2
100
AcDbEntity
  8
GAIKEI
  6
Continuous
 62
     1
370
     9
100
AcDbLine
 10
28.98479447011016
 20
28.836547482485
 30
0.0
 11
28.96032479748834
 21
28.836547482485
 31
0.0
  0
LINE
  5
BF
330
2
100
AcDbEntity
  8
GAIKEI
  6
Continuous
 62
     1
370
     9
100
AcDbLine
 10
29.24189084302799
 20
28.63568168248509
 30
0.0
 11
29.37043912991976
 21
28.53524878248504
 31
0.0
  0
LINE
  5
C0
330
2
100
AcDbEntity
  8
GAIKEI
  6
Continuous
 62
     1
370
     9
100
AcDbLine
 10
29.24189084302799
 20
28.63568168248509
 30
0.0
 11
29.21742137127194
 21
28.63568168248509
 31
0.0
  0
LINE
  5
C1
330
2
100
AcDbEntity
  8
GAIKEI
  6
Continuous
 62
     1
370
     9
100
AcDbLine
 10
29.36116435247061
 20
28.52337741283924
 30
0.0
 11
29.37043912991976
 21
28.53524878248504
 31
0.0
  0
LINE
  5
C2
330
2
100
AcDbEntity
  8
GAIKEI
  6
Continuous
 62
     1
370
     9
100
AcDbLine
 10
31.05701102914355
 20
6.18812845503902
 30
0.0
 11
31.04194609414355
 21
6.188654522569208
 31
0.0
  0
LINE
  5
C3
330
2
100
AcDbEntity
  8
GAIKEI
  6
Continuous
 62
     1
370
     9
100
AcDbLine
 10
31.05701102914355
 20
6.18812845503902
 30
0.0
 11
31.05701102914355
 21
6.176139177168579
 31
0.0
  0
LINE
  5
C4
330
2
100
AcDbEntity
  8
GAIKEI
  6
Continuous
 62
     1
370
     9
100
AcDbLine
 10
31.05701102914355
 20
4.019368762222597
 30
0.0
 11
31.05701102914355
 21
4.007379484352213
 31
0.0
  0
LINE
  5
C5
330
2
100
AcDbEntity
  8
GAIKEI
  6
Continuous
 62
     1
370
     9
100
AcDbLine
 10
31.04194609414355
 20
4.006853416822025
 30
0.0
 11
31.05701102914355
 21
4.007379484352213
 31
0.0
  0
LINE
  5
C6
330
2
100
AcDbEntity
  8
GAIKEI
  6
Continuous
 62
     1
370
     9
100
AcDbLine
 10
31.05701102914355
 20
4.519738727165417
 30
0.0
 11
31.05701102914355
 21
4.495156569695609
 31
0.0
  0
LINE
  5
C7
330
2
100
AcDbEntity
  8
GAIKEI
  6
Continuous
 62
     1
370
     9
100
AcDbLine
 10
31.05701102914355
 20
4.519738727165417
 30
0.0
 11
31.04194609414355
 21
4.520264794695663
 31
0.0
  0
LINE
  5
C8
330
2
100
AcDbEntity
  8
GAIKEI
  6
Continuous
 62
     1
370
     9
100
AcDbLine
 10
31.05701102914355
 20
5.700351369695624
 30
0.0
 11
31.05701102914355
 21
5.675769212225873
 31
0.0
  0
LINE
  5
C9
330
2
100
AcDbEntity
  8
GAIKEI
  6
Continuous
 62
     1
370
     9
100
AcDbLine
 10
31.05701102914355
 20
5.675769212225873
 30
0.0
 11
31.04194609414355
 21
5.675243144695627
 31
0.0
  0
LINE
  5
CA
330
2
100
AcDbEntity
  8
GAIKEI
  6
Continuous
 62
     1
370
     9
100
AcDbLine
 10
31.05701102914355
 20
4.495156569695609
 30
0.0
 11
31.05701102914355
 21
4.26865647716545
 31
0.0
  0
LINE
  5
CB
330
2
100
AcDbEntity
  8
GAIKEI
  6
Continuous
 62
     1
370
     9
100
AcDbLine
 10
31.05701102914355
 20
4.495156569695609
 30
0.0
 11
31.04194609414355
 21
4.495156569695609
 31
0.0
  0
LINE
  5
CC
330
2
100
AcDbEntity
  8
GAIKEI
  6
Continuous
 62
     1
370
     9
100
AcDbLine
 10
31.05701102914355
 20
5.92685146222584
 30
0.0
 11
31.05701102914355
 21
5.700351369695624
 31
0.0
  0
LINE
  5
CD
330
2
100
AcDbEntity
  8
GAIKEI
  6
Continuous
 62
     1
370
     9
100
AcDbLine
 10
31.05701102914355
 20
5.700351369695624
 30
0.0
 11
31.04194609414355
 21
5.700351369695624
 31
0.0
  0
LINE
  5
CE
330
2
100
AcDbEntity
  8
GAIKEI
  6
Continuous
 62
     1
370
     9
100
AcDbLine
 10
31.05701102914355
 20
6.176139177168579
 30
0.0
 11
31.05701102914355
 21
5.964026499295016
 31
0.0
  0
LINE
  5
CF
330
2
100
AcDbEntity
  8
GAIKEI
  6
Continuous
 62
     1
370
     9
100
AcDbLine
 10
31.05701102914355
 20
6.176139177168579
 30
0.0
 11
31.04194609414355
 21
6.176408739072257
 31
0.0
  0
LINE
  5
D0
330
2
100
AcDbEntity
  8
GAIKEI
  6
Continuous
 62
     1
370
     9
100
AcDbLine
 10
31.05701102914355
 20
4.231481440096217
 30
0.0
 11
31.05701102914355
 21
4.019368762222597
 31
0.0
  0
LINE
  5
D1
330
2
100
AcDbEntity
  8
GAIKEI
  6
Continuous
 62
     1
370
     9
100
AcDbLine
 10
31.05701102914355
 20
4.019368762222597
 30
0.0
 11
31.04194609414355
 21
4.019099200319033
 31
0.0
  0
LINE
  5
D2
330
2
100
AcDbEntity
  8
GAIKEI
  6
Continuous
 62
     1
370
     9
100
AcDbLine
 10
31.05701102914355
 20
5.92685146222584
 30
0.0
 11
31.04194609414355
 21
5.926325394695595
 31
0.0
  0
LINE
  5
D3
330
2
100
AcDbEntity
  8
GAIKEI
  6
Continuous
 62
     1
370
     9
100
AcDbLine
 10
31.05701102914355
 20
5.964026499295016
 30
0.0
 11
31.05701102914355
 21
5.92685146222584
 31
0.0
  0
LINE
  5
D4
330
2
100
AcDbEntity
  8
GAIKEI
  6
Continuous
 62
     1
370
     9
100
AcDbLine
 10
31.05701102914355
 20
5.964026499295016
 30
0.0
 11
31.04194609414355
 21
5.964296061198638
 31
0.0
  0
LINE
  5
D5
330
2
100
AcDbEntity
  8
GAIKEI
  6
Continuous
 62
     1
370
     9
100
AcDbLine
 10
31.05701102914355
 20
4.231481440096217
 30
0.0
 11
31.04194609414355
 21
4.231211878192652
 31
0.0
  0
LINE
  5
D6
330
2
100
AcDbEntity
  8
GAIKEI
  6
Continuous
 62
     1
370
     9
100
AcDbLine
 10
31.05701102914355
 20
4.26865647716545
 30
0.0
 11
31.05701102914355
 21
4.231481440096217
 31
0.0
  0
LINE
  5
D7
330
2
100
AcDbEntity
  8
GAIKEI
  6
Continuous
 62
     1
370
     9
100
AcDbLine
 10
31.05701102914355
 20
4.26865647716545
 30
0.0
 11
31.04194609414355
 21
4.269182544695638
 31
0.0
  0
LINE
  5
D8
330
2
100
AcDbEntity
  8
GAIKEI
  6
Continuous
 62
     1
370
     9
100
AcDbLine
 10
31.05701102914355
 20
25.57684846969562
 30
0.0
 11
31.04194609414355
 21
25.57684846969562
 31
0.0
  0
LINE
  5
D9
330
2
100
AcDbEntity
  8
GAIKEI
  6
Continuous
 62
     1
370
     9
100
AcDbLine
 10
31.05701102914355
 20
5.599918469695637
 30
0.0
 11
31.04194609414355
 21
5.599918469695637
 31
0.0
  0
LINE
  5
DA
330
2
100
AcDbEntity
  8
GAIKEI
  6
Continuous
 62
     1
370
     9
100
AcDbLine
 10
31.04194609414355
 20
4.796455269695627
 30
0.0
 11
31.05701102914355
 21
4.796455269695627
 31
0.0
  0
LINE
  5
DB
330
2
100
AcDbEntity
  8
GAIKEI
  6
Continuous
 62
     1
370
     9
100
AcDbLine
 10
31.05701102914355
 20
25.17511686969561
 30
0.0
 11
31.05701102914355
 21
24.88637228219563
 31
0.0
  0
LINE
  5
DC
330
2
100
AcDbEntity
  8
GAIKEI
  6
Continuous
 62
     1
370
     9
100
AcDbLine
 10
31.06705431914361
 20
24.78342855969561
 30
0.0
 11
31.06705431914361
 21
25.17511686969561
 31
0.0
  0
LINE
  5
DD
330
2
100
AcDbEntity
  8
GAIKEI
  6
Continuous
 62
     1
370
     9
100
AcDbLine
 10
31.06705431914361
 20
25.17511686969561
 30
0.0
 11
31.06705431914361
 21
25.56680517969562
 31
0.0
  0
LINE
  5
DE
330
2
100
AcDbEntity
  8
GAIKEI
  6
Continuous
 62
     1
370
     9
100
AcDbLine
 10
31.05701102914355
 20
25.57684846969562
 30
0.0
 11
31.05701102914355
 21
25.17511686969561
 31
0.0
  0
LINE
  5
DF
330
2
100
AcDbEntity
  8
GAIKEI
  6
Continuous
 62
     1
370
     9
100
AcDbLine
 10
31.06705431914361
 20
4.806498559695626
 30
0.0
 11
31.06705431914361
 21
5.198186869695632
 31
0.0
  0
LINE
  5
E0
330
2
100
AcDbEntity
  8
GAIKEI
  6
Continuous
 62
     1
370
     9
100
AcDbLine
 10
31.06705431914361
 20
5.198186869695632
 30
0.0
 11
31.06705431914361
 21
5.589875179695582
 31
0.0
  0
LINE
  5
E1
330
2
100
AcDbEntity
  8
GAIKEI
  6
Continuous
 62
     1
370
     9
100
AcDbLine
 10
31.05701102914355
 20
5.599918469695637
 30
0.0
 11
31.05701102914355
 21
4.796455269695627
 31
0.0
  0
LINE
  5
E2
330
2
100
AcDbEntity
  8
GAIKEI
  6
Continuous
 62
     1
370
     9
100
AcDbLine
 10
31.05701102914355
 20
24.78593938219564
 30
0.0
 11
31.05701102914355
 21
24.58507358219561
 31
0.0
  0
LINE
  5
E3
330
2
100
AcDbEntity
  8
GAIKEI
  6
Continuous
 62
     1
370
     9
100
AcDbLine
 10
31.04194609414355
 20
24.58507358219561
 30
0.0
 11
31.05701102914355
 21
24.58507358219561
 31
0.0
  0
LINE
  5
E4
330
2
100
AcDbEntity
  8
GAIKEI
  6
Continuous
 62
     1
370
     9
100
AcDbLine
 10
31.05701102914355
 20
24.88637228219563
 30
0.0
 11
31.05701102914355
 21
24.78593938219564
 31
0.0
  0
LINE
  5
E5
330
2
100
AcDbEntity
  8
GAIKEI
  6
Continuous
 62
     1
370
     9
100
AcDbLine
 10
31.04194609414355
 20
24.78593938219564
 30
0.0
 11
31.05701102914355
 21
24.78593938219564
 31
0.0
  0
LINE
  5
E6
330
2
100
AcDbEntity
  8
GAIKEI
  6
Continuous
 62
     1
370
     9
100
AcDbLine
 10
31.04194609414355
 20
24.88637228219563
 30
0.0
 11
31.05701102914355
 21
24.88637228219563
 31
0.0
  0
LINE
  5
E7
330
2
100
AcDbEntity
  8
GAIKEI
  6
Continuous
 62
     1
370
     9
100
AcDbLine
 10
31.04194609414355
 20
2.832992074695653
 30
0.0
 11
31.04194609414355
 21
2.618128137959445
 31
0.0
  0
LINE
  5
E8
330
2
100
AcDbEntity
  8
GAIKEI
  6
Continuous
 62
     1
370
     9
100
AcDbLine
 10
27.34099372914352
 20
1.205979094695635
 30
0.0
 11
27.33949386421495
 21
1.221044029695633
 31
0.0
  0
LINE
  5
E9
330
2
100
AcDbEntity
  8
GAIKEI
  6
Continuous
 62
     1
370
     9
100
AcDbLine
 10
27.34099372914352
 20
1.205979094695635
 30
0.0
 11
27.46653485414356
 21
1.205979094695635
 31
0.0
  0
LINE
  5
EA
330
2
100
AcDbEntity
  8
GAIKEI
  6
Continuous
 62
     1
370
     9
100
AcDbLine
 10
27.46653485414356
 20
1.205979094695635
 30
0.0
 11
27.46653485414356
 21
1.221044029695633
 31
0.0
  0
LINE
  5
EB
330
2
100
AcDbEntity
  8
GAIKEI
  6
Continuous
 62
     1
370
     9
100
AcDbLine
 10
27.46653485414356
 20
1.205979094695635
 30
0.0
 11
27.59207597914354
 21
1.205979094695635
 31
0.0
  0
LINE
  5
EC
330
2
100
AcDbEntity
  8
GAIKEI
  6
Continuous
 62
     1
370
     9
100
AcDbLine
 10
27.59207597914354
 20
1.205979094695635
 30
0.0
 11
27.59357564320635
 21
1.221044029695633
 31
0.0
  0
LINE
  5
ED
330
2
100
AcDbEntity
  8
GAIKEI
  6
Continuous
 62
     1
370
     9
100
AcDbLine
 10
31.05701102914355
 20
6.680098212225857
 30
0.0
 11
31.05701102914355
 21
6.630855358758424
 31
0.0
  0
LINE
  5
EE
330
2
100
AcDbEntity
  8
GAIKEI
  6
Continuous
 62
     1
370
     9
100
AcDbLine
 10
31.04194609414355
 20
6.629355694695618
 30
0.0
 11
31.05701102914355
 21
6.630855358758424
 31
0.0
  0
LINE
  5
EF
330
2
100
AcDbEntity
  8
GAIKEI
  6
Continuous
 62
     1
370
     9
100
AcDbLine
 10
31.05701102914355
 20
6.878938079767067
 30
0.0
 11
31.05701102914355
 21
6.829695427165404
 31
0.0
  0
LINE
  5
F0
330
2
100
AcDbEntity
  8
GAIKEI
  6
Continuous
 62
     1
370
     9
100
AcDbLine
 10
31.04194609414355
 20
6.880437944695586
 30
0.0
 11
31.05701102914355
 21
6.878938079767067
 31
0.0
  0
LINE
  5
F1
330
2
100
AcDbEntity
  8
GAIKEI
  6
Continuous
 62
     1
370
     9
100
AcDbLine
 10
27.59207597914354
 20
29.16732464469561
 30
0.0
 11
27.59357564320635
 21
29.15225970969562
 31
0.0
  0
LINE
  5
F2
330
2
100
AcDbEntity
  8
GAIKEI
  6
Continuous
 62
     1
370
     9
100
AcDbLine
 10
27.46653485414356
 20
29.16732464469561
 30
0.0
 11
27.59207597914354
 21
29.16732464469561
 31
0.0
  0
LINE
  5
F3
330
2
100
AcDbEntity
  8
GAIKEI
  6
Continuous
 62
     1
370
     9
100
AcDbLine
 10
27.46653485414356
 20
29.16732464469561
 30
0.0
 11
27.46653485414356
 21
29.15225970969562
 31
0.0
  0
LINE
  5
F4
330
2
100
AcDbEntity
  8
GAIKEI
  6
Continuous
 62
     1
370
     9
100
AcDbLine
 10
27.34099372914352
 20
29.16732464469561
 30
0.0
 11
27.46653485414356
 21
29.16732464469561
 31
0.0
  0
LINE
  5
F5
330
2
100
AcDbEntity
  8
GAIKEI
  6
Continuous
 62
     1
370
     9
100
AcDbLine
 10
27.34099372914352
 20
29.16732464469561
 30
0.0
 11
27.33949386421495
 21
29.15225970969562
 31
0.0
  0
LINE
  5
F6
330
2
100
AcDbEntity
  8
GAIKEI
  6
Continuous
 62
     1
370
     9
100
AcDbLine
 10
31.04194609414355
 20
6.679572144695612
 30
0.0
 11
31.05701102914355
 21
6.680098212225857
 31
0.0
  0
LINE
  5
F7
330
2
100
AcDbEntity
  8
GAIKEI
  6
Continuous
 62
     1
370
     9
100
AcDbLine
 10
31.05701102914355
 20
6.829695427165404
 30
0.0
 11
31.05701102914355
 21
6.680098212225857
 31
0.0
  0
LINE
  5
F8
330
2
100
AcDbEntity
  8
GAIKEI
  6
Continuous
 62
     1
370
     9
100
AcDbLine
 10
31.04194609414355
 20
6.830221494695592
 30
0.0
 11
31.05701102914355
 21
6.829695427165404
 31
0.0
  0
LINE
  5
F9
330
2
100
AcDbEntity
  8
GAIKEI
  6
Continuous
 62
     7
370
     9
100
AcDbLine
 10
31.04163535475095
 20
2.206365902504842
 30
0.0
 11
31.04157650107152
 21
2.206392215924608
 31
0.0
  0
LINE
  5
FA
330
2
100
AcDbEntity
  8
GAIKEI
  6
Continuous
 62
     1
370
     9
100
AcDbLine
 10
30.96005471440998
 20
2.109557224134221
 30
0.0
 11
30.96076035596536
 21
2.110775676077025
 31
0.0
  0
LINE
  5
FB
330
2
100
AcDbEntity
  8
GAIKEI
  6
Continuous
 62
     7
370
     9
100
AcDbLine
 10
31.04194609414355
 20
26.84481383219566
 30
0.0
 11
31.04194609414355
 21
8.713338369695634
 31
0.0
  0
LINE
  5
FC
330
2
100
AcDbEntity
  8
GAIKEI
  6
Continuous
 62
     7
370
     9
100
AcDbLine
 10
30.84619273048514
 20
27.36314602043762
 30
0.0
 11
30.84633896078759
 21
27.36303172779742
 31
0.0
  0
LINE
  5
FD
330
2
100
AcDbEntity
  8
GAIKEI
  6
Continuous
 62
     7
370
     9
100
AcDbLine
 10
30.80151334712798
 20
27.39805328262486
 30
0.0
 11
30.84619273048514
 21
27.36314602043762
 31
0.0
  0
LINE
  5
FE
330
2
100
AcDbEntity
  8
GAIKEI
  6
Continuous
 62
     7
370
     9
100
AcDbLine
 10
28.78616752031701
 20
28.97261417627084
 30
0.0
 11
30.80151334712798
 21
27.39805328262486
 31
0.0
  0
LINE
  5
FF
330
2
100
AcDbEntity
  8
GAIKEI
  6
Continuous
 62
     1
370
     9
100
AcDbLine
 10
31.04158453570352
 20
2.35908155898943
 30
0.0
 11
30.9502663231101
 21
2.35908155898943
 31
0.0
  0
LINE
  5
100
330
2
100
AcDbEntity
  8
GAIKEI
  6
Continuous
 62
     1
370
     9
100
AcDbLine
 10
30.96076417241557
 20
2.110788330622426
 30
0.0
 11
30.96005471440998
 21
2.109557224134221
 31
0.0
  0
LINE
  5
101
330
2
100
AcDbEntity
  8
GAIKEI
  6
Continuous
 62
     1
370
     9
100
AcDbLine
 10
30.9502663231101
 20
8.721359342821244
 30
0.0
 11
31.04194609414355
 21
8.713338369695634
 31
0.0
  0
LINE
  5
102
330
2
100
AcDbEntity
  8
GAIKEI
  6
Continuous
 62
     1
370
     9
100
AcDbLine
 10
31.04186655128672
 20
2.35908155898943
 30
0.0
 11
31.04158453570352
 21
2.35908155898943
 31
0.0
  0
LINE
  5
103
330
2
100
AcDbEntity
  8
GAIKEI
  6
Continuous
 62
     1
370
     9
100
AcDbLine
 10
31.04194609414355
 20
2.35908155898943
 30
0.0
 11
31.04186655128672
 21
2.35908155898943
 31
0.0
  0
LINE
  5
104
330
2
100
AcDbEntity
  8
GAIKEI
  6
Continuous
 62
     7
370
     9
100
AcDbLine
 10
31.04194609414355
 20
8.713338369695634
 30
0.0
 11
31.04194609414355
 21
2.35908155898943
 31
0.0
  0
LINE
  5
105
330
2
100
AcDbEntity
  8
GAIKEI
  6
Continuous
 62
     1
370
     9
100
AcDbLine
 10
30.58090866582773
 20
8.753673829262027
 30
0.0
 11
30.66336749144637
 21
8.746459734055065
 31
0.0
  0
LINE
  5
106
330
2
100
AcDbEntity
  8
GAIKEI
  6
Continuous
 62
     1
370
     9
100
AcDbLine
 10
30.58090866582773
 20
4.690199270153641
 30
0.0
 11
30.66336749144637
 21
4.690199270153641
 31
0.0
  0
LINE
  5
107
330
2
100
AcDbEntity
  8
GAIKEI
  6
Continuous
 62
     1
370
     9
100
AcDbLine
 10
30.44866043089996
 20
4.30082634023023
 30
0.0
 11
30.44860238068372
 21
4.30126282161359
 31
0.0
  0
LINE
  5
108
330
2
100
AcDbEntity
  8
GAIKEI
  6
Continuous
 62
     1
370
     9
100
AcDbLine
 10
30.9502663231101
 20
8.721359342821244
 30
0.0
 11
30.66336749144637
 21
8.746459734055065
 31
0.0
  0
LINE
  5
109
330
2
100
AcDbEntity
  8
GAIKEI
  6
Continuous
 62
     1
370
     9
100
AcDbLine
 10
30.66336749144637
 20
4.690199270153641
 30
0.0
 11
30.66336749144637
 21
8.746459734055065
 31
0.0
  0
LINE
  5
10A
330
2
100
AcDbEntity
  8
GAIKEI
  6
Continuous
 62
     1
370
     9
100
AcDbLine
 10
30.9502663231101
 20
8.721359342821244
 30
0.0
 11
30.9502663231101
 21
2.35908155898943
 31
0.0
  0
LINE
  5
10B
330
2
100
AcDbEntity
  8
GAIKEI
  6
Continuous
 62
     1
370
     9
100
AcDbLine
 10
29.15763949101017
 20
2.022344306761226
 30
0.0
 11
30.9502663231101
 21
2.35908155898943
 31
0.0
  0
LINE
  5
10C
330
2
100
AcDbEntity
  8
GAIKEI
  6
Continuous
 62
     7
370
     9
100
AcDbLine
 10
28.90344723582871
 20
1.723233236189003
 30
0.0
 11
30.96005471440998
 21
2.109557224134221
 31
0.0
  0
LINE
  5
10D
330
2
100
AcDbEntity
  8
GAIKEI
  6
Continuous
 62
     1
370
     9
100
AcDbLine
 10
29.15763949101017
 20
2.022344306761226
 30
0.0
 11
30.52542872840451
 21
4.248700058203837
 31
0.0
  0
LINE
  5
10E
330
2
100
AcDbEntity
  8
GAIKEI
  6
Continuous
 62
     1
370
     9
100
AcDbLine
 10
28.90381964102198
 20
1.724386406746816
 30
0.0
 11
28.90412676483015
 21
1.724866074277201
 31
0.0
  0
LINE
  5
10F
330
2
100
AcDbEntity
  8
GAIKEI
  6
Continuous
 62
     1
370
     9
100
AcDbLine
 10
31.04194609414355
 20
25.26299565719563
 30
0.0
 11
31.04194609414355
 21
25.03702163219566
 31
0.0
  0
LINE
  5
110
330
2
100
AcDbEntity
  8
GAIKEI
  6
Continuous
 62
     1
370
     9
100
AcDbLine
 10
30.25030203868141
 20
3.978488956338196
 30
0.0
 11
30.4486037867444
 21
4.301265432869058
 31
0.0
  0
LINE
  5
111
330
2
100
AcDbEntity
  8
GAIKEI
  6
Continuous
 62
     1
370
     9
100
AcDbLine
 10
30.44860499193914
 20
4.301264227674209
 30
0.0
 11
30.44954122743297
 21
4.302789803425184
 31
0.0
  0
LINE
  5
112
330
2
100
AcDbEntity
  8
GAIKEI
  6
Continuous
 62
     1
370
     9
100
AcDbLine
 10
30.58090866582773
 20
4.690196859764
 30
0.0
 11
30.58090866582773
 21
8.753673829262027
 31
0.0
  0
LINE
  5
113
330
2
100
AcDbEntity
  8
GAIKEI
  6
Continuous
 62
     7
370
     9
100
AcDbLine
 10
31.04194609414355
 20
27.01426924272062
 30
0.0
 11
31.04194609414355
 21
26.84481383219566
 31
0.0
  0
LINE
  5
114
330
2
100
AcDbEntity
  8
GAIKEI
  6
Continuous
 62
     7
370
     9
100
AcDbLine
 10
30.79582462680617
 20
27.40249784018147
 30
0.0
 11
30.15533871441539
 21
27.90290054624967
 31
0.0
  0
LINE
  5
115
330
2
100
AcDbEntity
  8
GAIKEI
  6
Continuous
 62
     7
370
     9
100
AcDbLine
 10
30.88754517359689
 20
27.33083816256823
 30
0.0
 11
30.84633896078759
 21
27.36303172779742
 31
0.0
  0
LINE
  5
116
330
2
100
AcDbEntity
  8
GAIKEI
  6
Continuous
 62
     7
370
     9
100
AcDbLine
 10
30.84633896078759
 20
27.36303172779742
 30
0.0
 11
30.83868155475995
 21
27.36410796675386
 31
0.0
  0
LINE
  5
117
330
2
100
AcDbEntity
  8
GAIKEI
  6
Continuous
 62
     1
370
     9
100
AcDbLine
 10
31.04117336341096
 20
27.0148326712897
 30
0.0
 11
31.04194609414355
 21
27.01426924272062
 31
0.0
  0
LINE
  5
118
330
2
100
AcDbEntity
  8
GAIKEI
  6
Continuous
 62
     1
370
     9
100
AcDbLine
 10
27.0447166741435
 20
29.16732464469561
 30
0.0
 11
27.04621633820636
 21
29.15225970969562
 31
0.0
  0
LINE
  5
119
330
2
100
AcDbEntity
  8
GAIKEI
  6
Continuous
 62
     1
370
     9
100
AcDbLine
 10
26.91917554914358
 20
29.16732464469561
 30
0.0
 11
27.0447166741435
 21
29.16732464469561
 31
0.0
  0
LINE
  5
11A
330
2
100
AcDbEntity
  8
GAIKEI
  6
Continuous
 62
     1
370
     9
100
AcDbLine
 10
26.91917554914358
 20
29.16732464469561
 30
0.0
 11
26.91917554914358
 21
29.15225970969562
 31
0.0
  0
LINE
  5
11B
330
2
100
AcDbEntity
  8
GAIKEI
  6
Continuous
 62
     1
370
     9
100
AcDbLine
 10
26.79363442414359
 20
29.16732464469561
 30
0.0
 11
26.91917554914358
 21
29.16732464469561
 31
0.0
  0
LINE
  5
11C
330
2
100
AcDbEntity
  8
GAIKEI
  6
Continuous
 62
     1
370
     9
100
AcDbLine
 10
26.79363442414359
 20
29.16732464469561
 30
0.0
 11
26.79279219384421
 21
29.15225970969562
 31
0.0
  0
LINE
  5
11D
330
2
100
AcDbEntity
  8
GAIKEI
  6
Continuous
 62
     1
370
     9
100
AcDbLine
 10
28.50006150596573
 20
1.221044029695633
 30
0.0
 11
28.50003037176668
 21
1.221044029695633
 31
0.0
  0
LINE
  5
11E
330
2
100
AcDbEntity
  8
GAIKEI
  6
Continuous
 62
     7
370
     9
100
AcDbLine
 10
28.51632540892592
 20
1.222369543109834
 30
0.0
 11
28.52068017946994
 21
1.223183250465638
 31
0.0
  0
LINE
  5
11F
330
2
100
AcDbEntity
  8
GAIKEI
  6
Continuous
 62
     7
370
     9
100
AcDbLine
 10
28.52164995955241
 20
29.15225970969562
 30
0.0
 11
28.52004403748134
 21
29.15225970969562
 31
0.0
  0
LINE
  5
120
330
2
100
AcDbEntity
  8
GAIKEI
  6
Continuous
 62
     7
370
     9
100
AcDbLine
 10
28.52189421236517
 20
29.15211126986946
 30
0.0
 11
28.50783400809678
 21
29.15211126986946
 31
0.0
  0
LINE
  5
121
330
2
100
AcDbEntity
  8
GAIKEI
  6
Continuous
 62
     7
370
     9
100
AcDbLine
 10
28.53273313179898
 20
29.15091471229886
 30
0.0
 11
28.53206183829536
 21
29.15143294606287
 31
0.0
  0
LINE
  5
122
330
2
100
AcDbEntity
  8
GAIKEI
  6
Continuous
 62
     7
370
     9
100
AcDbLine
 10
28.52720691190933
 20
29.15210584649287
 30
0.0
 11
28.52164995955241
 21
29.15225970969562
 31
0.0
  0
LINE
  5
123
330
2
100
AcDbEntity
  8
GAIKEI
  6
Continuous
 62
     7
370
     9
100
AcDbLine
 10
28.50799791458951
 20
29.15210182917684
 30
0.0
 11
28.50483648776338
 21
29.15222475904648
 31
0.0
  0
LINE
  5
124
330
2
100
AcDbEntity
  8
GAIKEI
  6
Continuous
 62
     1
370
     9
100
AcDbLine
 10
28.58587559390759
 20
28.88341730739126
 30
0.0
 11
30.24606798848316
 21
27.58633283159685
 31
0.0
  0
LINE
  5
125
330
2
100
AcDbEntity
  8
GAIKEI
  6
Continuous
 62
     7
370
     9
100
AcDbLine
 10
28.58348267963214
 20
29.13096914009043
 30
0.0
 11
30.15533871441539
 21
27.90290054624967
 31
0.0
  0
LINE
  5
126
330
2
100
AcDbEntity
  8
GAIKEI
  6
Continuous
 62
     1
370
     9
100
AcDbLine
 10
30.25030203868141
 20
3.978488956338196
 30
0.0
 11
28.83529005891507
 21
1.675268324849469
 31
0.0
  0
LINE
  5
127
330
2
100
AcDbEntity
  8
GAIKEI
  6
Continuous
 62
     1
370
     9
100
AcDbLine
 10
30.24606939454378
 20
4.188781589198015
 30
0.0
 11
28.58587559390759
 21
1.486477538508211
 31
0.0
  0
LINE
  5
128
330
2
100
AcDbEntity
  8
GAIKEI
  6
Continuous
 62
     1
370
     9
100
AcDbLine
 10
28.58587559390759
 20
28.88341730739126
 30
0.0
 11
28.58587559390759
 21
1.486477538508211
 31
0.0
  0
LINE
  5
129
330
2
100
AcDbEntity
  8
GAIKEI
  6
Continuous
 62
     1
370
     9
100
AcDbLine
 10
28.58587559390759
 20
28.88341730739126
 30
0.0
 11
28.50136010336269
 21
28.88341730739126
 31
0.0
  0
LINE
  5
12A
330
2
100
AcDbEntity
  8
GAIKEI
  6
Continuous
 62
     1
370
     9
100
AcDbLine
 10
28.58587559390759
 20
1.486477538508211
 30
0.0
 11
28.50136010336269
 21
1.486477538508211
 31
0.0
  0
LINE
  5
12B
330
2
100
AcDbEntity
  8
GAIKEI
  6
Continuous
 62
     7
370
     9
100
AcDbLine
 10
28.50480434923543
 20
29.15222576337544
 30
0.0
 11
28.50221840292625
 21
29.15222335298586
 31
0.0
  0
LINE
  5
12C
330
2
100
AcDbEntity
  8
GAIKEI
  6
Continuous
 62
     7
370
     9
100
AcDbLine
 10
26.49735736914357
 20
1.221044029695633
 30
0.0
 11
28.50003037176668
 21
1.221044029695633
 31
0.0
  0
LINE
  5
12D
330
2
100
AcDbEntity
  8
GAIKEI
  6
Continuous
 62
     1
370
     9
100
AcDbLine
 10
26.49735736914357
 20
1.472126279695658
 30
0.0
 11
28.50112729990059
 21
1.472124672769211
 31
0.0
  0
LINE
  5
12E
330
2
100
AcDbEntity
  8
GAIKEI
  6
Continuous
 62
     1
370
     9
100
AcDbLine
 10
28.50136010336269
 20
28.88341730739126
 30
0.0
 11
28.50136010336269
 21
1.486477538508211
 31
0.0
  0
LINE
  5
12F
330
2
100
AcDbEntity
  8
GAIKEI
  6
Continuous
 62
     7
370
     9
100
AcDbLine
 10
28.50271032327038
 20
29.15225970969562
 30
0.0
 11
26.49735736914357
 21
29.15225970969562
 31
0.0
  0
LINE
  5
130
330
2
100
AcDbEntity
  8
GAIKEI
  6
Continuous
 62
     1
370
     9
100
AcDbLine
 10
28.50083885661178
 20
28.90117745969565
 30
0.0
 11
26.49735736914357
 21
28.90117745969565
 31
0.0
  0
LINE
  5
131
330
2
100
AcDbEntity
  8
GAIKEI
  6
Continuous
 62
     1
370
     9
100
AcDbLine
 10
27.59357564320635
 20
17.54169040216544
 30
0.0
 11
27.46653485414356
 21
17.64332307358882
 31
0.0
  0
LINE
  5
132
330
2
100
AcDbEntity
  8
GAIKEI
  6
Continuous
 62
     1
370
     9
100
AcDbLine
 10
27.5423855966738
 20
26.37978560216544
 30
0.0
 11
27.5423855966738
 21
26.58065140216547
 31
0.0
  0
LINE
  5
133
330
2
100
AcDbEntity
  8
GAIKEI
  6
Continuous
 62
     1
370
     9
100
AcDbLine
 10
27.5423855966738
 20
12.8316133372258
 30
0.0
 11
27.5423855966738
 21
13.03247913722583
 31
0.0
  0
LINE
  5
134
330
2
100
AcDbEntity
  8
GAIKEI
  6
Continuous
 62
     1
370
     9
100
AcDbLine
 10
27.5423855966738
 20
26.58065140216547
 30
0.0
 11
27.54185952914355
 21
26.58117746969561
 31
0.0
  0
LINE
  5
135
330
2
100
AcDbEntity
  8
GAIKEI
  6
Continuous
 62
     1
370
     9
100
AcDbLine
 10
27.5423855966738
 20
26.58065140216547
 30
0.0
 11
27.59357564320635
 21
26.58065140216547
 31
0.0
  0
LINE
  5
136
330
2
100
AcDbEntity
  8
GAIKEI
  6
Continuous
 62
     1
370
     9
100
AcDbLine
 10
27.59357564320635
 20
3.792652337225831
 30
0.0
 11
27.5423855966738
 21
3.792652337225831
 31
0.0
  0
LINE
  5
137
330
2
100
AcDbEntity
  8
GAIKEI
  6
Continuous
 62
     1
370
     9
100
AcDbLine
 10
27.59357564320635
 20
3.792652337225831
 30
0.0
 11
27.59207597914354
 21
3.792126269695586
 31
0.0
  0
LINE
  5
138
330
2
100
AcDbEntity
  8
GAIKEI
  6
Continuous
 62
     1
370
     9
100
AcDbLine
 10
27.46653485414356
 20
3.6910196658024
 30
0.0
 11
27.59357564320635
 21
3.792652337225831
 31
0.0
  0
LINE
  5
139
330
2
100
AcDbEntity
  8
GAIKEI
  6
Continuous
 62
     1
370
     9
100
AcDbLine
 10
27.5423855966738
 20
12.8316133372258
 30
0.0
 11
27.54185952914355
 21
12.83108726969561
 31
0.0
  0
LINE
  5
13A
330
2
100
AcDbEntity
  8
GAIKEI
  6
Continuous
 62
     1
370
     9
100
AcDbLine
 10
27.59357564320635
 20
12.8316133372258
 30
0.0
 11
27.5423855966738
 21
12.8316133372258
 31
0.0
  0
LINE
  5
13B
330
2
100
AcDbEntity
  8
GAIKEI
  6
Continuous
 62
     1
370
     9
100
AcDbLine
 10
27.39068411161338
 20
17.34082460216541
 30
0.0
 11
27.5423855966738
 21
17.34082460216541
 31
0.0
  0
LINE
  5
13C
330
2
100
AcDbEntity
  8
GAIKEI
  6
Continuous
 62
     1
370
     9
100
AcDbLine
 10
27.59357564320635
 20
26.58065140216547
 30
0.0
 11
27.59207597914354
 21
26.58117746969561
 31
0.0
  0
LINE
  5
13D
330
2
100
AcDbEntity
  8
GAIKEI
  6
Continuous
 62
     1
370
     9
100
AcDbLine
 10
27.59357564320635
 20
26.58065140216547
 30
0.0
 11
27.46653485414356
 21
26.68228407358885
 31
0.0
  0
LINE
  5
13E
330
2
100
AcDbEntity
  8
GAIKEI
  6
Continuous
 62
     1
370
     9
100
AcDbLine
 10
27.59357564320635
 20
17.54169040216544
 30
0.0
 11
27.59207597914354
 21
17.54221646969563
 31
0.0
  0
LINE
  5
13F
330
2
100
AcDbEntity
  8
GAIKEI
  6
Continuous
 62
     1
370
     9
100
AcDbLine
 10
27.5423855966738
 20
17.54169040216544
 30
0.0
 11
27.59357564320635
 21
17.54169040216544
 31
0.0
  0
LINE
  5
140
330
2
100
AcDbEntity
  8
GAIKEI
  6
Continuous
 62
     1
370
     9
100
AcDbLine
 10
27.33949386421495
 20
12.8316133372258
 30
0.0
 11
27.46653485414356
 21
12.72998066580243
 31
0.0
  0
LINE
  5
141
330
2
100
AcDbEntity
  8
GAIKEI
  6
Continuous
 62
     1
370
     9
100
AcDbLine
 10
27.33949386421495
 20
17.54169040216544
 30
0.0
 11
27.39068411161338
 21
17.54169040216544
 31
0.0
  0
LINE
  5
142
330
2
100
AcDbEntity
  8
GAIKEI
  6
Continuous
 62
     1
370
     9
100
AcDbLine
 10
27.33949386421495
 20
17.54169040216544
 30
0.0
 11
27.34099372914352
 21
17.54221646969563
 31
0.0
  0
LINE
  5
143
330
2
100
AcDbEntity
  8
GAIKEI
  6
Continuous
 62
     1
370
     9
100
AcDbLine
 10
27.46653485414356
 20
17.64332307358882
 30
0.0
 11
27.46653485414356
 21
17.64264936969562
 31
0.0
  0
LINE
  5
144
330
2
100
AcDbEntity
  8
GAIKEI
  6
Continuous
 62
     1
370
     9
100
AcDbLine
 10
27.46653485414356
 20
17.64332307358882
 30
0.0
 11
27.33949386421495
 21
17.54169040216544
 31
0.0
  0
LINE
  5
145
330
2
100
AcDbEntity
  8
GAIKEI
  6
Continuous
 62
     1
370
     9
100
AcDbLine
 10
27.39068411161338
 20
3.993518137225805
 30
0.0
 11
27.39068411161338
 21
3.792652337225831
 31
0.0
  0
LINE
  5
146
330
2
100
AcDbEntity
  8
GAIKEI
  6
Continuous
 62
     1
370
     9
100
AcDbLine
 10
27.39068411161338
 20
17.34082460216541
 30
0.0
 11
27.39121017914352
 21
17.34135066969566
 31
0.0
  0
LINE
  5
147
330
2
100
AcDbEntity
  8
GAIKEI
  6
Continuous
 62
     1
370
     9
100
AcDbLine
 10
27.39068411161338
 20
17.54169040216544
 30
0.0
 11
27.39121017914352
 21
17.54221646969563
 31
0.0
  0
LINE
  5
148
330
2
100
AcDbEntity
  8
GAIKEI
  6
Continuous
 62
     1
370
     9
100
AcDbLine
 10
27.39068411161338
 20
17.54169040216544
 30
0.0
 11
27.39068411161338
 21
17.34082460216541
 31
0.0
  0
LINE
  5
149
330
2
100
AcDbEntity
  8
GAIKEI
  6
Continuous
 62
     1
370
     9
100
AcDbLine
 10
27.59357564320635
 20
12.8316133372258
 30
0.0
 11
27.59207597914354
 21
12.83108726969561
 31
0.0
  0
LINE
  5
14A
330
2
100
AcDbEntity
  8
GAIKEI
  6
Continuous
 62
     1
370
     9
100
AcDbLine
 10
27.46653485414356
 20
12.72998066580243
 30
0.0
 11
27.46653485414356
 21
12.73065436969563
 31
0.0
  0
LINE
  5
14B
330
2
100
AcDbEntity
  8
GAIKEI
  6
Continuous
 62
     1
370
     9
100
AcDbLine
 10
27.46653485414356
 20
12.72998066580243
 30
0.0
 11
27.59357564320635
 21
12.8316133372258
 31
0.0
  0
LINE
  5
14C
330
2
100
AcDbEntity
  8
GAIKEI
  6
Continuous
 62
     1
370
     9
100
AcDbLine
 10
27.54185952914355
 20
17.54221646969563
 30
0.0
 11
27.59207597914354
 21
17.54221646969563
 31
0.0
  0
LINE
  5
14D
330
2
100
AcDbEntity
  8
GAIKEI
  6
Continuous
 62
     1
370
     9
100
AcDbLine
 10
27.59207597914354
 20
17.54221646969563
 30
0.0
 11
27.46653485414356
 21
17.64264936969562
 31
0.0
  0
LINE
  5
14E
330
2
100
AcDbEntity
  8
GAIKEI
  6
Continuous
 62
     1
370
     9
100
AcDbLine
 10
27.46653485414356
 20
17.64264936969562
 30
0.0
 11
27.34099372914352
 21
17.54221646969563
 31
0.0
  0
LINE
  5
14F
330
2
100
AcDbEntity
  8
GAIKEI
  6
Continuous
 62
     1
370
     9
100
AcDbLine
 10
27.34099372914352
 20
17.54221646969563
 30
0.0
 11
27.39121017914352
 21
17.54221646969563
 31
0.0
  0
LINE
  5
150
330
2
100
AcDbEntity
  8
GAIKEI
  6
Continuous
 62
     1
370
     9
100
AcDbLine
 10
27.39121017914352
 20
17.54221646969563
 30
0.0
 11
27.39121017914352
 21
17.34135066969566
 31
0.0
  0
LINE
  5
151
330
2
100
AcDbEntity
  8
GAIKEI
  6
Continuous
 62
     1
370
     9
100
AcDbLine
 10
27.39121017914352
 20
17.34135066969566
 30
0.0
 11
27.54185952914355
 21
17.34135066969566
 31
0.0
  0
LINE
  5
152
330
2
100
AcDbEntity
  8
GAIKEI
  6
Continuous
 62
     1
370
     9
100
AcDbLine
 10
27.54185952914355
 20
26.58117746969561
 30
0.0
 11
27.59207597914354
 21
26.58117746969561
 31
0.0
  0
LINE
  5
153
330
2
100
AcDbEntity
  8
GAIKEI
  6
Continuous
 62
     1
370
     9
100
AcDbLine
 10
27.59207597914354
 20
26.58117746969561
 30
0.0
 11
27.46653485414356
 21
26.68161036969559
 31
0.0
  0
LINE
  5
154
330
2
100
AcDbEntity
  8
GAIKEI
  6
Continuous
 62
     1
370
     9
100
AcDbLine
 10
27.54185952914355
 20
26.38031166969563
 30
0.0
 11
27.54185952914355
 21
26.58117746969561
 31
0.0
  0
LINE
  5
155
330
2
100
AcDbEntity
  8
GAIKEI
  6
Continuous
 62
     1
370
     9
100
AcDbLine
 10
27.34099372914352
 20
12.83108726969561
 30
0.0
 11
27.46653485414356
 21
12.73065436969563
 31
0.0
  0
LINE
  5
156
330
2
100
AcDbEntity
  8
GAIKEI
  6
Continuous
 62
     1
370
     9
100
AcDbLine
 10
27.46653485414356
 20
12.73065436969563
 30
0.0
 11
27.59207597914354
 21
12.83108726969561
 31
0.0
  0
LINE
  5
157
330
2
100
AcDbEntity
  8
GAIKEI
  6
Continuous
 62
     1
370
     9
100
AcDbLine
 10
27.59207597914354
 20
12.83108726969561
 30
0.0
 11
27.54185952914355
 21
12.83108726969561
 31
0.0
  0
LINE
  5
158
330
2
100
AcDbEntity
  8
GAIKEI
  6
Continuous
 62
     1
370
     9
100
AcDbLine
 10
27.54185952914355
 20
12.83108726969561
 30
0.0
 11
27.54185952914355
 21
13.03195306969564
 31
0.0
  0
LINE
  5
159
330
2
100
AcDbEntity
  8
GAIKEI
  6
Continuous
 62
     1
370
     9
100
AcDbLine
 10
27.39121017914352
 20
3.992992069695617
 30
0.0
 11
27.39121017914352
 21
3.792126269695586
 31
0.0
  0
LINE
  5
15A
330
2
100
AcDbEntity
  8
GAIKEI
  6
Continuous
 62
     1
370
     9
100
AcDbLine
 10
27.46653485414356
 20
3.691693369695599
 30
0.0
 11
27.59207597914354
 21
3.792126269695586
 31
0.0
  0
LINE
  5
15B
330
2
100
AcDbEntity
  8
GAIKEI
  6
Continuous
 62
     1
370
     9
100
AcDbLine
 10
27.59207597914354
 20
3.792126269695586
 30
0.0
 11
27.54185952914355
 21
3.792126269695586
 31
0.0
  0
LINE
  5
15C
330
2
100
AcDbEntity
  8
GAIKEI
  6
Continuous
 62
     1
370
     9
100
AcDbLine
 10
27.54185952914355
 20
3.792126269695586
 30
0.0
 11
27.54185952914355
 21
3.992992069695617
 31
0.0
  0
LINE
  5
15D
330
2
100
AcDbEntity
  8
GAIKEI
  6
Continuous
 62
     1
370
     9
100
AcDbLine
 10
27.5423855966738
 20
3.792652337225831
 30
0.0
 11
27.54185952914355
 21
3.792126269695586
 31
0.0
  0
LINE
  5
15E
330
2
100
AcDbEntity
  8
GAIKEI
  6
Continuous
 62
     1
370
     9
100
AcDbLine
 10
27.5423855966738
 20
3.792652337225831
 30
0.0
 11
27.5423855966738
 21
3.993518137225805
 31
0.0
  0
LINE
  5
15F
330
2
100
AcDbEntity
  8
GAIKEI
  6
Continuous
 62
     1
370
     9
100
AcDbLine
 10
27.5423855966738
 20
17.54169040216544
 30
0.0
 11
27.54185952914355
 21
17.54221646969563
 31
0.0
  0
LINE
  5
160
330
2
100
AcDbEntity
  8
GAIKEI
  6
Continuous
 62
     1
370
     9
100
AcDbLine
 10
27.54185952914355
 20
17.34135066969566
 30
0.0
 11
27.54185952914355
 21
17.54221646969563
 31
0.0
  0
LINE
  5
161
330
2
100
AcDbEntity
  8
GAIKEI
  6
Continuous
 62
     1
370
     9
100
AcDbLine
 10
27.5423855966738
 20
17.34082460216541
 30
0.0
 11
27.54185952914355
 21
17.34135066969566
 31
0.0
  0
LINE
  5
162
330
2
100
AcDbEntity
  8
GAIKEI
  6
Continuous
 62
     1
370
     9
100
AcDbLine
 10
27.5423855966738
 20
17.34082460216541
 30
0.0
 11
27.5423855966738
 21
17.54169040216544
 31
0.0
  0
LINE
  5
163
330
2
100
AcDbEntity
  8
GAIKEI
  6
Continuous
 62
     1
370
     9
100
AcDbLine
 10
27.33949386421495
 20
12.8316133372258
 30
0.0
 11
27.34099372914352
 21
12.83108726969561
 31
0.0
  0
LINE
  5
164
330
2
100
AcDbEntity
  8
GAIKEI
  6
Continuous
 62
     1
370
     9
100
AcDbLine
 10
27.39121017914352
 20
12.83108726969561
 30
0.0
 11
27.34099372914352
 21
12.83108726969561
 31
0.0
  0
LINE
  5
165
330
2
100
AcDbEntity
  8
GAIKEI
  6
Continuous
 62
     1
370
     9
100
AcDbLine
 10
27.39068411161338
 20
12.8316133372258
 30
0.0
 11
27.33949386421495
 21
12.8316133372258
 31
0.0
  0
LINE
  5
166
330
2
100
AcDbEntity
  8
GAIKEI
  6
Continuous
 62
     1
370
     9
100
AcDbLine
 10
27.39068411161338
 20
12.8316133372258
 30
0.0
 11
27.39121017914352
 21
12.83108726969561
 31
0.0
  0
LINE
  5
167
330
2
100
AcDbEntity
  8
GAIKEI
  6
Continuous
 62
     1
370
     9
100
AcDbLine
 10
27.39121017914352
 20
13.03195306969564
 30
0.0
 11
27.39121017914352
 21
12.83108726969561
 31
0.0
  0
LINE
  5
168
330
2
100
AcDbEntity
  8
GAIKEI
  6
Continuous
 62
     1
370
     9
100
AcDbLine
 10
27.39068411161338
 20
13.03247913722583
 30
0.0
 11
27.39068411161338
 21
12.8316133372258
 31
0.0
  0
LINE
  5
169
330
2
100
AcDbEntity
  8
GAIKEI
  6
Continuous
 62
     1
370
     9
100
AcDbLine
 10
27.39068411161338
 20
13.03247913722583
 30
0.0
 11
27.39121017914352
 21
13.03195306969564
 31
0.0
  0
LINE
  5
16A
330
2
100
AcDbEntity
  8
GAIKEI
  6
Continuous
 62
     1
370
     9
100
AcDbLine
 10
27.54185952914355
 20
13.03195306969564
 30
0.0
 11
27.39121017914352
 21
13.03195306969564
 31
0.0
  0
LINE
  5
16B
330
2
100
AcDbEntity
  8
GAIKEI
  6
Continuous
 62
     1
370
     9
100
AcDbLine
 10
27.5423855966738
 20
13.03247913722583
 30
0.0
 11
27.54185952914355
 21
13.03195306969564
 31
0.0
  0
LINE
  5
16C
330
2
100
AcDbEntity
  8
GAIKEI
  6
Continuous
 62
     1
370
     9
100
AcDbLine
 10
27.5423855966738
 20
13.03247913722583
 30
0.0
 11
27.39068411161338
 21
13.03247913722583
 31
0.0
  0
LINE
  5
16D
330
2
100
AcDbEntity
  8
GAIKEI
  6
Continuous
 62
     1
370
     9
100
AcDbLine
 10
27.34099372914352
 20
26.58117746969561
 30
0.0
 11
27.39121017914352
 21
26.58117746969561
 31
0.0
  0
LINE
  5
16E
330
2
100
AcDbEntity
  8
GAIKEI
  6
Continuous
 62
     1
370
     9
100
AcDbLine
 10
27.33949386421495
 20
26.58065140216547
 30
0.0
 11
27.39068411161338
 21
26.58065140216547
 31
0.0
  0
LINE
  5
16F
330
2
100
AcDbEntity
  8
GAIKEI
  6
Continuous
 62
     1
370
     9
100
AcDbLine
 10
27.39068411161338
 20
3.993518137225805
 30
0.0
 11
27.39121017914352
 21
3.992992069695617
 31
0.0
  0
LINE
  5
170
330
2
100
AcDbEntity
  8
GAIKEI
  6
Continuous
 62
     1
370
     9
100
AcDbLine
 10
27.54185952914355
 20
3.992992069695617
 30
0.0
 11
27.39121017914352
 21
3.992992069695617
 31
0.0
  0
LINE
  5
171
330
2
100
AcDbEntity
  8
GAIKEI
  6
Continuous
 62
     1
370
     9
100
AcDbLine
 10
27.5423855966738
 20
3.993518137225805
 30
0.0
 11
27.54185952914355
 21
3.992992069695617
 31
0.0
  0
LINE
  5
172
330
2
100
AcDbEntity
  8
GAIKEI
  6
Continuous
 62
     1
370
     9
100
AcDbLine
 10
27.5423855966738
 20
3.993518137225805
 30
0.0
 11
27.39068411161338
 21
3.993518137225805
 31
0.0
  0
LINE
  5
173
330
2
100
AcDbEntity
  8
GAIKEI
  6
Continuous
 62
     1
370
     9
100
AcDbLine
 10
27.39121017914352
 20
3.792126269695586
 30
0.0
 11
27.34099372914352
 21
3.792126269695586
 31
0.0
  0
LINE
  5
174
330
2
100
AcDbEntity
  8
GAIKEI
  6
Continuous
 62
     1
370
     9
100
AcDbLine
 10
27.39068411161338
 20
3.792652337225831
 30
0.0
 11
27.39121017914352
 21
3.792126269695586
 31
0.0
  0
LINE
  5
175
330
2
100
AcDbEntity
  8
GAIKEI
  6
Continuous
 62
     1
370
     9
100
AcDbLine
 10
27.39068411161338
 20
3.792652337225831
 30
0.0
 11
27.33949386421495
 21
3.792652337225831
 31
0.0
  0
LINE
  5
176
330
2
100
AcDbEntity
  8
GAIKEI
  6
Continuous
 62
     1
370
     9
100
AcDbLine
 10
27.46653485414356
 20
3.6910196658024
 30
0.0
 11
27.46653485414356
 21
3.691693369695599
 31
0.0
  0
LINE
  5
177
330
2
100
AcDbEntity
  8
GAIKEI
  6
Continuous
 62
     1
370
     9
100
AcDbLine
 10
27.34099372914352
 20
3.792126269695586
 30
0.0
 11
27.46653485414356
 21
3.691693369695599
 31
0.0
  0
LINE
  5
178
330
2
100
AcDbEntity
  8
GAIKEI
  6
Continuous
 62
     1
370
     9
100
AcDbLine
 10
27.33949386421495
 20
3.792652337225831
 30
0.0
 11
27.34099372914352
 21
3.792126269695586
 31
0.0
  0
LINE
  5
179
330
2
100
AcDbEntity
  8
GAIKEI
  6
Continuous
 62
     1
370
     9
100
AcDbLine
 10
27.33949386421495
 20
3.792652337225831
 30
0.0
 11
27.46653485414356
 21
3.6910196658024
 31
0.0
  0
LINE
  5
17A
330
2
100
AcDbEntity
  8
GAIKEI
  6
Continuous
 62
     1
370
     9
100
AcDbLine
 10
27.33949386421495
 20
26.58065140216547
 30
0.0
 11
27.34099372914352
 21
26.58117746969561
 31
0.0
  0
LINE
  5
17B
330
2
100
AcDbEntity
  8
GAIKEI
  6
Continuous
 62
     1
370
     9
100
AcDbLine
 10
27.46653485414356
 20
26.68161036969559
 30
0.0
 11
27.34099372914352
 21
26.58117746969561
 31
0.0
  0
LINE
  5
17C
330
2
100
AcDbEntity
  8
GAIKEI
  6
Continuous
 62
     1
370
     9
100
AcDbLine
 10
27.46653485414356
 20
26.68228407358885
 30
0.0
 11
27.46653485414356
 21
26.68161036969559
 31
0.0
  0
LINE
  5
17D
330
2
100
AcDbEntity
  8
GAIKEI
  6
Continuous
 62
     1
370
     9
100
AcDbLine
 10
27.46653485414356
 20
26.68228407358885
 30
0.0
 11
27.33949386421495
 21
26.58065140216547
 31
0.0
  0
LINE
  5
17E
330
2
100
AcDbEntity
  8
GAIKEI
  6
Continuous
 62
     1
370
     9
100
AcDbLine
 10
27.39121017914352
 20
26.58117746969561
 30
0.0
 11
27.39121017914352
 21
26.38031166969563
 31
0.0
  0
LINE
  5
17F
330
2
100
AcDbEntity
  8
GAIKEI
  6
Continuous
 62
     1
370
     9
100
AcDbLine
 10
27.39068411161338
 20
26.58065140216547
 30
0.0
 11
27.39121017914352
 21
26.58117746969561
 31
0.0
  0
LINE
  5
180
330
2
100
AcDbEntity
  8
GAIKEI
  6
Continuous
 62
     1
370
     9
100
AcDbLine
 10
27.39068411161338
 20
26.58065140216547
 30
0.0
 11
27.39068411161338
 21
26.37978560216544
 31
0.0
  0
LINE
  5
181
330
2
100
AcDbEntity
  8
GAIKEI
  6
Continuous
 62
     1
370
     9
100
AcDbLine
 10
27.5423855966738
 20
26.37978560216544
 30
0.0
 11
27.54185952914355
 21
26.38031166969563
 31
0.0
  0
LINE
  5
182
330
2
100
AcDbEntity
  8
GAIKEI
  6
Continuous
 62
     1
370
     9
100
AcDbLine
 10
27.39121017914352
 20
26.38031166969563
 30
0.0
 11
27.54185952914355
 21
26.38031166969563
 31
0.0
  0
LINE
  5
183
330
2
100
AcDbEntity
  8
GAIKEI
  6
Continuous
 62
     1
370
     9
100
AcDbLine
 10
27.39068411161338
 20
26.37978560216544
 30
0.0
 11
27.39121017914352
 21
26.38031166969563
 31
0.0
  0
LINE
  5
184
330
2
100
AcDbEntity
  8
GAIKEI
  6
Continuous
 62
     1
370
     9
100
AcDbLine
 10
27.39068411161338
 20
26.37978560216544
 30
0.0
 11
27.5423855966738
 21
26.37978560216544
 31
0.0
  0
CIRCLE
  5
185
330
2
100
AcDbEntity
  8
GAIKEI
  6
Continuous
 62
     1
370
     9
100
AcDbCircle
 10
27.46653485414356
 20
12.22848986969564
 30
0.0
 40
0.1606912339394
  0
ARC
  5
186
330
2
100
AcDbEntity
  8
GAIKEI
  6
Continuous
 62
     1
370
     9
100
AcDbCircle
 10
27.46653485414356
 20
12.22848986969564
 30
0.0
 40
0.067255895814
100
AcDbArc
 50
252.2752210000006
 51
287.7247789999993
  0
ARC
  5
187
330
2
100
AcDbEntity
  8
GAIKEI
  6
Continuous
 62
     1
370
     9
100
AcDbCircle
 10
27.46653485414356
 20
12.22848986969564
 30
0.0
 40
0.067255895814
100
AcDbArc
 50
162.2752210000001
 51
197.7247789999998
  0
ARC
  5
188
330
2
100
AcDbEntity
  8
GAIKEI
  6
Continuous
 62
     1
370
     9
100
AcDbCircle
 10
27.46653485414356
 20
12.22848986969564
 30
0.0
 40
0.067255895814
100
AcDbArc
 50
342.2752210000002
 51
17.72477899999985
  0
ARC
  5
189
330
2
100
AcDbEntity
  8
GAIKEI
  6
Continuous
 62
     1
370
     9
100
AcDbCircle
 10
27.46653485414356
 20
12.22848986969564
 30
0.0
 40
0.067255895814
100
AcDbArc
 50
72.27522100000065
 51
107.7247789999993
  0
ARC
  5
18A
330
2
100
AcDbEntity
  8
GAIKEI
  6
Continuous
 62
     1
370
     9
100
AcDbCircle
 10
27.46653485414356
 20
12.22848986969564
 30
0.0
 40
0.0721284983904
100
AcDbArc
 50
253.8215449999998
 51
286.1785110000009
  0
ARC
  5
18B
330
2
100
AcDbEntity
  8
GAIKEI
  6
Continuous
 62
     1
370
     9
100
AcDbCircle
 10
27.46653485414356
 20
12.22848986969564
 30
0.0
 40
0.0721284983904
100
AcDbArc
 50
73.82154499999973
 51
106.1785110000009
  0
ARC
  5
18C
330
2
100
AcDbEntity
  8
GAIKEI
  6
Continuous
 62
     1
370
     9
100
AcDbCircle
 10
27.46653485414356
 20
12.22848986969564
 30
0.0
 40
0.0721284983904
100
AcDbArc
 50
163.8215449999993
 51
196.1785109999994
  0
ARC
  5
18D
330
2
100
AcDbEntity
  8
GAIKEI
  6
Continuous
 62
     1
370
     9
100
AcDbCircle
 10
27.53683788414355
 20
12.29879289969562
 30
0.0
 40
0.05021645
100
AcDbArc
 50
180.0
 51
270.0
  0
ARC
  5
18E
330
2
100
AcDbEntity
  8
GAIKEI
  6
Continuous
 62
     1
370
     9
100
AcDbCircle
 10
27.53683788414355
 20
12.15818683969564
 30
0.0
 40
0.05021645
100
AcDbArc
 50
90.0
 51
180.0
  0
ARC
  5
18F
330
2
100
AcDbEntity
  8
GAIKEI
  6
Continuous
 62
     1
370
     9
100
AcDbCircle
 10
27.46653485414356
 20
12.22848986969564
 30
0.0
 40
0.1004329
100
AcDbArc
 50
258.4630410000003
 51
281.5369589999997
  0
ARC
  5
190
330
2
100
AcDbEntity
  8
GAIKEI
  6
Continuous
 62
     1
370
     9
100
AcDbCircle
 10
27.39623182414351
 20
12.15818683969564
 30
0.0
 40
0.05021645
100
AcDbArc
 50
0.0
 51
90.0
  0
ARC
  5
191
330
2
100
AcDbEntity
  8
GAIKEI
  6
Continuous
 62
     1
370
     9
100
AcDbCircle
 10
27.46653485414356
 20
12.22848986969564
 30
0.0
 40
0.1004329
100
AcDbArc
 50
168.463041
 51
191.536959
  0
ARC
  5
192
330
2
100
AcDbEntity
  8
GAIKEI
  6
Continuous
 62
     1
370
     9
100
AcDbCircle
 10
27.39623182414351
 20
12.29879289969562
 30
0.0
 40
0.05021645
100
AcDbArc
 50
270.0
 51
0.0
  0
ARC
  5
193
330
2
100
AcDbEntity
  8
GAIKEI
  6
Continuous
 62
     1
370
     9
100
AcDbCircle
 10
27.46653485414356
 20
12.22848986969564
 30
0.0
 40
0.1004329
100
AcDbArc
 50
78.46304100000032
 51
101.5369589999997
  0
ARC
  5
194
330
2
100
AcDbEntity
  8
GAIKEI
  6
Continuous
 62
     1
370
     9
100
AcDbCircle
 10
27.46653485414356
 20
12.22848986969564
 30
0.0
 40
0.0721284983904
100
AcDbArc
 50
343.8215449999993
 51
16.17851099999936
  0
ARC
  5
195
330
2
100
AcDbEntity
  8
GAIKEI
  6
Continuous
 62
     1
370
     9
100
AcDbCircle
 10
27.46653485414356
 20
12.22848986969564
 30
0.0
 40
0.1004329
100
AcDbArc
 50
348.463041
 51
11.53695900000002
  0
LINE
  5
196
330
2
100
AcDbEntity
  8
GAIKEI
  6
Continuous
 62
     1
370
     9
100
AcDbLine
 10
27.53683788414355
 20
12.24857644969563
 30
0.0
 11
27.56493860783189
 21
12.24857644969563
 31
0.0
  0
LINE
  5
197
330
2
100
AcDbEntity
  8
GAIKEI
  6
Continuous
 62
     1
370
     9
100
AcDbLine
 10
27.56493860783189
 20
12.20840328969564
 30
0.0
 11
27.53683788414355
 21
12.20840328969564
 31
0.0
  0
LINE
  5
198
330
2
100
AcDbEntity
  8
GAIKEI
  6
Continuous
 62
     1
370
     9
100
AcDbLine
 10
27.48662143414356
 20
12.15818683969564
 30
0.0
 11
27.48662143414356
 21
12.13008611600719
 31
0.0
  0
LINE
  5
199
330
2
100
AcDbEntity
  8
GAIKEI
  6
Continuous
 62
     1
370
     9
100
AcDbLine
 10
27.44644827414357
 20
12.13008611600719
 30
0.0
 11
27.44644827414357
 21
12.15818683969564
 31
0.0
  0
LINE
  5
19A
330
2
100
AcDbEntity
  8
GAIKEI
  6
Continuous
 62
     1
370
     9
100
AcDbLine
 10
27.39623182414351
 20
12.20840328969564
 30
0.0
 11
27.36813110045517
 21
12.20840328969564
 31
0.0
  0
LINE
  5
19B
330
2
100
AcDbEntity
  8
GAIKEI
  6
Continuous
 62
     1
370
     9
100
AcDbLine
 10
27.36813110045517
 20
12.24857644969563
 30
0.0
 11
27.39623182414351
 21
12.24857644969563
 31
0.0
  0
LINE
  5
19C
330
2
100
AcDbEntity
  8
GAIKEI
  6
Continuous
 62
     1
370
     9
100
AcDbLine
 10
27.44644827414357
 20
12.29879289969562
 30
0.0
 11
27.44644827414357
 21
12.32689362338402
 31
0.0
  0
LINE
  5
19D
330
2
100
AcDbEntity
  8
GAIKEI
  6
Continuous
 62
     1
370
     9
100
AcDbLine
 10
27.48662143414356
 20
12.32689362338402
 30
0.0
 11
27.48662143414356
 21
12.29879289969562
 31
0.0
  0
CIRCLE
  5
19E
330
2
100
AcDbEntity
  8
GAIKEI
  6
Continuous
 62
     1
370
     9
100
AcDbCircle
 10
27.46653485414356
 20
27.18377486969564
 30
0.0
 40
0.1606912339394
  0
ARC
  5
19F
330
2
100
AcDbEntity
  8
GAIKEI
  6
Continuous
 62
     1
370
     9
100
AcDbCircle
 10
27.46653485414356
 20
27.18377486969564
 30
0.0
 40
0.067255895814
100
AcDbArc
 50
162.2752210000001
 51
197.7247789999998
  0
ARC
  5
1A0
330
2
100
AcDbEntity
  8
GAIKEI
  6
Continuous
 62
     1
370
     9
100
AcDbCircle
 10
27.46653485414356
 20
27.18377486969564
 30
0.0
 40
0.067255895814
100
AcDbArc
 50
342.2752210000002
 51
17.72477899999985
  0
ARC
  5
1A1
330
2
100
AcDbEntity
  8
GAIKEI
  6
Continuous
 62
     1
370
     9
100
AcDbCircle
 10
27.46653485414356
 20
27.18377486969564
 30
0.0
 40
0.067255895814
100
AcDbArc
 50
252.2752210000006
 51
287.7247789999993
  0
ARC
  5
1A2
330
2
100
AcDbEntity
  8
GAIKEI
  6
Continuous
 62
     1
370
     9
100
AcDbCircle
 10
27.46653485414356
 20
27.18377486969564
 30
0.0
 40
0.067255895814
100
AcDbArc
 50
72.27522100000065
 51
107.7247789999993
  0
ARC
  5
1A3
330
2
100
AcDbEntity
  8
GAIKEI
  6
Continuous
 62
     1
370
     9
100
AcDbCircle
 10
27.46653485414356
 20
27.18377486969564
 30
0.0
 40
0.0721284983904
100
AcDbArc
 50
73.82154499999973
 51
106.1785110000009
  0
ARC
  5
1A4
330
2
100
AcDbEntity
  8
GAIKEI
  6
Continuous
 62
     1
370
     9
100
AcDbCircle
 10
27.46653485414356
 20
27.18377486969564
 30
0.0
 40
0.0721284983904
100
AcDbArc
 50
253.8215449999998
 51
286.1785110000009
  0
ARC
  5
1A5
330
2
100
AcDbEntity
  8
GAIKEI
  6
Continuous
 62
     1
370
     9
100
AcDbCircle
 10
27.46653485414356
 20
27.18377486969564
 30
0.0
 40
0.0721284983904
100
AcDbArc
 50
163.8215449999993
 51
196.1785109999994
  0
ARC
  5
1A6
330
2
100
AcDbEntity
  8
GAIKEI
  6
Continuous
 62
     1
370
     9
100
AcDbCircle
 10
27.46653485414356
 20
27.18377486969564
 30
0.0
 40
0.0721284983904
100
AcDbArc
 50
343.8215449999993
 51
16.17851099999936
  0
ARC
  5
1A7
330
2
100
AcDbEntity
  8
GAIKEI
  6
Continuous
 62
     1
370
     9
100
AcDbCircle
 10
27.53683788414355
 20
27.25407789969563
 30
0.0
 40
0.05021645
100
AcDbArc
 50
180.0
 51
270.0
  0
ARC
  5
1A8
330
2
100
AcDbEntity
  8
GAIKEI
  6
Continuous
 62
     1
370
     9
100
AcDbCircle
 10
27.46653485414356
 20
27.18377486969564
 30
0.0
 40
0.1004329
100
AcDbArc
 50
348.463041
 51
11.53695900000002
  0
ARC
  5
1A9
330
2
100
AcDbEntity
  8
GAIKEI
  6
Continuous
 62
     1
370
     9
100
AcDbCircle
 10
27.53683788414355
 20
27.11347183969565
 30
0.0
 40
0.05021645
100
AcDbArc
 50
90.0
 51
180.0
  0
ARC
  5
1AA
330
2
100
AcDbEntity
  8
GAIKEI
  6
Continuous
 62
     1
370
     9
100
AcDbCircle
 10
27.46653485414356
 20
27.18377486969564
 30
0.0
 40
0.1004329
100
AcDbArc
 50
258.4630410000003
 51
281.5369589999997
  0
ARC
  5
1AB
330
2
100
AcDbEntity
  8
GAIKEI
  6
Continuous
 62
     1
370
     9
100
AcDbCircle
 10
27.39623182414351
 20
27.11347183969565
 30
0.0
 40
0.05021645
100
AcDbArc
 50
0.0
 51
90.0
  0
ARC
  5
1AC
330
2
100
AcDbEntity
  8
GAIKEI
  6
Continuous
 62
     1
370
     9
100
AcDbCircle
 10
27.46653485414356
 20
27.18377486969564
 30
0.0
 40
0.1004329
100
AcDbArc
 50
168.463041
 51
191.536959
  0
ARC
  5
1AD
330
2
100
AcDbEntity
  8
GAIKEI
  6
Continuous
 62
     1
370
     9
100
AcDbCircle
 10
27.39623182414351
 20
27.25407789969563
 30
0.0
 40
0.05021645
100
AcDbArc
 50
270.0
 51
0.0
  0
ARC
  5
1AE
330
2
100
AcDbEntity
  8
GAIKEI
  6
Continuous
 62
     1
370
     9
100
AcDbCircle
 10
27.46653485414356
 20
27.18377486969564
 30
0.0
 40
0.1004329
100
AcDbArc
 50
78.46304100000032
 51
101.5369589999997
  0
LINE
  5
1AF
330
2
100
AcDbEntity
  8
GAIKEI
  6
Continuous
 62
     1
370
     9
100
AcDbLine
 10
27.53683788414355
 20
27.20386144969564
 30
0.0
 11
27.56493860783189
 21
27.20386144969564
 31
0.0
  0
LINE
  5
1B0
330
2
100
AcDbEntity
  8
GAIKEI
  6
Continuous
 62
     1
370
     9
100
AcDbLine
 10
27.56493860783189
 20
27.16368828969564
 30
0.0
 11
27.53683788414355
 21
27.16368828969564
 31
0.0
  0
LINE
  5
1B1
330
2
100
AcDbEntity
  8
GAIKEI
  6
Continuous
 62
     1
370
     9
100
AcDbLine
 10
27.48662143414356
 20
27.11347183969565
 30
0.0
 11
27.48662143414356
 21
27.08537111600725
 31
0.0
  0
LINE
  5
1B2
330
2
100
AcDbEntity
  8
GAIKEI
  6
Continuous
 62
     1
370
     9
100
AcDbLine
 10
27.44644827414357
 20
27.08537111600725
 30
0.0
 11
27.44644827414357
 21
27.11347183969565
 31
0.0
  0
LINE
  5
1B3
330
2
100
AcDbEntity
  8
GAIKEI
  6
Continuous
 62
     1
370
     9
100
AcDbLine
 10
27.39623182414351
 20
27.16368828969564
 30
0.0
 11
27.36813110045517
 21
27.16368828969564
 31
0.0
  0
LINE
  5
1B4
330
2
100
AcDbEntity
  8
GAIKEI
  6
Continuous
 62
     1
370
     9
100
AcDbLine
 10
27.36813110045517
 20
27.20386144969564
 30
0.0
 11
27.39623182414351
 21
27.20386144969564
 31
0.0
  0
LINE
  5
1B5
330
2
100
AcDbEntity
  8
GAIKEI
  6
Continuous
 62
     1
370
     9
100
AcDbLine
 10
27.44644827414357
 20
27.25407789969563
 30
0.0
 11
27.44644827414357
 21
27.28217862338409
 31
0.0
  0
LINE
  5
1B6
330
2
100
AcDbEntity
  8
GAIKEI
  6
Continuous
 62
     1
370
     9
100
AcDbLine
 10
27.48662143414356
 20
27.28217862338409
 30
0.0
 11
27.48662143414356
 21
27.25407789969563
 31
0.0
  0
CIRCLE
  5
1B7
330
2
100
AcDbEntity
  8
GAIKEI
  6
Continuous
 62
     1
370
     9
100
AcDbCircle
 10
27.46653485414356
 20
18.14481386969567
 30
0.0
 40
0.1606912339394
  0
ARC
  5
1B8
330
2
100
AcDbEntity
  8
GAIKEI
  6
Continuous
 62
     1
370
     9
100
AcDbCircle
 10
27.46653485414356
 20
18.14481386969567
 30
0.0
 40
0.067255895814
100
AcDbArc
 50
162.2752210000001
 51
197.7247789999998
  0
ARC
  5
1B9
330
2
100
AcDbEntity
  8
GAIKEI
  6
Continuous
 62
     1
370
     9
100
AcDbCircle
 10
27.46653485414356
 20
18.14481386969567
 30
0.0
 40
0.067255895814
100
AcDbArc
 50
72.27522100000065
 51
107.7247789999993
  0
ARC
  5
1BA
330
2
100
AcDbEntity
  8
GAIKEI
  6
Continuous
 62
     1
370
     9
100
AcDbCircle
 10
27.46653485414356
 20
18.14481386969567
 30
0.0
 40
0.067255895814
100
AcDbArc
 50
252.2752210000006
 51
287.7247789999993
  0
ARC
  5
1BB
330
2
100
AcDbEntity
  8
GAIKEI
  6
Continuous
 62
     1
370
     9
100
AcDbCircle
 10
27.46653485414356
 20
18.14481386969567
 30
0.0
 40
0.067255895814
100
AcDbArc
 50
342.2752210000002
 51
17.72477899999985
  0
ARC
  5
1BC
330
2
100
AcDbEntity
  8
GAIKEI
  6
Continuous
 62
     1
370
     9
100
AcDbCircle
 10
27.46653485414356
 20
18.14481386969567
 30
0.0
 40
0.0721284983904
100
AcDbArc
 50
253.8215449999998
 51
286.1785110000009
  0
ARC
  5
1BD
330
2
100
AcDbEntity
  8
GAIKEI
  6
Continuous
 62
     1
370
     9
100
AcDbCircle
 10
27.46653485414356
 20
18.14481386969567
 30
0.0
 40
0.0721284983904
100
AcDbArc
 50
73.82154499999973
 51
106.1785110000009
  0
ARC
  5
1BE
330
2
100
AcDbEntity
  8
GAIKEI
  6
Continuous
 62
     1
370
     9
100
AcDbCircle
 10
27.53683788414355
 20
18.07451083969567
 30
0.0
 40
0.05021645
100
AcDbArc
 50
90.0
 51
180.0
  0
ARC
  5
1BF
330
2
100
AcDbEntity
  8
GAIKEI
  6
Continuous
 62
     1
370
     9
100
AcDbCircle
 10
27.39623182414351
 20
18.21511689969566
 30
0.0
 40
0.05021645
100
AcDbArc
 50
270.0
 51
0.0
  0
ARC
  5
1C0
330
2
100
AcDbEntity
  8
GAIKEI
  6
Continuous
 62
     1
370
     9
100
AcDbCircle
 10
27.39623182414351
 20
18.07451083969567
 30
0.0
 40
0.05021645
100
AcDbArc
 50
0.0
 51
90.0
  0
ARC
  5
1C1
330
2
100
AcDbEntity
  8
GAIKEI
  6
Continuous
 62
     1
370
     9
100
AcDbCircle
 10
27.53683788414355
 20
18.21511689969566
 30
0.0
 40
0.05021645
100
AcDbArc
 50
180.0
 51
270.0
  0
ARC
  5
1C2
330
2
100
AcDbEntity
  8
GAIKEI
  6
Continuous
 62
     1
370
     9
100
AcDbCircle
 10
27.46653485414356
 20
18.14481386969567
 30
0.0
 40
0.1004329
100
AcDbArc
 50
258.4630410000003
 51
281.5369589999997
  0
ARC
  5
1C3
330
2
100
AcDbEntity
  8
GAIKEI
  6
Continuous
 62
     1
370
     9
100
AcDbCircle
 10
27.46653485414356
 20
18.14481386969567
 30
0.0
 40
0.1004329
100
AcDbArc
 50
78.46304100000032
 51
101.5369589999997
  0
ARC
  5
1C4
330
2
100
AcDbEntity
  8
GAIKEI
  6
Continuous
 62
     1
370
     9
100
AcDbCircle
 10
27.46653485414356
 20
18.14481386969567
 30
0.0
 40
0.0721284983904
100
AcDbArc
 50
163.8215449999993
 51
196.1785109999994
  0
ARC
  5
1C5
330
2
100
AcDbEntity
  8
GAIKEI
  6
Continuous
 62
     1
370
     9
100
AcDbCircle
 10
27.46653485414356
 20
18.14481386969567
 30
0.0
 40
0.1004329
100
AcDbArc
 50
168.463041
 51
191.536959
  0
ARC
  5
1C6
330
2
100
AcDbEntity
  8
GAIKEI
  6
Continuous
 62
     1
370
     9
100
AcDbCircle
 10
27.46653485414356
 20
18.14481386969567
 30
0.0
 40
0.0721284983904
100
AcDbArc
 50
343.8215449999993
 51
16.17851099999936
  0
ARC
  5
1C7
330
2
100
AcDbEntity
  8
GAIKEI
  6
Continuous
 62
     1
370
     9
100
AcDbCircle
 10
27.46653485414356
 20
18.14481386969567
 30
0.0
 40
0.1004329
100
AcDbArc
 50
348.463041
 51
11.53695900000002
  0
LINE
  5
1C8
330
2
100
AcDbEntity
  8
GAIKEI
  6
Continuous
 62
     1
370
     9
100
AcDbLine
 10
27.44644827414357
 20
18.21511689969566
 30
0.0
 11
27.44644827414357
 21
18.24321762338399
 31
0.0
  0
LINE
  5
1C9
330
2
100
AcDbEntity
  8
GAIKEI
  6
Continuous
 62
     1
370
     9
100
AcDbLine
 10
27.48662143414356
 20
18.24321762338399
 30
0.0
 11
27.48662143414356
 21
18.21511689969566
 31
0.0
  0
LINE
  5
1CA
330
2
100
AcDbEntity
  8
GAIKEI
  6
Continuous
 62
     1
370
     9
100
AcDbLine
 10
27.39623182414351
 20
18.12472728969567
 30
0.0
 11
27.36813110045517
 21
18.12472728969567
 31
0.0
  0
LINE
  5
1CB
330
2
100
AcDbEntity
  8
GAIKEI
  6
Continuous
 62
     1
370
     9
100
AcDbLine
 10
27.53683788414355
 20
18.16490044969566
 30
0.0
 11
27.56493860783189
 21
18.16490044969566
 31
0.0
  0
LINE
  5
1CC
330
2
100
AcDbEntity
  8
GAIKEI
  6
Continuous
 62
     1
370
     9
100
AcDbLine
 10
27.36813110045517
 20
18.16490044969566
 30
0.0
 11
27.39623182414351
 21
18.16490044969566
 31
0.0
  0
LINE
  5
1CD
330
2
100
AcDbEntity
  8
GAIKEI
  6
Continuous
 62
     1
370
     9
100
AcDbLine
 10
27.56493860783189
 20
18.12472728969567
 30
0.0
 11
27.53683788414355
 21
18.12472728969567
 31
0.0
  0
LINE
  5
1CE
330
2
100
AcDbEntity
  8
GAIKEI
  6
Continuous
 62
     1
370
     9
100
AcDbLine
 10
27.48662143414356
 20
18.07451083969567
 30
0.0
 11
27.48662143414356
 21
18.04641011600722
 31
0.0
  0
LINE
  5
1CF
330
2
100
AcDbEntity
  8
GAIKEI
  6
Continuous
 62
     1
370
     9
100
AcDbLine
 10
27.44644827414357
 20
18.04641011600722
 30
0.0
 11
27.44644827414357
 21
18.07451083969567
 31
0.0
  0
CIRCLE
  5
1D0
330
2
100
AcDbEntity
  8
GAIKEI
  6
Continuous
 62
     1
370
     9
100
AcDbCircle
 10
27.46653485414356
 20
3.189528869695664
 30
0.0
 40
0.2008658
  0
CIRCLE
  5
1D1
330
2
100
AcDbEntity
  8
GAIKEI
  6
Continuous
 62
     1
370
     9
100
AcDbCircle
 10
27.46653485414356
 20
3.189528869695664
 30
0.0
 40
0.1606912339394
  0
ARC
  5
1D2
330
2
100
AcDbEntity
  8
GAIKEI
  6
Continuous
 62
     1
370
     9
100
AcDbCircle
 10
27.46653485414356
 20
3.189528869695664
 30
0.0
 40
0.067255895814
100
AcDbArc
 50
252.2752210000006
 51
287.7247789999993
  0
ARC
  5
1D3
330
2
100
AcDbEntity
  8
GAIKEI
  6
Continuous
 62
     1
370
     9
100
AcDbCircle
 10
27.46653485414356
 20
3.189528869695664
 30
0.0
 40
0.067255895814
100
AcDbArc
 50
72.27522100000065
 51
107.7247789999993
  0
ARC
  5
1D4
330
2
100
AcDbEntity
  8
GAIKEI
  6
Continuous
 62
     1
370
     9
100
AcDbCircle
 10
27.46653485414356
 20
3.189528869695664
 30
0.0
 40
0.067255895814
100
AcDbArc
 50
342.2752210000002
 51
17.72477899999985
  0
ARC
  5
1D5
330
2
100
AcDbEntity
  8
GAIKEI
  6
Continuous
 62
     1
370
     9
100
AcDbCircle
 10
27.46653485414356
 20
3.189528869695664
 30
0.0
 40
0.067255895814
100
AcDbArc
 50
162.2752210000001
 51
197.7247789999998
  0
ARC
  5
1D6
330
2
100
AcDbEntity
  8
GAIKEI
  6
Continuous
 62
     1
370
     9
100
AcDbCircle
 10
27.46653485414356
 20
3.189528869695664
 30
0.0
 40
0.0721284983904
100
AcDbArc
 50
73.82154499999973
 51
106.1785110000009
  0
ARC
  5
1D7
330
2
100
AcDbEntity
  8
GAIKEI
  6
Continuous
 62
     1
370
     9
100
AcDbCircle
 10
27.46653485414356
 20
3.189528869695664
 30
0.0
 40
0.0721284983904
100
AcDbArc
 50
253.8215449999998
 51
286.1785110000009
  0
ARC
  5
1D8
330
2
100
AcDbEntity
  8
GAIKEI
  6
Continuous
 62
     1
370
     9
100
AcDbCircle
 10
27.53683788414355
 20
3.259831899695655
 30
0.0
 40
0.05021645
100
AcDbArc
 50
180.0
 51
270.0
  0
ARC
  5
1D9
330
2
100
AcDbEntity
  8
GAIKEI
  6
Continuous
 62
     1
370
     9
100
AcDbCircle
 10
27.39623182414351
 20
3.119225839695616
 30
0.0
 40
0.05021645
100
AcDbArc
 50
0.0
 51
90.0
  0
ARC
  5
1DA
330
2
100
AcDbEntity
  8
GAIKEI
  6
Continuous
 62
     1
370
     9
100
AcDbCircle
 10
27.39623182414351
 20
3.259831899695655
 30
0.0
 40
0.05021645
100
AcDbArc
 50
270.0
 51
0.0
  0
ARC
  5
1DB
330
2
100
AcDbEntity
  8
GAIKEI
  6
Continuous
 62
     1
370
     9
100
AcDbCircle
 10
27.53683788414355
 20
3.119225839695616
 30
0.0
 40
0.05021645
100
AcDbArc
 50
90.0
 51
180.0
  0
ARC
  5
1DC
330
2
100
AcDbEntity
  8
GAIKEI
  6
Continuous
 62
     1
370
     9
100
AcDbCircle
 10
27.46653485414356
 20
3.189528869695664
 30
0.0
 40
0.1004329
100
AcDbArc
 50
258.4630410000003
 51
281.5369589999997
  0
ARC
  5
1DD
330
2
100
AcDbEntity
  8
GAIKEI
  6
Continuous
 62
     1
370
     9
100
AcDbCircle
 10
27.46653485414356
 20
3.189528869695664
 30
0.0
 40
0.1004329
100
AcDbArc
 50
78.46304100000032
 51
101.5369589999997
  0
ARC
  5
1DE
330
2
100
AcDbEntity
  8
GAIKEI
  6
Continuous
 62
     1
370
     9
100
AcDbCircle
 10
27.46653485414356
 20
3.189528869695664
 30
0.0
 40
0.0721284983904
100
AcDbArc
 50
163.8215449999993
 51
196.1785109999994
  0
ARC
  5
1DF
330
2
100
AcDbEntity
  8
GAIKEI
  6
Continuous
 62
     1
370
     9
100
AcDbCircle
 10
27.46653485414356
 20
3.189528869695664
 30
0.0
 40
0.1004329
100
AcDbArc
 50
168.463041
 51
191.536959
  0
ARC
  5
1E0
330
2
100
AcDbEntity
  8
GAIKEI
  6
Continuous
 62
     1
370
     9
100
AcDbCircle
 10
27.46653485414356
 20
3.189528869695664
 30
0.0
 40
0.0721284983904
100
AcDbArc
 50
343.8215449999993
 51
16.17851099999936
  0
ARC
  5
1E1
330
2
100
AcDbEntity
  8
GAIKEI
  6
Continuous
 62
     1
370
     9
100
AcDbCircle
 10
27.46653485414356
 20
3.189528869695664
 30
0.0
 40
0.1004329
100
AcDbArc
 50
348.463041
 51
11.53695900000002
  0
LINE
  5
1E2
330
2
100
AcDbEntity
  8
GAIKEI
  6
Continuous
 62
     1
370
     9
100
AcDbLine
 10
27.53683788414355
 20
3.209615449695604
 30
0.0
 11
27.56493860783189
 21
3.209615449695604
 31
0.0
  0
LINE
  5
1E3
330
2
100
AcDbEntity
  8
GAIKEI
  6
Continuous
 62
     1
370
     9
100
AcDbLine
 10
27.44644827414357
 20
3.259831899695655
 30
0.0
 11
27.44644827414357
 21
3.287932623383994
 31
0.0
  0
LINE
  5
1E4
330
2
100
AcDbEntity
  8
GAIKEI
  6
Continuous
 62
     1
370
     9
100
AcDbLine
 10
27.36813110045517
 20
3.209615449695604
 30
0.0
 11
27.39623182414351
 21
3.209615449695604
 31
0.0
  0
LINE
  5
1E5
330
2
100
AcDbEntity
  8
GAIKEI
  6
Continuous
 62
     1
370
     9
100
AcDbLine
 10
27.39623182414351
 20
3.169442289695666
 30
0.0
 11
27.36813110045517
 21
3.169442289695666
 31
0.0
  0
LINE
  5
1E6
330
2
100
AcDbEntity
  8
GAIKEI
  6
Continuous
 62
     1
370
     9
100
AcDbLine
 10
27.44644827414357
 20
3.091125116007219
 30
0.0
 11
27.44644827414357
 21
3.119225839695616
 31
0.0
  0
LINE
  5
1E7
330
2
100
AcDbEntity
  8
GAIKEI
  6
Continuous
 62
     1
370
     9
100
AcDbLine
 10
27.48662143414356
 20
3.119225839695616
 30
0.0
 11
27.48662143414356
 21
3.091125116007219
 31
0.0
  0
LINE
  5
1E8
330
2
100
AcDbEntity
  8
GAIKEI
  6
Continuous
 62
     1
370
     9
100
AcDbLine
 10
27.56493860783189
 20
3.169442289695666
 30
0.0
 11
27.53683788414355
 21
3.169442289695666
 31
0.0
  0
LINE
  5
1E9
330
2
100
AcDbEntity
  8
GAIKEI
  6
Continuous
 62
     1
370
     9
100
AcDbLine
 10
27.48662143414356
 20
3.287932623383994
 30
0.0
 11
27.48662143414356
 21
3.259831899695655
 31
0.0
  0
ARC
  5
1EA
330
2
100
AcDbEntity
  8
GAIKEI
  6
Continuous
 62
     7
370
     9
100
AcDbCircle
 10
25.31727079414356
 20
29.07006743299366
 30
0.0
 40
0.05021645
100
AcDbArc
 50
135.5113939999987
 51
180.0195500000003
  0
ARC
  5
1EB
330
2
100
AcDbEntity
  8
GAIKEI
  6
Continuous
 62
     7
370
     9
100
AcDbCircle
 10
25.31727079414356
 20
1.30327045358365
 30
0.0
 40
0.05021645
100
AcDbArc
 50
180.0195270000009
 51
224.5181809999995
  0
ARC
  5
1EC
330
2
100
AcDbEntity
  8
GAIKEI
  6
Continuous
 62
     7
370
     9
100
AcDbCircle
 10
25.38888929426776
 20
29.1429469686102
 30
0.0
 40
0.05021645
100
AcDbArc
 50
90.98527700000024
 51
135.476458000001
  0
ARC
  5
1ED
330
2
100
AcDbEntity
  8
GAIKEI
  6
Continuous
 62
     7
370
     9
100
AcDbCircle
 10
25.38894091677838
 20
1.230355766452021
 30
0.0
 40
0.05021645
100
AcDbArc
 50
224.4832389999999
 51
268.9852769999993
  0
LINE
  5
1EE
330
2
100
AcDbEntity
  8
GAIKEI
  6
Continuous
 62
     1
370
     9
100
AcDbLine
 10
25.2667974367854
 20
28.37044100484047
 30
0.0
 11
25.26704349739038
 21
28.36211491656468
 31
0.0
  0
LINE
  5
1EF
330
2
100
AcDbEntity
  8
GAIKEI
  6
Continuous
 62
     7
370
     9
100
AcDbLine
 10
25.26705434414356
 20
28.96143719969564
 30
0.0
 11
25.26705434414356
 21
29.07005035940063
 31
0.0
  0
LINE
  5
1F0
330
2
100
AcDbEntity
  8
GAIKEI
  6
Continuous
 62
     7
370
     9
100
AcDbLine
 10
25.26705434414356
 20
1.303253379990621
 30
0.0
 11
25.26705434414356
 21
1.411866539695665
 31
0.0
  0
LINE
  5
1F1
330
2
100
AcDbEntity
  8
GAIKEI
  6
Continuous
 62
     1
370
     9
100
AcDbLine
 10
25.28144678044515
 20
1.411866539695665
 30
0.0
 11
25.26705434414356
 21
1.411866539695665
 31
0.0
  0
LINE
  5
1F2
330
2
100
AcDbEntity
  8
GAIKEI
  6
Continuous
 62
     1
370
     9
100
AcDbLine
 10
25.28146505923297
 20
28.96143719969564
 30
0.0
 11
25.26705434414356
 21
28.96143719969564
 31
0.0
  0
LINE
  5
1F3
330
2
100
AcDbEntity
  8
GAIKEI
  6
Continuous
 62
     7
370
     9
100
AcDbLine
 10
25.26705434414356
 20
1.411866539695665
 30
0.0
 11
25.26705434414356
 21
28.96143719969564
 31
0.0
  0
LINE
  5
1F4
330
2
100
AcDbEntity
  8
GAIKEI
  6
Continuous
 62
     7
370
     9
100
AcDbLine
 10
25.28144678044515
 20
29.10525751422722
 30
0.0
 11
25.35308677320995
 21
29.17815874335025
 31
0.0
  0
LINE
  5
1F5
330
2
100
AcDbEntity
  8
GAIKEI
  6
Continuous
 62
     1
370
     9
100
AcDbLine
 10
25.281469076549
 20
28.96143719969564
 30
0.0
 11
25.35311991606699
 21
28.96143719969564
 31
0.0
  0
LINE
  5
1F6
330
2
100
AcDbEntity
  8
GAIKEI
  6
Continuous
 62
     7
370
     9
100
AcDbLine
 10
25.281469076549
 20
1.268057674514636
 30
0.0
 11
25.35311991606699
 21
1.195162873097217
 31
0.0
  0
LINE
  5
1F7
330
2
100
AcDbEntity
  8
GAIKEI
  6
Continuous
 62
     1
370
     9
100
AcDbLine
 10
25.28144678044515
 20
1.411866539695665
 30
0.0
 11
25.35308677320995
 21
1.411866539695665
 31
0.0
  0
LINE
  5
1F8
330
2
100
AcDbEntity
  8
GAIKEI
  6
Continuous
 62
     1
370
     9
100
AcDbLine
 10
25.3531140909588
 20
28.96143719969564
 30
0.0
 11
25.3531140909588
 21
29.17813504118584
 31
0.0
  0
LINE
  5
1F9
330
2
100
AcDbEntity
  8
GAIKEI
  6
Continuous
 62
     7
370
     9
100
AcDbLine
 10
26.49735736914357
 20
1.211000739695634
 30
0.0
 11
26.44714091914352
 21
1.170827579695583
 31
0.0
  0
LINE
  5
1FA
330
2
100
AcDbEntity
  8
GAIKEI
  6
Continuous
 62
     1
370
     9
100
AcDbLine
 10
26.49735736914357
 20
1.211000739695634
 30
0.0
 11
26.49735736914357
 21
1.411866539695665
 31
0.0
  0
LINE
  5
1FB
330
2
100
AcDbEntity
  8
GAIKEI
  6
Continuous
 62
     1
370
     9
100
AcDbLine
 10
26.49735736914357
 20
1.411866539695665
 30
0.0
 11
26.44714091914352
 21
1.411866539695665
 31
0.0
  0
LINE
  5
1FC
330
2
100
AcDbEntity
  8
GAIKEI
  6
Continuous
 62
     1
370
     9
100
AcDbLine
 10
26.49735736914357
 20
28.96143719969564
 30
0.0
 11
26.49735736914357
 21
1.411866539695665
 31
0.0
  0
LINE
  5
1FD
330
2
100
AcDbEntity
  8
GAIKEI
  6
Continuous
 62
     7
370
     9
100
AcDbLine
 10
26.49735736914357
 20
29.16230299969567
 30
0.0
 11
26.44714091914352
 21
29.20247615969561
 31
0.0
  0
LINE
  5
1FE
330
2
100
AcDbEntity
  8
GAIKEI
  6
Continuous
 62
     1
370
     9
100
AcDbLine
 10
26.49735736914357
 20
28.96143719969564
 30
0.0
 11
26.44714091914352
 21
28.96143719969564
 31
0.0
  0
LINE
  5
1FF
330
2
100
AcDbEntity
  8
GAIKEI
  6
Continuous
 62
     1
370
     9
100
AcDbLine
 10
26.49735736914357
 20
28.96143719969564
 30
0.0
 11
26.49735736914357
 21
29.16230299969567
 31
0.0
  0
LINE
  5
200
330
2
100
AcDbEntity
  8
GAIKEI
  6
Continuous
 62
     1
370
     9
100
AcDbLine
 10
25.3531140909588
 20
1.195168698205407
 30
0.0
 11
25.3531140909588
 21
1.411866539695665
 31
0.0
  0
LINE
  5
201
330
2
100
AcDbEntity
  8
GAIKEI
  6
Continuous
 62
     1
370
     9
100
AcDbLine
 10
25.3880257721936
 20
1.411866539695665
 30
0.0
 11
25.35308677320995
 21
1.411866539695665
 31
0.0
  0
LINE
  5
202
330
2
100
AcDbEntity
  8
GAIKEI
  6
Continuous
 62
     1
370
     9
100
AcDbLine
 10
25.38803862760477
 20
28.96143719969564
 30
0.0
 11
25.35311368922715
 21
28.96143719969564
 31
0.0
  0
LINE
  5
203
330
2
100
AcDbEntity
  8
GAIKEI
  6
Continuous
 62
     1
370
     9
100
AcDbLine
 10
25.35308677320995
 20
1.411866539695665
 30
0.0
 11
25.35308777753903
 21
28.96143719969564
 31
0.0
  0
LINE
  5
204
330
2
100
AcDbEntity
  8
GAIKEI
  6
Continuous
 62
     1
370
     9
100
AcDbLine
 10
26.44714091914352
 20
1.411866539695665
 30
0.0
 11
26.44714091914352
 21
28.96143719969564
 31
0.0
  0
LINE
  5
205
330
2
100
AcDbEntity
  8
GAIKEI
  6
Continuous
 62
     1
370
     9
100
AcDbLine
 10
25.3880257721936
 20
1.411866539695665
 30
0.0
 11
25.38803862760477
 21
28.96143719969564
 31
0.0
  0
LINE
  5
206
330
2
100
AcDbEntity
  8
GAIKEI
  6
Continuous
 62
     1
370
     9
100
AcDbLine
 10
25.38803862760477
 20
28.96143719969564
 30
0.0
 11
26.44714091914352
 21
28.96143719969564
 31
0.0
  0
LINE
  5
207
330
2
100
AcDbEntity
  8
GAIKEI
  6
Continuous
 62
     1
370
     9
100
AcDbLine
 10
26.44714091914352
 20
29.21164287134445
 30
0.0
 11
26.44714091914352
 21
28.96143719969564
 31
0.0
  0
LINE
  5
208
330
2
100
AcDbEntity
  8
GAIKEI
  6
Continuous
 62
     7
370
     9
100
AcDbLine
 10
25.3880257721936
 20
29.19315598657562
 30
0.0
 11
26.44714091914352
 21
29.21164287134445
 31
0.0
  0
LINE
  5
209
330
2
100
AcDbEntity
  8
GAIKEI
  6
Continuous
 62
     1
370
     9
100
AcDbLine
 10
25.38807197132758
 20
28.96143719969564
 30
0.0
 11
25.38807197132758
 21
29.19315478138083
 31
0.0
  0
LINE
  5
20A
330
2
100
AcDbEntity
  8
GAIKEI
  6
Continuous
 62
     7
370
     9
100
AcDbLine
 10
25.388051483016
 20
1.180147351084031
 30
0.0
 11
26.44714091914352
 21
1.161660868046851
 31
0.0
  0
LINE
  5
20B
330
2
100
AcDbEntity
  8
GAIKEI
  6
Continuous
 62
     1
370
     9
100
AcDbLine
 10
26.44714091914352
 20
1.411866539695665
 30
0.0
 11
26.44714091914352
 21
1.161660868046851
 31
0.0
  0
LINE
  5
20C
330
2
100
AcDbEntity
  8
GAIKEI
  6
Continuous
 62
     1
370
     9
100
AcDbLine
 10
25.3880257721936
 20
1.411866539695665
 30
0.0
 11
26.44714091914352
 21
1.411866539695665
 31
0.0
  0
LINE
  5
20D
330
2
100
AcDbEntity
  8
GAIKEI
  6
Continuous
 62
     1
370
     9
100
AcDbLine
 10
25.38807197132758
 20
1.180148757144593
 30
0.0
 11
25.38807197132758
 21
1.411866539695665
 31
0.0
  0
ARC
  5
20E
330
2
100
AcDbEntity
  8
GAIKEI
  6
Continuous
 62
     1
370
     9
100
AcDbCircle
 10
25.27207598914356
 20
1.84628844604822
 30
0.0
 40
0.01004329
100
AcDbArc
 50
119.9999999999997
 51
180.0000019999995
  0
ARC
  5
20F
330
2
100
AcDbEntity
  8
GAIKEI
  6
Continuous
 62
     1
370
     9
100
AcDbCircle
 10
25.27207598914356
 20
1.519782293343041
 30
0.0
 40
0.01004329
100
AcDbArc
 50
180.0000029999993
 51
240.0000060000005
  0
ARC
  5
210
330
2
100
AcDbEntity
  8
GAIKEI
  6
Continuous
 62
     1
370
     9
100
AcDbCircle
 10
25.27207598914356
 20
1.727024377298221
 30
0.0
 40
0.01004329
100
AcDbArc
 50
119.9999999999997
 51
180.0000019999995
  0
ARC
  5
211
330
2
100
AcDbEntity
  8
GAIKEI
  6
Continuous
 62
     1
370
     9
100
AcDbCircle
 10
25.27207598914356
 20
1.63904636209304
 30
0.0
 40
0.01004329
100
AcDbArc
 50
180.0000019999995
 51
240.0000000000002
  0
LINE
  5
212
330
2
100
AcDbEntity
  8
GAIKEI
  6
Continuous
 62
     1
370
     9
100
AcDbLine
 10
25.26203269914356
 20
1.63904636209304
 30
0.0
 11
25.26203269914356
 21
1.519782293343041
 31
0.0
  0
LINE
  5
213
330
2
100
AcDbEntity
  8
GAIKEI
  6
Continuous
 62
     1
370
     9
100
AcDbLine
 10
25.26203269914356
 20
1.84628844604822
 30
0.0
 11
25.26203269914356
 21
1.727024377298221
 31
0.0
  0
LINE
  5
214
330
2
100
AcDbEntity
  8
GAIKEI
  6
Continuous
 62
     1
370
     9
100
AcDbLine
 10
25.26705434414356
 20
1.846263739554842
 30
0.0
 11
25.26203269914356
 21
1.846263739554842
 31
0.0
  0
LINE
  5
215
330
2
100
AcDbEntity
  8
GAIKEI
  6
Continuous
 62
     1
370
     9
100
AcDbLine
 10
25.26203269914356
 20
1.519186927111832
 30
0.0
 11
25.26705434414356
 21
1.519186927111832
 31
0.0
  0
LINE
  5
216
330
2
100
AcDbEntity
  8
GAIKEI
  6
Continuous
 62
     1
370
     9
100
AcDbLine
 10
25.26705434414356
 20
1.726999269073189
 30
0.0
 11
25.26203269914356
 21
1.726999068207419
 31
0.0
  0
LINE
  5
217
330
2
100
AcDbEntity
  8
GAIKEI
  6
Continuous
 62
     1
370
     9
100
AcDbLine
 10
25.26203269914356
 20
1.727024377298221
 30
0.0
 11
25.26203269914356
 21
1.63904636209304
 31
0.0
  0
LINE
  5
218
330
2
100
AcDbEntity
  8
GAIKEI
  6
Continuous
 62
     1
370
     9
100
AcDbLine
 10
25.26203269914356
 20
1.638439948242819
 30
0.0
 11
25.26705434414356
 21
1.638439948242819
 31
0.0
  0
LINE
  5
219
330
2
100
AcDbEntity
  8
GAIKEI
  6
Continuous
 62
     1
370
     9
100
AcDbLine
 10
25.17666473414351
 20
1.763216578008041
 30
0.0
 11
25.17666473414351
 21
1.767509883617208
 31
0.0
  0
LINE
  5
21A
330
2
100
AcDbEntity
  8
GAIKEI
  6
Continuous
 62
     1
370
     9
100
AcDbLine
 10
25.17666473414351
 20
1.741496959054018
 30
0.0
 11
25.17666473414351
 21
1.763216578008041
 31
0.0
  0
LINE
  5
21B
330
2
100
AcDbEntity
  8
GAIKEI
  6
Continuous
 62
     1
370
     9
100
AcDbLine
 10
25.20177295914357
 20
1.763216578008041
 30
0.0
 11
25.17666473414351
 21
1.763216578008041
 31
0.0
  0
LINE
  5
21C
330
2
100
AcDbEntity
  8
GAIKEI
  6
Continuous
 62
     1
370
     9
100
AcDbLine
 10
25.20177295914357
 20
1.760787106157067
 30
0.0
 11
25.20177295914357
 21
1.767870035996622
 31
0.0
  0
LINE
  5
21D
330
2
100
AcDbEntity
  8
GAIKEI
  6
Continuous
 62
     1
370
     9
100
AcDbLine
 10
25.17666473414351
 20
1.455205545569413
 30
0.0
 11
25.20177295914357
 21
1.455205545569413
 31
0.0
  0
LINE
  5
21E
330
2
100
AcDbEntity
  8
GAIKEI
  6
Continuous
 62
     1
370
     9
100
AcDbLine
 10
25.20177295914357
 20
1.435170186348386
 30
0.0
 11
25.20177295914357
 21
1.435042636565412
 31
0.0
  0
LINE
  5
21F
330
2
100
AcDbEntity
  8
GAIKEI
  6
Continuous
 62
     1
370
     9
100
AcDbLine
 10
25.20177295914357
 20
1.435042636565412
 30
0.0
 11
25.26705434414356
 21
1.435042636565412
 31
0.0
  0
LINE
  5
220
330
2
100
AcDbEntity
  8
GAIKEI
  6
Continuous
 62
     1
370
     9
100
AcDbLine
 10
25.17666473414351
 20
1.458068887548392
 30
0.0
 11
25.17666473414351
 21
1.458308520447815
 31
0.0
  0
LINE
  5
221
330
2
100
AcDbEntity
  8
GAIKEI
  6
Continuous
 62
     1
370
     9
100
AcDbLine
 10
25.17666473414351
 20
1.4552627923224
 30
0.0
 11
25.20177295914357
 21
1.4552627923224
 31
0.0
  0
LINE
  5
222
330
2
100
AcDbEntity
  8
GAIKEI
  6
Continuous
 62
     1
370
     9
100
AcDbLine
 10
25.20177295914357
 20
1.435176212322403
 30
0.0
 11
25.26705434414356
 21
1.435176212322403
 31
0.0
  0
LINE
  5
223
330
2
100
AcDbEntity
  8
GAIKEI
  6
Continuous
 62
     1
370
     9
100
AcDbLine
 10
25.17666473414351
 20
1.73906286728959
 30
0.0
 11
25.17666473414351
 21
1.740501468149204
 31
0.0
  0
LINE
  5
224
330
2
100
AcDbEntity
  8
GAIKEI
  6
Continuous
 62
     1
370
     9
100
AcDbLine
 10
25.17666473414351
 20
1.736081817951799
 30
0.0
 11
25.17666473414351
 21
1.73906286728959
 31
0.0
  0
LINE
  5
225
330
2
100
AcDbEntity
  8
GAIKEI
  6
Continuous
 62
     1
370
     9
100
AcDbLine
 10
25.20177295914357
 20
1.740501669015031
 30
0.0
 11
25.17666473414351
 21
1.740501669015031
 31
0.0
  0
LINE
  5
226
330
2
100
AcDbEntity
  8
GAIKEI
  6
Continuous
 62
     1
370
     9
100
AcDbLine
 10
25.17666473414351
 20
1.734147681163619
 30
0.0
 11
25.17666473414351
 21
1.736081817951799
 31
0.0
  0
LINE
  5
227
330
2
100
AcDbEntity
  8
GAIKEI
  6
Continuous
 62
     1
370
     9
100
AcDbLine
 10
25.20177295914357
 20
1.838560335258989
 30
0.0
 11
25.17666473414351
 21
1.838560335258989
 31
0.0
  0
LINE
  5
228
330
2
100
AcDbEntity
  8
GAIKEI
  6
Continuous
 62
     1
370
     9
100
AcDbLine
 10
25.17666473414351
 20
1.767870035996622
 30
0.0
 11
25.17666473414351
 21
1.838560335258989
 31
0.0
  0
LINE
  5
229
330
2
100
AcDbEntity
  8
GAIKEI
  6
Continuous
 62
     1
370
     9
100
AcDbLine
 10
25.20177295914357
 20
1.767870035996622
 30
0.0
 11
25.17666473414351
 21
1.767870035996622
 31
0.0
  0
LINE
  5
22A
330
2
100
AcDbEntity
  8
GAIKEI
  6
Continuous
 62
     1
370
     9
100
AcDbLine
 10
25.20177295914357
 20
1.758626794478004
 30
0.0
 11
25.20177295914357
 21
1.858486222619035
 31
0.0
  0
LINE
  5
22B
330
2
100
AcDbEntity
  8
GAIKEI
  6
Continuous
 62
     1
370
     9
100
AcDbLine
 10
25.20177295914357
 20
1.858486222619035
 30
0.0
 11
25.26705434414356
 21
1.858486222619035
 31
0.0
  0
LINE
  5
22C
330
2
100
AcDbEntity
  8
GAIKEI
  6
Continuous
 62
     1
370
     9
100
AcDbLine
 10
25.17666473414351
 20
1.574385652415003
 30
0.0
 11
25.17666473414351
 21
1.630524429662216
 31
0.0
  0
LINE
  5
22D
330
2
100
AcDbEntity
  8
GAIKEI
  6
Continuous
 62
     1
370
     9
100
AcDbLine
 10
25.17666473414351
 20
1.455326466781002
 30
0.0
 11
25.20177295914357
 21
1.455326466781002
 31
0.0
  0
LINE
  5
22E
330
2
100
AcDbEntity
  8
GAIKEI
  6
Continuous
 62
     1
370
     9
100
AcDbLine
 10
25.17666473414351
 20
1.455326667646829
 30
0.0
 11
25.17666473414351
 21
1.458949483215633
 31
0.0
  0
LINE
  5
22F
330
2
100
AcDbEntity
  8
GAIKEI
  6
Continuous
 62
     1
370
     9
100
AcDbLine
 10
25.20177295914357
 20
1.435186657344047
 30
0.0
 11
25.20177295914357
 21
1.439194532651413
 31
0.0
  0
LINE
  5
230
330
2
100
AcDbEntity
  8
GAIKEI
  6
Continuous
 62
     1
370
     9
100
AcDbLine
 10
25.20177295914357
 20
1.435186657344047
 30
0.0
 11
25.26705434414356
 21
1.435186657344047
 31
0.0
  0
LINE
  5
231
330
2
100
AcDbEntity
  8
GAIKEI
  6
Continuous
 62
     1
370
     9
100
AcDbLine
 10
25.17666473414351
 20
1.732809714069844
 30
0.0
 11
25.17666473414351
 21
1.738766991966258
 31
0.0
  0
LINE
  5
232
330
2
100
AcDbEntity
  8
GAIKEI
  6
Continuous
 62
     1
370
     9
100
AcDbLine
 10
25.20177295914357
 20
1.738766991966258
 30
0.0
 11
25.17666473414351
 21
1.738766991966258
 31
0.0
  0
LINE
  5
233
330
2
100
AcDbEntity
  8
GAIKEI
  6
Continuous
 62
     1
370
     9
100
AcDbLine
 10
25.20177295914357
 20
1.752096848185829
 30
0.0
 11
25.20177295914357
 21
1.758626794478004
 31
0.0
  0
LINE
  5
234
330
2
100
AcDbEntity
  8
GAIKEI
  6
Continuous
 62
     1
370
     9
100
AcDbLine
 10
25.26203269914356
 20
1.758626794478004
 30
0.0
 11
25.20177295914357
 21
1.758626794478004
 31
0.0
  0
LINE
  5
235
330
2
100
AcDbEntity
  8
GAIKEI
  6
Continuous
 62
     1
370
     9
100
AcDbLine
 10
25.17666473414351
 20
1.703974223285058
 30
0.0
 11
25.17666473414351
 21
1.732809714069844
 31
0.0
  0
LINE
  5
236
330
2
100
AcDbEntity
  8
GAIKEI
  6
Continuous
 62
     1
370
     9
100
AcDbLine
 10
25.20177295914357
 20
1.732809714069844
 30
0.0
 11
25.17666473414351
 21
1.732809714069844
 31
0.0
  0
LINE
  5
237
330
2
100
AcDbEntity
  8
GAIKEI
  6
Continuous
 62
     1
370
     9
100
AcDbLine
 10
25.17666473414351
 20
1.458949483215633
 30
0.0
 11
25.17666473414351
 21
1.498663263130993
 31
0.0
  0
LINE
  5
238
330
2
100
AcDbEntity
  8
GAIKEI
  6
Continuous
 62
     1
370
     9
100
AcDbLine
 10
25.20177295914357
 20
1.458949483215633
 30
0.0
 11
25.17666473414351
 21
1.458949483215633
 31
0.0
  0
LINE
  5
239
330
2
100
AcDbEntity
  8
GAIKEI
  6
Continuous
 62
     1
370
     9
100
AcDbLine
 10
25.20177295914357
 20
1.718016550497225
 30
0.0
 11
25.20177295914357
 21
1.752096848185829
 31
0.0
  0
LINE
  5
23A
330
2
100
AcDbEntity
  8
GAIKEI
  6
Continuous
 62
     1
370
     9
100
AcDbLine
 10
25.20177295914357
 20
1.752096848185829
 30
0.0
 11
25.26203269914356
 21
1.752096848185829
 31
0.0
  0
LINE
  5
23B
330
2
100
AcDbEntity
  8
GAIKEI
  6
Continuous
 62
     1
370
     9
100
AcDbLine
 10
25.17666473414351
 20
1.673800363674786
 30
0.0
 11
25.17666473414351
 21
1.703974223285058
 31
0.0
  0
LINE
  5
23C
330
2
100
AcDbEntity
  8
GAIKEI
  6
Continuous
 62
     1
370
     9
100
AcDbLine
 10
25.20177295914357
 20
1.703974223285058
 30
0.0
 11
25.17666473414351
 21
1.703974223285058
 31
0.0
  0
LINE
  5
23D
330
2
100
AcDbEntity
  8
GAIKEI
  6
Continuous
 62
     1
370
     9
100
AcDbLine
 10
25.20177295914357
 20
1.439304406243991
 30
0.0
 11
25.20177295914357
 21
1.484814168818388
 31
0.0
  0
LINE
  5
23E
330
2
100
AcDbEntity
  8
GAIKEI
  6
Continuous
 62
     1
370
     9
100
AcDbLine
 10
25.26705434414356
 20
1.439194532651413
 30
0.0
 11
25.20177295914357
 21
1.439194532651413
 31
0.0
  0
LINE
  5
23F
330
2
100
AcDbEntity
  8
GAIKEI
  6
Continuous
 62
     1
370
     9
100
AcDbLine
 10
25.17666473414351
 20
1.630288010615629
 30
0.0
 11
25.17666473414351
 21
1.673800363674786
 31
0.0
  0
LINE
  5
240
330
2
100
AcDbEntity
  8
GAIKEI
  6
Continuous
 62
     1
370
     9
100
AcDbLine
 10
25.20177295914357
 20
1.673800363674786
 30
0.0
 11
25.17666473414351
 21
1.673800363674786
 31
0.0
  0
LINE
  5
241
330
2
100
AcDbEntity
  8
GAIKEI
  6
Continuous
 62
     1
370
     9
100
AcDbLine
 10
25.20177295914357
 20
1.630288010615629
 30
0.0
 11
25.17666473414351
 21
1.630288010615629
 31
0.0
  0
LINE
  5
242
330
2
100
AcDbEntity
  8
GAIKEI
  6
Continuous
 62
     1
370
     9
100
AcDbLine
 10
25.20177295914357
 20
1.574386857609852
 30
0.0
 11
25.17666473414351
 21
1.574386857609852
 31
0.0
  0
LINE
  5
243
330
2
100
AcDbEntity
  8
GAIKEI
  6
Continuous
 62
     1
370
     9
100
AcDbLine
 10
25.17666473414351
 20
1.498663263130993
 30
0.0
 11
25.17666473414351
 21
1.574386857609852
 31
0.0
  0
LINE
  5
244
330
2
100
AcDbEntity
  8
GAIKEI
  6
Continuous
 62
     1
370
     9
100
AcDbLine
 10
25.20177295914357
 20
1.498663263130993
 30
0.0
 11
25.17666473414351
 21
1.498663263130993
 31
0.0
  0
LINE
  5
245
330
2
100
AcDbEntity
  8
GAIKEI
  6
Continuous
 62
     1
370
     9
100
AcDbLine
 10
25.20177295914357
 20
1.628610781185614
 30
0.0
 11
25.20177295914357
 21
1.555876069810835
 31
0.0
  0
LINE
  5
246
330
2
100
AcDbEntity
  8
GAIKEI
  6
Continuous
 62
     1
370
     9
100
AcDbLine
 10
25.20177295914357
 20
1.628610781185614
 30
0.0
 11
25.20177295914357
 21
1.718016550497225
 31
0.0
  0
LINE
  5
247
330
2
100
AcDbEntity
  8
GAIKEI
  6
Continuous
 62
     1
370
     9
100
AcDbLine
 10
25.20177295914357
 20
1.628610781185614
 30
0.0
 11
25.26203269914356
 21
1.628610781185614
 31
0.0
  0
LINE
  5
248
330
2
100
AcDbEntity
  8
GAIKEI
  6
Continuous
 62
     1
370
     9
100
AcDbLine
 10
25.20177295914357
 20
1.718016550497225
 30
0.0
 11
25.26203269914356
 21
1.718016550497225
 31
0.0
  0
LINE
  5
249
330
2
100
AcDbEntity
  8
GAIKEI
  6
Continuous
 62
     1
370
     9
100
AcDbLine
 10
25.26705434414356
 20
1.484814168818388
 30
0.0
 11
25.20177295914357
 21
1.484814168818388
 31
0.0
  0
LINE
  5
24A
330
2
100
AcDbEntity
  8
GAIKEI
  6
Continuous
 62
     1
370
     9
100
AcDbLine
 10
25.26203269914356
 20
1.555876069810835
 30
0.0
 11
25.20177295914357
 21
1.555876069810835
 31
0.0
  0
LINE
  5
24B
330
2
100
AcDbEntity
  8
GAIKEI
  6
Continuous
 62
     1
370
     9
100
AcDbLine
 10
25.20177295914357
 20
1.484814168818388
 30
0.0
 11
25.20177295914357
 21
1.555876069810835
 31
0.0
  0
SPLINE
  5
24C
330
2
100
AcDbEntity
  8
GAIKEI
  6
Continuous
 62
     1
370
     9
100
AcDbSpline
210
0.0
220
0.0
230
1.0
 70
     8
 71
     3
 72
     9
 73
     5
 74
     3
 42
0.0000000001
 43
0.0000000001
 44
0.000001
 12
0.6457732808292049
 22
-0.7635292199825003
 32
0.0
 13
0.1582132229301194
 23
-0.9874049706630326
 33
0.0
 40
0.0
 40
0.0
 40
0.0
 40
0.0
 40
0.0000291133554099
 40
0.0008546500162802
 40
0.0008546500162802
 40
0.0008546500162802
 40
0.0008546500162802
 10
30.65880365359055
 20
27.54058782040341
 30
0.0
 10
30.65880992046624
 20
27.54058041077087
 30
0.0
 10
30.6589914946093
 20
27.54036101633557
 30
0.0
 10
30.65910892828626
 20
27.54008050365337
 30
0.0
 10
30.65915246522485
 20
27.53980879065256
 30
0.0
 11
30.65880365359055
 21
27.54058782040341
 31
0.0
 11
30.65882222986682
 21
27.54056543199465
 31
0.0
 11
30.65915246522485
 21
27.53980879065256
 31
0.0
  0
SPLINE
  5
24D
330
2
100
AcDbEntity
  8
GAIKEI
  6
Continuous
 62
     1
370
     9
100
AcDbSpline
210
0.0
220
0.0
230
1.0
 70
     8
 71
     3
 72
    12
 73
     8
 74
     6
 42
0.0000000001
 43
0.0000000001
 44
0.000001
 12
0.8783320209584989
 22
-0.4780511070575605
 32
0.0
 13
0.7410983596423572
 23
-0.6713964710477765
 33
0.0
 40
0.0
 40
0.0
 40
0.0
 40
0.0
 40
0.0010079513390827
 40
0.0059401458807313
 40
0.0135203456847904
 40
0.0228472571978389
 40
0.0292854933032822
 40
0.0292854933032822
 40
0.0292854933032822
 40
0.0292854933032822
 10
29.21163977274523
 20
28.6712420112612
 30
0.0
 10
29.21193487805746
 20
28.67108139384334
 30
0.0
 10
29.21366276464983
 20
28.67011002241833
 30
0.0
 10
29.21714254012093
 20
28.66720908554453
 30
0.0
 10
29.22288471364149
 20
28.66275385099772
 30
0.0
 10
29.22891324633184
 20
28.65782341011686
 30
0.0
 10
29.23285295783577
 20
28.65434549992944
 30
0.0
 10
29.23444341324137
 20
28.65290463026247
 30
0.0
 11
29.21163977274523
 21
28.6712420112612
 31
0.0
 11
29.21251510703036
 21
28.6707421094655
 31
0.0
 11
29.21647128262845
 21
28.66779692798235
 31
0.0
 11
29.22240894997742
 21
28.66308489026119
 31
0.0
 11
29.22961267599237
 21
28.65716056019278
 31
0.0
 11
29.23444341324137
 21
28.65290463026247
 31
0.0
  0
SPLINE
  5
24E
330
2
100
AcDbEntity
  8
GAIKEI
  6
Continuous
 62
     1
370
     9
100
AcDbSpline
210
0.0
220
0.0
230
1.0
 70
     8
 71
     3
 72
    11
 73
     7
 74
     5
 42
0.0000000001
 43
0.0000000001
 44
0.000001
 12
0.8329341178860632
 22
-0.5533721670461623
 32
0.0
 13
0.7327727159062724
 23
-0.6804734725346357
 33
0.0
 40
0.0
 40
0.0
 40
0.0
 40
0.0
 40
0.0099622178252875
 40
0.0187887927117039
 40
0.0254954779480788
 40
0.0285908826527809
 40
0.0285908826527809
 40
0.0285908826527809
 40
0.0285908826527809
 10
30.63549804486371
 20
27.55828474381861
 30
0.0
 10
30.63826400190254
 20
27.55644713912977
 30
0.0
 10
30.64341949703027
 20
27.55288841218027
 30
0.0
 10
30.65027091864477
 20
27.54785979915175
 30
0.0
 10
30.65514001118652
 20
27.54399904394336
 30
0.0
 10
30.65756645643569
 20
27.54180940238729
 30
0.0
 10
30.65832253247311
 20
27.54110728879118
 30
0.0
 11
30.63549804486371
 21
27.55828474381861
 31
0.0
 11
30.64370052850535
 21
27.55263122513361
 31
0.0
 11
30.6508030004386
 21
27.54739075923755
 31
0.0
 11
30.65601952089469
 21
27.54317616793207
 31
0.0
 11
30.65832253247311
 21
27.54110728879118
 31
0.0
  0
ARC
  5
24F
330
2
100
AcDbEntity
  8
GAIKEI
  6
Continuous
 62
     1
370
     9
100
AcDbCircle
 10
29.61428257821939
 20
28.38523095456026
 30
0.0
 40
0.025108225
100
AcDbArc
 50
51.99999999999918
 51
142.0000000000004
  0
ARC
  5
250
330
2
100
AcDbEntity
  8
GAIKEI
  6
Continuous
 62
     1
370
     9
100
AcDbCircle
 10
29.62219669073937
 20
28.37904770263885
 30
0.0
 40
0.025108225
100
AcDbArc
 50
322.0000000000005
 51
51.99999999999918
  0
LINE
  5
251
330
2
100
AcDbEntity
  8
GAIKEI
  6
Continuous
 62
     1
370
     9
100
AcDbLine
 10
29.24468729669559
 20
28.67399040612941
 30
0.0
 11
29.21132670116833
 21
28.67121885982107
 31
0.0
  0
LINE
  5
252
330
2
100
AcDbEntity
  8
GAIKEI
  6
Continuous
 62
     1
370
     9
100
AcDbLine
 10
29.48650702206021
 20
28.49780518784127
 30
0.0
 11
29.49368877787339
 21
28.51131180596485
 31
0.0
  0
LINE
  5
253
330
2
100
AcDbEntity
  8
GAIKEI
  6
Continuous
 62
     1
370
     9
100
AcDbLine
 10
29.42152392277313
 20
28.56769302823267
 30
0.0
 11
29.49368877787339
 21
28.51131180596485
 31
0.0
  0
LINE
  5
254
330
2
100
AcDbEntity
  8
GAIKEI
  6
Continuous
 62
     1
370
     9
100
AcDbLine
 10
29.41015592282224
 20
28.55745730879625
 30
0.0
 11
29.42152392277313
 21
28.56769302823267
 31
0.0
  0
LINE
  5
255
330
2
100
AcDbEntity
  8
GAIKEI
  6
Continuous
 62
     1
370
     9
100
AcDbLine
 10
29.48171938571721
 20
28.48880057489305
 30
0.0
 11
29.48650702206021
 21
28.49780518784127
 31
0.0
  0
LINE
  5
256
330
2
100
AcDbEntity
  8
GAIKEI
  6
Continuous
 62
     1
370
     9
100
AcDbLine
 10
29.41015592282224
 20
28.55745730879625
 30
0.0
 11
29.48650702206021
 21
28.49780518784127
 31
0.0
  0
LINE
  5
257
330
2
100
AcDbEntity
  8
GAIKEI
  6
Continuous
 62
     1
370
     9
100
AcDbLine
 10
29.40257705532236
 20
28.55063329497284
 30
0.0
 11
29.41015592282224
 21
28.55745730879625
 31
0.0
  0
LINE
  5
258
330
2
100
AcDbEntity
  8
GAIKEI
  6
Continuous
 62
     1
370
     9
100
AcDbLine
 10
29.24855597200354
 20
28.67096777757104
 30
0.0
 11
30.64960858587801
 21
27.57634538228922
 31
0.0
  0
LINE
  5
259
330
2
100
AcDbEntity
  8
GAIKEI
  6
Continuous
 62
     1
370
     9
100
AcDbLine
 10
30.64960858587801
 20
27.57634538228922
 30
0.0
 11
30.63549776342802
 21
27.55828433301644
 31
0.0
  0
LINE
  5
25A
330
2
100
AcDbEntity
  8
GAIKEI
  6
Continuous
 62
     1
370
     9
100
AcDbLine
 10
30.65347163694355
 20
27.57332737364425
 30
0.0
 11
30.64960858587801
 21
27.57634538228922
 31
0.0
  0
LINE
  5
25B
330
2
100
AcDbEntity
  8
GAIKEI
  6
Continuous
 62
     1
370
     9
100
AcDbLine
 10
30.65885222912811
 20
27.54028816339707
 30
0.0
 11
30.65347685945437
 21
27.57332335632828
 31
0.0
  0
LINE
  5
25C
330
2
100
AcDbEntity
  8
GAIKEI
  6
Continuous
 62
     1
370
     9
100
AcDbLine
 10
29.24855597200354
 20
28.67096777757104
 30
0.0
 11
29.23444514955349
 21
28.65290652743244
 31
0.0
  0
LINE
  5
25D
330
2
100
AcDbEntity
  8
GAIKEI
  6
Continuous
 62
     1
370
     9
100
AcDbLine
 10
29.24468749756136
 20
28.67399020526363
 30
0.0
 11
29.21111097129915
 21
28.67120038016742
 31
0.0
  0
LINE
  5
25E
330
2
100
AcDbEntity
  8
GAIKEI
  6
Continuous
 62
     1
370
     9
100
AcDbLine
 10
29.24855597200354
 20
28.67096777757104
 30
0.0
 11
29.24469010881677
 21
28.67398799573982
 31
0.0
  0
LINE
  5
25F
330
2
100
AcDbEntity
  8
GAIKEI
  6
Continuous
 62
     1
370
     9
100
AcDbLine
 10
29.23444514955349
 20
28.65290652743244
 30
0.0
 11
30.63549776342802
 21
27.55828433301644
 31
0.0
  0
LINE
  5
260
330
2
100
AcDbEntity
  8
GAIKEI
  6
Continuous
 62
     1
370
     9
100
AcDbLine
 10
29.20463867349156
 20
28.66478633344184
 30
0.0
 11
29.21079279987191
 21
28.67138577930086
 31
0.0
  0
LINE
  5
261
330
2
100
AcDbEntity
  8
GAIKEI
  6
Continuous
 62
     1
370
     9
100
AcDbLine
 10
29.22829102317314
 20
28.64630708157347
 30
0.0
 11
29.23444514955349
 21
28.65290652743244
 31
0.0
  0
LINE
  5
262
330
2
100
AcDbEntity
  8
GAIKEI
  6
Continuous
 62
     1
370
     9
100
AcDbLine
 10
29.21079320160351
 20
28.6713861810324
 30
0.0
 11
29.21163985095058
 21
28.67124195938806
 31
0.0
  0
LINE
  5
263
330
2
100
AcDbEntity
  8
GAIKEI
  6
Continuous
 62
     1
370
     9
100
AcDbLine
 10
30.62234687863617
 20
27.53803364565783
 30
0.0
 11
30.63549776342802
 21
27.55828433301644
 31
0.0
  0
LINE
  5
264
330
2
100
AcDbEntity
  8
GAIKEI
  6
Continuous
 62
     1
370
     9
100
AcDbLine
 10
30.64599922831781
 20
27.51955439378946
 30
0.0
 11
30.65915011310961
 21
27.53980508114807
 31
0.0
  0
LINE
  5
265
330
2
100
AcDbEntity
  8
GAIKEI
  6
Continuous
 62
     1
370
     9
100
AcDbLine
 10
30.65832254601355
 20
27.54110729412946
 30
0.0
 11
30.65880361960456
 21
27.54058785517066
 31
0.0
  0
SPLINE
  5
266
330
2
100
AcDbEntity
  8
GAIKEI
  6
Continuous
 62
     1
370
     9
100
AcDbSpline
210
0.0
220
0.0
230
1.0
 70
     8
 71
     3
 72
     9
 73
     5
 74
     3
 42
0.0000000001
 43
0.0000000001
 44
0.000001
 12
0.3005746702603896
 22
0.9537582857295962
 32
0.0
 13
-0.664713935997547
 23
0.7470979743585504
 33
0.0
 40
0.0
 40
0.0
 40
0.0
 40
0.0
 40
0.0021618673437034
 40
0.0033759172032768
 40
0.0033759172032768
 40
0.0033759172032768
 40
0.0033759172032768
 10
30.26759737196022
 20
28.06162423372223
 30
0.0
 10
30.26781397281488
 20
28.06231153335279
 30
0.0
 10
30.26787711698185
 20
28.06354678332701
 30
0.0
 10
30.26724660103483
 20
28.06451982372175
 30
0.0
 10
30.26697760241461
 20
28.06482216178535
 30
0.0
 11
30.26759737196022
 21
28.06162423372223
 31
0.0
 11
30.26761132682679
 21
28.06378639863272
 31
0.0
 11
30.26697760241461
 21
28.06482216178535
 31
0.0
  0
SPLINE
  5
267
330
2
100
AcDbEntity
  8
GAIKEI
  6
Continuous
 62
     1
370
     9
100
AcDbSpline
210
0.0
220
0.0
230
1.0
 70
     8
 71
     3
 72
     9
 73
     5
 74
     3
 42
0.0000000001
 43
0.0000000001
 44
0.000001
 12
0.99941665685628
 22
0.0341518081251443
 32
0.0
 13
0.5359512260040514
 23
0.8442489463095315
 33
0.0
 40
0.0
 40
0.0
 40
0.0
 40
0.0
 40
0.0001580681975317
 40
0.0001735056345291
 40
0.0001735056345291
 40
0.0001735056345291
 40
0.0001735056345291
 10
30.29000361888325
 20
27.9670847666921
 30
0.0
 10
30.29005627754643
 20
27.96708656613032
 30
0.0
 10
30.29011985957638
 20
27.96711139828329
 30
0.0
 10
30.29015381139982
 20
27.96715831346097
 30
0.0
 10
30.29015656930426
 20
27.96716265780759
 30
0.0
 11
30.29000361888325
 21
27.9670847666921
 31
0.0
 11
30.29014771720858
 21
27.96715000360001
 31
0.0
 11
30.29015656930426
 21
27.96716265780759
 31
0.0
  0
SPLINE
  5
268
330
2
100
AcDbEntity
  8
GAIKEI
  6
Continuous
 62
     1
370
     9
100
AcDbSpline
210
0.0
220
0.0
230
1.0
 70
     8
 71
     3
 72
    11
 73
     7
 74
     5
 42
0.0000000001
 43
0.0000000001
 44
0.000001
 12
-0.0244081023539719
 22
-0.9997020778909476
 32
0.0
 13
-0.8885545536619485
 23
-0.4587709724542469
 33
0.0
 40
0.0
 40
0.0
 40
0.0
 40
0.0
 40
0.0007296012239739
 40
0.0026828138872042
 40
0.0043903859747268
 40
0.0071026124178236
 40
0.0071026124178236
 40
0.0071026124178236
 40
0.0071026124178236
 10
30.28520059380492
 20
27.99378309746385
 30
0.0
 10
30.28519465774446
 20
27.99353996951061
 30
0.0
 10
30.28510637224198
 20
27.99264455438356
 30
0.0
 10
30.28445584614738
 20
27.99128113140904
 30
0.0
 10
30.28305013074598
 20
27.98968052082694
 30
0.0
 10
30.28183245523403
 20
27.9888052629596
 30
0.0
 10
30.2810291348485
 20
27.98839049937198
 30
0.0
 11
30.28520059380492
 21
27.99378309746385
 31
0.0
 11
30.28512387125585
 21
27.99305655758769
 31
0.0
 11
30.2843431819357
 21
27.991266163126
 31
0.0
 11
30.28323452645259
 21
27.98996762824464
 31
0.0
 11
30.2810291348485
 21
27.98839049937198
 31
0.0
  0
SPLINE
  5
269
330
2
100
AcDbEntity
  8
GAIKEI
  6
Continuous
 62
     1
370
     9
100
AcDbSpline
210
0.0
220
0.0
230
1.0
 70
     8
 71
     3
 72
     9
 73
     5
 74
     3
 42
0.0000000001
 43
0.0000000001
 44
0.000001
 12
-0.6163453396989432
 22
-0.7874759820028764
 32
0.0
 13
0.2397067354542683
 23
-0.9708453434908452
 33
0.0
 40
0.0
 40
0.0
 40
0.0
 40
0.0
 40
0.0000037310133321
 40
0.0001508086117633
 40
0.0001508086117633
 40
0.0001508086117633
 40
0.0001508086117633
 10
29.72971130800642
 20
28.40502807576979
 30
0.0
 10
29.72971054147553
 20
28.40502709640868
 30
0.0
 10
29.72968019463133
 20
28.4049870246123
 30
0.0
 10
29.72967485141638
 20
28.40492734437726
 30
0.0
 10
29.72968660324671
 20
28.40487974784338
 30
0.0
 11
29.72971130800642
 21
28.40502807576979
 31
0.0
 11
29.72970904388223
 21
28.40502511158189
 31
0.0
 11
29.72968660324671
 21
28.40487974784338
 31
0.0
  0
SPLINE
  5
26A
330
2
100
AcDbEntity
  8
GAIKEI
  6
Continuous
 62
     1
370
     9
100
AcDbSpline
210
0.0
220
0.0
230
1.0
 70
     8
 71
     3
 72
    11
 73
     7
 74
     5
 42
0.0000000001
 43
0.0000000001
 44
0.000001
 12
0.9999712514333682
 22
0.007582631916654
 32
0.0
 13
0.9998691890073068
 23
-0.0161742039640467
 33
0.0
 40
0.0
 40
0.0
 40
0.0
 40
0.0
 40
0.0012691114436195
 40
0.0065624791810215
 40
0.01534339231486
 40
0.0274993000808427
 40
0.0274993000808427
 40
0.0274993000808427
 40
0.0274993000808427
 10
29.7250291818392
 20
28.40179188491271
 30
0.0
 10
29.72545220682537
 20
28.40179509264772
 30
0.0
 10
29.72763971870634
 20
28.40180857777165
 30
0.0
 10
29.73275360280712
 20
28.40169749581361
 30
0.0
 10
29.74149459196346
 20
28.40150878267622
 30
0.0
 10
29.74847255347853
 20
28.40138341155194
 30
0.0
 10
29.75252399269175
 20
28.40131787417476
 30
0.0
 11
29.7250291818392
 21
28.40179188491271
 31
0.0
 11
29.72629830569201
 21
28.40179702757314
 31
0.0
 11
29.73159111308405
 21
28.40172183472248
 31
0.0
 11
29.74037006452943
 21
28.40153650704588
 31
0.0
 11
29.75252399269175
 21
28.40131787417476
 31
0.0
  0
SPLINE
  5
26B
330
2
100
AcDbEntity
  8
GAIKEI
  6
Continuous
 62
     1
370
     9
100
AcDbSpline
210
0.0
220
0.0
230
1.0
 70
     8
 71
     3
 72
    11
 73
     7
 74
     5
 42
0.0000000001
 43
0.0000000001
 44
0.000001
 12
0.2277902626247652
 22
0.9737102219106773
 32
0.0
 13
0.9631253986181739
 23
0.2690529065752372
 33
0.0
 40
0.0
 40
0.0
 40
0.0
 40
0.0
 40
0.0027087575438723
 40
0.0044130863040789
 40
0.0063606880001087
 40
0.0070760606249237
 40
0.0070760606249237
 40
0.0070760606249237
 40
0.0070760606249237
 10
29.75252245471472
 20
28.40131602965829
 30
0.0
 10
29.75272813091215
 20
28.40219521129467
 30
0.0
 10
29.75327856439696
 20
28.40358765504425
 30
0.0
 10
29.75448416583331
 20
28.40533886331758
 30
0.0
 10
29.75564160344854
 20
28.40629773892226
 30
0.0
 10
29.75648186969599
 20
28.40659995582934
 30
0.0
 10
29.75671153421081
 20
28.40666411352401
 30
0.0
 11
29.75252245471472
 21
28.40131602965829
 31
0.0
 11
29.75351159185408
 21
28.40383672614371
 31
0.0
 11
29.75449773944308
 21
28.40522660062737
 31
0.0
 11
29.75603913593295
 21
28.40641704745724
 31
0.0
 11
29.75671153421081
 21
28.40666411352401
 31
0.0
  0
SPLINE
  5
26C
330
2
100
AcDbEntity
  8
GAIKEI
  6
Continuous
 62
     1
370
     9
100
AcDbSpline
210
0.0
220
0.0
230
1.0
 70
     8
 71
     3
 72
    12
 73
     8
 74
     6
 42
0.0000000001
 43
0.0000000001
 44
0.000001
 12
-0.9151091460596996
 22
0.4032062137391826
 32
0.0
 13
-0.8113836098054679
 23
0.5845140184281711
 33
0.0
 40
0.0
 40
0.0
 40
0.0
 40
0.0
 40
0.0385992923256667
 40
0.0775453829819721
 40
0.1168912285366803
 40
0.1564521605900852
 40
0.1653052329641891
 40
0.1653052329641891
 40
0.1653052329641891
 40
0.1653052329641891
 10
30.2675914990881
 20
28.06163745660536
 30
0.0
 10
30.25581731060853
 20
28.06682528144256
 30
0.0
 10
30.23241598231257
 20
28.0778333835608
 30
0.0
 10
30.19802222954513
 20
28.0961752289976
 30
0.0
 10
30.16428399192518
 20
28.11632969068848
 30
0.0
 10
30.13994195739826
 20
28.13257875878873
 30
0.0
 10
30.12679562815601
 20
28.14193891182504
 30
0.0
 10
30.12440121554909
 20
28.14366382679464
 30
0.0
 11
30.2675914990881
 21
28.06163745660536
 31
0.0
 11
30.23266450395272
 21
28.07807130988982
 31
0.0
 11
30.19829434477731
 21
28.09638664486192
 31
0.0
 11
30.1645201897345
 21
28.11657109723711
 31
0.0
 11
30.13161289868981
 21
28.13852906748105
 31
0.0
 11
30.12440121554909
 21
28.14366382679464
 31
0.0
  0
SPLINE
  5
26D
330
2
100
AcDbEntity
  8
GAIKEI
  6
Continuous
 62
     1
370
     9
100
AcDbSpline
210
0.0
220
0.0
230
1.0
 70
     8
 71
     3
 72
    11
 73
     7
 74
     5
 42
0.0000000001
 43
0.0000000001
 44
0.000001
 12
0.214523539934927
 22
0.9767188187056639
 32
0.0
 13
-0.4295395081211665
 23
0.9030480668065385
 33
0.0
 40
0.0
 40
0.0
 40
0.0
 40
0.0
 40
0.003023848646599
 40
0.0052461389918453
 40
0.0081448778831649
 40
0.0103842862470491
 40
0.0103842862470491
 40
0.0103842862470491
 40
0.0103842862470491
 10
30.28102548441507
 20
27.98840420898813
 30
0.0
 10
30.28124171332036
 20
27.98938869228084
 30
0.0
 10
30.28146087483282
 20
27.99113606297777
 30
0.0
 10
30.28136712112101
 20
27.99385616091377
 30
0.0
 10
30.28088297341364
 20
27.99627785575001
 30
0.0
 10
30.28025971675916
 20
27.99788065882416
 30
0.0
 10
30.2799390786368
 20
27.99855475662207
 30
0.0
 11
30.28102548441507
 21
27.98840420898813
 31
0.0
 11
30.28140247782392
 21
27.99140446366568
 31
0.0
 11
30.28132353087233
 21
27.99362518559576
 31
0.0
 11
30.28074979874674
 21
27.99646675196692
 31
0.0
 11
30.2799390786368
 21
27.99855475662207
 31
0.0
  0
SPLINE
  5
26E
330
2
100
AcDbEntity
  8
GAIKEI
  6
Continuous
 62
     1
370
     9
100
AcDbSpline
210
0.0
220
0.0
230
1.0
 70
     8
 71
     3
 72
    12
 73
     8
 74
     6
 42
0.0000000001
 43
0.0000000001
 44
0.000001
 12
0.7882741543608849
 22
-0.6153241889984759
 32
0.0
 13
0.9979565017647551
 23
0.063896952865158
 33
0.0
 40
0.0
 40
0.0
 40
0.0
 40
0.0
 40
0.0101530353546121
 40
0.0200316879585714
 40
0.0295328904081289
 40
0.0400473553223158
 40
0.0498941930577804
 40
0.0498941930577804
 40
0.0498941930577804
 40
0.0498941930577804
 10
30.23345463962466
 20
28.01353795113551
 30
0.0
 10
30.23612243141077
 20
28.01145548172036
 30
0.0
 10
30.24167621901984
 20
28.00770523600898
 30
0.0
 10
30.25052860158584
 20
28.00332921425513
 30
0.0
 10
30.26001842289736
 20
28.00019491045538
 30
0.0
 10
30.26985578775472
 20
27.99841928044583
 30
0.0
 10
30.27667627121156
 20
27.99834270661819
 30
0.0
 10
30.27995184312488
 20
27.99855243426043
 30
0.0
 11
30.23345463962466
 21
28.01353795113551
 31
0.0
 11
30.24186713537586
 21
28.00785439334431
 31
0.0
 11
30.25072993546053
 21
28.00349109848497
 31
0.0
 11
30.25974982582108
 21
28.00050554888207
 31
0.0
 11
30.27010515169258
 21
27.99868130156841
 31
0.0
 11
30.27995184312488
 21
27.99855243426043
 31
0.0
  0
SPLINE
  5
26F
330
2
100
AcDbEntity
  8
GAIKEI
  6
Continuous
 62
     1
370
     9
100
AcDbSpline
210
0.0
220
0.0
230
1.0
 70
     8
 71
     3
 72
    11
 73
     7
 74
     5
 42
0.0000000001
 43
0.0000000001
 44
0.000001
 12
-0.9805549699742282
 22
0.1962446199487778
 32
0.0
 13
-0.8947979585858478
 23
-0.4464712905782405
 33
0.0
 40
0.0
 40
0.0
 40
0.0
 40
0.0
 40
0.0022367686040729
 40
0.0051355697459986
 40
0.0073587505984798
 40
0.0103833772591534
 40
0.0103833772591534
 40
0.0103833772591534
 40
0.0103833772591534
 10
29.76263324410252
 20
28.40272949950611
 30
0.0
 10
29.76190215257873
 20
28.40287581744099
 30
0.0
 10
29.76019653398117
 20
28.40308900682084
 30
0.0
 10
29.75773048483504
 20
28.40296622115983
 30
0.0
 10
29.75506945560366
 20
28.40239209475647
 30
0.0
 10
29.75342802758758
 20
28.40175262888408
 30
0.0
 10
29.75252588433375
 20
28.40130249256117
 30
0.0
 11
29.76263324410252
 21
28.40272949950611
 31
0.0
 11
29.76041312523063
 21
28.40300576001477
 31
0.0
 11
29.75751743728529
 21
28.40286754509498
 31
0.0
 11
29.7553439014265
 21
28.40240110470495
 31
0.0
 11
29.75252588433375
 21
28.40130249256117
 31
0.0
  0
SPLINE
  5
270
330
2
100
AcDbEntity
  8
GAIKEI
  6
Continuous
 62
     1
370
     9
100
AcDbSpline
210
0.0
220
0.0
230
1.0
 70
     8
 71
     3
 72
    11
 73
     7
 74
     5
 42
0.0000000001
 43
0.0000000001
 44
0.000001
 12
0.1763527035378375
 22
-0.9843270411580164
 32
0.0
 13
0.6612713115319947
 23
-0.7501468206589666
 33
0.0
 40
0.0
 40
0.0
 40
0.0
 40
0.0
 40
0.0083222232719335
 40
0.0170995714163974
 40
0.0264189138638638
 40
0.0362124276527804
 40
0.0362124276527804
 40
0.0362124276527804
 40
0.0362124276527804
 10
29.76263028233626
 20
28.4027284683637
 30
0.0
 10
29.76311949786074
 20
28.39999787189402
 30
0.0
 10
29.76449487116395
 20
28.39444392502526
 30
0.0
 10
29.76783405658693
 20
28.38626682175152
 30
0.0
 10
29.77241812856062
 20
28.37815008338561
 30
0.0
 10
29.77630761394673
 20
28.37307188338866
 30
0.0
 10
29.77846633718264
 20
28.37062302564471
 30
0.0
 11
29.76263028233626
 21
28.4027284683637
 31
0.0
 11
29.76464390801493
 21
28.39465279418937
 31
0.0
 11
29.76792810489224
 21
28.3865129030566
 31
0.0
 11
29.77251899563095
 21
28.37840286214805
 31
0.0
 11
29.77846633718264
 21
28.37062302564471
 31
0.0
  0
SPLINE
  5
271
330
2
100
AcDbEntity
  8
GAIKEI
  6
Continuous
 62
     1
370
     9
100
AcDbSpline
210
0.0
220
0.0
230
1.0
 70
     8
 71
     3
 72
    11
 73
     7
 74
     5
 42
0.0000000001
 43
0.0000000001
 44
0.000001
 12
0.258143686179761
 22
-0.9661065351634492
 32
0.0
 13
0.2478532742552898
 23
-0.9687975817687265
 33
0.0
 40
0.0
 40
0.0
 40
0.0
 40
0.0
 40
0.0114996105647769
 40
0.0202698219840822
 40
0.0260455165666695
 40
0.0274967225376018
 40
0.0274967225376018
 40
0.0274967225376018
 40
0.0274967225376018
 10
30.28102801478872
 20
27.98840525758368
 30
0.0
 10
30.28201753207566
 20
27.98470197461086
 30
0.0
 10
30.28376946581671
 20
27.97817642501911
 30
0.0
 10
30.28600490639571
 20
27.96978738480061
 30
0.0
 10
30.28741337890648
 20
27.96464416967848
 30
0.0
 10
30.28801086327539
 20
27.96231044929539
 30
0.0
 10
30.28813075865924
 20
27.96184180768364
 30
0.0
 11
30.28102801478872
 21
27.98840525758368
 31
0.0
 11
30.28400047201035
 21
27.97729645841542
 31
0.0
 11
30.28627267721498
 21
27.96882570370241
 31
0.0
 11
30.2877683710301
 21
27.9632470461749
 31
0.0
 11
30.28813075865924
 21
27.96184180768364
 31
0.0
  0
SPLINE
  5
272
330
2
100
AcDbEntity
  8
GAIKEI
  6
Continuous
 62
     1
370
     9
100
AcDbSpline
210
0.0
220
0.0
230
1.0
 70
     8
 71
     3
 72
    11
 73
     7
 74
     5
 42
0.0000000001
 43
0.0000000001
 44
0.000001
 12
0.7920850447533264
 22
-0.6104107484949141
 32
0.0
 13
0.9998988931920935
 23
-0.0142198239520166
 33
0.0
 40
0.0
 40
0.0
 40
0.0
 40
0.0
 40
0.0143312708946562
 40
0.0286657706093586
 40
0.04276969067937
 40
0.056492545461519
 40
0.056492545461519
 40
0.056492545461519
 40
0.056492545461519
 10
30.22888992830053
 20
28.00769538099792
 30
0.0
 10
30.2326737900832
 20
28.00477939373337
 30
0.0
 10
30.240676007145
 20
27.99948509159367
 30
0.0
 10
30.25362102061189
 20
27.99340217365176
 30
0.0
 10
30.2671609805727
 20
27.98938762537898
 30
0.0
 10
30.2764531341258
 20
27.98847115046328
 30
0.0
 10
30.28102695656185
 20
27.98840610493693
 30
0.0
 11
30.22888992830053
 21
28.00769538099792
 31
0.0
 11
30.24084292306043
 21
27.99979071382671
 31
0.0
 11
30.2538233631916
 21
27.99370928401515
 31
0.0
 11
30.26737396192084
 21
27.98979593690098
 31
0.0
 11
30.28102695656185
 21
27.98840610493693
 31
0.0
  0
SPLINE
  5
273
330
2
100
AcDbEntity
  8
GAIKEI
  6
Continuous
 62
     1
370
     9
100
AcDbSpline
210
0.0
220
0.0
230
1.0
 70
     8
 71
     3
 72
    10
 73
     6
 74
     4
 42
0.0000000001
 43
0.0000000001
 44
0.000001
 12
0.2557733716229746
 22
-0.9667367699475466
 32
0.0
 13
0.674844820539378
 23
-0.7379596656939829
 33
0.0
 40
0.0
 40
0.0
 40
0.0
 40
0.0
 40
0.0137289976859583
 40
0.027835439301505
 40
0.0402549913642078
 40
0.0402549913642078
 40
0.0402549913642078
 40
0.0402549913642078
 10
29.75252505047189
 20
28.40131702717054
 30
0.0
 10
29.75369555448094
 20
28.39689291821134
 30
0.0
 10
29.75683312672351
 20
28.38809439038369
 30
0.0
 10
29.76368632414025
 20
28.37648548399966
 30
0.0
 10
29.76919949130249
 20
28.36953807820021
 30
0.0
 10
29.77199324809681
 20
28.36648303537078
 30
0.0
 11
29.75252505047189
 21
28.40131702717054
 31
0.0
 11
29.75717941925211
 21
28.38840059115018
 31
0.0
 11
29.76425628486982
 21
28.37619695218058
 31
0.0
 11
29.77199324809681
 21
28.36648303537078
 31
0.0
  0
ELLIPSE
  5
274
330
2
100
AcDbEntity
  8
GAIKEI
  6
Continuous
 62
     1
370
     9
100
AcDbEllipse
 10
29.78535576189756
 20
28.39814260818423
 30
0.0
 11
-0.0005106375370832
 21
0.0100303002611997
 31
0.0
210
0.0
220
0.0
230
1.0
 40
0.6029010000000003
 41
5.320192805761296
 42
6.283185307179584
  0
ELLIPSE
  5
275
330
2
100
AcDbEntity
  8
GAIKEI
  6
Continuous
 62
     1
370
     9
100
AcDbEllipse
 10
30.26292344122442
 20
28.05563347719306
 30
0.0
 11
-0.0098558918776426
 21
-0.001931079832715
 31
0.0
210
0.0
220
0.0
230
1.0
 40
0.6029010000000003
 41
3.141592653589792
 42
4.104585134427471
  0
ELLIPSE
  5
276
330
2
100
AcDbEntity
  8
GAIKEI
  6
Continuous
 62
     1
370
     9
100
AcDbEllipse
 10
30.2752778931191
 20
27.99257808698866
 30
0.0
 11
0.009855891870743
 21
0.0019310798679294
 31
0.0
210
0.0
220
0.0
230
1.0
 40
0.6029010000000003
 41
0.0
 42
0.9629924959824297
  0
ELLIPSE
  5
277
330
2
100
AcDbEntity
  8
GAIKEI
  6
Continuous
 62
     1
370
     9
100
AcDbEllipse
 10
29.75796389361733
 20
28.39674799693489
 30
0.0
 11
0.0005106375392305
 21
-0.0100303002610903
 31
0.0
210
0.0
220
0.0
230
1.0
 40
0.6029010000000003
 41
2.178600160067523
 42
3.141592653589792
  0
ELLIPSE
  5
278
330
2
100
AcDbEntity
  8
GAIKEI
  6
Continuous
 62
     1
370
     9
100
AcDbEllipse
 10
29.81975664140299
 20
28.38508271559988
 30
0.0
 11
0.0264968719759134
 21
0.0313360863330413
 31
0.0
210
0.0
220
0.0
230
1.0
 40
0.611729
 41
2.360496180286528
 42
3.16526893597683
  0
ELLIPSE
  5
279
330
2
100
AcDbEntity
  8
GAIKEI
  6
Continuous
 62
     1
370
     9
100
AcDbEllipse
 10
30.12625153878315
 20
28.14562256078784
 30
0.0
 11
0.0189551890328963
 21
0.036901667769549
 31
0.0
210
0.0
220
0.0
230
1.0
 40
0.602525
 41
3.027028936363772
 42
3.792658704733252
  0
ARC
  5
27A
330
2
100
AcDbEntity
  8
GAIKEI
  6
Continuous
 62
     1
370
     9
100
AcDbCircle
 10
29.73282071796808
 20
28.39554320386645
 30
0.0
 40
0.0099723843726
100
AcDbArc
 50
108.0845679999984
 51
139.9551490000007
  0
ARC
  5
27B
330
2
100
AcDbEntity
  8
GAIKEI
  6
Continuous
 62
     1
370
     9
100
AcDbCircle
 10
30.26292344122442
 20
28.05563347719306
 30
0.0
 40
0.01004329
100
AcDbArc
 50
11.08561699999969
 51
66.15108699999973
  0
ARC
  5
27C
330
2
100
AcDbEntity
  8
GAIKEI
  6
Continuous
 62
     1
370
     9
100
AcDbCircle
 10
29.78535576189756
 20
28.39814260818423
 30
0.0
 40
0.01004329
100
AcDbArc
 50
51.99999999999918
 51
92.9143829999993
  0
ARC
  5
27D
330
2
100
AcDbEntity
  8
GAIKEI
  6
Continuous
 62
     1
370
     9
100
AcDbCircle
 10
30.58428803204697
 20
28.78258327838864
 30
0.0
 40
0.7847720347126001
100
AcDbArc
 50
234.1219620000003
 51
246.1509370000011
  0
ARC
  5
27E
330
2
100
AcDbEntity
  8
GAIKEI
  6
Continuous
 62
     1
370
     9
100
AcDbCircle
 10
30.28019267751353
 20
27.96788324380504
 30
0.0
 40
0.0099725852384
100
AcDbArc
 50
324.1819880000006
 51
355.9208839999991
  0
ARC
  5
27F
330
2
100
AcDbEntity
  8
GAIKEI
  6
Continuous
 62
     1
370
     9
100
AcDbCircle
 10
29.73282855173443
 20
28.39554501165861
 30
0.0
 40
0.0099711791778
100
AcDbArc
 50
108.0872840000014
 51
139.9875060000005
  0
ARC
  5
280
330
2
100
AcDbEntity
  8
GAIKEI
  6
Continuous
 62
     1
370
     9
100
AcDbCircle
 10
30.51928163232719
 20
28.94407395821202
 30
0.0
 40
0.8619631547261999
100
AcDbArc
 50
231.9999999999992
 51
242.7278210000004
  0
LINE
  5
281
330
2
100
AcDbEntity
  8
GAIKEI
  6
Continuous
 62
     1
370
     9
100
AcDbLine
 10
30.28986938742856
 20
27.9699035520215
 30
0.0
 11
30.28514201082555
 21
27.99403175278326
 31
0.0
  0
LINE
  5
282
330
2
100
AcDbEntity
  8
GAIKEI
  6
Continuous
 62
     1
370
     9
100
AcDbLine
 10
30.2852026722972
 20
27.99378870516523
 30
0.0
 11
30.28513678831473
 21
27.99449374412325
 31
0.0
  0
LINE
  5
283
330
2
100
AcDbEntity
  8
GAIKEI
  6
Continuous
 62
     1
370
     9
100
AcDbLine
 10
29.73242099502613
 20
28.4054199761182
 30
0.0
 11
29.74801420708013
 21
28.40621379775985
 31
0.0
  0
LINE
  5
284
330
2
100
AcDbEntity
  8
GAIKEI
  6
Continuous
 62
     1
370
     9
100
AcDbLine
 10
29.74801420708013
 20
28.40621379775985
 30
0.0
 11
29.75697221916277
 21
28.40666996399165
 31
0.0
  0
LINE
  5
285
330
2
100
AcDbEntity
  8
GAIKEI
  6
Continuous
 62
     1
370
     9
100
AcDbLine
 10
29.72502913358614
 20
28.40179093370966
 30
0.0
 11
29.72450688250621
 21
28.40176261163185
 31
0.0
  0
LINE
  5
286
330
2
100
AcDbEntity
  8
GAIKEI
  6
Continuous
 62
     1
370
     9
100
AcDbLine
 10
30.28823755366938
 20
27.96132798842206
 30
0.0
 11
30.28814374934081
 21
27.96182332348485
 31
0.0
  0
LINE
  5
287
330
2
100
AcDbEntity
  8
GAIKEI
  6
Continuous
 62
     1
370
     9
100
AcDbLine
 10
29.79153901381898
 20
28.40605692157004
 30
0.0
 11
29.79002850300299
 21
28.40412338737923
 31
0.0
  0
LINE
  5
288
330
2
100
AcDbEntity
  8
GAIKEI
  6
Continuous
 62
     1
370
     9
100
AcDbLine
 10
29.81704575656619
 20
28.38612882468624
 30
0.0
 11
29.79153901381898
 21
28.40605692157004
 31
0.0
  0
LINE
  5
289
330
2
100
AcDbEntity
  8
GAIKEI
  6
Continuous
 62
     1
370
     9
100
AcDbLine
 10
29.75745007890095
 20
28.40677823065789
 30
0.0
 11
29.78484516103402
 21
28.40817284190723
 31
0.0
  0
LINE
  5
28A
330
2
100
AcDbEntity
  8
GAIKEI
  6
Continuous
 62
     1
370
     9
100
AcDbLine
 10
30.28513437792515
 20
27.99450599693705
 30
0.0
 11
30.27277932343299
 21
28.05756460099423
 31
0.0
  0
LINE
  5
28B
330
2
100
AcDbEntity
  8
GAIKEI
  6
Continuous
 62
     1
370
     9
100
AcDbLine
 10
30.29007246275239
 20
27.96930316414523
 30
0.0
 11
30.290241591756
 21
27.96797986025485
 31
0.0
  0
LINE
  5
28C
330
2
100
AcDbEntity
  8
GAIKEI
  6
Continuous
 62
     1
370
     9
100
AcDbLine
 10
30.28987722119479
 20
27.96986378059307
 30
0.0
 11
30.28514683160478
 21
27.99400624282669
 31
0.0
  0
LINE
  5
28D
330
2
100
AcDbEntity
  8
GAIKEI
  6
Continuous
 62
     1
370
     9
100
AcDbLine
 10
30.29015662552263
 20
27.96716273818044
 30
0.0
 11
30.29023837790311
 21
27.96802023428063
 31
0.0
  0
LINE
  5
28E
330
2
100
AcDbEntity
  8
GAIKEI
  6
Continuous
 62
     1
370
     9
100
AcDbLine
 10
30.28997464110773
 20
27.96970007496606
 30
0.0
 11
30.2894017718462
 21
27.97094142561008
 31
0.0
  0
LINE
  5
28F
330
2
100
AcDbEntity
  8
GAIKEI
  6
Continuous
 62
     1
370
     9
100
AcDbLine
 10
30.28998568872675
 20
27.96969284379725
 30
0.0
 11
30.28997464110773
 21
27.96970007496606
 31
0.0
  0
LINE
  5
290
330
2
100
AcDbEntity
  8
GAIKEI
  6
Continuous
 62
     1
370
     9
100
AcDbLine
 10
30.28989871383539
 20
27.97018998665226
 30
0.0
 11
30.29007246275239
 21
27.96930316414523
 31
0.0
  0
LINE
  5
291
330
2
100
AcDbEntity
  8
GAIKEI
  6
Continuous
 62
     1
370
     9
100
AcDbLine
 10
29.73180132403314
 20
28.40547240209208
 30
0.0
 11
29.7304796270692
 21
28.40531693196283
 31
0.0
  0
LINE
  5
292
330
2
100
AcDbEntity
  8
GAIKEI
  6
Continuous
 62
     1
370
     9
100
AcDbLine
 10
29.732236399356
 20
28.40547481248166
 30
0.0
 11
29.73222294134735
 21
28.40548505663742
 31
0.0
  0
LINE
  5
293
330
2
100
AcDbEntity
  8
GAIKEI
  6
Continuous
 62
     1
370
     9
100
AcDbLine
 10
29.73360288939341
 20
28.40522051637885
 30
0.0
 11
29.732236399356
 21
28.40547481248166
 31
0.0
  0
LINE
  5
294
330
2
100
AcDbEntity
  8
GAIKEI
  6
Continuous
 62
     1
370
     9
100
AcDbLine
 10
29.73051919763179
 20
28.40532315880262
 30
0.0
 11
29.72971131538418
 21
28.40502808694242
 31
0.0
  0
LINE
  5
295
330
2
100
AcDbEntity
  8
GAIKEI
  6
Continuous
 62
     1
370
     9
100
AcDbLine
 10
29.73710518548216
 20
28.40565840382283
 30
0.0
 11
29.75694932046156
 21
28.40666875879686
 31
0.0
  0
LINE
  5
296
330
2
100
AcDbEntity
  8
GAIKEI
  6
Continuous
 62
     1
370
     9
100
AcDbLine
 10
29.73243123918189
 20
28.40542057871562
 30
0.0
 11
29.73710518548216
 21
28.40565840382283
 31
0.0
  0
LINE
  5
297
330
2
100
AcDbEntity
  8
GAIKEI
  6
Continuous
 62
     1
370
     9
100
AcDbLine
 10
29.75671149535435
 20
28.40666413888346
 30
0.0
 11
29.75743762522132
 21
28.40677762806047
 31
0.0
  0
LINE
  5
298
330
2
100
AcDbEntity
  8
GAIKEI
  6
Continuous
 62
     1
370
     9
100
AcDbLine
 10
29.73693304349155
 20
28.40573372849787
 30
0.0
 11
29.73818323223077
 21
28.40579740295647
 31
0.0
  0
LINE
  5
299
330
2
100
AcDbEntity
  8
GAIKEI
  6
Continuous
 62
     1
370
     9
100
AcDbLine
 10
29.73253950584814
 20
28.40550996399662
 30
0.0
 11
29.73693304349155
 21
28.40573372849787
 31
0.0
  0
LINE
  5
29A
330
2
100
AcDbEntity
  8
GAIKEI
  6
Continuous
 62
     1
370
     9
100
AcDbLine
 10
30.28513437792515
 20
27.99450700126602
 30
0.0
 11
30.2852006636391
 21
27.99378308092287
 31
0.0
  0
LINE
  5
29B
330
2
100
AcDbEntity
  8
GAIKEI
  6
Continuous
 62
     1
370
     9
100
AcDbLine
 10
29.81441320939132
 20
28.38507186884664
 30
0.0
 11
29.79002850300299
 21
28.40412338737923
 31
0.0
  0
LINE
  5
29C
330
2
100
AcDbEntity
  8
GAIKEI
  6
Continuous
 62
     1
370
     9
100
AcDbLine
 10
29.76263342086998
 20
28.40272857526406
 30
0.0
 11
29.79002850300299
 21
28.40412338737923
 31
0.0
  0
LINE
  5
29D
330
2
100
AcDbEntity
  8
GAIKEI
  6
Continuous
 62
     1
370
     9
100
AcDbLine
 10
30.27995123682194
 20
27.99855565233088
 30
0.0
 11
30.2675937719402
 21
28.06162590660444
 31
0.0
  0
LINE
  5
29E
330
2
100
AcDbEntity
  8
GAIKEI
  6
Continuous
 62
     1
370
     9
100
AcDbLine
 10
30.22888994526716
 20
28.00769544796242
 30
0.0
 11
30.23345462057222
 21
28.01353803148709
 31
0.0
  0
LINE
  5
29F
330
2
100
AcDbEntity
  8
GAIKEI
  6
Continuous
 62
     1
370
     9
100
AcDbLine
 10
30.12470145740451
 20
28.09850526921605
 30
0.0
 11
30.23345462057222
 21
28.01353803148709
 31
0.0
  0
LINE
  5
2A0
330
2
100
AcDbEntity
  8
GAIKEI
  6
Continuous
 62
     1
370
     9
100
AcDbLine
 10
30.28823755366938
 20
27.96132798842206
 30
0.0
 11
30.2395504958705
 21
27.89671809779145
 31
0.0
  0
LINE
  5
2A1
330
2
100
AcDbEntity
  8
GAIKEI
  6
Continuous
 62
     1
370
     9
100
AcDbLine
 10
30.1802028874684
 20
27.94308535646604
 30
0.0
 11
30.22888994526716
 21
28.00769544796242
 31
0.0
  0
LINE
  5
2A2
330
2
100
AcDbEntity
  8
GAIKEI
  6
Continuous
 62
     1
370
     9
100
AcDbLine
 10
30.12237643576952
 20
28.09091274284185
 30
0.0
 11
30.22888994526716
 21
28.00769544796242
 31
0.0
  0
LINE
  5
2A3
330
2
100
AcDbEntity
  8
GAIKEI
  6
Continuous
 62
     1
370
     9
100
AcDbLine
 10
29.67359463337493
 20
28.33889121450022
 30
0.0
 11
29.72450688250621
 21
28.40176261163185
 31
0.0
  0
LINE
  5
2A4
330
2
100
AcDbEntity
  8
GAIKEI
  6
Continuous
 62
     1
370
     9
100
AcDbLine
 10
30.12464862969916
 20
28.10934800510006
 30
0.0
 11
30.12431458987379
 21
28.17792680307287
 31
0.0
  0
LINE
  5
2A5
330
2
100
AcDbEntity
  8
GAIKEI
  6
Continuous
 62
     1
370
     9
100
AcDbLine
 10
29.98860423201723
 20
28.2648378191484
 30
0.0
 11
29.8278205998098
 21
28.39045567488404
 31
0.0
  0
LINE
  5
2A6
330
2
100
AcDbEntity
  8
GAIKEI
  6
Continuous
 62
     1
370
     9
100
AcDbLine
 10
29.8278205998098
 20
28.39045567488404
 30
0.0
 11
29.78744396275437
 21
28.37424158664226
 31
0.0
  0
LINE
  5
2A7
330
2
100
AcDbEntity
  8
GAIKEI
  6
Continuous
 62
     1
370
     9
100
AcDbLine
 10
30.1048790159316
 20
28.11026837219561
 30
0.0
 11
29.79372101900435
 21
28.35337163002225
 31
0.0
  0
LINE
  5
2A8
330
2
100
AcDbEntity
  8
GAIKEI
  6
Continuous
 62
     1
370
     9
100
AcDbLine
 10
29.78744396275437
 20
28.37424158664226
 30
0.0
 11
29.77394618272592
 21
28.36882142389504
 31
0.0
  0
LINE
  5
2A9
330
2
100
AcDbEntity
  8
GAIKEI
  6
Continuous
 62
     1
370
     9
100
AcDbLine
 10
29.719793767375
 20
28.30279643370346
 30
0.0
 11
29.77394618272592
 21
28.36882142389504
 31
0.0
  0
LINE
  5
2AA
330
2
100
AcDbEntity
  8
GAIKEI
  6
Continuous
 62
     1
370
     9
100
AcDbLine
 10
29.79372101900435
 20
28.35337163002225
 30
0.0
 11
29.73956860365343
 21
28.28734663983062
 31
0.0
  0
LINE
  5
2AB
330
2
100
AcDbEntity
  8
GAIKEI
  6
Continuous
 62
     1
370
     9
100
AcDbLine
 10
30.12464862969916
 20
28.10934800510006
 30
0.0
 11
30.12471953532651
 21
28.09476715667808
 31
0.0
  0
LINE
  5
2AC
330
2
100
AcDbEntity
  8
GAIKEI
  6
Continuous
 62
     1
370
     9
100
AcDbLine
 10
30.06022855724956
 20
28.03681978376767
 30
0.0
 11
30.1048790159316
 21
28.11026837219561
 31
0.0
  0
LINE
  5
2AD
330
2
100
AcDbEntity
  8
GAIKEI
  6
Continuous
 62
     1
370
     9
100
AcDbLine
 10
30.12471953532651
 20
28.09476715667808
 30
0.0
 11
30.08006907664458
 21
28.02131856825008
 31
0.0
  0
SPLINE
  5
2AE
330
2
100
AcDbEntity
  8
GAIKEI
  6
Continuous
 62
     1
370
     9
100
AcDbSpline
210
0.0
220
0.0
230
1.0
 70
     8
 71
     3
 72
    11
 73
     7
 74
     5
 42
0.0000000001
 43
0.0000000001
 44
0.000001
 12
0.9955523992716736
 22
0.0942094491248854
 32
0.0
 13
0.9999321037428547
 23
0.01165280671722
 33
0.0
 40
0.0
 40
0.0
 40
0.0
 40
0.0
 40
0.0011148798734982
 40
0.0040705758308443
 40
0.0087577471591799
 40
0.0150008879143645
 40
0.0150008879143645
 40
0.0150008879143645
 40
0.0150008879143645
 10
0.4797097480421826
 20
28.25215792126125
 30
0.0
 10
0.4800797218198341
 20
28.25219293200081
 30
0.0
 10
0.48143211290801
 20
28.25230854564944
 30
0.0
 10
0.4843532094754153
 20
28.25233988003385
 30
0.0
 10
0.4889796305043888
 20
28.25244758508029
 30
0.0
 10
0.4926231750606292
 20
28.25249275619814
 30
0.0
 10
0.4947040806837322
 20
28.25251700623562
 30
0.0
 11
0.4797097480421826
 21
28.25215792126125
 31
0.0
 11
0.4808210712714072
 21
28.25224769250485
 31
0.0
 11
0.4837753315170517
 21
28.25233746374846
 31
0.0
 11
0.4884616368204889
 21
28.25242723499207
 31
0.0
 11
0.4947040806837322
 21
28.25251700623562
 31
0.0
  0
SPLINE
  5
2AF
330
2
100
AcDbEntity
  8
GAIKEI
  6
Continuous
 62
     1
370
     9
100
AcDbSpline
210
0.0
220
0.0
230
1.0
 70
     8
 71
     3
 72
    11
 73
     7
 74
     5
 42
0.0000000001
 43
0.0000000001
 44
0.000001
 12
0.0939849268271719
 22
0.9955736203462258
 32
0.0
 13
0.0116252504040227
 23
0.9999324244932973
 33
0.0
 40
0.0
 40
0.0
 40
0.0
 40
0.0
 40
0.0011155503640459
 40
0.0040731313287397
 40
0.0087632502987885
 40
0.0150101714843095
 40
0.0150101714843095
 40
0.0150101714843095
 40
0.0150101714843095
 10
0.4295009462506983
 20
28.30236672305273
 30
0.0
 10
0.429535894557148
 20
28.30273692722426
 30
0.0
 10
0.4296513089022369
 20
28.30409018834769
 30
0.0
 10
0.4296825785811791
 20
28.30701311211874
 30
0.0
 10
0.4297900956012484
 20
28.31164241330714
 30
0.0
 10
0.4298351829615115
 20
28.315288200206
 30
0.0
 10
0.4298593903025108
 20
28.31737036655488
 30
0.0
 11
0.4295009462506983
 21
28.30236672305273
 31
0.0
 11
0.4295905572636798
 21
28.30347873172718
 31
0.0
 11
0.4296801682766045
 21
28.30643488288087
 31
0.0
 11
0.4297697792895861
 21
28.31112413944646
 31
0.0
 11
0.4298593903025108
 21
28.31737036655488
 31
0.0
  0
SPLINE
  5
2B0
330
2
100
AcDbEntity
  8
GAIKEI
  6
Continuous
 62
     1
370
     9
100
AcDbSpline
210
0.0
220
0.0
230
1.0
 70
     8
 71
     3
 72
    15
 73
    11
 74
     9
 42
0.0000000001
 43
0.0000000001
 44
0.000001
 12
0.0055783192732595
 22
0.9999844410560024
 32
0.0
 13
-0.9999807102191956
 23
-0.006211214817834
 33
0.0
 40
0.0
 40
0.0
 40
0.0
 40
0.0
 40
0.0125982608398441
 40
0.0252559443034153
 40
0.0380364715395693
 40
0.0509022043532667
 40
0.0637826417289633
 40
0.0765544557754943
 40
0.0891561608557131
 40
0.1017148634037832
 40
0.1017148634037832
 40
0.1017148634037832
 40
0.1017148634037832
 10
0.4946317003810919
 20
28.25252031635967
 30
0.0
 10
0.494655126088162
 20
28.25671967130109
 30
0.0
 10
0.4938932134218704
 20
28.26516634877691
 30
0.0
 10
0.4902714421779422
 20
28.27740267495136
 30
0.0
 10
0.4842155811509202
 20
28.28874253219647
 30
0.0
 10
0.4759904681028502
 20
28.29871541713755
 30
0.0
 10
0.4659734217970879
 20
28.30687435698201
 30
0.0
 10
0.4546616130030828
 20
28.31293807614855
 30
0.0
 10
0.4424649050592678
 20
28.31657551424973
 30
0.0
 10
0.4340489207562826
 20
28.31733397443264
 30
0.0
 10
0.429862767325119
 20
28.31730797283285
 30
0.0
 11
0.4946317003810919
 21
28.25252031635967
 31
0.0
 11
0.4934869961324467
 21
28.26506700673531
 31
0.0
 11
0.4898878608036626
 21
28.27720224164295
 31
0.0
 11
0.4838770057699549
 21
28.28848109593571
 31
0.0
 11
0.4756949171497809
 21
28.29840990927574
 31
0.0
 11
0.465715363402353
 21
28.30655330121533
 31
0.0
 11
0.4544458874233328
 21
28.31256322035631
 31
0.0
 11
0.4423699617348689
 21
28.31616542723401
 31
0.0
 11
0.429862767325119
 21
28.31730797283285
 31
0.0
  0
SPLINE
  5
2B1
330
2
100
AcDbEntity
  8
GAIKEI
  6
Continuous
 62
     1
370
     9
100
AcDbSpline
210
0.0
220
0.0
230
1.0
 70
     8
 71
     3
 72
    15
 73
    11
 74
     9
 42
0.0000000001
 43
0.0000000001
 44
0.000001
 12
-0.012969189799313
 22
0.9999158965212771
 32
0.0
 13
-0.9999880021543617
 23
-0.0048985250155642
 33
0.0
 40
0.0
 40
0.0
 40
0.0
 40
0.0
 40
0.0166024969445686
 40
0.0338954583366508
 40
0.0514922239668098
 40
0.0691283158842002
 40
0.0866520163633471
 40
0.10371864053716
 40
0.1200420989247976
 40
0.1358928631548094
 40
0.1358928631548094
 40
0.1358928631548094
 40
0.1358928631548094
 10
0.5166171529289159
 20
28.25251726224787
 30
0.0
 10
0.5165453792842527
 20
28.25805096245347
 30
0.0
 10
0.515378003932085
 20
28.26936814574202
 30
0.0
 10
0.5103244994339207
 20
28.28587306063401
 30
0.0
 10
0.5021339586358522
 20
28.30148475812757
 30
0.0
 10
0.4906917422015056
 20
28.31502400142733
 30
0.0
 10
0.4768960560690516
 20
28.32581605404767
 30
0.0
 10
0.4617486380065543
 20
28.33368826106534
 30
0.0
 10
0.4459040195450541
 20
28.33835369014531
 30
0.0
 10
0.4351428442942336
 20
28.33929704306342
 30
0.0
 10
0.4298593196092498
 20
28.33927116127507
 30
0.0
 11
0.5166171529289159
 21
28.25251726224787
 31
0.0
 11
0.514884601763697
 21
28.26902956426733
 31
0.0
 11
0.5098597938516605
 21
28.2855764230157
 31
0.0
 11
0.5016052128902971
 21
28.30111697978708
 31
0.0
 11
0.4902500526852123
 21
28.31461116628032
 31
0.0
 11
0.4764799643486413
 21
28.32544927759506
 31
0.0
 11
0.4613166418381525
 21
28.33328151132554
 31
0.0
 11
0.4456475822359494
 21
28.33785730537943
 31
0.0
 11
0.4298593196092498
 21
28.33927116127507
 31
0.0
  0
SPLINE
  5
2B2
330
2
100
AcDbEntity
  8
GAIKEI
  6
Continuous
 62
     1
370
     9
100
AcDbSpline
210
0.0
220
0.0
230
1.0
 70
     8
 71
     3
 72
    16
 73
    12
 74
    10
 42
0.0000000001
 43
0.0000000001
 44
0.000001
 12
-0.0028191100744305
 22
0.999996026301299
 32
0.0
 13
-0.9999972784512063
 23
0.0023330431158829
 33
0.0
 40
0.0
 40
0.0
 40
0.0
 40
0.0
 40
0.0190585512011876
 40
0.0381302509978195
 40
0.0571982491002313
 40
0.0762750733604142
 40
0.0953553692697267
 40
0.1141015478890097
 40
0.1328795836721469
 40
0.1515525965020535
 40
0.1703663070884785
 40
0.1703663070884785
 40
0.1703663070884785
 40
0.1703663070884785
 10
1.247393288669741
 20
28.96143715979292
 30
0.0
 10
1.247375379285188
 20
28.96778998494898
 30
0.0
 10
1.246251518062933
 20
28.98052558291761
 30
0.0
 10
1.241261832181351
 20
28.99902528477014
 30
0.0
 10
1.233102905277178
 20
29.01637444079273
 30
0.0
 10
1.222035432258365
 20
29.03203087281514
 30
0.0
 10
1.208475725286149
 20
29.04543394275555
 30
0.0
 10
1.192883406203293
 20
29.05622569345013
 30
0.0
 10
1.175781029194524
 20
29.06409726602641
 30
0.0
 10
1.157573122354335
 20
29.06894841078804
 30
0.0
 10
1.145051404577316
 20
29.07003563261429
 30
0.0
 10
1.13878018478266
 20
29.07005026368029
 30
0.0
 11
1.247393288669741
 21
28.96143715979292
 31
0.0
 11
1.245702465477506
 21
28.98042110643121
 31
0.0
 11
1.24073430025237
 21
28.9988343631776
 31
0.0
 11
1.232620647771682
 21
29.01609004465507
 31
0.0
 11
1.221608670384966
 21
29.03166768785451
 31
0.0
 11
1.208039093546915
 21
29.04508132539655
 31
0.0
 11
1.192622507756709
 21
29.05574666170338
 31
0.0
 11
1.17556815373689
 21
29.06360571837377
 31
0.0
 11
1.157522361819076
 21
29.0684048577204
 31
0.0
 11
1.13878018478266
 21
29.07005026368029
 31
0.0
  0
SPLINE
  5
2B3
330
2
100
AcDbEntity
  8
GAIKEI
  6
Continuous
 62
     1
370
     9
100
AcDbSpline
210
0.0
220
0.0
230
1.0
 70
     8
 71
     3
 72
    16
 73
    12
 74
    10
 42
0.0000000001
 43
0.0000000001
 44
0.000001
 12
-0.9999960263012955
 22
-0.0028191100756313
 32
0.0
 13
-0.0023330431125698
 23
-0.9999972784512141
 33
0.0
 40
0.0
 40
0.0
 40
0.0
 40
0.0
 40
0.0190585512009662
 40
0.0381302509975684
 40
0.0571982491000059
 40
0.0762750733601289
 40
0.0953553692694411
 40
0.1141015478887475
 40
0.1328795836719462
 40
0.1515525965018107
 40
0.1703663070882282
 40
0.1703663070882282
 40
0.1703663070882282
 40
0.1703663070882282
 10
-46.7607856252173
 20
29.07005026368029
 30
0.0
 10
-46.76713845037329
 20
29.07003235429574
 30
0.0
 10
-46.77987404834169
 20
29.06890849307331
 30
0.0
 10
-46.79837375019445
 20
29.06391880719201
 30
0.0
 10
-46.81572290621687
 20
29.0557598802879
 30
0.0
 10
-46.83137933823917
 20
29.04469240726894
 30
0.0
 10
-46.84478240817958
 20
29.03113270029673
 30
0.0
 10
-46.85557415887425
 20
29.01554038121389
 30
0.0
 10
-46.86344573145055
 20
28.99843800420502
 30
0.0
 10
-46.86829687621212
 20
28.98023009736488
 30
0.0
 10
-46.86938409803835
 20
28.96770837958786
 30
0.0
 10
-46.86939872910431
 20
28.9614371597932
 30
0.0
 11
-46.7607856252173
 21
29.07005026368029
 31
0.0
 11
-46.77976957185535
 21
29.068359440488
 31
0.0
 11
-46.79818282860174
 21
29.06339127526297
 31
0.0
 11
-46.81543851007922
 21
29.05527762278229
 31
0.0
 11
-46.83101615327859
 21
29.04426564539551
 31
0.0
 11
-46.84442979082064
 21
29.03069606855752
 31
0.0
 11
-46.85509512712747
 21
29.01527948276726
 31
0.0
 11
-46.86295418379791
 21
28.99822512874744
 31
0.0
 11
-46.86775332314448
 21
28.98017933682962
 31
0.0
 11
-46.86939872910431
 21
28.9614371597932
 31
0.0
  0
SPLINE
  5
2B4
330
2
100
AcDbEntity
  8
GAIKEI
  6
Continuous
 62
     1
370
     9
100
AcDbSpline
210
0.0
220
0.0
230
1.0
 70
     8
 71
     3
 72
    16
 73
    12
 74
    10
 42
0.0000000001
 43
0.0000000001
 44
0.000001
 12
0.0028191100744304
 22
-0.999996026301299
 32
0.0
 13
0.9999972784512063
 23
-0.002333043115882
 33
0.0
 40
0.0
 40
0.0
 40
0.0
 40
0.0
 40
0.0190585512011876
 40
0.0381302509978047
 40
0.0571982491002679
 40
0.0762750733604044
 40
0.0953553692696765
 40
0.1141015478890062
 40
0.1328795836721435
 40
0.1515525965020501
 40
0.1703663070885316
 40
0.1703663070885316
 40
0.1703663070885316
 40
0.1703663070885316
 10
-46.86939872910437
 20
1.411866499793518
 30
0.0
 10
-46.86938081971982
 20
1.405513674637461
 30
0.0
 10
-46.8682569584975
 20
1.392778076669003
 30
0.0
 10
-46.86326727261601
 20
1.374278374816242
 30
0.0
 10
-46.85510834571195
 20
1.356929218793595
 30
0.0
 10
-46.84404087269311
 20
1.341272786771355
 30
0.0
 10
-46.83048116572083
 20
1.327869716830946
 30
0.0
 10
-46.81488884663804
 20
1.317077966136253
 30
0.0
 10
-46.79778646962915
 20
1.309206393560089
 30
0.0
 10
-46.77957856278896
 20
1.304355248798458
 30
0.0
 10
-46.76705684501198
 20
1.303268026972148
 30
0.0
 10
-46.7607856252173
 20
1.303253395906153
 30
0.0
 11
-46.86939872910437
 21
1.411866499793518
 31
0.0
 11
-46.86770790591213
 21
1.392882553155232
 31
0.0
 11
-46.86273974068706
 21
1.374469296408847
 31
0.0
 11
-46.85462608820637
 21
1.35721361493131
 31
0.0
 11
-46.84361411081965
 21
1.341635971731932
 31
0.0
 11
-46.83004453398166
 21
1.328222334189888
 31
0.0
 11
-46.8146279481914
 21
1.317556997883059
 31
0.0
 11
-46.79757359417158
 21
1.309697941212675
 31
0.0
 11
-46.77952780225377
 21
1.304898801866045
 31
0.0
 11
-46.7607856252173
 21
1.303253395906153
 31
0.0
  0
SPLINE
  5
2B5
330
2
100
AcDbEntity
  8
GAIKEI
  6
Continuous
 62
     1
370
     9
100
AcDbSpline
210
0.0
220
0.0
230
1.0
 70
     8
 71
     3
 72
    16
 73
    12
 74
    10
 42
0.0000000001
 43
0.0000000001
 44
0.000001
 12
0.9999960263012955
 22
0.0028191100756316
 32
0.0
 13
0.0023330431128724
 23
0.9999972784512133
 33
0.0
 40
0.0
 40
0.0
 40
0.0
 40
0.0
 40
0.0190585512009611
 40
0.0381302509975233
 40
0.0571982491000364
 40
0.076275073360173
 40
0.0953553692694053
 40
0.1141015478887117
 40
0.1328795836719104
 40
0.1515525965017895
 40
0.1703663070882021
 40
0.1703663070882021
 40
0.1703663070882021
 40
0.1703663070882021
 10
1.13878018478266
 20
1.303253395906153
 30
0.0
 10
1.14513300993866
 20
1.303271305290707
 30
0.0
 10
1.157868607907062
 20
1.304395166513018
 30
0.0
 10
1.176368309759766
 20
1.309384852394487
 30
0.0
 10
1.193717465782185
 20
1.317543779298603
 30
0.0
 10
1.209373897804681
 20
1.328611252317557
 30
0.0
 10
1.222776967744863
 20
1.34217095928983
 30
0.0
 10
1.233568718439556
 20
1.357763278372488
 30
0.0
 10
1.241440291015805
 20
1.374865655381483
 30
0.0
 10
1.24629143577755
 20
1.393073562221559
 30
0.0
 10
1.247378657603661
 20
1.405595279998578
 30
0.0
 10
1.247393288669627
 20
1.411866499793234
 30
0.0
 11
1.13878018478266
 21
1.303253395906153
 31
0.0
 11
1.157764131420719
 21
1.304944219098388
 31
0.0
 11
1.176177388167047
 21
1.309912384323467
 31
0.0
 11
1.193433069644584
 21
1.318026036804212
 31
0.0
 11
1.209010712844019
 21
1.329038014190928
 31
0.0
 11
1.222424350385949
 21
1.342607591028922
 31
0.0
 11
1.233089686692778
 21
1.358024176819185
 31
0.0
 11
1.240948743363219
 21
1.375078530839004
 31
0.0
 11
1.245747882709849
 21
1.393124322756818
 31
0.0
 11
1.247393288669627
 21
1.411866499793234
 31
0.0
  0
SPLINE
  5
2B6
330
2
100
AcDbEntity
  8
GAIKEI
  6
Continuous
 62
     1
370
     9
100
AcDbSpline
210
0.0
220
0.0
230
1.0
 70
     8
 71
     3
 72
    15
 73
    11
 74
     9
 42
0.0000000001
 43
0.0000000001
 44
0.000001
 12
0.0066954198313246
 22
-0.9999775854254346
 32
0.0
 13
0.9999840922143485
 23
0.0056405069138466
 33
0.0
 40
0.0
 40
0.0
 40
0.0
 40
0.0
 40
0.024086194081243
 40
0.0472117326756087
 40
0.070320769968747
 40
0.0943599982013694
 40
0.1187594656925984
 40
0.1419981092798293
 40
0.1650008724644764
 40
0.1887196439464529
 40
0.1887196439464529
 40
0.1887196439464529
 40
0.1887196439464529
 10
-46.17371057353909
 20
2.119017084468396
 30
0.0
 10
-46.17365681781191
 20
2.110988533068564
 30
0.0
 10
-46.17199852008877
 20
2.095221437664292
 30
0.0
 10
-46.16508225122714
 20
2.072668125977145
 30
0.0
 10
-46.15360079832351
 20
2.052047939521685
 30
0.0
 10
-46.13798785575008
 20
2.033848012932025
 30
0.0
 10
-46.1195287701839
 20
2.018484847780655
 30
0.0
 10
-46.0987285281327
 20
2.007094135391639
 30
0.0
 10
-46.07624150627967
 20
2.000355954359577
 30
0.0
 10
-46.06061573919496
 20
1.998896949734557
 30
0.0
 10
-46.05270960780535
 20
1.998941545032721
 30
0.0
 11
-46.17371057353909
 21
2.119017084468396
 31
0.0
 11
-46.17118862447154
 21
2.095062780176988
 31
0.0
 11
-46.16432924636495
 21
2.072977937426401
 31
0.0
 11
-46.15313243921929
 21
2.052762556216578
 31
0.0
 11
-46.13759820303459
 21
2.034416636547518
 31
0.0
 11
-46.11876916559959
 21
2.018898823500876
 31
0.0
 11
-46.09834472058304
 21
2.0078137038995
 31
0.0
 11
-46.07632486798496
 21
2.001161277743449
 31
0.0
 11
-46.05270960780535
 21
1.998941545032721
 31
0.0
  0
SPLINE
  5
2B7
330
2
100
AcDbEntity
  8
GAIKEI
  6
Continuous
 62
     1
370
     9
100
AcDbSpline
210
0.0
220
0.0
230
1.0
 70
     8
 71
     3
 72
    15
 73
    11
 74
     9
 42
0.0000000001
 43
0.0000000001
 44
0.000001
 12
-0.999977585425492
 22
-0.0066954198227321
 32
0.0
 13
0.0056405069163865
 23
-0.9999840922143343
 33
0.0
 40
0.0
 40
0.0
 40
0.0
 40
0.0
 40
0.02408619408239
 40
0.047211732677365
 40
0.0703207699708681
 40
0.0943599982033837
 40
0.1187594656952386
 40
0.1419981092830933
 40
0.1650008724681731
 40
0.1887196439505175
 40
0.1887196439505175
 40
0.1887196439505175
 40
0.1887196439505175
 10
-46.053635040539
 20
28.37436210811518
 30
0.0
 10
-46.0616635919392
 20
28.37430835238809
 30
0.0
 10
-46.07743068734413
 20
28.37265005466491
 30
0.0
 10
-46.09998399903196
 20
28.36573378580352
 30
0.0
 10
-46.1206041854879
 20
28.35425233290028
 30
0.0
 10
-46.13880411207799
 20
28.33863939032653
 30
0.0
 10
-46.15416727722953
 20
28.32018030476013
 30
0.0
 10
-46.16555798961894
 20
28.29938006270845
 30
0.0
 10
-46.17229617065103
 20
28.27689304085499
 30
0.0
 10
-46.17375517527605
 20
28.26126727376999
 30
0.0
 10
-46.17371057997786
 20
28.25336114238024
 30
0.0
 11
-46.053635040539
 21
28.37436210811518
 31
0.0
 11
-46.07758934483155
 21
28.37184015904774
 31
0.0
 11
-46.09967418758287
 21
28.36498078094133
 31
0.0
 11
-46.11988956879315
 21
28.35378397379577
 31
0.0
 11
-46.13823548846227
 21
28.33824973761131
 31
0.0
 11
-46.15375330150931
 21
28.31942070017579
 31
0.0
 11
-46.16483842111096
 21
28.29899625515873
 31
0.0
 11
-46.17149084726714
 21
28.27697640256025
 31
0.0
 11
-46.17371057997786
 21
28.25336114238024
 31
0.0
  0
SPLINE
  5
2B8
330
2
100
AcDbEntity
  8
GAIKEI
  6
Continuous
 62
     1
370
     9
100
AcDbSpline
210
0.0
220
0.0
230
1.0
 70
     8
 71
     3
 72
    15
 73
    11
 74
     9
 42
0.0000000001
 43
0.0000000001
 44
0.000001
 12
-0.0066954198313247
 22
0.9999775854254346
 32
0.0
 13
-0.9999840922143485
 23
-0.0056405069138467
 33
0.0
 40
0.0
 40
0.0
 40
0.0
 40
0.0
 40
0.0240861940811865
 40
0.0472117326756065
 40
0.0703207699687447
 40
0.0943599982013671
 40
0.11875946569264
 40
0.141998109279821
 40
0.1650008724645225
 40
0.1887196439464478
 40
0.1887196439464478
 40
0.1887196439464478
 40
0.1887196439464478
 10
0.5517051331044627
 20
28.25428657511805
 30
0.0
 10
0.5516513773772829
 20
28.26231512651782
 30
0.0
 10
0.5499930796541435
 20
28.27808222192209
 30
0.0
 10
0.5430768107924849
 20
28.30063553360924
 30
0.0
 10
0.5315953578888184
 20
28.32125572006475
 30
0.0
 10
0.5159824153154773
 20
28.33945564665447
 30
0.0
 10
0.4975233297492139
 20
28.35481881180567
 30
0.0
 10
0.4767230876980478
 20
28.36620952419492
 30
0.0
 10
0.4542360658450093
 20
28.37294770522687
 30
0.0
 10
0.4386102987603238
 20
28.37440670985194
 30
0.0
 10
0.4307041673707204
 20
28.37436211455378
 30
0.0
 11
0.5517051331044627
 21
28.25428657511805
 31
0.0
 11
0.549183184036906
 21
28.27824087940939
 31
0.0
 11
0.5423238059303231
 21
28.30032572216004
 31
0.0
 11
0.5311269987846572
 21
28.32054110336986
 31
0.0
 11
0.5155927625999653
 21
28.33888702303892
 31
0.0
 11
0.4967637251648967
 21
28.35440483608556
 31
0.0
 11
0.4763392801484088
 21
28.36548995568694
 31
0.0
 11
0.4543194275502743
 21
28.37214238184299
 31
0.0
 11
0.4307041673707204
 21
28.37436211455378
 31
0.0
  0
SPLINE
  5
2B9
330
2
100
AcDbEntity
  8
GAIKEI
  6
Continuous
 62
     1
370
     9
100
AcDbSpline
210
0.0
220
0.0
230
1.0
 70
     8
 71
     3
 72
    15
 73
    11
 74
     9
 42
0.0000000001
 43
0.0000000001
 44
0.000001
 12
0.999977585425492
 22
0.006695419822732
 32
0.0
 13
-0.0056405069163864
 23
0.9999840922143343
 33
0.0
 40
0.0
 40
0.0
 40
0.0
 40
0.0
 40
0.0240861940823275
 40
0.0472117326774279
 40
0.0703207699709035
 40
0.0943599982034558
 40
0.1187594656953107
 40
0.1419981092830883
 40
0.1650008724682226
 40
0.1887196439505776
 40
0.1887196439505776
 40
0.1887196439505776
 40
0.1887196439505776
 10
0.4316296001043157
 20
1.998941551471261
 30
0.0
 10
0.4396581515044887
 20
1.998995307198356
 30
0.0
 10
0.4554252469094991
 20
2.00065360492141
 30
0.0
 10
0.477978558597215
 20
2.007569873782927
 30
0.0
 10
0.4985987450533856
 20
2.01905132668628
 30
0.0
 10
0.5167986716433291
 20
2.034664269259906
 30
0.0
 10
0.5321618367948702
 20
2.053123354826198
 30
0.0
 10
0.5435525491843123
 20
2.073923596877989
 30
0.0
 10
0.5502907302162896
 20
2.096410618731454
 30
0.0
 10
0.5517497348414793
 20
2.112036385816452
 30
0.0
 10
0.5517051395432873
 20
2.119942517206197
 30
0.0
 11
0.4316296001043157
 21
1.998941551471261
 31
0.0
 11
0.4555839043968036
 21
2.001463500538648
 31
0.0
 11
0.4776687471482433
 21
2.008322878645117
 31
0.0
 11
0.4978841283585212
 21
2.019519685790612
 31
0.0
 11
0.5162300480276372
 21
2.035053921975134
 31
0.0
 11
0.5317478610746776
 21
2.053882959410657
 31
0.0
 11
0.5428329806762804
 21
2.074307404427656
 31
0.0
 11
0.5494854068324458
 21
2.096327257026189
 31
0.0
 11
0.5517051395432873
 21
2.119942517206197
 31
0.0
  0
ELLIPSE
  5
2BA
330
2
100
AcDbEntity
  8
GAIKEI
  6
Continuous
 62
     1
370
     9
100
AcDbEllipse
 10
0.4238835880361194
 20
28.24654055169487
 30
0.0
 11
0.0355192093463188
 21
0.0355192093463188
 31
0.0
210
0.0
220
0.0
230
1.0
 40
0.9996949999993994
 41
5.497939437029795
 42
7.068431177329377
  0
ELLIPSE
  5
2BB
330
2
100
AcDbEntity
  8
GAIKEI
  6
Continuous
 62
     1
370
     9
100
AcDbEllipse
 10
-46.045889126828
 20
28.24654055169487
 30
0.0
 11
-0.0355192093463248
 21
0.0355192093463248
 31
0.0
210
0.0
220
0.0
230
1.0
 40
0.9996950000000001
 41
5.497939437029863
 42
7.068431177329467
  0
ELLIPSE
  5
2BC
330
2
100
AcDbEntity
  8
GAIKEI
  6
Continuous
 62
     1
370
     9
100
AcDbEllipse
 10
-46.045889126828
 20
2.126762986830613
 30
0.0
 11
0.0355192093463188
 21
0.0355192093463188
 31
0.0
210
0.0
220
0.0
230
1.0
 40
0.9996949999993994
 41
2.356346783440002
 42
3.926838523739584
  0
ELLIPSE
  5
2BD
330
2
100
AcDbEntity
  8
GAIKEI
  6
Continuous
 62
     1
370
     9
100
AcDbEllipse
 10
0.4238835880361194
 20
2.126762986830613
 30
0.0
 11
-0.0355192093463188
 21
0.0355192093463188
 31
0.0
210
0.0
220
0.0
230
1.0
 40
0.9996949999999651
 41
2.356346783440284
 42
3.926838523739866
  0
ARC
  5
2BE
330
2
100
AcDbEntity
  8
GAIKEI
  6
Continuous
 62
     7
370
     9
100
AcDbCircle
 10
-46.76078557396306
 20
1.411866539695665
 30
0.0
 40
0.2502056716487994
100
AcDbArc
 50
180.0
 51
270.0
  0
ARC
  5
2BF
330
2
100
AcDbEntity
  8
GAIKEI
  6
Continuous
 62
     7
370
     9
100
AcDbCircle
 10
1.13878023603695
 20
28.96143719969564
 30
0.0
 40
0.2502056716487994
100
AcDbArc
 50
0.0
 51
90.0
  0
ARC
  5
2C0
330
2
100
AcDbEntity
  8
GAIKEI
  6
Continuous
 62
     7
370
     9
100
AcDbCircle
 10
-46.76078557396306
 20
28.96143719969564
 30
0.0
 40
0.2502056716487994
100
AcDbArc
 50
90.0
 51
180.0
  0
ARC
  5
2C1
330
2
100
AcDbEntity
  8
GAIKEI
  6
Continuous
 62
     7
370
     9
100
AcDbCircle
 10
1.13878023603695
 20
1.411866539695665
 30
0.0
 40
0.2502056716487994
100
AcDbArc
 50
270.0
 51
0.0
  0
ARC
  5
2C2
330
2
100
AcDbEntity
  8
GAIKEI
  6
Continuous
 62
     1
370
     9
100
AcDbCircle
 10
0.4295261092239571
 20
28.25218327374841
 30
0.0
 40
0.0501825036798
100
AcDbArc
 50
359.9719019999991
 51
90.02824100000063
  0
ARC
  5
2C3
330
2
100
AcDbEntity
  8
GAIKEI
  6
Continuous
 62
     1
370
     9
100
AcDbCircle
 10
0.6424647472671268
 20
16.79225749111003
 30
0.0
 40
11.4609510016816
100
AcDbArc
 50
90.4535370000014
 51
90.62953600000104
  0
LINE
  5
2C4
330
2
100
AcDbEntity
  8
GAIKEI
  6
Continuous
 62
     7
370
     9
100
AcDbLine
 10
1.13878023603695
 20
1.161660868046851
 30
0.0
 11
-46.76078557396306
 21
1.161660868046851
 31
0.0
  0
LINE
  5
2C5
330
2
100
AcDbEntity
  8
GAIKEI
  6
Continuous
 62
     7
370
     9
100
AcDbLine
 10
-46.76078557396306
 20
29.21164287134445
 30
0.0
 11
1.13878023603695
 21
29.21164287134445
 31
0.0
  0
LINE
  5
2C6
330
2
100
AcDbEntity
  8
GAIKEI
  6
Continuous
 62
     7
370
     9
100
AcDbLine
 10
-47.01099124561181
 20
28.96143719969564
 30
0.0
 11
-47.01099124561181
 21
1.411866539695665
 31
0.0
  0
LINE
  5
2C7
330
2
100
AcDbEntity
  8
GAIKEI
  6
Continuous
 62
     7
370
     9
100
AcDbLine
 10
1.388985907685764
 20
1.411866539695665
 30
0.0
 11
1.388985907685764
 21
28.96143719969564
 31
0.0
  0
LINE
  5
2C8
330
2
100
AcDbEntity
  8
GAIKEI
  6
Continuous
 62
     1
370
     9
100
AcDbLine
 10
0.4238988538369313
 20
2.076538903930213
 30
0.0
 11
-46.04590439262881
 21
2.076538903930213
 31
0.0
  0
LINE
  5
2C9
330
2
100
AcDbEntity
  8
GAIKEI
  6
Continuous
 62
     1
370
     9
100
AcDbLine
 10
0.4238988538369313
 20
28.2967646345952
 30
0.0
 11
-46.04590439262881
 21
28.2967646345952
 31
0.0
  0
LINE
  5
2CA
330
2
100
AcDbEntity
  8
GAIKEI
  6
Continuous
 62
     1
370
     9
100
AcDbLine
 10
0.4295005992673851
 20
28.30236638002566
 30
0.0
 11
0.4238988538369313
 21
28.2967646345952
 31
0.0
  0
LINE
  5
2CB
330
2
100
AcDbEntity
  8
GAIKEI
  6
Continuous
 62
     1
370
     9
100
AcDbLine
 10
-46.0961132097284
 20
28.24655601836145
 30
0.0
 11
-46.0961132097284
 21
2.126747721029801
 31
0.0
  0
LINE
  5
2CC
330
2
100
AcDbEntity
  8
GAIKEI
  6
Continuous
 62
     1
370
     9
100
AcDbLine
 10
0.4797090146353753
 20
28.25215736206025
 30
0.0
 11
0.4741076709365757
 21
28.24655601836145
 31
0.0
  0
LINE
  5
2CD
330
2
100
AcDbEntity
  8
GAIKEI
  6
Continuous
 62
     1
370
     9
100
AcDbLine
 10
0.4741076709365757
 20
2.126747721029801
 30
0.0
 11
0.4741076709365757
 21
28.24655601836145
 31
0.0
  0
LINE
  5
2CE
330
2
100
AcDbEntity
  8
GAIKEI
  6
Continuous
 62
     1
370
     9
100
AcDbLine
 10
0.5165401694549701
 20
28.25251671097646
 30
0.0
 11
0.4947494440077663
 21
28.25251811703703
 31
0.0
  0
LINE
  5
2CF
330
2
100
AcDbEntity
  8
GAIKEI
  6
Continuous
 62
     1
370
     9
100
AcDbLine
 10
0.4298593455861806
 20
28.33919653051629
 30
0.0
 11
0.429859546451894
 21
28.31737045268824
 31
0.0
  0
LINE
  5
2D0
330
2
100
AcDbEntity
  8
GAIKEI
  6
Continuous
 62
     1
370
     9
100
AcDbLine
 10
1.247393194876167
 20
1.411866539695665
 30
0.0
 11
1.247393194876167
 21
28.96143719969564
 31
0.0
  0
LINE
  5
2D1
330
2
100
AcDbEntity
  8
GAIKEI
  6
Continuous
 62
     1
370
     9
100
AcDbLine
 10
1.13878023603695
 20
29.07005035940063
 30
0.0
 11
-46.76078557396306
 21
29.07005035940063
 31
0.0
  0
LINE
  5
2D2
330
2
100
AcDbEntity
  8
GAIKEI
  6
Continuous
 62
     1
370
     9
100
AcDbLine
 10
-46.86939873366805
 20
28.96143719969564
 30
0.0
 11
-46.86939873366805
 21
1.411866539695665
 31
0.0
  0
LINE
  5
2D3
330
2
100
AcDbEntity
  8
GAIKEI
  6
Continuous
 62
     1
370
     9
100
AcDbLine
 10
-46.76078557396306
 20
1.303253379990621
 30
0.0
 11
1.13878023603695
 21
1.303253379990621
 31
0.0
  0
LINE
  5
2D4
330
2
100
AcDbEntity
  8
GAIKEI
  6
Continuous
 62
     1
370
     9
100
AcDbLine
 10
-46.17371048038961
 20
28.25307953694807
 30
0.0
 11
-46.17374020852804
 21
2.119495662186636
 31
0.0
  0
LINE
  5
2D5
330
2
100
AcDbEntity
  8
GAIKEI
  6
Continuous
 62
     1
370
     9
100
AcDbLine
 10
0.5517051424635611
 20
2.120224001577412
 30
0.0
 11
0.5517348706019903
 21
28.25380787633884
 31
0.0
  0
LINE
  5
2D6
330
2
100
AcDbEntity
  8
GAIKEI
  6
Continuous
 62
     1
370
     9
100
AcDbLine
 10
0.429859546451894
 20
28.37436210612225
 30
0.0
 11
0.429859546451894
 21
28.33919653051629
 31
0.0
  0
LINE
  5
2D7
330
2
100
AcDbEntity
  8
GAIKEI
  6
Continuous
 62
     1
370
     9
100
AcDbLine
 10
0.430422573289377
 20
28.37436210612225
 30
0.0
 11
-46.05315645147203
 21
28.37439183426068
 31
0.0
  0
LINE
  5
2D8
330
2
100
AcDbEntity
  8
GAIKEI
  6
Continuous
 62
     1
370
     9
100
AcDbLine
 10
-46.0524281120812
 20
1.998941633269055
 30
0.0
 11
0.4311509126800957
 21
1.998911905130626
 31
0.0
  0
TEXT
  5
2D9
330
2
100
AcDbEntity
  8
MOJI1
100
AcDbText
 10
-28.94009819614087
 20
-29.05531365718741
 30
0.0
 40
3.0
  1
２００Ｗ
100
AcDbText
  0
TEXT
  5
2DA
330
2
100
AcDbEntity
  8
MOJI1
100
AcDbText
 10
-28.94009819614087
 20
-34.05531365718741
 30
0.0
 40
3.0
  1
４２Ｖ型（１０６７ｍｍ）１６：９
100
AcDbText
  0
TEXT
  5
2DB
330
2
100
AcDbEntity
  8
MOJI1
100
AcDbText
 10
-28.94009819614087
 20
-44.05531365718741
 30
0.0
 40
3.0
  1
１２００：１
100
AcDbText
  0
LINE
  5
2DC
330
2
100
AcDbEntity
  8
WAKU
 62
     1
100
AcDbLine
 10
-70.44009819614086
 20
-30.05531365718741
 30
0.0
 11
54.55990180385891
 21
-30.05531365718741
 31
0.0
  0
LINE
  5
2DE
330
2
100
AcDbEntity
  8
WAKU
 62
     1
100
AcDbLine
 10
-70.44009819614086
 20
-40.05531365718741
 30
0.0
 11
54.55990180385891
 21
-40.05531365718741
 31
0.0
  0
LINE
  5
2DF
330
2
100
AcDbEntity
  8
WAKU
 62
     4
100
AcDbLine
 10
-70.44009819614086
 20
-20.05531365718741
 30
0.0
 11
54.55990180385891
 21
-20.05531365718741
 31
0.0
  0
LINE
  5
2E0
330
2
100
AcDbEntity
  8
WAKU
 62
     1
100
AcDbLine
 10
-70.44009819614086
 20
-25.05531365718741
 30
0.0
 11
54.55990180385891
 21
-25.05531365718741
 31
0.0
  0
LINE
  5
2E1
330
2
100
AcDbEntity
  8
WAKU
 62
     1
100
AcDbLine
 10
-70.44009819614086
 20
-35.05531365718741
 30
0.0
 11
54.55990180385891
 21
-35.05531365718741
 31
0.0
  0
LINE
  5
2E2
330
2
100
AcDbEntity
  8
WAKU
 62
     1
100
AcDbLine
 10
-70.44009819614086
 20
-45.05531365718741
 30
0.0
 11
54.55990180385891
 21
-45.05531365718741
 31
0.0
  0
LINE
  5
2E3
330
2
100
AcDbEntity
  8
WAKU
 62
     4
100
AcDbLine
 10
54.55990180385891
 20
-55.05531365718741
 30
0.0
 11
-70.44009819614086
 21
-55.05531365718741
 31
0.0
  0
TEXT
  5
2E4
330
2
100
AcDbEntity
  8
MOJI1
100
AcDbText
 10
-28.94009819614087
 20
-39.05531365718741
 30
0.0
 40
3.0
  1
１９２０×１０８０画素
100
AcDbText
  0
TEXT
  5
2E5
330
2
100
AcDbEntity
  8
MOJI1
100
AcDbText
 10
-28.94009819614087
 20
-24.05531365718741
 30
0.0
 40
3.0
  1
ＡＣ１００Ｖ　５０Ｈｚ／６０Ｈｚ
100
AcDbText
  0
LINE
  5
2E6
330
2
100
AcDbEntity
  8
WAKU
 62
     4
100
AcDbLine
 10
-30.44009819614109
 20
-20.05531365718741
 30
0.0
 11
-30.44009819614109
 21
-55.05531365718741
 31
0.0
  0
LINE
  5
2E7
330
2
100
AcDbEntity
  8
WAKU
 62
     4
100
AcDbLine
 10
-70.44009819614109
 20
-20.05531365718741
 30
0.0
 11
-70.44009819614086
 21
-55.05531365718741
 31
0.0
  0
TEXT
  5
2E8
330
2
100
AcDbEntity
  8
MOJI1
100
AcDbText
 10
-67.94009819614086
 20
-34.05531365718741
 30
0.0
 40
3.0
  1
画面サイズ
100
AcDbText
  0
TEXT
  5
2E9
330
2
100
AcDbEntity
  8
MOJI1
100
AcDbText
 10
-67.94009819614086
 20
-44.05531365718741
 30
0.0
 40
3.0
  1
コントラスト
100
AcDbText
  0
TEXT
  5
2EA
330
2
100
AcDbEntity
  8
MOJI1
100
AcDbText
 10
-67.94009819614086
 20
-29.05531365718741
 30
0.0
 40
3.0
  1
消費電力
100
AcDbText
  0
TEXT
  5
2EB
330
2
100
AcDbEntity
  8
MOJI1
100
AcDbText
 10
-67.94009819614086
 20
-24.05531365718741
 30
0.0
 40
3.0
  1
電  源
100
AcDbText
  0
TEXT
  5
2EC
330
2
100
AcDbEntity
  8
MOJI1
100
AcDbText
 10
-67.94009819614086
 20
-39.05531365718741
 30
0.0
 40
3.0
  1
画素数
100
AcDbText
  0
LINE
  5
2ED
330
2
100
AcDbEntity
  8
WAKU
 62
     4
100
AcDbLine
 10
54.55990180385891
 20
-20.05531365718741
 30
0.0
 11
54.55990180385891
 21
-55.05531365718741
 31
0.0
  0
LINE
  5
2EE
330
2
100
AcDbEntity
  8
WAKU
 62
     1
100
AcDbLine
 10
-70.44009819614086
 20
-50.05531365718741
 30
0.0
 11
54.55990180385891
 21
-50.05531365718741
 31
0.0
  0
TEXT
  5
2EF
330
2
100
AcDbEntity
  8
MOJI1
100
AcDbText
 10
-67.94009819614086
 20
-49.05531365718741
 30
0.0
 40
3.0
  1
入出力端子
100
AcDbText
  0
TEXT
  5
2F0
330
2
100
AcDbEntity
  8
MOJI1
100
AcDbText
 10
-28.94009819614087
 20
-54.05531365718741
 30
0.0
 40
3.0
  1
約２０．５ ｋｇ
100
AcDbText
  0
TEXT
  5
2F1
330
2
100
AcDbEntity
  8
MOJI1
100
AcDbText
 10
-67.94009819614086
 20
-54.05531365718741
 30
0.0
 40
3.0
  1
質　量
100
AcDbText
  0
TEXT
  5
2F2
330
2
100
AcDbEntity
  8
MOJI1
100
AcDbText
 10
-28.94009819614087
 20
-49.05531365718741
 30
0.0
 40
3.0
  1
ＨＤＭＩ入力、ＤＶＩ－Ｄ入力、音声入力、ＰＣ入力、シリアル
 41
0.7800000000000001
100
AcDbText
  0
ENDSEC
  0
SECTION
  2
OBJECTS
  0
DICTIONARY
  5
9
330
0
100
AcDbDictionary
281
     1
  3
ACAD_COLOR
350
33
  3
ACAD_GROUP
350
2F
  3
ACAD_LAYOUT
350
D
  3
ACAD_MATERIAL
350
32
  3
ACAD_MLINESTYLE
350
30
  3
ACAD_PLOTSETTINGS
350
31
  3
ACAD_PLOTSTYLENAME
350
8
  3
ACDBHEADERROUNDTRIPXREC
350
330
  3
AcDbVariableDictionary
350
32B
  0
DICTIONARY
  5
15
330
14
100
AcDbDictionary
280
     1
281
     1
  3
ACAD_LAYERFILTERS
360
16
  3
ACAD_LAYERSTATES
360
18
  0
DICTIONARY
  5
3
330
2
100
AcDbDictionary
280
     1
281
     1
  3
ACAD_LAYOUTSELFREF
360
4
  0
DICTIONARY
  5
F
330
E
100
AcDbDictionary
280
     1
281
     1
  3
ACAD_LAYOUTSELFREF
360
10
  0
DICTIONARY
  5
28
330
27
100
AcDbDictionary
280
     1
281
     1
  0
DICTIONARY
  5
33
102
{ACAD_REACTORS
330
9
102
}
330
9
100
AcDbDictionary
281
     1
  0
DICTIONARY
  5
2F
102
{ACAD_REACTORS
330
9
102
}
330
9
100
AcDbDictionary
281
     1
  0
DICTIONARY
  5
D
102
{ACAD_REACTORS
330
9
102
}
330
9
100
AcDbDictionary
281
     1
  3
Model
350
C
  3
ﾚｲｱｳﾄ1
350
13
  0
DICTIONARY
  5
32
102
{ACAD_REACTORS
330
9
102
}
330
9
100
AcDbDictionary
281
     1
  0
DICTIONARY
  5
30
102
{ACAD_REACTORS
330
9
102
}
330
9
100
AcDbDictionary
281
     1
  3
STANDARD
350
35
  0
DICTIONARY
  5
31
102
{ACAD_REACTORS
330
9
102
}
330
9
100
AcDbDictionary
281
     1
  0
ACDBDICTIONARYWDFLT
  5
8
102
{ACAD_REACTORS
330
9
102
}
330
9
100
AcDbDictionary
281
     1
  3
Normal
350
7
100
AcDbDictionaryWithDefault
340
7
  0
DICTIONARY
  5
330
102
{ACAD_REACTORS
330
9
102
}
330
9
100
AcDbDictionary
281
     1
  3
COLORDICT
350
332
  3
MATERIALDICT
350
331
  0
DICTIONARY
  5
32B
102
{ACAD_REACTORS
330
9
102
}
330
9
100
AcDbDictionary
281
     1
  3
DIMASSOC
350
32D
  3
HIDETEXT
350
32C
  3
PROJECTNAME
350
32E
  0
DICTIONARY
  5
16
102
{ACAD_REACTORS
330
15
102
}
330
15
100
AcDbDictionary
280
     1
281
     1
  3
ロック画層
360
17
  0
DICTIONARY
  5
18
102
{ACAD_REACTORS
330
15
102
}
330
15
100
AcDbDictionary
281
     1
  0
XRECORD
  5
4
102
{ACAD_REACTORS
330
3
102
}
330
3
100
AcDbXrecord
280
     1
340
2
  0
XRECORD
  5
10
102
{ACAD_REACTORS
330
F
102
}
330
F
100
AcDbXrecord
280
     1
340
E
  0
LAYOUT
  5
C
102
{ACAD_XDICTIONARY
360
333
102
}
102
{ACAD_REACTORS
330
D
102
}
330
D
100
AcDbPlotSettings
  1

  2
\\MARS\NX800A(RPDL)
  4
A4
  6

 40
5.831416606903076
 41
4.942422866821289
 42
7.609405517578125
 43
5.789093017578125
 44
209.9733276367187
 45
296.9683227539062
 46
4.23
 47
0.0
 48
0.0
 49
0.0
140
0.0
141
0.0
142
1.0
143
1.377557041813
 70
 11956
 72
     1
 73
     0
 74
     1
  7
tmsacad.ctb
 75
     0
147
0.7259227528494222
148
0.5228791232484547
149
0.0333900090324306
100
AcDbLayout
  1
Model
 70
     1
 71
     0
 10
0.0
 20
0.0
 11
12.0
 21
9.0
 12
0.0
 22
0.0
 32
0.0
 14
0.0
 24
0.0
 34
0.0
 15
0.0
 25
0.0
 35
0.0
146
0.0
 13
0.0
 23
0.0
 33
0.0
 16
1.0
 26
0.0
 36
0.0
 17
0.0
 27
1.0
 37
0.0
 76
     0
330
2
  0
LAYOUT
  5
13
102
{ACAD_XDICTIONARY
360
335
102
}
102
{ACAD_REACTORS
330
D
102
}
330
D
100
AcDbPlotSettings
  1

  2
C:\Program Files\ACAD2000\plotters\DWF ePlot.pc3
  4

  6

 40
0.0
 41
0.0
 42
0.0
 43
0.0
 44
0.0
 45
0.0
 46
0.0
 47
0.0
 48
0.0
 49
0.0
140
0.0
141
0.0
142
1.0
143
1.0
 70
   688
 72
     0
 73
     0
 74
     5
  7
全て黄色設定.ctb
 75
    16
147
1.0
148
0.0
149
0.0
100
AcDbLayout
  1
ﾚｲｱｳﾄ1
 70
     1
 71
     1
 10
0.0
 20
0.0
 11
12.0
 21
9.0
 12
0.0
 22
0.0
 32
0.0
 14
1.000000000000000E+20
 24
1.000000000000000E+20
 34
1.000000000000000E+20
 15
-1.000000000000000E+20
 25
-1.000000000000000E+20
 35
-1.000000000000000E+20
146
0.0
 13
0.0
 23
0.0
 33
0.0
 16
1.0
 26
0.0
 36
0.0
 17
0.0
 27
1.0
 37
0.0
 76
     0
330
E
  0
MLINESTYLE
  5
35
102
{ACAD_REACTORS
330
30
102
}
330
30
100
AcDbMlineStyle
  2
STANDARD
 70
     0
  3

 62
   256
 51
90.0
 52
90.0
 71
     2
 49
0.5
 62
   256
  6
BYLAYER
 49
-0.5
 62
   256
  6
BYLAYER
  0
ACDBPLACEHOLDER
  5
7
102
{ACAD_REACTORS
330
8
102
}
330
8
  0
XRECORD
  5
332
102
{ACAD_REACTORS
330
330
102
}
330
330
100
AcDbXrecord
280
     1
340
33
  0
XRECORD
  5
331
102
{ACAD_REACTORS
330
330
102
}
330
330
100
AcDbXrecord
280
     1
340
32
  0
DICTIONARYVAR
  5
32D
102
{ACAD_REACTORS
330
32B
102
}
330
32B
100
DictionaryVariables
280
     0
  1
1
  0
DICTIONARYVAR
  5
32C
102
{ACAD_REACTORS
330
32B
102
}
330
32B
100
DictionaryVariables
280
     0
  1
1
  0
DICTIONARYVAR
  5
32E
102
{ACAD_REACTORS
330
32B
102
}
330
32B
100
DictionaryVariables
280
     0
  1

  0
XRECORD
  5
17
102
{ACAD_REACTORS
330
16
102
}
330
16
100
AcDbXrecord
280
     1
  1
ロック画層
  1
*
  1
*
  1
*
 70
   256
  1
*
  1
*
  0
DICTIONARY
  5
333
330
C
100
AcDbDictionary
280
     1
281
     1
  3
ACAD_XREC_ROUNDTRIP
360
334
  0
DICTIONARY
  5
335
330
13
100
AcDbDictionary
280
     1
281
     1
  3
ACAD_XREC_ROUNDTRIP
360
336
  0
XRECORD
  5
334
102
{ACAD_REACTORS
330
333
102
}
330
333
100
AcDbXrecord
280
     1
102
SHADEPLOT
 70
     0
102
SHADEPLOTRESLEVEL
 70
     2
102
SHADEPLOTCUSTOMDPI
 70
   300
  0
XRECORD
  5
336
102
{ACAD_REACTORS
330
335
102
}
330
335
100
AcDbXrecord
280
     1
102
SHADEPLOT
 70
     0
102
SHADEPLOTRESLEVEL
 70
     2
102
SHADEPLOTCUSTOMDPI
 70
   300
  0
ENDSEC
  0
EOF
