  0
SECTION
  2
HEADER
  9
$ACADVER
  1
AC1015
  9
$ACADMAINTVER
 70
    20
  9
$DWGCODEPAGE
  3
ANSI_932
  9
$INSBASE
 10
0.4999999440410648
 20
120.5008351249346
 30
0.0
  9
$EXTMIN
 10
-62.01690583258971
 20
-53.21310361848805
 30
-0.0015258207003583
  9
$EXTMAX
 10
62.98461970289316
 20
59.81149333530516
 30
0.0000000349246037
  9
$LIMMIN
 10
0.0
 20
0.0
  9
$LIMMAX
 10
420.0
 20
297.0
  9
$ORTHOMODE
 70
     1
  9
$REGENMODE
 70
     0
  9
$FILLMODE
 70
     1
  9
$QTEXTMODE
 70
     0
  9
$MIRRTEXT
 70
     0
  9
$LTSCALE
 40
1.0
  9
$ATTMODE
 70
     1
  9
$TEXTSIZE
 40
2.5
  9
$TRACEWID
 40
1.0
  9
$TEXTSTYLE
  7
Standard
  9
$CLAYER
  8
SUNPO
  9
$CELTYPE
  6
ByLayer
  9
$CECOLOR
 62
   256
  9
$CELTSCALE
 40
1.0
  9
$DISPSILH
 70
     0
  9
$DIMSCALE
 40
1.0
  9
$DIMASZ
 40
2.0
  9
$DIMEXO
 40
2.0
  9
$DIMDLI
 40
8.0
  9
$DIMRND
 40
0.0
  9
$DIMDLE
 40
0.0
  9
$DIMEXE
 40
2.0
  9
$DIMTP
 40
0.0
  9
$DIMTM
 40
0.0
  9
$DIMTXT
 40
2.5
  9
$DIMCEN
 40
0.0
  9
$DIMTSZ
 40
0.0
  9
$DIMTOL
 70
     0
  9
$DIMLIM
 70
     0
  9
$DIMTIH
 70
     0
  9
$DIMTOH
 70
     0
  9
$DIMSE1
 70
     0
  9
$DIMSE2
 70
     0
  9
$DIMTAD
 70
     3
  9
$DIMZIN
 70
     0
  9
$DIMBLK
  1

  9
$DIMASO
 70
     1
  9
$DIMSHO
 70
     1
  9
$DIMPOST
  1

  9
$DIMAPOST
  1

  9
$DIMALT
 70
     0
  9
$DIMALTD
 70
     2
  9
$DIMALTF
 40
25.4
  9
$DIMLFAC
 40
1.0
  9
$DIMTOFL
 70
     1
  9
$DIMTVP
 40
0.0
  9
$DIMTIX
 70
     0
  9
$DIMSOXD
 70
     0
  9
$DIMSAH
 70
     1
  9
$DIMBLK1
  1
OPEN30
  9
$DIMBLK2
  1
OPEN30
  9
$DIMSTYLE
  2
STANDARD
  9
$DIMCLRD
 70
     0
  9
$DIMCLRE
 70
     0
  9
$DIMCLRT
 70
     0
  9
$DIMTFAC
 40
1.0
  9
$DIMGAP
 40
0.5
  9
$DIMJUST
 70
     0
  9
$DIMSD1
 70
     0
  9
$DIMSD2
 70
     0
  9
$DIMTOLJ
 70
     1
  9
$DIMTZIN
 70
     0
  9
$DIMALTZ
 70
     0
  9
$DIMALTTZ
 70
     0
  9
$DIMUPT
 70
     0
  9
$DIMDEC
 70
     4
  9
$DIMTDEC
 70
     4
  9
$DIMALTU
 70
     2
  9
$DIMALTTD
 70
     2
  9
$DIMTXSTY
  7
Standard
  9
$DIMAUNIT
 70
     0
  9
$DIMADEC
 70
     0
  9
$DIMALTRND
 40
0.0
  9
$DIMAZIN
 70
     0
  9
$DIMDSEP
 70
    46
  9
$DIMATFIT
 70
     3
  9
$DIMFRAC
 70
     0
  9
$DIMLDRBLK
  1
OPEN30
  9
$DIMLUNIT
 70
     2
  9
$DIMLWD
 70
    -2
  9
$DIMLWE
 70
    -2
  9
$DIMTMOVE
 70
     0
  9
$LUNITS
 70
     2
  9
$LUPREC
 70
     4
  9
$SKETCHINC
 40
1.0
  9
$FILLETRAD
 40
0.0
  9
$AUNITS
 70
     0
  9
$AUPREC
 70
     0
  9
$MENU
  1
.
  9
$ELEVATION
 40
0.0
  9
$PELEVATION
 40
0.0
  9
$THICKNESS
 40
0.0
  9
$LIMCHECK
 70
     0
  9
$CHAMFERA
 40
0.0
  9
$CHAMFERB
 40
0.0
  9
$CHAMFERC
 40
0.0
  9
$CHAMFERD
 40
0.0
  9
$SKPOLY
 70
     0
  9
$TDCREATE
 40
2454349.434269746
  9
$TDUCREATE
 40
2454349.059269746
  9
$TDUPDATE
 40
2455042.677424248
  9
$TDUUPDATE
 40
2455042.302424248
  9
$TDINDWG
 40
0.2872017824
  9
$TDUSRTIMER
 40
0.2872017824
  9
$USRTIMER
 70
     1
  9
$ANGBASE
 50
0.0
  9
$ANGDIR
 70
     0
  9
$PDMODE
 70
     0
  9
$PDSIZE
 40
0.0
  9
$PLINEWID
 40
0.0
  9
$SPLFRAME
 70
     0
  9
$SPLINETYPE
 70
     6
  9
$SPLINESEGS
 70
     8
  9
$HANDSEED
  5
284
  9
$SURFTAB1
 70
     6
  9
$SURFTAB2
 70
     6
  9
$SURFTYPE
 70
     6
  9
$SURFU
 70
     6
  9
$SURFV
 70
     6
  9
$UCSBASE
  2

  9
$UCSNAME
  2

  9
$UCSORG
 10
0.0
 20
0.0
 30
0.0
  9
$UCSXDIR
 10
1.0
 20
0.0
 30
0.0
  9
$UCSYDIR
 10
0.0
 20
1.0
 30
0.0
  9
$UCSORTHOREF
  2

  9
$UCSORTHOVIEW
 70
     0
  9
$UCSORGTOP
 10
0.0
 20
0.0
 30
0.0
  9
$UCSORGBOTTOM
 10
0.0
 20
0.0
 30
0.0
  9
$UCSORGLEFT
 10
0.0
 20
0.0
 30
0.0
  9
$UCSORGRIGHT
 10
0.0
 20
0.0
 30
0.0
  9
$UCSORGFRONT
 10
0.0
 20
0.0
 30
0.0
  9
$UCSORGBACK
 10
0.0
 20
0.0
 30
0.0
  9
$PUCSBASE
  2

  9
$PUCSNAME
  2

  9
$PUCSORG
 10
0.0
 20
0.0
 30
0.0
  9
$PUCSXDIR
 10
1.0
 20
0.0
 30
0.0
  9
$PUCSYDIR
 10
0.0
 20
1.0
 30
0.0
  9
$PUCSORTHOREF
  2

  9
$PUCSORTHOVIEW
 70
     0
  9
$PUCSORGTOP
 10
0.0
 20
0.0
 30
0.0
  9
$PUCSORGBOTTOM
 10
0.0
 20
0.0
 30
0.0
  9
$PUCSORGLEFT
 10
0.0
 20
0.0
 30
0.0
  9
$PUCSORGRIGHT
 10
0.0
 20
0.0
 30
0.0
  9
$PUCSORGFRONT
 10
0.0
 20
0.0
 30
0.0
  9
$PUCSORGBACK
 10
0.0
 20
0.0
 30
0.0
  9
$USERI1
 70
     0
  9
$USERI2
 70
     0
  9
$USERI3
 70
     0
  9
$USERI4
 70
     0
  9
$USERI5
 70
     0
  9
$USERR1
 40
0.0
  9
$USERR2
 40
0.0
  9
$USERR3
 40
0.0
  9
$USERR4
 40
0.0
  9
$USERR5
 40
0.0
  9
$WORLDVIEW
 70
     1
  9
$SHADEDGE
 70
     3
  9
$SHADEDIF
 70
    70
  9
$TILEMODE
 70
     1
  9
$MAXACTVP
 70
    64
  9
$PINSBASE
 10
0.0
 20
0.0
 30
0.0
  9
$PLIMCHECK
 70
     0
  9
$PEXTMIN
 10
0.0
 20
0.0
 30
0.0
  9
$PEXTMAX
 10
0.0
 20
0.0
 30
0.0
  9
$PLIMMIN
 10
0.0
 20
0.0
  9
$PLIMMAX
 10
12.0
 20
9.0
  9
$UNITMODE
 70
     0
  9
$VISRETAIN
 70
     1
  9
$PLINEGEN
 70
     0
  9
$PSLTSCALE
 70
     1
  9
$TREEDEPTH
 70
  3020
  9
$CMLSTYLE
  2
Standard
  9
$CMLJUST
 70
     0
  9
$CMLSCALE
 40
20.0
  9
$PROXYGRAPHICS
 70
     1
  9
$MEASUREMENT
 70
     1
  9
$CELWEIGHT
370
    -1
  9
$ENDCAPS
280
     0
  9
$JOINSTYLE
280
     0
  9
$LWDISPLAY
290
     0
  9
$INSUNITS
 70
     4
  9
$HYPERLINKBASE
  1

  9
$STYLESHEET
  1

  9
$XEDIT
290
     1
  9
$CEPSNTYPE
380
     0
  9
$PSTYLEMODE
290
     1
  9
$FINGERPRINTGUID
  2
{FDEAD578-A652-11D2-9A35-0060089B3A3F}
  9
$VERSIONGUID
  2
{32BADB6F-2590-4C79-91DC-FBEB8AACFE39}
  9
$EXTNAMES
290
     1
  9
$PSVPSCALE
 40
0.0
  9
$OLESTARTUP
290
     0
  0
ENDSEC
  0
SECTION
  2
CLASSES
  0
CLASS
  1
ACDBDICTIONARYWDFLT
  2
AcDbDictionaryWithDefault
  3
ObjectDBX Classes
 90
        0
280
     0
281
     0
  0
CLASS
  1
ACDBPLACEHOLDER
  2
AcDbPlaceHolder
  3
ObjectDBX Classes
 90
        0
280
     0
281
     0
  0
CLASS
  1
LAYOUT
  2
AcDbLayout
  3
ObjectDBX Classes
 90
        0
280
     0
281
     0
  0
CLASS
  1
DICTIONARYVAR
  2
AcDbDictionaryVar
  3
ObjectDBX Classes
 90
        0
280
     0
281
     0
  0
CLASS
  1
DIMASSOC
  2
AcDbDimAssoc
  3
"AcDbDimAssoc|Product Desc:     AcDim ARX App For Dimension|Company:          Autodesk, Inc.|WEB Address:      www.autodesk.com"
 90
    32768
280
     0
281
     0
  0
CLASS
  1
SORTENTSTABLE
  2
AcDbSortentsTable
  3
ObjectDBX Classes
 90
    32768
280
     0
281
     0
  0
ENDSEC
  0
SECTION
  2
TABLES
  0
TABLE
  2
VPORT
  5
1B
330
0
100
AcDbSymbolTable
 70
     3
  0
VPORT
  5
27C
330
1B
100
AcDbSymbolTableRecord
100
AcDbViewportTableRecord
  2
*Active
 70
     0
 10
0.0
 20
0.0
 11
1.0
 21
1.0
 12
0.4838569351517173
 22
3.299194858408554
 13
0.0
 23
0.0
 14
10.0
 24
10.0
 15
10.0
 25
10.0
 16
0.0
 26
0.0
 36
1.0
 17
0.0
 27
0.0
 37
0.0
 40
113.8906858193395
 41
1.39386189258312
 42
50.0
 43
0.0
 44
0.0
 50
0.0
 51
0.0
 71
     0
 72
  1000
 73
     1
 74
     2
 75
     0
 76
     0
 77
     0
 78
     0
281
     0
 65
     1
110
0.0
120
0.0
130
0.0
111
1.0
121
0.0
131
0.0
112
0.0
122
1.0
132
0.0
 79
     0
146
0.0
  0
ENDTAB
  0
TABLE
  2
LTYPE
  5
16
330
0
100
AcDbSymbolTable
 70
     1
  0
LTYPE
  5
17
330
16
100
AcDbSymbolTableRecord
100
AcDbLinetypeTableRecord
  2
ByBlock
 70
     0
  3

 72
    65
 73
     0
 40
0.0
  0
LTYPE
  5
18
330
16
100
AcDbSymbolTableRecord
100
AcDbLinetypeTableRecord
  2
ByLayer
 70
     0
  3

 72
    65
 73
     0
 40
0.0
  0
LTYPE
  5
8
330
16
100
AcDbSymbolTableRecord
100
AcDbLinetypeTableRecord
  2
Continuous
 70
     0
  3
Solid line
 72
    65
 73
     0
 40
0.0
  0
ENDTAB
  0
TABLE
  2
LAYER
  5
10
102
{ACAD_XDICTIONARY
360
11
102
}
330
0
100
AcDbSymbolTable
 70
     7
  0
LAYER
  5
4
330
10
100
AcDbSymbolTableRecord
100
AcDbLayerTableRecord
  2
0
 70
     0
 62
     7
  6
Continuous
370
    -3
390
5
  0
LAYER
  5
15B
330
10
100
AcDbSymbolTableRecord
100
AcDbLayerTableRecord
  2
WAKU
 70
     0
 62
     4
  6
Continuous
370
    -3
390
5
  0
LAYER
  5
31
330
10
100
AcDbSymbolTableRecord
100
AcDbLayerTableRecord
  2
MOJI1
 70
     0
 62
     2
  6
Continuous
370
    -3
390
5
  0
LAYER
  5
33
330
10
100
AcDbSymbolTableRecord
100
AcDbLayerTableRecord
  2
TOUROKU
 70
     0
 62
     1
  6
Continuous
370
    -3
390
5
  0
LAYER
  5
35
330
10
100
AcDbSymbolTableRecord
100
AcDbLayerTableRecord
  2
GAIKEI
 70
     0
 62
     7
  6
Continuous
370
    -3
390
5
  0
LAYER
  5
119
330
10
100
AcDbSymbolTableRecord
100
AcDbLayerTableRecord
  2
Defpoints
 70
     0
 62
     7
  6
Continuous
290
     0
370
    -3
390
5
  0
LAYER
  5
2E
330
10
100
AcDbSymbolTableRecord
100
AcDbLayerTableRecord
  2
SUNPO
 70
     0
 62
     3
  6
Continuous
370
    -3
390
5
  0
ENDTAB
  0
TABLE
  2
STYLE
  5
13
330
0
100
AcDbSymbolTable
 70
     1
  0
STYLE
  5
14
330
13
100
AcDbSymbolTableRecord
100
AcDbTextStyleTableRecord
  2
Standard
 70
     0
 40
0.0
 41
1.0
 50
0.0
 71
     0
 42
2.5
  3
MONOTXT.shx
  4
BIGFONT.shx
  0
ENDTAB
  0
TABLE
  2
VIEW
  5
19
330
0
100
AcDbSymbolTable
 70
     0
  0
ENDTAB
  0
TABLE
  2
UCS
  5
1A
330
0
100
AcDbSymbolTable
 70
     0
  0
ENDTAB
  0
TABLE
  2
APPID
  5
1D
330
0
100
AcDbSymbolTable
 70
     1
  0
APPID
  5
1E
330
1D
100
AcDbSymbolTableRecord
100
AcDbRegAppTableRecord
  2
ACAD
 70
     0
  0
ENDTAB
  0
TABLE
  2
DIMSTYLE
  5
1F
330
0
100
AcDbSymbolTable
 70
     2
100
AcDbDimStyleTable
 71
     2
340
20
340
27
  0
DIMSTYLE
105
27
330
1F
100
AcDbSymbolTableRecord
100
AcDbDimStyleTableRecord
  2
ISO-25
 70
     0
 41
2.5
 42
0.625
 43
3.75
 44
1.25
 73
     0
 74
     0
 77
     1
 78
     8
140
2.5
141
2.5
143
0.03937007874016
147
0.625
171
     3
172
     1
271
     2
272
     2
274
     3
278
    44
283
     0
284
     8
340
14
  0
DIMSTYLE
105
20
102
{ACAD_REACTORS
330
1E7
330
1DA
330
1CD
330
1C0
330
11D
330
10D
102
}
330
1F
100
AcDbSymbolTableRecord
100
AcDbDimStyleTableRecord
  2
STANDARD
 70
     0
 40
0.0
 41
2.0
 42
2.0
 43
8.0
 44
2.0
 73
     0
 74
     0
 77
     3
140
3.0
141
0.0
173
     1
279
     2
288
     1
340
14
341
21
343
21
344
21
  0
ENDTAB
  0
TABLE
  2
BLOCK_RECORD
  5
1
330
0
100
AcDbSymbolTable
 70
    13
  0
BLOCK_RECORD
  5
2
330
1
100
AcDbSymbolTableRecord
100
AcDbBlockTableRecord
  2
*Model_Space
340
A
  0
BLOCK_RECORD
  5
C
330
1
100
AcDbSymbolTableRecord
100
AcDbBlockTableRecord
  2
*Paper_Space
340
F
  0
BLOCK_RECORD
  5
21
330
1
100
AcDbSymbolTableRecord
100
AcDbBlockTableRecord
  2
_OPEN30
340
0
102
{BLKREFS
331
1C6
331
1C7
331
1D3
331
1D4
331
1ED
331
1EE
331
1E0
331
1E1
331
115
331
116
331
123
331
124
331
232
331
233
331
23E
331
23F
331
24A
331
24B
331
256
331
257
331
262
331
263
331
270
331
271
102
}
  0
BLOCK_RECORD
  5
1E8
330
1
100
AcDbSymbolTableRecord
100
AcDbBlockTableRecord
  2
*D1
340
0
  0
BLOCK_RECORD
  5
1DB
330
1
100
AcDbSymbolTableRecord
100
AcDbBlockTableRecord
  2
*D2
340
0
  0
BLOCK_RECORD
  5
1CE
330
1
100
AcDbSymbolTableRecord
100
AcDbBlockTableRecord
  2
*D3
340
0
  0
BLOCK_RECORD
  5
1C1
330
1
100
AcDbSymbolTableRecord
100
AcDbBlockTableRecord
  2
*D4
340
0
  0
BLOCK_RECORD
  5
11E
330
1
100
AcDbSymbolTableRecord
100
AcDbBlockTableRecord
  2
*D5
340
0
  0
BLOCK_RECORD
  5
10E
330
1
100
AcDbSymbolTableRecord
100
AcDbBlockTableRecord
  2
*D6
340
0
  0
BLOCK_RECORD
  5
22E
330
1
100
AcDbSymbolTableRecord
100
AcDbBlockTableRecord
  2
*D7
340
0
  0
BLOCK_RECORD
  5
23A
330
1
100
AcDbSymbolTableRecord
100
AcDbBlockTableRecord
  2
*D8
340
0
  0
BLOCK_RECORD
  5
246
330
1
100
AcDbSymbolTableRecord
100
AcDbBlockTableRecord
  2
*D9
340
0
  0
BLOCK_RECORD
  5
252
330
1
100
AcDbSymbolTableRecord
100
AcDbBlockTableRecord
  2
*D10
340
0
  0
BLOCK_RECORD
  5
25E
330
1
100
AcDbSymbolTableRecord
100
AcDbBlockTableRecord
  2
*D11
340
0
  0
BLOCK_RECORD
  5
26A
330
1
100
AcDbSymbolTableRecord
100
AcDbBlockTableRecord
  2
*D12
340
0
  0
ENDTAB
  0
ENDSEC
  0
SECTION
  2
BLOCKS
  0
BLOCK
  5
3
330
2
100
AcDbEntity
  8
0
100
AcDbBlockBegin
  2
*Model_Space
 70
     0
 10
0.0
 20
0.0
 30
0.0
  3
*Model_Space
  1

  0
ENDBLK
  5
9
330
2
100
AcDbEntity
  8
0
100
AcDbBlockEnd
  0
BLOCK
  5
D
330
C
100
AcDbEntity
 67
     1
  8
0
100
AcDbBlockBegin
  2
*Paper_Space
 70
     0
 10
0.0
 20
0.0
 30
0.0
  3
*Paper_Space
  1

  0
ENDBLK
  5
E
330
C
100
AcDbEntity
 67
     1
  8
0
100
AcDbBlockEnd
  0
BLOCK
  5
22
330
21
100
AcDbEntity
  8
0
100
AcDbBlockBegin
  2
_OPEN30
 70
     0
 10
0.0
 20
0.0
 30
0.0
  3
_OPEN30
  1

  0
LINE
  5
23
330
21
100
AcDbEntity
  8
0
  6
ByBlock
 62
     0
100
AcDbLine
 10
-1.0
 20
0.26794919
 30
0.0
 11
0.0
 21
0.0
 31
0.0
  0
LINE
  5
24
330
21
100
AcDbEntity
  8
0
  6
ByBlock
 62
     0
100
AcDbLine
 10
0.0
 20
0.0
 30
0.0
 11
-1.0
 21
-0.26794919
 31
0.0
  0
LINE
  5
25
330
21
100
AcDbEntity
  8
0
  6
ByBlock
 62
     0
100
AcDbLine
 10
0.0
 20
0.0
 30
0.0
 11
-1.0
 21
0.0
 31
0.0
  0
ENDBLK
  5
26
330
21
100
AcDbEntity
  8
0
100
AcDbBlockEnd
  0
BLOCK
  5
1E9
330
1E8
100
AcDbEntity
  8
0
100
AcDbBlockBegin
  2
*D1
 70
     1
 10
0.0
 20
0.0
 30
0.0
  3
*D1
  1

  0
LINE
  5
1EA
330
1E8
100
AcDbEntity
  8
SUNPO
 62
     0
370
    -2
100
AcDbLine
 10
32.09236918952183
 20
60.15467283427447
 30
0.0
 11
32.09236918952183
 21
53.15467283427448
 31
0.0
  0
LINE
  5
1EB
330
1E8
100
AcDbEntity
  8
SUNPO
 62
     0
370
    -2
100
AcDbLine
 10
61.00723707463839
 20
60.15467283427447
 30
0.0
 11
61.00723707463839
 21
53.15467283427448
 31
0.0
  0
LINE
  5
1EC
330
1E8
100
AcDbEntity
  8
SUNPO
 62
     0
370
    -2
100
AcDbLine
 10
34.09236918952184
 20
55.15467283427447
 30
0.0
 11
59.00723707463839
 21
55.15467283427447
 31
0.0
  0
INSERT
  5
1ED
330
1E8
100
AcDbEntity
  8
SUNPO
 62
     0
370
    -2
100
AcDbBlockReference
  2
_OPEN30
 10
32.09236918952183
 20
55.15467283427447
 30
0.0
 41
2.0
 42
2.0
 43
2.0
 50
180.0
  0
INSERT
  5
1EE
330
1E8
100
AcDbEntity
  8
SUNPO
 62
     0
370
    -2
100
AcDbBlockReference
  2
_OPEN30
 10
61.00723707463839
 20
55.15467283427447
 30
0.0
 41
2.0
 42
2.0
 43
2.0
  0
MTEXT
  5
1EF
330
1E8
100
AcDbEntity
  8
SUNPO
 62
     0
100
AcDbMText
 10
46.54980313208011
 20
56.90467283427448
 30
0.0
 40
2.5
 41
0.0
 71
     5
 72
     1
  1
\A1;578
 73
     1
 44
1.0
1001
ACAD
1000
MTEXTBEGIN
1070
    73
1070
     1
1070
    44
1040
1.0
1070
    74
1070
     0
1000
MTEXTEND
  0
POINT
  5
1F0
330
1E8
100
AcDbEntity
  8
Defpoints
 62
     0
100
AcDbPoint
 10
32.09236918952183
 20
62.15467283427448
 30
0.0
  0
POINT
  5
1F1
330
1E8
100
AcDbEntity
  8
Defpoints
 62
     0
100
AcDbPoint
 10
61.00723707463839
 20
62.15467283427448
 30
0.0
  0
POINT
  5
1F2
330
1E8
100
AcDbEntity
  8
Defpoints
 62
     0
100
AcDbPoint
 10
61.00723707463839
 20
55.15467283427447
 30
0.0
  0
ENDBLK
  5
1F3
330
1E8
100
AcDbEntity
  8
0
100
AcDbBlockEnd
  0
BLOCK
  5
1DC
330
1DB
100
AcDbEntity
  8
0
100
AcDbBlockBegin
  2
*D2
 70
     1
 10
0.0
 20
0.0
 30
0.0
  3
*D2
  1

  0
LINE
  5
1DD
330
1DB
100
AcDbEntity
  8
SUNPO
 62
     0
370
    -2
100
AcDbLine
 10
82.05381439818735
 20
95.64099384401083
 30
0.0
 11
89.05381439818734
 21
95.64099384401083
 31
0.0
  0
LINE
  5
1DE
330
1DB
100
AcDbEntity
  8
SUNPO
 62
     0
370
    -2
100
AcDbLine
 10
63.50511938864122
 20
62.17391587388902
 30
0.0
 11
89.05381439818734
 21
62.17391587388901
 31
0.0
  0
LINE
  5
1DF
330
1DB
100
AcDbEntity
  8
SUNPO
 62
     0
370
    -2
100
AcDbLine
 10
87.05381439818735
 20
93.64099384401084
 30
0.0
 11
87.05381439818735
 21
64.17391587388902
 31
0.0
  0
INSERT
  5
1E0
330
1DB
100
AcDbEntity
  8
SUNPO
 62
     0
370
    -2
100
AcDbBlockReference
  2
_OPEN30
 10
87.05381439818735
 20
95.64099384401083
 30
0.0
 41
2.0
 42
2.0
 43
2.0
 50
90.0
  0
INSERT
  5
1E1
330
1DB
100
AcDbEntity
  8
SUNPO
 62
     0
370
    -2
100
AcDbBlockReference
  2
_OPEN30
 10
87.05381439818735
 20
62.17391587388901
 30
0.0
 41
2.0
 42
2.0
 43
2.0
 50
270.0
  0
MTEXT
  5
1E2
330
1DB
100
AcDbEntity
  8
SUNPO
 62
     0
100
AcDbMText
 10
85.30381439818732
 20
78.90745485894993
 30
0.0
 40
2.5
 41
0.0
 71
     5
 72
     1
  1
\A1;669
 11
0.0000000000000001
 21
1.0
 31
0.0
 73
     1
 44
1.0
1001
ACAD
1000
MTEXTBEGIN
1070
    73
1070
     1
1070
    44
1040
1.0
1070
    74
1070
     0
1000
MTEXTEND
  0
POINT
  5
1E3
330
1DB
100
AcDbEntity
  8
Defpoints
 62
     0
100
AcDbPoint
 10
80.05381439818734
 20
95.64099384401083
 30
0.0
  0
POINT
  5
1E4
330
1DB
100
AcDbEntity
  8
Defpoints
 62
     0
100
AcDbPoint
 10
61.50511938864122
 20
62.17391587388902
 30
0.0
  0
POINT
  5
1E5
330
1DB
100
AcDbEntity
  8
Defpoints
 62
     0
100
AcDbPoint
 10
87.05381439818735
 20
62.17391587388901
 30
0.0
  0
ENDBLK
  5
1E6
330
1DB
100
AcDbEntity
  8
0
100
AcDbBlockEnd
  0
BLOCK
  5
1CF
330
1CE
100
AcDbEntity
  8
0
100
AcDbBlockBegin
  2
*D3
 70
     1
 10
0.0
 20
0.0
 30
0.0
  3
*D3
  1

  0
LINE
  5
1D0
330
1CE
100
AcDbEntity
  8
SUNPO
 62
     0
370
    -2
100
AcDbLine
 10
74.04728104502341
 20
65.14099384401084
 30
0.0
 11
82.04728104502342
 21
65.14099384401084
 31
0.0
  0
LINE
  5
1D1
330
1CE
100
AcDbEntity
  8
SUNPO
 62
     0
370
    -2
100
AcDbLine
 10
74.04728104502341
 20
95.64099384401078
 30
0.0
 11
82.04728104502342
 21
95.64099384401078
 31
0.0
  0
LINE
  5
1D2
330
1CE
100
AcDbEntity
  8
SUNPO
 62
     0
370
    -2
100
AcDbLine
 10
80.04728104502341
 20
67.14099384401084
 30
0.0
 11
80.04728104502341
 21
93.64099384401077
 31
0.0
  0
INSERT
  5
1D3
330
1CE
100
AcDbEntity
  8
SUNPO
 62
     0
370
    -2
100
AcDbBlockReference
  2
_OPEN30
 10
80.04728104502341
 20
65.14099384401084
 30
0.0
 41
2.0
 42
2.0
 43
2.0
 50
270.0
  0
INSERT
  5
1D4
330
1CE
100
AcDbEntity
  8
SUNPO
 62
     0
370
    -2
100
AcDbBlockReference
  2
_OPEN30
 10
80.04728104502341
 20
95.64099384401078
 30
0.0
 41
2.0
 42
2.0
 43
2.0
 50
90.0
  0
MTEXT
  5
1D5
330
1CE
100
AcDbEntity
  8
SUNPO
 62
     0
100
AcDbMText
 10
78.2972810450234
 20
80.39099384401081
 30
0.0
 40
2.5
 41
0.0
 71
     5
 72
     1
  1
\A1;610
 11
0.0000000000000001
 21
1.0
 31
0.0
 73
     1
 44
1.0
1001
ACAD
1000
MTEXTBEGIN
1070
    73
1070
     1
1070
    44
1040
1.0
1070
    74
1070
     0
1000
MTEXTEND
  0
POINT
  5
1D6
330
1CE
100
AcDbEntity
  8
Defpoints
 62
     0
100
AcDbPoint
 10
72.04728104502341
 20
65.14099384401084
 30
0.0
  0
POINT
  5
1D7
330
1CE
100
AcDbEntity
  8
Defpoints
 62
     0
100
AcDbPoint
 10
72.04728104502341
 20
95.64099384401078
 30
0.0
  0
POINT
  5
1D8
330
1CE
100
AcDbEntity
  8
Defpoints
 62
     0
100
AcDbPoint
 10
80.04728104502341
 20
95.64099384401078
 30
0.0
  0
ENDBLK
  5
1D9
330
1CE
100
AcDbEntity
  8
0
100
AcDbBlockEnd
  0
BLOCK
  5
1C2
330
1C1
100
AcDbEntity
  8
0
100
AcDbBlockBegin
  2
*D4
 70
     1
 10
0.0
 20
0.0
 30
0.0
  3
*D4
  1

  0
LINE
  5
1C3
330
1C1
100
AcDbEntity
  8
SUNPO
 62
     0
370
    -2
100
AcDbLine
 10
21.05228104502339
 20
97.64446048711693
 30
0.0
 11
21.05228104502339
 21
105.6444604871169
 31
0.0
  0
LINE
  5
1C4
330
1C1
100
AcDbEntity
  8
SUNPO
 62
     0
370
    -2
100
AcDbLine
 10
72.04728104502341
 20
97.64446048711693
 30
0.0
 11
72.04728104502341
 21
105.6444604871169
 31
0.0
  0
LINE
  5
1C5
330
1C1
100
AcDbEntity
  8
SUNPO
 62
     0
370
    -2
100
AcDbLine
 10
23.05228104502339
 20
103.6444604871169
 30
0.0
 11
70.04728104502341
 21
103.6444604871169
 31
0.0
  0
INSERT
  5
1C6
330
1C1
100
AcDbEntity
  8
SUNPO
 62
     0
370
    -2
100
AcDbBlockReference
  2
_OPEN30
 10
21.05228104502339
 20
103.6444604871169
 30
0.0
 41
2.0
 42
2.0
 43
2.0
 50
180.0
  0
INSERT
  5
1C7
330
1C1
100
AcDbEntity
  8
SUNPO
 62
     0
370
    -2
100
AcDbBlockReference
  2
_OPEN30
 10
72.04728104502341
 20
103.6444604871169
 30
0.0
 41
2.0
 42
2.0
 43
2.0
  0
MTEXT
  5
1C8
330
1C1
100
AcDbEntity
  8
SUNPO
 62
     0
100
AcDbMText
 10
46.54978104502339
 20
105.3944604871169
 30
0.0
 40
2.5
 41
0.0
 71
     5
 72
     1
  1
\A1;1020
 73
     1
 44
1.0
1001
ACAD
1000
MTEXTBEGIN
1070
    73
1070
     1
1070
    44
1040
1.0
1070
    74
1070
     0
1000
MTEXTEND
  0
POINT
  5
1C9
330
1C1
100
AcDbEntity
  8
Defpoints
 62
     0
100
AcDbPoint
 10
21.05228104502339
 20
95.64446048711692
 30
0.0
  0
POINT
  5
1CA
330
1C1
100
AcDbEntity
  8
Defpoints
 62
     0
100
AcDbPoint
 10
72.04728104502341
 20
95.64446048711692
 30
0.0
  0
POINT
  5
1CB
330
1C1
100
AcDbEntity
  8
Defpoints
 62
     0
100
AcDbPoint
 10
72.04728104502341
 20
103.6444604871169
 30
0.0
  0
ENDBLK
  5
1CC
330
1C1
100
AcDbEntity
  8
0
100
AcDbBlockEnd
  0
BLOCK
  5
11F
330
11E
100
AcDbEntity
  8
0
100
AcDbBlockBegin
  2
*D5
 70
     1
 10
0.0
 20
0.0
 30
0.0
  3
*D5
  1

  0
LINE
  5
120
330
11E
100
AcDbEntity
  8
SUNPO
 62
     0
370
    -2
100
AcDbLine
 10
93.55626720688304
 20
60.15467283427446
 30
0.0
 11
93.55626720688304
 21
53.15467283427446
 31
0.0
  0
LINE
  5
121
330
11E
100
AcDbEntity
  8
SUNPO
 62
     0
370
    -2
100
AcDbLine
 10
109.9024853067936
 20
60.15467283427446
 30
0.0
 11
109.9024853067936
 21
53.15467283427446
 31
0.0
  0
LINE
  5
122
330
11E
100
AcDbEntity
  8
SUNPO
 62
     0
370
    -2
100
AcDbLine
 10
95.55626720688305
 20
55.15467283427446
 30
0.0
 11
107.9024853067936
 21
55.15467283427446
 31
0.0
  0
INSERT
  5
123
330
11E
100
AcDbEntity
  8
SUNPO
 62
     0
370
    -2
100
AcDbBlockReference
  2
_OPEN30
 10
93.55626720688304
 20
55.15467283427446
 30
0.0
 41
2.0
 42
2.0
 43
2.0
 50
180.0
  0
INSERT
  5
124
330
11E
100
AcDbEntity
  8
SUNPO
 62
     0
370
    -2
100
AcDbBlockReference
  2
_OPEN30
 10
109.9024853067936
 20
55.15467283427446
 30
0.0
 41
2.0
 42
2.0
 43
2.0
  0
MTEXT
  5
125
330
11E
100
AcDbEntity
  8
SUNPO
 62
     0
100
AcDbMText
 10
101.7293762568383
 20
56.90467283427446
 30
0.0
 40
2.5
 41
0.0
 71
     5
 72
     1
  1
\A1;327
 73
     1
 44
1.0
1001
ACAD
1000
MTEXTBEGIN
1070
    73
1070
     1
1070
    44
1040
1.0
1070
    74
1070
     0
1000
MTEXTEND
  0
POINT
  5
126
330
11E
100
AcDbEntity
  8
Defpoints
 62
     0
100
AcDbPoint
 10
93.55626720688304
 20
62.15467283427447
 30
0.0
  0
POINT
  5
127
330
11E
100
AcDbEntity
  8
Defpoints
 62
     0
100
AcDbPoint
 10
109.9024853067936
 20
62.15467283427447
 30
0.0
  0
POINT
  5
128
330
11E
100
AcDbEntity
  8
Defpoints
 62
     0
100
AcDbPoint
 10
109.9024853067936
 20
55.15467283427446
 30
0.0
  0
ENDBLK
  5
129
330
11E
100
AcDbEntity
  8
0
100
AcDbBlockEnd
  0
BLOCK
  5
10F
330
10E
100
AcDbEntity
  8
0
100
AcDbBlockBegin
  2
*D6
 70
     1
 10
0.0
 20
0.0
 30
0.0
  3
*D6
  1

  0
LINE
  5
110
330
10E
100
AcDbEntity
  8
SUNPO
 62
     0
370
    -2
100
AcDbLine
 10
100.556267206883
 20
97.64446048711693
 30
0.0
 11
100.556267206883
 21
105.644460487117
 31
0.0
  0
LINE
  5
111
330
10E
100
AcDbEntity
  8
SUNPO
 62
     0
370
    -2
100
AcDbLine
 10
105.006267206883
 20
97.64446048711699
 30
0.0
 11
105.006267206883
 21
105.644460487117
 31
0.0
  0
LINE
  5
112
330
10E
100
AcDbEntity
  8
SUNPO
 62
     0
370
    -2
100
AcDbLine
 10
98.55626720688304
 20
103.644460487117
 30
0.0
 11
96.55626720688303
 21
103.644460487117
 31
0.0
  0
LINE
  5
113
330
10E
100
AcDbEntity
  8
SUNPO
 62
     0
370
    -2
100
AcDbLine
 10
107.006267206883
 20
103.644460487117
 30
0.0
 11
114.1729338735497
 21
103.644460487117
 31
0.0
  0
LINE
  5
114
330
10E
100
AcDbEntity
  8
SUNPO
 62
     0
370
    -2
100
AcDbLine
 10
100.556267206883
 20
103.644460487117
 30
0.0
 11
105.006267206883
 21
103.644460487117
 31
0.0
  0
INSERT
  5
115
330
10E
100
AcDbEntity
  8
SUNPO
 62
     0
370
    -2
100
AcDbBlockReference
  2
_OPEN30
 10
100.556267206883
 20
103.644460487117
 30
0.0
 41
2.0
 42
2.0
 43
2.0
  0
INSERT
  5
116
330
10E
100
AcDbEntity
  8
SUNPO
 62
     0
370
    -2
100
AcDbBlockReference
  2
_OPEN30
 10
105.006267206883
 20
103.644460487117
 30
0.0
 41
2.0
 42
2.0
 43
2.0
 50
180.0
  0
MTEXT
  5
117
330
10E
100
AcDbEntity
  8
SUNPO
 62
     0
100
AcDbMText
 10
111.5896005402164
 20
105.394460487117
 30
0.0
 40
2.5
 41
0.0
 71
     5
 72
     1
  1
\A1;89
 73
     1
 44
1.0
1001
ACAD
1000
MTEXTBEGIN
1070
    73
1070
     1
1070
    44
1040
1.0
1070
    74
1070
     0
1000
MTEXTEND
  0
POINT
  5
118
330
10E
100
AcDbEntity
  8
Defpoints
 62
     0
100
AcDbPoint
 10
100.556267206883
 20
95.64446048711692
 30
0.0
  0
POINT
  5
11A
330
10E
100
AcDbEntity
  8
Defpoints
 62
     0
100
AcDbPoint
 10
105.006267206883
 20
95.64446048711699
 30
0.0
  0
POINT
  5
11B
330
10E
100
AcDbEntity
  8
Defpoints
 62
     0
100
AcDbPoint
 10
105.006267206883
 20
103.644460487117
 30
0.0
  0
ENDBLK
  5
11C
330
10E
100
AcDbEntity
  8
0
100
AcDbBlockEnd
  0
BLOCK
  5
238
330
22E
100
AcDbEntity
  8
0
100
AcDbBlockBegin
  2
*D7
 70
     1
 10
0.0
 20
0.0
 30
0.0
  3
*D7
  1

  0
LINE
  5
22F
330
22E
100
AcDbEntity
  8
SUNPO
 62
     0
370
    -2
100
AcDbLine
 10
-32.42335281983742
 20
1.448769261436595
 30
0.0
 11
-32.42335281983742
 21
-5.551230738563404
 31
0.0
  0
LINE
  5
230
330
22E
100
AcDbEntity
  8
SUNPO
 62
     0
370
    -2
100
AcDbLine
 10
-3.508484934720854
 20
1.448769261436595
 30
0.0
 11
-3.508484934720855
 21
-5.551230738563404
 31
0.0
  0
LINE
  5
231
330
22E
100
AcDbEntity
  8
SUNPO
 62
     0
370
    -2
100
AcDbLine
 10
-30.42335281983742
 20
-3.551230738563404
 30
0.0
 11
-5.508484934720854
 21
-3.551230738563404
 31
0.0
  0
INSERT
  5
232
330
22E
100
AcDbEntity
  8
SUNPO
 62
     0
370
    -2
100
AcDbBlockReference
  2
_OPEN30
 10
-32.42335281983742
 20
-3.551230738563404
 30
0.0
 41
2.0
 42
2.0
 43
2.0
 50
180.0
  0
INSERT
  5
233
330
22E
100
AcDbEntity
  8
SUNPO
 62
     0
370
    -2
100
AcDbBlockReference
  2
_OPEN30
 10
-3.508484934720855
 20
-3.551230738563404
 30
0.0
 41
2.0
 42
2.0
 43
2.0
  0
MTEXT
  5
234
330
22E
100
AcDbEntity
  8
SUNPO
 62
     0
100
AcDbMText
 10
-17.96591887727913
 20
-1.801230738563404
 30
0.0
 40
2.5
 41
0.0
 71
     5
 72
     1
  1
\A1;578
 73
     1
 44
1.0
1001
ACAD
1000
MTEXTBEGIN
1070
    73
1070
     1
1070
    44
1040
1.0
1070
    74
1070
     0
1000
MTEXTEND
  0
POINT
  5
235
330
22E
100
AcDbEntity
  8
Defpoints
 62
     0
100
AcDbPoint
 10
-32.42335281983742
 20
3.448769261436595
 30
0.0
  0
POINT
  5
236
330
22E
100
AcDbEntity
  8
Defpoints
 62
     0
100
AcDbPoint
 10
-3.508484934720854
 20
3.448769261436595
 30
0.0
  0
POINT
  5
237
330
22E
100
AcDbEntity
  8
Defpoints
 62
     0
100
AcDbPoint
 10
-3.508484934720855
 20
-3.551230738563404
 30
0.0
  0
ENDBLK
  5
239
330
22E
100
AcDbEntity
  8
0
100
AcDbBlockEnd
  0
BLOCK
  5
244
330
23A
100
AcDbEntity
  8
0
100
AcDbBlockBegin
  2
*D8
 70
     1
 10
0.0
 20
0.0
 30
0.0
  3
*D8
  1

  0
LINE
  5
23B
330
23A
100
AcDbEntity
  8
SUNPO
 62
     0
370
    -2
100
AcDbLine
 10
17.53809238882809
 20
36.93509027117295
 30
0.0
 11
24.5380923888281
 21
36.93509027117295
 31
0.0
  0
LINE
  5
23C
330
23A
100
AcDbEntity
  8
SUNPO
 62
     0
370
    -2
100
AcDbLine
 10
-1.010602620718032
 20
3.468012301051131
 30
0.0
 11
24.53809238882809
 21
3.468012301051124
 31
0.0
  0
LINE
  5
23D
330
23A
100
AcDbEntity
  8
SUNPO
 62
     0
370
    -2
100
AcDbLine
 10
22.5380923888281
 20
34.93509027117295
 30
0.0
 11
22.53809238882809
 21
5.468012301051124
 31
0.0
  0
INSERT
  5
23E
330
23A
100
AcDbEntity
  8
SUNPO
 62
     0
370
    -2
100
AcDbBlockReference
  2
_OPEN30
 10
22.5380923888281
 20
36.93509027117295
 30
0.0
 41
2.0
 42
2.0
 43
2.0
 50
90.0
  0
INSERT
  5
23F
330
23A
100
AcDbEntity
  8
SUNPO
 62
     0
370
    -2
100
AcDbBlockReference
  2
_OPEN30
 10
22.53809238882809
 20
3.468012301051124
 30
0.0
 41
2.0
 42
2.0
 43
2.0
 50
270.0
  0
MTEXT
  5
240
330
23A
100
AcDbEntity
  8
SUNPO
 62
     0
100
AcDbMText
 10
20.78809238882809
 20
20.20155128611204
 30
0.0
 40
2.5
 41
0.0
 71
     5
 72
     1
  1
\A1;669
 11
0.0000000000000001
 21
1.0
 31
0.0
 73
     1
 44
1.0
1001
ACAD
1000
MTEXTBEGIN
1070
    73
1070
     1
1070
    44
1040
1.0
1070
    74
1070
     0
1000
MTEXTEND
  0
POINT
  5
241
330
23A
100
AcDbEntity
  8
Defpoints
 62
     0
100
AcDbPoint
 10
15.53809238882809
 20
36.93509027117296
 30
0.0
  0
POINT
  5
242
330
23A
100
AcDbEntity
  8
Defpoints
 62
     0
100
AcDbPoint
 10
-3.010602620718032
 20
3.468012301051132
 30
0.0
  0
POINT
  5
243
330
23A
100
AcDbEntity
  8
Defpoints
 62
     0
100
AcDbPoint
 10
22.53809238882809
 20
3.468012301051124
 30
0.0
  0
ENDBLK
  5
245
330
23A
100
AcDbEntity
  8
0
100
AcDbBlockEnd
  0
BLOCK
  5
250
330
246
100
AcDbEntity
  8
0
100
AcDbBlockBegin
  2
*D9
 70
     1
 10
0.0
 20
0.0
 30
0.0
  3
*D9
  1

  0
LINE
  5
247
330
246
100
AcDbEntity
  8
SUNPO
 62
     0
370
    -2
100
AcDbLine
 10
9.531559035664159
 20
6.435090271172953
 30
0.0
 11
17.53155903566415
 21
6.43509027117295
 31
0.0
  0
LINE
  5
248
330
246
100
AcDbEntity
  8
SUNPO
 62
     0
370
    -2
100
AcDbLine
 10
9.531559035664161
 20
36.9350902711729
 30
0.0
 11
17.53155903566416
 21
36.93509027117289
 31
0.0
  0
LINE
  5
249
330
246
100
AcDbEntity
  8
SUNPO
 62
     0
370
    -2
100
AcDbLine
 10
15.53155903566415
 20
8.435090271172949
 30
0.0
 11
15.53155903566415
 21
34.9350902711729
 31
0.0
  0
INSERT
  5
24A
330
246
100
AcDbEntity
  8
SUNPO
 62
     0
370
    -2
100
AcDbBlockReference
  2
_OPEN30
 10
15.53155903566415
 20
6.43509027117295
 30
0.0
 41
2.0
 42
2.0
 43
2.0
 50
270.0
  0
INSERT
  5
24B
330
246
100
AcDbEntity
  8
SUNPO
 62
     0
370
    -2
100
AcDbBlockReference
  2
_OPEN30
 10
15.53155903566416
 20
36.9350902711729
 30
0.0
 41
2.0
 42
2.0
 43
2.0
 50
90.0
  0
MTEXT
  5
24C
330
246
100
AcDbEntity
  8
SUNPO
 62
     0
100
AcDbMText
 10
13.78155903566415
 20
21.68509027117293
 30
0.0
 40
2.5
 41
0.0
 71
     5
 72
     1
  1
\A1;610
 11
0.0000000000000001
 21
1.0
 31
0.0
 73
     1
 44
1.0
1001
ACAD
1000
MTEXTBEGIN
1070
    73
1070
     1
1070
    44
1040
1.0
1070
    74
1070
     0
1000
MTEXTEND
  0
POINT
  5
24D
330
246
100
AcDbEntity
  8
Defpoints
 62
     0
100
AcDbPoint
 10
7.531559035664159
 20
6.435090271172953
 30
0.0
  0
POINT
  5
24E
330
246
100
AcDbEntity
  8
Defpoints
 62
     0
100
AcDbPoint
 10
7.531559035664159
 20
36.9350902711729
 30
0.0
  0
POINT
  5
24F
330
246
100
AcDbEntity
  8
Defpoints
 62
     0
100
AcDbPoint
 10
15.53155903566416
 20
36.9350902711729
 30
0.0
  0
ENDBLK
  5
251
330
246
100
AcDbEntity
  8
0
100
AcDbBlockEnd
  0
BLOCK
  5
25C
330
252
100
AcDbEntity
  8
0
100
AcDbBlockBegin
  2
*D10
 70
     1
 10
0.0
 20
0.0
 30
0.0
  3
*D10
  1

  0
LINE
  5
253
330
252
100
AcDbEntity
  8
SUNPO
 62
     0
370
    -2
100
AcDbLine
 10
-43.46344096433585
 20
38.93855691427905
 30
0.0
 11
-43.46344096433585
 21
46.93855691427905
 31
0.0
  0
LINE
  5
254
330
252
100
AcDbEntity
  8
SUNPO
 62
     0
370
    -2
100
AcDbLine
 10
7.531559035664159
 20
38.93855691427905
 30
0.0
 11
7.53155903566416
 21
46.93855691427905
 31
0.0
  0
LINE
  5
255
330
252
100
AcDbEntity
  8
SUNPO
 62
     0
370
    -2
100
AcDbLine
 10
-41.46344096433586
 20
44.93855691427905
 30
0.0
 11
5.53155903566416
 21
44.93855691427905
 31
0.0
  0
INSERT
  5
256
330
252
100
AcDbEntity
  8
SUNPO
 62
     0
370
    -2
100
AcDbBlockReference
  2
_OPEN30
 10
-43.46344096433585
 20
44.93855691427905
 30
0.0
 41
2.0
 42
2.0
 43
2.0
 50
180.0
  0
INSERT
  5
257
330
252
100
AcDbEntity
  8
SUNPO
 62
     0
370
    -2
100
AcDbBlockReference
  2
_OPEN30
 10
7.53155903566416
 20
44.93855691427905
 30
0.0
 41
2.0
 42
2.0
 43
2.0
  0
MTEXT
  5
258
330
252
100
AcDbEntity
  8
SUNPO
 62
     0
100
AcDbMText
 10
-17.96594096433585
 20
46.68855691427904
 30
0.0
 40
2.5
 41
0.0
 71
     5
 72
     1
  1
\A1;1020
 73
     1
 44
1.0
1001
ACAD
1000
MTEXTBEGIN
1070
    73
1070
     1
1070
    44
1040
1.0
1070
    74
1070
     0
1000
MTEXTEND
  0
POINT
  5
259
330
252
100
AcDbEntity
  8
Defpoints
 62
     0
100
AcDbPoint
 10
-43.46344096433585
 20
36.93855691427905
 30
0.0
  0
POINT
  5
25A
330
252
100
AcDbEntity
  8
Defpoints
 62
     0
100
AcDbPoint
 10
7.531559035664159
 20
36.93855691427905
 30
0.0
  0
POINT
  5
25B
330
252
100
AcDbEntity
  8
Defpoints
 62
     0
100
AcDbPoint
 10
7.53155903566416
 20
44.93855691427905
 30
0.0
  0
ENDBLK
  5
25D
330
252
100
AcDbEntity
  8
0
100
AcDbBlockEnd
  0
BLOCK
  5
268
330
25E
100
AcDbEntity
  8
0
100
AcDbBlockBegin
  2
*D11
 70
     1
 10
0.0
 20
0.0
 30
0.0
  3
*D11
  1

  0
LINE
  5
25F
330
25E
100
AcDbEntity
  8
SUNPO
 62
     0
370
    -2
100
AcDbLine
 10
29.0405451975238
 20
1.448769261436581
 30
0.0
 11
29.0405451975238
 21
-5.551230738563418
 31
0.0
  0
LINE
  5
260
330
25E
100
AcDbEntity
  8
SUNPO
 62
     0
370
    -2
100
AcDbLine
 10
45.38676329743437
 20
1.448769261436581
 30
0.0
 11
45.38676329743437
 21
-5.551230738563418
 31
0.0
  0
LINE
  5
261
330
25E
100
AcDbEntity
  8
SUNPO
 62
     0
370
    -2
100
AcDbLine
 10
31.0405451975238
 20
-3.551230738563418
 30
0.0
 11
43.38676329743437
 21
-3.551230738563418
 31
0.0
  0
INSERT
  5
262
330
25E
100
AcDbEntity
  8
SUNPO
 62
     0
370
    -2
100
AcDbBlockReference
  2
_OPEN30
 10
29.0405451975238
 20
-3.551230738563418
 30
0.0
 41
2.0
 42
2.0
 43
2.0
 50
180.0
  0
INSERT
  5
263
330
25E
100
AcDbEntity
  8
SUNPO
 62
     0
370
    -2
100
AcDbBlockReference
  2
_OPEN30
 10
45.38676329743437
 20
-3.551230738563418
 30
0.0
 41
2.0
 42
2.0
 43
2.0
  0
MTEXT
  5
264
330
25E
100
AcDbEntity
  8
SUNPO
 62
     0
100
AcDbMText
 10
37.21365424747908
 20
-1.801230738563418
 30
0.0
 40
2.5
 41
0.0
 71
     5
 72
     1
  1
\A1;327
 73
     1
 44
1.0
1001
ACAD
1000
MTEXTBEGIN
1070
    73
1070
     1
1070
    44
1040
1.0
1070
    74
1070
     0
1000
MTEXTEND
  0
POINT
  5
265
330
25E
100
AcDbEntity
  8
Defpoints
 62
     0
100
AcDbPoint
 10
29.0405451975238
 20
3.448769261436581
 30
0.0
  0
POINT
  5
266
330
25E
100
AcDbEntity
  8
Defpoints
 62
     0
100
AcDbPoint
 10
45.38676329743437
 20
3.448769261436581
 30
0.0
  0
POINT
  5
267
330
25E
100
AcDbEntity
  8
Defpoints
 62
     0
100
AcDbPoint
 10
45.38676329743437
 20
-3.551230738563418
 30
0.0
  0
ENDBLK
  5
269
330
25E
100
AcDbEntity
  8
0
100
AcDbBlockEnd
  0
BLOCK
  5
276
330
26A
100
AcDbEntity
  8
0
100
AcDbBlockBegin
  2
*D12
 70
     1
 10
0.0
 20
0.0
 30
0.0
  3
*D12
  1

  0
LINE
  5
26B
330
26A
100
AcDbEntity
  8
SUNPO
 62
     0
370
    -2
100
AcDbLine
 10
36.04054519752379
 20
38.93855691427905
 30
0.0
 11
36.04054519752379
 21
46.9385569142791
 31
0.0
  0
LINE
  5
26C
330
26A
100
AcDbEntity
  8
SUNPO
 62
     0
370
    -2
100
AcDbLine
 10
40.4905451975238
 20
38.93855691427911
 30
0.0
 11
40.4905451975238
 21
46.9385569142791
 31
0.0
  0
LINE
  5
26D
330
26A
100
AcDbEntity
  8
SUNPO
 62
     0
370
    -2
100
AcDbLine
 10
34.04054519752378
 20
44.9385569142791
 30
0.0
 11
32.04054519752379
 21
44.9385569142791
 31
0.0
  0
LINE
  5
26E
330
26A
100
AcDbEntity
  8
SUNPO
 62
     0
370
    -2
100
AcDbLine
 10
42.49054519752379
 20
44.9385569142791
 30
0.0
 11
49.65721186419046
 21
44.9385569142791
 31
0.0
  0
LINE
  5
26F
330
26A
100
AcDbEntity
  8
SUNPO
 62
     0
370
    -2
100
AcDbLine
 10
36.04054519752379
 20
44.9385569142791
 30
0.0
 11
40.4905451975238
 21
44.9385569142791
 31
0.0
  0
INSERT
  5
270
330
26A
100
AcDbEntity
  8
SUNPO
 62
     0
370
    -2
100
AcDbBlockReference
  2
_OPEN30
 10
36.04054519752379
 20
44.9385569142791
 30
0.0
 41
2.0
 42
2.0
 43
2.0
  0
INSERT
  5
271
330
26A
100
AcDbEntity
  8
SUNPO
 62
     0
370
    -2
100
AcDbBlockReference
  2
_OPEN30
 10
40.4905451975238
 20
44.9385569142791
 30
0.0
 41
2.0
 42
2.0
 43
2.0
 50
180.0
  0
MTEXT
  5
272
330
26A
100
AcDbEntity
  8
SUNPO
 62
     0
100
AcDbMText
 10
47.07387853085713
 20
46.6885569142791
 30
0.0
 40
2.5
 41
0.0
 71
     5
 72
     1
  1
\A1;89
 73
     1
 44
1.0
1001
ACAD
1000
MTEXTBEGIN
1070
    73
1070
     1
1070
    44
1040
1.0
1070
    74
1070
     0
1000
MTEXTEND
  0
POINT
  5
273
330
26A
100
AcDbEntity
  8
Defpoints
 62
     0
100
AcDbPoint
 10
36.04054519752379
 20
36.93855691427905
 30
0.0
  0
POINT
  5
274
330
26A
100
AcDbEntity
  8
Defpoints
 62
     0
100
AcDbPoint
 10
40.4905451975238
 20
36.93855691427911
 30
0.0
  0
POINT
  5
275
330
26A
100
AcDbEntity
  8
Defpoints
 62
     0
100
AcDbPoint
 10
40.4905451975238
 20
44.9385569142791
 30
0.0
  0
ENDBLK
  5
277
330
26A
100
AcDbEntity
  8
0
100
AcDbBlockEnd
  0
ENDSEC
  0
SECTION
  2
ENTITIES
  0
TEXT
  5
30
330
2
100
AcDbEntity
  8
MOJI1
100
AcDbText
 10
-35.01572206531796
 20
55.79493155209682
 30
0.0
 40
4.0
  1
ハイビジョンプラズマディスプレイ据置きスタンド付
 41
0.85
100
AcDbText
  0
TEXT
  5
32
330
2
100
AcDbEntity
  8
TOUROKU
100
AcDbText
 10
25.38422796760953
 20
49.79493155209661
 30
0.0
 40
2.0
  1
ＴＨ４２ＰＤ１２＋ＴＹＳＴ０８Ｋ
 72
     2
 11
62.98422796760951
 21
49.79493155209661
 31
0.0
100
AcDbText
  0
LINE
  5
34
330
2
100
AcDbEntity
  8
GAIKEI
  6
Continuous
 62
     1
100
AcDbLine
 10
39.57054519752376
 20
9.386593271172898
 30
0.0
 11
39.57054519752376
 21
9.310635621172934
 31
0.0
  0
LINE
  5
36
330
2
100
AcDbEntity
  8
GAIKEI
  6
Continuous
 62
     1
100
AcDbLine
 10
39.57054519752376
 20
9.310635621172934
 30
0.0
 11
39.57054519752376
 21
9.261122221172911
 31
0.0
  0
ARC
  5
37
330
2
100
AcDbEntity
  8
GAIKEI
  6
Continuous
 62
     1
100
AcDbCircle
 10
39.5205451975238
 20
9.261122221172911
 30
0.0
 40
0.05
100
AcDbArc
 50
278.0000000000055
 51
0.0
  0
ARC
  5
38
330
2
100
AcDbEntity
  8
GAIKEI
  6
Continuous
 62
     1
100
AcDbCircle
 10
39.67054519752378
 20
9.386593271172898
 30
0.0
 40
0.1
100
AcDbArc
 50
136.2382570000005
 51
180.0
  0
LINE
  5
39
330
2
100
AcDbEntity
  8
GAIKEI
  6
Continuous
 62
     1
100
AcDbLine
 10
39.45281149752378
 20
9.201111471172907
 30
0.0
 11
39.51898869752381
 21
9.210412071172925
 31
0.0
  0
LINE
  5
3A
330
2
100
AcDbEntity
  8
GAIKEI
  6
Continuous
 62
     1
100
AcDbLine
 10
39.52750384752381
 20
9.211608821172887
 30
0.0
 11
39.44554519752376
 21
9.200090271172882
 31
0.0
  0
LINE
  5
3B
330
2
100
AcDbEntity
  8
GAIKEI
  6
Continuous
 62
     1
100
AcDbLine
 10
39.72054519752379
 20
9.870090271172898
 30
0.0
 11
39.72054519752379
 21
9.760090271172884
 31
0.0
  0
ARC
  5
3C
330
2
100
AcDbEntity
  8
GAIKEI
  6
Continuous
 62
     1
100
AcDbCircle
 10
39.28054519752379
 20
9.760090271172884
 30
0.0
 40
0.4400000000000001
100
AcDbArc
 50
316.2382570000005
 51
0.0
  0
LINE
  5
3D
330
2
100
AcDbEntity
  8
GAIKEI
  6
Continuous
 62
     1
100
AcDbLine
 10
39.57054519752376
 20
10.36905832117287
 30
0.0
 11
39.57054519752376
 21
10.3195449211729
 31
0.0
  0
LINE
  5
3E
330
2
100
AcDbEntity
  8
GAIKEI
  6
Continuous
 62
     1
100
AcDbLine
 10
39.57054519752376
 20
10.3195449211729
 30
0.0
 11
39.57054519752376
 21
10.24358727117288
 31
0.0
  0
ARC
  5
3F
330
2
100
AcDbEntity
  8
GAIKEI
  6
Continuous
 62
     1
100
AcDbCircle
 10
39.67054519752378
 20
10.24358727117288
 30
0.0
 40
0.1
100
AcDbArc
 50
180.0
 51
223.7617429999995
  0
ARC
  5
40
330
2
100
AcDbEntity
  8
GAIKEI
  6
Continuous
 62
     1
100
AcDbCircle
 10
39.5205451975238
 20
10.36905832117287
 30
0.0
 40
0.05
100
AcDbArc
 50
0.0
 51
81.99999999999448
  0
ARC
  5
41
330
2
100
AcDbEntity
  8
GAIKEI
  6
Continuous
 62
     1
100
AcDbCircle
 10
39.28054519752379
 20
9.870090271172898
 30
0.0
 40
0.4400000000000001
100
AcDbArc
 50
0.0
 51
43.76174299999948
  0
LINE
  5
42
330
2
100
AcDbEntity
  8
GAIKEI
  6
Continuous
 62
     1
100
AcDbLine
 10
39.51898869752381
 20
10.41976847117286
 30
0.0
 11
39.45281149752378
 21
10.42906907117293
 31
0.0
  0
LINE
  5
43
330
2
100
AcDbEntity
  8
GAIKEI
  6
Continuous
 62
     1
100
AcDbLine
 10
39.44554519752376
 20
10.4300902711729
 30
0.0
 11
39.52750384752381
 21
10.41857172117289
 31
0.0
  0
ELLIPSE
  5
44
330
2
100
AcDbEntity
  8
GAIKEI
  6
Continuous
100
AcDbEllipse
 10
40.19554519752375
 20
12.13382897117293
 30
0.0
 11
-0.25
 21
-0.0000000000000001
 31
0.0
210
0.0
220
0.0
230
1.0
 40
0.9073409999999999
 41
3.135287578111884
 42
3.141592653589792
  0
ARC
  5
45
330
2
100
AcDbEntity
  8
GAIKEI
  6
Continuous
100
AcDbCircle
 10
39.94554519752376
 20
12.13382897117293
 30
0.0
 40
0.5
100
AcDbArc
 50
355.2257539999894
 51
359.670535000016
  0
ARC
  5
46
330
2
100
AcDbEntity
  8
GAIKEI
  6
Continuous
100
AcDbCircle
 10
39.94554519752376
 20
12.13382897117293
 30
0.0
 40
0.5
100
AcDbArc
 50
359.670535000016
 51
0.0
  0
ARC
  5
47
330
2
100
AcDbEntity
  8
GAIKEI
  6
Continuous
100
AcDbCircle
 10
39.67054519752378
 20
8.172805271172876
 30
0.0
 40
0.5
100
AcDbArc
 50
273.0000000000057
 51
0.0
  0
ARC
  5
48
330
2
100
AcDbEntity
  8
GAIKEI
  6
Continuous
100
AcDbCircle
 10
40.67054519752377
 20
11.44212652117289
 30
0.0
 40
0.5
100
AcDbArc
 50
179.3354799999874
 51
180.0
  0
ARC
  5
49
330
2
100
AcDbEntity
  8
GAIKEI
  6
Continuous
100
AcDbCircle
 10
39.94554519752376
 20
12.13382897117293
 30
0.0
 40
0.5
100
AcDbArc
 50
321.8712529999933
 51
359.6917960000155
  0
ARC
  5
4A
330
2
100
AcDbEntity
  8
GAIKEI
  6
Continuous
100
AcDbCircle
 10
39.84734069752381
 20
35.24437152117292
 30
0.0
 40
0.25
100
AcDbArc
 50
8.000000000005512
 51
77.99999999998565
  0
ARC
  5
4B
330
2
100
AcDbEntity
  8
GAIKEI
  6
Continuous
 62
     1
100
AcDbCircle
 10
39.19554519752376
 20
7.89756847117286
 30
0.0
 40
0.25
100
AcDbArc
 50
274.2367919999947
 51
0.0
  0
ARC
  5
4C
330
2
100
AcDbEntity
  8
GAIKEI
  6
Continuous
 62
     1
100
AcDbCircle
 10
40.19554519752375
 20
10.48711257117287
 30
0.0
 40
0.75
100
AcDbArc
 50
140.0000000000024
 51
180.0
  0
LINE
  5
4D
330
2
100
AcDbEntity
  8
GAIKEI
  6
Continuous
100
AcDbLine
 10
40.11888874752378
 20
35.1085306711729
 30
0.0
 11
40.44554519752376
 21
32.78424942117289
 31
0.0
  0
LINE
  5
4E
330
2
100
AcDbEntity
  8
GAIKEI
  6
Continuous
100
AcDbLine
 10
39.57973539752379
 20
7.667359921172931
 30
0.0
 11
39.69671319752377
 21
7.673490471172897
 31
0.0
  0
LINE
  5
4F
330
2
100
AcDbEntity
  8
GAIKEI
  6
Continuous
100
AcDbLine
 10
40.17054519752377
 20
8.172805271172876
 30
0.0
 11
40.17054519752377
 21
11.44212652117289
 31
0.0
  0
LINE
  5
50
330
2
100
AcDbEntity
  8
GAIKEI
  6
Continuous
 62
     7
100
AcDbLine
 10
39.50107364752375
 20
7.663237471172863
 30
0.0
 11
39.57973539752379
 21
7.667359921172931
 31
0.0
  0
LINE
  5
51
330
2
100
AcDbEntity
  8
GAIKEI
  6
Continuous
 62
     1
100
AcDbLine
 10
39.2086291975238
 20
7.647911071172927
 30
0.0
 11
39.21275674752377
 21
7.648127421172887
 31
0.0
  0
LINE
  5
52
330
2
100
AcDbEntity
  8
GAIKEI
  6
Continuous
 62
     1
100
AcDbLine
 10
39.21383504752379
 20
7.648183921172915
 30
0.0
 11
39.21275674752377
 21
7.648127421172887
 31
0.0
  0
LINE
  5
53
330
2
100
AcDbEntity
  8
GAIKEI
  6
Continuous
 62
     7
100
AcDbLine
 10
39.21383504752379
 20
7.648183921172915
 30
0.0
 11
39.50107364752375
 21
7.663237471172863
 31
0.0
  0
LINE
  5
54
330
2
100
AcDbEntity
  8
GAIKEI
  6
Continuous
100
AcDbLine
 10
40.44554519752376
 20
18.7760828211729
 30
0.0
 11
40.44554519752376
 21
19.84409772117288
 31
0.0
  0
LINE
  5
55
330
2
100
AcDbEntity
  8
GAIKEI
  6
Continuous
100
AcDbLine
 10
40.44554519752376
 20
12.23062057117289
 30
0.0
 11
40.44554519752376
 21
18.7760828211729
 31
0.0
  0
LINE
  5
56
330
2
100
AcDbEntity
  8
GAIKEI
  6
Continuous
100
AcDbLine
 10
40.44554519752376
 20
12.13382897117293
 30
0.0
 11
40.44554519752376
 21
12.23062057117289
 31
0.0
  0
LINE
  5
57
330
2
100
AcDbEntity
  8
GAIKEI
  6
Continuous
100
AcDbLine
 10
40.44554519752376
 20
32.78424942117289
 30
0.0
 11
40.37068849752381
 21
33.31688262117291
 31
0.0
  0
LINE
  5
58
330
2
100
AcDbEntity
  8
GAIKEI
  6
Continuous
100
AcDbLine
 10
40.44554519752376
 20
32.78127932117292
 30
0.0
 11
40.44554519752376
 21
32.78424942117289
 31
0.0
  0
LINE
  5
59
330
2
100
AcDbEntity
  8
GAIKEI
  6
Continuous
100
AcDbLine
 10
40.13264854752378
 20
35.01062482117288
 30
0.0
 11
40.09490769752381
 21
35.27916477117293
 31
0.0
  0
LINE
  5
5A
330
2
100
AcDbEntity
  8
GAIKEI
  6
Continuous
100
AcDbLine
 10
39.8993185975238
 20
35.48890842117288
 30
0.0
 11
38.97452949752381
 21
35.68547837117291
 31
0.0
  0
LINE
  5
5B
330
2
100
AcDbEntity
  8
GAIKEI
  6
Continuous
100
AcDbLine
 10
38.97452949752381
 20
35.68547837117291
 30
0.0
 11
38.50450104752378
 21
35.78538602117288
 31
0.0
  0
LINE
  5
5C
330
2
100
AcDbEntity
  8
GAIKEI
  6
Continuous
 62
     1
100
AcDbLine
 10
39.94433594752377
 20
11.35452592117286
 30
0.0
 11
40.33885786634345
 21
11.82511365806721
 31
0.0
  0
LINE
  5
5D
330
2
100
AcDbEntity
  8
GAIKEI
  6
Continuous
 62
     1
100
AcDbLine
 10
40.17554519752377
 20
14.72259027117292
 30
0.0
 11
40.12818269752381
 21
14.72259027117292
 31
0.0
  0
LINE
  5
5E
330
2
100
AcDbEntity
  8
GAIKEI
  6
Continuous
100
AcDbLine
 10
40.44311219752375
 20
32.76676772117293
 30
0.0
 11
40.44311219752375
 21
18.7760828211729
 31
0.0
  0
LINE
  5
5F
330
2
100
AcDbEntity
  8
GAIKEI
  6
Continuous
 62
     1
100
AcDbLine
 10
40.34732571575955
 20
30.26409226250547
 30
0.0
 11
40.36545569752377
 21
31.87423347117289
 31
0.0
  0
LINE
  5
60
330
2
100
AcDbEntity
  8
GAIKEI
  6
Continuous
 62
     1
100
AcDbLine
 10
40.16888469154383
 20
29.69851880574828
 30
0.0
 11
40.25130499752378
 21
29.83267417117287
 31
0.0
  0
LINE
  5
61
330
2
100
AcDbEntity
  8
GAIKEI
  6
Continuous
100
AcDbLine
 10
40.11695339752378
 20
30.04597107117291
 30
0.0
 11
40.11318004752377
 21
30.03982917117293
 31
0.0
  0
LINE
  5
62
330
2
100
AcDbEntity
  8
GAIKEI
  6
Continuous
100
AcDbLine
 10
40.11417354752381
 20
30.04705332117288
 30
0.0
 11
40.11695339752378
 21
30.04597107117291
 31
0.0
  0
LINE
  5
63
330
2
100
AcDbEntity
  8
GAIKEI
  6
Continuous
 62
     1
100
AcDbLine
 10
40.12818269752381
 20
28.13259027117289
 30
0.0
 11
40.12818269752381
 21
28.73759027117291
 31
0.0
  0
LINE
  5
64
330
2
100
AcDbEntity
  8
GAIKEI
  6
Continuous
 62
     1
100
AcDbLine
 10
40.12818269752381
 20
14.72259027117292
 30
0.0
 11
40.12818269752381
 21
15.32759027117293
 31
0.0
  0
LINE
  5
65
330
2
100
AcDbEntity
  8
GAIKEI
  6
Continuous
 62
     1
100
AcDbLine
 10
39.8993185975238
 20
28.73759027117291
 30
0.0
 11
40.12818269752381
 21
28.73759027117291
 31
0.0
  0
LINE
  5
66
330
2
100
AcDbEntity
  8
GAIKEI
  6
Continuous
 62
     1
100
AcDbLine
 10
39.8993185975238
 20
15.32759027117293
 30
0.0
 11
40.17554519752377
 21
15.32759027117293
 31
0.0
  0
LINE
  5
67
330
2
100
AcDbEntity
  8
GAIKEI
  6
Continuous
 62
     1
100
AcDbLine
 10
40.12818269752381
 20
14.72259027117292
 30
0.0
 11
39.89931859752374
 21
14.72259027117292
 31
0.0
  0
LINE
  5
68
330
2
100
AcDbEntity
  8
GAIKEI
  6
Continuous
 62
     1
100
AcDbLine
 10
40.12818269752381
 20
28.13259027117289
 30
0.0
 11
39.8993185975238
 21
28.13259027117289
 31
0.0
  0
LINE
  5
69
330
2
100
AcDbEntity
  8
GAIKEI
  6
Continuous
 62
     1
100
AcDbLine
 10
40.09759866221975
 20
11.81885355401749
 30
0.0
 11
40.09488668338593
 21
14.72259027117292
 31
0.0
  0
LINE
  5
6A
330
2
100
AcDbEntity
  8
GAIKEI
  6
Continuous
 62
     1
100
AcDbLine
 10
40.09490769752381
 20
15.32759027117293
 30
0.0
 11
40.09490769752381
 21
28.13259027117289
 31
0.0
  0
LINE
  5
6B
330
2
100
AcDbEntity
  8
GAIKEI
  6
Continuous
 62
     1
100
AcDbLine
 10
40.09490769752381
 20
28.73759027117291
 30
0.0
 11
40.09490769752369
 21
29.43678535665191
 31
0.0
  0
LINE
  5
6C
330
2
100
AcDbEntity
  8
GAIKEI
  6
Continuous
 62
     1
100
AcDbLine
 10
40.09490769752381
 20
29.38685867117289
 30
0.0
 11
39.8993185975238
 21
29.38685867117289
 31
0.0
  0
LINE
  5
6D
330
2
100
AcDbEntity
  8
GAIKEI
  6
Continuous
 62
     1
100
AcDbLine
 10
39.62101184752379
 20
10.96920332117287
 30
0.0
 11
39.94433594752377
 21
11.35452592117286
 31
0.0
  0
LINE
  5
6E
330
2
100
AcDbEntity
  8
GAIKEI
  6
Continuous
 62
     1
100
AcDbLine
 10
39.44554519752376
 20
7.89756847117286
 30
0.0
 11
39.44554519752376
 21
8.630047671172917
 31
0.0
  0
LINE
  5
6F
330
2
100
AcDbEntity
  8
GAIKEI
  6
Continuous
 62
     1
100
AcDbLine
 10
39.2101621975238
 20
7.648856721172876
 30
0.0
 11
39.2086291975238
 21
7.647911071172927
 31
0.0
  0
LINE
  5
70
330
2
100
AcDbEntity
  8
GAIKEI
  6
Continuous
 62
     1
100
AcDbLine
 10
39.44554519752376
 20
8.630047671172917
 30
0.0
 11
39.04950104752379
 21
8.630047671172917
 31
0.0
  0
LINE
  5
71
330
2
100
AcDbEntity
  8
GAIKEI
  6
Continuous
 62
     1
100
AcDbLine
 10
39.44554519752376
 20
8.630047671172917
 30
0.0
 11
39.44554519752376
 21
10.48711257117287
 31
0.0
  0
LINE
  5
72
330
2
100
AcDbEntity
  8
GAIKEI
  6
Continuous
100
AcDbLine
 10
38.29054519752379
 20
7.599796352041096
 30
0.0
 11
39.2086291975238
 21
7.647911071172927
 31
0.0
  0
LINE
  5
73
330
2
100
AcDbEntity
  8
GAIKEI
  6
Continuous
100
AcDbLine
 10
38.50450104752378
 20
35.78538602117288
 30
0.0
 11
38.29054519752379
 21
35.83086374051823
 31
0.0
  0
LINE
  5
74
330
2
100
AcDbEntity
  8
GAIKEI
  6
Continuous
 62
     1
100
AcDbLine
 10
39.04950104752379
 20
8.630047671172917
 30
0.0
 11
38.38589719752377
 21
8.5952696711729
 31
0.0
  0
LINE
  5
75
330
2
100
AcDbEntity
  8
GAIKEI
  6
Continuous
 62
     1
100
AcDbLine
 10
39.04950104752379
 20
10.48711257117287
 30
0.0
 11
39.04950104752379
 21
8.630047671172917
 31
0.0
  0
LINE
  5
76
330
2
100
AcDbEntity
  8
GAIKEI
  6
Continuous
 62
     1
100
AcDbLine
 10
39.8993185975238
 20
11.95484852117289
 30
0.0
 11
39.3419454975238
 21
11.29059712117288
 31
0.0
  0
LINE
  5
77
330
2
100
AcDbEntity
  8
GAIKEI
  6
Continuous
 62
     1
100
AcDbLine
 10
39.89931859752374
 20
14.72259027117292
 30
0.0
 11
39.8993185975238
 21
11.95484852117289
 31
0.0
  0
LINE
  5
78
330
2
100
AcDbEntity
  8
GAIKEI
  6
Continuous
 62
     1
100
AcDbLine
 10
39.93259359752381
 20
15.32759027117293
 30
0.0
 11
39.93259359752381
 21
14.72259027117292
 31
0.0
  0
LINE
  5
79
330
2
100
AcDbEntity
  8
GAIKEI
  6
Continuous
 62
     1
100
AcDbLine
 10
39.8993185975238
 20
28.13259027117289
 30
0.0
 11
39.8993185975238
 21
15.32759027117293
 31
0.0
  0
LINE
  5
7A
330
2
100
AcDbEntity
  8
GAIKEI
  6
Continuous
 62
     1
100
AcDbLine
 10
39.93259359752381
 20
28.73759027117291
 30
0.0
 11
39.93259359752381
 21
28.13259027117289
 31
0.0
  0
LINE
  5
7B
330
2
100
AcDbEntity
  8
GAIKEI
  6
Continuous
 62
     1
100
AcDbLine
 10
39.8993185975238
 20
29.38685867117289
 30
0.0
 11
39.8993185975238
 21
28.73759027117291
 31
0.0
  0
LINE
  5
7C
330
2
100
AcDbEntity
  8
GAIKEI
  6
Continuous
 62
     1
100
AcDbLine
 10
39.61814029752378
 20
29.51797427117293
 30
0.0
 11
39.8993185975238
 21
29.38685867117289
 31
0.0
  0
LINE
  5
7D
330
2
100
AcDbEntity
  8
GAIKEI
  6
Continuous
 62
     1
100
AcDbLine
 10
38.42606729752379
 20
14.50759027117288
 30
0.0
 11
38.42606729752379
 21
15.76259027117288
 31
0.0
  0
LINE
  5
7E
330
2
100
AcDbEntity
  8
GAIKEI
  6
Continuous
 62
     1
100
AcDbLine
 10
38.29054519752379
 20
14.50759027117288
 30
0.0
 11
38.42606729752379
 21
14.50759027117288
 31
0.0
  0
LINE
  5
7F
330
2
100
AcDbEntity
  8
GAIKEI
  6
Continuous
 62
     1
100
AcDbLine
 10
38.42606729752379
 20
15.76259027117288
 30
0.0
 11
38.29054519752379
 21
15.76259027117288
 31
0.0
  0
ARC
  5
80
330
2
100
AcDbEntity
  8
GAIKEI
  6
Continuous
100
AcDbCircle
 10
38.90432414752377
 20
32.25771842117291
 30
0.0
 40
1.49975415
100
AcDbArc
 50
352.1712090000072
 51
359.9983329999857
  0
ARC
  5
81
330
2
100
AcDbEntity
  8
GAIKEI
  6
Continuous
100
AcDbCircle
 10
38.90432414752377
 20
32.7121883211729
 30
0.0
 40
1.49975415
100
AcDbArc
 50
0.0016670000142817
 51
7.828790999992842
  0
LINE
  5
82
330
2
100
AcDbEntity
  8
GAIKEI
  6
Continuous
100
AcDbLine
 10
40.40407829752382
 20
32.25767482117289
 30
0.0
 11
40.40407829752382
 21
32.71223197117291
 31
0.0
  0
LINE
  5
83
330
2
100
AcDbEntity
  8
GAIKEI
  6
Continuous
 62
     1
100
AcDbLine
 10
39.81442424752379
 20
35.40987167117288
 30
0.0
 11
38.29054519752379
 21
35.73641717106551
 31
0.0
  0
LINE
  5
84
330
2
100
AcDbEntity
  8
GAIKEI
  6
Continuous
100
AcDbLine
 10
38.30566659752378
 20
29.23672987117289
 30
0.0
 11
39.81442424752379
 21
29.56003512117291
 31
0.0
  0
LINE
  5
85
330
2
100
AcDbEntity
  8
GAIKEI
  6
Continuous
100
AcDbLine
 10
40.08768274752378
 20
29.85442737117291
 30
0.0
 11
40.39009984752374
 21
32.05343182117287
 31
0.0
  0
LINE
  5
86
330
2
100
AcDbEntity
  8
GAIKEI
  6
Continuous
 62
     1
100
AcDbLine
 10
40.39009984752374
 20
32.91647492117289
 30
0.0
 11
40.08768274752378
 21
35.11547937117291
 31
0.0
  0
ARC
  5
87
330
2
100
AcDbEntity
  8
GAIKEI
  6
Continuous
 62
     1
100
AcDbCircle
 10
39.58054519752375
 20
13.68479537117292
 30
0.0
 40
0.9
100
AcDbArc
 50
0.0
 51
15.88084999999635
  0
ARC
  5
88
330
2
100
AcDbEntity
  8
GAIKEI
  6
Continuous
 62
     1
100
AcDbCircle
 10
39.58054519752375
 20
13.68479537117292
 30
0.0
 40
0.9
100
AcDbArc
 50
344.1191500000036
 51
0.0
  0
ARC
  5
89
330
2
100
AcDbEntity
  8
GAIKEI
  6
Continuous
 62
     1
100
AcDbCircle
 10
40.32115644752377
 20
13.47409427117287
 30
0.0
 40
0.13
100
AcDbArc
 50
343.1044909999914
 51
344.1191500000036
  0
ARC
  5
8A
330
2
100
AcDbEntity
  8
GAIKEI
  6
Continuous
 62
     1
100
AcDbCircle
 10
40.32115644752377
 20
13.89549642117293
 30
0.0
 40
0.13
100
AcDbArc
 50
15.88084999999635
 51
16.89550900000867
  0
ARC
  5
8B
330
2
100
AcDbEntity
  8
GAIKEI
  6
Continuous
 62
     1
100
AcDbCircle
 10
40.20304519752381
 20
14.18509027117289
 30
0.0
 40
0.35
100
AcDbArc
 50
0.0
 51
16.25702799999795
  0
ARC
  5
8C
330
2
100
AcDbEntity
  8
GAIKEI
  6
Continuous
 62
     1
100
AcDbCircle
 10
40.20304519752381
 20
14.18509027117289
 30
0.0
 40
0.35
100
AcDbArc
 50
343.742972000002
 51
0.0
  0
ARC
  5
8D
330
2
100
AcDbEntity
  8
GAIKEI
  6
Continuous
 62
     1
100
AcDbCircle
 10
40.49104984752375
 20
14.10110622117287
 30
0.0
 40
0.05
100
AcDbArc
 50
275.0000010000026
 51
343.742972000002
  0
ARC
  5
8E
330
2
100
AcDbEntity
  8
GAIKEI
  6
Continuous
 62
     1
100
AcDbCircle
 10
40.49104984752375
 20
14.26907432117292
 30
0.0
 40
0.05
100
AcDbArc
 50
16.25702799999795
 51
84.99999899999744
  0
LINE
  5
8F
330
2
100
AcDbEntity
  8
GAIKEI
  6
Continuous
 62
     1
100
AcDbLine
 10
40.53905064752382
 20
14.28307162117289
 30
0.0
 11
40.53905064752382
 21
14.0871089211729
 31
0.0
  0
LINE
  5
90
330
2
100
AcDbEntity
  8
GAIKEI
  6
Continuous
 62
     1
100
AcDbLine
 10
40.4530451975238
 20
14.32009027117288
 30
0.0
 11
40.44554519752376
 21
14.32009027117288
 31
0.0
  0
LINE
  5
91
330
2
100
AcDbEntity
  8
GAIKEI
  6
Continuous
 62
     1
100
AcDbLine
 10
40.44554519752376
 20
14.0500902711729
 30
0.0
 11
40.4530451975238
 21
14.0500902711729
 31
0.0
  0
LINE
  5
92
330
2
100
AcDbEntity
  8
GAIKEI
  6
Continuous
 62
     1
100
AcDbLine
 10
40.49540764752379
 20
14.31888402117289
 30
0.0
 11
40.4530451975238
 21
14.32259027117288
 31
0.0
  0
LINE
  5
93
330
2
100
AcDbEntity
  8
GAIKEI
  6
Continuous
 62
     1
100
AcDbLine
 10
40.4530451975238
 20
14.04759027117291
 30
0.0
 11
40.49540764752379
 21
14.0512965211729
 31
0.0
  0
LINE
  5
94
330
2
100
AcDbEntity
  8
GAIKEI
  6
Continuous
 62
     1
100
AcDbLine
 10
40.4530451975238
 20
14.32259027117288
 30
0.0
 11
40.4530451975238
 21
14.04759027117291
 31
0.0
  0
LINE
  5
95
330
2
100
AcDbEntity
  8
GAIKEI
  6
Continuous
 62
     1
100
AcDbLine
 10
40.49540764752379
 20
14.31888402117289
 30
0.0
 11
40.49540764752379
 21
14.0512965211729
 31
0.0
  0
ARC
  5
96
330
2
100
AcDbEntity
  8
GAIKEI
  6
Continuous
 62
     1
100
AcDbCircle
 10
37.95554519752375
 20
21.68509027117289
 30
0.0
 40
0.45
100
AcDbArc
 50
0.0
 51
16.60155000000317
  0
ARC
  5
97
330
2
100
AcDbEntity
  8
GAIKEI
  6
Continuous
 62
     1
100
AcDbCircle
 10
37.95554519752375
 20
21.68509027117289
 30
0.0
 40
0.45
100
AcDbArc
 50
343.3984499999969
 51
0.0
  0
ARC
  5
98
330
2
100
AcDbEntity
  8
GAIKEI
  6
Continuous
 62
     1
100
AcDbCircle
 10
38.32449639752378
 20
21.57509027117288
 30
0.0
 40
0.065
100
AcDbArc
 50
270.0
 51
343.3984499999969
  0
ARC
  5
99
330
2
100
AcDbEntity
  8
GAIKEI
  6
Continuous
 62
     1
100
AcDbCircle
 10
38.32449639752378
 20
21.79509027117291
 30
0.0
 40
0.065
100
AcDbArc
 50
16.60155000000317
 51
90.0
  0
LINE
  5
9A
330
2
100
AcDbEntity
  8
GAIKEI
  6
Continuous
 62
     1
100
AcDbLine
 10
38.29054519752379
 20
21.51009027117289
 30
0.0
 11
38.32449639752378
 21
21.51009027117289
 31
0.0
  0
LINE
  5
9B
330
2
100
AcDbEntity
  8
GAIKEI
  6
Continuous
 62
     1
100
AcDbLine
 10
38.32449639752378
 20
21.86009027117291
 30
0.0
 11
38.29054519752379
 21
21.86009027117291
 31
0.0
  0
LINE
  5
9C
330
2
100
AcDbEntity
  8
GAIKEI
  6
Continuous
 62
     1
100
AcDbLine
 10
38.32449639752378
 20
21.51009027117289
 30
0.0
 11
38.32449639752378
 21
21.86009027117291
 31
0.0
  0
LINE
  5
9D
330
2
100
AcDbEntity
  8
GAIKEI
  6
Continuous
 62
     1
100
AcDbLine
 10
38.38678689752379
 20
21.55651882117291
 30
0.0
 11
38.38678689752379
 21
21.81366172117288
 31
0.0
  0
ARC
  5
9E
330
2
100
AcDbEntity
  8
GAIKEI
  6
Continuous
 62
     1
100
AcDbCircle
 10
37.95554519752375
 20
8.725090271172859
 30
0.0
 40
0.45
100
AcDbArc
 50
0.0
 51
16.60155000000317
  0
ARC
  5
9F
330
2
100
AcDbEntity
  8
GAIKEI
  6
Continuous
 62
     1
100
AcDbCircle
 10
37.95554519752375
 20
8.725090271172859
 30
0.0
 40
0.45
100
AcDbArc
 50
343.3984499999969
 51
0.0
  0
ARC
  5
A0
330
2
100
AcDbEntity
  8
GAIKEI
  6
Continuous
 62
     1
100
AcDbCircle
 10
38.32449639752378
 20
8.615090271172903
 30
0.0
 40
0.065
100
AcDbArc
 50
270.0
 51
343.3984499999969
  0
ARC
  5
A1
330
2
100
AcDbEntity
  8
GAIKEI
  6
Continuous
 62
     1
100
AcDbCircle
 10
38.32449639752378
 20
8.835090271172873
 30
0.0
 40
0.065
100
AcDbArc
 50
16.60155000000317
 51
90.0
  0
LINE
  5
A2
330
2
100
AcDbEntity
  8
GAIKEI
  6
Continuous
 62
     1
100
AcDbLine
 10
38.29054519752379
 20
8.550090271172905
 30
0.0
 11
38.32449639752378
 21
8.550090271172905
 31
0.0
  0
LINE
  5
A3
330
2
100
AcDbEntity
  8
GAIKEI
  6
Continuous
 62
     1
100
AcDbLine
 10
38.32449639752378
 20
8.900090271172928
 30
0.0
 11
38.29054519752379
 21
8.900090271172928
 31
0.0
  0
LINE
  5
A4
330
2
100
AcDbEntity
  8
GAIKEI
  6
Continuous
 62
     1
100
AcDbLine
 10
38.32449639752378
 20
8.550090271172905
 30
0.0
 11
38.32449639752378
 21
8.900090271172928
 31
0.0
  0
LINE
  5
A5
330
2
100
AcDbEntity
  8
GAIKEI
  6
Continuous
 62
     1
100
AcDbLine
 10
38.38678689752379
 20
8.596518821172878
 30
0.0
 11
38.38678689752379
 21
8.853661721172898
 31
0.0
  0
LINE
  5
A6
330
2
100
AcDbEntity
  8
GAIKEI
  6
Continuous
 62
     1
100
AcDbLine
 10
38.29054519752379
 20
7.110090271172907
 30
0.0
 11
38.32554519752375
 21
7.110090271172907
 31
0.0
  0
ARC
  5
A7
330
2
100
AcDbEntity
  8
GAIKEI
  6
Continuous
 62
     1
100
AcDbCircle
 10
38.00554519752381
 20
7.110090271172907
 30
0.0
 40
0.45
100
AcDbArc
 50
0.0
 51
16.60155000000317
  0
ARC
  5
A8
330
2
100
AcDbEntity
  8
GAIKEI
  6
Continuous
 62
     1
100
AcDbCircle
 10
38.00554519752381
 20
7.110090271172907
 30
0.0
 40
0.45
100
AcDbArc
 50
343.3984499999969
 51
0.0
  0
ARC
  5
A9
330
2
100
AcDbEntity
  8
GAIKEI
  6
Continuous
 62
     1
100
AcDbCircle
 10
38.37449639752378
 20
7.000090271172894
 30
0.0
 40
0.065
100
AcDbArc
 50
270.0
 51
343.3984499999969
  0
ARC
  5
AA
330
2
100
AcDbEntity
  8
GAIKEI
  6
Continuous
 62
     1
100
AcDbCircle
 10
38.37449639752378
 20
7.220090271172864
 30
0.0
 40
0.065
100
AcDbArc
 50
16.60155000000317
 51
90.0
  0
LINE
  5
AB
330
2
100
AcDbEntity
  8
GAIKEI
  6
Continuous
 62
     1
100
AcDbLine
 10
38.32554519752375
 20
7.205090271172878
 30
0.0
 11
38.29153554752378
 21
7.205090271172878
 31
0.0
  0
LINE
  5
AC
330
2
100
AcDbEntity
  8
GAIKEI
  6
Continuous
 62
     1
100
AcDbLine
 10
38.4367868975238
 20
6.981518821172869
 30
0.0
 11
38.4367868975238
 21
7.238661721172888
 31
0.0
  0
LINE
  5
AD
330
2
100
AcDbEntity
  8
GAIKEI
  6
Continuous
 62
     1
100
AcDbLine
 10
38.32554519752375
 20
6.935090271172896
 30
0.0
 11
38.37449639752378
 21
6.935090271172896
 31
0.0
  0
LINE
  5
AE
330
2
100
AcDbEntity
  8
GAIKEI
  6
Continuous
 62
     1
100
AcDbLine
 10
38.37449639752378
 20
7.285090271172919
 30
0.0
 11
38.32554519752375
 21
7.285090271172919
 31
0.0
  0
LINE
  5
AF
330
2
100
AcDbEntity
  8
GAIKEI
  6
Continuous
 62
     1
100
AcDbLine
 10
38.32554519752375
 20
7.110090271172907
 30
0.0
 11
38.32554519752375
 21
7.285090271172919
 31
0.0
  0
LINE
  5
B0
330
2
100
AcDbEntity
  8
GAIKEI
  6
Continuous
 62
     1
100
AcDbLine
 10
38.32554519752375
 20
6.935090271172896
 30
0.0
 11
38.32554519752375
 21
7.110090271172907
 31
0.0
  0
LINE
  5
B1
330
2
100
AcDbEntity
  8
GAIKEI
  6
Continuous
 62
     1
100
AcDbLine
 10
38.37449639752378
 20
6.935090271172896
 30
0.0
 11
38.37449639752378
 21
7.285090271172919
 31
0.0
  0
ARC
  5
B2
330
2
100
AcDbEntity
  8
GAIKEI
  6
Continuous
 62
     1
100
AcDbCircle
 10
37.9630451975238
 20
6.885090271172884
 30
0.0
 40
0.35
100
AcDbArc
 50
0.0
 51
16.25702799999795
  0
ARC
  5
B3
330
2
100
AcDbEntity
  8
GAIKEI
  6
Continuous
 62
     1
100
AcDbCircle
 10
37.9630451975238
 20
6.885090271172884
 30
0.0
 40
0.35
100
AcDbArc
 50
343.742972000002
 51
0.0
  0
ARC
  5
B4
330
2
100
AcDbEntity
  8
GAIKEI
  6
Continuous
 62
     1
100
AcDbCircle
 10
38.25104984752375
 20
6.801106221172915
 30
0.0
 40
0.05
100
AcDbArc
 50
322.1768080000052
 51
343.742972000002
  0
ARC
  5
B5
330
2
100
AcDbEntity
  8
GAIKEI
  6
Continuous
 62
     1
100
AcDbCircle
 10
38.25104984752375
 20
6.969074321172911
 30
0.0
 40
0.05
100
AcDbArc
 50
16.25702799999795
 51
37.82319199999473
  0
ARC
  5
B6
330
2
100
AcDbEntity
  8
GAIKEI
  6
Continuous
 62
     1
100
AcDbCircle
 10
37.97665514752379
 20
7.260090271172884
 30
0.0
 40
0.38639005
100
AcDbArc
 50
3.709712000011262
 51
32.35843299999584
  0
LINE
  5
B7
330
2
100
AcDbEntity
  8
GAIKEI
  6
Continuous
 62
     1
100
AcDbLine
 10
38.30304519752377
 20
7.466891771172925
 30
0.0
 11
38.29054519752379
 21
7.471441371172886
 31
0.0
  0
LINE
  5
B8
330
2
100
AcDbEntity
  8
GAIKEI
  6
Continuous
 62
     1
100
AcDbLine
 10
38.30304519752377
 20
7.466891771172925
 30
0.0
 11
38.30304519752377
 21
7.205090271172878
 31
0.0
  0
LINE
  5
B9
330
2
100
AcDbEntity
  8
GAIKEI
  6
Continuous
 62
     1
100
AcDbLine
 10
38.35304519752379
 20
6.655090271172923
 30
0.0
 11
38.32304519752381
 21
6.625090271172894
 31
0.0
  0
LINE
  5
BA
330
2
100
AcDbEntity
  8
GAIKEI
  6
Continuous
 62
     1
100
AcDbLine
 10
38.35304519752379
 20
6.935090271172896
 30
0.0
 11
38.35304519752379
 21
6.655090271172923
 31
0.0
  0
LINE
  5
BB
330
2
100
AcDbEntity
  8
GAIKEI
  6
Continuous
 62
     1
100
AcDbLine
 10
38.32304519752381
 20
6.625090271172894
 30
0.0
 11
38.29304519752378
 21
6.595090271172864
 31
0.0
  0
LINE
  5
BC
330
2
100
AcDbEntity
  8
GAIKEI
  6
Continuous
 62
     1
100
AcDbLine
 10
38.29304519752378
 20
6.595090271172864
 30
0.0
 11
38.29054519752379
 21
6.595090271172864
 31
0.0
  0
ARC
  5
BD
330
2
100
AcDbEntity
  8
GAIKEI
  6
Continuous
 62
     1
100
AcDbCircle
 10
40.17054519752377
 20
13.37973662117287
 30
0.0
 40
0.3
100
AcDbArc
 50
336.4435359999883
 51
0.0
  0
ARC
  5
BE
330
2
100
AcDbEntity
  8
GAIKEI
  6
Continuous
 62
     1
100
AcDbCircle
 10
40.42054519752378
 20
13.53509027117292
 30
0.0
 40
0.05
100
AcDbArc
 50
0.0
 51
11.2074969999849
  0
ARC
  5
BF
330
2
100
AcDbEntity
  8
GAIKEI
  6
Continuous
 62
     1
100
AcDbCircle
 10
40.42054519752378
 20
13.53509027117292
 30
0.0
 40
0.04862125
100
AcDbArc
 50
0.0
 51
6.222905000009303
  0
ARC
  5
C0
330
2
100
AcDbEntity
  8
GAIKEI
  6
Continuous
 62
     1
100
AcDbCircle
 10
40.17054519752377
 20
13.37973662117287
 30
0.0
 40
0.29862125
100
AcDbArc
 50
337.0578669999897
 51
0.0
  0
LINE
  5
C1
330
2
100
AcDbEntity
  8
GAIKEI
  6
Continuous
 62
     1
100
AcDbLine
 10
40.46916644752378
 20
13.53509027117292
 30
0.0
 11
40.47054519752379
 21
13.53509027117292
 31
0.0
  0
LINE
  5
C2
330
2
100
AcDbEntity
  8
GAIKEI
  6
Continuous
 62
     1
100
AcDbLine
 10
40.46916644752378
 20
13.37973662117287
 30
0.0
 11
40.47054519752379
 21
13.37973662117287
 31
0.0
  0
LINE
  5
C3
330
2
100
AcDbEntity
  8
GAIKEI
  6
Continuous
 62
     1
100
AcDbLine
 10
40.47054519752379
 20
13.53509027117292
 30
0.0
 11
40.47054519752379
 21
13.37973662117287
 31
0.0
  0
LINE
  5
C4
330
2
100
AcDbEntity
  8
GAIKEI
  6
Continuous
 62
     1
100
AcDbLine
 10
40.46916644752378
 20
13.53509027117292
 30
0.0
 11
40.46916644752378
 21
13.37973662117287
 31
0.0
  0
LINE
  5
C5
330
2
100
AcDbEntity
  8
GAIKEI
  6
Continuous
 62
     1
100
AcDbLine
 10
40.4680069475238
 20
13.53509027117292
 30
0.0
 11
40.46916644752378
 21
13.53509027117292
 31
0.0
  0
LINE
  5
C6
330
2
100
AcDbEntity
  8
GAIKEI
  6
Continuous
 62
     1
100
AcDbLine
 10
40.44554519752376
 20
13.37973662117287
 30
0.0
 11
40.46916644752378
 21
13.37973662117287
 31
0.0
  0
ELLIPSE
  5
C7
330
2
100
AcDbEntity
  8
GAIKEI
  6
Continuous
 62
     1
100
AcDbEllipse
 10
36.62450359752381
 20
6.594634921172882
 30
0.0
 11
-0.3002704522363481
 21
0.4353255228029943
 31
0.0
210
0.0
220
0.0
230
1.0
 40
0.7084260000000002
 41
0.7388798675136195
 42
1.221777013352586
  0
ELLIPSE
  5
C8
330
2
100
AcDbEntity
  8
GAIKEI
  6
Continuous
 62
     1
100
AcDbEllipse
 10
36.62057839752379
 20
6.594634921172882
 30
0.0
 11
-0.2690783224982649
 21
0.3978566820730179
 31
0.0
210
0.0
220
0.0
230
1.0
 40
0.6240160000000001
 41
0.7448982300329864
 42
1.307714707561869
  0
ELLIPSE
  5
C9
330
2
100
AcDbEntity
  8
GAIKEI
  6
Continuous
 62
     1
100
AcDbEllipse
 10
34.37181784752374
 20
6.637590271172882
 30
0.0
 11
3.816227337545457
 21
0.0
 31
0.0
210
0.0
220
0.0
230
1.0
 40
0.052408
 41
6.281815779309091
 42
6.283185307179586
  0
ARC
  5
CA
330
2
100
AcDbEntity
  8
GAIKEI
  6
Continuous
100
AcDbCircle
 10
36.0905451975238
 20
6.834468171172886
 30
0.0
 40
0.05
100
AcDbArc
 50
180.0
 51
212.0859750000037
  0
ARC
  5
CB
330
2
100
AcDbEntity
  8
GAIKEI
  6
Continuous
100
AcDbCircle
 10
36.2583880475238
 20
6.613822221172881
 30
0.0
 40
0.075
100
AcDbArc
 50
212.0859750000037
 51
266.9999999999943
  0
ARC
  5
CC
330
2
100
AcDbEntity
  8
GAIKEI
  6
Continuous
100
AcDbCircle
 10
36.2583880475238
 20
36.75635832117291
 30
0.0
 40
0.075
100
AcDbArc
 50
93.00000000000578
 51
147.9140249999963
  0
ARC
  5
CD
330
2
100
AcDbEntity
  8
GAIKEI
  6
Continuous
100
AcDbCircle
 10
38.24054519752377
 20
6.487590271172905
 30
0.0
 40
0.05
100
AcDbArc
 50
270.0
 51
0.0
  0
ARC
  5
CE
330
2
100
AcDbEntity
  8
GAIKEI
  6
Continuous
100
AcDbCircle
 10
38.24054519752377
 20
36.88259027117289
 30
0.0
 40
0.05
100
AcDbArc
 50
0.0
 51
90.0
  0
LINE
  5
CF
330
2
100
AcDbEntity
  8
GAIKEI
  6
Continuous
100
AcDbLine
 10
36.04054519752379
 20
6.834468171172886
 30
0.0
 11
36.04054519752379
 21
36.55009029329409
 31
0.0
  0
LINE
  5
D0
330
2
100
AcDbEntity
  8
GAIKEI
  6
Continuous
100
AcDbLine
 10
36.25582879752381
 20
36.83132712117294
 30
0.0
 11
36.25446284752377
 21
36.83125552117286
 31
0.0
  0
LINE
  5
D1
330
2
100
AcDbEntity
  8
GAIKEI
  6
Continuous
100
AcDbLine
 10
36.19484414752378
 20
6.573982921172898
 30
0.0
 11
36.04818259752381
 21
6.807908571172902
 31
0.0
  0
LINE
  5
D2
330
2
100
AcDbEntity
  8
GAIKEI
  6
Continuous
 62
     1
100
AcDbLine
 10
36.04054519752379
 20
7.019286949051604
 30
0.0
 11
36.19484414752378
 21
6.773179621172914
 31
0.0
  0
LINE
  5
D3
330
2
100
AcDbEntity
  8
GAIKEI
  6
Continuous
 62
     1
100
AcDbLine
 10
36.19484414752378
 20
36.59700092117288
 30
0.0
 11
36.04054519752373
 21
36.35089359329408
 31
0.0
  0
LINE
  5
D4
330
2
100
AcDbEntity
  8
GAIKEI
  6
Continuous
100
AcDbLine
 10
36.04054519752379
 20
36.55009029329409
 30
0.0
 11
36.19484414752378
 21
36.79619762117289
 31
0.0
  0
LINE
  5
D5
330
2
100
AcDbEntity
  8
GAIKEI
  6
Continuous
 62
     1
100
AcDbLine
 10
36.19484414752378
 20
6.773179621172914
 30
0.0
 11
36.19484414752378
 21
36.79619765817529
 31
0.0
  0
LINE
  5
D6
330
2
100
AcDbEntity
  8
GAIKEI
  6
Continuous
100
AcDbLine
 10
36.25582879752381
 20
36.83132712117294
 30
0.0
 11
38.18804159752381
 21
36.93259007117291
 31
0.0
  0
LINE
  5
D7
330
2
100
AcDbEntity
  8
GAIKEI
  6
Continuous
100
AcDbLine
 10
38.18804159752381
 20
6.437590471172882
 30
0.0
 11
36.25446285080557
 21
6.538925006066278
 31
0.0
  0
LINE
  5
D8
330
2
100
AcDbEntity
  8
GAIKEI
  6
Continuous
100
AcDbLine
 10
38.29054519752379
 20
36.73259027117291
 30
0.0
 11
38.29054519752379
 21
6.637590271172882
 31
0.0
  0
LINE
  5
D9
330
2
100
AcDbEntity
  8
GAIKEI
  6
Continuous
 62
     1
100
AcDbLine
 10
38.29054519752379
 20
6.637590271172882
 30
0.0
 11
38.24054519752377
 21
6.637590271172882
 31
0.0
  0
LINE
  5
DA
330
2
100
AcDbEntity
  8
GAIKEI
  6
Continuous
100
AcDbLine
 10
38.29054519752379
 20
6.637590271172882
 30
0.0
 11
38.29054519752379
 21
6.487590271172905
 31
0.0
  0
LINE
  5
DB
330
2
100
AcDbEntity
  8
GAIKEI
  6
Continuous
100
AcDbLine
 10
38.24054519752377
 20
6.437590271172894
 30
0.0
 11
38.18804519752382
 21
6.437590271172894
 31
0.0
  0
LINE
  5
DC
330
2
100
AcDbEntity
  8
GAIKEI
  6
Continuous
 62
     1
100
AcDbLine
 10
38.24054519752377
 20
6.437590271172894
 30
0.0
 11
38.24054519752377
 21
6.637590271172882
 31
0.0
  0
LINE
  5
DD
330
2
100
AcDbEntity
  8
GAIKEI
  6
Continuous
100
AcDbLine
 10
38.18804159752381
 20
6.437590471172882
 30
0.0
 11
38.18804519752382
 21
6.437590271172894
 31
0.0
  0
LINE
  5
DE
330
2
100
AcDbEntity
  8
GAIKEI
  6
Continuous
 62
     1
100
AcDbLine
 10
38.18804159752381
 20
36.73286417117294
 30
0.0
 11
36.19484414752378
 21
36.62840510052632
 31
0.0
  0
LINE
  5
DF
330
2
100
AcDbEntity
  8
GAIKEI
  6
Continuous
 62
     1
100
AcDbLine
 10
36.25446284752377
 20
36.83125553610751
 30
0.0
 11
36.25446284752377
 21
6.773179621172914
 31
0.0
  0
LINE
  5
E0
330
2
100
AcDbEntity
  8
GAIKEI
  6
Continuous
 62
     1
100
AcDbLine
 10
36.25582879752381
 20
6.738579371172875
 30
0.0
 11
38.18804159752381
 21
6.637316371172857
 31
0.0
  0
LINE
  5
E1
330
2
100
AcDbEntity
  8
GAIKEI
  6
Continuous
100
AcDbLine
 10
38.29054519752379
 20
36.73259027117291
 30
0.0
 11
38.24054519752377
 21
36.73259027117291
 31
0.0
  0
LINE
  5
E2
330
2
100
AcDbEntity
  8
GAIKEI
  6
Continuous
100
AcDbLine
 10
38.29054519752379
 20
36.88259027117289
 30
0.0
 11
38.29054519752379
 21
36.73259027117291
 31
0.0
  0
LINE
  5
E3
330
2
100
AcDbEntity
  8
GAIKEI
  6
Continuous
 62
     1
100
AcDbLine
 10
38.18804519752382
 20
6.637590271172882
 30
0.0
 11
38.24054519752377
 21
6.637590271172882
 31
0.0
  0
LINE
  5
E4
330
2
100
AcDbEntity
  8
GAIKEI
  6
Continuous
 62
     1
100
AcDbLine
 10
38.18804519752382
 20
36.93259027117296
 30
0.0
 11
38.18804519752376
 21
6.437590271172837
 31
0.0
  0
LINE
  5
E5
330
2
100
AcDbEntity
  8
GAIKEI
  6
Continuous
100
AcDbLine
 10
38.24054519752377
 20
36.73259027117291
 30
0.0
 11
38.18804519752382
 21
36.73259027117291
 31
0.0
  0
LINE
  5
E6
330
2
100
AcDbEntity
  8
GAIKEI
  6
Continuous
100
AcDbLine
 10
38.18804519752382
 20
36.9325902711729
 30
0.0
 11
38.24054519752377
 21
36.9325902711729
 31
0.0
  0
LINE
  5
E7
330
2
100
AcDbEntity
  8
GAIKEI
  6
Continuous
100
AcDbLine
 10
38.18804519752382
 20
36.9325902711729
 30
0.0
 11
38.18804159752381
 21
36.93259007117291
 31
0.0
  0
SPLINE
  5
E8
330
2
100
AcDbEntity
  8
GAIKEI
  6
Continuous
100
AcDbSpline
210
0.0
220
0.0
230
1.0
 70
     8
 71
     3
 72
     9
 73
     5
 74
     3
 42
0.0000000001
 43
0.0000000001
 44
0.000001
 12
0.0096603815788914
 22
0.9999533374251774
 32
0.0
 13
0.0070116454444045
 23
0.9999754181119463
 33
0.0
 40
0.0
 40
0.0
 40
0.0
 40
0.0
 40
0.0011335976856412
 40
0.0020528754816208
 40
0.0020528754816208
 40
0.0020528754816208
 40
0.0020528754816208
 10
40.44554030337974
 20
12.13039660326131
 30
0.0
 10
40.44554395370847
 20
12.13077445152433
 30
0.0
 10
40.4455500638017
 20
12.13145871636406
 30
0.0
 10
40.4455552676391
 20
12.13214298857066
 30
0.0
 10
40.4455574161891
 20
12.13244940697012
 30
0.0
 11
40.44554030337974
 21
12.13039660326131
 31
0.0
 11
40.44555042535523
 21
12.13153015576762
 31
0.0
 11
40.4455574161891
 21
12.13244940697012
 31
0.0
  0
SPLINE
  5
E9
330
2
100
AcDbEntity
  8
GAIKEI
  6
Continuous
100
AcDbSpline
210
0.0
220
0.0
230
1.0
 70
     8
 71
     3
 72
    12
 73
     8
 74
     6
 42
0.0000000001
 43
0.0000000001
 44
0.000001
 12
0.3177217516879759
 22
0.9481839950686387
 32
0.0
 13
0.0004762146561107
 23
0.9999998866097941
 33
0.0
 40
0.0
 40
0.0
 40
0.0
 40
0.0
 40
0.0036401223069632
 40
0.0064206716563102
 40
0.0091006847411152
 40
0.0120770673698249
 40
0.0147756210223952
 40
0.0147756210223952
 40
0.0147756210223952
 40
0.0147756210223952
 10
40.44311221471537
 20
32.76676771529054
 30
0.0
 10
40.44349773006061
 20
32.76791821719439
 30
0.0
 10
40.44410245095948
 20
32.76997382557991
 30
0.0
 10
40.44476331057802
 20
32.77293608831133
 30
0.0
 10
40.44521399799757
 20
32.77571374062765
 30
0.0
 10
40.44548409151133
 20
32.77848771257185
 30
0.0
 10
40.4455447691664
 20
32.78037980469961
 30
0.0
 10
40.44554519753001
 20
32.78127932248179
 30
0.0
 11
40.44311221471537
 21
32.76676771529054
 31
0.0
 11
40.44413847712997
 21
32.77025968004472
 31
0.0
 11
40.44474406925468
 21
32.7729733200959
 31
0.0
 11
40.44517215359059
 21
32.7756190717796
 31
0.0
 11
40.44546015758652
 21
32.77858162284957
 31
0.0
 11
40.44554519753001
 21
32.78127932248179
 31
0.0
  0
SPLINE
  5
EA
330
2
100
AcDbEntity
  8
GAIKEI
  6
Continuous
 62
     1
100
AcDbSpline
210
0.0
220
0.0
230
1.0
 70
     8
 71
     3
 72
     9
 73
     5
 74
     3
 42
0.0000000001
 43
0.0000000001
 44
0.000001
 12
0.9015622545408136
 22
-0.4326493975348692
 32
0.0
 13
0.999899476397465
 23
0.0141787552371506
 33
0.0
 40
0.0
 40
0.0
 40
0.0
 40
0.0
 40
0.0021070375643677
 40
0.0037977076619652
 40
0.0037977076619652
 40
0.0037977076619652
 40
0.0037977076619652
 10
39.21033546444778
 20
7.649065251224556
 30
0.0
 10
39.21096867296009
 20
7.648761381713626
 30
0.0
 10
39.21218475533386
 20
7.648353438692467
 30
0.0
 10
39.21345554821981
 20
7.64824397771143
 30
0.0
 10
39.21401904826826
 20
7.648251968243926
 30
0.0
 11
39.21033546444778
 21
7.649065251224556
 31
0.0
 11
39.21233485532628
 21
7.648399595295245
 31
0.0
 11
39.21401904826826
 21
7.648251968243926
 31
0.0
  0
ARC
  5
EB
330
2
100
AcDbEntity
  8
GAIKEI
 62
     1
100
AcDbCircle
 10
40.76143268095626
 20
10.31898322896683
 30
0.0
 40
1.720167845632516
100
AcDbArc
 50
145.6090498134464
 51
174.3909501865545
  0
ARC
  5
EC
330
2
100
AcDbEntity
  8
GAIKEI
100
AcDbCircle
 10
40.6665388565284
 20
11.44353574794837
 30
0.0
 40
0.4959956609617684
100
AcDbArc
 50
141.0786585612989
 51
180.1627894387007
  0
ARC
  5
ED
330
2
100
AcDbEntity
  8
GAIKEI
 62
     1
100
AcDbCircle
 10
39.42167167372963
 20
11.78450196489058
 30
0.0
 40
0.6767993243531389
100
AcDbArc
 50
320.5571672063336
 51
2.909351495515366
  0
LINE
  5
EE
330
2
100
AcDbEntity
  8
GAIKEI
  6
Continuous
 62
     1
100
AcDbLine
 10
40.01530584752379
 20
32.11600793684414
 30
0.0
 11
39.73219639752381
 21
30.05739788684417
 31
0.0
  0
ARC
  5
EF
330
2
100
AcDbEntity
  8
GAIKEI
  6
Continuous
 62
     1
100
AcDbCircle
 10
39.58359509752381
 20
30.07783423684413
 30
0.0
 40
0.15
100
AcDbArc
 50
272.0000000000036
 51
352.1695429999987
  0
LINE
  5
F0
330
2
100
AcDbEntity
  8
GAIKEI
  6
Continuous
 62
     1
100
AcDbLine
 10
39.96379069752379
 20
32.12309253684413
 30
0.0
 11
39.68704314752381
 21
30.11074238684415
 31
0.0
  0
ARC
  5
F1
330
2
100
AcDbEntity
  8
GAIKEI
  6
Continuous
 62
     1
100
AcDbCircle
 10
38.98054519752373
 20
32.25831293684411
 30
0.0
 40
0.9925
100
AcDbArc
 50
352.1695429999987
 51
0.0
  0
ARC
  5
F2
330
2
100
AcDbEntity
  8
GAIKEI
  6
Continuous
 62
     1
100
AcDbCircle
 10
38.98054519752373
 20
32.25831293684411
 30
0.0
 40
1.044499999999999
100
AcDbArc
 50
352.1695429999987
 51
0.0
  0
LINE
  5
F3
330
2
100
AcDbEntity
  8
GAIKEI
  6
Continuous
 62
     1
100
AcDbLine
 10
38.53578014752384
 20
29.89107358684413
 30
0.0
 11
39.58883274752373
 21
29.92784698684415
 31
0.0
  0
ARC
  5
F4
330
2
100
AcDbEntity
  8
GAIKEI
  6
Continuous
 62
     1
100
AcDbCircle
 10
38.53054524752383
 20
30.04098218684414
 30
0.0
 40
0.15
100
AcDbArc
 50
180.0
 51
272.0000000000036
  0
LINE
  5
F5
330
2
100
AcDbEntity
  8
GAIKEI
  6
Continuous
 62
     1
100
AcDbLine
 10
38.47729019752376
 20
29.93228103684413
 30
0.0
 11
38.83503609752381
 21
29.94477383684415
 31
0.0
  0
LINE
  5
F6
330
2
100
AcDbEntity
  8
GAIKEI
  6
Continuous
 62
     1
100
AcDbLine
 10
38.83503609752381
 20
29.94477383684415
 30
0.0
 11
38.8347270975238
 21
29.95362343684411
 31
0.0
  0
LINE
  5
F7
330
2
100
AcDbEntity
  8
GAIKEI
  6
Continuous
 62
     1
100
AcDbLine
 10
38.82722539752376
 20
29.95625108684413
 30
0.0
 11
39.54367674752382
 21
29.98127008684418
 31
0.0
  0
ARC
  5
F8
330
2
100
AcDbEntity
  8
GAIKEI
  6
Continuous
 62
     1
100
AcDbCircle
 10
39.53844179752378
 20
30.13117873684411
 30
0.0
 40
0.15
100
AcDbArc
 50
272.0000000000036
 51
352.1695429999987
  0
ARC
  5
F9
330
2
100
AcDbEntity
  8
GAIKEI
  6
Continuous
 62
     1
100
AcDbCircle
 10
38.47554524752377
 20
29.98225058684415
 30
0.0
 40
0.05
100
AcDbArc
 50
180.0
 51
272.0000000000036
  0
LINE
  5
FA
330
2
100
AcDbEntity
  8
GAIKEI
  6
Continuous
 62
     1
100
AcDbLine
 10
38.42554524752382
 20
29.98225058684415
 30
0.0
 11
38.42554524752382
 21
34.98905468684422
 31
0.0
  0
LINE
  5
FB
330
2
100
AcDbEntity
  8
GAIKEI
  6
Continuous
 62
     1
100
AcDbLine
 10
40.01530584752379
 20
32.8552973368441
 30
0.0
 11
39.73219639752381
 21
34.91390738684419
 31
0.0
  0
ARC
  5
FC
330
2
100
AcDbEntity
  8
GAIKEI
  6
Continuous
 62
     1
100
AcDbCircle
 10
39.58359509752381
 20
34.89347108684416
 30
0.0
 40
0.15
100
AcDbArc
 50
7.83045700000137
 51
87.9999999999964
  0
LINE
  5
FD
330
2
100
AcDbEntity
  8
GAIKEI
  6
Continuous
 62
     1
100
AcDbLine
 10
39.96379069752379
 20
32.84821273684412
 30
0.0
 11
39.68704314752381
 21
34.86056288684421
 31
0.0
  0
LINE
  5
FE
330
2
100
AcDbEntity
  8
GAIKEI
  6
Continuous
 62
     1
100
AcDbLine
 10
40.02504524752374
 20
32.25831293684411
 30
0.0
 11
40.02504524752374
 21
32.71299238684418
 31
0.0
  0
LINE
  5
FF
330
2
100
AcDbEntity
  8
GAIKEI
  6
Continuous
 62
     1
100
AcDbLine
 10
39.97304524752383
 20
32.25831293684411
 30
0.0
 11
39.97304524752383
 21
32.71299238684418
 31
0.0
  0
ARC
  5
100
330
2
100
AcDbEntity
  8
GAIKEI
  6
Continuous
 62
     1
100
AcDbCircle
 10
38.98054519752373
 20
32.71299238684418
 30
0.0
 40
0.9925
100
AcDbArc
 50
0.0
 51
7.83045700000137
  0
ARC
  5
101
330
2
100
AcDbEntity
  8
GAIKEI
  6
Continuous
 62
     1
100
AcDbCircle
 10
38.98054519752373
 20
32.71299238684418
 30
0.0
 40
1.044499999999999
100
AcDbArc
 50
0.0
 51
7.83045700000137
  0
LINE
  5
102
330
2
100
AcDbEntity
  8
GAIKEI
  6
Continuous
 62
     1
100
AcDbLine
 10
38.38054524752374
 20
30.04098218684414
 30
0.0
 11
38.38054524752374
 21
34.93032308684411
 31
0.0
  0
LINE
  5
103
330
2
100
AcDbEntity
  8
GAIKEI
  6
Continuous
 62
     1
100
AcDbLine
 10
38.53578014752384
 20
35.08023173684416
 30
0.0
 11
39.58883274752373
 21
35.04345833684414
 31
0.0
  0
ARC
  5
104
330
2
100
AcDbEntity
  8
GAIKEI
  6
Continuous
 62
     1
100
AcDbCircle
 10
38.53054524752383
 20
34.93032308684411
 30
0.0
 40
0.15
100
AcDbArc
 50
87.9999999999964
 51
180.0
  0
LINE
  5
105
330
2
100
AcDbEntity
  8
GAIKEI
  6
Continuous
 62
     1
100
AcDbLine
 10
38.47729019752376
 20
35.03902423684412
 30
0.0
 11
38.83503609752381
 21
35.02653148684414
 31
0.0
  0
LINE
  5
106
330
2
100
AcDbEntity
  8
GAIKEI
  6
Continuous
 62
     1
100
AcDbLine
 10
38.83503609752381
 20
35.02653148684414
 30
0.0
 11
39.54367674752382
 21
34.99003518684418
 31
0.0
  0
ARC
  5
107
330
2
100
AcDbEntity
  8
GAIKEI
  6
Continuous
 62
     1
100
AcDbCircle
 10
39.53844179752378
 20
34.84012658684418
 30
0.0
 40
0.15
100
AcDbArc
 50
7.83045700000137
 51
87.9999999999964
  0
ARC
  5
108
330
2
100
AcDbEntity
  8
GAIKEI
  6
Continuous
 62
     1
100
AcDbCircle
 10
38.47554524752377
 20
34.98905468684422
 30
0.0
 40
0.05
100
AcDbArc
 50
87.9999999999964
 51
180.0
  0
ARC
  5
109
330
2
100
AcDbEntity
  8
GAIKEI
  6
Continuous
 62
     1
100
AcDbCircle
 10
40.59490769752369
 20
29.43678535665197
 30
0.0
 40
0.5
100
AcDbArc
 50
148.4349071797699
 51
180.0000000000024
  0
ARC
  5
10A
330
2
100
AcDbEntity
  8
GAIKEI
100
AcDbCircle
 10
39.74117398161809
 20
29.90204397317609
 30
0.0
 40
0.3497651444952813
100
AcDbArc
 50
282.0887752694151
 51
352.1755251408762
  0
ARC
  5
10B
330
2
100
AcDbEntity
  8
GAIKEI
 62
     1
100
AcDbCircle
 10
39.55555176565315
 20
30.2139226388212
 30
0.0
 40
0.7933618211180807
100
AcDbArc
 50
325.5909931086476
 51
3.625618073732946
  0
ARC
  5
10C
330
2
100
AcDbEntity
  8
GAIKEI
 62
     1
100
AcDbCircle
 10
39.74117375849551
 20
35.06786258053018
 30
0.0
 40
0.3497654045621397
100
AcDbArc
 50
7.824500824864304
 51
77.91119993180166
  0
DIMENSION
  5
10D
330
2
100
AcDbEntity
  8
SUNPO
100
AcDbDimension
  2
*D12
 10
40.4905451975238
 20
44.9385569142791
 30
0.0
 11
47.07387853085713
 21
46.6885569142791
 31
0.0
 70
    33
  1
89
 71
     5
 42
4.450000000000017
  3
STANDARD
100
AcDbAlignedDimension
 13
36.04054519752379
 23
36.93855691427905
 33
0.0
 14
40.4905451975238
 24
36.93855691427911
 34
0.0
1001
ACAD
1000
DSTYLE
1002
{
1070
    40
1040
1.0
1070
   140
1040
2.5
1070
   147
1040
0.5
1070
   172
1070
     1
1070
   279
1070
     0
1070
   288
1070
     0
1002
}
  0
DIMENSION
  5
11D
330
2
100
AcDbEntity
  8
SUNPO
100
AcDbDimension
  2
*D11
 10
45.38676329743437
 20
-3.551230738563418
 30
0.0
 11
37.21365424747908
 21
-1.801230738563418
 31
0.0
 70
    33
  1
327
 71
     5
 42
16.34621809991057
  3
STANDARD
100
AcDbAlignedDimension
 13
29.0405451975238
 23
3.448769261436581
 33
0.0
 14
45.38676329743437
 24
3.448769261436581
 34
0.0
1001
ACAD
1000
DSTYLE
1002
{
1070
   287
1070
     3
1070
    40
1040
1.0
1070
   140
1040
2.5
1070
   147
1040
0.5
1070
   172
1070
     1
1070
   279
1070
     0
1070
   288
1070
     0
1002
}
  0
ARC
  5
12A
330
2
100
AcDbEntity
  8
GAIKEI
 62
     7
100
AcDbCircle
 10
44.13002949741543
 20
6.400170592305897
 30
0.0
 40
0.0500045114399966
100
AcDbArc
 50
2.999964999996429
 51
89.99996400000483
  0
ARC
  5
12B
330
2
100
AcDbEntity
  8
GAIKEI
 62
     1
100
AcDbCircle
 10
41.62728666310518
 20
6.405195043001668
 30
0.0
 40
0.0453588822826283
100
AcDbArc
 50
356.9518797041114
 51
82.58954369112778
  0
ARC
  5
12C
330
2
100
AcDbEntity
  8
GAIKEI
 62
     1
100
AcDbCircle
 10
41.39364524891035
 20
6.409420377319179
 30
0.0
 40
0.0418374507040371
100
AcDbArc
 50
103.0635590081793
 51
189.1282203946027
  0
LINE
  5
12D
330
2
100
AcDbEntity
  8
GAIKEI
 62
     1
100
AcDbLine
 10
41.35233764222438
 20
6.402782911324379
 30
0.0
 11
41.30908582335009
 21
4.919744110585725
 31
0.0
  0
LINE
  5
12E
330
2
100
AcDbEntity
  8
GAIKEI
 62
     1
100
AcDbLine
 10
41.67257570097997
 20
6.402787495071265
 30
0.0
 11
41.73550721203572
 21
4.882443245277045
 31
0.0
  0
LINE
  5
12F
330
2
100
AcDbEntity
  8
GAIKEI
 62
     7
100
AcDbLine
 10
38.34805047450131
 20
6.402783100570843
 30
0.0
 11
38.33873741989153
 21
6.225151468631821
 31
0.0
  0
ARC
  5
130
330
2
100
AcDbEntity
  8
GAIKEI
 62
     7
100
AcDbCircle
 10
38.39816471537439
 20
6.399982825269091
 30
0.0
 40
0.0501925368555389
100
AcDbArc
 50
90.1949378391694
 51
176.8019857905064
  0
LINE
  5
131
330
2
100
AcDbEntity
  8
GAIKEI
 62
     7
100
AcDbLine
 10
44.17995525174997
 20
6.40278999529687
 30
0.0
 11
44.28494180703957
 21
4.3995234259325
 31
0.0
  0
LINE
  5
132
330
2
100
AcDbEntity
  8
GAIKEI
 62
     7
100
AcDbLine
 10
38.39799401606077
 20
6.45017510374592
 30
0.0
 11
44.13002949741543
 21
6.45017510374592
 31
0.0
  0
LINE
  5
133
330
2
100
AcDbEntity
  8
GAIKEI
 62
     7
100
AcDbLine
 10
37.7096506632695
 20
6.225154802265905
 30
0.0
 11
41.34633126699192
 21
6.225154802265905
 31
0.0
  0
ARC
  5
134
330
2
100
AcDbEntity
  8
GAIKEI
100
AcDbCircle
 10
37.71448283701109
 20
5.829117991993598
 30
0.0
 40
0.396066257374069
100
AcDbArc
 50
90.69906002077289
 51
177.549625890487
  0
LINE
  5
135
330
2
100
AcDbEntity
  8
GAIKEI
100
AcDbLine
 10
37.26111977985075
 20
4.745850505123286
 30
0.0
 11
37.31878280860617
 21
5.846055626157209
 31
0.0
  0
ARC
  5
136
330
2
100
AcDbEntity
  8
GAIKEI
100
AcDbCircle
 10
43.74420575354391
 20
3.340653340388541
 30
0.0
 40
1.188945384238282
100
AcDbArc
 50
62.94724415665916
 51
84.6127625770819
  0
ARC
  5
137
330
2
100
AcDbEntity
  8
GAIKEI
100
AcDbCircle
 10
43.7961244119161
 20
7.613538699711057
 30
0.0
 40
3.089768614986323
100
AcDbArc
 50
258.3200110016844
 51
271.1072643177896
  0
ARC
  5
138
330
2
100
AcDbEntity
  8
GAIKEI
100
AcDbCircle
 10
36.76887866451007
 20
-23.2331826590077
 30
0.0
 40
28.54796705767762
100
AcDbArc
 50
77.0415191073403
 51
80.53729314661032
  0
ARC
  5
139
330
2
100
AcDbEntity
  8
GAIKEI
100
AcDbCircle
 10
39.6322798413914
 20
-9.847946089376307
 30
0.0
 40
14.98791727173363
100
AcDbArc
 50
67.69038278575732
 51
71.91495060504651
  0
LINE
  5
13A
330
2
100
AcDbEntity
  8
GAIKEI
 62
     1
100
AcDbLine
 10
45.33850186719378
 20
3.549911356704598
 30
0.0
 11
45.339374438647
 21
3.599915451440324
 31
0.0
  0
LINE
  5
13B
330
2
100
AcDbEntity
  8
GAIKEI
 62
     1
100
AcDbLine
 10
45.19203364546344
 20
3.549911356704598
 30
0.0
 11
45.19203364546344
 21
3.464908271003508
 31
0.0
  0
ARC
  5
13C
330
2
100
AcDbEntity
  8
GAIKEI
100
AcDbCircle
 10
45.29337156868497
 20
3.94867706270304
 30
0.0
 40
0.0750110774855606
100
AcDbArc
 50
2.998290564266253
 51
67.68849986971336
  0
LINE
  5
13D
330
2
100
AcDbEntity
  8
GAIKEI
100
AcDbLine
 10
45.38676329743437
 20
3.599915868144591
 30
0.0
 11
45.36827996318915
 21
3.952600604260737
 31
0.0
  0
LINE
  5
13E
330
2
100
AcDbEntity
  8
GAIKEI
 62
     1
100
AcDbLine
 10
40.52151101783183
 20
3.464908271003508
 30
0.0
 11
40.52151101783183
 21
3.549911356704598
 31
0.0
  0
LINE
  5
13F
330
2
100
AcDbEntity
  8
GAIKEI
 62
     1
100
AcDbLine
 10
45.19203364546344
 20
3.464908271003508
 30
0.0
 11
40.52151101783183
 21
3.464908271003508
 31
0.0
  0
LINE
  5
140
330
2
100
AcDbEntity
  8
GAIKEI
 62
     1
100
AcDbLine
 10
43.56922598468601
 20
3.549911356704598
 30
0.0
 11
43.56922598468601
 21
3.464908271003508
 31
0.0
  0
LINE
  5
141
330
2
100
AcDbEntity
  8
GAIKEI
100
AcDbLine
 10
31.53814908243807
 20
4.499995587123436
 30
0.0
 11
41.46232458255112
 21
4.926327076438155
 31
0.0
  0
ARC
  5
142
330
2
100
AcDbEntity
  8
GAIKEI
100
AcDbCircle
 10
33.26007056474204
 20
-10.41178619709171
 30
0.0
 40
15.01087104638736
100
AcDbArc
 50
96.58699258193673
 51
106.0381968622091
  0
ARC
  5
143
330
2
100
AcDbEntity
  8
GAIKEI
100
AcDbCircle
 10
29.13362852238357
 20
3.942736058796896
 30
0.0
 40
0.0750137523647868
100
AcDbArc
 50
106.0450984138907
 51
176.9985900851085
  0
LINE
  5
144
330
2
100
AcDbEntity
  8
GAIKEI
100
AcDbLine
 10
29.04054561422807
 20
3.599915868144591
 30
0.0
 11
29.05871753750826
 21
3.946663994458873
 31
0.0
  0
LINE
  5
145
330
2
100
AcDbEntity
  8
GAIKEI
 62
     1
100
AcDbLine
 10
29.0888016345847
 20
3.549911356704598
 30
0.0
 11
29.08792863915581
 21
3.599915034736085
 31
0.0
  0
LINE
  5
146
330
2
100
AcDbEntity
  8
GAIKEI
 62
     1
100
AcDbLine
 10
29.0888016345847
 20
3.549911356704598
 30
0.0
 11
45.33850186719378
 21
3.549911356704598
 31
0.0
  0
LINE
  5
147
330
2
100
AcDbEntity
  8
GAIKEI
100
AcDbLine
 10
29.04054561422807
 20
3.599915868144591
 30
0.0
 11
45.38676329743437
 21
3.599915868144591
 31
0.0
  0
LINE
  5
148
330
2
100
AcDbEntity
  8
GAIKEI
 62
     1
100
AcDbLine
 10
29.24059449610338
 20
3.464908271003508
 30
0.0
 11
29.24059449610338
 21
3.549911356704598
 31
0.0
  0
LINE
  5
149
330
2
100
AcDbEntity
  8
GAIKEI
 62
     1
100
AcDbLine
 10
32.28830946295769
 20
3.464908271003508
 30
0.0
 11
29.24059449610338
 21
3.464908271003508
 31
0.0
  0
LINE
  5
14A
330
2
100
AcDbEntity
  8
GAIKEI
 62
     1
100
AcDbLine
 10
32.28830946295769
 20
3.549911356704598
 30
0.0
 11
32.28830946295769
 21
3.464908271003508
 31
0.0
  0
LINE
  5
14B
330
2
100
AcDbEntity
  8
GAIKEI
  6
Continuous
 62
     7
100
AcDbLine
 10
38.32833398128652
 20
7.482490323239147
 30
0.0
 11
40.56457156944976
 21
7.482490323239147
 31
0.0
  0
LINE
  5
14C
330
2
100
AcDbEntity
  8
GAIKEI
  6
Continuous
 62
     7
100
AcDbLine
 10
40.57172888185387
 20
7.072453329431141
 30
0.0
 11
40.56457156944976
 21
7.482490323239147
 31
0.0
  0
LINE
  5
14D
330
2
100
AcDbEntity
  8
GAIKEI
  6
Continuous
 62
     7
100
AcDbLine
 10
38.31787512101455
 20
6.883309181388057
 30
0.0
 11
38.32135126796807
 21
7.08245423171914
 31
0.0
  0
ARC
  5
14E
330
2
100
AcDbEntity
  8
GAIKEI
  6
Continuous
 62
     7
100
AcDbCircle
 10
40.15997273832216
 20
7.732512880439145
 30
0.0
 40
0.2500225572
100
AcDbArc
 50
190.1327320881872
 51
270.0
  0
LINE
  5
14F
330
2
100
AcDbEntity
  8
GAIKEI
  6
Continuous
 62
     7
100
AcDbLine
 10
38.36787213177787
 20
6.832431674519142
 30
0.0
 11
38.57137382516818
 21
6.832431674519142
 31
0.0
  0
LINE
  5
150
330
2
100
AcDbEntity
  8
GAIKEI
  6
Continuous
 62
     7
100
AcDbLine
 10
38.32135126796807
 20
7.08245423171914
 30
0.0
 11
38.33106671103606
 21
7.63905378486018
 31
0.0
  0
ARC
  5
151
330
2
100
AcDbEntity
  8
GAIKEI
  6
Continuous
 62
     7
100
AcDbCircle
 10
38.36787213177787
 20
6.882436185959136
 30
0.0
 40
0.05000451144
100
AcDbArc
 50
179.0000000000015
 51
270.0
  0
LINE
  5
152
330
2
100
AcDbEntity
  8
GAIKEI
  6
Continuous
 62
     7
100
AcDbLine
 10
38.57137382516818
 20
7.050229241025931
 30
0.0
 11
38.57137382516818
 21
6.750202172385911
 31
0.0
  0
LINE
  5
153
330
2
100
AcDbEntity
  8
GAIKEI
  6
Continuous
 62
     7
100
AcDbLine
 10
43.07177985476814
 20
7.050229241025931
 30
0.0
 11
43.07177985476814
 21
6.750202172385911
 31
0.0
  0
LINE
  5
154
330
2
100
AcDbEntity
  8
GAIKEI
  6
Continuous
 62
     7
100
AcDbLine
 10
38.57137382516818
 20
7.050229241025931
 30
0.0
 11
43.07177985476814
 21
7.050229241025931
 31
0.0
  0
LINE
  5
155
330
2
100
AcDbEntity
  8
GAIKEI
  6
Continuous
 62
     1
100
AcDbLine
 10
38.57137382516818
 20
6.750202172385911
 30
0.0
 11
43.07177985476814
 21
6.750202172385911
 31
0.0
  0
LINE
  5
156
330
2
100
AcDbEntity
  8
GAIKEI
  6
Continuous
 62
     7
100
AcDbLine
 10
38.57137382516818
 20
6.750202172385911
 30
0.0
 11
38.57137382516818
 21
6.45017510374592
 31
0.0
  0
LINE
  5
157
330
2
100
AcDbEntity
  8
GAIKEI
  6
Continuous
 62
     7
100
AcDbLine
 10
43.07177985476814
 20
6.750202172385911
 30
0.0
 11
43.07177985476814
 21
6.45017510374592
 31
0.0
  0
TEXT
  5
158
330
2
100
AcDbEntity
  8
MOJI1
100
AcDbText
 10
-59.51572206531799
 20
-37.20506844790322
 30
0.0
 40
3.0
  1
階調数
100
AcDbText
  0
TEXT
  5
159
330
2
100
AcDbEntity
  8
MOJI1
100
AcDbText
 10
-59.51572206531799
 20
-32.20506844790322
 30
0.0
 40
3.0
  1
コントラスト
100
AcDbText
  0
LINE
  5
15A
330
2
100
AcDbEntity
  8
WAKU
 62
     1
100
AcDbLine
 10
-62.01572206531799
 20
-38.20506844790322
 30
0.0
 11
62.98427793468178
 21
-38.20506844790322
 31
0.0
  0
LINE
  5
15C
330
2
100
AcDbEntity
  8
WAKU
 62
     1
100
AcDbLine
 10
-62.01572206531799
 20
-33.20506844790322
 30
0.0
 11
62.98427793468178
 21
-33.20506844790322
 31
0.0
  0
TEXT
  5
15D
330
2
100
AcDbEntity
  8
MOJI1
100
AcDbText
 10
-59.51572206531799
 20
-12.20506844790321
 30
0.0
 40
3.0
  1
電  源
100
AcDbText
  0
TEXT
  5
15E
330
2
100
AcDbEntity
  8
MOJI1
100
AcDbText
 10
-59.51572206531799
 20
-17.20506844790321
 30
0.0
 40
3.0
  1
消費電力
100
AcDbText
  0
TEXT
  5
15F
330
2
100
AcDbEntity
  8
MOJI1
100
AcDbText
 10
-59.51572206531799
 20
-22.20506844790322
 30
0.0
 40
3.0
  1
画面サイズ
100
AcDbText
  0
TEXT
  5
160
330
2
100
AcDbEntity
  8
MOJI1
100
AcDbText
 10
-20.51572206531799
 20
-17.20506844790321
 30
0.0
 40
3.0
  1
２５０Ｗ
100
AcDbText
  0
TEXT
  5
161
330
2
100
AcDbEntity
  8
MOJI1
100
AcDbText
 10
-20.51572206531799
 20
-22.20506844790322
 30
0.0
 40
3.0
  1
４２型（１６：９）
100
AcDbText
  0
TEXT
  5
162
330
2
100
AcDbEntity
  8
MOJI1
100
AcDbText
 10
-20.51572206531799
 20
-12.20506844790321
 30
0.0
 40
3.0
  1
ＡＣ１００Ｖ±１０％　５０Ｈｚ／６０Ｈｚ
100
AcDbText
  0
TEXT
  5
163
330
2
100
AcDbEntity
  8
MOJI1
100
AcDbText
 10
-59.51572206531799
 20
-47.20506844790321
 30
0.0
 40
3.0
  1
接続端子
100
AcDbText
  0
TEXT
  5
164
330
2
100
AcDbEntity
  8
MOJI1
100
AcDbText
 10
-59.51572206531799
 20
-42.20506844790321
 30
0.0
 40
3.0
  1
音声最大出力
100
AcDbText
  0
TEXT
  5
165
330
2
100
AcDbEntity
  8
MOJI1
100
AcDbText
 10
-20.51572206531799
 20
-42.20506844790321
 30
0.0
 40
3.0
  1
１６Ｗ（８Ｗ＋８Ｗ）
100
AcDbText
  0
TEXT
  5
166
330
2
100
AcDbEntity
  8
MOJI1
100
AcDbText
 10
-20.51572206531799
 20
-47.20506844790321
 30
0.0
 40
3.0
  1
ビデオ／Ｓ映像／コンポーネントビデオ
100
AcDbText
  0
TEXT
  5
167
330
2
100
AcDbEntity
  8
MOJI1
100
AcDbText
 10
-20.51572206531799
 20
-27.20506844790322
 30
0.0
 40
3.0
  1
水平１０２４×垂直７６８　画素
100
AcDbText
  0
LINE
  5
168
330
2
100
AcDbEntity
  8
WAKU
 62
     4
100
AcDbLine
 10
-22.01572206531821
 20
-8.205068447903215
 30
0.0
 11
-22.01572206531821
 21
-53.20506844790322
 31
0.0
  0
TEXT
  5
169
330
2
100
AcDbEntity
  8
MOJI1
100
AcDbText
 10
-59.51572206531799
 20
-27.20506844790322
 30
0.0
 40
3.0
  1
画素数
100
AcDbText
  0
LINE
  5
16A
330
2
100
AcDbEntity
  8
WAKU
 62
     4
100
AcDbLine
 10
62.98427793468178
 20
-8.205068447903215
 30
0.0
 11
62.98427793468178
 21
-53.20506844790322
 31
0.0
  0
LINE
  5
16B
330
2
100
AcDbEntity
  8
WAKU
 62
     4
100
AcDbLine
 10
-62.01572206531821
 20
-8.205068447903215
 30
0.0
 11
-62.01572206531799
 21
-53.20506844790322
 31
0.0
  0
LINE
  5
16C
330
2
100
AcDbEntity
  8
WAKU
 62
     4
100
AcDbLine
 10
62.98427793468178
 20
-53.20506844790322
 30
0.0
 11
-62.01572206531799
 21
-53.20506844790322
 31
0.0
  0
LINE
  5
16D
330
2
100
AcDbEntity
  8
WAKU
 62
     1
100
AcDbLine
 10
-62.01572206531799
 20
-48.20506844790322
 30
0.0
 11
62.98427793468178
 21
-48.20506844790322
 31
0.0
  0
LINE
  5
16E
330
2
100
AcDbEntity
  8
WAKU
 62
     1
100
AcDbLine
 10
-62.01572206531799
 20
-43.20506844790322
 30
0.0
 11
62.98427793468178
 21
-43.20506844790322
 31
0.0
  0
LINE
  5
16F
330
2
100
AcDbEntity
  8
WAKU
 62
     1
100
AcDbLine
 10
-62.01572206531799
 20
-23.20506844790322
 30
0.0
 11
62.98427793468178
 21
-23.20506844790322
 31
0.0
  0
LINE
  5
170
330
2
100
AcDbEntity
  8
WAKU
 62
     1
100
AcDbLine
 10
-62.01572206531799
 20
-13.20506844790321
 30
0.0
 11
62.98427793468178
 21
-13.20506844790321
 31
0.0
  0
LINE
  5
171
330
2
100
AcDbEntity
  8
WAKU
 62
     4
100
AcDbLine
 10
-62.01572206531799
 20
-8.205068447903215
 30
0.0
 11
62.98427793468178
 21
-8.205068447903215
 31
0.0
  0
LINE
  5
172
330
2
100
AcDbEntity
  8
WAKU
 62
     1
100
AcDbLine
 10
-62.01572206531799
 20
-28.20506844790322
 30
0.0
 11
62.98427793468178
 21
-28.20506844790322
 31
0.0
  0
LINE
  5
173
330
2
100
AcDbEntity
  8
WAKU
 62
     1
100
AcDbLine
 10
-62.01572206531799
 20
-18.20506844790321
 30
0.0
 11
62.98427793468178
 21
-18.20506844790321
 31
0.0
  0
TEXT
  5
174
330
2
100
AcDbEntity
  8
MOJI1
100
AcDbText
 10
-20.51572206531799
 20
-37.20506844790322
 30
0.0
 40
3.0
  1
５１２０階調（相当）
100
AcDbText
  0
TEXT
  5
175
330
2
100
AcDbEntity
  8
MOJI1
100
AcDbText
 10
-20.51572206531799
 20
-32.20506844790322
 30
0.0
 40
3.0
  1
３００００：１
100
AcDbText
  0
TEXT
  5
176
330
2
100
AcDbEntity
  8
MOJI1
100
AcDbText
 10
-20.51572206531799
 20
-52.20506844790321
 30
0.0
 40
3.0
  1
外部スピーカ／シリアル／ＰＣ
100
AcDbText
  0
ARC
  5
177
330
2
100
AcDbEntity
  8
GAIKEI
  6
Continuous
100
AcDbCircle
 10
-43.26344096433587
 20
36.73259027117291
 30
0.0
 40
0.2
100
AcDbArc
 50
179.9215320000083
 51
180.0
  0
ARC
  5
178
330
2
100
AcDbEntity
  8
GAIKEI
  6
Continuous
100
AcDbCircle
 10
-43.26344096433587
 20
6.637590271172882
 30
0.0
 40
0.2
100
AcDbArc
 50
180.0
 51
180.0784679999916
  0
ARC
  5
179
330
2
100
AcDbEntity
  8
GAIKEI
  6
Continuous
100
AcDbCircle
 10
7.331559035664156
 20
6.637590271172882
 30
0.0
 40
0.2
100
AcDbArc
 50
359.9215320000084
 51
0.0
  0
ARC
  5
17A
330
2
100
AcDbEntity
  8
GAIKEI
  6
Continuous
100
AcDbCircle
 10
-43.26344096433587
 20
36.73259027117291
 30
0.0
 40
0.2
100
AcDbArc
 50
90.0
 51
90.0784679999916
  0
ARC
  5
17B
330
2
100
AcDbEntity
  8
GAIKEI
  6
Continuous
100
AcDbCircle
 10
-43.26344096433587
 20
6.637590271172882
 30
0.0
 40
0.2
100
AcDbArc
 50
269.9215320000084
 51
270.0
  0
ARC
  5
17C
330
2
100
AcDbEntity
  8
GAIKEI
  6
Continuous
100
AcDbCircle
 10
-43.26344096433587
 20
36.73259027117291
 30
0.0
 40
0.2
100
AcDbArc
 50
90.0784679999916
 51
179.9215320000083
  0
ARC
  5
17D
330
2
100
AcDbEntity
  8
GAIKEI
  6
Continuous
100
AcDbCircle
 10
7.331559035664156
 20
36.73259027117291
 30
0.0
 40
0.2
100
AcDbArc
 50
0.0784679999916189
 51
89.92153200000839
  0
ARC
  5
17E
330
2
100
AcDbEntity
  8
GAIKEI
  6
Continuous
100
AcDbCircle
 10
-43.26344096433587
 20
6.637590271172882
 30
0.0
 40
0.2
100
AcDbArc
 50
180.0784679999916
 51
269.9215320000084
  0
ARC
  5
17F
330
2
100
AcDbEntity
  8
GAIKEI
  6
Continuous
100
AcDbCircle
 10
7.331559035664156
 20
6.637590271172882
 30
0.0
 40
0.2
100
AcDbArc
 50
270.0784679999916
 51
359.9215320000084
  0
ARC
  5
180
330
2
100
AcDbEntity
  8
GAIKEI
  6
Continuous
 62
     1
100
AcDbCircle
 10
5.934059035664176
 20
8.035090271172919
 30
0.0
 40
0.2
100
AcDbArc
 50
270.0
 51
0.0
  0
ARC
  5
181
330
2
100
AcDbEntity
  8
GAIKEI
  6
Continuous
 62
     1
100
AcDbCircle
 10
-40.85094096433585
 20
7.260090271172884
 30
0.0
 40
0.025
100
AcDbArc
 50
90.0
 51
180.0
  0
ARC
  5
182
330
2
100
AcDbEntity
  8
GAIKEI
  6
Continuous
 62
     1
100
AcDbCircle
 10
-40.55094096433584
 20
7.260090271172884
 30
0.0
 40
0.025
100
AcDbArc
 50
0.0
 51
90.0
  0
ARC
  5
183
330
2
100
AcDbEntity
  8
GAIKEI
  6
Continuous
 62
     1
100
AcDbCircle
 10
-40.55094096433584
 20
6.960090271172873
 30
0.0
 40
0.025
100
AcDbArc
 50
270.0
 51
0.0
  0
ARC
  5
184
330
2
100
AcDbEntity
  8
GAIKEI
  6
Continuous
 62
     1
100
AcDbCircle
 10
-40.85094096433585
 20
6.960090271172873
 30
0.0
 40
0.025
100
AcDbArc
 50
180.0
 51
270.0
  0
ARC
  5
185
330
2
100
AcDbEntity
  8
GAIKEI
  6
Continuous
 62
     1
100
AcDbCircle
 10
-41.86594096433589
 20
35.33509027117287
 30
0.0
 40
0.2
100
AcDbArc
 50
90.0
 51
180.0
  0
ARC
  5
186
330
2
100
AcDbEntity
  8
GAIKEI
  6
Continuous
 62
     1
100
AcDbCircle
 10
-41.86594096433589
 20
8.035090271172919
 30
0.0
 40
0.2
100
AcDbArc
 50
180.0
 51
270.0
  0
ARC
  5
187
330
2
100
AcDbEntity
  8
GAIKEI
  6
Continuous
 62
     1
100
AcDbCircle
 10
5.934059035664176
 20
35.33509027117287
 30
0.0
 40
0.2
100
AcDbArc
 50
0.0
 51
90.0
  0
LINE
  5
188
330
2
100
AcDbEntity
  8
GAIKEI
  6
Continuous
100
AcDbLine
 10
-43.46344096433585
 20
36.73259027117291
 30
0.0
 11
-43.46344096433585
 21
6.637590271172882
 31
0.0
  0
LINE
  5
189
330
2
100
AcDbEntity
  8
GAIKEI
  6
Continuous
100
AcDbLine
 10
7.531559035664145
 20
36.73259027117291
 30
0.0
 11
7.531559035664145
 21
6.637590271172882
 31
0.0
  0
LINE
  5
18A
330
2
100
AcDbEntity
  8
GAIKEI
  6
Continuous
100
AcDbLine
 10
-43.26344096433587
 20
36.9325902711729
 30
0.0
 11
7.331559035664156
 21
36.9325902711729
 31
0.0
  0
LINE
  5
18B
330
2
100
AcDbEntity
  8
GAIKEI
  6
Continuous
100
AcDbLine
 10
-43.26344096433587
 20
6.437590271172894
 30
0.0
 11
7.331559035664156
 21
6.437590271172894
 31
0.0
  0
LINE
  5
18C
330
2
100
AcDbEntity
  8
GAIKEI
  6
Continuous
 62
     1
100
AcDbLine
 10
-41.02844096433585
 20
34.55409027117293
 30
0.0
 11
-41.02844096433585
 21
8.816090271172868
 31
0.0
  0
LINE
  5
18D
330
2
100
AcDbEntity
  8
GAIKEI
  6
Continuous
 62
     1
100
AcDbLine
 10
5.096559035664142
 20
34.55409027117293
 30
0.0
 11
5.096559035664199
 21
8.816090271172868
 31
0.0
  0
LINE
  5
18E
330
2
100
AcDbEntity
  8
GAIKEI
  6
Continuous
 62
     1
100
AcDbLine
 10
-40.92994096433585
 20
34.65259027117287
 30
0.0
 11
4.998059035664141
 21
34.65259027117293
 31
0.0
  0
LINE
  5
18F
330
2
100
AcDbEntity
  8
GAIKEI
  6
Continuous
 62
     1
100
AcDbLine
 10
-40.92994096433585
 20
8.717590271172923
 30
0.0
 11
4.998059035664141
 21
8.717590271172923
 31
0.0
  0
LINE
  5
190
330
2
100
AcDbEntity
  8
GAIKEI
  6
Continuous
 62
     1
100
AcDbLine
 10
-41.86613166433585
 20
35.4350902711729
 30
0.0
 11
5.935559035664141
 21
35.4350902711729
 31
0.0
  0
LINE
  5
191
330
2
100
AcDbEntity
  8
GAIKEI
  6
Continuous
 62
     1
100
AcDbLine
 10
5.935559035664141
 20
7.936334121172933
 30
0.0
 11
-41.86613166433585
 21
7.936334121172933
 31
0.0
  0
LINE
  5
192
330
2
100
AcDbEntity
  8
GAIKEI
  6
Continuous
 62
     1
100
AcDbLine
 10
-41.9646316643359
 20
35.3365902711729
 30
0.0
 11
-41.96463166433585
 21
8.034834121172877
 31
0.0
  0
LINE
  5
193
330
2
100
AcDbEntity
  8
GAIKEI
  6
Continuous
 62
     1
100
AcDbLine
 10
6.034059035664085
 20
8.034834121172877
 30
0.0
 11
6.034059035664142
 21
35.33659027117284
 31
0.0
  0
LINE
  5
194
330
2
100
AcDbEntity
  8
GAIKEI
  6
Continuous
 62
     1
100
AcDbLine
 10
-41.95659216433585
 20
7.996045771172873
 30
0.0
 11
-41.02812964798817
 21
8.808936210805882
 31
0.0
  0
LINE
  5
195
330
2
100
AcDbEntity
  8
GAIKEI
  6
Continuous
 62
     1
100
AcDbLine
 10
-40.92010264817275
 20
8.717590271172923
 30
0.0
 11
-41.81243331433586
 21
7.936334121172933
 31
0.0
  0
LINE
  5
196
330
2
100
AcDbEntity
  8
GAIKEI
  6
Continuous
 62
     1
100
AcDbLine
 10
6.024710235664144
 20
7.996045771172873
 30
0.0
 11
5.096295816596693
 21
8.808894100522991
 31
0.0
  0
LINE
  5
197
330
2
100
AcDbEntity
  8
GAIKEI
  6
Continuous
 62
     1
100
AcDbLine
 10
4.988220719501043
 20
8.717590271172923
 30
0.0
 11
5.880551385664148
 21
7.936334121172933
 31
0.0
  0
LINE
  5
198
330
2
100
AcDbEntity
  8
GAIKEI
  6
Continuous
 62
     1
100
AcDbLine
 10
-41.02817774526835
 20
34.5612864418228
 30
0.0
 11
-41.95659216433585
 21
35.37413477117292
 31
0.0
  0
LINE
  5
199
330
2
100
AcDbEntity
  8
GAIKEI
  6
Continuous
 62
     1
100
AcDbLine
 10
-41.81243331433586
 20
35.43384642117286
 30
0.0
 11
-40.92010264817275
 21
34.65259027117287
 31
0.0
  0
LINE
  5
19A
330
2
100
AcDbEntity
  8
GAIKEI
  6
Continuous
 62
     1
100
AcDbLine
 10
5.880551385664148
 20
35.43384642117286
 30
0.0
 11
4.988220719501043
 21
34.65259027117287
 31
0.0
  0
LINE
  5
19B
330
2
100
AcDbEntity
  8
GAIKEI
  6
Continuous
 62
     1
100
AcDbLine
 10
5.096295816596636
 20
34.5612864418228
 30
0.0
 11
6.024710235664144
 21
35.37413477117292
 31
0.0
  0
LINE
  5
19C
330
2
100
AcDbEntity
  8
GAIKEI
  6
Continuous
 62
     1
100
AcDbLine
 10
-43.32704831433585
 20
6.761982921172887
 30
0.0
 11
-43.3270483143359
 21
36.60819762117291
 31
0.0
  0
LINE
  5
19D
330
2
100
AcDbEntity
  8
GAIKEI
  6
Continuous
 62
     1
100
AcDbLine
 10
7.395166385664083
 20
6.761982921172887
 30
0.0
 11
7.39516638566414
 21
36.60819762117291
 31
0.0
  0
LINE
  5
19E
330
2
100
AcDbEntity
  8
GAIKEI
  6
Continuous
 62
     1
100
AcDbLine
 10
-43.13904831433592
 20
36.79619762117289
 30
0.0
 11
7.207166385664152
 21
36.79619762117289
 31
0.0
  0
LINE
  5
19F
330
2
100
AcDbEntity
  8
GAIKEI
  6
Continuous
 62
     1
100
AcDbLine
 10
7.207166385664095
 20
6.573982921172898
 30
0.0
 11
-43.13904831433586
 21
6.573982921172898
 31
0.0
  0
LINE
  5
1A0
330
2
100
AcDbEntity
  8
GAIKEI
  6
Continuous
 62
     1
100
AcDbLine
 10
-41.86594096433589
 20
7.835090271172873
 30
0.0
 11
5.934059035664176
 21
7.835090271172873
 31
0.0
  0
LINE
  5
1A1
330
2
100
AcDbEntity
  8
GAIKEI
  6
Continuous
 62
     1
100
AcDbLine
 10
-42.06594096433582
 20
35.33509027117287
 30
0.0
 11
-42.06594096433582
 21
8.035090271172919
 31
0.0
  0
LINE
  5
1A2
330
2
100
AcDbEntity
  8
GAIKEI
  6
Continuous
 62
     1
100
AcDbLine
 10
5.934059035664176
 20
35.53509027117292
 30
0.0
 11
-41.86594096433589
 21
35.53509027117292
 31
0.0
  0
LINE
  5
1A3
330
2
100
AcDbEntity
  8
GAIKEI
  6
Continuous
 62
     1
100
AcDbLine
 10
-40.55094096433584
 20
6.935090271172896
 30
0.0
 11
-40.85094096433585
 21
6.935090271172896
 31
0.0
  0
LINE
  5
1A4
330
2
100
AcDbEntity
  8
GAIKEI
  6
Continuous
 62
     1
100
AcDbLine
 10
-42.35969096433587
 20
7.053840271172873
 30
0.0
 11
-42.47219096433582
 21
7.053840271172873
 31
0.0
  0
LINE
  5
1A5
330
2
100
AcDbEntity
  8
GAIKEI
  6
Continuous
 62
     1
100
AcDbLine
 10
-42.47219096433582
 20
7.166340271172884
 30
0.0
 11
-42.35969096433587
 21
7.166340271172884
 31
0.0
  0
LINE
  5
1A6
330
2
100
AcDbEntity
  8
GAIKEI
  6
Continuous
 62
     1
100
AcDbLine
 10
-42.35969096433587
 20
7.166340271172884
 30
0.0
 11
-42.35969096433587
 21
7.053840271172873
 31
0.0
  0
LINE
  5
1A7
330
2
100
AcDbEntity
  8
GAIKEI
  6
Continuous
 62
     1
100
AcDbLine
 10
-40.87594096433588
 20
6.960090271172873
 30
0.0
 11
-40.87594096433588
 21
7.260090271172884
 31
0.0
  0
LINE
  5
1A8
330
2
100
AcDbEntity
  8
GAIKEI
  6
Continuous
 62
     1
100
AcDbLine
 10
-42.47219096433582
 20
7.053840271172873
 30
0.0
 11
-42.47219096433582
 21
7.166340271172884
 31
0.0
  0
LINE
  5
1A9
330
2
100
AcDbEntity
  8
GAIKEI
  6
Continuous
 62
     1
100
AcDbLine
 10
-40.52594096433586
 20
7.260090271172884
 30
0.0
 11
-40.52594096433586
 21
6.960090271172873
 31
0.0
  0
LINE
  5
1AA
330
2
100
AcDbEntity
  8
GAIKEI
  6
Continuous
 62
     1
100
AcDbLine
 10
-40.85094096433585
 20
7.285090271172919
 30
0.0
 11
-40.55094096433584
 21
7.285090271172919
 31
0.0
  0
LINE
  5
1AB
330
2
100
AcDbEntity
  8
GAIKEI
  6
Continuous
 62
     1
100
AcDbLine
 10
6.134059035664108
 20
35.33509027117287
 30
0.0
 11
6.134059035664108
 21
8.035090271172919
 31
0.0
  0
LINE
  5
1AC
330
2
100
AcDbEntity
  8
GAIKEI
  6
Continuous
 62
     1
100
AcDbLine
 10
7.134681135664152
 20
6.989468171172859
 30
0.0
 11
7.134681135664209
 21
36.38071237117293
 31
0.0
  0
LINE
  5
1AD
330
2
100
AcDbEntity
  8
GAIKEI
  6
Continuous
 62
     1
100
AcDbLine
 10
-43.06656306433587
 20
6.989468171172859
 30
0.0
 11
-43.0665630643358
 21
36.38071237117293
 31
0.0
  0
LINE
  5
1AE
330
2
100
AcDbEntity
  8
GAIKEI
  6
Continuous
 62
     1
100
AcDbLine
 10
-42.91156306433584
 20
36.53571237117291
 30
0.0
 11
6.979681135664179
 21
36.53571237117291
 31
0.0
  0
LINE
  5
1AF
330
2
100
AcDbEntity
  8
GAIKEI
  6
Continuous
 62
     1
100
AcDbLine
 10
6.979681135664122
 20
6.834468171172886
 30
0.0
 11
-42.91156306433584
 21
6.834468171172886
 31
0.0
  0
ARC
  5
1B0
330
2
100
AcDbEntity
  8
GAIKEI
  6
Continuous
 62
     1
100
AcDbCircle
 10
-42.91156306433584
 20
36.38071237117293
 30
0.0
 40
0.155
100
AcDbArc
 50
90.0
 51
180.0
  0
ARC
  5
1B1
330
2
100
AcDbEntity
  8
GAIKEI
  6
Continuous
 62
     1
100
AcDbCircle
 10
6.979681135664179
 20
36.38071237117293
 30
0.0
 40
0.155
100
AcDbArc
 50
0.0
 51
89.99999999999998
  0
ARC
  5
1B2
330
2
100
AcDbEntity
  8
GAIKEI
  6
Continuous
 62
     1
100
AcDbCircle
 10
6.979681135664122
 20
6.989468171172859
 30
0.0
 40
0.155
100
AcDbArc
 50
270.0
 51
360.0
  0
ARC
  5
1B3
330
2
100
AcDbEntity
  8
GAIKEI
  6
Continuous
 62
     1
100
AcDbCircle
 10
-42.91156306433584
 20
6.989468171172859
 30
0.0
 40
0.155
100
AcDbArc
 50
179.9999999999999
 51
270.0
  0
ARC
  5
1B4
330
2
100
AcDbEntity
  8
GAIKEI
  6
Continuous
 62
     1
100
AcDbCircle
 10
-41.86613166433585
 20
8.034834121172877
 30
0.0
 40
0.0985
100
AcDbArc
 50
180.0
 51
270.0
  0
ARC
  5
1B5
330
2
100
AcDbEntity
  8
GAIKEI
  6
Continuous
 62
     1
100
AcDbCircle
 10
-41.86613166433585
 20
35.3365902711729
 30
0.0
 40
0.0985
100
AcDbArc
 50
90.0
 51
180.0
  0
ARC
  5
1B6
330
2
100
AcDbEntity
  8
GAIKEI
  6
Continuous
 62
     1
100
AcDbCircle
 10
5.935559035664141
 20
35.33659027117284
 30
0.0
 40
0.0985
100
AcDbArc
 50
0.0
 51
90.0
  0
ARC
  5
1B7
330
2
100
AcDbEntity
  8
GAIKEI
  6
Continuous
 62
     1
100
AcDbCircle
 10
5.935559035664141
 20
8.034834121172877
 30
0.0
 40
0.0985
100
AcDbArc
 50
270.0
 51
0.0
  0
ARC
  5
1B8
330
2
100
AcDbEntity
  8
GAIKEI
  6
Continuous
 62
     1
100
AcDbCircle
 10
-40.92994096433585
 20
8.816090271172868
 30
0.0
 40
0.0985
100
AcDbArc
 50
180.0
 51
270.0
  0
ARC
  5
1B9
330
2
100
AcDbEntity
  8
GAIKEI
  6
Continuous
 62
     1
100
AcDbCircle
 10
-40.92994096433585
 20
34.55409027117293
 30
0.0
 40
0.0985
100
AcDbArc
 50
90.0
 51
180.0
  0
ARC
  5
1BA
330
2
100
AcDbEntity
  8
GAIKEI
  6
Continuous
 62
     1
100
AcDbCircle
 10
4.998059035664141
 20
34.55409027117293
 30
0.0
 40
0.0985
100
AcDbArc
 50
0.0
 51
90.0
  0
ARC
  5
1BB
330
2
100
AcDbEntity
  8
GAIKEI
  6
Continuous
 62
     1
100
AcDbCircle
 10
4.998059035664141
 20
8.816090271172868
 30
0.0
 40
0.0985
100
AcDbArc
 50
270.0
 51
0.0
  0
ARC
  5
1BC
330
2
100
AcDbEntity
  8
GAIKEI
  6
Continuous
 62
     1
100
AcDbCircle
 10
-43.13904831433586
 20
6.761982921172887
 30
0.0
 40
0.188
100
AcDbArc
 50
180.0
 51
270.0
  0
ARC
  5
1BD
330
2
100
AcDbEntity
  8
GAIKEI
  6
Continuous
 62
     1
100
AcDbCircle
 10
-43.13904831433592
 20
36.60819762117291
 30
0.0
 40
0.188
100
AcDbArc
 50
90.0
 51
180.0
  0
ARC
  5
1BE
330
2
100
AcDbEntity
  8
GAIKEI
  6
Continuous
 62
     1
100
AcDbCircle
 10
7.207166385664152
 20
36.60819762117291
 30
0.0
 40
0.188
100
AcDbArc
 50
0.0
 51
90.0
  0
ARC
  5
1BF
330
2
100
AcDbEntity
  8
GAIKEI
  6
Continuous
 62
     1
100
AcDbCircle
 10
7.207166385664095
 20
6.761982921172887
 30
0.0
 40
0.188
100
AcDbArc
 50
270.0
 51
0.0
  0
DIMENSION
  5
1C0
330
2
100
AcDbEntity
  8
SUNPO
100
AcDbDimension
  2
*D10
 10
7.53155903566416
 20
44.93855691427905
 30
0.0
 11
-17.96594096433585
 21
46.68855691427904
 31
0.0
 70
    33
  1
1020
 71
     5
 42
50.99500000000002
  3
STANDARD
100
AcDbAlignedDimension
 13
-43.46344096433585
 23
36.93855691427905
 33
0.0
 14
7.531559035664159
 24
36.93855691427905
 34
0.0
1001
ACAD
1000
DSTYLE
1002
{
1070
    40
1040
1.0
1070
   140
1040
2.5
1070
   147
1040
0.5
1070
   172
1070
     1
1070
   279
1070
     0
1070
   288
1070
     0
1002
}
  0
DIMENSION
  5
1CD
330
2
100
AcDbEntity
  8
SUNPO
100
AcDbDimension
  2
*D9
 10
15.53155903566416
 20
36.9350902711729
 30
0.0
 11
13.78155903566415
 21
21.68509027117293
 31
0.0
 70
    33
  1
610
 71
     5
 42
30.49999999999994
  3
STANDARD
100
AcDbAlignedDimension
 13
7.531559035664159
 23
6.435090271172953
 33
0.0
 14
7.531559035664159
 24
36.9350902711729
 34
0.0
1001
ACAD
1000
DSTYLE
1002
{
1070
    40
1040
1.0
1070
   140
1040
2.5
1070
   147
1040
0.5
1070
   172
1070
     1
1070
   279
1070
     0
1070
   288
1070
     0
1002
}
  0
DIMENSION
  5
1DA
330
2
100
AcDbEntity
  8
SUNPO
100
AcDbDimension
  2
*D8
 10
22.53809238882809
 20
3.468012301051124
 30
0.0
 11
20.78809238882809
 21
20.20155128611204
 31
0.0
 70
    32
  1
669
 71
     5
 42
33.46707797012182
  3
STANDARD
100
AcDbAlignedDimension
 13
15.53809238882809
 23
36.93509027117296
 33
0.0
 14
-3.010602620718032
 24
3.468012301051132
 34
0.0
 50
90.0
100
AcDbRotatedDimension
1001
ACAD
1000
DSTYLE
1002
{
1070
   287
1070
     3
1070
    40
1040
1.0
1070
   140
1040
2.5
1070
   147
1040
0.5
1070
   172
1070
     1
1070
   279
1070
     0
1070
   288
1070
     0
1002
}
  0
DIMENSION
  5
1E7
330
2
100
AcDbEntity
  8
SUNPO
100
AcDbDimension
  2
*D7
 10
-3.508484934720855
 20
-3.551230738563404
 30
0.0
 11
-17.96591887727913
 21
-1.801230738563404
 31
0.0
 70
    33
  1
578
 71
     5
 42
28.91486788511656
  3
STANDARD
100
AcDbAlignedDimension
 13
-32.42335281983742
 23
3.448769261436595
 33
0.0
 14
-3.508484934720854
 24
3.448769261436595
 34
0.0
1001
ACAD
1000
DSTYLE
1002
{
1070
   287
1070
     3
1070
    40
1040
1.0
1070
   140
1040
2.5
1070
   147
1040
0.5
1070
   172
1070
     1
1070
   279
1070
     0
1070
   288
1070
     0
1002
}
  0
LINE
  5
1F4
330
2
100
AcDbEntity
  8
GAIKEI
 62
     1
100
AcDbLine
 10
-23.21639257847926
 20
3.468012301051118
 30
0.0
 11
-23.21639257847926
 21
3.55301538675225
 31
0.0
  0
LINE
  5
1F5
330
2
100
AcDbEntity
  8
GAIKEI
 62
     1
100
AcDbLine
 10
-12.71544517607913
 20
3.468012301051118
 30
0.0
 11
-23.21639257847926
 21
3.468012301051118
 31
0.0
  0
LINE
  5
1F6
330
2
100
AcDbEntity
  8
GAIKEI
 62
     1
100
AcDbLine
 10
-12.71544517607913
 20
3.55301538675225
 30
0.0
 11
-12.71544517607913
 21
3.468012301051118
 31
0.0
  0
LINE
  5
1F7
330
2
100
AcDbEntity
  8
GAIKEI
 62
     1
100
AcDbLine
 10
-29.19692297920943
 20
3.468012301051118
 30
0.0
 11
-29.19692297920943
 21
3.55301538675225
 31
0.0
  0
LINE
  5
1F8
330
2
100
AcDbEntity
  8
GAIKEI
 62
     1
100
AcDbLine
 10
-32.19719366560946
 20
3.468012301051118
 30
0.0
 11
-29.19692297920943
 21
3.468012301051118
 31
0.0
  0
LINE
  5
1F9
330
2
100
AcDbEntity
  8
GAIKEI
 62
     1
100
AcDbLine
 10
-32.19719366560946
 20
3.55301538675225
 30
0.0
 11
-32.19719366560946
 21
3.468012301051118
 31
0.0
  0
LINE
  5
1FA
330
2
100
AcDbEntity
  8
GAIKEI
 62
     1
100
AcDbLine
 10
-32.37595229333067
 20
3.603021148305018
 30
0.0
 11
-32.37508471505714
 21
3.55301538675225
 31
0.0
  0
ARC
  5
1FB
330
2
100
AcDbEntity
  8
GAIKEI
 62
     1
100
AcDbCircle
 10
-17.87155346640588
 20
170.9613048437686
 30
0.0
 40
166.4582296467708
100
AcDbArc
 50
267.3747126914443
 51
269.9675234284979
  0
ARC
  5
1FC
330
2
100
AcDbEntity
  8
GAIKEI
 62
     1
100
AcDbCircle
 10
-18.53786201617572
 20
141.2535971724578
 30
0.0
 40
136.6595514024471
100
AcDbArc
 50
267.1107390529362
 51
270.239813650103
  0
LINE
  5
1FD
330
2
100
AcDbEntity
  8
GAIKEI
100
AcDbLine
 10
-32.40504950183333
 20
3.952094308582417
 30
0.0
 11
-32.42334365234376
 21
3.603020314896497
 31
0.0
  0
ARC
  5
1FE
330
2
100
AcDbEntity
  8
GAIKEI
100
AcDbCircle
 10
-32.32852747766617
 20
3.946992717689283
 30
0.0
 40
0.0766870727508342
100
AcDbArc
 50
109.2657221729158
 51
176.1721325317294
  0
ARC
  5
1FF
330
2
100
AcDbEntity
  8
GAIKEI
100
AcDbCircle
 10
-25.35374154869521
 20
-16.73451697491144
 30
0.0
 40
21.90264888230355
100
AcDbArc
 50
99.22912430093608
 51
108.6387761504037
  0
LINE
  5
200
330
2
100
AcDbEntity
  8
GAIKEI
 62
     1
100
AcDbLine
 10
-28.95931550886479
 20
4.86932213945019
 30
0.0
 11
-25.49598560202776
 21
4.677781150811057
 31
0.0
  0
LINE
  5
201
330
2
100
AcDbEntity
  8
GAIKEI
 62
     1
100
AcDbLine
 10
-25.3818346708282
 20
4.764890214728623
 30
0.0
 11
-27.10861835786432
 21
4.755737798149596
 31
0.0
  0
LINE
  5
202
330
2
100
AcDbEntity
  8
GAIKEI
  6
Continuous
100
AcDbLine
 10
-28.29358647959464
 20
4.90782553528399
 30
0.0
 11
-28.86655283877871
 21
4.884599216592206
 31
0.0
  0
LINE
  5
203
330
2
100
AcDbEntity
  8
GAIKEI
  6
Continuous
100
AcDbLine
 10
-25.45275607425196
 20
4.929438161893756
 30
0.0
 11
-28.29358647959464
 21
4.90782553528399
 31
0.0
  0
ARC
  5
204
330
2
100
AcDbEntity
  8
GAIKEI
100
AcDbCircle
 10
-25.19872053569077
 20
4.941371587732078
 30
0.0
 40
0.2543156729427776
100
AcDbArc
 50
182.6895160969696
 51
223.9432955109774
  0
LINE
  5
205
330
2
100
AcDbEntity
  8
GAIKEI
100
AcDbLine
 10
-25.45339231873766
 20
4.929432901381474
 30
0.0
 11
-25.37601367091838
 21
6.405887774780552
 31
0.0
  0
LINE
  5
206
330
2
100
AcDbEntity
  8
GAIKEI
 62
     1
100
AcDbLine
 10
-6.734905607855125
 20
3.468012301051118
 30
0.0
 11
-6.734905607855125
 21
3.55301538675225
 31
0.0
  0
LINE
  5
207
330
2
100
AcDbEntity
  8
GAIKEI
 62
     1
100
AcDbLine
 10
-3.734634921455153
 20
3.468012301051118
 30
0.0
 11
-6.734905607855125
 21
3.468012301051118
 31
0.0
  0
LINE
  5
208
330
2
100
AcDbEntity
  8
GAIKEI
 62
     1
100
AcDbLine
 10
-3.734634921455153
 20
3.55301538675225
 30
0.0
 11
-3.734634921455153
 21
3.468012301051118
 31
0.0
  0
LINE
  5
209
330
2
100
AcDbEntity
  8
GAIKEI
 62
     1
100
AcDbLine
 10
-3.556743872007359
 20
3.55301538675225
 30
0.0
 11
-32.37508471505714
 21
3.55301538675225
 31
0.0
  0
LINE
  5
20A
330
2
100
AcDbEntity
  8
GAIKEI
 62
     1
100
AcDbLine
 10
-3.555876293733831
 20
3.603021148305018
 30
0.0
 11
-3.556743872007359
 21
3.55301538675225
 31
0.0
  0
LINE
  5
20B
330
2
100
AcDbEntity
  8
GAIKEI
100
AcDbLine
 10
-3.508484934720854
 20
3.603020314896497
 30
0.0
 11
-32.42334365234376
 21
3.603020314896497
 31
0.0
  0
LINE
  5
20C
330
2
100
AcDbEntity
  8
GAIKEI
 62
     1
100
AcDbLine
 10
-3.584807980764367
 20
4.02167041043782
 30
0.0
 11
-32.34707503750747
 21
4.02167041043782
 31
0.0
  0
ARC
  5
20D
330
2
100
AcDbEntity
  8
GAIKEI
 62
     1
100
AcDbCircle
 10
-18.06027512065873
 20
170.9613048437686
 30
0.0
 40
166.4582296467708
100
AcDbArc
 50
270.0324765715022
 51
272.6252873085557
  0
ARC
  5
20E
330
2
100
AcDbEntity
  8
GAIKEI
 62
     1
100
AcDbCircle
 10
-17.39396657088889
 20
141.2535971724578
 30
0.0
 40
136.6595514024471
100
AcDbArc
 50
269.760186349897
 51
272.8892609470638
  0
LINE
  5
20F
330
2
100
AcDbEntity
  8
GAIKEI
100
AcDbLine
 10
-3.526779085231282
 20
3.952094308582417
 30
0.0
 11
-3.508484934720854
 21
3.603020314896497
 31
0.0
  0
ARC
  5
210
330
2
100
AcDbEntity
  8
GAIKEI
100
AcDbCircle
 10
-3.603301109398387
 20
3.946992717689283
 30
0.0
 40
0.0766870727508342
100
AcDbArc
 50
3.82786746827056
 51
70.73427782708421
  0
ARC
  5
211
330
2
100
AcDbEntity
  8
GAIKEI
100
AcDbCircle
 10
-10.5780870383694
 20
-16.73451697491144
 30
0.0
 40
21.90264888230355
100
AcDbArc
 50
71.36122384959631
 51
80.77087569906392
  0
LINE
  5
212
330
2
100
AcDbEntity
  8
GAIKEI
 62
     1
100
AcDbLine
 10
-6.972513078199767
 20
4.86932213945019
 30
0.0
 11
-10.4358429850368
 21
4.677781150811057
 31
0.0
  0
LINE
  5
213
330
2
100
AcDbEntity
  8
GAIKEI
 62
     1
100
AcDbLine
 10
-10.54999391623636
 20
4.764890214728623
 30
0.0
 11
-8.823210229200299
 21
4.755737798149596
 31
0.0
  0
LINE
  5
214
330
2
100
AcDbEntity
  8
GAIKEI
  6
Continuous
100
AcDbLine
 10
-7.63824210746992
 20
4.90782553528399
 30
0.0
 11
-7.065275748285785
 21
4.884599216592206
 31
0.0
  0
LINE
  5
215
330
2
100
AcDbEntity
  8
GAIKEI
  6
Continuous
100
AcDbLine
 10
-10.47907251281259
 20
4.929438161893756
 30
0.0
 11
-7.63824210746992
 21
4.90782553528399
 31
0.0
  0
LINE
  5
216
330
2
100
AcDbEntity
  8
GAIKEI
 62
     1
100
AcDbLine
 10
-17.96589681326702
 20
5.849157675239325
 30
0.0
 11
-10.5868093791538
 21
6.228256748792233
 31
0.0
  0
LINE
  5
217
330
2
100
AcDbEntity
  8
GAIKEI
 62
     1
100
AcDbLine
 10
-25.34502859733868
 20
6.228256819220376
 30
0.0
 11
-17.96589681326702
 21
5.849157675239325
 31
0.0
  0
LINE
  5
218
330
2
100
AcDbEntity
  8
GAIKEI
 62
     1
100
AcDbLine
 10
-25.34502859733868
 20
6.228256819220376
 30
0.0
 11
-10.5868093791538
 21
6.228256748792233
 31
0.0
  0
ARC
  5
219
330
2
100
AcDbEntity
  8
GAIKEI
100
AcDbCircle
 10
-10.73310805137384
 20
4.941371587732078
 30
0.0
 40
0.2543156729427776
100
AcDbArc
 50
316.0567044890226
 51
357.3104839030303
  0
LINE
  5
21A
330
2
100
AcDbEntity
  8
GAIKEI
100
AcDbLine
 10
-10.47843626832684
 20
4.929432901381474
 30
0.0
 11
-10.55581491614623
 21
6.405887774780552
 31
0.0
  0
ENDSEC
  0
SECTION
  2
OBJECTS
  0
DICTIONARY
  5
7
330
0
100
AcDbDictionary
281
     1
  3
ACAD_COLOR
350
2D
  3
ACAD_GROUP
350
29
  3
ACAD_LAYOUT
350
B
  3
ACAD_MATERIAL
350
2C
  3
ACAD_MLINESTYLE
350
2A
  3
ACAD_PLOTSETTINGS
350
2B
  3
ACAD_PLOTSTYLENAME
350
6
  3
ACDBHEADERROUNDTRIPXREC
350
27D
  3
AcDbVariableDictionary
350
278
  0
DICTIONARY
  5
11
330
10
100
AcDbDictionary
280
     1
281
     1
  3
ACAD_LAYERSTATES
360
12
  0
DICTIONARY
  5
2D
102
{ACAD_REACTORS
330
7
102
}
330
7
100
AcDbDictionary
281
     1
  0
DICTIONARY
  5
29
102
{ACAD_REACTORS
330
7
102
}
330
7
100
AcDbDictionary
281
     1
  0
DICTIONARY
  5
B
102
{ACAD_REACTORS
330
7
102
}
330
7
100
AcDbDictionary
281
     1
  3
Model
350
A
  3
レイアウト1
350
F
  0
DICTIONARY
  5
2C
102
{ACAD_REACTORS
330
7
102
}
330
7
100
AcDbDictionary
281
     1
  0
DICTIONARY
  5
2A
102
{ACAD_REACTORS
330
7
102
}
330
7
100
AcDbDictionary
281
     1
  3
Standard
350
2F
  0
DICTIONARY
  5
2B
102
{ACAD_REACTORS
330
7
102
}
330
7
100
AcDbDictionary
281
     1
  0
ACDBDICTIONARYWDFLT
  5
6
102
{ACAD_REACTORS
330
7
102
}
330
7
100
AcDbDictionary
281
     1
  3
Normal
350
5
100
AcDbDictionaryWithDefault
340
5
  0
DICTIONARY
  5
27D
102
{ACAD_REACTORS
330
7
102
}
330
7
100
AcDbDictionary
281
     1
  3
COLORDICT
350
27F
  3
MATERIALDICT
350
27E
  0
DICTIONARY
  5
278
102
{ACAD_REACTORS
330
7
102
}
330
7
100
AcDbDictionary
281
     1
  3
DIMASSOC
350
27A
  3
HIDETEXT
350
279
  3
PROJECTNAME
350
27B
  0
DICTIONARY
  5
12
102
{ACAD_REACTORS
330
11
102
}
330
11
100
AcDbDictionary
281
     1
  0
LAYOUT
  5
A
102
{ACAD_XDICTIONARY
360
280
102
}
102
{ACAD_REACTORS
330
B
102
}
330
B
100
AcDbPlotSettings
  1

  2
Ａ４－縦3FRIM01.pc3
  4
A4
  6

 40
5.873749732971191
 41
5.873747825622558
 42
5.873748779296875
 43
5.873748779296875
 44
209.9733276367187
 45
296.9259948730469
 46
5.429999999999999
 47
0.0
 48
0.0
 49
0.0
140
0.0
141
0.0
142
1.0
143
1.38247311505162
 70
 11956
 72
     1
 73
     0
 74
     1
  7
tmsacad.ctb
 75
     0
147
0.7233413721486083
148
0.0055318937364746
149
0.0259817186447435
100
AcDbLayout
  1
Model
 70
     1
 71
     0
 10
0.0
 20
0.0
 11
12.0
 21
9.0
 12
0.0
 22
0.0
 32
0.0
 14
0.0
 24
0.0
 34
0.0
 15
0.0
 25
0.0
 35
0.0
146
0.0
 13
0.0
 23
0.0
 33
0.0
 16
1.0
 26
0.0
 36
0.0
 17
0.0
 27
1.0
 37
0.0
 76
     0
330
2
  0
LAYOUT
  5
F
102
{ACAD_XDICTIONARY
360
282
102
}
102
{ACAD_REACTORS
330
B
102
}
330
B
100
AcDbPlotSettings
  1

  2
None
  4

  6

 40
0.0
 41
0.0
 42
0.0
 43
0.0
 44
0.0
 45
0.0
 46
0.0
 47
0.0
 48
0.0
 49
0.0
140
0.0
141
0.0
142
1.0
143
1.0
 70
   688
 72
     0
 73
     0
 74
     5
  7
tmsacad.ctb
 75
    16
147
1.0
148
0.0
149
0.0
100
AcDbLayout
  1
レイアウト1
 70
     1
 71
     1
 10
0.0
 20
0.0
 11
12.0
 21
9.0
 12
0.0
 22
0.0
 32
0.0
 14
0.0
 24
0.0
 34
0.0
 15
0.0
 25
0.0
 35
0.0
146
0.0
 13
0.0
 23
0.0
 33
0.0
 16
1.0
 26
0.0
 36
0.0
 17
0.0
 27
1.0
 37
0.0
 76
     0
330
C
  0
MLINESTYLE
  5
2F
102
{ACAD_REACTORS
330
2A
102
}
330
2A
100
AcDbMlineStyle
  2
STANDARD
 70
     0
  3

 62
   256
 51
90.0
 52
90.0
 71
     2
 49
0.5
 62
   256
  6
BYLAYER
 49
-0.5
 62
   256
  6
BYLAYER
  0
ACDBPLACEHOLDER
  5
5
102
{ACAD_REACTORS
330
6
102
}
330
6
  0
XRECORD
  5
27F
102
{ACAD_REACTORS
330
27D
102
}
330
27D
100
AcDbXrecord
280
     1
340
2D
  0
XRECORD
  5
27E
102
{ACAD_REACTORS
330
27D
102
}
330
27D
100
AcDbXrecord
280
     1
340
2C
  0
DICTIONARYVAR
  5
27A
102
{ACAD_REACTORS
330
278
102
}
330
278
100
DictionaryVariables
280
     0
  1
1
  0
DICTIONARYVAR
  5
279
102
{ACAD_REACTORS
330
278
102
}
330
278
100
DictionaryVariables
280
     0
  1
1
  0
DICTIONARYVAR
  5
27B
102
{ACAD_REACTORS
330
278
102
}
330
278
100
DictionaryVariables
280
     0
  1

  0
DICTIONARY
  5
280
330
A
100
AcDbDictionary
280
     1
281
     1
  3
ACAD_XREC_ROUNDTRIP
360
281
  0
DICTIONARY
  5
282
330
F
100
AcDbDictionary
280
     1
281
     1
  3
ACAD_XREC_ROUNDTRIP
360
283
  0
XRECORD
  5
281
102
{ACAD_REACTORS
330
280
102
}
330
280
100
AcDbXrecord
280
     1
102
SHADEPLOT
 70
     0
102
SHADEPLOTRESLEVEL
 70
     2
102
SHADEPLOTCUSTOMDPI
 70
   300
  0
XRECORD
  5
283
102
{ACAD_REACTORS
330
282
102
}
330
282
100
AcDbXrecord
280
     1
102
SHADEPLOT
 70
     0
102
SHADEPLOTRESLEVEL
 70
     2
102
SHADEPLOTCUSTOMDPI
 70
   300
  0
ENDSEC
  0
EOF
