  0
SECTION
  2
HEADER
  9
$ACADVER
  1
AC1015
  9
$ACADMAINTVER
 70
    20
  9
$DWGCODEPAGE
  3
ANSI_932
  9
$INSBASE
 10
129.499999944041
 20
372.5008351249344
 30
0.0
  9
$EXTMIN
 10
-66.50298982218714
 20
-54.98052915765504
 30
-0.0015258207003583
  9
$EXTMAX
 10
58.53057917036415
 20
58.02140849435398
 30
0.0000000349246037
  9
$LIMMIN
 10
0.0
 20
0.0
  9
$LIMMAX
 10
420.0
 20
297.0
  9
$ORTHOMODE
 70
     1
  9
$REGENMODE
 70
     0
  9
$FILLMODE
 70
     1
  9
$QTEXTMODE
 70
     0
  9
$MIRRTEXT
 70
     0
  9
$LTSCALE
 40
1.0
  9
$ATTMODE
 70
     1
  9
$TEXTSIZE
 40
2.5
  9
$TRACEWID
 40
1.0
  9
$TEXTSTYLE
  7
Standard
  9
$CLAYER
  8
SUNPO
  9
$CELTYPE
  6
ByLayer
  9
$CECOLOR
 62
   256
  9
$CELTSCALE
 40
1.0
  9
$DISPSILH
 70
     0
  9
$DIMSCALE
 40
1.0
  9
$DIMASZ
 40
2.0
  9
$DIMEXO
 40
2.0
  9
$DIMDLI
 40
8.0
  9
$DIMRND
 40
0.0
  9
$DIMDLE
 40
0.0
  9
$DIMEXE
 40
2.0
  9
$DIMTP
 40
0.0
  9
$DIMTM
 40
0.0
  9
$DIMTXT
 40
2.5
  9
$DIMCEN
 40
0.0
  9
$DIMTSZ
 40
0.0
  9
$DIMTOL
 70
     0
  9
$DIMLIM
 70
     0
  9
$DIMTIH
 70
     0
  9
$DIMTOH
 70
     0
  9
$DIMSE1
 70
     0
  9
$DIMSE2
 70
     0
  9
$DIMTAD
 70
     3
  9
$DIMZIN
 70
     0
  9
$DIMBLK
  1

  9
$DIMASO
 70
     1
  9
$DIMSHO
 70
     1
  9
$DIMPOST
  1

  9
$DIMAPOST
  1

  9
$DIMALT
 70
     0
  9
$DIMALTD
 70
     2
  9
$DIMALTF
 40
25.4
  9
$DIMLFAC
 40
1.0
  9
$DIMTOFL
 70
     1
  9
$DIMTVP
 40
0.0
  9
$DIMTIX
 70
     0
  9
$DIMSOXD
 70
     0
  9
$DIMSAH
 70
     1
  9
$DIMBLK1
  1
OPEN30
  9
$DIMBLK2
  1
OPEN30
  9
$DIMSTYLE
  2
STANDARD
  9
$DIMCLRD
 70
     0
  9
$DIMCLRE
 70
     0
  9
$DIMCLRT
 70
     0
  9
$DIMTFAC
 40
1.0
  9
$DIMGAP
 40
0.5
  9
$DIMJUST
 70
     0
  9
$DIMSD1
 70
     0
  9
$DIMSD2
 70
     0
  9
$DIMTOLJ
 70
     1
  9
$DIMTZIN
 70
     0
  9
$DIMALTZ
 70
     0
  9
$DIMALTTZ
 70
     0
  9
$DIMUPT
 70
     0
  9
$DIMDEC
 70
     4
  9
$DIMTDEC
 70
     4
  9
$DIMALTU
 70
     2
  9
$DIMALTTD
 70
     2
  9
$DIMTXSTY
  7
Standard
  9
$DIMAUNIT
 70
     0
  9
$DIMADEC
 70
     0
  9
$DIMALTRND
 40
0.0
  9
$DIMAZIN
 70
     0
  9
$DIMDSEP
 70
    46
  9
$DIMATFIT
 70
     3
  9
$DIMFRAC
 70
     0
  9
$DIMLDRBLK
  1
OPEN30
  9
$DIMLUNIT
 70
     2
  9
$DIMLWD
 70
    -2
  9
$DIMLWE
 70
    -2
  9
$DIMTMOVE
 70
     0
  9
$LUNITS
 70
     2
  9
$LUPREC
 70
     4
  9
$SKETCHINC
 40
1.0
  9
$FILLETRAD
 40
0.0
  9
$AUNITS
 70
     0
  9
$AUPREC
 70
     0
  9
$MENU
  1
.
  9
$ELEVATION
 40
0.0
  9
$PELEVATION
 40
0.0
  9
$THICKNESS
 40
0.0
  9
$LIMCHECK
 70
     0
  9
$CHAMFERA
 40
0.0
  9
$CHAMFERB
 40
0.0
  9
$CHAMFERC
 40
0.0
  9
$CHAMFERD
 40
0.0
  9
$SKPOLY
 70
     0
  9
$TDCREATE
 40
2454349.434269746
  9
$TDUCREATE
 40
2454349.059269746
  9
$TDUPDATE
 40
2455042.677085336
  9
$TDUUPDATE
 40
2455042.302085336
  9
$TDINDWG
 40
0.2874410301
  9
$TDUSRTIMER
 40
0.2874410301
  9
$USRTIMER
 70
     1
  9
$ANGBASE
 50
0.0
  9
$ANGDIR
 70
     0
  9
$PDMODE
 70
     0
  9
$PDSIZE
 40
0.0
  9
$PLINEWID
 40
0.0
  9
$SPLFRAME
 70
     0
  9
$SPLINETYPE
 70
     6
  9
$SPLINESEGS
 70
     8
  9
$HANDSEED
  5
3D4
  9
$SURFTAB1
 70
     6
  9
$SURFTAB2
 70
     6
  9
$SURFTYPE
 70
     6
  9
$SURFU
 70
     6
  9
$SURFV
 70
     6
  9
$UCSBASE
  2

  9
$UCSNAME
  2

  9
$UCSORG
 10
0.0
 20
0.0
 30
0.0
  9
$UCSXDIR
 10
1.0
 20
0.0
 30
0.0
  9
$UCSYDIR
 10
0.0
 20
1.0
 30
0.0
  9
$UCSORTHOREF
  2

  9
$UCSORTHOVIEW
 70
     0
  9
$UCSORGTOP
 10
0.0
 20
0.0
 30
0.0
  9
$UCSORGBOTTOM
 10
0.0
 20
0.0
 30
0.0
  9
$UCSORGLEFT
 10
0.0
 20
0.0
 30
0.0
  9
$UCSORGRIGHT
 10
0.0
 20
0.0
 30
0.0
  9
$UCSORGFRONT
 10
0.0
 20
0.0
 30
0.0
  9
$UCSORGBACK
 10
0.0
 20
0.0
 30
0.0
  9
$PUCSBASE
  2

  9
$PUCSNAME
  2

  9
$PUCSORG
 10
0.0
 20
0.0
 30
0.0
  9
$PUCSXDIR
 10
1.0
 20
0.0
 30
0.0
  9
$PUCSYDIR
 10
0.0
 20
1.0
 30
0.0
  9
$PUCSORTHOREF
  2

  9
$PUCSORTHOVIEW
 70
     0
  9
$PUCSORGTOP
 10
0.0
 20
0.0
 30
0.0
  9
$PUCSORGBOTTOM
 10
0.0
 20
0.0
 30
0.0
  9
$PUCSORGLEFT
 10
0.0
 20
0.0
 30
0.0
  9
$PUCSORGRIGHT
 10
0.0
 20
0.0
 30
0.0
  9
$PUCSORGFRONT
 10
0.0
 20
0.0
 30
0.0
  9
$PUCSORGBACK
 10
0.0
 20
0.0
 30
0.0
  9
$USERI1
 70
     0
  9
$USERI2
 70
     0
  9
$USERI3
 70
     0
  9
$USERI4
 70
     0
  9
$USERI5
 70
     0
  9
$USERR1
 40
0.0
  9
$USERR2
 40
0.0
  9
$USERR3
 40
0.0
  9
$USERR4
 40
0.0
  9
$USERR5
 40
0.0
  9
$WORLDVIEW
 70
     1
  9
$SHADEDGE
 70
     3
  9
$SHADEDIF
 70
    70
  9
$TILEMODE
 70
     1
  9
$MAXACTVP
 70
    64
  9
$PINSBASE
 10
0.0
 20
0.0
 30
0.0
  9
$PLIMCHECK
 70
     0
  9
$PEXTMIN
 10
0.0
 20
0.0
 30
0.0
  9
$PEXTMAX
 10
0.0
 20
0.0
 30
0.0
  9
$PLIMMIN
 10
0.0
 20
0.0
  9
$PLIMMAX
 10
12.0
 20
9.0
  9
$UNITMODE
 70
     0
  9
$VISRETAIN
 70
     1
  9
$PLINEGEN
 70
     0
  9
$PSLTSCALE
 70
     1
  9
$TREEDEPTH
 70
  3020
  9
$CMLSTYLE
  2
Standard
  9
$CMLJUST
 70
     0
  9
$CMLSCALE
 40
20.0
  9
$PROXYGRAPHICS
 70
     1
  9
$MEASUREMENT
 70
     1
  9
$CELWEIGHT
370
    -1
  9
$ENDCAPS
280
     0
  9
$JOINSTYLE
280
     0
  9
$LWDISPLAY
290
     0
  9
$INSUNITS
 70
     4
  9
$HYPERLINKBASE
  1

  9
$STYLESHEET
  1

  9
$XEDIT
290
     1
  9
$CEPSNTYPE
380
     0
  9
$PSTYLEMODE
290
     1
  9
$FINGERPRINTGUID
  2
{FDEAD578-A652-11D2-9A35-0060089B3A3F}
  9
$VERSIONGUID
  2
{19C458CC-427D-4AF9-9EB2-905DD3A6A967}
  9
$EXTNAMES
290
     1
  9
$PSVPSCALE
 40
0.0
  9
$OLESTARTUP
290
     0
  0
ENDSEC
  0
SECTION
  2
CLASSES
  0
CLASS
  1
ACDBDICTIONARYWDFLT
  2
AcDbDictionaryWithDefault
  3
ObjectDBX Classes
 90
        0
280
     0
281
     0
  0
CLASS
  1
ACDBPLACEHOLDER
  2
AcDbPlaceHolder
  3
ObjectDBX Classes
 90
        0
280
     0
281
     0
  0
CLASS
  1
LAYOUT
  2
AcDbLayout
  3
ObjectDBX Classes
 90
        0
280
     0
281
     0
  0
CLASS
  1
DICTIONARYVAR
  2
AcDbDictionaryVar
  3
ObjectDBX Classes
 90
        0
280
     0
281
     0
  0
CLASS
  1
DIMASSOC
  2
AcDbDimAssoc
  3
"AcDbDimAssoc|Product Desc:     AcDim ARX App For Dimension|Company:          Autodesk, Inc.|WEB Address:      www.autodesk.com"
 90
    32768
280
     0
281
     0
  0
CLASS
  1
SORTENTSTABLE
  2
AcDbSortentsTable
  3
ObjectDBX Classes
 90
    32768
280
     0
281
     0
  0
ENDSEC
  0
SECTION
  2
TABLES
  0
TABLE
  2
VPORT
  5
1B
330
0
100
AcDbSymbolTable
 70
     3
  0
VPORT
  5
3CC
330
1B
100
AcDbSymbolTableRecord
100
AcDbViewportTableRecord
  2
*Active
 70
     0
 10
0.0
 20
0.0
 11
1.0
 21
1.0
 12
-3.986205325911491
 22
1.520439668349467
 13
0.0
 23
0.0
 14
10.0
 24
10.0
 15
10.0
 25
10.0
 16
0.0
 26
0.0
 36
1.0
 17
0.0
 27
0.0
 37
0.0
 40
113.8678528830589
 41
1.39386189258312
 42
50.0
 43
0.0
 44
0.0
 50
0.0
 51
0.0
 71
     0
 72
  1000
 73
     1
 74
     2
 75
     0
 76
     0
 77
     0
 78
     0
281
     0
 65
     1
110
0.0
120
0.0
130
0.0
111
1.0
121
0.0
131
0.0
112
0.0
122
1.0
132
0.0
 79
     0
146
0.0
  0
ENDTAB
  0
TABLE
  2
LTYPE
  5
16
330
0
100
AcDbSymbolTable
 70
     2
  0
LTYPE
  5
17
330
16
100
AcDbSymbolTableRecord
100
AcDbLinetypeTableRecord
  2
ByBlock
 70
     0
  3

 72
    65
 73
     0
 40
0.0
  0
LTYPE
  5
18
330
16
100
AcDbSymbolTableRecord
100
AcDbLinetypeTableRecord
  2
ByLayer
 70
     0
  3

 72
    65
 73
     0
 40
0.0
  0
LTYPE
  5
8
330
16
100
AcDbSymbolTableRecord
100
AcDbLinetypeTableRecord
  2
Continuous
 70
     0
  3
Solid line
 72
    65
 73
     0
 40
0.0
  0
LTYPE
  5
9A
330
16
100
AcDbSymbolTableRecord
100
AcDbLinetypeTableRecord
  2
HIDDEN2
 70
     0
  3
Hidden (.5x) _ _ _ _ _ _ _ _ _ _ _ _ _ _ _ _ _
 72
    65
 73
     2
 40
1.399999999999999
 49
0.7
 74
     0
 49
-0.7
 74
     0
  0
ENDTAB
  0
TABLE
  2
LAYER
  5
10
102
{ACAD_XDICTIONARY
360
11
102
}
330
0
100
AcDbSymbolTable
 70
     7
  0
LAYER
  5
4
330
10
100
AcDbSymbolTableRecord
100
AcDbLayerTableRecord
  2
0
 70
     0
 62
     7
  6
Continuous
370
    -3
390
5
  0
LAYER
  5
369
330
10
100
AcDbSymbolTableRecord
100
AcDbLayerTableRecord
  2
WAKU
 70
     0
 62
     4
  6
Continuous
370
    -3
390
5
  0
LAYER
  5
33
330
10
100
AcDbSymbolTableRecord
100
AcDbLayerTableRecord
  2
MOJI1
 70
     0
 62
     2
  6
Continuous
370
    -3
390
5
  0
LAYER
  5
31
330
10
100
AcDbSymbolTableRecord
100
AcDbLayerTableRecord
  2
TOUROKU
 70
     0
 62
     1
  6
Continuous
370
    -3
390
5
  0
LAYER
  5
4E
330
10
100
AcDbSymbolTableRecord
100
AcDbLayerTableRecord
  2
GAIKEI
 70
     0
 62
     7
  6
Continuous
370
    -3
390
5
  0
LAYER
  5
95
330
10
100
AcDbSymbolTableRecord
100
AcDbLayerTableRecord
  2
Defpoints
 70
     0
 62
     7
  6
Continuous
290
     0
370
    -3
390
5
  0
LAYER
  5
2E
330
10
100
AcDbSymbolTableRecord
100
AcDbLayerTableRecord
  2
SUNPO
 70
     0
 62
     3
  6
Continuous
370
    -3
390
5
  0
ENDTAB
  0
TABLE
  2
STYLE
  5
13
330
0
100
AcDbSymbolTable
 70
     1
  0
STYLE
  5
14
330
13
100
AcDbSymbolTableRecord
100
AcDbTextStyleTableRecord
  2
Standard
 70
     0
 40
0.0
 41
1.0
 50
0.0
 71
     0
 42
2.5
  3
MONOTXT.shx
  4
BIGFONT.shx
  0
ENDTAB
  0
TABLE
  2
VIEW
  5
19
330
0
100
AcDbSymbolTable
 70
     0
  0
ENDTAB
  0
TABLE
  2
UCS
  5
1A
330
0
100
AcDbSymbolTable
 70
     0
  0
ENDTAB
  0
TABLE
  2
APPID
  5
1D
330
0
100
AcDbSymbolTable
 70
     1
  0
APPID
  5
1E
330
1D
100
AcDbSymbolTableRecord
100
AcDbRegAppTableRecord
  2
ACAD
 70
     0
  0
ENDTAB
  0
TABLE
  2
DIMSTYLE
  5
1F
330
0
100
AcDbSymbolTable
 70
     2
100
AcDbDimStyleTable
 71
     2
340
20
340
27
  0
DIMSTYLE
105
27
330
1F
100
AcDbSymbolTableRecord
100
AcDbDimStyleTableRecord
  2
ISO-25
 70
     0
 41
2.5
 42
0.625
 43
3.75
 44
1.25
 73
     0
 74
     0
 77
     1
 78
     8
140
2.5
141
2.5
143
0.03937007874016
147
0.625
171
     3
172
     1
271
     2
272
     2
274
     3
278
    44
283
     0
284
     8
340
14
  0
DIMSTYLE
105
20
102
{ACAD_REACTORS
330
359
330
34C
330
21E
330
8B
102
}
330
1F
100
AcDbSymbolTableRecord
100
AcDbDimStyleTableRecord
  2
STANDARD
 70
     0
 40
0.0
 41
2.0
 42
2.0
 43
8.0
 44
2.0
 73
     0
 74
     0
 77
     3
140
3.0
141
0.0
173
     1
279
     2
288
     1
340
14
341
21
343
21
344
21
  0
ENDTAB
  0
TABLE
  2
BLOCK_RECORD
  5
1
330
0
100
AcDbSymbolTable
 70
     9
  0
BLOCK_RECORD
  5
2
330
1
100
AcDbSymbolTableRecord
100
AcDbBlockTableRecord
  2
*Model_Space
340
A
  0
BLOCK_RECORD
  5
C
330
1
100
AcDbSymbolTableRecord
100
AcDbBlockTableRecord
  2
*Paper_Space
340
F
  0
BLOCK_RECORD
  5
21
330
1
100
AcDbSymbolTableRecord
100
AcDbBlockTableRecord
  2
_OPEN30
340
0
102
{BLKREFS
331
35
331
47
331
91
331
92
331
224
331
225
331
352
331
353
331
35F
331
360
331
39C
331
39D
331
3A8
331
3A9
331
3B4
331
3B5
331
3C0
331
3C1
102
}
  0
BLOCK_RECORD
  5
35A
330
1
100
AcDbSymbolTableRecord
100
AcDbBlockTableRecord
  2
*D1
340
0
  0
BLOCK_RECORD
  5
34D
330
1
100
AcDbSymbolTableRecord
100
AcDbBlockTableRecord
  2
*D2
340
0
  0
BLOCK_RECORD
  5
21F
330
1
100
AcDbSymbolTableRecord
100
AcDbBlockTableRecord
  2
*D3
340
0
  0
BLOCK_RECORD
  5
8C
330
1
100
AcDbSymbolTableRecord
100
AcDbBlockTableRecord
  2
*D4
340
0
  0
BLOCK_RECORD
  5
398
330
1
100
AcDbSymbolTableRecord
100
AcDbBlockTableRecord
  2
*D5
340
0
  0
BLOCK_RECORD
  5
3A4
330
1
100
AcDbSymbolTableRecord
100
AcDbBlockTableRecord
  2
*D6
340
0
  0
BLOCK_RECORD
  5
3B0
330
1
100
AcDbSymbolTableRecord
100
AcDbBlockTableRecord
  2
*D7
340
0
  0
BLOCK_RECORD
  5
3BC
330
1
100
AcDbSymbolTableRecord
100
AcDbBlockTableRecord
  2
*D8
340
0
  0
ENDTAB
  0
ENDSEC
  0
SECTION
  2
BLOCKS
  0
BLOCK
  5
3
330
2
100
AcDbEntity
  8
0
100
AcDbBlockBegin
  2
*Model_Space
 70
     0
 10
0.0
 20
0.0
 30
0.0
  3
*Model_Space
  1

  0
ENDBLK
  5
9
330
2
100
AcDbEntity
  8
0
100
AcDbBlockEnd
  0
BLOCK
  5
D
330
C
100
AcDbEntity
 67
     1
  8
0
100
AcDbBlockBegin
  2
*Paper_Space
 70
     0
 10
0.0
 20
0.0
 30
0.0
  3
*Paper_Space
  1

  0
ENDBLK
  5
E
330
C
100
AcDbEntity
 67
     1
  8
0
100
AcDbBlockEnd
  0
BLOCK
  5
22
330
21
100
AcDbEntity
  8
0
100
AcDbBlockBegin
  2
_OPEN30
 70
     0
 10
0.0
 20
0.0
 30
0.0
  3
_OPEN30
  1

  0
LINE
  5
23
330
21
100
AcDbEntity
  8
0
  6
ByBlock
 62
     0
100
AcDbLine
 10
-1.0
 20
0.26794919
 30
0.0
 11
0.0
 21
0.0
 31
0.0
  0
LINE
  5
24
330
21
100
AcDbEntity
  8
0
  6
ByBlock
 62
     0
100
AcDbLine
 10
0.0
 20
0.0
 30
0.0
 11
-1.0
 21
-0.26794919
 31
0.0
  0
LINE
  5
25
330
21
100
AcDbEntity
  8
0
  6
ByBlock
 62
     0
100
AcDbLine
 10
0.0
 20
0.0
 30
0.0
 11
-1.0
 21
0.0
 31
0.0
  0
ENDBLK
  5
26
330
21
100
AcDbEntity
  8
0
100
AcDbBlockEnd
  0
BLOCK
  5
35B
330
35A
100
AcDbEntity
  8
0
100
AcDbBlockBegin
  2
*D1
 70
     1
 10
0.0
 20
0.0
 30
0.0
  3
*D1
  1

  0
LINE
  5
35C
330
35A
100
AcDbEntity
  8
SUNPO
 62
     0
370
    -2
100
AcDbLine
 10
205.6872392412982
 20
314.9074971203412
 30
0.0
 11
213.6872392412982
 21
314.9074971203412
 31
0.0
  0
LINE
  5
35D
330
35A
100
AcDbEntity
  8
SUNPO
 62
     0
370
    -2
100
AcDbLine
 10
205.6872392412982
 20
345.4074971203411
 30
0.0
 11
213.6872392412982
 21
345.4074971203411
 31
0.0
  0
LINE
  5
35E
330
35A
100
AcDbEntity
  8
SUNPO
 62
     0
370
    -2
100
AcDbLine
 10
211.6872392412982
 20
316.9074971203411
 30
0.0
 11
211.6872392412982
 21
343.4074971203411
 31
0.0
  0
INSERT
  5
35F
330
35A
100
AcDbEntity
  8
SUNPO
 62
     0
370
    -2
100
AcDbBlockReference
  2
_OPEN30
 10
211.6872392412982
 20
314.9074971203412
 30
0.0
 41
2.0
 42
2.0
 43
2.0
 50
270.0
  0
INSERT
  5
360
330
35A
100
AcDbEntity
  8
SUNPO
 62
     0
370
    -2
100
AcDbBlockReference
  2
_OPEN30
 10
211.6872392412982
 20
345.4074971203411
 30
0.0
 41
2.0
 42
2.0
 43
2.0
 50
90.0
  0
MTEXT
  5
361
330
35A
100
AcDbEntity
  8
SUNPO
 62
     0
100
AcDbMText
 10
209.9372392412982
 20
330.1574971203412
 30
0.0
 40
2.5
 41
0.0
 71
     5
 72
     1
  1
\A1;610
 11
0.0000000000000001
 21
1.0
 31
0.0
 73
     1
 44
1.0
1001
ACAD
1000
MTEXTBEGIN
1070
    73
1070
     1
1070
    44
1040
1.0
1070
    74
1070
     0
1000
MTEXTEND
  0
POINT
  5
362
330
35A
100
AcDbEntity
  8
Defpoints
 62
     0
100
AcDbPoint
 10
203.6872392412982
 20
314.9074971203412
 30
0.0
  0
POINT
  5
363
330
35A
100
AcDbEntity
  8
Defpoints
 62
     0
100
AcDbPoint
 10
203.6872392412982
 20
345.4074971203411
 30
0.0
  0
POINT
  5
364
330
35A
100
AcDbEntity
  8
Defpoints
 62
     0
100
AcDbPoint
 10
211.6872392412982
 20
345.4074971203411
 30
0.0
  0
ENDBLK
  5
365
330
35A
100
AcDbEntity
  8
0
100
AcDbBlockEnd
  0
BLOCK
  5
34E
330
34D
100
AcDbEntity
  8
0
100
AcDbBlockBegin
  2
*D2
 70
     1
 10
0.0
 20
0.0
 30
0.0
  3
*D2
  1

  0
LINE
  5
34F
330
34D
100
AcDbEntity
  8
SUNPO
 62
     0
370
    -2
100
AcDbLine
 10
152.6922392412982
 20
347.4109637634472
 30
0.0
 11
152.6922392412982
 21
355.4109637634472
 31
0.0
  0
LINE
  5
350
330
34D
100
AcDbEntity
  8
SUNPO
 62
     0
370
    -2
100
AcDbLine
 10
203.6872392412982
 20
347.4109637634472
 30
0.0
 11
203.6872392412982
 21
355.4109637634472
 31
0.0
  0
LINE
  5
351
330
34D
100
AcDbEntity
  8
SUNPO
 62
     0
370
    -2
100
AcDbLine
 10
154.6922392412982
 20
353.4109637634472
 30
0.0
 11
201.6872392412982
 21
353.4109637634472
 31
0.0
  0
INSERT
  5
352
330
34D
100
AcDbEntity
  8
SUNPO
 62
     0
370
    -2
100
AcDbBlockReference
  2
_OPEN30
 10
152.6922392412982
 20
353.4109637634472
 30
0.0
 41
2.0
 42
2.0
 43
2.0
 50
180.0
  0
INSERT
  5
353
330
34D
100
AcDbEntity
  8
SUNPO
 62
     0
370
    -2
100
AcDbBlockReference
  2
_OPEN30
 10
203.6872392412982
 20
353.4109637634472
 30
0.0
 41
2.0
 42
2.0
 43
2.0
  0
MTEXT
  5
354
330
34D
100
AcDbEntity
  8
SUNPO
 62
     0
100
AcDbMText
 10
178.1897392412982
 20
355.1609637634472
 30
0.0
 40
2.5
 41
0.0
 71
     5
 72
     1
  1
\A1;1020
 73
     1
 44
1.0
1001
ACAD
1000
MTEXTBEGIN
1070
    73
1070
     1
1070
    44
1040
1.0
1070
    74
1070
     0
1000
MTEXTEND
  0
POINT
  5
355
330
34D
100
AcDbEntity
  8
Defpoints
 62
     0
100
AcDbPoint
 10
152.6922392412982
 20
345.4109637634472
 30
0.0
  0
POINT
  5
356
330
34D
100
AcDbEntity
  8
Defpoints
 62
     0
100
AcDbPoint
 10
203.6872392412982
 20
345.4109637634472
 30
0.0
  0
POINT
  5
357
330
34D
100
AcDbEntity
  8
Defpoints
 62
     0
100
AcDbPoint
 10
203.6872392412982
 20
353.4109637634472
 30
0.0
  0
ENDBLK
  5
358
330
34D
100
AcDbEntity
  8
0
100
AcDbBlockEnd
  0
BLOCK
  5
220
330
21F
100
AcDbEntity
  8
0
100
AcDbBlockBegin
  2
*D3
 70
     1
 10
0.0
 20
0.0
 30
0.0
  3
*D3
  1

  0
LINE
  5
221
330
21F
100
AcDbEntity
  8
SUNPO
 62
     0
370
    -2
100
AcDbLine
 10
158.8147392432358
 20
312.9417269445724
 30
0.0
 11
158.8147392432358
 21
304.9417269445724
 31
0.0
  0
LINE
  5
222
330
21F
100
AcDbEntity
  8
SUNPO
 62
     0
370
    -2
100
AcDbLine
 10
197.5647392393607
 20
312.9417269445724
 30
0.0
 11
197.5647392393607
 21
304.9417269445724
 31
0.0
  0
LINE
  5
223
330
21F
100
AcDbEntity
  8
SUNPO
 62
     0
370
    -2
100
AcDbLine
 10
160.8147392432358
 20
306.9417269445724
 30
0.0
 11
195.5647392393607
 21
306.9417269445724
 31
0.0
  0
INSERT
  5
224
330
21F
100
AcDbEntity
  8
SUNPO
 62
     0
370
    -2
100
AcDbBlockReference
  2
_OPEN30
 10
158.8147392432358
 20
306.9417269445724
 30
0.0
 41
2.0
 42
2.0
 43
2.0
 50
180.0
  0
INSERT
  5
225
330
21F
100
AcDbEntity
  8
SUNPO
 62
     0
370
    -2
100
AcDbBlockReference
  2
_OPEN30
 10
197.5647392393607
 20
306.9417269445724
 30
0.0
 41
2.0
 42
2.0
 43
2.0
  0
MTEXT
  5
226
330
21F
100
AcDbEntity
  8
SUNPO
 62
     0
100
AcDbMText
 10
178.1897392412982
 20
308.6917269445724
 30
0.0
 40
2.5
 41
0.0
 71
     5
 72
     1
  1
\A1;775
 73
     1
 44
1.0
1001
ACAD
1000
MTEXTBEGIN
1070
    73
1070
     1
1070
    44
1040
1.0
1070
    74
1070
     0
1000
MTEXTEND
  0
POINT
  5
227
330
21F
100
AcDbEntity
  8
Defpoints
 62
     0
100
AcDbPoint
 10
158.8147392432358
 20
314.9417269445724
 30
0.0
  0
POINT
  5
228
330
21F
100
AcDbEntity
  8
Defpoints
 62
     0
100
AcDbPoint
 10
197.5647392393607
 20
314.9417269445724
 30
0.0
  0
POINT
  5
229
330
21F
100
AcDbEntity
  8
Defpoints
 62
     0
100
AcDbPoint
 10
197.5647392393607
 20
306.9417269445724
 30
0.0
  0
ENDBLK
  5
22A
330
21F
100
AcDbEntity
  8
0
100
AcDbBlockEnd
  0
BLOCK
  5
8D
330
8C
100
AcDbEntity
  8
0
100
AcDbBlockBegin
  2
*D4
 70
     1
 10
0.0
 20
0.0
 30
0.0
  3
*D4
  1

  0
LINE
  5
8E
330
8C
100
AcDbEntity
  8
SUNPO
 62
     0
370
    -2
100
AcDbLine
 10
150.9871384543826
 20
316.6324971203411
 30
0.0
 11
140.9871384543825
 21
316.6324971203411
 31
0.0
  0
LINE
  5
8F
330
8C
100
AcDbEntity
  8
SUNPO
 62
     0
370
    -2
100
AcDbLine
 10
150.9871384543826
 20
342.4324971177612
 30
0.0
 11
140.9871384543826
 21
342.4324971177612
 31
0.0
  0
LINE
  5
90
330
8C
100
AcDbEntity
  8
SUNPO
 62
     0
370
    -2
100
AcDbLine
 10
142.9871384543826
 20
318.6324971203411
 30
0.0
 11
142.9871384543826
 21
340.4324971177612
 31
0.0
  0
INSERT
  5
91
330
8C
100
AcDbEntity
  8
SUNPO
 62
     0
370
    -2
100
AcDbBlockReference
  2
_OPEN30
 10
142.9871384543826
 20
316.6324971203411
 30
0.0
 41
2.0
 42
2.0
 43
2.0
 50
270.0
  0
INSERT
  5
92
330
8C
100
AcDbEntity
  8
SUNPO
 62
     0
370
    -2
100
AcDbBlockReference
  2
_OPEN30
 10
142.9871384543826
 20
342.4324971177612
 30
0.0
 41
2.0
 42
2.0
 43
2.0
 50
90.0
  0
MTEXT
  5
93
330
8C
100
AcDbEntity
  8
SUNPO
 62
     0
100
AcDbMText
 10
141.2371384543825
 20
329.5324971190512
 30
0.0
 40
2.5
 41
0.0
 71
     5
 72
     1
  1
\A1;516
 11
0.0000000000000001
 21
1.0
 31
0.0
 73
     1
 44
1.0
1001
ACAD
1000
MTEXTBEGIN
1070
    73
1070
     1
1070
    44
1040
1.0
1070
    74
1070
     0
1000
MTEXTEND
  0
POINT
  5
94
330
8C
100
AcDbEntity
  8
Defpoints
 62
     0
100
AcDbPoint
 10
152.9871384543826
 20
316.6324971203411
 30
0.0
  0
POINT
  5
96
330
8C
100
AcDbEntity
  8
Defpoints
 62
     0
100
AcDbPoint
 10
152.9871384543826
 20
342.4324971177612
 30
0.0
  0
POINT
  5
97
330
8C
100
AcDbEntity
  8
Defpoints
 62
     0
100
AcDbPoint
 10
142.9871384543826
 20
342.4324971177612
 30
0.0
  0
ENDBLK
  5
98
330
8C
100
AcDbEntity
  8
0
100
AcDbBlockEnd
  0
BLOCK
  5
3A2
330
398
100
AcDbEntity
  8
0
100
AcDbBlockBegin
  2
*D5
 70
     1
 10
0.0
 20
0.0
 30
0.0
  3
*D5
  1

  0
LINE
  5
399
330
398
100
AcDbEntity
  8
SUNPO
 62
     0
370
    -2
100
AcDbLine
 10
7.691664335816426
 20
2.427311066103186
 30
0.0
 11
15.69166433581642
 21
2.427311066103183
 31
0.0
  0
LINE
  5
39A
330
398
100
AcDbEntity
  8
SUNPO
 62
     0
370
    -2
100
AcDbLine
 10
7.691664335816426
 20
32.92731106610313
 30
0.0
 11
15.69166433581642
 21
32.92731106610313
 31
0.0
  0
LINE
  5
39B
330
398
100
AcDbEntity
  8
SUNPO
 62
     0
370
    -2
100
AcDbLine
 10
13.69166433581642
 20
4.427311066103184
 30
0.0
 11
13.69166433581642
 21
30.92731106610313
 31
0.0
  0
INSERT
  5
39C
330
398
100
AcDbEntity
  8
SUNPO
 62
     0
370
    -2
100
AcDbBlockReference
  2
_OPEN30
 10
13.69166433581642
 20
2.427311066103184
 30
0.0
 41
2.0
 42
2.0
 43
2.0
 50
270.0
  0
INSERT
  5
39D
330
398
100
AcDbEntity
  8
SUNPO
 62
     0
370
    -2
100
AcDbBlockReference
  2
_OPEN30
 10
13.69166433581642
 20
32.92731106610313
 30
0.0
 41
2.0
 42
2.0
 43
2.0
 50
90.0
  0
MTEXT
  5
39E
330
398
100
AcDbEntity
  8
SUNPO
 62
     0
100
AcDbMText
 10
11.94166433581642
 20
17.67731106610316
 30
0.0
 40
2.5
 41
0.0
 71
     5
 72
     1
  1
\A1;610
 11
0.0000000000000001
 21
1.0
 31
0.0
 73
     1
 44
1.0
1001
ACAD
1000
MTEXTBEGIN
1070
    73
1070
     1
1070
    44
1040
1.0
1070
    74
1070
     0
1000
MTEXTEND
  0
POINT
  5
39F
330
398
100
AcDbEntity
  8
Defpoints
 62
     0
100
AcDbPoint
 10
5.691664335816426
 20
2.427311066103186
 30
0.0
  0
POINT
  5
3A0
330
398
100
AcDbEntity
  8
Defpoints
 62
     0
100
AcDbPoint
 10
5.691664335816426
 20
32.92731106610313
 30
0.0
  0
POINT
  5
3A1
330
398
100
AcDbEntity
  8
Defpoints
 62
     0
100
AcDbPoint
 10
13.69166433581642
 20
32.92731106610313
 30
0.0
  0
ENDBLK
  5
3A3
330
398
100
AcDbEntity
  8
0
100
AcDbBlockEnd
  0
BLOCK
  5
3AE
330
3A4
100
AcDbEntity
  8
0
100
AcDbBlockBegin
  2
*D6
 70
     1
 10
0.0
 20
0.0
 30
0.0
  3
*D6
  1

  0
LINE
  5
3A5
330
3A4
100
AcDbEntity
  8
SUNPO
 62
     0
370
    -2
100
AcDbLine
 10
-45.30333566418358
 20
34.93077770920928
 30
0.0
 11
-45.30333566418358
 21
42.93077770920928
 31
0.0
  0
LINE
  5
3A6
330
3A4
100
AcDbEntity
  8
SUNPO
 62
     0
370
    -2
100
AcDbLine
 10
5.691664335816426
 20
34.93077770920928
 30
0.0
 11
5.691664335816427
 21
42.93077770920928
 31
0.0
  0
LINE
  5
3A7
330
3A4
100
AcDbEntity
  8
SUNPO
 62
     0
370
    -2
100
AcDbLine
 10
-43.30333566418357
 20
40.93077770920928
 30
0.0
 11
3.691664335816427
 21
40.93077770920928
 31
0.0
  0
INSERT
  5
3A8
330
3A4
100
AcDbEntity
  8
SUNPO
 62
     0
370
    -2
100
AcDbBlockReference
  2
_OPEN30
 10
-45.30333566418358
 20
40.93077770920928
 30
0.0
 41
2.0
 42
2.0
 43
2.0
 50
180.0
  0
INSERT
  5
3A9
330
3A4
100
AcDbEntity
  8
SUNPO
 62
     0
370
    -2
100
AcDbBlockReference
  2
_OPEN30
 10
5.691664335816427
 20
40.93077770920928
 30
0.0
 41
2.0
 42
2.0
 43
2.0
  0
MTEXT
  5
3AA
330
3A4
100
AcDbEntity
  8
SUNPO
 62
     0
100
AcDbMText
 10
-19.80583566418357
 20
42.68077770920927
 30
0.0
 40
2.5
 41
0.0
 71
     5
 72
     1
  1
\A1;1020
 73
     1
 44
1.0
1001
ACAD
1000
MTEXTBEGIN
1070
    73
1070
     1
1070
    44
1040
1.0
1070
    74
1070
     0
1000
MTEXTEND
  0
POINT
  5
3AB
330
3A4
100
AcDbEntity
  8
Defpoints
 62
     0
100
AcDbPoint
 10
-45.30333566418358
 20
32.93077770920928
 30
0.0
  0
POINT
  5
3AC
330
3A4
100
AcDbEntity
  8
Defpoints
 62
     0
100
AcDbPoint
 10
5.691664335816426
 20
32.93077770920928
 30
0.0
  0
POINT
  5
3AD
330
3A4
100
AcDbEntity
  8
Defpoints
 62
     0
100
AcDbPoint
 10
5.691664335816427
 20
40.93077770920928
 30
0.0
  0
ENDBLK
  5
3AF
330
3A4
100
AcDbEntity
  8
0
100
AcDbBlockEnd
  0
BLOCK
  5
3BA
330
3B0
100
AcDbEntity
  8
0
100
AcDbBlockBegin
  2
*D7
 70
     1
 10
0.0
 20
0.0
 30
0.0
  3
*D7
  1

  0
LINE
  5
3B1
330
3B0
100
AcDbEntity
  8
SUNPO
 62
     0
370
    -2
100
AcDbLine
 10
-39.18083566224601
 20
0.4615408903344474
 30
0.0
 11
-39.18083566224601
 21
-7.538459109665552
 31
0.0
  0
LINE
  5
3B2
330
3B0
100
AcDbEntity
  8
SUNPO
 62
     0
370
    -2
100
AcDbLine
 10
-0.4308356661211407
 20
0.4615408903344474
 30
0.0
 11
-0.4308356661211412
 21
-7.538459109665552
 31
0.0
  0
LINE
  5
3B3
330
3B0
100
AcDbEntity
  8
SUNPO
 62
     0
370
    -2
100
AcDbLine
 10
-37.18083566224601
 20
-5.538459109665552
 30
0.0
 11
-2.43083566612114
 21
-5.538459109665552
 31
0.0
  0
INSERT
  5
3B4
330
3B0
100
AcDbEntity
  8
SUNPO
 62
     0
370
    -2
100
AcDbBlockReference
  2
_OPEN30
 10
-39.18083566224601
 20
-5.538459109665552
 30
0.0
 41
2.0
 42
2.0
 43
2.0
 50
180.0
  0
INSERT
  5
3B5
330
3B0
100
AcDbEntity
  8
SUNPO
 62
     0
370
    -2
100
AcDbBlockReference
  2
_OPEN30
 10
-0.4308356661211411
 20
-5.538459109665552
 30
0.0
 41
2.0
 42
2.0
 43
2.0
  0
MTEXT
  5
3B6
330
3B0
100
AcDbEntity
  8
SUNPO
 62
     0
100
AcDbMText
 10
-19.80583566418357
 20
-3.788459109665552
 30
0.0
 40
2.5
 41
0.0
 71
     5
 72
     1
  1
\A1;775
 73
     1
 44
1.0
1001
ACAD
1000
MTEXTBEGIN
1070
    73
1070
     1
1070
    44
1040
1.0
1070
    74
1070
     0
1000
MTEXTEND
  0
POINT
  5
3B7
330
3B0
100
AcDbEntity
  8
Defpoints
 62
     0
100
AcDbPoint
 10
-39.18083566224601
 20
2.461540890334447
 30
0.0
  0
POINT
  5
3B8
330
3B0
100
AcDbEntity
  8
Defpoints
 62
     0
100
AcDbPoint
 10
-0.4308356661211406
 20
2.461540890334447
 30
0.0
  0
POINT
  5
3B9
330
3B0
100
AcDbEntity
  8
Defpoints
 62
     0
100
AcDbPoint
 10
-0.4308356661211411
 20
-5.538459109665552
 30
0.0
  0
ENDBLK
  5
3BB
330
3B0
100
AcDbEntity
  8
0
100
AcDbBlockEnd
  0
BLOCK
  5
3C6
330
3BC
100
AcDbEntity
  8
0
100
AcDbBlockBegin
  2
*D8
 70
     1
 10
0.0
 20
0.0
 30
0.0
  3
*D8
  1

  0
LINE
  5
3BD
330
3BC
100
AcDbEntity
  8
SUNPO
 62
     0
370
    -2
100
AcDbLine
 10
-47.00843645109921
 20
4.152311066103153
 30
0.0
 11
-57.00843645109922
 21
4.152311066103155
 31
0.0
  0
LINE
  5
3BE
330
3BC
100
AcDbEntity
  8
SUNPO
 62
     0
370
    -2
100
AcDbLine
 10
-47.00843645109921
 20
29.95231106352327
 30
0.0
 11
-57.00843645109921
 21
29.95231106352327
 31
0.0
  0
LINE
  5
3BF
330
3BC
100
AcDbEntity
  8
SUNPO
 62
     0
370
    -2
100
AcDbLine
 10
-55.00843645109922
 20
6.152311066103155
 30
0.0
 11
-55.00843645109921
 21
27.95231106352327
 31
0.0
  0
INSERT
  5
3C0
330
3BC
100
AcDbEntity
  8
SUNPO
 62
     0
370
    -2
100
AcDbBlockReference
  2
_OPEN30
 10
-55.00843645109922
 20
4.152311066103155
 30
0.0
 41
2.0
 42
2.0
 43
2.0
 50
270.0
  0
INSERT
  5
3C1
330
3BC
100
AcDbEntity
  8
SUNPO
 62
     0
370
    -2
100
AcDbBlockReference
  2
_OPEN30
 10
-55.00843645109921
 20
29.95231106352327
 30
0.0
 41
2.0
 42
2.0
 43
2.0
 50
90.0
  0
MTEXT
  5
3C2
330
3BC
100
AcDbEntity
  8
SUNPO
 62
     0
100
AcDbMText
 10
-56.75843645109922
 20
17.0523110648132
 30
0.0
 40
2.5
 41
0.0
 71
     5
 72
     1
  1
\A1;516
 11
0.0000000000000001
 21
1.0
 31
0.0
 73
     1
 44
1.0
1001
ACAD
1000
MTEXTBEGIN
1070
    73
1070
     1
1070
    44
1040
1.0
1070
    74
1070
     0
1000
MTEXTEND
  0
POINT
  5
3C3
330
3BC
100
AcDbEntity
  8
Defpoints
 62
     0
100
AcDbPoint
 10
-45.00843645109921
 20
4.152311066103152
 30
0.0
  0
POINT
  5
3C4
330
3BC
100
AcDbEntity
  8
Defpoints
 62
     0
100
AcDbPoint
 10
-45.00843645109921
 20
29.95231106352327
 30
0.0
  0
POINT
  5
3C5
330
3BC
100
AcDbEntity
  8
Defpoints
 62
     0
100
AcDbPoint
 10
-55.00843645109921
 20
29.95231106352327
 30
0.0
  0
ENDBLK
  5
3C7
330
3BC
100
AcDbEntity
  8
0
100
AcDbBlockEnd
  0
ENDSEC
  0
SECTION
  2
ENTITIES
  0
TEXT
  5
30
330
2
100
AcDbEntity
  8
TOUROKU
100
AcDbText
 10
16.10437507148674
 20
48.02064907069667
 30
0.0
 40
2.0
  1
ＴＨ４２ＰＤ１２＋ＴＹＷＫ４２ＰＶ７
 72
     2
 11
58.50437507148672
 21
48.02064907069667
 31
0.0
100
AcDbText
  0
TEXT
  5
32
330
2
100
AcDbEntity
  8
MOJI1
100
AcDbText
 10
-39.49557496144098
 20
54.02064907069678
 30
0.0
 40
4.0
  1
ハイビジョンプラズマディスプレイ壁掛け金具付
 41
0.93
100
AcDbText
  0
MTEXT
  5
34
330
2
100
AcDbEntity
  8
SUNPO
100
AcDbMText
 10
41.64515358016958
 20
42.67702462175179
 30
0.0
 40
2.5
 41
0.0
 71
     5
 72
     1
  1
\A1;21.5
 73
     1
 44
1.0
1001
ACAD
1000
MTEXTBEGIN
1070
    73
1070
     1
1070
    44
1040
1.0
1070
    74
1070
     0
1000
MTEXTEND
  0
INSERT
  5
35
330
2
100
AcDbEntity
  8
SUNPO
100
AcDbBlockReference
  2
_OPEN30
 10
32.56182024683628
 20
40.92702462175179
 30
0.0
 41
2.0
 42
2.0
 43
2.0
 50
180.0
  0
LINE
  5
36
330
2
100
AcDbEntity
  8
SUNPO
100
AcDbLine
 10
31.58682024693403
 20
40.92702462175179
 30
0.0
 11
32.56182024683628
 21
40.92702462175179
 31
0.0
  0
LINE
  5
37
330
2
100
AcDbEntity
  8
SUNPO
100
AcDbLine
 10
34.56182024683628
 20
40.92702462175179
 30
0.0
 11
46.72848691350296
 21
40.92702462175179
 31
0.0
  0
LINE
  5
38
330
2
100
AcDbEntity
  8
SUNPO
100
AcDbLine
 10
29.58682024693402
 20
40.92702462175179
 30
0.0
 11
27.58682024693403
 21
40.92702462175179
 31
0.0
  0
LINE
  5
39
330
2
100
AcDbEntity
  8
SUNPO
100
AcDbLine
 10
32.56182024683628
 20
34.93355712631086
 30
0.0
 11
32.56182024683628
 21
42.9270246217518
 31
0.0
  0
LINE
  5
3A
330
2
100
AcDbEntity
  8
SUNPO
100
AcDbLine
 10
31.58682024693403
 20
34.93355712631086
 30
0.0
 11
31.58682024693403
 21
42.9270246217518
 31
0.0
  0
CIRCLE
  5
3B
330
2
100
AcDbEntity
  8
SUNPO
100
AcDbCircle
 10
31.58682024693403
 20
40.92702462175179
 30
0.0
 40
0.2429999999756999
  0
LINE
  5
3C
330
2
100
AcDbEntity
  8
SUNPO
100
AcDbLine
 10
31.34472453233977
 20
40.90608029165281
 30
0.0
 11
31.82891596152828
 21
40.90608029165281
 31
0.0
  0
LINE
  5
3D
330
2
100
AcDbEntity
  8
SUNPO
100
AcDbLine
 10
31.34501386832918
 20
40.95108029164833
 30
0.0
 11
31.82862662553893
 21
40.95108029164833
 31
0.0
  0
LINE
  5
3E
330
2
100
AcDbEntity
  8
SUNPO
100
AcDbLine
 10
31.45487221330493
 20
41.13108029163027
 30
0.0
 11
31.71876828056324
 21
41.13108029163027
 31
0.0
  0
LINE
  5
3F
330
2
100
AcDbEntity
  8
SUNPO
100
AcDbLine
 10
31.4031077164245
 20
41.08608029163479
 30
0.0
 11
31.77053277744366
 21
41.08608029163479
 31
0.0
  0
LINE
  5
40
330
2
100
AcDbEntity
  8
SUNPO
100
AcDbLine
 10
31.372250202066
 20
41.04108029163938
 30
0.0
 11
31.80139029180216
 21
41.04108029163938
 31
0.0
  0
LINE
  5
41
330
2
100
AcDbEntity
  8
SUNPO
100
AcDbLine
 10
31.35383888621183
 20
40.99608029164381
 30
0.0
 11
31.81980160765622
 21
40.99608029164381
 31
0.0
  0
LINE
  5
42
330
2
100
AcDbEntity
  8
SUNPO
100
AcDbLine
 10
31.35293919743114
 20
40.86108029165735
 30
0.0
 11
31.82070129643702
 21
40.86108029165735
 31
0.0
  0
LINE
  5
43
330
2
100
AcDbEntity
  8
SUNPO
100
AcDbLine
 10
31.37062506750337
 20
40.81608029166182
 30
0.0
 11
31.8030154263648
 21
40.81608029166182
 31
0.0
  0
LINE
  5
44
330
2
100
AcDbEntity
  8
SUNPO
100
AcDbLine
 10
31.40045939830324
 20
40.77108029166629
 30
0.0
 11
31.77318109556481
 21
40.77108029166629
 31
0.0
  0
LINE
  5
45
330
2
100
AcDbEntity
  8
SUNPO
100
AcDbLine
 10
31.4501806619065
 20
40.72608029167088
 30
0.0
 11
31.72345983196166
 21
40.72608029167088
 31
0.0
  0
MTEXT
  5
46
330
2
100
AcDbEntity
  8
SUNPO
100
AcDbMText
 10
20.55348691360072
 20
42.67702462175179
 30
0.0
 40
2.5
 41
0.0
 71
     5
 72
     1
  1
\A1;89
 73
     1
 44
1.0
1001
ACAD
1000
MTEXTBEGIN
1070
    73
1070
     1
1070
    44
1040
1.0
1070
    74
1070
     0
1000
MTEXTEND
  0
INSERT
  5
47
330
2
100
AcDbEntity
  8
SUNPO
100
AcDbBlockReference
  2
_OPEN30
 10
27.13682024693404
 20
40.92702462175179
 30
0.0
 41
2.0
 42
2.0
 43
2.0
  0
LINE
  5
48
330
2
100
AcDbEntity
  8
SUNPO
100
AcDbLine
 10
31.58682024693403
 20
40.92702462175179
 30
0.0
 11
27.13682024693404
 21
40.92702462175179
 31
0.0
  0
LINE
  5
49
330
2
100
AcDbEntity
  8
SUNPO
100
AcDbLine
 10
25.13682024693404
 20
40.92702462175179
 30
0.0
 11
17.97015358026735
 21
40.92702462175179
 31
0.0
  0
LINE
  5
4A
330
2
100
AcDbEntity
  8
SUNPO
100
AcDbLine
 10
33.58682024693403
 20
40.92702462175179
 30
0.0
 11
35.58682024693403
 21
40.92702462175179
 31
0.0
  0
LINE
  5
4B
330
2
100
AcDbEntity
  8
SUNPO
100
AcDbLine
 10
27.13682024693404
 20
34.93355712631086
 30
0.0
 11
27.13682024693404
 21
42.9270246217518
 31
0.0
  0
LINE
  5
4C
330
2
100
AcDbEntity
  8
SUNPO
100
AcDbLine
 10
31.58682024693403
 20
34.93355712631086
 30
0.0
 11
31.58682024693403
 21
42.9270246217518
 31
0.0
  0
LINE
  5
4D
330
2
100
AcDbEntity
  8
GAIKEI
  6
Continuous
 62
     1
100
AcDbLine
 10
31.58682024693403
 20
27.07124308435187
 30
0.0
 11
31.58682024693403
 21
26.13722610319519
 31
0.0
  0
LINE
  5
4F
330
2
100
AcDbEntity
  8
GAIKEI
  6
Continuous
 62
     1
100
AcDbLine
 10
32.48682024684385
 20
29.85231106338193
 30
0.0
 11
32.48682024684385
 21
27.30231106363778
 31
0.0
  0
LINE
  5
50
330
2
100
AcDbEntity
  8
GAIKEI
  6
Continuous
 62
     1
100
AcDbLine
 10
32.08682024688395
 20
29.95231106337184
 30
0.0
 11
32.48682024684385
 21
29.95231106337184
 31
0.0
  0
LINE
  5
51
330
2
100
AcDbEntity
  8
GAIKEI
  6
Continuous
 62
     1
100
AcDbLine
 10
32.08682024688395
 20
29.85231106338193
 30
0.0
 11
32.48682024684385
 21
29.85231106338193
 31
0.0
  0
LINE
  5
52
330
2
100
AcDbEntity
  8
GAIKEI
  6
Continuous
 62
     1
100
AcDbLine
 10
32.08682024688395
 20
27.30231106363778
 30
0.0
 11
32.48682024684385
 21
27.30231106363778
 31
0.0
  0
LINE
  5
53
330
2
100
AcDbEntity
  8
GAIKEI
  6
Continuous
 62
     1
100
AcDbLine
 10
32.08682024688395
 20
29.85231106338193
 30
0.0
 11
32.08682024688395
 21
29.95231106337184
 31
0.0
  0
LINE
  5
54
330
2
100
AcDbEntity
  8
GAIKEI
  6
Continuous
 62
     1
100
AcDbLine
 10
32.08682024688395
 20
27.30231106363778
 30
0.0
 11
32.08682024688395
 21
27.20231106364776
 31
0.0
  0
ARC
  5
55
330
2
100
AcDbEntity
  8
GAIKEI
  6
Continuous
 62
     1
100
AcDbCircle
 10
32.48682024684385
 20
29.85231106338193
 30
0.0
 40
0.0999999999899659
100
AcDbArc
 50
0.0
 51
90.0
  0
ARC
  5
56
330
2
100
AcDbEntity
  8
GAIKEI
  6
Continuous
 62
     1
100
AcDbCircle
 10
32.48682024684385
 20
27.30231106363778
 30
0.0
 40
0.0999999999899659
100
AcDbArc
 50
270.0
 51
0.0
  0
ARC
  5
57
330
2
100
AcDbEntity
  8
GAIKEI
  6
Continuous
 62
     1
100
AcDbCircle
 10
32.48682024684385
 20
29.40231106342702
 30
0.0
 40
0.0999999999899659
100
AcDbArc
 50
138.1896849999924
 51
180.0
  0
LINE
  5
58
330
2
100
AcDbEntity
  8
GAIKEI
  6
Continuous
 62
     1
100
AcDbLine
 10
32.48682024684385
 20
29.55231106341199
 30
0.0
 11
32.41228474685127
 21
29.4689778134204
 31
0.0
  0
ARC
  5
59
330
2
100
AcDbEntity
  8
GAIKEI
  6
Continuous
 62
     1
100
AcDbCircle
 10
32.48682024684385
 20
28.70231106349729
 30
0.0
 40
0.0999999999899659
100
AcDbArc
 50
180.0
 51
221.8103150000076
  0
LINE
  5
5A
330
2
100
AcDbEntity
  8
GAIKEI
  6
Continuous
 62
     1
100
AcDbLine
 10
32.48682024684385
 20
28.55231106351238
 30
0.0
 11
32.41228474685127
 21
28.63564456350395
 31
0.0
  0
LINE
  5
5B
330
2
100
AcDbEntity
  8
GAIKEI
  6
Continuous
 62
     1
100
AcDbLine
 10
32.38682024685383
 20
29.85231106338193
 30
0.0
 11
32.38682024685383
 21
27.30231106363778
 31
0.0
  0
LINE
  5
5C
330
2
100
AcDbEntity
  8
GAIKEI
  6
Continuous
 62
     1
100
AcDbLine
 10
32.58682024683387
 20
4.252311065950607
 30
0.0
 11
32.58682024683387
 21
6.927311065682204
 31
0.0
  0
LINE
  5
5D
330
2
100
AcDbEntity
  8
GAIKEI
  6
Continuous
 62
     1
100
AcDbLine
 10
32.48682024684385
 20
4.252311065950607
 30
0.0
 11
32.48682024684385
 21
6.802311065694709
 31
0.0
  0
LINE
  5
5E
330
2
100
AcDbEntity
  8
GAIKEI
  6
Continuous
 62
     1
100
AcDbLine
 10
32.08682024688395
 20
4.152311065960645
 30
0.0
 11
32.48682024684385
 21
4.152311065960645
 31
0.0
  0
LINE
  5
5F
330
2
100
AcDbEntity
  8
GAIKEI
  6
Continuous
 62
     1
100
AcDbLine
 10
32.08682024688395
 20
4.252311065950607
 30
0.0
 11
32.48682024684385
 21
4.252311065950607
 31
0.0
  0
LINE
  5
60
330
2
100
AcDbEntity
  8
GAIKEI
  6
Continuous
 62
     1
100
AcDbLine
 10
32.08682024688395
 20
6.802311065694709
 30
0.0
 11
32.48682024684385
 21
6.802311065694709
 31
0.0
  0
LINE
  5
61
330
2
100
AcDbEntity
  8
GAIKEI
  6
Continuous
 62
     1
100
AcDbLine
 10
32.08682024688395
 20
6.802311065694709
 30
0.0
 11
32.08682024688395
 21
6.902311065684727
 31
0.0
  0
ARC
  5
62
330
2
100
AcDbEntity
  8
GAIKEI
  6
Continuous
 62
     1
100
AcDbCircle
 10
32.48682024684385
 20
4.252311065950607
 30
0.0
 40
0.0999999999899659
100
AcDbArc
 50
270.0
 51
0.0
  0
ARC
  5
63
330
2
100
AcDbEntity
  8
GAIKEI
  6
Continuous
 62
     1
100
AcDbCircle
 10
32.48682024684385
 20
6.802311065694709
 30
0.0
 40
0.0999999999899659
100
AcDbArc
 50
0.0
 51
90.0
  0
ARC
  5
64
330
2
100
AcDbEntity
  8
GAIKEI
  6
Continuous
 62
     1
100
AcDbCircle
 10
32.48682024684385
 20
4.702311065905519
 30
0.0
 40
0.0999999999899659
100
AcDbArc
 50
180.0
 51
221.8103150000076
  0
LINE
  5
65
330
2
100
AcDbEntity
  8
GAIKEI
  6
Continuous
 62
     1
100
AcDbLine
 10
32.48682024684385
 20
4.552311065920491
 30
0.0
 11
32.41228474685127
 21
4.635644565912173
 31
0.0
  0
ARC
  5
66
330
2
100
AcDbEntity
  8
GAIKEI
  6
Continuous
 62
     1
100
AcDbCircle
 10
32.48682024684385
 20
5.402311065835249
 30
0.0
 40
0.0999999999899659
100
AcDbArc
 50
138.1896849999924
 51
180.0
  0
LINE
  5
67
330
2
100
AcDbEntity
  8
GAIKEI
  6
Continuous
 62
     1
100
AcDbLine
 10
32.48682024684385
 20
5.552311065820163
 30
0.0
 11
32.41228474685127
 21
5.468977815828623
 31
0.0
  0
LINE
  5
68
330
2
100
AcDbEntity
  8
GAIKEI
  6
Continuous
 62
     1
100
AcDbLine
 10
32.38682024685383
 20
4.252311065950607
 30
0.0
 11
32.38682024685383
 21
6.802311065694709
 31
0.0
  0
LINE
  5
69
330
2
100
AcDbEntity
  8
GAIKEI
  6
Continuous
 62
     1
100
AcDbLine
 10
32.58682024683387
 20
29.85231106338193
 30
0.0
 11
32.58682024683387
 21
27.17731106365028
 31
0.0
  0
LINE
  5
6A
330
2
100
AcDbEntity
  8
GAIKEI
  6
Continuous
 62
     1
100
AcDbLine
 10
31.58682024693403
 20
27.07731106366038
 30
0.0
 11
31.58682024693403
 21
7.027311065672165
 31
0.0
  0
LINE
  5
6B
330
2
100
AcDbEntity
  8
GAIKEI
  6
Continuous
 62
     1
100
AcDbLine
 10
31.68682024692405
 20
6.927311065682204
 30
0.0
 11
32.46182024684626
 21
6.927311065682204
 31
0.0
  0
LINE
  5
6C
330
2
100
AcDbEntity
  8
GAIKEI
  6
Continuous
 62
     1
100
AcDbLine
 10
31.68682024692405
 20
27.17731106365028
 30
0.0
 11
32.46182024684626
 21
27.17731106365028
 31
0.0
  0
LINE
  5
6D
330
2
100
AcDbEntity
  8
GAIKEI
  6
Continuous
 62
     1
100
AcDbLine
 10
31.68682024692405
 20
27.07731106366038
 30
0.0
 11
31.68682024692405
 21
26.97731106367036
 31
0.0
  0
ARC
  5
6E
330
2
100
AcDbEntity
  8
GAIKEI
  6
Continuous
 62
     1
100
AcDbCircle
 10
31.68682024692405
 20
7.027311065672165
 30
0.0
 40
0.0999999999899659
100
AcDbArc
 50
180.0
 51
270.0
  0
ARC
  5
6F
330
2
100
AcDbEntity
  8
GAIKEI
  6
Continuous
 62
     1
100
AcDbCircle
 10
31.68682024692405
 20
27.07731106366038
 30
0.0
 40
0.0999999999899659
100
AcDbArc
 50
90.0
 51
180.0
  0
CIRCLE
  5
70
330
2
100
AcDbEntity
  8
GAIKEI
  6
Continuous
 62
     1
100
AcDbCircle
 10
31.98682024689393
 20
10.40231106533349
 30
0.0
 40
0.102499999989715
  0
CIRCLE
  5
71
330
2
100
AcDbEntity
  8
GAIKEI
  6
Continuous
 62
     1
100
AcDbCircle
 10
31.98682024689393
 20
10.40231106533349
 30
0.0
 40
0.1249999999874574
  0
LINE
  5
72
330
2
100
AcDbEntity
  8
GAIKEI
  6
Continuous
 62
     1
100
AcDbLine
 10
31.58682024693403
 20
26.97731106367036
 30
0.0
 11
31.68682024692405
 21
26.97731106367036
 31
0.0
  0
LINE
  5
73
330
2
100
AcDbEntity
  8
GAIKEI
  6
Continuous
 62
     1
100
AcDbLine
 10
31.68682024692405
 20
27.07731106366038
 30
0.0
 11
31.78682024691406
 21
27.07731106366038
 31
0.0
  0
LINE
  5
74
330
2
100
AcDbEntity
  8
GAIKEI
  6
Continuous
 62
     1
100
AcDbLine
 10
31.58682024693403
 20
7.127311065662127
 30
0.0
 11
31.68682024692405
 21
7.127311065662127
 31
0.0
  0
LINE
  5
75
330
2
100
AcDbEntity
  8
GAIKEI
  6
Continuous
 62
     1
100
AcDbLine
 10
31.68682024692405
 20
7.127311065662127
 30
0.0
 11
31.68682024692405
 21
7.029239815671985
 31
0.0
  0
LINE
  5
76
330
2
100
AcDbEntity
  8
GAIKEI
  6
Continuous
 62
     1
100
AcDbLine
 10
31.68682024692405
 20
7.027311065672165
 30
0.0
 11
31.78682024691406
 21
7.027311065672165
 31
0.0
  0
ARC
  5
77
330
2
100
AcDbEntity
  8
GAIKEI
  6
Continuous
 62
     1
100
AcDbCircle
 10
31.68682024692405
 20
27.07731106366038
 30
0.0
 40
0.0999999999899659
100
AcDbArc
 50
270.0
 51
0.0
  0
ARC
  5
78
330
2
100
AcDbEntity
  8
GAIKEI
  6
Continuous
 62
     1
100
AcDbCircle
 10
31.88682024690391
 20
27.07731106366038
 30
0.0
 40
0.0999999999899659
100
AcDbArc
 50
90.0
 51
180.0
  0
ARC
  5
79
330
2
100
AcDbEntity
  8
GAIKEI
  6
Continuous
 62
     1
100
AcDbCircle
 10
31.68682024692405
 20
7.027311065672165
 30
0.0
 40
0.0999999999899659
100
AcDbArc
 50
0.0
 51
90.0
  0
ARC
  5
7A
330
2
100
AcDbEntity
  8
GAIKEI
  6
Continuous
 62
     1
100
AcDbCircle
 10
31.88682024690391
 20
7.027311065672165
 30
0.0
 40
0.0999999999899659
100
AcDbArc
 50
180.0
 51
270.0
  0
ARC
  5
7B
330
2
100
AcDbEntity
  8
GAIKEI
  6
Continuous
 62
     1
100
AcDbCircle
 10
32.46182024684626
 20
27.07731106366038
 30
0.0
 40
0.0999999999899659
100
AcDbArc
 50
0.0
 51
90.0
  0
ARC
  5
7C
330
2
100
AcDbEntity
  8
GAIKEI
  6
Continuous
 62
     1
100
AcDbCircle
 10
32.48682024684385
 20
27.17731106365028
 30
0.0
 40
0.0999999999899659
100
AcDbArc
 50
314.9403499999862
 51
0.0
  0
LINE
  5
7D
330
2
100
AcDbEntity
  8
GAIKEI
  6
Continuous
 62
     1
100
AcDbLine
 10
32.56182024683628
 20
27.07731106366038
 30
0.0
 11
32.56182024683628
 21
7.027311065672165
 31
0.0
  0
LINE
  5
7E
330
2
100
AcDbEntity
  8
GAIKEI
  6
Continuous
 62
     1
100
AcDbLine
 10
32.48682024684385
 20
27.20231106364776
 30
0.0
 11
32.48682024684385
 21
27.17731106365028
 31
0.0
  0
LINE
  5
7F
330
2
100
AcDbEntity
  8
GAIKEI
  6
Continuous
 62
     1
100
AcDbLine
 10
32.38682024685383
 20
28.17731106354995
 30
0.0
 11
32.2368202468688
 21
28.17731106354995
 31
0.0
  0
LINE
  5
80
330
2
100
AcDbEntity
  8
GAIKEI
  6
Continuous
 62
     1
100
AcDbLine
 10
32.38682024685383
 20
28.07731106355999
 30
0.0
 11
32.2368202468688
 21
28.07731106355999
 31
0.0
  0
LINE
  5
81
330
2
100
AcDbEntity
  8
GAIKEI
  6
Continuous
 62
     1
100
AcDbLine
 10
32.2368202468688
 20
28.07731106355999
 30
0.0
 11
32.2368202468688
 21
28.17731106354995
 31
0.0
  0
ARC
  5
82
330
2
100
AcDbEntity
  8
GAIKEI
  6
Continuous
 62
     1
100
AcDbCircle
 10
32.46182024684626
 20
7.027311065672165
 30
0.0
 40
0.0999999999899659
100
AcDbArc
 50
270.0
 51
0.0
  0
ARC
  5
83
330
2
100
AcDbEntity
  8
GAIKEI
  6
Continuous
 62
     1
100
AcDbCircle
 10
32.48682024684385
 20
6.927311065682204
 30
0.0
 40
0.0999999999899659
100
AcDbArc
 50
0.0
 51
45.05965000001377
  0
LINE
  5
84
330
2
100
AcDbEntity
  8
GAIKEI
  6
Continuous
 62
     1
100
AcDbLine
 10
32.48682024684385
 20
6.902311065684727
 30
0.0
 11
32.48682024684385
 21
6.927311065682204
 31
0.0
  0
LINE
  5
85
330
2
100
AcDbEntity
  8
GAIKEI
  6
Continuous
 62
     1
100
AcDbLine
 10
32.38682024685383
 20
5.927311065782589
 30
0.0
 11
32.2368202468688
 21
5.927311065782589
 31
0.0
  0
LINE
  5
86
330
2
100
AcDbEntity
  8
GAIKEI
  6
Continuous
 62
     1
100
AcDbLine
 10
32.38682024685383
 20
6.027311065772494
 30
0.0
 11
32.2368202468688
 21
6.027311065772494
 31
0.0
  0
LINE
  5
87
330
2
100
AcDbEntity
  8
GAIKEI
  6
Continuous
 62
     1
100
AcDbLine
 10
32.2368202468688
 20
6.027311065772494
 30
0.0
 11
32.2368202468688
 21
5.927311065782589
 31
0.0
  0
LINE
  5
88
330
2
100
AcDbEntity
  8
GAIKEI
  6
Continuous
 62
     1
100
AcDbLine
 10
32.08682024688395
 20
27.20231106364776
 30
0.0
 11
32.48682024684385
 21
27.20231106364776
 31
0.0
  0
LINE
  5
89
330
2
100
AcDbEntity
  8
GAIKEI
  6
Continuous
 62
     1
100
AcDbLine
 10
32.08682024688395
 20
6.902311065684727
 30
0.0
 11
32.48682024684385
 21
6.902311065684727
 31
0.0
  0
POINT
  5
8A
330
2
100
AcDbEntity
  8
GAIKEI
  6
Continuous
 62
     1
100
AcDbPoint
 10
32.58682024683387
 20
17.05231106466618
 30
0.0
  0
DIMENSION
  5
8B
330
2
100
AcDbEntity
  8
SUNPO
100
AcDbDimension
  2
*D8
 10
-55.00843645109921
 20
29.95231106352327
 30
0.0
 11
-56.75843645109922
 21
17.0523110648132
 31
0.0
 70
    33
  1
516
 71
     5
 42
25.79999999742012
  3
STANDARD
100
AcDbAlignedDimension
 13
-45.00843645109921
 23
4.152311066103152
 33
0.0
 14
-45.00843645109921
 24
29.95231106352327
 34
0.0
1001
ACAD
1000
DSTYLE
1002
{
1070
   287
1070
     3
1070
   287
1070
     3
1070
   287
1070
     3
1070
   287
1070
     3
1070
   287
1070
     3
1070
   287
1070
     3
1070
   287
1070
     3
1070
   287
1070
     3
1070
   287
1070
     3
1070
   287
1070
     3
1070
   287
1070
     3
1070
    40
1040
1.0
1070
   140
1040
2.5
1070
   147
1040
0.5
1070
   172
1070
     1
1070
   279
1070
     0
1070
   288
1070
     0
1002
}
  0
LINE
  5
99
330
2
100
AcDbEntity
  8
GAIKEI
  6
HIDDEN2
 62
     1
100
AcDbLine
 10
-1.643335665999813
 20
27.30231106378818
 30
0.0
 11
-1.643335665999813
 21
28.053393813713
 31
0.0
  0
LINE
  5
9B
330
2
100
AcDbEntity
  8
GAIKEI
  6
HIDDEN2
 62
     1
100
AcDbLine
 10
-0.4308356661211406
 20
27.20231106379817
 30
0.0
 11
-0.4308356661211406
 21
29.95231106352316
 31
0.0
  0
LINE
  5
9C
330
2
100
AcDbEntity
  8
GAIKEI
  6
HIDDEN2
 62
     1
100
AcDbLine
 10
-1.780835665986103
 20
27.17731106380069
 30
0.0
 11
-1.680835665996085
 21
27.17731106380069
 31
0.0
  0
LINE
  5
9D
330
2
100
AcDbEntity
  8
GAIKEI
  6
HIDDEN2
 62
     1
100
AcDbLine
 10
-1.905835665973484
 20
27.07731106381067
 30
0.0
 11
-1.905835665973484
 21
27.17731106380069
 31
0.0
  0
LINE
  5
9E
330
2
100
AcDbEntity
  8
GAIKEI
  6
HIDDEN2
 62
     1
100
AcDbLine
 10
-1.905835665973484
 20
27.07731106381067
 30
0.0
 11
-1.805835665983465
 21
27.07731106381067
 31
0.0
  0
POINT
  5
9F
330
2
100
AcDbEntity
  8
GAIKEI
  6
HIDDEN2
 62
     1
100
AcDbPoint
 10
-2.330835665931147
 20
27.07731106381067
 30
0.0
  0
ARC
  5
A0
330
2
100
AcDbEntity
  8
GAIKEI
  6
HIDDEN2
 62
     1
100
AcDbCircle
 10
-2.430835665921051
 20
27.12330456380608
 30
0.0
 40
0.09999999999
100
AcDbArc
 50
310.6012950000001
 51
0.0
  0
LINE
  5
A1
330
2
100
AcDbEntity
  8
GAIKEI
  6
HIDDEN2
 62
     1
100
AcDbLine
 10
-2.330835665931147
 20
27.17731106380069
 30
0.0
 11
-2.330835665931147
 21
27.12330456380608
 31
0.0
  0
LINE
  5
A2
330
2
100
AcDbEntity
  8
GAIKEI
  6
HIDDEN2
 62
     1
100
AcDbLine
 10
-2.305835665933557
 20
27.20231106379817
 30
0.0
 11
-2.305835665933557
 21
27.30231106378818
 31
0.0
  0
LINE
  5
A3
330
2
100
AcDbEntity
  8
GAIKEI
  6
HIDDEN2
 62
     1
100
AcDbLine
 10
-1.805835665983465
 20
27.20231106379817
 30
0.0
 11
-1.805835665983465
 21
27.07731106381067
 31
0.0
  0
LINE
  5
A4
330
2
100
AcDbEntity
  8
GAIKEI
  6
HIDDEN2
 62
     1
100
AcDbLine
 10
-2.305835665933557
 20
27.30231106378818
 30
0.0
 11
-0.4308356661211406
 21
27.30231106378818
 31
0.0
  0
LINE
  5
A5
330
2
100
AcDbEntity
  8
GAIKEI
  6
HIDDEN2
 62
     1
100
AcDbLine
 10
-1.680835665996085
 20
26.97731106382065
 30
0.0
 11
-1.805835665983465
 21
26.97731106382065
 31
0.0
  0
LINE
  5
A6
330
2
100
AcDbEntity
  8
GAIKEI
  6
HIDDEN2
 62
     1
100
AcDbLine
 10
-1.780835665986103
 20
27.17731106380069
 30
0.0
 11
-1.780835665986103
 21
26.97731106382065
 31
0.0
  0
ARC
  5
A7
330
2
100
AcDbEntity
  8
GAIKEI
  6
HIDDEN2
 62
     1
100
AcDbCircle
 10
-1.805835665983465
 20
27.07731106381067
 30
0.0
 40
0.09999999999
100
AcDbArc
 50
180.0
 51
270.0
  0
LINE
  5
A8
330
2
100
AcDbEntity
  8
GAIKEI
  6
HIDDEN2
 62
     1
100
AcDbLine
 10
-2.365756665927563
 20
27.04737906381371
 30
0.0
 11
-2.768731415887202
 21
26.70197206384819
 31
0.0
  0
ARC
  5
A9
330
2
100
AcDbEntity
  8
GAIKEI
  6
HIDDEN2
 62
     1
100
AcDbCircle
 10
-1.180835666046107
 20
29.05231106361322
 30
0.0
 40
0.1749999999825
100
AcDbArc
 50
270.0
 51
90.0
  0
ARC
  5
AA
330
2
100
AcDbEntity
  8
GAIKEI
  6
HIDDEN2
 62
     1
100
AcDbCircle
 10
-1.180835666046107
 20
29.05231106361322
 30
0.0
 40
0.49999999995
100
AcDbArc
 50
270.0
 51
90.0
  0
LINE
  5
AB
330
2
100
AcDbEntity
  8
GAIKEI
  6
HIDDEN2
 62
     1
100
AcDbLine
 10
-1.800835665984152
 20
28.21731106369663
 30
0.0
 11
-1.800835665984152
 21
28.06731106371172
 31
0.0
  0
LINE
  5
AC
330
2
100
AcDbEntity
  8
GAIKEI
  6
HIDDEN2
 62
     1
100
AcDbLine
 10
-1.805835665983465
 20
28.1773110637007
 30
0.0
 11
-1.805835665983465
 21
28.06731106371172
 31
0.0
  0
LINE
  5
AD
330
2
100
AcDbEntity
  8
GAIKEI
  6
HIDDEN2
 62
     1
100
AcDbLine
 10
-2.560835665908086
 20
28.21731106369663
 30
0.0
 11
-2.560835665908086
 21
28.06731106371172
 31
0.0
  0
LINE
  5
AE
330
2
100
AcDbEntity
  8
GAIKEI
  6
HIDDEN2
 62
     1
100
AcDbLine
 10
-2.555835665908659
 20
28.1773110637007
 30
0.0
 11
-2.555835665908659
 21
28.06731106371172
 31
0.0
  0
LINE
  5
AF
330
2
100
AcDbEntity
  8
GAIKEI
  6
HIDDEN2
 62
     1
100
AcDbLine
 10
-1.800835665984152
 20
28.21731106369663
 30
0.0
 11
-2.560835665908086
 21
28.21731106369663
 31
0.0
  0
LINE
  5
B0
330
2
100
AcDbEntity
  8
GAIKEI
  6
HIDDEN2
 62
     1
100
AcDbLine
 10
-1.800835665984152
 20
28.06731106371172
 30
0.0
 11
-2.560835665908086
 21
28.06731106371172
 31
0.0
  0
LINE
  5
B1
330
2
100
AcDbEntity
  8
GAIKEI
  6
HIDDEN2
 62
     1
100
AcDbLine
 10
-1.805835665983465
 20
28.1773110637007
 30
0.0
 11
-2.555835665908659
 21
28.1773110637007
 31
0.0
  0
LINE
  5
B2
330
2
100
AcDbEntity
  8
GAIKEI
  6
HIDDEN2
 62
     1
100
AcDbLine
 10
-1.805835665983465
 20
28.07731106371068
 30
0.0
 11
-2.555835665908659
 21
28.07731106371068
 31
0.0
  0
ARC
  5
B3
330
2
100
AcDbEntity
  8
GAIKEI
  6
HIDDEN2
 62
     1
100
AcDbCircle
 10
-1.143335666049949
 20
28.053393813713
 30
0.0
 40
0.49999999995
100
AcDbArc
 50
94.30122199999926
 51
180.0
  0
ARC
  5
B4
330
2
100
AcDbEntity
  8
GAIKEI
  6
HIDDEN2
 62
     1
100
AcDbCircle
 10
-5.468335665617416
 20
28.05231106371315
 30
0.0
 40
0.49999999995
100
AcDbArc
 50
0.0
 51
90.0
  0
ARC
  5
B5
330
2
100
AcDbEntity
  8
GAIKEI
  6
HIDDEN2
 62
     1
100
AcDbCircle
 10
-7.305835665433676
 20
29.05231106361322
 30
0.0
 40
0.1749999999825
100
AcDbArc
 50
270.0
 51
90.0
  0
LINE
  5
B6
330
2
100
AcDbEntity
  8
GAIKEI
  6
HIDDEN2
 62
     1
100
AcDbLine
 10
-4.968335665667325
 20
27.30231106378818
 30
0.0
 11
-4.968335665667325
 21
28.05231106371315
 31
0.0
  0
LINE
  5
B7
330
2
100
AcDbEntity
  8
GAIKEI
  6
HIDDEN2
 62
     1
100
AcDbLine
 10
-4.280835665735992
 20
27.17731106380069
 30
0.0
 11
-4.280835665735992
 21
27.12330456380608
 31
0.0
  0
POINT
  5
B8
330
2
100
AcDbEntity
  8
GAIKEI
  6
HIDDEN2
 62
     1
100
AcDbPoint
 10
-4.280835665735992
 20
27.07731106381067
 30
0.0
  0
ARC
  5
B9
330
2
100
AcDbEntity
  8
GAIKEI
  6
HIDDEN2
 62
     1
100
AcDbCircle
 10
-4.180835665745973
 20
27.12330456380608
 30
0.0
 40
0.09999999999
100
AcDbArc
 50
180.0
 51
229.3987049999998
  0
LINE
  5
BA
330
2
100
AcDbEntity
  8
GAIKEI
  6
HIDDEN2
 62
     1
100
AcDbLine
 10
-4.305835665733582
 20
27.20231106379817
 30
0.0
 11
-4.305835665733582
 21
27.30231106378818
 31
0.0
  0
LINE
  5
BB
330
2
100
AcDbEntity
  8
GAIKEI
  6
HIDDEN2
 62
     1
100
AcDbLine
 10
-2.943335665869938
 20
25.67731106395064
 30
0.0
 11
-2.943335665869938
 21
26.32234356388614
 31
0.0
  0
POINT
  5
BC
330
2
100
AcDbEntity
  8
GAIKEI
  6
HIDDEN2
 62
     1
100
AcDbPoint
 10
-2.943335665869938
 20
26.55231106386322
 30
0.0
  0
LINE
  5
BD
330
2
100
AcDbEntity
  8
GAIKEI
  6
HIDDEN2
 62
     1
100
AcDbLine
 10
-3.668335665797428
 20
25.67731106395064
 30
0.0
 11
-3.668335665797428
 21
26.32234356388614
 31
0.0
  0
POINT
  5
BE
330
2
100
AcDbEntity
  8
GAIKEI
  6
HIDDEN2
 62
     1
100
AcDbPoint
 10
-3.668335665797428
 20
26.55231106386322
 30
0.0
  0
ARC
  5
BF
330
2
100
AcDbEntity
  8
GAIKEI
  6
HIDDEN2
 62
     1
100
AcDbCircle
 10
-4.168335665747406
 20
26.32234356388614
 30
0.0
 40
0.49999999995
100
AcDbArc
 50
0.0
 51
49.39870499999981
  0
LINE
  5
C0
330
2
100
AcDbEntity
  8
GAIKEI
  6
HIDDEN2
 62
     1
100
AcDbLine
 10
-4.24591491573966
 20
27.04737906381371
 30
0.0
 11
-3.842940165779907
 21
26.70197206384819
 31
0.0
  0
LINE
  5
C1
330
2
100
AcDbEntity
  8
GAIKEI
  6
HIDDEN2
 62
     1
100
AcDbLine
 10
-3.268335665837355
 20
25.35231106398323
 30
0.0
 11
-3.343335665829783
 21
25.35231106398323
 31
0.0
  0
ARC
  5
C2
330
2
100
AcDbEntity
  8
GAIKEI
  6
HIDDEN2
 62
     1
100
AcDbCircle
 10
-3.268335665837355
 20
25.67731106395064
 30
0.0
 40
0.3249999999675
100
AcDbArc
 50
270.0
 51
0.0
  0
ARC
  5
C3
330
2
100
AcDbEntity
  8
GAIKEI
  6
HIDDEN2
 62
     1
100
AcDbCircle
 10
-3.343335665829783
 20
25.67731106395064
 30
0.0
 40
0.3249999999675
100
AcDbArc
 50
180.0
 51
270.0
  0
LINE
  5
C4
330
2
100
AcDbEntity
  8
GAIKEI
  6
HIDDEN2
 62
     1
100
AcDbLine
 10
-4.830835665681149
 20
27.17731106380069
 30
0.0
 11
-4.930835665671168
 21
27.17731106380069
 31
0.0
  0
LINE
  5
C5
330
2
100
AcDbEntity
  8
GAIKEI
  6
HIDDEN2
 62
     1
100
AcDbLine
 10
-4.705835665693655
 20
27.07731106381067
 30
0.0
 11
-4.705835665693655
 21
27.17731106380069
 31
0.0
  0
LINE
  5
C6
330
2
100
AcDbEntity
  8
GAIKEI
  6
HIDDEN2
 62
     1
100
AcDbLine
 10
-4.705835665693655
 20
27.07731106381067
 30
0.0
 11
-4.805835665683559
 21
27.07731106381067
 31
0.0
  0
LINE
  5
C7
330
2
100
AcDbEntity
  8
GAIKEI
  6
HIDDEN2
 62
     1
100
AcDbLine
 10
-4.805835665683559
 20
27.20231106379817
 30
0.0
 11
-4.805835665683559
 21
27.07731106381067
 31
0.0
  0
LINE
  5
C8
330
2
100
AcDbEntity
  8
GAIKEI
  6
HIDDEN2
 62
     1
100
AcDbLine
 10
-4.930835665671168
 20
26.97731106382065
 30
0.0
 11
-4.805835665683559
 21
26.97731106382065
 31
0.0
  0
LINE
  5
C9
330
2
100
AcDbEntity
  8
GAIKEI
  6
HIDDEN2
 62
     1
100
AcDbLine
 10
-4.830835665681149
 20
27.17731106380069
 30
0.0
 11
-4.830835665681149
 21
26.97731106382065
 31
0.0
  0
ARC
  5
CA
330
2
100
AcDbEntity
  8
GAIKEI
  6
HIDDEN2
 62
     1
100
AcDbCircle
 10
-4.805835665683559
 20
27.07731106381067
 30
0.0
 40
0.09999999999
100
AcDbArc
 50
270.0
 51
0.0
  0
ARC
  5
CB
330
2
100
AcDbEntity
  8
GAIKEI
  6
HIDDEN2
 62
     1
100
AcDbCircle
 10
-3.305835665833626
 20
29.05231106361322
 30
0.0
 40
0.1749999999825
100
AcDbArc
 50
90.0
 51
270.0
  0
LINE
  5
CC
330
2
100
AcDbEntity
  8
GAIKEI
  6
HIDDEN2
 62
     1
100
AcDbLine
 10
-4.050835665759279
 20
28.21731106369663
 30
0.0
 11
-4.050835665759279
 21
28.06731106371172
 31
0.0
  0
LINE
  5
CD
330
2
100
AcDbEntity
  8
GAIKEI
  6
HIDDEN2
 62
     1
100
AcDbLine
 10
-4.055835665758593
 20
28.1773110637007
 30
0.0
 11
-4.055835665758593
 21
28.06731106371172
 31
0.0
  0
LINE
  5
CE
330
2
100
AcDbEntity
  8
GAIKEI
  6
HIDDEN2
 62
     1
100
AcDbLine
 10
-4.810835665683214
 20
28.21731106369663
 30
0.0
 11
-4.810835665683214
 21
28.06731106371172
 31
0.0
  0
LINE
  5
CF
330
2
100
AcDbEntity
  8
GAIKEI
  6
HIDDEN2
 62
     1
100
AcDbLine
 10
-4.805835665683559
 20
28.1773110637007
 30
0.0
 11
-4.805835665683559
 21
28.06731106371172
 31
0.0
  0
LINE
  5
D0
330
2
100
AcDbEntity
  8
GAIKEI
  6
HIDDEN2
 62
     1
100
AcDbLine
 10
-4.810835665683214
 20
28.21731106369663
 30
0.0
 11
-4.050835665759279
 21
28.21731106369663
 31
0.0
  0
LINE
  5
D1
330
2
100
AcDbEntity
  8
GAIKEI
  6
HIDDEN2
 62
     1
100
AcDbLine
 10
-4.810835665683214
 20
28.06731106371172
 30
0.0
 11
-4.050835665759279
 21
28.06731106371172
 31
0.0
  0
LINE
  5
D2
330
2
100
AcDbEntity
  8
GAIKEI
  6
HIDDEN2
 62
     1
100
AcDbLine
 10
-4.055835665758593
 20
28.1773110637007
 30
0.0
 11
-4.805835665683559
 21
28.1773110637007
 31
0.0
  0
LINE
  5
D3
330
2
100
AcDbEntity
  8
GAIKEI
  6
HIDDEN2
 62
     1
100
AcDbLine
 10
-4.055835665758593
 20
28.07731106371068
 30
0.0
 11
-4.805835665683559
 21
28.07731106371068
 31
0.0
  0
ARC
  5
D4
330
2
100
AcDbEntity
  8
GAIKEI
  6
HIDDEN2
 62
     1
100
AcDbCircle
 10
-2.443335665919846
 20
26.32234356388614
 30
0.0
 40
0.49999999995
100
AcDbArc
 50
130.6012950000002
 51
180.0
  0
LINE
  5
D5
330
2
100
AcDbEntity
  8
GAIKEI
  6
HIDDEN2
 62
     1
100
AcDbLine
 10
-2.342040415929943
 20
27.07731106381067
 30
0.0
 11
-4.269630915737309
 21
27.07731106381067
 31
0.0
  0
LINE
  5
D6
330
2
100
AcDbEntity
  8
GAIKEI
  6
HIDDEN2
 62
     1
100
AcDbLine
 10
-1.805835665983465
 20
27.17731106380069
 30
0.0
 11
-4.805835665683559
 21
27.17731106380069
 31
0.0
  0
LINE
  5
D7
330
2
100
AcDbEntity
  8
GAIKEI
  6
HIDDEN2
 62
     1
100
AcDbLine
 10
-1.180835666046107
 20
28.87731106363066
 30
0.0
 11
-3.305835665833626
 21
28.87731106363066
 31
0.0
  0
LINE
  5
D8
330
2
100
AcDbEntity
  8
GAIKEI
  6
HIDDEN2
 62
     1
100
AcDbLine
 10
-1.180835666046107
 20
29.22731106359567
 30
0.0
 11
-3.305835665833626
 21
29.22731106359567
 31
0.0
  0
LINE
  5
D9
330
2
100
AcDbEntity
  8
GAIKEI
  6
HIDDEN2
 62
     1
100
AcDbLine
 10
-2.455835665918641
 20
24.38981106407942
 30
0.0
 11
-2.455835665918641
 21
24.46481106407186
 31
0.0
  0
ARC
  5
DA
330
2
100
AcDbEntity
  8
GAIKEI
  6
HIDDEN2
 62
     1
100
AcDbCircle
 10
-2.780835665886058
 20
24.40231106407811
 30
0.0
 40
0.3249999999675
100
AcDbArc
 50
270.0
 51
0.0
  0
ARC
  5
DB
330
2
100
AcDbEntity
  8
GAIKEI
  6
HIDDEN2
 62
     1
100
AcDbCircle
 10
-2.780835665886058
 20
24.45231106407317
 30
0.0
 40
0.3249999999675
100
AcDbArc
 50
0.0
 51
90.0
  0
ARC
  5
DC
330
2
100
AcDbEntity
  8
GAIKEI
  6
HIDDEN2
 62
     1
100
AcDbCircle
 10
-3.112314415852949
 20
25.02731106401564
 30
0.0
 40
0.249999999975
100
AcDbArc
 50
217.9798719999997
 51
270.0
  0
ARC
  5
DD
330
2
100
AcDbEntity
  8
GAIKEI
  6
HIDDEN2
 62
     1
100
AcDbCircle
 10
-3.880835665776146
 20
25.15205306400321
 30
0.0
 40
0.1002582499899742
100
AcDbArc
 50
355.8873210000001
 51
183.8197659999996
  0
ARC
  5
DE
330
2
100
AcDbEntity
  8
GAIKEI
  6
HIDDEN2
 62
     1
100
AcDbCircle
 10
-3.880835665776146
 20
24.4273110640757
 30
0.0
 40
0.7249999999274999
100
AcDbArc
 50
37.97987199999973
 51
82.06901600000037
  0
ARC
  5
DF
330
2
100
AcDbEntity
  8
GAIKEI
  6
HIDDEN2
 62
     1
100
AcDbCircle
 10
-3.112314415852949
 20
23.8273110641357
 30
0.0
 40
0.249999999975
100
AcDbArc
 50
90.0
 51
142.0201280000003
  0
ARC
  5
E0
330
2
100
AcDbEntity
  8
GAIKEI
  6
HIDDEN2
 62
     1
100
AcDbCircle
 10
-3.880835665776146
 20
23.70256931414821
 30
0.0
 40
0.1002582499899742
100
AcDbArc
 50
176.1802340000004
 51
4.112678999999948
  0
ARC
  5
E1
330
2
100
AcDbEntity
  8
GAIKEI
  6
HIDDEN2
 62
     1
100
AcDbCircle
 10
-3.880835665776146
 20
24.4273110640757
 30
0.0
 40
0.7249999999274999
100
AcDbArc
 50
277.9309839999996
 51
322.0201280000003
  0
ARC
  5
E2
330
2
100
AcDbEntity
  8
GAIKEI
  6
HIDDEN2
 62
     1
100
AcDbCircle
 10
-4.55937191570814
 20
24.68194681405015
 30
0.0
 40
0.1002582499899742
100
AcDbArc
 50
65.6119860000001
 51
253.2485960000009
  0
ARC
  5
E3
330
2
100
AcDbEntity
  8
GAIKEI
  6
HIDDEN2
 62
     1
100
AcDbCircle
 10
-3.880835665776146
 20
24.4273110640757
 30
0.0
 40
0.7249999999274999
100
AcDbArc
 50
167.3612749999991
 51
192.6387249999973
  0
ARC
  5
E4
330
2
100
AcDbEntity
  8
GAIKEI
  6
HIDDEN2
 62
     1
100
AcDbCircle
 10
-4.55937191570814
 20
24.1726755641011
 30
0.0
 40
0.1002582499899742
100
AcDbArc
 50
106.7514039999991
 51
294.6823879999998
  0
ARC
  5
E5
330
2
100
AcDbEntity
  8
GAIKEI
  6
HIDDEN2
 62
     1
100
AcDbCircle
 10
-3.880835665776146
 20
24.4273110640757
 30
0.0
 40
0.7249999999274999
100
AcDbArc
 50
97.93380099999502
 51
151.4993069999999
  0
ARC
  5
E6
330
2
100
AcDbEntity
  8
GAIKEI
  6
HIDDEN2
 62
     1
100
AcDbCircle
 10
-3.880835665776146
 20
24.4273110640757
 30
0.0
 40
0.7249999999274999
100
AcDbArc
 50
208.5035100000002
 51
262.0661989999985
  0
LINE
  5
E7
330
2
100
AcDbEntity
  8
GAIKEI
  6
HIDDEN2
 62
     1
100
AcDbLine
 10
-2.780835665886058
 20
24.77731106404059
 30
0.0
 11
-3.112314415852949
 21
24.77731106404059
 31
0.0
  0
LINE
  5
E8
330
2
100
AcDbEntity
  8
GAIKEI
  6
HIDDEN2
 62
     1
100
AcDbLine
 10
-2.780835665886058
 20
24.07731106411069
 30
0.0
 11
-3.112314415852949
 21
24.07731106411069
 31
0.0
  0
LINE
  5
E9
330
2
100
AcDbEntity
  8
GAIKEI
  6
HIDDEN2
 62
     1
100
AcDbLine
 10
-2.480835665916231
 20
10.77731106544064
 30
0.0
 11
-2.480835665916231
 21
11.02722306541562
 31
0.0
  0
ARC
  5
EA
330
2
100
AcDbEntity
  8
GAIKEI
  6
HIDDEN2
 62
     1
100
AcDbCircle
 10
-2.481093915916119
 20
11.12731106540565
 30
0.0
 40
0.1002582499899742
100
AcDbArc
 50
270.1475399999991
 51
93.33963399999896
  0
ARC
  5
EB
330
2
100
AcDbEntity
  8
GAIKEI
  6
HIDDEN2
 62
     1
100
AcDbCircle
 10
-2.693335665894835
 20
9.893869815529058
 30
0.0
 40
0.249999999975
100
AcDbArc
 50
124.7340099999986
 51
180.0
  0
ARC
  5
EC
330
2
100
AcDbEntity
  8
GAIKEI
  6
HIDDEN2
 62
     1
100
AcDbCircle
 10
-3.305835665833626
 20
10.77731106544064
 30
0.0
 40
0.8249999999174999
100
AcDbArc
 50
180.0
 51
235.2659900000014
  0
ARC
  5
ED
330
2
100
AcDbEntity
  8
GAIKEI
  6
HIDDEN2
 62
     1
100
AcDbCircle
 10
-3.918335665772303
 20
9.893869815529058
 30
0.0
 40
0.249999999975
100
AcDbArc
 50
0.0
 51
55.26599000000138
  0
LINE
  5
EE
330
2
100
AcDbEntity
  8
GAIKEI
  6
HIDDEN2
 62
     1
100
AcDbLine
 10
-4.130835665751135
 20
10.77731106544064
 30
0.0
 11
-4.130835665751135
 21
11.02705331541568
 31
0.0
  0
ARC
  5
EF
330
2
100
AcDbEntity
  8
GAIKEI
  6
HIDDEN2
 62
     1
100
AcDbCircle
 10
-4.130577665751104
 20
11.12731106540565
 30
0.0
 40
0.1002582499899742
100
AcDbArc
 50
86.66036600000103
 51
269.8524600000009
  0
ARC
  5
F0
330
2
100
AcDbEntity
  8
GAIKEI
  6
HIDDEN2
 62
     1
100
AcDbCircle
 10
-3.305835665833626
 20
11.12731106540565
 30
0.0
 40
0.8249999999174999
100
AcDbArc
 50
6.973576000000924
 51
173.0689550000012
  0
ARC
  5
F1
330
2
100
AcDbEntity
  8
GAIKEI
  6
HIDDEN2
 62
     1
100
AcDbCircle
 10
-3.305835665833626
 20
10.77731106544064
 30
0.0
 40
0.8249999999174999
100
AcDbArc
 50
304.7340099999987
 51
0.0
  0
ARC
  5
F2
330
2
100
AcDbEntity
  8
GAIKEI
  6
HIDDEN2
 62
     1
100
AcDbCircle
 10
-12.30583566493357
 20
29.05231106361322
 30
0.0
 40
0.1749999999825
100
AcDbArc
 50
90.0
 51
270.0
  0
ARC
  5
F3
330
2
100
AcDbEntity
  8
GAIKEI
  6
HIDDEN2
 62
     1
100
AcDbCircle
 10
-17.30583566443357
 20
29.05231106361322
 30
0.0
 40
0.1749999999825
100
AcDbArc
 50
270.0
 51
90.0
  0
ARC
  5
F4
330
2
100
AcDbEntity
  8
GAIKEI
  6
HIDDEN2
 62
     1
100
AcDbCircle
 10
-19.80583566418357
 20
28.05231106371315
 30
0.0
 40
0.49999999995
100
AcDbArc
 50
180.0
 51
0.0
  0
ARC
  5
F5
330
2
100
AcDbEntity
  8
GAIKEI
  6
HIDDEN2
 62
     1
100
AcDbCircle
 10
-19.80583566418357
 20
28.05231106371315
 30
0.0
 40
0.1749999999825
100
AcDbArc
 50
180.0
 51
0.0
  0
LINE
  5
F6
330
2
100
AcDbEntity
  8
GAIKEI
  6
HIDDEN2
 62
     1
100
AcDbLine
 10
-20.55583566410854
 20
28.87731106363066
 30
0.0
 11
-22.30583566393347
 21
28.87731106363066
 31
0.0
  0
LINE
  5
F7
330
2
100
AcDbEntity
  8
GAIKEI
  6
HIDDEN2
 62
     1
100
AcDbLine
 10
-20.55583566410854
 20
29.22731106359567
 30
0.0
 11
-22.30583566393347
 21
29.22731106359567
 31
0.0
  0
ARC
  5
F8
330
2
100
AcDbEntity
  8
GAIKEI
  6
HIDDEN2
 62
     1
100
AcDbCircle
 10
-22.30583566393347
 20
29.05231106361322
 30
0.0
 40
0.1749999999825
100
AcDbArc
 50
90.0
 51
270.0
  0
ARC
  5
F9
330
2
100
AcDbEntity
  8
GAIKEI
  6
HIDDEN2
 62
     1
100
AcDbCircle
 10
-19.05583566425861
 20
29.05231106361322
 30
0.0
 40
0.1749999999825
100
AcDbArc
 50
90.0
 51
270.0
  0
LINE
  5
FA
330
2
100
AcDbEntity
  8
GAIKEI
  6
HIDDEN2
 62
     1
100
AcDbLine
 10
-19.63083566420113
 20
28.86472106363198
 30
0.0
 11
-19.63083566420113
 21
29.05231106361322
 31
0.0
  0
ARC
  5
FB
330
2
100
AcDbEntity
  8
GAIKEI
  6
HIDDEN2
 62
     1
100
AcDbCircle
 10
-19.58083566420606
 20
28.86472106363198
 30
0.0
 40
0.049999999995
100
AcDbArc
 50
180.0
 51
234.2382859999955
  0
ARC
  5
FC
330
2
100
AcDbEntity
  8
GAIKEI
  6
HIDDEN2
 62
     1
100
AcDbCircle
 10
-20.55583566410854
 20
29.05231106361322
 30
0.0
 40
0.1749999999825
100
AcDbArc
 50
270.0
 51
90.0
  0
LINE
  5
FD
330
2
100
AcDbEntity
  8
GAIKEI
  6
HIDDEN2
 62
     1
100
AcDbLine
 10
-19.98083566416613
 20
28.86472106363198
 30
0.0
 11
-19.98083566416613
 21
29.05231106361322
 31
0.0
  0
ARC
  5
FE
330
2
100
AcDbEntity
  8
GAIKEI
  6
HIDDEN2
 62
     1
100
AcDbCircle
 10
-20.03083566416098
 20
28.86472106363198
 30
0.0
 40
0.049999999995
100
AcDbArc
 50
305.7617140000045
 51
0.0
  0
ARC
  5
FF
330
2
100
AcDbEntity
  8
GAIKEI
  6
HIDDEN2
 62
     1
100
AcDbCircle
 10
-19.80583566418357
 20
29.05231106361322
 30
0.0
 40
0.1749999999825
100
AcDbArc
 50
0.0
 51
180.0
  0
LINE
  5
100
330
2
100
AcDbEntity
  8
GAIKEI
  6
HIDDEN2
 62
     1
100
AcDbLine
 10
-19.63083566420113
 20
28.05231106371315
 30
0.0
 11
-19.63083566420113
 21
28.23990106369445
 31
0.0
  0
ARC
  5
101
330
2
100
AcDbEntity
  8
GAIKEI
  6
HIDDEN2
 62
     1
100
AcDbCircle
 10
-19.58083566420606
 20
28.23990106369445
 30
0.0
 40
0.049999999995
100
AcDbArc
 50
125.7617140000045
 51
180.0
  0
LINE
  5
102
330
2
100
AcDbEntity
  8
GAIKEI
  6
HIDDEN2
 62
     1
100
AcDbLine
 10
-19.98083566416613
 20
28.05231106371315
 30
0.0
 11
-19.98083566416613
 21
28.23990106369445
 31
0.0
  0
ARC
  5
103
330
2
100
AcDbEntity
  8
GAIKEI
  6
HIDDEN2
 62
     1
100
AcDbCircle
 10
-20.03083566416098
 20
28.23990106369445
 30
0.0
 40
0.049999999995
100
AcDbArc
 50
0.0
 51
54.23828599999552
  0
ARC
  5
104
330
2
100
AcDbEntity
  8
GAIKEI
  6
HIDDEN2
 62
     1
100
AcDbCircle
 10
-20.80583566408353
 20
28.05231106371315
 30
0.0
 40
0.49999999995
100
AcDbArc
 50
0.0
 51
90.0
  0
ARC
  5
105
330
2
100
AcDbEntity
  8
GAIKEI
  6
HIDDEN2
 62
     1
100
AcDbCircle
 10
-18.80583566428351
 20
28.05231106371315
 30
0.0
 40
0.49999999995
100
AcDbArc
 50
90.0
 51
180.0
  0
ARC
  5
106
330
2
100
AcDbEntity
  8
GAIKEI
  6
HIDDEN2
 62
     1
100
AcDbCircle
 10
-19.80583566418357
 20
28.55231106366318
 30
0.0
 40
0.3349999999665
100
AcDbArc
 50
125.7617140000045
 51
234.2382859999955
  0
ARC
  5
107
330
2
100
AcDbEntity
  8
GAIKEI
  6
HIDDEN2
 62
     1
100
AcDbCircle
 10
-19.80583566418357
 20
28.55231106366318
 30
0.0
 40
0.3349999999665
100
AcDbArc
 50
305.7617140000045
 51
54.23828599999552
  0
ARC
  5
108
330
2
100
AcDbEntity
  8
GAIKEI
  6
HIDDEN2
 62
     1
100
AcDbCircle
 10
-27.30583566343359
 20
29.05231106361322
 30
0.0
 40
0.1749999999825
100
AcDbArc
 50
270.0
 51
90.0
  0
LINE
  5
109
330
2
100
AcDbEntity
  8
GAIKEI
  6
HIDDEN2
 62
     1
100
AcDbLine
 10
-19.05583566425861
 20
28.87731106363066
 30
0.0
 11
-17.30583566443357
 21
28.87731106363066
 31
0.0
  0
LINE
  5
10A
330
2
100
AcDbEntity
  8
GAIKEI
  6
HIDDEN2
 62
     1
100
AcDbLine
 10
-19.05583566425861
 20
29.22731106359567
 30
0.0
 11
-17.30583566443357
 21
29.22731106359567
 31
0.0
  0
LINE
  5
10B
330
2
100
AcDbEntity
  8
GAIKEI
  6
HIDDEN2
 62
     1
100
AcDbLine
 10
-18.80583566428351
 20
28.55231106366318
 30
0.0
 11
-5.468335665617416
 21
28.55231106366318
 31
0.0
  0
LINE
  5
10C
330
2
100
AcDbEntity
  8
GAIKEI
  6
HIDDEN2
 62
     1
100
AcDbLine
 10
-7.305835665433676
 20
28.87731106363066
 30
0.0
 11
-12.30583566493357
 21
28.87731106363066
 31
0.0
  0
LINE
  5
10D
330
2
100
AcDbEntity
  8
GAIKEI
  6
HIDDEN2
 62
     1
100
AcDbLine
 10
-7.305835665433676
 20
29.22731106359567
 30
0.0
 11
-12.30583566493357
 21
29.22731106359567
 31
0.0
  0
ARC
  5
10E
330
2
100
AcDbEntity
  8
GAIKEI
  6
HIDDEN2
 62
     1
100
AcDbCircle
 10
-32.30583566293359
 20
29.05231106361322
 30
0.0
 40
0.1749999999825
100
AcDbArc
 50
90.0
 51
270.0
  0
LINE
  5
10F
330
2
100
AcDbEntity
  8
GAIKEI
  6
HIDDEN2
 62
     1
100
AcDbLine
 10
-34.64333566269994
 20
27.30231106378818
 30
0.0
 11
-34.64333566269994
 21
28.05231106371315
 31
0.0
  0
LINE
  5
110
330
2
100
AcDbEntity
  8
GAIKEI
  6
HIDDEN2
 62
     1
100
AcDbLine
 10
-37.96833566236723
 20
27.30231106378818
 30
0.0
 11
-37.96833566236723
 21
28.053393813713
 31
0.0
  0
LINE
  5
111
330
2
100
AcDbEntity
  8
GAIKEI
  6
HIDDEN2
 62
     1
100
AcDbLine
 10
-39.18083566224613
 20
27.20231106379817
 30
0.0
 11
-39.18083566224613
 21
29.95231106352316
 31
0.0
  0
LINE
  5
112
330
2
100
AcDbEntity
  8
GAIKEI
  6
HIDDEN2
 62
     1
100
AcDbLine
 10
-37.24591491243956
 20
27.04737906381371
 30
0.0
 11
-36.84294016247992
 21
26.70197206384819
 31
0.0
  0
LINE
  5
113
330
2
100
AcDbEntity
  8
GAIKEI
  6
HIDDEN2
 62
     1
100
AcDbLine
 10
-37.80583566238358
 20
27.17731106380069
 30
0.0
 11
-34.80583566268359
 21
27.17731106380069
 31
0.0
  0
LINE
  5
114
330
2
100
AcDbEntity
  8
GAIKEI
  6
HIDDEN2
 62
     1
100
AcDbLine
 10
-37.26963091243721
 20
27.07731106381067
 30
0.0
 11
-35.34204041262996
 21
27.07731106381067
 31
0.0
  0
LINE
  5
115
330
2
100
AcDbEntity
  8
GAIKEI
  6
HIDDEN2
 62
     1
100
AcDbLine
 10
-37.83083566238116
 20
27.17731106380069
 30
0.0
 11
-37.93083566237107
 21
27.17731106380069
 31
0.0
  0
LINE
  5
116
330
2
100
AcDbEntity
  8
GAIKEI
  6
HIDDEN2
 62
     1
100
AcDbLine
 10
-37.70583566239356
 20
27.07731106381067
 30
0.0
 11
-37.70583566239356
 21
27.17731106380069
 31
0.0
  0
LINE
  5
117
330
2
100
AcDbEntity
  8
GAIKEI
  6
HIDDEN2
 62
     1
100
AcDbLine
 10
-37.70583566239356
 20
27.07731106381067
 30
0.0
 11
-37.80583566238358
 21
27.07731106381067
 31
0.0
  0
POINT
  5
118
330
2
100
AcDbEntity
  8
GAIKEI
  6
HIDDEN2
 62
     1
100
AcDbPoint
 10
-37.28083566243612
 20
27.07731106381067
 30
0.0
  0
LINE
  5
119
330
2
100
AcDbEntity
  8
GAIKEI
  6
HIDDEN2
 62
     1
100
AcDbLine
 10
-37.28083566243612
 20
27.17731106380069
 30
0.0
 11
-37.28083566243612
 21
27.12330456380608
 31
0.0
  0
LINE
  5
11A
330
2
100
AcDbEntity
  8
GAIKEI
  6
HIDDEN2
 62
     1
100
AcDbLine
 10
-37.30583566243348
 20
27.20231106379817
 30
0.0
 11
-37.30583566243348
 21
27.30231106378818
 31
0.0
  0
LINE
  5
11B
330
2
100
AcDbEntity
  8
GAIKEI
  6
HIDDEN2
 62
     1
100
AcDbLine
 10
-37.80583566238358
 20
27.20231106379817
 30
0.0
 11
-37.80583566238358
 21
27.07731106381067
 31
0.0
  0
LINE
  5
11C
330
2
100
AcDbEntity
  8
GAIKEI
  6
HIDDEN2
 62
     1
100
AcDbLine
 10
-37.30583566243348
 20
27.30231106378818
 30
0.0
 11
-39.18083566224613
 21
27.30231106378818
 31
0.0
  0
LINE
  5
11D
330
2
100
AcDbEntity
  8
GAIKEI
  6
HIDDEN2
 62
     1
100
AcDbLine
 10
-37.93083566237107
 20
26.97731106382065
 30
0.0
 11
-37.80583566238358
 21
26.97731106382065
 31
0.0
  0
LINE
  5
11E
330
2
100
AcDbEntity
  8
GAIKEI
  6
HIDDEN2
 62
     1
100
AcDbLine
 10
-37.83083566238116
 20
27.17731106380069
 30
0.0
 11
-37.83083566238116
 21
26.97731106382065
 31
0.0
  0
ARC
  5
11F
330
2
100
AcDbEntity
  8
GAIKEI
  6
HIDDEN2
 62
     1
100
AcDbCircle
 10
-37.80583566238358
 20
27.07731106381067
 30
0.0
 40
0.09999999999
100
AcDbArc
 50
270.0
 51
0.0
  0
ARC
  5
120
330
2
100
AcDbEntity
  8
GAIKEI
  6
HIDDEN2
 62
     1
100
AcDbCircle
 10
-37.1808356624461
 20
27.12330456380608
 30
0.0
 40
0.09999999999
100
AcDbArc
 50
180.0
 51
229.3987049999998
  0
LINE
  5
121
330
2
100
AcDbEntity
  8
GAIKEI
  6
HIDDEN2
 62
     1
100
AcDbLine
 10
-34.78083566268612
 20
27.17731106380069
 30
0.0
 11
-34.6808356626961
 21
27.17731106380069
 31
0.0
  0
LINE
  5
122
330
2
100
AcDbEntity
  8
GAIKEI
  6
HIDDEN2
 62
     1
100
AcDbLine
 10
-34.90583566267361
 20
27.07731106381067
 30
0.0
 11
-34.90583566267361
 21
27.17731106380069
 31
0.0
  0
LINE
  5
123
330
2
100
AcDbEntity
  8
GAIKEI
  6
HIDDEN2
 62
     1
100
AcDbLine
 10
-34.90583566267361
 20
27.07731106381067
 30
0.0
 11
-34.80583566268359
 21
27.07731106381067
 31
0.0
  0
LINE
  5
124
330
2
100
AcDbEntity
  8
GAIKEI
  6
HIDDEN2
 62
     1
100
AcDbLine
 10
-34.80583566268359
 20
27.20231106379817
 30
0.0
 11
-34.80583566268359
 21
27.07731106381067
 31
0.0
  0
LINE
  5
125
330
2
100
AcDbEntity
  8
GAIKEI
  6
HIDDEN2
 62
     1
100
AcDbLine
 10
-34.6808356626961
 20
26.97731106382065
 30
0.0
 11
-34.80583566268359
 21
26.97731106382065
 31
0.0
  0
LINE
  5
126
330
2
100
AcDbEntity
  8
GAIKEI
  6
HIDDEN2
 62
     1
100
AcDbLine
 10
-34.78083566268612
 20
27.17731106380069
 30
0.0
 11
-34.78083566268612
 21
26.97731106382065
 31
0.0
  0
ARC
  5
127
330
2
100
AcDbEntity
  8
GAIKEI
  6
HIDDEN2
 62
     1
100
AcDbCircle
 10
-34.80583566268359
 20
27.07731106381067
 30
0.0
 40
0.09999999999
100
AcDbArc
 50
180.0
 51
270.0
  0
LINE
  5
128
330
2
100
AcDbEntity
  8
GAIKEI
  6
HIDDEN2
 62
     1
100
AcDbLine
 10
-35.33083566263105
 20
27.17731106380069
 30
0.0
 11
-35.33083566263105
 21
27.12330456380608
 31
0.0
  0
POINT
  5
129
330
2
100
AcDbEntity
  8
GAIKEI
  6
HIDDEN2
 62
     1
100
AcDbPoint
 10
-35.33083566263105
 20
27.07731106381067
 30
0.0
  0
ARC
  5
12A
330
2
100
AcDbEntity
  8
GAIKEI
  6
HIDDEN2
 62
     1
100
AcDbCircle
 10
-35.43083566262107
 20
27.12330456380608
 30
0.0
 40
0.09999999999
100
AcDbArc
 50
310.6012950000001
 51
0.0
  0
LINE
  5
12B
330
2
100
AcDbEntity
  8
GAIKEI
  6
HIDDEN2
 62
     1
100
AcDbLine
 10
-35.30583566263346
 20
27.20231106379817
 30
0.0
 11
-35.30583566263346
 21
27.30231106378818
 31
0.0
  0
LINE
  5
12C
330
2
100
AcDbEntity
  8
GAIKEI
  6
HIDDEN2
 62
     1
100
AcDbLine
 10
-35.94333566256984
 20
25.67731106395064
 30
0.0
 11
-35.94333566256984
 21
26.32234356388614
 31
0.0
  0
POINT
  5
12D
330
2
100
AcDbEntity
  8
GAIKEI
  6
HIDDEN2
 62
     1
100
AcDbPoint
 10
-35.94333566256984
 20
26.55231106386322
 30
0.0
  0
ARC
  5
12E
330
2
100
AcDbEntity
  8
GAIKEI
  6
HIDDEN2
 62
     1
100
AcDbCircle
 10
-35.44333566261986
 20
26.32234356388614
 30
0.0
 40
0.49999999995
100
AcDbArc
 50
130.6012950000002
 51
180.0
  0
LINE
  5
12F
330
2
100
AcDbEntity
  8
GAIKEI
  6
HIDDEN2
 62
     1
100
AcDbLine
 10
-36.66833566249733
 20
25.67731106395064
 30
0.0
 11
-36.66833566249733
 21
26.32234356388614
 31
0.0
  0
POINT
  5
130
330
2
100
AcDbEntity
  8
GAIKEI
  6
HIDDEN2
 62
     1
100
AcDbPoint
 10
-36.66833566249733
 20
26.55231106386322
 30
0.0
  0
ARC
  5
131
330
2
100
AcDbEntity
  8
GAIKEI
  6
HIDDEN2
 62
     1
100
AcDbCircle
 10
-37.16833566244742
 20
26.32234356388614
 30
0.0
 40
0.49999999995
100
AcDbArc
 50
0.0
 51
49.39870499999981
  0
LINE
  5
132
330
2
100
AcDbEntity
  8
GAIKEI
  6
HIDDEN2
 62
     1
100
AcDbLine
 10
-35.36575666262769
 20
27.04737906381371
 30
0.0
 11
-35.76873141258733
 21
26.70197206384819
 31
0.0
  0
LINE
  5
133
330
2
100
AcDbEntity
  8
GAIKEI
  6
HIDDEN2
 62
     1
100
AcDbLine
 10
-36.26833566253748
 20
25.35231106398323
 30
0.0
 11
-36.34333566252991
 21
25.35231106398323
 31
0.0
  0
ARC
  5
134
330
2
100
AcDbEntity
  8
GAIKEI
  6
HIDDEN2
 62
     1
100
AcDbCircle
 10
-36.34333566252991
 20
25.67731106395064
 30
0.0
 40
0.3249999999675
100
AcDbArc
 50
180.0
 51
270.0
  0
ARC
  5
135
330
2
100
AcDbEntity
  8
GAIKEI
  6
HIDDEN2
 62
     1
100
AcDbCircle
 10
-36.26833566253748
 20
25.67731106395064
 30
0.0
 40
0.3249999999675
100
AcDbArc
 50
270.0
 51
0.0
  0
LINE
  5
136
330
2
100
AcDbEntity
  8
GAIKEI
  6
HIDDEN2
 62
     1
100
AcDbLine
 10
-38.43083566232116
 20
28.87731106363066
 30
0.0
 11
-36.30583566253364
 21
28.87731106363066
 31
0.0
  0
LINE
  5
137
330
2
100
AcDbEntity
  8
GAIKEI
  6
HIDDEN2
 62
     1
100
AcDbLine
 10
-38.43083566232116
 20
29.22731106359567
 30
0.0
 11
-36.30583566253364
 21
29.22731106359567
 31
0.0
  0
LINE
  5
138
330
2
100
AcDbEntity
  8
GAIKEI
  6
HIDDEN2
 62
     1
100
AcDbLine
 10
-37.05083566245918
 20
28.21731106369663
 30
0.0
 11
-37.05083566245918
 21
28.06731106371172
 31
0.0
  0
LINE
  5
139
330
2
100
AcDbEntity
  8
GAIKEI
  6
HIDDEN2
 62
     1
100
AcDbLine
 10
-37.05583566245861
 20
28.1773110637007
 30
0.0
 11
-37.05583566245861
 21
28.06731106371172
 31
0.0
  0
ARC
  5
13A
330
2
100
AcDbEntity
  8
GAIKEI
  6
HIDDEN2
 62
     1
100
AcDbCircle
 10
-38.43083566232116
 20
29.05231106361322
 30
0.0
 40
0.1749999999825
100
AcDbArc
 50
90.0
 51
270.0
  0
ARC
  5
13B
330
2
100
AcDbEntity
  8
GAIKEI
  6
HIDDEN2
 62
     1
100
AcDbCircle
 10
-38.43083566232116
 20
29.05231106361322
 30
0.0
 40
0.49999999995
100
AcDbArc
 50
90.0
 51
270.0
  0
LINE
  5
13C
330
2
100
AcDbEntity
  8
GAIKEI
  6
HIDDEN2
 62
     1
100
AcDbLine
 10
-37.81083566238323
 20
28.21731106369663
 30
0.0
 11
-37.81083566238323
 21
28.06731106371172
 31
0.0
  0
LINE
  5
13D
330
2
100
AcDbEntity
  8
GAIKEI
  6
HIDDEN2
 62
     1
100
AcDbLine
 10
-37.80583566238358
 20
28.1773110637007
 30
0.0
 11
-37.80583566238358
 21
28.06731106371172
 31
0.0
  0
ARC
  5
13E
330
2
100
AcDbEntity
  8
GAIKEI
  6
HIDDEN2
 62
     1
100
AcDbCircle
 10
-38.46833566231732
 20
28.053393813713
 30
0.0
 40
0.49999999995
100
AcDbArc
 50
0.0
 51
85.69877800000073
  0
LINE
  5
13F
330
2
100
AcDbEntity
  8
GAIKEI
  6
HIDDEN2
 62
     1
100
AcDbLine
 10
-37.81083566238323
 20
28.21731106369663
 30
0.0
 11
-37.05083566245918
 21
28.21731106369663
 31
0.0
  0
LINE
  5
140
330
2
100
AcDbEntity
  8
GAIKEI
  6
HIDDEN2
 62
     1
100
AcDbLine
 10
-37.81083566238323
 20
28.06731106371172
 30
0.0
 11
-37.05083566245918
 21
28.06731106371172
 31
0.0
  0
LINE
  5
141
330
2
100
AcDbEntity
  8
GAIKEI
  6
HIDDEN2
 62
     1
100
AcDbLine
 10
-37.80583566238358
 20
28.1773110637007
 30
0.0
 11
-37.05583566245861
 21
28.1773110637007
 31
0.0
  0
LINE
  5
142
330
2
100
AcDbEntity
  8
GAIKEI
  6
HIDDEN2
 62
     1
100
AcDbLine
 10
-37.80583566238358
 20
28.07731106371068
 30
0.0
 11
-37.05583566245861
 21
28.07731106371068
 31
0.0
  0
ARC
  5
143
330
2
100
AcDbEntity
  8
GAIKEI
  6
HIDDEN2
 62
     1
100
AcDbCircle
 10
-36.30583566253364
 20
29.05231106361322
 30
0.0
 40
0.1749999999825
100
AcDbArc
 50
270.0
 51
90.0
  0
LINE
  5
144
330
2
100
AcDbEntity
  8
GAIKEI
  6
HIDDEN2
 62
     1
100
AcDbLine
 10
-34.80083566268428
 20
28.21731106369663
 30
0.0
 11
-34.80083566268428
 21
28.06731106371172
 31
0.0
  0
LINE
  5
145
330
2
100
AcDbEntity
  8
GAIKEI
  6
HIDDEN2
 62
     1
100
AcDbLine
 10
-34.80583566268359
 20
28.1773110637007
 30
0.0
 11
-34.80583566268359
 21
28.06731106371172
 31
0.0
  0
LINE
  5
146
330
2
100
AcDbEntity
  8
GAIKEI
  6
HIDDEN2
 62
     1
100
AcDbLine
 10
-35.56083566260821
 20
28.21731106369663
 30
0.0
 11
-35.56083566260821
 21
28.06731106371172
 31
0.0
  0
LINE
  5
147
330
2
100
AcDbEntity
  8
GAIKEI
  6
HIDDEN2
 62
     1
100
AcDbLine
 10
-35.55583566260856
 20
28.1773110637007
 30
0.0
 11
-35.55583566260856
 21
28.06731106371172
 31
0.0
  0
LINE
  5
148
330
2
100
AcDbEntity
  8
GAIKEI
  6
HIDDEN2
 62
     1
100
AcDbLine
 10
-34.80083566268428
 20
28.21731106369663
 30
0.0
 11
-35.56083566260821
 21
28.21731106369663
 31
0.0
  0
LINE
  5
149
330
2
100
AcDbEntity
  8
GAIKEI
  6
HIDDEN2
 62
     1
100
AcDbLine
 10
-34.80083566268428
 20
28.06731106371172
 30
0.0
 11
-35.56083566260821
 21
28.06731106371172
 31
0.0
  0
LINE
  5
14A
330
2
100
AcDbEntity
  8
GAIKEI
  6
HIDDEN2
 62
     1
100
AcDbLine
 10
-35.55583566260856
 20
28.1773110637007
 30
0.0
 11
-34.80583566268359
 21
28.1773110637007
 31
0.0
  0
LINE
  5
14B
330
2
100
AcDbEntity
  8
GAIKEI
  6
HIDDEN2
 62
     1
100
AcDbLine
 10
-35.55583566260856
 20
28.07731106371068
 30
0.0
 11
-34.80583566268359
 21
28.07731106371068
 31
0.0
  0
ARC
  5
14C
330
2
100
AcDbEntity
  8
GAIKEI
  6
HIDDEN2
 62
     1
100
AcDbCircle
 10
-34.14333566274996
 20
28.05231106371315
 30
0.0
 40
0.49999999995
100
AcDbArc
 50
90.0
 51
180.0
  0
LINE
  5
14D
330
2
100
AcDbEntity
  8
GAIKEI
  6
HIDDEN2
 62
     1
100
AcDbLine
 10
-35.78083566258619
 20
24.78981106403939
 30
0.0
 11
-36.90221016247387
 21
24.78981106403939
 31
0.0
  0
LINE
  5
14E
330
2
100
AcDbEntity
  8
GAIKEI
  6
HIDDEN2
 62
     1
100
AcDbLine
 10
-35.78083566258619
 20
24.06481106411189
 30
0.0
 11
-36.90221016247387
 21
24.06481106411189
 31
0.0
  0
POINT
  5
14F
330
2
100
AcDbEntity
  8
GAIKEI
  6
HIDDEN2
 62
     1
100
AcDbPoint
 10
-37.13083566245103
 20
24.78981106403939
 30
0.0
  0
POINT
  5
150
330
2
100
AcDbEntity
  8
GAIKEI
  6
HIDDEN2
 62
     1
100
AcDbPoint
 10
-37.13083566245103
 20
24.06481106411189
 30
0.0
  0
LINE
  5
151
330
2
100
AcDbEntity
  8
GAIKEI
  6
HIDDEN2
 62
     1
100
AcDbLine
 10
-37.93083566237107
 20
25.25231106399321
 30
0.0
 11
-37.64514866239978
 21
25.25231106399321
 31
0.0
  0
LINE
  5
152
330
2
100
AcDbEntity
  8
GAIKEI
  6
HIDDEN2
 62
     1
100
AcDbLine
 10
-37.28039166243622
 20
24.96273506402207
 30
0.0
 11
-37.45605791241854
 21
25.16584906400181
 31
0.0
  0
ARC
  5
153
330
2
100
AcDbEntity
  8
GAIKEI
  6
HIDDEN2
 62
     1
100
AcDbCircle
 10
-37.64514866239978
 20
25.0023110640181
 30
0.0
 40
0.249999999975
100
AcDbArc
 50
40.85537599999966
 51
90.0
  0
LINE
  5
154
330
2
100
AcDbEntity
  8
GAIKEI
  6
HIDDEN2
 62
     1
100
AcDbLine
 10
-37.93083566237107
 20
23.60231106415819
 30
0.0
 11
-37.64514866239978
 21
23.60231106415819
 31
0.0
  0
LINE
  5
155
330
2
100
AcDbEntity
  8
GAIKEI
  6
HIDDEN2
 62
     1
100
AcDbLine
 10
-37.28039166243622
 20
23.89188706412921
 30
0.0
 11
-37.45605791241854
 21
23.68877306414953
 31
0.0
  0
POINT
  5
156
330
2
100
AcDbEntity
  8
GAIKEI
  6
HIDDEN2
 62
     1
100
AcDbPoint
 10
-37.53083566241111
 20
23.60231106415819
 30
0.0
  0
ARC
  5
157
330
2
100
AcDbEntity
  8
GAIKEI
  6
HIDDEN2
 62
     1
100
AcDbCircle
 10
-37.64514866239978
 20
23.85231106413318
 30
0.0
 40
0.249999999975
100
AcDbArc
 50
270.0
 51
319.1446240000003
  0
LINE
  5
158
330
2
100
AcDbEntity
  8
GAIKEI
  6
HIDDEN2
 62
     1
100
AcDbLine
 10
-37.83083566238116
 20
25.25231106399321
 30
0.0
 11
-37.83083566238116
 21
23.60231106415819
 31
0.0
  0
ARC
  5
159
330
2
100
AcDbEntity
  8
GAIKEI
  6
HIDDEN2
 62
     1
100
AcDbCircle
 10
-36.90221016247387
 20
23.56481106416191
 30
0.0
 40
0.49999999995
100
AcDbArc
 50
90.0
 51
139.1446240000003
  0
ARC
  5
15A
330
2
100
AcDbEntity
  8
GAIKEI
  6
HIDDEN2
 62
     1
100
AcDbCircle
 10
-36.90221016247387
 20
25.28981106398936
 30
0.0
 40
0.49999999995
100
AcDbArc
 50
220.8553759999996
 51
270.0
  0
LINE
  5
15B
330
2
100
AcDbEntity
  8
GAIKEI
  6
HIDDEN2
 62
     1
100
AcDbLine
 10
-35.45583566261865
 20
24.38981106407942
 30
0.0
 11
-35.45583566261865
 21
24.46481106407186
 31
0.0
  0
ARC
  5
15C
330
2
100
AcDbEntity
  8
GAIKEI
  6
HIDDEN2
 62
     1
100
AcDbCircle
 10
-35.78083566258619
 20
24.46481106407186
 30
0.0
 40
0.3249999999675
100
AcDbArc
 50
0.0
 51
90.0
  0
ARC
  5
15D
330
2
100
AcDbEntity
  8
GAIKEI
  6
HIDDEN2
 62
     1
100
AcDbCircle
 10
-35.78083566258619
 20
24.38981106407942
 30
0.0
 40
0.3249999999675
100
AcDbArc
 50
270.0
 51
0.0
  0
ARC
  5
15E
330
2
100
AcDbEntity
  8
GAIKEI
  6
HIDDEN2
 62
     1
100
AcDbCircle
 10
-36.30583566253364
 20
11.12731106540565
 30
0.0
 40
0.8249999999174999
100
AcDbArc
 50
6.93104499999877
 51
173.026423999999
  0
ARC
  5
15F
330
2
100
AcDbEntity
  8
GAIKEI
  6
HIDDEN2
 62
     1
100
AcDbCircle
 10
-36.30583566253364
 20
10.77731106544064
 30
0.0
 40
0.8249999999174999
100
AcDbArc
 50
180.0
 51
235.2659900000014
  0
LINE
  5
160
330
2
100
AcDbEntity
  8
GAIKEI
  6
HIDDEN2
 62
     1
100
AcDbLine
 10
-37.13083566245103
 20
10.77731106544064
 30
0.0
 11
-37.13083566245103
 21
11.02722306541562
 31
0.0
  0
ARC
  5
161
330
2
100
AcDbEntity
  8
GAIKEI
  6
HIDDEN2
 62
     1
100
AcDbCircle
 10
-37.130577662451
 20
11.12731106540565
 30
0.0
 40
0.1002582499899742
100
AcDbArc
 50
86.66036600000103
 51
269.8524600000009
  0
ARC
  5
162
330
2
100
AcDbEntity
  8
GAIKEI
  6
HIDDEN2
 62
     1
100
AcDbCircle
 10
-36.30583566253364
 20
10.77731106544064
 30
0.0
 40
0.8249999999174999
100
AcDbArc
 50
304.7340099999987
 51
0.0
  0
ARC
  5
163
330
2
100
AcDbEntity
  8
GAIKEI
  6
HIDDEN2
 62
     1
100
AcDbCircle
 10
-35.69333566259496
 20
9.893869815529058
 30
0.0
 40
0.249999999975
100
AcDbArc
 50
124.7340099999986
 51
180.0
  0
LINE
  5
164
330
2
100
AcDbEntity
  8
GAIKEI
  6
HIDDEN2
 62
     1
100
AcDbLine
 10
-35.48083566261613
 20
10.77731106544064
 30
0.0
 11
-35.48083566261613
 21
11.02705331541568
 31
0.0
  0
ARC
  5
165
330
2
100
AcDbEntity
  8
GAIKEI
  6
HIDDEN2
 62
     1
100
AcDbCircle
 10
-36.91833566247243
 20
9.893869815529058
 30
0.0
 40
0.249999999975
100
AcDbArc
 50
0.0
 51
55.26599000000138
  0
ARC
  5
166
330
2
100
AcDbEntity
  8
GAIKEI
  6
HIDDEN2
 62
     1
100
AcDbCircle
 10
-35.48109391261602
 20
11.12731106540565
 30
0.0
 40
0.1002582499899742
100
AcDbArc
 50
270.1475399999991
 51
93.33963399999896
  0
LINE
  5
167
330
2
100
AcDbEntity
  8
GAIKEI
  6
HIDDEN2
 62
     1
100
AcDbLine
 10
-20.80583566408353
 20
28.55231106366318
 30
0.0
 11
-34.14333566274996
 21
28.55231106366318
 31
0.0
  0
LINE
  5
168
330
2
100
AcDbEntity
  8
GAIKEI
  6
HIDDEN2
 62
     1
100
AcDbLine
 10
-0.4308356661211406
 20
29.95231106352316
 30
0.0
 11
-39.18083566224613
 21
29.95231106352316
 31
0.0
  0
LINE
  5
169
330
2
100
AcDbEntity
  8
GAIKEI
  6
HIDDEN2
 62
     1
100
AcDbLine
 10
-0.4308356661211406
 20
29.85231106353314
 30
0.0
 11
-39.18083566224613
 21
29.85231106353314
 31
0.0
  0
LINE
  5
16A
330
2
100
AcDbEntity
  8
GAIKEI
  6
HIDDEN2
 62
     1
100
AcDbLine
 10
-1.180835666046107
 20
29.5523110635632
 30
0.0
 11
-38.43083566232116
 21
29.5523110635632
 31
0.0
  0
LINE
  5
16B
330
2
100
AcDbEntity
  8
GAIKEI
  6
HIDDEN2
 62
     1
100
AcDbLine
 10
-4.305835665733582
 20
27.30231106378818
 30
0.0
 11
-35.30583566263346
 21
27.30231106378818
 31
0.0
  0
LINE
  5
16C
330
2
100
AcDbEntity
  8
GAIKEI
  6
HIDDEN2
 62
     1
100
AcDbLine
 10
-39.18083566224613
 20
27.20231106379817
 30
0.0
 11
-0.4308356661211406
 21
27.20231106379817
 31
0.0
  0
LINE
  5
16D
330
2
100
AcDbEntity
  8
GAIKEI
  6
HIDDEN2
 62
     1
100
AcDbLine
 10
-32.30583566293359
 20
28.87731106363066
 30
0.0
 11
-27.30583566343359
 21
28.87731106363066
 31
0.0
  0
LINE
  5
16E
330
2
100
AcDbEntity
  8
GAIKEI
  6
HIDDEN2
 62
     1
100
AcDbLine
 10
-32.30583566293359
 20
29.22731106359567
 30
0.0
 11
-27.30583566343359
 21
29.22731106359567
 31
0.0
  0
ARC
  5
16F
330
2
100
AcDbEntity
  8
GAIKEI
  6
HIDDEN2
 62
     1
100
AcDbCircle
 10
-1.180835666046107
 20
5.05231106601326
 30
0.0
 40
0.49999999995
100
AcDbArc
 50
270.0
 51
90.0
  0
LINE
  5
170
330
2
100
AcDbEntity
  8
GAIKEI
  6
HIDDEN2
 62
     1
100
AcDbLine
 10
-0.4308356661211406
 20
6.902311065828087
 30
0.0
 11
-0.4308356661211406
 21
4.152311066103095
 31
0.0
  0
LINE
  5
171
330
2
100
AcDbEntity
  8
GAIKEI
  6
HIDDEN2
 62
     1
100
AcDbLine
 10
-2.455835665918641
 20
8.389811065679452
 30
0.0
 11
-2.455835665918641
 21
8.464811065671881
 31
0.0
  0
ARC
  5
172
330
2
100
AcDbEntity
  8
GAIKEI
  6
HIDDEN2
 62
     1
100
AcDbCircle
 10
-2.780835665886058
 20
8.4523110656732
 30
0.0
 40
0.3249999999675
100
AcDbArc
 50
2.202597999999976
 51
90.0
  0
LINE
  5
173
330
2
100
AcDbEntity
  8
GAIKEI
  6
HIDDEN2
 62
     1
100
AcDbLine
 10
-1.780835665986103
 20
6.927311065825733
 30
0.0
 11
-1.780835665986103
 21
7.127311065805713
 31
0.0
  0
LINE
  5
174
330
2
100
AcDbEntity
  8
GAIKEI
  6
HIDDEN2
 62
     1
100
AcDbLine
 10
-1.680835665996085
 20
7.127311065805713
 30
0.0
 11
-1.805835665983465
 21
7.127311065805713
 31
0.0
  0
LINE
  5
175
330
2
100
AcDbEntity
  8
GAIKEI
  6
HIDDEN2
 62
     1
100
AcDbLine
 10
-1.780835665986103
 20
6.927311065825733
 30
0.0
 11
-1.680835665996085
 21
6.927311065825733
 31
0.0
  0
ARC
  5
176
330
2
100
AcDbEntity
  8
GAIKEI
  6
HIDDEN2
 62
     1
100
AcDbCircle
 10
-1.805835665983465
 20
7.027311065815695
 30
0.0
 40
0.09999999999
100
AcDbArc
 50
90.0
 51
180.0
  0
LINE
  5
177
330
2
100
AcDbEntity
  8
GAIKEI
  6
HIDDEN2
 62
     1
100
AcDbLine
 10
-1.905835665973484
 20
7.027311065815695
 30
0.0
 11
-1.905835665973484
 21
6.927311065825733
 31
0.0
  0
LINE
  5
178
330
2
100
AcDbEntity
  8
GAIKEI
  6
HIDDEN2
 62
     1
100
AcDbLine
 10
-1.905835665973484
 20
7.027311065815695
 30
0.0
 11
-1.805835665983465
 21
7.027311065815695
 31
0.0
  0
LINE
  5
179
330
2
100
AcDbEntity
  8
GAIKEI
  6
HIDDEN2
 62
     1
100
AcDbLine
 10
-2.305835665933557
 20
6.902311065828087
 30
0.0
 11
-2.305835665933557
 21
6.802311065838182
 31
0.0
  0
LINE
  5
17A
330
2
100
AcDbEntity
  8
GAIKEI
  6
HIDDEN2
 62
     1
100
AcDbLine
 10
-1.805835665983465
 20
6.902311065828087
 30
0.0
 11
-1.805835665983465
 21
7.027311065815695
 31
0.0
  0
LINE
  5
17B
330
2
100
AcDbEntity
  8
GAIKEI
  6
HIDDEN2
 62
     1
100
AcDbLine
 10
-2.305835665933557
 20
6.802311065838182
 30
0.0
 11
-0.4308356661211406
 21
6.802311065838182
 31
0.0
  0
LINE
  5
17C
330
2
100
AcDbEntity
  8
GAIKEI
  6
HIDDEN2
 62
     1
100
AcDbLine
 10
-1.800835665984152
 20
5.887311065929623
 30
0.0
 11
-1.800835665984152
 21
6.037311065914593
 31
0.0
  0
LINE
  5
17D
330
2
100
AcDbEntity
  8
GAIKEI
  6
HIDDEN2
 62
     1
100
AcDbLine
 10
-1.805835665983465
 20
5.927311065925721
 30
0.0
 11
-1.805835665983465
 21
6.037311065914593
 31
0.0
  0
ARC
  5
17E
330
2
100
AcDbEntity
  8
GAIKEI
  6
HIDDEN2
 62
     1
100
AcDbCircle
 10
-1.143335666049949
 20
6.051228565913277
 30
0.0
 40
0.49999999995
100
AcDbArc
 50
180.0
 51
265.6987780000008
  0
LINE
  5
17F
330
2
100
AcDbEntity
  8
GAIKEI
  6
HIDDEN2
 62
     1
100
AcDbLine
 10
-1.643335665999813
 20
6.802311065838182
 30
0.0
 11
-1.643335665999813
 21
6.051228565913277
 31
0.0
  0
LINE
  5
180
330
2
100
AcDbEntity
  8
GAIKEI
  6
HIDDEN2
 62
     1
100
AcDbLine
 10
-2.560835665908086
 20
5.887311065929623
 30
0.0
 11
-2.560835665908086
 21
6.037311065914593
 31
0.0
  0
LINE
  5
181
330
2
100
AcDbEntity
  8
GAIKEI
  6
HIDDEN2
 62
     1
100
AcDbLine
 10
-2.555835665908659
 20
5.927311065925721
 30
0.0
 11
-2.555835665908659
 21
6.037311065914593
 31
0.0
  0
LINE
  5
182
330
2
100
AcDbEntity
  8
GAIKEI
  6
HIDDEN2
 62
     1
100
AcDbLine
 10
-1.800835665984152
 20
5.887311065929623
 30
0.0
 11
-2.560835665908086
 21
5.887311065929623
 31
0.0
  0
LINE
  5
183
330
2
100
AcDbEntity
  8
GAIKEI
  6
HIDDEN2
 62
     1
100
AcDbLine
 10
-1.800835665984152
 20
6.037311065914593
 30
0.0
 11
-2.560835665908086
 21
6.037311065914593
 31
0.0
  0
LINE
  5
184
330
2
100
AcDbEntity
  8
GAIKEI
  6
HIDDEN2
 62
     1
100
AcDbLine
 10
-2.555835665908659
 20
5.927311065925721
 30
0.0
 11
-1.805835665983465
 21
5.927311065925721
 31
0.0
  0
LINE
  5
185
330
2
100
AcDbEntity
  8
GAIKEI
  6
HIDDEN2
 62
     1
100
AcDbLine
 10
-2.555835665908659
 20
6.027311065915625
 30
0.0
 11
-1.805835665983465
 21
6.027311065915625
 31
0.0
  0
ARC
  5
186
330
2
100
AcDbEntity
  8
GAIKEI
  6
HIDDEN2
 62
     1
100
AcDbCircle
 10
-1.180835666046107
 20
5.05231106601326
 30
0.0
 40
0.1749999999825
100
AcDbArc
 50
270.0
 51
90.0
  0
ARC
  5
187
330
2
100
AcDbEntity
  8
GAIKEI
  6
HIDDEN2
 62
     1
100
AcDbCircle
 10
-2.780835665886058
 20
8.402311065678134
 30
0.0
 40
0.3249999999675
100
AcDbArc
 50
270.0
 51
357.797402
  0
ARC
  5
188
330
2
100
AcDbEntity
  8
GAIKEI
  6
HIDDEN2
 62
     1
100
AcDbCircle
 10
-5.468335665617416
 20
6.052311065913215
 30
0.0
 40
0.49999999995
100
AcDbArc
 50
270.0
 51
0.0
  0
ARC
  5
189
330
2
100
AcDbEntity
  8
GAIKEI
  6
HIDDEN2
 62
     1
100
AcDbCircle
 10
-7.305835665433676
 20
5.05231106601326
 30
0.0
 40
0.1749999999825
100
AcDbArc
 50
270.0
 51
90.0
  0
LINE
  5
18A
330
2
100
AcDbEntity
  8
GAIKEI
  6
HIDDEN2
 62
     1
100
AcDbLine
 10
-3.343335665829783
 20
9.352311065583137
 30
0.0
 11
-3.268335665837355
 21
9.352311065583137
 31
0.0
  0
ARC
  5
18B
330
2
100
AcDbEntity
  8
GAIKEI
  6
HIDDEN2
 62
     1
100
AcDbCircle
 10
-3.112314415852949
 20
9.027311065615606
 30
0.0
 40
0.249999999975
100
AcDbArc
 50
217.9798719999997
 51
270.0
  0
ARC
  5
18C
330
2
100
AcDbEntity
  8
GAIKEI
  6
HIDDEN2
 62
     1
100
AcDbCircle
 10
-3.880835665776146
 20
9.152053065603297
 30
0.0
 40
0.1002582499899742
100
AcDbArc
 50
355.8873210000001
 51
184.1126789999999
  0
ARC
  5
18D
330
2
100
AcDbEntity
  8
GAIKEI
  6
HIDDEN2
 62
     1
100
AcDbCircle
 10
-3.880835665776146
 20
8.427311065675723
 30
0.0
 40
0.7249999999274999
100
AcDbArc
 50
37.97987199999973
 51
82.06901600000037
  0
ARC
  5
18E
330
2
100
AcDbEntity
  8
GAIKEI
  6
HIDDEN2
 62
     1
100
AcDbCircle
 10
-3.343335665829783
 20
9.677311065550725
 30
0.0
 40
0.3249999999675
100
AcDbArc
 50
180.0
 51
270.0
  0
ARC
  5
18F
330
2
100
AcDbEntity
  8
GAIKEI
  6
HIDDEN2
 62
     1
100
AcDbCircle
 10
-3.268335665837355
 20
9.677311065550725
 30
0.0
 40
0.3249999999675
100
AcDbArc
 50
270.0
 51
0.0
  0
ARC
  5
190
330
2
100
AcDbEntity
  8
GAIKEI
  6
HIDDEN2
 62
     1
100
AcDbCircle
 10
-3.112314415852949
 20
7.827311065735614
 30
0.0
 40
0.249999999975
100
AcDbArc
 50
90.0
 51
142.0201280000003
  0
LINE
  5
191
330
2
100
AcDbEntity
  8
GAIKEI
  6
HIDDEN2
 62
     1
100
AcDbLine
 10
-4.305835665733582
 20
6.902311065828087
 30
0.0
 11
-4.305835665733582
 21
6.802311065838182
 31
0.0
  0
POINT
  5
192
330
2
100
AcDbEntity
  8
GAIKEI
  6
HIDDEN2
 62
     1
100
AcDbPoint
 10
-4.030835665761117
 20
8.064811065711921
 30
0.0
  0
ARC
  5
193
330
2
100
AcDbEntity
  8
GAIKEI
  6
HIDDEN2
 62
     1
100
AcDbCircle
 10
-3.880835665776146
 20
7.702569315748121
 30
0.0
 40
0.1002582499899742
100
AcDbArc
 50
175.887321
 51
4.112678999999948
  0
ARC
  5
194
330
2
100
AcDbEntity
  8
GAIKEI
  6
HIDDEN2
 62
     1
100
AcDbCircle
 10
-3.880835665776146
 20
8.427311065675723
 30
0.0
 40
0.7249999999274999
100
AcDbArc
 50
277.9309839999996
 51
322.0201280000003
  0
LINE
  5
195
330
2
100
AcDbEntity
  8
GAIKEI
  6
HIDDEN2
 62
     1
100
AcDbLine
 10
-4.050835665759279
 20
5.887311065929623
 30
0.0
 11
-4.050835665759279
 21
6.037311065914593
 31
0.0
  0
LINE
  5
196
330
2
100
AcDbEntity
  8
GAIKEI
  6
HIDDEN2
 62
     1
100
AcDbLine
 10
-4.055835665758593
 20
5.927311065925721
 30
0.0
 11
-4.055835665758593
 21
6.037311065914593
 31
0.0
  0
ARC
  5
197
330
2
100
AcDbEntity
  8
GAIKEI
  6
HIDDEN2
 62
     1
100
AcDbCircle
 10
-3.305835665833626
 20
5.05231106601326
 30
0.0
 40
0.1749999999825
100
AcDbArc
 50
90.0
 51
270.0
  0
ARC
  5
198
330
2
100
AcDbEntity
  8
GAIKEI
  6
HIDDEN2
 62
     1
100
AcDbCircle
 10
-4.55937191570814
 20
8.681946815650178
 30
0.0
 40
0.1002582499899742
100
AcDbArc
 50
65.6119860000001
 51
253.2485960000009
  0
ARC
  5
199
330
2
100
AcDbEntity
  8
GAIKEI
  6
HIDDEN2
 62
     1
100
AcDbCircle
 10
-3.880835665776146
 20
8.427311065675723
 30
0.0
 40
0.7249999999274999
100
AcDbArc
 50
167.3612749999991
 51
192.6387249999973
  0
LINE
  5
19A
330
2
100
AcDbEntity
  8
GAIKEI
  6
HIDDEN2
 62
     1
100
AcDbLine
 10
-4.830835665681149
 20
6.927311065825733
 30
0.0
 11
-4.830835665681149
 21
7.127311065805713
 31
0.0
  0
LINE
  5
19B
330
2
100
AcDbEntity
  8
GAIKEI
  6
HIDDEN2
 62
     1
100
AcDbLine
 10
-4.930835665671168
 20
7.127311065805713
 30
0.0
 11
-4.805835665683559
 21
7.127311065805713
 31
0.0
  0
LINE
  5
19C
330
2
100
AcDbEntity
  8
GAIKEI
  6
HIDDEN2
 62
     1
100
AcDbLine
 10
-4.830835665681149
 20
6.927311065825733
 30
0.0
 11
-4.930835665671168
 21
6.927311065825733
 31
0.0
  0
ARC
  5
19D
330
2
100
AcDbEntity
  8
GAIKEI
  6
HIDDEN2
 62
     1
100
AcDbCircle
 10
-4.805835665683559
 20
7.027311065815695
 30
0.0
 40
0.09999999999
100
AcDbArc
 50
0.0
 51
90.0
  0
LINE
  5
19E
330
2
100
AcDbEntity
  8
GAIKEI
  6
HIDDEN2
 62
     1
100
AcDbLine
 10
-4.705835665693655
 20
7.027311065815695
 30
0.0
 11
-4.705835665693655
 21
6.927311065825733
 31
0.0
  0
LINE
  5
19F
330
2
100
AcDbEntity
  8
GAIKEI
  6
HIDDEN2
 62
     1
100
AcDbLine
 10
-4.705835665693655
 20
7.027311065815695
 30
0.0
 11
-4.805835665683559
 21
7.027311065815695
 31
0.0
  0
LINE
  5
1A0
330
2
100
AcDbEntity
  8
GAIKEI
  6
HIDDEN2
 62
     1
100
AcDbLine
 10
-4.805835665683559
 20
6.902311065828087
 30
0.0
 11
-4.805835665683559
 21
7.027311065815695
 31
0.0
  0
LINE
  5
1A1
330
2
100
AcDbEntity
  8
GAIKEI
  6
HIDDEN2
 62
     1
100
AcDbLine
 10
-4.810835665683214
 20
5.887311065929623
 30
0.0
 11
-4.810835665683214
 21
6.037311065914593
 31
0.0
  0
LINE
  5
1A2
330
2
100
AcDbEntity
  8
GAIKEI
  6
HIDDEN2
 62
     1
100
AcDbLine
 10
-4.805835665683559
 20
5.927311065925721
 30
0.0
 11
-4.805835665683559
 21
6.037311065914593
 31
0.0
  0
LINE
  5
1A3
330
2
100
AcDbEntity
  8
GAIKEI
  6
HIDDEN2
 62
     1
100
AcDbLine
 10
-4.968335665667325
 20
6.802311065838182
 30
0.0
 11
-4.968335665667325
 21
6.052311065913215
 31
0.0
  0
ARC
  5
1A4
330
2
100
AcDbEntity
  8
GAIKEI
  6
HIDDEN2
 62
     1
100
AcDbCircle
 10
-4.55937191570814
 20
8.172675565701126
 30
0.0
 40
0.1002582499899742
100
AcDbArc
 50
106.7514039999991
 51
294.6823879999998
  0
LINE
  5
1A5
330
2
100
AcDbEntity
  8
GAIKEI
  6
HIDDEN2
 62
     1
100
AcDbLine
 10
-4.810835665683214
 20
5.887311065929623
 30
0.0
 11
-4.050835665759279
 21
5.887311065929623
 31
0.0
  0
LINE
  5
1A6
330
2
100
AcDbEntity
  8
GAIKEI
  6
HIDDEN2
 62
     1
100
AcDbLine
 10
-4.810835665683214
 20
6.037311065914593
 30
0.0
 11
-4.050835665759279
 21
6.037311065914593
 31
0.0
  0
LINE
  5
1A7
330
2
100
AcDbEntity
  8
GAIKEI
  6
HIDDEN2
 62
     1
100
AcDbLine
 10
-4.805835665683559
 20
5.927311065925721
 30
0.0
 11
-4.055835665758593
 21
5.927311065925721
 31
0.0
  0
LINE
  5
1A8
330
2
100
AcDbEntity
  8
GAIKEI
  6
HIDDEN2
 62
     1
100
AcDbLine
 10
-4.805835665683559
 20
6.027311065915625
 30
0.0
 11
-4.055835665758593
 21
6.027311065915625
 31
0.0
  0
ARC
  5
1A9
330
2
100
AcDbEntity
  8
GAIKEI
  6
HIDDEN2
 62
     1
100
AcDbCircle
 10
-3.880835665776146
 20
8.427311065675723
 30
0.0
 40
0.7249999999274999
100
AcDbArc
 50
97.93380099999502
 51
151.4993069999999
  0
ARC
  5
1AA
330
2
100
AcDbEntity
  8
GAIKEI
  6
HIDDEN2
 62
     1
100
AcDbCircle
 10
-3.880835665776146
 20
8.427311065675723
 30
0.0
 40
0.7249999999274999
100
AcDbArc
 50
208.5035100000002
 51
262.0661989999985
  0
LINE
  5
1AB
330
2
100
AcDbEntity
  8
GAIKEI
  6
HIDDEN2
 62
     1
100
AcDbLine
 10
-2.780835665886058
 20
8.777311065640617
 30
0.0
 11
-3.112314415852949
 21
8.777311065640617
 31
0.0
  0
LINE
  5
1AC
330
2
100
AcDbEntity
  8
GAIKEI
  6
HIDDEN2
 62
     1
100
AcDbLine
 10
-2.780835665886058
 20
8.077311065710716
 30
0.0
 11
-3.112314415852949
 21
8.077311065710716
 31
0.0
  0
LINE
  5
1AD
330
2
100
AcDbEntity
  8
GAIKEI
  6
HIDDEN2
 62
     1
100
AcDbLine
 10
-1.180835666046107
 20
5.227311065995706
 30
0.0
 11
-3.305835665833626
 21
5.227311065995706
 31
0.0
  0
LINE
  5
1AE
330
2
100
AcDbEntity
  8
GAIKEI
  6
HIDDEN2
 62
     1
100
AcDbLine
 10
-1.180835666046107
 20
4.877311066030586
 30
0.0
 11
-3.305835665833626
 21
4.877311066030586
 31
0.0
  0
LINE
  5
1AF
330
2
100
AcDbEntity
  8
GAIKEI
  6
HIDDEN2
 62
     1
100
AcDbLine
 10
-1.805835665983465
 20
6.927311065825733
 30
0.0
 11
-4.805835665683559
 21
6.927311065825733
 31
0.0
  0
ARC
  5
1B0
330
2
100
AcDbEntity
  8
GAIKEI
  6
HIDDEN2
 62
     1
100
AcDbCircle
 10
-12.30583566493357
 20
5.05231106601326
 30
0.0
 40
0.1749999999825
100
AcDbArc
 50
90.0
 51
270.0
  0
ARC
  5
1B1
330
2
100
AcDbEntity
  8
GAIKEI
  6
HIDDEN2
 62
     1
100
AcDbCircle
 10
-17.30583566443357
 20
5.05231106601326
 30
0.0
 40
0.1749999999825
100
AcDbArc
 50
270.0
 51
90.0
  0
LINE
  5
1B2
330
2
100
AcDbEntity
  8
GAIKEI
  6
HIDDEN2
 62
     1
100
AcDbLine
 10
-20.55583566410854
 20
5.227311065995706
 30
0.0
 11
-22.30583566393347
 21
5.227311065995706
 31
0.0
  0
LINE
  5
1B3
330
2
100
AcDbEntity
  8
GAIKEI
  6
HIDDEN2
 62
     1
100
AcDbLine
 10
-20.55583566410854
 20
4.877311066030586
 30
0.0
 11
-22.30583566393347
 21
4.877311066030586
 31
0.0
  0
ARC
  5
1B4
330
2
100
AcDbEntity
  8
GAIKEI
  6
HIDDEN2
 62
     1
100
AcDbCircle
 10
-22.30583566393347
 20
5.05231106601326
 30
0.0
 40
0.1749999999825
100
AcDbArc
 50
90.0
 51
270.0
  0
LINE
  5
1B5
330
2
100
AcDbEntity
  8
GAIKEI
  6
HIDDEN2
 62
     1
100
AcDbLine
 10
-19.63083566420113
 20
6.052311065913215
 30
0.0
 11
-19.63083566420113
 21
5.864721065931973
 31
0.0
  0
ARC
  5
1B6
330
2
100
AcDbEntity
  8
GAIKEI
  6
HIDDEN2
 62
     1
100
AcDbCircle
 10
-18.80583566428351
 20
6.052311065913215
 30
0.0
 40
0.49999999995
100
AcDbArc
 50
180.0
 51
270.0
  0
ARC
  5
1B7
330
2
100
AcDbEntity
  8
GAIKEI
  6
HIDDEN2
 62
     1
100
AcDbCircle
 10
-19.80583566418357
 20
5.552311065963124
 30
0.0
 40
0.3349999999665
100
AcDbArc
 50
305.7617140000045
 51
54.23828599999552
  0
ARC
  5
1B8
330
2
100
AcDbEntity
  8
GAIKEI
  6
HIDDEN2
 62
     1
100
AcDbCircle
 10
-19.58083566420606
 20
5.864721065931973
 30
0.0
 40
0.049999999995
100
AcDbArc
 50
180.0
 51
234.2382859999955
  0
LINE
  5
1B9
330
2
100
AcDbEntity
  8
GAIKEI
  6
HIDDEN2
 62
     1
100
AcDbLine
 10
-19.98083566416613
 20
6.052311065913215
 30
0.0
 11
-19.98083566416613
 21
5.864721065931973
 31
0.0
  0
ARC
  5
1BA
330
2
100
AcDbEntity
  8
GAIKEI
  6
HIDDEN2
 62
     1
100
AcDbCircle
 10
-20.80583566408353
 20
6.052311065913215
 30
0.0
 40
0.49999999995
100
AcDbArc
 50
270.0
 51
0.0
  0
ARC
  5
1BB
330
2
100
AcDbEntity
  8
GAIKEI
  6
HIDDEN2
 62
     1
100
AcDbCircle
 10
-19.80583566418357
 20
5.552311065963124
 30
0.0
 40
0.3349999999665
100
AcDbArc
 50
125.7617140000045
 51
234.2382859999955
  0
ARC
  5
1BC
330
2
100
AcDbEntity
  8
GAIKEI
  6
HIDDEN2
 62
     1
100
AcDbCircle
 10
-20.03083566416098
 20
5.864721065931973
 30
0.0
 40
0.049999999995
100
AcDbArc
 50
305.7617140000045
 51
0.0
  0
ARC
  5
1BD
330
2
100
AcDbEntity
  8
GAIKEI
  6
HIDDEN2
 62
     1
100
AcDbCircle
 10
-19.80583566418357
 20
6.052311065913215
 30
0.0
 40
0.49999999995
100
AcDbArc
 50
0.0
 51
180.0
  0
ARC
  5
1BE
330
2
100
AcDbEntity
  8
GAIKEI
  6
HIDDEN2
 62
     1
100
AcDbCircle
 10
-19.80583566418357
 20
6.052311065913215
 30
0.0
 40
0.1749999999825
100
AcDbArc
 50
0.0
 51
180.0
  0
ARC
  5
1BF
330
2
100
AcDbEntity
  8
GAIKEI
  6
HIDDEN2
 62
     1
100
AcDbCircle
 10
-19.05583566425861
 20
5.05231106601326
 30
0.0
 40
0.1749999999825
100
AcDbArc
 50
90.0
 51
270.0
  0
LINE
  5
1C0
330
2
100
AcDbEntity
  8
GAIKEI
  6
HIDDEN2
 62
     1
100
AcDbLine
 10
-19.63083566420113
 20
5.239901065994388
 30
0.0
 11
-19.63083566420113
 21
5.05231106601326
 31
0.0
  0
ARC
  5
1C1
330
2
100
AcDbEntity
  8
GAIKEI
  6
HIDDEN2
 62
     1
100
AcDbCircle
 10
-20.55583566410854
 20
5.05231106601326
 30
0.0
 40
0.1749999999825
100
AcDbArc
 50
270.0
 51
90.0
  0
LINE
  5
1C2
330
2
100
AcDbEntity
  8
GAIKEI
  6
HIDDEN2
 62
     1
100
AcDbLine
 10
-19.98083566416613
 20
5.239901065994388
 30
0.0
 11
-19.98083566416613
 21
5.05231106601326
 31
0.0
  0
ARC
  5
1C3
330
2
100
AcDbEntity
  8
GAIKEI
  6
HIDDEN2
 62
     1
100
AcDbCircle
 10
-19.80583566418357
 20
5.05231106601326
 30
0.0
 40
0.1749999999825
100
AcDbArc
 50
180.0
 51
0.0
  0
ARC
  5
1C4
330
2
100
AcDbEntity
  8
GAIKEI
  6
HIDDEN2
 62
     1
100
AcDbCircle
 10
-20.03083566416098
 20
5.239901065994388
 30
0.0
 40
0.049999999995
100
AcDbArc
 50
0.0
 51
54.23828599999552
  0
ARC
  5
1C5
330
2
100
AcDbEntity
  8
GAIKEI
  6
HIDDEN2
 62
     1
100
AcDbCircle
 10
-19.58083566420606
 20
5.239901065994388
 30
0.0
 40
0.049999999995
100
AcDbArc
 50
125.7617140000045
 51
180.0
  0
ARC
  5
1C6
330
2
100
AcDbEntity
  8
GAIKEI
  6
HIDDEN2
 62
     1
100
AcDbCircle
 10
-27.30583566343359
 20
5.05231106601326
 30
0.0
 40
0.1749999999825
100
AcDbArc
 50
270.0
 51
90.0
  0
LINE
  5
1C7
330
2
100
AcDbEntity
  8
GAIKEI
  6
HIDDEN2
 62
     1
100
AcDbLine
 10
-19.05583566425861
 20
5.227311065995706
 30
0.0
 11
-17.30583566443357
 21
5.227311065995706
 31
0.0
  0
LINE
  5
1C8
330
2
100
AcDbEntity
  8
GAIKEI
  6
HIDDEN2
 62
     1
100
AcDbLine
 10
-19.05583566425861
 20
4.877311066030586
 30
0.0
 11
-17.30583566443357
 21
4.877311066030586
 31
0.0
  0
LINE
  5
1C9
330
2
100
AcDbEntity
  8
GAIKEI
  6
HIDDEN2
 62
     1
100
AcDbLine
 10
-18.80583566428351
 20
5.552311065963124
 30
0.0
 11
-5.468335665617416
 21
5.552311065963124
 31
0.0
  0
LINE
  5
1CA
330
2
100
AcDbEntity
  8
GAIKEI
  6
HIDDEN2
 62
     1
100
AcDbLine
 10
-7.305835665433676
 20
5.227311065995706
 30
0.0
 11
-12.30583566493357
 21
5.227311065995706
 31
0.0
  0
LINE
  5
1CB
330
2
100
AcDbEntity
  8
GAIKEI
  6
HIDDEN2
 62
     1
100
AcDbLine
 10
-7.305835665433676
 20
4.877311066030586
 30
0.0
 11
-12.30583566493357
 21
4.877311066030586
 31
0.0
  0
ARC
  5
1CC
330
2
100
AcDbEntity
  8
GAIKEI
  6
HIDDEN2
 62
     1
100
AcDbCircle
 10
-32.30583566293359
 20
5.05231106601326
 30
0.0
 40
0.1749999999825
100
AcDbArc
 50
90.0
 51
270.0
  0
LINE
  5
1CD
330
2
100
AcDbEntity
  8
GAIKEI
  6
HIDDEN2
 62
     1
100
AcDbLine
 10
-35.78083566258619
 20
8.789811065639412
 30
0.0
 11
-36.90221016247387
 21
8.789811065639412
 31
0.0
  0
LINE
  5
1CE
330
2
100
AcDbEntity
  8
GAIKEI
  6
HIDDEN2
 62
     1
100
AcDbLine
 10
-35.78083566258619
 20
8.064811065711921
 30
0.0
 11
-36.90221016247387
 21
8.064811065711921
 31
0.0
  0
LINE
  5
1CF
330
2
100
AcDbEntity
  8
GAIKEI
  6
HIDDEN2
 62
     1
100
AcDbLine
 10
-38.43083566232116
 20
5.227311065995706
 30
0.0
 11
-36.30583566253364
 21
5.227311065995706
 31
0.0
  0
LINE
  5
1D0
330
2
100
AcDbEntity
  8
GAIKEI
  6
HIDDEN2
 62
     1
100
AcDbLine
 10
-38.43083566232116
 20
4.877311066030586
 30
0.0
 11
-36.30583566253364
 21
4.877311066030586
 31
0.0
  0
LINE
  5
1D1
330
2
100
AcDbEntity
  8
GAIKEI
  6
HIDDEN2
 62
     1
100
AcDbLine
 10
-37.80583566238358
 20
6.927311065825733
 30
0.0
 11
-34.80583566268359
 21
6.927311065825733
 31
0.0
  0
ARC
  5
1D2
330
2
100
AcDbEntity
  8
GAIKEI
  6
HIDDEN2
 62
     1
100
AcDbCircle
 10
-38.43083566232116
 20
5.05231106601326
 30
0.0
 40
0.49999999995
100
AcDbArc
 50
90.0
 51
270.0
  0
LINE
  5
1D3
330
2
100
AcDbEntity
  8
GAIKEI
  6
HIDDEN2
 62
     1
100
AcDbLine
 10
-39.18083566224613
 20
6.902311065828087
 30
0.0
 11
-39.18083566224613
 21
4.152311066103095
 31
0.0
  0
POINT
  5
1D4
330
2
100
AcDbEntity
  8
GAIKEI
  6
HIDDEN2
 62
     1
100
AcDbPoint
 10
-37.13083566245103
 20
8.789811065639412
 30
0.0
  0
LINE
  5
1D5
330
2
100
AcDbEntity
  8
GAIKEI
  6
HIDDEN2
 62
     1
100
AcDbLine
 10
-37.93083566237107
 20
9.252311065593119
 30
0.0
 11
-37.64514866239978
 21
9.252311065593119
 31
0.0
  0
LINE
  5
1D6
330
2
100
AcDbEntity
  8
GAIKEI
  6
HIDDEN2
 62
     1
100
AcDbLine
 10
-37.28039166243622
 20
8.962735065622098
 30
0.0
 11
-37.45605791241854
 21
9.165849065601776
 31
0.0
  0
POINT
  5
1D7
330
2
100
AcDbEntity
  8
GAIKEI
  6
HIDDEN2
 62
     1
100
AcDbPoint
 10
-37.53083566241111
 20
9.252311065593119
 30
0.0
  0
ARC
  5
1D8
330
2
100
AcDbEntity
  8
GAIKEI
  6
HIDDEN2
 62
     1
100
AcDbCircle
 10
-37.64514866239978
 20
9.00231106561813
 30
0.0
 40
0.249999999975
100
AcDbArc
 50
40.85537599999966
 51
90.0
  0
ARC
  5
1D9
330
2
100
AcDbEntity
  8
GAIKEI
  6
HIDDEN2
 62
     1
100
AcDbCircle
 10
-36.90221016247387
 20
9.28981106558939
 30
0.0
 40
0.49999999995
100
AcDbArc
 50
220.8553759999996
 51
270.0
  0
POINT
  5
1DA
330
2
100
AcDbEntity
  8
GAIKEI
  6
HIDDEN2
 62
     1
100
AcDbPoint
 10
-37.13083566245103
 20
8.064811065711921
 30
0.0
  0
LINE
  5
1DB
330
2
100
AcDbEntity
  8
GAIKEI
  6
HIDDEN2
 62
     1
100
AcDbLine
 10
-37.05083566245918
 20
5.887311065929623
 30
0.0
 11
-37.05083566245918
 21
6.037311065914593
 31
0.0
  0
LINE
  5
1DC
330
2
100
AcDbEntity
  8
GAIKEI
  6
HIDDEN2
 62
     1
100
AcDbLine
 10
-37.05583566245861
 20
5.927311065925721
 30
0.0
 11
-37.05583566245861
 21
6.037311065914593
 31
0.0
  0
LINE
  5
1DD
330
2
100
AcDbEntity
  8
GAIKEI
  6
HIDDEN2
 62
     1
100
AcDbLine
 10
-37.83083566238116
 20
6.927311065825733
 30
0.0
 11
-37.83083566238116
 21
7.127311065805713
 31
0.0
  0
LINE
  5
1DE
330
2
100
AcDbEntity
  8
GAIKEI
  6
HIDDEN2
 62
     1
100
AcDbLine
 10
-37.93083566237107
 20
7.127311065805713
 30
0.0
 11
-37.80583566238358
 21
7.127311065805713
 31
0.0
  0
LINE
  5
1DF
330
2
100
AcDbEntity
  8
GAIKEI
  6
HIDDEN2
 62
     1
100
AcDbLine
 10
-37.83083566238116
 20
6.927311065825733
 30
0.0
 11
-37.93083566237107
 21
6.927311065825733
 31
0.0
  0
ARC
  5
1E0
330
2
100
AcDbEntity
  8
GAIKEI
  6
HIDDEN2
 62
     1
100
AcDbCircle
 10
-37.80583566238358
 20
7.027311065815695
 30
0.0
 40
0.09999999999
100
AcDbArc
 50
0.0
 51
90.0
  0
LINE
  5
1E1
330
2
100
AcDbEntity
  8
GAIKEI
  6
HIDDEN2
 62
     1
100
AcDbLine
 10
-37.70583566239356
 20
7.027311065815695
 30
0.0
 11
-37.70583566239356
 21
6.927311065825733
 31
0.0
  0
LINE
  5
1E2
330
2
100
AcDbEntity
  8
GAIKEI
  6
HIDDEN2
 62
     1
100
AcDbLine
 10
-37.70583566239356
 20
7.027311065815695
 30
0.0
 11
-37.80583566238358
 21
7.027311065815695
 31
0.0
  0
LINE
  5
1E3
330
2
100
AcDbEntity
  8
GAIKEI
  6
HIDDEN2
 62
     1
100
AcDbLine
 10
-37.93083566237107
 20
7.602311065758215
 30
0.0
 11
-37.64514866239978
 21
7.602311065758215
 31
0.0
  0
LINE
  5
1E4
330
2
100
AcDbEntity
  8
GAIKEI
  6
HIDDEN2
 62
     1
100
AcDbLine
 10
-37.28039166243622
 20
7.891887065729235
 30
0.0
 11
-37.45605791241854
 21
7.688773065749444
 31
0.0
  0
POINT
  5
1E5
330
2
100
AcDbEntity
  8
GAIKEI
  6
HIDDEN2
 62
     1
100
AcDbPoint
 10
-37.53083566241111
 20
7.602311065758215
 30
0.0
  0
ARC
  5
1E6
330
2
100
AcDbEntity
  8
GAIKEI
  6
HIDDEN2
 62
     1
100
AcDbCircle
 10
-37.64514866239978
 20
7.852311065733147
 30
0.0
 40
0.249999999975
100
AcDbArc
 50
270.0
 51
319.1446240000003
  0
LINE
  5
1E7
330
2
100
AcDbEntity
  8
GAIKEI
  6
HIDDEN2
 62
     1
100
AcDbLine
 10
-37.30583566243348
 20
6.902311065828087
 30
0.0
 11
-37.30583566243348
 21
6.802311065838182
 31
0.0
  0
LINE
  5
1E8
330
2
100
AcDbEntity
  8
GAIKEI
  6
HIDDEN2
 62
     1
100
AcDbLine
 10
-37.80583566238358
 20
6.902311065828087
 30
0.0
 11
-37.80583566238358
 21
7.027311065815695
 31
0.0
  0
LINE
  5
1E9
330
2
100
AcDbEntity
  8
GAIKEI
  6
HIDDEN2
 62
     1
100
AcDbLine
 10
-37.30583566243348
 20
6.802311065838182
 30
0.0
 11
-39.18083566224613
 21
6.802311065838182
 31
0.0
  0
LINE
  5
1EA
330
2
100
AcDbEntity
  8
GAIKEI
  6
HIDDEN2
 62
     1
100
AcDbLine
 10
-37.81083566238323
 20
5.887311065929623
 30
0.0
 11
-37.81083566238323
 21
6.037311065914593
 31
0.0
  0
LINE
  5
1EB
330
2
100
AcDbEntity
  8
GAIKEI
  6
HIDDEN2
 62
     1
100
AcDbLine
 10
-37.80583566238358
 20
5.927311065925721
 30
0.0
 11
-37.80583566238358
 21
6.037311065914593
 31
0.0
  0
ARC
  5
1EC
330
2
100
AcDbEntity
  8
GAIKEI
  6
HIDDEN2
 62
     1
100
AcDbCircle
 10
-38.46833566231732
 20
6.051228565913277
 30
0.0
 40
0.49999999995
100
AcDbArc
 50
274.3012219999993
 51
0.0
  0
LINE
  5
1ED
330
2
100
AcDbEntity
  8
GAIKEI
  6
HIDDEN2
 62
     1
100
AcDbLine
 10
-37.96833566236723
 20
6.802311065838182
 30
0.0
 11
-37.96833566236723
 21
6.051228565913277
 31
0.0
  0
ARC
  5
1EE
330
2
100
AcDbEntity
  8
GAIKEI
  6
HIDDEN2
 62
     1
100
AcDbCircle
 10
-38.43083566232116
 20
5.05231106601326
 30
0.0
 40
0.1749999999825
100
AcDbArc
 50
90.0
 51
270.0
  0
LINE
  5
1EF
330
2
100
AcDbEntity
  8
GAIKEI
  6
HIDDEN2
 62
     1
100
AcDbLine
 10
-37.81083566238323
 20
5.887311065929623
 30
0.0
 11
-37.05083566245918
 21
5.887311065929623
 31
0.0
  0
LINE
  5
1F0
330
2
100
AcDbEntity
  8
GAIKEI
  6
HIDDEN2
 62
     1
100
AcDbLine
 10
-37.81083566238323
 20
6.037311065914593
 30
0.0
 11
-37.05083566245918
 21
6.037311065914593
 31
0.0
  0
LINE
  5
1F1
330
2
100
AcDbEntity
  8
GAIKEI
  6
HIDDEN2
 62
     1
100
AcDbLine
 10
-37.05583566245861
 20
5.927311065925721
 30
0.0
 11
-37.80583566238358
 21
5.927311065925721
 31
0.0
  0
LINE
  5
1F2
330
2
100
AcDbEntity
  8
GAIKEI
  6
HIDDEN2
 62
     1
100
AcDbLine
 10
-37.05583566245861
 20
6.027311065915625
 30
0.0
 11
-37.80583566238358
 21
6.027311065915625
 31
0.0
  0
ARC
  5
1F3
330
2
100
AcDbEntity
  8
GAIKEI
  6
HIDDEN2
 62
     1
100
AcDbCircle
 10
-36.90221016247387
 20
7.564811065761887
 30
0.0
 40
0.49999999995
100
AcDbArc
 50
90.0
 51
139.1446240000003
  0
LINE
  5
1F4
330
2
100
AcDbEntity
  8
GAIKEI
  6
HIDDEN2
 62
     1
100
AcDbLine
 10
-37.83083566238116
 20
9.252311065593119
 30
0.0
 11
-37.83083566238116
 21
7.602311065758215
 31
0.0
  0
LINE
  5
1F5
330
2
100
AcDbEntity
  8
GAIKEI
  6
HIDDEN2
 62
     1
100
AcDbLine
 10
-35.45583566261865
 20
8.389811065679452
 30
0.0
 11
-35.45583566261865
 21
8.464811065671881
 31
0.0
  0
ARC
  5
1F6
330
2
100
AcDbEntity
  8
GAIKEI
  6
HIDDEN2
 62
     1
100
AcDbCircle
 10
-35.78083566258619
 20
8.464811065671881
 30
0.0
 40
0.3249999999675
100
AcDbArc
 50
0.0
 51
90.0
  0
LINE
  5
1F7
330
2
100
AcDbEntity
  8
GAIKEI
  6
HIDDEN2
 62
     1
100
AcDbLine
 10
-36.26833566253748
 20
9.352311065583137
 30
0.0
 11
-36.34333566252991
 21
9.352311065583137
 31
0.0
  0
ARC
  5
1F8
330
2
100
AcDbEntity
  8
GAIKEI
  6
HIDDEN2
 62
     1
100
AcDbCircle
 10
-36.26833566253748
 20
9.677311065550725
 30
0.0
 40
0.3249999999675
100
AcDbArc
 50
270.0
 51
0.0
  0
ARC
  5
1F9
330
2
100
AcDbEntity
  8
GAIKEI
  6
HIDDEN2
 62
     1
100
AcDbCircle
 10
-36.34333566252991
 20
9.677311065550725
 30
0.0
 40
0.3249999999675
100
AcDbArc
 50
180.0
 51
270.0
  0
LINE
  5
1FA
330
2
100
AcDbEntity
  8
GAIKEI
  6
HIDDEN2
 62
     1
100
AcDbLine
 10
-34.78083566268612
 20
6.927311065825733
 30
0.0
 11
-34.78083566268612
 21
7.127311065805713
 31
0.0
  0
LINE
  5
1FB
330
2
100
AcDbEntity
  8
GAIKEI
  6
HIDDEN2
 62
     1
100
AcDbLine
 10
-34.6808356626961
 20
7.127311065805713
 30
0.0
 11
-34.80583566268359
 21
7.127311065805713
 31
0.0
  0
LINE
  5
1FC
330
2
100
AcDbEntity
  8
GAIKEI
  6
HIDDEN2
 62
     1
100
AcDbLine
 10
-34.78083566268612
 20
6.927311065825733
 30
0.0
 11
-34.6808356626961
 21
6.927311065825733
 31
0.0
  0
ARC
  5
1FD
330
2
100
AcDbEntity
  8
GAIKEI
  6
HIDDEN2
 62
     1
100
AcDbCircle
 10
-34.80583566268359
 20
7.027311065815695
 30
0.0
 40
0.09999999999
100
AcDbArc
 50
90.0
 51
180.0
  0
LINE
  5
1FE
330
2
100
AcDbEntity
  8
GAIKEI
  6
HIDDEN2
 62
     1
100
AcDbLine
 10
-34.90583566267361
 20
7.027311065815695
 30
0.0
 11
-34.90583566267361
 21
6.927311065825733
 31
0.0
  0
LINE
  5
1FF
330
2
100
AcDbEntity
  8
GAIKEI
  6
HIDDEN2
 62
     1
100
AcDbLine
 10
-34.90583566267361
 20
7.027311065815695
 30
0.0
 11
-34.80583566268359
 21
7.027311065815695
 31
0.0
  0
LINE
  5
200
330
2
100
AcDbEntity
  8
GAIKEI
  6
HIDDEN2
 62
     1
100
AcDbLine
 10
-34.80583566268359
 20
6.902311065828087
 30
0.0
 11
-34.80583566268359
 21
7.027311065815695
 31
0.0
  0
LINE
  5
201
330
2
100
AcDbEntity
  8
GAIKEI
  6
HIDDEN2
 62
     1
100
AcDbLine
 10
-34.80083566268428
 20
5.887311065929623
 30
0.0
 11
-34.80083566268428
 21
6.037311065914593
 31
0.0
  0
LINE
  5
202
330
2
100
AcDbEntity
  8
GAIKEI
  6
HIDDEN2
 62
     1
100
AcDbLine
 10
-34.80583566268359
 20
5.927311065925721
 30
0.0
 11
-34.80583566268359
 21
6.037311065914593
 31
0.0
  0
LINE
  5
203
330
2
100
AcDbEntity
  8
GAIKEI
  6
HIDDEN2
 62
     1
100
AcDbLine
 10
-34.64333566269994
 20
6.802311065838182
 30
0.0
 11
-34.64333566269994
 21
6.052311065913215
 31
0.0
  0
LINE
  5
204
330
2
100
AcDbEntity
  8
GAIKEI
  6
HIDDEN2
 62
     1
100
AcDbLine
 10
-35.30583566263346
 20
6.902311065828087
 30
0.0
 11
-35.30583566263346
 21
6.802311065838182
 31
0.0
  0
LINE
  5
205
330
2
100
AcDbEntity
  8
GAIKEI
  6
HIDDEN2
 62
     1
100
AcDbLine
 10
-35.56083566260821
 20
5.887311065929623
 30
0.0
 11
-35.56083566260821
 21
6.037311065914593
 31
0.0
  0
LINE
  5
206
330
2
100
AcDbEntity
  8
GAIKEI
  6
HIDDEN2
 62
     1
100
AcDbLine
 10
-35.55583566260856
 20
5.927311065925721
 30
0.0
 11
-35.55583566260856
 21
6.037311065914593
 31
0.0
  0
LINE
  5
207
330
2
100
AcDbEntity
  8
GAIKEI
  6
HIDDEN2
 62
     1
100
AcDbLine
 10
-34.80083566268428
 20
5.887311065929623
 30
0.0
 11
-35.56083566260821
 21
5.887311065929623
 31
0.0
  0
LINE
  5
208
330
2
100
AcDbEntity
  8
GAIKEI
  6
HIDDEN2
 62
     1
100
AcDbLine
 10
-34.80083566268428
 20
6.037311065914593
 30
0.0
 11
-35.56083566260821
 21
6.037311065914593
 31
0.0
  0
LINE
  5
209
330
2
100
AcDbEntity
  8
GAIKEI
  6
HIDDEN2
 62
     1
100
AcDbLine
 10
-34.80583566268359
 20
5.927311065925721
 30
0.0
 11
-35.55583566260856
 21
5.927311065925721
 31
0.0
  0
LINE
  5
20A
330
2
100
AcDbEntity
  8
GAIKEI
  6
HIDDEN2
 62
     1
100
AcDbLine
 10
-34.80583566268359
 20
6.027311065915625
 30
0.0
 11
-35.55583566260856
 21
6.027311065915625
 31
0.0
  0
ARC
  5
20B
330
2
100
AcDbEntity
  8
GAIKEI
  6
HIDDEN2
 62
     1
100
AcDbCircle
 10
-36.30583566253364
 20
5.05231106601326
 30
0.0
 40
0.1749999999825
100
AcDbArc
 50
270.0
 51
90.0
  0
ARC
  5
20C
330
2
100
AcDbEntity
  8
GAIKEI
  6
HIDDEN2
 62
     1
100
AcDbCircle
 10
-35.78083566258619
 20
8.389811065679452
 30
0.0
 40
0.3249999999675
100
AcDbArc
 50
270.0
 51
0.0
  0
ARC
  5
20D
330
2
100
AcDbEntity
  8
GAIKEI
  6
HIDDEN2
 62
     1
100
AcDbCircle
 10
-34.14333566274996
 20
6.052311065913215
 30
0.0
 40
0.49999999995
100
AcDbArc
 50
180.0
 51
270.0
  0
LINE
  5
20E
330
2
100
AcDbEntity
  8
GAIKEI
  6
HIDDEN2
 62
     1
100
AcDbLine
 10
-20.80583566408353
 20
5.552311065963124
 30
0.0
 11
-34.14333566274996
 21
5.552311065963124
 31
0.0
  0
LINE
  5
20F
330
2
100
AcDbEntity
  8
GAIKEI
  6
HIDDEN2
 62
     1
100
AcDbLine
 10
-0.4308356661211406
 20
4.152311066103095
 30
0.0
 11
-39.18083566224613
 21
4.152311066103095
 31
0.0
  0
LINE
  5
210
330
2
100
AcDbEntity
  8
GAIKEI
  6
HIDDEN2
 62
     1
100
AcDbLine
 10
-0.4308356661211406
 20
4.252311066093113
 30
0.0
 11
-39.18083566224613
 21
4.252311066093113
 31
0.0
  0
LINE
  5
211
330
2
100
AcDbEntity
  8
GAIKEI
  6
HIDDEN2
 62
     1
100
AcDbLine
 10
-1.180835666046107
 20
4.552311066063225
 30
0.0
 11
-38.43083566232116
 21
4.552311066063225
 31
0.0
  0
LINE
  5
212
330
2
100
AcDbEntity
  8
GAIKEI
  6
HIDDEN2
 62
     1
100
AcDbLine
 10
-4.305835665733582
 20
6.802311065838182
 30
0.0
 11
-35.30583566263346
 21
6.802311065838182
 31
0.0
  0
LINE
  5
213
330
2
100
AcDbEntity
  8
GAIKEI
  6
HIDDEN2
 62
     1
100
AcDbLine
 10
-39.18083566224613
 20
6.902311065828087
 30
0.0
 11
-0.4308356661211406
 21
6.902311065828087
 31
0.0
  0
LINE
  5
214
330
2
100
AcDbEntity
  8
GAIKEI
  6
HIDDEN2
 62
     1
100
AcDbLine
 10
-32.30583566293359
 20
5.227311065995706
 30
0.0
 11
-27.30583566343359
 21
5.227311065995706
 31
0.0
  0
LINE
  5
215
330
2
100
AcDbEntity
  8
GAIKEI
  6
HIDDEN2
 62
     1
100
AcDbLine
 10
-32.30583566293359
 20
4.877311066030586
 30
0.0
 11
-27.30583566343359
 21
4.877311066030586
 31
0.0
  0
LINE
  5
216
330
2
100
AcDbEntity
  8
GAIKEI
  6
HIDDEN2
 62
     1
100
AcDbLine
 10
-1.680835665996085
 20
27.17731106380069
 30
0.0
 11
-1.680835665996085
 21
6.927311065825733
 31
0.0
  0
LINE
  5
217
330
2
100
AcDbEntity
  8
GAIKEI
  6
HIDDEN2
 62
     1
100
AcDbLine
 10
-4.930835665671168
 20
27.17731106380069
 30
0.0
 11
-4.930835665671168
 21
6.927311065825733
 31
0.0
  0
LINE
  5
218
330
2
100
AcDbEntity
  8
GAIKEI
  6
HIDDEN2
 62
     1
100
AcDbLine
 10
-34.6808356626961
 20
27.17731106380069
 30
0.0
 11
-34.6808356626961
 21
6.927311065825733
 31
0.0
  0
LINE
  5
219
330
2
100
AcDbEntity
  8
GAIKEI
  6
HIDDEN2
 62
     1
100
AcDbLine
 10
-37.93083566237107
 20
27.17731106380069
 30
0.0
 11
-37.93083566237107
 21
6.927311065825733
 31
0.0
  0
LINE
  5
21A
330
2
100
AcDbEntity
  8
GAIKEI
  6
HIDDEN2
 62
     1
100
AcDbLine
 10
-35.94333566256984
 20
9.677311065550725
 30
0.0
 11
-35.94333566256984
 21
9.893869815529058
 31
0.0
  0
LINE
  5
21B
330
2
100
AcDbEntity
  8
GAIKEI
  6
HIDDEN2
 62
     1
100
AcDbLine
 10
-36.66833566249733
 20
9.677311065550725
 30
0.0
 11
-36.66833566249733
 21
9.893869815529058
 31
0.0
  0
LINE
  5
21C
330
2
100
AcDbEntity
  8
GAIKEI
  6
HIDDEN2
 62
     1
100
AcDbLine
 10
-2.943335665869938
 20
9.677311065550725
 30
0.0
 11
-2.943335665869938
 21
9.893869815529058
 31
0.0
  0
LINE
  5
21D
330
2
100
AcDbEntity
  8
GAIKEI
  6
HIDDEN2
 62
     1
100
AcDbLine
 10
-3.668335665797428
 20
9.677311065550725
 30
0.0
 11
-3.668335665797428
 21
9.893869815529058
 31
0.0
  0
DIMENSION
  5
21E
330
2
100
AcDbEntity
  8
SUNPO
100
AcDbDimension
  2
*D7
 10
-0.4308356661211411
 20
-5.538459109665552
 30
0.0
 11
-19.80583566418357
 21
-3.788459109665552
 31
0.0
 70
    33
  1
775
 71
     5
 42
38.74999999612487
  3
STANDARD
100
AcDbAlignedDimension
 13
-39.18083566224601
 23
2.461540890334447
 33
0.0
 14
-0.4308356661211406
 24
2.461540890334447
 34
0.0
1001
ACAD
1000
DSTYLE
1002
{
1070
   287
1070
     3
1070
   287
1070
     3
1070
   287
1070
     3
1070
   287
1070
     3
1070
   287
1070
     3
1070
   287
1070
     3
1070
   287
1070
     3
1070
   287
1070
     3
1070
   287
1070
     3
1070
   287
1070
     3
1070
   287
1070
     3
1070
    40
1040
1.0
1070
   140
1040
2.5
1070
   147
1040
0.5
1070
   172
1070
     1
1070
   279
1070
     0
1070
   288
1070
     0
1002
}
  0
ARC
  5
22B
330
2
100
AcDbEntity
  8
GAIKEI
  6
Continuous
100
AcDbCircle
 10
-45.10333566418359
 20
32.72481106610314
 30
0.0
 40
0.2
100
AcDbArc
 50
179.9215320000083
 51
180.0
  0
ARC
  5
22C
330
2
100
AcDbEntity
  8
GAIKEI
  6
Continuous
100
AcDbCircle
 10
-45.10333566418359
 20
2.629811066103115
 30
0.0
 40
0.2
100
AcDbArc
 50
180.0
 51
180.0784679999916
  0
ARC
  5
22D
330
2
100
AcDbEntity
  8
GAIKEI
  6
Continuous
100
AcDbCircle
 10
5.491664335816437
 20
2.629811066103115
 30
0.0
 40
0.2
100
AcDbArc
 50
359.9215320000084
 51
0.0
  0
ARC
  5
22E
330
2
100
AcDbEntity
  8
GAIKEI
  6
Continuous
100
AcDbCircle
 10
-45.10333566418359
 20
32.72481106610314
 30
0.0
 40
0.2
100
AcDbArc
 50
90.0
 51
90.0784679999916
  0
ARC
  5
22F
330
2
100
AcDbEntity
  8
GAIKEI
  6
Continuous
100
AcDbCircle
 10
-45.10333566418359
 20
2.629811066103115
 30
0.0
 40
0.2
100
AcDbArc
 50
269.9215320000084
 51
270.0
  0
ARC
  5
230
330
2
100
AcDbEntity
  8
GAIKEI
  6
Continuous
100
AcDbCircle
 10
-45.10333566418359
 20
32.72481106610314
 30
0.0
 40
0.2
100
AcDbArc
 50
90.0784679999916
 51
179.9215320000083
  0
ARC
  5
231
330
2
100
AcDbEntity
  8
GAIKEI
  6
Continuous
100
AcDbCircle
 10
5.491664335816437
 20
32.72481106610314
 30
0.0
 40
0.2
100
AcDbArc
 50
0.0784679999916189
 51
89.92153200000839
  0
ARC
  5
232
330
2
100
AcDbEntity
  8
GAIKEI
  6
Continuous
100
AcDbCircle
 10
-45.10333566418359
 20
2.629811066103115
 30
0.0
 40
0.2
100
AcDbArc
 50
180.0784679999916
 51
269.9215320000084
  0
ARC
  5
233
330
2
100
AcDbEntity
  8
GAIKEI
  6
Continuous
100
AcDbCircle
 10
5.491664335816437
 20
2.629811066103115
 30
0.0
 40
0.2
100
AcDbArc
 50
270.0784679999916
 51
359.9215320000084
  0
ARC
  5
234
330
2
100
AcDbEntity
  8
GAIKEI
  6
Continuous
 62
     1
100
AcDbCircle
 10
4.094164335816458
 20
4.027311066103152
 30
0.0
 40
0.2
100
AcDbArc
 50
270.0
 51
0.0
  0
ARC
  5
235
330
2
100
AcDbEntity
  8
GAIKEI
  6
Continuous
 62
     1
100
AcDbCircle
 10
-42.69083566418356
 20
3.252311066103118
 30
0.0
 40
0.025
100
AcDbArc
 50
90.0
 51
180.0
  0
ARC
  5
236
330
2
100
AcDbEntity
  8
GAIKEI
  6
Continuous
 62
     1
100
AcDbCircle
 10
-42.39083566418355
 20
3.252311066103118
 30
0.0
 40
0.025
100
AcDbArc
 50
0.0
 51
90.0
  0
ARC
  5
237
330
2
100
AcDbEntity
  8
GAIKEI
  6
Continuous
 62
     1
100
AcDbCircle
 10
-42.39083566418355
 20
2.952311066103106
 30
0.0
 40
0.025
100
AcDbArc
 50
270.0
 51
0.0
  0
ARC
  5
238
330
2
100
AcDbEntity
  8
GAIKEI
  6
Continuous
 62
     1
100
AcDbCircle
 10
-42.69083566418356
 20
2.952311066103106
 30
0.0
 40
0.025
100
AcDbArc
 50
180.0
 51
270.0
  0
ARC
  5
239
330
2
100
AcDbEntity
  8
GAIKEI
  6
Continuous
 62
     1
100
AcDbCircle
 10
-43.7058356641836
 20
31.32731106610311
 30
0.0
 40
0.2
100
AcDbArc
 50
90.0
 51
180.0
  0
ARC
  5
23A
330
2
100
AcDbEntity
  8
GAIKEI
  6
Continuous
 62
     1
100
AcDbCircle
 10
-43.7058356641836
 20
4.027311066103152
 30
0.0
 40
0.2
100
AcDbArc
 50
180.0
 51
270.0
  0
ARC
  5
23B
330
2
100
AcDbEntity
  8
GAIKEI
  6
Continuous
 62
     1
100
AcDbCircle
 10
4.094164335816458
 20
31.32731106610311
 30
0.0
 40
0.2
100
AcDbArc
 50
0.0
 51
90.0
  0
LINE
  5
23C
330
2
100
AcDbEntity
  8
GAIKEI
  6
Continuous
100
AcDbLine
 10
-45.30333566418358
 20
32.72481106610314
 30
0.0
 11
-45.30333566418358
 21
2.629811066103115
 31
0.0
  0
LINE
  5
23D
330
2
100
AcDbEntity
  8
GAIKEI
  6
Continuous
100
AcDbLine
 10
5.691664335816426
 20
32.72481106610314
 30
0.0
 11
5.691664335816426
 21
2.629811066103115
 31
0.0
  0
LINE
  5
23E
330
2
100
AcDbEntity
  8
GAIKEI
  6
Continuous
100
AcDbLine
 10
-45.10333566418359
 20
32.92481106610313
 30
0.0
 11
5.491664335816437
 21
32.92481106610313
 31
0.0
  0
LINE
  5
23F
330
2
100
AcDbEntity
  8
GAIKEI
  6
Continuous
100
AcDbLine
 10
-45.10333566418359
 20
2.429811066103127
 30
0.0
 11
5.491664335816437
 21
2.429811066103127
 31
0.0
  0
LINE
  5
240
330
2
100
AcDbEntity
  8
GAIKEI
  6
Continuous
 62
     1
100
AcDbLine
 10
-42.86833566418358
 20
30.54631106610316
 30
0.0
 11
-42.86833566418358
 21
4.808311066103101
 31
0.0
  0
LINE
  5
241
330
2
100
AcDbEntity
  8
GAIKEI
  6
Continuous
 62
     1
100
AcDbLine
 10
3.256664335816424
 20
30.54631106610316
 30
0.0
 11
3.256664335816481
 21
4.808311066103101
 31
0.0
  0
LINE
  5
242
330
2
100
AcDbEntity
  8
GAIKEI
  6
Continuous
 62
     1
100
AcDbLine
 10
-42.76983566418357
 20
30.64481106610311
 30
0.0
 11
3.158164335816422
 21
30.64481106610316
 31
0.0
  0
LINE
  5
243
330
2
100
AcDbEntity
  8
GAIKEI
  6
Continuous
 62
     1
100
AcDbLine
 10
-42.76983566418357
 20
4.709811066103156
 30
0.0
 11
3.158164335816422
 21
4.709811066103156
 31
0.0
  0
LINE
  5
244
330
2
100
AcDbEntity
  8
GAIKEI
  6
Continuous
 62
     1
100
AcDbLine
 10
-43.70602636418357
 20
31.42731106610313
 30
0.0
 11
4.095664335816422
 21
31.42731106610313
 31
0.0
  0
LINE
  5
245
330
2
100
AcDbEntity
  8
GAIKEI
  6
Continuous
 62
     1
100
AcDbLine
 10
4.095664335816422
 20
3.928554916103166
 30
0.0
 11
-43.70602636418357
 21
3.928554916103166
 31
0.0
  0
LINE
  5
246
330
2
100
AcDbEntity
  8
GAIKEI
  6
Continuous
 62
     1
100
AcDbLine
 10
-43.80452636418363
 20
31.32881106610313
 30
0.0
 11
-43.80452636418357
 21
4.027054916103111
 31
0.0
  0
LINE
  5
247
330
2
100
AcDbEntity
  8
GAIKEI
  6
Continuous
 62
     1
100
AcDbLine
 10
4.194164335816367
 20
4.027054916103111
 30
0.0
 11
4.194164335816424
 21
31.32881106610307
 31
0.0
  0
LINE
  5
248
330
2
100
AcDbEntity
  8
GAIKEI
  6
Continuous
 62
     1
100
AcDbLine
 10
-43.79648686418358
 20
3.988266566103106
 30
0.0
 11
-42.8680243478359
 21
4.801157005736115
 31
0.0
  0
LINE
  5
249
330
2
100
AcDbEntity
  8
GAIKEI
  6
Continuous
 62
     1
100
AcDbLine
 10
-42.75999734802048
 20
4.709811066103156
 30
0.0
 11
-43.65232801418358
 21
3.928554916103166
 31
0.0
  0
LINE
  5
24A
330
2
100
AcDbEntity
  8
GAIKEI
  6
Continuous
 62
     1
100
AcDbLine
 10
4.184815535816426
 20
3.988266566103106
 30
0.0
 11
3.256401116748975
 21
4.801114895453224
 31
0.0
  0
LINE
  5
24B
330
2
100
AcDbEntity
  8
GAIKEI
  6
Continuous
 62
     1
100
AcDbLine
 10
3.148326019653325
 20
4.709811066103156
 30
0.0
 11
4.040656685816429
 21
3.928554916103166
 31
0.0
  0
LINE
  5
24C
330
2
100
AcDbEntity
  8
GAIKEI
  6
Continuous
 62
     1
100
AcDbLine
 10
-42.86807244511606
 20
30.55350723675303
 30
0.0
 11
-43.79648686418358
 21
31.36635556610315
 31
0.0
  0
LINE
  5
24D
330
2
100
AcDbEntity
  8
GAIKEI
  6
Continuous
 62
     1
100
AcDbLine
 10
-43.65232801418358
 20
31.42606721610309
 30
0.0
 11
-42.75999734802048
 21
30.64481106610311
 31
0.0
  0
LINE
  5
24E
330
2
100
AcDbEntity
  8
GAIKEI
  6
Continuous
 62
     1
100
AcDbLine
 10
4.040656685816429
 20
31.42606721610309
 30
0.0
 11
3.148326019653325
 21
30.64481106610311
 31
0.0
  0
LINE
  5
24F
330
2
100
AcDbEntity
  8
GAIKEI
  6
Continuous
 62
     1
100
AcDbLine
 10
3.256401116748918
 20
30.55350723675303
 30
0.0
 11
4.184815535816426
 21
31.36635556610315
 31
0.0
  0
LINE
  5
250
330
2
100
AcDbEntity
  8
GAIKEI
  6
Continuous
 62
     1
100
AcDbLine
 10
-45.16694301418357
 20
2.75420371610312
 30
0.0
 11
-45.16694301418363
 21
32.60041841610314
 31
0.0
  0
LINE
  5
251
330
2
100
AcDbEntity
  8
GAIKEI
  6
Continuous
 62
     1
100
AcDbLine
 10
5.555271685816364
 20
2.75420371610312
 30
0.0
 11
5.555271685816421
 21
32.60041841610314
 31
0.0
  0
LINE
  5
252
330
2
100
AcDbEntity
  8
GAIKEI
  6
Continuous
 62
     1
100
AcDbLine
 10
-44.97894301418364
 20
32.78841841610313
 30
0.0
 11
5.367271685816433
 21
32.78841841610313
 31
0.0
  0
LINE
  5
253
330
2
100
AcDbEntity
  8
GAIKEI
  6
Continuous
 62
     1
100
AcDbLine
 10
5.367271685816376
 20
2.566203716103132
 30
0.0
 11
-44.97894301418358
 21
2.566203716103132
 31
0.0
  0
LINE
  5
254
330
2
100
AcDbEntity
  8
GAIKEI
  6
Continuous
 62
     1
100
AcDbLine
 10
-43.7058356641836
 20
3.827311066103106
 30
0.0
 11
4.094164335816458
 21
3.827311066103106
 31
0.0
  0
LINE
  5
255
330
2
100
AcDbEntity
  8
GAIKEI
  6
Continuous
 62
     1
100
AcDbLine
 10
-43.90583566418354
 20
31.32731106610311
 30
0.0
 11
-43.90583566418354
 21
4.027311066103152
 31
0.0
  0
LINE
  5
256
330
2
100
AcDbEntity
  8
GAIKEI
  6
Continuous
 62
     1
100
AcDbLine
 10
4.094164335816458
 20
31.52731106610315
 30
0.0
 11
-43.7058356641836
 21
31.52731106610315
 31
0.0
  0
LINE
  5
257
330
2
100
AcDbEntity
  8
GAIKEI
  6
Continuous
 62
     1
100
AcDbLine
 10
-42.39083566418355
 20
2.927311066103129
 30
0.0
 11
-42.69083566418356
 21
2.927311066103129
 31
0.0
  0
LINE
  5
258
330
2
100
AcDbEntity
  8
GAIKEI
  6
Continuous
 62
     1
100
AcDbLine
 10
-44.19958566418358
 20
3.046061066103106
 30
0.0
 11
-44.31208566418354
 21
3.046061066103106
 31
0.0
  0
LINE
  5
259
330
2
100
AcDbEntity
  8
GAIKEI
  6
Continuous
 62
     1
100
AcDbLine
 10
-44.31208566418354
 20
3.158561066103118
 30
0.0
 11
-44.19958566418358
 21
3.158561066103118
 31
0.0
  0
LINE
  5
25A
330
2
100
AcDbEntity
  8
GAIKEI
  6
Continuous
 62
     1
100
AcDbLine
 10
-44.19958566418358
 20
3.158561066103118
 30
0.0
 11
-44.19958566418358
 21
3.046061066103106
 31
0.0
  0
LINE
  5
25B
330
2
100
AcDbEntity
  8
GAIKEI
  6
Continuous
 62
     1
100
AcDbLine
 10
-42.71583566418359
 20
2.952311066103106
 30
0.0
 11
-42.71583566418359
 21
3.252311066103118
 31
0.0
  0
LINE
  5
25C
330
2
100
AcDbEntity
  8
GAIKEI
  6
Continuous
 62
     1
100
AcDbLine
 10
-44.31208566418354
 20
3.046061066103106
 30
0.0
 11
-44.31208566418354
 21
3.158561066103118
 31
0.0
  0
LINE
  5
25D
330
2
100
AcDbEntity
  8
GAIKEI
  6
Continuous
 62
     1
100
AcDbLine
 10
-42.36583566418357
 20
3.252311066103118
 30
0.0
 11
-42.36583566418357
 21
2.952311066103106
 31
0.0
  0
LINE
  5
25E
330
2
100
AcDbEntity
  8
GAIKEI
  6
Continuous
 62
     1
100
AcDbLine
 10
-42.69083566418356
 20
3.277311066103152
 30
0.0
 11
-42.39083566418355
 21
3.277311066103152
 31
0.0
  0
LINE
  5
25F
330
2
100
AcDbEntity
  8
GAIKEI
  6
Continuous
 62
     1
100
AcDbLine
 10
4.29416433581639
 20
31.32731106610311
 30
0.0
 11
4.29416433581639
 21
4.027311066103152
 31
0.0
  0
LINE
  5
260
330
2
100
AcDbEntity
  8
GAIKEI
  6
Continuous
 62
     1
100
AcDbLine
 10
5.294786435816433
 20
2.981688966103092
 30
0.0
 11
5.29478643581649
 21
32.37293316610317
 31
0.0
  0
LINE
  5
261
330
2
100
AcDbEntity
  8
GAIKEI
  6
Continuous
 62
     1
100
AcDbLine
 10
-44.90645776418358
 20
2.981688966103092
 30
0.0
 11
-44.90645776418353
 21
32.37293316610317
 31
0.0
  0
LINE
  5
262
330
2
100
AcDbEntity
  8
GAIKEI
  6
Continuous
 62
     1
100
AcDbLine
 10
-44.75145776418355
 20
32.52793316610314
 30
0.0
 11
5.139786435816461
 21
32.52793316610314
 31
0.0
  0
LINE
  5
263
330
2
100
AcDbEntity
  8
GAIKEI
  6
Continuous
 62
     1
100
AcDbLine
 10
5.139786435816404
 20
2.82668896610312
 30
0.0
 11
-44.75145776418355
 21
2.82668896610312
 31
0.0
  0
LINE
  5
264
330
2
100
AcDbEntity
  8
GAIKEI
  6
Continuous
 62
     1
100
AcDbLine
 10
30.66682024693398
 20
5.378814066103132
 30
0.0
 11
30.66682024693398
 21
5.302856416103168
 31
0.0
  0
LINE
  5
265
330
2
100
AcDbEntity
  8
GAIKEI
  6
Continuous
 62
     1
100
AcDbLine
 10
30.66682024693398
 20
5.302856416103168
 30
0.0
 11
30.66682024693398
 21
5.253343016103144
 31
0.0
  0
ARC
  5
266
330
2
100
AcDbEntity
  8
GAIKEI
  6
Continuous
 62
     1
100
AcDbCircle
 10
30.61682024693403
 20
5.253343016103144
 30
0.0
 40
0.05
100
AcDbArc
 50
278.0000000000055
 51
0.0
  0
ARC
  5
267
330
2
100
AcDbEntity
  8
GAIKEI
  6
Continuous
 62
     1
100
AcDbCircle
 10
30.76682024693401
 20
5.378814066103132
 30
0.0
 40
0.1
100
AcDbArc
 50
136.2382570000005
 51
180.0
  0
LINE
  5
268
330
2
100
AcDbEntity
  8
GAIKEI
  6
Continuous
 62
     1
100
AcDbLine
 10
30.54908654693401
 20
5.193332266103141
 30
0.0
 11
30.61526374693404
 21
5.202632866103158
 31
0.0
  0
LINE
  5
269
330
2
100
AcDbEntity
  8
GAIKEI
  6
Continuous
 62
     1
100
AcDbLine
 10
30.62377889693403
 20
5.203829616103121
 30
0.0
 11
30.54182024693398
 21
5.192311066103115
 31
0.0
  0
LINE
  5
26A
330
2
100
AcDbEntity
  8
GAIKEI
  6
Continuous
 62
     1
100
AcDbLine
 10
30.81682024693402
 20
5.862311066103131
 30
0.0
 11
30.81682024693402
 21
5.752311066103118
 31
0.0
  0
ARC
  5
26B
330
2
100
AcDbEntity
  8
GAIKEI
  6
Continuous
 62
     1
100
AcDbCircle
 10
30.37682024693402
 20
5.752311066103118
 30
0.0
 40
0.4400000000000001
100
AcDbArc
 50
316.2382570000005
 51
0.0
  0
LINE
  5
26C
330
2
100
AcDbEntity
  8
GAIKEI
  6
Continuous
 62
     1
100
AcDbLine
 10
30.66682024693398
 20
6.361279116103105
 30
0.0
 11
30.66682024693398
 21
6.311765716103138
 31
0.0
  0
LINE
  5
26D
330
2
100
AcDbEntity
  8
GAIKEI
  6
Continuous
 62
     1
100
AcDbLine
 10
30.66682024693398
 20
6.311765716103138
 30
0.0
 11
30.66682024693398
 21
6.235808066103118
 31
0.0
  0
ARC
  5
26E
330
2
100
AcDbEntity
  8
GAIKEI
  6
Continuous
 62
     1
100
AcDbCircle
 10
30.76682024693401
 20
6.235808066103118
 30
0.0
 40
0.1
100
AcDbArc
 50
180.0
 51
223.7617429999995
  0
ARC
  5
26F
330
2
100
AcDbEntity
  8
GAIKEI
  6
Continuous
 62
     1
100
AcDbCircle
 10
30.61682024693403
 20
6.361279116103105
 30
0.0
 40
0.05
100
AcDbArc
 50
0.0
 51
81.99999999999448
  0
ARC
  5
270
330
2
100
AcDbEntity
  8
GAIKEI
  6
Continuous
 62
     1
100
AcDbCircle
 10
30.37682024693402
 20
5.862311066103131
 30
0.0
 40
0.4400000000000001
100
AcDbArc
 50
0.0
 51
43.76174299999948
  0
LINE
  5
271
330
2
100
AcDbEntity
  8
GAIKEI
  6
Continuous
 62
     1
100
AcDbLine
 10
30.61526374693404
 20
6.411989266103091
 30
0.0
 11
30.54908654693401
 21
6.421289866103165
 31
0.0
  0
LINE
  5
272
330
2
100
AcDbEntity
  8
GAIKEI
  6
Continuous
 62
     1
100
AcDbLine
 10
30.54182024693398
 20
6.422311066103134
 30
0.0
 11
30.62377889693403
 21
6.410792516103128
 31
0.0
  0
ELLIPSE
  5
273
330
2
100
AcDbEntity
  8
GAIKEI
  6
Continuous
100
AcDbEllipse
 10
31.29182024693398
 20
8.126049766103164
 30
0.0
 11
-0.25
 21
-0.0000000000000001
 31
0.0
210
0.0
220
0.0
230
1.0
 40
0.9073409999999999
 41
3.135287578111884
 42
3.141592653589792
  0
ARC
  5
274
330
2
100
AcDbEntity
  8
GAIKEI
  6
Continuous
100
AcDbCircle
 10
31.04182024693398
 20
8.126049766103164
 30
0.0
 40
0.5
100
AcDbArc
 50
355.2257539999894
 51
359.670535000016
  0
ARC
  5
275
330
2
100
AcDbEntity
  8
GAIKEI
  6
Continuous
100
AcDbCircle
 10
31.04182024693398
 20
8.126049766103164
 30
0.0
 40
0.5
100
AcDbArc
 50
359.670535000016
 51
0.0
  0
ARC
  5
276
330
2
100
AcDbEntity
  8
GAIKEI
  6
Continuous
100
AcDbCircle
 10
30.76682024693401
 20
4.165026066103109
 30
0.0
 40
0.5
100
AcDbArc
 50
273.0000000000057
 51
0.0
  0
ARC
  5
277
330
2
100
AcDbEntity
  8
GAIKEI
  6
Continuous
100
AcDbCircle
 10
31.76682024693401
 20
7.434347316103128
 30
0.0
 40
0.5
100
AcDbArc
 50
179.3354799999874
 51
180.0
  0
ARC
  5
278
330
2
100
AcDbEntity
  8
GAIKEI
  6
Continuous
100
AcDbCircle
 10
31.04182024693398
 20
8.126049766103164
 30
0.0
 40
0.5
100
AcDbArc
 50
321.8712529999933
 51
359.6917960000155
  0
ARC
  5
279
330
2
100
AcDbEntity
  8
GAIKEI
  6
Continuous
100
AcDbCircle
 10
30.94361574693403
 20
31.23659231610316
 30
0.0
 40
0.25
100
AcDbArc
 50
8.000000000005512
 51
77.99999999998565
  0
ARC
  5
27A
330
2
100
AcDbEntity
  8
GAIKEI
  6
Continuous
 62
     1
100
AcDbCircle
 10
30.29182024693398
 20
3.889789266103093
 30
0.0
 40
0.25
100
AcDbArc
 50
274.2367919999947
 51
0.0
  0
ARC
  5
27B
330
2
100
AcDbEntity
  8
GAIKEI
  6
Continuous
 62
     1
100
AcDbCircle
 10
31.29182024693398
 20
6.479333366103105
 30
0.0
 40
0.75
100
AcDbArc
 50
140.0000000000024
 51
180.0
  0
LINE
  5
27C
330
2
100
AcDbEntity
  8
GAIKEI
  6
Continuous
100
AcDbLine
 10
31.21516379693401
 20
31.10075146610313
 30
0.0
 11
31.54182024693398
 21
28.77647021610312
 31
0.0
  0
LINE
  5
27D
330
2
100
AcDbEntity
  8
GAIKEI
  6
Continuous
100
AcDbLine
 10
30.67601044693402
 20
3.659580716103164
 30
0.0
 11
30.79298824693399
 21
3.66571126610313
 31
0.0
  0
LINE
  5
27E
330
2
100
AcDbEntity
  8
GAIKEI
  6
Continuous
100
AcDbLine
 10
31.266820246934
 20
4.165026066103109
 30
0.0
 11
31.266820246934
 21
7.434347316103128
 31
0.0
  0
LINE
  5
27F
330
2
100
AcDbEntity
  8
GAIKEI
  6
Continuous
 62
     7
100
AcDbLine
 10
30.59734869693398
 20
3.655458266103096
 30
0.0
 11
30.67601044693402
 21
3.659580716103164
 31
0.0
  0
LINE
  5
280
330
2
100
AcDbEntity
  8
GAIKEI
  6
Continuous
 62
     1
100
AcDbLine
 10
30.30490424693403
 20
3.64013186610316
 30
0.0
 11
30.309031796934
 21
3.64034821610312
 31
0.0
  0
LINE
  5
281
330
2
100
AcDbEntity
  8
GAIKEI
  6
Continuous
 62
     1
100
AcDbLine
 10
30.31011009693401
 20
3.640404716103148
 30
0.0
 11
30.309031796934
 21
3.64034821610312
 31
0.0
  0
LINE
  5
282
330
2
100
AcDbEntity
  8
GAIKEI
  6
Continuous
 62
     7
100
AcDbLine
 10
30.31011009693401
 20
3.640404716103148
 30
0.0
 11
30.59734869693398
 21
3.655458266103096
 31
0.0
  0
LINE
  5
283
330
2
100
AcDbEntity
  8
GAIKEI
  6
Continuous
100
AcDbLine
 10
31.54182024693398
 20
14.76830361610314
 30
0.0
 11
31.54182024693398
 21
15.83631851610312
 31
0.0
  0
LINE
  5
284
330
2
100
AcDbEntity
  8
GAIKEI
  6
Continuous
100
AcDbLine
 10
31.54182024693398
 20
8.222841366103125
 30
0.0
 11
31.54182024693398
 21
14.76830361610314
 31
0.0
  0
LINE
  5
285
330
2
100
AcDbEntity
  8
GAIKEI
  6
Continuous
100
AcDbLine
 10
31.54182024693398
 20
8.126049766103164
 30
0.0
 11
31.54182024693398
 21
8.222841366103125
 31
0.0
  0
LINE
  5
286
330
2
100
AcDbEntity
  8
GAIKEI
  6
Continuous
100
AcDbLine
 10
31.54182024693398
 20
28.77647021610312
 30
0.0
 11
31.46696354693404
 21
29.30910341610314
 31
0.0
  0
LINE
  5
287
330
2
100
AcDbEntity
  8
GAIKEI
  6
Continuous
100
AcDbLine
 10
31.54182024693398
 20
28.77350011610315
 30
0.0
 11
31.54182024693398
 21
28.77647021610312
 31
0.0
  0
LINE
  5
288
330
2
100
AcDbEntity
  8
GAIKEI
  6
Continuous
100
AcDbLine
 10
31.22892359693401
 20
31.00284561610312
 30
0.0
 11
31.19118274693403
 21
31.27138556610316
 31
0.0
  0
LINE
  5
289
330
2
100
AcDbEntity
  8
GAIKEI
  6
Continuous
100
AcDbLine
 10
30.99559364693403
 20
31.48112921610311
 30
0.0
 11
30.07080454693403
 21
31.67769916610314
 31
0.0
  0
LINE
  5
28A
330
2
100
AcDbEntity
  8
GAIKEI
  6
Continuous
100
AcDbLine
 10
30.07080454693403
 20
31.67769916610314
 30
0.0
 11
29.600776096934
 21
31.77760681610312
 31
0.0
  0
LINE
  5
28B
330
2
100
AcDbEntity
  8
GAIKEI
  6
Continuous
 62
     1
100
AcDbLine
 10
31.04061099693399
 20
7.346746716103098
 30
0.0
 11
31.43513291575369
 21
7.817334452997442
 31
0.0
  0
LINE
  5
28C
330
2
100
AcDbEntity
  8
GAIKEI
  6
Continuous
 62
     1
100
AcDbLine
 10
31.271820246934
 20
10.71481106610315
 30
0.0
 11
31.22445774693404
 21
10.71481106610315
 31
0.0
  0
LINE
  5
28D
330
2
100
AcDbEntity
  8
GAIKEI
  6
Continuous
100
AcDbLine
 10
31.53938724693399
 20
28.75898851610316
 30
0.0
 11
31.53938724693399
 21
14.76830361610314
 31
0.0
  0
LINE
  5
28E
330
2
100
AcDbEntity
  8
GAIKEI
  6
Continuous
 62
     1
100
AcDbLine
 10
31.44360076516978
 20
26.25631305743571
 30
0.0
 11
31.461730746934
 21
27.86645426610312
 31
0.0
  0
LINE
  5
28F
330
2
100
AcDbEntity
  8
GAIKEI
  6
Continuous
 62
     1
100
AcDbLine
 10
31.26515974095406
 20
25.69073960067851
 30
0.0
 11
31.34758004693401
 21
25.8248949661031
 31
0.0
  0
LINE
  5
290
330
2
100
AcDbEntity
  8
GAIKEI
  6
Continuous
100
AcDbLine
 10
31.21322844693401
 20
26.03819186610315
 30
0.0
 11
31.20945509693399
 21
26.03204996610316
 31
0.0
  0
LINE
  5
291
330
2
100
AcDbEntity
  8
GAIKEI
  6
Continuous
100
AcDbLine
 10
31.21044859693404
 20
26.03927411610312
 30
0.0
 11
31.21322844693401
 21
26.03819186610315
 31
0.0
  0
LINE
  5
292
330
2
100
AcDbEntity
  8
GAIKEI
  6
Continuous
 62
     1
100
AcDbLine
 10
31.22445774693404
 20
24.12481106610312
 30
0.0
 11
31.22445774693404
 21
24.72981106610314
 31
0.0
  0
LINE
  5
293
330
2
100
AcDbEntity
  8
GAIKEI
  6
Continuous
 62
     1
100
AcDbLine
 10
31.22445774693404
 20
10.71481106610315
 30
0.0
 11
31.22445774693404
 21
11.31981106610317
 31
0.0
  0
LINE
  5
294
330
2
100
AcDbEntity
  8
GAIKEI
  6
Continuous
 62
     1
100
AcDbLine
 10
30.99559364693403
 20
24.72981106610314
 30
0.0
 11
31.22445774693404
 21
24.72981106610314
 31
0.0
  0
LINE
  5
295
330
2
100
AcDbEntity
  8
GAIKEI
  6
Continuous
 62
     1
100
AcDbLine
 10
30.99559364693403
 20
11.31981106610317
 30
0.0
 11
31.271820246934
 21
11.31981106610317
 31
0.0
  0
LINE
  5
296
330
2
100
AcDbEntity
  8
GAIKEI
  6
Continuous
 62
     1
100
AcDbLine
 10
31.22445774693404
 20
10.71481106610315
 30
0.0
 11
30.99559364693397
 21
10.71481106610315
 31
0.0
  0
LINE
  5
297
330
2
100
AcDbEntity
  8
GAIKEI
  6
Continuous
 62
     1
100
AcDbLine
 10
31.22445774693404
 20
24.12481106610312
 30
0.0
 11
30.99559364693403
 21
24.12481106610312
 31
0.0
  0
LINE
  5
298
330
2
100
AcDbEntity
  8
GAIKEI
  6
Continuous
 62
     1
100
AcDbLine
 10
31.19387371162998
 20
7.811074348947727
 30
0.0
 11
31.19116173279616
 21
10.71481106610315
 31
0.0
  0
LINE
  5
299
330
2
100
AcDbEntity
  8
GAIKEI
  6
Continuous
 62
     1
100
AcDbLine
 10
31.19118274693403
 20
11.31981106610317
 30
0.0
 11
31.19118274693403
 21
24.12481106610312
 31
0.0
  0
LINE
  5
29A
330
2
100
AcDbEntity
  8
GAIKEI
  6
Continuous
 62
     1
100
AcDbLine
 10
31.19118274693403
 20
24.72981106610314
 30
0.0
 11
31.19118274693392
 21
25.42900615158214
 31
0.0
  0
LINE
  5
29B
330
2
100
AcDbEntity
  8
GAIKEI
  6
Continuous
 62
     1
100
AcDbLine
 10
31.19118274693403
 20
25.37907946610312
 30
0.0
 11
30.99559364693403
 21
25.37907946610312
 31
0.0
  0
LINE
  5
29C
330
2
100
AcDbEntity
  8
GAIKEI
  6
Continuous
 62
     1
100
AcDbLine
 10
30.71728689693401
 20
6.961424116103103
 30
0.0
 11
31.04061099693399
 21
7.346746716103098
 31
0.0
  0
LINE
  5
29D
330
2
100
AcDbEntity
  8
GAIKEI
  6
Continuous
 62
     1
100
AcDbLine
 10
30.54182024693398
 20
3.889789266103093
 30
0.0
 11
30.54182024693398
 21
4.62226846610315
 31
0.0
  0
LINE
  5
29E
330
2
100
AcDbEntity
  8
GAIKEI
  6
Continuous
 62
     1
100
AcDbLine
 10
30.30643724693403
 20
3.641077516103109
 30
0.0
 11
30.30490424693403
 21
3.64013186610316
 31
0.0
  0
LINE
  5
29F
330
2
100
AcDbEntity
  8
GAIKEI
  6
Continuous
 62
     1
100
AcDbLine
 10
30.54182024693398
 20
4.62226846610315
 30
0.0
 11
30.14577609693402
 21
4.62226846610315
 31
0.0
  0
LINE
  5
2A0
330
2
100
AcDbEntity
  8
GAIKEI
  6
Continuous
 62
     1
100
AcDbLine
 10
30.54182024693398
 20
4.62226846610315
 30
0.0
 11
30.54182024693398
 21
6.479333366103105
 31
0.0
  0
LINE
  5
2A1
330
2
100
AcDbEntity
  8
GAIKEI
  6
Continuous
100
AcDbLine
 10
29.38682024693401
 20
3.592017146971329
 30
0.0
 11
30.30490424693403
 21
3.64013186610316
 31
0.0
  0
LINE
  5
2A2
330
2
100
AcDbEntity
  8
GAIKEI
  6
Continuous
100
AcDbLine
 10
29.600776096934
 20
31.77760681610312
 30
0.0
 11
29.38682024693401
 21
31.82308453544846
 31
0.0
  0
LINE
  5
2A3
330
2
100
AcDbEntity
  8
GAIKEI
  6
Continuous
 62
     1
100
AcDbLine
 10
30.14577609693402
 20
4.62226846610315
 30
0.0
 11
29.482172246934
 21
4.587490466103133
 31
0.0
  0
LINE
  5
2A4
330
2
100
AcDbEntity
  8
GAIKEI
  6
Continuous
 62
     1
100
AcDbLine
 10
30.14577609693402
 20
6.479333366103105
 30
0.0
 11
30.14577609693402
 21
4.62226846610315
 31
0.0
  0
LINE
  5
2A5
330
2
100
AcDbEntity
  8
GAIKEI
  6
Continuous
 62
     1
100
AcDbLine
 10
30.99559364693403
 20
7.947069316103124
 30
0.0
 11
30.43822054693402
 21
7.282817916103113
 31
0.0
  0
LINE
  5
2A6
330
2
100
AcDbEntity
  8
GAIKEI
  6
Continuous
 62
     1
100
AcDbLine
 10
30.99559364693397
 20
10.71481106610315
 30
0.0
 11
30.99559364693403
 21
7.947069316103124
 31
0.0
  0
LINE
  5
2A7
330
2
100
AcDbEntity
  8
GAIKEI
  6
Continuous
 62
     1
100
AcDbLine
 10
31.02886864693403
 20
11.31981106610317
 30
0.0
 11
31.02886864693403
 21
10.71481106610315
 31
0.0
  0
LINE
  5
2A8
330
2
100
AcDbEntity
  8
GAIKEI
  6
Continuous
 62
     1
100
AcDbLine
 10
30.99559364693403
 20
24.12481106610312
 30
0.0
 11
30.99559364693403
 21
11.31981106610317
 31
0.0
  0
LINE
  5
2A9
330
2
100
AcDbEntity
  8
GAIKEI
  6
Continuous
 62
     1
100
AcDbLine
 10
31.02886864693403
 20
24.72981106610314
 30
0.0
 11
31.02886864693403
 21
24.12481106610312
 31
0.0
  0
LINE
  5
2AA
330
2
100
AcDbEntity
  8
GAIKEI
  6
Continuous
 62
     1
100
AcDbLine
 10
30.99559364693403
 20
25.37907946610312
 30
0.0
 11
30.99559364693403
 21
24.72981106610314
 31
0.0
  0
LINE
  5
2AB
330
2
100
AcDbEntity
  8
GAIKEI
  6
Continuous
 62
     1
100
AcDbLine
 10
30.71441534693401
 20
25.51019506610316
 30
0.0
 11
30.99559364693403
 21
25.37907946610312
 31
0.0
  0
LINE
  5
2AC
330
2
100
AcDbEntity
  8
GAIKEI
  6
Continuous
 62
     1
100
AcDbLine
 10
29.52234234693401
 20
10.49981106610312
 30
0.0
 11
29.52234234693401
 21
11.75481106610311
 31
0.0
  0
LINE
  5
2AD
330
2
100
AcDbEntity
  8
GAIKEI
  6
Continuous
 62
     1
100
AcDbLine
 10
29.38682024693401
 20
10.49981106610312
 30
0.0
 11
29.52234234693401
 21
10.49981106610312
 31
0.0
  0
LINE
  5
2AE
330
2
100
AcDbEntity
  8
GAIKEI
  6
Continuous
 62
     1
100
AcDbLine
 10
29.52234234693401
 20
11.75481106610311
 30
0.0
 11
29.38682024693401
 21
11.75481106610311
 31
0.0
  0
ARC
  5
2AF
330
2
100
AcDbEntity
  8
GAIKEI
  6
Continuous
100
AcDbCircle
 10
30.00059919693399
 20
28.24993921610314
 30
0.0
 40
1.49975415
100
AcDbArc
 50
352.1712090000072
 51
359.9983329999857
  0
ARC
  5
2B0
330
2
100
AcDbEntity
  8
GAIKEI
  6
Continuous
100
AcDbCircle
 10
30.00059919693399
 20
28.70440911610314
 30
0.0
 40
1.49975415
100
AcDbArc
 50
0.0016670000142817
 51
7.828790999992842
  0
LINE
  5
2B1
330
2
100
AcDbEntity
  8
GAIKEI
  6
Continuous
100
AcDbLine
 10
31.50035334693405
 20
28.24989561610312
 30
0.0
 11
31.50035334693405
 21
28.70445276610315
 31
0.0
  0
LINE
  5
2B2
330
2
100
AcDbEntity
  8
GAIKEI
  6
Continuous
 62
     1
100
AcDbLine
 10
30.91069929693401
 20
31.40209246610311
 30
0.0
 11
29.38682024693401
 21
31.72863796599575
 31
0.0
  0
LINE
  5
2B3
330
2
100
AcDbEntity
  8
GAIKEI
  6
Continuous
100
AcDbLine
 10
29.40194164693401
 20
25.22895066610312
 30
0.0
 11
30.91069929693401
 21
25.55225591610315
 31
0.0
  0
LINE
  5
2B4
330
2
100
AcDbEntity
  8
GAIKEI
  6
Continuous
100
AcDbLine
 10
31.18395779693401
 20
25.84664816610314
 30
0.0
 11
31.48637489693397
 21
28.0456526161031
 31
0.0
  0
LINE
  5
2B5
330
2
100
AcDbEntity
  8
GAIKEI
  6
Continuous
 62
     1
100
AcDbLine
 10
31.48637489693397
 20
28.90869571610313
 30
0.0
 11
31.18395779693401
 21
31.10770016610314
 31
0.0
  0
ARC
  5
2B6
330
2
100
AcDbEntity
  8
GAIKEI
  6
Continuous
 62
     1
100
AcDbCircle
 10
30.67682024693397
 20
9.677016166103157
 30
0.0
 40
0.9
100
AcDbArc
 50
0.0
 51
15.88084999999635
  0
ARC
  5
2B7
330
2
100
AcDbEntity
  8
GAIKEI
  6
Continuous
 62
     1
100
AcDbCircle
 10
30.67682024693397
 20
9.677016166103157
 30
0.0
 40
0.9
100
AcDbArc
 50
344.1191500000036
 51
0.0
  0
ARC
  5
2B8
330
2
100
AcDbEntity
  8
GAIKEI
  6
Continuous
 62
     1
100
AcDbCircle
 10
31.417431496934
 20
9.466315066103106
 30
0.0
 40
0.13
100
AcDbArc
 50
343.1044909999914
 51
344.1191500000036
  0
ARC
  5
2B9
330
2
100
AcDbEntity
  8
GAIKEI
  6
Continuous
 62
     1
100
AcDbCircle
 10
31.417431496934
 20
9.887717216103169
 30
0.0
 40
0.13
100
AcDbArc
 50
15.88084999999635
 51
16.89550900000867
  0
ARC
  5
2BA
330
2
100
AcDbEntity
  8
GAIKEI
  6
Continuous
 62
     1
100
AcDbCircle
 10
31.29932024693403
 20
10.17731106610313
 30
0.0
 40
0.35
100
AcDbArc
 50
0.0
 51
16.25702799999795
  0
ARC
  5
2BB
330
2
100
AcDbEntity
  8
GAIKEI
  6
Continuous
 62
     1
100
AcDbCircle
 10
31.29932024693403
 20
10.17731106610313
 30
0.0
 40
0.35
100
AcDbArc
 50
343.742972000002
 51
0.0
  0
ARC
  5
2BC
330
2
100
AcDbEntity
  8
GAIKEI
  6
Continuous
 62
     1
100
AcDbCircle
 10
31.58732489693398
 20
10.0933270161031
 30
0.0
 40
0.05
100
AcDbArc
 50
275.0000010000026
 51
343.742972000002
  0
ARC
  5
2BD
330
2
100
AcDbEntity
  8
GAIKEI
  6
Continuous
 62
     1
100
AcDbCircle
 10
31.58732489693398
 20
10.26129511610315
 30
0.0
 40
0.05
100
AcDbArc
 50
16.25702799999795
 51
84.99999899999744
  0
LINE
  5
2BE
330
2
100
AcDbEntity
  8
GAIKEI
  6
Continuous
 62
     1
100
AcDbLine
 10
31.63532569693405
 20
10.27529241610313
 30
0.0
 11
31.63532569693405
 21
10.07932971610313
 31
0.0
  0
LINE
  5
2BF
330
2
100
AcDbEntity
  8
GAIKEI
  6
Continuous
 62
     1
100
AcDbLine
 10
31.54932024693403
 20
10.31231106610312
 30
0.0
 11
31.54182024693398
 21
10.31231106610312
 31
0.0
  0
LINE
  5
2C0
330
2
100
AcDbEntity
  8
GAIKEI
  6
Continuous
 62
     1
100
AcDbLine
 10
31.54182024693398
 20
10.04231106610314
 30
0.0
 11
31.54932024693403
 21
10.04231106610314
 31
0.0
  0
LINE
  5
2C1
330
2
100
AcDbEntity
  8
GAIKEI
  6
Continuous
 62
     1
100
AcDbLine
 10
31.59168269693402
 20
10.31110481610312
 30
0.0
 11
31.54932024693403
 21
10.31481106610312
 31
0.0
  0
LINE
  5
2C2
330
2
100
AcDbEntity
  8
GAIKEI
  6
Continuous
 62
     1
100
AcDbLine
 10
31.54932024693403
 20
10.03981106610314
 30
0.0
 11
31.59168269693402
 21
10.04351731610313
 31
0.0
  0
LINE
  5
2C3
330
2
100
AcDbEntity
  8
GAIKEI
  6
Continuous
 62
     1
100
AcDbLine
 10
31.54932024693403
 20
10.31481106610312
 30
0.0
 11
31.54932024693403
 21
10.03981106610314
 31
0.0
  0
LINE
  5
2C4
330
2
100
AcDbEntity
  8
GAIKEI
  6
Continuous
 62
     1
100
AcDbLine
 10
31.59168269693402
 20
10.31110481610312
 30
0.0
 11
31.59168269693402
 21
10.04351731610313
 31
0.0
  0
ARC
  5
2C5
330
2
100
AcDbEntity
  8
GAIKEI
  6
Continuous
 62
     1
100
AcDbCircle
 10
29.05182024693397
 20
17.67731106610313
 30
0.0
 40
0.45
100
AcDbArc
 50
0.0
 51
16.60155000000317
  0
ARC
  5
2C6
330
2
100
AcDbEntity
  8
GAIKEI
  6
Continuous
 62
     1
100
AcDbCircle
 10
29.05182024693397
 20
17.67731106610313
 30
0.0
 40
0.45
100
AcDbArc
 50
343.3984499999969
 51
0.0
  0
ARC
  5
2C7
330
2
100
AcDbEntity
  8
GAIKEI
  6
Continuous
 62
     1
100
AcDbCircle
 10
29.420771446934
 20
17.56731106610311
 30
0.0
 40
0.065
100
AcDbArc
 50
270.0
 51
343.3984499999969
  0
ARC
  5
2C8
330
2
100
AcDbEntity
  8
GAIKEI
  6
Continuous
 62
     1
100
AcDbCircle
 10
29.420771446934
 20
17.78731106610314
 30
0.0
 40
0.065
100
AcDbArc
 50
16.60155000000317
 51
90.0
  0
LINE
  5
2C9
330
2
100
AcDbEntity
  8
GAIKEI
  6
Continuous
 62
     1
100
AcDbLine
 10
29.38682024693401
 20
17.50231106610312
 30
0.0
 11
29.420771446934
 21
17.50231106610312
 31
0.0
  0
LINE
  5
2CA
330
2
100
AcDbEntity
  8
GAIKEI
  6
Continuous
 62
     1
100
AcDbLine
 10
29.420771446934
 20
17.85231106610314
 30
0.0
 11
29.38682024693401
 21
17.85231106610314
 31
0.0
  0
LINE
  5
2CB
330
2
100
AcDbEntity
  8
GAIKEI
  6
Continuous
 62
     1
100
AcDbLine
 10
29.420771446934
 20
17.50231106610312
 30
0.0
 11
29.420771446934
 21
17.85231106610314
 31
0.0
  0
LINE
  5
2CC
330
2
100
AcDbEntity
  8
GAIKEI
  6
Continuous
 62
     1
100
AcDbLine
 10
29.48306194693401
 20
17.54873961610315
 30
0.0
 11
29.48306194693401
 21
17.80588251610311
 31
0.0
  0
ARC
  5
2CD
330
2
100
AcDbEntity
  8
GAIKEI
  6
Continuous
 62
     1
100
AcDbCircle
 10
29.05182024693397
 20
4.717311066103093
 30
0.0
 40
0.45
100
AcDbArc
 50
0.0
 51
16.60155000000317
  0
ARC
  5
2CE
330
2
100
AcDbEntity
  8
GAIKEI
  6
Continuous
 62
     1
100
AcDbCircle
 10
29.05182024693397
 20
4.717311066103093
 30
0.0
 40
0.45
100
AcDbArc
 50
343.3984499999969
 51
0.0
  0
ARC
  5
2CF
330
2
100
AcDbEntity
  8
GAIKEI
  6
Continuous
 62
     1
100
AcDbCircle
 10
29.420771446934
 20
4.607311066103136
 30
0.0
 40
0.065
100
AcDbArc
 50
270.0
 51
343.3984499999969
  0
ARC
  5
2D0
330
2
100
AcDbEntity
  8
GAIKEI
  6
Continuous
 62
     1
100
AcDbCircle
 10
29.420771446934
 20
4.827311066103106
 30
0.0
 40
0.065
100
AcDbArc
 50
16.60155000000317
 51
90.0
  0
LINE
  5
2D1
330
2
100
AcDbEntity
  8
GAIKEI
  6
Continuous
 62
     1
100
AcDbLine
 10
29.38682024693401
 20
4.542311066103138
 30
0.0
 11
29.420771446934
 21
4.542311066103138
 31
0.0
  0
LINE
  5
2D2
330
2
100
AcDbEntity
  8
GAIKEI
  6
Continuous
 62
     1
100
AcDbLine
 10
29.420771446934
 20
4.892311066103161
 30
0.0
 11
29.38682024693401
 21
4.892311066103161
 31
0.0
  0
LINE
  5
2D3
330
2
100
AcDbEntity
  8
GAIKEI
  6
Continuous
 62
     1
100
AcDbLine
 10
29.420771446934
 20
4.542311066103138
 30
0.0
 11
29.420771446934
 21
4.892311066103161
 31
0.0
  0
LINE
  5
2D4
330
2
100
AcDbEntity
  8
GAIKEI
  6
Continuous
 62
     1
100
AcDbLine
 10
29.48306194693401
 20
4.588739616103111
 30
0.0
 11
29.48306194693401
 21
4.845882516103131
 31
0.0
  0
LINE
  5
2D5
330
2
100
AcDbEntity
  8
GAIKEI
  6
Continuous
 62
     1
100
AcDbLine
 10
29.38682024693401
 20
3.102311066103141
 30
0.0
 11
29.42182024693398
 21
3.102311066103141
 31
0.0
  0
ARC
  5
2D6
330
2
100
AcDbEntity
  8
GAIKEI
  6
Continuous
 62
     1
100
AcDbCircle
 10
29.10182024693404
 20
3.102311066103141
 30
0.0
 40
0.45
100
AcDbArc
 50
0.0
 51
16.60155000000317
  0
ARC
  5
2D7
330
2
100
AcDbEntity
  8
GAIKEI
  6
Continuous
 62
     1
100
AcDbCircle
 10
29.10182024693404
 20
3.102311066103141
 30
0.0
 40
0.45
100
AcDbArc
 50
343.3984499999969
 51
0.0
  0
ARC
  5
2D8
330
2
100
AcDbEntity
  8
GAIKEI
  6
Continuous
 62
     1
100
AcDbCircle
 10
29.47077144693401
 20
2.992311066103127
 30
0.0
 40
0.065
100
AcDbArc
 50
270.0
 51
343.3984499999969
  0
ARC
  5
2D9
330
2
100
AcDbEntity
  8
GAIKEI
  6
Continuous
 62
     1
100
AcDbCircle
 10
29.47077144693401
 20
3.212311066103097
 30
0.0
 40
0.065
100
AcDbArc
 50
16.60155000000317
 51
90.0
  0
LINE
  5
2DA
330
2
100
AcDbEntity
  8
GAIKEI
  6
Continuous
 62
     1
100
AcDbLine
 10
29.42182024693398
 20
3.197311066103111
 30
0.0
 11
29.387810596934
 21
3.197311066103111
 31
0.0
  0
LINE
  5
2DB
330
2
100
AcDbEntity
  8
GAIKEI
  6
Continuous
 62
     1
100
AcDbLine
 10
29.53306194693403
 20
2.973739616103102
 30
0.0
 11
29.53306194693403
 21
3.230882516103122
 31
0.0
  0
LINE
  5
2DC
330
2
100
AcDbEntity
  8
GAIKEI
  6
Continuous
 62
     1
100
AcDbLine
 10
29.42182024693398
 20
2.927311066103129
 30
0.0
 11
29.47077144693401
 21
2.927311066103129
 31
0.0
  0
LINE
  5
2DD
330
2
100
AcDbEntity
  8
GAIKEI
  6
Continuous
 62
     1
100
AcDbLine
 10
29.47077144693401
 20
3.277311066103152
 30
0.0
 11
29.42182024693398
 21
3.277311066103152
 31
0.0
  0
LINE
  5
2DE
330
2
100
AcDbEntity
  8
GAIKEI
  6
Continuous
 62
     1
100
AcDbLine
 10
29.42182024693398
 20
3.102311066103141
 30
0.0
 11
29.42182024693398
 21
3.277311066103152
 31
0.0
  0
LINE
  5
2DF
330
2
100
AcDbEntity
  8
GAIKEI
  6
Continuous
 62
     1
100
AcDbLine
 10
29.42182024693398
 20
2.927311066103129
 30
0.0
 11
29.42182024693398
 21
3.102311066103141
 31
0.0
  0
LINE
  5
2E0
330
2
100
AcDbEntity
  8
GAIKEI
  6
Continuous
 62
     1
100
AcDbLine
 10
29.47077144693401
 20
2.927311066103129
 30
0.0
 11
29.47077144693401
 21
3.277311066103152
 31
0.0
  0
ARC
  5
2E1
330
2
100
AcDbEntity
  8
GAIKEI
  6
Continuous
 62
     1
100
AcDbCircle
 10
29.05932024693402
 20
2.877311066103118
 30
0.0
 40
0.35
100
AcDbArc
 50
0.0
 51
16.25702799999795
  0
ARC
  5
2E2
330
2
100
AcDbEntity
  8
GAIKEI
  6
Continuous
 62
     1
100
AcDbCircle
 10
29.05932024693402
 20
2.877311066103118
 30
0.0
 40
0.35
100
AcDbArc
 50
343.742972000002
 51
0.0
  0
ARC
  5
2E3
330
2
100
AcDbEntity
  8
GAIKEI
  6
Continuous
 62
     1
100
AcDbCircle
 10
29.34732489693397
 20
2.793327016103148
 30
0.0
 40
0.05
100
AcDbArc
 50
322.1768080000052
 51
343.742972000002
  0
ARC
  5
2E4
330
2
100
AcDbEntity
  8
GAIKEI
  6
Continuous
 62
     1
100
AcDbCircle
 10
29.34732489693397
 20
2.961295116103144
 30
0.0
 40
0.05
100
AcDbArc
 50
16.25702799999795
 51
37.82319199999473
  0
ARC
  5
2E5
330
2
100
AcDbEntity
  8
GAIKEI
  6
Continuous
 62
     1
100
AcDbCircle
 10
29.07293019693401
 20
3.252311066103118
 30
0.0
 40
0.38639005
100
AcDbArc
 50
3.709712000011262
 51
32.35843299999584
  0
LINE
  5
2E6
330
2
100
AcDbEntity
  8
GAIKEI
  6
Continuous
 62
     1
100
AcDbLine
 10
29.399320246934
 20
3.459112566103158
 30
0.0
 11
29.38682024693401
 21
3.463662166103119
 31
0.0
  0
LINE
  5
2E7
330
2
100
AcDbEntity
  8
GAIKEI
  6
Continuous
 62
     1
100
AcDbLine
 10
29.399320246934
 20
3.459112566103158
 30
0.0
 11
29.399320246934
 21
3.197311066103111
 31
0.0
  0
LINE
  5
2E8
330
2
100
AcDbEntity
  8
GAIKEI
  6
Continuous
 62
     1
100
AcDbLine
 10
29.44932024693401
 20
2.647311066103156
 30
0.0
 11
29.41932024693404
 21
2.617311066103127
 31
0.0
  0
LINE
  5
2E9
330
2
100
AcDbEntity
  8
GAIKEI
  6
Continuous
 62
     1
100
AcDbLine
 10
29.44932024693401
 20
2.927311066103129
 30
0.0
 11
29.44932024693401
 21
2.647311066103156
 31
0.0
  0
LINE
  5
2EA
330
2
100
AcDbEntity
  8
GAIKEI
  6
Continuous
 62
     1
100
AcDbLine
 10
29.41932024693404
 20
2.617311066103127
 30
0.0
 11
29.389320246934
 21
2.587311066103097
 31
0.0
  0
LINE
  5
2EB
330
2
100
AcDbEntity
  8
GAIKEI
  6
Continuous
 62
     1
100
AcDbLine
 10
29.389320246934
 20
2.587311066103097
 30
0.0
 11
29.38682024693401
 21
2.587311066103097
 31
0.0
  0
ARC
  5
2EC
330
2
100
AcDbEntity
  8
GAIKEI
  6
Continuous
 62
     1
100
AcDbCircle
 10
31.266820246934
 20
9.3719574161031
 30
0.0
 40
0.3
100
AcDbArc
 50
336.4435359999883
 51
0.0
  0
ARC
  5
2ED
330
2
100
AcDbEntity
  8
GAIKEI
  6
Continuous
 62
     1
100
AcDbCircle
 10
31.516820246934
 20
9.527311066103152
 30
0.0
 40
0.05
100
AcDbArc
 50
0.0
 51
11.2074969999849
  0
ARC
  5
2EE
330
2
100
AcDbEntity
  8
GAIKEI
  6
Continuous
 62
     1
100
AcDbCircle
 10
31.516820246934
 20
9.527311066103152
 30
0.0
 40
0.04862125
100
AcDbArc
 50
0.0
 51
6.222905000009303
  0
ARC
  5
2EF
330
2
100
AcDbEntity
  8
GAIKEI
  6
Continuous
 62
     1
100
AcDbCircle
 10
31.266820246934
 20
9.3719574161031
 30
0.0
 40
0.29862125
100
AcDbArc
 50
337.0578669999897
 51
0.0
  0
LINE
  5
2F0
330
2
100
AcDbEntity
  8
GAIKEI
  6
Continuous
 62
     1
100
AcDbLine
 10
31.565441496934
 20
9.527311066103152
 30
0.0
 11
31.56682024693401
 21
9.527311066103152
 31
0.0
  0
LINE
  5
2F1
330
2
100
AcDbEntity
  8
GAIKEI
  6
Continuous
 62
     1
100
AcDbLine
 10
31.565441496934
 20
9.3719574161031
 30
0.0
 11
31.56682024693401
 21
9.3719574161031
 31
0.0
  0
LINE
  5
2F2
330
2
100
AcDbEntity
  8
GAIKEI
  6
Continuous
 62
     1
100
AcDbLine
 10
31.56682024693401
 20
9.527311066103152
 30
0.0
 11
31.56682024693401
 21
9.3719574161031
 31
0.0
  0
LINE
  5
2F3
330
2
100
AcDbEntity
  8
GAIKEI
  6
Continuous
 62
     1
100
AcDbLine
 10
31.565441496934
 20
9.527311066103152
 30
0.0
 11
31.565441496934
 21
9.3719574161031
 31
0.0
  0
LINE
  5
2F4
330
2
100
AcDbEntity
  8
GAIKEI
  6
Continuous
 62
     1
100
AcDbLine
 10
31.56428199693403
 20
9.527311066103152
 30
0.0
 11
31.565441496934
 21
9.527311066103152
 31
0.0
  0
LINE
  5
2F5
330
2
100
AcDbEntity
  8
GAIKEI
  6
Continuous
 62
     1
100
AcDbLine
 10
31.54182024693398
 20
9.3719574161031
 30
0.0
 11
31.565441496934
 21
9.3719574161031
 31
0.0
  0
ELLIPSE
  5
2F6
330
2
100
AcDbEntity
  8
GAIKEI
  6
Continuous
 62
     1
100
AcDbEllipse
 10
27.72077864693404
 20
2.586855716103116
 30
0.0
 11
-0.3002704522363481
 21
0.4353255228029943
 31
0.0
210
0.0
220
0.0
230
1.0
 40
0.7084260000000002
 41
0.7388798675136195
 42
1.221777013352586
  0
ELLIPSE
  5
2F7
330
2
100
AcDbEntity
  8
GAIKEI
  6
Continuous
 62
     1
100
AcDbEllipse
 10
27.71685344693401
 20
2.586855716103116
 30
0.0
 11
-0.2690783224982649
 21
0.3978566820730179
 31
0.0
210
0.0
220
0.0
230
1.0
 40
0.6240160000000001
 41
0.7448982300329864
 42
1.307714707561869
  0
ELLIPSE
  5
2F8
330
2
100
AcDbEntity
  8
GAIKEI
  6
Continuous
 62
     1
100
AcDbEllipse
 10
25.46809289693397
 20
2.629811066103115
 30
0.0
 11
3.816227337545457
 21
0.0
 31
0.0
210
0.0
220
0.0
230
1.0
 40
0.052408
 41
6.281815779309091
 42
6.283185307179586
  0
ARC
  5
2F9
330
2
100
AcDbEntity
  8
GAIKEI
  6
Continuous
100
AcDbCircle
 10
27.18682024693402
 20
2.82668896610312
 30
0.0
 40
0.05
100
AcDbArc
 50
180.0
 51
212.0859750000037
  0
ARC
  5
2FA
330
2
100
AcDbEntity
  8
GAIKEI
  6
Continuous
100
AcDbCircle
 10
27.35466309693402
 20
2.606043016103114
 30
0.0
 40
0.075
100
AcDbArc
 50
212.0859750000037
 51
266.9999999999943
  0
ARC
  5
2FB
330
2
100
AcDbEntity
  8
GAIKEI
  6
Continuous
100
AcDbCircle
 10
27.35466309693402
 20
32.74857911610315
 30
0.0
 40
0.075
100
AcDbArc
 50
93.00000000000578
 51
147.9140249999963
  0
ARC
  5
2FC
330
2
100
AcDbEntity
  8
GAIKEI
  6
Continuous
100
AcDbCircle
 10
29.336820246934
 20
2.479811066103138
 30
0.0
 40
0.05
100
AcDbArc
 50
270.0
 51
0.0
  0
ARC
  5
2FD
330
2
100
AcDbEntity
  8
GAIKEI
  6
Continuous
100
AcDbCircle
 10
29.336820246934
 20
32.87481106610312
 30
0.0
 40
0.05
100
AcDbArc
 50
0.0
 51
90.0
  0
LINE
  5
2FE
330
2
100
AcDbEntity
  8
GAIKEI
  6
Continuous
100
AcDbLine
 10
27.13682024693401
 20
2.82668896610312
 30
0.0
 11
27.13682024693401
 21
32.54231108822433
 31
0.0
  0
LINE
  5
2FF
330
2
100
AcDbEntity
  8
GAIKEI
  6
Continuous
100
AcDbLine
 10
27.35210384693403
 20
32.82354791610317
 30
0.0
 11
27.35073789693399
 21
32.8234763161031
 31
0.0
  0
LINE
  5
300
330
2
100
AcDbEntity
  8
GAIKEI
  6
Continuous
100
AcDbLine
 10
27.29111919693401
 20
2.566203716103132
 30
0.0
 11
27.14445764693403
 21
2.800129366103135
 31
0.0
  0
LINE
  5
301
330
2
100
AcDbEntity
  8
GAIKEI
  6
Continuous
 62
     1
100
AcDbLine
 10
27.13682024693401
 20
3.011507743981837
 30
0.0
 11
27.29111919693401
 21
2.765400416103148
 31
0.0
  0
LINE
  5
302
330
2
100
AcDbEntity
  8
GAIKEI
  6
Continuous
 62
     1
100
AcDbLine
 10
27.29111919693401
 20
32.58922171610311
 30
0.0
 11
27.13682024693395
 21
32.34311438822431
 31
0.0
  0
LINE
  5
303
330
2
100
AcDbEntity
  8
GAIKEI
  6
Continuous
100
AcDbLine
 10
27.13682024693401
 20
32.54231108822433
 30
0.0
 11
27.29111919693401
 21
32.78841841610313
 31
0.0
  0
LINE
  5
304
330
2
100
AcDbEntity
  8
GAIKEI
  6
Continuous
 62
     1
100
AcDbLine
 10
27.29111919693401
 20
2.765400416103148
 30
0.0
 11
27.29111919693401
 21
32.78841845310552
 31
0.0
  0
LINE
  5
305
330
2
100
AcDbEntity
  8
GAIKEI
  6
Continuous
100
AcDbLine
 10
27.35210384693403
 20
32.82354791610317
 30
0.0
 11
29.28431664693403
 21
32.92481086610314
 31
0.0
  0
LINE
  5
306
330
2
100
AcDbEntity
  8
GAIKEI
  6
Continuous
100
AcDbLine
 10
29.28431664693403
 20
2.429811266103115
 30
0.0
 11
27.35073790021579
 21
2.531145800996512
 31
0.0
  0
LINE
  5
307
330
2
100
AcDbEntity
  8
GAIKEI
  6
Continuous
100
AcDbLine
 10
29.38682024693401
 20
32.72481106610314
 30
0.0
 11
29.38682024693401
 21
2.629811066103115
 31
0.0
  0
LINE
  5
308
330
2
100
AcDbEntity
  8
GAIKEI
  6
Continuous
 62
     1
100
AcDbLine
 10
29.38682024693401
 20
2.629811066103115
 30
0.0
 11
29.336820246934
 21
2.629811066103115
 31
0.0
  0
LINE
  5
309
330
2
100
AcDbEntity
  8
GAIKEI
  6
Continuous
100
AcDbLine
 10
29.38682024693401
 20
2.629811066103115
 30
0.0
 11
29.38682024693401
 21
2.479811066103138
 31
0.0
  0
LINE
  5
30A
330
2
100
AcDbEntity
  8
GAIKEI
  6
Continuous
100
AcDbLine
 10
29.336820246934
 20
2.429811066103127
 30
0.0
 11
29.28432024693405
 21
2.429811066103127
 31
0.0
  0
LINE
  5
30B
330
2
100
AcDbEntity
  8
GAIKEI
  6
Continuous
 62
     1
100
AcDbLine
 10
29.336820246934
 20
2.429811066103127
 30
0.0
 11
29.336820246934
 21
2.629811066103115
 31
0.0
  0
LINE
  5
30C
330
2
100
AcDbEntity
  8
GAIKEI
  6
Continuous
100
AcDbLine
 10
29.28431664693403
 20
2.429811266103115
 30
0.0
 11
29.28432024693405
 21
2.429811066103127
 31
0.0
  0
LINE
  5
30D
330
2
100
AcDbEntity
  8
GAIKEI
  6
Continuous
 62
     1
100
AcDbLine
 10
29.28431664693403
 20
32.72508496610317
 30
0.0
 11
27.29111919693401
 21
32.62062589545656
 31
0.0
  0
LINE
  5
30E
330
2
100
AcDbEntity
  8
GAIKEI
  6
Continuous
 62
     1
100
AcDbLine
 10
27.35073789693399
 20
32.82347633103774
 30
0.0
 11
27.35073789693399
 21
2.765400416103148
 31
0.0
  0
LINE
  5
30F
330
2
100
AcDbEntity
  8
GAIKEI
  6
Continuous
 62
     1
100
AcDbLine
 10
27.35210384693403
 20
2.730800166103108
 30
0.0
 11
29.28431664693403
 21
2.629537166103091
 31
0.0
  0
LINE
  5
310
330
2
100
AcDbEntity
  8
GAIKEI
  6
Continuous
100
AcDbLine
 10
29.38682024693401
 20
32.72481106610314
 30
0.0
 11
29.336820246934
 21
32.72481106610314
 31
0.0
  0
LINE
  5
311
330
2
100
AcDbEntity
  8
GAIKEI
  6
Continuous
100
AcDbLine
 10
29.38682024693401
 20
32.87481106610312
 30
0.0
 11
29.38682024693401
 21
32.72481106610314
 31
0.0
  0
LINE
  5
312
330
2
100
AcDbEntity
  8
GAIKEI
  6
Continuous
 62
     1
100
AcDbLine
 10
29.28432024693405
 20
2.629811066103115
 30
0.0
 11
29.336820246934
 21
2.629811066103115
 31
0.0
  0
LINE
  5
313
330
2
100
AcDbEntity
  8
GAIKEI
  6
Continuous
 62
     1
100
AcDbLine
 10
29.28432024693405
 20
32.92481106610319
 30
0.0
 11
29.28432024693399
 21
2.42981106610307
 31
0.0
  0
LINE
  5
314
330
2
100
AcDbEntity
  8
GAIKEI
  6
Continuous
100
AcDbLine
 10
29.336820246934
 20
32.72481106610314
 30
0.0
 11
29.28432024693405
 21
32.72481106610314
 31
0.0
  0
LINE
  5
315
330
2
100
AcDbEntity
  8
GAIKEI
  6
Continuous
100
AcDbLine
 10
29.28432024693405
 20
32.92481106610313
 30
0.0
 11
29.336820246934
 21
32.92481106610313
 31
0.0
  0
LINE
  5
316
330
2
100
AcDbEntity
  8
GAIKEI
  6
Continuous
100
AcDbLine
 10
29.28432024693405
 20
32.92481106610313
 30
0.0
 11
29.28431664693403
 21
32.92481086610314
 31
0.0
  0
SPLINE
  5
317
330
2
100
AcDbEntity
  8
GAIKEI
  6
Continuous
100
AcDbSpline
210
0.0
220
0.0
230
1.0
 70
     8
 71
     3
 72
     9
 73
     5
 74
     3
 42
0.0000000001
 43
0.0000000001
 44
0.000001
 12
0.0096603815788914
 22
0.9999533374251774
 32
0.0
 13
0.0070116454444045
 23
0.9999754181119463
 33
0.0
 40
0.0
 40
0.0
 40
0.0
 40
0.0
 40
0.0011335976856411
 40
0.0020528754816207
 40
0.0020528754816207
 40
0.0020528754816207
 40
0.0020528754816207
 10
31.54181535278997
 20
8.12261739819155
 30
0.0
 10
31.54181900311869
 20
8.122995246454593
 30
0.0
 10
31.54182511321187
 20
8.123679511294312
 30
0.0
 10
31.54183031704935
 20
8.124363783500882
 30
0.0
 10
31.54183246559933
 20
8.124670201900357
 30
0.0
 11
31.54181535278997
 21
8.12261739819155
 31
0.0
 11
31.54182547476546
 21
8.123750950697854
 31
0.0
 11
31.54183246559933
 21
8.124670201900357
 31
0.0
  0
SPLINE
  5
318
330
2
100
AcDbEntity
  8
GAIKEI
  6
Continuous
100
AcDbSpline
210
0.0
220
0.0
230
1.0
 70
     8
 71
     3
 72
    12
 73
     8
 74
     6
 42
0.0000000001
 43
0.0000000001
 44
0.000001
 12
0.3177217516879759
 22
0.9481839950686387
 32
0.0
 13
0.0004762146561107
 23
0.9999998866097941
 33
0.0
 40
0.0
 40
0.0
 40
0.0
 40
0.0
 40
0.0036401223069825
 40
0.0064206716563187
 40
0.0091006847410956
 40
0.0120770673697925
 40
0.0147756210223913
 40
0.0147756210223913
 40
0.0147756210223913
 40
0.0147756210223913
 10
31.5393872641256
 20
28.75898851022077
 30
0.0
 10
31.53977277947084
 20
28.76013901212463
 30
0.0
 10
31.54037750036966
 20
28.76219462051011
 30
0.0
 10
31.54103835998831
 20
28.76515688324167
 30
0.0
 10
31.54148904740779
 20
28.76793453555786
 30
0.0
 10
31.54175914092153
 20
28.77070850750204
 30
0.0
 10
31.54181981857664
 20
28.77260059962981
 30
0.0
 10
31.54182024694023
 20
28.77350011741203
 30
0.0
 11
31.5393872641256
 21
28.75898851022077
 31
0.0
 11
31.54041352654019
 21
28.76248047497495
 31
0.0
 11
31.54101911866491
 21
28.76519411502613
 31
0.0
 11
31.54144720300081
 21
28.76783986670984
 31
0.0
 11
31.54173520699675
 21
28.77080241777981
 31
0.0
 11
31.54182024694023
 21
28.77350011741203
 31
0.0
  0
SPLINE
  5
319
330
2
100
AcDbEntity
  8
GAIKEI
  6
Continuous
 62
     1
100
AcDbSpline
210
0.0
220
0.0
230
1.0
 70
     8
 71
     3
 72
     9
 73
     5
 74
     3
 42
0.0000000001
 43
0.0000000001
 44
0.000001
 12
0.9015622545408136
 22
-0.4326493975348692
 32
0.0
 13
0.999899476397465
 23
0.0141787552371506
 33
0.0
 40
0.0
 40
0.0
 40
0.0
 40
0.0
 40
0.0021070375643497
 40
0.0037977076619627
 40
0.0037977076619627
 40
0.0037977076619627
 40
0.0037977076619627
 10
30.30661051385801
 20
3.641286046154789
 30
0.0
 10
30.30724372237032
 20
3.640982176643831
 30
0.0
 10
30.3084598047441
 20
3.640574233622771
 30
0.0
 10
30.30973059763002
 20
3.640464772641678
 30
0.0
 10
30.31029409767848
 20
3.640472763174159
 30
0.0
 11
30.30661051385801
 21
3.641286046154789
 31
0.0
 11
30.3086099047365
 21
3.640620390225478
 31
0.0
 11
30.31029409767848
 21
3.640472763174159
 31
0.0
  0
ARC
  5
31A
330
2
100
AcDbEntity
  8
GAIKEI
  6
Continuous
 62
     1
100
AcDbCircle
 10
-44.75145776418355
 20
32.37293316610317
 30
0.0
 40
0.155
100
AcDbArc
 50
90.0
 51
180.0
  0
ARC
  5
31B
330
2
100
AcDbEntity
  8
GAIKEI
  6
Continuous
 62
     1
100
AcDbCircle
 10
5.139786435816461
 20
32.37293316610317
 30
0.0
 40
0.155
100
AcDbArc
 50
0.0
 51
89.99999999999998
  0
ARC
  5
31C
330
2
100
AcDbEntity
  8
GAIKEI
  6
Continuous
 62
     1
100
AcDbCircle
 10
5.139786435816404
 20
2.981688966103092
 30
0.0
 40
0.155
100
AcDbArc
 50
270.0
 51
360.0
  0
ARC
  5
31D
330
2
100
AcDbEntity
  8
GAIKEI
  6
Continuous
 62
     1
100
AcDbCircle
 10
-44.75145776418355
 20
2.981688966103092
 30
0.0
 40
0.155
100
AcDbArc
 50
179.9999999999999
 51
270.0
  0
ARC
  5
31E
330
2
100
AcDbEntity
  8
GAIKEI
  6
Continuous
 62
     1
100
AcDbCircle
 10
-43.70602636418357
 20
4.027054916103111
 30
0.0
 40
0.0985
100
AcDbArc
 50
180.0
 51
270.0
  0
ARC
  5
31F
330
2
100
AcDbEntity
  8
GAIKEI
  6
Continuous
 62
     1
100
AcDbCircle
 10
-43.70602636418357
 20
31.32881106610313
 30
0.0
 40
0.0985
100
AcDbArc
 50
90.0
 51
180.0
  0
ARC
  5
320
330
2
100
AcDbEntity
  8
GAIKEI
  6
Continuous
 62
     1
100
AcDbCircle
 10
4.095664335816422
 20
31.32881106610307
 30
0.0
 40
0.0985
100
AcDbArc
 50
0.0
 51
90.0
  0
ARC
  5
321
330
2
100
AcDbEntity
  8
GAIKEI
  6
Continuous
 62
     1
100
AcDbCircle
 10
4.095664335816422
 20
4.027054916103111
 30
0.0
 40
0.0985
100
AcDbArc
 50
270.0
 51
0.0
  0
ARC
  5
322
330
2
100
AcDbEntity
  8
GAIKEI
  6
Continuous
 62
     1
100
AcDbCircle
 10
-42.76983566418357
 20
4.808311066103101
 30
0.0
 40
0.0985
100
AcDbArc
 50
180.0
 51
270.0
  0
ARC
  5
323
330
2
100
AcDbEntity
  8
GAIKEI
  6
Continuous
 62
     1
100
AcDbCircle
 10
-42.76983566418357
 20
30.54631106610316
 30
0.0
 40
0.0985
100
AcDbArc
 50
90.0
 51
180.0
  0
ARC
  5
324
330
2
100
AcDbEntity
  8
GAIKEI
  6
Continuous
 62
     1
100
AcDbCircle
 10
3.158164335816422
 20
30.54631106610316
 30
0.0
 40
0.0985
100
AcDbArc
 50
0.0
 51
90.0
  0
ARC
  5
325
330
2
100
AcDbEntity
  8
GAIKEI
  6
Continuous
 62
     1
100
AcDbCircle
 10
3.158164335816422
 20
4.808311066103101
 30
0.0
 40
0.0985
100
AcDbArc
 50
270.0
 51
0.0
  0
ARC
  5
326
330
2
100
AcDbEntity
  8
GAIKEI
  6
Continuous
 62
     1
100
AcDbCircle
 10
-44.97894301418358
 20
2.75420371610312
 30
0.0
 40
0.188
100
AcDbArc
 50
180.0
 51
270.0
  0
ARC
  5
327
330
2
100
AcDbEntity
  8
GAIKEI
  6
Continuous
 62
     1
100
AcDbCircle
 10
-44.97894301418364
 20
32.60041841610314
 30
0.0
 40
0.188
100
AcDbArc
 50
90.0
 51
180.0
  0
ARC
  5
328
330
2
100
AcDbEntity
  8
GAIKEI
  6
Continuous
 62
     1
100
AcDbCircle
 10
5.367271685816433
 20
32.60041841610314
 30
0.0
 40
0.188
100
AcDbArc
 50
0.0
 51
90.0
  0
ARC
  5
329
330
2
100
AcDbEntity
  8
GAIKEI
  6
Continuous
 62
     1
100
AcDbCircle
 10
5.367271685816376
 20
2.75420371610312
 30
0.0
 40
0.188
100
AcDbArc
 50
270.0
 51
0.0
  0
ARC
  5
32A
330
2
100
AcDbEntity
  8
GAIKEI
 62
     1
100
AcDbCircle
 10
31.85770773036649
 20
6.311204023897062
 30
0.0
 40
1.720167845632516
100
AcDbArc
 50
145.6090498134464
 51
174.3909501865545
  0
ARC
  5
32B
330
2
100
AcDbEntity
  8
GAIKEI
100
AcDbCircle
 10
31.76281390593863
 20
7.435756542878607
 30
0.0
 40
0.4959956609617684
100
AcDbArc
 50
141.0786585612989
 51
180.1627894387007
  0
ARC
  5
32C
330
2
100
AcDbEntity
  8
GAIKEI
 62
     1
100
AcDbCircle
 10
30.51794672313986
 20
7.776722759820813
 30
0.0
 40
0.6767993243531389
100
AcDbArc
 50
320.5571672063336
 51
2.909351495515366
  0
LINE
  5
32D
330
2
100
AcDbEntity
  8
GAIKEI
  6
Continuous
 62
     1
100
AcDbLine
 10
31.11158089693402
 20
28.10822873177438
 30
0.0
 11
30.82847144693403
 21
26.0496186817744
 31
0.0
  0
ARC
  5
32E
330
2
100
AcDbEntity
  8
GAIKEI
  6
Continuous
 62
     1
100
AcDbCircle
 10
30.67987014693404
 20
26.07005503177436
 30
0.0
 40
0.15
100
AcDbArc
 50
272.0000000000036
 51
352.1695429999987
  0
LINE
  5
32F
330
2
100
AcDbEntity
  8
GAIKEI
  6
Continuous
 62
     1
100
AcDbLine
 10
31.06006574693402
 20
28.11531333177436
 30
0.0
 11
30.78331819693403
 21
26.10296318177439
 31
0.0
  0
ARC
  5
330
330
2
100
AcDbEntity
  8
GAIKEI
  6
Continuous
 62
     1
100
AcDbCircle
 10
30.07682024693395
 20
28.25053373177434
 30
0.0
 40
0.9925
100
AcDbArc
 50
352.1695429999987
 51
0.0
  0
ARC
  5
331
330
2
100
AcDbEntity
  8
GAIKEI
  6
Continuous
 62
     1
100
AcDbCircle
 10
30.07682024693395
 20
28.25053373177434
 30
0.0
 40
1.044499999999999
100
AcDbArc
 50
352.1695429999987
 51
0.0
  0
LINE
  5
332
330
2
100
AcDbEntity
  8
GAIKEI
  6
Continuous
 62
     1
100
AcDbLine
 10
29.63205519693406
 20
25.88329438177436
 30
0.0
 11
30.68510779693395
 21
25.92006778177438
 31
0.0
  0
ARC
  5
333
330
2
100
AcDbEntity
  8
GAIKEI
  6
Continuous
 62
     1
100
AcDbCircle
 10
29.62682029693406
 20
26.03320298177437
 30
0.0
 40
0.15
100
AcDbArc
 50
180.0
 51
272.0000000000036
  0
LINE
  5
334
330
2
100
AcDbEntity
  8
GAIKEI
  6
Continuous
 62
     1
100
AcDbLine
 10
29.57356524693398
 20
25.92450183177437
 30
0.0
 11
29.93131114693404
 21
25.93699463177439
 31
0.0
  0
LINE
  5
335
330
2
100
AcDbEntity
  8
GAIKEI
  6
Continuous
 62
     1
100
AcDbLine
 10
29.93131114693404
 20
25.93699463177439
 30
0.0
 11
29.93100214693402
 21
25.94584423177435
 31
0.0
  0
LINE
  5
336
330
2
100
AcDbEntity
  8
GAIKEI
  6
Continuous
 62
     1
100
AcDbLine
 10
29.92350044693399
 20
25.94847188177437
 30
0.0
 11
30.63995179693404
 21
25.97349088177441
 31
0.0
  0
ARC
  5
337
330
2
100
AcDbEntity
  8
GAIKEI
  6
Continuous
 62
     1
100
AcDbCircle
 10
30.634716846934
 20
26.12339953177434
 30
0.0
 40
0.15
100
AcDbArc
 50
272.0000000000036
 51
352.1695429999987
  0
ARC
  5
338
330
2
100
AcDbEntity
  8
GAIKEI
  6
Continuous
 62
     1
100
AcDbCircle
 10
29.57182029693399
 20
25.97447138177438
 30
0.0
 40
0.05
100
AcDbArc
 50
180.0
 51
272.0000000000036
  0
LINE
  5
339
330
2
100
AcDbEntity
  8
GAIKEI
  6
Continuous
 62
     1
100
AcDbLine
 10
29.52182029693404
 20
25.97447138177438
 30
0.0
 11
29.52182029693404
 21
30.98127548177445
 31
0.0
  0
LINE
  5
33A
330
2
100
AcDbEntity
  8
GAIKEI
  6
Continuous
 62
     1
100
AcDbLine
 10
31.11158089693402
 20
28.84751813177434
 30
0.0
 11
30.82847144693403
 21
30.90612818177442
 31
0.0
  0
ARC
  5
33B
330
2
100
AcDbEntity
  8
GAIKEI
  6
Continuous
 62
     1
100
AcDbCircle
 10
30.67987014693404
 20
30.88569188177439
 30
0.0
 40
0.15
100
AcDbArc
 50
7.83045700000137
 51
87.9999999999964
  0
LINE
  5
33C
330
2
100
AcDbEntity
  8
GAIKEI
  6
Continuous
 62
     1
100
AcDbLine
 10
31.06006574693402
 20
28.84043353177435
 30
0.0
 11
30.78331819693403
 21
30.85278368177444
 31
0.0
  0
LINE
  5
33D
330
2
100
AcDbEntity
  8
GAIKEI
  6
Continuous
 62
     1
100
AcDbLine
 10
31.12132029693396
 20
28.25053373177434
 30
0.0
 11
31.12132029693396
 21
28.70521318177441
 31
0.0
  0
LINE
  5
33E
330
2
100
AcDbEntity
  8
GAIKEI
  6
Continuous
 62
     1
100
AcDbLine
 10
31.06932029693405
 20
28.25053373177434
 30
0.0
 11
31.06932029693405
 21
28.70521318177441
 31
0.0
  0
ARC
  5
33F
330
2
100
AcDbEntity
  8
GAIKEI
  6
Continuous
 62
     1
100
AcDbCircle
 10
30.07682024693395
 20
28.70521318177441
 30
0.0
 40
0.9925
100
AcDbArc
 50
0.0
 51
7.83045700000137
  0
ARC
  5
340
330
2
100
AcDbEntity
  8
GAIKEI
  6
Continuous
 62
     1
100
AcDbCircle
 10
30.07682024693395
 20
28.70521318177441
 30
0.0
 40
1.044499999999999
100
AcDbArc
 50
0.0
 51
7.83045700000137
  0
LINE
  5
341
330
2
100
AcDbEntity
  8
GAIKEI
  6
Continuous
 62
     1
100
AcDbLine
 10
29.47682029693396
 20
26.03320298177437
 30
0.0
 11
29.47682029693396
 21
30.92254388177435
 31
0.0
  0
LINE
  5
342
330
2
100
AcDbEntity
  8
GAIKEI
  6
Continuous
 62
     1
100
AcDbLine
 10
29.63205519693406
 20
31.07245253177439
 30
0.0
 11
30.68510779693395
 21
31.03567913177438
 31
0.0
  0
ARC
  5
343
330
2
100
AcDbEntity
  8
GAIKEI
  6
Continuous
 62
     1
100
AcDbCircle
 10
29.62682029693406
 20
30.92254388177435
 30
0.0
 40
0.15
100
AcDbArc
 50
87.9999999999964
 51
180.0
  0
LINE
  5
344
330
2
100
AcDbEntity
  8
GAIKEI
  6
Continuous
 62
     1
100
AcDbLine
 10
29.57356524693398
 20
31.03124503177435
 30
0.0
 11
29.93131114693404
 21
31.01875228177437
 31
0.0
  0
LINE
  5
345
330
2
100
AcDbEntity
  8
GAIKEI
  6
Continuous
 62
     1
100
AcDbLine
 10
29.93131114693404
 20
31.01875228177437
 30
0.0
 11
30.63995179693404
 21
30.98225598177442
 31
0.0
  0
ARC
  5
346
330
2
100
AcDbEntity
  8
GAIKEI
  6
Continuous
 62
     1
100
AcDbCircle
 10
30.634716846934
 20
30.83234738177441
 30
0.0
 40
0.15
100
AcDbArc
 50
7.83045700000137
 51
87.9999999999964
  0
ARC
  5
347
330
2
100
AcDbEntity
  8
GAIKEI
  6
Continuous
 62
     1
100
AcDbCircle
 10
29.57182029693399
 20
30.98127548177445
 30
0.0
 40
0.05
100
AcDbArc
 50
87.9999999999964
 51
180.0
  0
ARC
  5
348
330
2
100
AcDbEntity
  8
GAIKEI
  6
Continuous
 62
     1
100
AcDbCircle
 10
31.69118274693392
 20
25.4290061515822
 30
0.0
 40
0.5
100
AcDbArc
 50
148.4349071797699
 51
180.0000000000024
  0
ARC
  5
349
330
2
100
AcDbEntity
  8
GAIKEI
100
AcDbCircle
 10
30.83744903102831
 20
25.89426476810633
 30
0.0
 40
0.3497651444952813
100
AcDbArc
 50
282.0887752694151
 51
352.1755251408762
  0
ARC
  5
34A
330
2
100
AcDbEntity
  8
GAIKEI
 62
     1
100
AcDbCircle
 10
30.65182681506338
 20
26.20614343375144
 30
0.0
 40
0.7933618211180807
100
AcDbArc
 50
325.5909931086476
 51
3.625618073732946
  0
ARC
  5
34B
330
2
100
AcDbEntity
  8
GAIKEI
 62
     1
100
AcDbCircle
 10
30.83744880790573
 20
31.06008337546041
 30
0.0
 40
0.3497654045621397
100
AcDbArc
 50
7.824500824864304
 51
77.91119993180166
  0
DIMENSION
  5
34C
330
2
100
AcDbEntity
  8
SUNPO
100
AcDbDimension
  2
*D6
 10
5.691664335816427
 20
40.93077770920928
 30
0.0
 11
-19.80583566418357
 21
42.68077770920927
 31
0.0
 70
    33
  1
1020
 71
     5
 42
50.995
  3
STANDARD
100
AcDbAlignedDimension
 13
-45.30333566418358
 23
32.93077770920928
 33
0.0
 14
5.691664335816426
 24
32.93077770920928
 34
0.0
1001
ACAD
1000
DSTYLE
1002
{
1070
    40
1040
1.0
1070
   140
1040
2.5
1070
   147
1040
0.5
1070
   172
1070
     1
1070
   279
1070
     0
1070
   288
1070
     0
1002
}
  0
DIMENSION
  5
359
330
2
100
AcDbEntity
  8
SUNPO
100
AcDbDimension
  2
*D5
 10
13.69166433581642
 20
32.92731106610313
 30
0.0
 11
11.94166433581642
 21
17.67731106610316
 31
0.0
 70
    33
  1
610
 71
     5
 42
30.49999999999994
  3
STANDARD
100
AcDbAlignedDimension
 13
5.691664335816426
 23
2.427311066103186
 33
0.0
 14
5.691664335816426
 24
32.92731106610313
 34
0.0
1001
ACAD
1000
DSTYLE
1002
{
1070
    40
1040
1.0
1070
   140
1040
2.5
1070
   147
1040
0.5
1070
   172
1070
     1
1070
   279
1070
     0
1070
   288
1070
     0
1002
}
  0
TEXT
  5
366
330
2
100
AcDbEntity
  8
MOJI1
100
AcDbText
 10
-63.99557496144078
 20
-38.97935092930339
 30
0.0
 40
3.0
  1
階調数
100
AcDbText
  0
TEXT
  5
367
330
2
100
AcDbEntity
  8
MOJI1
100
AcDbText
 10
-63.99557496144078
 20
-33.97935092930339
 30
0.0
 40
3.0
  1
コントラスト
100
AcDbText
  0
LINE
  5
368
330
2
100
AcDbEntity
  8
WAKU
 62
     1
100
AcDbLine
 10
-66.49557496144078
 20
-39.97935092930339
 30
0.0
 11
58.50442503855902
 21
-39.97935092930339
 31
0.0
  0
LINE
  5
36A
330
2
100
AcDbEntity
  8
WAKU
 62
     1
100
AcDbLine
 10
-66.49557496144078
 20
-34.97935092930339
 30
0.0
 11
58.50442503855902
 21
-34.97935092930339
 31
0.0
  0
TEXT
  5
36B
330
2
100
AcDbEntity
  8
MOJI1
100
AcDbText
 10
-63.99557496144078
 20
-13.97935092930339
 30
0.0
 40
3.0
  1
電  源
100
AcDbText
  0
TEXT
  5
36C
330
2
100
AcDbEntity
  8
MOJI1
100
AcDbText
 10
-63.99557496144078
 20
-18.97935092930339
 30
0.0
 40
3.0
  1
消費電力
100
AcDbText
  0
TEXT
  5
36D
330
2
100
AcDbEntity
  8
MOJI1
100
AcDbText
 10
-63.99557496144078
 20
-23.97935092930339
 30
0.0
 40
3.0
  1
画面サイズ
100
AcDbText
  0
TEXT
  5
36E
330
2
100
AcDbEntity
  8
MOJI1
100
AcDbText
 10
-24.99557496144078
 20
-18.97935092930339
 30
0.0
 40
3.0
  1
２５０Ｗ
100
AcDbText
  0
TEXT
  5
36F
330
2
100
AcDbEntity
  8
MOJI1
100
AcDbText
 10
-24.99557496144078
 20
-23.97935092930339
 30
0.0
 40
3.0
  1
４２型（１６：９）
100
AcDbText
  0
TEXT
  5
370
330
2
100
AcDbEntity
  8
MOJI1
100
AcDbText
 10
-24.99557496144078
 20
-13.97935092930339
 30
0.0
 40
3.0
  1
ＡＣ１００Ｖ±１０％　５０Ｈｚ／６０Ｈｚ
100
AcDbText
  0
TEXT
  5
371
330
2
100
AcDbEntity
  8
MOJI1
100
AcDbText
 10
-63.99557496144078
 20
-48.97935092930339
 30
0.0
 40
3.0
  1
接続端子
100
AcDbText
  0
TEXT
  5
372
330
2
100
AcDbEntity
  8
MOJI1
100
AcDbText
 10
-63.99557496144078
 20
-43.97935092930339
 30
0.0
 40
3.0
  1
音声最大出力
100
AcDbText
  0
TEXT
  5
373
330
2
100
AcDbEntity
  8
MOJI1
100
AcDbText
 10
-24.99557496144078
 20
-43.97935092930339
 30
0.0
 40
3.0
  1
１６Ｗ（８Ｗ＋８Ｗ）
100
AcDbText
  0
TEXT
  5
374
330
2
100
AcDbEntity
  8
MOJI1
100
AcDbText
 10
-24.99557496144078
 20
-48.97935092930339
 30
0.0
 40
3.0
  1
ビデオ／Ｓ映像／コンポーネントビデオ
100
AcDbText
  0
TEXT
  5
375
330
2
100
AcDbEntity
  8
MOJI1
100
AcDbText
 10
-24.99557496144078
 20
-28.97935092930339
 30
0.0
 40
3.0
  1
水平１０２４×垂直７６８　画素
100
AcDbText
  0
LINE
  5
376
330
2
100
AcDbEntity
  8
WAKU
 62
     4
100
AcDbLine
 10
-26.49557496144101
 20
-9.979350929303393
 30
0.0
 11
-26.49557496144101
 21
-54.97935092930339
 31
0.0
  0
TEXT
  5
377
330
2
100
AcDbEntity
  8
MOJI1
100
AcDbText
 10
-63.99557496144078
 20
-28.97935092930339
 30
0.0
 40
3.0
  1
画素数
100
AcDbText
  0
LINE
  5
378
330
2
100
AcDbEntity
  8
WAKU
 62
     4
100
AcDbLine
 10
58.50442503855902
 20
-9.979350929303393
 30
0.0
 11
58.50442503855902
 21
-54.97935092930339
 31
0.0
  0
LINE
  5
379
330
2
100
AcDbEntity
  8
WAKU
 62
     4
100
AcDbLine
 10
-66.49557496144101
 20
-9.979350929303393
 30
0.0
 11
-66.49557496144078
 21
-54.97935092930339
 31
0.0
  0
LINE
  5
37A
330
2
100
AcDbEntity
  8
WAKU
 62
     4
100
AcDbLine
 10
58.50442503855902
 20
-54.97935092930339
 30
0.0
 11
-66.49557496144078
 21
-54.97935092930339
 31
0.0
  0
LINE
  5
37B
330
2
100
AcDbEntity
  8
WAKU
 62
     1
100
AcDbLine
 10
-66.49557496144078
 20
-49.97935092930339
 30
0.0
 11
58.50442503855902
 21
-49.97935092930339
 31
0.0
  0
LINE
  5
37C
330
2
100
AcDbEntity
  8
WAKU
 62
     1
100
AcDbLine
 10
-66.49557496144078
 20
-44.97935092930339
 30
0.0
 11
58.50442503855902
 21
-44.97935092930339
 31
0.0
  0
LINE
  5
37D
330
2
100
AcDbEntity
  8
WAKU
 62
     1
100
AcDbLine
 10
-66.49557496144078
 20
-24.97935092930339
 30
0.0
 11
58.50442503855902
 21
-24.97935092930339
 31
0.0
  0
LINE
  5
37E
330
2
100
AcDbEntity
  8
WAKU
 62
     1
100
AcDbLine
 10
-66.49557496144078
 20
-14.97935092930339
 30
0.0
 11
58.50442503855902
 21
-14.97935092930339
 31
0.0
  0
LINE
  5
37F
330
2
100
AcDbEntity
  8
WAKU
 62
     4
100
AcDbLine
 10
-66.49557496144078
 20
-9.979350929303393
 30
0.0
 11
58.50442503855902
 21
-9.979350929303393
 31
0.0
  0
LINE
  5
380
330
2
100
AcDbEntity
  8
WAKU
 62
     1
100
AcDbLine
 10
-66.49557496144078
 20
-29.97935092930339
 30
0.0
 11
58.50442503855902
 21
-29.97935092930339
 31
0.0
  0
LINE
  5
381
330
2
100
AcDbEntity
  8
WAKU
 62
     1
100
AcDbLine
 10
-66.49557496144078
 20
-19.97935092930339
 30
0.0
 11
58.50442503855902
 21
-19.97935092930339
 31
0.0
  0
TEXT
  5
382
330
2
100
AcDbEntity
  8
MOJI1
100
AcDbText
 10
-24.99557496144078
 20
-38.97935092930339
 30
0.0
 40
3.0
  1
５１２０階調（相当）
100
AcDbText
  0
TEXT
  5
383
330
2
100
AcDbEntity
  8
MOJI1
100
AcDbText
 10
-24.99557496144078
 20
-33.97935092930339
 30
0.0
 40
3.0
  1
３００００：１
100
AcDbText
  0
TEXT
  5
384
330
2
100
AcDbEntity
  8
MOJI1
100
AcDbText
 10
-24.99557496144078
 20
-53.97935092930339
 30
0.0
 40
3.0
  1
外部スピーカ／シリアル／ＰＣ
100
AcDbText
  0
ENDSEC
  0
SECTION
  2
OBJECTS
  0
DICTIONARY
  5
7
330
0
100
AcDbDictionary
281
     1
  3
ACAD_COLOR
350
2D
  3
ACAD_GROUP
350
29
  3
ACAD_LAYOUT
350
B
  3
ACAD_MATERIAL
350
2C
  3
ACAD_MLINESTYLE
350
2A
  3
ACAD_PLOTSETTINGS
350
2B
  3
ACAD_PLOTSTYLENAME
350
6
  3
ACDBHEADERROUNDTRIPXREC
350
3CD
  3
AcDbVariableDictionary
350
3C8
  0
DICTIONARY
  5
11
330
10
100
AcDbDictionary
280
     1
281
     1
  3
ACAD_LAYERSTATES
360
12
  0
DICTIONARY
  5
2D
102
{ACAD_REACTORS
330
7
102
}
330
7
100
AcDbDictionary
281
     1
  0
DICTIONARY
  5
29
102
{ACAD_REACTORS
330
7
102
}
330
7
100
AcDbDictionary
281
     1
  0
DICTIONARY
  5
B
102
{ACAD_REACTORS
330
7
102
}
330
7
100
AcDbDictionary
281
     1
  3
Model
350
A
  3
レイアウト1
350
F
  0
DICTIONARY
  5
2C
102
{ACAD_REACTORS
330
7
102
}
330
7
100
AcDbDictionary
281
     1
  0
DICTIONARY
  5
2A
102
{ACAD_REACTORS
330
7
102
}
330
7
100
AcDbDictionary
281
     1
  3
Standard
350
2F
  0
DICTIONARY
  5
2B
102
{ACAD_REACTORS
330
7
102
}
330
7
100
AcDbDictionary
281
     1
  0
ACDBDICTIONARYWDFLT
  5
6
102
{ACAD_REACTORS
330
7
102
}
330
7
100
AcDbDictionary
281
     1
  3
Normal
350
5
100
AcDbDictionaryWithDefault
340
5
  0
DICTIONARY
  5
3CD
102
{ACAD_REACTORS
330
7
102
}
330
7
100
AcDbDictionary
281
     1
  3
COLORDICT
350
3CF
  3
MATERIALDICT
350
3CE
  0
DICTIONARY
  5
3C8
102
{ACAD_REACTORS
330
7
102
}
330
7
100
AcDbDictionary
281
     1
  3
DIMASSOC
350
3CA
  3
HIDETEXT
350
3C9
  3
PROJECTNAME
350
3CB
  0
DICTIONARY
  5
12
102
{ACAD_REACTORS
330
11
102
}
330
11
100
AcDbDictionary
281
     1
  0
LAYOUT
  5
A
102
{ACAD_XDICTIONARY
360
3D0
102
}
102
{ACAD_REACTORS
330
B
102
}
330
B
100
AcDbPlotSettings
  1

  2
Ａ４－縦3FRIM01.pc3
  4
A4
  6

 40
5.873749732971191
 41
5.873747825622558
 42
5.873748779296875
 43
5.873748779296875
 44
209.9733276367187
 45
296.9259948730469
 46
5.429999999999999
 47
0.0
 48
0.0
 49
0.0
140
0.0
141
0.0
142
1.0
143
1.38247311505162
 70
 11956
 72
     1
 73
     0
 74
     1
  7
tmsacad.ctb
 75
     0
147
0.7233413721486083
148
0.0055318937364746
149
0.0259817186447435
100
AcDbLayout
  1
Model
 70
     1
 71
     0
 10
0.0
 20
0.0
 11
12.0
 21
9.0
 12
0.0
 22
0.0
 32
0.0
 14
0.0
 24
0.0
 34
0.0
 15
0.0
 25
0.0
 35
0.0
146
0.0
 13
0.0
 23
0.0
 33
0.0
 16
1.0
 26
0.0
 36
0.0
 17
0.0
 27
1.0
 37
0.0
 76
     0
330
2
  0
LAYOUT
  5
F
102
{ACAD_XDICTIONARY
360
3D2
102
}
102
{ACAD_REACTORS
330
B
102
}
330
B
100
AcDbPlotSettings
  1

  2
None
  4

  6

 40
0.0
 41
0.0
 42
0.0
 43
0.0
 44
0.0
 45
0.0
 46
0.0
 47
0.0
 48
0.0
 49
0.0
140
0.0
141
0.0
142
1.0
143
1.0
 70
   688
 72
     0
 73
     0
 74
     5
  7
tmsacad.ctb
 75
    16
147
1.0
148
0.0
149
0.0
100
AcDbLayout
  1
レイアウト1
 70
     1
 71
     1
 10
0.0
 20
0.0
 11
12.0
 21
9.0
 12
0.0
 22
0.0
 32
0.0
 14
0.0
 24
0.0
 34
0.0
 15
0.0
 25
0.0
 35
0.0
146
0.0
 13
0.0
 23
0.0
 33
0.0
 16
1.0
 26
0.0
 36
0.0
 17
0.0
 27
1.0
 37
0.0
 76
     0
330
C
  0
MLINESTYLE
  5
2F
102
{ACAD_REACTORS
330
2A
102
}
330
2A
100
AcDbMlineStyle
  2
STANDARD
 70
     0
  3

 62
   256
 51
90.0
 52
90.0
 71
     2
 49
0.5
 62
   256
  6
BYLAYER
 49
-0.5
 62
   256
  6
BYLAYER
  0
ACDBPLACEHOLDER
  5
5
102
{ACAD_REACTORS
330
6
102
}
330
6
  0
XRECORD
  5
3CF
102
{ACAD_REACTORS
330
3CD
102
}
330
3CD
100
AcDbXrecord
280
     1
340
2D
  0
XRECORD
  5
3CE
102
{ACAD_REACTORS
330
3CD
102
}
330
3CD
100
AcDbXrecord
280
     1
340
2C
  0
DICTIONARYVAR
  5
3CA
102
{ACAD_REACTORS
330
3C8
102
}
330
3C8
100
DictionaryVariables
280
     0
  1
1
  0
DICTIONARYVAR
  5
3C9
102
{ACAD_REACTORS
330
3C8
102
}
330
3C8
100
DictionaryVariables
280
     0
  1
1
  0
DICTIONARYVAR
  5
3CB
102
{ACAD_REACTORS
330
3C8
102
}
330
3C8
100
DictionaryVariables
280
     0
  1

  0
DICTIONARY
  5
3D0
330
A
100
AcDbDictionary
280
     1
281
     1
  3
ACAD_XREC_ROUNDTRIP
360
3D1
  0
DICTIONARY
  5
3D2
330
F
100
AcDbDictionary
280
     1
281
     1
  3
ACAD_XREC_ROUNDTRIP
360
3D3
  0
XRECORD
  5
3D1
102
{ACAD_REACTORS
330
3D0
102
}
330
3D0
100
AcDbXrecord
280
     1
102
SHADEPLOT
 70
     0
102
SHADEPLOTRESLEVEL
 70
     2
102
SHADEPLOTCUSTOMDPI
 70
   300
  0
XRECORD
  5
3D3
102
{ACAD_REACTORS
330
3D2
102
}
330
3D2
100
AcDbXrecord
280
     1
102
SHADEPLOT
 70
     0
102
SHADEPLOTRESLEVEL
 70
     2
102
SHADEPLOTCUSTOMDPI
 70
   300
  0
ENDSEC
  0
EOF
