  0
SECTION
  2
HEADER
  9
$ACADVER
  1
AC1015
  9
$ACADMAINTVER
 70
    20
  9
$DWGCODEPAGE
  3
ANSI_932
  9
$INSBASE
 10
0.4999999440410648
 20
372.5008351249344
 30
0.0
  9
$EXTMIN
 10
-60.22247223675072
 20
-54.2780908023451
 30
-0.0015258207003583
  9
$EXTMAX
 10
64.81109675580069
 20
58.7465061514481
 30
0.0000000349246037
  9
$LIMMIN
 10
0.0
 20
0.0
  9
$LIMMAX
 10
420.0
 20
297.0
  9
$ORTHOMODE
 70
     1
  9
$REGENMODE
 70
     0
  9
$FILLMODE
 70
     1
  9
$QTEXTMODE
 70
     0
  9
$MIRRTEXT
 70
     0
  9
$LTSCALE
 40
1.0
  9
$ATTMODE
 70
     1
  9
$TEXTSIZE
 40
2.5
  9
$TRACEWID
 40
1.0
  9
$TEXTSTYLE
  7
Standard
  9
$CLAYER
  8
SUNPO
  9
$CELTYPE
  6
ByLayer
  9
$CECOLOR
 62
   256
  9
$CELTSCALE
 40
1.0
  9
$DISPSILH
 70
     0
  9
$DIMSCALE
 40
1.0
  9
$DIMASZ
 40
2.0
  9
$DIMEXO
 40
2.0
  9
$DIMDLI
 40
8.0
  9
$DIMRND
 40
0.0
  9
$DIMDLE
 40
0.0
  9
$DIMEXE
 40
2.0
  9
$DIMTP
 40
0.0
  9
$DIMTM
 40
0.0
  9
$DIMTXT
 40
2.5
  9
$DIMCEN
 40
0.0
  9
$DIMTSZ
 40
0.0
  9
$DIMTOL
 70
     0
  9
$DIMLIM
 70
     0
  9
$DIMTIH
 70
     0
  9
$DIMTOH
 70
     0
  9
$DIMSE1
 70
     0
  9
$DIMSE2
 70
     0
  9
$DIMTAD
 70
     3
  9
$DIMZIN
 70
     0
  9
$DIMBLK
  1

  9
$DIMASO
 70
     1
  9
$DIMSHO
 70
     1
  9
$DIMPOST
  1

  9
$DIMAPOST
  1

  9
$DIMALT
 70
     0
  9
$DIMALTD
 70
     2
  9
$DIMALTF
 40
25.4
  9
$DIMLFAC
 40
1.0
  9
$DIMTOFL
 70
     1
  9
$DIMTVP
 40
0.0
  9
$DIMTIX
 70
     0
  9
$DIMSOXD
 70
     0
  9
$DIMSAH
 70
     1
  9
$DIMBLK1
  1
OPEN30
  9
$DIMBLK2
  1
OPEN30
  9
$DIMSTYLE
  2
STANDARD
  9
$DIMCLRD
 70
     0
  9
$DIMCLRE
 70
     0
  9
$DIMCLRT
 70
     0
  9
$DIMTFAC
 40
1.0
  9
$DIMGAP
 40
0.5
  9
$DIMJUST
 70
     0
  9
$DIMSD1
 70
     0
  9
$DIMSD2
 70
     0
  9
$DIMTOLJ
 70
     1
  9
$DIMTZIN
 70
     0
  9
$DIMALTZ
 70
     0
  9
$DIMALTTZ
 70
     0
  9
$DIMUPT
 70
     0
  9
$DIMDEC
 70
     4
  9
$DIMTDEC
 70
     4
  9
$DIMALTU
 70
     2
  9
$DIMALTTD
 70
     2
  9
$DIMTXSTY
  7
Standard
  9
$DIMAUNIT
 70
     0
  9
$DIMADEC
 70
     0
  9
$DIMALTRND
 40
0.0
  9
$DIMAZIN
 70
     0
  9
$DIMDSEP
 70
    46
  9
$DIMATFIT
 70
     3
  9
$DIMFRAC
 70
     0
  9
$DIMLDRBLK
  1
OPEN30
  9
$DIMLUNIT
 70
     2
  9
$DIMLWD
 70
    -2
  9
$DIMLWE
 70
    -2
  9
$DIMTMOVE
 70
     0
  9
$LUNITS
 70
     2
  9
$LUPREC
 70
     4
  9
$SKETCHINC
 40
1.0
  9
$FILLETRAD
 40
0.0
  9
$AUNITS
 70
     0
  9
$AUPREC
 70
     0
  9
$MENU
  1
.
  9
$ELEVATION
 40
0.0
  9
$PELEVATION
 40
0.0
  9
$THICKNESS
 40
0.0
  9
$LIMCHECK
 70
     0
  9
$CHAMFERA
 40
0.0
  9
$CHAMFERB
 40
0.0
  9
$CHAMFERC
 40
0.0
  9
$CHAMFERD
 40
0.0
  9
$SKPOLY
 70
     0
  9
$TDCREATE
 40
2454349.434269746
  9
$TDUCREATE
 40
2454349.059269746
  9
$TDUPDATE
 40
2455042.678074560
  9
$TDUUPDATE
 40
2455042.303074560
  9
$TDINDWG
 40
0.2867965046
  9
$TDUSRTIMER
 40
0.2867965046
  9
$USRTIMER
 70
     1
  9
$ANGBASE
 50
0.0
  9
$ANGDIR
 70
     0
  9
$PDMODE
 70
     0
  9
$PDSIZE
 40
0.0
  9
$PLINEWID
 40
0.0
  9
$SPLFRAME
 70
     0
  9
$SPLINETYPE
 70
     6
  9
$SPLINESEGS
 70
     8
  9
$HANDSEED
  5
1E4
  9
$SURFTAB1
 70
     6
  9
$SURFTAB2
 70
     6
  9
$SURFTYPE
 70
     6
  9
$SURFU
 70
     6
  9
$SURFV
 70
     6
  9
$UCSBASE
  2

  9
$UCSNAME
  2

  9
$UCSORG
 10
0.0
 20
0.0
 30
0.0
  9
$UCSXDIR
 10
1.0
 20
0.0
 30
0.0
  9
$UCSYDIR
 10
0.0
 20
1.0
 30
0.0
  9
$UCSORTHOREF
  2

  9
$UCSORTHOVIEW
 70
     0
  9
$UCSORGTOP
 10
0.0
 20
0.0
 30
0.0
  9
$UCSORGBOTTOM
 10
0.0
 20
0.0
 30
0.0
  9
$UCSORGLEFT
 10
0.0
 20
0.0
 30
0.0
  9
$UCSORGRIGHT
 10
0.0
 20
0.0
 30
0.0
  9
$UCSORGFRONT
 10
0.0
 20
0.0
 30
0.0
  9
$UCSORGBACK
 10
0.0
 20
0.0
 30
0.0
  9
$PUCSBASE
  2

  9
$PUCSNAME
  2

  9
$PUCSORG
 10
0.0
 20
0.0
 30
0.0
  9
$PUCSXDIR
 10
1.0
 20
0.0
 30
0.0
  9
$PUCSYDIR
 10
0.0
 20
1.0
 30
0.0
  9
$PUCSORTHOREF
  2

  9
$PUCSORTHOVIEW
 70
     0
  9
$PUCSORGTOP
 10
0.0
 20
0.0
 30
0.0
  9
$PUCSORGBOTTOM
 10
0.0
 20
0.0
 30
0.0
  9
$PUCSORGLEFT
 10
0.0
 20
0.0
 30
0.0
  9
$PUCSORGRIGHT
 10
0.0
 20
0.0
 30
0.0
  9
$PUCSORGFRONT
 10
0.0
 20
0.0
 30
0.0
  9
$PUCSORGBACK
 10
0.0
 20
0.0
 30
0.0
  9
$USERI1
 70
     0
  9
$USERI2
 70
     0
  9
$USERI3
 70
     0
  9
$USERI4
 70
     0
  9
$USERI5
 70
     0
  9
$USERR1
 40
0.0
  9
$USERR2
 40
0.0
  9
$USERR3
 40
0.0
  9
$USERR4
 40
0.0
  9
$USERR5
 40
0.0
  9
$WORLDVIEW
 70
     1
  9
$SHADEDGE
 70
     3
  9
$SHADEDIF
 70
    70
  9
$TILEMODE
 70
     1
  9
$MAXACTVP
 70
    64
  9
$PINSBASE
 10
0.0
 20
0.0
 30
0.0
  9
$PLIMCHECK
 70
     0
  9
$PEXTMIN
 10
0.0
 20
0.0
 30
0.0
  9
$PEXTMAX
 10
0.0
 20
0.0
 30
0.0
  9
$PLIMMIN
 10
0.0
 20
0.0
  9
$PLIMMAX
 10
12.0
 20
9.0
  9
$UNITMODE
 70
     0
  9
$VISRETAIN
 70
     1
  9
$PLINEGEN
 70
     0
  9
$PSLTSCALE
 70
     1
  9
$TREEDEPTH
 70
  3020
  9
$CMLSTYLE
  2
Standard
  9
$CMLJUST
 70
     0
  9
$CMLSCALE
 40
20.0
  9
$PROXYGRAPHICS
 70
     1
  9
$MEASUREMENT
 70
     1
  9
$CELWEIGHT
370
    -1
  9
$ENDCAPS
280
     0
  9
$JOINSTYLE
280
     0
  9
$LWDISPLAY
290
     0
  9
$INSUNITS
 70
     4
  9
$HYPERLINKBASE
  1

  9
$STYLESHEET
  1

  9
$XEDIT
290
     1
  9
$CEPSNTYPE
380
     0
  9
$PSTYLEMODE
290
     1
  9
$FINGERPRINTGUID
  2
{FDEAD578-A652-11D2-9A35-0060089B3A3F}
  9
$VERSIONGUID
  2
{D249ED1C-EF58-4721-B28F-F6DDD98E05A6}
  9
$EXTNAMES
290
     1
  9
$PSVPSCALE
 40
0.0
  9
$OLESTARTUP
290
     0
  0
ENDSEC
  0
SECTION
  2
CLASSES
  0
CLASS
  1
ACDBDICTIONARYWDFLT
  2
AcDbDictionaryWithDefault
  3
ObjectDBX Classes
 90
        0
280
     0
281
     0
  0
CLASS
  1
ACDBPLACEHOLDER
  2
AcDbPlaceHolder
  3
ObjectDBX Classes
 90
        0
280
     0
281
     0
  0
CLASS
  1
LAYOUT
  2
AcDbLayout
  3
ObjectDBX Classes
 90
        0
280
     0
281
     0
  0
CLASS
  1
DICTIONARYVAR
  2
AcDbDictionaryVar
  3
ObjectDBX Classes
 90
        0
280
     0
281
     0
  0
CLASS
  1
DIMASSOC
  2
AcDbDimAssoc
  3
"AcDbDimAssoc|Product Desc:     AcDim ARX App For Dimension|Company:          Autodesk, Inc.|WEB Address:      www.autodesk.com"
 90
    32768
280
     0
281
     0
  0
CLASS
  1
SORTENTSTABLE
  2
AcDbSortentsTable
  3
ObjectDBX Classes
 90
    32768
280
     0
281
     0
  0
ENDSEC
  0
SECTION
  2
TABLES
  0
TABLE
  2
VPORT
  5
1B
330
0
100
AcDbSymbolTable
 70
     3
  0
VPORT
  5
1DC
330
1B
100
AcDbSymbolTableRecord
100
AcDbViewportTableRecord
  2
*Active
 70
     0
 10
0.0
 20
0.0
 11
1.0
 21
1.0
 12
2.294312259524986
 22
2.234207674551498
 13
0.0
 23
0.0
 14
10.0
 24
10.0
 15
10.0
 25
10.0
 16
0.0
 26
0.0
 36
1.0
 17
0.0
 27
0.0
 37
0.0
 40
113.8906858193395
 41
1.39386189258312
 42
50.0
 43
0.0
 44
0.0
 50
0.0
 51
0.0
 71
     0
 72
  1000
 73
     1
 74
     2
 75
     0
 76
     0
 77
     0
 78
     0
281
     0
 65
     1
110
0.0
120
0.0
130
0.0
111
1.0
121
0.0
131
0.0
112
0.0
122
1.0
132
0.0
 79
     0
146
0.0
  0
ENDTAB
  0
TABLE
  2
LTYPE
  5
16
330
0
100
AcDbSymbolTable
 70
     1
  0
LTYPE
  5
17
330
16
100
AcDbSymbolTableRecord
100
AcDbLinetypeTableRecord
  2
ByBlock
 70
     0
  3

 72
    65
 73
     0
 40
0.0
  0
LTYPE
  5
18
330
16
100
AcDbSymbolTableRecord
100
AcDbLinetypeTableRecord
  2
ByLayer
 70
     0
  3

 72
    65
 73
     0
 40
0.0
  0
LTYPE
  5
8
330
16
100
AcDbSymbolTableRecord
100
AcDbLinetypeTableRecord
  2
Continuous
 70
     0
  3
Solid line
 72
    65
 73
     0
 40
0.0
  0
ENDTAB
  0
TABLE
  2
LAYER
  5
10
102
{ACAD_XDICTIONARY
360
11
102
}
330
0
100
AcDbSymbolTable
 70
     7
  0
LAYER
  5
4
330
10
100
AcDbSymbolTableRecord
100
AcDbLayerTableRecord
  2
0
 70
     0
 62
     7
  6
Continuous
370
    -3
390
5
  0
LAYER
  5
184
330
10
100
AcDbSymbolTableRecord
100
AcDbLayerTableRecord
  2
WAKU
 70
     0
 62
     4
  6
Continuous
370
    -3
390
5
  0
LAYER
  5
31
330
10
100
AcDbSymbolTableRecord
100
AcDbLayerTableRecord
  2
MOJI1
 70
     0
 62
     2
  6
Continuous
370
    -3
390
5
  0
LAYER
  5
17F
330
10
100
AcDbSymbolTableRecord
100
AcDbLayerTableRecord
  2
TOUROKU
 70
     0
 62
     1
  6
Continuous
370
    -3
390
5
  0
LAYER
  5
5D
330
10
100
AcDbSymbolTableRecord
100
AcDbLayerTableRecord
  2
GAIKEI
 70
     0
 62
     7
  6
Continuous
370
    -3
390
5
  0
LAYER
  5
3E
330
10
100
AcDbSymbolTableRecord
100
AcDbLayerTableRecord
  2
Defpoints
 70
     0
 62
     7
  6
Continuous
290
     0
370
    -3
390
5
  0
LAYER
  5
2E
330
10
100
AcDbSymbolTableRecord
100
AcDbLayerTableRecord
  2
SUNPO
 70
     0
 62
     3
  6
Continuous
370
    -3
390
5
  0
ENDTAB
  0
TABLE
  2
STYLE
  5
13
330
0
100
AcDbSymbolTable
 70
     1
  0
STYLE
  5
14
330
13
100
AcDbSymbolTableRecord
100
AcDbTextStyleTableRecord
  2
Standard
 70
     0
 40
0.0
 41
1.0
 50
0.0
 71
     0
 42
2.5
  3
MONOTXT.shx
  4
BIGFONT.shx
  0
ENDTAB
  0
TABLE
  2
VIEW
  5
19
330
0
100
AcDbSymbolTable
 70
     0
  0
ENDTAB
  0
TABLE
  2
UCS
  5
1A
330
0
100
AcDbSymbolTable
 70
     0
  0
ENDTAB
  0
TABLE
  2
APPID
  5
1D
330
0
100
AcDbSymbolTable
 70
     1
  0
APPID
  5
1E
330
1D
100
AcDbSymbolTableRecord
100
AcDbRegAppTableRecord
  2
ACAD
 70
     0
  0
ENDTAB
  0
TABLE
  2
DIMSTYLE
  5
1F
330
0
100
AcDbSymbolTable
 70
     2
100
AcDbDimStyleTable
 71
     2
340
20
340
27
  0
DIMSTYLE
105
27
330
1F
100
AcDbSymbolTableRecord
100
AcDbDimStyleTableRecord
  2
ISO-25
 70
     0
 41
2.5
 42
0.625
 43
3.75
 44
1.25
 73
     0
 74
     0
 77
     1
 78
     8
140
2.5
141
2.5
143
0.03937007874016
147
0.625
171
     3
172
     1
271
     2
272
     2
274
     3
278
    44
283
     0
284
     8
340
14
  0
DIMSTYLE
105
20
102
{ACAD_REACTORS
330
4F
330
42
330
32
102
}
330
1F
100
AcDbSymbolTableRecord
100
AcDbDimStyleTableRecord
  2
STANDARD
 70
     0
 40
0.0
 41
2.0
 42
2.0
 43
8.0
 44
2.0
 73
     0
 74
     0
 77
     3
140
3.0
141
0.0
173
     1
279
     2
288
     1
340
14
341
21
343
21
344
21
  0
ENDTAB
  0
TABLE
  2
BLOCK_RECORD
  5
1
330
0
100
AcDbSymbolTable
 70
     7
  0
BLOCK_RECORD
  5
2
330
1
100
AcDbSymbolTableRecord
100
AcDbBlockTableRecord
  2
*Model_Space
340
A
  0
BLOCK_RECORD
  5
C
330
1
100
AcDbSymbolTableRecord
100
AcDbBlockTableRecord
  2
*Paper_Space
340
F
  0
BLOCK_RECORD
  5
21
330
1
100
AcDbSymbolTableRecord
100
AcDbBlockTableRecord
  2
_OPEN30
340
0
102
{BLKREFS
331
48
331
49
331
55
331
56
331
3A
331
3B
331
1B6
331
1B7
331
1C2
331
1C3
331
1D0
331
1D1
102
}
  0
BLOCK_RECORD
  5
50
330
1
100
AcDbSymbolTableRecord
100
AcDbBlockTableRecord
  2
*D1
340
0
  0
BLOCK_RECORD
  5
43
330
1
100
AcDbSymbolTableRecord
100
AcDbBlockTableRecord
  2
*D2
340
0
  0
BLOCK_RECORD
  5
33
330
1
100
AcDbSymbolTableRecord
100
AcDbBlockTableRecord
  2
*D3
340
0
  0
BLOCK_RECORD
  5
1B2
330
1
100
AcDbSymbolTableRecord
100
AcDbBlockTableRecord
  2
*D4
340
0
  0
BLOCK_RECORD
  5
1BE
330
1
100
AcDbSymbolTableRecord
100
AcDbBlockTableRecord
  2
*D5
340
0
  0
BLOCK_RECORD
  5
1CA
330
1
100
AcDbSymbolTableRecord
100
AcDbBlockTableRecord
  2
*D6
340
0
  0
ENDTAB
  0
ENDSEC
  0
SECTION
  2
BLOCKS
  0
BLOCK
  5
3
330
2
100
AcDbEntity
  8
0
100
AcDbBlockBegin
  2
*Model_Space
 70
     0
 10
0.0
 20
0.0
 30
0.0
  3
*Model_Space
  1

  0
ENDBLK
  5
9
330
2
100
AcDbEntity
  8
0
100
AcDbBlockEnd
  0
BLOCK
  5
D
330
C
100
AcDbEntity
 67
     1
  8
0
100
AcDbBlockBegin
  2
*Paper_Space
 70
     0
 10
0.0
 20
0.0
 30
0.0
  3
*Paper_Space
  1

  0
ENDBLK
  5
E
330
C
100
AcDbEntity
 67
     1
  8
0
100
AcDbBlockEnd
  0
BLOCK
  5
22
330
21
100
AcDbEntity
  8
0
100
AcDbBlockBegin
  2
_OPEN30
 70
     0
 10
0.0
 20
0.0
 30
0.0
  3
_OPEN30
  1

  0
LINE
  5
23
330
21
100
AcDbEntity
  8
0
  6
ByBlock
 62
     0
100
AcDbLine
 10
-1.0
 20
0.26794919
 30
0.0
 11
0.0
 21
0.0
 31
0.0
  0
LINE
  5
24
330
21
100
AcDbEntity
  8
0
  6
ByBlock
 62
     0
100
AcDbLine
 10
0.0
 20
0.0
 30
0.0
 11
-1.0
 21
-0.26794919
 31
0.0
  0
LINE
  5
25
330
21
100
AcDbEntity
  8
0
  6
ByBlock
 62
     0
100
AcDbLine
 10
0.0
 20
0.0
 30
0.0
 11
-1.0
 21
0.0
 31
0.0
  0
ENDBLK
  5
26
330
21
100
AcDbEntity
  8
0
100
AcDbBlockEnd
  0
BLOCK
  5
51
330
50
100
AcDbEntity
  8
0
100
AcDbBlockBegin
  2
*D1
 70
     1
 10
0.0
 20
0.0
 30
0.0
  3
*D1
  1

  0
LINE
  5
52
330
50
100
AcDbEntity
  8
SUNPO
 62
     0
370
    -2
100
AcDbLine
 10
21.05228104502316
 20
347.4109637634472
 30
0.0
 11
21.05228104502316
 21
355.4109637634472
 31
0.0
  0
LINE
  5
53
330
50
100
AcDbEntity
  8
SUNPO
 62
     0
370
    -2
100
AcDbLine
 10
72.04728104502319
 20
347.4109637634472
 30
0.0
 11
72.04728104502319
 21
355.4109637634472
 31
0.0
  0
LINE
  5
54
330
50
100
AcDbEntity
  8
SUNPO
 62
     0
370
    -2
100
AcDbLine
 10
23.05228104502317
 20
353.4109637634472
 30
0.0
 11
70.04728104502318
 21
353.4109637634472
 31
0.0
  0
INSERT
  5
55
330
50
100
AcDbEntity
  8
SUNPO
 62
     0
370
    -2
100
AcDbBlockReference
  2
_OPEN30
 10
21.05228104502316
 20
353.4109637634472
 30
0.0
 41
2.0
 42
2.0
 43
2.0
 50
180.0
  0
INSERT
  5
56
330
50
100
AcDbEntity
  8
SUNPO
 62
     0
370
    -2
100
AcDbBlockReference
  2
_OPEN30
 10
72.04728104502319
 20
353.4109637634472
 30
0.0
 41
2.0
 42
2.0
 43
2.0
  0
MTEXT
  5
57
330
50
100
AcDbEntity
  8
SUNPO
 62
     0
100
AcDbMText
 10
46.54978104502317
 20
355.1609637634472
 30
0.0
 40
2.5
 41
0.0
 71
     5
 72
     1
  1
\A1;1020
 73
     1
 44
1.0
1001
ACAD
1000
MTEXTBEGIN
1070
    73
1070
     1
1070
    44
1040
1.0
1070
    74
1070
     0
1000
MTEXTEND
  0
POINT
  5
58
330
50
100
AcDbEntity
  8
Defpoints
 62
     0
100
AcDbPoint
 10
21.05228104502316
 20
345.4109637634472
 30
0.0
  0
POINT
  5
59
330
50
100
AcDbEntity
  8
Defpoints
 62
     0
100
AcDbPoint
 10
72.04728104502319
 20
345.4109637634472
 30
0.0
  0
POINT
  5
5A
330
50
100
AcDbEntity
  8
Defpoints
 62
     0
100
AcDbPoint
 10
72.04728104502319
 20
353.4109637634472
 30
0.0
  0
ENDBLK
  5
5B
330
50
100
AcDbEntity
  8
0
100
AcDbBlockEnd
  0
BLOCK
  5
44
330
43
100
AcDbEntity
  8
0
100
AcDbBlockBegin
  2
*D2
 70
     1
 10
0.0
 20
0.0
 30
0.0
  3
*D2
  1

  0
LINE
  5
45
330
43
100
AcDbEntity
  8
SUNPO
 62
     0
370
    -2
100
AcDbLine
 10
74.04728104502318
 20
314.9074971203412
 30
0.0
 11
82.04728104502319
 21
314.9074971203412
 31
0.0
  0
LINE
  5
46
330
43
100
AcDbEntity
  8
SUNPO
 62
     0
370
    -2
100
AcDbLine
 10
74.04728104502318
 20
345.4074971203411
 30
0.0
 11
82.04728104502319
 21
345.4074971203411
 31
0.0
  0
LINE
  5
47
330
43
100
AcDbEntity
  8
SUNPO
 62
     0
370
    -2
100
AcDbLine
 10
80.04728104502317
 20
316.9074971203411
 30
0.0
 11
80.04728104502317
 21
343.4074971203411
 31
0.0
  0
INSERT
  5
48
330
43
100
AcDbEntity
  8
SUNPO
 62
     0
370
    -2
100
AcDbBlockReference
  2
_OPEN30
 10
80.04728104502317
 20
314.9074971203412
 30
0.0
 41
2.0
 42
2.0
 43
2.0
 50
270.0
  0
INSERT
  5
49
330
43
100
AcDbEntity
  8
SUNPO
 62
     0
370
    -2
100
AcDbBlockReference
  2
_OPEN30
 10
80.04728104502317
 20
345.4074971203411
 30
0.0
 41
2.0
 42
2.0
 43
2.0
 50
90.0
  0
MTEXT
  5
4A
330
43
100
AcDbEntity
  8
SUNPO
 62
     0
100
AcDbMText
 10
78.29728104502312
 20
330.1574971203411
 30
0.0
 40
2.5
 41
0.0
 71
     5
 72
     1
  1
\A1;610
 11
0.0000000000000001
 21
1.0
 31
0.0
 73
     1
 44
1.0
1001
ACAD
1000
MTEXTBEGIN
1070
    73
1070
     1
1070
    44
1040
1.0
1070
    74
1070
     0
1000
MTEXTEND
  0
POINT
  5
4B
330
43
100
AcDbEntity
  8
Defpoints
 62
     0
100
AcDbPoint
 10
72.04728104502319
 20
314.9074971203412
 30
0.0
  0
POINT
  5
4C
330
43
100
AcDbEntity
  8
Defpoints
 62
     0
100
AcDbPoint
 10
72.04728104502319
 20
345.4074971203411
 30
0.0
  0
POINT
  5
4D
330
43
100
AcDbEntity
  8
Defpoints
 62
     0
100
AcDbPoint
 10
80.04728104502317
 20
345.4074971203411
 30
0.0
  0
ENDBLK
  5
4E
330
43
100
AcDbEntity
  8
0
100
AcDbBlockEnd
  0
BLOCK
  5
34
330
33
100
AcDbEntity
  8
0
100
AcDbBlockBegin
  2
*D3
 70
     1
 10
0.0
 20
0.0
 30
0.0
  3
*D3
  1

  0
LINE
  5
35
330
33
100
AcDbEntity
  8
SUNPO
 62
     0
370
    -2
100
AcDbLine
 10
100.556267206883
 20
347.4109637634472
 30
0.0
 11
100.556267206883
 21
355.4109637634473
 31
0.0
  0
LINE
  5
36
330
33
100
AcDbEntity
  8
SUNPO
 62
     0
370
    -2
100
AcDbLine
 10
105.006267206883
 20
347.4109637634473
 30
0.0
 11
105.006267206883
 21
355.4109637634473
 31
0.0
  0
LINE
  5
37
330
33
100
AcDbEntity
  8
SUNPO
 62
     0
370
    -2
100
AcDbLine
 10
98.55626720688304
 20
353.4109637634473
 30
0.0
 11
96.55626720688303
 21
353.4109637634473
 31
0.0
  0
LINE
  5
38
330
33
100
AcDbEntity
  8
SUNPO
 62
     0
370
    -2
100
AcDbLine
 10
107.006267206883
 20
353.4109637634473
 30
0.0
 11
114.1729338735497
 21
353.4109637634473
 31
0.0
  0
LINE
  5
39
330
33
100
AcDbEntity
  8
SUNPO
 62
     0
370
    -2
100
AcDbLine
 10
100.556267206883
 20
353.4109637634473
 30
0.0
 11
105.006267206883
 21
353.4109637634473
 31
0.0
  0
INSERT
  5
3A
330
33
100
AcDbEntity
  8
SUNPO
 62
     0
370
    -2
100
AcDbBlockReference
  2
_OPEN30
 10
100.556267206883
 20
353.4109637634473
 30
0.0
 41
2.0
 42
2.0
 43
2.0
  0
INSERT
  5
3B
330
33
100
AcDbEntity
  8
SUNPO
 62
     0
370
    -2
100
AcDbBlockReference
  2
_OPEN30
 10
105.006267206883
 20
353.4109637634473
 30
0.0
 41
2.0
 42
2.0
 43
2.0
 50
180.0
  0
MTEXT
  5
3C
330
33
100
AcDbEntity
  8
SUNPO
 62
     0
100
AcDbMText
 10
111.5896005402164
 20
355.1609637634473
 30
0.0
 40
2.5
 41
0.0
 71
     5
 72
     1
  1
\A1;89
 73
     1
 44
1.0
1001
ACAD
1000
MTEXTBEGIN
1070
    73
1070
     1
1070
    44
1040
1.0
1070
    74
1070
     0
1000
MTEXTEND
  0
POINT
  5
3D
330
33
100
AcDbEntity
  8
Defpoints
 62
     0
100
AcDbPoint
 10
100.556267206883
 20
345.4109637634472
 30
0.0
  0
POINT
  5
3F
330
33
100
AcDbEntity
  8
Defpoints
 62
     0
100
AcDbPoint
 10
105.006267206883
 20
345.4109637634473
 30
0.0
  0
POINT
  5
40
330
33
100
AcDbEntity
  8
Defpoints
 62
     0
100
AcDbPoint
 10
105.006267206883
 20
353.4109637634473
 30
0.0
  0
ENDBLK
  5
41
330
33
100
AcDbEntity
  8
0
100
AcDbBlockEnd
  0
BLOCK
  5
1BC
330
1B2
100
AcDbEntity
  8
0
100
AcDbBlockBegin
  2
*D4
 70
     1
 10
0.0
 20
0.0
 30
0.0
  3
*D4
  1

  0
LINE
  5
1B3
330
1B2
100
AcDbEntity
  8
SUNPO
 62
     0
370
    -2
100
AcDbLine
 10
-41.65370268801393
 20
35.65022405093788
 30
0.0
 11
-41.65370268801393
 21
43.65022405093788
 31
0.0
  0
LINE
  5
1B4
330
1B2
100
AcDbEntity
  8
SUNPO
 62
     0
370
    -2
100
AcDbLine
 10
9.341297311986082
 20
35.65022405093788
 30
0.0
 11
9.341297311986082
 21
43.65022405093788
 31
0.0
  0
LINE
  5
1B5
330
1B2
100
AcDbEntity
  8
SUNPO
 62
     0
370
    -2
100
AcDbLine
 10
-39.65370268801394
 20
41.65022405093788
 30
0.0
 11
7.341297311986082
 21
41.65022405093788
 31
0.0
  0
INSERT
  5
1B6
330
1B2
100
AcDbEntity
  8
SUNPO
 62
     0
370
    -2
100
AcDbBlockReference
  2
_OPEN30
 10
-41.65370268801393
 20
41.65022405093788
 30
0.0
 41
2.0
 42
2.0
 43
2.0
 50
180.0
  0
INSERT
  5
1B7
330
1B2
100
AcDbEntity
  8
SUNPO
 62
     0
370
    -2
100
AcDbBlockReference
  2
_OPEN30
 10
9.341297311986082
 20
41.65022405093788
 30
0.0
 41
2.0
 42
2.0
 43
2.0
  0
MTEXT
  5
1B8
330
1B2
100
AcDbEntity
  8
SUNPO
 62
     0
100
AcDbMText
 10
-16.15620268801392
 20
43.40022405093788
 30
0.0
 40
2.5
 41
0.0
 71
     5
 72
     1
  1
\A1;1020
 73
     1
 44
1.0
1001
ACAD
1000
MTEXTBEGIN
1070
    73
1070
     1
1070
    44
1040
1.0
1070
    74
1070
     0
1000
MTEXTEND
  0
POINT
  5
1B9
330
1B2
100
AcDbEntity
  8
Defpoints
 62
     0
100
AcDbPoint
 10
-41.65370268801393
 20
33.65022405093788
 30
0.0
  0
POINT
  5
1BA
330
1B2
100
AcDbEntity
  8
Defpoints
 62
     0
100
AcDbPoint
 10
9.341297311986082
 20
33.65022405093788
 30
0.0
  0
POINT
  5
1BB
330
1B2
100
AcDbEntity
  8
Defpoints
 62
     0
100
AcDbPoint
 10
9.341297311986082
 20
41.65022405093788
 30
0.0
  0
ENDBLK
  5
1BD
330
1B2
100
AcDbEntity
  8
0
100
AcDbBlockEnd
  0
BLOCK
  5
1C8
330
1BE
100
AcDbEntity
  8
0
100
AcDbBlockBegin
  2
*D5
 70
     1
 10
0.0
 20
0.0
 30
0.0
  3
*D5
  1

  0
LINE
  5
1BF
330
1BE
100
AcDbEntity
  8
SUNPO
 62
     0
370
    -2
100
AcDbLine
 10
11.34129731198608
 20
3.146757407831784
 30
0.0
 11
19.34129731198607
 21
3.146757407831782
 31
0.0
  0
LINE
  5
1C0
330
1BE
100
AcDbEntity
  8
SUNPO
 62
     0
370
    -2
100
AcDbLine
 10
11.34129731198608
 20
33.64675740783173
 30
0.0
 11
19.34129731198608
 21
33.64675740783172
 31
0.0
  0
LINE
  5
1C1
330
1BE
100
AcDbEntity
  8
SUNPO
 62
     0
370
    -2
100
AcDbLine
 10
17.34129731198607
 20
5.146757407831783
 30
0.0
 11
17.34129731198608
 21
31.64675740783172
 31
0.0
  0
INSERT
  5
1C2
330
1BE
100
AcDbEntity
  8
SUNPO
 62
     0
370
    -2
100
AcDbBlockReference
  2
_OPEN30
 10
17.34129731198607
 20
3.146757407831783
 30
0.0
 41
2.0
 42
2.0
 43
2.0
 50
270.0
  0
INSERT
  5
1C3
330
1BE
100
AcDbEntity
  8
SUNPO
 62
     0
370
    -2
100
AcDbBlockReference
  2
_OPEN30
 10
17.34129731198608
 20
33.64675740783172
 30
0.0
 41
2.0
 42
2.0
 43
2.0
 50
90.0
  0
MTEXT
  5
1C4
330
1BE
100
AcDbEntity
  8
SUNPO
 62
     0
100
AcDbMText
 10
15.59129731198608
 20
18.39675740783176
 30
0.0
 40
2.5
 41
0.0
 71
     5
 72
     1
  1
\A1;610
 11
0.0000000000000001
 21
1.0
 31
0.0
 73
     1
 44
1.0
1001
ACAD
1000
MTEXTBEGIN
1070
    73
1070
     1
1070
    44
1040
1.0
1070
    74
1070
     0
1000
MTEXTEND
  0
POINT
  5
1C5
330
1BE
100
AcDbEntity
  8
Defpoints
 62
     0
100
AcDbPoint
 10
9.341297311986082
 20
3.146757407831785
 30
0.0
  0
POINT
  5
1C6
330
1BE
100
AcDbEntity
  8
Defpoints
 62
     0
100
AcDbPoint
 10
9.341297311986082
 20
33.64675740783173
 30
0.0
  0
POINT
  5
1C7
330
1BE
100
AcDbEntity
  8
Defpoints
 62
     0
100
AcDbPoint
 10
17.34129731198608
 20
33.64675740783172
 30
0.0
  0
ENDBLK
  5
1C9
330
1BE
100
AcDbEntity
  8
0
100
AcDbBlockEnd
  0
BLOCK
  5
1D6
330
1CA
100
AcDbEntity
  8
0
100
AcDbBlockBegin
  2
*D6
 70
     1
 10
0.0
 20
0.0
 30
0.0
  3
*D6
  1

  0
LINE
  5
1CB
330
1CA
100
AcDbEntity
  8
SUNPO
 62
     0
370
    -2
100
AcDbLine
 10
37.85028347384594
 20
35.65022405093788
 30
0.0
 11
37.85028347384594
 21
43.65022405093793
 31
0.0
  0
LINE
  5
1CC
330
1CA
100
AcDbEntity
  8
SUNPO
 62
     0
370
    -2
100
AcDbLine
 10
42.30028347384595
 20
35.65022405093794
 30
0.0
 11
42.30028347384595
 21
43.65022405093793
 31
0.0
  0
LINE
  5
1CD
330
1CA
100
AcDbEntity
  8
SUNPO
 62
     0
370
    -2
100
AcDbLine
 10
35.85028347384593
 20
41.65022405093793
 30
0.0
 11
33.85028347384594
 21
41.65022405093793
 31
0.0
  0
LINE
  5
1CE
330
1CA
100
AcDbEntity
  8
SUNPO
 62
     0
370
    -2
100
AcDbLine
 10
44.30028347384594
 20
41.65022405093793
 30
0.0
 11
51.46695014051261
 21
41.65022405093793
 31
0.0
  0
LINE
  5
1CF
330
1CA
100
AcDbEntity
  8
SUNPO
 62
     0
370
    -2
100
AcDbLine
 10
37.85028347384594
 20
41.65022405093793
 30
0.0
 11
42.30028347384595
 21
41.65022405093793
 31
0.0
  0
INSERT
  5
1D0
330
1CA
100
AcDbEntity
  8
SUNPO
 62
     0
370
    -2
100
AcDbBlockReference
  2
_OPEN30
 10
37.85028347384594
 20
41.65022405093793
 30
0.0
 41
2.0
 42
2.0
 43
2.0
  0
INSERT
  5
1D1
330
1CA
100
AcDbEntity
  8
SUNPO
 62
     0
370
    -2
100
AcDbBlockReference
  2
_OPEN30
 10
42.30028347384595
 20
41.65022405093793
 30
0.0
 41
2.0
 42
2.0
 43
2.0
 50
180.0
  0
MTEXT
  5
1D2
330
1CA
100
AcDbEntity
  8
SUNPO
 62
     0
100
AcDbMText
 10
48.88361680717928
 20
43.40022405093793
 30
0.0
 40
2.5
 41
0.0
 71
     5
 72
     1
  1
\A1;89
 73
     1
 44
1.0
1001
ACAD
1000
MTEXTBEGIN
1070
    73
1070
     1
1070
    44
1040
1.0
1070
    74
1070
     0
1000
MTEXTEND
  0
POINT
  5
1D3
330
1CA
100
AcDbEntity
  8
Defpoints
 62
     0
100
AcDbPoint
 10
37.85028347384594
 20
33.65022405093788
 30
0.0
  0
POINT
  5
1D4
330
1CA
100
AcDbEntity
  8
Defpoints
 62
     0
100
AcDbPoint
 10
42.30028347384595
 20
33.65022405093794
 30
0.0
  0
POINT
  5
1D5
330
1CA
100
AcDbEntity
  8
Defpoints
 62
     0
100
AcDbPoint
 10
42.30028347384595
 20
41.65022405093793
 30
0.0
  0
ENDBLK
  5
1D7
330
1CA
100
AcDbEntity
  8
0
100
AcDbBlockEnd
  0
ENDSEC
  0
SECTION
  2
ENTITIES
  0
TEXT
  5
30
330
2
100
AcDbEntity
  8
MOJI1
100
AcDbText
 10
-33.20598378899632
 20
54.74009541242526
 30
0.0
 40
4.0
  1
ハイビジョンプラズマディスプレイ
100
AcDbText
  0
DIMENSION
  5
32
330
2
100
AcDbEntity
  8
SUNPO
100
AcDbDimension
  2
*D6
 10
42.30028347384595
 20
41.65022405093793
 30
0.0
 11
48.88361680717928
 21
43.40022405093793
 31
0.0
 70
    33
  1
89
 71
     5
 42
4.450000000000017
  3
STANDARD
100
AcDbAlignedDimension
 13
37.85028347384594
 23
33.65022405093788
 33
0.0
 14
42.30028347384595
 24
33.65022405093794
 34
0.0
1001
ACAD
1000
DSTYLE
1002
{
1070
    40
1040
1.0
1070
   140
1040
2.5
1070
   147
1040
0.5
1070
   172
1070
     1
1070
   279
1070
     0
1070
   288
1070
     0
1002
}
  0
DIMENSION
  5
42
330
2
100
AcDbEntity
  8
SUNPO
100
AcDbDimension
  2
*D5
 10
17.34129731198608
 20
33.64675740783172
 30
0.0
 11
15.59129731198608
 21
18.39675740783176
 31
0.0
 70
    33
  1
610
 71
     5
 42
30.49999999999994
  3
STANDARD
100
AcDbAlignedDimension
 13
9.341297311986082
 23
3.146757407831785
 33
0.0
 14
9.341297311986082
 24
33.64675740783173
 34
0.0
1001
ACAD
1000
DSTYLE
1002
{
1070
    40
1040
1.0
1070
   140
1040
2.5
1070
   147
1040
0.5
1070
   172
1070
     1
1070
   279
1070
     0
1070
   288
1070
     0
1002
}
  0
DIMENSION
  5
4F
330
2
100
AcDbEntity
  8
SUNPO
100
AcDbDimension
  2
*D4
 10
9.341297311986082
 20
41.65022405093788
 30
0.0
 11
-16.15620268801392
 21
43.40022405093788
 31
0.0
 70
    33
  1
1020
 71
     5
 42
50.99500000000002
  3
STANDARD
100
AcDbAlignedDimension
 13
-41.65370268801393
 23
33.65022405093788
 33
0.0
 14
9.341297311986082
 24
33.65022405093788
 34
0.0
1001
ACAD
1000
DSTYLE
1002
{
1070
    40
1040
1.0
1070
   140
1040
2.5
1070
   147
1040
0.5
1070
   172
1070
     1
1070
   279
1070
     0
1070
   288
1070
     0
1002
}
  0
ARC
  5
5C
330
2
100
AcDbEntity
  8
GAIKEI
 62
     1
100
AcDbCircle
 10
41.55091203481766
 20
31.77952971718901
 30
0.0
 40
0.3497654045621397
100
AcDbArc
 50
7.824500824864304
 51
77.91119993180166
  0
ARC
  5
5E
330
2
100
AcDbEntity
  8
GAIKEI
 62
     1
100
AcDbCircle
 10
41.36529004197529
 20
26.92558977548003
 30
0.0
 40
0.7933618211180807
100
AcDbArc
 50
325.5909931086476
 51
3.625618073732946
  0
ARC
  5
5F
330
2
100
AcDbEntity
  8
GAIKEI
100
AcDbCircle
 10
41.55091225794024
 20
26.61371110983492
 30
0.0
 40
0.3497651444952813
100
AcDbArc
 50
282.0887752694151
 51
352.1755251408762
  0
ARC
  5
60
330
2
100
AcDbEntity
  8
GAIKEI
  6
Continuous
 62
     1
100
AcDbCircle
 10
42.40464597384584
 20
26.1484524933108
 30
0.0
 40
0.5
100
AcDbArc
 50
148.4349071797699
 51
180.0000000000024
  0
ARC
  5
61
330
2
100
AcDbEntity
  8
GAIKEI
  6
Continuous
 62
     1
100
AcDbCircle
 10
40.28528352384592
 20
31.70072182350305
 30
0.0
 40
0.05
100
AcDbArc
 50
87.9999999999964
 51
180.0
  0
ARC
  5
62
330
2
100
AcDbEntity
  8
GAIKEI
  6
Continuous
 62
     1
100
AcDbCircle
 10
41.34818007384592
 20
31.55179372350301
 30
0.0
 40
0.15
100
AcDbArc
 50
7.83045700000137
 51
87.9999999999964
  0
LINE
  5
63
330
2
100
AcDbEntity
  8
GAIKEI
  6
Continuous
 62
     1
100
AcDbLine
 10
40.64477437384596
 20
31.73819862350297
 30
0.0
 11
41.35341502384597
 21
31.70170232350301
 31
0.0
  0
LINE
  5
64
330
2
100
AcDbEntity
  8
GAIKEI
  6
Continuous
 62
     1
100
AcDbLine
 10
40.2870284738459
 20
31.75069137350295
 30
0.0
 11
40.64477437384596
 21
31.73819862350297
 31
0.0
  0
ARC
  5
65
330
2
100
AcDbEntity
  8
GAIKEI
  6
Continuous
 62
     1
100
AcDbCircle
 10
40.34028352384598
 20
31.64199022350294
 30
0.0
 40
0.15
100
AcDbArc
 50
87.9999999999964
 51
180.0
  0
LINE
  5
66
330
2
100
AcDbEntity
  8
GAIKEI
  6
Continuous
 62
     1
100
AcDbLine
 10
40.34551842384598
 20
31.79189887350299
 30
0.0
 11
41.39857102384588
 21
31.75512547350297
 31
0.0
  0
LINE
  5
67
330
2
100
AcDbEntity
  8
GAIKEI
  6
Continuous
 62
     1
100
AcDbLine
 10
40.19028352384589
 20
26.75264932350297
 30
0.0
 11
40.19028352384589
 21
31.64199022350294
 31
0.0
  0
ARC
  5
68
330
2
100
AcDbEntity
  8
GAIKEI
  6
Continuous
 62
     1
100
AcDbCircle
 10
40.79028347384587
 20
29.42465952350301
 30
0.0
 40
1.044499999999999
100
AcDbArc
 50
0.0
 51
7.83045700000137
  0
ARC
  5
69
330
2
100
AcDbEntity
  8
GAIKEI
  6
Continuous
 62
     1
100
AcDbCircle
 10
40.79028347384587
 20
29.42465952350301
 30
0.0
 40
0.9925
100
AcDbArc
 50
0.0
 51
7.83045700000137
  0
LINE
  5
6A
330
2
100
AcDbEntity
  8
GAIKEI
  6
Continuous
 62
     1
100
AcDbLine
 10
41.78278352384597
 20
28.96998007350294
 30
0.0
 11
41.78278352384597
 21
29.42465952350301
 31
0.0
  0
LINE
  5
6B
330
2
100
AcDbEntity
  8
GAIKEI
  6
Continuous
 62
     1
100
AcDbLine
 10
41.83478352384589
 20
28.96998007350294
 30
0.0
 11
41.83478352384589
 21
29.42465952350301
 31
0.0
  0
LINE
  5
6C
330
2
100
AcDbEntity
  8
GAIKEI
  6
Continuous
 62
     1
100
AcDbLine
 10
41.77352897384594
 20
29.55987987350295
 30
0.0
 11
41.49678142384596
 21
31.57223002350304
 31
0.0
  0
ARC
  5
6D
330
2
100
AcDbEntity
  8
GAIKEI
  6
Continuous
 62
     1
100
AcDbCircle
 10
41.39333337384596
 20
31.60513822350299
 30
0.0
 40
0.15
100
AcDbArc
 50
7.83045700000137
 51
87.9999999999964
  0
LINE
  5
6E
330
2
100
AcDbEntity
  8
GAIKEI
  6
Continuous
 62
     1
100
AcDbLine
 10
41.82504412384594
 20
29.56696447350294
 30
0.0
 11
41.54193467384596
 21
31.62557452350302
 31
0.0
  0
LINE
  5
6F
330
2
100
AcDbEntity
  8
GAIKEI
  6
Continuous
 62
     1
100
AcDbLine
 10
40.23528352384596
 20
26.69391772350298
 30
0.0
 11
40.23528352384596
 21
31.70072182350305
 31
0.0
  0
ARC
  5
70
330
2
100
AcDbEntity
  8
GAIKEI
  6
Continuous
 62
     1
100
AcDbCircle
 10
40.28528352384592
 20
26.69391772350298
 30
0.0
 40
0.05
100
AcDbArc
 50
180.0
 51
272.0000000000036
  0
ARC
  5
71
330
2
100
AcDbEntity
  8
GAIKEI
  6
Continuous
 62
     1
100
AcDbCircle
 10
41.34818007384592
 20
26.84284587350294
 30
0.0
 40
0.15
100
AcDbArc
 50
272.0000000000036
 51
352.1695429999987
  0
LINE
  5
72
330
2
100
AcDbEntity
  8
GAIKEI
  6
Continuous
 62
     1
100
AcDbLine
 10
40.63696367384591
 20
26.66791822350297
 30
0.0
 11
41.35341502384597
 21
26.69293722350301
 31
0.0
  0
LINE
  5
73
330
2
100
AcDbEntity
  8
GAIKEI
  6
Continuous
 62
     1
100
AcDbLine
 10
40.64477437384596
 20
26.65644097350298
 30
0.0
 11
40.64446537384594
 21
26.66529057350294
 31
0.0
  0
LINE
  5
74
330
2
100
AcDbEntity
  8
GAIKEI
  6
Continuous
 62
     1
100
AcDbLine
 10
40.2870284738459
 20
26.64394817350296
 30
0.0
 11
40.64477437384596
 21
26.65644097350298
 31
0.0
  0
ARC
  5
75
330
2
100
AcDbEntity
  8
GAIKEI
  6
Continuous
 62
     1
100
AcDbCircle
 10
40.34028352384598
 20
26.75264932350297
 30
0.0
 40
0.15
100
AcDbArc
 50
180.0
 51
272.0000000000036
  0
LINE
  5
76
330
2
100
AcDbEntity
  8
GAIKEI
  6
Continuous
 62
     1
100
AcDbLine
 10
40.34551842384598
 20
26.60274072350296
 30
0.0
 11
41.39857102384588
 21
26.63951412350298
 31
0.0
  0
ARC
  5
77
330
2
100
AcDbEntity
  8
GAIKEI
  6
Continuous
 62
     1
100
AcDbCircle
 10
40.79028347384587
 20
28.96998007350294
 30
0.0
 40
1.044499999999999
100
AcDbArc
 50
352.1695429999987
 51
0.0
  0
ARC
  5
78
330
2
100
AcDbEntity
  8
GAIKEI
  6
Continuous
 62
     1
100
AcDbCircle
 10
40.79028347384587
 20
28.96998007350294
 30
0.0
 40
0.9925
100
AcDbArc
 50
352.1695429999987
 51
0.0
  0
LINE
  5
79
330
2
100
AcDbEntity
  8
GAIKEI
  6
Continuous
 62
     1
100
AcDbLine
 10
41.77352897384594
 20
28.83475967350296
 30
0.0
 11
41.49678142384596
 21
26.82240952350298
 31
0.0
  0
ARC
  5
7A
330
2
100
AcDbEntity
  8
GAIKEI
  6
Continuous
 62
     1
100
AcDbCircle
 10
41.39333337384596
 20
26.78950137350296
 30
0.0
 40
0.15
100
AcDbArc
 50
272.0000000000036
 51
352.1695429999987
  0
LINE
  5
7B
330
2
100
AcDbEntity
  8
GAIKEI
  6
Continuous
 62
     1
100
AcDbLine
 10
41.82504412384594
 20
28.82767507350298
 30
0.0
 11
41.54193467384596
 21
26.76906502350301
 31
0.0
  0
ARC
  5
7C
330
2
100
AcDbEntity
  8
GAIKEI
 62
     1
100
AcDbCircle
 10
41.23140995005178
 20
8.496169101549412
 30
0.0
 40
0.6767993243531389
100
AcDbArc
 50
320.5571672063336
 51
2.909351495515366
  0
ARC
  5
7D
330
2
100
AcDbEntity
  8
GAIKEI
100
AcDbCircle
 10
42.47627713285055
 20
8.155202884607206
 30
0.0
 40
0.4959956609617684
100
AcDbArc
 50
141.0786585612989
 51
180.1627894387007
  0
ARC
  5
7E
330
2
100
AcDbEntity
  8
GAIKEI
 62
     1
100
AcDbCircle
 10
42.57117095727841
 20
7.03065036562566
 30
0.0
 40
1.720167845632516
100
AcDbArc
 50
145.6090498134464
 51
174.3909501865545
  0
ARC
  5
7F
330
2
100
AcDbEntity
  8
GAIKEI
  6
Continuous
 62
     1
100
AcDbCircle
 10
9.016904661986018
 20
3.473650057831719
 30
0.0
 40
0.188
100
AcDbArc
 50
270.0
 51
0.0
  0
ARC
  5
80
330
2
100
AcDbEntity
  8
GAIKEI
  6
Continuous
 62
     1
100
AcDbCircle
 10
9.016904661986075
 20
33.31986475783174
 30
0.0
 40
0.188
100
AcDbArc
 50
0.0
 51
90.0
  0
ARC
  5
81
330
2
100
AcDbEntity
  8
GAIKEI
  6
Continuous
 62
     1
100
AcDbCircle
 10
-41.329310038014
 20
33.31986475783174
 30
0.0
 40
0.188
100
AcDbArc
 50
90.0
 51
180.0
  0
ARC
  5
82
330
2
100
AcDbEntity
  8
GAIKEI
  6
Continuous
 62
     1
100
AcDbCircle
 10
-41.32931003801394
 20
3.473650057831719
 30
0.0
 40
0.188
100
AcDbArc
 50
180.0
 51
270.0
  0
ARC
  5
83
330
2
100
AcDbEntity
  8
GAIKEI
  6
Continuous
 62
     1
100
AcDbCircle
 10
6.807797311986064
 20
5.5277574078317
 30
0.0
 40
0.0985
100
AcDbArc
 50
270.0
 51
0.0
  0
ARC
  5
84
330
2
100
AcDbEntity
  8
GAIKEI
  6
Continuous
 62
     1
100
AcDbCircle
 10
6.807797311986064
 20
31.26575740783176
 30
0.0
 40
0.0985
100
AcDbArc
 50
0.0
 51
90.0
  0
ARC
  5
85
330
2
100
AcDbEntity
  8
GAIKEI
  6
Continuous
 62
     1
100
AcDbCircle
 10
-39.12020268801393
 20
31.26575740783176
 30
0.0
 40
0.0985
100
AcDbArc
 50
90.0
 51
180.0
  0
ARC
  5
86
330
2
100
AcDbEntity
  8
GAIKEI
  6
Continuous
 62
     1
100
AcDbCircle
 10
-39.12020268801393
 20
5.5277574078317
 30
0.0
 40
0.0985
100
AcDbArc
 50
180.0
 51
270.0
  0
ARC
  5
87
330
2
100
AcDbEntity
  8
GAIKEI
  6
Continuous
 62
     1
100
AcDbCircle
 10
7.745297311986064
 20
4.74650125783171
 30
0.0
 40
0.0985
100
AcDbArc
 50
270.0
 51
0.0
  0
ARC
  5
88
330
2
100
AcDbEntity
  8
GAIKEI
  6
Continuous
 62
     1
100
AcDbCircle
 10
7.745297311986064
 20
32.04825740783167
 30
0.0
 40
0.0985
100
AcDbArc
 50
0.0
 51
90.0
  0
ARC
  5
89
330
2
100
AcDbEntity
  8
GAIKEI
  6
Continuous
 62
     1
100
AcDbCircle
 10
-40.05639338801393
 20
32.04825740783173
 30
0.0
 40
0.0985
100
AcDbArc
 50
90.0
 51
180.0
  0
ARC
  5
8A
330
2
100
AcDbEntity
  8
GAIKEI
  6
Continuous
 62
     1
100
AcDbCircle
 10
-40.05639338801393
 20
4.74650125783171
 30
0.0
 40
0.0985
100
AcDbArc
 50
180.0
 51
270.0
  0
ARC
  5
8B
330
2
100
AcDbEntity
  8
GAIKEI
  6
Continuous
 62
     1
100
AcDbCircle
 10
-41.10182478801391
 20
3.701135307831691
 30
0.0
 40
0.155
100
AcDbArc
 50
179.9999999999999
 51
270.0
  0
ARC
  5
8C
330
2
100
AcDbEntity
  8
GAIKEI
  6
Continuous
 62
     1
100
AcDbCircle
 10
8.789419411986045
 20
3.701135307831691
 30
0.0
 40
0.155
100
AcDbArc
 50
270.0
 51
360.0
  0
ARC
  5
8D
330
2
100
AcDbEntity
  8
GAIKEI
  6
Continuous
 62
     1
100
AcDbCircle
 10
8.789419411986102
 20
33.09237950783177
 30
0.0
 40
0.155
100
AcDbArc
 50
0.0
 51
89.99999999999998
  0
ARC
  5
8E
330
2
100
AcDbEntity
  8
GAIKEI
  6
Continuous
 62
     1
100
AcDbCircle
 10
-41.10182478801391
 20
33.09237950783177
 30
0.0
 40
0.155
100
AcDbArc
 50
90.0
 51
180.0
  0
SPLINE
  5
8F
330
2
100
AcDbEntity
  8
GAIKEI
  6
Continuous
 62
     1
100
AcDbSpline
210
0.0
220
0.0
230
1.0
 70
     8
 71
     3
 72
     9
 73
     5
 74
     3
 42
0.0000000001
 43
0.0000000001
 44
0.000001
 12
0.9015622545408136
 22
-0.4326493975348692
 32
0.0
 13
0.9998994763974653
 23
0.0141787552371506
 33
0.0
 40
0.0
 40
0.0
 40
0.0
 40
0.0
 40
0.0021070375643632
 40
0.003797707661962
 40
0.003797707661962
 40
0.003797707661962
 40
0.003797707661962
 10
41.02007374076992
 20
4.360732387883388
 30
0.0
 10
41.02070694928224
 20
4.36042851837243
 30
0.0
 10
41.021923031656
 20
4.360020575351313
 30
0.0
 10
41.02319382454196
 20
4.359911114370277
 30
0.0
 10
41.0237573245904
 20
4.359919104902758
 30
0.0
 11
41.02007374076992
 21
4.360732387883388
 31
0.0
 11
41.02207313164842
 21
4.360066731954077
 31
0.0
 11
41.0237573245904
 21
4.359919104902758
 31
0.0
  0
SPLINE
  5
90
330
2
100
AcDbEntity
  8
GAIKEI
  6
Continuous
100
AcDbSpline
210
0.0
220
0.0
230
1.0
 70
     8
 71
     3
 72
    12
 73
     8
 74
     6
 42
0.0000000001
 43
0.0000000001
 44
0.000001
 12
0.3177217516879759
 22
0.9481839950686387
 32
0.0
 13
0.0004762146561107
 23
0.9999998866097941
 33
0.0
 40
0.0
 40
0.0
 40
0.0
 40
0.0
 40
0.0036401223069905
 40
0.0064206716563236
 40
0.0091006847411005
 40
0.0120770673697961
 40
0.0147756210223948
 40
0.0147756210223948
 40
0.0147756210223948
 40
0.0147756210223948
 10
42.25285049103752
 20
29.47843485194937
 30
0.0
 10
42.25323600638276
 20
29.47958535385323
 30
0.0
 10
42.25384072728161
 20
29.48164096223866
 30
0.0
 10
42.25450158690018
 20
29.48460322497022
 30
0.0
 10
42.25495227431972
 20
29.48738087728646
 30
0.0
 10
42.25522236783347
 20
29.49015484923064
 30
0.0
 10
42.25528304548855
 20
29.49204694135841
 30
0.0
 10
42.25528347385216
 20
29.49294645914063
 30
0.0
 11
42.25285049103752
 21
29.47843485194937
 31
0.0
 11
42.25387675345212
 21
29.48192681670355
 31
0.0
 11
42.25448234557683
 21
29.48464045675473
 31
0.0
 11
42.25491042991274
 21
29.48728620843843
 31
0.0
 11
42.25519843390867
 21
29.4902487595084
 31
0.0
 11
42.25528347385216
 21
29.49294645914063
 31
0.0
  0
SPLINE
  5
91
330
2
100
AcDbEntity
  8
GAIKEI
  6
Continuous
100
AcDbSpline
210
0.0
220
0.0
230
1.0
 70
     8
 71
     3
 72
     9
 73
     5
 74
     3
 42
0.0000000001
 43
0.0000000001
 44
0.000001
 12
0.0096603815788914
 22
0.999953337425177
 32
0.0
 13
0.0070116454444045
 23
0.9999754181119463
 33
0.0
 40
0.0
 40
0.0
 40
0.0
 40
0.0
 40
0.0011335976856412
 40
0.0020528754816208
 40
0.0020528754816208
 40
0.0020528754816208
 40
0.0020528754816208
 10
42.25527857970189
 20
8.842063739920149
 30
0.0
 10
42.25528223003062
 20
8.842441588183191
 30
0.0
 10
42.25528834012385
 20
8.843125853022911
 30
0.0
 10
42.25529354396125
 20
8.843810125229481
 30
0.0
 10
42.25529569251125
 20
8.844116543628956
 30
0.0
 11
42.25527857970189
 21
8.842063739920149
 31
0.0
 11
42.25528870167738
 21
8.843197292426452
 31
0.0
 11
42.25529569251125
 21
8.844116543628956
 31
0.0
  0
LINE
  5
92
330
2
100
AcDbEntity
  8
GAIKEI
  6
Continuous
100
AcDbLine
 10
39.99778347384597
 20
33.64425740783173
 30
0.0
 11
39.99777987384596
 21
33.64425720783174
 31
0.0
  0
LINE
  5
93
330
2
100
AcDbEntity
  8
GAIKEI
  6
Continuous
100
AcDbLine
 10
39.99778347384597
 20
33.64425740783173
 30
0.0
 11
40.05028347384592
 21
33.64425740783173
 31
0.0
  0
LINE
  5
94
330
2
100
AcDbEntity
  8
GAIKEI
  6
Continuous
100
AcDbLine
 10
40.05028347384592
 20
33.44425740783175
 30
0.0
 11
39.99778347384597
 21
33.44425740783175
 31
0.0
  0
LINE
  5
95
330
2
100
AcDbEntity
  8
GAIKEI
  6
Continuous
 62
     1
100
AcDbLine
 10
39.99778347384597
 20
33.64425740783179
 30
0.0
 11
39.99778347384591
 21
3.149257407831669
 31
0.0
  0
LINE
  5
96
330
2
100
AcDbEntity
  8
GAIKEI
  6
Continuous
 62
     1
100
AcDbLine
 10
39.99778347384597
 20
3.349257407831714
 30
0.0
 11
40.05028347384592
 21
3.349257407831714
 31
0.0
  0
LINE
  5
97
330
2
100
AcDbEntity
  8
GAIKEI
  6
Continuous
100
AcDbLine
 10
40.10028347384593
 20
33.59425740783172
 30
0.0
 11
40.10028347384593
 21
33.44425740783175
 31
0.0
  0
LINE
  5
98
330
2
100
AcDbEntity
  8
GAIKEI
  6
Continuous
100
AcDbLine
 10
40.10028347384593
 20
33.44425740783175
 30
0.0
 11
40.05028347384592
 21
33.44425740783175
 31
0.0
  0
LINE
  5
99
330
2
100
AcDbEntity
  8
GAIKEI
  6
Continuous
 62
     1
100
AcDbLine
 10
38.06556707384596
 20
3.450246507831707
 30
0.0
 11
39.99777987384596
 21
3.34898350783169
 31
0.0
  0
LINE
  5
9A
330
2
100
AcDbEntity
  8
GAIKEI
  6
Continuous
 62
     1
100
AcDbLine
 10
38.06420112384592
 20
33.54292267276634
 30
0.0
 11
38.06420112384592
 21
3.484846757831746
 31
0.0
  0
LINE
  5
9B
330
2
100
AcDbEntity
  8
GAIKEI
  6
Continuous
 62
     1
100
AcDbLine
 10
39.99777987384596
 20
33.44453130783177
 30
0.0
 11
38.00458242384593
 21
33.34007223718515
 31
0.0
  0
LINE
  5
9C
330
2
100
AcDbEntity
  8
GAIKEI
  6
Continuous
100
AcDbLine
 10
39.99777987384596
 20
3.149257607831714
 30
0.0
 11
39.99778347384597
 21
3.149257407831726
 31
0.0
  0
LINE
  5
9D
330
2
100
AcDbEntity
  8
GAIKEI
  6
Continuous
 62
     1
100
AcDbLine
 10
40.05028347384592
 20
3.149257407831726
 30
0.0
 11
40.05028347384592
 21
3.349257407831714
 31
0.0
  0
LINE
  5
9E
330
2
100
AcDbEntity
  8
GAIKEI
  6
Continuous
100
AcDbLine
 10
40.05028347384592
 20
3.149257407831726
 30
0.0
 11
39.99778347384597
 21
3.149257407831726
 31
0.0
  0
LINE
  5
9F
330
2
100
AcDbEntity
  8
GAIKEI
  6
Continuous
100
AcDbLine
 10
40.10028347384593
 20
3.349257407831714
 30
0.0
 11
40.10028347384593
 21
3.199257407831737
 31
0.0
  0
LINE
  5
A0
330
2
100
AcDbEntity
  8
GAIKEI
  6
Continuous
 62
     1
100
AcDbLine
 10
40.10028347384593
 20
3.349257407831714
 30
0.0
 11
40.05028347384592
 21
3.349257407831714
 31
0.0
  0
LINE
  5
A1
330
2
100
AcDbEntity
  8
GAIKEI
  6
Continuous
100
AcDbLine
 10
40.10028347384593
 20
33.44425740783175
 30
0.0
 11
40.10028347384593
 21
3.349257407831714
 31
0.0
  0
LINE
  5
A2
330
2
100
AcDbEntity
  8
GAIKEI
  6
Continuous
100
AcDbLine
 10
39.99777987384596
 20
3.149257607831714
 30
0.0
 11
38.06420112712772
 21
3.25059214272511
 31
0.0
  0
LINE
  5
A3
330
2
100
AcDbEntity
  8
GAIKEI
  6
Continuous
100
AcDbLine
 10
38.06556707384596
 20
33.54299425783177
 30
0.0
 11
39.99777987384596
 21
33.64425720783174
 31
0.0
  0
LINE
  5
A4
330
2
100
AcDbEntity
  8
GAIKEI
  6
Continuous
 62
     1
100
AcDbLine
 10
38.00458242384593
 20
3.484846757831746
 30
0.0
 11
38.00458242384593
 21
33.50786479483412
 31
0.0
  0
LINE
  5
A5
330
2
100
AcDbEntity
  8
GAIKEI
  6
Continuous
100
AcDbLine
 10
37.85028347384594
 20
33.26175742995292
 30
0.0
 11
38.00458242384593
 21
33.50786475783173
 31
0.0
  0
LINE
  5
A6
330
2
100
AcDbEntity
  8
GAIKEI
  6
Continuous
 62
     1
100
AcDbLine
 10
38.00458242384593
 20
33.30866805783171
 30
0.0
 11
37.85028347384588
 21
33.06256072995291
 31
0.0
  0
LINE
  5
A7
330
2
100
AcDbEntity
  8
GAIKEI
  6
Continuous
 62
     1
100
AcDbLine
 10
37.85028347384594
 20
3.730954085710436
 30
0.0
 11
38.00458242384593
 21
3.484846757831746
 31
0.0
  0
LINE
  5
A8
330
2
100
AcDbEntity
  8
GAIKEI
  6
Continuous
100
AcDbLine
 10
38.00458242384593
 20
3.28565005783173
 30
0.0
 11
37.85792087384596
 21
3.519575707831734
 31
0.0
  0
LINE
  5
A9
330
2
100
AcDbEntity
  8
GAIKEI
  6
Continuous
100
AcDbLine
 10
38.06556707384596
 20
33.54299425783177
 30
0.0
 11
38.06420112384592
 21
33.5429226578317
 31
0.0
  0
LINE
  5
AA
330
2
100
AcDbEntity
  8
GAIKEI
  6
Continuous
100
AcDbLine
 10
37.85028347384594
 20
3.546135307831718
 30
0.0
 11
37.85028347384594
 21
33.26175742995292
 31
0.0
  0
ARC
  5
AB
330
2
100
AcDbEntity
  8
GAIKEI
  6
Continuous
100
AcDbCircle
 10
40.05028347384592
 20
33.59425740783172
 30
0.0
 40
0.05
100
AcDbArc
 50
0.0
 51
90.0
  0
ARC
  5
AC
330
2
100
AcDbEntity
  8
GAIKEI
  6
Continuous
100
AcDbCircle
 10
40.05028347384592
 20
3.199257407831737
 30
0.0
 40
0.05
100
AcDbArc
 50
270.0
 51
0.0
  0
ARC
  5
AD
330
2
100
AcDbEntity
  8
GAIKEI
  6
Continuous
100
AcDbCircle
 10
38.06812632384595
 20
33.46802545783174
 30
0.0
 40
0.075
100
AcDbArc
 50
93.00000000000578
 51
147.9140249999963
  0
ARC
  5
AE
330
2
100
AcDbEntity
  8
GAIKEI
  6
Continuous
100
AcDbCircle
 10
38.06812632384595
 20
3.325489357831713
 30
0.0
 40
0.075
100
AcDbArc
 50
212.0859750000037
 51
266.9999999999943
  0
ARC
  5
AF
330
2
100
AcDbEntity
  8
GAIKEI
  6
Continuous
100
AcDbCircle
 10
37.90028347384595
 20
3.546135307831718
 30
0.0
 40
0.05
100
AcDbArc
 50
180.0
 51
212.0859750000037
  0
ELLIPSE
  5
B0
330
2
100
AcDbEntity
  8
GAIKEI
  6
Continuous
 62
     1
100
AcDbEllipse
 10
36.18155612384589
 20
3.349257407831714
 30
0.0
 11
3.816227337545457
 21
0.0
 31
0.0
210
0.0
220
0.0
230
1.0
 40
0.052408
 41
6.281815779309091
 42
6.283185307179586
  0
ELLIPSE
  5
B1
330
2
100
AcDbEntity
  8
GAIKEI
  6
Continuous
 62
     1
100
AcDbEllipse
 10
38.43031667384594
 20
3.306302057831715
 30
0.0
 11
-0.2690783224982649
 21
0.3978566820730179
 31
0.0
210
0.0
220
0.0
230
1.0
 40
0.6240160000000001
 41
0.7448982300329864
 42
1.307714707561869
  0
ELLIPSE
  5
B2
330
2
100
AcDbEntity
  8
GAIKEI
  6
Continuous
 62
     1
100
AcDbEllipse
 10
38.43424187384596
 20
3.306302057831715
 30
0.0
 11
-0.3002704522363481
 21
0.4353255228029943
 31
0.0
210
0.0
220
0.0
230
1.0
 40
0.7084260000000002
 41
0.7388798675136195
 42
1.221777013352586
  0
LINE
  5
B3
330
2
100
AcDbEntity
  8
GAIKEI
  6
Continuous
 62
     1
100
AcDbLine
 10
42.25528347384591
 20
10.0914037578317
 30
0.0
 11
42.27890472384593
 21
10.0914037578317
 31
0.0
  0
LINE
  5
B4
330
2
100
AcDbEntity
  8
GAIKEI
  6
Continuous
 62
     1
100
AcDbLine
 10
42.27774522384595
 20
10.24675740783175
 30
0.0
 11
42.27890472384593
 21
10.24675740783175
 31
0.0
  0
LINE
  5
B5
330
2
100
AcDbEntity
  8
GAIKEI
  6
Continuous
 62
     1
100
AcDbLine
 10
42.27890472384593
 20
10.24675740783175
 30
0.0
 11
42.27890472384593
 21
10.0914037578317
 31
0.0
  0
LINE
  5
B6
330
2
100
AcDbEntity
  8
GAIKEI
  6
Continuous
 62
     1
100
AcDbLine
 10
42.28028347384594
 20
10.24675740783175
 30
0.0
 11
42.28028347384594
 21
10.0914037578317
 31
0.0
  0
LINE
  5
B7
330
2
100
AcDbEntity
  8
GAIKEI
  6
Continuous
 62
     1
100
AcDbLine
 10
42.27890472384593
 20
10.0914037578317
 30
0.0
 11
42.28028347384594
 21
10.0914037578317
 31
0.0
  0
LINE
  5
B8
330
2
100
AcDbEntity
  8
GAIKEI
  6
Continuous
 62
     1
100
AcDbLine
 10
42.27890472384593
 20
10.24675740783175
 30
0.0
 11
42.28028347384594
 21
10.24675740783175
 31
0.0
  0
ARC
  5
B9
330
2
100
AcDbEntity
  8
GAIKEI
  6
Continuous
 62
     1
100
AcDbCircle
 10
41.98028347384592
 20
10.0914037578317
 30
0.0
 40
0.29862125
100
AcDbArc
 50
337.0578669999897
 51
0.0
  0
ARC
  5
BA
330
2
100
AcDbEntity
  8
GAIKEI
  6
Continuous
 62
     1
100
AcDbCircle
 10
42.23028347384593
 20
10.24675740783175
 30
0.0
 40
0.04862125
100
AcDbArc
 50
0.0
 51
6.222905000009303
  0
ARC
  5
BB
330
2
100
AcDbEntity
  8
GAIKEI
  6
Continuous
 62
     1
100
AcDbCircle
 10
42.23028347384593
 20
10.24675740783175
 30
0.0
 40
0.05
100
AcDbArc
 50
0.0
 51
11.2074969999849
  0
ARC
  5
BC
330
2
100
AcDbEntity
  8
GAIKEI
  6
Continuous
 62
     1
100
AcDbCircle
 10
41.98028347384592
 20
10.0914037578317
 30
0.0
 40
0.3
100
AcDbArc
 50
336.4435359999883
 51
0.0
  0
LINE
  5
BD
330
2
100
AcDbEntity
  8
GAIKEI
  6
Continuous
 62
     1
100
AcDbLine
 10
40.10278347384593
 20
3.306757407831696
 30
0.0
 11
40.10028347384593
 21
3.306757407831696
 31
0.0
  0
LINE
  5
BE
330
2
100
AcDbEntity
  8
GAIKEI
  6
Continuous
 62
     1
100
AcDbLine
 10
40.13278347384596
 20
3.336757407831726
 30
0.0
 11
40.10278347384593
 21
3.306757407831696
 31
0.0
  0
LINE
  5
BF
330
2
100
AcDbEntity
  8
GAIKEI
  6
Continuous
 62
     1
100
AcDbLine
 10
40.16278347384593
 20
3.646757407831728
 30
0.0
 11
40.16278347384593
 21
3.366757407831755
 31
0.0
  0
LINE
  5
C0
330
2
100
AcDbEntity
  8
GAIKEI
  6
Continuous
 62
     1
100
AcDbLine
 10
40.16278347384593
 20
3.366757407831755
 30
0.0
 11
40.13278347384596
 21
3.336757407831726
 31
0.0
  0
LINE
  5
C1
330
2
100
AcDbEntity
  8
GAIKEI
  6
Continuous
 62
     1
100
AcDbLine
 10
40.11278347384592
 20
4.178558907831757
 30
0.0
 11
40.11278347384592
 21
3.91675740783171
 31
0.0
  0
LINE
  5
C2
330
2
100
AcDbEntity
  8
GAIKEI
  6
Continuous
 62
     1
100
AcDbLine
 10
40.11278347384592
 20
4.178558907831757
 30
0.0
 11
40.10028347384593
 21
4.183108507831718
 31
0.0
  0
ARC
  5
C3
330
2
100
AcDbEntity
  8
GAIKEI
  6
Continuous
 62
     1
100
AcDbCircle
 10
39.78639342384594
 20
3.971757407831717
 30
0.0
 40
0.38639005
100
AcDbArc
 50
3.709712000011262
 51
32.35843299999584
  0
ARC
  5
C4
330
2
100
AcDbEntity
  8
GAIKEI
  6
Continuous
 62
     1
100
AcDbCircle
 10
40.06078812384589
 20
3.680741457831743
 30
0.0
 40
0.05
100
AcDbArc
 50
16.25702799999795
 51
37.82319199999473
  0
ARC
  5
C5
330
2
100
AcDbEntity
  8
GAIKEI
  6
Continuous
 62
     1
100
AcDbCircle
 10
40.06078812384589
 20
3.512773357831747
 30
0.0
 40
0.05
100
AcDbArc
 50
322.1768080000052
 51
343.742972000002
  0
ARC
  5
C6
330
2
100
AcDbEntity
  8
GAIKEI
  6
Continuous
 62
     1
100
AcDbCircle
 10
39.77278347384595
 20
3.596757407831717
 30
0.0
 40
0.35
100
AcDbArc
 50
343.742972000002
 51
0.0
  0
ARC
  5
C7
330
2
100
AcDbEntity
  8
GAIKEI
  6
Continuous
 62
     1
100
AcDbCircle
 10
39.77278347384595
 20
3.596757407831717
 30
0.0
 40
0.35
100
AcDbArc
 50
0.0
 51
16.25702799999795
  0
LINE
  5
C8
330
2
100
AcDbEntity
  8
GAIKEI
  6
Continuous
 62
     1
100
AcDbLine
 10
40.18423467384593
 20
3.646757407831728
 30
0.0
 11
40.18423467384593
 21
3.996757407831751
 31
0.0
  0
LINE
  5
C9
330
2
100
AcDbEntity
  8
GAIKEI
  6
Continuous
 62
     1
100
AcDbLine
 10
40.1352834738459
 20
3.646757407831728
 30
0.0
 11
40.1352834738459
 21
3.821757407831739
 31
0.0
  0
LINE
  5
CA
330
2
100
AcDbEntity
  8
GAIKEI
  6
Continuous
 62
     1
100
AcDbLine
 10
40.1352834738459
 20
3.821757407831739
 30
0.0
 11
40.1352834738459
 21
3.996757407831751
 31
0.0
  0
LINE
  5
CB
330
2
100
AcDbEntity
  8
GAIKEI
  6
Continuous
 62
     1
100
AcDbLine
 10
40.18423467384593
 20
3.996757407831751
 30
0.0
 11
40.1352834738459
 21
3.996757407831751
 31
0.0
  0
LINE
  5
CC
330
2
100
AcDbEntity
  8
GAIKEI
  6
Continuous
 62
     1
100
AcDbLine
 10
40.1352834738459
 20
3.646757407831728
 30
0.0
 11
40.18423467384593
 21
3.646757407831728
 31
0.0
  0
LINE
  5
CD
330
2
100
AcDbEntity
  8
GAIKEI
  6
Continuous
 62
     1
100
AcDbLine
 10
40.24652517384595
 20
3.693185957831701
 30
0.0
 11
40.24652517384595
 21
3.950328857831721
 31
0.0
  0
LINE
  5
CE
330
2
100
AcDbEntity
  8
GAIKEI
  6
Continuous
 62
     1
100
AcDbLine
 10
40.1352834738459
 20
3.91675740783171
 30
0.0
 11
40.10127382384593
 21
3.91675740783171
 31
0.0
  0
ARC
  5
CF
330
2
100
AcDbEntity
  8
GAIKEI
  6
Continuous
 62
     1
100
AcDbCircle
 10
40.18423467384593
 20
3.931757407831696
 30
0.0
 40
0.065
100
AcDbArc
 50
16.60155000000317
 51
90.0
  0
ARC
  5
D0
330
2
100
AcDbEntity
  8
GAIKEI
  6
Continuous
 62
     1
100
AcDbCircle
 10
40.18423467384593
 20
3.711757407831726
 30
0.0
 40
0.065
100
AcDbArc
 50
270.0
 51
343.3984499999969
  0
ARC
  5
D1
330
2
100
AcDbEntity
  8
GAIKEI
  6
Continuous
 62
     1
100
AcDbCircle
 10
39.81528347384596
 20
3.821757407831739
 30
0.0
 40
0.45
100
AcDbArc
 50
343.3984499999969
 51
0.0
  0
ARC
  5
D2
330
2
100
AcDbEntity
  8
GAIKEI
  6
Continuous
 62
     1
100
AcDbCircle
 10
39.81528347384596
 20
3.821757407831739
 30
0.0
 40
0.45
100
AcDbArc
 50
0.0
 51
16.60155000000317
  0
LINE
  5
D3
330
2
100
AcDbEntity
  8
GAIKEI
  6
Continuous
 62
     1
100
AcDbLine
 10
40.10028347384593
 20
3.821757407831739
 30
0.0
 11
40.1352834738459
 21
3.821757407831739
 31
0.0
  0
LINE
  5
D4
330
2
100
AcDbEntity
  8
GAIKEI
  6
Continuous
 62
     1
100
AcDbLine
 10
40.19652517384594
 20
5.30818595783171
 30
0.0
 11
40.19652517384594
 21
5.56532885783173
 31
0.0
  0
LINE
  5
D5
330
2
100
AcDbEntity
  8
GAIKEI
  6
Continuous
 62
     1
100
AcDbLine
 10
40.13423467384592
 20
5.261757407831737
 30
0.0
 11
40.13423467384592
 21
5.61175740783176
 31
0.0
  0
LINE
  5
D6
330
2
100
AcDbEntity
  8
GAIKEI
  6
Continuous
 62
     1
100
AcDbLine
 10
40.13423467384592
 20
5.61175740783176
 30
0.0
 11
40.10028347384593
 21
5.61175740783176
 31
0.0
  0
LINE
  5
D7
330
2
100
AcDbEntity
  8
GAIKEI
  6
Continuous
 62
     1
100
AcDbLine
 10
40.10028347384593
 20
5.261757407831737
 30
0.0
 11
40.13423467384592
 21
5.261757407831737
 31
0.0
  0
ARC
  5
D8
330
2
100
AcDbEntity
  8
GAIKEI
  6
Continuous
 62
     1
100
AcDbCircle
 10
40.13423467384592
 20
5.546757407831705
 30
0.0
 40
0.065
100
AcDbArc
 50
16.60155000000317
 51
90.0
  0
ARC
  5
D9
330
2
100
AcDbEntity
  8
GAIKEI
  6
Continuous
 62
     1
100
AcDbCircle
 10
40.13423467384592
 20
5.326757407831735
 30
0.0
 40
0.065
100
AcDbArc
 50
270.0
 51
343.3984499999969
  0
ARC
  5
DA
330
2
100
AcDbEntity
  8
GAIKEI
  6
Continuous
 62
     1
100
AcDbCircle
 10
39.7652834738459
 20
5.436757407831692
 30
0.0
 40
0.45
100
AcDbArc
 50
343.3984499999969
 51
0.0
  0
ARC
  5
DB
330
2
100
AcDbEntity
  8
GAIKEI
  6
Continuous
 62
     1
100
AcDbCircle
 10
39.7652834738459
 20
5.436757407831692
 30
0.0
 40
0.45
100
AcDbArc
 50
0.0
 51
16.60155000000317
  0
LINE
  5
DC
330
2
100
AcDbEntity
  8
GAIKEI
  6
Continuous
 62
     1
100
AcDbLine
 10
40.19652517384594
 20
18.26818595783175
 30
0.0
 11
40.19652517384594
 21
18.52532885783171
 31
0.0
  0
LINE
  5
DD
330
2
100
AcDbEntity
  8
GAIKEI
  6
Continuous
 62
     1
100
AcDbLine
 10
40.13423467384592
 20
18.22175740783172
 30
0.0
 11
40.13423467384592
 21
18.57175740783174
 31
0.0
  0
LINE
  5
DE
330
2
100
AcDbEntity
  8
GAIKEI
  6
Continuous
 62
     1
100
AcDbLine
 10
40.13423467384592
 20
18.57175740783174
 30
0.0
 11
40.10028347384593
 21
18.57175740783174
 31
0.0
  0
LINE
  5
DF
330
2
100
AcDbEntity
  8
GAIKEI
  6
Continuous
 62
     1
100
AcDbLine
 10
40.10028347384593
 20
18.22175740783172
 30
0.0
 11
40.13423467384592
 21
18.22175740783172
 31
0.0
  0
ARC
  5
E0
330
2
100
AcDbEntity
  8
GAIKEI
  6
Continuous
 62
     1
100
AcDbCircle
 10
40.13423467384592
 20
18.50675740783174
 30
0.0
 40
0.065
100
AcDbArc
 50
16.60155000000317
 51
90.0
  0
ARC
  5
E1
330
2
100
AcDbEntity
  8
GAIKEI
  6
Continuous
 62
     1
100
AcDbCircle
 10
40.13423467384592
 20
18.28675740783171
 30
0.0
 40
0.065
100
AcDbArc
 50
270.0
 51
343.3984499999969
  0
ARC
  5
E2
330
2
100
AcDbEntity
  8
GAIKEI
  6
Continuous
 62
     1
100
AcDbCircle
 10
39.7652834738459
 20
18.39675740783173
 30
0.0
 40
0.45
100
AcDbArc
 50
343.3984499999969
 51
0.0
  0
ARC
  5
E3
330
2
100
AcDbEntity
  8
GAIKEI
  6
Continuous
 62
     1
100
AcDbCircle
 10
39.7652834738459
 20
18.39675740783173
 30
0.0
 40
0.45
100
AcDbArc
 50
0.0
 51
16.60155000000317
  0
LINE
  5
E4
330
2
100
AcDbEntity
  8
GAIKEI
  6
Continuous
 62
     1
100
AcDbLine
 10
42.30514592384594
 20
11.03055115783172
 30
0.0
 11
42.30514592384594
 21
10.76296365783173
 31
0.0
  0
LINE
  5
E5
330
2
100
AcDbEntity
  8
GAIKEI
  6
Continuous
 62
     1
100
AcDbLine
 10
42.26278347384595
 20
11.03425740783172
 30
0.0
 11
42.26278347384595
 21
10.75925740783174
 31
0.0
  0
LINE
  5
E6
330
2
100
AcDbEntity
  8
GAIKEI
  6
Continuous
 62
     1
100
AcDbLine
 10
42.26278347384595
 20
10.75925740783174
 30
0.0
 11
42.30514592384594
 21
10.76296365783173
 31
0.0
  0
LINE
  5
E7
330
2
100
AcDbEntity
  8
GAIKEI
  6
Continuous
 62
     1
100
AcDbLine
 10
42.30514592384594
 20
11.03055115783172
 30
0.0
 11
42.26278347384595
 21
11.03425740783172
 31
0.0
  0
LINE
  5
E8
330
2
100
AcDbEntity
  8
GAIKEI
  6
Continuous
 62
     1
100
AcDbLine
 10
42.25528347384591
 20
10.76175740783174
 30
0.0
 11
42.26278347384595
 21
10.76175740783174
 31
0.0
  0
LINE
  5
E9
330
2
100
AcDbEntity
  8
GAIKEI
  6
Continuous
 62
     1
100
AcDbLine
 10
42.26278347384595
 20
11.03175740783172
 30
0.0
 11
42.25528347384591
 21
11.03175740783172
 31
0.0
  0
LINE
  5
EA
330
2
100
AcDbEntity
  8
GAIKEI
  6
Continuous
 62
     1
100
AcDbLine
 10
42.34878892384597
 20
10.99473875783172
 30
0.0
 11
42.34878892384597
 21
10.79877605783173
 31
0.0
  0
ARC
  5
EB
330
2
100
AcDbEntity
  8
GAIKEI
  6
Continuous
 62
     1
100
AcDbCircle
 10
42.3007881238459
 20
10.98074145783175
 30
0.0
 40
0.05
100
AcDbArc
 50
16.25702799999795
 51
84.99999899999744
  0
ARC
  5
EC
330
2
100
AcDbEntity
  8
GAIKEI
  6
Continuous
 62
     1
100
AcDbCircle
 10
42.3007881238459
 20
10.8127733578317
 30
0.0
 40
0.05
100
AcDbArc
 50
275.0000010000026
 51
343.742972000002
  0
ARC
  5
ED
330
2
100
AcDbEntity
  8
GAIKEI
  6
Continuous
 62
     1
100
AcDbCircle
 10
42.01278347384596
 20
10.89675740783173
 30
0.0
 40
0.35
100
AcDbArc
 50
343.742972000002
 51
0.0
  0
ARC
  5
EE
330
2
100
AcDbEntity
  8
GAIKEI
  6
Continuous
 62
     1
100
AcDbCircle
 10
42.01278347384596
 20
10.89675740783173
 30
0.0
 40
0.35
100
AcDbArc
 50
0.0
 51
16.25702799999795
  0
ARC
  5
EF
330
2
100
AcDbEntity
  8
GAIKEI
  6
Continuous
 62
     1
100
AcDbCircle
 10
42.13089472384592
 20
10.60716355783177
 30
0.0
 40
0.13
100
AcDbArc
 50
15.88084999999635
 51
16.89550900000867
  0
ARC
  5
F0
330
2
100
AcDbEntity
  8
GAIKEI
  6
Continuous
 62
     1
100
AcDbCircle
 10
42.13089472384592
 20
10.1857614078317
 30
0.0
 40
0.13
100
AcDbArc
 50
343.1044909999914
 51
344.1191500000036
  0
ARC
  5
F1
330
2
100
AcDbEntity
  8
GAIKEI
  6
Continuous
 62
     1
100
AcDbCircle
 10
41.3902834738459
 20
10.39646250783175
 30
0.0
 40
0.9
100
AcDbArc
 50
344.1191500000036
 51
0.0
  0
ARC
  5
F2
330
2
100
AcDbEntity
  8
GAIKEI
  6
Continuous
 62
     1
100
AcDbCircle
 10
41.3902834738459
 20
10.39646250783175
 30
0.0
 40
0.9
100
AcDbArc
 50
0.0
 51
15.88084999999635
  0
LINE
  5
F3
330
2
100
AcDbEntity
  8
GAIKEI
  6
Continuous
 62
     1
100
AcDbLine
 10
42.19983812384589
 20
29.62814205783173
 30
0.0
 11
41.89742102384593
 21
31.82714650783174
 31
0.0
  0
LINE
  5
F4
330
2
100
AcDbEntity
  8
GAIKEI
  6
Continuous
100
AcDbLine
 10
41.89742102384593
 20
26.56609450783174
 30
0.0
 11
42.19983812384589
 21
28.7650989578317
 31
0.0
  0
LINE
  5
F5
330
2
100
AcDbEntity
  8
GAIKEI
  6
Continuous
100
AcDbLine
 10
40.11540487384593
 20
25.94839700783172
 30
0.0
 11
41.62416252384594
 21
26.27170225783175
 31
0.0
  0
LINE
  5
F6
330
2
100
AcDbEntity
  8
GAIKEI
  6
Continuous
 62
     1
100
AcDbLine
 10
41.62416252384594
 20
32.12153880783171
 30
0.0
 11
40.10028347384593
 21
32.44808430772434
 31
0.0
  0
LINE
  5
F7
330
2
100
AcDbEntity
  8
GAIKEI
  6
Continuous
100
AcDbLine
 10
42.21381657384597
 20
28.96934195783172
 30
0.0
 11
42.21381657384597
 21
29.42389910783175
 31
0.0
  0
ARC
  5
F8
330
2
100
AcDbEntity
  8
GAIKEI
  6
Continuous
100
AcDbCircle
 10
40.71406242384592
 20
29.42385545783174
 30
0.0
 40
1.49975415
100
AcDbArc
 50
0.0016670000142817
 51
7.828790999992842
  0
ARC
  5
F9
330
2
100
AcDbEntity
  8
GAIKEI
  6
Continuous
100
AcDbCircle
 10
40.71406242384592
 20
28.96938555783174
 30
0.0
 40
1.49975415
100
AcDbArc
 50
352.1712090000072
 51
359.9983329999857
  0
LINE
  5
FA
330
2
100
AcDbEntity
  8
GAIKEI
  6
Continuous
 62
     1
100
AcDbLine
 10
40.23580557384593
 20
12.47425740783171
 30
0.0
 11
40.10028347384593
 21
12.47425740783171
 31
0.0
  0
LINE
  5
FB
330
2
100
AcDbEntity
  8
GAIKEI
  6
Continuous
 62
     1
100
AcDbLine
 10
40.10028347384593
 20
11.21925740783172
 30
0.0
 11
40.23580557384593
 21
11.21925740783172
 31
0.0
  0
LINE
  5
FC
330
2
100
AcDbEntity
  8
GAIKEI
  6
Continuous
 62
     1
100
AcDbLine
 10
40.23580557384593
 20
11.21925740783172
 30
0.0
 11
40.23580557384593
 21
12.47425740783171
 31
0.0
  0
LINE
  5
FD
330
2
100
AcDbEntity
  8
GAIKEI
  6
Continuous
 62
     1
100
AcDbLine
 10
41.42787857384592
 20
26.22964140783177
 30
0.0
 11
41.70905687384595
 21
26.09852580783172
 31
0.0
  0
LINE
  5
FE
330
2
100
AcDbEntity
  8
GAIKEI
  6
Continuous
 62
     1
100
AcDbLine
 10
41.70905687384595
 20
26.09852580783172
 30
0.0
 11
41.70905687384595
 21
25.44925740783174
 31
0.0
  0
LINE
  5
FF
330
2
100
AcDbEntity
  8
GAIKEI
  6
Continuous
 62
     1
100
AcDbLine
 10
41.74233187384595
 20
25.44925740783174
 30
0.0
 11
41.74233187384595
 21
24.84425740783172
 31
0.0
  0
LINE
  5
100
330
2
100
AcDbEntity
  8
GAIKEI
  6
Continuous
 62
     1
100
AcDbLine
 10
41.70905687384595
 20
24.84425740783172
 30
0.0
 11
41.70905687384595
 21
12.03925740783177
 31
0.0
  0
LINE
  5
101
330
2
100
AcDbEntity
  8
GAIKEI
  6
Continuous
 62
     1
100
AcDbLine
 10
41.74233187384595
 20
12.03925740783177
 30
0.0
 11
41.74233187384595
 21
11.43425740783175
 31
0.0
  0
LINE
  5
102
330
2
100
AcDbEntity
  8
GAIKEI
  6
Continuous
 62
     1
100
AcDbLine
 10
41.70905687384589
 20
11.43425740783175
 30
0.0
 11
41.70905687384595
 21
8.666515657831723
 31
0.0
  0
LINE
  5
103
330
2
100
AcDbEntity
  8
GAIKEI
  6
Continuous
 62
     1
100
AcDbLine
 10
41.70905687384595
 20
8.666515657831723
 30
0.0
 11
41.15168377384594
 21
8.002264257831711
 31
0.0
  0
LINE
  5
104
330
2
100
AcDbEntity
  8
GAIKEI
  6
Continuous
 62
     1
100
AcDbLine
 10
40.85923932384594
 20
7.198779707831704
 30
0.0
 11
40.85923932384594
 21
5.341714807831749
 31
0.0
  0
LINE
  5
105
330
2
100
AcDbEntity
  8
GAIKEI
  6
Continuous
 62
     1
100
AcDbLine
 10
40.85923932384594
 20
5.341714807831749
 30
0.0
 11
40.19563547384592
 21
5.306936807831732
 31
0.0
  0
LINE
  5
106
330
2
100
AcDbEntity
  8
GAIKEI
  6
Continuous
100
AcDbLine
 10
40.31423932384592
 20
32.49705315783172
 30
0.0
 11
40.10028347384593
 21
32.54253087717706
 31
0.0
  0
LINE
  5
107
330
2
100
AcDbEntity
  8
GAIKEI
  6
Continuous
100
AcDbLine
 10
40.10028347384593
 20
4.311463488699928
 30
0.0
 11
41.01836747384595
 21
4.359578207831759
 31
0.0
  0
LINE
  5
108
330
2
100
AcDbEntity
  8
GAIKEI
  6
Continuous
 62
     1
100
AcDbLine
 10
41.2552834738459
 20
5.341714807831749
 30
0.0
 11
41.2552834738459
 21
7.198779707831704
 31
0.0
  0
LINE
  5
109
330
2
100
AcDbEntity
  8
GAIKEI
  6
Continuous
 62
     1
100
AcDbLine
 10
41.2552834738459
 20
5.341714807831749
 30
0.0
 11
40.85923932384594
 21
5.341714807831749
 31
0.0
  0
LINE
  5
10A
330
2
100
AcDbEntity
  8
GAIKEI
  6
Continuous
 62
     1
100
AcDbLine
 10
41.01990047384595
 20
4.360523857831708
 30
0.0
 11
41.01836747384595
 21
4.359578207831759
 31
0.0
  0
LINE
  5
10B
330
2
100
AcDbEntity
  8
GAIKEI
  6
Continuous
 62
     1
100
AcDbLine
 10
41.2552834738459
 20
4.609235607831692
 30
0.0
 11
41.2552834738459
 21
5.341714807831749
 31
0.0
  0
LINE
  5
10C
330
2
100
AcDbEntity
  8
GAIKEI
  6
Continuous
 62
     1
100
AcDbLine
 10
41.43075012384594
 20
7.680870457831701
 30
0.0
 11
41.75407422384592
 21
8.066193057831696
 31
0.0
  0
LINE
  5
10D
330
2
100
AcDbEntity
  8
GAIKEI
  6
Continuous
 62
     1
100
AcDbLine
 10
41.90464597384596
 20
26.09852580783172
 30
0.0
 11
41.70905687384595
 21
26.09852580783172
 31
0.0
  0
LINE
  5
10E
330
2
100
AcDbEntity
  8
GAIKEI
  6
Continuous
 62
     1
100
AcDbLine
 10
41.90464597384596
 20
25.44925740783174
 30
0.0
 11
41.90464597384584
 21
26.14845249331074
 31
0.0
  0
LINE
  5
10F
330
2
100
AcDbEntity
  8
GAIKEI
  6
Continuous
 62
     1
100
AcDbLine
 10
41.90464597384596
 20
12.03925740783177
 30
0.0
 11
41.90464597384596
 21
24.84425740783172
 31
0.0
  0
LINE
  5
110
330
2
100
AcDbEntity
  8
GAIKEI
  6
Continuous
 62
     1
100
AcDbLine
 10
41.9073369385419
 20
8.530520690676326
 30
0.0
 11
41.90462495970808
 21
11.43425740783175
 31
0.0
  0
LINE
  5
111
330
2
100
AcDbEntity
  8
GAIKEI
  6
Continuous
 62
     1
100
AcDbLine
 10
41.93792097384596
 20
24.84425740783172
 30
0.0
 11
41.70905687384595
 21
24.84425740783172
 31
0.0
  0
LINE
  5
112
330
2
100
AcDbEntity
  8
GAIKEI
  6
Continuous
 62
     1
100
AcDbLine
 10
41.93792097384596
 20
11.43425740783175
 30
0.0
 11
41.70905687384589
 21
11.43425740783175
 31
0.0
  0
LINE
  5
113
330
2
100
AcDbEntity
  8
GAIKEI
  6
Continuous
 62
     1
100
AcDbLine
 10
41.70905687384595
 20
12.03925740783177
 30
0.0
 11
41.98528347384592
 21
12.03925740783177
 31
0.0
  0
LINE
  5
114
330
2
100
AcDbEntity
  8
GAIKEI
  6
Continuous
 62
     1
100
AcDbLine
 10
41.70905687384595
 20
25.44925740783174
 30
0.0
 11
41.93792097384596
 21
25.44925740783174
 31
0.0
  0
LINE
  5
115
330
2
100
AcDbEntity
  8
GAIKEI
  6
Continuous
 62
     1
100
AcDbLine
 10
41.93792097384596
 20
11.43425740783175
 30
0.0
 11
41.93792097384596
 21
12.03925740783177
 31
0.0
  0
LINE
  5
116
330
2
100
AcDbEntity
  8
GAIKEI
  6
Continuous
 62
     1
100
AcDbLine
 10
41.93792097384596
 20
24.84425740783172
 30
0.0
 11
41.93792097384596
 21
25.44925740783174
 31
0.0
  0
LINE
  5
117
330
2
100
AcDbEntity
  8
GAIKEI
  6
Continuous
100
AcDbLine
 10
41.92391182384596
 20
26.75872045783171
 30
0.0
 11
41.92669167384593
 21
26.75763820783175
 31
0.0
  0
LINE
  5
118
330
2
100
AcDbEntity
  8
GAIKEI
  6
Continuous
100
AcDbLine
 10
41.92669167384593
 20
26.75763820783175
 30
0.0
 11
41.92291832384592
 21
26.75149630783176
 31
0.0
  0
LINE
  5
119
330
2
100
AcDbEntity
  8
GAIKEI
  6
Continuous
 62
     1
100
AcDbLine
 10
41.97862296786598
 20
26.41018594240711
 30
0.0
 11
42.06104327384593
 21
26.5443413078317
 31
0.0
  0
LINE
  5
11A
330
2
100
AcDbEntity
  8
GAIKEI
  6
Continuous
 62
     1
100
AcDbLine
 10
42.1570639920817
 20
26.9757593991643
 30
0.0
 11
42.17519397384592
 21
28.58590060783172
 31
0.0
  0
LINE
  5
11B
330
2
100
AcDbEntity
  8
GAIKEI
  6
Continuous
100
AcDbLine
 10
42.2528504738459
 20
29.47843485783176
 30
0.0
 11
42.2528504738459
 21
15.48774995783174
 31
0.0
  0
LINE
  5
11C
330
2
100
AcDbEntity
  8
GAIKEI
  6
Continuous
 62
     1
100
AcDbLine
 10
41.98528347384592
 20
11.43425740783175
 30
0.0
 11
41.93792097384596
 21
11.43425740783175
 31
0.0
  0
LINE
  5
11D
330
2
100
AcDbEntity
  8
GAIKEI
  6
Continuous
 62
     1
100
AcDbLine
 10
41.75407422384592
 20
8.066193057831696
 30
0.0
 11
42.1485961426656
 21
8.536780794726041
 31
0.0
  0
LINE
  5
11E
330
2
100
AcDbEntity
  8
GAIKEI
  6
Continuous
100
AcDbLine
 10
40.78426777384595
 20
32.39714550783174
 30
0.0
 11
40.31423932384592
 21
32.49705315783172
 31
0.0
  0
LINE
  5
11F
330
2
100
AcDbEntity
  8
GAIKEI
  6
Continuous
100
AcDbLine
 10
41.70905687384595
 20
32.20057555783171
 30
0.0
 11
40.78426777384595
 21
32.39714550783174
 31
0.0
  0
LINE
  5
120
330
2
100
AcDbEntity
  8
GAIKEI
  6
Continuous
100
AcDbLine
 10
41.94238682384593
 20
31.72229195783172
 30
0.0
 11
41.90464597384596
 21
31.99083190783176
 31
0.0
  0
LINE
  5
121
330
2
100
AcDbEntity
  8
GAIKEI
  6
Continuous
100
AcDbLine
 10
42.25528347384591
 20
29.49294645783175
 30
0.0
 11
42.25528347384591
 21
29.49591655783172
 31
0.0
  0
LINE
  5
122
330
2
100
AcDbEntity
  8
GAIKEI
  6
Continuous
100
AcDbLine
 10
42.25528347384591
 20
29.49591655783172
 30
0.0
 11
42.18042677384596
 21
30.02854975783174
 31
0.0
  0
LINE
  5
123
330
2
100
AcDbEntity
  8
GAIKEI
  6
Continuous
100
AcDbLine
 10
42.25528347384591
 20
8.845496107831763
 30
0.0
 11
42.25528347384591
 21
8.942287707831724
 31
0.0
  0
LINE
  5
124
330
2
100
AcDbEntity
  8
GAIKEI
  6
Continuous
100
AcDbLine
 10
42.25528347384591
 20
8.942287707831724
 30
0.0
 11
42.25528347384591
 21
15.48774995783174
 31
0.0
  0
LINE
  5
125
330
2
100
AcDbEntity
  8
GAIKEI
  6
Continuous
100
AcDbLine
 10
42.25528347384591
 20
15.48774995783174
 30
0.0
 11
42.25528347384591
 21
16.55576485783172
 31
0.0
  0
LINE
  5
126
330
2
100
AcDbEntity
  8
GAIKEI
  6
Continuous
 62
     7
100
AcDbLine
 10
41.02357332384594
 20
4.359851057831747
 30
0.0
 11
41.3108119238459
 21
4.374904607831695
 31
0.0
  0
LINE
  5
127
330
2
100
AcDbEntity
  8
GAIKEI
  6
Continuous
 62
     1
100
AcDbLine
 10
41.02357332384594
 20
4.359851057831747
 30
0.0
 11
41.02249502384592
 21
4.359794557831719
 31
0.0
  0
LINE
  5
128
330
2
100
AcDbEntity
  8
GAIKEI
  6
Continuous
 62
     1
100
AcDbLine
 10
41.01836747384595
 20
4.359578207831759
 30
0.0
 11
41.02249502384592
 21
4.359794557831719
 31
0.0
  0
LINE
  5
129
330
2
100
AcDbEntity
  8
GAIKEI
  6
Continuous
 62
     7
100
AcDbLine
 10
41.3108119238459
 20
4.374904607831695
 30
0.0
 11
41.38947367384594
 21
4.379027057831763
 31
0.0
  0
LINE
  5
12A
330
2
100
AcDbEntity
  8
GAIKEI
  6
Continuous
100
AcDbLine
 10
41.98028347384592
 20
4.884472407831708
 30
0.0
 11
41.98028347384592
 21
8.153793657831727
 31
0.0
  0
LINE
  5
12B
330
2
100
AcDbEntity
  8
GAIKEI
  6
Continuous
100
AcDbLine
 10
41.38947367384594
 20
4.379027057831763
 30
0.0
 11
41.50645147384591
 21
4.385157607831729
 31
0.0
  0
LINE
  5
12C
330
2
100
AcDbEntity
  8
GAIKEI
  6
Continuous
100
AcDbLine
 10
41.92862702384593
 20
31.82019780783174
 30
0.0
 11
42.25528347384591
 21
29.49591655783172
 31
0.0
  0
ARC
  5
12D
330
2
100
AcDbEntity
  8
GAIKEI
  6
Continuous
 62
     1
100
AcDbCircle
 10
42.0052834738459
 20
7.198779707831704
 30
0.0
 40
0.75
100
AcDbArc
 50
140.0000000000024
 51
180.0
  0
ARC
  5
12E
330
2
100
AcDbEntity
  8
GAIKEI
  6
Continuous
 62
     1
100
AcDbCircle
 10
41.00528347384591
 20
4.609235607831692
 30
0.0
 40
0.25
100
AcDbArc
 50
274.2367919999947
 51
0.0
  0
ARC
  5
12F
330
2
100
AcDbEntity
  8
GAIKEI
  6
Continuous
100
AcDbCircle
 10
41.65707897384595
 20
31.95603865783176
 30
0.0
 40
0.25
100
AcDbArc
 50
8.000000000005512
 51
77.99999999998565
  0
ARC
  5
130
330
2
100
AcDbEntity
  8
GAIKEI
  6
Continuous
100
AcDbCircle
 10
41.75528347384591
 20
8.845496107831763
 30
0.0
 40
0.5
100
AcDbArc
 50
321.8712529999933
 51
359.6917960000155
  0
ARC
  5
131
330
2
100
AcDbEntity
  8
GAIKEI
  6
Continuous
100
AcDbCircle
 10
42.48028347384592
 20
8.153793657831727
 30
0.0
 40
0.5
100
AcDbArc
 50
179.3354799999874
 51
180.0
  0
ARC
  5
132
330
2
100
AcDbEntity
  8
GAIKEI
  6
Continuous
100
AcDbCircle
 10
41.48028347384593
 20
4.884472407831708
 30
0.0
 40
0.5
100
AcDbArc
 50
273.0000000000057
 51
0.0
  0
ARC
  5
133
330
2
100
AcDbEntity
  8
GAIKEI
  6
Continuous
100
AcDbCircle
 10
41.75528347384591
 20
8.845496107831763
 30
0.0
 40
0.5
100
AcDbArc
 50
359.670535000016
 51
0.0
  0
ARC
  5
134
330
2
100
AcDbEntity
  8
GAIKEI
  6
Continuous
100
AcDbCircle
 10
41.75528347384591
 20
8.845496107831763
 30
0.0
 40
0.5
100
AcDbArc
 50
355.2257539999894
 51
359.670535000016
  0
ELLIPSE
  5
135
330
2
100
AcDbEntity
  8
GAIKEI
  6
Continuous
100
AcDbEllipse
 10
42.0052834738459
 20
8.845496107831763
 30
0.0
 11
-0.25
 21
-0.0000000000000001
 31
0.0
210
0.0
220
0.0
230
1.0
 40
0.9073409999999999
 41
3.135287578111884
 42
3.141592653589792
  0
LINE
  5
136
330
2
100
AcDbEntity
  8
GAIKEI
  6
Continuous
 62
     1
100
AcDbLine
 10
41.2552834738459
 20
7.141757407831732
 30
0.0
 11
41.33724212384595
 21
7.130238857831727
 31
0.0
  0
LINE
  5
137
330
2
100
AcDbEntity
  8
GAIKEI
  6
Continuous
 62
     1
100
AcDbLine
 10
41.32872697384596
 20
7.13143560783169
 30
0.0
 11
41.26254977384593
 21
7.140736207831764
 31
0.0
  0
ARC
  5
138
330
2
100
AcDbEntity
  8
GAIKEI
  6
Continuous
 62
     1
100
AcDbCircle
 10
41.09028347384594
 20
6.58175740783173
 30
0.0
 40
0.4400000000000001
100
AcDbArc
 50
0.0
 51
43.76174299999948
  0
ARC
  5
139
330
2
100
AcDbEntity
  8
GAIKEI
  6
Continuous
 62
     1
100
AcDbCircle
 10
41.33028347384595
 20
7.080725457831704
 30
0.0
 40
0.05
100
AcDbArc
 50
0.0
 51
81.99999999999448
  0
ARC
  5
13A
330
2
100
AcDbEntity
  8
GAIKEI
  6
Continuous
 62
     1
100
AcDbCircle
 10
41.48028347384593
 20
6.955254407831716
 30
0.0
 40
0.1
100
AcDbArc
 50
180.0
 51
223.7617429999995
  0
LINE
  5
13B
330
2
100
AcDbEntity
  8
GAIKEI
  6
Continuous
 62
     1
100
AcDbLine
 10
41.3802834738459
 20
7.031212057831737
 30
0.0
 11
41.3802834738459
 21
6.955254407831716
 31
0.0
  0
LINE
  5
13C
330
2
100
AcDbEntity
  8
GAIKEI
  6
Continuous
 62
     1
100
AcDbLine
 10
41.3802834738459
 20
7.080725457831704
 30
0.0
 11
41.3802834738459
 21
7.031212057831737
 31
0.0
  0
ARC
  5
13D
330
2
100
AcDbEntity
  8
GAIKEI
  6
Continuous
 62
     1
100
AcDbCircle
 10
41.09028347384594
 20
6.471757407831717
 30
0.0
 40
0.4400000000000001
100
AcDbArc
 50
316.2382570000005
 51
0.0
  0
LINE
  5
13E
330
2
100
AcDbEntity
  8
GAIKEI
  6
Continuous
 62
     1
100
AcDbLine
 10
41.53028347384593
 20
6.58175740783173
 30
0.0
 11
41.53028347384593
 21
6.471757407831717
 31
0.0
  0
LINE
  5
13F
330
2
100
AcDbEntity
  8
GAIKEI
  6
Continuous
 62
     1
100
AcDbLine
 10
41.33724212384595
 20
5.92327595783172
 30
0.0
 11
41.2552834738459
 21
5.911757407831714
 31
0.0
  0
LINE
  5
140
330
2
100
AcDbEntity
  8
GAIKEI
  6
Continuous
 62
     1
100
AcDbLine
 10
41.26254977384593
 20
5.912778607831739
 30
0.0
 11
41.32872697384596
 21
5.922079207831757
 31
0.0
  0
ARC
  5
141
330
2
100
AcDbEntity
  8
GAIKEI
  6
Continuous
 62
     1
100
AcDbCircle
 10
41.48028347384593
 20
6.09826040783173
 30
0.0
 40
0.1
100
AcDbArc
 50
136.2382570000005
 51
180.0
  0
ARC
  5
142
330
2
100
AcDbEntity
  8
GAIKEI
  6
Continuous
 62
     1
100
AcDbCircle
 10
41.33028347384595
 20
5.972789357831743
 30
0.0
 40
0.05
100
AcDbArc
 50
278.0000000000055
 51
0.0
  0
LINE
  5
143
330
2
100
AcDbEntity
  8
GAIKEI
  6
Continuous
 62
     1
100
AcDbLine
 10
41.3802834738459
 20
6.022302757831766
 30
0.0
 11
41.3802834738459
 21
5.972789357831743
 31
0.0
  0
LINE
  5
144
330
2
100
AcDbEntity
  8
GAIKEI
  6
Continuous
 62
     1
100
AcDbLine
 10
41.3802834738459
 20
6.09826040783173
 30
0.0
 11
41.3802834738459
 21
6.022302757831766
 31
0.0
  0
LINE
  5
145
330
2
100
AcDbEntity
  8
GAIKEI
  6
Continuous
 62
     1
100
AcDbLine
 10
8.789419411986045
 20
3.546135307831718
 30
0.0
 11
-41.10182478801391
 21
3.546135307831718
 31
0.0
  0
LINE
  5
146
330
2
100
AcDbEntity
  8
GAIKEI
  6
Continuous
 62
     1
100
AcDbLine
 10
-41.10182478801391
 20
33.24737950783174
 30
0.0
 11
8.789419411986102
 21
33.24737950783174
 31
0.0
  0
LINE
  5
147
330
2
100
AcDbEntity
  8
GAIKEI
  6
Continuous
 62
     1
100
AcDbLine
 10
-41.25682478801394
 20
3.701135307831691
 30
0.0
 11
-41.25682478801389
 21
33.09237950783177
 31
0.0
  0
LINE
  5
148
330
2
100
AcDbEntity
  8
GAIKEI
  6
Continuous
 62
     1
100
AcDbLine
 10
8.944419411986075
 20
3.701135307831691
 30
0.0
 11
8.944419411986132
 21
33.09237950783177
 31
0.0
  0
LINE
  5
149
330
2
100
AcDbEntity
  8
GAIKEI
  6
Continuous
 62
     1
100
AcDbLine
 10
7.943797311986031
 20
32.04675740783171
 30
0.0
 11
7.943797311986031
 21
4.746757407831751
 31
0.0
  0
LINE
  5
14A
330
2
100
AcDbEntity
  8
GAIKEI
  6
Continuous
 62
     1
100
AcDbLine
 10
-39.04120268801392
 20
3.996757407831751
 30
0.0
 11
-38.74120268801391
 21
3.996757407831751
 31
0.0
  0
LINE
  5
14B
330
2
100
AcDbEntity
  8
GAIKEI
  6
Continuous
 62
     1
100
AcDbLine
 10
-38.71620268801394
 20
3.971757407831717
 30
0.0
 11
-38.71620268801394
 21
3.671757407831705
 31
0.0
  0
LINE
  5
14C
330
2
100
AcDbEntity
  8
GAIKEI
  6
Continuous
 62
     1
100
AcDbLine
 10
-40.6624526880139
 20
3.765507407831705
 30
0.0
 11
-40.6624526880139
 21
3.878007407831717
 31
0.0
  0
LINE
  5
14D
330
2
100
AcDbEntity
  8
GAIKEI
  6
Continuous
 62
     1
100
AcDbLine
 10
-39.06620268801396
 20
3.671757407831705
 30
0.0
 11
-39.06620268801396
 21
3.971757407831717
 31
0.0
  0
LINE
  5
14E
330
2
100
AcDbEntity
  8
GAIKEI
  6
Continuous
 62
     1
100
AcDbLine
 10
-40.54995268801394
 20
3.878007407831717
 30
0.0
 11
-40.54995268801394
 21
3.765507407831705
 31
0.0
  0
LINE
  5
14F
330
2
100
AcDbEntity
  8
GAIKEI
  6
Continuous
 62
     1
100
AcDbLine
 10
-40.6624526880139
 20
3.878007407831717
 30
0.0
 11
-40.54995268801394
 21
3.878007407831717
 31
0.0
  0
LINE
  5
150
330
2
100
AcDbEntity
  8
GAIKEI
  6
Continuous
 62
     1
100
AcDbLine
 10
-40.54995268801394
 20
3.765507407831705
 30
0.0
 11
-40.6624526880139
 21
3.765507407831705
 31
0.0
  0
LINE
  5
151
330
2
100
AcDbEntity
  8
GAIKEI
  6
Continuous
 62
     1
100
AcDbLine
 10
-38.74120268801391
 20
3.646757407831728
 30
0.0
 11
-39.04120268801392
 21
3.646757407831728
 31
0.0
  0
LINE
  5
152
330
2
100
AcDbEntity
  8
GAIKEI
  6
Continuous
 62
     1
100
AcDbLine
 10
7.743797311986099
 20
32.24675740783175
 30
0.0
 11
-40.05620268801396
 21
32.24675740783175
 31
0.0
  0
LINE
  5
153
330
2
100
AcDbEntity
  8
GAIKEI
  6
Continuous
 62
     1
100
AcDbLine
 10
-40.2562026880139
 20
32.04675740783171
 30
0.0
 11
-40.2562026880139
 21
4.746757407831751
 31
0.0
  0
LINE
  5
154
330
2
100
AcDbEntity
  8
GAIKEI
  6
Continuous
 62
     1
100
AcDbLine
 10
-40.05620268801396
 20
4.546757407831705
 30
0.0
 11
7.743797311986099
 21
4.546757407831705
 31
0.0
  0
LINE
  5
155
330
2
100
AcDbEntity
  8
GAIKEI
  6
Continuous
 62
     1
100
AcDbLine
 10
9.016904661986018
 20
3.28565005783173
 30
0.0
 11
-41.32931003801394
 21
3.28565005783173
 31
0.0
  0
LINE
  5
156
330
2
100
AcDbEntity
  8
GAIKEI
  6
Continuous
 62
     1
100
AcDbLine
 10
-41.329310038014
 20
33.50786475783173
 30
0.0
 11
9.016904661986075
 21
33.50786475783173
 31
0.0
  0
LINE
  5
157
330
2
100
AcDbEntity
  8
GAIKEI
  6
Continuous
 62
     1
100
AcDbLine
 10
9.204904661986006
 20
3.473650057831719
 30
0.0
 11
9.204904661986063
 21
33.31986475783174
 31
0.0
  0
LINE
  5
158
330
2
100
AcDbEntity
  8
GAIKEI
  6
Continuous
 62
     1
100
AcDbLine
 10
-41.51731003801393
 20
3.473650057831719
 30
0.0
 11
-41.51731003801399
 21
33.31986475783174
 31
0.0
  0
LINE
  5
159
330
2
100
AcDbEntity
  8
GAIKEI
  6
Continuous
 62
     1
100
AcDbLine
 10
6.906034092918559
 20
31.27295357848164
 30
0.0
 11
7.834448511986067
 21
32.08580190783175
 31
0.0
  0
LINE
  5
15A
330
2
100
AcDbEntity
  8
GAIKEI
  6
Continuous
 62
     1
100
AcDbLine
 10
7.690289661986071
 20
32.14551355783169
 30
0.0
 11
6.797958995822966
 21
31.3642574078317
 31
0.0
  0
LINE
  5
15B
330
2
100
AcDbEntity
  8
GAIKEI
  6
Continuous
 62
     1
100
AcDbLine
 10
-40.00269503801393
 20
32.14551355783169
 30
0.0
 11
-39.11036437185084
 21
31.3642574078317
 31
0.0
  0
LINE
  5
15C
330
2
100
AcDbEntity
  8
GAIKEI
  6
Continuous
 62
     1
100
AcDbLine
 10
-39.21843946894643
 20
31.27295357848164
 30
0.0
 11
-40.14685388801393
 21
32.08580190783175
 31
0.0
  0
LINE
  5
15D
330
2
100
AcDbEntity
  8
GAIKEI
  6
Continuous
 62
     1
100
AcDbLine
 10
6.797958995822966
 20
5.429257407831755
 30
0.0
 11
7.690289661986071
 21
4.648001257831765
 31
0.0
  0
LINE
  5
15E
330
2
100
AcDbEntity
  8
GAIKEI
  6
Continuous
 62
     1
100
AcDbLine
 10
7.834448511986067
 20
4.707712907831705
 30
0.0
 11
6.906034092918616
 21
5.520561237181823
 31
0.0
  0
LINE
  5
15F
330
2
100
AcDbEntity
  8
GAIKEI
  6
Continuous
 62
     1
100
AcDbLine
 10
-39.11036437185084
 20
5.429257407831755
 30
0.0
 11
-40.00269503801393
 21
4.648001257831765
 31
0.0
  0
LINE
  5
160
330
2
100
AcDbEntity
  8
GAIKEI
  6
Continuous
 62
     1
100
AcDbLine
 10
-40.14685388801393
 20
4.707712907831705
 30
0.0
 11
-39.21839137166626
 21
5.520603347464714
 31
0.0
  0
LINE
  5
161
330
2
100
AcDbEntity
  8
GAIKEI
  6
Continuous
 62
     1
100
AcDbLine
 10
7.843797311986008
 20
4.74650125783171
 30
0.0
 11
7.843797311986065
 21
32.04825740783167
 31
0.0
  0
LINE
  5
162
330
2
100
AcDbEntity
  8
GAIKEI
  6
Continuous
 62
     1
100
AcDbLine
 10
-40.15489338801399
 20
32.04825740783173
 30
0.0
 11
-40.15489338801393
 21
4.74650125783171
 31
0.0
  0
LINE
  5
163
330
2
100
AcDbEntity
  8
GAIKEI
  6
Continuous
 62
     1
100
AcDbLine
 10
7.745297311986064
 20
4.648001257831765
 30
0.0
 11
-40.05639338801393
 21
4.648001257831765
 31
0.0
  0
LINE
  5
164
330
2
100
AcDbEntity
  8
GAIKEI
  6
Continuous
 62
     1
100
AcDbLine
 10
-40.05639338801393
 20
32.14675740783173
 30
0.0
 11
7.745297311986064
 21
32.14675740783173
 31
0.0
  0
LINE
  5
165
330
2
100
AcDbEntity
  8
GAIKEI
  6
Continuous
 62
     1
100
AcDbLine
 10
-39.12020268801393
 20
5.429257407831755
 30
0.0
 11
6.807797311986064
 21
5.429257407831755
 31
0.0
  0
LINE
  5
166
330
2
100
AcDbEntity
  8
GAIKEI
  6
Continuous
 62
     1
100
AcDbLine
 10
-39.12020268801393
 20
31.3642574078317
 30
0.0
 11
6.807797311986064
 21
31.36425740783176
 31
0.0
  0
LINE
  5
167
330
2
100
AcDbEntity
  8
GAIKEI
  6
Continuous
 62
     1
100
AcDbLine
 10
6.906297311986065
 20
31.26575740783176
 30
0.0
 11
6.906297311986122
 21
5.5277574078317
 31
0.0
  0
LINE
  5
168
330
2
100
AcDbEntity
  8
GAIKEI
  6
Continuous
 62
     1
100
AcDbLine
 10
-39.21870268801394
 20
31.26575740783176
 30
0.0
 11
-39.21870268801394
 21
5.5277574078317
 31
0.0
  0
LINE
  5
169
330
2
100
AcDbEntity
  8
GAIKEI
  6
Continuous
100
AcDbLine
 10
-41.45370268801395
 20
3.149257407831726
 30
0.0
 11
9.141297311986079
 21
3.149257407831726
 31
0.0
  0
LINE
  5
16A
330
2
100
AcDbEntity
  8
GAIKEI
  6
Continuous
100
AcDbLine
 10
-41.45370268801395
 20
33.64425740783173
 30
0.0
 11
9.141297311986079
 21
33.64425740783173
 31
0.0
  0
LINE
  5
16B
330
2
100
AcDbEntity
  8
GAIKEI
  6
Continuous
100
AcDbLine
 10
9.341297311986068
 20
33.44425740783175
 30
0.0
 11
9.341297311986068
 21
3.349257407831714
 31
0.0
  0
LINE
  5
16C
330
2
100
AcDbEntity
  8
GAIKEI
  6
Continuous
100
AcDbLine
 10
-41.65370268801393
 20
33.44425740783175
 30
0.0
 11
-41.65370268801393
 21
3.349257407831714
 31
0.0
  0
ARC
  5
16D
330
2
100
AcDbEntity
  8
GAIKEI
  6
Continuous
 62
     1
100
AcDbCircle
 10
7.743797311986099
 20
32.04675740783171
 30
0.0
 40
0.2
100
AcDbArc
 50
0.0
 51
90.0
  0
ARC
  5
16E
330
2
100
AcDbEntity
  8
GAIKEI
  6
Continuous
 62
     1
100
AcDbCircle
 10
-40.05620268801396
 20
4.746757407831751
 30
0.0
 40
0.2
100
AcDbArc
 50
180.0
 51
270.0
  0
ARC
  5
16F
330
2
100
AcDbEntity
  8
GAIKEI
  6
Continuous
 62
     1
100
AcDbCircle
 10
-40.05620268801396
 20
32.04675740783171
 30
0.0
 40
0.2
100
AcDbArc
 50
90.0
 51
180.0
  0
ARC
  5
170
330
2
100
AcDbEntity
  8
GAIKEI
  6
Continuous
 62
     1
100
AcDbCircle
 10
-39.04120268801392
 20
3.671757407831705
 30
0.0
 40
0.025
100
AcDbArc
 50
180.0
 51
270.0
  0
ARC
  5
171
330
2
100
AcDbEntity
  8
GAIKEI
  6
Continuous
 62
     1
100
AcDbCircle
 10
-38.74120268801391
 20
3.671757407831705
 30
0.0
 40
0.025
100
AcDbArc
 50
270.0
 51
0.0
  0
ARC
  5
172
330
2
100
AcDbEntity
  8
GAIKEI
  6
Continuous
 62
     1
100
AcDbCircle
 10
-38.74120268801391
 20
3.971757407831717
 30
0.0
 40
0.025
100
AcDbArc
 50
0.0
 51
90.0
  0
ARC
  5
173
330
2
100
AcDbEntity
  8
GAIKEI
  6
Continuous
 62
     1
100
AcDbCircle
 10
-39.04120268801392
 20
3.971757407831717
 30
0.0
 40
0.025
100
AcDbArc
 50
90.0
 51
180.0
  0
ARC
  5
174
330
2
100
AcDbEntity
  8
GAIKEI
  6
Continuous
 62
     1
100
AcDbCircle
 10
7.743797311986099
 20
4.746757407831751
 30
0.0
 40
0.2
100
AcDbArc
 50
270.0
 51
0.0
  0
ARC
  5
175
330
2
100
AcDbEntity
  8
GAIKEI
  6
Continuous
100
AcDbCircle
 10
9.141297311986079
 20
3.349257407831714
 30
0.0
 40
0.2
100
AcDbArc
 50
270.0784679999916
 51
359.9215320000084
  0
ARC
  5
176
330
2
100
AcDbEntity
  8
GAIKEI
  6
Continuous
100
AcDbCircle
 10
-41.45370268801395
 20
3.349257407831714
 30
0.0
 40
0.2
100
AcDbArc
 50
180.0784679999916
 51
269.9215320000084
  0
ARC
  5
177
330
2
100
AcDbEntity
  8
GAIKEI
  6
Continuous
100
AcDbCircle
 10
9.141297311986079
 20
33.44425740783175
 30
0.0
 40
0.2
100
AcDbArc
 50
0.0784679999916189
 51
89.92153200000839
  0
ARC
  5
178
330
2
100
AcDbEntity
  8
GAIKEI
  6
Continuous
100
AcDbCircle
 10
-41.45370268801395
 20
33.44425740783175
 30
0.0
 40
0.2
100
AcDbArc
 50
90.0784679999916
 51
179.9215320000083
  0
ARC
  5
179
330
2
100
AcDbEntity
  8
GAIKEI
  6
Continuous
100
AcDbCircle
 10
-41.45370268801395
 20
3.349257407831714
 30
0.0
 40
0.2
100
AcDbArc
 50
269.9215320000084
 51
270.0
  0
ARC
  5
17A
330
2
100
AcDbEntity
  8
GAIKEI
  6
Continuous
100
AcDbCircle
 10
-41.45370268801395
 20
33.44425740783175
 30
0.0
 40
0.2
100
AcDbArc
 50
90.0
 51
90.0784679999916
  0
ARC
  5
17B
330
2
100
AcDbEntity
  8
GAIKEI
  6
Continuous
100
AcDbCircle
 10
9.141297311986079
 20
3.349257407831714
 30
0.0
 40
0.2
100
AcDbArc
 50
359.9215320000084
 51
0.0
  0
ARC
  5
17C
330
2
100
AcDbEntity
  8
GAIKEI
  6
Continuous
100
AcDbCircle
 10
-41.45370268801395
 20
3.349257407831714
 30
0.0
 40
0.2
100
AcDbArc
 50
180.0
 51
180.0784679999916
  0
ARC
  5
17D
330
2
100
AcDbEntity
  8
GAIKEI
  6
Continuous
100
AcDbCircle
 10
-41.45370268801395
 20
33.44425740783175
 30
0.0
 40
0.2
100
AcDbArc
 50
179.9215320000083
 51
180.0
  0
TEXT
  5
17E
330
2
100
AcDbEntity
  8
TOUROKU
100
AcDbText
 10
46.39396624393143
 20
48.74009541242504
 30
0.0
 40
2.0
  1
ＴＨ４２ＰＤ１２
 72
     2
 11
64.79396624393143
 21
48.74009541242504
 31
0.0
100
AcDbText
  0
TEXT
  5
180
330
2
100
AcDbEntity
  8
MOJI1
100
AcDbText
 10
-18.70598378899606
 20
-53.2599045875748
 30
0.0
 40
3.0
  1
外部スピーカ／シリアル／ＰＣ
100
AcDbText
  0
TEXT
  5
181
330
2
100
AcDbEntity
  8
MOJI1
100
AcDbText
 10
-18.70598378899606
 20
-33.2599045875748
 30
0.0
 40
3.0
  1
３００００：１
100
AcDbText
  0
TEXT
  5
182
330
2
100
AcDbEntity
  8
MOJI1
100
AcDbText
 10
-18.70598378899606
 20
-38.2599045875748
 30
0.0
 40
3.0
  1
５１２０階調（相当）
100
AcDbText
  0
LINE
  5
183
330
2
100
AcDbEntity
  8
WAKU
 62
     1
100
AcDbLine
 10
-60.20598378899606
 20
-19.25990458757479
 30
0.0
 11
64.79401621100371
 21
-19.25990458757479
 31
0.0
  0
LINE
  5
185
330
2
100
AcDbEntity
  8
WAKU
 62
     1
100
AcDbLine
 10
-60.20598378899606
 20
-29.2599045875748
 30
0.0
 11
64.79401621100371
 21
-29.2599045875748
 31
0.0
  0
LINE
  5
186
330
2
100
AcDbEntity
  8
WAKU
 62
     4
100
AcDbLine
 10
-60.20598378899606
 20
-9.259904587574794
 30
0.0
 11
64.79401621100371
 21
-9.259904587574794
 31
0.0
  0
LINE
  5
187
330
2
100
AcDbEntity
  8
WAKU
 62
     1
100
AcDbLine
 10
-60.20598378899606
 20
-14.25990458757479
 30
0.0
 11
64.79401621100371
 21
-14.25990458757479
 31
0.0
  0
LINE
  5
188
330
2
100
AcDbEntity
  8
WAKU
 62
     1
100
AcDbLine
 10
-60.20598378899606
 20
-24.2599045875748
 30
0.0
 11
64.79401621100371
 21
-24.2599045875748
 31
0.0
  0
LINE
  5
189
330
2
100
AcDbEntity
  8
WAKU
 62
     1
100
AcDbLine
 10
-60.20598378899606
 20
-44.25990458757479
 30
0.0
 11
64.79401621100371
 21
-44.25990458757479
 31
0.0
  0
LINE
  5
18A
330
2
100
AcDbEntity
  8
WAKU
 62
     1
100
AcDbLine
 10
-60.20598378899606
 20
-49.25990458757479
 30
0.0
 11
64.79401621100371
 21
-49.25990458757479
 31
0.0
  0
LINE
  5
18B
330
2
100
AcDbEntity
  8
WAKU
 62
     4
100
AcDbLine
 10
64.79401621100371
 20
-54.25990458757479
 30
0.0
 11
-60.20598378899606
 21
-54.25990458757479
 31
0.0
  0
LINE
  5
18C
330
2
100
AcDbEntity
  8
WAKU
 62
     4
100
AcDbLine
 10
-60.20598378899629
 20
-9.259904587574794
 30
0.0
 11
-60.20598378899606
 21
-54.25990458757479
 31
0.0
  0
LINE
  5
18D
330
2
100
AcDbEntity
  8
WAKU
 62
     4
100
AcDbLine
 10
64.79401621100371
 20
-9.259904587574794
 30
0.0
 11
64.79401621100371
 21
-54.25990458757479
 31
0.0
  0
TEXT
  5
18E
330
2
100
AcDbEntity
  8
MOJI1
100
AcDbText
 10
-57.70598378899606
 20
-28.2599045875748
 30
0.0
 40
3.0
  1
画素数
100
AcDbText
  0
LINE
  5
18F
330
2
100
AcDbEntity
  8
WAKU
 62
     4
100
AcDbLine
 10
-20.20598378899629
 20
-9.259904587574794
 30
0.0
 11
-20.20598378899629
 21
-54.25990458757479
 31
0.0
  0
TEXT
  5
190
330
2
100
AcDbEntity
  8
MOJI1
100
AcDbText
 10
-18.70598378899606
 20
-28.2599045875748
 30
0.0
 40
3.0
  1
水平１０２４×垂直７６８　画素
100
AcDbText
  0
TEXT
  5
191
330
2
100
AcDbEntity
  8
MOJI1
100
AcDbText
 10
-18.70598378899606
 20
-48.2599045875748
 30
0.0
 40
3.0
  1
ビデオ／Ｓ映像／コンポーネントビデオ
100
AcDbText
  0
TEXT
  5
192
330
2
100
AcDbEntity
  8
MOJI1
100
AcDbText
 10
-18.70598378899606
 20
-43.2599045875748
 30
0.0
 40
3.0
  1
１６Ｗ（８Ｗ＋８Ｗ）
100
AcDbText
  0
TEXT
  5
193
330
2
100
AcDbEntity
  8
MOJI1
100
AcDbText
 10
-57.70598378899606
 20
-43.2599045875748
 30
0.0
 40
3.0
  1
音声最大出力
100
AcDbText
  0
TEXT
  5
194
330
2
100
AcDbEntity
  8
MOJI1
100
AcDbText
 10
-57.70598378899606
 20
-48.2599045875748
 30
0.0
 40
3.0
  1
接続端子
100
AcDbText
  0
TEXT
  5
195
330
2
100
AcDbEntity
  8
MOJI1
100
AcDbText
 10
-18.70598378899606
 20
-13.25990458757479
 30
0.0
 40
3.0
  1
ＡＣ１００Ｖ±１０％　５０Ｈｚ／６０Ｈｚ
100
AcDbText
  0
TEXT
  5
196
330
2
100
AcDbEntity
  8
MOJI1
100
AcDbText
 10
-18.70598378899606
 20
-23.2599045875748
 30
0.0
 40
3.0
  1
４２型（１６：９）
100
AcDbText
  0
TEXT
  5
197
330
2
100
AcDbEntity
  8
MOJI1
100
AcDbText
 10
-18.70598378899606
 20
-18.25990458757479
 30
0.0
 40
3.0
  1
２５０Ｗ
100
AcDbText
  0
TEXT
  5
198
330
2
100
AcDbEntity
  8
MOJI1
100
AcDbText
 10
-57.70598378899606
 20
-23.2599045875748
 30
0.0
 40
3.0
  1
画面サイズ
100
AcDbText
  0
TEXT
  5
199
330
2
100
AcDbEntity
  8
MOJI1
100
AcDbText
 10
-57.70598378899606
 20
-18.25990458757479
 30
0.0
 40
3.0
  1
消費電力
100
AcDbText
  0
TEXT
  5
19A
330
2
100
AcDbEntity
  8
MOJI1
100
AcDbText
 10
-57.70598378899606
 20
-13.25990458757479
 30
0.0
 40
3.0
  1
電  源
100
AcDbText
  0
LINE
  5
19B
330
2
100
AcDbEntity
  8
WAKU
 62
     1
100
AcDbLine
 10
-60.20598378899606
 20
-34.2599045875748
 30
0.0
 11
64.79401621100371
 21
-34.2599045875748
 31
0.0
  0
LINE
  5
19C
330
2
100
AcDbEntity
  8
WAKU
 62
     1
100
AcDbLine
 10
-60.20598378899606
 20
-39.2599045875748
 30
0.0
 11
64.79401621100371
 21
-39.2599045875748
 31
0.0
  0
TEXT
  5
19D
330
2
100
AcDbEntity
  8
MOJI1
100
AcDbText
 10
-57.70598378899606
 20
-33.2599045875748
 30
0.0
 40
3.0
  1
コントラスト
100
AcDbText
  0
TEXT
  5
19E
330
2
100
AcDbEntity
  8
MOJI1
100
AcDbText
 10
-57.70598378899606
 20
-38.2599045875748
 30
0.0
 40
3.0
  1
階調数
100
AcDbText
  0
ENDSEC
  0
SECTION
  2
OBJECTS
  0
DICTIONARY
  5
7
330
0
100
AcDbDictionary
281
     1
  3
ACAD_COLOR
350
2D
  3
ACAD_GROUP
350
29
  3
ACAD_LAYOUT
350
B
  3
ACAD_MATERIAL
350
2C
  3
ACAD_MLINESTYLE
350
2A
  3
ACAD_PLOTSETTINGS
350
2B
  3
ACAD_PLOTSTYLENAME
350
6
  3
ACDBHEADERROUNDTRIPXREC
350
1DD
  3
AcDbVariableDictionary
350
1D8
  0
DICTIONARY
  5
11
330
10
100
AcDbDictionary
280
     1
281
     1
  3
ACAD_LAYERSTATES
360
12
  0
DICTIONARY
  5
2D
102
{ACAD_REACTORS
330
7
102
}
330
7
100
AcDbDictionary
281
     1
  0
DICTIONARY
  5
29
102
{ACAD_REACTORS
330
7
102
}
330
7
100
AcDbDictionary
281
     1
  0
DICTIONARY
  5
B
102
{ACAD_REACTORS
330
7
102
}
330
7
100
AcDbDictionary
281
     1
  3
Model
350
A
  3
レイアウト1
350
F
  0
DICTIONARY
  5
2C
102
{ACAD_REACTORS
330
7
102
}
330
7
100
AcDbDictionary
281
     1
  0
DICTIONARY
  5
2A
102
{ACAD_REACTORS
330
7
102
}
330
7
100
AcDbDictionary
281
     1
  3
Standard
350
2F
  0
DICTIONARY
  5
2B
102
{ACAD_REACTORS
330
7
102
}
330
7
100
AcDbDictionary
281
     1
  0
ACDBDICTIONARYWDFLT
  5
6
102
{ACAD_REACTORS
330
7
102
}
330
7
100
AcDbDictionary
281
     1
  3
Normal
350
5
100
AcDbDictionaryWithDefault
340
5
  0
DICTIONARY
  5
1DD
102
{ACAD_REACTORS
330
7
102
}
330
7
100
AcDbDictionary
281
     1
  3
COLORDICT
350
1DF
  3
MATERIALDICT
350
1DE
  0
DICTIONARY
  5
1D8
102
{ACAD_REACTORS
330
7
102
}
330
7
100
AcDbDictionary
281
     1
  3
DIMASSOC
350
1DA
  3
HIDETEXT
350
1D9
  3
PROJECTNAME
350
1DB
  0
DICTIONARY
  5
12
102
{ACAD_REACTORS
330
11
102
}
330
11
100
AcDbDictionary
281
     1
  0
LAYOUT
  5
A
102
{ACAD_XDICTIONARY
360
1E0
102
}
102
{ACAD_REACTORS
330
B
102
}
330
B
100
AcDbPlotSettings
  1

  2
Ａ４－縦3FRIM01.pc3
  4
A4
  6

 40
5.873749732971191
 41
5.873747825622558
 42
5.873748779296875
 43
5.873748779296875
 44
209.9733276367187
 45
296.9259948730469
 46
5.429999999999999
 47
0.0
 48
0.0
 49
0.0
140
0.0
141
0.0
142
1.0
143
1.38247311505162
 70
 11956
 72
     1
 73
     0
 74
     1
  7
tmsacad.ctb
 75
     0
147
0.7233413721486083
148
0.0055318937364746
149
0.0259817186447435
100
AcDbLayout
  1
Model
 70
     1
 71
     0
 10
0.0
 20
0.0
 11
12.0
 21
9.0
 12
0.0
 22
0.0
 32
0.0
 14
0.0
 24
0.0
 34
0.0
 15
0.0
 25
0.0
 35
0.0
146
0.0
 13
0.0
 23
0.0
 33
0.0
 16
1.0
 26
0.0
 36
0.0
 17
0.0
 27
1.0
 37
0.0
 76
     0
330
2
  0
LAYOUT
  5
F
102
{ACAD_XDICTIONARY
360
1E2
102
}
102
{ACAD_REACTORS
330
B
102
}
330
B
100
AcDbPlotSettings
  1

  2
None
  4

  6

 40
0.0
 41
0.0
 42
0.0
 43
0.0
 44
0.0
 45
0.0
 46
0.0
 47
0.0
 48
0.0
 49
0.0
140
0.0
141
0.0
142
1.0
143
1.0
 70
   688
 72
     0
 73
     0
 74
     5
  7
tmsacad.ctb
 75
    16
147
1.0
148
0.0
149
0.0
100
AcDbLayout
  1
レイアウト1
 70
     1
 71
     1
 10
0.0
 20
0.0
 11
12.0
 21
9.0
 12
0.0
 22
0.0
 32
0.0
 14
0.0
 24
0.0
 34
0.0
 15
0.0
 25
0.0
 35
0.0
146
0.0
 13
0.0
 23
0.0
 33
0.0
 16
1.0
 26
0.0
 36
0.0
 17
0.0
 27
1.0
 37
0.0
 76
     0
330
C
  0
MLINESTYLE
  5
2F
102
{ACAD_REACTORS
330
2A
102
}
330
2A
100
AcDbMlineStyle
  2
STANDARD
 70
     0
  3

 62
   256
 51
90.0
 52
90.0
 71
     2
 49
0.5
 62
   256
  6
BYLAYER
 49
-0.5
 62
   256
  6
BYLAYER
  0
ACDBPLACEHOLDER
  5
5
102
{ACAD_REACTORS
330
6
102
}
330
6
  0
XRECORD
  5
1DF
102
{ACAD_REACTORS
330
1DD
102
}
330
1DD
100
AcDbXrecord
280
     1
340
2D
  0
XRECORD
  5
1DE
102
{ACAD_REACTORS
330
1DD
102
}
330
1DD
100
AcDbXrecord
280
     1
340
2C
  0
DICTIONARYVAR
  5
1DA
102
{ACAD_REACTORS
330
1D8
102
}
330
1D8
100
DictionaryVariables
280
     0
  1
1
  0
DICTIONARYVAR
  5
1D9
102
{ACAD_REACTORS
330
1D8
102
}
330
1D8
100
DictionaryVariables
280
     0
  1
1
  0
DICTIONARYVAR
  5
1DB
102
{ACAD_REACTORS
330
1D8
102
}
330
1D8
100
DictionaryVariables
280
     0
  1

  0
DICTIONARY
  5
1E0
330
A
100
AcDbDictionary
280
     1
281
     1
  3
ACAD_XREC_ROUNDTRIP
360
1E1
  0
DICTIONARY
  5
1E2
330
F
100
AcDbDictionary
280
     1
281
     1
  3
ACAD_XREC_ROUNDTRIP
360
1E3
  0
XRECORD
  5
1E1
102
{ACAD_REACTORS
330
1E0
102
}
330
1E0
100
AcDbXrecord
280
     1
102
SHADEPLOT
 70
     0
102
SHADEPLOTRESLEVEL
 70
     2
102
SHADEPLOTCUSTOMDPI
 70
   300
  0
XRECORD
  5
1E3
102
{ACAD_REACTORS
330
1E2
102
}
330
1E2
100
AcDbXrecord
280
     1
102
SHADEPLOT
 70
     0
102
SHADEPLOTRESLEVEL
 70
     2
102
SHADEPLOTCUSTOMDPI
 70
   300
  0
ENDSEC
  0
EOF
