  0
SECTION
  2
HEADER
  9
$ACADVER
  1
AC1015
  9
$ACADMAINTVER
 70
    20
  9
$DWGCODEPAGE
  3
ANSI_932
  9
$INSBASE
 10
0.4999999440410648
 20
246.5008351249344
 30
0.0
  9
$EXTMIN
 10
-61.31194977708151
 20
-52.46534665960973
 30
-0.0015258207003583
  9
$EXTMAX
 10
63.7216192154699
 20
60.55925029418347
 30
0.0000000349246037
  9
$LIMMIN
 10
0.0
 20
0.0
  9
$LIMMAX
 10
420.0
 20
297.0
  9
$ORTHOMODE
 70
     1
  9
$REGENMODE
 70
     0
  9
$FILLMODE
 70
     1
  9
$QTEXTMODE
 70
     0
  9
$MIRRTEXT
 70
     0
  9
$LTSCALE
 40
1.0
  9
$ATTMODE
 70
     1
  9
$TEXTSIZE
 40
2.5
  9
$TRACEWID
 40
1.0
  9
$TEXTSTYLE
  7
Standard
  9
$CLAYER
  8
WAKU
  9
$CELTYPE
  6
ByLayer
  9
$CECOLOR
 62
   256
  9
$CELTSCALE
 40
1.0
  9
$DISPSILH
 70
     0
  9
$DIMSCALE
 40
1.0
  9
$DIMASZ
 40
2.0
  9
$DIMEXO
 40
2.0
  9
$DIMDLI
 40
8.0
  9
$DIMRND
 40
0.0
  9
$DIMDLE
 40
0.0
  9
$DIMEXE
 40
2.0
  9
$DIMTP
 40
0.0
  9
$DIMTM
 40
0.0
  9
$DIMTXT
 40
2.5
  9
$DIMCEN
 40
0.0
  9
$DIMTSZ
 40
0.0
  9
$DIMTOL
 70
     0
  9
$DIMLIM
 70
     0
  9
$DIMTIH
 70
     0
  9
$DIMTOH
 70
     0
  9
$DIMSE1
 70
     0
  9
$DIMSE2
 70
     0
  9
$DIMTAD
 70
     3
  9
$DIMZIN
 70
     0
  9
$DIMBLK
  1

  9
$DIMASO
 70
     1
  9
$DIMSHO
 70
     1
  9
$DIMPOST
  1

  9
$DIMAPOST
  1

  9
$DIMALT
 70
     0
  9
$DIMALTD
 70
     2
  9
$DIMALTF
 40
25.4
  9
$DIMLFAC
 40
1.0
  9
$DIMTOFL
 70
     1
  9
$DIMTVP
 40
0.0
  9
$DIMTIX
 70
     0
  9
$DIMSOXD
 70
     0
  9
$DIMSAH
 70
     1
  9
$DIMBLK1
  1
OPEN30
  9
$DIMBLK2
  1
OPEN30
  9
$DIMSTYLE
  2
STANDARD
  9
$DIMCLRD
 70
     0
  9
$DIMCLRE
 70
     0
  9
$DIMCLRT
 70
     0
  9
$DIMTFAC
 40
1.0
  9
$DIMGAP
 40
0.5
  9
$DIMJUST
 70
     0
  9
$DIMSD1
 70
     0
  9
$DIMSD2
 70
     0
  9
$DIMTOLJ
 70
     1
  9
$DIMTZIN
 70
     0
  9
$DIMALTZ
 70
     0
  9
$DIMALTTZ
 70
     0
  9
$DIMUPT
 70
     0
  9
$DIMDEC
 70
     4
  9
$DIMTDEC
 70
     4
  9
$DIMALTU
 70
     2
  9
$DIMALTTD
 70
     2
  9
$DIMTXSTY
  7
Standard
  9
$DIMAUNIT
 70
     0
  9
$DIMADEC
 70
     0
  9
$DIMALTRND
 40
0.0
  9
$DIMAZIN
 70
     0
  9
$DIMDSEP
 70
    46
  9
$DIMATFIT
 70
     3
  9
$DIMFRAC
 70
     0
  9
$DIMLDRBLK
  1
OPEN30
  9
$DIMLUNIT
 70
     2
  9
$DIMLWD
 70
    -2
  9
$DIMLWE
 70
    -2
  9
$DIMTMOVE
 70
     0
  9
$LUNITS
 70
     2
  9
$LUPREC
 70
     4
  9
$SKETCHINC
 40
1.0
  9
$FILLETRAD
 40
0.0
  9
$AUNITS
 70
     0
  9
$AUPREC
 70
     0
  9
$MENU
  1
.
  9
$ELEVATION
 40
0.0
  9
$PELEVATION
 40
0.0
  9
$THICKNESS
 40
0.0
  9
$LIMCHECK
 70
     0
  9
$CHAMFERA
 40
0.0
  9
$CHAMFERB
 40
0.0
  9
$CHAMFERC
 40
0.0
  9
$CHAMFERD
 40
0.0
  9
$SKPOLY
 70
     0
  9
$TDCREATE
 40
2454349.434269746
  9
$TDUCREATE
 40
2454349.059269746
  9
$TDUPDATE
 40
2454803.581484375
  9
$TDUUPDATE
 40
2454803.206484375
  9
$TDINDWG
 40
1.2242775347
  9
$TDUSRTIMER
 40
1.2242775347
  9
$USRTIMER
 70
     1
  9
$ANGBASE
 50
0.0
  9
$ANGDIR
 70
     0
  9
$PDMODE
 70
     0
  9
$PDSIZE
 40
0.0
  9
$PLINEWID
 40
0.0
  9
$SPLFRAME
 70
     0
  9
$SPLINETYPE
 70
     6
  9
$SPLINESEGS
 70
     8
  9
$HANDSEED
  5
38A
  9
$SURFTAB1
 70
     6
  9
$SURFTAB2
 70
     6
  9
$SURFTYPE
 70
     6
  9
$SURFU
 70
     6
  9
$SURFV
 70
     6
  9
$UCSBASE
  2

  9
$UCSNAME
  2

  9
$UCSORG
 10
0.0
 20
0.0
 30
0.0
  9
$UCSXDIR
 10
1.0
 20
0.0
 30
0.0
  9
$UCSYDIR
 10
0.0
 20
1.0
 30
0.0
  9
$UCSORTHOREF
  2

  9
$UCSORTHOVIEW
 70
     0
  9
$UCSORGTOP
 10
0.0
 20
0.0
 30
0.0
  9
$UCSORGBOTTOM
 10
0.0
 20
0.0
 30
0.0
  9
$UCSORGLEFT
 10
0.0
 20
0.0
 30
0.0
  9
$UCSORGRIGHT
 10
0.0
 20
0.0
 30
0.0
  9
$UCSORGFRONT
 10
0.0
 20
0.0
 30
0.0
  9
$UCSORGBACK
 10
0.0
 20
0.0
 30
0.0
  9
$PUCSBASE
  2

  9
$PUCSNAME
  2

  9
$PUCSORG
 10
0.0
 20
0.0
 30
0.0
  9
$PUCSXDIR
 10
1.0
 20
0.0
 30
0.0
  9
$PUCSYDIR
 10
0.0
 20
1.0
 30
0.0
  9
$PUCSORTHOREF
  2

  9
$PUCSORTHOVIEW
 70
     0
  9
$PUCSORGTOP
 10
0.0
 20
0.0
 30
0.0
  9
$PUCSORGBOTTOM
 10
0.0
 20
0.0
 30
0.0
  9
$PUCSORGLEFT
 10
0.0
 20
0.0
 30
0.0
  9
$PUCSORGRIGHT
 10
0.0
 20
0.0
 30
0.0
  9
$PUCSORGFRONT
 10
0.0
 20
0.0
 30
0.0
  9
$PUCSORGBACK
 10
0.0
 20
0.0
 30
0.0
  9
$USERI1
 70
     0
  9
$USERI2
 70
     0
  9
$USERI3
 70
     0
  9
$USERI4
 70
     0
  9
$USERI5
 70
     0
  9
$USERR1
 40
0.0
  9
$USERR2
 40
0.0
  9
$USERR3
 40
0.0
  9
$USERR4
 40
0.0
  9
$USERR5
 40
0.0
  9
$WORLDVIEW
 70
     1
  9
$SHADEDGE
 70
     3
  9
$SHADEDIF
 70
    70
  9
$TILEMODE
 70
     1
  9
$MAXACTVP
 70
    64
  9
$PINSBASE
 10
0.0
 20
0.0
 30
0.0
  9
$PLIMCHECK
 70
     0
  9
$PEXTMIN
 10
0.0
 20
0.0
 30
0.0
  9
$PEXTMAX
 10
0.0
 20
0.0
 30
0.0
  9
$PLIMMIN
 10
0.0
 20
0.0
  9
$PLIMMAX
 10
12.0
 20
9.0
  9
$UNITMODE
 70
     0
  9
$VISRETAIN
 70
     1
  9
$PLINEGEN
 70
     0
  9
$PSLTSCALE
 70
     1
  9
$TREEDEPTH
 70
  3020
  9
$CMLSTYLE
  2
Standard
  9
$CMLJUST
 70
     0
  9
$CMLSCALE
 40
20.0
  9
$PROXYGRAPHICS
 70
     1
  9
$MEASUREMENT
 70
     1
  9
$CELWEIGHT
370
    -1
  9
$ENDCAPS
280
     0
  9
$JOINSTYLE
280
     0
  9
$LWDISPLAY
290
     0
  9
$INSUNITS
 70
     4
  9
$HYPERLINKBASE
  1

  9
$STYLESHEET
  1

  9
$XEDIT
290
     1
  9
$CEPSNTYPE
380
     0
  9
$PSTYLEMODE
290
     1
  9
$FINGERPRINTGUID
  2
{FDEAD578-A652-11D2-9A35-0060089B3A3F}
  9
$VERSIONGUID
  2
{63DC0F71-5347-4A0F-A250-7D53F660B054}
  9
$EXTNAMES
290
     1
  9
$PSVPSCALE
 40
0.0
  9
$OLESTARTUP
290
     0
  0
ENDSEC
  0
SECTION
  2
CLASSES
  0
CLASS
  1
ACDBDICTIONARYWDFLT
  2
AcDbDictionaryWithDefault
  3
ObjectDBX Classes
 90
        0
280
     0
281
     0
  0
CLASS
  1
ACDBPLACEHOLDER
  2
AcDbPlaceHolder
  3
ObjectDBX Classes
 90
        0
280
     0
281
     0
  0
CLASS
  1
LAYOUT
  2
AcDbLayout
  3
ObjectDBX Classes
 90
        0
280
     0
281
     0
  0
CLASS
  1
DICTIONARYVAR
  2
AcDbDictionaryVar
  3
ObjectDBX Classes
 90
        0
280
     0
281
     0
  0
CLASS
  1
DIMASSOC
  2
AcDbDimAssoc
  3
"AcDbDimAssoc|Product Desc:     AcDim ARX App For Dimension|Company:          Autodesk, Inc.|WEB Address:      www.autodesk.com"
 90
    32768
280
     0
281
     0
  0
CLASS
  1
SORTENTSTABLE
  2
AcDbSortentsTable
  3
ObjectDBX Classes
 90
    32768
280
     0
281
     0
  0
ENDSEC
  0
SECTION
  2
TABLES
  0
TABLE
  2
VPORT
  5
1B
330
0
100
AcDbSymbolTable
 70
     3
  0
VPORT
  5
382
330
1B
100
AcDbSymbolTableRecord
100
AcDbViewportTableRecord
  2
*Active
 70
     0
 10
0.0
 20
0.0
 11
1.0
 21
1.0
 12
1.204834719194199
 22
4.046951817286867
 13
0.0
 23
0.0
 14
10.0
 24
10.0
 15
10.0
 25
10.0
 16
0.0
 26
0.0
 36
1.0
 17
0.0
 27
0.0
 37
0.0
 40
113.8973737642472
 41
1.387886597938144
 42
50.0
 43
0.0
 44
0.0
 50
0.0
 51
0.0
 71
     0
 72
  1000
 73
     1
 74
     2
 75
     0
 76
     0
 77
     0
 78
     0
281
     0
 65
     1
110
0.0
120
0.0
130
0.0
111
1.0
121
0.0
131
0.0
112
0.0
122
1.0
132
0.0
 79
     0
146
0.0
  0
ENDTAB
  0
TABLE
  2
LTYPE
  5
16
330
0
100
AcDbSymbolTable
 70
     1
  0
LTYPE
  5
17
330
16
100
AcDbSymbolTableRecord
100
AcDbLinetypeTableRecord
  2
ByBlock
 70
     0
  3

 72
    65
 73
     0
 40
0.0
  0
LTYPE
  5
18
330
16
100
AcDbSymbolTableRecord
100
AcDbLinetypeTableRecord
  2
ByLayer
 70
     0
  3

 72
    65
 73
     0
 40
0.0
  0
LTYPE
  5
8
330
16
100
AcDbSymbolTableRecord
100
AcDbLinetypeTableRecord
  2
Continuous
 70
     0
  3
Solid line
 72
    65
 73
     0
 40
0.0
  0
ENDTAB
  0
TABLE
  2
LAYER
  5
10
102
{ACAD_XDICTIONARY
360
11
102
}
330
0
100
AcDbSymbolTable
 70
     7
  0
LAYER
  5
4
330
10
100
AcDbSymbolTableRecord
100
AcDbLayerTableRecord
  2
0
 70
     0
 62
     7
  6
Continuous
370
    -3
390
5
  0
LAYER
  5
2D
330
10
100
AcDbSymbolTableRecord
100
AcDbLayerTableRecord
  2
WAKU
 70
     0
 62
     4
  6
Continuous
370
    -3
390
5
  0
LAYER
  5
318
330
10
100
AcDbSymbolTableRecord
100
AcDbLayerTableRecord
  2
MOJI1
 70
     0
 62
     2
  6
Continuous
370
    -3
390
5
  0
LAYER
  5
316
330
10
100
AcDbSymbolTableRecord
100
AcDbLayerTableRecord
  2
TOUROKU
 70
     0
 62
     1
  6
Continuous
370
    -3
390
5
  0
LAYER
  5
30
330
10
100
AcDbSymbolTableRecord
100
AcDbLayerTableRecord
  2
GAIKEI
 70
     0
 62
     7
  6
Continuous
370
    -3
390
5
  0
LAYER
  5
32
330
10
100
AcDbSymbolTableRecord
100
AcDbLayerTableRecord
  2
SUNPO
 70
     0
 62
     3
  6
Continuous
370
    -3
390
5
  0
LAYER
  5
3E
330
10
100
AcDbSymbolTableRecord
100
AcDbLayerTableRecord
  2
Defpoints
 70
     0
 62
     7
  6
Continuous
290
     0
370
    -3
390
5
  0
ENDTAB
  0
TABLE
  2
STYLE
  5
13
330
0
100
AcDbSymbolTable
 70
     1
  0
STYLE
  5
14
330
13
100
AcDbSymbolTableRecord
100
AcDbTextStyleTableRecord
  2
Standard
 70
     0
 40
0.0
 41
1.0
 50
0.0
 71
     0
 42
2.5
  3
MONOTXT.shx
  4
BIGFONT.shx
  0
ENDTAB
  0
TABLE
  2
VIEW
  5
19
330
0
100
AcDbSymbolTable
 70
     0
  0
ENDTAB
  0
TABLE
  2
UCS
  5
1A
330
0
100
AcDbSymbolTable
 70
     0
  0
ENDTAB
  0
TABLE
  2
APPID
  5
1D
330
0
100
AcDbSymbolTable
 70
     1
  0
APPID
  5
1E
330
1D
100
AcDbSymbolTableRecord
100
AcDbRegAppTableRecord
  2
ACAD
 70
     0
  0
ENDTAB
  0
TABLE
  2
DIMSTYLE
  5
1F
330
0
100
AcDbSymbolTable
 70
     1
100
AcDbDimStyleTable
 71
     1
340
20
  0
DIMSTYLE
105
20
102
{ACAD_REACTORS
330
2FB
330
308
330
2B9
330
31
102
}
330
1F
100
AcDbSymbolTableRecord
100
AcDbDimStyleTableRecord
  2
STANDARD
 70
     0
 40
0.0
 41
2.0
 42
2.0
 43
8.0
 44
2.0
 73
     0
 74
     0
 77
     3
140
3.0
141
0.0
173
     1
279
     2
288
     1
340
14
341
21
343
21
344
21
  0
ENDTAB
  0
TABLE
  2
BLOCK_RECORD
  5
1
330
0
100
AcDbSymbolTable
 70
     9
  0
BLOCK_RECORD
  5
2
330
1
100
AcDbSymbolTableRecord
100
AcDbBlockTableRecord
  2
*Model_Space
340
A
  0
BLOCK_RECORD
  5
C
330
1
100
AcDbSymbolTableRecord
100
AcDbBlockTableRecord
  2
*Paper_Space
340
F
  0
BLOCK_RECORD
  5
21
330
1
100
AcDbSymbolTableRecord
100
AcDbBlockTableRecord
  2
_OPEN30
340
0
102
{BLKREFS
331
2BF
331
2C0
331
301
331
302
331
30E
331
30F
331
3A
331
3B
331
350
331
351
331
35C
331
35D
331
368
331
369
331
376
331
377
102
}
  0
BLOCK_RECORD
  5
2FC
330
1
100
AcDbSymbolTableRecord
100
AcDbBlockTableRecord
  2
*D1
340
0
  0
BLOCK_RECORD
  5
309
330
1
100
AcDbSymbolTableRecord
100
AcDbBlockTableRecord
  2
*D2
340
0
  0
BLOCK_RECORD
  5
2BA
330
1
100
AcDbSymbolTableRecord
100
AcDbBlockTableRecord
  2
*D3
340
0
  0
BLOCK_RECORD
  5
33
330
1
100
AcDbSymbolTableRecord
100
AcDbBlockTableRecord
  2
*D4
340
0
  0
BLOCK_RECORD
  5
34C
330
1
100
AcDbSymbolTableRecord
100
AcDbBlockTableRecord
  2
*D5
340
0
  0
BLOCK_RECORD
  5
358
330
1
100
AcDbSymbolTableRecord
100
AcDbBlockTableRecord
  2
*D6
340
0
  0
BLOCK_RECORD
  5
364
330
1
100
AcDbSymbolTableRecord
100
AcDbBlockTableRecord
  2
*D7
340
0
  0
BLOCK_RECORD
  5
370
330
1
100
AcDbSymbolTableRecord
100
AcDbBlockTableRecord
  2
*D8
340
0
  0
ENDTAB
  0
ENDSEC
  0
SECTION
  2
BLOCKS
  0
BLOCK
  5
3
330
2
100
AcDbEntity
  8
0
100
AcDbBlockBegin
  2
*Model_Space
 70
     0
 10
0.0
 20
0.0
 30
0.0
  3
*Model_Space
  1

  0
ENDBLK
  5
9
330
2
100
AcDbEntity
  8
0
100
AcDbBlockEnd
  0
BLOCK
  5
D
330
C
100
AcDbEntity
 67
     1
  8
0
100
AcDbBlockBegin
  2
*Paper_Space
 70
     0
 10
0.0
 20
0.0
 30
0.0
  3
*Paper_Space
  1

  0
ENDBLK
  5
E
330
C
100
AcDbEntity
 67
     1
  8
0
100
AcDbBlockEnd
  0
BLOCK
  5
22
330
21
100
AcDbEntity
  8
0
100
AcDbBlockBegin
  2
_OPEN30
 70
     0
 10
0.0
 20
0.0
 30
0.0
  3
_OPEN30
  1

  0
LINE
  5
23
330
21
100
AcDbEntity
  8
0
  6
ByBlock
 62
     0
100
AcDbLine
 10
-1.0
 20
0.26794919
 30
0.0
 11
0.0
 21
0.0
 31
0.0
  0
LINE
  5
24
330
21
100
AcDbEntity
  8
0
  6
ByBlock
 62
     0
100
AcDbLine
 10
0.0
 20
0.0
 30
0.0
 11
-1.0
 21
-0.26794919
 31
0.0
  0
LINE
  5
25
330
21
100
AcDbEntity
  8
0
  6
ByBlock
 62
     0
100
AcDbLine
 10
0.0
 20
0.0
 30
0.0
 11
-1.0
 21
0.0
 31
0.0
  0
ENDBLK
  5
26
330
21
100
AcDbEntity
  8
0
100
AcDbBlockEnd
  0
BLOCK
  5
2FD
330
2FC
100
AcDbEntity
  8
0
100
AcDbBlockBegin
  2
*D1
 70
     1
 10
0.0
 20
0.0
 30
0.0
  3
*D1
  1

  0
LINE
  5
2FE
330
2FC
100
AcDbEntity
  8
SUNPO
 62
     0
370
    -2
100
AcDbLine
 10
21.6694756151265
 20
218.37039560891
 30
0.0
 11
21.6694756151265
 21
226.37039560891
 31
0.0
  0
LINE
  5
2FF
330
2FC
100
AcDbEntity
  8
SUNPO
 62
     0
370
    -2
100
AcDbLine
 10
72.66947561512655
 20
218.37039560891
 30
0.0
 11
72.66947561512655
 21
226.37039560891
 31
0.0
  0
LINE
  5
300
330
2FC
100
AcDbEntity
  8
SUNPO
 62
     0
370
    -2
100
AcDbLine
 10
23.6694756151265
 20
224.37039560891
 30
0.0
 11
70.66947561512655
 21
224.37039560891
 31
0.0
  0
INSERT
  5
301
330
2FC
100
AcDbEntity
  8
SUNPO
 62
     0
370
    -2
100
AcDbBlockReference
  2
_OPEN30
 10
21.6694756151265
 20
224.37039560891
 30
0.0
 41
2.0
 42
2.0
 43
2.0
 50
180.0
  0
INSERT
  5
302
330
2FC
100
AcDbEntity
  8
SUNPO
 62
     0
370
    -2
100
AcDbBlockReference
  2
_OPEN30
 10
72.66947561512655
 20
224.37039560891
 30
0.0
 41
2.0
 42
2.0
 43
2.0
  0
MTEXT
  5
303
330
2FC
100
AcDbEntity
  8
SUNPO
 62
     0
100
AcDbMText
 10
47.16947561512653
 20
226.12039560891
 30
0.0
 40
2.5
 41
0.0
 71
     5
 72
     1
  1
\A1;1020
 73
     1
 44
1.0
1001
ACAD
1000
MTEXTBEGIN
1070
    73
1070
     1
1070
    44
1040
1.0
1070
    74
1070
     0
1000
MTEXTEND
  0
POINT
  5
304
330
2FC
100
AcDbEntity
  8
Defpoints
 62
     0
100
AcDbPoint
 10
21.6694756151265
 20
216.37039560891
 30
0.0
  0
POINT
  5
305
330
2FC
100
AcDbEntity
  8
Defpoints
 62
     0
100
AcDbPoint
 10
72.66947561512655
 20
216.37039560891
 30
0.0
  0
POINT
  5
306
330
2FC
100
AcDbEntity
  8
Defpoints
 62
     0
100
AcDbPoint
 10
72.66947561512655
 20
224.37039560891
 30
0.0
  0
ENDBLK
  5
307
330
2FC
100
AcDbEntity
  8
0
100
AcDbBlockEnd
  0
BLOCK
  5
30A
330
309
100
AcDbEntity
  8
0
100
AcDbBlockBegin
  2
*D2
 70
     1
 10
0.0
 20
0.0
 30
0.0
  3
*D2
  1

  0
LINE
  5
30B
330
309
100
AcDbEntity
  8
SUNPO
 62
     0
370
    -2
100
AcDbLine
 10
79.91871301829037
 20
216.3638560700233
 30
0.0
 11
87.91871301829038
 21
216.3638560700233
 31
0.0
  0
LINE
  5
30C
330
309
100
AcDbEntity
  8
SUNPO
 62
     0
370
    -2
100
AcDbLine
 10
79.91871301829037
 20
185.8638560700233
 30
0.0
 11
87.91871301829038
 21
185.8638560700233
 31
0.0
  0
LINE
  5
30D
330
309
100
AcDbEntity
  8
SUNPO
 62
     0
370
    -2
100
AcDbLine
 10
85.91871301829037
 20
214.3638560700233
 30
0.0
 11
85.91871301829037
 21
187.8638560700233
 31
0.0
  0
INSERT
  5
30E
330
309
100
AcDbEntity
  8
SUNPO
 62
     0
370
    -2
100
AcDbBlockReference
  2
_OPEN30
 10
85.91871301829037
 20
216.3638560700233
 30
0.0
 41
2.0
 42
2.0
 43
2.0
 50
90.0
  0
INSERT
  5
30F
330
309
100
AcDbEntity
  8
SUNPO
 62
     0
370
    -2
100
AcDbBlockReference
  2
_OPEN30
 10
85.91871301829037
 20
185.8638560700233
 30
0.0
 41
2.0
 42
2.0
 43
2.0
 50
270.0
  0
MTEXT
  5
310
330
309
100
AcDbEntity
  8
SUNPO
 62
     0
100
AcDbMText
 10
84.16871301829035
 20
201.1138560700234
 30
0.0
 40
2.5
 41
0.0
 71
     5
 72
     1
  1
\A1;610
 11
0.0000000000000001
 21
1.0
 31
0.0
 73
     1
 44
1.0
1001
ACAD
1000
MTEXTBEGIN
1070
    73
1070
     1
1070
    44
1040
1.0
1070
    74
1070
     0
1000
MTEXTEND
  0
POINT
  5
311
330
309
100
AcDbEntity
  8
Defpoints
 62
     0
100
AcDbPoint
 10
77.91871301829037
 20
216.3638560700233
 30
0.0
  0
POINT
  5
312
330
309
100
AcDbEntity
  8
Defpoints
 62
     0
100
AcDbPoint
 10
77.91871301829037
 20
185.8638560700233
 30
0.0
  0
POINT
  5
313
330
309
100
AcDbEntity
  8
Defpoints
 62
     0
100
AcDbPoint
 10
85.91871301829037
 20
185.8638560700233
 30
0.0
  0
ENDBLK
  5
314
330
309
100
AcDbEntity
  8
0
100
AcDbBlockEnd
  0
BLOCK
  5
2BB
330
2BA
100
AcDbEntity
  8
0
100
AcDbBlockBegin
  2
*D3
 70
     1
 10
0.0
 20
0.0
 30
0.0
  3
*D3
  1

  0
LINE
  5
2BC
330
2BA
100
AcDbEntity
  8
SUNPO
 62
     0
370
    -2
100
AcDbLine
 10
16.41945976536661
 20
218.3392331955555
 30
0.0
 11
16.41945976536661
 21
232.3703956089101
 31
0.0
  0
LINE
  5
2BD
330
2BA
100
AcDbEntity
  8
SUNPO
 62
     0
370
    -2
100
AcDbLine
 10
77.91949146488652
 20
218.3265719378579
 30
0.0
 11
77.91949146488652
 21
232.3703956089101
 31
0.0
  0
LINE
  5
2BE
330
2BA
100
AcDbEntity
  8
SUNPO
 62
     0
370
    -2
100
AcDbLine
 10
18.41945976536661
 20
230.3703956089101
 30
0.0
 11
75.91949146488651
 21
230.3703956089101
 31
0.0
  0
INSERT
  5
2BF
330
2BA
100
AcDbEntity
  8
SUNPO
 62
     0
370
    -2
100
AcDbBlockReference
  2
_OPEN30
 10
16.41945976536661
 20
230.3703956089101
 30
0.0
 41
2.0
 42
2.0
 43
2.0
 50
180.0
  0
INSERT
  5
2C0
330
2BA
100
AcDbEntity
  8
SUNPO
 62
     0
370
    -2
100
AcDbBlockReference
  2
_OPEN30
 10
77.91949146488652
 20
230.3703956089101
 30
0.0
 41
2.0
 42
2.0
 43
2.0
  0
MTEXT
  5
2C1
330
2BA
100
AcDbEntity
  8
SUNPO
 62
     0
100
AcDbMText
 10
47.16947561512657
 20
232.12039560891
 30
0.0
 40
2.5
 41
0.0
 71
     5
 72
     1
  1
\A1;1230
 73
     1
 44
1.0
1001
ACAD
1000
MTEXTBEGIN
1070
    73
1070
     1
1070
    44
1040
1.0
1070
    74
1070
     0
1000
MTEXTEND
  0
POINT
  5
2C2
330
2BA
100
AcDbEntity
  8
Defpoints
 62
     0
100
AcDbPoint
 10
16.41945976536661
 20
216.3392331955555
 30
0.0
  0
POINT
  5
2C3
330
2BA
100
AcDbEntity
  8
Defpoints
 62
     0
100
AcDbPoint
 10
77.91949146488652
 20
216.3265719378579
 30
0.0
  0
POINT
  5
2C4
330
2BA
100
AcDbEntity
  8
Defpoints
 62
     0
100
AcDbPoint
 10
77.91949146488652
 20
230.3703956089101
 30
0.0
  0
ENDBLK
  5
2C5
330
2BA
100
AcDbEntity
  8
0
100
AcDbBlockEnd
  0
BLOCK
  5
34
330
33
100
AcDbEntity
  8
0
100
AcDbBlockBegin
  2
*D4
 70
     1
 10
0.0
 20
0.0
 30
0.0
  3
*D4
  1

  0
LINE
  5
35
330
33
100
AcDbEntity
  8
SUNPO
 62
     0
370
    -2
100
AcDbLine
 10
99.20731644685172
 20
218.3703956089099
 30
0.0
 11
99.20731644685172
 21
226.37039560891
 31
0.0
  0
LINE
  5
36
330
33
100
AcDbEntity
  8
SUNPO
 62
     0
370
    -2
100
AcDbLine
 10
103.6573164468517
 20
218.37039560891
 30
0.0
 11
103.6573164468517
 21
226.37039560891
 31
0.0
  0
LINE
  5
37
330
33
100
AcDbEntity
  8
SUNPO
 62
     0
370
    -2
100
AcDbLine
 10
97.20731644685173
 20
224.37039560891
 30
0.0
 11
95.20731644685172
 21
224.37039560891
 31
0.0
  0
LINE
  5
38
330
33
100
AcDbEntity
  8
SUNPO
 62
     0
370
    -2
100
AcDbLine
 10
105.6573164468517
 20
224.37039560891
 30
0.0
 11
112.8239831135184
 21
224.37039560891
 31
0.0
  0
LINE
  5
39
330
33
100
AcDbEntity
  8
SUNPO
 62
     0
370
    -2
100
AcDbLine
 10
99.20731644685172
 20
224.37039560891
 30
0.0
 11
103.6573164468517
 21
224.37039560891
 31
0.0
  0
INSERT
  5
3A
330
33
100
AcDbEntity
  8
SUNPO
 62
     0
370
    -2
100
AcDbBlockReference
  2
_OPEN30
 10
99.20731644685172
 20
224.37039560891
 30
0.0
 41
2.0
 42
2.0
 43
2.0
  0
INSERT
  5
3B
330
33
100
AcDbEntity
  8
SUNPO
 62
     0
370
    -2
100
AcDbBlockReference
  2
_OPEN30
 10
103.6573164468517
 20
224.37039560891
 30
0.0
 41
2.0
 42
2.0
 43
2.0
 50
180.0
  0
MTEXT
  5
3C
330
33
100
AcDbEntity
  8
SUNPO
 62
     0
100
AcDbMText
 10
110.240649780185
 20
226.12039560891
 30
0.0
 40
2.5
 41
0.0
 71
     5
 72
     1
  1
\A1;89
 73
     1
 44
1.0
1001
ACAD
1000
MTEXTBEGIN
1070
    73
1070
     1
1070
    44
1040
1.0
1070
    74
1070
     0
1000
MTEXTEND
  0
POINT
  5
3D
330
33
100
AcDbEntity
  8
Defpoints
 62
     0
100
AcDbPoint
 10
99.20731644685172
 20
216.3703956089099
 30
0.0
  0
POINT
  5
3F
330
33
100
AcDbEntity
  8
Defpoints
 62
     0
100
AcDbPoint
 10
103.6573164468517
 20
216.37039560891
 30
0.0
  0
POINT
  5
40
330
33
100
AcDbEntity
  8
Defpoints
 62
     0
100
AcDbPoint
 10
103.6573164468517
 20
224.37039560891
 30
0.0
  0
ENDBLK
  5
41
330
33
100
AcDbEntity
  8
0
100
AcDbBlockEnd
  0
BLOCK
  5
356
330
34C
100
AcDbEntity
  8
0
100
AcDbBlockBegin
  2
*D5
 70
     1
 10
0.0
 20
0.0
 30
0.0
  3
*D5
  1

  0
LINE
  5
34D
330
34C
100
AcDbEntity
  8
SUNPO
 62
     0
370
    -2
100
AcDbLine
 10
16.12220209543166
 20
32.41903465451224
 30
0.0
 11
24.12220209543167
 21
32.41903465451224
 31
0.0
  0
LINE
  5
34E
330
34C
100
AcDbEntity
  8
SUNPO
 62
     0
370
    -2
100
AcDbLine
 10
16.12220209543166
 20
1.919034654512244
 30
0.0
 11
24.12220209543166
 21
1.919034654512242
 31
0.0
  0
LINE
  5
34F
330
34C
100
AcDbEntity
  8
SUNPO
 62
     0
370
    -2
100
AcDbLine
 10
22.12220209543167
 20
30.41903465451224
 30
0.0
 11
22.12220209543166
 21
3.919034654512243
 31
0.0
  0
INSERT
  5
350
330
34C
100
AcDbEntity
  8
SUNPO
 62
     0
370
    -2
100
AcDbBlockReference
  2
_OPEN30
 10
22.12220209543167
 20
32.41903465451224
 30
0.0
 41
2.0
 42
2.0
 43
2.0
 50
90.0
  0
INSERT
  5
351
330
34C
100
AcDbEntity
  8
SUNPO
 62
     0
370
    -2
100
AcDbBlockReference
  2
_OPEN30
 10
22.12220209543166
 20
1.919034654512243
 30
0.0
 41
2.0
 42
2.0
 43
2.0
 50
270.0
  0
MTEXT
  5
352
330
34C
100
AcDbEntity
  8
SUNPO
 62
     0
100
AcDbMText
 10
20.37220209543166
 20
17.16903465451224
 30
0.0
 40
2.5
 41
0.0
 71
     5
 72
     1
  1
\A1;610
 11
0.0000000000000001
 21
1.0
 31
0.0
 73
     1
 44
1.0
1001
ACAD
1000
MTEXTBEGIN
1070
    73
1070
     1
1070
    44
1040
1.0
1070
    74
1070
     0
1000
MTEXTEND
  0
POINT
  5
353
330
34C
100
AcDbEntity
  8
Defpoints
 62
     0
100
AcDbPoint
 10
14.12220209543166
 20
32.41903465451225
 30
0.0
  0
POINT
  5
354
330
34C
100
AcDbEntity
  8
Defpoints
 62
     0
100
AcDbPoint
 10
14.12220209543166
 20
1.919034654512245
 30
0.0
  0
POINT
  5
355
330
34C
100
AcDbEntity
  8
Defpoints
 62
     0
100
AcDbPoint
 10
22.12220209543166
 20
1.919034654512243
 30
0.0
  0
ENDBLK
  5
357
330
34C
100
AcDbEntity
  8
0
100
AcDbBlockEnd
  0
BLOCK
  5
362
330
358
100
AcDbEntity
  8
0
100
AcDbBlockBegin
  2
*D6
 70
     1
 10
0.0
 20
0.0
 30
0.0
  3
*D6
  1

  0
LINE
  5
359
330
358
100
AcDbEntity
  8
SUNPO
 62
     0
370
    -2
100
AcDbLine
 10
-42.12703530773221
 20
34.42557419339892
 30
0.0
 11
-42.12703530773221
 21
42.42557419339891
 31
0.0
  0
LINE
  5
35A
330
358
100
AcDbEntity
  8
SUNPO
 62
     0
370
    -2
100
AcDbLine
 10
8.872964692267842
 20
34.42557419339892
 30
0.0
 11
8.872964692267842
 21
42.42557419339891
 31
0.0
  0
LINE
  5
35B
330
358
100
AcDbEntity
  8
SUNPO
 62
     0
370
    -2
100
AcDbLine
 10
-40.12703530773221
 20
40.42557419339892
 30
0.0
 11
6.872964692267842
 21
40.42557419339892
 31
0.0
  0
INSERT
  5
35C
330
358
100
AcDbEntity
  8
SUNPO
 62
     0
370
    -2
100
AcDbBlockReference
  2
_OPEN30
 10
-42.12703530773221
 20
40.42557419339892
 30
0.0
 41
2.0
 42
2.0
 43
2.0
 50
180.0
  0
INSERT
  5
35D
330
358
100
AcDbEntity
  8
SUNPO
 62
     0
370
    -2
100
AcDbBlockReference
  2
_OPEN30
 10
8.872964692267842
 20
40.42557419339892
 30
0.0
 41
2.0
 42
2.0
 43
2.0
  0
MTEXT
  5
35E
330
358
100
AcDbEntity
  8
SUNPO
 62
     0
100
AcDbMText
 10
-16.62703530773218
 20
42.17557419339891
 30
0.0
 40
2.5
 41
0.0
 71
     5
 72
     1
  1
\A1;1020
 73
     1
 44
1.0
1001
ACAD
1000
MTEXTBEGIN
1070
    73
1070
     1
1070
    44
1040
1.0
1070
    74
1070
     0
1000
MTEXTEND
  0
POINT
  5
35F
330
358
100
AcDbEntity
  8
Defpoints
 62
     0
100
AcDbPoint
 10
-42.12703530773221
 20
32.42557419339892
 30
0.0
  0
POINT
  5
360
330
358
100
AcDbEntity
  8
Defpoints
 62
     0
100
AcDbPoint
 10
8.872964692267842
 20
32.42557419339892
 30
0.0
  0
POINT
  5
361
330
358
100
AcDbEntity
  8
Defpoints
 62
     0
100
AcDbPoint
 10
8.872964692267842
 20
40.42557419339892
 30
0.0
  0
ENDBLK
  5
363
330
358
100
AcDbEntity
  8
0
100
AcDbBlockEnd
  0
BLOCK
  5
36E
330
364
100
AcDbEntity
  8
0
100
AcDbBlockBegin
  2
*D7
 70
     1
 10
0.0
 20
0.0
 30
0.0
  3
*D7
  1

  0
LINE
  5
365
330
364
100
AcDbEntity
  8
SUNPO
 62
     0
370
    -2
100
AcDbLine
 10
-47.3770511574921
 20
34.39441178004444
 30
0.0
 11
-47.3770511574921
 21
48.42557419339894
 31
0.0
  0
LINE
  5
366
330
364
100
AcDbEntity
  8
SUNPO
 62
     0
370
    -2
100
AcDbLine
 10
14.1229805420278
 20
34.38175052234683
 30
0.0
 11
14.1229805420278
 21
48.42557419339894
 31
0.0
  0
LINE
  5
367
330
364
100
AcDbEntity
  8
SUNPO
 62
     0
370
    -2
100
AcDbLine
 10
-45.3770511574921
 20
46.42557419339894
 30
0.0
 11
12.1229805420278
 21
46.42557419339894
 31
0.0
  0
INSERT
  5
368
330
364
100
AcDbEntity
  8
SUNPO
 62
     0
370
    -2
100
AcDbBlockReference
  2
_OPEN30
 10
-47.3770511574921
 20
46.42557419339894
 30
0.0
 41
2.0
 42
2.0
 43
2.0
 50
180.0
  0
INSERT
  5
369
330
364
100
AcDbEntity
  8
SUNPO
 62
     0
370
    -2
100
AcDbBlockReference
  2
_OPEN30
 10
14.1229805420278
 20
46.42557419339894
 30
0.0
 41
2.0
 42
2.0
 43
2.0
  0
MTEXT
  5
36A
330
364
100
AcDbEntity
  8
SUNPO
 62
     0
100
AcDbMText
 10
-16.62703530773215
 20
48.17557419339895
 30
0.0
 40
2.5
 41
0.0
 71
     5
 72
     1
  1
\A1;1230
 73
     1
 44
1.0
1001
ACAD
1000
MTEXTBEGIN
1070
    73
1070
     1
1070
    44
1040
1.0
1070
    74
1070
     0
1000
MTEXTEND
  0
POINT
  5
36B
330
364
100
AcDbEntity
  8
Defpoints
 62
     0
100
AcDbPoint
 10
-47.3770511574921
 20
32.39441178004444
 30
0.0
  0
POINT
  5
36C
330
364
100
AcDbEntity
  8
Defpoints
 62
     0
100
AcDbPoint
 10
14.1229805420278
 20
32.38175052234684
 30
0.0
  0
POINT
  5
36D
330
364
100
AcDbEntity
  8
Defpoints
 62
     0
100
AcDbPoint
 10
14.1229805420278
 20
46.42557419339894
 30
0.0
  0
ENDBLK
  5
36F
330
364
100
AcDbEntity
  8
0
100
AcDbBlockEnd
  0
BLOCK
  5
37C
330
370
100
AcDbEntity
  8
0
100
AcDbBlockBegin
  2
*D8
 70
     1
 10
0.0
 20
0.0
 30
0.0
  3
*D8
  1

  0
LINE
  5
371
330
370
100
AcDbEntity
  8
SUNPO
 62
     0
370
    -2
100
AcDbLine
 10
35.410805523993
 20
34.42557419339883
 30
0.0
 11
35.410805523993
 21
42.42557419339888
 31
0.0
  0
LINE
  5
372
330
370
100
AcDbEntity
  8
SUNPO
 62
     0
370
    -2
100
AcDbLine
 10
39.86080552399299
 20
34.42557419339889
 30
0.0
 11
39.86080552399299
 21
42.42557419339888
 31
0.0
  0
LINE
  5
373
330
370
100
AcDbEntity
  8
SUNPO
 62
     0
370
    -2
100
AcDbLine
 10
33.41080552399301
 20
40.42557419339888
 30
0.0
 11
31.41080552399301
 21
40.42557419339888
 31
0.0
  0
LINE
  5
374
330
370
100
AcDbEntity
  8
SUNPO
 62
     0
370
    -2
100
AcDbLine
 10
41.86080552399299
 20
40.42557419339888
 30
0.0
 11
49.02747219065966
 21
40.42557419339888
 31
0.0
  0
LINE
  5
375
330
370
100
AcDbEntity
  8
SUNPO
 62
     0
370
    -2
100
AcDbLine
 10
35.410805523993
 20
40.42557419339888
 30
0.0
 11
39.86080552399299
 21
40.42557419339888
 31
0.0
  0
INSERT
  5
376
330
370
100
AcDbEntity
  8
SUNPO
 62
     0
370
    -2
100
AcDbBlockReference
  2
_OPEN30
 10
35.410805523993
 20
40.42557419339888
 30
0.0
 41
2.0
 42
2.0
 43
2.0
  0
INSERT
  5
377
330
370
100
AcDbEntity
  8
SUNPO
 62
     0
370
    -2
100
AcDbBlockReference
  2
_OPEN30
 10
39.86080552399299
 20
40.42557419339888
 30
0.0
 41
2.0
 42
2.0
 43
2.0
 50
180.0
  0
MTEXT
  5
378
330
370
100
AcDbEntity
  8
SUNPO
 62
     0
100
AcDbMText
 10
46.44413885732633
 20
42.17557419339889
 30
0.0
 40
2.5
 41
0.0
 71
     5
 72
     1
  1
\A1;89
 73
     1
 44
1.0
1001
ACAD
1000
MTEXTBEGIN
1070
    73
1070
     1
1070
    44
1040
1.0
1070
    74
1070
     0
1000
MTEXTEND
  0
POINT
  5
379
330
370
100
AcDbEntity
  8
Defpoints
 62
     0
100
AcDbPoint
 10
35.410805523993
 20
32.42557419339883
 30
0.0
  0
POINT
  5
37A
330
370
100
AcDbEntity
  8
Defpoints
 62
     0
100
AcDbPoint
 10
39.86080552399299
 20
32.42557419339889
 30
0.0
  0
POINT
  5
37B
330
370
100
AcDbEntity
  8
Defpoints
 62
     0
100
AcDbPoint
 10
39.86080552399299
 20
40.42557419339888
 30
0.0
  0
ENDBLK
  5
37D
330
370
100
AcDbEntity
  8
0
100
AcDbBlockEnd
  0
ENDSEC
  0
SECTION
  2
ENTITIES
  0
SPLINE
  5
2F
330
2
100
AcDbEntity
  8
GAIKEI
  6
Continuous
 62
     7
100
AcDbSpline
210
0.0
220
0.0
230
1.0
 70
     8
 71
     3
 72
     9
 73
     5
 74
     0
 42
0.0000000001
 43
0.0000000001
 40
0.4051248010552526
 40
0.4051248010552526
 40
0.4051248010552526
 40
0.4051248010552526
 40
0.4298183528456367
 40
0.7088275979582635
 40
0.7088275979582635
 40
0.7088275979582635
 40
0.7088275979582635
 10
35.57932407256928
 20
2.040682472695237
 30
0.0
 10
35.57962978820204
 20
2.040403800330807
 30
0.0
 10
35.58341804449874
 20
2.037007419560552
 30
0.0
 10
35.58754791578357
 20
2.033999133120715
 30
0.0
 10
35.59155433603273
 20
2.031611564399611
 30
0.0
  0
DIMENSION
  5
31
330
2
100
AcDbEntity
  8
SUNPO
100
AcDbDimension
  2
*D8
 10
39.86080552399299
 20
40.42557419339888
 30
0.0
 11
46.44413885732633
 21
42.17557419339889
 31
0.0
 70
    33
  1
89
 71
     5
 42
4.449999999999988
  3
STANDARD
100
AcDbAlignedDimension
 13
35.410805523993
 23
32.42557419339883
 33
0.0
 14
39.86080552399299
 24
32.42557419339889
 34
0.0
1001
ACAD
1000
DSTYLE
1002
{
1070
    40
1040
1.0
1070
   140
1040
2.5
1070
   147
1040
0.5
1070
   172
1070
     1
1070
   279
1070
     0
1070
   288
1070
     0
1002
}
  0
SPLINE
  5
42
330
2
100
AcDbEntity
  8
GAIKEI
  6
Continuous
 62
     1
100
AcDbSpline
210
0.0
220
0.0
230
1.0
 70
     8
 71
     3
 72
    13
 73
     9
 74
     7
 42
0.0000000001
 43
0.0000000001
 44
0.000001
 12
0.002336703792241
 22
0.999997269903967
 32
0.0
 13
-0.138652950838807
 23
0.9903410317782917
 33
0.0
 40
0.0
 40
0.0
 40
0.0
 40
0.0
 40
0.0020017749448805
 40
0.0042716076519318
 40
0.0055400367420767
 40
0.0068510869171408
 40
0.0082198493805
 40
0.0096126794851029
 40
0.0096126794851029
 40
0.0096126794851029
 40
0.0096126794851029
 10
37.8758055103869
 20
31.88510779185637
 30
0.0
 10
37.87580706957193
 20
31.88577504834964
 30
0.0
 10
37.87579566657399
 20
31.88719896849756
 30
0.0
 10
37.87573940259165
 20
31.88904505751452
 30
0.0
 10
37.87564907865317
 20
31.8906590648138
 30
0.0
 10
37.87554885650067
 20
31.89197142739335
 30
0.0
 10
37.87541454734486
 20
31.89332244159982
 30
0.0
 10
37.87529981612504
 20
31.89423593216631
 30
0.0
 10
37.87523544279037
 20
31.89469572443395
 30
0.0
 11
37.8758055103869
 21
31.88510779185637
 31
0.0
 11
37.87578838904591
 21
31.88710925963673
 31
0.0
 11
37.87571623946821
 21
31.88937742555666
 31
0.0
 11
37.87564554024817
 21
31.89064361122601
 31
0.0
 11
37.87554595977411
 21
31.89195106854672
 31
0.0
 11
37.8754101933809
 21
31.89331357393129
 31
0.0
 11
37.87523544279037
 21
31.89469572443395
 31
0.0
  0
SPLINE
  5
43
330
2
100
AcDbEntity
  8
GAIKEI
  6
Continuous
 62
     1
100
AcDbSpline
210
0.0
220
0.0
230
1.0
 70
     8
 71
     3
 72
    10
 73
     6
 74
     4
 42
0.0000000001
 43
0.0000000001
 44
0.000001
 12
-0.9001372284021286
 22
-0.4356064393974616
 32
0.0
 13
-0.9086432649376275
 23
-0.4175732475668051
 33
0.0
 40
0.0
 40
0.0
 40
0.0
 40
0.0
 40
0.0017237068804576
 40
0.0028301971292327
 40
0.0029908778039435
 40
0.0029908778039435
 40
0.0029908778039435
 40
0.0029908778039435
 10
37.7911465183459
 20
31.69984741004717
 30
0.0
 10
37.79062932743457
 20
31.69959712410824
 30
0.0
 10
37.78977776809288
 20
31.69919104793448
 30
0.0
 10
37.78887387211957
 20
31.698770433931
 30
0.0
 10
37.78849016449479
 20
31.69859384945898
 30
0.0
 10
37.78844149735716
 20
31.69857148414192
 30
0.0
 11
37.7911465183459
 21
31.69984741004717
 31
0.0
 11
37.78959065533894
 21
31.69910547809351
 31
0.0
 11
37.78858746272846
 21
31.69863865824331
 31
0.0
 11
37.78844149735716
 21
31.69857148414192
 31
0.0
  0
SPLINE
  5
44
330
2
100
AcDbEntity
  8
GAIKEI
  6
Continuous
 62
     1
100
AcDbSpline
210
0.0
220
0.0
230
1.0
 70
     8
 71
     3
 72
     9
 73
     5
 74
     3
 42
0.0000000001
 43
0.0000000001
 44
0.000001
 12
-0.0021064809661593
 22
-0.9999977813665086
 32
0.0
 13
-0.3522343767909776
 23
-0.9359118248033155
 33
0.0
 40
0.0
 40
0.0
 40
0.0
 40
0.0
 40
0.0066439063925981
 40
0.0135095543784993
 40
0.0135095543784993
 40
0.0135095543784993
 40
0.0135095543784993
 10
39.68160073012517
 20
3.185601769681085
 30
0.0
 10
39.68159606503773
 20
3.18338713913036
 30
0.0
 10
39.68119673952552
 20
3.178875270747454
 30
0.0
 10
39.67998373886997
 20
3.174508790354224
 30
0.0
 10
39.67917763312345
 20
3.17236690997592
 30
0.0
 11
39.68160073012517
 21
3.185601769681085
 31
0.0
 11
39.68100748659013
 21
3.178984339828531
 31
0.0
 11
39.67917763312345
 21
3.17236690997592
 31
0.0
  0
SPLINE
  5
45
330
2
100
AcDbEntity
  8
GAIKEI
  6
Continuous
 62
     1
100
AcDbSpline
210
0.0
220
0.0
230
1.0
 70
     8
 71
     3
 72
    14
 73
    10
 74
     8
 42
0.0000000001
 43
0.0000000001
 44
0.000001
 12
-0.3389527875171391
 22
-0.9408033842596237
 32
0.0
 13
-0.9986298903433111
 23
-0.0523291707645606
 33
0.0
 40
0.0
 40
0.0
 40
0.0
 40
0.0
 40
0.0099909664659884
 40
0.0192565595447641
 40
0.0288062994624771
 40
0.0339891358173523
 40
0.0391064886000938
 40
0.0421045649856769
 40
0.0423209849709596
 40
0.0423209849709596
 40
0.0423209849709596
 40
0.0423209849709596
 10
39.67917763312345
 20
3.17236690997592
 30
0.0
 10
39.67804881114557
 20
3.169233731621517
 30
0.0
 10
39.67525572728192
 20
3.16340476665988
 30
0.0
 10
39.66960810106268
 20
3.155570900778741
 30
0.0
 10
39.66339232216077
 20
3.150342902892987
 30
0.0
 10
39.65742458539681
 20
3.147410845214579
 30
0.0
 10
39.65312463270645
 20
3.146219771819033
 30
0.0
 10
39.6503603508457
 20
3.145895708063534
 30
0.0
 10
39.64929058845429
 20
3.145834857475733
 30
0.0
 10
39.6492185472989
 20
3.145831082449603
 30
0.0
 11
39.67917763312345
 21
3.17236690997592
 31
0.0
 11
39.67488680398798
 21
3.163345305724334
 31
0.0
 11
39.66937747581606
 21
3.155895413323321
 31
0.0
 11
39.66200452850613
 21
3.14982587340296
 31
0.0
 11
39.65734668820834
 21
3.147552803628656
 31
0.0
 11
39.65241317155288
 21
3.14619332375426
 31
0.0
 11
39.64943480782027
 21
3.14584329886415
 31
0.0
 11
39.6492185472989
 21
3.145831082449603
 31
0.0
  0
SPLINE
  5
46
330
2
100
AcDbEntity
  8
GAIKEI
  6
Continuous
 62
     1
100
AcDbSpline
210
0.0
220
0.0
230
1.0
 70
     8
 71
     3
 72
    12
 73
     8
 74
     6
 42
0.0000000001
 43
0.0000000001
 44
0.000001
 12
0.9982226077227872
 22
-0.0595955151929955
 32
0.0
 13
0.8979339554903077
 23
-0.4401302211590679
 33
0.0
 40
0.0
 40
0.0
 40
0.0
 40
0.0
 40
0.0101795518148551
 40
0.020371988203289
 40
0.0412314138519168
 40
0.0623916756235157
 40
0.0836322321109718
 40
0.0836322321109718
 40
0.0836322321109718
 40
0.0836322321109718
 10
37.69327440468482
 20
2.000925064721599
 30
0.0
 10
37.69666155760417
 20
2.000722846176643
 30
0.0
 10
37.70342872940041
 20
2.000029955809338
 30
0.0
 10
37.71692098193198
 20
1.997339063535576
 30
0.0
 10
37.7335942714013
 20
1.992199034512736
 30
0.0
 10
37.75310072931161
 20
1.984164239518946
 30
0.0
 10
37.76596345370943
 20
1.978295726836279
 30
0.0
 10
37.7723209926773
 20
1.975179523228149
 30
0.0
 11
37.69327440468482
 21
2.000925064721599
 31
0.0
 11
37.70340021705414
 21
1.999871079059545
 31
0.0
 11
37.71340453319789
 21
1.997923376251861
 31
0.0
 11
37.73338474604015
 21
1.991931885374782
 31
0.0
 11
37.75302327737672
 21
1.984053117711511
 31
0.0
 11
37.7723209926773
 21
1.975179523228149
 31
0.0
  0
SPLINE
  5
47
330
2
100
AcDbEntity
  8
GAIKEI
  6
Continuous
 62
     1
100
AcDbSpline
210
0.0
220
0.0
230
1.0
 70
     8
 71
     3
 72
    13
 73
     9
 74
     7
 42
0.0000000001
 43
0.0000000001
 44
0.000001
 12
0.9005912725143891
 22
-0.4346669528166519
 32
0.0
 13
0.9996669306706744
 23
-0.0258075129269268
 33
0.0
 40
0.0
 40
0.0
 40
0.0
 40
0.0
 40
0.0015848483835528
 40
0.0031712399211002
 40
0.0047810083468086
 40
0.0064046737380326
 40
0.0070920458211572
 40
0.0077805003943907
 40
0.0077805003943907
 40
0.0077805003943907
 40
0.0077805003943907
 10
37.7723209926773
 20
1.975179523228149
 30
0.0
 10
37.77279675955146
 20
1.974949896155635
 30
0.0
 10
37.7737630733609
 20
1.974519718369094
 30
0.0
 10
37.77525489948043
 20
1.973955870245788
 30
0.0
 10
37.77680116201395
 20
1.973511540336204
 30
0.0
 10
37.77809050525606
 20
1.973280328363841
 30
0.0
 10
37.77908599524258
 20
1.973184566671449
 30
0.0
 10
37.77954419481516
 20
1.973160687153068
 30
0.0
 10
37.77977360323854
 20
1.973154764719623
 30
0.0
 11
37.7723209926773
 21
1.975179523228149
 31
0.0
 11
37.77376781160291
 21
1.974534766378326
 31
0.0
 11
37.7752535534184
 21
1.973978641962588
 31
0.0
 11
37.77680234726001
 21
1.973538835728049
 31
0.0
 11
37.77840122829611
 21
1.973255198071484
 31
0.0
 11
37.77908540954212
 21
1.973188820999666
 31
0.0
 11
37.77977360323854
 21
1.973154764719623
 31
0.0
  0
SPLINE
  5
48
330
2
100
AcDbEntity
  8
GAIKEI
  6
Continuous
 62
     1
100
AcDbSpline
210
0.0
220
0.0
230
1.0
 70
     8
 71
     3
 72
    28
 73
    24
 74
    22
 42
0.0000000001
 43
0.0000000001
 44
0.000001
 12
0.9318989982390542
 22
-0.3627178753260542
 32
0.0
 13
0.191992439819031
 23
-0.9813964046461226
 33
0.0
 40
0.0
 40
0.0
 40
0.0
 40
0.0
 40
0.0001420663780521
 40
0.0009769861820088
 40
0.0025276013182588
 40
0.0047898176643265
 40
0.0077560948969021
 40
0.0114781516900672
 40
0.0160508157536526
 40
0.0215964196367709
 40
0.028230524189764
 40
0.0359946502531568
 40
0.0447809888875629
 40
0.0543437266547222
 40
0.0644195158661947
 40
0.0748159682066054
 40
0.0857868814210708
 40
0.0978468222735168
 40
0.1086847316598495
 40
0.1195743749550729
 40
0.1304985362444141
 40
0.1414475695589883
 40
0.1447746359767262
 40
0.1447746359767262
 40
0.1447746359767262
 40
0.1447746359767262
 10
38.96760873233665
 20
30.50744330771844
 30
0.0
 10
38.96765286284177
 20
30.50742613104683
 30
0.0
 10
38.96795631504863
 20
30.50730792522646
 30
0.0
 10
38.96873892979244
 20
30.50699581104246
 30
0.0
 10
38.97016967460442
 20
30.50640138419408
 30
0.0
 10
38.97224188572875
 20
30.50549982721083
 30
0.0
 10
38.97495165024949
 20
30.50425073905845
 30
0.0
 10
38.9783194867703
 20
30.50259201656425
 30
0.0
 10
38.98239441087114
 20
30.50042713211923
 30
0.0
 10
38.98722850868895
 20
30.49762890219978
 30
0.0
 10
38.99283593773967
 20
30.49405348837533
 30
0.0
 10
38.99913960064656
 20
30.48957621330328
 30
0.0
 10
39.00594256057744
 20
30.48413766615781
 30
0.0
 10
39.01296413493384
 20
30.47776593174763
 30
0.0
 10
39.01991970349954
 20
30.47055420174098
 30
0.0
 10
39.02666269833411
 20
30.46251898742628
 30
0.0
 10
39.03319901144283
 20
30.45348278022402
 30
0.0
 10
39.03909395277199
 20
30.44383944238627
 30
0.0
 10
39.04421625135835
 20
30.43379831410701
 30
0.0
 10
39.04844580228827
 20
30.42375918644905
 30
0.0
 10
39.05194243699653
 20
30.41340308970098
 30
0.0
 10
39.05403860009861
 20
30.40526006997007
 30
0.0
 10
39.05500662379314
 20
30.40060061168987
 30
0.0
 10
39.05521954765946
 20
30.39951222134974
 30
0.0
 11
38.96760873233665
 21
30.50744330771844
 31
0.0
 11
38.96774107045916
 21
30.50739162854759
 31
0.0
 11
38.96851649171616
 21
30.50708194830449
 31
0.0
 11
38.96994896023738
 21
30.50648822673068
 31
0.0
 11
38.97202353318867
 21
30.50558607376482
 31
0.0
 11
38.97471775633333
 21
30.50434505471955
 31
0.0
 11
38.97805712179171
 21
30.50270109894658
 31
0.0
 11
38.98209566914907
 21
30.50055639447308
 31
0.0
 11
38.98689560303761
 21
30.49777882258039
 31
0.0
 11
38.99248983311053
 21
30.49421276732179
 31
0.0
 11
38.99882029163403
 21
30.48971742411672
 31
0.0
 11
39.00568367445122
 21
30.48423151412922
 31
0.0
 11
39.01276580708234
 21
30.47780571203478
 31
0.0
 11
39.01976094661278
 21
30.47055376023869
 31
0.0
 11
39.02644445229815
 21
30.46259025216367
 31
0.0
 11
39.03287453000199
 21
30.45370124165433
 31
0.0
 11
39.03916491629944
 21
30.44341185151294
 31
0.0
 11
39.04409002746137
 21
30.43375774338554
 31
0.0
 11
39.04831829265719
 21
30.42372259479399
 31
0.0
 11
39.05181230671518
 21
30.41337237178985
 31
0.0
 11
39.05454449337957
 21
30.40276972615587
 31
0.0
 11
39.05521954765946
 21
30.39951222134974
 31
0.0
  0
SPLINE
  5
49
330
2
100
AcDbEntity
  8
GAIKEI
  6
Continuous
 62
     1
100
AcDbSpline
210
0.0
220
0.0
230
1.0
 70
     8
 71
     3
 72
    15
 73
    11
 74
     9
 42
0.0000000001
 43
0.0000000001
 44
0.000001
 12
0.875605229622986
 22
0.4830274131525851
 32
0.0
 13
0.7246846844653153
 23
0.6890806252546989
 33
0.0
 40
0.0
 40
0.0
 40
0.0
 40
0.0
 40
0.0033250760821372
 40
0.0094161343966627
 40
0.016193203090582
 40
0.0236300072056095
 40
0.0284434281177767
 40
0.032583503648997
 40
0.0355144095342401
 40
0.0369037183210965
 40
0.0369037183210965
 40
0.0369037183210965
 40
0.0369037183210965
 10
38.88771967296201
 20
30.49271075723922
 30
0.0
 10
38.88869015763081
 20
30.49324612487206
 30
0.0
 10
38.89155180789425
 20
30.49459975606078
 30
0.0
 10
38.89694758572195
 20
30.49536896133324
 30
0.0
 10
38.90362309320521
 20
30.49638139510361
 30
0.0
 10
38.90991639437877
 20
30.49715620458841
 30
0.0
 10
38.91535715826669
 20
30.49781697007097
 30
0.0
 10
38.91921015870079
 20
30.49854248223176
 30
0.0
 10
38.92210602034968
 20
30.4988922916161
 30
0.0
 10
38.92326258442884
 20
30.49980791268001
 30
0.0
 10
38.92359818802878
 20
30.50012702793586
 30
0.0
 11
38.88771967296201
 21
30.49271075723922
 31
0.0
 11
38.89074547980259
 21
30.49409010035831
 31
0.0
 11
38.89670556573354
 21
30.49534397538403
 31
0.0
 11
38.90341208742096
 21
30.49631980969846
 31
0.0
 11
38.91078898092904
 21
30.49726205385165
 31
0.0
 11
38.91556011805334
 21
30.49789862137945
 31
0.0
 11
38.91964546281598
 21
30.4985693814825
 31
0.0
 11
38.92248462497388
 21
30.49929586332624
 31
0.0
 11
38.92359818802878
 21
30.50012702793586
 31
0.0
  0
SPLINE
  5
4A
330
2
100
AcDbEntity
  8
GAIKEI
  6
Continuous
 62
     1
100
AcDbSpline
210
0.0
220
0.0
230
1.0
 70
     8
 71
     3
 72
    13
 73
     9
 74
     7
 42
0.0000000001
 43
0.0000000001
 44
0.000001
 12
-0.517450343994598
 22
0.855713235552584
 32
0.0
 13
0.4013044326696384
 23
0.915944732131639
 33
0.0
 40
0.0
 40
0.0
 40
0.0
 40
0.0
 40
0.0018522692177252
 40
0.0055684501247595
 40
0.0098085571551287
 40
0.0133014003711278
 40
0.0149899147471629
 40
0.0160870959053044
 40
0.0160870959053044
 40
0.0160870959053044
 40
0.0160870959053044
 10
38.92626251988871
 20
30.51304912869253
 30
0.0
 10
38.92594303410742
 20
30.51357746578768
 30
0.0
 10
38.92477355459162
 20
30.51510787559596
 30
0.0
 10
38.92147267163608
 20
30.5159732894495
 30
0.0
 10
38.91790530734146
 20
30.51741459316389
 30
0.0
 10
38.91523051390645
 20
30.51864566986342
 30
0.0
 10
38.91309346967208
 20
30.5198507675172
 30
0.0
 10
38.91333916583001
 20
30.52090709842955
 30
0.0
 10
38.91348593371741
 20
30.52124208419687
 30
0.0
 11
38.92626251988871
 21
30.51304912869253
 31
0.0
 11
38.92508794906949
 21
30.5144810958403
 31
0.0
 11
38.92169325027327
 21
30.51599214510398
 31
0.0
 11
38.91773782341385
 21
30.51751972012974
 31
0.0
 11
38.91458628554175
 21
30.51902555553849
 31
0.0
 11
38.91333132216606
 21
30.52015505293216
 31
0.0
 11
38.91348593371741
 21
30.52124208419687
 31
0.0
  0
SPLINE
  5
4B
330
2
100
AcDbEntity
  8
GAIKEI
  6
Continuous
 62
     1
100
AcDbSpline
210
0.0
220
0.0
230
1.0
 70
     8
 71
     3
 72
    13
 73
     9
 74
     7
 42
0.0000000001
 43
0.0000000001
 44
0.000001
 12
-0.1367026333586726
 22
0.9906121289550235
 32
0.0
 13
-0.1693098136659334
 23
0.985562878256079
 33
0.0
 40
0.0
 40
0.0
 40
0.0
 40
0.0
 40
0.0167469922486699
 40
0.0333773442704295
 40
0.0502571168682953
 40
0.0667711030725621
 40
0.0840636332564973
 40
0.1007849533911041
 40
0.1007849533911041
 40
0.1007849533911041
 40
0.1007849533911041
 10
39.07992455558313
 20
30.25489267673956
 30
0.0
 10
39.07916143626939
 20
30.2604226012879
 30
0.0
 10
39.07756986493609
 20
30.27143432747369
 30
0.0
 10
39.07496028158728
 20
30.28798261937914
 30
0.0
 10
39.07217260159453
 20
30.30442292556086
 30
0.0
 10
39.06922451031466
 20
30.32105922267391
 30
0.0
 10
39.06622065586055
 20
30.33763185376134
 30
0.0
 10
39.06427994530732
 20
30.34880257259201
 30
0.0
 10
39.06333625077524
 20
30.35429587672539
 30
0.0
 11
39.07992455558313
 21
30.25489267673956
 31
0.0
 11
39.0775296497303
 21
30.27146760809868
 31
0.0
 11
39.07494283030109
 21
30.28789554614448
 31
0.0
 11
39.07213240243651
 21
30.30453971592877
 31
0.0
 11
39.06926039379765
 21
30.32080205054823
 31
0.0
 11
39.06620716764006
 21
30.33782356598235
 31
0.0
 11
39.06333625077524
 21
30.35429587672539
 31
0.0
  0
SPLINE
  5
4C
330
2
100
AcDbEntity
  8
GAIKEI
  6
Continuous
 62
     1
100
AcDbSpline
210
0.0
220
0.0
230
1.0
 70
     8
 71
     3
 72
    12
 73
     8
 74
     6
 42
0.0000000001
 43
0.0000000001
 44
0.000001
 12
-0.9898607914289636
 22
-0.1420408870418156
 32
0.0
 13
-0.9971867716420497
 23
-0.0749569373847851
 33
0.0
 40
0.0
 40
0.0
 40
0.0
 40
0.0
 40
0.003988739910014
 40
0.0092105025483116
 40
0.015704303313746
 40
0.0235055083821599
 40
0.0306147017592811
 40
0.0306147017592811
 40
0.0306147017592811
 40
0.0306147017592811
 10
39.78071598685868
 20
28.78463378136817
 30
0.0
 10
39.7793998877773
 20
28.78444492664982
 30
0.0
 10
39.77635697494267
 20
28.78403436313323
 30
0.0
 10
39.77115138862318
 20
28.78347819307299
 30
0.0
 10
39.76467495391379
 20
28.78286273109092
 30
0.0
 10
39.75756539863232
 20
28.78226234933365
 30
0.0
 10
39.75261046891468
 20
28.78187368305163
 30
0.0
 10
39.75024740438378
 20
28.78169605526401
 30
0.0
 11
39.78071598685868
 21
28.78463378136817
 31
0.0
 11
39.77676215234725
 21
28.78410610945636
 31
0.0
 11
39.77157202258307
 21
28.78353325897146
 31
0.0
 11
39.7651077130606
 21
28.78291522991359
 31
0.0
 11
39.75733476230788
 21
28.78225202228274
 31
0.0
 11
39.75024740438378
 21
28.78169605526401
 31
0.0
  0
SPLINE
  5
4D
330
2
100
AcDbEntity
  8
GAIKEI
  6
Continuous
 62
     1
100
AcDbSpline
210
0.0
220
0.0
230
1.0
 70
     8
 71
     3
 72
    14
 73
    10
 74
     8
 42
0.0000000001
 43
0.0000000001
 44
0.000001
 12
0.1366535358170297
 22
-0.9906189030846846
 32
0.0
 13
-0.3169787977948625
 23
-0.9484326237263898
 33
0.0
 40
0.0
 40
0.0
 40
0.0
 40
0.0
 40
0.0191676579539096
 40
0.0390578108001847
 40
0.0593083968399914
 40
0.0800502795465292
 40
0.1018953489662207
 40
0.120212275641616
 40
0.131204710455082
 40
0.131204710455082
 40
0.131204710455082
 40
0.131204710455082
 10
39.54790885513954
 20
30.49456917471085
 30
0.0
 10
39.54878196455046
 20
30.48823989327852
 30
0.0
 10
39.5500235683558
 20
30.47526059469593
 30
0.0
 10
39.55014717564957
 20
30.4554679755712
 30
0.0
 10
39.54864355817236
 20
30.43520947903494
 30
0.0
 10
39.54554949484069
 20
30.41447598206821
 30
0.0
 10
39.54119596058033
 20
30.39463186119608
 30
0.0
 10
39.53660882951933
 20
30.37820234358605
 30
0.0
 10
39.53364301913776
 20
30.3688923107502
 30
0.0
 10
39.53248156288042
 20
30.36541711615311
 30
0.0
 11
39.54790885513954
 21
30.49456917471085
 31
0.0
 11
39.5497218531575
 21
30.47548664659885
 31
0.0
 11
39.54988281890256
 21
30.4555969499838
 31
0.0
 11
39.54841029626128
 21
30.43539990278774
 31
0.0
 11
39.54537905068092
 21
30.4148806780249
 31
0.0
 11
39.54072735616147
 21
30.3935366097912
 31
0.0
 11
39.53581953713682
 21
30.37588951940686
 31
0.0
 11
39.53248156288042
 21
30.36541711615311
 31
0.0
  0
SPLINE
  5
4E
330
2
100
AcDbEntity
  8
GAIKEI
  6
Continuous
 62
     1
100
AcDbSpline
210
0.0
220
0.0
230
1.0
 70
     8
 71
     3
 72
    10
 73
     6
 74
     4
 42
0.0000000001
 43
0.0000000001
 44
0.000001
 12
0.9775103643419031
 22
0.2108873813298455
 32
0.0
 13
0.9234524004944125
 23
0.3837129969405616
 33
0.0
 40
0.0
 40
0.0
 40
0.0
 40
0.0
 40
0.0144985205062776
 40
0.0255695821143439
 40
0.0332109987092738
 40
0.0332109987092738
 40
0.0332109987092738
 40
0.0332109987092738
 10
39.74659770250706
 20
28.80757185970694
 30
0.0
 10
39.75132185386123
 20
28.80859104471452
 30
0.0
 10
39.75959293148992
 20
28.81064915841475
 30
0.0
 10
39.77028644086114
 20
28.81355363368013
 30
0.0
 10
39.77611951296082
 20
28.81578549689985
 30
0.0
 10
39.77847167446008
 20
28.81676286718735
 30
0.0
 11
39.74659770250706
 21
28.80757185970694
 31
0.0
 11
39.76068902186681
 21
28.81098321633258
 31
0.0
 11
39.77132331310018
 21
28.81406099013955
 31
0.0
 11
39.77847167446008
 21
28.81676286718735
 31
0.0
  0
SPLINE
  5
4F
330
2
100
AcDbEntity
  8
GAIKEI
  6
Continuous
 62
     1
100
AcDbSpline
210
0.0
220
0.0
230
1.0
 70
     8
 71
     3
 72
    12
 73
     8
 74
     6
 42
0.0000000001
 43
0.0000000001
 44
0.000001
 12
0.9303587383917493
 22
0.3666505392033574
 32
0.0
 13
0.1050822504737809
 23
-0.994463534090298
 33
0.0
 40
0.0
 40
0.0
 40
0.0
 40
0.0
 40
0.0016375161916255
 40
0.0034648391825697
 40
0.0061176528467765
 40
0.0115693882822484
 40
0.0192583185555725
 40
0.0192583185555725
 40
0.0192583185555725
 40
0.0192583185555725
 10
39.77847167446008
 20
28.81676286718735
 30
0.0
 10
39.77897950029279
 20
28.81696299925221
 30
0.0
 10
39.78024075572682
 20
28.8171749886057
 30
0.0
 10
39.78190431010629
 20
28.81572313841056
 30
0.0
 10
39.78342628272058
 20
28.81279136486407
 30
0.0
 10
39.78484031737527
 20
28.807676789775
 30
0.0
 10
39.78567947300904
 20
28.8033757710532
 30
0.0
 10
39.78594879637466
 20
28.80082698412886
 30
0.0
 11
39.77847167446008
 21
28.81676286718735
 31
0.0
 11
39.78010124205887
 21
28.81693182959029
 31
0.0
 11
39.78159176015036
 21
28.81587499150433
 31
0.0
 11
39.78294215330912
 21
28.8135916993983
 31
0.0
 11
39.78458183349106
 21
28.80839245428038
 31
0.0
 11
39.78594879637466
 21
28.80082698412886
 31
0.0
  0
SPLINE
  5
50
330
2
100
AcDbEntity
  8
GAIKEI
  6
Continuous
 62
     1
100
AcDbSpline
210
0.0
220
0.0
230
1.0
 70
     8
 71
     3
 72
    19
 73
    15
 74
    13
 42
0.0000000001
 43
0.0000000001
 44
0.000001
 12
-0.2143400263132083
 22
0.9767591070064579
 32
0.0
 13
-0.9544207461010339
 23
0.298464469262165
 33
0.0
 40
0.0
 40
0.0
 40
0.0
 40
0.0
 40
0.0092952339029006
 40
0.0312004565139502
 40
0.0515915797697127
 40
0.0699585957123182
 40
0.0868138010544885
 40
0.1019390434715404
 40
0.1153638203991237
 40
0.1272332192425084
 40
0.1394029839909597
 40
0.1493151554505574
 40
0.1568340558211895
 40
0.1627678371571124
 40
0.1627678371571124
 40
0.1627678371571124
 40
0.1627678371571124
 10
39.37299840418085
 20
30.82450390396022
 30
0.0
 10
39.37233429062107
 20
30.82753030541568
 30
0.0
 10
39.37007150100195
 20
30.83768136069952
 30
0.0
 10
39.36615171328427
 20
30.85442673876497
 30
0.0
 10
39.36118774573598
 20
30.87403043770815
 30
0.0
 10
39.35626034640568
 20
30.89190293583295
 30
0.0
 10
39.35139778648127
 20
30.9079679259732
 30
0.0
 10
39.34657472754627
 20
30.92231633733189
 30
0.0
 10
39.3418058301846
 20
30.9349232627732
 30
0.0
 10
39.33682359303431
 20
30.94637542172336
 30
0.0
 10
39.3316111862979
 20
30.95645399138482
 30
0.0
 10
39.32606037241536
 20
30.96460794083987
 30
0.0
 10
39.32064601905563
 20
30.97038467282903
 30
0.0
 10
39.31646670417804
 20
30.97226242595514
 30
0.0
 10
39.3145789295081
 20
30.97285276692085
 30
0.0
 11
39.37299840418085
 21
30.82450390396022
 31
0.0
 11
39.37097587989239
 21
30.83357575516979
 31
0.0
 11
39.36596972157666
 21
30.85490125048798
 31
0.0
 11
39.36094888665262
 21
30.87466456998462
 31
0.0
 11
39.3560494178024
 21
30.89236604278855
 31
0.0
 11
39.35114449960416
 21
30.90849177804321
 31
0.0
 11
39.34629931197342
 21
30.92281995575243
 31
0.0
 11
39.34151491344697
 21
30.93536322730623
 31
0.0
 11
39.33674268791957
 21
30.94623097256036
 31
0.0
 11
39.33103613879995
 21
30.95697980357105
 31
0.0
 11
39.32536204622691
 21
30.9651071816227
 31
0.0
 11
39.319946830224
 21
30.97032316280755
 31
0.0
 11
39.3145789295081
 21
30.97285276692085
 31
0.0
  0
SPLINE
  5
51
330
2
100
AcDbEntity
  8
GAIKEI
  6
Continuous
 62
     1
100
AcDbSpline
210
0.0
220
0.0
230
1.0
 70
     8
 71
     3
 72
    24
 73
    20
 74
    18
 42
0.0000000001
 43
0.0000000001
 44
0.000001
 12
-0.8378164347546817
 22
0.5459520323755141
 32
0.0
 13
-0.3243113787187035
 23
0.9459503843403066
 33
0.0
 40
0.0
 40
0.0
 40
0.0
 40
0.0
 40
0.0419164326632128
 40
0.0863904596194976
 40
0.108970285750433
 40
0.1324769024715972
 40
0.1569977712072237
 40
0.1826101092342899
 40
0.2029187246603
 40
0.2247888779687739
 40
0.2496509220410012
 40
0.2708219764697502
 40
0.295473383297587
 40
0.3227732047302979
 40
0.3458501903578204
 40
0.3537693258926947
 40
0.3610446848157683
 40
0.3676781384811506
 40
0.3695831413166402
 40
0.3695831413166402
 40
0.3695831413166402
 40
0.3695831413166402
 10
38.60449637951671
 20
30.19127516199845
 30
0.0
 10
38.59279028745952
 20
30.1989032825326
 30
0.0
 10
38.5697760632479
 20
30.21645797969046
 30
0.0
 10
38.54497924577521
 20
30.24321522901676
 30
0.0
 10
38.52674477891606
 20
30.26728670582367
 30
0.0
 10
38.51371984387396
 20
30.28690900795075
 30
0.0
 10
38.50131711531961
 20
30.30810462964374
 30
0.0
 10
38.49051435373214
 20
30.32896418028051
 30
0.0
 10
38.48095876498904
 20
30.34944493905598
 30
0.0
 10
38.47202800665499
 20
30.36993176820835
 30
0.0
 10
38.46342640014479
 20
30.39086973241865
 30
0.0
 10
38.45483587670769
 20
30.41281029202628
 30
0.0
 10
38.44630890705723
 20
30.43564495970964
 30
0.0
 10
38.43776573282632
 20
30.4591501890007
 30
0.0
 10
38.43127923033339
 20
30.47746781544101
 30
0.0
 10
38.42707852837678
 20
30.48951353724351
 30
0.0
 10
38.42469853760145
 20
30.49638926479298
 30
0.0
 10
38.42298169757174
 20
30.50137311986091
 30
0.0
 10
38.42205964652331
 20
30.50406577756402
 30
0.0
 10
38.4218537084913
 20
30.50466645695215
 30
0.0
 11
38.60449637951671
 21
30.19127516199845
 31
0.0
 11
38.57124653702782
 21
30.21680003292673
 31
0.0
 11
38.54076952131958
 21
30.24918970958791
 31
0.0
 11
38.52711769093706
 21
30.2671751333817
 31
0.0
 11
38.51409118358411
 21
30.2867422084162
 31
0.0
 11
38.50168136923286
 21
30.30789093469159
 31
0.0
 11
38.4898779599515
 21
30.33062131220802
 31
0.0
 11
38.48125450321105
 21
30.34900811829667
 31
0.0
 11
38.47249351171853
 21
30.36904675835646
 31
0.0
 11
38.46302797875147
 21
30.39203638849065
 31
0.0
 11
38.45530714871062
 21
30.41174935588017
 31
0.0
 11
38.44665010725247
 21
30.43483063432356
 31
0.0
 11
38.43732362556556
 21
30.46048789247729
 31
0.0
 11
38.42961887430691
 21
30.4822406682238
 31
0.0
 11
38.42701119812146
 21
30.48971814711874
 31
0.0
 11
38.42463066406809
 21
30.49659302094821
 31
0.0
 11
38.42247167389404
 21
30.50286528971233
 31
0.0
 11
38.4218537084913
 21
30.50466645695215
 31
0.0
  0
SPLINE
  5
52
330
2
100
AcDbEntity
  8
GAIKEI
  6
Continuous
 62
     1
100
AcDbSpline
210
0.0
220
0.0
230
1.0
 70
     8
 71
     3
 72
    13
 73
     9
 74
     7
 42
0.0000000001
 43
0.0000000001
 44
0.000001
 12
0.9977298693866012
 22
0.0673432085202045
 32
0.0
 13
0.1281858813254854
 23
-0.9917501599842616
 33
0.0
 40
0.0
 40
0.0
 40
0.0
 40
0.0
 40
0.0005879540783281
 40
0.0014421572157478
 40
0.0035155810647684
 40
0.0065006454469336
 40
0.0125558026777485
 40
0.0198535327868331
 40
0.0198535327868331
 40
0.0198535327868331
 40
0.0198535327868331
 10
39.78071598685902
 20
28.78463378136817
 30
0.0
 10
39.78091152664095
 20
28.78464697960621
 30
0.0
 10
39.78142899155125
 20
28.78459294804702
 30
0.0
 10
39.7821512398486
 20
28.7835641196977
 30
0.0
 10
39.78289844846653
 20
28.78178126972299
 30
0.0
 10
39.78389640639823
 20
28.77818161694455
 30
0.0
 10
39.78492691770112
 20
28.77284609329326
 30
0.0
 10
39.78563697438608
 20
28.76844621722325
 30
0.0
 10
39.78594879637466
 20
28.76603370888884
 30
0.0
 11
39.78071598685902
 21
28.78463378136817
 31
0.0
 11
39.78129686213866
 21
28.78454076937172
 31
0.0
 11
39.78188083390192
 21
28.78391773345928
 31
0.0
 11
39.78275177425734
 21
28.78203622324278
 31
0.0
 11
39.78359394395134
 21
28.77917246878118
 31
0.0
 11
39.78482087015469
 21
28.77324295399601
 31
0.0
 11
39.78594879637466
 21
28.76603370888884
 31
0.0
  0
SPLINE
  5
53
330
2
100
AcDbEntity
  8
GAIKEI
  6
Continuous
 62
     1
100
AcDbSpline
210
0.0
220
0.0
230
1.0
 70
     8
 71
     3
 72
    15
 73
    11
 74
     9
 42
0.0000000001
 43
0.0000000001
 44
0.000001
 12
-0.1009766122385815
 22
0.9948887997061877
 32
0.0
 13
-0.9532566259656954
 23
0.3021618855059295
 33
0.0
 40
0.0
 40
0.0
 40
0.0
 40
0.0
 40
0.0222487057476644
 40
0.0424112922542335
 40
0.0600207990194295
 40
0.0749842179940486
 40
0.0872840349585565
 40
0.0970574275685922
 40
0.1045390322302348
 40
0.1104871075382062
 40
0.1104871075382062
 40
0.1104871075382062
 40
0.1104871075382062
 10
37.90704327062684
 20
31.16716817196678
 30
0.0
 10
37.90629440431582
 20
31.17454650135221
 30
0.0
 10
37.90459428491042
 20
31.18858434574219
 30
0.0
 10
37.9015819990981
 20
31.20836647092529
 30
0.0
 10
37.89814772145069
 20
31.22561713959141
 30
0.0
 10
37.89434227564561
 20
31.24008725561222
 30
0.0
 10
37.89019901594925
 20
31.2517606994848
 30
0.0
 10
37.88567613102927
 20
31.26050661424944
 30
0.0
 10
37.88081537023547
 20
31.26675216871726
 30
0.0
 10
37.87665136986226
 20
31.26873130066255
 30
0.0
 10
37.8747613557959
 20
31.26933039454596
 30
0.0
 11
37.90704327062684
 21
31.16716817196678
 31
0.0
 11
37.90439218234912
 21
31.18925762400002
 31
0.0
 11
37.90129256560823
 21
31.20918050861226
 31
0.0
 11
37.89778749507667
 21
31.22643763309148
 31
0.0
 11
37.89389363417303
 21
31.24088549612199
 31
0.0
 11
37.88963382922219
 21
31.25242405245311
 31
0.0
 11
37.88501258300488
 21
31.26103575912706
 31
0.0
 11
37.8800749298137
 21
31.26665629282801
 31
0.0
 11
37.8747613557959
 21
31.26933039454596
 31
0.0
  0
SPLINE
  5
54
330
2
100
AcDbEntity
  8
GAIKEI
  6
Continuous
 62
     1
100
AcDbSpline
210
0.0
220
0.0
230
1.0
 70
     8
 71
     3
 72
    14
 73
    10
 74
     8
 42
0.0000000001
 43
0.0000000001
 44
0.000001
 12
0.0545175021342888
 22
0.998512815121087
 32
0.0
 13
0.9633612278880647
 23
0.2682072791741499
 33
0.0
 40
0.0
 40
0.0
 40
0.0
 40
0.0
 40
0.0168203610483166
 40
0.0394883595769223
 40
0.058339982639852
 40
0.0732183255052585
 40
0.0840135668887872
 40
0.0907584504227184
 40
0.094299565781987
 40
0.094299565781987
 40
0.094299565781987
 40
0.094299565781987
 10
37.70559958772805
 20
31.21091973283999
 30
0.0
 10
37.70590525575116
 20
31.21651818152722
 30
0.0
 10
37.70672969556625
 20
31.2296513938224
 30
0.0
 10
37.70820329999298
 20
31.24906565888307
 30
0.0
 10
37.71022205139215
 20
31.26769426271522
 30
0.0
 10
37.712252384583
 20
31.28256859305086
 30
0.0
 10
37.71493584307624
 20
31.29270090613665
 30
0.0
 10
37.71683103397703
 20
31.30013925806284
 30
0.0
 10
37.72019046326889
 20
31.30162716443511
 30
0.0
 10
37.72132758768242
 20
31.30194374874034
 30
0.0
 11
37.70559958772805
 21
31.21091973283999
 31
0.0
 11
37.70663968650371
 21
31.22770722475556
 31
0.0
 11
37.70843076355339
 21
31.2503043389817
 31
0.0
 11
37.71046823801129
 21
31.26904551566671
 31
0.0
 11
37.71275974062343
 21
31.28374630325609
 31
0.0
 11
37.71531899700091
 21
31.29423372128261
 31
0.0
 11
37.7181660721655
 21
31.3003479022677
 31
0.0
 11
37.72132758768242
 21
31.30194374874034
 31
0.0
  0
SPLINE
  5
55
330
2
100
AcDbEntity
  8
GAIKEI
  6
Continuous
 62
     1
100
AcDbSpline
210
0.0
220
0.0
230
1.0
 70
     8
 71
     3
 72
    18
 73
    14
 74
    12
 42
0.0000000001
 43
0.0000000001
 44
0.000001
 12
-0.973937207249696
 22
0.2268178042717607
 32
0.0
 13
-0.893642527564992
 23
0.4487794925431116
 33
0.0
 40
0.0
 40
0.0
 40
0.0
 40
0.0
 40
0.0057079918588357
 40
0.0111629217336547
 40
0.0163875706709733
 40
0.0238134683249931
 40
0.0307555345592866
 40
0.0340473469464969
 40
0.0381983594349408
 40
0.0427933106022856
 40
0.0480932925903674
 40
0.0552578683843112
 40
0.0588791928997866
 40
0.0588791928997866
 40
0.0588791928997866
 40
0.0588791928997866
 10
37.71651224810029
 20
31.30301704721117
 30
0.0
 10
37.71465917288362
 20
31.30344860527126
 30
0.0
 10
37.71103954712277
 20
31.30431135475169
 30
0.0
 10
37.7057356441175
 20
31.30561851546719
 30
0.0
 10
37.69989270399917
 20
31.30713004474364
 30
0.0
 10
37.69360168786837
 20
31.30888703911486
 30
0.0
 10
37.68799007931247
 20
31.31067097943514
 30
0.0
 10
37.68347164053701
 20
31.31227729777837
 30
0.0
 10
37.67973372971173
 20
31.31373790789272
 30
0.0
 10
37.67540749794411
 20
31.31552856397724
 30
0.0
 10
37.67019526081475
 20
31.31780311919562
 30
0.0
 10
37.66533614967447
 20
31.32007211425585
 30
0.0
 10
37.66211067455888
 20
31.32166060346876
 30
0.0
 10
37.66103195136117
 20
31.32220232886155
 30
0.0
 11
37.71651224810029
 21
31.30301704721117
 31
0.0
 11
37.71095906958925
 21
31.30433716171743
 31
0.0
 11
37.70566352227337
 21
31.3056462674488
 31
0.0
 11
37.7006063675471
 21
31.30695865992337
 31
0.0
 11
37.6934588585587
 21
31.30897298538733
 31
0.0
 11
37.68684708790789
 21
31.31108890816737
 31
0.0
 11
37.68374647181855
 21
31.31219447160871
 31
0.0
 11
37.67987623278879
 21
31.31369520203171
 31
0.0
 11
37.67562963849929
 21
31.31545019761231
 31
0.0
 11
37.67077246268815
 21
31.31757096192999
 31
0.0
 11
37.66427994770692
 21
31.32060055003743
 31
0.0
 11
37.66103195136117
 21
31.32220232886155
 31
0.0
  0
SPLINE
  5
56
330
2
100
AcDbEntity
  8
GAIKEI
  6
Continuous
 62
     1
100
AcDbSpline
210
0.0
220
0.0
230
1.0
 70
     8
 71
     3
 72
    13
 73
     9
 74
     7
 42
0.0000000001
 43
0.0000000001
 44
0.000001
 12
-0.0620426982818749
 22
0.9980734960862875
 32
0.0
 13
-0.6127500743462847
 23
0.7902767530356836
 33
0.0
 40
0.0
 40
0.0
 40
0.0
 40
0.0
 40
0.0130298085869193
 40
0.0267247893925046
 40
0.0416446708883531
 40
0.0575355147444367
 40
0.0777290502495117
 40
0.078234171233236
 40
0.078234171233236
 40
0.078234171233236
 40
0.078234171233236
 10
40.24118461100134
 20
7.960553066797729
 30
0.0
 10
40.2409151428404
 20
7.964887969000955
 30
0.0
 10
40.23976793856294
 20
7.973759347868906
 30
0.0
 10
40.23591936776944
 20
7.987141782345304
 30
0.0
 10
40.23009165614647
 20
8.000819709659708
 30
0.0
 10
40.22176210233761
 20
8.015671857623203
 30
0.0
 10
40.2147346556732
 20
8.025670922901781
 30
0.0
 10
40.2105127517047
 20
8.031127863233933
 30
0.0
 10
40.21040958073125
 20
8.031260925024241
 30
0.0
 11
40.24118461100134
 21
7.960553066797729
 31
0.0
 11
40.23948242560332
 21
7.973472118397324
 31
0.0
 11
40.23577976719046
 21
7.986657244775557
 31
0.0
 11
40.22998441489265
 21
8.000405576430836
 31
0.0
 11
40.2222629189017
 21
8.014294303073029
 31
0.0
 11
40.21071853220961
 21
8.030861464185903
 31
0.0
 11
40.21040958073125
 21
8.031260925024241
 31
0.0
  0
SPLINE
  5
57
330
2
100
AcDbEntity
  8
GAIKEI
  6
Continuous
 62
     1
100
AcDbSpline
210
0.0
220
0.0
230
1.0
 70
     8
 71
     3
 72
     9
 73
     5
 74
     3
 42
0.0000000001
 43
0.0000000001
 44
0.000001
 12
-0.0113452386977587
 22
0.9999356407083864
 32
0.0
 13
-0.0118683801793025
 23
0.9999295682956471
 33
0.0
 40
0.0
 40
0.0
 40
0.0
 40
0.0
 40
0.0019518112536935
 40
0.0025821222011143
 40
0.0025821222011143
 40
0.0025821222011143
 40
0.0025821222011143
 10
39.90279972963502
 20
13.56590733142943
 30
0.0
 10
39.90279234838016
 20
13.56655789330827
 30
0.0
 10
39.90278241326964
 20
13.56741854339739
 30
0.0
 10
39.90277225302377
 20
13.56827919082798
 30
0.0
 10
39.90276975943378
 20
13.56848927967917
 30
0.0
 11
39.90279972963502
 21
13.56590733142943
 31
0.0
 11
39.90277719995798
 21
13.56785901265076
 31
0.0
 11
39.90276975943378
 21
13.56848927967917
 31
0.0
  0
SPLINE
  5
58
330
2
100
AcDbEntity
  8
GAIKEI
  6
Continuous
 62
     1
100
AcDbSpline
210
0.0
220
0.0
230
1.0
 70
     8
 71
     3
 72
    18
 73
    14
 74
    12
 42
0.0000000001
 43
0.0000000001
 44
0.000001
 12
0.3895009417823829
 22
-0.9210260671395989
 32
0.0
 13
0.0063044151991654
 23
-0.9999801269770298
 33
0.0
 40
0.0
 40
0.0
 40
0.0
 40
0.0
 40
0.0548187178979822
 40
0.1143472191750346
 40
0.1727157257373882
 40
0.2297161800254305
 40
0.2851531015214934
 40
0.3275369478441021
 40
0.3689005393186048
 40
0.4089797009867438
 40
0.4475391317993505
 40
0.4843835321768155
 40
0.5193727054715913
 40
0.5193727054715913
 40
0.5193727054715913
 40
0.5193727054715913
 10
38.02051591614003
 20
3.558020740179159
 30
0.0
 10
38.02763323022289
 20
3.541190917462074
 30
0.0
 10
38.04225041987326
 20
3.505987822360538
 30
0.0
 10
38.06346112577691
 20
3.452462131715151
 30
0.0
 10
38.08385462980172
 20
3.397841388117228
 30
0.0
 10
38.10252127698635
 20
3.344046806887945
 30
0.0
 10
38.11810719404491
 20
3.294841453464528
 30
0.0
 10
38.13085690279552
 20
3.250227074153968
 30
0.0
 10
38.14098897852281
 20
3.210206672982309
 30
0.0
 10
38.14936945537657
 20
3.171081753097496
 30
0.0
 10
38.15570894641144
 20
3.133098487473432
 30
0.0
 10
38.15981661236461
 20
3.096505190229919
 30
0.0
 10
38.16073198162833
 20
3.07255459976119
 30
0.0
 10
38.16080551038698
 20
3.060891773776489
 30
0.0
 11
38.02051591614003
 21
3.558020740179159
 31
0.0
 11
38.04151531479221
 21
3.507384108317864
 31
0.0
 11
38.06341609746488
 21
3.452030720194443
 31
0.0
 11
38.08379708129024
 21
3.397336138252313
 31
0.0
 11
38.10244219969291
 21
3.343471397028253
 31
0.0
 11
38.1191353860973
 21
3.29060753105881
 31
0.0
 11
38.13073962269215
 21
3.249843199485468
 31
0.0
 11
38.14084122937737
 21
3.209732073824625
 31
0.0
 11
38.14916941382131
 21
3.170527761249701
 31
0.0
 11
38.15545338369219
 21
3.132483868934201
 31
0.0
 11
38.15942234665789
 21
3.095854004051943
 31
0.0
 11
38.16080551038698
 21
3.060891773776489
 31
0.0
  0
SPLINE
  5
59
330
2
100
AcDbEntity
  8
GAIKEI
  6
Continuous
 62
     1
100
AcDbSpline
210
0.0
220
0.0
230
1.0
 70
     8
 71
     3
 72
    21
 73
    17
 74
    15
 42
0.0000000001
 43
0.0000000001
 44
0.000001
 12
-0.0837550758266862
 22
0.996486370841702
 32
0.0
 13
-0.6371718305898421
 23
0.7707217774935322
 33
0.0
 40
0.0
 40
0.0
 40
0.0
 40
0.0
 40
0.0236713209401467
 40
0.0489850210185073
 40
0.075909608441169
 40
0.105534806600413
 40
0.1368203947934904
 40
0.1696070085842896
 40
0.197824674887307
 40
0.234106421864202
 40
0.3069532674727944
 40
0.3456964943735151
 40
0.385450596575233
 40
0.4414254624361686
 40
0.499008086860552
 40
0.5226391327995421
 40
0.5226391327995421
 40
0.5226391327995421
 40
0.5226391327995421
 10
38.41787322536787
 20
3.273427258488879
 30
0.0
 10
38.41721236094112
 20
3.281289974721119
 30
0.0
 10
38.41507257737237
 20
3.297513838728434
 30
0.0
 10
38.40897857063239
 20
3.322114314647876
 30
0.0
 10
38.40032888249434
 20
3.348014625491543
 30
0.0
 10
38.38918680799947
 20
3.37512359320786
 30
0.0
 10
38.37563596977714
 20
3.403233488103523
 30
0.0
 10
38.36133488998008
 20
3.430633263537629
 30
0.0
 10
38.34416217400916
 20
3.457666341832634
 30
0.0
 10
38.3253928085078
 20
3.502854734436397
 30
0.0
 10
38.26253716589345
 20
3.502938708773911
 30
0.0
 10
38.23990227627833
 20
3.551490913938238
 30
0.0
 10
38.21195377191863
 20
3.585980832839197
 30
0.0
 10
38.18141840997709
 20
3.627179318728224
 30
0.0
 10
38.15269328560886
 20
3.662713554629448
 30
0.0
 10
38.13552836085772
 20
3.683652285111747
 30
0.0
 10
38.13050934859115
 20
3.689723272355138
 30
0.0
 11
38.41787322536787
 21
3.273427258488879
 31
0.0
 11
38.4147249658664
 21
3.296889075358961
 31
0.0
 11
38.4087957524598
 21
3.321498495418978
 31
0.0
 11
38.40034175987533
 21
3.347061437790131
 31
0.0
 11
38.38914061487763
 21
3.3744875043717
 31
0.0
 11
38.3756945280944
 21
3.402736286224495
 31
0.0
 11
38.36024650921955
 21
3.431655522397477
 31
0.0
 11
38.34607740029763
 21
3.456057810972879
 31
0.0
 11
38.32691068223436
 21
3.486863577158544
 31
0.0
 11
38.26114179495625
 21
3.518186476558099
 31
0.0
 11
38.23893818359847
 21
3.549936097616637
 31
0.0
 11
38.21546729329663
 21
3.582022028778908
 31
0.0
 11
38.18145599504232
 21
3.626478961533706
 31
0.0
 11
38.14550302465438
 21
3.67145833438866
 31
0.0
 11
38.13050934859115
 21
3.689723272355138
 31
0.0
  0
ELLIPSE
  5
5A
330
2
100
AcDbEntity
  8
GAIKEI
  6
Continuous
 62
     1
100
AcDbEllipse
 10
37.79080552399313
 20
31.93220565451227
 30
0.0
 11
0.0150000000000029
 21
-0.0000000000000019
 31
0.0
210
0.0
220
0.0
230
1.0
 40
0.9230770000000001
 41
1.535889741755301
 42
3.141592653589792
  0
ELLIPSE
  5
5B
330
2
100
AcDbEntity
  8
GAIKEI
  6
Continuous
 62
     1
100
AcDbEllipse
 10
37.8258055239931
 20
31.89875005451225
 30
0.0
 11
0.0500000000000013
 21
0.0000000000000019
 31
0.0
210
0.0
220
0.0
230
1.0
 40
0.9230769999999999
 41
0.0
 42
1.535889741754975
  0
ELLIPSE
  5
5C
330
2
100
AcDbEntity
  8
GAIKEI
  6
Continuous
 62
     1
100
AcDbEllipse
 10
37.8258055239931
 20
31.88582035451228
 30
0.0
 11
0.0044900756012488
 21
0.0540131481552448
 31
0.0
210
0.0
220
0.0
230
1.0
 40
0.9219600000000003
 41
4.953461113289455
 42
6.338201372171287
  0
ELLIPSE
  5
5D
330
2
100
AcDbEntity
  8
GAIKEI
  6
Continuous
 62
     1
100
AcDbEllipse
 10
37.79080552399313
 20
31.92457495451234
 30
0.0
 11
0.0013470226803556
 21
0.0162039444465797
 31
0.0
210
0.0
220
0.0
230
1.0
 40
0.9219600000000003
 41
0.055016064968991
 42
1.660718976831073
  0
ELLIPSE
  5
5E
330
2
100
AcDbEntity
  8
GAIKEI
  6
Continuous
 62
     1
100
AcDbEllipse
 10
37.76080552399304
 20
31.90362655451233
 30
0.0
 11
0.0013470226803754
 21
0.0162039444465718
 31
0.0
210
0.0
220
0.0
230
1.0
 40
0.9219599999999999
 41
4.373467170188703
 42
4.802311630426692
  0
ELLIPSE
  5
5F
330
2
100
AcDbEntity
  8
GAIKEI
  6
Continuous
 62
     1
100
AcDbEllipse
 10
37.76080552399304
 20
31.91472805451227
 30
0.0
 11
0.0150000000000054
 21
-0.0000000000000122
 31
0.0
210
0.0
220
0.0
230
1.0
 40
0.9230770000000001
 41
4.677482395345397
 42
6.283185307179586
  0
ELLIPSE
  5
60
330
2
100
AcDbEntity
  8
GAIKEI
  6
Continuous
 62
     1
100
AcDbEllipse
 10
37.76080552399304
 20
31.89737270451227
 30
0.0
 11
0.0126240657780797
 21
0.0123335915972954
 31
0.0
210
0.0
220
0.0
230
1.0
 40
0.6568579999999999
 41
4.106933015596569
 42
5.283792823457129
  0
ARC
  5
61
330
2
100
AcDbEntity
  8
GAIKEI
  6
Continuous
 62
     1
100
AcDbCircle
 10
37.76080552399304
 20
31.92520250451227
 30
0.0
 40
0.015
100
AcDbArc
 50
267.9999999999964
 51
0.0
  0
ARC
  5
62
330
2
100
AcDbEntity
  8
GAIKEI
  6
Continuous
 62
     1
100
AcDbCircle
 10
37.8258055239931
 20
31.90789300451226
 30
0.0
 40
0.05
100
AcDbArc
 50
0.0
 51
87.99999999999633
  0
ARC
  5
63
330
2
100
AcDbEntity
  8
GAIKEI
  6
Continuous
 62
     1
100
AcDbCircle
 10
37.79080552399302
 20
31.94413660451224
 30
0.0
 40
0.015
100
AcDbArc
 50
87.99999999999633
 51
180.0
  0
ARC
  5
64
330
2
100
AcDbEntity
  8
GAIKEI
  6
Continuous
 62
     1
100
AcDbCircle
 10
37.72580552399308
 20
31.83486795451225
 30
0.0
 40
0.15
100
AcDbArc
 50
295.8239069999963
 51
297.1099579999978
  0
ARC
  5
65
330
2
100
AcDbEntity
  8
GAIKEI
  6
Continuous
 62
     1
100
AcDbCircle
 10
37.7257966739931
 20
31.83487335451227
 30
0.0
 40
0.15000885
100
AcDbArc
 50
297.1120209999985
 51
359.997937000016
  0
LINE
  5
66
330
2
100
AcDbEntity
  8
GAIKEI
  6
Continuous
 62
     1
100
AcDbLine
 10
37.76028202399306
 20
31.91021165451227
 30
0.0
 11
37.6609340239931
 21
31.91368095451222
 31
0.0
  0
LINE
  5
67
330
2
100
AcDbEntity
  8
GAIKEI
  6
Continuous
 62
     1
100
AcDbLine
 10
37.76028202399306
 20
31.91021165451227
 30
0.0
 11
37.76028202399306
 21
31.90089030451228
 31
0.0
  0
LINE
  5
68
330
2
100
AcDbEntity
  8
GAIKEI
  6
Continuous
 62
     1
100
AcDbLine
 10
37.87580552399305
 20
31.89875005451225
 30
0.0
 11
37.87580552399305
 21
31.90789300451226
 31
0.0
  0
LINE
  5
69
330
2
100
AcDbEntity
  8
GAIKEI
  6
Continuous
 62
     1
100
AcDbLine
 10
37.82755047399309
 20
31.95786255451222
 30
0.0
 11
37.791329023993
 21
31.95912745451224
 31
0.0
  0
LINE
  5
6A
330
2
100
AcDbEntity
  8
GAIKEI
  6
Continuous
 62
     1
100
AcDbLine
 10
37.82755047399309
 20
31.95786255451222
 30
0.0
 11
37.82755047399309
 21
31.94487580451224
 31
0.0
  0
LINE
  5
6B
330
2
100
AcDbEntity
  8
GAIKEI
  6
Continuous
 62
     1
100
AcDbLine
 10
37.791329023993
 20
31.94604340451227
 30
0.0
 11
37.791329023993
 21
31.95912745451224
 31
0.0
  0
LINE
  5
6C
330
2
100
AcDbEntity
  8
GAIKEI
  6
Continuous
 62
     1
100
AcDbLine
 10
37.77580552399303
 20
31.94413660451224
 30
0.0
 11
37.77580552399303
 21
31.93220565451227
 31
0.0
  0
LINE
  5
6D
330
2
100
AcDbEntity
  8
GAIKEI
  6
Continuous
 62
     1
100
AcDbLine
 10
37.82755047399309
 20
31.94487580451224
 30
0.0
 11
37.791329023993
 21
31.94604340451227
 31
0.0
  0
LINE
  5
6E
330
2
100
AcDbEntity
  8
GAIKEI
  6
Continuous
 62
     1
100
AcDbLine
 10
37.791329023993
 20
31.94082270451227
 30
0.0
 11
37.791329023993
 21
31.94604340451227
 31
0.0
  0
LINE
  5
6F
330
2
100
AcDbEntity
  8
GAIKEI
  6
Continuous
 62
     1
100
AcDbLine
 10
37.77580552399303
 20
31.93220565451227
 30
0.0
 11
37.77580552399303
 21
31.92435670451224
 31
0.0
  0
LINE
  5
70
330
2
100
AcDbEntity
  8
GAIKEI
  6
Continuous
 62
     1
100
AcDbLine
 10
37.87580552399305
 20
31.88510780451228
 30
0.0
 11
37.87580552399305
 21
31.89875005451225
 31
0.0
  0
LINE
  5
71
330
2
100
AcDbEntity
  8
GAIKEI
  6
Continuous
 62
     1
100
AcDbLine
 10
37.82755047399309
 20
31.94487580451224
 30
0.0
 11
37.82755047399309
 21
31.93997945451227
 31
0.0
  0
LINE
  5
72
330
2
100
AcDbEntity
  8
GAIKEI
  6
Continuous
 62
     1
100
AcDbLine
 10
37.82755047399309
 20
31.93997945451227
 30
0.0
 11
37.791329023993
 21
31.94082270451227
 31
0.0
  0
LINE
  5
73
330
2
100
AcDbEntity
  8
GAIKEI
  6
Continuous
 62
     1
100
AcDbLine
 10
37.77580552399303
 20
31.90384480451226
 30
0.0
 11
37.77580552399303
 21
31.92435670451224
 31
0.0
  0
LINE
  5
74
330
2
100
AcDbEntity
  8
GAIKEI
  6
Continuous
 62
     1
100
AcDbLine
 10
37.87580552399305
 20
31.88084555451226
 30
0.0
 11
37.87580552399305
 21
31.88510780451228
 31
0.0
  0
LINE
  5
75
330
2
100
AcDbEntity
  8
GAIKEI
  6
Continuous
 62
     1
100
AcDbLine
 10
37.87524047399307
 20
31.89469645451223
 30
0.0
 11
37.7745102239931
 21
31.89704150451226
 31
0.0
  0
LINE
  5
76
330
2
100
AcDbEntity
  8
GAIKEI
  6
Continuous
 62
     1
100
AcDbLine
 10
37.67889252399306
 20
31.69363040451222
 30
0.0
 11
37.78850657399306
 21
31.69857440451224
 31
0.0
  0
LINE
  5
77
330
2
100
AcDbEntity
  8
GAIKEI
  6
Continuous
 62
     1
100
AcDbLine
 10
37.79114652399306
 20
31.69984740451227
 30
0.0
 11
37.67907682399306
 21
31.69479265451227
 31
0.0
  0
LINE
  5
78
330
2
100
AcDbEntity
  8
GAIKEI
  6
Continuous
 62
     1
100
AcDbLine
 10
37.87580552399305
 20
31.88084555451226
 30
0.0
 11
37.87580552399305
 21
31.87408955451227
 31
0.0
  0
LINE
  5
79
330
2
100
AcDbEntity
  8
GAIKEI
  6
Continuous
 62
     1
100
AcDbLine
 10
37.76028202399306
 20
31.90089030451228
 30
0.0
 11
37.6609340239931
 21
31.90409275451222
 31
0.0
  0
LINE
  5
7A
330
2
100
AcDbEntity
  8
GAIKEI
  6
Continuous
 62
     1
100
AcDbLine
 10
37.76028202399306
 20
31.88353500451226
 30
0.0
 11
37.87580552399305
 21
31.88084555451226
 31
0.0
  0
LINE
  5
7B
330
2
100
AcDbEntity
  8
GAIKEI
  6
Continuous
 62
     1
100
AcDbLine
 10
37.76028202399306
 20
31.90089030451228
 30
0.0
 11
37.76028202399306
 21
31.88353500451226
 31
0.0
  0
LINE
  5
7C
330
2
100
AcDbEntity
  8
GAIKEI
  6
Continuous
 62
     1
100
AcDbLine
 10
37.67951332399304
 20
31.69765235451226
 30
0.0
 11
37.79416047399303
 21
31.70134795451228
 31
0.0
  0
LINE
  5
7D
330
2
100
AcDbEntity
  8
GAIKEI
  6
Continuous
 62
     1
100
AcDbLine
 10
37.87580552399305
 20
31.87408955451227
 30
0.0
 11
37.87580552399305
 21
31.83486795451225
 31
0.0
  0
LINE
  5
7E
330
2
100
AcDbEntity
  8
GAIKEI
  6
Continuous
 62
     1
100
AcDbLine
 10
37.6609340239931
 20
31.88101585451224
 30
0.0
 11
37.87580552399305
 21
31.87408955451227
 31
0.0
  0
LINE
  5
7F
330
2
100
AcDbEntity
  8
GAIKEI
  6
Continuous
 62
     1
100
AcDbLine
 10
39.8708055239931
 20
5.569017854512253
 30
0.0
 11
39.86080552399311
 21
5.569017854512253
 31
0.0
  0
LINE
  5
80
330
2
100
AcDbEntity
  8
GAIKEI
  6
Continuous
 62
     1
100
AcDbLine
 10
39.86080552399311
 20
4.569017854512253
 30
0.0
 11
39.8708055239931
 21
4.569017854512253
 31
0.0
  0
LINE
  5
81
330
2
100
AcDbEntity
  8
GAIKEI
  6
Continuous
 62
     1
100
AcDbLine
 10
39.8708055239931
 20
5.131097154512275
 30
0.0
 11
39.8708055239931
 21
4.569017854512253
 31
0.0
  0
LINE
  5
82
330
2
100
AcDbEntity
  8
GAIKEI
  6
Continuous
 62
     1
100
AcDbLine
 10
39.8708055239931
 20
5.569017854512253
 30
0.0
 11
39.8708055239931
 21
5.294034654512273
 31
0.0
  0
ARC
  5
83
330
2
100
AcDbEntity
  8
GAIKEI
  6
Continuous
 62
     1
100
AcDbCircle
 10
38.18080552399312
 20
2.67353465451228
 30
0.0
 40
0.05
100
AcDbArc
 50
341.8051279999978
 51
0.0
  0
LINE
  5
84
330
2
100
AcDbEntity
  8
GAIKEI
  6
Continuous
 62
     1
100
AcDbLine
 10
38.23080552399307
 20
2.67353465451228
 30
0.0
 11
38.23080552399307
 21
2.723534654512263
 31
0.0
  0
LINE
  5
85
330
2
100
AcDbEntity
  8
GAIKEI
  6
Continuous
 62
     1
100
AcDbLine
 10
38.23080552399307
 20
2.67353465451228
 30
0.0
 11
38.22830552399302
 21
2.67353465451228
 31
0.0
  0
LINE
  5
86
330
2
100
AcDbEntity
  8
GAIKEI
  6
Continuous
 62
     1
100
AcDbLine
 10
38.23080552399307
 20
2.823534654512286
 30
0.0
 11
38.23080552399307
 21
2.723534654512263
 31
0.0
  0
LINE
  5
87
330
2
100
AcDbEntity
  8
GAIKEI
  6
Continuous
 62
     1
100
AcDbLine
 10
38.23080552399307
 20
2.723534654512263
 30
0.0
 11
38.22830552399302
 21
2.723534654512263
 31
0.0
  0
LINE
  5
88
330
2
100
AcDbEntity
  8
GAIKEI
  6
Continuous
 62
     1
100
AcDbLine
 10
38.23080552399307
 20
2.823534654512286
 30
0.0
 11
38.23080552399307
 21
2.915453404512277
 31
0.0
  0
LINE
  5
89
330
2
100
AcDbEntity
  8
GAIKEI
  6
Continuous
 62
     1
100
AcDbLine
 10
38.22830552399302
 20
2.823534654512286
 30
0.0
 11
38.23080552399307
 21
2.823534654512286
 31
0.0
  0
ELLIPSE
  5
8A
330
2
100
AcDbEntity
  8
GAIKEI
  6
Continuous
 62
     1
100
AcDbEllipse
 10
39.72973072399314
 20
3.200086354512251
 30
0.0
 11
0.0013083989060728
 21
0.0249657383688833
 31
0.0
210
0.0
220
0.0
230
1.0
 40
0.0522640000000316
 41
-1.568057271053721
 42
-0.2891628250635576
  0
ELLIPSE
  5
8B
330
2
100
AcDbEntity
  8
GAIKEI
  6
Continuous
 62
     1
100
AcDbEllipse
 10
39.72973072399314
 20
3.175084854512249
 30
0.0
 11
-0.001308398906075
 21
0.0249657383688771
 31
0.0
210
0.0
220
0.0
230
1.0
 40
0.0522640000000439
 41
3.141592653590571
 42
4.709649924643508
  0
ELLIPSE
  5
8C
330
2
100
AcDbEntity
  8
GAIKEI
  6
Continuous
 62
     1
100
AcDbEllipse
 10
39.5259831239931
 20
3.17942750451229
 30
0.0
 11
-0.0020934382496834
 21
0.0399451813901823
 31
0.0
210
0.0
220
0.0
230
1.0
 40
0.5645620000001469
 41
3.141592653591235
 42
4.682810193995002
  0
ELLIPSE
  5
8D
330
2
100
AcDbEntity
  8
GAIKEI
  6
Continuous
 62
     1
100
AcDbEllipse
 10
39.33357492399306
 20
3.169343804512237
 30
0.0
 11
-0.0020934382496834
 21
0.0399451813901823
 31
0.0
210
0.0
220
0.0
230
1.0
 40
0.5645620000001469
 41
3.141592653591235
 42
4.682810193995002
  0
ARC
  5
8E
330
2
100
AcDbEntity
  8
GAIKEI
  6
Continuous
 62
     1
100
AcDbCircle
 10
39.80080552399305
 20
3.196361504512282
 30
0.0
 40
0.025
100
AcDbArc
 50
0.0
 51
86.99999999999441
  0
ARC
  5
8F
330
2
100
AcDbEntity
  8
GAIKEI
  6
Continuous
 62
     1
100
AcDbCircle
 10
39.80080552399305
 20
3.178809704512275
 30
0.0
 40
0.025
100
AcDbArc
 50
273.0000000000056
 51
0.0
  0
ARC
  5
90
330
2
100
AcDbEntity
  8
GAIKEI
  6
Continuous
 62
     1
100
AcDbCircle
 10
38.18830552399305
 20
2.138534654512284
 30
0.0
 40
0.04
100
AcDbArc
 50
270.0
 51
0.0
  0
ARC
  5
91
330
2
100
AcDbEntity
  8
GAIKEI
  6
Continuous
 62
     1
100
AcDbCircle
 10
38.46769167863615
 20
2.841024690214737
 30
0.0
 40
0.2826613788212478
100
AcDbArc
 50
91.40826275002231
 51
171.2693786327814
  0
ARC
  5
92
330
2
100
AcDbEntity
  8
GAIKEI
  6
Continuous
 62
     1
100
AcDbCircle
 10
38.46778893343333
 20
2.840276386687918
 30
0.0
 40
0.2434294699159327
100
AcDbArc
 50
91.1652988506529
 51
169.6694999777913
  0
LINE
  5
93
330
2
100
AcDbEntity
  8
GAIKEI
  6
Continuous
 62
     1
100
AcDbLine
 10
38.46283832399307
 20
3.083655504512307
 30
0.0
 11
39.16049077399303
 21
3.12021795451227
 31
0.0
  0
LINE
  5
94
330
2
100
AcDbEntity
  8
GAIKEI
  6
Continuous
 62
     1
100
AcDbLine
 10
39.32436657399306
 20
3.128806304512266
 30
0.0
 11
39.51677477399311
 21
3.138890004512262
 31
0.0
  0
LINE
  5
95
330
2
100
AcDbEntity
  8
GAIKEI
  6
Continuous
 62
     1
100
AcDbLine
 10
39.73307352399307
 20
3.224945504512277
 30
0.0
 11
39.80211392399302
 21
3.221327254512289
 31
0.0
  0
LINE
  5
96
330
2
100
AcDbEntity
  8
GAIKEI
  6
Continuous
 62
     1
100
AcDbLine
 10
39.82580552399303
 20
3.196361504512282
 30
0.0
 11
39.82580552399303
 21
3.178809704512275
 31
0.0
  0
LINE
  5
97
330
2
100
AcDbEntity
  8
GAIKEI
  6
Continuous
 62
     1
100
AcDbLine
 10
39.73103912399312
 20
3.200086354512251
 30
0.0
 11
39.82580552399303
 21
3.196361504512282
 31
0.0
  0
LINE
  5
98
330
2
100
AcDbEntity
  8
GAIKEI
  6
Continuous
 62
     1
100
AcDbLine
 10
39.80211392399302
 20
3.153844004512251
 30
0.0
 11
39.73103912399312
 21
3.150119104512299
 31
0.0
  0
LINE
  5
99
330
2
100
AcDbEntity
  8
GAIKEI
  6
Continuous
 62
     1
100
AcDbLine
 10
39.82580552399303
 20
3.178809704512275
 30
0.0
 11
39.73103912399312
 21
3.175084854512249
 31
0.0
  0
LINE
  5
9A
330
2
100
AcDbEntity
  8
GAIKEI
  6
Continuous
 62
     1
100
AcDbLine
 10
39.73103912399312
 20
3.150119104512299
 30
0.0
 11
39.6492185239931
 21
3.14583110451224
 31
0.0
  0
LINE
  5
9B
330
2
100
AcDbEntity
  8
GAIKEI
  6
Continuous
 62
     1
100
AcDbLine
 10
39.73103912399312
 20
3.200086354512251
 30
0.0
 11
39.68160072399302
 21
3.202677304512263
 31
0.0
  0
LINE
  5
9C
330
2
100
AcDbEntity
  8
GAIKEI
  6
Continuous
 62
     1
100
AcDbLine
 10
39.67917762399303
 20
3.172366904512273
 30
0.0
 11
39.73103912399312
 21
3.175084854512249
 31
0.0
  0
LINE
  5
9D
330
2
100
AcDbEntity
  8
GAIKEI
  6
Continuous
 62
     1
100
AcDbLine
 10
39.73103912399312
 20
3.175084854512249
 30
0.0
 11
39.73103912399312
 21
3.200086354512251
 31
0.0
  0
LINE
  5
9E
330
2
100
AcDbEntity
  8
GAIKEI
  6
Continuous
 62
     1
100
AcDbLine
 10
39.6492185239931
 20
3.14583110451224
 30
0.0
 11
39.52807652399302
 21
3.139482304512284
 31
0.0
  0
LINE
  5
9F
330
2
100
AcDbEntity
  8
GAIKEI
  6
Continuous
 62
     1
100
AcDbLine
 10
39.54858667399309
 20
3.17942750451229
 30
0.0
 11
39.68160072399302
 21
3.185601754512276
 31
0.0
  0
LINE
  5
A0
330
2
100
AcDbEntity
  8
GAIKEI
  6
Continuous
 62
     1
100
AcDbLine
 10
39.68160072399302
 20
3.202677304512263
 30
0.0
 11
39.68160072399302
 21
3.185601754512276
 31
0.0
  0
LINE
  5
A1
330
2
100
AcDbEntity
  8
GAIKEI
  6
Continuous
 62
     1
100
AcDbLine
 10
39.68160557399311
 20
3.203506904512266
 30
0.0
 11
39.68160072399302
 21
3.202677304512263
 31
0.0
  0
LINE
  5
A2
330
2
100
AcDbEntity
  8
GAIKEI
  6
Continuous
 62
     1
100
AcDbLine
 10
39.52807652399302
 20
3.139482304512284
 30
0.0
 11
39.33566837399302
 21
3.129398604512289
 31
0.0
  0
LINE
  5
A3
330
2
100
AcDbEntity
  8
GAIKEI
  6
Continuous
 62
     1
100
AcDbLine
 10
39.35617847399304
 20
3.169343804512237
 30
0.0
 11
39.54858667399309
 21
3.17942750451229
 31
0.0
  0
LINE
  5
A4
330
2
100
AcDbEntity
  8
GAIKEI
  6
Continuous
 62
     1
100
AcDbLine
 10
39.54858667399309
 20
3.17942750451229
 30
0.0
 11
39.54858667399309
 21
3.189406804512259
 31
0.0
  0
LINE
  5
A5
330
2
100
AcDbEntity
  8
GAIKEI
  6
Continuous
 62
     1
100
AcDbLine
 10
38.18830552399305
 20
2.098534654512263
 30
0.0
 11
38.16080552399302
 21
2.098534654512263
 31
0.0
  0
LINE
  5
A6
330
2
100
AcDbEntity
  8
GAIKEI
  6
Continuous
 62
     1
100
AcDbLine
 10
38.16080552399302
 20
2.138534654512284
 30
0.0
 11
38.18830552399305
 21
2.138534654512284
 31
0.0
  0
LINE
  5
A7
330
2
100
AcDbEntity
  8
GAIKEI
  6
Continuous
 62
     1
100
AcDbLine
 10
39.33566837399302
 20
3.129398604512289
 30
0.0
 11
39.16049077399303
 21
3.12021795451227
 31
0.0
  0
LINE
  5
A8
330
2
100
AcDbEntity
  8
GAIKEI
  6
Continuous
 62
     1
100
AcDbLine
 10
39.16049077399303
 20
3.12021795451227
 30
0.0
 11
39.15839732399307
 21
3.160163104512264
 31
0.0
  0
LINE
  5
A9
330
2
100
AcDbEntity
  8
GAIKEI
  6
Continuous
 62
     1
100
AcDbLine
 10
38.46074487399311
 20
3.123600704512256
 30
0.0
 11
39.15839732399307
 21
3.160163104512264
 31
0.0
  0
LINE
  5
AA
330
2
100
AcDbEntity
  8
GAIKEI
  6
Continuous
 62
     1
100
AcDbLine
 10
39.16049077399303
 20
3.12021795451227
 30
0.0
 11
38.46283832399307
 21
3.083655504512307
 31
0.0
  0
LINE
  5
AB
330
2
100
AcDbEntity
  8
GAIKEI
  6
Continuous
 62
     1
100
AcDbLine
 10
38.18830552399305
 20
2.629034654512253
 30
0.0
 11
38.18830552399305
 21
2.883929604512275
 31
0.0
  0
LINE
  5
AC
330
2
100
AcDbEntity
  8
GAIKEI
  6
Continuous
 62
     1
100
AcDbLine
 10
38.18830552399305
 20
2.138534654512284
 30
0.0
 11
38.18830552399305
 21
2.284034654512282
 31
0.0
  0
LINE
  5
AD
330
2
100
AcDbEntity
  8
GAIKEI
  6
Continuous
 62
     1
100
AcDbLine
 10
38.22830552399302
 20
2.282190804512254
 30
0.0
 11
38.22830552399302
 21
2.138534654512284
 31
0.0
  0
LINE
  5
AE
330
2
100
AcDbEntity
  8
GAIKEI
  6
Continuous
 62
     1
100
AcDbLine
 10
38.22830552399302
 20
2.883929604512275
 30
0.0
 11
38.22830552399302
 21
2.63087845451227
 31
0.0
  0
LINE
  5
AF
330
2
100
AcDbEntity
  8
GAIKEI
  6
Continuous
 62
     1
100
AcDbLine
 10
38.18830552399305
 20
2.138534654512284
 30
0.0
 11
38.22830552399302
 21
2.138534654512284
 31
0.0
  0
LINE
  5
B0
330
2
100
AcDbEntity
  8
GAIKEI
  6
Continuous
 62
     1
100
AcDbLine
 10
38.18830552399305
 20
2.098534654512263
 30
0.0
 11
38.18830552399305
 21
2.138534654512284
 31
0.0
  0
LINE
  5
B1
330
2
100
AcDbEntity
  8
GAIKEI
  6
Continuous
 62
     1
100
AcDbLine
 10
38.46283832399307
 20
3.083655504512307
 30
0.0
 11
38.46074487399311
 21
3.123600704512256
 31
0.0
  0
LINE
  5
B2
330
2
100
AcDbEntity
  8
GAIKEI
  6
Continuous
 62
     1
100
AcDbLine
 10
38.22830552399302
 20
2.883929604512275
 30
0.0
 11
38.18830552399305
 21
2.883929604512275
 31
0.0
  0
LINE
  5
B3
330
2
100
AcDbEntity
  8
GAIKEI
  6
Continuous
 62
     1
100
AcDbLine
 10
39.15839732399307
 20
3.160163104512264
 30
0.0
 11
39.15839732399307
 21
3.168957854512285
 31
0.0
  0
LINE
  5
B4
330
2
100
AcDbEntity
  8
GAIKEI
  6
Continuous
 62
     1
100
AcDbLine
 10
39.15839732399307
 20
3.160163104512264
 30
0.0
 11
39.35617847399304
 21
3.169343804512237
 31
0.0
  0
LINE
  5
B5
330
2
100
AcDbEntity
  8
GAIKEI
  6
Continuous
 62
     1
100
AcDbLine
 10
39.35617847399304
 20
3.179323154512303
 30
0.0
 11
39.35617847399304
 21
3.169343804512237
 31
0.0
  0
LINE
  5
B6
330
2
100
AcDbEntity
  8
GAIKEI
  6
Continuous
 62
     1
100
AcDbLine
 10
39.93580552399304
 20
5.294034654512273
 30
0.0
 11
39.98580552399311
 21
5.294034654512273
 31
0.0
  0
LINE
  5
B7
330
2
100
AcDbEntity
  8
GAIKEI
  6
Continuous
 62
     1
100
AcDbLine
 10
39.98580552399311
 20
5.144034654512267
 30
0.0
 11
39.93580552399304
 21
5.138409654512258
 31
0.0
  0
LINE
  5
B8
330
2
100
AcDbEntity
  8
GAIKEI
  6
Continuous
 62
     1
100
AcDbLine
 10
39.98580552399311
 20
5.294034654512273
 30
0.0
 11
39.98580552399311
 21
5.144034654512267
 31
0.0
  0
LINE
  5
B9
330
2
100
AcDbEntity
  8
GAIKEI
  6
Continuous
 62
     1
100
AcDbLine
 10
39.93580552399304
 20
5.294034654512273
 30
0.0
 11
39.82910677399308
 21
5.294034654512273
 31
0.0
  0
LINE
  5
BA
330
2
100
AcDbEntity
  8
GAIKEI
  6
Continuous
 62
     1
100
AcDbLine
 10
39.82910677399308
 20
5.294034654512273
 30
0.0
 11
39.78580552399306
 21
5.269034654512267
 31
0.0
  0
LINE
  5
BB
330
2
100
AcDbEntity
  8
GAIKEI
  6
Continuous
 62
     1
100
AcDbLine
 10
39.93580552399304
 20
5.138409654512258
 30
0.0
 11
39.93580552399304
 21
5.294034654512273
 31
0.0
  0
LINE
  5
BC
330
2
100
AcDbEntity
  8
GAIKEI
  6
Continuous
 62
     1
100
AcDbLine
 10
39.78580552399306
 20
5.121534654512288
 30
0.0
 11
39.93580552399304
 21
5.138409654512258
 31
0.0
  0
LINE
  5
BD
330
2
100
AcDbEntity
  8
GAIKEI
  6
Continuous
 62
     1
100
AcDbLine
 10
39.78580552399306
 20
5.269034654512267
 30
0.0
 11
39.83580552399302
 21
5.319034654512279
 31
0.0
  0
LINE
  5
BE
330
2
100
AcDbEntity
  8
GAIKEI
  6
Continuous
 62
     1
100
AcDbLine
 10
39.83580552399302
 20
5.319034654512279
 30
0.0
 11
39.83580552399302
 21
5.719034654512256
 31
0.0
  0
LINE
  5
BF
330
2
100
AcDbEntity
  8
GAIKEI
  6
Continuous
 62
     1
100
AcDbLine
 10
39.83580552399302
 20
5.719034654512256
 30
0.0
 11
39.81419722399311
 21
5.74064290451227
 31
0.0
  0
LINE
  5
C0
330
2
100
AcDbEntity
  8
GAIKEI
  6
Continuous
 62
     1
100
AcDbLine
 10
39.78580552399306
 20
5.094034654512256
 30
0.0
 11
39.45034907399302
 21
5.094034654512256
 31
0.0
  0
LINE
  5
C1
330
2
100
AcDbEntity
  8
GAIKEI
  6
Continuous
 62
     1
100
AcDbLine
 10
39.78580552399306
 20
5.661360704512276
 30
0.0
 11
39.78580552399306
 21
5.094034654512256
 31
0.0
  0
ELLIPSE
  5
C2
330
2
100
AcDbEntity
  8
GAIKEI
  6
Continuous
 62
     1
100
AcDbEllipse
 10
37.78548327399307
 20
1.975590704512285
 30
0.0
 11
-0.0008726203218647
 21
0.0499923847578196
 31
0.0
210
0.0
220
0.0
230
1.0
 40
0.207881
 41
3.141592653589792
 42
4.708760413090888
  0
ELLIPSE
  5
C3
330
2
100
AcDbEntity
  8
GAIKEI
  6
Continuous
 62
     1
100
AcDbEllipse
 10
37.79068107399309
 20
2.003133904512282
 30
0.0
 11
-0.0004363101609322
 21
-0.0249961923789098
 31
0.0
210
0.0
220
0.0
230
1.0
 40
0.207881
 41
1.574424894088698
 42
3.141592653589792
  0
ELLIPSE
  5
C4
330
2
100
AcDbEntity
  8
GAIKEI
  6
Continuous
 62
     1
100
AcDbEllipse
 10
37.76935167399307
 20
1.975309154512245
 30
0.0
 11
-0.0008726203218647
 21
0.0499923847578196
 31
0.0
210
0.0
220
0.0
230
1.0
 40
0.207881
 41
3.141592653589792
 42
4.665653086818466
  0
ARC
  5
C5
330
2
100
AcDbEntity
  8
GAIKEI
  6
Continuous
 62
     1
100
AcDbCircle
 10
38.265934023993
 20
1.994838354512268
 30
0.0
 40
0.025
100
AcDbArc
 50
0.0
 51
88.99999999999824
  0
ARC
  5
C6
330
2
100
AcDbEntity
  8
GAIKEI
  6
Continuous
 62
     1
100
AcDbCircle
 10
38.24093402399302
 20
1.983540654512296
 30
0.0
 40
0.05
100
AcDbArc
 50
271.0000000000018
 51
0.0
  0
ARC
  5
C7
330
2
100
AcDbEntity
  8
GAIKEI
  6
Continuous
 62
     1
100
AcDbCircle
 10
37.61093402399303
 20
1.972543954512275
 30
0.0
 40
0.05
100
AcDbArc
 50
271.0000000000018
 51
0.0
  0
ARC
  5
C8
330
2
100
AcDbEntity
  8
GAIKEI
  6
Continuous
 62
     7
100
AcDbCircle
 10
37.61093402399303
 20
32.36552530451232
 30
0.0
 40
0.05
100
AcDbArc
 50
0.0
 51
88.99999999999824
  0
LINE
  5
C9
330
2
100
AcDbEntity
  8
GAIKEI
  6
Continuous
 62
     1
100
AcDbLine
 10
37.6609340239931
 20
31.63455555451228
 30
0.0
 11
37.6609340239931
 21
31.32242855451224
 31
0.0
  0
LINE
  5
CA
330
2
100
AcDbEntity
  8
GAIKEI
  6
Continuous
 62
     7
100
AcDbLine
 10
37.6609340239931
 20
32.21967815451231
 30
0.0
 11
37.6609340239931
 21
31.91368095451222
 31
0.0
  0
LINE
  5
CB
330
2
100
AcDbEntity
  8
GAIKEI
  6
Continuous
 62
     1
100
AcDbLine
 10
38.015934023993
 20
2.038805804512264
 30
0.0
 11
38.06593402399307
 21
2.023333154512272
 31
0.0
  0
LINE
  5
CC
330
2
100
AcDbEntity
  8
GAIKEI
  6
Continuous
 62
     1
100
AcDbLine
 10
37.66109317399304
 20
2.04499955451223
 30
0.0
 11
38.015934023993
 21
2.038805804512264
 31
0.0
  0
LINE
  5
CD
330
2
100
AcDbEntity
  8
GAIKEI
  6
Continuous
 62
     1
100
AcDbLine
 10
37.79111737399302
 20
2.028130104512257
 30
0.0
 11
38.26637032399304
 21
2.019834554512272
 31
0.0
  0
LINE
  5
CE
330
2
100
AcDbEntity
  8
GAIKEI
  6
Continuous
 62
     1
100
AcDbLine
 10
38.24180667399304
 20
1.933548254512288
 30
0.0
 11
37.78635587399305
 21
1.925598354512288
 31
0.0
  0
LINE
  5
CF
330
2
100
AcDbEntity
  8
GAIKEI
  6
Continuous
 62
     1
100
AcDbLine
 10
37.79587882399307
 20
1.975590704512285
 30
0.0
 11
38.29093402399309
 21
1.983540654512296
 31
0.0
  0
LINE
  5
D0
330
2
100
AcDbEntity
  8
GAIKEI
  6
Continuous
 62
     1
100
AcDbLine
 10
38.29093402399309
 20
1.994838354512268
 30
0.0
 11
38.29093402399309
 21
1.983540654512296
 31
0.0
  0
LINE
  5
D1
330
2
100
AcDbEntity
  8
GAIKEI
  6
Continuous
 62
     1
100
AcDbLine
 10
37.79587882399307
 20
2.003133904512282
 30
0.0
 11
38.29093402399309
 21
1.994838354512268
 31
0.0
  0
LINE
  5
D2
330
2
100
AcDbEntity
  8
GAIKEI
  6
Continuous
 62
     1
100
AcDbLine
 10
37.78635587399305
 20
1.925598354512288
 30
0.0
 11
37.77022432399309
 21
1.925316754512266
 31
0.0
  0
LINE
  5
D3
330
2
100
AcDbEntity
  8
GAIKEI
  6
Continuous
 62
     1
100
AcDbLine
 10
37.6609340239931
 20
2.030402454512284
 30
0.0
 11
37.79111737399302
 21
2.028130104512257
 31
0.0
  0
LINE
  5
D4
330
2
100
AcDbEntity
  8
GAIKEI
  6
Continuous
 62
     1
100
AcDbLine
 10
37.77232097399309
 20
1.975179504512283
 30
0.0
 11
37.79587882399307
 21
1.975590704512285
 31
0.0
  0
LINE
  5
D5
330
2
100
AcDbEntity
  8
GAIKEI
  6
Continuous
 62
     1
100
AcDbLine
 10
37.79587882399307
 20
1.975590704512285
 30
0.0
 11
37.79587882399307
 21
2.003133904512282
 31
0.0
  0
LINE
  5
D6
330
2
100
AcDbEntity
  8
GAIKEI
  6
Continuous
 62
     1
100
AcDbLine
 10
37.79587882399307
 20
2.003133904512282
 30
0.0
 11
37.6609340239931
 21
2.005489404512303
 31
0.0
  0
LINE
  5
D7
330
2
100
AcDbEntity
  8
GAIKEI
  6
Continuous
 62
     1
100
AcDbLine
 10
37.69327442399305
 20
2.000925054512237
 30
0.0
 11
37.66082782399309
 21
2.00262550451228
 31
0.0
  0
LINE
  5
D8
330
2
100
AcDbEntity
  8
GAIKEI
  6
Continuous
 62
     1
100
AcDbLine
 10
37.73617912399306
 20
1.974295154512304
 30
0.0
 11
37.6609340239931
 21
1.978895854512302
 31
0.0
  0
LINE
  5
D9
330
2
100
AcDbEntity
  8
GAIKEI
  6
Continuous
 62
     1
100
AcDbLine
 10
37.77022432399309
 20
1.925316754512266
 30
0.0
 11
37.61180667399305
 21
1.922551554512295
 31
0.0
  0
LINE
  5
DA
330
2
100
AcDbEntity
  8
GAIKEI
  6
Continuous
 62
     1
100
AcDbLine
 10
37.7797736239931
 20
1.973154754512279
 30
0.0
 11
37.73617912399306
 21
1.974295154512304
 31
0.0
  0
LINE
  5
DB
330
2
100
AcDbEntity
  8
GAIKEI
  6
Continuous
 62
     1
100
AcDbLine
 10
37.73617912399306
 20
1.974295154512304
 30
0.0
 11
37.6609340239931
 21
1.972543954512275
 31
0.0
  0
LINE
  5
DC
330
2
100
AcDbEntity
  8
GAIKEI
  6
Continuous
 62
     7
100
AcDbLine
 10
37.6609340239931
 20
32.21644930451228
 30
0.0
 11
37.6609340239931
 21
31.22594675451225
 31
0.0
  0
LINE
  5
DD
330
2
100
AcDbEntity
  8
GAIKEI
  6
Continuous
 62
     7
100
AcDbLine
 10
37.61180667399305
 20
2.121619954512283
 30
0.0
 11
37.61180667399305
 21
2.938427404512253
 31
0.0
  0
LINE
  5
DE
330
2
100
AcDbEntity
  8
GAIKEI
  6
Continuous
 62
     7
100
AcDbLine
 10
37.61180667399306
 20
1.922551554512324
 30
0.0
 11
37.55843402399302
 21
1.921619954512266
 31
0.0
  0
LINE
  5
DF
330
2
100
AcDbEntity
  8
GAIKEI
  6
Continuous
 62
     7
100
AcDbLine
 10
37.61180667399305
 20
32.41551770451227
 30
0.0
 11
37.55843402399302
 21
32.41644935451225
 31
0.0
  0
LINE
  5
E0
330
2
100
AcDbEntity
  8
GAIKEI
  6
Continuous
 62
     1
100
AcDbLine
 10
37.6609340239931
 20
1.972543954512275
 30
0.0
 11
37.6609340239931
 21
2.121619954512283
 31
0.0
  0
LINE
  5
E1
330
2
100
AcDbEntity
  8
GAIKEI
  6
Continuous
 62
     1
100
AcDbLine
 10
37.61180667399305
 20
2.121619954512283
 30
0.0
 11
37.6609340239931
 21
2.121619954512283
 31
0.0
  0
LINE
  5
E2
330
2
100
AcDbEntity
  8
GAIKEI
  6
Continuous
 62
     7
100
AcDbLine
 10
37.61180667399306
 20
1.922551554512324
 30
0.0
 11
37.61180667399305
 21
2.121619954512283
 31
0.0
  0
LINE
  5
E3
330
2
100
AcDbEntity
  8
GAIKEI
  6
Continuous
 62
     7
100
AcDbLine
 10
37.6609340239931
 20
32.21644930451228
 30
0.0
 11
37.6609340239931
 21
32.36552530451232
 31
0.0
  0
ARC
  5
E4
330
2
100
AcDbEntity
  8
GAIKEI
  6
Continuous
 62
     1
100
AcDbCircle
 10
38.02941547399313
 20
2.749034654512286
 30
0.0
 40
0.38639005
100
AcDbArc
 50
329.1543930000066
 51
32.35843300000134
  0
LINE
  5
E5
330
2
100
AcDbEntity
  8
GAIKEI
  6
Continuous
 62
     1
100
AcDbLine
 10
38.35580552399311
 20
2.955836104512258
 30
0.0
 11
38.26080552399304
 21
2.97403465451228
 31
0.0
  0
LINE
  5
E6
330
2
100
AcDbEntity
  8
GAIKEI
  6
Continuous
 62
     1
100
AcDbLine
 10
38.35580552399311
 20
2.955836104512258
 30
0.0
 11
38.35580552399311
 21
2.577100854512309
 31
0.0
  0
LINE
  5
E7
330
2
100
AcDbEntity
  8
GAIKEI
  6
Continuous
 62
     1
100
AcDbLine
 10
38.26080552399304
 20
2.914034654512249
 30
0.0
 11
38.26080552399304
 21
2.97403465451228
 31
0.0
  0
LINE
  5
E8
330
2
100
AcDbEntity
  8
GAIKEI
  6
Continuous
 62
     1
100
AcDbLine
 10
38.36526417399305
 20
2.47457595451226
 30
0.0
 11
38.37580552399309
 21
2.464034654512261
 31
0.0
  0
LINE
  5
E9
330
2
100
AcDbEntity
  8
GAIKEI
  6
Continuous
 62
     1
100
AcDbLine
 10
38.26080552399304
 20
2.628035104512264
 30
0.0
 11
38.26080552399304
 21
2.914034654512249
 31
0.0
  0
LINE
  5
EA
330
2
100
AcDbEntity
  8
GAIKEI
  6
Continuous
 62
     1
100
AcDbLine
 10
38.26080552399304
 20
2.914034654512249
 30
0.0
 11
38.23599307399303
 21
2.93884705451228
 31
0.0
  0
LINE
  5
EB
330
2
100
AcDbEntity
  8
GAIKEI
  6
Continuous
 62
     1
100
AcDbLine
 10
38.33080552399309
 20
2.114034654512238
 30
0.0
 11
38.30080552399312
 21
2.084034654512265
 31
0.0
  0
LINE
  5
EC
330
2
100
AcDbEntity
  8
GAIKEI
  6
Continuous
 62
     1
100
AcDbLine
 10
38.22830552399302
 20
2.144034654512267
 30
0.0
 11
38.30080552399312
 21
2.144034654512267
 31
0.0
  0
LINE
  5
ED
330
2
100
AcDbEntity
  8
GAIKEI
  6
Continuous
 62
     1
100
AcDbLine
 10
38.30080552399312
 20
2.084034654512265
 30
0.0
 11
38.16080552399302
 21
2.084034654512265
 31
0.0
  0
LINE
  5
EE
330
2
100
AcDbEntity
  8
GAIKEI
  6
Continuous
 62
     1
100
AcDbLine
 10
38.37580552399309
 20
2.464034654512261
 30
0.0
 11
38.36420797399306
 21
2.452437104512256
 31
0.0
  0
LINE
  5
EF
330
2
100
AcDbEntity
  8
GAIKEI
  6
Continuous
 62
     1
100
AcDbLine
 10
38.30080552399312
 20
2.144034654512267
 30
0.0
 11
38.34580552399312
 21
2.307914104512292
 31
0.0
  0
LINE
  5
F0
330
2
100
AcDbEntity
  8
GAIKEI
  6
Continuous
 62
     1
100
AcDbLine
 10
38.30080552399312
 20
2.144034654512267
 30
0.0
 11
38.33080552399309
 21
2.114034654512238
 31
0.0
  0
LINE
  5
F1
330
2
100
AcDbEntity
  8
GAIKEI
  6
Continuous
 62
     1
100
AcDbLine
 10
38.36080552399307
 20
2.144034654512267
 30
0.0
 11
38.33080552399309
 21
2.114034654512238
 31
0.0
  0
LINE
  5
F2
330
2
100
AcDbEntity
  8
GAIKEI
  6
Continuous
 62
     1
100
AcDbLine
 10
38.40580552399307
 20
2.434034654512288
 30
0.0
 11
38.36080552399307
 21
2.144034654512267
 31
0.0
  0
LINE
  5
F3
330
2
100
AcDbEntity
  8
GAIKEI
  6
Continuous
 62
     1
100
AcDbLine
 10
38.40580552399307
 20
2.434034654512288
 30
0.0
 11
38.37580552399309
 21
2.464034654512261
 31
0.0
  0
ARC
  5
F4
330
2
100
AcDbEntity
  8
GAIKEI
  6
Continuous
 62
     1
100
AcDbCircle
 10
39.67080552399306
 20
22.16903465451228
 30
0.0
 40
0.35
100
AcDbArc
 50
0.0
 51
16.25702800000707
  0
ARC
  5
F5
330
2
100
AcDbEntity
  8
GAIKEI
  6
Continuous
 62
     1
100
AcDbCircle
 10
39.67080552399306
 20
22.16903465451228
 30
0.0
 40
0.35
100
AcDbArc
 50
343.7429719999929
 51
0.0
  0
ARC
  5
F6
330
2
100
AcDbEntity
  8
GAIKEI
  6
Continuous
 62
     1
100
AcDbCircle
 10
39.95881017399312
 20
22.08505060451225
 30
0.0
 40
0.05
100
AcDbArc
 50
275.0000009999959
 51
343.7429719999929
  0
ARC
  5
F7
330
2
100
AcDbEntity
  8
GAIKEI
  6
Continuous
 62
     1
100
AcDbCircle
 10
39.95881017399312
 20
22.25301865451223
 30
0.0
 40
0.05
100
AcDbArc
 50
16.25702800000707
 51
84.99999900000409
  0
LINE
  5
F8
330
2
100
AcDbEntity
  8
GAIKEI
  6
Continuous
 62
     1
100
AcDbLine
 10
40.00681092399303
 20
22.26701600451227
 30
0.0
 11
40.00681092399303
 21
22.07105325451224
 31
0.0
  0
LINE
  5
F9
330
2
100
AcDbEntity
  8
GAIKEI
  6
Continuous
 62
     1
100
AcDbLine
 10
39.92080552399306
 20
22.30403465451226
 30
0.0
 11
39.88580552399309
 21
22.30403465451226
 31
0.0
  0
LINE
  5
FA
330
2
100
AcDbEntity
  8
GAIKEI
  6
Continuous
 62
     1
100
AcDbLine
 10
39.88580552399309
 20
22.03403465451228
 30
0.0
 11
39.92080552399306
 21
22.03403465451228
 31
0.0
  0
LINE
  5
FB
330
2
100
AcDbEntity
  8
GAIKEI
  6
Continuous
 62
     1
100
AcDbLine
 10
39.96316797399309
 20
22.30282840451227
 30
0.0
 11
39.92080552399306
 21
22.30653465451226
 31
0.0
  0
LINE
  5
FC
330
2
100
AcDbEntity
  8
GAIKEI
  6
Continuous
 62
     1
100
AcDbLine
 10
39.92080552399306
 20
22.03153465451226
 30
0.0
 11
39.96316797399309
 21
22.03524085451229
 31
0.0
  0
LINE
  5
FD
330
2
100
AcDbEntity
  8
GAIKEI
  6
Continuous
 62
     1
100
AcDbLine
 10
39.92080552399306
 20
22.30653465451226
 30
0.0
 11
39.92080552399306
 21
22.03153465451226
 31
0.0
  0
LINE
  5
FE
330
2
100
AcDbEntity
  8
GAIKEI
  6
Continuous
 62
     1
100
AcDbLine
 10
39.96316797399309
 20
22.30282840451227
 30
0.0
 11
39.96316797399309
 21
22.03524085451229
 31
0.0
  0
LINE
  5
FF
330
2
100
AcDbEntity
  8
GAIKEI
  6
Continuous
 62
     1
100
AcDbLine
 10
39.88580552399309
 20
22.36903465451226
 30
0.0
 11
39.86080552399311
 21
22.36903465451226
 31
0.0
  0
LINE
  5
100
330
2
100
AcDbEntity
  8
GAIKEI
  6
Continuous
 62
     1
100
AcDbLine
 10
39.86080552399311
 20
21.96903465451226
 30
0.0
 11
39.88580552399309
 21
21.96903465451226
 31
0.0
  0
LINE
  5
101
330
2
100
AcDbEntity
  8
GAIKEI
  6
Continuous
 62
     1
100
AcDbLine
 10
39.88580552399309
 20
21.96903465451226
 30
0.0
 11
39.88580552399309
 21
22.36903465451226
 31
0.0
  0
ARC
  5
102
330
2
100
AcDbEntity
  8
GAIKEI
  6
Continuous
 62
     1
100
AcDbCircle
 10
37.33330552399304
 20
31.74903465451226
 30
0.0
 40
0.35
100
AcDbArc
 50
0.0
 51
16.25702800000707
  0
ARC
  5
103
330
2
100
AcDbEntity
  8
GAIKEI
  6
Continuous
 62
     1
100
AcDbCircle
 10
37.33330552399304
 20
31.74903465451226
 30
0.0
 40
0.35
100
AcDbArc
 50
343.7429719999929
 51
0.0
  0
ARC
  5
104
330
2
100
AcDbEntity
  8
GAIKEI
  6
Continuous
 62
     1
100
AcDbCircle
 10
37.6213101739931
 20
31.66505060451223
 30
0.0
 40
0.05
100
AcDbArc
 50
322.41763
 51
343.7429719999929
  0
ARC
  5
105
330
2
100
AcDbEntity
  8
GAIKEI
  6
Continuous
 62
     1
100
AcDbCircle
 10
37.6213101739931
 20
31.83301865451225
 30
0.0
 40
0.05
100
AcDbArc
 50
16.25702800000707
 51
37.58237000000003
  0
LINE
  5
106
330
2
100
AcDbEntity
  8
GAIKEI
  6
Continuous
 62
     1
100
AcDbLine
 10
37.66931092399301
 20
31.84701600451231
 30
0.0
 11
37.66931092399301
 21
31.65105325451228
 31
0.0
  0
ARC
  5
107
330
2
100
AcDbEntity
  8
GAIKEI
  6
Continuous
 62
     1
100
AcDbCircle
 10
38.01580552399308
 20
2.419034654512273
 30
0.0
 40
0.35
100
AcDbArc
 50
0.0
 51
6.150640000024177
  0
ARC
  5
108
330
2
100
AcDbEntity
  8
GAIKEI
  6
Continuous
 62
     1
100
AcDbCircle
 10
38.01580552399308
 20
2.419034654512273
 30
0.0
 40
0.35
100
AcDbArc
 50
343.7429719999929
 51
0.0
  0
ARC
  5
109
330
2
100
AcDbEntity
  8
GAIKEI
  6
Continuous
 62
     1
100
AcDbCircle
 10
38.26010257055418
 20
2.420439278854416
 30
0.0
 40
0.135233155945582
100
AcDbArc
 50
271.2988607354235
 51
312.699254693937
  0
LINE
  5
10A
330
2
100
AcDbEntity
  8
GAIKEI
  6
Continuous
 62
     1
100
AcDbLine
 10
38.35181092399306
 20
2.396053254512253
 30
0.0
 11
38.35181092399306
 21
2.321053254512236
 31
0.0
  0
LINE
  5
10B
330
2
100
AcDbEntity
  8
GAIKEI
  6
Continuous
 62
     1
100
AcDbLine
 10
38.18580552399311
 20
2.284034654512282
 30
0.0
 11
38.22080552399308
 21
2.284034654512282
 31
0.0
  0
LINE
  5
10C
330
2
100
AcDbEntity
  8
GAIKEI
  6
Continuous
 62
     1
100
AcDbLine
 10
38.22080552399308
 20
2.281534654512256
 30
0.0
 11
38.26316797399312
 21
2.285240854512295
 31
0.0
  0
LINE
  5
10D
330
2
100
AcDbEntity
  8
GAIKEI
  6
Continuous
 62
     1
100
AcDbLine
 10
38.22080552399308
 20
2.356534654512273
 30
0.0
 11
38.22080552399308
 21
2.281534654512256
 31
0.0
  0
LINE
  5
10E
330
2
100
AcDbEntity
  8
GAIKEI
  6
Continuous
 62
     1
100
AcDbLine
 10
38.26316797399312
 20
2.360240854512312
 30
0.0
 11
38.26316797399312
 21
2.285240854512295
 31
0.0
  0
LINE
  5
10F
330
2
100
AcDbEntity
  8
GAIKEI
  6
Continuous
 62
     1
100
AcDbLine
 10
38.16080552399302
 20
2.219034654512256
 30
0.0
 11
38.18580552399311
 21
2.219034654512256
 31
0.0
  0
LINE
  5
110
330
2
100
AcDbEntity
  8
GAIKEI
  6
Continuous
 62
     1
100
AcDbLine
 10
38.18580552399311
 20
2.219034654512256
 30
0.0
 11
38.18580552399311
 21
2.294034654512273
 31
0.0
  0
ARC
  5
111
330
2
100
AcDbEntity
  8
GAIKEI
  6
Continuous
 62
     1
100
AcDbCircle
 10
38.01580552399308
 20
2.494034654512262
 30
0.0
 40
0.35
100
AcDbArc
 50
0.0
 51
16.25702800000707
  0
ARC
  5
112
330
2
100
AcDbEntity
  8
GAIKEI
  6
Continuous
 62
     1
100
AcDbCircle
 10
38.01580552399308
 20
2.494034654512262
 30
0.0
 40
0.35
100
AcDbArc
 50
343.7429719999929
 51
0.0
  0
ARC
  5
113
330
2
100
AcDbEntity
  8
GAIKEI
  6
Continuous
 62
     1
100
AcDbCircle
 10
38.26010257055418
 20
2.495439278854405
 30
0.0
 40
0.135233155945582
100
AcDbArc
 50
271.2988607354235
 51
312.699254693937
  0
ARC
  5
114
330
2
100
AcDbEntity
  8
GAIKEI
  6
Continuous
 62
     1
100
AcDbCircle
 10
38.26010257055418
 20
2.492629980170022
 30
0.0
 40
0.1352331559456102
100
AcDbArc
 50
47.30074530607111
 51
88.70113926457669
  0
LINE
  5
115
330
2
100
AcDbEntity
  8
GAIKEI
  6
Continuous
 62
     1
100
AcDbLine
 10
38.35181092399306
 20
2.592016004512288
 30
0.0
 11
38.35181092399306
 21
2.396053254512253
 31
0.0
  0
LINE
  5
116
330
2
100
AcDbEntity
  8
GAIKEI
  6
Continuous
 62
     1
100
AcDbLine
 10
38.22080552399308
 20
2.629034654512253
 30
0.0
 11
38.18580552399311
 21
2.629034654512253
 31
0.0
  0
LINE
  5
117
330
2
100
AcDbEntity
  8
GAIKEI
  6
Continuous
 62
     1
100
AcDbLine
 10
38.18580552399311
 20
2.359034654512271
 30
0.0
 11
38.22080552399308
 21
2.359034654512271
 31
0.0
  0
LINE
  5
118
330
2
100
AcDbEntity
  8
GAIKEI
  6
Continuous
 62
     1
100
AcDbLine
 10
38.26316797399312
 20
2.627828404512257
 30
0.0
 11
38.22080552399308
 21
2.631534654512279
 31
0.0
  0
LINE
  5
119
330
2
100
AcDbEntity
  8
GAIKEI
  6
Continuous
 62
     1
100
AcDbLine
 10
38.22080552399308
 20
2.356534654512273
 30
0.0
 11
38.26316797399312
 21
2.360240854512312
 31
0.0
  0
LINE
  5
11A
330
2
100
AcDbEntity
  8
GAIKEI
  6
Continuous
 62
     1
100
AcDbLine
 10
38.22080552399308
 20
2.631534654512279
 30
0.0
 11
38.22080552399308
 21
2.356534654512273
 31
0.0
  0
LINE
  5
11B
330
2
100
AcDbEntity
  8
GAIKEI
  6
Continuous
 62
     1
100
AcDbLine
 10
38.26316797399312
 20
2.627828404512257
 30
0.0
 11
38.26316797399312
 21
2.360240854512312
 31
0.0
  0
LINE
  5
11C
330
2
100
AcDbEntity
  8
GAIKEI
  6
Continuous
 62
     1
100
AcDbLine
 10
38.18580552399311
 20
2.694034654512279
 30
0.0
 11
38.16080552399302
 21
2.694034654512279
 31
0.0
  0
LINE
  5
11D
330
2
100
AcDbEntity
  8
GAIKEI
  6
Continuous
 62
     1
100
AcDbLine
 10
38.16080552399302
 20
2.294034654512273
 30
0.0
 11
38.18580552399311
 21
2.294034654512273
 31
0.0
  0
LINE
  5
11E
330
2
100
AcDbEntity
  8
GAIKEI
  6
Continuous
 62
     1
100
AcDbLine
 10
38.18580552399311
 20
2.294034654512273
 30
0.0
 11
38.18580552399311
 21
2.694034654512279
 31
0.0
  0
ARC
  5
11F
330
2
100
AcDbEntity
  8
GAIKEI
  6
Continuous
 62
     1
100
AcDbCircle
 10
40.07360472399305
 20
7.583606754512288
 30
0.0
 40
0.35
100
AcDbArc
 50
3.000000000005594
 51
19.25702800001457
  0
ARC
  5
120
330
2
100
AcDbEntity
  8
GAIKEI
  6
Continuous
 62
     1
100
AcDbCircle
 10
40.07360472399305
 20
7.583606754512288
 30
0.0
 40
0.35
100
AcDbArc
 50
346.7429719999822
 51
3.000000000005594
  0
ARC
  5
121
330
2
100
AcDbEntity
  8
GAIKEI
  6
Continuous
 62
     1
100
AcDbCircle
 10
40.36561007399301
 20
7.514810804512251
 30
0.0
 40
0.05
100
AcDbArc
 50
278.000000999996
 51
346.7429719999822
  0
ARC
  5
122
330
2
100
AcDbEntity
  8
GAIKEI
  6
Continuous
 62
     1
100
AcDbCircle
 10
40.35681932399301
 20
7.682548704512271
 30
0.0
 40
0.05
100
AcDbArc
 50
19.25702800001457
 51
87.99999900000457
  0
LINE
  5
123
330
2
100
AcDbEntity
  8
GAIKEI
  6
Continuous
 62
     1
100
AcDbLine
 10
40.26435162399308
 20
7.518500454512235
 30
0.0
 11
40.26726952399302
 21
7.518653354512281
 31
0.0
  0
LINE
  5
124
330
2
100
AcDbEntity
  8
GAIKEI
  6
Continuous
 62
     1
100
AcDbLine
 10
40.259419173993
 20
7.668447804512283
 30
0.0
 11
40.25650122399302
 21
7.668294854512254
 31
0.0
  0
LINE
  5
125
330
2
100
AcDbEntity
  8
GAIKEI
  6
Continuous
 62
     1
100
AcDbLine
 10
40.40402172399306
 20
7.699039004512258
 30
0.0
 11
40.41427762399313
 21
7.503344804512266
 31
0.0
  0
LINE
  5
126
330
2
100
AcDbEntity
  8
GAIKEI
  6
Continuous
 62
     1
100
AcDbLine
 10
40.31619677399304
 20
7.731505704512301
 30
0.0
 11
40.28124472399302
 21
7.729673954512264
 31
0.0
  0
LINE
  5
127
330
2
100
AcDbEntity
  8
GAIKEI
  6
Continuous
 62
     1
100
AcDbLine
 10
40.29537542399303
 20
7.460044004512241
 30
0.0
 11
40.33032747399305
 21
7.461875754512249
 31
0.0
  0
LINE
  5
128
330
2
100
AcDbEntity
  8
GAIKEI
  6
Continuous
 62
     1
100
AcDbLine
 10
40.35856427399311
 20
7.732518204512274
 30
0.0
 11
40.31606592399303
 21
7.734002304512273
 31
0.0
  0
LINE
  5
129
330
2
100
AcDbEntity
  8
GAIKEI
  6
Continuous
 62
     1
100
AcDbLine
 10
40.33045832399305
 20
7.459379154512248
 30
0.0
 11
40.37256872399312
 21
7.465297404512284
 31
0.0
  0
LINE
  5
12A
330
2
100
AcDbEntity
  8
GAIKEI
  6
Continuous
 62
     1
100
AcDbLine
 10
40.31606592399303
 20
7.734002304512273
 30
0.0
 11
40.33045832399305
 21
7.459379154512248
 31
0.0
  0
LINE
  5
12B
330
2
100
AcDbEntity
  8
GAIKEI
  6
Continuous
 62
     1
100
AcDbLine
 10
40.35856427399311
 20
7.732518204512274
 30
0.0
 11
40.37256872399312
 21
7.465297404512284
 31
0.0
  0
LINE
  5
12C
330
2
100
AcDbEntity
  8
GAIKEI
  6
Continuous
 62
     1
100
AcDbLine
 10
40.27784287399309
 20
7.794584904512248
 30
0.0
 11
40.25287717399304
 21
7.793276504512277
 31
0.0
  0
LINE
  5
12D
330
2
100
AcDbEntity
  8
GAIKEI
  6
Continuous
 62
     1
100
AcDbLine
 10
40.2738115239931
 20
7.393824654512258
 30
0.0
 11
40.29877727399308
 21
7.395133054512257
 31
0.0
  0
LINE
  5
12E
330
2
100
AcDbEntity
  8
GAIKEI
  6
Continuous
 62
     1
100
AcDbLine
 10
40.29877727399308
 20
7.395133054512257
 30
0.0
 11
40.27784287399309
 21
7.794584904512248
 31
0.0
  0
LINE
  5
12F
330
2
100
AcDbEntity
  8
GAIKEI
  6
Continuous
 62
     1
100
AcDbLine
 10
40.25287717399304
 20
7.793276504512277
 30
0.0
 11
40.2738115239931
 21
7.393824654512258
 31
0.0
  0
ELLIPSE
  5
130
330
2
100
AcDbEntity
  8
GAIKEI
  6
Continuous
 62
     1
100
AcDbEllipse
 10
38.87830047399312
 20
30.33836635451226
 30
0.0
 11
0.1007699883695025
 21
0.111583962958396
 31
0.0
210
0.0
220
0.0
230
1.0
 40
0.9976620000002967
 41
-0.6984583810914277
 42
0.6984583810888055
  0
ELLIPSE
  5
131
330
2
100
AcDbEntity
  8
GAIKEI
  6
Continuous
 62
     1
100
AcDbEllipse
 10
38.88249192399313
 20
30.3430075545123
 30
0.0
 11
-0.1113231012696574
 21
0.1005344076607864
 31
0.0
210
0.0
220
0.0
230
1.0
 40
0.9976620000000052
 41
4.013930599304849
 42
5.410847361485402
  0
ELLIPSE
  5
132
330
2
100
AcDbEntity
  8
GAIKEI
  6
Continuous
 62
     1
100
AcDbEllipse
 10
39.05467117399313
 20
30.25445180451229
 30
0.0
 11
-0.0273453030210807
 21
0.1988394176818054
 31
0.0
210
0.0
220
0.0
230
1.0
 40
0.0521509999999877
 41
-0.0044070969316856
 42
0.9836694893557428
  0
ELLIPSE
  5
133
330
2
100
AcDbEntity
  8
GAIKEI
  6
Continuous
 62
     1
100
AcDbEllipse
 10
38.91837042399309
 20
30.35042385451223
 30
0.0
 11
-0.1490771312577933
 21
0.0166135166629856
 31
0.0
210
0.0
220
0.0
230
1.0
 40
0.9986220000007952
 41
4.009732977488585
 42
4.788362412407133
  0
ELLIPSE
  5
134
330
2
100
AcDbEntity
  8
GAIKEI
  6
Continuous
 62
     1
100
AcDbEllipse
 10
38.92103477399313
 20
30.36334595451226
 30
0.0
 11
-0.1439605887928709
 21
0.0421348890414078
 31
0.0
210
0.0
220
0.0
230
1.0
 40
0.9985409999972103
 41
4.521604075174661
 42
4.961863696862972
  0
ELLIPSE
  5
135
330
2
100
AcDbEntity
  8
GAIKEI
  6
Continuous
 62
     1
100
AcDbEllipse
 10
39.02277282399308
 20
30.25513845451226
 30
0.0
 11
-0.0274387782947621
 21
0.1988344758347517
 31
0.0
210
0.0
220
0.0
230
1.0
 40
0.052434
 41
5.463931889086699
 42
5.518980805320567
  0
ELLIPSE
  5
136
330
2
100
AcDbEntity
  8
GAIKEI
  6
Continuous
 62
     1
100
AcDbEllipse
 10
39.05467117399313
 20
30.25445180451229
 30
0.0
 11
-0.0273453030210304
 21
0.1988394176812676
 31
0.0
210
0.0
220
0.0
230
1.0
 40
0.0521510000001124
 41
0.9836694893539492
 42
1.570796326794851
  0
ELLIPSE
  5
137
330
2
100
AcDbEntity
  8
GAIKEI
  6
Continuous
 62
     1
100
AcDbEllipse
 10
38.90825817399308
 20
30.37153890451228
 30
0.0
 11
-0.1113231012737682
 21
0.1005344076561833
 31
0.0
210
0.0
220
0.0
230
1.0
 40
0.9976620000002336
 41
4.01393059926361
 42
5.410847361444383
  0
ELLIPSE
  5
138
330
2
100
AcDbEntity
  8
GAIKEI
  6
Continuous
 62
     1
100
AcDbEllipse
 10
39.06777282399308
 20
30.25513845451226
 30
0.0
 11
-0.0274387782964517
 21
0.1988344758423002
 31
0.0
210
0.0
220
0.0
230
1.0
 40
0.0524339999991955
 41
-1.055956436712545
 42
-0.8192534181288916
  0
ELLIPSE
  5
139
330
2
100
AcDbEntity
  8
GAIKEI
  6
Continuous
 62
     1
100
AcDbEllipse
 10
38.90956202399308
 20
30.3729826545123
 30
0.0
 11
-0.1113231012737682
 21
0.1005344076561833
 31
0.0
210
0.0
220
0.0
230
1.0
 40
0.9976620000002336
 41
4.01393059926361
 42
5.410847361444383
  0
ELLIPSE
  5
13A
330
2
100
AcDbEntity
  8
GAIKEI
  6
Continuous
 62
     1
100
AcDbEllipse
 10
39.15325077399312
 20
30.55159700451227
 30
0.0
 11
0.2200773139375339
 21
0.2042784546822775
 31
0.0
210
0.0
220
0.0
230
1.0
 40
0.9990919999999222
 41
-0.6110907880707167
 42
0.6110907881472647
  0
ARC
  5
13B
330
2
100
AcDbEntity
  8
GAIKEI
  6
Continuous
 62
     1
100
AcDbCircle
 10
39.15360962399312
 20
30.55193010451225
 30
0.0
 40
0.34978195
100
AcDbArc
 50
7.826403999990837
 51
77.90929700000972
  0
ARC
  5
13C
330
2
100
AcDbEntity
  8
GAIKEI
  6
Continuous
 62
     1
100
AcDbCircle
 10
37.66782027399307
 20
31.16725810451223
 30
0.0
 40
0.05
100
AcDbArc
 50
77.90524300000149
 51
90.0
  0
LINE
  5
13D
330
2
100
AcDbEntity
  8
GAIKEI
  6
Continuous
 62
     1
100
AcDbLine
 10
39.04430157399302
 20
30.25302575451227
 30
0.0
 11
39.07992457399313
 21
30.25489265451225
 31
0.0
  0
LINE
  5
13E
330
2
100
AcDbEntity
  8
GAIKEI
  6
Continuous
 62
     1
100
AcDbLine
 10
39.03294397399303
 20
30.45358760451225
 30
0.0
 11
39.02737182399311
 21
30.45329560451225
 31
0.0
  0
LINE
  5
13F
330
2
100
AcDbEntity
  8
GAIKEI
  6
Continuous
 62
     1
100
AcDbLine
 10
39.14688242399312
 20
29.48788310451224
 30
0.0
 11
39.02705857399302
 21
30.35917375451223
 31
0.0
  0
LINE
  5
140
330
2
100
AcDbEntity
  8
GAIKEI
  6
Continuous
 62
     1
100
AcDbLine
 10
39.04430157399302
 20
30.25302575451227
 30
0.0
 11
39.15004592399304
 21
29.48411345451225
 31
0.0
  0
LINE
  5
141
330
2
100
AcDbEntity
  8
GAIKEI
  6
Continuous
 62
     1
100
AcDbLine
 10
39.03088962399305
 20
30.36341590451227
 30
0.0
 11
39.02705857399302
 21
30.35917375451223
 31
0.0
  0
LINE
  5
142
330
2
100
AcDbEntity
  8
GAIKEI
  6
Continuous
 62
     1
100
AcDbLine
 10
39.05795972399311
 20
30.39339100451227
 30
0.0
 11
39.05665587399311
 21
30.3919472545123
 31
0.0
  0
LINE
  5
143
330
2
100
AcDbEntity
  8
GAIKEI
  6
Continuous
 62
     1
100
AcDbLine
 10
38.883888623993
 20
30.48846860451224
 30
0.0
 11
38.24792667399305
 21
30.50910545451225
 31
0.0
  0
LINE
  5
144
330
2
100
AcDbEntity
  8
GAIKEI
  6
Continuous
 62
     1
100
AcDbLine
 10
38.883888623993
 20
30.48846860451224
 30
0.0
 11
38.88771967399303
 21
30.49271075451227
 31
0.0
  0
LINE
  5
145
330
2
100
AcDbEntity
  8
GAIKEI
  6
Continuous
 62
     1
100
AcDbLine
 10
38.92359817399312
 20
30.50012700451228
 30
0.0
 11
38.92626252399303
 21
30.51304910451225
 31
0.0
  0
LINE
  5
146
330
2
100
AcDbEntity
  8
GAIKEI
  6
Continuous
 62
     1
100
AcDbLine
 10
38.91348592399309
 20
30.52124210451225
 30
0.0
 11
38.91478977399309
 21
30.52268585451228
 31
0.0
  0
LINE
  5
147
330
2
100
AcDbEntity
  8
GAIKEI
  6
Continuous
 62
     1
100
AcDbLine
 10
39.25948612399303
 20
30.76045835451228
 30
0.0
 11
39.05795972399311
 21
30.39339100451227
 31
0.0
  0
LINE
  5
148
330
2
100
AcDbEntity
  8
GAIKEI
  6
Continuous
 62
     1
100
AcDbLine
 10
39.06333627399305
 20
30.35429585451229
 30
0.0
 11
39.05795972399311
 21
30.39339100451227
 31
0.0
  0
LINE
  5
149
330
2
100
AcDbEntity
  8
GAIKEI
  6
Continuous
 62
     1
100
AcDbLine
 10
39.19295467399307
 20
29.43300210451227
 30
0.0
 11
39.07992457399313
 21
30.25489265451225
 31
0.0
  0
LINE
  5
14A
330
2
100
AcDbEntity
  8
GAIKEI
  6
Continuous
 62
     1
100
AcDbLine
 10
37.66782027399307
 20
31.21725810451224
 30
0.0
 11
37.66564317399303
 21
31.21725810451224
 31
0.0
  0
LINE
  5
14B
330
2
100
AcDbEntity
  8
GAIKEI
  6
Continuous
 62
     1
100
AcDbLine
 10
39.45059967399309
 20
30.59274855451227
 30
0.0
 11
39.50013347399305
 21
30.59956065451226
 31
0.0
  0
LINE
  5
14C
330
2
100
AcDbEntity
  8
GAIKEI
  6
Continuous
 62
     1
100
AcDbLine
 10
39.75601037399302
 20
28.73897000451226
 30
0.0
 11
39.50013347399305
 21
30.59956065451226
 31
0.0
  0
LINE
  5
14D
330
2
100
AcDbEntity
  8
GAIKEI
  6
Continuous
 62
     1
100
AcDbLine
 10
39.21639847399307
 20
30.84506280451225
 30
0.0
 11
39.22687492399312
 21
30.89395290451225
 31
0.0
  0
LINE
  5
14E
330
2
100
AcDbEntity
  8
GAIKEI
  6
Continuous
 62
     1
100
AcDbLine
 10
39.22687492399312
 20
30.89395290451225
 30
0.0
 11
37.67829672399313
 21
31.21614825451227
 31
0.0
  0
LINE
  5
14F
330
2
100
AcDbEntity
  8
GAIKEI
  6
Continuous
 62
     1
100
AcDbLine
 10
37.66782027399307
 20
31.21330045451228
 30
0.0
 11
37.66782027399307
 21
31.21725810451224
 31
0.0
  0
LINE
  5
150
330
2
100
AcDbEntity
  8
GAIKEI
  6
Continuous
 62
     1
100
AcDbLine
 10
37.67829672399313
 20
31.21614825451227
 30
0.0
 11
37.67501702399301
 21
31.20084290451226
 31
0.0
  0
LINE
  5
151
330
2
100
AcDbEntity
  8
GAIKEI
  6
Continuous
 62
     1
100
AcDbLine
 10
39.69175847399309
 20
28.8391794045123
 30
0.0
 11
39.45059967399309
 21
30.59274855451227
 31
0.0
  0
LINE
  5
152
330
2
100
AcDbEntity
  8
GAIKEI
  6
Continuous
 62
     1
100
AcDbLine
 10
39.21639847399307
 20
30.84506280451225
 30
0.0
 11
37.70283942399311
 21
31.15975400451223
 31
0.0
  0
LINE
  5
153
330
2
100
AcDbEntity
  8
GAIKEI
  6
Continuous
 62
     1
100
AcDbLine
 10
39.25948612399303
 20
30.76045835451228
 30
0.0
 11
39.49065917399308
 21
29.07950010451228
 31
0.0
  0
LINE
  5
154
330
2
100
AcDbEntity
  8
GAIKEI
  6
Continuous
 62
     1
100
AcDbLine
 10
38.91478977399309
 20
30.52268585451228
 30
0.0
 11
38.21752597399308
 21
30.54546340451228
 31
0.0
  0
LINE
  5
155
330
2
100
AcDbEntity
  8
GAIKEI
  6
Continuous
 62
     1
100
AcDbLine
 10
38.91478977399309
 20
30.52268585451228
 30
0.0
 11
39.25948612399303
 21
30.76045835451228
 31
0.0
  0
LINE
  5
156
330
2
100
AcDbEntity
  8
GAIKEI
  6
Continuous
 62
     1
100
AcDbLine
 10
38.00209497399311
 20
30.80279600451232
 30
0.0
 11
39.25948612399303
 21
30.76045835451228
 31
0.0
  0
ELLIPSE
  5
157
330
2
100
AcDbEntity
  8
GAIKEI
  6
Continuous
 62
     1
100
AcDbEllipse
 10
39.53838177399312
 20
28.7660337045123
 30
0.0
 11
0.247567017185404
 21
0.0347932752399148
 31
0.0
210
0.0
220
0.0
230
1.0
 40
0.7036409999992369
 41
-0.1971395665895412
 42
0.0000000000006022
  0
ELLIPSE
  5
158
330
2
100
AcDbEntity
  8
GAIKEI
  6
Continuous
 62
     1
100
AcDbEllipse
 10
39.53314897399308
 20
28.78463380451226
 30
0.0
 11
-0.0721930118033114
 21
0.2393494705377254
 31
0.0
210
0.0
220
0.0
230
1.0
 40
0.9893970000006127
 41
4.422379053464976
 42
4.551365952728775
  0
ELLIPSE
  5
159
330
2
100
AcDbEntity
  8
GAIKEI
  6
Continuous
 62
     1
100
AcDbEllipse
 10
39.30034182399309
 20
30.45977590451233
 30
0.0
 11
0.2475670171853871
 21
0.0347932752400348
 31
0.0
210
0.0
220
0.0
230
1.0
 40
0.6009829999998303
 41
-0.0000000000001008
 42
0.5180681517970918
  0
ELLIPSE
  5
15A
330
2
100
AcDbEntity
  8
GAIKEI
  6
Continuous
 62
     1
100
AcDbEllipse
 10
38.18187812399309
 20
30.19127515451228
 30
0.0
 11
0.2079116908178693
 21
0.978147600733801
 31
0.0
210
0.0
220
0.0
230
1.0
 40
0.4149879999998029
 41
-0.4365919961563569
 42
0.000000000000218
  0
ELLIPSE
  5
15B
330
2
100
AcDbEntity
  8
GAIKEI
  6
Continuous
 62
     1
100
AcDbEllipse
 10
38.18187812399309
 20
30.19127515451228
 30
0.0
 11
0.2079116908177566
 21
0.978147600734365
 31
0.0
210
0.0
220
0.0
230
1.0
 40
0.41498799999979
 41
-1.48281558924867
 42
-1.166099608921263
  0
ARC
  5
15C
330
2
100
AcDbEntity
  8
GAIKEI
  6
Continuous
 62
     1
100
AcDbCircle
 10
39.26260102399304
 20
30.72831585451232
 30
0.0
 40
0.25
100
AcDbArc
 50
7.999999999987519
 51
77.99999999999703
  0
ARC
  5
15D
330
2
100
AcDbEntity
  8
GAIKEI
  6
Continuous
 62
     1
100
AcDbCircle
 10
37.77080552399303
 20
30.78025660451229
 30
0.0
 40
0.5
100
AcDbArc
 50
42.36084200000103
 51
77.99999999999703
  0
ARC
  5
15E
330
2
100
AcDbEntity
  8
GAIKEI
  6
Continuous
 62
     1
100
AcDbCircle
 10
37.77330552399309
 20
31.5464806545123
 30
0.0
 40
0.25
100
AcDbArc
 50
256.8079970000038
 51
257.999999999997
  0
LINE
  5
15F
330
2
100
AcDbEntity
  8
GAIKEI
  6
Continuous
 62
     7
100
AcDbLine
 10
39.86080552399311
 20
23.70206765451229
 30
0.0
 11
39.86080552399311
 21
22.91304585451229
 31
0.0
  0
LINE
  5
160
330
2
100
AcDbEntity
  8
GAIKEI
  6
Continuous
 62
     1
100
AcDbLine
 10
39.53414907399302
 20
30.59247505451222
 30
0.0
 11
39.81483272399304
 21
28.59530725451228
 31
0.0
  0
LINE
  5
161
330
2
100
AcDbEntity
  8
GAIKEI
  6
Continuous
 62
     7
100
AcDbLine
 10
39.86080552399311
 20
16.13152660451226
 30
0.0
 11
39.86080552399311
 21
23.20654270451226
 31
0.0
  0
LINE
  5
162
330
2
100
AcDbEntity
  8
GAIKEI
  6
Continuous
 62
     7
100
AcDbLine
 10
39.86080552399311
 20
15.32804210451226
 30
0.0
 11
39.86080552399311
 21
16.13152660451226
 31
0.0
  0
LINE
  5
163
330
2
100
AcDbEntity
  8
GAIKEI
  6
Continuous
 62
     7
100
AcDbLine
 10
39.86080552399311
 20
13.71858405451229
 30
0.0
 11
39.86080552399311
 21
15.32804210451226
 31
0.0
  0
LINE
  5
164
330
2
100
AcDbEntity
  8
GAIKEI
  6
Continuous
 62
     7
100
AcDbLine
 10
39.86080552399311
 20
15.32804210451226
 30
0.0
 11
39.85837252399311
 21
15.32804210451226
 31
0.0
  0
LINE
  5
165
330
2
100
AcDbEntity
  8
GAIKEI
  6
Continuous
 62
     1
100
AcDbLine
 10
39.85837252399311
 20
24.01002720451228
 30
0.0
 11
39.86080552399311
 21
24.01002720451228
 31
0.0
  0
LINE
  5
166
330
2
100
AcDbEntity
  8
GAIKEI
  6
Continuous
 62
     7
100
AcDbLine
 10
39.86080552399311
 20
28.26522370451229
 30
0.0
 11
39.86080552399311
 21
23.20654270451226
 31
0.0
  0
LINE
  5
167
330
2
100
AcDbEntity
  8
GAIKEI
  6
Continuous
 62
     7
100
AcDbLine
 10
39.86080552399311
 20
28.26522370451229
 30
0.0
 11
39.86080552399311
 21
28.26819380451226
 31
0.0
  0
LINE
  5
168
330
2
100
AcDbEntity
  8
GAIKEI
  6
Continuous
 62
     1
100
AcDbLine
 10
39.54790887399314
 20
30.49456915451228
 30
0.0
 11
39.51016802399305
 21
30.76310915451225
 31
0.0
  0
LINE
  5
169
330
2
100
AcDbEntity
  8
GAIKEI
  6
Continuous
 62
     1
100
AcDbLine
 10
39.78594877399301
 20
28.80082700451223
 30
0.0
 11
39.54790887399314
 21
30.49456915451228
 31
0.0
  0
LINE
  5
16A
330
2
100
AcDbEntity
  8
GAIKEI
  6
Continuous
 62
     1
100
AcDbLine
 10
39.31457892399304
 20
30.97285275451227
 30
0.0
 11
38.38978982399304
 21
31.16942275451228
 31
0.0
  0
LINE
  5
16B
330
2
100
AcDbEntity
  8
GAIKEI
  6
Continuous
 62
     1
100
AcDbLine
 10
38.60449637399312
 20
30.19127515451228
 30
0.0
 11
39.0635682239931
 21
30.09369640451226
 31
0.0
  0
LINE
  5
16C
330
2
100
AcDbEntity
  8
GAIKEI
  6
Continuous
 62
     1
100
AcDbLine
 10
38.38978982399304
 20
31.16942275451228
 30
0.0
 11
37.87476137399307
 21
31.26933040451226
 31
0.0
  0
LINE
  5
16D
330
2
100
AcDbEntity
  8
GAIKEI
  6
Continuous
 62
     1
100
AcDbLine
 10
38.60449637399312
 20
30.13616995451227
 30
0.0
 11
38.60449637399312
 21
30.19127515451228
 31
0.0
  0
LINE
  5
16E
330
2
100
AcDbEntity
  8
GAIKEI
  6
Continuous
 62
     7
100
AcDbLine
 10
39.85837252399311
 20
15.32804210451226
 30
0.0
 11
39.85837252399311
 21
13.71858405451229
 31
0.0
  0
LINE
  5
16F
330
2
100
AcDbEntity
  8
GAIKEI
  6
Continuous
 62
     1
100
AcDbLine
 10
39.78594877399301
 20
28.7660337045123
 30
0.0
 11
39.80601877399305
 21
28.62322850451224
 31
0.0
  0
LINE
  5
170
330
2
100
AcDbEntity
  8
GAIKEI
  6
Continuous
 62
     1
100
AcDbLine
 10
39.78071597399308
 20
28.68831450451225
 30
0.0
 11
39.78071597399308
 21
28.78463380451226
 31
0.0
  0
LINE
  5
171
330
2
100
AcDbEntity
  8
GAIKEI
  6
Continuous
 62
     1
100
AcDbLine
 10
38.27080552399304
 20
30.48173785451226
 30
0.0
 11
38.27080552399304
 21
30.50851220451225
 31
0.0
  0
LINE
  5
172
330
2
100
AcDbEntity
  8
GAIKEI
  6
Continuous
 62
     1
100
AcDbLine
 10
37.87476137399307
 20
31.26933040451226
 30
0.0
 11
37.72132757399305
 21
31.30194375451228
 31
0.0
  0
ELLIPSE
  5
173
330
2
100
AcDbEntity
  8
GAIKEI
  6
Continuous
 62
     1
100
AcDbEllipse
 10
40.10106167399304
 20
6.812753404512278
 30
0.0
 11
0.199813052929627
 21
0.0086454542357454
 31
0.0
210
0.0
220
0.0
230
1.0
 40
0.0746630000001284
 41
-0.5252155217479771
 42
-0.0000000000008276
  0
ELLIPSE
  5
174
330
2
100
AcDbEntity
  8
GAIKEI
  6
Continuous
 62
     1
100
AcDbEllipse
 10
40.2382075739931
 20
8.017358604512253
 30
0.0
 11
0.049931476737718
 21
0.0026167978122985
 31
0.0
210
0.0
220
0.0
230
1.0
 40
0.9050440000015298
 41
-0.5706440261181232
 42
-0.000000000003241
  0
ELLIPSE
  5
175
330
2
100
AcDbEntity
  8
GAIKEI
  6
Continuous
 62
     1
100
AcDbEllipse
 10
40.10103992399307
 20
6.813208804512242
 30
0.0
 11
0.1997259069509152
 21
0.0104671912486129
 31
0.0
210
0.0
220
0.0
230
1.0
 40
0.0902780000002453
 41
-0.5259676335599291
 42
-0.000000000001833
  0
ELLIPSE
  5
176
330
2
100
AcDbEntity
  8
GAIKEI
  6
Continuous
 62
     1
100
AcDbEllipse
 10
40.22473122399309
 20
8.274502854512263
 30
0.0
 11
-0.0485995354628029
 21
0.3109680081717898
 31
0.0
210
0.0
220
0.0
230
1.0
 40
0.0966779999998915
 41
3.215954453885217
 42
3.581555041747291
  0
ELLIPSE
  5
177
330
2
100
AcDbEntity
  8
GAIKEI
  6
Continuous
 62
     1
100
AcDbEllipse
 10
40.03493827399312
 20
8.074502854512275
 30
0.0
 11
-0.2412909131672826
 21
0.102850005060274
 31
0.0
210
0.0
220
0.0
230
1.0
 40
0.4973940000003572
 41
3.324148661068951
 42
3.85011629462841
  0
ELLIPSE
  5
178
330
2
100
AcDbEntity
  8
GAIKEI
  6
Continuous
 62
     1
100
AcDbEllipse
 10
40.03493827399312
 20
8.074502854512275
 30
0.0
 11
-0.2522638530454977
 21
0.0643042603170085
 31
0.0
210
0.0
220
0.0
230
1.0
 40
0.3469669999997149
 41
3.249247262239071
 42
3.775214895799468
  0
ELLIPSE
  5
179
330
2
100
AcDbEntity
  8
GAIKEI
  6
Continuous
 62
     1
100
AcDbEllipse
 10
40.05110842399311
 20
6.810592004512272
 30
0.0
 11
-0.0772542485938886
 21
0.2377641290737306
 31
0.0
210
0.0
220
0.0
230
1.0
 40
0.8838549999999694
 41
3.141592653589048
 42
4.441470459927931
  0
ELLIPSE
  5
17A
330
2
100
AcDbEntity
  8
GAIKEI
  6
Continuous
 62
     1
100
AcDbEllipse
 10
39.65769662399303
 20
6.68276480451226
 30
0.0
 11
-0.0772542485939715
 21
0.2377641290736589
 31
0.0
210
0.0
220
0.0
230
1.0
 40
0.8548180000000426
 41
3.984154398226601
 42
4.441470459927436
  0
ELLIPSE
  5
17B
330
2
100
AcDbEntity
  8
GAIKEI
  6
Continuous
 62
     1
100
AcDbEllipse
 10
39.96080552399313
 20
13.64711135451225
 30
0.0
 11
0.0999999999999943
 21
0.0000000000025488
 31
0.0
210
0.0
220
0.0
230
1.0
 40
0.9968879999999979
 41
3.141592653564225
 42
4.093589325028321
  0
ELLIPSE
  5
17C
330
2
100
AcDbEntity
  8
GAIKEI
  6
Continuous
 62
     1
100
AcDbEllipse
 10
39.61080552399311
 20
3.558484354512245
 30
0.0
 11
-0.25
 21
0.0000000000000035
 31
0.0
210
0.0
220
0.0
230
1.0
 40
0.7643369999999833
 41
2.42881552005926
 42
3.141592653589811
  0
ELLIPSE
  5
17D
330
2
100
AcDbEntity
  8
GAIKEI
  6
Continuous
 62
     1
100
AcDbEllipse
 10
39.36080552399311
 20
3.680251804512266
 30
0.0
 11
-0.4967256169446371
 21
0.1450676227361265
 31
0.0
210
0.0
220
0.0
230
1.0
 40
0.3938059999999148
 41
3.256099651998608
 42
3.779698427597153
  0
ELLIPSE
  5
17E
330
2
100
AcDbEntity
  8
GAIKEI
  6
Continuous
 62
     1
100
AcDbEllipse
 10
39.61080552399311
 20
3.693353754512287
 30
0.0
 11
-0.0100693107060164
 21
0.5001097973972422
 31
0.0
210
0.0
220
0.0
230
1.0
 40
0.4324989999999948
 41
3.155535319299653
 42
4.157393070302891
  0
ELLIPSE
  5
17F
330
2
100
AcDbEntity
  8
GAIKEI
  6
Continuous
 62
     1
100
AcDbEllipse
 10
39.36080552399311
 20
3.680251804512266
 30
0.0
 11
-0.3190380799479117
 21
0.4338778428273228
 31
0.0
210
0.0
220
0.0
230
1.0
 40
0.7367019999999933
 41
3.692333630334222
 42
4.215932405932399
  0
ELLIPSE
  5
180
330
2
100
AcDbEntity
  8
GAIKEI
  6
Continuous
 62
     1
100
AcDbEllipse
 10
39.00228012399303
 20
3.661462254512287
 30
0.0
 11
-0.0261679781214557
 21
0.4993147673772866
 31
0.0
210
0.0
220
0.0
230
1.0
 40
0.8657279999999961
 41
3.141592653589845
 42
4.667049180191352
  0
ELLIPSE
  5
181
330
2
100
AcDbEntity
  8
GAIKEI
  6
Continuous
 62
     1
100
AcDbEllipse
 10
39.61080552399311
 20
7.656044254512295
 30
0.0
 11
-0.25
 21
0.0000000000000177
 31
0.0
210
0.0
220
0.0
230
1.0
 40
0.1193239999994463
 41
3.004026971229688
 42
3.141592653590387
  0
ELLIPSE
  5
182
330
2
100
AcDbEntity
  8
GAIKEI
  6
Continuous
 62
     1
100
AcDbEllipse
 10
39.61080552399311
 20
8.089056954512301
 30
0.0
 11
-0.1798585344398157
 21
0.6571548312087831
 31
0.0
210
0.0
220
0.0
230
1.0
 40
0.259104000000761
 41
3.916133374745028
 42
3.93297217885898
  0
ELLIPSE
  5
183
330
2
100
AcDbEntity
  8
GAIKEI
  6
Continuous
 62
     1
100
AcDbEllipse
 10
38.42476121804644
 20
3.049498974099464
 30
0.0
 11
0.2619264422991152
 21
0.0562774407745292
 31
0.0
210
0.0
220
0.0
230
1.0
 40
0.8320735921088122
 41
1.419776055887749
 42
2.838254949473866
  0
ELLIPSE
  5
184
330
2
100
AcDbEntity
  8
GAIKEI
  6
Continuous
 62
     1
100
AcDbEllipse
 10
38.45580552399302
 20
4.133508954512251
 30
0.0
 11
0.013259911667559
 21
1.002061497197305
 31
0.0
210
0.0
220
0.0
230
1.0
 40
0.0516870000000033
 41
2.60345134995651
 42
3.144987773843189
  0
ELLIPSE
  5
185
330
2
100
AcDbEntity
  8
GAIKEI
  6
Continuous
 62
     1
100
AcDbEllipse
 10
38.86830552399305
 20
4.155127154512257
 30
0.0
 11
-0.0258829557104991
 21
1.000012096335215
 31
0.0
210
0.0
220
0.0
230
1.0
 40
0.1037480000000071
 41
3.144340835783554
 42
4.704255690687565
  0
ARC
  5
186
330
2
100
AcDbEntity
  8
GAIKEI
  6
Continuous
 62
     1
100
AcDbCircle
 10
40.23916127399307
 20
7.999161004512274
 30
0.0
 40
0.05
100
AcDbArc
 50
316.5000000000038
 51
3.000000000005594
  0
ARC
  5
187
330
2
100
AcDbEntity
  8
GAIKEI
  6
Continuous
 62
     1
100
AcDbCircle
 10
40.05110842399311
 20
6.810592004512272
 30
0.0
 40
0.25
100
AcDbArc
 50
287.999999999999
 51
2.477511999982832
  0
ARC
  5
188
330
2
100
AcDbEntity
  8
GAIKEI
  6
Continuous
 62
     1
100
AcDbCircle
 10
40.05110842399311
 20
6.810592004512272
 30
0.0
 40
0.25
100
AcDbArc
 50
2.477511999982832
 51
3.000000000005594
  0
ARC
  5
189
330
2
100
AcDbEntity
  8
GAIKEI
  6
Continuous
 62
     1
100
AcDbCircle
 10
39.96080552399302
 20
13.64992545451227
 30
0.0
 40
0.1
100
AcDbArc
 50
180.0
 51
234.5243079999863
  0
ARC
  5
18A
330
2
100
AcDbEntity
  8
GAIKEI
  6
Continuous
 62
     1
100
AcDbCircle
 10
39.75768037399301
 20
13.36489880451225
 30
0.0
 40
0.25
100
AcDbArc
 50
3.000000000005594
 51
54.52430799998627
  0
ARC
  5
18B
330
2
100
AcDbEntity
  8
GAIKEI
  6
Continuous
 62
     1
100
AcDbCircle
 10
40.22431352399313
 20
6.810592004512272
 30
0.0
 40
0.05
100
AcDbArc
 50
2.477511999982832
 51
3.000000000005594
  0
ARC
  5
18C
330
2
100
AcDbEntity
  8
GAIKEI
  6
Continuous
 62
     1
100
AcDbCircle
 10
39.61080552399311
 20
3.443010654512306
 30
0.0
 40
0.25
100
AcDbArc
 50
273.0000000000056
 51
0.0
  0
ARC
  5
18D
330
2
100
AcDbEntity
  8
GAIKEI
  6
Continuous
 62
     1
100
AcDbCircle
 10
39.39580552399308
 20
5.389034654512244
 30
0.0
 40
0.3
100
AcDbArc
 50
0.0
 51
18.49765800002004
  0
ARC
  5
18E
330
2
100
AcDbEntity
  8
GAIKEI
  6
Continuous
 62
     1
100
AcDbCircle
 10
39.39580552399308
 20
5.389034654512244
 30
0.0
 40
0.3
100
AcDbArc
 50
280.4425770000014
 51
0.0
  0
ARC
  5
18F
330
2
100
AcDbEntity
  8
GAIKEI
  6
Continuous
 62
     1
100
AcDbCircle
 10
39.46830552399307
 20
4.995659804512285
 30
0.0
 40
0.1
100
AcDbArc
 50
100.4425770000013
 51
180.0
  0
ARC
  5
190
330
2
100
AcDbEntity
  8
GAIKEI
  6
Continuous
 62
     1
100
AcDbCircle
 10
38.45017165629827
 20
2.839038019632823
 30
0.0
 40
0.2925077606023138
100
AcDbArc
 50
91.459471281439
 51
171.5950369845519
  0
ARC
  5
191
330
2
100
AcDbEntity
  8
GAIKEI
  6
Continuous
 62
     1
100
AcDbCircle
 10
38.86830552399305
 20
3.654440954512239
 30
0.0
 40
0.5
100
AcDbArc
 50
273.0000000000056
 51
0.0
  0
LINE
  5
192
330
2
100
AcDbEntity
  8
GAIKEI
  6
Continuous
 62
     1
100
AcDbLine
 10
39.86080552399311
 20
5.569017854512253
 30
0.0
 11
39.86080552399311
 21
5.894034654512267
 31
0.0
  0
LINE
  5
193
330
2
100
AcDbEntity
  8
GAIKEI
  6
Continuous
 62
     1
100
AcDbLine
 10
39.86080552399311
 20
4.244034654512262
 30
0.0
 11
39.86080552399311
 21
4.569017854512253
 31
0.0
  0
LINE
  5
194
330
2
100
AcDbEntity
  8
GAIKEI
  6
Continuous
 62
     1
100
AcDbLine
 10
40.29194442399306
 20
6.991998354512247
 30
0.0
 11
40.28987112399305
 21
7.031559004512246
 31
0.0
  0
LINE
  5
195
330
2
100
AcDbEntity
  8
GAIKEI
  6
Continuous
 62
     1
100
AcDbLine
 10
40.2890927239931
 20
8.0017778045123
 30
0.0
 11
40.28813902399302
 21
8.019975354512268
 31
0.0
  0
LINE
  5
196
330
2
100
AcDbEntity
  8
GAIKEI
  6
Continuous
 62
     1
100
AcDbLine
 10
40.30076582399304
 20
6.823676004512293
 30
0.0
 11
40.24118462399302
 21
7.960553054512274
 31
0.0
  0
LINE
  5
197
330
2
100
AcDbEntity
  8
GAIKEI
  6
Continuous
 62
     1
100
AcDbLine
 10
40.24276877399311
 20
7.930325554512251
 30
0.0
 11
40.27542997399312
 21
7.964743304512268
 31
0.0
  0
LINE
  5
198
330
2
100
AcDbEntity
  8
GAIKEI
  6
Continuous
 62
     1
100
AcDbLine
 10
40.01618327399306
 20
13.20920075451226
 30
0.0
 11
40.00733777399306
 21
13.37798280451227
 31
0.0
  0
LINE
  5
199
330
2
100
AcDbEntity
  8
GAIKEI
  6
Continuous
 62
     1
100
AcDbLine
 10
40.28813902399302
 20
8.019975354512268
 30
0.0
 11
40.01618327399306
 21
13.20920075451226
 31
0.0
  0
LINE
  5
19A
330
2
100
AcDbEntity
  8
GAIKEI
  6
Continuous
 62
     1
100
AcDbLine
 10
40.21040957399303
 20
8.031260904512265
 30
0.0
 11
40.27424497399304
 21
6.813208804512242
 31
0.0
  0
LINE
  5
19B
330
2
100
AcDbEntity
  8
GAIKEI
  6
Continuous
 62
     1
100
AcDbLine
 10
40.25144462399303
 20
8.074502854512275
 30
0.0
 11
40.21040957399303
 21
8.031260904512265
 31
0.0
  0
LINE
  5
19C
330
2
100
AcDbEntity
  8
GAIKEI
  6
Continuous
 62
     1
100
AcDbLine
 10
39.86080552399311
 20
6.485893304512273
 30
0.0
 11
40.12836267399312
 21
6.572827904512251
 31
0.0
  0
LINE
  5
19D
330
2
100
AcDbEntity
  8
GAIKEI
  6
Continuous
 62
     1
100
AcDbLine
 10
40.27426677399306
 20
6.812753404512278
 30
0.0
 11
39.87420297399307
 21
6.68276480451226
 31
0.0
  0
LINE
  5
19E
330
2
100
AcDbEntity
  8
GAIKEI
  6
Continuous
 62
     1
100
AcDbLine
 10
39.87420297399307
 20
6.68276480451226
 30
0.0
 11
39.86080552399311
 21
6.667528954512249
 31
0.0
  0
LINE
  5
19F
330
2
100
AcDbEntity
  8
GAIKEI
  6
Continuous
 62
     7
100
AcDbLine
 10
39.86080552399311
 20
13.71858405451229
 30
0.0
 11
39.86080552399311
 21
12.17296970451224
 31
0.0
  0
LINE
  5
1A0
330
2
100
AcDbEntity
  8
GAIKEI
  6
Continuous
 62
     7
100
AcDbLine
 10
39.86080552399311
 20
12.17296970451224
 30
0.0
 11
39.86080552399311
 21
11.36948520451227
 31
0.0
  0
LINE
  5
1A1
330
2
100
AcDbEntity
  8
GAIKEI
  6
Continuous
 62
     1
100
AcDbLine
 10
39.86080552399311
 20
3.443010654512306
 30
0.0
 11
39.86080552399311
 21
3.558484354512245
 31
0.0
  0
LINE
  5
1A2
330
2
100
AcDbEntity
  8
GAIKEI
  6
Continuous
 62
     7
100
AcDbLine
 10
39.86080552399311
 20
5.294034654512273
 30
0.0
 11
39.86080552399311
 21
7.156044254512266
 31
0.0
  0
LINE
  5
1A3
330
2
100
AcDbEntity
  8
GAIKEI
  6
Continuous
 62
     1
100
AcDbLine
 10
39.86080552399311
 20
3.558484354512245
 30
0.0
 11
39.86080552399311
 21
5.129972154512273
 31
0.0
  0
LINE
  5
1A4
330
2
100
AcDbEntity
  8
GAIKEI
  6
Continuous
 62
     7
100
AcDbLine
 10
39.86080552399311
 20
7.656044254512266
 30
0.0
 11
39.86080552399311
 21
7.156044254512266
 31
0.0
  0
LINE
  5
1A5
330
2
100
AcDbEntity
  8
GAIKEI
  6
Continuous
 62
     1
100
AcDbLine
 10
39.02844807399309
 20
3.162147504512262
 30
0.0
 11
39.62388952399304
 21
3.193353254512288
 31
0.0
  0
LINE
  5
1A6
330
2
100
AcDbEntity
  8
GAIKEI
  6
Continuous
 62
     1
100
AcDbLine
 10
39.79381822399306
 20
3.680251804512266
 30
0.0
 11
39.43529282399309
 21
3.661462254512287
 31
0.0
  0
LINE
  5
1A7
330
2
100
AcDbEntity
  8
GAIKEI
  6
Continuous
 62
     1
100
AcDbLine
 10
39.79381822399306
 20
5.122436054512292
 30
0.0
 11
39.79381822399306
 21
3.680251804512266
 31
0.0
  0
LINE
  5
1A8
330
2
100
AcDbEntity
  8
GAIKEI
  6
Continuous
 62
     1
100
AcDbLine
 10
39.79381822399306
 20
5.277047354512291
 30
0.0
 11
39.79381822399306
 21
5.273660754512263
 31
0.0
  0
LINE
  5
1A9
330
2
100
AcDbEntity
  8
GAIKEI
  6
Continuous
 62
     1
100
AcDbLine
 10
39.02844807399309
 20
3.162147504512262
 30
0.0
 11
38.8944734739931
 21
3.155126204512271
 31
0.0
  0
LINE
  5
1AA
330
2
100
AcDbEntity
  8
GAIKEI
  6
Continuous
 62
     1
100
AcDbLine
 10
39.43529282399309
 20
3.661462254512287
 30
0.0
 11
39.36830552399305
 21
3.654440954512239
 31
0.0
  0
LINE
  5
1AB
330
2
100
AcDbEntity
  8
GAIKEI
  6
Continuous
 62
     1
100
AcDbLine
 10
39.43529282399309
 20
3.661462254512287
 30
0.0
 11
39.43529282399309
 21
5.090053454512258
 31
0.0
  0
LINE
  5
1AC
330
2
100
AcDbEntity
  8
GAIKEI
  6
Continuous
 62
     1
100
AcDbLine
 10
39.86080552399311
 20
7.656044254512266
 30
0.0
 11
39.86080552399311
 21
7.660315154512261
 31
0.0
  0
LINE
  5
1AD
330
2
100
AcDbEntity
  8
GAIKEI
  6
Continuous
 62
     1
100
AcDbLine
 10
39.85833972399301
 20
13.71858405451229
 30
0.0
 11
39.86080552399311
 21
13.71858405451229
 31
0.0
  0
LINE
  5
1AE
330
2
100
AcDbEntity
  8
GAIKEI
  6
Continuous
 62
     7
100
AcDbLine
 10
39.86080552399311
 20
7.660315154512261
 30
0.0
 11
39.86080552399311
 21
11.36948520451227
 31
0.0
  0
LINE
  5
1AF
330
2
100
AcDbEntity
  8
GAIKEI
  6
Continuous
 62
     1
100
AcDbLine
 10
39.86080552399311
 20
7.660315154512261
 30
0.0
 11
39.85833972399301
 21
7.660315154512261
 31
0.0
  0
LINE
  5
1B0
330
2
100
AcDbEntity
  8
GAIKEI
  6
Continuous
 62
     1
100
AcDbLine
 10
39.45018052399312
 20
5.094003504512272
 30
0.0
 11
39.45018052399312
 21
5.210496104512259
 31
0.0
  0
LINE
  5
1B1
330
2
100
AcDbEntity
  8
GAIKEI
  6
Continuous
 62
     1
100
AcDbLine
 10
39.36830552399305
 20
4.14967905451229
 30
0.0
 11
39.36830552399305
 21
5.113479404512276
 31
0.0
  0
LINE
  5
1B2
330
2
100
AcDbEntity
  8
GAIKEI
  6
Continuous
 62
     1
100
AcDbLine
 10
38.97226137399308
 20
4.14967905451229
 30
0.0
 11
39.36830552399305
 21
4.14967905451229
 31
0.0
  0
LINE
  5
1B3
330
2
100
AcDbEntity
  8
GAIKEI
  6
Continuous
 62
     1
100
AcDbLine
 10
39.36830552399305
 20
4.14967905451229
 30
0.0
 11
39.36830552399305
 21
3.654440954512239
 31
0.0
  0
LINE
  5
1B4
330
2
100
AcDbEntity
  8
GAIKEI
  6
Continuous
 62
     1
100
AcDbLine
 10
37.76476137399305
 20
2.059034654512288
 30
0.0
 11
37.72132757399305
 21
2.059034654512288
 31
0.0
  0
LINE
  5
1B5
330
2
100
AcDbEntity
  8
GAIKEI
  6
Continuous
 62
     1
100
AcDbLine
 10
38.97226137399308
 20
4.64147545451226
 30
0.0
 11
38.97226137399308
 21
4.14967905451229
 31
0.0
  0
LINE
  5
1B6
330
2
100
AcDbEntity
  8
GAIKEI
  6
Continuous
 62
     1
100
AcDbLine
 10
37.76476137399305
 20
2.059034654512288
 30
0.0
 11
38.16080552399302
 21
2.059034654512288
 31
0.0
  0
LINE
  5
1B7
330
2
100
AcDbEntity
  8
GAIKEI
  6
Continuous
 62
     1
100
AcDbLine
 10
38.16080552399302
 20
2.059034654512288
 30
0.0
 11
38.16080552399302
 21
3.060891754512283
 31
0.0
  0
LINE
  5
1B8
330
2
100
AcDbEntity
  8
GAIKEI
  6
Continuous
 62
     1
100
AcDbLine
 10
38.97226137399308
 20
4.14967905451229
 30
0.0
 11
38.54170097399309
 21
4.127114354512286
 31
0.0
  0
LINE
  5
1B9
330
2
100
AcDbEntity
  8
GAIKEI
  6
Continuous
 62
     1
100
AcDbLine
 10
38.44272152399309
 20
3.131450904512291
 30
0.0
 11
38.8944734739931
 21
3.155126204512271
 31
0.0
  0
LINE
  5
1BA
330
2
100
AcDbEntity
  8
GAIKEI
  6
Continuous
 62
     1
100
AcDbLine
 10
37.72132757399305
 20
2.059034654512288
 30
0.0
 11
37.66074762399313
 21
2.059034654512288
 31
0.0
  0
LINE
  5
1BB
330
2
100
AcDbEntity
  8
GAIKEI
  6
Continuous
 62
     1
100
AcDbLine
 10
37.72132757399305
 20
2.059034654512288
 30
0.0
 11
37.72132757399305
 21
3.20113015451227
 31
0.0
  0
ARC
  5
1BC
330
2
100
AcDbEntity
  8
GAIKEI
  6
Continuous
 62
     1
100
AcDbCircle
 10
40.32542807399305
 20
6.943684554512259
 30
0.0
 40
0.05
100
AcDbArc
 50
17.36419899997638
 51
93.00000000000558
  0
LINE
  5
1BD
330
2
100
AcDbEntity
  8
GAIKEI
  6
Continuous
 62
     1
100
AcDbLine
 10
40.32283437399302
 20
6.993175054512249
 30
0.0
 11
40.3228112739931
 21
6.993616054512244
 31
0.0
  0
LINE
  5
1BE
330
2
100
AcDbEntity
  8
GAIKEI
  6
Continuous
 62
     1
100
AcDbLine
 10
40.29194442399306
 20
6.991998354512247
 30
0.0
 11
40.3228112739931
 21
6.993616054512244
 31
0.0
  0
ARC
  5
1BF
330
2
100
AcDbEntity
  8
GAIKEI
  6
Continuous
 62
     1
100
AcDbCircle
 10
40.32556627399308
 20
6.943249604512288
 30
0.0
 40
0.05
100
AcDbArc
 50
3.000000000005594
 51
93.00000000000558
  0
ARC
  5
1C0
330
2
100
AcDbEntity
  8
GAIKEI
  6
Continuous
 62
     1
100
AcDbCircle
 10
40.08403947399311
 20
6.775024854512253
 30
0.0
 40
0.3
100
AcDbArc
 50
287.999999999999
 51
3.000000000005594
  0
ARC
  5
1C1
330
2
100
AcDbEntity
  8
GAIKEI
  6
Continuous
 62
     1
100
AcDbCircle
 10
40.08403947399311
 20
6.775024854512253
 30
0.0
 40
0.29862125
100
AcDbArc
 50
287.999999999999
 51
3.000000000005594
  0
ARC
  5
1C2
330
2
100
AcDbEntity
  8
GAIKEI
  6
Continuous
 62
     1
100
AcDbCircle
 10
40.08403947399311
 20
6.775024854512253
 30
0.0
 40
0.2736555
100
AcDbArc
 50
287.999999999999
 51
3.000000000005594
  0
ARC
  5
1C3
330
2
100
AcDbEntity
  8
GAIKEI
  6
Continuous
 62
     1
100
AcDbCircle
 10
40.32556627399308
 20
6.943249604512288
 30
0.0
 40
0.0236555
100
AcDbArc
 50
3.000000000005594
 51
93.00000000000558
  0
ARC
  5
1C4
330
2
100
AcDbEntity
  8
GAIKEI
  6
Continuous
 62
     1
100
AcDbCircle
 10
40.32556627399308
 20
6.943249604512288
 30
0.0
 40
0.04862125
100
AcDbArc
 50
3.000000000005594
 51
93.00000000000558
  0
LINE
  5
1C5
330
2
100
AcDbEntity
  8
GAIKEI
  6
Continuous
 62
     1
100
AcDbLine
 10
40.17631847399307
 20
6.491019204512241
 30
0.0
 11
40.1767445739931
 21
6.489707904512243
 31
0.0
  0
LINE
  5
1C6
330
2
100
AcDbEntity
  8
GAIKEI
  6
Continuous
 62
     1
100
AcDbLine
 10
40.1767445739931
 20
6.489707904512243
 30
0.0
 11
39.86080552399311
 21
6.387053104512261
 31
0.0
  0
LINE
  5
1C7
330
2
100
AcDbEntity
  8
GAIKEI
  6
Continuous
 62
     1
100
AcDbLine
 10
40.37412087399308
 20
6.945794254512293
 30
0.0
 11
40.37549772399301
 21
6.945866404512287
 31
0.0
  0
LINE
  5
1C8
330
2
100
AcDbEntity
  8
GAIKEI
  6
Continuous
 62
     1
100
AcDbLine
 10
40.38225142399311
 20
6.790653504512278
 30
0.0
 11
40.38362832399307
 21
6.790725654512272
 31
0.0
  0
LINE
  5
1C9
330
2
100
AcDbEntity
  8
GAIKEI
  6
Continuous
 62
     1
100
AcDbLine
 10
40.37549772399301
 20
6.945866404512287
 30
0.0
 11
40.38362832399307
 21
6.790725654512272
 31
0.0
  0
LINE
  5
1CA
330
2
100
AcDbEntity
  8
GAIKEI
  6
Continuous
 62
     1
100
AcDbLine
 10
40.32302162399308
 20
6.991804204512249
 30
0.0
 11
40.32294947399303
 21
6.993181104512245
 31
0.0
  0
LINE
  5
1CB
330
2
100
AcDbEntity
  8
GAIKEI
  6
Continuous
 62
     1
100
AcDbLine
 10
40.29196752399307
 20
6.991557404512263
 30
0.0
 11
40.32294947399303
 21
6.993181104512245
 31
0.0
  0
LINE
  5
1CC
330
2
100
AcDbEntity
  8
GAIKEI
  6
Continuous
 62
     1
100
AcDbLine
 10
40.37412087399308
 20
6.945794254512293
 30
0.0
 11
40.38225142399311
 21
6.790653504512278
 31
0.0
  0
LINE
  5
1CD
330
2
100
AcDbEntity
  8
GAIKEI
  6
Continuous
 62
     1
100
AcDbLine
 10
40.35731992399313
 20
6.789346904512285
 30
0.0
 11
40.34918932399306
 21
6.944487654512272
 31
0.0
  0
LINE
  5
1CE
330
2
100
AcDbEntity
  8
GAIKEI
  6
Continuous
 62
     1
100
AcDbLine
 10
40.17631847399307
 20
6.491019204512241
 30
0.0
 11
39.86080552399311
 21
6.388502804512285
 31
0.0
  0
LINE
  5
1CF
330
2
100
AcDbEntity
  8
GAIKEI
  6
Continuous
 62
     1
100
AcDbLine
 10
39.86080552399311
 20
6.414753354512271
 30
0.0
 11
40.16860367399305
 21
6.514763054512286
 31
0.0
  0
LINE
  5
1D0
330
2
100
AcDbEntity
  8
GAIKEI
  6
Continuous
 62
     1
100
AcDbLine
 10
40.16860367399305
 20
6.514763054512286
 30
0.0
 11
40.17631847399307
 21
6.491019204512241
 31
0.0
  0
LINE
  5
1D1
330
2
100
AcDbEntity
  8
GAIKEI
  6
Continuous
 62
     1
100
AcDbLine
 10
40.35731992399313
 20
6.789346904512285
 30
0.0
 11
40.38225142399311
 21
6.790653504512278
 31
0.0
  0
LINE
  5
1D2
330
2
100
AcDbEntity
  8
GAIKEI
  6
Continuous
 62
     1
100
AcDbLine
 10
40.34918932399306
 20
6.944487654512272
 30
0.0
 11
40.37412087399308
 21
6.945794254512293
 31
0.0
  0
LINE
  5
1D3
330
2
100
AcDbEntity
  8
GAIKEI
  6
Continuous
 62
     1
100
AcDbLine
 10
40.3243282239931
 20
6.966872704512297
 30
0.0
 11
40.29334627399303
 21
6.965249004512259
 31
0.0
  0
LINE
  5
1D4
330
2
100
AcDbEntity
  8
GAIKEI
  6
Continuous
 62
     1
100
AcDbLine
 10
40.32302162399308
 20
6.991804204512249
 30
0.0
 11
40.3243282239931
 21
6.966872704512297
 31
0.0
  0
LINE
  5
1D5
330
2
100
AcDbEntity
  8
GAIKEI
  6
Continuous
 62
     1
100
AcDbLine
 10
40.29203967399301
 20
6.990180504512267
 30
0.0
 11
40.32302162399308
 21
6.991804204512249
 31
0.0
  0
LINE
  5
1D6
330
2
100
AcDbEntity
  8
GAIKEI
  6
Continuous
 62
     1
100
AcDbLine
 10
39.81483272399304
 20
28.59530725451228
 30
0.0
 11
39.78594877399301
 21
28.80082700451223
 31
0.0
  0
LINE
  5
1D7
330
2
100
AcDbEntity
  8
GAIKEI
  6
Continuous
 62
     7
100
AcDbLine
 10
39.84581242399314
 20
28.37487500451229
 30
0.0
 11
39.86080552399311
 21
28.26819380451226
 31
0.0
  0
LINE
  5
1D8
330
2
100
AcDbEntity
  8
GAIKEI
  6
Continuous
 62
     1
100
AcDbLine
 10
37.76476137399305
 20
3.252881204512277
 30
0.0
 11
37.76476137399305
 21
2.059034654512288
 31
0.0
  0
LINE
  5
1D9
330
2
100
AcDbEntity
  8
GAIKEI
  6
Continuous
 62
     1
100
AcDbLine
 10
37.6609340239931
 20
3.112101504512224
 30
0.0
 11
37.6609340239931
 21
2.121619954512283
 31
0.0
  0
LINE
  5
1DA
330
2
100
AcDbEntity
  8
GAIKEI
  6
Continuous
 62
     1
100
AcDbLine
 10
36.52726062399302
 20
2.128647704512275
 30
0.0
 11
36.52726062399302
 21
32.20944605451228
 31
0.0
  0
LINE
  5
1DB
330
2
100
AcDbEntity
  8
GAIKEI
  6
Continuous
 62
     1
100
AcDbLine
 10
36.52726062399302
 20
2.128647704512275
 30
0.0
 11
36.57817612399299
 21
2.128647704512275
 31
0.0
  0
LINE
  5
1DC
330
2
100
AcDbEntity
  8
GAIKEI
  6
Continuous
 62
     1
100
AcDbLine
 10
35.56506142399303
 20
32.08088275451229
 30
0.0
 11
35.418459423993
 21
31.84628340451226
 31
0.0
  0
LINE
  5
1DD
330
2
100
AcDbEntity
  8
GAIKEI
  6
Continuous
 62
     1
100
AcDbLine
 10
35.56510242399304
 20
2.25716330451226
 30
0.0
 11
35.56510242399304
 21
32.08091820451227
 31
0.0
  0
LINE
  5
1DE
330
2
100
AcDbEntity
  8
GAIKEI
  6
Continuous
 62
     1
100
AcDbLine
 10
39.226044773993
 20
5.677280504512282
 30
0.0
 11
39.226044773993
 21
28.66080100451228
 31
0.0
  0
LINE
  5
1DF
330
2
100
AcDbEntity
  8
GAIKEI
  6
Continuous
 62
     1
100
AcDbLine
 10
37.40636217399305
 20
1.97215355451226
 30
0.0
 11
37.40636217399305
 21
2.897507554512287
 31
0.0
  0
LINE
  5
1E0
330
2
100
AcDbEntity
  8
GAIKEI
  6
Continuous
 62
     1
100
AcDbLine
 10
36.59192122399304
 20
31.04471215451227
 30
0.0
 11
36.59192122399304
 21
3.293369354512265
 31
0.0
  0
ARC
  5
1E1
330
2
100
AcDbEntity
  8
GAIKEI
  6
Continuous
 62
     7
100
AcDbCircle
 10
35.46080552399303
 20
32.01965110451226
 30
0.0
 40
0.05
100
AcDbArc
 50
147.8917039999804
 51
180.0
  0
LINE
  5
1E2
330
2
100
AcDbEntity
  8
GAIKEI
  6
Continuous
 62
     7
100
AcDbLine
 10
35.41080552399302
 20
32.01965110451226
 30
0.0
 11
35.41080552399302
 21
31.84626245451227
 31
0.0
  0
LINE
  5
1E3
330
2
100
AcDbEntity
  8
GAIKEI
  6
Continuous
 62
     7
100
AcDbLine
 10
35.41080552399302
 20
2.491819054512262
 30
0.0
 11
35.41080552399302
 21
2.31843040451227
 31
0.0
  0
LINE
  5
1E4
330
2
100
AcDbEntity
  8
GAIKEI
  6
Continuous
 62
     7
100
AcDbLine
 10
35.41080552399302
 20
31.84627465451228
 30
0.0
 11
35.41080552399302
 21
2.491806854512276
 31
0.0
  0
LINE
  5
1E5
330
2
100
AcDbEntity
  8
GAIKEI
  6
Continuous
 62
     1
100
AcDbLine
 10
37.61080552399301
 20
2.907969004512267
 30
0.0
 11
37.61080552399301
 21
1.975937754512273
 31
0.0
  0
LINE
  5
1E6
330
2
100
AcDbEntity
  8
GAIKEI
  6
Continuous
 62
     7
100
AcDbLine
 10
35.41845817399303
 20
2.29185215451227
 30
0.0
 11
35.566310773993
 21
2.056239104512286
 31
0.0
  0
LINE
  5
1E7
330
2
100
AcDbEntity
  8
GAIKEI
  6
Continuous
 62
     7
100
AcDbLine
 10
35.41845682399304
 20
32.04622920451229
 30
0.0
 11
35.56631102399303
 21
32.28184480451228
 31
0.0
  0
LINE
  5
1E8
330
2
100
AcDbEntity
  8
GAIKEI
  6
Continuous
 62
     1
100
AcDbLine
 10
39.84580797399302
 20
6.019809804512277
 30
0.0
 11
39.84580797399302
 21
5.956589604512259
 31
0.0
  0
LINE
  5
1E9
330
2
100
AcDbEntity
  8
GAIKEI
  6
Continuous
 62
     1
100
AcDbLine
 10
39.84581262399301
 20
28.38149830451227
 30
0.0
 11
39.845811173993
 21
28.31827805451226
 31
0.0
  0
SPLINE
  5
1EA
330
2
100
AcDbEntity
  8
GAIKEI
  6
Continuous
 62
     7
100
AcDbSpline
210
0.0
220
0.0
230
1.0
 70
     8
 71
     3
 72
     9
 73
     5
 74
     0
 42
0.0000000001
 43
0.0000000001
 40
0.0
 40
0.0
 40
0.0
 40
0.0
 40
26.93429499035442
 40
53.8839047957855
 40
53.8839047957855
 40
53.8839047957855
 40
53.8839047957855
 10
37.71581040680553
 20
31.1435280627154
 30
0.0
 10
38.00432527871056
 20
30.79961703824421
 30
0.0
 10
38.62494685324872
 20
30.11028384202848
 30
0.0
 10
39.20167476266151
 20
29.42187082870791
 30
0.0
 10
39.49138902008677
 20
29.07863548459039
 30
0.0
  0
SPLINE
  5
1EB
330
2
100
AcDbEntity
  8
GAIKEI
  6
Continuous
 62
     7
100
AcDbSpline
210
0.0
220
0.0
230
1.0
 70
     8
 71
     3
 72
     9
 73
     5
 74
     0
 42
0.0000000001
 43
0.0000000001
 40
0.0
 40
0.0
 40
0.0
 40
0.0
 40
26.94682481596114
 40
53.89217747364835
 40
53.89217747364835
 40
53.89217747364835
 40
53.89217747364835
 10
37.71589585602425
 20
31.1434304064654
 30
0.0
 10
38.00524551067139
 20
30.79994833263981
 30
0.0
 10
38.62580604734448
 20
30.11038155043454
 30
0.0
 10
39.20191049360294
 20
29.42126493615811
 30
0.0
 10
39.49175523102427
 20
29.07823265255914
 30
0.0
  0
SPLINE
  5
1EC
330
2
100
AcDbEntity
  8
GAIKEI
  6
Continuous
 62
     1
100
AcDbSpline
210
0.0
220
0.0
230
1.0
 70
     8
 71
     3
 72
     9
 73
     5
 74
     0
 42
0.0000000001
 43
0.0000000001
 40
0.0
 40
0.0
 40
0.0
 40
0.0
 40
2.779833558013574
 40
7.171631173771265
 40
7.171631173771265
 40
7.171631173771265
 40
7.171631173771265
 10
39.84580796539926
 20
28.31827171505916
 30
0.0
 10
39.84580634531436
 20
28.36460227433105
 30
0.0
 10
39.76430191690666
 20
28.47424853761976
 30
0.0
 10
39.65262733310111
 20
28.51764997061219
 30
0.0
 10
39.58319810211803
 20
28.54083030880915
 30
0.0
  0
SPLINE
  5
1ED
330
2
100
AcDbEntity
  8
GAIKEI
  6
Continuous
 62
     1
100
AcDbSpline
210
0.0
220
0.0
230
1.0
 70
     8
 71
     3
 72
     9
 73
     5
 74
     0
 42
0.0000000001
 43
0.0000000001
 40
0.0
 40
0.0
 40
0.0
 40
0.0
 40
3.9879700644909
 40
7.535215629019706
 40
7.535215629019706
 40
7.535215629019706
 40
7.535215629019706
 10
39.2260447818055
 20
5.677292711152887
 30
0.0
 10
39.28900155965845
 20
5.698604575844228
 30
0.0
 10
39.40801964661226
 20
5.738689711453275
 30
0.0
 10
39.5271214875148
 20
5.778524822445547
 30
0.0
 10
39.58319810211803
 20
5.797251207246659
 30
0.0
  0
SPLINE
  5
1EE
330
2
100
AcDbEntity
  8
GAIKEI
  6
Continuous
 62
     7
100
AcDbSpline
210
0.0
220
0.0
230
1.0
 70
     8
 71
     3
 72
     9
 73
     5
 74
     0
 42
0.0000000001
 43
0.0000000001
 40
0.0
 40
0.0
 40
0.0
 40
0.0
 40
2.863606356947277
 40
5.473739772515606
 40
5.473739772515606
 40
5.473739772515606
 40
5.473739772515606
 10
39.49138902008677
 20
29.07863548459039
 30
0.0
 10
39.5221789069535
 20
29.04216868200155
 30
0.0
 10
39.58096996797893
 20
28.97240945854867
 30
0.0
 10
39.63967126217465
 20
28.90257471934507
 30
0.0
 10
39.66764634430551
 20
28.8692604845904
 30
0.0
  0
SPLINE
  5
1EF
330
2
100
AcDbEntity
  8
GAIKEI
  6
Continuous
 62
     1
100
AcDbSpline
210
0.0
220
0.0
230
1.0
 70
     8
 71
     3
 72
     9
 73
     5
 74
     0
 42
0.0000000001
 43
0.0000000001
 40
0.0
 40
0.0
 40
0.0
 40
0.0
 40
0.0229117718387116
 40
0.0458916806018949
 40
0.0458916806018949
 40
0.0458916806018949
 40
0.0458916806018949
 10
39.66764634430551
 20
28.8692604845904
 30
0.0
 10
39.66789691919148
 20
28.86897233276684
 30
0.0
 10
39.66839538070177
 20
28.86839218340387
 30
0.0
 10
39.66888905653802
 20
28.86780797144871
 30
0.0
 10
39.66913560211803
 20
28.86751487912164
 30
0.0
  0
SPLINE
  5
1F0
330
2
100
AcDbEntity
  8
GAIKEI
  6
Continuous
 62
     1
100
AcDbSpline
210
0.0
220
0.0
230
1.0
 70
     8
 71
     3
 72
     9
 73
     5
 74
     0
 42
0.0000000001
 43
0.0000000001
 40
0.0
 40
0.0
 40
0.0
 40
0.0
 40
2.891214346538228
 40
5.508749514953396
 40
5.508749514953396
 40
5.508749514953396
 40
5.508749514953396
 10
39.49175523102427
 20
29.07823265255914
 30
0.0
 10
39.52283871902288
 20
29.04141153549204
 30
0.0
 10
39.58199771125656
 20
28.97119931696833
 30
0.0
 10
39.6410752523738
 20
28.90091859954785
 30
0.0
 10
39.66913560211803
 20
28.86751487912164
 30
0.0
  0
SPLINE
  5
1F1
330
2
100
AcDbEntity
  8
GAIKEI
  6
Continuous
 62
     1
100
AcDbSpline
210
0.0
220
0.0
230
1.0
 70
     8
 71
     3
 72
     9
 73
     5
 74
     0
 42
0.0000000001
 43
0.0000000001
 40
0.0
 40
0.0
 40
0.0
 40
0.0
 40
0.0054457096715503
 40
0.0108916107516272
 40
0.0108916107516272
 40
0.0108916107516272
 40
0.0108916107516272
 10
39.49175523102427
 20
29.07823265255914
 30
0.0
 10
39.49169708218368
 20
29.07830234059066
 30
0.0
 10
39.49157883248687
 20
29.0784401179161
 30
0.0
 10
39.49145382614158
 20
29.07857193568205
 30
0.0
 10
39.49138902008677
 20
29.07863548459039
 30
0.0
  0
SPLINE
  5
1F2
330
2
100
AcDbEntity
  8
GAIKEI
  6
Continuous
 62
     7
100
AcDbSpline
210
0.0
220
0.0
230
1.0
 70
     8
 71
     3
 72
     9
 73
     5
 74
     0
 42
0.0000000001
 43
0.0000000001
 40
0.0
 40
0.0
 40
0.0
 40
0.0
 40
7.877333503125576
 40
15.7569144259342
 40
15.7569144259342
 40
15.7569144259342
 40
15.7569144259342
 10
37.35794907868052
 20
1.922153550996654
 30
0.0
 10
37.22666038633259
 20
1.922382352908812
 30
0.0
 10
36.96404563305032
 20
1.922898015805998
 30
0.0
 10
36.70143186617309
 20
1.923865389017009
 30
0.0
 10
36.57010728180552
 20
1.924546129121637
 30
0.0
  0
SPLINE
  5
1F3
330
2
100
AcDbEntity
  8
GAIKEI
  6
Continuous
 62
     1
100
AcDbSpline
210
0.0
220
0.0
230
1.0
 70
     8
 71
     3
 72
     9
 73
     5
 74
     0
 42
0.0000000001
 43
0.0000000001
 40
0.0
 40
0.0
 40
0.0
 40
0.0
 40
0.7580605380063496
 40
1.506885284197801
 40
1.506885284197801
 40
1.506885284197801
 40
1.506885284197801
 10
37.40636216461803
 20
1.972153550996637
 30
0.0
 10
37.40635943714205
 20
1.95951920899094
 30
0.0
 10
37.39652297660638
 20
1.933279677412201
 30
0.0
 10
37.37042945714427
 20
1.922124430776165
 30
0.0
 10
37.35794907868052
 20
1.922153550996654
 30
0.0
  0
SPLINE
  5
1F4
330
2
100
AcDbEntity
  8
GAIKEI
  6
Continuous
 62
     7
100
AcDbSpline
210
0.0
220
0.0
230
1.0
 70
     8
 71
     3
 72
     9
 73
     5
 74
     0
 42
0.0000000001
 43
0.0000000001
 40
0.0
 40
0.0
 40
0.0
 40
0.0
 40
1.058597871388755
 40
4.049813702925055
 40
4.049813702925055
 40
4.049813702925055
 40
4.049813702925055
 10
37.5604393130555
 20
1.921726304902904
 30
0.0
 10
37.54279660630113
 20
1.921870726615338
 30
0.0
 10
37.47529852382866
 20
1.921751482079457
 30
0.0
 10
37.40780254859618
 20
1.922040899416629
 30
0.0
 10
37.35794907868052
 20
1.922153550996654
 30
0.0
  0
SPLINE
  5
1F5
330
2
100
AcDbEntity
  8
GAIKEI
  6
Continuous
 62
     1
100
AcDbSpline
210
0.0
220
0.0
230
1.0
 70
     8
 71
     3
 72
     9
 73
     5
 74
     0
 42
0.0000000001
 43
0.0000000001
 40
0.0
 40
0.0
 40
0.0
 40
0.0
 40
3.260160033458143
 40
6.491972656217768
 40
6.491972656217768
 40
6.491972656217768
 40
6.491972656217768
 10
37.40636216461803
 20
2.897507554902887
 30
0.0
 10
37.40620421426616
 20
2.951843325885619
 30
0.0
 10
37.42507366396012
 20
3.060977289916536
 30
0.0
 10
37.48104071074596
 20
3.156680014704591
 30
0.0
 10
37.51618882477425
 20
3.197495347871637
 30
0.0
  0
SPLINE
  5
1F6
330
2
100
AcDbEntity
  8
GAIKEI
  6
Continuous
 62
     1
100
AcDbSpline
210
0.0
220
0.0
230
1.0
 70
     8
 71
     3
 72
     9
 73
     5
 74
     0
 42
0.0000000001
 43
0.0000000001
 40
0.0
 40
0.0
 40
0.0
 40
0.0
 40
0.3627011986574493
 40
4.086566857363294
 40
4.086566857363294
 40
4.086566857363294
 40
4.086566857363294
 10
37.40636216461803
 20
2.897507554902887
 30
0.0
 10
37.41240048224762
 20
2.897792136585792
 30
0.0
 10
37.48030042783819
 20
2.900030562919312
 30
0.0
 10
37.55280777305188
 20
2.882330188063662
 30
0.0
 10
37.61054917633675
 20
2.905088121309148
 30
0.0
  0
SPLINE
  5
1F7
330
2
100
AcDbEntity
  8
GAIKEI
  6
Continuous
 62
     1
100
AcDbSpline
210
0.0
220
0.0
230
1.0
 70
     8
 71
     3
 72
     9
 73
     5
 74
     0
 42
0.0000000001
 43
0.0000000001
 40
0.0
 40
0.0
 40
0.0
 40
0.0
 40
3.019240164043566
 40
4.08667837340747
 40
4.08667837340747
 40
4.08667837340747
 40
4.08667837340747
 10
37.40636216461803
 20
1.972153550996637
 30
0.0
 10
37.4566827045407
 20
1.972039398338381
 30
0.0
 10
37.52479366900406
 20
1.971833497471294
 30
0.0
 10
37.59290519068537
 20
1.9718155495772
 30
0.0
 10
37.61069566071177
 20
1.971738511934148
 30
0.0
  0
SPLINE
  5
1F8
330
2
100
AcDbEntity
  8
GAIKEI
  6
Continuous
 62
     1
100
AcDbSpline
210
0.0
220
0.0
230
1.0
 70
     8
 71
     3
 72
     9
 73
     5
 74
     0
 42
0.0000000001
 43
0.0000000001
 40
0.0
 40
0.0
 40
0.0
 40
0.0
 40
0.0585869285891605
 40
0.1171635704787038
 40
0.1171635704787038
 40
0.1171635704787038
 40
0.1171635704787038
 10
36.57009507477426
 20
1.924546129121637
 30
0.0
 10
36.56911864733792
 20
1.924552589747577
 30
0.0
 10
36.56716601489149
 20
1.924616213953356
 30
0.0
 10
36.56521892529617
 20
1.924774523195281
 30
0.0
 10
36.56424790680552
 20
1.924875718965409
 30
0.0
  0
SPLINE
  5
1F9
330
2
100
AcDbEntity
  8
GAIKEI
  6
Continuous
 62
     1
100
AcDbSpline
210
0.0
220
0.0
230
1.0
 70
     8
 71
     3
 72
     9
 73
     5
 74
     0
 42
0.0000000001
 43
0.0000000001
 40
0.0
 40
0.0
 40
0.0
 40
0.0
 40
0.7534407029545424
 40
1.509689106564298
 40
1.509689106564298
 40
1.509689106564298
 40
1.509689106564298
 10
36.57009507477426
 20
1.924546129121637
 30
0.0
 10
36.58265223040849
 20
1.924477157653228
 30
0.0
 10
36.60883770452364
 20
1.935664302826864
 30
0.0
 10
36.61866305488786
 20
1.961941989633487
 30
0.0
 10
36.618666852118
 20
1.974546129121648
 30
0.0
  0
SPLINE
  5
1FA
330
2
100
AcDbEntity
  8
GAIKEI
  6
Continuous
 62
     1
100
AcDbSpline
210
0.0
220
0.0
230
1.0
 70
     8
 71
     3
 72
     9
 73
     5
 74
     0
 42
0.0000000001
 43
0.0000000001
 40
0.0
 40
0.0
 40
0.0
 40
0.0
 40
0.9807234238386245
 40
3.032998074543561
 40
3.032998074543561
 40
3.032998074543561
 40
3.032998074543561
 10
35.56572495758678
 20
32.27657249630914
 30
0.0
 10
35.57339458558806
 20
32.26213821095925
 30
0.0
 10
35.56342344212533
 20
32.20782179551546
 30
0.0
 10
35.56684168104795
 20
32.15919394177354
 30
0.0
 10
35.56466294586801
 20
32.12505882443415
 30
0.0
  0
SPLINE
  5
1FB
330
2
100
AcDbEntity
  8
GAIKEI
  6
Continuous
 62
     7
100
AcDbSpline
210
0.0
220
0.0
230
1.0
 70
     8
 71
     3
 72
     9
 73
     5
 74
     0
 42
0.0000000001
 43
0.0000000001
 40
0.0
 40
0.0
 40
0.0
 40
0.0
 40
3.135027021105074
 40
6.254088423358835
 40
6.254088423358835
 40
6.254088423358835
 40
6.254088423358835
 10
37.61054917633675
 20
2.905088121309148
 30
0.0
 10
37.61055616333749
 20
2.957338571193758
 30
0.0
 10
37.62924214126508
 20
3.062315863910583
 30
0.0
 10
37.68240406076308
 20
3.154723949376091
 30
0.0
 10
37.71581040680553
 20
3.194553453340404
 30
0.0
  0
SPLINE
  5
1FC
330
2
100
AcDbEntity
  8
GAIKEI
  6
Continuous
 62
     1
100
AcDbSpline
210
0.0
220
0.0
230
1.0
 70
     8
 71
     3
 72
     9
 73
     5
 74
     0
 42
0.0000000001
 43
0.0000000001
 40
0.0
 40
0.0
 40
0.0
 40
0.0
 40
3.095994955968131
 40
6.209958464549529
 40
6.209958464549529
 40
6.209958464549529
 40
6.209958464549529
 10
37.71589585602425
 20
3.194651109590409
 30
0.0
 10
37.68261246623036
 20
3.155220572083294
 30
0.0
 10
37.62979100611278
 20
3.063509003744741
 30
0.0
 10
37.61076257673682
 20
2.9593434698169
 30
0.0
 10
37.61075669586802
 20
2.907444078340404
 30
0.0
  0
SPLINE
  5
1FD
330
2
100
AcDbEntity
  8
GAIKEI
  6
Continuous
 62
     1
100
AcDbSpline
210
0.0
220
0.0
230
1.0
 70
     8
 71
     3
 72
     9
 73
     5
 74
     0
 42
0.0000000001
 43
0.0000000001
 40
0.0
 40
0.0
 40
0.0
 40
0.0
 40
0.0470994685537442
 40
0.0942396230698412
 40
0.0942396230698412
 40
0.0942396230698412
 40
0.0942396230698412
 10
37.61054917633675
 20
2.905088121309148
 30
0.0
 10
37.61055720846304
 20
2.905873071357774
 30
0.0
 10
37.61056539333976
 20
2.907443723516365
 30
0.0
 10
37.61056956304145
 20
2.909014376451949
 30
0.0
 10
37.61057359039927
 20
2.909800035371659
 30
0.0
  0
SPLINE
  5
1FE
330
2
100
AcDbEntity
  8
GAIKEI
  6
Continuous
 62
     1
100
AcDbSpline
210
0.0
220
0.0
230
1.0
 70
     8
 71
     3
 72
     9
 73
     5
 74
     0
 42
0.0000000001
 43
0.0000000001
 40
0.0
 40
0.0
 40
0.0
 40
0.0
 40
0.42957038093176
 40
0.8841692220662748
 40
0.8841692220662748
 40
0.8841692220662748
 40
0.8841692220662748
 10
35.56466294586801
 20
32.12505882443415
 30
0.0
 10
35.5642044416864
 20
32.11791401477436
 30
0.0
 10
35.56357567489278
 20
32.10318143893954
 30
0.0
 10
35.56427846860783
 20
32.08842813064845
 30
0.0
 10
35.5650779849305
 20
32.08089378537164
 30
0.0
  0
SPLINE
  5
1FF
330
2
100
AcDbEntity
  8
GAIKEI
  6
Continuous
 62
     1
100
AcDbSpline
210
0.0
220
0.0
230
1.0
 70
     8
 71
     3
 72
     9
 73
     5
 74
     0
 42
0.0000000001
 43
0.0000000001
 40
0.0
 40
0.0
 40
0.0
 40
0.0
 40
0.7397975069871018
 40
1.260851841117546
 40
1.260851841117546
 40
1.260851841117546
 40
1.260851841117546
 10
35.627211773993
 20
32.1171852892779
 30
0.0
 10
35.61497259423055
 20
32.11867872629199
 30
0.0
 10
35.59411942238336
 20
32.12127444670085
 30
0.0
 10
35.57326990337794
 20
32.12390284531134
 30
0.0
 10
35.56466294586801
 20
32.12505882443415
 30
0.0
  0
SPLINE
  5
200
330
2
100
AcDbEntity
  8
GAIKEI
  6
Continuous
 62
     1
100
AcDbSpline
210
0.0
220
0.0
230
1.0
 70
     8
 71
     3
 72
     9
 73
     5
 74
     0
 42
0.0000000001
 43
0.0000000001
 40
0.0
 40
0.0
 40
0.0
 40
0.0
 40
0.3638848433373529
 40
0.7286069988694308
 40
0.7286069988694308
 40
0.7286069988694308
 40
0.7286069988694308
 10
35.62470933258675
 20
2.257224351777892
 30
0.0
 10
35.62472070095885
 20
2.251159615043974
 30
0.0
 10
35.62523908288205
 20
2.239014943781285
 30
0.0
 10
35.62647833021242
 20
2.226930519232297
 30
0.0
 10
35.627211773993
 20
2.220896226777909
 30
0.0
  0
SPLINE
  5
201
330
2
100
AcDbEntity
  8
GAIKEI
  6
Continuous
 62
     1
100
AcDbSpline
210
0.0
220
0.0
230
1.0
 70
     8
 71
     3
 72
     9
 73
     5
 74
     0
 42
0.0000000001
 43
0.0000000001
 40
0.0
 40
0.0
 40
0.0
 40
0.0
 40
0.6811628602558401
 40
1.192627485768432
 40
1.192627485768432
 40
1.192627485768432
 40
1.192627485768432
 10
35.62470933258675
 20
2.257224351777892
 30
0.0
 10
35.61335662015927
 20
2.257217766176324
 30
0.0
 10
35.59347957060533
 20
2.257187177612962
 30
0.0
 10
35.57360233166566
 20
2.257154778646508
 30
0.0
 10
35.5650779849305
 20
2.257187730684137
 30
0.0
  0
SPLINE
  5
202
330
2
100
AcDbEntity
  8
GAIKEI
  6
Continuous
 62
     1
100
AcDbSpline
210
0.0
220
0.0
230
1.0
 70
     8
 71
     3
 72
     9
 73
     5
 74
     0
 42
0.0000000001
 43
0.0000000001
 40
0.0
 40
0.0
 40
0.0
 40
0.0
 40
0.42957038093176
 40
0.8841692220662748
 40
0.8841692220662748
 40
0.8841692220662748
 40
0.8841692220662748
 10
35.56466294586801
 20
2.213022691621659
 30
0.0
 10
35.5642044416864
 20
2.220167501281451
 30
0.0
 10
35.56357567489278
 20
2.234900077116265
 30
0.0
 10
35.56427846860783
 20
2.249653385407356
 30
0.0
 10
35.5650779849305
 20
2.257187730684137
 30
0.0
  0
SPLINE
  5
203
330
2
100
AcDbEntity
  8
GAIKEI
  6
Continuous
 62
     7
100
AcDbSpline
210
0.0
220
0.0
230
1.0
 70
     8
 71
     3
 72
     9
 73
     5
 74
     0
 42
0.0000000001
 43
0.0000000001
 40
0.0
 40
0.0
 40
0.0
 40
0.0
 40
2.617345798441192
 40
5.508749515895717
 40
5.508749515895717
 40
5.508749515895717
 40
5.508749515895717
 10
39.66913560211803
 20
5.470566636934137
 30
0.0
 10
39.64107784095169
 20
5.437164863999612
 30
0.0
 10
39.58199964337017
 20
5.366884697327293
 30
0.0
 10
39.52284043097704
 20
5.296672665790453
 30
0.0
 10
39.49175523102427
 20
5.259848863496642
 30
0.0
  0
SPLINE
  5
204
330
2
100
AcDbEntity
  8
GAIKEI
  6
Continuous
 62
     1
100
AcDbSpline
210
0.0
220
0.0
230
1.0
 70
     8
 71
     3
 72
     9
 73
     5
 74
     0
 42
0.0000000001
 43
0.0000000001
 40
0.0
 40
0.0
 40
0.0
 40
0.0
 40
3.723874894909241
 40
4.086569133131648
 40
4.086569133131648
 40
4.086569133131648
 40
4.086569133131648
 10
37.61054917633675
 20
31.43299339474666
 30
0.0
 10
37.55280878586325
 20
31.45575431728707
 30
0.0
 10
37.48030246096005
 20
31.4381262364835
 30
0.0
 10
37.41240036634309
 20
31.4402893843824
 30
0.0
 10
37.40636216461803
 20
31.4405739611529
 30
0.0
  0
SPLINE
  5
205
330
2
100
AcDbEntity
  8
GAIKEI
  6
Continuous
 62
     1
100
AcDbSpline
210
0.0
220
0.0
230
1.0
 70
     8
 71
     3
 72
     9
 73
     5
 74
     0
 42
0.0000000001
 43
0.0000000001
 40
0.0
 40
0.0
 40
0.0
 40
0.0
 40
2.92384399444364
 40
3.992876672790402
 40
3.992876672790402
 40
3.992876672790402
 40
3.992876672790402
 10
37.51618882477425
 20
31.14058616818415
 30
0.0
 10
37.56491421778026
 20
31.14130758248402
 30
0.0
 10
37.63125981448417
 20
31.14454739306984
 30
0.0
 10
37.69814397380577
 20
31.14121502061016
 30
0.0
 10
37.71581040680553
 20
31.1435280627154
 30
0.0
  0
SPLINE
  5
206
330
2
100
AcDbEntity
  8
GAIKEI
  6
Continuous
 62
     1
100
AcDbSpline
210
0.0
220
0.0
230
1.0
 70
     8
 71
     3
 72
     9
 73
     5
 74
     0
 42
0.0000000001
 43
0.0000000001
 40
0.0
 40
0.0
 40
0.0
 40
0.0
 40
0.0629277079503048
 40
0.0840504830485683
 40
0.0840504830485683
 40
0.0840504830485683
 40
0.0840504830485683
 10
37.61080552399301
 20
1.975937730684137
 30
0.0
 10
37.61080546305925
 20
1.974888935553423
 30
0.0
 10
37.61037095311599
 20
1.974029512817509
 30
0.0
 10
37.61104740778217
 20
1.971724001187226
 30
0.0
 10
37.61069566071177
 20
1.971738511934148
 30
0.0
  0
SPLINE
  5
207
330
2
100
AcDbEntity
  8
GAIKEI
  6
Continuous
 62
     1
100
AcDbSpline
210
0.0
220
0.0
230
1.0
 70
     8
 71
     3
 72
     9
 73
     5
 74
     0
 42
0.0000000001
 43
0.0000000001
 40
0.0
 40
0.0
 40
0.0
 40
0.0
 40
0.7641821652282303
 40
1.535747267433889
 40
1.535747267433889
 40
1.535747267433889
 40
1.535747267433889
 10
37.61069566071177
 20
1.971738511934148
 30
0.0
 10
37.61069595109643
 20
1.959002142516993
 30
0.0
 10
37.60003959168955
 20
1.932336431865223
 30
0.0
 10
37.57329856053895
 20
1.921660010276752
 30
0.0
 10
37.5604393130555
 20
1.921726304902904
 30
0.0
  0
SPLINE
  5
208
330
2
100
AcDbEntity
  8
GAIKEI
  6
Continuous
 62
     1
100
AcDbSpline
210
0.0
220
0.0
230
1.0
 70
     8
 71
     3
 72
     9
 73
     5
 74
     0
 42
0.0000000001
 43
0.0000000001
 40
0.0
 40
0.0
 40
0.0
 40
0.0
 40
7.08030145441471
 40
14.18006471294826
 40
14.18006471294826
 40
14.18006471294826
 40
14.18006471294826
 10
37.51618882477425
 20
3.197495347871637
 30
0.0
 10
37.39819623650971
 20
3.199208491349594
 30
0.0
 10
37.16187527901593
 20
3.201872928280323
 30
0.0
 10
36.92554483432918
 20
3.203356683932327
 30
0.0
 10
36.80721665680551
 20
3.203891832246654
 30
0.0
  0
SPLINE
  5
209
330
2
100
AcDbEntity
  8
GAIKEI
  6
Continuous
 62
     1
100
AcDbSpline
210
0.0
220
0.0
230
1.0
 70
     8
 71
     3
 72
     9
 73
     5
 74
     0
 42
0.0000000001
 43
0.0000000001
 40
0.0
 40
0.0
 40
0.0
 40
0.0
 40
1.792317306519308
 40
3.744040660225156
 40
3.744040660225156
 40
3.744040660225156
 40
3.744040660225156
 10
39.58319810211803
 20
5.455320054902898
 30
0.0
 10
39.56026063068559
 20
5.436183542516886
 30
0.0
 10
39.51237683659541
 20
5.396171143525549
 30
0.0
 10
39.46462166001293
 20
5.356005055777416
 30
0.0
 10
39.43977769196179
 20
5.335007554902887
 30
0.0
  0
SPLINE
  5
20A
330
2
100
AcDbEntity
  8
GAIKEI
  6
Continuous
 62
     1
100
AcDbSpline
210
0.0
220
0.0
230
1.0
 70
     8
 71
     3
 72
     9
 73
     5
 74
     0
 42
0.0000000001
 43
0.0000000001
 40
0.0
 40
0.0
 40
0.0
 40
0.0
 40
0.8127043568509016
 40
1.713679723484488
 40
1.713679723484488
 40
1.713679723484488
 40
1.713679723484488
 10
39.66764634430551
 20
5.468821031465409
 30
0.0
 10
39.65478058734515
 20
5.464585315473925
 30
0.0
 10
39.62664027087043
 20
5.458897857696086
 30
0.0
 10
39.59820014656127
 20
5.455973208867391
 30
0.0
 10
39.58319810211803
 20
5.455320054902898
 30
0.0
  0
SPLINE
  5
20B
330
2
100
AcDbEntity
  8
GAIKEI
  6
Continuous
 62
     1
100
AcDbSpline
210
0.0
220
0.0
230
1.0
 70
     8
 71
     3
 72
     9
 73
     5
 74
     0
 42
0.0000000001
 43
0.0000000001
 40
0.0
 40
0.0
 40
0.0
 40
0.0
 40
2.880292425563401
 40
5.473739734487891
 40
5.473739734487891
 40
5.473739734487891
 40
5.473739734487891
 10
39.49138902008677
 20
5.259446031465387
 30
0.0
 10
39.52235844675435
 20
5.296125215160486
 30
0.0
 10
39.58114771379967
 20
5.365885952230001
 30
0.0
 10
39.63984856000898
 20
5.435721063264281
 30
0.0
 10
39.66764634430551
 20
5.468821031465409
 30
0.0
  0
SPLINE
  5
20C
330
2
100
AcDbEntity
  8
GAIKEI
  6
Continuous
 62
     1
100
AcDbSpline
210
0.0
220
0.0
230
1.0
 70
     8
 71
     3
 72
     9
 73
     5
 74
     0
 42
0.0000000001
 43
0.0000000001
 40
0.0
 40
0.0
 40
0.0
 40
0.0
 40
1.069029056559749
 40
3.99287665325138
 40
3.99287665325138
 40
3.99287665325138
 40
3.99287665325138
 10
37.71581040680553
 20
3.194553453340404
 30
0.0
 10
37.69814386069874
 20
3.196865166205668
 30
0.0
 10
37.63126010302864
 20
3.193535466236909
 30
0.0
 10
37.56491427782857
 20
3.196773933860953
 30
0.0
 10
37.51618882477425
 20
3.197495347871637
 30
0.0
  0
SPLINE
  5
20D
330
2
100
AcDbEntity
  8
GAIKEI
  6
Continuous
 62
     1
100
AcDbSpline
210
0.0
220
0.0
230
1.0
 70
     8
 71
     3
 72
     9
 73
     5
 74
     0
 42
0.0000000001
 43
0.0000000001
 40
0.0
 40
0.0
 40
0.0
 40
0.0
 40
0.9807234238386245
 40
3.032998074543561
 40
3.032998074543561
 40
3.032998074543561
 40
3.032998074543561
 10
35.56572495758678
 20
2.061509019746637
 30
0.0
 10
35.57339458558806
 20
2.075943305096558
 30
0.0
 10
35.56342344212533
 20
2.130259720540351
 30
0.0
 10
35.56684168104795
 20
2.178887574282271
 30
0.0
 10
35.56466294586801
 20
2.213022691621659
 30
0.0
  0
SPLINE
  5
20E
330
2
100
AcDbEntity
  8
GAIKEI
  6
Continuous
 62
     1
100
AcDbSpline
210
0.0
220
0.0
230
1.0
 70
     8
 71
     3
 72
     9
 73
     5
 74
     0
 42
0.0000000001
 43
0.0000000001
 40
0.0
 40
0.0
 40
0.0
 40
0.0
 40
0.7397975069871018
 40
1.260851841117546
 40
1.260851841117546
 40
1.260851841117546
 40
1.260851841117546
 10
35.627211773993
 20
2.220896226777909
 30
0.0
 10
35.61497259423055
 20
2.21940278976379
 30
0.0
 10
35.59411942238336
 20
2.216807069354956
 30
0.0
 10
35.57326990337794
 20
2.214178670744473
 30
0.0
 10
35.56466294586801
 20
2.213022691621659
 30
0.0
  0
SPLINE
  5
20F
330
2
100
AcDbEntity
  8
GAIKEI
  6
Continuous
 62
     7
100
AcDbSpline
210
0.0
220
0.0
230
1.0
 70
     8
 71
     3
 72
     9
 73
     5
 74
     0
 42
0.0000000001
 43
0.0000000001
 40
0.0
 40
0.0
 40
0.0
 40
0.0
 40
26.9342949903542
 40
53.88390479578548
 40
53.88390479578548
 40
53.88390479578548
 40
53.88390479578548
 10
37.71581040680553
 20
3.194553453340404
 30
0.0
 10
38.00432529049317
 20
3.538464467926814
 30
0.0
 10
38.62494685302197
 20
4.227797674188394
 30
0.0
 10
39.20167475131921
 20
4.916210696921581
 30
0.0
 10
39.49138902008677
 20
5.259446031465387
 30
0.0
  0
SPLINE
  5
210
330
2
100
AcDbEntity
  8
GAIKEI
  6
Continuous
 62
     1
100
AcDbSpline
210
0.0
220
0.0
230
1.0
 70
     8
 71
     3
 72
     9
 73
     5
 74
     0
 42
0.0000000001
 43
0.0000000001
 40
0.0
 40
0.0
 40
0.0
 40
0.0
 40
0.0054457096715503
 40
0.0108916107516272
 40
0.0108916107516272
 40
0.0108916107516272
 40
0.0108916107516272
 10
39.49175523102427
 20
5.259848863496642
 30
0.0
 10
39.49169708218368
 20
5.259779175465126
 30
0.0
 10
39.49157883248687
 20
5.259641398139706
 30
0.0
 10
39.49145382614158
 20
5.259509580373759
 30
0.0
 10
39.49138902008677
 20
5.259446031465387
 30
0.0
  0
SPLINE
  5
211
330
2
100
AcDbEntity
  8
GAIKEI
  6
Continuous
 62
     7
100
AcDbSpline
210
0.0
220
0.0
230
1.0
 70
     8
 71
     3
 72
     9
 73
     5
 74
     0
 42
0.0000000001
 43
0.0000000001
 40
0.0
 40
0.0
 40
0.0
 40
0.0
 40
26.94443441449227
 40
53.89217999260225
 40
53.89217999260225
 40
53.89217999260225
 40
53.89217999260225
 10
39.49175523102427
 20
5.259848863496642
 30
0.0
 10
39.20238456240575
 20
4.916436589387132
 30
0.0
 10
38.62566614671055
 20
4.227837684836714
 30
0.0
 10
38.00464482141763
 20
3.538658343722147
 30
0.0
 10
37.71589585602425
 20
3.194651109590409
 30
0.0
  0
SPLINE
  5
212
330
2
100
AcDbEntity
  8
GAIKEI
  6
Continuous
 62
     1
100
AcDbSpline
210
0.0
220
0.0
230
1.0
 70
     8
 71
     3
 72
     9
 73
     5
 74
     0
 42
0.0000000001
 43
0.0000000001
 40
0.0
 40
0.0
 40
0.0
 40
0.0
 40
0.0013112755639157
 40
0.0025957625437106
 40
0.0025957625437106
 40
0.0025957625437106
 40
0.0025957625437106
 10
37.71581040680553
 20
3.194553453340404
 30
0.0
 10
37.71582515935069
 20
3.194569577410447
 30
0.0
 10
37.71585456220402
 20
3.19460130680639
 30
0.0
 10
37.71588269879493
 20
3.19463422188005
 30
0.0
 10
37.71589585602425
 20
3.194651109590409
 30
0.0
  0
SPLINE
  5
213
330
2
100
AcDbEntity
  8
GAIKEI
  6
Continuous
 62
     1
100
AcDbSpline
210
0.0
220
0.0
230
1.0
 70
     8
 71
     3
 72
     9
 73
     5
 74
     0
 42
0.0000000001
 43
0.0000000001
 40
0.0
 40
0.0
 40
0.0
 40
0.0
 40
7.09960031070732
 40
14.18006481010994
 40
14.18006481010994
 40
14.18006481010994
 40
14.18006481010994
 10
36.80721665680551
 20
31.13418968380916
 30
0.0
 10
36.92554212509089
 20
31.13472337378357
 30
0.0
 10
37.1618725780977
 20
31.13620724717597
 30
0.0
 10
37.39819351669599
 20
31.13887317010298
 30
0.0
 10
37.51618882477425
 20
31.14058616818415
 30
0.0
  0
SPLINE
  5
214
330
2
100
AcDbEntity
  8
GAIKEI
  6
Continuous
 62
     1
100
AcDbSpline
210
0.0
220
0.0
230
1.0
 70
     8
 71
     3
 72
     9
 73
     5
 74
     0
 42
0.0000000001
 43
0.0000000001
 40
0.0
 40
0.0
 40
0.0
 40
0.0
 40
3.26016003345705
 40
6.491972656217694
 40
6.491972656217694
 40
6.491972656217694
 40
6.491972656217694
 10
37.40636216461803
 20
31.4405739611529
 30
0.0
 10
37.40620421036158
 20
31.38623819018156
 30
0.0
 10
37.42507366589547
 20
31.27710422613367
 30
0.0
 10
37.48104071074596
 20
31.18140150135122
 30
0.0
 10
37.51618882477425
 20
31.14058616818415
 30
0.0
  0
SPLINE
  5
215
330
2
100
AcDbEntity
  8
GAIKEI
  6
Continuous
 62
     1
100
AcDbSpline
210
0.0
220
0.0
230
1.0
 70
     8
 71
     3
 72
     9
 73
     5
 74
     0
 42
0.0000000001
 43
0.0000000001
 40
0.0
 40
0.0
 40
0.0
 40
0.0
 40
0.0956732127265057
 40
0.1530763665750467
 40
0.1530763665750467
 40
0.1530763665750467
 40
0.1530763665750467
 10
35.41080552399302
 20
31.84626243771541
 30
0.0
 10
35.41240007551045
 20
31.84626498085976
 30
0.0
 10
35.4145773220759
 20
31.84694333828659
 30
0.0
 10
35.41795143626052
 20
31.84546387165361
 30
0.0
 10
35.4184593325868
 20
31.84627464474664
 30
0.0
  0
SPLINE
  5
216
330
2
100
AcDbEntity
  8
GAIKEI
  6
Continuous
 62
     7
100
AcDbSpline
210
0.0
220
0.0
230
1.0
 70
     8
 71
     3
 72
     8
 73
     4
 74
     0
 42
0.0000000001
 43
0.0000000001
 40
0.0724476270996704
 40
0.0724476270996704
 40
0.0724476270996704
 40
0.0724476270996704
 40
0.4752828376161286
 40
0.4752828376161286
 40
0.4752828376161286
 40
0.4752828376161286
 10
35.57932407256897
 20
2.040682472694896
 30
0.0
 10
35.57312578841339
 20
2.043823253740868
 30
0.0
 10
35.57010125084662
 20
2.050660845026158
 30
0.0
 10
35.56635972321175
 20
2.056235582246642
 30
0.0
  0
SPLINE
  5
217
330
2
100
AcDbEntity
  8
GAIKEI
  6
Continuous
 62
     7
100
AcDbSpline
210
0.0
220
0.0
230
1.0
 70
     8
 71
     3
 72
     9
 73
     5
 74
     0
 42
0.0000000001
 43
0.0000000001
 40
0.0
 40
0.0
 40
0.0
 40
0.0
 40
5.256092249034459
 40
10.54636444740476
 40
10.54636444740476
 40
10.54636444740476
 40
10.54636444740476
 10
39.84580796539926
 20
5.956589586152887
 30
0.0
 10
39.84580650826472
 20
5.868988048681103
 30
0.0
 10
39.81458550430567
 20
5.691933608907646
 30
0.0
 10
39.72456180585986
 20
5.536161890745006
 30
0.0
 10
39.66764634430551
 20
5.468821031465409
 30
0.0
  0
SPLINE
  5
218
330
2
100
AcDbEntity
  8
GAIKEI
  6
Continuous
 62
     7
100
AcDbSpline
210
0.0
220
0.0
230
1.0
 70
     8
 71
     3
 72
     9
 73
     5
 74
     0
 42
0.0000000001
 43
0.0000000001
 40
0.0
 40
0.0
 40
0.0
 40
0.0
 40
5.216288490370881
 40
10.50126391629327
 40
10.50126391629327
 40
10.50126391629327
 40
10.50126391629327
 10
39.84580796539926
 20
5.956589586152887
 30
0.0
 10
39.84555435028158
 20
5.869651814569294
 30
0.0
 10
39.8150984755424
 20
5.693380038912948
 30
0.0
 10
39.72578210517553
 20
5.538018658033706
 30
0.0
 10
39.66913560211803
 20
5.470566636934137
 30
0.0
  0
SPLINE
  5
219
330
2
100
AcDbEntity
  8
GAIKEI
  6
Continuous
 62
     1
100
AcDbSpline
210
0.0
220
0.0
230
1.0
 70
     8
 71
     3
 72
     9
 73
     5
 74
     0
 42
0.0000000001
 43
0.0000000001
 40
0.0
 40
0.0
 40
0.0
 40
0.0
 40
0.0229117718387424
 40
0.0458916806018948
 40
0.0458916806018948
 40
0.0458916806018948
 40
0.0458916806018948
 10
39.66764634430551
 20
5.468821031465409
 30
0.0
 10
39.66789691919148
 20
5.469109183288935
 30
0.0
 10
39.66839538070177
 20
5.469689332651938
 30
0.0
 10
39.66888905653802
 20
5.470273544607096
 30
0.0
 10
39.66913560211803
 20
5.470566636934137
 30
0.0
  0
SPLINE
  5
21A
330
2
100
AcDbEntity
  8
GAIKEI
  6
Continuous
 62
     1
100
AcDbSpline
210
0.0
220
0.0
230
1.0
 70
     8
 71
     3
 72
     9
 73
     5
 74
     0
 42
0.0000000001
 43
0.0000000001
 40
0.0
 40
0.0
 40
0.0
 40
0.0
 40
1.792521883094704
 40
3.744040671597478
 40
3.744040671597478
 40
3.744040671597478
 40
3.744040671597478
 10
39.58319810211803
 20
28.88276146115291
 30
0.0
 10
39.56025800959002
 20
28.90190015420797
 30
0.0
 10
39.51237400035596
 20
28.9419122966051
 30
0.0
 10
39.46461905372449
 20
28.98207865832723
 30
0.0
 10
39.43977769196179
 20
29.0030739611529
 30
0.0
  0
SPLINE
  5
21B
330
2
100
AcDbEntity
  8
GAIKEI
  6
Continuous
 62
     1
100
AcDbSpline
210
0.0
220
0.0
230
1.0
 70
     8
 71
     3
 72
     9
 73
     5
 74
     0
 42
0.0000000001
 43
0.0000000001
 40
0.0
 40
0.0
 40
0.0
 40
0.0
 40
3.987376170721855
 40
7.535215602233089
 40
7.535215602233089
 40
7.535215602233089
 40
7.535215602233089
 10
39.2260447818055
 20
28.6607888049029
 30
0.0
 10
39.28899218481614
 20
28.63948011626019
 30
0.0
 10
39.40801067886382
 20
28.59939619272058
 30
0.0
 10
39.52711210064648
 20
28.55955983253167
 30
0.0
 10
39.58319810211803
 20
28.54083030880915
 30
0.0
  0
SPLINE
  5
21C
330
2
100
AcDbEntity
  8
GAIKEI
  6
Continuous
 62
     1
100
AcDbSpline
210
0.0
220
0.0
230
1.0
 70
     8
 71
     3
 72
     9
 73
     5
 74
     0
 42
0.0000000001
 43
0.0000000001
 40
0.0
 40
0.0
 40
0.0
 40
0.0
 40
4.17016980879086
 40
7.165262777426782
 40
7.165262777426782
 40
7.165262777426782
 40
7.165262777426782
 10
39.58319810211803
 20
28.54083030880915
 30
0.0
 10
39.61338820594328
 20
28.60343383130908
 30
0.0
 10
39.6548415156593
 20
28.71826155190215
 30
0.0
 10
39.62021984142977
 20
28.84927685093681
 30
0.0
 10
39.58319810211803
 20
28.88276146115291
 30
0.0
  0
SPLINE
  5
21D
330
2
100
AcDbEntity
  8
GAIKEI
  6
Continuous
 62
     1
100
AcDbSpline
210
0.0
220
0.0
230
1.0
 70
     8
 71
     3
 72
     9
 73
     5
 74
     0
 42
0.0000000001
 43
0.0000000001
 40
0.0
 40
0.0
 40
0.0
 40
0.0
 40
2.818935250743886
 40
3.997483123280161
 40
3.997483123280161
 40
3.997483123280161
 40
3.997483123280161
 10
35.627211773993
 20
2.220896226777909
 30
0.0
 10
35.62904427168957
 20
2.173949723607393
 30
0.0
 10
35.61116748255489
 20
2.133427140906405
 30
0.0
 10
35.64387645422937
 20
2.01882516773162
 30
0.0
 10
35.62437974274303
 20
2.021213609590404
 30
0.0
  0
SPLINE
  5
21E
330
2
100
AcDbEntity
  8
GAIKEI
  6
Continuous
 62
     7
100
AcDbSpline
210
0.0
220
0.0
230
1.0
 70
     8
 71
     3
 72
     9
 73
     5
 74
     0
 42
0.0000000001
 43
0.0000000001
 40
0.0
 40
0.0
 40
0.0
 40
0.0
 40
9.447806060702889
 40
18.89585306637026
 40
18.89585306637026
 40
18.89585306637026
 40
18.89585306637026
 10
36.56424790680552
 20
1.924875718965409
 30
0.0
 10
36.40760712091282
 20
1.940950461596685
 30
0.0
 10
36.09431940389459
 20
1.973079403830354
 30
0.0
 10
35.78102810554737
 20
2.005173401675165
 30
0.0
 10
35.62437974274303
 20
2.021213609590404
 30
0.0
  0
SPLINE
  5
21F
330
2
100
AcDbEntity
  8
GAIKEI
  6
Continuous
 62
     1
100
AcDbSpline
210
0.0
220
0.0
230
1.0
 70
     8
 71
     3
 72
     9
 73
     5
 74
     0
 42
0.0000000001
 43
0.0000000001
 40
0.0
 40
0.0
 40
0.0
 40
0.0
 40
1.352591014573449
 40
4.202922881451692
 40
4.202922881451692
 40
4.202922881451692
 40
4.202922881451692
 10
36.56424790680552
 20
1.924875718965409
 30
0.0
 10
36.54183153337772
 20
1.927263464365466
 30
0.0
 10
36.53265429724644
 20
2.026252315133717
 30
0.0
 10
36.52605775349633
 20
2.081157391120626
 30
0.0
 10
36.52726060211802
 20
2.128647691621637
 30
0.0
  0
SPLINE
  5
220
330
2
100
AcDbEntity
  8
GAIKEI
  6
Continuous
 62
     1
100
AcDbSpline
210
0.0
220
0.0
230
1.0
 70
     8
 71
     3
 72
     9
 73
     5
 74
     0
 42
0.0000000001
 43
0.0000000001
 40
0.0
 40
0.0
 40
0.0
 40
0.0
 40
9.047666282881408
 40
18.09527770584456
 40
18.09527770584456
 40
18.09527770584456
 40
18.09527770584456
 10
35.627211773993
 20
2.220896226777909
 30
0.0
 10
35.77722214775173
 20
2.205538808016996
 30
0.0
 10
36.07724029147903
 20
2.174807512058947
 30
0.0
 10
36.37725478671399
 20
2.144040616609458
 30
0.0
 10
36.52726060211802
 20
2.128647691621637
 30
0.0
  0
SPLINE
  5
221
330
2
100
AcDbEntity
  8
GAIKEI
  6
Continuous
 62
     1
100
AcDbSpline
210
0.0
220
0.0
230
1.0
 70
     8
 71
     3
 72
     9
 73
     5
 74
     0
 42
0.0000000001
 43
0.0000000001
 40
0.0
 40
0.0
 40
0.0
 40
0.0
 40
29.34292073940687
 40
67.04452913133453
 40
67.04452913133453
 40
67.04452913133453
 40
67.04452913133453
 10
39.43977769196179
 20
5.335007554902887
 30
0.0
 10
39.06615537762865
 20
5.019452525384508
 30
0.0
 10
38.16306938671556
 20
4.303629372307568
 30
0.0
 10
37.29285470617794
 20
3.602630030032514
 30
0.0
 10
36.80721665680551
 20
3.203891832246654
 30
0.0
  0
SPLINE
  5
222
330
2
100
AcDbEntity
  8
GAIKEI
  6
Continuous
 62
     1
100
AcDbSpline
210
0.0
220
0.0
230
1.0
 70
     8
 71
     3
 72
     9
 73
     5
 74
     0
 42
0.0000000001
 43
0.0000000001
 40
0.0
 40
0.0
 40
0.0
 40
0.0
 40
2.494170284397164
 40
8.124565810743101
 40
8.124565810743101
 40
8.124565810743101
 40
8.124565810743101
 10
39.43977769196179
 20
5.335007554902887
 30
0.0
 10
39.46533825940593
 20
5.367789884232252
 30
0.0
 10
39.33505840149677
 20
5.509914658710044
 30
0.0
 10
39.28558040754364
 20
5.604756920853304
 30
0.0
 10
39.2260447818055
 20
5.677292711152887
 30
0.0
  0
SPLINE
  5
223
330
2
100
AcDbEntity
  8
GAIKEI
  6
Continuous
 62
     1
100
AcDbSpline
210
0.0
220
0.0
230
1.0
 70
     8
 71
     3
 72
     9
 73
     5
 74
     0
 42
0.0000000001
 43
0.0000000001
 40
0.0
 40
0.0
 40
0.0
 40
0.0
 40
5.63039552634596
 40
8.124565810743099
 40
8.124565810743099
 40
8.124565810743099
 40
8.124565810743099
 10
39.2260447818055
 20
28.6607888049029
 30
0.0
 10
39.28558039878515
 20
28.73332460239124
 30
0.0
 10
39.3350584048806
 20
28.82816685687931
 30
0.0
 10
39.46533825812667
 20
28.97029163082613
 30
0.0
 10
39.43977769196179
 20
29.0030739611529
 30
0.0
  0
SPLINE
  5
224
330
2
100
AcDbEntity
  8
GAIKEI
  6
Continuous
 62
     1
100
AcDbSpline
210
0.0
220
0.0
230
1.0
 70
     8
 71
     3
 72
     9
 73
     5
 74
     0
 42
0.0000000001
 43
0.0000000001
 40
0.0
 40
0.0
 40
0.0
 40
0.0
 40
29.34292073940687
 40
67.04452913133453
 40
67.04452913133453
 40
67.04452913133453
 40
67.04452913133453
 10
39.43977769196179
 20
29.0030739611529
 30
0.0
 10
39.06615537762865
 20
29.3186289906713
 30
0.0
 10
38.16306938671556
 20
30.03445214374824
 30
0.0
 10
37.29285470617794
 20
30.7354514860233
 30
0.0
 10
36.80721665680551
 20
31.13418968380916
 30
0.0
  0
SPLINE
  5
225
330
2
100
AcDbEntity
  8
GAIKEI
  6
Continuous
 62
     1
100
AcDbSpline
210
0.0
220
0.0
230
1.0
 70
     8
 71
     3
 72
     9
 73
     5
 74
     0
 42
0.0000000001
 43
0.0000000001
 40
0.0
 40
0.0
 40
0.0
 40
0.0
 40
0.0630653362967699
 40
0.1107830382782422
 40
0.1107830382782422
 40
0.1107830382782422
 40
0.1107830382782422
 10
35.56632310211802
 20
2.056223375215409
 30
0.0
 10
35.56576655009076
 20
2.057115024135725
 30
0.0
 10
35.5649276480645
 20
2.058879474299317
 30
0.0
 10
35.56534837492029
 20
2.060808534425689
 30
0.0
 10
35.56572495758678
 20
2.061509019746637
 30
0.0
  0
SPLINE
  5
226
330
2
100
AcDbEntity
  8
GAIKEI
  6
Continuous
 62
     7
100
AcDbSpline
210
0.0
220
0.0
230
1.0
 70
     8
 71
     3
 72
     9
 73
     5
 74
     0
 42
0.0000000001
 43
0.0000000001
 40
0.0
 40
0.0
 40
0.0
 40
0.0
 40
0.1612915832934984
 40
0.6747193144073277
 40
0.6747193144073277
 40
0.6747193144073277
 40
0.6747193144073277
 10
35.62370835602428
 20
2.021286851777887
 30
0.0
 10
35.62638865144044
 20
2.021492760453241
 30
0.0
 10
35.60150299969784
 20
2.022392702794462
 30
0.0
 10
35.59755899477767
 20
2.026841261941115
 30
0.0
 10
35.59155433603276
 20
2.031611564399611
 30
0.0
  0
SPLINE
  5
227
330
2
100
AcDbEntity
  8
GAIKEI
  6
Continuous
 62
     1
100
AcDbSpline
210
0.0
220
0.0
230
1.0
 70
     8
 71
     3
 72
     8
 73
     4
 74
     0
 42
0.0000000001
 43
0.0000000001
 40
0.0
 40
0.0
 40
0.0
 40
0.0
 40
0.061281874727719
 40
0.061281874727719
 40
0.061281874727719
 40
0.061281874727719
 10
35.56632310211802
 20
2.056223375215409
 30
0.0
 10
35.56686601304067
 20
2.055358254800154
 30
0.0
 10
35.56742739338259
 20
2.054503874374859
 30
0.0
 10
35.56800659297076
 20
2.053660955618909
 30
0.0
  0
SPLINE
  5
228
330
2
100
AcDbEntity
  8
GAIKEI
  6
Continuous
 62
     1
100
AcDbSpline
210
0.0
220
0.0
230
1.0
 70
     8
 71
     3
 72
     9
 73
     5
 74
     0
 42
0.0000000001
 43
0.0000000001
 40
0.0
 40
0.0
 40
0.0
 40
0.0
 40
6.43807284597418
 40
12.7500239811514
 40
12.7500239811514
 40
12.7500239811514
 40
12.7500239811514
 10
39.58319810211803
 20
5.455320054902898
 30
0.0
 10
39.66508515110563
 20
5.524660243504769
 30
0.0
 10
39.7987974250991
 20
5.699665122330515
 30
0.0
 10
39.84580505965953
 20
5.914610615450499
 30
0.0
 10
39.84580796539926
 20
6.019809800996654
 30
0.0
  0
SPLINE
  5
229
330
2
100
AcDbEntity
  8
GAIKEI
  6
Continuous
 62
     1
100
AcDbSpline
210
0.0
220
0.0
230
1.0
 70
     8
 71
     3
 72
     9
 73
     5
 74
     0
 42
0.0000000001
 43
0.0000000001
 40
0.0
 40
0.0
 40
0.0
 40
0.0
 40
2.782212282690354
 40
7.172745559843074
 40
7.172745559843074
 40
7.172745559843074
 40
7.172745559843074
 10
39.84580796539926
 20
6.019809800996654
 30
0.0
 10
39.84580471684039
 20
5.973439596398918
 30
0.0
 10
39.76441439554189
 20
5.863676513902618
 30
0.0
 10
39.65260734217013
 20
5.820424881733401
 30
0.0
 10
39.58319810211803
 20
5.797251207246659
 30
0.0
  0
SPLINE
  5
22A
330
2
100
AcDbEntity
  8
GAIKEI
  6
Continuous
 62
     1
100
AcDbSpline
210
0.0
220
0.0
230
1.0
 70
     8
 71
     3
 72
     9
 73
     5
 74
     0
 42
0.0000000001
 43
0.0000000001
 40
0.0
 40
0.0
 40
0.0
 40
0.0
 40
4.17016980879086
 40
7.165262777426782
 40
7.165262777426782
 40
7.165262777426782
 40
7.165262777426782
 10
39.58319810211803
 20
5.797251207246659
 30
0.0
 10
39.61338820594323
 20
5.734647684746732
 30
0.0
 10
39.6548415156593
 20
5.619819964153663
 30
0.0
 10
39.62021984142977
 20
5.488804665119005
 30
0.0
 10
39.58319810211803
 20
5.455320054902898
 30
0.0
  0
SPLINE
  5
22B
330
2
100
AcDbEntity
  8
GAIKEI
  6
Continuous
 62
     7
100
AcDbSpline
210
0.0
220
0.0
230
1.0
 70
     8
 71
     3
 72
     9
 73
     5
 74
     0
 42
0.0000000001
 43
0.0000000001
 40
0.0
 40
0.0
 40
0.0
 40
0.0
 40
7.879519824357736
 40
15.75691444968368
 40
15.75691444968368
 40
15.75691444968368
 40
15.75691444968368
 10
36.57010728180552
 20
32.41353538693414
 30
0.0
 10
36.70143080118902
 20
32.41422507016978
 30
0.0
 10
36.96404462654476
 20
32.41518443686596
 30
0.0
 10
37.22665938193524
 20
32.41569109552327
 30
0.0
 10
37.35794907868052
 20
32.41592796505916
 30
0.0
  0
SPLINE
  5
22C
330
2
100
AcDbEntity
  8
GAIKEI
  6
Continuous
 62
     1
100
AcDbSpline
210
0.0
220
0.0
230
1.0
 70
     8
 71
     3
 72
     9
 73
     5
 74
     0
 42
0.0000000001
 43
0.0000000001
 40
0.0
 40
0.0
 40
0.0
 40
0.0
 40
3.93176733514001
 40
7.782283969252391
 40
7.782283969252391
 40
7.782283969252391
 40
7.782283969252391
 10
36.80721665680551
 20
3.203891832246654
 30
0.0
 10
36.75549890328551
 20
3.163650267662291
 30
0.0
 10
36.6678959579703
 20
3.062221309326787
 30
0.0
 10
36.63322093089852
 20
2.931165192649984
 30
0.0
 10
36.63313218414925
 20
2.866989976777887
 30
0.0
  0
SPLINE
  5
22D
330
2
100
AcDbEntity
  8
GAIKEI
  6
Continuous
 62
     1
100
AcDbSpline
210
0.0
220
0.0
230
1.0
 70
     8
 71
     3
 72
     9
 73
     5
 74
     0
 42
0.0000000001
 43
0.0000000001
 40
0.0
 40
0.0
 40
0.0
 40
0.0
 40
1.543532984562203
 40
4.429900431712788
 40
4.429900431712788
 40
4.429900431712788
 40
4.429900431712788
 10
36.80721665680551
 20
3.203891832246654
 30
0.0
 10
36.80676316855358
 20
3.229613384648672
 30
0.0
 10
36.75829082747254
 20
3.29358846700029
 30
0.0
 10
36.71950351870072
 20
3.352908881208207
 30
0.0
 10
36.68945542633679
 20
3.390476304902904
 30
0.0
  0
SPLINE
  5
22E
330
2
100
AcDbEntity
  8
GAIKEI
  6
Continuous
 62
     1
100
AcDbSpline
210
0.0
220
0.0
230
1.0
 70
     8
 71
     3
 72
     9
 73
     5
 74
     0
 42
0.0000000001
 43
0.0000000001
 40
0.0
 40
0.0
 40
0.0
 40
0.0
 40
0.0585767832139097
 40
0.1171635704843951
 40
0.1171635704843951
 40
0.1171635704843951
 40
0.1171635704843951
 10
36.56424790680552
 20
32.4132057970904
 30
0.0
 10
36.56521892732826
 20
32.41330699608506
 30
0.0
 10
36.56716601739339
 20
32.41346530227412
 30
0.0
 10
36.56911864971329
 20
32.41352892328303
 30
0.0
 10
36.57009507477426
 20
32.41353538693414
 30
0.0
  0
SPLINE
  5
22F
330
2
100
AcDbEntity
  8
GAIKEI
  6
Continuous
 62
     7
100
AcDbSpline
210
0.0
220
0.0
230
1.0
 70
     8
 71
     3
 72
     9
 73
     5
 74
     0
 42
0.0000000001
 43
0.0000000001
 40
0.0
 40
0.0
 40
0.0
 40
0.0
 40
2.99120786738096
 40
4.049813702930606
 40
4.049813702930606
 40
4.049813702930606
 40
4.049813702930606
 10
37.35794907868052
 20
32.41592796505916
 30
0.0
 10
37.40780241455553
 20
32.41604119241021
 30
0.0
 10
37.47529828324497
 20
32.41634274573133
 30
0.0
 10
37.54279655004586
 20
32.41620173002599
 30
0.0
 10
37.5604393130555
 20
32.4163552111529
 30
0.0
  0
SPLINE
  5
230
330
2
100
AcDbEntity
  8
GAIKEI
  6
Continuous
 62
     1
100
AcDbSpline
210
0.0
220
0.0
230
1.0
 70
     8
 71
     3
 72
     9
 73
     5
 74
     0
 42
0.0000000001
 43
0.0000000001
 40
0.0
 40
0.0
 40
0.0
 40
0.0
 40
0.0630653362967699
 40
0.1107830382782422
 40
0.1107830382782422
 40
0.1107830382782422
 40
0.1107830382782422
 10
35.56632310211802
 20
32.2818581408404
 30
0.0
 10
35.56576655009076
 20
32.28096649192008
 30
0.0
 10
35.5649276480645
 20
32.27920204175649
 30
0.0
 10
35.56534837492029
 20
32.27727298163009
 30
0.0
 10
35.56572495758678
 20
32.27657249630914
 30
0.0
  0
SPLINE
  5
231
330
2
100
AcDbEntity
  8
GAIKEI
  6
Continuous
 62
     7
100
AcDbSpline
210
0.0
220
0.0
230
1.0
 70
     8
 71
     3
 72
     9
 73
     5
 74
     0
 42
0.0000000001
 43
0.0000000001
 40
0.0
 40
0.0
 40
0.0
 40
0.0
 40
0.4187476210184239
 40
0.528520138968716
 40
0.528520138968716
 40
0.528520138968716
 40
0.528520138968716
 10
35.59823228180551
 20
32.31000755490291
 30
0.0
 10
35.6045601510819
 20
32.31295141025601
 30
0.0
 10
35.61314402895704
 20
32.31557121502209
 30
0.0
 10
35.62189010513987
 20
32.31659171717613
 30
0.0
 10
35.62370835602428
 20
32.31679466427789
 30
0.0
  0
SPLINE
  5
232
330
2
100
AcDbEntity
  8
GAIKEI
  6
Continuous
 62
     7
100
AcDbSpline
210
0.0
220
0.0
230
1.0
 70
     8
 71
     3
 72
     9
 73
     5
 74
     0
 42
0.0000000001
 43
0.0000000001
 40
0.0
 40
0.0
 40
0.0
 40
0.0
 40
0.4299777710818521
 40
0.859796123927575
 40
0.859796123927575
 40
0.859796123927575
 40
0.859796123927575
 10
35.59823228180551
 20
32.31000755490291
 30
0.0
 10
35.59173818931657
 20
32.30697728036878
 30
0.0
 10
35.57956558790483
 20
32.29900684984378
 30
0.0
 10
35.570130966671
 20
32.28792591591335
 30
0.0
 10
35.56632310211802
 20
32.2818581408404
 30
0.0
  0
SPLINE
  5
233
330
2
100
AcDbEntity
  8
GAIKEI
  6
Continuous
 62
     1
100
AcDbSpline
210
0.0
220
0.0
230
1.0
 70
     8
 71
     3
 72
     9
 73
     5
 74
     0
 42
0.0000000001
 43
0.0000000001
 40
0.0
 40
0.0
 40
0.0
 40
0.0
 40
2.886367447150639
 40
4.429900431712785
 40
4.429900431712785
 40
4.429900431712785
 40
4.429900431712785
 10
36.68945542633679
 20
30.9476052111529
 30
0.0
 10
36.7195035143564
 20
30.98517263832241
 30
0.0
 10
36.75829082864863
 20
31.04449304812616
 30
0.0
 10
36.80676316853805
 20
31.10846813140739
 30
0.0
 10
36.80721665680551
 20
31.13418968380916
 30
0.0
  0
SPLINE
  5
234
330
2
100
AcDbEntity
  8
GAIKEI
  6
Continuous
 62
     1
100
AcDbSpline
210
0.0
220
0.0
230
1.0
 70
     8
 71
     3
 72
     9
 73
     5
 74
     0
 42
0.0000000001
 43
0.0000000001
 40
0.0
 40
0.0
 40
0.0
 40
0.0
 40
3.898481744472792
 40
7.783533196598478
 40
7.783533196598478
 40
7.783533196598478
 40
7.783533196598478
 10
36.63313218414925
 20
31.4710915392779
 30
0.0
 10
36.63322054538617
 20
31.40611690361939
 30
0.0
 10
36.66808146075732
 20
31.2748829228529
 30
0.0
 10
36.75611322046194
 20
31.17395288721946
 30
0.0
 10
36.80721665680551
 20
31.13418968380916
 30
0.0
  0
SPLINE
  5
235
330
2
100
AcDbEntity
  8
GAIKEI
  6
Continuous
 62
     1
100
AcDbSpline
210
0.0
220
0.0
230
1.0
 70
     8
 71
     3
 72
    11
 73
     7
 74
     0
 42
0.0000000001
 43
0.0000000001
 40
0.0
 40
0.0
 40
0.0
 40
0.0
 40
21.11177090699495
 40
35.93059360623679
 40
50.75147599363899
 40
67.64874133143734
 40
67.64874133143734
 40
67.64874133143734
 40
67.64874133143734
 10
36.68945542633679
 20
3.390476304902904
 30
0.0
 10
36.96090687562634
 20
3.614354787115672
 30
0.0
 10
37.40669057886993
 20
4.014957197561642
 30
0.0
 10
38.01678438559361
 20
4.600771761807237
 30
0.0
 10
38.62015948784868
 20
5.139054460858744
 30
0.0
 10
39.01107572533986
 20
5.495362113091033
 30
0.0
 10
39.2260447818055
 20
5.677292711152887
 30
0.0
  0
SPLINE
  5
236
330
2
100
AcDbEntity
  8
GAIKEI
  6
Continuous
 62
     1
100
AcDbSpline
210
0.0
220
0.0
230
1.0
 70
     8
 71
     3
 72
     9
 73
     5
 74
     0
 42
0.0000000001
 43
0.0000000001
 40
0.0
 40
0.0
 40
0.0
 40
0.0
 40
1.378821496562305
 40
2.75572185078914
 40
2.75572185078914
 40
2.75572185078914
 40
2.75572185078914
 10
36.59192124664929
 20
3.293369371309154
 30
0.0
 10
36.6065956491853
 20
3.31105435863472
 30
0.0
 10
36.63763528873289
 20
3.34501434305227
 30
0.0
 10
36.67175120920416
 20
3.375875381320355
 30
0.0
 10
36.68945542633679
 20
3.390476304902904
 30
0.0
  0
SPLINE
  5
237
330
2
100
AcDbEntity
  8
GAIKEI
  6
Continuous
 62
     1
100
AcDbSpline
210
0.0
220
0.0
230
1.0
 70
     8
 71
     3
 72
     9
 73
     5
 74
     0
 42
0.0000000001
 43
0.0000000001
 40
0.0
 40
0.0
 40
0.0
 40
0.0
 40
1.376900354226834
 40
2.75572185078914
 40
2.75572185078914
 40
2.75572185078914
 40
2.75572185078914
 10
36.68945542633679
 20
30.9476052111529
 30
0.0
 10
36.67175120920416
 20
30.96220613473545
 30
0.0
 10
36.63763528873289
 20
30.99306717300354
 30
0.0
 10
36.6065956491853
 20
31.02702715742106
 30
0.0
 10
36.59192124664929
 20
31.04471214474666
 30
0.0
  0
SPLINE
  5
238
330
2
100
AcDbEntity
  8
GAIKEI
  6
Continuous
 62
     1
100
AcDbSpline
210
0.0
220
0.0
230
1.0
 70
     8
 71
     3
 72
    11
 73
     7
 74
     0
 42
0.0000000001
 43
0.0000000001
 40
0.0
 40
0.0
 40
0.0
 40
0.0
 40
16.8972653377969
 40
31.71814772520167
 40
46.53697042444449
 40
67.64874133143734
 40
67.64874133143734
 40
67.64874133143734
 40
67.64874133143734
 10
39.2260447818055
 20
28.6607888049029
 30
0.0
 10
39.01107573812025
 20
28.84271941806602
 30
0.0
 10
38.62015948268662
 20
29.19902704909777
 30
0.0
 10
38.0167843868656
 20
29.7373097557508
 30
0.0
 10
37.40669057844576
 20
30.3231243179967
 30
0.0
 10
36.96090687525839
 20
30.72372672849406
 30
0.0
 10
36.68945542633679
 20
30.9476052111529
 30
0.0
  0
SPLINE
  5
239
330
2
100
AcDbEntity
  8
GAIKEI
  6
Continuous
 62
     7
100
AcDbSpline
210
0.0
220
0.0
230
1.0
 70
     8
 71
     3
 72
     9
 73
     5
 74
     0
 42
0.0000000001
 43
0.0000000001
 40
0.0
 40
0.0
 40
0.0
 40
0.0
 40
3.119718728268515
 40
6.254078859498765
 40
6.254078859498765
 40
6.254078859498765
 40
6.254078859498765
 10
37.71581040680553
 20
31.1435280627154
 30
0.0
 10
37.68239701837848
 20
31.18336595872075
 30
0.0
 10
37.6292407033236
 20
31.27577822943633
 30
0.0
 10
37.61055578107727
 20
31.38075405964367
 30
0.0
 10
37.61054917633675
 20
31.43299339474666
 30
0.0
  0
SPLINE
  5
23A
330
2
100
AcDbEntity
  8
GAIKEI
  6
Continuous
 62
     1
100
AcDbSpline
210
0.0
220
0.0
230
1.0
 70
     8
 71
     3
 72
     9
 73
     5
 74
     0
 42
0.0000000001
 43
0.0000000001
 40
0.0
 40
0.0
 40
0.0
 40
0.0
 40
0.0472622990153337
 40
0.0944837606475338
 40
0.0944837606475338
 40
0.0944837606475338
 40
0.0944837606475338
 10
37.61057359039927
 20
31.42826927365289
 30
0.0
 10
37.61056955317366
 20
31.42905696829041
 30
0.0
 10
37.61056540431054
 20
31.43063169024876
 30
0.0
 10
37.61055722926909
 20
31.43220641158649
 30
0.0
 10
37.61054917633675
 20
31.43299339474666
 30
0.0
  0
SPLINE
  5
23B
330
2
100
AcDbEntity
  8
GAIKEI
  6
Continuous
 62
     1
100
AcDbSpline
210
0.0
220
0.0
230
1.0
 70
     8
 71
     3
 72
     9
 73
     5
 74
     0
 42
0.0000000001
 43
0.0000000001
 40
0.0
 40
0.0
 40
0.0
 40
0.0
 40
3.113684413323323
 40
6.209714394575536
 40
6.209714394575536
 40
6.209714394575536
 40
6.209714394575536
 10
37.61075669586802
 20
31.43062523068414
 30
0.0
 10
37.61079319812007
 20
31.37873050329975
 30
0.0
 10
37.62979176637572
 20
31.27458054293879
 30
0.0
 10
37.68258738774989
 20
31.18284052584125
 30
0.0
 10
37.71589585602425
 20
31.1434304064654
 30
0.0
  0
SPLINE
  5
23C
330
2
100
AcDbEntity
  8
GAIKEI
  6
Continuous
 62
     1
100
AcDbSpline
210
0.0
220
0.0
230
1.0
 70
     8
 71
     3
 72
     9
 73
     5
 74
     0
 42
0.0000000001
 43
0.0000000001
 40
0.0
 40
0.0
 40
0.0
 40
0.0
 40
0.0013112755639157
 40
0.0025957625437106
 40
0.0025957625437106
 40
0.0025957625437106
 40
0.0025957625437106
 10
37.71581040680553
 20
31.1435280627154
 30
0.0
 10
37.71582515935069
 20
31.14351193864533
 30
0.0
 10
37.71585456220402
 20
31.14348020924942
 30
0.0
 10
37.71588269879493
 20
31.14344729417573
 30
0.0
 10
37.71589585602425
 20
31.1434304064654
 30
0.0
  0
SPLINE
  5
23D
330
2
100
AcDbEntity
  8
GAIKEI
  6
Continuous
 62
     1
100
AcDbSpline
210
0.0
220
0.0
230
1.0
 70
     8
 71
     3
 72
     9
 73
     5
 74
     0
 42
0.0000000001
 43
0.0000000001
 40
0.0
 40
0.0
 40
0.0
 40
0.0
 40
9.047611422963157
 40
18.09527770584456
 40
18.09527770584456
 40
18.09527770584456
 40
18.09527770584456
 10
36.52726060211802
 20
32.20943382443414
 30
0.0
 10
36.37725478671399
 20
32.19404089944635
 30
0.0
 10
36.07724029147909
 20
32.16327400399686
 30
0.0
 10
35.77722214775173
 20
32.13254270803882
 30
0.0
 10
35.627211773993
 20
32.1171852892779
 30
0.0
  0
SPLINE
  5
23E
330
2
100
AcDbEntity
  8
GAIKEI
  6
Continuous
 62
     7
100
AcDbSpline
210
0.0
220
0.0
230
1.0
 70
     8
 71
     3
 72
     9
 73
     5
 74
     0
 42
0.0000000001
 43
0.0000000001
 40
0.0
 40
0.0
 40
0.0
 40
0.0
 40
9.448025939701254
 40
18.89585306634318
 40
18.89585306634318
 40
18.89585306634318
 40
18.89585306634318
 10
35.62437974274303
 20
32.3168679064654
 30
0.0
 10
35.78102775502328
 20
32.332908090833
 30
0.0
 10
36.0943190529743
 20
32.36500209252844
 30
0.0
 10
36.40760677124973
 20
32.39713102249911
 30
0.0
 10
36.56424790680552
 20
32.4132057970904
 30
0.0
  0
SPLINE
  5
23F
330
2
100
AcDbEntity
  8
GAIKEI
  6
Continuous
 62
     1
100
AcDbSpline
210
0.0
220
0.0
230
1.0
 70
     8
 71
     3
 72
     9
 73
     5
 74
     0
 42
0.0000000001
 43
0.0000000001
 40
0.0
 40
0.0
 40
0.0
 40
0.0
 40
2.850331866878242
 40
4.202922881451692
 40
4.202922881451692
 40
4.202922881451692
 40
4.202922881451692
 10
36.52726060211802
 20
32.20943382443414
 30
0.0
 10
36.52605775349633
 20
32.25692412493515
 30
0.0
 10
36.53265429724644
 20
32.31182920092206
 30
0.0
 10
36.54183153337772
 20
32.41081805169034
 30
0.0
 10
36.56424790680552
 20
32.4132057970904
 30
0.0
  0
SPLINE
  5
240
330
2
100
AcDbEntity
  8
GAIKEI
  6
Continuous
 62
     1
100
AcDbSpline
210
0.0
220
0.0
230
1.0
 70
     8
 71
     3
 72
     9
 73
     5
 74
     0
 42
0.0000000001
 43
0.0000000001
 40
0.0
 40
0.0
 40
0.0
 40
0.0
 40
7.877008050743703
 40
15.75398360242709
 40
15.75398360242709
 40
15.75398360242709
 40
15.75398360242709
 10
36.618666852118
 20
1.974546129121648
 30
0.0
 10
36.74994842949849
 20
1.973841655864418
 30
0.0
 10
37.01251370908136
 20
1.972945087418423
 30
0.0
 10
37.27507958091701
 20
1.972453283411795
 30
0.0
 10
37.40636216461803
 20
1.972153550996637
 30
0.0
  0
SPLINE
  5
241
330
2
100
AcDbEntity
  8
GAIKEI
  6
Continuous
 62
     1
100
AcDbSpline
210
0.0
220
0.0
230
1.0
 70
     8
 71
     3
 72
     9
 73
     5
 74
     0
 42
0.0000000001
 43
0.0000000001
 40
0.0
 40
0.0
 40
0.0
 40
0.0
 40
2.186623579389678
 40
3.258106206857499
 40
3.258106206857499
 40
3.258106206857499
 40
3.258106206857499
 10
36.57817612946178
 20
2.128647691621637
 30
0.0
 10
36.57818375901633
 20
2.092203966097116
 30
0.0
 10
36.58253121066139
 20
2.04855419392453
 30
0.0
 10
36.60080915000401
 20
1.97465659745427
 30
0.0
 10
36.618666852118
 20
1.974546129121648
 30
0.0
  0
SPLINE
  5
242
330
2
100
AcDbEntity
  8
GAIKEI
  6
Continuous
 62
     1
100
AcDbSpline
210
0.0
220
0.0
230
1.0
 70
     8
 71
     3
 72
     9
 73
     5
 74
     0
 42
0.0000000001
 43
0.0000000001
 40
0.0
 40
0.0
 40
0.0
 40
0.0
 40
7.738844388429551
 40
15.47666418760658
 40
15.47666418760658
 40
15.47666418760658
 40
15.47666418760658
 10
37.40636216461803
 20
31.4405739611529
 30
0.0
 10
37.27750113428561
 20
31.44612968818689
 30
0.0
 10
37.01977495318323
 20
31.45675388442925
 30
0.0
 10
36.76201255548017
 20
31.46645728179465
 30
0.0
 10
36.63313218414925
 20
31.4710915392779
 30
0.0
  0
SPLINE
  5
243
330
2
100
AcDbEntity
  8
GAIKEI
  6
Continuous
 62
     1
100
AcDbSpline
210
0.0
220
0.0
230
1.0
 70
     8
 71
     3
 72
     9
 73
     5
 74
     0
 42
0.0000000001
 43
0.0000000001
 40
0.0
 40
0.0
 40
0.0
 40
0.0
 40
4.514946798520432
 40
8.576802305757603
 40
8.576802305757603
 40
8.576802305757603
 40
8.576802305757603
 10
36.59192124664929
 20
31.04471214474666
 30
0.0
 10
36.59192084486415
 20
31.11996125805425
 30
0.0
 10
36.59956479257215
 20
31.26298924304652
 30
0.0
 10
36.62032145143348
 20
31.40461711516545
 30
0.0
 10
36.63313218414925
 20
31.4710915392779
 30
0.0
  0
SPLINE
  5
244
330
2
100
AcDbEntity
  8
GAIKEI
  6
Continuous
 62
     1
100
AcDbSpline
210
0.0
220
0.0
230
1.0
 70
     8
 71
     3
 72
     9
 73
     5
 74
     0
 42
0.0000000001
 43
0.0000000001
 40
0.0
 40
0.0
 40
0.0
 40
0.0
 40
4.061855507233468
 40
8.576802305755219
 40
8.576802305755219
 40
8.576802305755219
 40
8.576802305755219
 10
36.63313218414925
 20
2.866989976777887
 30
0.0
 10
36.62032145143348
 20
2.933464400890301
 30
0.0
 10
36.59956479257392
 20
3.075092273009488
 30
0.0
 10
36.5919208448658
 20
3.218120258001533
 30
0.0
 10
36.59192124664929
 20
3.293369371309154
 30
0.0
  0
SPLINE
  5
245
330
2
100
AcDbEntity
  8
GAIKEI
  6
Continuous
 62
     1
100
AcDbSpline
210
0.0
220
0.0
230
1.0
 70
     8
 71
     3
 72
     9
 73
     5
 74
     0
 42
0.0000000001
 43
0.0000000001
 40
0.0
 40
0.0
 40
0.0
 40
0.0
 40
7.737819799177021
 40
15.47666418760659
 40
15.47666418760659
 40
15.47666418760659
 40
15.47666418760659
 10
36.63313218414925
 20
2.866989976777887
 30
0.0
 10
36.76201255548017
 20
2.871624234261133
 30
0.0
 10
37.01977495318323
 20
2.881327631626533
 30
0.0
 10
37.27750113428561
 20
2.891951827868894
 30
0.0
 10
37.40636216461803
 20
2.897507554902887
 30
0.0
  0
SPLINE
  5
246
330
2
100
AcDbEntity
  8
GAIKEI
  6
Continuous
 62
     1
100
AcDbSpline
210
0.0
220
0.0
230
1.0
 70
     8
 71
     3
 72
     9
 73
     5
 74
     0
 42
0.0000000001
 43
0.0000000001
 40
0.0
 40
0.0
 40
0.0
 40
0.0
 40
6.443110040329923
 40
12.74858893812795
 40
12.74858893812795
 40
12.74858893812795
 40
12.74858893812795
 10
39.58319810211803
 20
28.88276146115291
 30
0.0
 10
39.66514922141822
 20
28.81336702182358
 30
0.0
 10
39.79854691025166
 20
28.63817585880401
 30
0.0
 10
39.8458065166012
 20
28.42336303001247
 30
0.0
 10
39.84580796539926
 20
28.31827171505916
 30
0.0
  0
SPLINE
  5
247
330
2
100
AcDbEntity
  8
GAIKEI
  6
Continuous
 62
     7
100
AcDbSpline
210
0.0
220
0.0
230
1.0
 70
     8
 71
     3
 72
     9
 73
     5
 74
     0
 42
0.0000000001
 43
0.0000000001
 40
0.0
 40
0.0
 40
0.0
 40
0.0
 40
5.25353786755892
 40
10.54612990103628
 40
10.54612990103628
 40
10.54612990103628
 40
10.54612990103628
 10
39.84580796539926
 20
28.3814919299029
 30
0.0
 10
39.84580651018699
 20
28.46905089435012
 30
0.0
 10
39.81453853197154
 20
28.64608227002219
 30
0.0
 10
39.72458676478765
 20
28.80189009650255
 30
0.0
 10
39.66764634430551
 20
28.8692604845904
 30
0.0
  0
SPLINE
  5
248
330
2
100
AcDbEntity
  8
GAIKEI
  6
Continuous
 62
     1
100
AcDbSpline
210
0.0
220
0.0
230
1.0
 70
     8
 71
     3
 72
     9
 73
     5
 74
     0
 42
0.0000000001
 43
0.0000000001
 40
0.0
 40
0.0
 40
0.0
 40
0.0
 40
0.386242752262342
 40
1.713086398231402
 40
1.713086398231402
 40
1.713086398231402
 40
1.713086398231402
 10
39.66764634430551
 20
28.8692604845904
 30
0.0
 10
39.6615334046492
 20
28.87127835965569
 30
0.0
 10
39.63381691135537
 20
28.87829941627371
 30
0.0
 10
39.60529125113838
 20
28.88179997795808
 30
0.0
 10
39.58319810211803
 20
28.88276146115291
 30
0.0
  0
SPLINE
  5
249
330
2
100
AcDbEntity
  8
GAIKEI
  6
Continuous
 62
     7
100
AcDbSpline
210
0.0
220
0.0
230
1.0
 70
     8
 71
     3
 72
     9
 73
     5
 74
     0
 42
0.0000000001
 43
0.0000000001
 40
0.0
 40
0.0
 40
0.0
 40
0.0
 40
0.2792766492123575
 40
0.5584929407952583
 40
0.5584929407952583
 40
0.5584929407952583
 40
0.5584929407952583
 10
35.4184593325868
 20
2.291855699434137
 30
0.0
 10
35.41598575393056
 20
2.295798643831318
 30
0.0
 10
35.41214791597094
 20
2.304427832608837
 30
0.0
 10
35.41080662364135
 20
2.313776801735599
 30
0.0
 10
35.41080552399302
 20
2.318430406465409
 30
0.0
  0
LINE
  5
24A
330
2
100
AcDbEntity
  8
GAIKEI
  6
Continuous
 62
     1
100
AcDbLine
 10
8.76683894226781
 20
17.16903465451224
 30
0.0
 11
8.76683894226781
 21
32.11290890451221
 31
0.0
  0
LINE
  5
24B
330
2
100
AcDbEntity
  8
GAIKEI
  6
Continuous
 62
     1
100
AcDbLine
 10
8.76683894226781
 20
17.16903465451224
 30
0.0
 11
8.76683894226781
 21
2.225160404512223
 31
0.0
  0
ARC
  5
24C
330
2
100
AcDbEntity
  8
GAIKEI
  6
Continuous
100
AcDbCircle
 10
8.672964692267868
 20
2.119034654512233
 30
0.0
 40
0.2
100
AcDbArc
 50
270.0
 51
0.000000000000007
  0
ARC
  5
24D
330
2
100
AcDbEntity
  8
GAIKEI
  6
Continuous
 62
     1
100
AcDbCircle
 10
8.287964692267877
 20
2.504034654512224
 30
0.0
 40
0.2
100
AcDbArc
 50
270.0
 51
0.000000000000007
  0
ARC
  5
24E
330
2
100
AcDbEntity
  8
GAIKEI
  6
Continuous
100
AcDbCircle
 10
8.672964692267868
 20
2.119034654512233
 30
0.0
 40
0.2
100
AcDbArc
 50
270.0
 51
0.000000000000007
  0
ARC
  5
24F
330
2
100
AcDbEntity
  8
GAIKEI
  6
Continuous
 62
     1
100
AcDbCircle
 10
8.566838942267878
 20
2.225160404512223
 30
0.0
 40
0.2
100
AcDbArc
 50
270.0
 51
0.000000000000007
  0
LINE
  5
250
330
2
100
AcDbEntity
  8
GAIKEI
  6
Continuous
 62
     1
100
AcDbLine
 10
8.766838942267867
 20
32.11290890451227
 30
0.0
 11
8.766838942267867
 21
2.225160404512223
 31
0.0
  0
LINE
  5
251
330
2
100
AcDbEntity
  8
GAIKEI
  6
Continuous
100
AcDbLine
 10
8.872964692267913
 20
32.2190346545122
 30
0.0
 11
8.872964692267913
 21
2.119034654512233
 31
0.0
  0
LINE
  5
252
330
2
100
AcDbEntity
  8
GAIKEI
  6
Continuous
 62
     1
100
AcDbLine
 10
8.487964692267922
 20
31.83403465451221
 30
0.0
 11
8.487964692267922
 21
2.504034654512224
 31
0.0
  0
ARC
  5
253
330
2
100
AcDbEntity
  8
GAIKEI
  6
Continuous
100
AcDbCircle
 10
8.672964692267868
 20
32.2190346545122
 30
0.0
 40
0.2
100
AcDbArc
 50
0.000000000000007
 51
90.0
  0
ARC
  5
254
330
2
100
AcDbEntity
  8
GAIKEI
  6
Continuous
100
AcDbCircle
 10
8.672964692267868
 20
32.2190346545122
 30
0.0
 40
0.2
100
AcDbArc
 50
0.000000000000007
 51
90.0
  0
ARC
  5
255
330
2
100
AcDbEntity
  8
GAIKEI
  6
Continuous
 62
     1
100
AcDbCircle
 10
8.287964692267877
 20
31.83403465451221
 30
0.0
 40
0.2
100
AcDbArc
 50
0.000000000000007
 51
90.0
  0
ARC
  5
256
330
2
100
AcDbEntity
  8
GAIKEI
  6
Continuous
 62
     1
100
AcDbCircle
 10
8.566838942267878
 20
32.11290890451227
 30
0.0
 40
0.2
100
AcDbArc
 50
0.000000000000007
 51
90.0
  0
LINE
  5
257
330
2
100
AcDbEntity
  8
GAIKEI
100
AcDbLine
 10
9.278541281924702
 20
2.117841838150354
 30
0.0
 11
9.278613788466287
 21
2.190367548134474
 31
0.0
  0
ARC
  5
258
330
2
100
AcDbEntity
  8
GAIKEI
 62
     1
100
AcDbCircle
 10
9.869344705816757
 20
2.50891628215794
 30
0.0
 40
0.2216847782785941
100
AcDbArc
 50
185.3627964532823
 51
264.6604592730519
  0
LINE
  5
259
330
2
100
AcDbEntity
  8
GAIKEI
 62
     1
100
AcDbLine
 10
9.648703844901973
 20
2.488209419624524
 30
0.0
 11
9.414991509220811
 21
2.254267063190809
 31
0.0
  0
LINE
  5
25A
330
2
100
AcDbEntity
  8
GAIKEI
 62
     1
100
AcDbLine
 10
9.614773283664334
 20
2.054481121704782
 30
0.0
 11
9.848715223393725
 21
2.28819345738583
 31
0.0
  0
ARC
  5
25B
330
2
100
AcDbEntity
  8
GAIKEI
 62
     1
100
AcDbCircle
 10
9.602671549547011
 20
2.242141669722855
 30
0.0
 40
0.1880713234482933
100
AcDbArc
 50
176.3034445759356
 51
273.7203198838038
  0
ARC
  5
25C
330
2
100
AcDbEntity
  8
GAIKEI
 62
     1
100
AcDbCircle
 10
9.582914651565744
 20
2.219996161283262
 30
0.0
 40
0.2030852171852302
100
AcDbArc
 50
180.2650426354837
 51
279.054449700804
  0
ARC
  5
25D
330
2
100
AcDbEntity
  8
GAIKEI
100
AcDbCircle
 10
9.479761401604065
 20
2.119187619165529
 30
0.0
 40
0.2011519427009429
100
AcDbArc
 50
180.3841152231924
 51
269.5913732137488
  0
LINE
  5
25E
330
2
100
AcDbEntity
  8
GAIKEI
 62
     1
100
AcDbLine
 10
13.80692452724567
 20
2.488156498183229
 30
0.0
 11
14.04056393968092
 21
2.25353824743658
 31
0.0
  0
LINE
  5
25F
330
2
100
AcDbEntity
  8
GAIKEI
 62
     1
100
AcDbLine
 10
13.60694273475646
 20
2.288200124654053
 30
0.0
 11
13.84325447162384
 21
2.052558448239892
 31
0.0
  0
ARC
  5
260
330
2
100
AcDbEntity
  8
GAIKEI
 62
     1
100
AcDbCircle
 10
13.57887476591772
 20
2.516240718488148
 30
0.0
 40
0.229770133955667
100
AcDbArc
 50
277.0165901477274
 51
352.9834098522841
  0
ARC
  5
261
330
2
100
AcDbEntity
  8
GAIKEI
 62
     1
100
AcDbCircle
 10
13.85342615098194
 20
2.239947934144709
 30
0.0
 40
0.1876653470639542
100
AcDbArc
 50
266.8929797803744
 51
4.147369451348246
  0
ARC
  5
262
330
2
100
AcDbEntity
  8
GAIKEI
 62
     1
100
AcDbCircle
 10
13.87729321680025
 20
2.216052725914664
 30
0.0
 40
0.1985185667036251
100
AcDbArc
 50
269.6895454140713
 51
0.3384840745396794
  0
ARC
  5
263
330
2
100
AcDbEntity
  8
GAIKEI
100
AcDbCircle
 10
13.91939575050539
 20
2.124710734290033
 30
0.0
 40
0.2035849568341477
100
AcDbArc
 50
270.3441359964477
 51
0.072583791953472
  0
LINE
  5
264
330
2
100
AcDbEntity
  8
GAIKEI
100
AcDbLine
 10
9.478314613546075
 20
1.918101832777637
 30
0.0
 11
13.92061853674421
 21
1.921129449681188
 31
0.0
  0
LINE
  5
265
330
2
100
AcDbEntity
  8
GAIKEI
 62
     1
100
AcDbLine
 10
9.614874785657406
 20
2.019441542119295
 30
0.0
 11
13.8762175582025
 21
2.017537073421863
 31
0.0
  0
LINE
  5
266
330
2
100
AcDbEntity
  8
GAIKEI
 62
     1
100
AcDbLine
 10
9.614874785657406
 20
2.054466674766104
 30
0.0
 11
13.84314572678376
 21
2.052537789803352
 31
0.0
  0
LINE
  5
267
330
2
100
AcDbEntity
  8
GAIKEI
 62
     1
100
AcDbLine
 10
9.848709389534036
 20
2.288191373864492
 30
0.0
 11
13.60694273475646
 21
2.288191373864492
 31
0.0
  0
ARC
  5
268
330
2
100
AcDbEntity
  8
GAIKEI
 62
     1
100
AcDbCircle
 10
9.869257619095009
 20
31.83055007163588
 30
0.0
 40
0.2215157769392105
100
AcDbArc
 50
95.32251858901789
 51
174.6710350180337
  0
LINE
  5
269
330
2
100
AcDbEntity
  8
GAIKEI
 62
     1
100
AcDbLine
 10
9.414986925474039
 20
32.08506547295391
 30
0.0
 11
9.648699261155087
 21
31.85112311652026
 31
0.0
  0
LINE
  5
26A
330
2
100
AcDbEntity
  8
GAIKEI
 62
     1
100
AcDbLine
 10
9.614768283213123
 20
32.28483432956532
 30
0.0
 11
9.848710222942571
 21
32.05112199388421
 31
0.0
  0
LINE
  5
26B
330
2
100
AcDbEntity
  8
GAIKEI
 62
     1
100
AcDbLine
 10
9.478314613546075
 20
32.42121261124564
 30
0.0
 11
9.579568865959032
 21
32.31999498323072
 31
0.0
  0
LINE
  5
26C
330
2
100
AcDbEntity
  8
GAIKEI
 62
     1
100
AcDbLine
 10
9.27855294964408
 20
32.22146319551311
 30
0.0
 11
9.379831607250508
 21
32.12024551638953
 31
0.0
  0
LINE
  5
26D
330
2
100
AcDbEntity
  8
GAIKEI
 62
     7
100
AcDbLine
 10
9.2786139792357
 20
32.22146314440451
 30
0.0
 11
9.278613788466287
 21
32.14893456859917
 31
0.0
  0
ARC
  5
26E
330
2
100
AcDbEntity
  8
GAIKEI
 62
     7
100
AcDbCircle
 10
9.479919263953632
 20
32.220059302983
 30
0.0
 40
0.2013101796385793
100
AcDbArc
 50
97.21739309546924
 51
179.6004432531238
  0
ARC
  5
26F
330
2
100
AcDbEntity
  8
GAIKEI
 62
     1
100
AcDbCircle
 10
9.578842800066553
 20
32.12098374566662
 30
0.0
 40
0.1990125620368673
100
AcDbArc
 50
89.79096493632331
 51
180.2125369296195
  0
ARC
  5
270
330
2
100
AcDbEntity
  8
GAIKEI
 62
     1
100
AcDbCircle
 10
9.602663169413602
 20
32.09715884274781
 30
0.0
 40
0.1880654729935096
100
AcDbArc
 50
86.30952065866955
 51
183.6868940004319
  0
LINE
  5
271
330
2
100
AcDbEntity
  8
GAIKEI
 62
     1
100
AcDbLine
 10
9.614874785657406
 20
32.28483556112448
 30
0.0
 11
13.84314572678376
 21
32.28676444608718
 31
0.0
  0
ARC
  5
272
330
2
100
AcDbEntity
  8
GAIKEI
 62
     7
100
AcDbCircle
 10
13.91937472750824
 20
32.21458283908575
 30
0.0
 40
0.2036059544473368
100
AcDbArc
 50
359.9332968071163
 51
89.64998340448273
  0
ARC
  5
273
330
2
100
AcDbEntity
  8
GAIKEI
 62
     1
100
AcDbCircle
 10
13.87371234156684
 20
32.12177879353144
 30
0.0
 40
0.2020961973750216
100
AcDbArc
 50
0.0844690254387265
 51
98.73076176903744
  0
ARC
  5
274
330
2
100
AcDbEntity
  8
GAIKEI
 62
     1
100
AcDbCircle
 10
13.85342158132097
 20
32.09940740411432
 30
0.0
 40
0.1876386270555872
100
AcDbArc
 50
355.8354739858283
 51
93.13932049358141
  0
LINE
  5
275
330
2
100
AcDbEntity
  8
GAIKEI
 62
     1
100
AcDbLine
 10
14.0405647730894
 20
32.08578095417178
 30
0.0
 11
13.80692577735847
 21
31.85116228672089
 31
0.0
  0
LINE
  5
276
330
2
100
AcDbEntity
  8
GAIKEI
 62
     1
100
AcDbLine
 10
13.84314572678376
 20
32.28676444608718
 30
0.0
 11
13.60693523407976
 21
32.05112741103957
 31
0.0
  0
ARC
  5
277
330
2
100
AcDbEntity
  8
GAIKEI
 62
     1
100
AcDbCircle
 10
13.57888517614437
 20
31.82307011254946
 30
0.0
 40
0.2297602134223355
100
AcDbArc
 50
7.017741388704847
 51
82.98572097067582
  0
LINE
  5
278
330
2
100
AcDbEntity
  8
GAIKEI
 62
     1
100
AcDbLine
 10
9.848709389534036
 20
32.05111074286916
 30
0.0
 11
13.60694273475646
 21
32.05111074286916
 31
0.0
  0
LINE
  5
279
330
2
100
AcDbEntity
  8
GAIKEI
 62
     1
100
AcDbLine
 10
9.579568865959032
 20
32.31999498323072
 30
0.0
 11
13.84303585358954
 21
32.32153320794785
 31
0.0
  0
LINE
  5
27A
330
2
100
AcDbEntity
  8
GAIKEI
 62
     7
100
AcDbLine
 10
9.454627780149138
 20
32.41977442327462
 30
0.0
 11
13.92061853674421
 21
32.418184994342
 31
0.0
  0
LINE
  5
27B
330
2
100
AcDbEntity
  8
GAIKEI
  6
Continuous
 62
     1
100
AcDbLine
 10
9.342682068748757
 20
2.190367548134474
 30
0.0
 11
9.342682068748757
 21
2.220375255449596
 31
0.0
  0
LINE
  5
27C
330
2
100
AcDbEntity
  8
GAIKEI
  6
Continuous
 62
     1
100
AcDbLine
 10
9.372555597291551
 20
2.648184686031896
 30
0.0
 11
8.771810122029222
 21
2.648184686031896
 31
0.0
  0
LINE
  5
27D
330
2
100
AcDbEntity
  8
GAIKEI
  6
Continuous
 62
     1
100
AcDbLine
 10
9.648703428197705
 20
2.488197335200936
 30
0.0
 11
9.648703428197705
 21
31.85110519823704
 31
0.0
  0
LINE
  5
27E
330
2
100
AcDbEntity
  8
GAIKEI
  6
Continuous
100
AcDbLine
 10
14.1229805420278
 20
2.124968731143354
 30
0.0
 11
14.1229805420278
 21
32.21434588671812
 31
0.0
  0
LINE
  5
27F
330
2
100
AcDbEntity
  8
GAIKEI
  6
Continuous
 62
     1
100
AcDbLine
 10
13.80692411054146
 20
2.488172749649436
 30
0.0
 11
13.80692411054146
 21
31.8511414515078
 31
0.0
  0
LINE
  5
280
330
2
100
AcDbEntity
  8
GAIKEI
  6
Continuous
 62
     1
100
AcDbLine
 10
14.07580831931882
 20
32.12207673629095
 30
0.0
 11
14.07580831931876
 21
2.217225499599607
 31
0.0
  0
LINE
  5
281
330
2
100
AcDbEntity
  8
GAIKEI
  6
Continuous
 62
     1
100
AcDbLine
 10
14.04063686292677
 20
2.253520329153332
 30
0.0
 11
14.04063686292677
 21
32.08579428870823
 31
0.0
  0
LINE
  5
282
330
2
100
AcDbEntity
  8
GAIKEI
  6
Continuous
 62
     1
100
AcDbLine
 10
9.414991092516601
 20
2.254350404043236
 30
0.0
 11
9.414991092516601
 21
32.08496421381827
 31
0.0
  0
LINE
  5
283
330
2
100
AcDbEntity
  8
GAIKEI
  6
Continuous
 62
     1
100
AcDbLine
 10
9.379953764759108
 20
2.21181679099098
 30
0.0
 11
9.379831607250565
 21
32.12024551638953
 31
0.0
  0
LINE
  5
284
330
2
100
AcDbEntity
  8
GAIKEI
  6
Continuous
 62
     1
100
AcDbLine
 10
8.771810122029222
 20
31.69111743070172
 30
0.0
 11
9.379953764759108
 21
31.69111743070172
 31
0.0
  0
LINE
  5
285
330
2
100
AcDbEntity
  8
GAIKEI
  6
Continuous
100
AcDbLine
 10
9.379839938612263
 20
2.220375255449596
 30
0.0
 11
8.771810122029222
 21
2.220375255449596
 31
0.0
  0
LINE
  5
286
330
2
100
AcDbEntity
  8
GAIKEI
  6
Continuous
 62
     7
100
AcDbLine
 10
8.790679228707489
 20
32.14893456859929
 30
0.0
 11
9.342682068748757
 21
32.14893456859917
 31
0.0
  0
LINE
  5
287
330
2
100
AcDbEntity
  8
GAIKEI
  6
Continuous
 62
     1
100
AcDbLine
 10
8.790680171308821
 20
2.190367548134474
 30
0.0
 11
9.342682068748757
 21
2.190367548134474
 31
0.0
  0
LINE
  5
288
330
2
100
AcDbEntity
  8
GAIKEI
  6
Continuous
 62
     1
100
AcDbLine
 10
-42.04475078677312
 20
2.190367548134474
 30
0.0
 11
-42.59675268421306
 21
2.190367548134474
 31
0.0
  0
LINE
  5
289
330
2
100
AcDbEntity
  8
GAIKEI
  6
Continuous
 62
     7
100
AcDbLine
 10
-42.04474984417179
 20
32.14893456859929
 30
0.0
 11
-42.59675268421306
 21
32.14893456859917
 31
0.0
  0
LINE
  5
28A
330
2
100
AcDbEntity
  8
GAIKEI
  6
Continuous
100
AcDbLine
 10
-42.63391055407656
 20
2.220375255449596
 30
0.0
 11
-42.02588073749352
 21
2.220375255449596
 31
0.0
  0
LINE
  5
28B
330
2
100
AcDbEntity
  8
GAIKEI
  6
Continuous
 62
     1
100
AcDbLine
 10
-42.02588073749352
 20
31.69111743070172
 30
0.0
 11
-42.63402438022341
 21
31.69111743070172
 31
0.0
  0
LINE
  5
28C
330
2
100
AcDbEntity
  8
GAIKEI
  6
Continuous
 62
     1
100
AcDbLine
 10
-42.63402438022341
 20
2.21181679099098
 30
0.0
 11
-42.63390222271486
 21
32.12024551638953
 31
0.0
  0
LINE
  5
28D
330
2
100
AcDbEntity
  8
GAIKEI
  6
Continuous
 62
     1
100
AcDbLine
 10
-42.66906170798089
 20
2.254350404043236
 30
0.0
 11
-42.66906170798089
 21
32.08496421381827
 31
0.0
  0
LINE
  5
28E
330
2
100
AcDbEntity
  8
GAIKEI
  6
Continuous
 62
     1
100
AcDbLine
 10
-47.29470747839108
 20
2.253520329153332
 30
0.0
 11
-47.29470747839108
 21
32.08579428870823
 31
0.0
  0
LINE
  5
28F
330
2
100
AcDbEntity
  8
GAIKEI
  6
Continuous
 62
     1
100
AcDbLine
 10
-47.32987893478312
 20
32.12207673629095
 30
0.0
 11
-47.32987893478306
 21
2.217225499599607
 31
0.0
  0
LINE
  5
290
330
2
100
AcDbEntity
  8
GAIKEI
  6
Continuous
 62
     1
100
AcDbLine
 10
-47.06099472600576
 20
2.488172749649436
 30
0.0
 11
-47.06099472600576
 21
31.8511414515078
 31
0.0
  0
LINE
  5
291
330
2
100
AcDbEntity
  8
GAIKEI
  6
Continuous
100
AcDbLine
 10
-47.3770511574921
 20
2.124968731143354
 30
0.0
 11
-47.3770511574921
 21
32.21434588671812
 31
0.0
  0
LINE
  5
292
330
2
100
AcDbEntity
  8
GAIKEI
  6
Continuous
 62
     1
100
AcDbLine
 10
-42.902774043662
 20
2.488197335200936
 30
0.0
 11
-42.902774043662
 21
31.85110519823704
 31
0.0
  0
LINE
  5
293
330
2
100
AcDbEntity
  8
GAIKEI
  6
Continuous
 62
     1
100
AcDbLine
 10
-42.62662621275585
 20
2.648184686031896
 30
0.0
 11
-42.02588073749352
 21
2.648184686031896
 31
0.0
  0
LINE
  5
294
330
2
100
AcDbEntity
  8
GAIKEI
  6
Continuous
 62
     1
100
AcDbLine
 10
-42.59675268421306
 20
2.190367548134474
 30
0.0
 11
-42.59675268421306
 21
2.220375255449596
 31
0.0
  0
LINE
  5
295
330
2
100
AcDbEntity
  8
GAIKEI
 62
     7
100
AcDbLine
 10
-42.70869839561344
 20
32.41977442327462
 30
0.0
 11
-47.17468915220851
 21
32.418184994342
 31
0.0
  0
LINE
  5
296
330
2
100
AcDbEntity
  8
GAIKEI
 62
     1
100
AcDbLine
 10
-42.83363948142333
 20
32.31999498323072
 30
0.0
 11
-47.09710646905384
 21
32.32153320794785
 31
0.0
  0
LINE
  5
297
330
2
100
AcDbEntity
  8
GAIKEI
 62
     1
100
AcDbLine
 10
-43.10278000499834
 20
32.05111074286916
 30
0.0
 11
-46.86101335022075
 21
32.05111074286916
 31
0.0
  0
ARC
  5
298
330
2
100
AcDbEntity
  8
GAIKEI
 62
     1
100
AcDbCircle
 10
-46.83295579160867
 20
31.82307011254946
 30
0.0
 40
0.2297602134223355
100
AcDbArc
 50
97.01427902932419
 51
172.9822586112951
  0
LINE
  5
299
330
2
100
AcDbEntity
  8
GAIKEI
 62
     1
100
AcDbLine
 10
-47.09721634224806
 20
32.28676444608718
 30
0.0
 11
-46.86100584954405
 21
32.05112741103957
 31
0.0
  0
LINE
  5
29A
330
2
100
AcDbEntity
  8
GAIKEI
 62
     1
100
AcDbLine
 10
-47.2946353885537
 20
32.08578095417178
 30
0.0
 11
-47.06099639282277
 21
31.85116228672089
 31
0.0
  0
ARC
  5
29B
330
2
100
AcDbEntity
  8
GAIKEI
 62
     1
100
AcDbCircle
 10
-47.10749219678527
 20
32.09940740411432
 30
0.0
 40
0.1876386270555872
100
AcDbArc
 50
86.86067950641859
 51
184.1645260141716
  0
ARC
  5
29C
330
2
100
AcDbEntity
  8
GAIKEI
 62
     1
100
AcDbCircle
 10
-47.12778295703114
 20
32.12177879353144
 30
0.0
 40
0.2020961973750216
100
AcDbArc
 50
81.26923823096257
 51
179.9155309745612
  0
ARC
  5
29D
330
2
100
AcDbEntity
  8
GAIKEI
 62
     7
100
AcDbCircle
 10
-47.17344534297254
 20
32.21458283908575
 30
0.0
 40
0.2036059544473368
100
AcDbArc
 50
90.35001659551728
 51
180.0667031928837
  0
LINE
  5
29E
330
2
100
AcDbEntity
  8
GAIKEI
 62
     1
100
AcDbLine
 10
-42.86894540112171
 20
32.28483556112448
 30
0.0
 11
-47.09721634224806
 21
32.28676444608718
 31
0.0
  0
ARC
  5
29F
330
2
100
AcDbEntity
  8
GAIKEI
 62
     1
100
AcDbCircle
 10
-42.8567337848779
 20
32.09715884274781
 30
0.0
 40
0.1880654729935096
100
AcDbArc
 50
356.3131059995681
 51
93.69047934133044
  0
ARC
  5
2A0
330
2
100
AcDbEntity
  8
GAIKEI
 62
     1
100
AcDbCircle
 10
-42.83291341553085
 20
32.12098374566662
 30
0.0
 40
0.1990125620368673
100
AcDbArc
 50
359.7874630703805
 51
90.2090350636767
  0
ARC
  5
2A1
330
2
100
AcDbEntity
  8
GAIKEI
 62
     7
100
AcDbCircle
 10
-42.73398987941793
 20
32.220059302983
 30
0.0
 40
0.2013101796385793
100
AcDbArc
 50
0.3995567468761617
 51
82.78260690453077
  0
LINE
  5
2A2
330
2
100
AcDbEntity
  8
GAIKEI
 62
     7
100
AcDbLine
 10
-42.5326845947
 20
32.22146314440451
 30
0.0
 11
-42.53268440393059
 21
32.14893456859917
 31
0.0
  0
LINE
  5
2A3
330
2
100
AcDbEntity
  8
GAIKEI
 62
     1
100
AcDbLine
 10
-42.53262356510838
 20
32.22146319551311
 30
0.0
 11
-42.63390222271481
 21
32.12024551638953
 31
0.0
  0
LINE
  5
2A4
330
2
100
AcDbEntity
  8
GAIKEI
 62
     1
100
AcDbLine
 10
-42.73238522901038
 20
32.42121261124564
 30
0.0
 11
-42.83363948142333
 21
32.31999498323072
 31
0.0
  0
LINE
  5
2A5
330
2
100
AcDbEntity
  8
GAIKEI
 62
     1
100
AcDbLine
 10
-42.86883889867742
 20
32.28483432956532
 30
0.0
 11
-43.10278083840687
 21
32.05112199388421
 31
0.0
  0
LINE
  5
2A6
330
2
100
AcDbEntity
  8
GAIKEI
 62
     1
100
AcDbLine
 10
-42.66905754093833
 20
32.08506547295391
 30
0.0
 11
-42.90276987661939
 21
31.85112311652026
 31
0.0
  0
ARC
  5
2A7
330
2
100
AcDbEntity
  8
GAIKEI
 62
     1
100
AcDbCircle
 10
-43.12332823455931
 20
31.83055007163588
 30
0.0
 40
0.2215157769392105
100
AcDbArc
 50
5.328964981966229
 51
84.6774814109821
  0
LINE
  5
2A8
330
2
100
AcDbEntity
  8
GAIKEI
 62
     1
100
AcDbLine
 10
-43.10278000499834
 20
2.288191373864492
 30
0.0
 11
-46.86101335022075
 21
2.288191373864492
 31
0.0
  0
LINE
  5
2A9
330
2
100
AcDbEntity
  8
GAIKEI
 62
     1
100
AcDbLine
 10
-42.86894540112171
 20
2.054466674766104
 30
0.0
 11
-47.09721634224806
 21
2.052537789803352
 31
0.0
  0
LINE
  5
2AA
330
2
100
AcDbEntity
  8
GAIKEI
 62
     1
100
AcDbLine
 10
-42.86894540112171
 20
2.019441542119295
 30
0.0
 11
-47.13028817366679
 21
2.017537073421863
 31
0.0
  0
LINE
  5
2AB
330
2
100
AcDbEntity
  8
GAIKEI
100
AcDbLine
 10
-42.73238522901038
 20
1.918101832777637
 30
0.0
 11
-47.17468915220851
 21
1.921129449681188
 31
0.0
  0
ARC
  5
2AC
330
2
100
AcDbEntity
  8
GAIKEI
100
AcDbCircle
 10
-47.17346636596968
 20
2.124710734290033
 30
0.0
 40
0.2035849568341477
100
AcDbArc
 50
179.9274162080465
 51
269.6558640035523
  0
ARC
  5
2AD
330
2
100
AcDbEntity
  8
GAIKEI
 62
     1
100
AcDbCircle
 10
-47.13136383226455
 20
2.216052725914664
 30
0.0
 40
0.1985185667036251
100
AcDbArc
 50
179.6615159254603
 51
270.3104545859287
  0
ARC
  5
2AE
330
2
100
AcDbEntity
  8
GAIKEI
 62
     1
100
AcDbCircle
 10
-47.10749676644624
 20
2.239947934144709
 30
0.0
 40
0.1876653470639542
100
AcDbArc
 50
175.8526305486517
 51
273.1070202196256
  0
ARC
  5
2AF
330
2
100
AcDbEntity
  8
GAIKEI
 62
     1
100
AcDbCircle
 10
-46.83294538138201
 20
2.516240718488148
 30
0.0
 40
0.229770133955667
100
AcDbArc
 50
187.0165901477159
 51
262.9834098522726
  0
LINE
  5
2B0
330
2
100
AcDbEntity
  8
GAIKEI
 62
     1
100
AcDbLine
 10
-46.86101335022075
 20
2.288200124654053
 30
0.0
 11
-47.09732508708813
 21
2.052558448239892
 31
0.0
  0
LINE
  5
2B1
330
2
100
AcDbEntity
  8
GAIKEI
 62
     1
100
AcDbLine
 10
-47.06099514270997
 20
2.488156498183229
 30
0.0
 11
-47.29463455514522
 21
2.25353824743658
 31
0.0
  0
ARC
  5
2B2
330
2
100
AcDbEntity
  8
GAIKEI
100
AcDbCircle
 10
-42.73383201706836
 20
2.119187619165529
 30
0.0
 40
0.2011519427009429
100
AcDbArc
 50
270.4086267862511
 51
359.6158847768076
  0
ARC
  5
2B3
330
2
100
AcDbEntity
  8
GAIKEI
 62
     1
100
AcDbCircle
 10
-42.83698526703004
 20
2.219996161283262
 30
0.0
 40
0.2030852171852302
100
AcDbArc
 50
260.9455502991961
 51
359.7349573645162
  0
ARC
  5
2B4
330
2
100
AcDbEntity
  8
GAIKEI
 62
     1
100
AcDbCircle
 10
-42.85674216501131
 20
2.242141669722855
 30
0.0
 40
0.1880713234482933
100
AcDbArc
 50
266.2796801161962
 51
3.696555424064399
  0
LINE
  5
2B5
330
2
100
AcDbEntity
  8
GAIKEI
 62
     1
100
AcDbLine
 10
-42.86884389912863
 20
2.054481121704782
 30
0.0
 11
-43.10278583885803
 21
2.28819345738583
 31
0.0
  0
LINE
  5
2B6
330
2
100
AcDbEntity
  8
GAIKEI
 62
     1
100
AcDbLine
 10
-42.90277446036627
 20
2.488209419624524
 30
0.0
 11
-42.66906212468511
 21
2.254267063190809
 31
0.0
  0
ARC
  5
2B7
330
2
100
AcDbEntity
  8
GAIKEI
 62
     1
100
AcDbCircle
 10
-43.12341532128106
 20
2.50891628215794
 30
0.0
 40
0.2216847782785941
100
AcDbArc
 50
275.3395407269481
 51
354.6372035467177
  0
LINE
  5
2B8
330
2
100
AcDbEntity
  8
GAIKEI
100
AcDbLine
 10
-42.532611897389
 20
2.117841838150354
 30
0.0
 11
-42.53268440393059
 21
2.190367548134474
 31
0.0
  0
DIMENSION
  5
2B9
330
2
100
AcDbEntity
  8
SUNPO
100
AcDbDimension
  2
*D7
 10
14.1229805420278
 20
46.42557419339894
 30
0.0
 11
-16.62703530773215
 21
48.17557419339895
 31
0.0
 70
    32
  1
1230
 71
     5
 42
61.50003169951991
  3
STANDARD
100
AcDbAlignedDimension
 13
-47.3770511574921
 23
32.39441178004444
 33
0.0
 14
14.1229805420278
 24
32.38175052234684
 34
0.0
100
AcDbRotatedDimension
1001
ACAD
1000
DSTYLE
1002
{
1070
    40
1040
1.0
1070
   140
1040
2.5
1070
   147
1040
0.5
1070
   172
1070
     1
1070
   279
1070
     0
1070
   288
1070
     0
1002
}
  0
POINT
  5
2C6
330
2
100
AcDbEntity
  8
GAIKEI
  6
Continuous
100
AcDbPoint
 10
13.80214089226781
 20
17.16903465451224
 30
0.0
  0
LINE
  5
2C7
330
2
100
AcDbEntity
  8
GAIKEI
  6
Continuous
100
AcDbLine
 10
8.672964692267854
 20
32.41903465451225
 30
0.0
 11
-41.92703530773217
 21
32.41903465451225
 31
0.0
  0
LINE
  5
2C8
330
2
100
AcDbEntity
  8
GAIKEI
  6
Continuous
 62
     1
100
AcDbLine
 10
7.372964692267842
 20
31.02532360451227
 30
0.0
 11
-40.62703530773221
 21
31.02532360451227
 31
0.0
  0
LINE
  5
2C9
330
2
100
AcDbEntity
  8
GAIKEI
  6
Continuous
 62
     1
100
AcDbLine
 10
-40.62703530773221
 20
31.09903465451225
 30
0.0
 11
7.372964692267842
 21
31.09903465451225
 31
0.0
  0
LINE
  5
2CA
330
2
100
AcDbEntity
  8
GAIKEI
  6
Continuous
100
AcDbLine
 10
6.06198513895886
 20
32.41903465451225
 30
0.0
 11
-41.92703530773217
 21
32.41903465451225
 31
0.0
  0
LINE
  5
2CB
330
2
100
AcDbEntity
  8
GAIKEI
  6
Continuous
 62
     1
100
AcDbLine
 10
8.287964692267863
 20
32.03403465451226
 30
0.0
 11
-41.54203530773218
 21
32.03403465451226
 31
0.0
  0
LINE
  5
2CC
330
2
100
AcDbEntity
  8
GAIKEI
  6
Continuous
 62
     1
100
AcDbLine
 10
8.566838942267807
 20
32.31290890451214
 30
0.0
 11
-41.82090955773218
 21
32.3129089045122
 31
0.0
  0
ARC
  5
2CD
330
2
100
AcDbEntity
  8
GAIKEI
  6
Continuous
 62
     1
100
AcDbCircle
 10
-41.82090955773218
 20
32.11290890451227
 30
0.0
 40
0.2
100
AcDbArc
 50
90.0
 51
180.0
  0
ARC
  5
2CE
330
2
100
AcDbEntity
  8
GAIKEI
  6
Continuous
 62
     1
100
AcDbCircle
 10
-41.54203530773218
 20
31.83403465451221
 30
0.0
 40
0.2
100
AcDbArc
 50
90.0
 51
180.0
  0
ARC
  5
2CF
330
2
100
AcDbEntity
  8
GAIKEI
  6
Continuous
100
AcDbCircle
 10
-41.92703530773217
 20
32.2190346545122
 30
0.0
 40
0.2
100
AcDbArc
 50
90.0
 51
180.0
  0
ARC
  5
2D0
330
2
100
AcDbEntity
  8
GAIKEI
  6
Continuous
 62
     1
100
AcDbCircle
 10
-40.62703530773221
 20
30.91903465451224
 30
0.0
 40
0.18
100
AcDbArc
 50
90.0
 51
180.0
  0
ARC
  5
2D1
330
2
100
AcDbEntity
  8
GAIKEI
  6
Continuous
 62
     1
100
AcDbCircle
 10
-40.62703530773221
 20
30.91903465451224
 30
0.0
 40
0.10628895
100
AcDbArc
 50
90.0
 51
180.0
  0
ARC
  5
2D2
330
2
100
AcDbEntity
  8
GAIKEI
  6
Continuous
100
AcDbCircle
 10
-41.92703530773217
 20
32.2190346545122
 30
0.0
 40
0.2
100
AcDbArc
 50
90.0
 51
180.0
  0
LINE
  5
2D3
330
2
100
AcDbEntity
  8
GAIKEI
  6
Continuous
 62
     1
100
AcDbLine
 10
7.479253642267821
 20
3.419034654512245
 30
0.0
 11
7.479253642267806
 21
30.91903465451224
 31
0.0
  0
LINE
  5
2D4
330
2
100
AcDbEntity
  8
GAIKEI
  6
Continuous
 62
     1
100
AcDbLine
 10
7.552964692267849
 20
3.419034654512245
 30
0.0
 11
7.552964692267849
 21
30.91903465451224
 31
0.0
  0
LINE
  5
2D5
330
2
100
AcDbEntity
  8
GAIKEI
  6
Continuous
100
AcDbLine
 10
6.06198513895886
 20
32.41903465451225
 30
0.0
 11
8.672964692267854
 21
32.41903465451225
 31
0.0
  0
ARC
  5
2D6
330
2
100
AcDbEntity
  8
GAIKEI
  6
Continuous
 62
     1
100
AcDbCircle
 10
7.372964692267842
 20
30.91903465451224
 30
0.0
 40
0.18
100
AcDbArc
 50
0.0
 51
90.0
  0
ARC
  5
2D7
330
2
100
AcDbEntity
  8
GAIKEI
  6
Continuous
 62
     1
100
AcDbCircle
 10
7.372964692267842
 20
30.91903465451224
 30
0.0
 40
0.10628895
100
AcDbArc
 50
0.0
 51
90.0
  0
LINE
  5
2D8
330
2
100
AcDbEntity
  8
GAIKEI
  6
Continuous
100
AcDbLine
 10
8.672964692267854
 20
1.919034654512245
 30
0.0
 11
-41.92703530773217
 21
1.919034654512245
 31
0.0
  0
ARC
  5
2D9
330
2
100
AcDbEntity
  8
GAIKEI
  6
Continuous
 62
     1
100
AcDbCircle
 10
7.372964692267842
 20
3.419034654512245
 30
0.0
 40
0.18
100
AcDbArc
 50
270.0
 51
0.0
  0
ARC
  5
2DA
330
2
100
AcDbEntity
  8
GAIKEI
  6
Continuous
 62
     1
100
AcDbCircle
 10
7.372964692267842
 20
3.419034654512245
 30
0.0
 40
0.10628895
100
AcDbArc
 50
270.0
 51
0.0
  0
LINE
  5
2DB
330
2
100
AcDbEntity
  8
GAIKEI
  6
Continuous
 62
     1
100
AcDbLine
 10
-41.54203530773218
 20
2.304034654512236
 30
0.0
 11
8.287964692267863
 21
2.304034654512236
 31
0.0
  0
LINE
  5
2DC
330
2
100
AcDbEntity
  8
GAIKEI
  6
Continuous
 62
     1
100
AcDbLine
 10
-40.62703530773221
 20
3.312745704512224
 30
0.0
 11
7.372964692267842
 21
3.312745704512224
 31
0.0
  0
LINE
  5
2DD
330
2
100
AcDbEntity
  8
GAIKEI
  6
Continuous
 62
     1
100
AcDbLine
 10
-41.82090955773218
 20
2.025160404512234
 30
0.0
 11
8.566838942267807
 21
2.025160404512234
 31
0.0
  0
LINE
  5
2DE
330
2
100
AcDbEntity
  8
GAIKEI
  6
Continuous
 62
     1
100
AcDbLine
 10
-40.62703530773221
 20
3.239034654512181
 30
0.0
 11
7.372964692267842
 21
3.239034654512181
 31
0.0
  0
LINE
  5
2DF
330
2
100
AcDbEntity
  8
GAIKEI
  6
Continuous
100
AcDbLine
 10
-41.92703530773217
 20
1.919034654512245
 30
0.0
 11
8.672964692267854
 21
1.919034654512245
 31
0.0
  0
LINE
  5
2E0
330
2
100
AcDbEntity
  8
GAIKEI
  6
Continuous
 62
     1
100
AcDbLine
 10
-41.74203530773222
 20
31.83403465451221
 30
0.0
 11
-41.74203530773222
 21
2.504034654512224
 31
0.0
  0
LINE
  5
2E1
330
2
100
AcDbEntity
  8
GAIKEI
  6
Continuous
 62
     1
100
AcDbLine
 10
-40.80703530773216
 20
30.91903465451224
 30
0.0
 11
-40.80703530773216
 21
3.419034654512245
 31
0.0
  0
LINE
  5
2E2
330
2
100
AcDbEntity
  8
GAIKEI
  6
Continuous
 62
     1
100
AcDbLine
 10
-40.73332425773218
 20
30.91903465451224
 30
0.0
 11
-40.73332425773218
 21
3.419034654512245
 31
0.0
  0
LINE
  5
2E3
330
2
100
AcDbEntity
  8
GAIKEI
  6
Continuous
100
AcDbLine
 10
-42.12703530773221
 20
32.2190346545122
 30
0.0
 11
-42.12703530773221
 21
2.119034654512233
 31
0.0
  0
LINE
  5
2E4
330
2
100
AcDbEntity
  8
GAIKEI
  6
Continuous
 62
     1
100
AcDbLine
 10
-42.02090955773217
 20
32.11290890451227
 30
0.0
 11
-42.02090955773217
 21
2.225160404512223
 31
0.0
  0
ARC
  5
2E5
330
2
100
AcDbEntity
  8
GAIKEI
  6
Continuous
 62
     1
100
AcDbCircle
 10
-40.62703530773221
 20
3.419034654512245
 30
0.0
 40
0.10628895
100
AcDbArc
 50
180.0
 51
270.0
  0
ARC
  5
2E6
330
2
100
AcDbEntity
  8
GAIKEI
  6
Continuous
 62
     1
100
AcDbCircle
 10
-41.82090955773218
 20
2.225160404512223
 30
0.0
 40
0.2
100
AcDbArc
 50
180.0
 51
270.0
  0
ARC
  5
2E7
330
2
100
AcDbEntity
  8
GAIKEI
  6
Continuous
 62
     1
100
AcDbCircle
 10
-40.62703530773221
 20
3.419034654512245
 30
0.0
 40
0.18
100
AcDbArc
 50
180.0
 51
270.0
  0
ARC
  5
2E8
330
2
100
AcDbEntity
  8
GAIKEI
  6
Continuous
100
AcDbCircle
 10
-41.92703530773217
 20
2.119034654512233
 30
0.0
 40
0.2
100
AcDbArc
 50
180.0
 51
270.0
  0
ARC
  5
2E9
330
2
100
AcDbEntity
  8
GAIKEI
  6
Continuous
 62
     1
100
AcDbCircle
 10
-41.54203530773218
 20
2.504034654512224
 30
0.0
 40
0.2
100
AcDbArc
 50
180.0
 51
270.0
  0
ARC
  5
2EA
330
2
100
AcDbEntity
  8
GAIKEI
  6
Continuous
 62
     1
100
AcDbCircle
 10
-39.21203530773214
 20
2.444034654512222
 30
0.0
 40
0.025
100
AcDbArc
 50
270.0
 51
0.0
  0
ARC
  5
2EB
330
2
100
AcDbEntity
  8
GAIKEI
  6
Continuous
 62
     1
100
AcDbCircle
 10
-39.5120353077322
 20
2.444034654512222
 30
0.0
 40
0.025
100
AcDbArc
 50
180.0
 51
270.0
  0
ARC
  5
2EC
330
2
100
AcDbEntity
  8
GAIKEI
  6
Continuous
 62
     1
100
AcDbCircle
 10
-39.21203530773214
 20
2.744034654512233
 30
0.0
 40
0.025
100
AcDbArc
 50
0.0
 51
90.0
  0
ARC
  5
2ED
330
2
100
AcDbEntity
  8
GAIKEI
  6
Continuous
 62
     1
100
AcDbCircle
 10
-39.5120353077322
 20
2.744034654512233
 30
0.0
 40
0.025
100
AcDbArc
 50
90.0
 51
180.0
  0
LINE
  5
2EE
330
2
100
AcDbEntity
  8
GAIKEI
  6
Continuous
 62
     1
100
AcDbLine
 10
-39.53703530773218
 20
2.444034654512222
 30
0.0
 11
-39.53703530773218
 21
2.744034654512233
 31
0.0
  0
LINE
  5
2EF
330
2
100
AcDbEntity
  8
GAIKEI
  6
Continuous
 62
     1
100
AcDbLine
 10
-39.21203530773214
 20
2.769034654512211
 30
0.0
 11
-39.5120353077322
 21
2.769034654512211
 31
0.0
  0
LINE
  5
2F0
330
2
100
AcDbEntity
  8
GAIKEI
  6
Continuous
 62
     1
100
AcDbLine
 10
-41.11703530773222
 20
2.554034654512236
 30
0.0
 11
-41.11703530773222
 21
2.63403465451222
 31
0.0
  0
LINE
  5
2F1
330
2
100
AcDbEntity
  8
GAIKEI
  6
Continuous
 62
     1
100
AcDbLine
 10
-41.03703530773218
 20
2.554034654512236
 30
0.0
 11
-41.03703530773218
 21
2.63403465451222
 31
0.0
  0
LINE
  5
2F2
330
2
100
AcDbEntity
  8
GAIKEI
  6
Continuous
 62
     1
100
AcDbLine
 10
-41.03703530773218
 20
2.554034654512236
 30
0.0
 11
-41.11703530773222
 21
2.554034654512236
 31
0.0
  0
LINE
  5
2F3
330
2
100
AcDbEntity
  8
GAIKEI
  6
Continuous
 62
     1
100
AcDbLine
 10
-41.03703530773218
 20
2.63403465451222
 30
0.0
 11
-41.11703530773222
 21
2.63403465451222
 31
0.0
  0
LINE
  5
2F4
330
2
100
AcDbEntity
  8
GAIKEI
  6
Continuous
 62
     1
100
AcDbLine
 10
-39.21203530773214
 20
2.419034654512245
 30
0.0
 11
-39.5120353077322
 21
2.419034654512245
 31
0.0
  0
LINE
  5
2F5
330
2
100
AcDbEntity
  8
GAIKEI
  6
Continuous
 62
     1
100
AcDbLine
 10
-39.18703530773216
 20
2.444034654512222
 30
0.0
 11
-39.18703530773216
 21
2.744034654512233
 31
0.0
  0
ARC
  5
2F6
330
2
100
AcDbEntity
  8
GAIKEI
  6
Continuous
100
AcDbCircle
 10
-41.92703530773217
 20
2.119034654512233
 30
0.0
 40
0.2
100
AcDbArc
 50
180.0
 51
270.0
  0
LINE
  5
2F7
330
2
100
AcDbEntity
  8
GAIKEI
  6
Continuous
 62
     1
100
AcDbLine
 10
6.372964692267842
 20
4.219034654512199
 30
0.0
 11
6.372964692267842
 21
30.11903465451224
 31
0.0
  0
LINE
  5
2F8
330
2
100
AcDbEntity
  8
GAIKEI
  6
Continuous
 62
     1
100
AcDbLine
 10
-39.62703530773222
 20
4.219034654512199
 30
0.0
 11
-39.62703530773222
 21
30.11903465451224
 31
0.0
  0
LINE
  5
2F9
330
2
100
AcDbEntity
  8
GAIKEI
  6
Continuous
 62
     1
100
AcDbLine
 10
-39.62703530773222
 20
30.11903465451224
 30
0.0
 11
6.372964692267842
 21
30.11903465451224
 31
0.0
  0
LINE
  5
2FA
330
2
100
AcDbEntity
  8
GAIKEI
  6
Continuous
 62
     1
100
AcDbLine
 10
-39.62703530773222
 20
4.219034654512199
 30
0.0
 11
6.372964692267842
 21
4.219034654512199
 31
0.0
  0
DIMENSION
  5
2FB
330
2
100
AcDbEntity
  8
SUNPO
100
AcDbDimension
  2
*D6
 10
8.872964692267842
 20
40.42557419339892
 30
0.0
 11
-16.62703530773218
 21
42.17557419339891
 31
0.0
 70
    33
  1
1020
 71
     5
 42
51.00000000000005
  3
STANDARD
100
AcDbAlignedDimension
 13
-42.12703530773221
 23
32.42557419339892
 33
0.0
 14
8.872964692267842
 24
32.42557419339892
 34
0.0
1001
ACAD
1000
DSTYLE
1002
{
1070
    40
1040
1.0
1070
   140
1040
2.5
1070
   147
1040
0.5
1070
   172
1070
     1
1070
   279
1070
     0
1070
   288
1070
     0
1002
}
  0
DIMENSION
  5
308
330
2
100
AcDbEntity
  8
SUNPO
100
AcDbDimension
  2
*D5
 10
22.12220209543166
 20
1.919034654512243
 30
0.0
 11
20.37220209543166
 21
17.16903465451224
 31
0.0
 70
    33
  1
610
 71
     5
 42
30.5
  3
STANDARD
100
AcDbAlignedDimension
 13
14.12220209543166
 23
32.41903465451225
 33
0.0
 14
14.12220209543166
 24
1.919034654512245
 34
0.0
1001
ACAD
1000
DSTYLE
1002
{
1070
    40
1040
1.0
1070
   140
1040
2.5
1070
   147
1040
0.5
1070
   172
1070
     1
1070
   279
1070
     0
1070
   288
1070
     0
1002
}
  0
TEXT
  5
315
330
2
100
AcDbEntity
  8
TOUROKU
100
AcDbText
 10
18.90343905411
 20
50.55601370942335
 30
0.0
 40
2.0
  1
ＴＨ４２ＰＦ１１Ｋ＋ＴＹＳＰ４２Ｐ８Ｋ
 72
     2
 11
63.70343905410999
 21
50.55601370942335
 31
0.0
100
AcDbText
  0
TEXT
  5
317
330
2
100
AcDbEntity
  8
MOJI1
100
AcDbText
 10
-58.79651097881731
 20
-36.44398629057642
 30
0.0
 40
3.0
  1
階調数
100
AcDbText
  0
TEXT
  5
319
330
2
100
AcDbEntity
  8
MOJI1
100
AcDbText
 10
-58.79651097881731
 20
-31.44398629057642
 30
0.0
 40
3.0
  1
コントラスト
100
AcDbText
  0
LINE
  5
31A
330
2
100
AcDbEntity
  8
WAKU
 62
     1
100
AcDbLine
 10
-61.29651097881731
 20
-37.44398629057642
 30
0.0
 11
63.70348902118246
 21
-37.44398629057642
 31
0.0
  0
LINE
  5
31B
330
2
100
AcDbEntity
  8
WAKU
 62
     1
100
AcDbLine
 10
-61.29651097881731
 20
-32.44398629057642
 30
0.0
 11
63.70348902118246
 21
-32.44398629057642
 31
0.0
  0
TEXT
  5
31C
330
2
100
AcDbEntity
  8
MOJI1
100
AcDbText
 10
-58.79651097881731
 20
-11.44398629057642
 30
0.0
 40
3.0
  1
電  源
100
AcDbText
  0
TEXT
  5
31D
330
2
100
AcDbEntity
  8
MOJI1
100
AcDbText
 10
-58.79651097881731
 20
-16.44398629057642
 30
0.0
 40
3.0
  1
消費電力
100
AcDbText
  0
TEXT
  5
31E
330
2
100
AcDbEntity
  8
MOJI1
100
AcDbText
 10
-58.79651097881731
 20
-21.44398629057642
 30
0.0
 40
3.0
  1
画面サイズ
100
AcDbText
  0
TEXT
  5
31F
330
2
100
AcDbEntity
  8
MOJI1
100
AcDbText
 10
-19.79651097881731
 20
-16.44398629057642
 30
0.0
 40
3.0
  1
５０５Ｗ
100
AcDbText
  0
TEXT
  5
320
330
2
100
AcDbEntity
  8
MOJI1
100
AcDbText
 10
-19.79651097881731
 20
-21.44398629057642
 30
0.0
 40
3.0
  1
４２Ｖ型（１６：９）
100
AcDbText
  0
TEXT
  5
321
330
2
100
AcDbEntity
  8
MOJI1
100
AcDbText
 10
-19.79651097881731
 20
-11.44398629057642
 30
0.0
 40
3.0
  1
ＡＣ１００Ｖ±１０％　５０Ｈｚ／６０Ｈｚ
100
AcDbText
  0
TEXT
  5
322
330
2
100
AcDbEntity
  8
MOJI1
100
AcDbText
 10
-58.79651097881731
 20
-46.44398629057642
 30
0.0
 40
3.0
  1
接続端子
100
AcDbText
  0
TEXT
  5
323
330
2
100
AcDbEntity
  8
MOJI1
100
AcDbText
 10
-58.79651097881731
 20
-41.44398629057642
 30
0.0
 40
3.0
  1
音声最大出力
100
AcDbText
  0
TEXT
  5
324
330
2
100
AcDbEntity
  8
MOJI1
100
AcDbText
 10
-19.79651097881731
 20
-41.44398629057642
 30
0.0
 40
3.0
  1
１６Ｗ（８Ｗ＋８Ｗ）
100
AcDbText
  0
TEXT
  5
325
330
2
100
AcDbEntity
  8
MOJI1
100
AcDbText
 10
-19.79651097881731
 20
-46.44398629057642
 30
0.0
 40
3.0
  1
ＤＶＩ－Ｄ／コンポーネントビデオ／ＰＣ
100
AcDbText
  0
TEXT
  5
326
330
2
100
AcDbEntity
  8
MOJI1
100
AcDbText
 10
-19.79651097881731
 20
-26.44398629057642
 30
0.0
 40
3.0
  1
水平１９２０×垂直１０８０　画素
100
AcDbText
  0
LINE
  5
327
330
2
100
AcDbEntity
  8
WAKU
 62
     4
100
AcDbLine
 10
-21.29651097881754
 20
-7.443986290576418
 30
0.0
 11
-21.29651097881754
 21
-52.44398629057641
 31
0.0
  0
TEXT
  5
328
330
2
100
AcDbEntity
  8
MOJI1
100
AcDbText
 10
-58.79651097881731
 20
-26.44398629057642
 30
0.0
 40
3.0
  1
画素数
100
AcDbText
  0
LINE
  5
329
330
2
100
AcDbEntity
  8
WAKU
 62
     4
100
AcDbLine
 10
63.70348902118246
 20
-7.443986290576418
 30
0.0
 11
63.70348902118246
 21
-52.44398629057641
 31
0.0
  0
LINE
  5
32A
330
2
100
AcDbEntity
  8
WAKU
 62
     4
100
AcDbLine
 10
-61.29651097881754
 20
-7.443986290576418
 30
0.0
 11
-61.29651097881731
 21
-52.44398629057641
 31
0.0
  0
LINE
  5
32B
330
2
100
AcDbEntity
  8
WAKU
 62
     4
100
AcDbLine
 10
63.70348902118246
 20
-52.44398629057641
 30
0.0
 11
-61.29651097881731
 21
-52.44398629057641
 31
0.0
  0
LINE
  5
32C
330
2
100
AcDbEntity
  8
WAKU
 62
     1
100
AcDbLine
 10
-61.29651097881731
 20
-47.44398629057641
 30
0.0
 11
63.70348902118246
 21
-47.44398629057641
 31
0.0
  0
LINE
  5
32D
330
2
100
AcDbEntity
  8
WAKU
 62
     1
100
AcDbLine
 10
-61.29651097881731
 20
-42.44398629057641
 30
0.0
 11
63.70348902118246
 21
-42.44398629057641
 31
0.0
  0
LINE
  5
32E
330
2
100
AcDbEntity
  8
WAKU
 62
     1
100
AcDbLine
 10
-61.29651097881731
 20
-22.44398629057642
 30
0.0
 11
63.70348902118246
 21
-22.44398629057642
 31
0.0
  0
LINE
  5
32F
330
2
100
AcDbEntity
  8
WAKU
 62
     1
100
AcDbLine
 10
-61.29651097881731
 20
-12.44398629057642
 30
0.0
 11
63.70348902118246
 21
-12.44398629057642
 31
0.0
  0
LINE
  5
330
330
2
100
AcDbEntity
  8
WAKU
 62
     4
100
AcDbLine
 10
-61.29651097881731
 20
-7.443986290576418
 30
0.0
 11
63.70348902118246
 21
-7.443986290576418
 31
0.0
  0
LINE
  5
331
330
2
100
AcDbEntity
  8
WAKU
 62
     1
100
AcDbLine
 10
-61.29651097881731
 20
-27.44398629057642
 30
0.0
 11
63.70348902118246
 21
-27.44398629057642
 31
0.0
  0
LINE
  5
332
330
2
100
AcDbEntity
  8
WAKU
 62
     1
100
AcDbLine
 10
-61.29651097881731
 20
-17.44398629057642
 30
0.0
 11
63.70348902118246
 21
-17.44398629057642
 31
0.0
  0
TEXT
  5
333
330
2
100
AcDbEntity
  8
MOJI1
100
AcDbText
 10
-19.79651097881731
 20
-36.44398629057642
 30
0.0
 40
3.0
  1
５１２０階調（相当）
100
AcDbText
  0
TEXT
  5
334
330
2
100
AcDbEntity
  8
MOJI1
100
AcDbText
 10
-19.79651097881731
 20
-31.44398629057642
 30
0.0
 40
3.0
  1
３００００：１
100
AcDbText
  0
TEXT
  5
335
330
2
100
AcDbEntity
  8
MOJI1
100
AcDbText
 10
-19.79651097881731
 20
-51.44398629057642
 30
0.0
 40
3.0
  1
外部スピーカ／シリアル
100
AcDbText
  0
LINE
  5
336
330
2
100
AcDbEntity
  8
GAIKEI
  6
Continuous
 62
     1
100
AcDbLine
 10
-42.0209095577321
 20
17.16903465451224
 30
0.0
 11
-42.0209095577321
 21
2.225160404512223
 31
0.0
  0
LINE
  5
337
330
2
100
AcDbEntity
  8
GAIKEI
  6
Continuous
 62
     1
100
AcDbLine
 10
-42.0209095577321
 20
17.16903465451224
 30
0.0
 11
-42.0209095577321
 21
32.11290890451221
 31
0.0
  0
TEXT
  5
338
330
2
100
AcDbEntity
  8
MOJI1
100
AcDbText
 10
-34.29651097881754
 20
56.55601370942358
 30
0.0
 40
4.0
  1
ハイビジョンプラズマディスプレイスピーカ付
 41
0.95
100
AcDbText
  0
ENDSEC
  0
SECTION
  2
OBJECTS
  0
DICTIONARY
  5
7
330
0
100
AcDbDictionary
281
     1
  3
ACAD_COLOR
350
2C
  3
ACAD_GROUP
350
28
  3
ACAD_LAYOUT
350
B
  3
ACAD_MATERIAL
350
2B
  3
ACAD_MLINESTYLE
350
29
  3
ACAD_PLOTSETTINGS
350
2A
  3
ACAD_PLOTSTYLENAME
350
6
  3
ACDBHEADERROUNDTRIPXREC
350
383
  3
AcDbVariableDictionary
350
37E
  0
DICTIONARY
  5
11
330
10
100
AcDbDictionary
280
     1
281
     1
  3
ACAD_LAYERSTATES
360
12
  0
DICTIONARY
  5
2C
102
{ACAD_REACTORS
330
7
102
}
330
7
100
AcDbDictionary
281
     1
  0
DICTIONARY
  5
28
102
{ACAD_REACTORS
330
7
102
}
330
7
100
AcDbDictionary
281
     1
  0
DICTIONARY
  5
B
102
{ACAD_REACTORS
330
7
102
}
330
7
100
AcDbDictionary
281
     1
  3
Model
350
A
  3
レイアウト1
350
F
  0
DICTIONARY
  5
2B
102
{ACAD_REACTORS
330
7
102
}
330
7
100
AcDbDictionary
281
     1
  0
DICTIONARY
  5
29
102
{ACAD_REACTORS
330
7
102
}
330
7
100
AcDbDictionary
281
     1
  3
Standard
350
2E
  0
DICTIONARY
  5
2A
102
{ACAD_REACTORS
330
7
102
}
330
7
100
AcDbDictionary
281
     1
  0
ACDBDICTIONARYWDFLT
  5
6
102
{ACAD_REACTORS
330
7
102
}
330
7
100
AcDbDictionary
281
     1
  3
Normal
350
5
100
AcDbDictionaryWithDefault
340
5
  0
DICTIONARY
  5
383
102
{ACAD_REACTORS
330
7
102
}
330
7
100
AcDbDictionary
281
     1
  3
COLORDICT
350
385
  3
MATERIALDICT
350
384
  0
DICTIONARY
  5
37E
102
{ACAD_REACTORS
330
7
102
}
330
7
100
AcDbDictionary
281
     1
  3
DIMASSOC
350
380
  3
HIDETEXT
350
37F
  3
PROJECTNAME
350
381
  0
DICTIONARY
  5
12
102
{ACAD_REACTORS
330
11
102
}
330
11
100
AcDbDictionary
281
     1
  0
LAYOUT
  5
A
102
{ACAD_XDICTIONARY
360
386
102
}
102
{ACAD_REACTORS
330
B
102
}
330
B
100
AcDbPlotSettings
  1

  2
Ａ４－縦3FRIM01.pc3
  4
A4
  6

 40
5.873749732971191
 41
5.873747825622558
 42
5.873748779296875
 43
5.873748779296875
 44
209.9733276367187
 45
296.9259948730469
 46
5.429999999999999
 47
0.0
 48
6.882095232559095
 49
141.0756786076379
140
239.450961859417
141
347.3703312460464
142
1.0
143
1.382515366965649
 70
 11956
 72
     1
 73
     0
 74
     1
  7
tmsacad.ctb
 75
     0
147
0.7233192656619828
148
0.0256332569354072
149
0.0240599051811614
100
AcDbLayout
  1
Model
 70
     1
 71
     0
 10
0.0
 20
0.0
 11
12.0
 21
9.0
 12
0.0
 22
0.0
 32
0.0
 14
0.0
 24
0.0
 34
0.0
 15
0.0
 25
0.0
 35
0.0
146
0.0
 13
0.0
 23
0.0
 33
0.0
 16
1.0
 26
0.0
 36
0.0
 17
0.0
 27
1.0
 37
0.0
 76
     0
330
2
  0
LAYOUT
  5
F
102
{ACAD_XDICTIONARY
360
388
102
}
102
{ACAD_REACTORS
330
B
102
}
330
B
100
AcDbPlotSettings
  1

  2
None
  4

  6

 40
0.0
 41
0.0
 42
0.0
 43
0.0
 44
0.0
 45
0.0
 46
0.0
 47
0.0
 48
0.0
 49
0.0
140
0.0
141
0.0
142
1.0
143
1.0
 70
   688
 72
     0
 73
     0
 74
     5
  7
tmsacad.ctb
 75
    16
147
1.0
148
0.0
149
0.0
100
AcDbLayout
  1
レイアウト1
 70
     1
 71
     1
 10
0.0
 20
0.0
 11
12.0
 21
9.0
 12
0.0
 22
0.0
 32
0.0
 14
0.0
 24
0.0
 34
0.0
 15
0.0
 25
0.0
 35
0.0
146
0.0
 13
0.0
 23
0.0
 33
0.0
 16
1.0
 26
0.0
 36
0.0
 17
0.0
 27
1.0
 37
0.0
 76
     0
330
C
  0
MLINESTYLE
  5
2E
102
{ACAD_REACTORS
330
29
102
}
330
29
100
AcDbMlineStyle
  2
STANDARD
 70
     0
  3

 62
   256
 51
90.0
 52
90.0
 71
     2
 49
0.5
 62
   256
  6
BYLAYER
 49
-0.5
 62
   256
  6
BYLAYER
  0
ACDBPLACEHOLDER
  5
5
102
{ACAD_REACTORS
330
6
102
}
330
6
  0
XRECORD
  5
385
102
{ACAD_REACTORS
330
383
102
}
330
383
100
AcDbXrecord
280
     1
340
2C
  0
XRECORD
  5
384
102
{ACAD_REACTORS
330
383
102
}
330
383
100
AcDbXrecord
280
     1
340
2B
  0
DICTIONARYVAR
  5
380
102
{ACAD_REACTORS
330
37E
102
}
330
37E
100
DictionaryVariables
280
     0
  1
1
  0
DICTIONARYVAR
  5
37F
102
{ACAD_REACTORS
330
37E
102
}
330
37E
100
DictionaryVariables
280
     0
  1
1
  0
DICTIONARYVAR
  5
381
102
{ACAD_REACTORS
330
37E
102
}
330
37E
100
DictionaryVariables
280
     0
  1

  0
DICTIONARY
  5
386
330
A
100
AcDbDictionary
280
     1
281
     1
  3
ACAD_XREC_ROUNDTRIP
360
387
  0
DICTIONARY
  5
388
330
F
100
AcDbDictionary
280
     1
281
     1
  3
ACAD_XREC_ROUNDTRIP
360
389
  0
XRECORD
  5
387
102
{ACAD_REACTORS
330
386
102
}
330
386
100
AcDbXrecord
280
     1
102
SHADEPLOT
 70
     0
102
SHADEPLOTRESLEVEL
 70
     2
102
SHADEPLOTCUSTOMDPI
 70
   300
  0
XRECORD
  5
389
102
{ACAD_REACTORS
330
388
102
}
330
388
100
AcDbXrecord
280
     1
102
SHADEPLOT
 70
     0
102
SHADEPLOTRESLEVEL
 70
     2
102
SHADEPLOTCUSTOMDPI
 70
   300
  0
ENDSEC
  0
EOF
