  0
SECTION
  2
HEADER
  9
$ACADVER
  1
AC1015
  9
$ACADMAINTVER
 70
    20
  9
$DWGCODEPAGE
  3
ANSI_932
  9
$INSBASE
 10
129.499999944041
 20
120.5008351249346
 30
0.0
  9
$EXTMIN
 10
-63.4909048577432
 20
-66.85400329257129
 30
-0.0015258207003583
  9
$EXTMAX
 10
61.5426641348082
 20
46.14793435943773
 30
0.0000000349246037
  9
$LIMMIN
 10
0.0
 20
0.0
  9
$LIMMAX
 10
420.0
 20
297.0
  9
$ORTHOMODE
 70
     1
  9
$REGENMODE
 70
     0
  9
$FILLMODE
 70
     1
  9
$QTEXTMODE
 70
     0
  9
$MIRRTEXT
 70
     0
  9
$LTSCALE
 40
1.0
  9
$ATTMODE
 70
     1
  9
$TEXTSIZE
 40
2.5
  9
$TRACEWID
 40
1.0
  9
$TEXTSTYLE
  7
Standard
  9
$CLAYER
  8
SUNPO
  9
$CELTYPE
  6
ByLayer
  9
$CECOLOR
 62
   256
  9
$CELTSCALE
 40
1.0
  9
$DISPSILH
 70
     0
  9
$DIMSCALE
 40
1.0
  9
$DIMASZ
 40
2.0
  9
$DIMEXO
 40
2.0
  9
$DIMDLI
 40
8.0
  9
$DIMRND
 40
0.0
  9
$DIMDLE
 40
0.0
  9
$DIMEXE
 40
2.0
  9
$DIMTP
 40
0.0
  9
$DIMTM
 40
0.0
  9
$DIMTXT
 40
2.5
  9
$DIMCEN
 40
0.0
  9
$DIMTSZ
 40
0.0
  9
$DIMTOL
 70
     0
  9
$DIMLIM
 70
     0
  9
$DIMTIH
 70
     0
  9
$DIMTOH
 70
     0
  9
$DIMSE1
 70
     0
  9
$DIMSE2
 70
     0
  9
$DIMTAD
 70
     3
  9
$DIMZIN
 70
     0
  9
$DIMBLK
  1

  9
$DIMASO
 70
     1
  9
$DIMSHO
 70
     1
  9
$DIMPOST
  1

  9
$DIMAPOST
  1

  9
$DIMALT
 70
     0
  9
$DIMALTD
 70
     2
  9
$DIMALTF
 40
25.4
  9
$DIMLFAC
 40
1.0
  9
$DIMTOFL
 70
     1
  9
$DIMTVP
 40
0.0
  9
$DIMTIX
 70
     0
  9
$DIMSOXD
 70
     0
  9
$DIMSAH
 70
     1
  9
$DIMBLK1
  1
OPEN30
  9
$DIMBLK2
  1
OPEN30
  9
$DIMSTYLE
  2
STANDARD
  9
$DIMCLRD
 70
     0
  9
$DIMCLRE
 70
     0
  9
$DIMCLRT
 70
     0
  9
$DIMTFAC
 40
1.0
  9
$DIMGAP
 40
0.5
  9
$DIMJUST
 70
     0
  9
$DIMSD1
 70
     0
  9
$DIMSD2
 70
     0
  9
$DIMTOLJ
 70
     1
  9
$DIMTZIN
 70
     0
  9
$DIMALTZ
 70
     0
  9
$DIMALTTZ
 70
     0
  9
$DIMUPT
 70
     0
  9
$DIMDEC
 70
     4
  9
$DIMTDEC
 70
     4
  9
$DIMALTU
 70
     2
  9
$DIMALTTD
 70
     2
  9
$DIMTXSTY
  7
Standard
  9
$DIMAUNIT
 70
     0
  9
$DIMADEC
 70
     0
  9
$DIMALTRND
 40
0.0
  9
$DIMAZIN
 70
     0
  9
$DIMDSEP
 70
    46
  9
$DIMATFIT
 70
     3
  9
$DIMFRAC
 70
     0
  9
$DIMLDRBLK
  1
OPEN30
  9
$DIMLUNIT
 70
     2
  9
$DIMLWD
 70
    -2
  9
$DIMLWE
 70
    -2
  9
$DIMTMOVE
 70
     0
  9
$LUNITS
 70
     2
  9
$LUPREC
 70
     4
  9
$SKETCHINC
 40
1.0
  9
$FILLETRAD
 40
0.0
  9
$AUNITS
 70
     0
  9
$AUPREC
 70
     0
  9
$MENU
  1
.
  9
$ELEVATION
 40
0.0
  9
$PELEVATION
 40
0.0
  9
$THICKNESS
 40
0.0
  9
$LIMCHECK
 70
     0
  9
$CHAMFERA
 40
0.0
  9
$CHAMFERB
 40
0.0
  9
$CHAMFERC
 40
0.0
  9
$CHAMFERD
 40
0.0
  9
$SKPOLY
 70
     0
  9
$TDCREATE
 40
2454349.434269746
  9
$TDUCREATE
 40
2454349.059269746
  9
$TDUPDATE
 40
2455292.626790821
  9
$TDUUPDATE
 40
2455292.251790822
  9
$TDINDWG
 40
0.4125840046
  9
$TDUSRTIMER
 40
0.4125840046
  9
$USRTIMER
 70
     1
  9
$ANGBASE
 50
0.0
  9
$ANGDIR
 70
     0
  9
$PDMODE
 70
     0
  9
$PDSIZE
 40
0.0
  9
$PLINEWID
 40
0.0
  9
$SPLFRAME
 70
     0
  9
$SPLINETYPE
 70
     6
  9
$SPLINESEGS
 70
     8
  9
$HANDSEED
  5
30B
  9
$SURFTAB1
 70
     6
  9
$SURFTAB2
 70
     6
  9
$SURFTYPE
 70
     6
  9
$SURFU
 70
     6
  9
$SURFV
 70
     6
  9
$UCSBASE
  2

  9
$UCSNAME
  2

  9
$UCSORG
 10
0.0
 20
0.0
 30
0.0
  9
$UCSXDIR
 10
1.0
 20
0.0
 30
0.0
  9
$UCSYDIR
 10
0.0
 20
1.0
 30
0.0
  9
$UCSORTHOREF
  2

  9
$UCSORTHOVIEW
 70
     0
  9
$UCSORGTOP
 10
0.0
 20
0.0
 30
0.0
  9
$UCSORGBOTTOM
 10
0.0
 20
0.0
 30
0.0
  9
$UCSORGLEFT
 10
0.0
 20
0.0
 30
0.0
  9
$UCSORGRIGHT
 10
0.0
 20
0.0
 30
0.0
  9
$UCSORGFRONT
 10
0.0
 20
0.0
 30
0.0
  9
$UCSORGBACK
 10
0.0
 20
0.0
 30
0.0
  9
$PUCSBASE
  2

  9
$PUCSNAME
  2

  9
$PUCSORG
 10
0.0
 20
0.0
 30
0.0
  9
$PUCSXDIR
 10
1.0
 20
0.0
 30
0.0
  9
$PUCSYDIR
 10
0.0
 20
1.0
 30
0.0
  9
$PUCSORTHOREF
  2

  9
$PUCSORTHOVIEW
 70
     0
  9
$PUCSORGTOP
 10
0.0
 20
0.0
 30
0.0
  9
$PUCSORGBOTTOM
 10
0.0
 20
0.0
 30
0.0
  9
$PUCSORGLEFT
 10
0.0
 20
0.0
 30
0.0
  9
$PUCSORGRIGHT
 10
0.0
 20
0.0
 30
0.0
  9
$PUCSORGFRONT
 10
0.0
 20
0.0
 30
0.0
  9
$PUCSORGBACK
 10
0.0
 20
0.0
 30
0.0
  9
$USERI1
 70
     0
  9
$USERI2
 70
     0
  9
$USERI3
 70
     0
  9
$USERI4
 70
     0
  9
$USERI5
 70
     0
  9
$USERR1
 40
0.0
  9
$USERR2
 40
0.0
  9
$USERR3
 40
0.0
  9
$USERR4
 40
0.0
  9
$USERR5
 40
0.0
  9
$WORLDVIEW
 70
     1
  9
$SHADEDGE
 70
     3
  9
$SHADEDIF
 70
    70
  9
$TILEMODE
 70
     1
  9
$MAXACTVP
 70
    64
  9
$PINSBASE
 10
0.0
 20
0.0
 30
0.0
  9
$PLIMCHECK
 70
     0
  9
$PEXTMIN
 10
0.0
 20
0.0
 30
0.0
  9
$PEXTMAX
 10
0.0
 20
0.0
 30
0.0
  9
$PLIMMIN
 10
0.0
 20
0.0
  9
$PLIMMAX
 10
12.0
 20
9.0
  9
$UNITMODE
 70
     0
  9
$VISRETAIN
 70
     1
  9
$PLINEGEN
 70
     0
  9
$PSLTSCALE
 70
     1
  9
$TREEDEPTH
 70
  3020
  9
$CMLSTYLE
  2
Standard
  9
$CMLJUST
 70
     0
  9
$CMLSCALE
 40
20.0
  9
$PROXYGRAPHICS
 70
     1
  9
$MEASUREMENT
 70
     1
  9
$CELWEIGHT
370
    -1
  9
$ENDCAPS
280
     0
  9
$JOINSTYLE
280
     0
  9
$LWDISPLAY
290
     0
  9
$INSUNITS
 70
     4
  9
$HYPERLINKBASE
  1

  9
$STYLESHEET
  1

  9
$XEDIT
290
     1
  9
$CEPSNTYPE
380
     0
  9
$PSTYLEMODE
290
     1
  9
$FINGERPRINTGUID
  2
{FDEAD578-A652-11D2-9A35-0060089B3A3F}
  9
$VERSIONGUID
  2
{93C75343-46BE-42CC-BD59-2DADF53D4185}
  9
$EXTNAMES
290
     1
  9
$PSVPSCALE
 40
0.0
  9
$OLESTARTUP
290
     0
  0
ENDSEC
  0
SECTION
  2
CLASSES
  0
CLASS
  1
ACDBDICTIONARYWDFLT
  2
AcDbDictionaryWithDefault
  3
ObjectDBX Classes
 90
        0
280
     0
281
     0
  0
CLASS
  1
ACDBPLACEHOLDER
  2
AcDbPlaceHolder
  3
ObjectDBX Classes
 90
        0
280
     0
281
     0
  0
CLASS
  1
LAYOUT
  2
AcDbLayout
  3
ObjectDBX Classes
 90
        0
280
     0
281
     0
  0
CLASS
  1
DICTIONARYVAR
  2
AcDbDictionaryVar
  3
ObjectDBX Classes
 90
        0
280
     0
281
     0
  0
CLASS
  1
SORTENTSTABLE
  2
AcDbSortentsTable
  3
ObjectDBX Classes
 90
    32768
280
     0
281
     0
  0
ENDSEC
  0
SECTION
  2
TABLES
  0
TABLE
  2
VPORT
  5
1C
330
0
100
AcDbSymbolTable
 70
     3
  0
VPORT
  5
303
330
1C
100
AcDbSymbolTableRecord
100
AcDbViewportTableRecord
  2
*Active
 70
     0
 10
0.0
 20
0.0
 11
1.0
 21
1.0
 12
-0.9741203614675058
 22
-10.35303446656678
 13
0.0
 23
0.0
 14
10.0
 24
10.0
 15
10.0
 25
10.0
 16
0.0
 26
0.0
 36
1.0
 17
0.0
 27
0.0
 37
0.0
 40
113.8656467296039
 41
1.392857142857142
 42
50.0
 43
0.0
 44
0.0
 50
0.0
 51
0.0
 71
     0
 72
  1000
 73
     1
 74
     2
 75
     0
 76
     0
 77
     0
 78
     0
281
     0
 65
     1
110
0.0
120
0.0
130
0.0
111
1.0
121
0.0
131
0.0
112
0.0
122
1.0
132
0.0
 79
     0
146
0.0
  0
ENDTAB
  0
TABLE
  2
LTYPE
  5
17
330
0
100
AcDbSymbolTable
 70
     1
  0
LTYPE
  5
18
330
17
100
AcDbSymbolTableRecord
100
AcDbLinetypeTableRecord
  2
ByBlock
 70
     0
  3

 72
    65
 73
     0
 40
0.0
  0
LTYPE
  5
19
330
17
100
AcDbSymbolTableRecord
100
AcDbLinetypeTableRecord
  2
ByLayer
 70
     0
  3

 72
    65
 73
     0
 40
0.0
  0
LTYPE
  5
8
330
17
100
AcDbSymbolTableRecord
100
AcDbLinetypeTableRecord
  2
Continuous
 70
     0
  3
Solid line
 72
    65
 73
     0
 40
0.0
  0
ENDTAB
  0
TABLE
  2
LAYER
  5
10
102
{ACAD_XDICTIONARY
360
11
102
}
330
0
100
AcDbSymbolTable
 70
     7
  0
LAYER
  5
4
330
10
100
AcDbSymbolTableRecord
100
AcDbLayerTableRecord
  2
0
 70
     0
 62
     7
  6
Continuous
370
    -3
390
5
  0
LAYER
  5
53
330
10
100
AcDbSymbolTableRecord
100
AcDbLayerTableRecord
  2
WAKU
 70
     0
 62
     4
  6
Continuous
370
    -3
390
5
  0
LAYER
  5
31
330
10
100
AcDbSymbolTableRecord
100
AcDbLayerTableRecord
  2
MOJI1
 70
     0
 62
     2
  6
Continuous
370
    -3
390
5
  0
LAYER
  5
4E
330
10
100
AcDbSymbolTableRecord
100
AcDbLayerTableRecord
  2
TOUROKU
 70
     0
 62
     1
  6
Continuous
370
    -3
390
5
  0
LAYER
  5
3C
330
10
100
AcDbSymbolTableRecord
100
AcDbLayerTableRecord
  2
DEFPOINTS
 70
     0
 62
     7
  6
Continuous
290
     0
370
    -3
390
5
  0
LAYER
  5
6F
330
10
100
AcDbSymbolTableRecord
100
AcDbLayerTableRecord
  2
GAIKEI
 70
     0
 62
     7
  6
Continuous
370
    -3
390
5
  0
LAYER
  5
2E
330
10
100
AcDbSymbolTableRecord
100
AcDbLayerTableRecord
  2
SUNPO
 70
     0
 62
     3
  6
Continuous
370
    -3
390
5
  0
ENDTAB
  0
TABLE
  2
STYLE
  5
14
330
0
100
AcDbSymbolTable
 70
     1
  0
STYLE
  5
15
330
14
100
AcDbSymbolTableRecord
100
AcDbTextStyleTableRecord
  2
Standard
 70
     0
 40
0.0
 41
1.0
 50
0.0
 71
     0
 42
2.5
  3
MONOTXT.shx
  4
BIGFONT.shx
  0
ENDTAB
  0
TABLE
  2
VIEW
  5
1A
330
0
100
AcDbSymbolTable
 70
     0
  0
ENDTAB
  0
TABLE
  2
UCS
  5
1B
330
0
100
AcDbSymbolTable
 70
     0
  0
ENDTAB
  0
TABLE
  2
APPID
  5
1E
330
0
100
AcDbSymbolTable
 70
     1
  0
APPID
  5
1F
330
1E
100
AcDbSymbolTableRecord
100
AcDbRegAppTableRecord
  2
ACAD
 70
     0
  0
ENDTAB
  0
TABLE
  2
DIMSTYLE
  5
20
330
0
100
AcDbSymbolTable
 70
     1
100
AcDbDimStyleTable
 71
     1
340
21
  0
DIMSTYLE
105
21
102
{ACAD_REACTORS
330
2AB
330
16B
330
40
330
32
102
}
330
20
100
AcDbSymbolTableRecord
100
AcDbDimStyleTableRecord
  2
STANDARD
 70
     0
 40
0.0
 41
2.0
 42
2.0
 43
8.0
 44
2.0
 73
     0
 74
     0
 77
     3
140
3.0
141
0.0
173
     1
279
     2
288
     1
340
15
341
22
343
22
344
22
  0
ENDTAB
  0
TABLE
  2
BLOCK_RECORD
  5
1
330
0
100
AcDbSymbolTable
 70
     9
  0
BLOCK_RECORD
  5
2
330
1
100
AcDbSymbolTableRecord
100
AcDbBlockTableRecord
  2
*Model_Space
340
A
  0
BLOCK_RECORD
  5
C
330
1
100
AcDbSymbolTableRecord
100
AcDbBlockTableRecord
  2
*Paper_Space
340
F
  0
BLOCK_RECORD
  5
22
330
1
100
AcDbSymbolTableRecord
100
AcDbBlockTableRecord
  2
_OPEN30
340
0
102
{BLKREFS
331
38
331
39
331
46
331
47
331
2B3
331
2B4
331
171
331
172
331
2D3
331
2D4
331
2DF
331
2E0
331
2EB
331
2EC
331
2F7
331
2F8
102
}
  0
BLOCK_RECORD
  5
2AC
330
1
100
AcDbSymbolTableRecord
100
AcDbBlockTableRecord
  2
*D1
340
0
  0
BLOCK_RECORD
  5
16C
330
1
100
AcDbSymbolTableRecord
100
AcDbBlockTableRecord
  2
*D2
340
0
  0
BLOCK_RECORD
  5
41
330
1
100
AcDbSymbolTableRecord
100
AcDbBlockTableRecord
  2
*D3
340
0
  0
BLOCK_RECORD
  5
33
330
1
100
AcDbSymbolTableRecord
100
AcDbBlockTableRecord
  2
*D4
340
0
  0
BLOCK_RECORD
  5
2CD
330
1
100
AcDbSymbolTableRecord
100
AcDbBlockTableRecord
  2
*D5
340
0
  0
BLOCK_RECORD
  5
2DB
330
1
100
AcDbSymbolTableRecord
100
AcDbBlockTableRecord
  2
*D6
340
0
  0
BLOCK_RECORD
  5
2E7
330
1
100
AcDbSymbolTableRecord
100
AcDbBlockTableRecord
  2
*D7
340
0
  0
BLOCK_RECORD
  5
2F3
330
1
100
AcDbSymbolTableRecord
100
AcDbBlockTableRecord
  2
*D8
340
0
  0
ENDTAB
  0
ENDSEC
  0
SECTION
  2
BLOCKS
  0
BLOCK
  5
3
330
2
100
AcDbEntity
  8
0
100
AcDbBlockBegin
  2
*Model_Space
 70
     0
 10
0.0
 20
0.0
 30
0.0
  3
*Model_Space
  1

  0
ENDBLK
  5
9
330
2
100
AcDbEntity
  8
0
100
AcDbBlockEnd
  0
BLOCK
  5
D
330
C
100
AcDbEntity
 67
     1
  8
0
100
AcDbBlockBegin
  2
*Paper_Space
 70
     0
 10
0.0
 20
0.0
 30
0.0
  3
*Paper_Space
  1

  0
ENDBLK
  5
E
330
C
100
AcDbEntity
 67
     1
  8
0
100
AcDbBlockEnd
  0
BLOCK
  5
23
330
22
100
AcDbEntity
  8
0
100
AcDbBlockBegin
  2
_OPEN30
 70
     0
 10
0.0
 20
0.0
 30
0.0
  3
_OPEN30
  1

  0
LINE
  5
24
330
22
100
AcDbEntity
  8
0
  6
ByBlock
 62
     0
100
AcDbLine
 10
-1.0
 20
0.26794919
 30
0.0
 11
0.0
 21
0.0
 31
0.0
  0
LINE
  5
25
330
22
100
AcDbEntity
  8
0
  6
ByBlock
 62
     0
100
AcDbLine
 10
0.0
 20
0.0
 30
0.0
 11
-1.0
 21
-0.26794919
 31
0.0
  0
LINE
  5
26
330
22
100
AcDbEntity
  8
0
  6
ByBlock
 62
     0
100
AcDbLine
 10
0.0
 20
0.0
 30
0.0
 11
-1.0
 21
0.0
 31
0.0
  0
ENDBLK
  5
27
330
22
100
AcDbEntity
  8
0
100
AcDbBlockEnd
  0
BLOCK
  5
2AD
330
2AC
100
AcDbEntity
  8
0
100
AcDbBlockBegin
  2
*D1
 70
     1
 10
0.0
 20
0.0
 30
0.0
  3
*D1
  1

  0
LINE
  5
2AE
330
2AC
100
AcDbEntity
  8
SUNPO
 62
     0
370
    -2
100
AcDbLine
 10
230.5293522297889
 20
93.89146376508534
 30
0.0
 11
230.5293522297889
 21
101.8914413856672
 31
0.0
  0
LINE
  5
2AF
330
2AC
100
AcDbEntity
  8
SUNPO
 62
     0
370
    -2
100
AcDbLine
 10
234.9793522297889
 20
93.89146376508534
 30
0.0
 11
234.9793522297889
 21
101.8914413856672
 31
0.0
  0
LINE
  5
2B0
330
2AC
100
AcDbEntity
  8
SUNPO
 62
     0
370
    -2
100
AcDbLine
 10
228.5293522297889
 20
99.89144138566725
 30
0.0
 11
226.5293522297889
 21
99.89144138566725
 31
0.0
  0
LINE
  5
2B1
330
2AC
100
AcDbEntity
  8
SUNPO
 62
     0
370
    -2
100
AcDbLine
 10
236.9793522297889
 20
99.89144138566725
 30
0.0
 11
244.1460188964556
 21
99.89144138566725
 31
0.0
  0
LINE
  5
2B2
330
2AC
100
AcDbEntity
  8
SUNPO
 62
     0
370
    -2
100
AcDbLine
 10
230.5293522297889
 20
99.89144138566725
 30
0.0
 11
234.9793522297889
 21
99.89144138566725
 31
0.0
  0
INSERT
  5
2B3
330
2AC
100
AcDbEntity
  8
SUNPO
 62
     0
370
    -2
100
AcDbBlockReference
  2
_OPEN30
 10
230.5293522297889
 20
99.89144138566725
 30
0.0
 41
2.0
 42
2.0
 43
2.0
  0
INSERT
  5
2B4
330
2AC
100
AcDbEntity
  8
SUNPO
 62
     0
370
    -2
100
AcDbBlockReference
  2
_OPEN30
 10
234.9793522297889
 20
99.89144138566725
 30
0.0
 41
2.0
 42
2.0
 43
2.0
 50
180.0
  0
MTEXT
  5
2B5
330
2AC
100
AcDbEntity
  8
SUNPO
 62
     0
100
AcDbMText
 10
241.5626855631222
 20
101.6414413856672
 30
0.0
 40
2.5
 41
0.0
 71
     5
 72
     1
  1
\A1;89
 73
     1
 44
1.0
1001
ACAD
1000
MTEXTBEGIN
1070
    73
1070
     1
1070
    44
1040
1.0
1070
    74
1070
     0
1000
MTEXTEND
  0
POINT
  5
2B6
330
2AC
100
AcDbEntity
  8
DEFPOINTS
 62
     0
100
AcDbPoint
 10
230.5293522297889
 20
91.89146376508535
 30
0.0
  0
POINT
  5
2B7
330
2AC
100
AcDbEntity
  8
DEFPOINTS
 62
     0
100
AcDbPoint
 10
234.9793522297889
 20
91.89146376508535
 30
0.0
  0
POINT
  5
2B8
330
2AC
100
AcDbEntity
  8
DEFPOINTS
 62
     0
100
AcDbPoint
 10
234.9793522297889
 20
99.89144138566725
 30
0.0
  0
ENDBLK
  5
2B9
330
2AC
100
AcDbEntity
  8
0
100
AcDbBlockEnd
  0
BLOCK
  5
16D
330
16C
100
AcDbEntity
  8
0
100
AcDbBlockBegin
  2
*D2
 70
     1
 10
0.0
 20
0.0
 30
0.0
  3
*D2
  1

  0
LINE
  5
16E
330
16C
100
AcDbEntity
  8
SUNPO
 62
     0
370
    -2
100
AcDbLine
 10
212.9235383955429
 20
55.68521770487757
 30
0.0
 11
220.9235383955429
 21
55.68521770487757
 31
0.0
  0
LINE
  5
16F
330
16C
100
AcDbEntity
  8
SUNPO
 62
     0
370
    -2
100
AcDbLine
 10
212.9235383955429
 20
91.88521770487756
 30
0.0
 11
220.9235383955429
 21
91.88521770487756
 31
0.0
  0
LINE
  5
170
330
16C
100
AcDbEntity
  8
SUNPO
 62
     0
370
    -2
100
AcDbLine
 10
218.9235383955429
 20
57.68521770487757
 30
0.0
 11
218.9235383955429
 21
89.88521770487755
 31
0.0
  0
INSERT
  5
171
330
16C
100
AcDbEntity
  8
SUNPO
 62
     0
370
    -2
100
AcDbBlockReference
  2
_OPEN30
 10
218.9235383955429
 20
55.68521770487757
 30
0.0
 41
2.0
 42
2.0
 43
2.0
 50
270.0
  0
INSERT
  5
172
330
16C
100
AcDbEntity
  8
SUNPO
 62
     0
370
    -2
100
AcDbBlockReference
  2
_OPEN30
 10
218.9235383955429
 20
91.88521770487756
 30
0.0
 41
2.0
 42
2.0
 43
2.0
 50
90.0
  0
MTEXT
  5
173
330
16C
100
AcDbEntity
  8
SUNPO
 62
     0
100
AcDbMText
 10
217.1735383955429
 20
73.78521770487759
 30
0.0
 40
2.5
 41
0.0
 71
     5
 72
     1
  1
\A1;724
 11
0.0000000000000001
 21
1.0
 31
0.0
 73
     1
 44
1.0
1001
ACAD
1000
MTEXTBEGIN
1070
    73
1070
     1
1070
    44
1040
1.0
1070
    74
1070
     0
1000
MTEXTEND
  0
POINT
  5
174
330
16C
100
AcDbEntity
  8
DEFPOINTS
 62
     0
100
AcDbPoint
 10
210.9235383955429
 20
55.68521770487757
 30
0.0
  0
POINT
  5
175
330
16C
100
AcDbEntity
  8
DEFPOINTS
 62
     0
100
AcDbPoint
 10
210.9235383955429
 20
91.88521770487756
 30
0.0
  0
POINT
  5
176
330
16C
100
AcDbEntity
  8
DEFPOINTS
 62
     0
100
AcDbPoint
 10
218.9235383955429
 20
91.88521770487756
 30
0.0
  0
ENDBLK
  5
177
330
16C
100
AcDbEntity
  8
0
100
AcDbBlockEnd
  0
BLOCK
  5
42
330
41
100
AcDbEntity
  8
0
100
AcDbBlockBegin
  2
*D3
 70
     1
 10
0.0
 20
0.0
 30
0.0
  3
*D3
  1

  0
LINE
  5
43
330
41
100
AcDbEntity
  8
SUNPO
 62
     0
370
    -2
100
AcDbLine
 10
139.9148326188207
 20
93.87396504921156
 30
0.0
 11
139.9148326188207
 21
106.8849413856671
 31
0.0
  0
LINE
  5
44
330
41
100
AcDbEntity
  8
SUNPO
 62
     0
370
    -2
100
AcDbLine
 10
210.9052406188208
 20
93.86130379151394
 30
0.0
 11
210.9052406188208
 21
106.8849413856671
 31
0.0
  0
LINE
  5
45
330
41
100
AcDbEntity
  8
SUNPO
 62
     0
370
    -2
100
AcDbLine
 10
141.9148326188207
 20
104.8849413856671
 30
0.0
 11
208.9052406188208
 21
104.8849413856671
 31
0.0
  0
INSERT
  5
46
330
41
100
AcDbEntity
  8
SUNPO
 62
     0
370
    -2
100
AcDbBlockReference
  2
_OPEN30
 10
139.9148326188207
 20
104.8849413856671
 30
0.0
 41
2.0
 42
2.0
 43
2.0
 50
180.0
  0
INSERT
  5
47
330
41
100
AcDbEntity
  8
SUNPO
 62
     0
370
    -2
100
AcDbBlockReference
  2
_OPEN30
 10
210.9052406188208
 20
104.8849413856671
 30
0.0
 41
2.0
 42
2.0
 43
2.0
  0
MTEXT
  5
48
330
41
100
AcDbEntity
  8
SUNPO
 62
     0
100
AcDbMText
 10
175.4100366188207
 20
106.6349413856671
 30
0.0
 40
2.5
 41
0.0
 71
     5
 72
     1
  1
\A1;1427
 73
     1
 44
1.0
1001
ACAD
1000
MTEXTBEGIN
1070
    73
1070
     1
1070
    44
1040
1.0
1070
    74
1070
     0
1000
MTEXTEND
  0
POINT
  5
49
330
41
100
AcDbEntity
  8
DEFPOINTS
 62
     0
100
AcDbPoint
 10
139.9148326188207
 20
91.87396504921157
 30
0.0
  0
POINT
  5
4A
330
41
100
AcDbEntity
  8
DEFPOINTS
 62
     0
100
AcDbPoint
 10
210.9052406188208
 20
91.86130379151393
 30
0.0
  0
POINT
  5
4B
330
41
100
AcDbEntity
  8
DEFPOINTS
 62
     0
100
AcDbPoint
 10
210.9052406188208
 20
104.8849413856671
 30
0.0
  0
ENDBLK
  5
4C
330
41
100
AcDbEntity
  8
0
100
AcDbBlockEnd
  0
BLOCK
  5
34
330
33
100
AcDbEntity
  8
0
100
AcDbBlockBegin
  2
*D4
 70
     1
 10
0.0
 20
0.0
 30
0.0
  3
*D4
  1

  0
LINE
  5
35
330
33
100
AcDbEntity
  8
SUNPO
 62
     0
370
    -2
100
AcDbLine
 10
145.1600366188207
 20
93.88493126052622
 30
0.0
 11
145.1600366188207
 21
101.8849413856672
 31
0.0
  0
LINE
  5
36
330
33
100
AcDbEntity
  8
SUNPO
 62
     0
370
    -2
100
AcDbLine
 10
205.6600366188208
 20
93.88493126052622
 30
0.0
 11
205.6600366188208
 21
101.8849413856672
 31
0.0
  0
LINE
  5
37
330
33
100
AcDbEntity
  8
SUNPO
 62
     0
370
    -2
100
AcDbLine
 10
147.1600366188207
 20
99.8849413856672
 30
0.0
 11
203.6600366188208
 21
99.8849413856672
 31
0.0
  0
INSERT
  5
38
330
33
100
AcDbEntity
  8
SUNPO
 62
     0
370
    -2
100
AcDbBlockReference
  2
_OPEN30
 10
145.1600366188207
 20
99.8849413856672
 30
0.0
 41
2.0
 42
2.0
 43
2.0
 50
180.0
  0
INSERT
  5
39
330
33
100
AcDbEntity
  8
SUNPO
 62
     0
370
    -2
100
AcDbBlockReference
  2
_OPEN30
 10
205.6600366188208
 20
99.8849413856672
 30
0.0
 41
2.0
 42
2.0
 43
2.0
  0
MTEXT
  5
3A
330
33
100
AcDbEntity
  8
SUNPO
 62
     0
100
AcDbMText
 10
175.4100366188207
 20
101.6349413856672
 30
0.0
 40
2.5
 41
0.0
 71
     5
 72
     1
  1
\A1;1210
 73
     1
 44
1.0
1001
ACAD
1000
MTEXTBEGIN
1070
    73
1070
     1
1070
    44
1040
1.0
1070
    74
1070
     0
1000
MTEXTEND
  0
POINT
  5
3B
330
33
100
AcDbEntity
  8
DEFPOINTS
 62
     0
100
AcDbPoint
 10
145.1600366188207
 20
91.88493126052623
 30
0.0
  0
POINT
  5
3D
330
33
100
AcDbEntity
  8
DEFPOINTS
 62
     0
100
AcDbPoint
 10
205.6600366188208
 20
91.88493126052623
 30
0.0
  0
POINT
  5
3E
330
33
100
AcDbEntity
  8
DEFPOINTS
 62
     0
100
AcDbPoint
 10
205.6600366188208
 20
99.8849413856672
 30
0.0
  0
ENDBLK
  5
3F
330
33
100
AcDbEntity
  8
0
100
AcDbBlockEnd
  0
BLOCK
  5
2D9
330
2CD
100
AcDbEntity
  8
0
100
AcDbBlockBegin
  2
*D5
 70
     1
 10
0.0
 20
0.0
 30
0.0
  3
*D5
  1

  0
LINE
  5
2CE
330
2CD
100
AcDbEntity
  8
SUNPO
 62
     0
370
    -2
100
AcDbLine
 10
35.56117135918118
 20
21.53727487824864
 30
0.0
 11
35.56117135918118
 21
29.53725249883054
 31
0.0
  0
LINE
  5
2CF
330
2CD
100
AcDbEntity
  8
SUNPO
 62
     0
370
    -2
100
AcDbLine
 10
40.01117135918116
 20
21.53727487824864
 30
0.0
 11
40.01117135918116
 21
29.53725249883054
 31
0.0
  0
LINE
  5
2D0
330
2CD
100
AcDbEntity
  8
SUNPO
 62
     0
370
    -2
100
AcDbLine
 10
33.56117135918117
 20
27.53725249883054
 30
0.0
 11
31.56117135918118
 21
27.53725249883054
 31
0.0
  0
LINE
  5
2D1
330
2CD
100
AcDbEntity
  8
SUNPO
 62
     0
370
    -2
100
AcDbLine
 10
42.01117135918116
 20
27.53725249883054
 30
0.0
 11
49.17783802584782
 21
27.53725249883054
 31
0.0
  0
LINE
  5
2D2
330
2CD
100
AcDbEntity
  8
SUNPO
 62
     0
370
    -2
100
AcDbLine
 10
35.56117135918118
 20
27.53725249883054
 30
0.0
 11
40.01117135918116
 21
27.53725249883054
 31
0.0
  0
INSERT
  5
2D3
330
2CD
100
AcDbEntity
  8
SUNPO
 62
     0
370
    -2
100
AcDbBlockReference
  2
_OPEN30
 10
35.56117135918118
 20
27.53725249883054
 30
0.0
 41
2.0
 42
2.0
 43
2.0
  0
INSERT
  5
2D4
330
2CD
100
AcDbEntity
  8
SUNPO
 62
     0
370
    -2
100
AcDbBlockReference
  2
_OPEN30
 10
40.01117135918116
 20
27.53725249883054
 30
0.0
 41
2.0
 42
2.0
 43
2.0
 50
180.0
  0
MTEXT
  5
2D5
330
2CD
100
AcDbEntity
  8
SUNPO
 62
     0
100
AcDbMText
 10
46.59450469251449
 20
29.28725249883054
 30
0.0
 40
2.5
 41
0.0
 71
     5
 72
     1
  1
\A1;89
 73
     1
 44
1.0
1001
ACAD
1000
MTEXTBEGIN
1070
    73
1070
     1
1070
    44
1040
1.0
1070
    74
1070
     0
1000
MTEXTEND
  0
POINT
  5
2D6
330
2CD
100
AcDbEntity
  8
DEFPOINTS
 62
     0
100
AcDbPoint
 10
35.56117135918118
 20
19.53727487824864
 30
0.0
  0
POINT
  5
2D7
330
2CD
100
AcDbEntity
  8
DEFPOINTS
 62
     0
100
AcDbPoint
 10
40.01117135918116
 20
19.53727487824864
 30
0.0
  0
POINT
  5
2D8
330
2CD
100
AcDbEntity
  8
DEFPOINTS
 62
     0
100
AcDbPoint
 10
40.01117135918116
 20
27.53725249883054
 30
0.0
  0
ENDBLK
  5
2DA
330
2CD
100
AcDbEntity
  8
0
100
AcDbBlockEnd
  0
BLOCK
  5
2E5
330
2DB
100
AcDbEntity
  8
0
100
AcDbBlockBegin
  2
*D6
 70
     1
 10
0.0
 20
0.0
 30
0.0
  3
*D6
  1

  0
LINE
  5
2DC
330
2DB
100
AcDbEntity
  8
SUNPO
 62
     0
370
    -2
100
AcDbLine
 10
17.95535752493515
 20
-16.66897118195914
 30
0.0
 11
25.95535752493514
 21
-16.66897118195914
 31
0.0
  0
LINE
  5
2DD
330
2DB
100
AcDbEntity
  8
SUNPO
 62
     0
370
    -2
100
AcDbLine
 10
17.95535752493515
 20
19.53102881804085
 30
0.0
 11
25.95535752493515
 21
19.53102881804085
 31
0.0
  0
LINE
  5
2DE
330
2DB
100
AcDbEntity
  8
SUNPO
 62
     0
370
    -2
100
AcDbLine
 10
23.95535752493515
 20
-14.66897118195914
 30
0.0
 11
23.95535752493515
 21
17.53102881804085
 31
0.0
  0
INSERT
  5
2DF
330
2DB
100
AcDbEntity
  8
SUNPO
 62
     0
370
    -2
100
AcDbBlockReference
  2
_OPEN30
 10
23.95535752493515
 20
-16.66897118195914
 30
0.0
 41
2.0
 42
2.0
 43
2.0
 50
270.0
  0
INSERT
  5
2E0
330
2DB
100
AcDbEntity
  8
SUNPO
 62
     0
370
    -2
100
AcDbBlockReference
  2
_OPEN30
 10
23.95535752493515
 20
19.53102881804085
 30
0.0
 41
2.0
 42
2.0
 43
2.0
 50
90.0
  0
MTEXT
  5
2E1
330
2DB
100
AcDbEntity
  8
SUNPO
 62
     0
100
AcDbMText
 10
22.20535752493515
 20
1.431028818040859
 30
0.0
 40
2.5
 41
0.0
 71
     5
 72
     1
  1
\A1;724
 11
0.0000000000000001
 21
1.0
 31
0.0
 73
     1
 44
1.0
1001
ACAD
1000
MTEXTBEGIN
1070
    73
1070
     1
1070
    44
1040
1.0
1070
    74
1070
     0
1000
MTEXTEND
  0
POINT
  5
2E2
330
2DB
100
AcDbEntity
  8
DEFPOINTS
 62
     0
100
AcDbPoint
 10
15.95535752493515
 20
-16.66897118195914
 30
0.0
  0
POINT
  5
2E3
330
2DB
100
AcDbEntity
  8
DEFPOINTS
 62
     0
100
AcDbPoint
 10
15.95535752493515
 20
19.53102881804085
 30
0.0
  0
POINT
  5
2E4
330
2DB
100
AcDbEntity
  8
DEFPOINTS
 62
     0
100
AcDbPoint
 10
23.95535752493515
 20
19.53102881804085
 30
0.0
  0
ENDBLK
  5
2E6
330
2DB
100
AcDbEntity
  8
0
100
AcDbBlockEnd
  0
BLOCK
  5
2F1
330
2E7
100
AcDbEntity
  8
0
100
AcDbBlockBegin
  2
*D7
 70
     1
 10
0.0
 20
0.0
 30
0.0
  3
*D7
  1

  0
LINE
  5
2E8
330
2E7
100
AcDbEntity
  8
SUNPO
 62
     0
370
    -2
100
AcDbLine
 10
-55.05334825178704
 20
21.51977616237485
 30
0.0
 11
-55.05334825178704
 21
34.53075249883042
 31
0.0
  0
LINE
  5
2E9
330
2E7
100
AcDbEntity
  8
SUNPO
 62
     0
370
    -2
100
AcDbLine
 10
15.93705974821304
 20
21.50711490467722
 30
0.0
 11
15.93705974821304
 21
34.53075249883042
 31
0.0
  0
LINE
  5
2EA
330
2E7
100
AcDbEntity
  8
SUNPO
 62
     0
370
    -2
100
AcDbLine
 10
-53.05334825178704
 20
32.53075249883043
 30
0.0
 11
13.93705974821304
 21
32.53075249883043
 31
0.0
  0
INSERT
  5
2EB
330
2E7
100
AcDbEntity
  8
SUNPO
 62
     0
370
    -2
100
AcDbBlockReference
  2
_OPEN30
 10
-55.05334825178704
 20
32.53075249883043
 30
0.0
 41
2.0
 42
2.0
 43
2.0
 50
180.0
  0
INSERT
  5
2EC
330
2E7
100
AcDbEntity
  8
SUNPO
 62
     0
370
    -2
100
AcDbBlockReference
  2
_OPEN30
 10
15.93705974821304
 20
32.53075249883043
 30
0.0
 41
2.0
 42
2.0
 43
2.0
  0
MTEXT
  5
2ED
330
2E7
100
AcDbEntity
  8
SUNPO
 62
     0
100
AcDbMText
 10
-19.558144251787
 20
34.28075249883042
 30
0.0
 40
2.5
 41
0.0
 71
     5
 72
     1
  1
\A1;1427
 73
     1
 44
1.0
1001
ACAD
1000
MTEXTBEGIN
1070
    73
1070
     1
1070
    44
1040
1.0
1070
    74
1070
     0
1000
MTEXTEND
  0
POINT
  5
2EE
330
2E7
100
AcDbEntity
  8
DEFPOINTS
 62
     0
100
AcDbPoint
 10
-55.05334825178704
 20
19.51977616237485
 30
0.0
  0
POINT
  5
2EF
330
2E7
100
AcDbEntity
  8
DEFPOINTS
 62
     0
100
AcDbPoint
 10
15.93705974821304
 20
19.50711490467722
 30
0.0
  0
POINT
  5
2F0
330
2E7
100
AcDbEntity
  8
DEFPOINTS
 62
     0
100
AcDbPoint
 10
15.93705974821304
 20
32.53075249883043
 30
0.0
  0
ENDBLK
  5
2F2
330
2E7
100
AcDbEntity
  8
0
100
AcDbBlockEnd
  0
BLOCK
  5
2FD
330
2F3
100
AcDbEntity
  8
0
100
AcDbBlockBegin
  2
*D8
 70
     1
 10
0.0
 20
0.0
 30
0.0
  3
*D8
  1

  0
LINE
  5
2F4
330
2F3
100
AcDbEntity
  8
SUNPO
 62
     0
370
    -2
100
AcDbLine
 10
-49.80814425178698
 20
21.53074237368952
 30
0.0
 11
-49.80814425178698
 21
29.53075249883048
 31
0.0
  0
LINE
  5
2F5
330
2F3
100
AcDbEntity
  8
SUNPO
 62
     0
370
    -2
100
AcDbLine
 10
10.69185574821304
 20
21.53074237368952
 30
0.0
 11
10.69185574821304
 21
29.53075249883048
 31
0.0
  0
LINE
  5
2F6
330
2F3
100
AcDbEntity
  8
SUNPO
 62
     0
370
    -2
100
AcDbLine
 10
-47.80814425178698
 20
27.53075249883048
 30
0.0
 11
8.691855748213043
 21
27.53075249883048
 31
0.0
  0
INSERT
  5
2F7
330
2F3
100
AcDbEntity
  8
SUNPO
 62
     0
370
    -2
100
AcDbBlockReference
  2
_OPEN30
 10
-49.80814425178698
 20
27.53075249883048
 30
0.0
 41
2.0
 42
2.0
 43
2.0
 50
180.0
  0
INSERT
  5
2F8
330
2F3
100
AcDbEntity
  8
SUNPO
 62
     0
370
    -2
100
AcDbBlockReference
  2
_OPEN30
 10
10.69185574821304
 20
27.53075249883048
 30
0.0
 41
2.0
 42
2.0
 43
2.0
  0
MTEXT
  5
2F9
330
2F3
100
AcDbEntity
  8
SUNPO
 62
     0
100
AcDbMText
 10
-19.55814425178697
 20
29.28075249883048
 30
0.0
 40
2.5
 41
0.0
 71
     5
 72
     1
  1
\A1;1210
 73
     1
 44
1.0
1001
ACAD
1000
MTEXTBEGIN
1070
    73
1070
     1
1070
    44
1040
1.0
1070
    74
1070
     0
1000
MTEXTEND
  0
POINT
  5
2FA
330
2F3
100
AcDbEntity
  8
DEFPOINTS
 62
     0
100
AcDbPoint
 10
-49.80814425178698
 20
19.53074237368952
 30
0.0
  0
POINT
  5
2FB
330
2F3
100
AcDbEntity
  8
DEFPOINTS
 62
     0
100
AcDbPoint
 10
10.69185574821304
 20
19.53074237368952
 30
0.0
  0
POINT
  5
2FC
330
2F3
100
AcDbEntity
  8
DEFPOINTS
 62
     0
100
AcDbPoint
 10
10.69185574821304
 20
27.53075249883048
 30
0.0
  0
ENDBLK
  5
2FE
330
2F3
100
AcDbEntity
  8
0
100
AcDbBlockEnd
  0
ENDSEC
  0
SECTION
  2
ENTITIES
  0
TEXT
  5
30
330
2
100
AcDbEntity
  8
MOJI1
100
AcDbText
 10
-36.46818092656701
 20
42.14664623809835
 30
0.0
 40
4.0
  1
ハイビジョンプラズマディスプレイスピーカ付
 41
0.95
100
AcDbText
  0
DIMENSION
  5
32
330
2
100
AcDbEntity
  8
SUNPO
100
AcDbDimension
  2
*D8
 10
10.69185574821304
 20
27.53075249883048
 30
0.0
 11
-19.55814425178697
 21
29.28075249883048
 31
0.0
 70
    33
  1
1210
 71
     5
 42
60.50000000000003
  3
STANDARD
100
AcDbAlignedDimension
 13
-49.80814425178698
 23
19.53074237368952
 33
0.0
 14
10.69185574821304
 24
19.53074237368952
 34
0.0
1001
ACAD
1000
DSTYLE
1002
{
1070
   287
1070
     3
1070
   287
1070
     3
1070
   287
1070
     3
1070
   287
1070
     3
1070
   287
1070
     3
1070
   287
1070
     3
1070
   287
1070
     3
1070
   287
1070
     3
1070
   287
1070
     3
1070
   287
1070
     3
1070
   287
1070
     3
1070
   287
1070
     3
1070
   287
1070
     3
1070
   287
1070
     3
1070
   287
1070
     3
1070
   287
1070
     3
1070
   287
1070
     3
1070
   287
1070
     3
1070
   287
1070
     3
1070
   287
1070
     3
1070
   287
1070
     3
1070
   287
1070
     3
1070
   287
1070
     3
1070
   287
1070
     3
1070
   287
1070
     3
1070
   287
1070
     3
1070
   287
1070
     3
1070
   287
1070
     3
1070
   287
1070
     3
1070
   287
1070
     3
1070
   287
1070
     3
1070
   287
1070
     3
1070
   287
1070
     3
1070
   287
1070
     3
1070
    40
1040
1.0
1070
   140
1040
2.5
1070
   147
1040
0.5
1070
   172
1070
     1
1070
   279
1070
     0
1002
}
  0
DIMENSION
  5
40
330
2
100
AcDbEntity
  8
SUNPO
100
AcDbDimension
  2
*D7
 10
15.93705974821304
 20
32.53075249883043
 30
0.0
 11
-19.558144251787
 21
34.28075249883042
 31
0.0
 70
    32
  1
1427
 71
     5
 42
70.99040800000008
  3
STANDARD
100
AcDbAlignedDimension
 13
-55.05334825178704
 23
19.51977616237485
 33
0.0
 14
15.93705974821304
 24
19.50711490467722
 34
0.0
100
AcDbRotatedDimension
1001
ACAD
1000
DSTYLE
1002
{
1070
   287
1070
     3
1070
   287
1070
     3
1070
    40
1040
1.0
1070
   140
1040
2.5
1070
   147
1040
0.5
1070
   172
1070
     1
1070
   279
1070
     0
1070
   288
1070
     0
1002
}
  0
TEXT
  5
4D
330
2
100
AcDbEntity
  8
TOUROKU
100
AcDbText
 10
16.73176910636064
 20
36.1466462380979
 30
0.0
 40
2.0
  1
ＴＨ５０ＰＦ２０Ｊ＋ＴＹＳＰ４２Ｐ８Ｋ
 72
     2
 11
61.53176910636062
 21
36.1466462380979
 31
0.0
100
AcDbText
  0
TEXT
  5
4F
330
2
100
AcDbEntity
  8
MOJI1
100
AcDbText
 10
-21.96818092656676
 20
-30.8533537619021
 30
0.0
 40
3.0
  1
４６０Ｗ
100
AcDbText
  0
TEXT
  5
50
330
2
100
AcDbEntity
  8
MOJI1
100
AcDbText
 10
-21.96818092656676
 20
-35.8533537619021
 30
0.0
 40
3.0
  1
５０型（１２６８ｃｍ）１６：９
100
AcDbText
  0
TEXT
  5
51
330
2
100
AcDbEntity
  8
MOJI1
100
AcDbText
 10
-21.96818092656676
 20
-45.8533537619021
 30
0.0
 40
3.0
  1
５００００００：１
100
AcDbText
  0
LINE
  5
52
330
2
100
AcDbEntity
  8
WAKU
 62
     1
100
AcDbLine
 10
-63.46818092656675
 20
-31.8533537619021
 30
0.0
 11
61.53181907343299
 21
-31.8533537619021
 31
0.0
  0
LINE
  5
54
330
2
100
AcDbEntity
  8
WAKU
 62
     1
100
AcDbLine
 10
-63.46818092656675
 20
-41.85335376190209
 30
0.0
 11
61.53181907343299
 21
-41.85335376190209
 31
0.0
  0
LINE
  5
55
330
2
100
AcDbEntity
  8
WAKU
 62
     4
100
AcDbLine
 10
-63.46818092656675
 20
-21.8533537619021
 30
0.0
 11
61.53181907343299
 21
-21.8533537619021
 31
0.0
  0
LINE
  5
56
330
2
100
AcDbEntity
  8
WAKU
 62
     1
100
AcDbLine
 10
-63.46818092656675
 20
-26.8533537619021
 30
0.0
 11
61.53181907343299
 21
-26.8533537619021
 31
0.0
  0
LINE
  5
57
330
2
100
AcDbEntity
  8
WAKU
 62
     1
100
AcDbLine
 10
-63.46818092656675
 20
-36.8533537619021
 30
0.0
 11
61.53181907343299
 21
-36.8533537619021
 31
0.0
  0
LINE
  5
58
330
2
100
AcDbEntity
  8
WAKU
 62
     1
100
AcDbLine
 10
-63.46818092656675
 20
-46.85335376190209
 30
0.0
 11
61.53181907343299
 21
-46.85335376190209
 31
0.0
  0
LINE
  5
59
330
2
100
AcDbEntity
  8
WAKU
 62
     1
100
AcDbLine
 10
-63.46818092656675
 20
-51.85335376190209
 30
0.0
 11
61.53181907343299
 21
-51.85335376190209
 31
0.0
  0
LINE
  5
5A
330
2
100
AcDbEntity
  8
WAKU
 62
     4
100
AcDbLine
 10
61.53181907343299
 20
-66.85335376190209
 30
0.0
 11
-63.46818092656675
 21
-66.85335376190209
 31
0.0
  0
TEXT
  5
5B
330
2
100
AcDbEntity
  8
MOJI1
100
AcDbText
 10
-21.96818092656676
 20
-40.8533537619021
 30
0.0
 40
3.0
  1
１９２０×１０８０画素
100
AcDbText
  0
TEXT
  5
5C
330
2
100
AcDbEntity
  8
MOJI1
100
AcDbText
 10
-21.96818092656676
 20
-50.8533537619021
 30
0.0
 40
3.0
  1
ＲＣＡ×２(左右)
100
AcDbText
  0
TEXT
  5
5D
330
2
100
AcDbEntity
  8
MOJI1
100
AcDbText
 10
-21.96818092656676
 20
-25.8533537619021
 30
0.0
 40
3.0
  1
ＡＣ１００Ｖ　５０Ｈｚ／６０Ｈｚ
100
AcDbText
  0
TEXT
  5
5E
330
2
100
AcDbEntity
  8
MOJI1
100
AcDbText
 10
-21.96818092656676
 20
-55.8533537619021
 30
0.0
 40
3.0
  1
ビデオ入力、ＲＧＢ／コンポーネントビデオ入力、ＨＤＭＩ入力
 41
0.7800000000000001
100
AcDbText
  0
LINE
  5
5F
330
2
100
AcDbEntity
  8
WAKU
 62
     4
100
AcDbLine
 10
-23.46818092656699
 20
-21.8533537619021
 30
0.0
 11
-23.46818092656699
 21
-66.85335376190209
 31
0.0
  0
LINE
  5
60
330
2
100
AcDbEntity
  8
WAKU
 62
     4
100
AcDbLine
 10
-63.46818092656699
 20
-21.8533537619021
 30
0.0
 11
-63.46818092656675
 21
-66.85335376190209
 31
0.0
  0
TEXT
  5
61
330
2
100
AcDbEntity
  8
MOJI1
100
AcDbText
 10
-60.96818092656675
 20
-35.8533537619021
 30
0.0
 40
3.0
  1
画面サイズ
100
AcDbText
  0
TEXT
  5
62
330
2
100
AcDbEntity
  8
MOJI1
100
AcDbText
 10
-60.96818092656675
 20
-45.8533537619021
 30
0.0
 40
3.0
  1
コントラスト
100
AcDbText
  0
TEXT
  5
63
330
2
100
AcDbEntity
  8
MOJI1
100
AcDbText
 10
-60.96818092656675
 20
-50.8533537619021
 30
0.0
 40
3.0
  1
音声出力
100
AcDbText
  0
TEXT
  5
64
330
2
100
AcDbEntity
  8
MOJI1
100
AcDbText
 10
-60.96818092656675
 20
-30.8533537619021
 30
0.0
 40
3.0
  1
消費電力
100
AcDbText
  0
TEXT
  5
65
330
2
100
AcDbEntity
  8
MOJI1
100
AcDbText
 10
-60.96818092656675
 20
-25.8533537619021
 30
0.0
 40
3.0
  1
電  源
100
AcDbText
  0
TEXT
  5
66
330
2
100
AcDbEntity
  8
MOJI1
100
AcDbText
 10
-60.96818092656675
 20
-40.8533537619021
 30
0.0
 40
3.0
  1
画素数
100
AcDbText
  0
LINE
  5
67
330
2
100
AcDbEntity
  8
WAKU
 62
     4
100
AcDbLine
 10
61.53181907343299
 20
-21.8533537619021
 30
0.0
 11
61.53181907343299
 21
-66.85335376190209
 31
0.0
  0
TEXT
  5
68
330
2
100
AcDbEntity
  8
MOJI1
100
AcDbText
 10
-21.96818092656676
 20
-60.8533537619021
 30
0.0
 40
3.0
  1
ＤＶＩ入力、ＰＣ入力、ＬＡＮ、ＲＳ２３２Ｃ、スロット２．０
 41
0.7900000000000001
100
AcDbText
  0
LINE
  5
69
330
2
100
AcDbEntity
  8
WAKU
 62
     1
100
AcDbLine
 10
-63.46818092656675
 20
-56.85335376190209
 30
0.0
 11
61.53181907343299
 21
-56.85335376190209
 31
0.0
  0
TEXT
  5
6A
330
2
100
AcDbEntity
  8
MOJI1
100
AcDbText
 10
-60.96818092656675
 20
-55.8533537619021
 30
0.0
 40
3.0
  1
入出力端子
100
AcDbText
  0
LINE
  5
6B
330
2
100
AcDbEntity
  8
WAKU
 62
     1
100
AcDbLine
 10
-63.46818092656675
 20
-61.85335376190209
 30
0.0
 11
61.53181907343299
 21
-61.85335376190209
 31
0.0
  0
TEXT
  5
6C
330
2
100
AcDbEntity
  8
MOJI1
100
AcDbText
 10
-21.96818092656676
 20
-65.8533537619021
 30
0.0
 40
3.0
  1
約３１．０ ｋｇ
100
AcDbText
  0
TEXT
  5
6D
330
2
100
AcDbEntity
  8
MOJI1
100
AcDbText
 10
-60.96818092656675
 20
-65.8533537619021
 30
0.0
 40
3.0
  1
質　量
100
AcDbText
  0
SPLINE
  5
6E
330
2
100
AcDbEntity
  8
GAIKEI
  6
Continuous
 62
     1
100
AcDbSpline
210
0.0
220
0.0
230
1.0
 70
     8
 71
     3
 72
    15
 73
    11
 74
     9
 42
0.0000000001
 43
0.0000000001
 44
0.000001
 12
-0.2924958065310857
 22
0.9562668054270888
 32
0.0
 13
-0.9560185359242824
 23
0.2933062545688235
 33
0.0
 40
0.0
 40
0.0
 40
0.0
 40
0.0
 40
0.0168063404896156
 40
0.0336211194742663
 40
0.0503583126183956
 40
0.06700084293541
 40
0.0837880166497456
 40
0.1004733571095624
 40
0.1170568982760804
 40
0.1337837633035181
 40
0.1337837633035181
 40
0.1337837633035181
 40
0.1337837633035181
 10
8.309333706431971
 20
17.21772253949433
 30
0.0
 10
8.30769511172653
 20
17.22307965467131
 30
0.0
 10
8.303765531673491
 20
17.23360981523142
 30
0.0
 10
8.296009861089316
 20
17.24854200814062
 30
0.0
 10
8.286514116017031
 20
17.2623696308223
 30
0.0
 10
8.275404248060169
 20
17.27492357302401
 30
0.0
 10
8.262849565127567
 20
17.28600786956677
 30
0.0
 10
8.24904588678126
 20
17.29545620921084
 30
0.0
 10
8.234218432121394
 20
17.30314806302307
 30
0.0
 10
8.223788077361376
 20
17.30704741347757
 30
0.0
 10
8.218457679690004
 20
17.3086827781882
 30
0.0
 11
8.309333706431971
 21
17.21772253949433
 31
0.0
 11
8.303455305401541
 21
17.23346770975189
 31
0.0
 11
8.295702284672984
 21
17.24838840418897
 31
0.0
 11
8.286226035577897
 21
17.26218459772906
 31
0.0
 11
8.275196226177911
 21
17.27464725958134
 31
0.0
 11
8.262612184890826
 21
17.28575815333613
 31
0.0
 11
8.248844348592626
 21
17.29518406925035
 31
0.0
 11
8.234124970202032
 21
17.30282300734296
 31
0.0
 11
8.218457679690004
 21
17.3086827781882
 31
0.0
  0
SPLINE
  5
70
330
2
100
AcDbEntity
  8
GAIKEI
  6
Continuous
 62
     1
100
AcDbSpline
210
0.0
220
0.0
230
1.0
 70
     8
 71
     3
 72
    15
 73
    11
 74
     9
 42
0.0000000001
 43
0.0000000001
 44
0.000001
 12
0.9999398593324002
 22
0.0109671198725969
 32
0.0
 13
-0.0109745129035742
 23
-0.9999397782199332
 33
0.0
 40
0.0
 40
0.0
 40
0.0
 40
0.0
 40
0.0144545412891382
 40
0.0288481230524299
 40
0.0432449733897705
 40
0.0575864329608084
 40
0.0720053976517431
 40
0.0863379338911621
 40
0.1007485460548252
 40
0.1151186774904409
 40
0.1151186774904409
 40
0.1151186774904409
 40
0.1151186774904409
 10
8.724196883738386
 20
17.79912839954181
 30
0.0
 10
8.729014774399502
 20
17.79918124110415
 30
0.0
 10
8.738668414996141
 20
17.79835907925165
 30
0.0
 10
8.75259637342296
 20
17.79430361578112
 30
0.0
 10
8.765415465636749
 20
17.78757952489019
 30
0.0
 10
8.776632886904877
 20
17.77841756428356
 30
0.0
 10
8.785765517872476
 20
17.76720217151137
 30
0.0
 10
8.792474032376844
 20
17.75436492544561
 30
0.0
 10
8.796501453081049
 20
17.7404743596835
 30
0.0
 10
8.797316049865798
 20
17.73084382614479
 30
0.0
 10
8.797263481468178
 20
17.72605407079788
 30
0.0
 11
8.724196883738386
 21
17.79912839954181
 31
0.0
 11
8.738598415666558
 21
17.79788534875001
 31
0.0
 11
8.752417032739089
 21
17.79385770099554
 31
0.0
 11
8.765163672601943
 21
17.78716488373425
 31
0.0
 11
8.776270246352709
 21
17.77809168562788
 31
0.0
 11
8.785375998066797
 21
17.76691164576664
 31
0.0
 11
8.792019489220479
 21
17.75421176652139
 31
0.0
 11
8.796036222732539
 21
17.74037223871608
 31
0.0
 11
8.797263481468178
 21
17.72605407079788
 31
0.0
  0
SPLINE
  5
71
330
2
100
AcDbEntity
  8
GAIKEI
  6
Continuous
 62
     1
100
AcDbSpline
210
0.0
220
0.0
230
1.0
 70
     8
 71
     3
 72
    15
 73
    11
 74
     9
 42
0.0000000001
 43
0.0000000001
 44
0.000001
 12
-0.9999398593324002
 22
0.0109671198725968
 32
0.0
 13
0.0109745129035741
 23
-0.9999397782199332
 33
0.0
 40
0.0
 40
0.0
 40
0.0
 40
0.0
 40
0.0144545412891382
 40
0.0288481230524572
 40
0.0432449733898229
 40
0.0575864329608388
 40
0.0720053976517915
 40
0.0863379338912105
 40
0.1007485460548578
 40
0.1151186774904759
 40
0.1151186774904759
 40
0.1151186774904759
 40
0.1151186774904759
 10
-47.84048538731229
 20
17.79912839954181
 30
0.0
 10
-47.84530327797341
 20
17.79918124110415
 30
0.0
 10
-47.85495691857005
 20
17.79835907925165
 30
0.0
 10
-47.86888487699695
 20
17.7943036157811
 30
0.0
 10
-47.88170396921069
 20
17.78757952489022
 30
0.0
 10
-47.89292139047879
 20
17.77841756428351
 30
0.0
 10
-47.90205402144644
 20
17.76720217151136
 30
0.0
 10
-47.90876253595089
 20
17.75436492544564
 30
0.0
 10
-47.91278995665487
 20
17.74047435968347
 30
0.0
 10
-47.91360455343974
 20
17.73084382614479
 30
0.0
 10
-47.91355198504212
 20
17.72605407079788
 30
0.0
 11
-47.84048538731229
 21
17.79912839954181
 31
0.0
 11
-47.85488691924046
 21
17.79788534875001
 31
0.0
 11
-47.86870553631302
 21
17.79385770099554
 31
0.0
 11
-47.88145217617591
 21
17.78716488373425
 31
0.0
 11
-47.89255874992664
 21
17.77809168562788
 31
0.0
 11
-47.90166450164076
 21
17.76691164576664
 31
0.0
 11
-47.90830799279444
 21
17.75421176652139
 31
0.0
 11
-47.91232472630645
 21
17.74037223871608
 31
0.0
 11
-47.91355198504212
 21
17.72605407079788
 31
0.0
  0
SPLINE
  5
72
330
2
100
AcDbEntity
  8
GAIKEI
  6
Continuous
 62
     1
100
AcDbSpline
210
0.0
220
0.0
230
1.0
 70
     8
 71
     3
 72
    15
 73
    11
 74
     9
 42
0.0000000001
 43
0.0000000001
 44
0.000001
 12
0.2924958065310856
 22
0.956266805427089
 32
0.0
 13
0.9560185359243778
 23
0.293306254568513
 33
0.0
 40
0.0
 40
0.0
 40
0.0
 40
0.0
 40
0.0168063404896156
 40
0.0336211194742401
 40
0.0503583126183694
 40
0.0670008429354026
 40
0.083788016649717
 40
0.1004733571095572
 40
0.1170568982760752
 40
0.1337837633034863
 40
0.1337837633034863
 40
0.1337837633034863
 40
0.1337837633034863
 10
-47.42562221000588
 20
17.21772253949433
 30
0.0
 10
-47.42398361530044
 20
17.22307965467131
 30
0.0
 10
-47.4200540352474
 20
17.23360981523143
 30
0.0
 10
-47.41229836466326
 20
17.24854200814062
 30
0.0
 10
-47.40280261959102
 20
17.26236963082233
 30
0.0
 10
-47.39169275163408
 20
17.274923573024
 30
0.0
 10
-47.37913806870156
 20
17.2860078695668
 30
0.0
 10
-47.36533439035517
 20
17.29545620921082
 30
0.0
 10
-47.35050693569536
 20
17.30314806302304
 30
0.0
 10
-47.34007658093534
 20
17.30704741347757
 30
0.0
 10
-47.33474618326397
 20
17.3086827781882
 30
0.0
 11
-47.42562221000588
 21
17.21772253949433
 31
0.0
 11
-47.41974380897545
 21
17.23346770975189
 31
0.0
 11
-47.41199078824695
 21
17.24838840418897
 31
0.0
 11
-47.40251453915186
 21
17.26218459772906
 31
0.0
 11
-47.39148472975185
 21
17.27464725958134
 31
0.0
 11
-47.37890068846479
 21
17.28575815333613
 31
0.0
 11
-47.36513285216656
 21
17.29518406925035
 31
0.0
 11
-47.35041347377597
 21
17.30282300734296
 31
0.0
 11
-47.33474618326397
 21
17.3086827781882
 31
0.0
  0
SPLINE
  5
73
330
2
100
AcDbEntity
  8
GAIKEI
  6
Continuous
 62
     1
100
AcDbSpline
210
0.0
220
0.0
230
1.0
 70
     8
 71
     3
 72
    15
 73
    11
 74
     9
 42
0.0000000001
 43
0.0000000001
 44
0.000001
 12
-0.9560175965648596
 22
0.2933093163510996
 32
0.0
 13
-0.2924928147296205
 23
0.9562677205320401
 33
0.0
 40
0.0
 40
0.0
 40
0.0
 40
0.0
 40
0.0168063827191639
 40
0.0336212646659003
 40
0.0503584224868337
 40
0.0670009486666081
 40
0.0837881260374097
 40
0.1004733754750033
 40
0.1170569269589407
 40
0.1337837630426042
 40
0.1337837630426042
 40
0.1337837630426042
 40
0.1337837630426042
 10
-47.33474618326377
 20
-14.43124544238873
 30
0.0
 10
-47.34010191580182
 20
-14.42960228618016
 30
0.0
 10
-47.35062871829128
 20
-14.42566350677283
 30
0.0
 10
-47.36555381472007
 20
-14.41789404850303
 30
0.0
 10
-47.37937243030677
 20
-14.40838513762878
 30
0.0
 10
-47.39191562571522
 20
-14.39726314726859
 30
0.0
 10
-47.40298776178923
 20
-14.3846977871529
 30
0.0
 10
-47.41242295986459
 20
-14.37088517282333
 30
0.0
 10
-47.42010113205785
 20
-14.35605069949381
 30
0.0
 10
-47.42399138355028
 20
-14.34561698149917
 30
0.0
 10
-47.42562221000617
 20
-14.34028520369469
 30
0.0
 11
-47.33474618326377
 21
-14.43124544238873
 31
0.0
 11
-47.35048625776608
 21
-14.42535328488503
 31
0.0
 11
-47.36539991907017
 21
-14.41758652050669
 31
0.0
 11
-47.37918708705535
 21
-14.40809720697552
 31
0.0
 11
-47.39163910991021
 21
-14.39705539438199
 31
0.0
 11
-47.40273787473157
 21
-14.3844606495665
 31
0.0
 11
-47.41215068598413
 21
-14.37068396083686
 31
0.0
 11
-47.41977612484788
 21
-14.35595757319419
 31
0.0
 11
-47.42562221000617
 21
-14.34028520369469
 31
0.0
  0
SPLINE
  5
74
330
2
100
AcDbEntity
  8
GAIKEI
  6
Continuous
 62
     1
100
AcDbSpline
210
0.0
220
0.0
230
1.0
 70
     8
 71
     3
 72
    15
 73
    11
 74
     9
 42
0.0000000001
 43
0.0000000001
 44
0.000001
 12
-0.0109562642203222
 22
-0.999939978335867
 32
0.0
 13
0.9999396584535912
 23
0.0109854199608156
 33
0.0
 40
0.0
 40
0.0
 40
0.0
 40
0.0
 40
0.0144545160022977
 40
0.0288481527290739
 40
0.043244988342609
 40
0.0575864997005964
 40
0.0720054578610224
 40
0.0863379547938061
 40
0.1007485652535202
 40
0.1151186776865662
 40
0.1151186776865662
 40
0.1151186776865662
 40
0.1151186776865662
 10
-47.91355198504192
 20
-14.84861673499807
 30
0.0
 10
-47.91360477420741
 20
-14.85343461780414
 30
0.0
 10
-47.91278278300924
 20
-14.86308823427347
 30
0.0
 10
-47.90872853343569
 20
-14.87701649040174
 30
0.0
 10
-47.90200622683357
 20
-14.88983650562581
 30
0.0
 10
-47.89284616359828
 20
-14.90105547051544
 30
0.0
 10
-47.88163229584443
 20
-14.91019000222461
 30
0.0
 10
-47.86879595486914
 20
-14.91690030235739
 30
0.0
 10
-47.85490569563416
 20
-14.92092892167679
 30
0.0
 10
-47.84527513575167
 20
-14.92174368431515
 30
0.0
 10
-47.84048538731227
 20
-14.92169106374183
 30
0.0
 11
-47.91355198504192
 21
-14.84861673499807
 31
0.0
 11
-47.912309218448
 21
-14.86301826515085
 31
0.0
 11
-47.90828270786869
 21
-14.8768372707662
 31
0.0
 11
-47.90159161798061
 21
-14.8895848007848
 31
0.0
 11
-47.89252020599019
 21
-14.90069290025678
 31
0.0
 11
-47.88134165850465
 21
-14.90980047368561
 31
0.0
 11
-47.86864270726903
 21
-14.91644565386235
 31
0.0
 11
-47.85480351379456
 21
-14.92046353336383
 31
0.0
 11
-47.84048538731227
 21
-14.92169106374183
 31
0.0
  0
SPLINE
  5
75
330
2
100
AcDbEntity
  8
GAIKEI
  6
Continuous
 62
     1
100
AcDbSpline
210
0.0
220
0.0
230
1.0
 70
     8
 71
     3
 72
    15
 73
    11
 74
     9
 42
0.0000000001
 43
0.0000000001
 44
0.000001
 12
0.0109562642203223
 22
-0.999939978335867
 32
0.0
 13
-0.9999396584535912
 23
0.0109854199608153
 33
0.0
 40
0.0
 40
0.0
 40
0.0
 40
0.0
 40
0.0144545160023002
 40
0.0288481527290683
 40
0.0432449883426167
 40
0.0575864997005861
 40
0.0720054578610122
 40
0.0863379547938461
 40
0.100748565253533
 40
0.115118677686579
 40
0.115118677686579
 40
0.115118677686579
 40
0.115118677686579
 10
8.797263481468007
 20
-14.84861673499807
 30
0.0
 10
8.797316270633501
 20
-14.85343461780414
 30
0.0
 10
8.79649427943525
 20
-14.86308823427343
 30
0.0
 10
8.792440029861893
 20
-14.87701649040178
 30
0.0
 10
8.785717723259551
 20
-14.88983650562578
 30
0.0
 10
8.776557660024394
 20
-14.90105547051546
 30
0.0
 10
8.765343792270556
 20
-14.91019000222462
 30
0.0
 10
8.752507451295144
 20
-14.91690030235736
 30
0.0
 10
8.738617192060246
 20
-14.92092892167681
 30
0.0
 10
8.728986632177736
 20
-14.92174368431515
 30
0.0
 10
8.724196883738329
 20
-14.92169106374183
 30
0.0
 11
8.797263481468007
 21
-14.84861673499807
 31
0.0
 11
8.79602071487406
 21
-14.86301826515085
 31
0.0
 11
8.79199420429478
 21
-14.8768372707662
 31
0.0
 11
8.785303114406673
 21
-14.8895848007848
 31
0.0
 11
8.776231702416282
 21
-14.90069290025678
 31
0.0
 11
8.76505315493074
 21
-14.90980047368561
 31
0.0
 11
8.752354203695063
 21
-14.91644565386235
 31
0.0
 11
8.738515010220623
 21
-14.92046353336383
 31
0.0
 11
8.724196883738329
 21
-14.92169106374183
 31
0.0
  0
SPLINE
  5
76
330
2
100
AcDbEntity
  8
GAIKEI
  6
Continuous
 62
     1
100
AcDbSpline
210
0.0
220
0.0
230
1.0
 70
     8
 71
     3
 72
    15
 73
    11
 74
     9
 42
0.0000000001
 43
0.0000000001
 44
0.000001
 12
0.9560175965647362
 22
0.2933093163515012
 32
0.0
 13
0.2924928147293096
 23
0.9562677205321351
 33
0.0
 40
0.0
 40
0.0
 40
0.0
 40
0.0
 40
0.0168063827191905
 40
0.0336212646659017
 40
0.0503584224868117
 40
0.0670009486665861
 40
0.0837881260374065
 40
0.100473375475
 40
0.1170569269589506
 40
0.1337837630426141
 40
0.1337837630426141
 40
0.1337837630426141
 40
0.1337837630426141
 10
8.218457679689834
 20
-14.43124544238873
 30
0.0
 10
8.223813412227883
 20
-14.42960228618016
 30
0.0
 10
8.234340214717349
 20
-14.42566350677285
 30
0.0
 10
8.249265311146132
 20
-14.41789404850303
 30
0.0
 10
8.263083926732861
 20
-14.40838513762877
 30
0.0
 10
8.275627122141202
 20
-14.3972631472686
 30
0.0
 10
8.286699258215321
 20
-14.38469778715291
 30
0.0
 10
8.296134456290701
 20
-14.37088517282332
 30
0.0
 10
8.303812628483939
 20
-14.35605069949381
 30
0.0
 10
8.307702879976375
 20
-14.34561698149917
 30
0.0
 10
8.309333706432255
 20
-14.34028520369469
 30
0.0
 11
8.218457679689834
 21
-14.43124544238873
 31
0.0
 11
8.234197754192166
 21
-14.42535328488503
 31
0.0
 11
8.24911141549623
 21
-14.41758652050669
 31
0.0
 11
8.262898583481387
 21
-14.40809720697552
 31
0.0
 11
8.275350606336246
 21
-14.39705539438199
 31
0.0
 11
8.28644937115763
 21
-14.3844606495665
 31
0.0
 11
8.295862182410189
 21
-14.37068396083686
 31
0.0
 11
8.303487621273973
 21
-14.35595757319419
 31
0.0
 11
8.309333706432255
 21
-14.34028520369469
 31
0.0
  0
LINE
  5
77
330
2
100
AcDbEntity
  8
GAIKEI
  6
Continuous
 62
     1
100
AcDbLine
 10
10.13188744821303
 20
-16.29905213210008
 30
0.0
 11
-49.24817595178698
 21
-16.29905213210008
 31
0.0
  0
LINE
  5
78
330
2
100
AcDbEntity
  8
GAIKEI
  6
Continuous
 62
     1
100
AcDbLine
 10
-48.072109151787
 20
17.73299191789988
 30
0.0
 11
-48.072109151787
 21
-14.85555458210007
 31
0.0
  0
LINE
  5
79
330
2
100
AcDbEntity
  8
GAIKEI
  6
Continuous
 62
     1
100
AcDbLine
 10
8.731128998213023
 20
-15.08024623210008
 30
0.0
 11
-47.84741750178696
 21
-15.08024623210008
 31
0.0
  0
LINE
  5
7A
330
2
100
AcDbEntity
  8
GAIKEI
  6
Continuous
 62
     1
100
AcDbLine
 10
8.955820648213034
 20
17.73299191789988
 30
0.0
 11
8.955820648213034
 21
-14.85555458210007
 31
0.0
  0
LINE
  5
7B
330
2
100
AcDbEntity
  8
GAIKEI
  6
Continuous
 62
     1
100
AcDbLine
 10
-47.84741750178696
 20
17.95768356789989
 30
0.0
 11
8.731128998213023
 21
17.95768356789989
 31
0.0
  0
LINE
  5
7C
330
2
100
AcDbEntity
  8
GAIKEI
  6
Continuous
 62
     1
100
AcDbLine
 10
-48.81439425178695
 20
-16.04253133210005
 30
0.0
 11
-48.70189425178697
 21
-16.04253133210005
 31
0.0
  0
LINE
  5
7D
330
2
100
AcDbEntity
  8
GAIKEI
  6
Continuous
 62
     1
100
AcDbLine
 10
-48.81439425178695
 20
-15.9300313321001
 30
0.0
 11
-48.70189425178697
 21
-15.9300313321001
 31
0.0
  0
LINE
  5
7E
330
2
100
AcDbEntity
  8
GAIKEI
  6
Continuous
 62
     1
100
AcDbLine
 10
-46.86814425178695
 20
-16.1363764821001
 30
0.0
 11
-46.86814425178695
 21
-15.8361861821001
 31
0.0
  0
LINE
  5
7F
330
2
100
AcDbEntity
  8
GAIKEI
  6
Continuous
 62
     1
100
AcDbLine
 10
-47.21814425178695
 20
-16.1363764821001
 30
0.0
 11
-47.21814425178695
 21
-15.8361861821001
 31
0.0
  0
LINE
  5
80
330
2
100
AcDbEntity
  8
GAIKEI
  6
Continuous
 62
     1
100
AcDbLine
 10
-48.70189425178697
 20
-16.04253133210005
 30
0.0
 11
-48.70189425178697
 21
-15.9300313321001
 31
0.0
  0
LINE
  5
81
330
2
100
AcDbEntity
  8
GAIKEI
  6
Continuous
 62
     1
100
AcDbLine
 10
-48.81439425178695
 20
-16.04253133210005
 30
0.0
 11
-48.81439425178695
 21
-15.9300313321001
 31
0.0
  0
LINE
  5
82
330
2
100
AcDbEntity
  8
GAIKEI
  6
Continuous
 62
     1
100
AcDbLine
 10
-47.19323940178696
 20
-15.81128133210012
 30
0.0
 11
-46.89304910178694
 21
-15.81128133210012
 31
0.0
  0
LINE
  5
83
330
2
100
AcDbEntity
  8
GAIKEI
  6
Continuous
 62
     1
100
AcDbLine
 10
-47.19323940178696
 20
-16.16128133210009
 30
0.0
 11
-46.89304910178694
 21
-16.16128133210009
 31
0.0
  0
LINE
  5
84
330
2
100
AcDbEntity
  8
GAIKEI
  6
Continuous
 62
     1
100
AcDbLine
 10
-49.24817595178698
 20
19.1764894678999
 30
0.0
 11
10.13188744821303
 21
19.1764894678999
 31
0.0
  0
LINE
  5
85
330
2
100
AcDbEntity
  8
GAIKEI
  6
Continuous
 62
     1
100
AcDbLine
 10
-49.475005001787
 20
-16.52588118210013
 30
0.0
 11
10.35871649821305
 21
-16.52588118210013
 31
0.0
  0
LINE
  5
86
330
2
100
AcDbEntity
  8
GAIKEI
  6
Continuous
 62
     1
100
AcDbLine
 10
10.35871649821305
 20
19.40331851789989
 30
0.0
 11
-49.475005001787
 21
19.40331851789989
 31
0.0
  0
LINE
  5
87
330
2
100
AcDbEntity
  8
GAIKEI
  6
Continuous
 62
     1
100
AcDbLine
 10
8.706456498213015
 20
17.79891426789993
 30
0.0
 11
8.218457698213001
 21
17.30868276789988
 31
0.0
  0
LINE
  5
88
330
2
100
AcDbEntity
  8
GAIKEI
  6
Continuous
 62
     1
100
AcDbLine
 10
8.706456498213015
 20
17.79891426789993
 30
0.0
 11
8.724196898213051
 21
17.79912841789991
 31
0.0
  0
LINE
  5
89
330
2
100
AcDbEntity
  8
GAIKEI
  6
Continuous
 62
     1
100
AcDbLine
 10
8.797263498213027
 20
17.72605406789989
 30
0.0
 11
8.797041648213053
 21
17.70766181789986
 31
0.0
  0
LINE
  5
8A
330
2
100
AcDbEntity
  8
GAIKEI
  6
Continuous
 62
     1
100
AcDbLine
 10
8.309333698213038
 20
17.21772251789991
 30
0.0
 11
8.797041648213053
 21
17.70766181789986
 31
0.0
  0
LINE
  5
8B
330
2
100
AcDbEntity
  8
GAIKEI
  6
Continuous
 62
     1
100
AcDbLine
 10
-47.91355200178696
 20
17.72605406789989
 30
0.0
 11
-47.91333015178696
 21
17.70766181789986
 31
0.0
  0
LINE
  5
8C
330
2
100
AcDbEntity
  8
GAIKEI
  6
Continuous
 62
     1
100
AcDbLine
 10
-47.82274500178698
 20
17.79891426789993
 30
0.0
 11
-47.84048540178696
 21
17.79912841789991
 31
0.0
  0
LINE
  5
8D
330
2
100
AcDbEntity
  8
GAIKEI
  6
Continuous
 62
     1
100
AcDbLine
 10
-47.82274500178698
 20
17.79891426789993
 30
0.0
 11
-47.33474620178697
 21
17.30868276789988
 31
0.0
  0
LINE
  5
8E
330
2
100
AcDbEntity
  8
GAIKEI
  6
Continuous
 62
     1
100
AcDbLine
 10
-47.42562220178697
 20
17.21772251789991
 30
0.0
 11
-47.91333015178696
 21
17.70766181789986
 31
0.0
  0
LINE
  5
8F
330
2
100
AcDbEntity
  8
GAIKEI
  6
Continuous
 62
     1
100
AcDbLine
 10
-47.33474620178697
 20
-14.43124543210007
 30
0.0
 11
-47.82274500178698
 21
-14.92147693210012
 31
0.0
  0
LINE
  5
90
330
2
100
AcDbEntity
  8
GAIKEI
  6
Continuous
 62
     1
100
AcDbLine
 10
-47.84048540178696
 20
-14.92169108210009
 30
0.0
 11
-47.82274500178698
 21
-14.92147693210012
 31
0.0
  0
LINE
  5
91
330
2
100
AcDbEntity
  8
GAIKEI
  6
Continuous
 62
     1
100
AcDbLine
 10
-47.91333015178696
 20
-14.83022448210005
 30
0.0
 11
-47.91355200178696
 21
-14.84861673210008
 31
0.0
  0
LINE
  5
92
330
2
100
AcDbEntity
  8
GAIKEI
  6
Continuous
 62
     1
100
AcDbLine
 10
-47.91333015178696
 20
-14.83022448210005
 30
0.0
 11
-47.42562220178697
 21
-14.3402851821001
 31
0.0
  0
LINE
  5
93
330
2
100
AcDbEntity
  8
GAIKEI
  6
Continuous
 62
     1
100
AcDbLine
 10
8.797041648213053
 20
-14.83022448210005
 30
0.0
 11
8.797263498213027
 21
-14.84861673210008
 31
0.0
  0
LINE
  5
94
330
2
100
AcDbEntity
  8
GAIKEI
  6
Continuous
 62
     1
100
AcDbLine
 10
8.724196898213051
 20
-14.92169108210009
 30
0.0
 11
8.706456498213015
 21
-14.92147693210012
 31
0.0
  0
LINE
  5
95
330
2
100
AcDbEntity
  8
GAIKEI
  6
Continuous
 62
     1
100
AcDbLine
 10
8.218457698213001
 20
-14.43124543210007
 30
0.0
 11
8.706456498213015
 21
-14.92147693210012
 31
0.0
  0
LINE
  5
96
330
2
100
AcDbEntity
  8
GAIKEI
  6
Continuous
 62
     1
100
AcDbLine
 10
8.797041648213053
 20
-14.83022448210005
 30
0.0
 11
8.309333698213038
 21
-14.3402851821001
 31
0.0
  0
LINE
  5
97
330
2
100
AcDbEntity
  8
GAIKEI
  6
Continuous
 62
     1
100
AcDbLine
 10
-47.82274500178698
 20
17.79891426789993
 30
0.0
 11
8.706456498213015
 21
17.79891426789993
 31
0.0
  0
LINE
  5
98
330
2
100
AcDbEntity
  8
GAIKEI
  6
Continuous
 62
     1
100
AcDbLine
 10
8.706456498213015
 20
-14.92147693210012
 30
0.0
 11
-47.82274500178698
 21
-14.92147693210012
 31
0.0
  0
LINE
  5
99
330
2
100
AcDbEntity
  8
GAIKEI
  6
Continuous
 62
     1
100
AcDbLine
 10
-47.91333015178696
 20
17.70766181789986
 30
0.0
 11
-47.91333015178696
 21
-14.83022448210005
 31
0.0
  0
LINE
  5
9A
330
2
100
AcDbEntity
  8
GAIKEI
  6
Continuous
 62
     1
100
AcDbLine
 10
8.797041648213053
 20
17.70766181789986
 30
0.0
 11
8.797041648213053
 21
-14.83022448210005
 31
0.0
  0
LINE
  5
9B
330
2
100
AcDbEntity
  8
GAIKEI
  6
Continuous
 62
     1
100
AcDbLine
 10
8.172330248213029
 20
17.31603951789992
 30
0.0
 11
-47.28861875178694
 21
17.31603951789992
 31
0.0
  0
LINE
  5
9C
330
2
100
AcDbEntity
  8
GAIKEI
  6
Continuous
 62
     1
100
AcDbLine
 10
-47.28861875178694
 20
-14.43860218210011
 30
0.0
 11
8.172330248213029
 21
-14.43860218210011
 31
0.0
  0
LINE
  5
9D
330
2
100
AcDbEntity
  8
GAIKEI
  6
Continuous
 62
     1
100
AcDbLine
 10
8.316658098212997
 20
-14.29425793210004
 30
0.0
 11
8.316658098212997
 21
17.17169526789985
 31
0.0
  0
LINE
  5
9E
330
2
100
AcDbEntity
  8
GAIKEI
  6
Continuous
 62
     1
100
AcDbLine
 10
-47.43294660178697
 20
-14.29425793210004
 30
0.0
 11
-47.43294660178697
 21
17.17169526789985
 31
0.0
  0
LINE
  5
9F
330
2
100
AcDbEntity
  8
GAIKEI
  6
Continuous
 62
     1
100
AcDbLine
 10
8.256855748213041
 20
17.15696406789993
 30
0.0
 11
8.256855748213041
 21
-14.27952673210012
 31
0.0
  0
LINE
  5
A0
330
2
100
AcDbEntity
  8
GAIKEI
  6
Continuous
 62
     1
100
AcDbLine
 10
-47.37314425178698
 20
17.15696406789993
 30
0.0
 11
-47.37314425178698
 21
-14.27952673210012
 31
0.0
  0
LINE
  5
A1
330
2
100
AcDbEntity
  8
GAIKEI
  6
Continuous
 62
     1
100
AcDbLine
 10
8.157601148213046
 20
17.25621866789993
 30
0.0
 11
-47.27388965178699
 21
17.25621866789993
 31
0.0
  0
LINE
  5
A2
330
2
100
AcDbEntity
  8
GAIKEI
  6
Continuous
 62
     1
100
AcDbLine
 10
8.157601148213046
 20
-14.37878133210012
 30
0.0
 11
-47.27388965178699
 21
-14.37878133210012
 31
0.0
  0
LINE
  5
A3
330
2
100
AcDbEntity
  8
GAIKEI
  6
Continuous
100
AcDbLine
 10
10.49212984821301
 20
19.5387186678999
 30
0.0
 11
-49.60841835178695
 21
19.5387186678999
 31
0.0
  0
LINE
  5
A4
330
2
100
AcDbEntity
  8
GAIKEI
  6
Continuous
100
AcDbLine
 10
10.49212984821301
 20
-16.66128133210009
 30
0.0
 11
-49.60841835178695
 21
-16.66128133210009
 31
0.0
  0
ELLIPSE
  5
A5
330
2
100
AcDbEntity
  8
GAIKEI
  6
Continuous
 62
     1
100
AcDbEllipse
 10
-46.89323975178695
 20
-15.83637683210008
 30
0.0
 11
0.0178124651972453
 21
0.0178124651972453
 31
0.0
210
0.0
220
0.0
230
1.0
 40
0.9924330000012384
 41
5.50158524205745
 42
7.064785372302008
  0
ELLIPSE
  5
A6
330
2
100
AcDbEntity
  8
GAIKEI
  6
Continuous
 62
     1
100
AcDbEllipse
 10
-47.84680035178695
 20
-14.85493743210009
 30
0.0
 11
0.1595354047728925
 21
0.1595354047728925
 31
0.0
210
0.0
220
0.0
230
1.0
 40
0.997265000000023
 41
2.357564018062564
 42
3.925621289116989
  0
ELLIPSE
  5
A7
330
2
100
AcDbEntity
  8
GAIKEI
  6
Continuous
 62
     1
100
AcDbEllipse
 10
8.730511848213012
 20
-14.85493743210009
 30
0.0
 11
-0.1595354047728925
 21
0.1595354047728925
 31
0.0
210
0.0
220
0.0
230
1.0
 40
0.997265000000023
 41
2.357564018062596
 42
3.925621289117021
  0
ELLIPSE
  5
A8
330
2
100
AcDbEntity
  8
GAIKEI
  6
Continuous
 62
     1
100
AcDbEllipse
 10
8.730511848213012
 20
17.7323747678999
 30
0.0
 11
0.159535404772889
 21
0.1595354047728889
 31
0.0
210
0.0
220
0.0
230
1.0
 40
0.9972650000000992
 41
5.499156671652616
 42
7.067213942706619
  0
ELLIPSE
  5
A9
330
2
100
AcDbEntity
  8
GAIKEI
  6
Continuous
 62
     1
100
AcDbEllipse
 10
-47.84680035178695
 20
17.7323747678999
 30
0.0
 11
-0.1595354047728889
 21
0.159535404772889
 31
0.0
210
0.0
220
0.0
230
1.0
 40
0.9972650000000992
 41
-0.7840286355270326
 42
0.7840286355269695
  0
ELLIPSE
  5
AA
330
2
100
AcDbEntity
  8
GAIKEI
  6
Continuous
 62
     1
100
AcDbEllipse
 10
-46.89323975178695
 20
-16.13618583210012
 30
0.0
 11
-0.0178124651972667
 21
0.0178124651972667
 31
0.0
210
0.0
220
0.0
230
1.0
 40
0.9924329999999773
 41
2.359992588465603
 42
3.923192718713703
  0
ELLIPSE
  5
AB
330
2
100
AcDbEntity
  8
GAIKEI
  6
Continuous
 62
     1
100
AcDbEllipse
 10
-47.19304875178695
 20
-15.83637683210008
 30
0.0
 11
-0.0178124651972667
 21
0.0178124651972667
 31
0.0
210
0.0
220
0.0
230
1.0
 40
0.992432999998279
 41
-0.7816000651239091
 42
0.7816000651241919
  0
ELLIPSE
  5
AC
330
2
100
AcDbEntity
  8
GAIKEI
  6
Continuous
 62
     1
100
AcDbEllipse
 10
-47.19304875178695
 20
-16.13618583210012
 30
0.0
 11
0.0178124651972631
 21
0.0178124651972631
 31
0.0
210
0.0
220
0.0
230
1.0
 40
0.9924330000003765
 41
2.359992588465516
 42
3.923192718713782
  0
ELLIPSE
  5
AD
330
2
100
AcDbEntity
  8
GAIKEI
  6
Continuous
 62
     1
100
AcDbEllipse
 10
8.16837634821303
 20
17.16320371789987
 30
0.0
 11
0.085259189355603
 21
0.1284167499149077
 31
0.0
210
0.0
220
0.0
230
1.0
 40
0.9720119999987916
 41
0.2615629867885685
 42
0.5730948651545389
  0
ELLIPSE
  5
AE
330
2
100
AcDbEntity
  8
GAIKEI
  6
Continuous
 62
     1
100
AcDbEllipse
 10
-47.28466485178697
 20
17.16320371789987
 30
0.0
 11
-0.0852591893556044
 21
0.1284167499149068
 31
0.0
210
0.0
220
0.0
230
1.0
 40
0.9720119999987918
 41
-0.5730948651545499
 42
-0.2615629867885796
  0
ELLIPSE
  5
AF
330
2
100
AcDbEntity
  8
GAIKEI
  6
Continuous
 62
     1
100
AcDbEllipse
 10
-47.28466485178697
 20
-14.28576638210006
 30
0.0
 11
0.0852591893545455
 21
0.1284167499155941
 31
0.0
210
0.0
220
0.0
230
1.0
 40
0.9720119999983715
 41
3.403155640370685
 42
3.714687518736063
  0
ELLIPSE
  5
B0
330
2
100
AcDbEntity
  8
GAIKEI
  6
Continuous
 62
     1
100
AcDbEllipse
 10
8.16837634821303
 20
-14.28576638210006
 30
0.0
 11
-0.0852591893577444
 21
0.1284167499135195
 31
0.0
210
0.0
220
0.0
230
1.0
 40
0.9720119999996089
 41
2.568497788419069
 42
2.880029666783867
  0
ELLIPSE
  5
B1
330
2
100
AcDbEntity
  8
GAIKEI
  6
Continuous
 62
     1
100
AcDbEllipse
 10
8.163814348213065
 20
-14.29029613210008
 30
0.0
 11
-0.12846358223822
 21
0.0852052786893615
 31
0.0
210
0.0
220
0.0
230
1.0
 40
0.9719460000015663
 41
3.403369935232094
 42
3.714202442917041
  0
ELLIPSE
  5
B2
330
2
100
AcDbEntity
  8
GAIKEI
  6
Continuous
 62
     1
100
AcDbEllipse
 10
8.163814348213065
 20
17.16773346789989
 30
0.0
 11
0.1284635822350019
 21
0.0852052786943477
 31
0.0
210
0.0
220
0.0
230
1.0
 40
0.9719460000026607
 41
-0.5726097893656941
 42
-0.2617772816832753
  0
ELLIPSE
  5
B3
330
2
100
AcDbEntity
  8
GAIKEI
  6
Continuous
 62
     1
100
AcDbEllipse
 10
-47.28010285178697
 20
17.16773346789989
 30
0.0
 11
-0.1284635822448187
 21
0.085205278679174
 31
0.0
210
0.0
220
0.0
230
1.0
 40
0.9719459999970283
 41
0.2617772815647359
 42
0.5726097892496785
  0
ELLIPSE
  5
B4
330
2
100
AcDbEntity
  8
GAIKEI
  6
Continuous
 62
     1
100
AcDbEllipse
 10
-47.28010285178697
 20
-14.29029613210008
 30
0.0
 11
0.1284635822291533
 21
0.0852052787034152
 31
0.0
210
0.0
220
0.0
230
1.0
 40
0.9719460000057027
 41
2.568982864154635
 42
2.879815371837112
  0
ELLIPSE
  5
B5
330
2
100
AcDbEntity
  8
GAIKEI
  6
Continuous
 62
     1
100
AcDbEllipse
 10
8.156104748213067
 20
-14.27803033210006
 30
0.0
 11
-0.0717687988192779
 21
0.0717687988192779
 31
0.0
210
0.0
220
0.0
230
1.0
 40
0.9852569999999586
 41
2.363620831665282
 42
3.919564475514587
  0
ELLIPSE
  5
B6
330
2
100
AcDbEntity
  8
GAIKEI
  6
Continuous
 62
     1
100
AcDbEllipse
 10
-47.27239325178698
 20
-14.27803033210006
 30
0.0
 11
0.0717687988192779
 21
0.0717687988192779
 31
0.0
210
0.0
220
0.0
230
1.0
 40
0.9852570000000294
 41
2.363620831664963
 42
3.91956447551427
  0
ELLIPSE
  5
B7
330
2
100
AcDbEntity
  8
GAIKEI
  6
Continuous
 62
     1
100
AcDbEllipse
 10
-47.27239325178698
 20
17.15546766789987
 30
0.0
 11
-0.0717687988192637
 21
0.0717687988192637
 31
0.0
210
0.0
220
0.0
230
1.0
 40
0.9852570000004961
 41
-0.7779718219248054
 42
0.7779718219250871
  0
ELLIPSE
  5
B8
330
2
100
AcDbEntity
  8
GAIKEI
  6
Continuous
 62
     1
100
AcDbEllipse
 10
8.156104748213067
 20
17.15546766789987
 30
0.0
 11
0.0717687988192637
 21
0.0717687988192637
 31
0.0
210
0.0
220
0.0
230
1.0
 40
0.9852570000004959
 41
5.505213485254499
 42
7.061157129104673
  0
LINE
  5
B9
330
2
100
AcDbEntity
  8
GAIKEI
  6
Continuous
 62
     7
100
AcDbLine
 10
11.18586344821304
 20
18.80593669289993
 30
0.0
 11
11.18586344821304
 21
-15.9285115071001
 31
0.0
  0
SPLINE
  5
BA
330
2
100
AcDbEntity
  8
GAIKEI
  6
Continuous
 62
     7
100
AcDbSpline
210
0.0
220
0.0
230
1.0
 70
     8
 71
     3
 72
     9
 73
     5
 74
     0
 42
0.0000000001
 43
0.0000000001
 40
0.0
 40
0.0
 40
0.0
 40
0.0
 40
14.91719755737096
 40
30.09423971494808
 40
30.09423971494808
 40
30.09423971494808
 40
30.09423971494808
 10
12.79633709196307
 20
-16.65817461764698
 30
0.0
 10
12.54771717674717
 20
-16.65832265541712
 30
0.0
 10
12.04614654202643
 20
-16.6585199391867
 30
0.0
 10
11.54457588035356
 20
-16.6585802942987
 30
0.0
 10
11.29162517790055
 20
-16.65858965670947
 30
0.0
  0
SPLINE
  5
BB
330
2
100
AcDbEntity
  8
GAIKEI
  6
Continuous
 62
     7
100
AcDbSpline
210
0.0
220
0.0
230
1.0
 70
     8
 71
     3
 72
     9
 73
     5
 74
     0
 42
0.0000000001
 43
0.0000000001
 40
0.0
 40
0.0
 40
0.0
 40
0.0
 40
3.131012357143871
 40
6.214320535329698
 40
6.214320535329698
 40
6.214320535329698
 40
6.214320535329698
 10
15.93705974821304
 20
-16.45168047702197
 30
0.0
 10
15.9369903300034
 20
-16.50386397013517
 30
0.0
 10
15.89371286345133
 20
-16.61159769766811
 30
0.0
 10
15.78610406758392
 20
-16.65570410262842
 30
0.0
 10
15.73471599821309
 20
-16.65550127780318
 30
0.0
  0
SPLINE
  5
BC
330
2
100
AcDbEntity
  8
GAIKEI
  6
Continuous
 62
     1
100
AcDbSpline
210
0.0
220
0.0
230
1.0
 70
     8
 71
     3
 72
     9
 73
     5
 74
     0
 42
0.0000000001
 43
0.0000000001
 40
0.0
 40
0.0
 40
0.0
 40
0.0
 40
0.0078534411293542
 40
0.0157394946032041
 40
0.0157394946032041
 40
0.0157394946032041
 40
0.0157394946032041
 10
12.79555584196308
 20
-16.6580891684282
 30
0.0
 10
12.79568360850104
 20
-16.65811759523444
 30
0.0
 10
12.79594330434432
 20
-16.65815901601729
 30
0.0
 10
12.79620566522206
 20
-16.65817321510172
 30
0.0
 10
12.79633709196307
 20
-16.65817461764698
 30
0.0
  0
SPLINE
  5
BD
330
2
100
AcDbEntity
  8
GAIKEI
  6
Continuous
 62
     7
100
AcDbSpline
210
0.0
220
0.0
230
1.0
 70
     8
 71
     3
 72
     9
 73
     5
 74
     0
 42
0.0000000001
 43
0.0000000001
 40
0.0
 40
0.0
 40
0.0
 40
0.0
 40
29.39737301754986
 40
58.7946987442469
 40
58.7946987442469
 40
58.7946987442469
 40
58.7946987442469
 10
15.73607097868179
 20
-16.65578203952196
 30
0.0
 10
15.24611524532028
 20
-16.65647043119111
 30
0.0
 10
14.26620397600388
 20
-16.65742649256424
 30
0.0
 10
13.28629246184911
 20
-16.65793439042198
 30
0.0
 10
12.79633709196307
 20
-16.65817461764698
 30
0.0
  0
SPLINE
  5
BE
330
2
100
AcDbEntity
  8
GAIKEI
  6
Continuous
 62
     1
100
AcDbSpline
210
0.0
220
0.0
230
1.0
 70
     8
 71
     3
 72
     9
 73
     5
 74
     0
 42
0.0000000001
 43
0.0000000001
 40
0.0
 40
0.0
 40
0.0
 40
0.0
 40
0.0137885163468726
 40
0.0277971563202312
 40
0.0277971563202312
 40
0.0277971563202312
 40
0.0277971563202312
 10
15.73607097868179
 20
-16.65578203952196
 30
0.0
 10
15.73584117275177
 20
-16.65578093055848
 30
0.0
 10
15.73537719649013
 20
-16.65572702893729
 30
0.0
 10
15.73493289076836
 20
-16.65558770282524
 30
0.0
 10
15.73471599821309
 20
-16.65550127780318
 30
0.0
  0
SPLINE
  5
BF
330
2
100
AcDbEntity
  8
GAIKEI
  6
Continuous
 62
     7
100
AcDbSpline
210
0.0
220
0.0
230
1.0
 70
     8
 71
     3
 72
     9
 73
     5
 74
     0
 42
0.0000000001
 43
0.0000000001
 40
0.0
 40
0.0
 40
0.0
 40
0.0
 40
2.608801521942092
 40
5.218901201754872
 40
5.218901201754872
 40
5.218901201754872
 40
5.218901201754872
 10
11.09193035368182
 20
-16.45880938327195
 30
0.0
 10
11.09196231184094
 20
-16.50228939689293
 30
0.0
 10
11.12299937255565
 20
-16.59141403862929
 30
0.0
 10
11.20230568958394
 20
-16.64261332917368
 30
0.0
 10
11.24457927946306
 20
-16.65287676608443
 30
0.0
  0
LINE
  5
C0
330
2
100
AcDbEntity
  8
GAIKEI
  6
Continuous
 62
     1
100
AcDbLine
 10
11.09193043384948
 20
-16.45889268657669
 30
0.0
 11
11.46198669821305
 21
-16.08847260710007
 31
0.0
  0
SPLINE
  5
C1
330
2
100
AcDbEntity
  8
GAIKEI
  6
Continuous
 62
     1
100
AcDbSpline
210
0.0
220
0.0
230
1.0
 70
     8
 71
     3
 72
     9
 73
     5
 74
     0
 42
0.0000000001
 43
0.0000000001
 40
0.0
 40
0.0
 40
0.0
 40
0.0
 40
3.00649021551401
 40
6.013928399846387
 40
6.013928399846387
 40
6.013928399846387
 40
6.013928399846387
 10
11.66197429899429
 20
-16.28847246920947
 30
0.0
 10
11.61214393513782
 20
-16.2832033549962
 30
0.0
 10
11.51210776860554
 20
-16.23832666542284
 30
0.0
 10
11.46725390557716
 20
-16.13832331474737
 30
0.0
 10
11.46191326383805
 20
-16.08848467624068
 30
0.0
  0
LINE
  5
C2
330
2
100
AcDbEntity
  8
GAIKEI
  6
Continuous
 62
     1
100
AcDbLine
 10
11.29155855752003
 20
-16.6585285600982
 30
0.0
 11
11.66198034821306
 21
-16.2884705071001
 31
0.0
  0
SPLINE
  5
C3
330
2
100
AcDbEntity
  8
GAIKEI
  6
Continuous
 62
     1
100
AcDbSpline
210
0.0
220
0.0
230
1.0
 70
     8
 71
     3
 72
     9
 73
     5
 74
     0
 42
0.0000000001
 43
0.0000000001
 40
0.0
 40
0.0
 40
0.0
 40
0.0
 40
0.0029296476091856
 40
0.8659950720233828
 40
0.8659950720233828
 40
0.8659950720233828
 40
0.8659950720233828
 10
11.4281608224318
 20
-16.52217608249072
 30
0.0
 10
11.42811214091111
 20
-16.52217985481195
 30
0.0
 10
11.41365674727186
 20
-16.52163488666059
 30
0.0
 10
11.39954073728737
 20
-16.5180208554425
 30
0.0
 10
11.38524090055679
 20
-16.51646319186568
 30
0.0
  0
LINE
  5
C4
330
2
100
AcDbEntity
  8
GAIKEI
  6
Continuous
 62
     1
100
AcDbLine
 10
11.66197429821304
 20
-16.28847245710005
 30
0.0
 11
15.42106854821307
 21
-16.28847245710005
 31
0.0
  0
LINE
  5
C5
330
2
100
AcDbEntity
  8
GAIKEI
  6
Continuous
 62
     1
100
AcDbLine
 10
15.85465054821301
 20
-16.32312260710006
 30
0.0
 11
15.62103244821307
 21
-16.08852520710007
 31
0.0
  0
SPLINE
  5
C6
330
2
100
AcDbEntity
  8
GAIKEI
  6
Continuous
 62
     1
100
AcDbSpline
210
0.0
220
0.0
230
1.0
 70
     8
 71
     3
 72
     9
 73
     5
 74
     0
 42
0.0000000001
 43
0.0000000001
 40
0.0
 40
0.0
 40
0.0
 40
0.0
 40
0.432326092216564
 40
0.8912202709941183
 40
0.8912202709941183
 40
0.8912202709941183
 40
0.8912202709941183
 10
15.84880291227554
 20
-16.36730547702194
 30
0.0
 10
15.84957538467378
 20
-16.3601415690058
 30
0.0
 10
15.85123375825233
 20
-16.34537995701379
 30
0.0
 10
15.85339143656111
 20
-16.33067819676802
 30
0.0
 10
15.85468670133806
 20
-16.32314043795946
 30
0.0
  0
SPLINE
  5
C7
330
2
100
AcDbEntity
  8
GAIKEI
  6
Continuous
 62
     1
100
AcDbSpline
210
0.0
220
0.0
230
1.0
 70
     8
 71
     3
 72
     9
 73
     5
 74
     0
 42
0.0000000001
 43
0.0000000001
 40
0.0
 40
0.0
 40
0.0
 40
0.0
 40
1.656235736553358
 40
4.523581821308481
 40
4.523581821308481
 40
4.523581821308481
 40
4.523581821308481
 10
15.69767986540054
 20
-16.5188069418657
 30
0.0
 10
15.72513424632044
 20
-16.5159374712922
 30
0.0
 10
15.79942194302865
 20
-16.49038703225631
 30
0.0
 10
15.84371553489805
 20
-16.41482301910105
 30
0.0
 10
15.84880291227554
 20
-16.36730547702194
 30
0.0
  0
SPLINE
  5
C8
330
2
100
AcDbEntity
  8
GAIKEI
  6
Continuous
 62
     1
100
AcDbSpline
210
0.0
220
0.0
230
1.0
 70
     8
 71
     3
 72
     9
 73
     5
 74
     0
 42
0.0000000001
 43
0.0000000001
 40
0.0
 40
0.0
 40
0.0
 40
0.0
 40
0.4082020433341026
 40
0.8156013125728581
 40
0.8156013125728581
 40
0.8156013125728581
 40
0.8156013125728581
 10
15.65725017790058
 20
-16.52410479342819
 30
0.0
 10
15.66396133141202
 20
-16.522988448332
 30
0.0
 10
15.67741864291659
 20
-16.52104404474602
 30
0.0
 10
15.69092636211294
 20
-16.51950988421657
 30
0.0
 10
15.69767986540054
 20
-16.5188069418657
 30
0.0
  0
LINE
  5
C9
330
2
100
AcDbEntity
  8
GAIKEI
  6
Continuous
 62
     1
100
AcDbLine
 10
15.42106849821303
 20
-16.28846385710005
 30
0.0
 11
15.65735874821305
 21
-16.52408410710006
 31
0.0
  0
SPLINE
  5
CA
330
2
100
AcDbEntity
  8
GAIKEI
  6
Continuous
 62
     1
100
AcDbSpline
210
0.0
220
0.0
230
1.0
 70
     8
 71
     3
 72
     9
 73
     5
 74
     0
 42
0.0000000001
 43
0.0000000001
 40
0.0
 40
0.0
 40
0.0
 40
0.0
 40
1.517294349229331
 40
5.91932657678531
 40
5.91932657678531
 40
5.91932657678531
 40
5.91932657678531
 10
15.6210319161818
 20
-16.08852129733447
 30
0.0
 10
15.61915493896939
 20
-16.11373978253965
 30
0.0
 10
15.59306833958365
 20
-16.21073284683564
 30
0.0
 10
15.49402599885124
 20
-16.28072938243622
 30
0.0
 10
15.42106853727554
 20
-16.28847246920947
 30
0.0
  0
SPLINE
  5
CB
330
2
100
AcDbEntity
  8
GAIKEI
  6
Continuous
 62
     1
100
AcDbSpline
210
0.0
220
0.0
230
1.0
 70
     8
 71
     3
 72
     9
 73
     5
 74
     0
 42
0.0000000001
 43
0.0000000001
 40
0.0
 40
0.0
 40
0.0
 40
0.0
 40
0.4323703203184989
 40
0.8655681094042307
 40
0.8655681094042307
 40
0.8655681094042307
 40
0.8655681094042307
 10
11.23399578336929
 20
-16.36520586764698
 30
0.0
 10
11.23321421101096
 20
-16.35804220520242
 30
0.0
 10
11.23153573855413
 20
-16.34371309097213
 30
0.0
 10
11.22946271438602
 20
-16.32943327277803
 30
0.0
 10
11.22828289274432
 20
-16.32231035983443
 30
0.0
  0
SPLINE
  5
CC
330
2
100
AcDbEntity
  8
GAIKEI
  6
Continuous
 62
     7
100
AcDbSpline
210
0.0
220
0.0
230
1.0
 70
     8
 71
     3
 72
     9
 73
     5
 74
     0
 42
0.0000000001
 43
0.0000000001
 40
0.0
 40
0.0
 40
0.0
 40
0.0
 40
0.4745863747763912
 40
0.9491031297469218
 40
0.9491031297469218
 40
0.9491031297469218
 40
0.9491031297469218
 10
11.29161297086929
 20
-16.65852862155321
 30
0.0
 10
11.28370320185459
 20
-16.65852076865366
 30
0.0
 10
11.26787264928785
 20
-16.6575590656235
 30
0.0
 10
11.25226385044081
 20
-16.65474586262377
 30
0.0
 10
11.24457927946306
 20
-16.65287676608443
 30
0.0
  0
LINE
  5
CD
330
2
100
AcDbEntity
  8
GAIKEI
  6
Continuous
 62
     7
100
AcDbLine
 10
11.24457869821307
 20
-16.65287545710009
 30
0.0
 11
11.24455409821305
 21
-16.65297705710009
 31
0.0
  0
SPLINE
  5
CE
330
2
100
AcDbEntity
  8
GAIKEI
  6
Continuous
 62
     7
100
AcDbSpline
210
0.0
220
0.0
230
1.0
 70
     8
 71
     3
 72
     9
 73
     5
 74
     0
 42
0.0000000001
 43
0.0000000001
 40
0.0
 40
0.0
 40
0.0
 40
0.0
 40
0.000307133192375
 40
0.0012511406223669
 40
0.0012511406223669
 40
0.0012511406223669
 40
0.0012511406223669
 10
11.29162517790055
 20
-16.65858965670947
 30
0.0
 10
11.2916202556855
 20
-16.65859106198468
 30
0.0
 10
11.2916193914547
 20
-16.6585562746103
 30
0.0
 10
11.29161434067273
 20
-16.65854429526729
 30
0.0
 10
11.29161297086929
 20
-16.65852862155321
 30
0.0
  0
SPLINE
  5
CF
330
2
100
AcDbEntity
  8
GAIKEI
  6
Continuous
 62
     7
100
AcDbSpline
210
0.0
220
0.0
230
1.0
 70
     8
 71
     3
 72
     9
 73
     5
 74
     0
 42
0.0000000001
 43
0.0000000001
 40
0.0
 40
0.0
 40
0.0
 40
0.0
 40
29.39312756231776
 40
58.78322706070662
 40
58.78322706070662
 40
58.78322706070662
 40
58.78322706070662
 10
12.79555584196308
 20
-16.6580891684282
 30
0.0
 10
13.28544115143799
 20
-16.65770593908246
 30
0.0
 10
14.26516143753244
 20
-16.65718272152094
 30
0.0
 10
15.24488161290278
 20
-16.65627199337649
 30
0.0
 10
15.73471599821309
 20
-16.65550127780318
 30
0.0
  0
SPLINE
  5
D0
330
2
100
AcDbEntity
  8
GAIKEI
  6
Continuous
 62
     7
100
AcDbSpline
210
0.0
220
0.0
230
1.0
 70
     8
 71
     3
 72
     9
 73
     5
 74
     0
 42
0.0000000001
 43
0.0000000001
 40
0.0
 40
0.0
 40
0.0
 40
0.0
 40
15.17019098155854
 40
30.07885903948136
 40
30.07885903948136
 40
30.07885903948136
 40
30.07885903948136
 10
11.29161297086929
 20
-16.65852862155321
 30
0.0
 10
11.54444948701965
 20
-16.65851834135316
 30
0.0
 10
12.04576380424768
 20
-16.65845730441253
 30
0.0
 10
12.54707809151736
 20
-16.65824761729976
 30
0.0
 10
12.79555584196308
 20
-16.6580891684282
 30
0.0
  0
LINE
  5
D1
330
2
100
AcDbEntity
  8
GAIKEI
  6
Continuous
 62
     7
100
AcDbLine
 10
11.17254130497883
 20
-16.3862874071001
 30
0.0
 11
11.18586969821305
 21
-15.92851015710005
 31
0.0
  0
LINE
  5
D2
330
2
100
AcDbEntity
  8
GAIKEI
  6
Continuous
 62
     1
100
AcDbLine
 10
11.18586344821304
 20
-15.9285115071001
 30
0.0
 11
10.62405924821306
 21
-15.9285115071001
 31
0.0
  0
SPLINE
  5
D3
330
2
100
AcDbEntity
  8
GAIKEI
  6
Continuous
 62
     1
100
AcDbSpline
210
0.0
220
0.0
230
1.0
 70
     8
 71
     3
 72
     9
 73
     5
 74
     0
 42
0.0000000001
 43
0.0000000001
 40
0.0
 40
0.0
 40
0.0
 40
0.0
 40
42.29127472562083
 40
84.58180013910597
 40
84.58180013910597
 40
84.58180013910597
 40
84.58180013910597
 10
15.65725017790058
 20
-16.52410479342819
 30
0.0
 10
14.95239597159795
 20
-16.52338018529446
 30
0.0
 10
13.54269968986418
 20
-16.5222484064372
 30
0.0
 10
12.13300289275335
 20
-16.52200857949606
 30
0.0
 10
11.4281608224318
 20
-16.52217608249072
 30
0.0
  0
SPLINE
  5
D4
330
2
100
AcDbEntity
  8
GAIKEI
  6
Continuous
 62
     1
100
AcDbSpline
210
0.0
220
0.0
230
1.0
 70
     8
 71
     3
 72
     9
 73
     5
 74
     0
 42
0.0000000001
 43
0.0000000001
 40
0.0
 40
0.0
 40
0.0
 40
0.0
 40
1.945368404595981
 40
4.533175250603751
 40
4.533175250603751
 40
4.533175250603751
 40
4.533175250603751
 10
11.38524090055679
 20
-16.51646319186568
 30
0.0
 10
11.35290179853714
 20
-16.51413491403144
 30
0.0
 10
11.27858562864415
 20
-16.48243469017814
 30
0.0
 10
11.23863253452126
 20
-16.40808601784545
 30
0.0
 10
11.23399578336929
 20
-16.36520586764698
 30
0.0
  0
LINE
  5
D5
330
2
100
AcDbEntity
  8
GAIKEI
  6
Continuous
 62
     7
100
AcDbLine
 10
11.09193034821302
 20
-16.45880940710009
 30
0.0
 11
11.09193034821302
 21
-16.3862874071001
 31
0.0
  0
LINE
  5
D6
330
2
100
AcDbEntity
  8
GAIKEI
  6
Continuous
 62
     1
100
AcDbLine
 10
11.09193034821302
 20
-16.45880940710009
 30
0.0
 11
11.09186929821302
 21
-16.45880940710009
 31
0.0
  0
LINE
  5
D7
330
2
100
AcDbEntity
  8
GAIKEI
  6
Continuous
 62
     1
100
AcDbLine
 10
11.09186979821308
 20
-16.45880665710007
 30
0.0
 11
11.09185759821307
 21
-16.45880665710007
 31
0.0
  0
LINE
  5
D8
330
2
100
AcDbEntity
  8
GAIKEI
  6
Continuous
 62
     1
100
AcDbLine
 10
15.93705974821304
 20
-16.45168045710011
 30
0.0
 11
15.93712079821304
 21
-16.45168045710011
 31
0.0
  0
SPLINE
  5
D9
330
2
100
AcDbEntity
  8
GAIKEI
  6
Continuous
 62
     7
100
AcDbSpline
210
0.0
220
0.0
230
1.0
 70
     8
 71
     3
 72
     9
 73
     5
 74
     0
 42
0.0000000001
 43
0.0000000001
 40
0.0
 40
0.0
 40
0.0
 40
0.0
 40
15.17688766217361
 40
30.09423971492175
 40
30.09423971492175
 40
30.09423971492175
 40
30.09423971492175
 10
11.29162517790055
 20
19.53602704250926
 30
0.0
 10
11.54457330545259
 20
19.53601830638916
 30
0.0
 10
12.04614396728365
 20
19.53595733526589
 30
0.0
 10
12.54771460144312
 20
19.53575940046727
 30
0.0
 10
12.79633709196307
 20
19.53561200344683
 30
0.0
  0
SPLINE
  5
DA
330
2
100
AcDbEntity
  8
GAIKEI
  6
Continuous
 62
     7
100
AcDbSpline
210
0.0
220
0.0
230
1.0
 70
     8
 71
     3
 72
    10
 73
     6
 74
     0
 42
0.0000000001
 43
0.0000000001
 40
0.0
 40
0.0
 40
0.0
 40
0.0
 40
0.2724492370619989
 40
0.9948730228349431
 40
6.021982962936184
 40
6.021982962936184
 40
6.021982962936184
 40
6.021982962936184
 10
15.74136883024434
 20
19.54525555813433
 30
0.0
 10
15.74075387808145
 20
19.54075657094614
 30
0.0
 10
15.7511305152224
 20
19.5234970685853
 30
0.0
 10
15.863983832081
 20
19.54608082217618
 30
0.0
 10
15.93765403899269
 20
19.41290140830921
 30
0.0
 10
15.93713299040055
 20
19.32911786282176
 30
0.0
  0
SPLINE
  5
DB
330
2
100
AcDbEntity
  8
GAIKEI
  6
Continuous
 62
     1
100
AcDbSpline
210
0.0
220
0.0
230
1.0
 70
     8
 71
     3
 72
     9
 73
     5
 74
     0
 42
0.0000000001
 43
0.0000000001
 40
0.0
 40
0.0
 40
0.0
 40
0.0
 40
0.0078759195154627
 40
0.0157679125147925
 40
0.0157679125147925
 40
0.0157679125147925
 40
0.0157679125147925
 10
12.79555584196308
 20
19.53551434719679
 30
0.0
 10
12.79568397419879
 20
19.53554285536722
 30
0.0
 10
12.79594281392374
 20
19.53559025577561
 30
0.0
 10
12.79620556623561
 20
19.5356105998452
 30
0.0
 10
12.79633709196307
 20
19.53561200344683
 30
0.0
  0
SPLINE
  5
DC
330
2
100
AcDbEntity
  8
GAIKEI
  6
Continuous
 62
     7
100
AcDbSpline
210
0.0
220
0.0
230
1.0
 70
     8
 71
     3
 72
     9
 73
     5
 74
     0
 42
0.0000000001
 43
0.0000000001
 40
0.0
 40
0.0
 40
0.0
 40
0.0
 40
29.41054305853916
 40
58.9011871801054
 40
58.9011871801054
 40
58.9011871801054
 40
58.9011871801054
 10
12.79633709196307
 20
19.53561200344683
 30
0.0
 10
13.28651275457324
 20
19.53537973021752
 30
0.0
 10
14.2681983737551
 20
19.53485983634499
 30
0.0
 10
15.24988699278154
 20
19.53992579099207
 30
0.0
 10
15.74136883024434
 20
19.54525555813433
 30
0.0
  0
SPLINE
  5
DD
330
2
100
AcDbEntity
  8
GAIKEI
  6
Continuous
 62
     7
100
AcDbSpline
210
0.0
220
0.0
230
1.0
 70
     8
 71
     3
 72
     9
 73
     5
 74
     0
 42
0.0000000001
 43
0.0000000001
 40
0.0
 40
0.0
 40
0.0
 40
0.0
 40
2.608801521942092
 40
5.218901201754872
 40
5.218901201754872
 40
5.218901201754872
 40
5.218901201754872
 10
11.09193035368182
 20
19.33623456204054
 30
0.0
 10
11.09196231184094
 20
19.37971457566147
 30
0.0
 10
11.12299937255565
 20
19.46883921739783
 30
0.0
 10
11.20230568958394
 20
19.52003850794227
 30
0.0
 10
11.24457927946306
 20
19.53030194485308
 30
0.0
  0
LINE
  5
DE
330
2
100
AcDbEntity
  8
GAIKEI
  6
Continuous
 62
     1
100
AcDbLine
 10
11.46198219821306
 20
18.96592804289992
 30
0.0
 11
11.09193046615024
 21
19.33634350644451
 31
0.0
  0
SPLINE
  5
DF
330
2
100
AcDbEntity
  8
GAIKEI
  6
Continuous
 62
     1
100
AcDbSpline
210
0.0
220
0.0
230
1.0
 70
     8
 71
     3
 72
     9
 73
     5
 74
     0
 42
0.0000000001
 43
0.0000000001
 40
0.0
 40
0.0
 40
0.0
 40
0.0
 40
3.00649021551401
 40
6.013928399846387
 40
6.013928399846387
 40
6.013928399846387
 40
6.013928399846387
 10
11.66197429899429
 20
19.16590985500926
 30
0.0
 10
11.61214393513782
 20
19.16064074079599
 30
0.0
 10
11.51210776860554
 20
19.1157640512227
 30
0.0
 10
11.46725390557716
 20
19.01576070054722
 30
0.0
 10
11.46191326383805
 20
18.96592206204053
 30
0.0
  0
LINE
  5
E0
330
2
100
AcDbEntity
  8
GAIKEI
  6
Continuous
 62
     1
100
AcDbLine
 10
11.29155429294425
 20
19.53596594039288
 30
0.0
 11
11.66197524821305
 21
19.16590864289992
 31
0.0
  0
SPLINE
  5
E1
330
2
100
AcDbEntity
  8
GAIKEI
  6
Continuous
 62
     1
100
AcDbSpline
210
0.0
220
0.0
230
1.0
 70
     8
 71
     3
 72
     9
 73
     5
 74
     0
 42
0.0000000001
 43
0.0000000001
 40
0.0
 40
0.0
 40
0.0
 40
0.0
 40
0.0029398165566283
 40
0.8660048802469422
 40
0.8660048802469422
 40
0.8660048802469422
 40
0.8660048802469422
 10
11.4281608224318
 20
19.3996012612593
 30
0.0
 10
11.42811197193523
 20
19.39960504667448
 30
0.0
 10
11.41373083777316
 20
19.40084936770614
 30
0.0
 10
11.39954073131062
 20
19.39545824059127
 30
0.0
 10
11.38524090055679
 20
19.39390057766553
 30
0.0
  0
LINE
  5
E2
330
2
100
AcDbEntity
  8
GAIKEI
  6
Continuous
 62
     1
100
AcDbLine
 10
11.66197429821304
 20
19.16589764289989
 30
0.0
 11
15.42106854821307
 21
19.16589764289989
 31
0.0
  0
LINE
  5
E3
330
2
100
AcDbEntity
  8
GAIKEI
  6
Continuous
 62
     1
100
AcDbLine
 10
15.85465139821306
 20
19.2005644928999
 30
0.0
 11
15.62103329821306
 21
18.96596709289991
 31
0.0
  0
SPLINE
  5
E4
330
2
100
AcDbEntity
  8
GAIKEI
  6
Continuous
 62
     1
100
AcDbSpline
210
0.0
220
0.0
230
1.0
 70
     8
 71
     3
 72
     9
 73
     5
 74
     0
 42
0.0000000001
 43
0.0000000001
 40
0.0
 40
0.0
 40
0.0
 40
0.0
 40
0.4322048384549121
 40
0.8909782849838181
 40
0.8909782849838181
 40
0.8909782849838181
 40
0.8909782849838181
 10
15.84880291227554
 20
19.24473065579053
 30
0.0
 10
15.84957516801975
 20
19.23756875702344
 30
0.0
 10
15.85123374576184
 20
19.22281121556784
 30
0.0
 10
15.85339177733735
 20
19.20811359942968
 30
0.0
 10
15.85468670133806
 20
19.20057782375926
 30
0.0
  0
SPLINE
  5
E5
330
2
100
AcDbEntity
  8
GAIKEI
  6
Continuous
 62
     1
100
AcDbSpline
210
0.0
220
0.0
230
1.0
 70
     8
 71
     3
 72
     9
 73
     5
 74
     0
 42
0.0000000001
 43
0.0000000001
 40
0.0
 40
0.0
 40
0.0
 40
0.0
 40
1.656235735949052
 40
4.523791651747365
 40
4.523791651747365
 40
4.523791651747365
 40
4.523791651747365
 10
15.69767986540054
 20
19.39624432766555
 30
0.0
 10
15.72513424631043
 20
19.39337485709308
 30
0.0
 10
15.79942668310016
 20
19.36782372941781
 30
0.0
 10
15.84371516260617
 20
19.29225167518115
 30
0.0
 10
15.84880291227554
 20
19.24473065579053
 30
0.0
  0
SPLINE
  5
E6
330
2
100
AcDbEntity
  8
GAIKEI
  6
Continuous
 62
     1
100
AcDbSpline
210
0.0
220
0.0
230
1.0
 70
     8
 71
     3
 72
     9
 73
     5
 74
     0
 42
0.0000000001
 43
0.0000000001
 40
0.0
 40
0.0
 40
0.0
 40
0.0
 40
0.4081843447942165
 40
0.8155696340608679
 40
0.8155696340608679
 40
0.8155696340608679
 40
0.8155696340608679
 10
15.65725017790058
 20
19.40152997219678
 30
0.0
 10
15.66396104043454
 20
19.40041367550231
 30
0.0
 10
15.67741879309616
 20
19.39847529094447
 30
0.0
 10
15.69092659386049
 20
19.39694724589481
 30
0.0
 10
15.69767986540054
 20
19.39624432766555
 30
0.0
  0
LINE
  5
E7
330
2
100
AcDbEntity
  8
GAIKEI
  6
Continuous
 62
     1
100
AcDbLine
 10
15.42106099821305
 20
19.16591419289995
 30
0.0
 11
15.65735119821303
 21
19.40153439289992
 31
0.0
  0
SPLINE
  5
E8
330
2
100
AcDbEntity
  8
GAIKEI
  6
Continuous
 62
     1
100
AcDbSpline
210
0.0
220
0.0
230
1.0
 70
     8
 71
     3
 72
     9
 73
     5
 74
     0
 42
0.0000000001
 43
0.0000000001
 40
0.0
 40
0.0
 40
0.0
 40
0.0
 40
1.517294350060504
 40
5.919467210682682
 40
5.919467210682682
 40
5.919467210682682
 40
5.919467210682682
 10
15.6210319161818
 20
18.96594647610305
 30
0.0
 10
15.61915493896836
 20
18.99116496132205
 30
0.0
 10
15.59306650710536
 20
19.08815884215045
 30
0.0
 10
15.49402832964554
 20
19.15816652086533
 30
0.0
 10
15.42106853727554
 20
19.16590985500926
 30
0.0
  0
SPLINE
  5
E9
330
2
100
AcDbEntity
  8
GAIKEI
  6
Continuous
 62
     1
100
AcDbSpline
210
0.0
220
0.0
230
1.0
 70
     8
 71
     3
 72
     9
 73
     5
 74
     0
 42
0.0000000001
 43
0.0000000001
 40
0.0
 40
0.0
 40
0.0
 40
0.0
 40
0.4322491288119172
 40
0.8653261276181417
 40
0.8653261276181417
 40
0.8653261276181417
 40
0.8653261276181417
 10
11.23399578336929
 20
19.24263104641551
 30
0.0
 10
11.23321443008225
 20
19.23546939191425
 30
0.0
 10
11.23153578518102
 20
19.22114434769475
 30
0.0
 10
11.22946238541166
 20
19.20686867246746
 30
0.0
 10
11.22828289274432
 20
19.19974774563428
 30
0.0
  0
SPLINE
  5
EA
330
2
100
AcDbEntity
  8
GAIKEI
  6
Continuous
 62
     7
100
AcDbSpline
210
0.0
220
0.0
230
1.0
 70
     8
 71
     3
 72
     9
 73
     5
 74
     0
 42
0.0000000001
 43
0.0000000001
 40
0.0
 40
0.0
 40
0.0
 40
0.0
 40
0.4745936221338634
 40
0.9491322391598641
 40
0.9491322391598641
 40
0.9491322391598641
 40
0.9491322391598641
 10
11.29161297086929
 20
19.53596600735301
 30
0.0
 10
11.28370308106534
 20
19.53595815433357
 30
0.0
 10
11.26787206213456
 20
19.53499024967141
 30
0.0
 10
11.25226420448629
 20
19.53217112750582
 30
0.0
 10
11.24457927946306
 20
19.53030194485308
 30
0.0
  0
LINE
  5
EB
330
2
100
AcDbEntity
  8
GAIKEI
  6
Continuous
 62
     7
100
AcDbLine
 10
11.24458344821303
 20
19.53031434289988
 30
0.0
 11
11.24456044821303
 21
19.53040924289991
 31
0.0
  0
SPLINE
  5
EC
330
2
100
AcDbEntity
  8
GAIKEI
  6
Continuous
 62
     7
100
AcDbSpline
210
0.0
220
0.0
230
1.0
 70
     8
 71
     3
 72
     9
 73
     5
 74
     0
 42
0.0000000001
 43
0.0000000001
 40
0.0
 40
0.0
 40
0.0
 40
0.0
 40
0.000307133192375
 40
0.0012511406223669
 40
0.0012511406223669
 40
0.0012511406223669
 40
0.0012511406223669
 10
11.29162517790055
 20
19.53602704250926
 30
0.0
 10
11.2916202556855
 20
19.53602844778453
 30
0.0
 10
11.2916193914547
 20
19.53599366041015
 30
0.0
 10
11.29161434067273
 20
19.53598168106708
 30
0.0
 10
11.29161297086929
 20
19.53596600735301
 30
0.0
  0
SPLINE
  5
ED
330
2
100
AcDbEntity
  8
GAIKEI
  6
Continuous
 62
     7
100
AcDbSpline
210
0.0
220
0.0
230
1.0
 70
     8
 71
     3
 72
     9
 73
     5
 74
     0
 42
0.0000000001
 43
0.0000000001
 40
0.0
 40
0.0
 40
0.0
 40
0.0
 40
15.17019099972979
 40
30.07885911212641
 40
30.07885911212641
 40
30.07885911212641
 40
30.07885911212641
 10
11.29161297086929
 20
19.53596600735301
 30
0.0
 10
11.54444948732245
 20
19.53595572715295
 30
0.0
 10
12.04576380579524
 20
19.53588869283908
 30
0.0
 10
12.54707809060946
 20
19.53567279606892
 30
0.0
 10
12.79555584196308
 20
19.53551434719679
 30
0.0
  0
LINE
  5
EE
330
2
100
AcDbEntity
  8
GAIKEI
  6
Continuous
 62
     7
100
AcDbLine
 10
11.17254180688292
 20
19.26371259289999
 30
0.0
 11
11.18587009821303
 21
18.80593884289993
 31
0.0
  0
LINE
  5
EF
330
2
100
AcDbEntity
  8
GAIKEI
  6
Continuous
 62
     1
100
AcDbLine
 10
10.62248454821306
 20
18.80593669289993
 30
0.0
 11
11.18586344821304
 21
18.80593669289993
 31
0.0
  0
SPLINE
  5
F0
330
2
100
AcDbEntity
  8
GAIKEI
  6
Continuous
 62
     1
100
AcDbSpline
210
0.0
220
0.0
230
1.0
 70
     8
 71
     3
 72
     9
 73
     5
 74
     0
 42
0.0000000001
 43
0.0000000001
 40
0.0
 40
0.0
 40
0.0
 40
0.0
 40
42.29127472562083
 40
84.58180013910597
 40
84.58180013910597
 40
84.58180013910597
 40
84.58180013910597
 10
15.65725017790058
 20
19.40152997219678
 30
0.0
 10
14.95239597159795
 20
19.40080536406305
 30
0.0
 10
13.54269968986423
 20
19.39967358520579
 30
0.0
 10
12.13300289275335
 20
19.3994337582647
 30
0.0
 10
11.4281608224318
 20
19.3996012612593
 30
0.0
  0
SPLINE
  5
F1
330
2
100
AcDbEntity
  8
GAIKEI
  6
Continuous
 62
     1
100
AcDbSpline
210
0.0
220
0.0
230
1.0
 70
     8
 71
     3
 72
     9
 73
     5
 74
     0
 42
0.0000000001
 43
0.0000000001
 40
0.0
 40
0.0
 40
0.0
 40
0.0
 40
1.945462263820249
 40
4.533269112037771
 40
4.533269112037771
 40
4.533269112037771
 40
4.533269112037771
 10
11.38524090055679
 20
19.39390057766553
 30
0.0
 10
11.35290023825527
 20
19.39157218749761
 30
0.0
 10
11.2785895404543
 20
19.35985423747093
 30
0.0
 10
11.23863253452523
 20
19.28551119665064
 30
0.0
 10
11.23399578336929
 20
19.24263104641551
 30
0.0
  0
LINE
  5
F2
330
2
100
AcDbEntity
  8
GAIKEI
  6
Continuous
 62
     7
100
AcDbLine
 10
11.09193034821302
 20
19.26371259289993
 30
0.0
 11
11.09193034821302
 21
19.33623454289994
 31
0.0
  0
LINE
  5
F3
330
2
100
AcDbEntity
  8
GAIKEI
  6
Continuous
 62
     1
100
AcDbLine
 10
11.09193034821302
 20
19.33623454289994
 30
0.0
 11
11.09186929821302
 21
19.33623454289994
 31
0.0
  0
LINE
  5
F4
330
2
100
AcDbEntity
  8
GAIKEI
  6
Continuous
 62
     1
100
AcDbLine
 10
11.46198649821306
 20
18.96590984289992
 30
0.0
 11
11.46198649821306
 21
-16.08848465710008
 31
0.0
  0
LINE
  5
F5
330
2
100
AcDbEntity
  8
GAIKEI
  6
Continuous
 62
     7
100
AcDbLine
 10
15.93705974821304
 20
19.3291178428999
 30
0.0
 11
15.93705974821304
 21
-16.45168045710011
 31
0.0
  0
LINE
  5
F6
330
2
100
AcDbEntity
  8
GAIKEI
  6
Continuous
 62
     7
100
AcDbLine
 10
15.93705974821304
 20
19.3291178428999
 30
0.0
 11
15.93712079821304
 21
19.3291178428999
 31
0.0
  0
LINE
  5
F7
330
2
100
AcDbEntity
  8
GAIKEI
  6
Continuous
 62
     1
100
AcDbLine
 10
15.62103189821303
 20
18.96594649289994
 30
0.0
 11
15.62103189821303
 21
-16.08850910710009
 31
0.0
  0
LINE
  5
F8
330
2
100
AcDbEntity
  8
GAIKEI
  6
Continuous
 62
     1
100
AcDbLine
 10
15.85472329821303
 20
19.20057784289992
 30
0.0
 11
15.85472329821303
 21
-16.32314045710006
 31
0.0
  0
LINE
  5
F9
330
2
100
AcDbEntity
  8
GAIKEI
  6
Continuous
 62
     1
100
AcDbLine
 10
11.22829509821307
 20
19.19974774289989
 30
0.0
 11
11.22829509821307
 21
-16.32231035710009
 31
0.0
  0
LINE
  5
FA
330
2
100
AcDbEntity
  8
GAIKEI
  6
Continuous
 62
     7
100
AcDbLine
 10
10.63559611036294
 20
19.26371259289993
 30
0.0
 11
10.62249404821304
 21
18.81370929289989
 31
0.0
  0
LINE
  5
FB
330
2
100
AcDbEntity
  8
GAIKEI
  6
Continuous
 62
     7
100
AcDbLine
 10
10.62249479821307
 20
-15.93628060710006
 30
0.0
 11
10.63559691226686
 21
-16.3862874071001
 31
0.0
  0
LINE
  5
FC
330
2
100
AcDbEntity
  8
GAIKEI
  6
Continuous
 62
     7
100
AcDbLine
 10
10.62248454821306
 20
-15.93628740710005
 30
0.0
 11
10.62248454821306
 21
18.81371259289989
 31
0.0
  0
LINE
  5
FD
330
2
100
AcDbEntity
  8
GAIKEI
  6
Continuous
 62
     7
100
AcDbLine
 10
10.63559611036294
 20
19.26371259289993
 30
0.0
 11
11.17254180688292
 21
19.26371259289999
 31
0.0
  0
LINE
  5
FE
330
2
100
AcDbEntity
  8
GAIKEI
  6
Continuous
 62
     7
100
AcDbLine
 10
10.63559691226686
 20
-16.3862874071001
 30
0.0
 11
11.17254130497883
 21
-16.3862874071001
 31
0.0
  0
LINE
  5
FF
330
2
100
AcDbEntity
  8
GAIKEI
  6
Continuous
 62
     1
100
AcDbLine
 10
10.63559489821304
 20
-16.3862874071001
 30
0.0
 11
10.65392984821304
 21
-16.3862874071001
 31
0.0
  0
LINE
  5
100
330
2
100
AcDbEntity
  8
GAIKEI
  6
Continuous
 62
     7
100
AcDbLine
 10
10.69185574821304
 20
-16.38628740710004
 30
0.0
 11
10.69185574821304
 21
-16.46155540710003
 31
0.0
  0
LINE
  5
101
330
2
100
AcDbEntity
  8
GAIKEI
  6
Continuous
 62
     1
100
AcDbLine
 10
10.32962654821304
 20
18.97875039289988
 30
0.0
 11
10.32962654821304
 21
-16.10131305710013
 31
0.0
  0
LINE
  5
102
330
2
100
AcDbEntity
  8
GAIKEI
  6
Continuous
 62
     1
100
AcDbLine
 10
10.32962654821304
 20
-16.10131305710013
 30
0.0
 11
10.55645554821305
 21
-16.32814205710008
 31
0.0
  0
LINE
  5
103
330
2
100
AcDbEntity
  8
GAIKEI
  6
Continuous
 62
     1
100
AcDbLine
 10
10.35871649821305
 20
-16.52588115710011
 30
0.0
 11
10.13188744821306
 21
-16.29905210710006
 31
0.0
  0
LINE
  5
104
330
2
100
AcDbEntity
  8
GAIKEI
  6
Continuous
 62
     1
100
AcDbLine
 10
10.13188744821306
 20
19.17648949289992
 30
0.0
 11
10.35871649821305
 21
19.40331849289993
 31
0.0
  0
LINE
  5
105
330
2
100
AcDbEntity
  8
GAIKEI
  6
Continuous
 62
     1
100
AcDbLine
 10
10.55645554821305
 20
19.20557944289987
 30
0.0
 11
10.32962654821304
 21
18.97875039289988
 31
0.0
  0
LINE
  5
106
330
2
100
AcDbEntity
  8
GAIKEI
  6
Continuous
 62
     1
100
AcDbLine
 10
10.55645554821305
 20
-16.32814205710008
 30
0.0
 11
10.55645554821305
 21
19.20557944289987
 31
0.0
  0
LINE
  5
107
330
2
100
AcDbEntity
  8
GAIKEI
  6
Continuous
 62
     1
100
AcDbLine
 10
10.69185574821304
 20
19.33899279289994
 30
0.0
 11
10.55645554821305
 21
19.20359259290001
 31
0.0
  0
LINE
  5
108
330
2
100
AcDbEntity
  8
GAIKEI
  6
Continuous
 62
     1
100
AcDbLine
 10
10.35672960740527
 20
19.40331851789989
 30
0.0
 11
10.49212984821306
 21
19.53871869289992
 31
0.0
  0
LINE
  5
109
330
2
100
AcDbEntity
  8
GAIKEI
  6
Continuous
 62
     1
100
AcDbLine
 10
10.49212984821306
 20
-16.66128130710007
 30
0.0
 11
10.35672965740537
 21
-16.52588118210008
 31
0.0
  0
LINE
  5
10A
330
2
100
AcDbEntity
  8
GAIKEI
  6
Continuous
 62
     1
100
AcDbLine
 10
10.55645554821305
 20
-16.32615509635337
 30
0.0
 11
10.69185574859142
 21
-16.46155575777141
 31
0.0
  0
LINE
  5
10B
330
2
100
AcDbEntity
  8
GAIKEI
  6
Continuous
 62
     7
100
AcDbLine
 10
10.69185574821304
 20
19.33899279289994
 30
0.0
 11
10.69185574821304
 21
19.26371259289993
 31
0.0
  0
ELLIPSE
  5
10C
330
2
100
AcDbEntity
  8
GAIKEI
  6
Continuous
 62
     1
100
AcDbEllipse
 10
9.770375298213053
 20
-15.73980085710008
 30
0.0
 11
-0.502196524369623
 21
0.502196524369623
 31
0.0
210
0.0
220
0.0
230
1.0
 40
0.4928099999998565
 41
2.730628648546518
 42
3.552556658633039
  0
ELLIPSE
  5
10D
330
2
100
AcDbEntity
  8
GAIKEI
  6
Continuous
 62
     1
100
AcDbEllipse
 10
9.770375298213053
 20
18.61723824289987
 30
0.0
 11
0.502196524369623
 21
0.502196524369623
 31
0.0
210
0.0
220
0.0
230
1.0
 40
0.4928099999999944
 41
5.872221302136416
 42
6.694149312222723
  0
ELLIPSE
  5
10E
330
2
100
AcDbEntity
  8
GAIKEI
  6
Continuous
 62
     7
100
AcDbEllipse
 10
10.49158124821306
 20
19.33844419289994
 30
0.0
 11
0.1418092486869966
 21
0.1418092486869966
 31
0.0
210
0.0
220
0.0
230
1.0
 40
0.9972650000003218
 41
5.499156671652783
 42
7.067213942706318
  0
ELLIPSE
  5
10F
330
2
100
AcDbEntity
  8
GAIKEI
  6
Continuous
 62
     7
100
AcDbEllipse
 10
10.49158124821306
 20
-16.46100685710007
 30
0.0
 11
-0.1418092486870215
 21
0.1418092486870215
 31
0.0
210
0.0
220
0.0
230
1.0
 40
0.9972649999999706
 41
2.357564018062885
 42
3.925621289116736
  0
SPLINE
  5
110
330
2
100
AcDbEntity
  8
GAIKEI
  6
Continuous
 62
     1
100
AcDbSpline
210
0.0
220
0.0
230
1.0
 70
     8
 71
     3
 72
    19
 73
    15
 74
    13
 42
0.0000000001
 43
0.0000000001
 44
0.000001
 12
-0.0752275696311223
 22
-0.997166391715743
 32
0.0
 13
-0.9971651028730411
 23
-0.075244651718227
 33
0.0
 40
0.0
 40
0.0
 40
0.0
 40
0.0
 40
0.0307154355883356
 40
0.0474030577480272
 40
0.065172507741036
 40
0.09077159015165
 40
0.1187843457784919
 40
0.1493748434985914
 40
0.1799684721587743
 40
0.2079831863822805
 40
0.2335829247320371
 40
0.251351949162842
 40
0.2680383245397899
 40
0.2987487388429288
 40
0.2987487388429288
 40
0.2987487388429288
 40
0.2987487388429288
 10
10.55645556684183
 20
-16.3281420820864
 30
0.0
 10
10.55568535098535
 20
-16.33835154877827
 30
0.0
 10
10.55296368112539
 20
-16.35406217332969
 30
0.0
 10
10.54583301125819
 20
-16.37461349686718
 30
0.0
 10
10.53751659444117
 20
-16.39285432981832
 30
0.0
 10
10.52537804797109
 20
-16.41338224657812
 30
0.0
 10
10.5085405283985
 20
-16.43589978138517
 30
0.0
 10
10.48843669174687
 20
-16.45786378042432
 30
0.0
 10
10.46647083776102
 20
-16.47796653634272
 30
0.0
 10
10.44395114219486
 20
-16.49480432179308
 30
0.0
 10
10.42342240860955
 20
-16.50694288986457
 30
0.0
 10
10.40518189941971
 20
-16.51525917245921
 30
0.0
 10
10.38463279003983
 20
-16.52238940854443
 30
0.0
 10
10.36892428018515
 20
-16.52511088841303
 30
0.0
 10
10.35871649570586
 20
-16.52588115322248
 30
0.0
 11
10.55645556684183
 21
-16.3281420820864
 31
0.0
 11
10.55112240618282
 21
-16.35839107667868
 31
0.0
 11
10.54571550834023
 21
-16.37417829523229
 31
0.0
 11
10.53837000231553
 21
-16.39035830322325
 31
0.0
 11
10.5254219938698
 21
-16.41244121515945
 31
0.0
 11
10.50871477783411
 21
-16.43492622860674
 31
0.0
 11
10.48811749548471
 21
-16.45754308186531
 31
0.0
 11
10.46549704413721
 21
-16.47814106320874
 31
0.0
 11
10.44300978774791
 21
-16.49484854457915
 31
0.0
 11
10.42092608262206
 21
-16.50779649715957
 31
0.0
 11
10.40474646067881
 21
-16.51514182423324
 31
0.0
 11
10.38896047754335
 21
-16.52054848173441
 31
0.0
 11
10.35871649570586
 21
-16.52588115322248
 31
0.0
  0
SPLINE
  5
111
330
2
100
AcDbEntity
  8
GAIKEI
  6
Continuous
 62
     1
100
AcDbSpline
210
0.0
220
0.0
230
1.0
 70
     8
 71
     3
 72
    19
 73
    15
 74
    13
 42
0.0000000001
 43
0.0000000001
 44
0.000001
 12
0.9971663916999085
 22
-0.0752275698410131
 32
0.0
 13
0.0752446515490343
 23
-0.9971651028858081
 33
0.0
 40
0.0
 40
0.0
 40
0.0
 40
0.0
 40
0.0307154356042622
 40
0.047403057768145
 40
0.0651725077625378
 40
0.0907715901708528
 40
0.1187843457902544
 40
0.1493748434977984
 40
0.1799684721688314
 40
0.2079831863987802
 40
0.2335829247505551
 40
0.2513519491801077
 40
0.2680383245533526
 40
0.2987487388425655
 40
0.2987487388425655
 40
0.2987487388425655
 40
0.2987487388425655
 10
10.3587164957058
 20
19.40331851124739
 30
0.0
 10
10.36892596240281
 20
19.40254829538836
 30
0.0
 10
10.38463658696034
 20
19.39982662552469
 30
0.0
 10
10.40518791050408
 20
19.39269595565389
 30
0.0
 10
10.4234287434561
 20
19.38437953883597
 30
0.0
 10
10.4439566602131
 20
19.37224099236685
 30
0.0
 10
10.46647419501377
 20
19.35540347279796
 30
0.0
 10
10.48843819404933
 20
19.33529963614708
 30
0.0
 10
10.50854094996697
 20
19.31333378215834
 30
0.0
 10
10.52537873542047
 20
19.29081408658653
 30
0.0
 10
10.53751730349293
 20
19.270285352999
 30
0.0
 10
10.54583358608653
 20
19.25204484380974
 30
0.0
 10
10.55296382216912
 20
19.23149573443558
 30
0.0
 10
10.55568530203444
 20
19.21578722458621
 30
0.0
 10
10.55645556684183
 20
19.20557944011142
 30
0.0
 11
10.3587164957058
 21
19.40331851124739
 31
0.0
 11
10.38896549031292
 21
19.39798535058071
 31
0.0
 11
10.40475270887012
 21
19.39257845273568
 31
0.0
 11
10.42093271686209
 21
19.38523294670989
 31
0.0
 11
10.44301562879596
 21
19.37228493826473
 31
0.0
 11
10.4655006422366
 21
19.35557772223257
 31
0.0
 11
10.48811749548471
 21
19.33498043989033
 31
0.0
 11
10.508715476834
 21
19.3123599885335
 31
0.0
 11
10.52542295820737
 21
19.28987273213835
 31
0.0
 11
10.53837091078824
 21
19.26778902701045
 31
0.0
 11
10.54571623786094
 21
19.25160940506811
 31
0.0
 11
10.55112289536012
 21
19.23582342193589
 31
0.0
 11
10.55645556684183
 21
19.20557944011142
 31
0.0
  0
SPLINE
  5
112
330
2
100
AcDbEntity
  8
GAIKEI
  6
Continuous
 62
     1
100
AcDbSpline
210
0.0
220
0.0
230
1.0
 70
     8
 71
     3
 72
    19
 73
    15
 74
    13
 42
0.0000000001
 43
0.0000000001
 44
0.000001
 12
-0.9971663916999085
 22
-0.0752275698410131
 32
0.0
 13
-0.0752446515490343
 23
-0.9971651028858081
 33
0.0
 40
0.0
 40
0.0
 40
0.0
 40
0.0
 40
0.0307154356042622
 40
0.047403057768145
 40
0.0651725077625378
 40
0.0907715901708528
 40
0.1187843457902544
 40
0.1493748434977984
 40
0.1799684721688314
 40
0.2079831863987802
 40
0.2335829247505551
 40
0.2513519491801077
 40
0.2680383245533526
 40
0.2987487388425655
 40
0.2987487388425655
 40
0.2987487388425655
 40
0.2987487388425655
 10
-49.47500499927977
 20
19.40331851124739
 30
0.0
 10
-49.48521446597678
 20
19.40254829538836
 30
0.0
 10
-49.50092509053428
 20
19.39982662552469
 30
0.0
 10
-49.52147641407805
 20
19.39269595565389
 30
0.0
 10
-49.53971724703004
 20
19.38437953883597
 30
0.0
 10
-49.56024516378715
 20
19.37224099236685
 30
0.0
 10
-49.58276269858768
 20
19.35540347279796
 30
0.0
 10
-49.60472669762322
 20
19.33529963614708
 30
0.0
 10
-49.62482945354108
 20
19.31333378215834
 30
0.0
 10
-49.64166723899444
 20
19.29081408658653
 30
0.0
 10
-49.65380580706678
 20
19.270285352999
 30
0.0
 10
-49.66212208966061
 20
19.25204484380974
 30
0.0
 10
-49.66925232574303
 20
19.23149573443558
 30
0.0
 10
-49.67197380560842
 20
19.21578722458621
 30
0.0
 10
-49.6727440704158
 20
19.20557944011142
 30
0.0
 11
-49.47500499927977
 21
19.40331851124739
 31
0.0
 11
-49.50525399388689
 21
19.39798535058071
 31
0.0
 11
-49.52104121244409
 21
19.39257845273568
 31
0.0
 11
-49.53722122043607
 21
19.38523294670989
 31
0.0
 11
-49.55930413236993
 21
19.37228493826473
 31
0.0
 11
-49.58178914581058
 21
19.35557772223257
 31
0.0
 11
-49.60440599905869
 21
19.33498043989033
 31
0.0
 11
-49.62500398040797
 21
19.3123599885335
 31
0.0
 11
-49.64171146178134
 21
19.28987273213835
 31
0.0
 11
-49.65465941436221
 21
19.26778902701045
 31
0.0
 11
-49.66200474143491
 21
19.25160940506811
 31
0.0
 11
-49.66741139893409
 21
19.23582342193589
 31
0.0
 11
-49.6727440704158
 21
19.20557944011142
 31
0.0
  0
SPLINE
  5
113
330
2
100
AcDbEntity
  8
GAIKEI
  6
Continuous
 62
     1
100
AcDbSpline
210
0.0
220
0.0
230
1.0
 70
     8
 71
     3
 72
    19
 73
    15
 74
    13
 42
0.0000000001
 43
0.0000000001
 44
0.000001
 12
0.0752275696311223
 22
-0.997166391715743
 32
0.0
 13
0.9971651028730411
 23
-0.075244651718227
 33
0.0
 40
0.0
 40
0.0
 40
0.0
 40
0.0
 40
0.0307154355883356
 40
0.0474030577480272
 40
0.065172507741036
 40
0.09077159015165
 40
0.1187843457784919
 40
0.1493748434985914
 40
0.1799684721587743
 40
0.2079831863822805
 40
0.2335829247320371
 40
0.251351949162842
 40
0.2680383245397899
 40
0.2987487388429288
 40
0.2987487388429288
 40
0.2987487388429288
 40
0.2987487388429288
 10
-49.6727440704158
 20
-16.3281420820864
 30
0.0
 10
-49.67197385455932
 20
-16.33835154877827
 30
0.0
 10
-49.66925218469942
 20
-16.35406217332969
 30
0.0
 10
-49.66212151483214
 20
-16.37461349686718
 30
0.0
 10
-49.65380509801505
 20
-16.39285432981832
 30
0.0
 10
-49.641666551545
 20
-16.41338224657812
 30
0.0
 10
-49.62482903197241
 20
-16.43589978138517
 30
0.0
 10
-49.60472519532101
 20
-16.45786378042432
 30
0.0
 10
-49.58275934133499
 20
-16.47796653634272
 30
0.0
 10
-49.5602396457688
 20
-16.49480432179308
 30
0.0
 10
-49.53971091218352
 20
-16.50694288986457
 30
0.0
 10
-49.52147040299363
 20
-16.51525917245921
 30
0.0
 10
-49.50092129361383
 20
-16.52238940854443
 30
0.0
 10
-49.48521278375912
 20
-16.52511088841303
 30
0.0
 10
-49.47500499927983
 20
-16.52588115322248
 30
0.0
 11
-49.6727440704158
 21
-16.3281420820864
 31
0.0
 11
-49.6674109097568
 21
-16.35839107667868
 31
0.0
 11
-49.66200401191421
 21
-16.37417829523229
 31
0.0
 11
-49.6546585058895
 21
-16.39035830322325
 31
0.0
 11
-49.64171049744376
 21
-16.41244121515945
 31
0.0
 11
-49.62500328140809
 21
-16.43492622860674
 31
0.0
 11
-49.60440599905869
 21
-16.45754308186531
 31
0.0
 11
-49.58178554771118
 21
-16.47814106320874
 31
0.0
 11
-49.55929829132188
 21
-16.49484854457915
 31
0.0
 11
-49.53721458619603
 21
-16.50779649715957
 31
0.0
 11
-49.52103496425277
 21
-16.51514182423324
 31
0.0
 11
-49.50524898111732
 21
-16.52054848173441
 31
0.0
 11
-49.47500499927983
 21
-16.52588115322248
 31
0.0
  0
ELLIPSE
  5
114
330
2
100
AcDbEntity
  8
GAIKEI
  6
Continuous
 62
     7
100
AcDbEllipse
 10
-49.60786975178703
 20
-16.46100685710007
 30
0.0
 11
0.1418092486870215
 21
0.1418092486870215
 31
0.0
210
0.0
220
0.0
230
-1.0
 40
0.9972649999999706
 41
2.357564018062885
 42
3.925621289116736
  0
ELLIPSE
  5
115
330
2
100
AcDbEntity
  8
GAIKEI
  6
Continuous
 62
     7
100
AcDbEllipse
 10
-49.60786975178703
 20
19.33844419289994
 30
0.0
 11
-0.1418092486869966
 21
0.1418092486869966
 31
0.0
210
0.0
220
0.0
230
-1.0
 40
0.9972650000003218
 41
5.499156671652783
 42
7.067213942706318
  0
ELLIPSE
  5
116
330
2
100
AcDbEntity
  8
GAIKEI
  6
Continuous
 62
     1
100
AcDbEllipse
 10
-48.88666380178702
 20
18.61723824289987
 30
0.0
 11
-0.502196524369623
 21
0.502196524369623
 31
0.0
210
0.0
220
0.0
230
-1.0
 40
0.4928099999999944
 41
5.872221302136416
 42
6.694149312222723
  0
ELLIPSE
  5
117
330
2
100
AcDbEntity
  8
GAIKEI
  6
Continuous
 62
     1
100
AcDbEllipse
 10
-48.88666380178702
 20
-15.73980085710008
 30
0.0
 11
0.502196524369623
 21
0.502196524369623
 31
0.0
210
0.0
220
0.0
230
-1.0
 40
0.4928099999998565
 41
2.730628648546518
 42
3.552556658633039
  0
LINE
  5
118
330
2
100
AcDbEntity
  8
GAIKEI
  6
Continuous
 62
     7
100
AcDbLine
 10
-49.80814425178701
 20
19.33899279289994
 30
0.0
 11
-49.80814425178701
 21
19.26371259289993
 31
0.0
  0
LINE
  5
119
330
2
100
AcDbEntity
  8
GAIKEI
  6
Continuous
 62
     1
100
AcDbLine
 10
-49.67274405178702
 20
-16.32615509635337
 30
0.0
 11
-49.80814425216539
 21
-16.46155575777141
 31
0.0
  0
LINE
  5
11A
330
2
100
AcDbEntity
  8
GAIKEI
  6
Continuous
 62
     1
100
AcDbLine
 10
-49.60841835178704
 20
-16.66128130710007
 30
0.0
 11
-49.47301816097933
 21
-16.52588118210008
 31
0.0
  0
LINE
  5
11B
330
2
100
AcDbEntity
  8
GAIKEI
  6
Continuous
 62
     1
100
AcDbLine
 10
-49.47301811097924
 20
19.40331851789989
 30
0.0
 11
-49.60841835178704
 21
19.53871869289992
 31
0.0
  0
LINE
  5
11C
330
2
100
AcDbEntity
  8
GAIKEI
  6
Continuous
 62
     1
100
AcDbLine
 10
-49.80814425178701
 20
19.33899279289994
 30
0.0
 11
-49.67274405178702
 21
19.20359259290001
 31
0.0
  0
LINE
  5
11D
330
2
100
AcDbEntity
  8
GAIKEI
  6
Continuous
 62
     1
100
AcDbLine
 10
-49.67274405178702
 20
-16.32814205710008
 30
0.0
 11
-49.67274405178702
 21
19.20557944289987
 31
0.0
  0
LINE
  5
11E
330
2
100
AcDbEntity
  8
GAIKEI
  6
Continuous
 62
     1
100
AcDbLine
 10
-49.67274405178702
 20
19.20557944289987
 30
0.0
 11
-49.44591505178701
 21
18.97875039289988
 31
0.0
  0
LINE
  5
11F
330
2
100
AcDbEntity
  8
GAIKEI
  6
Continuous
 62
     1
100
AcDbLine
 10
-49.24817595178703
 20
19.17648949289992
 30
0.0
 11
-49.47500500178702
 21
19.40331849289993
 31
0.0
  0
LINE
  5
120
330
2
100
AcDbEntity
  8
GAIKEI
  6
Continuous
 62
     1
100
AcDbLine
 10
-49.47500500178702
 20
-16.52588115710011
 30
0.0
 11
-49.24817595178703
 21
-16.29905210710006
 31
0.0
  0
LINE
  5
121
330
2
100
AcDbEntity
  8
GAIKEI
  6
Continuous
 62
     1
100
AcDbLine
 10
-49.44591505178701
 20
-16.10131305710013
 30
0.0
 11
-49.67274405178702
 21
-16.32814205710008
 31
0.0
  0
LINE
  5
122
330
2
100
AcDbEntity
  8
GAIKEI
  6
Continuous
 62
     1
100
AcDbLine
 10
-49.44591505178701
 20
18.97875039289988
 30
0.0
 11
-49.44591505178701
 21
-16.10131305710013
 31
0.0
  0
LINE
  5
123
330
2
100
AcDbEntity
  8
GAIKEI
  6
Continuous
 62
     7
100
AcDbLine
 10
-49.80814425178701
 20
-16.38628740710004
 30
0.0
 11
-49.80814425178701
 21
-16.46155540710003
 31
0.0
  0
LINE
  5
124
330
2
100
AcDbEntity
  8
GAIKEI
  6
Continuous
 62
     1
100
AcDbLine
 10
-49.75188340178701
 20
-16.3862874071001
 30
0.0
 11
-49.77021835178701
 21
-16.3862874071001
 31
0.0
  0
LINE
  5
125
330
2
100
AcDbEntity
  8
GAIKEI
  6
Continuous
 62
     7
100
AcDbLine
 10
-49.75188541584083
 20
-16.3862874071001
 30
0.0
 11
-50.2888298085528
 21
-16.3862874071001
 31
0.0
  0
LINE
  5
126
330
2
100
AcDbEntity
  8
GAIKEI
  6
Continuous
 62
     7
100
AcDbLine
 10
-49.75188461393691
 20
19.26371259289993
 30
0.0
 11
-50.28883031045689
 21
19.26371259289999
 31
0.0
  0
LINE
  5
127
330
2
100
AcDbEntity
  8
GAIKEI
  6
Continuous
 62
     7
100
AcDbLine
 10
-49.73877305178703
 20
-15.93628740710005
 30
0.0
 11
-49.73877305178703
 21
18.81371259289989
 31
0.0
  0
LINE
  5
128
330
2
100
AcDbEntity
  8
GAIKEI
  6
Continuous
 62
     7
100
AcDbLine
 10
-49.73878330178703
 20
-15.93628060710006
 30
0.0
 11
-49.75188541584083
 21
-16.3862874071001
 31
0.0
  0
LINE
  5
129
330
2
100
AcDbEntity
  8
GAIKEI
  6
Continuous
 62
     7
100
AcDbLine
 10
-49.75188461393691
 20
19.26371259289993
 30
0.0
 11
-49.73878255178701
 21
18.81370929289989
 31
0.0
  0
LINE
  5
12A
330
2
100
AcDbEntity
  8
GAIKEI
  6
Continuous
 62
     1
100
AcDbLine
 10
-50.34458360178703
 20
19.19974774289989
 30
0.0
 11
-50.34458360178703
 21
-16.32231035710009
 31
0.0
  0
LINE
  5
12B
330
2
100
AcDbEntity
  8
GAIKEI
  6
Continuous
 62
     1
100
AcDbLine
 10
-54.971011801787
 20
19.20057784289992
 30
0.0
 11
-54.971011801787
 21
-16.32314045710006
 31
0.0
  0
LINE
  5
12C
330
2
100
AcDbEntity
  8
GAIKEI
  6
Continuous
 62
     1
100
AcDbLine
 10
-54.737320401787
 20
18.96594649289994
 30
0.0
 11
-54.737320401787
 21
-16.08850910710009
 31
0.0
  0
LINE
  5
12D
330
2
100
AcDbEntity
  8
GAIKEI
  6
Continuous
 62
     7
100
AcDbLine
 10
-55.05334825178701
 20
19.3291178428999
 30
0.0
 11
-55.05340930178701
 21
19.3291178428999
 31
0.0
  0
LINE
  5
12E
330
2
100
AcDbEntity
  8
GAIKEI
  6
Continuous
 62
     7
100
AcDbLine
 10
-55.05334825178701
 20
19.3291178428999
 30
0.0
 11
-55.05334825178701
 21
-16.45168045710011
 31
0.0
  0
LINE
  5
12F
330
2
100
AcDbEntity
  8
GAIKEI
  6
Continuous
 62
     1
100
AcDbLine
 10
-50.57827500178703
 20
18.96590984289992
 30
0.0
 11
-50.57827500178703
 21
-16.08848465710008
 31
0.0
  0
LINE
  5
130
330
2
100
AcDbEntity
  8
GAIKEI
  6
Continuous
 62
     1
100
AcDbLine
 10
-50.20821885178699
 20
19.33623454289994
 30
0.0
 11
-50.208157801787
 21
19.33623454289994
 31
0.0
  0
LINE
  5
131
330
2
100
AcDbEntity
  8
GAIKEI
  6
Continuous
 62
     7
100
AcDbLine
 10
-50.20821885178699
 20
19.26371259289993
 30
0.0
 11
-50.20821885178699
 21
19.33623454289994
 31
0.0
  0
SPLINE
  5
132
330
2
100
AcDbEntity
  8
GAIKEI
  6
Continuous
 62
     1
100
AcDbSpline
210
0.0
220
0.0
230
1.0
 70
     8
 71
     3
 72
     9
 73
     5
 74
     0
 42
0.0000000001
 43
0.0000000001
 40
0.0
 40
0.0
 40
0.0
 40
0.0
 40
1.945462263820249
 40
4.533269112037771
 40
4.533269112037771
 40
4.533269112037771
 40
4.533269112037771
 10
-50.50152940413076
 20
19.39390057766553
 30
0.0
 10
-50.46918874182924
 20
19.39157218749761
 30
0.0
 10
-50.39487804402828
 20
19.35985423747093
 30
0.0
 10
-50.35492103809921
 20
19.28551119665064
 30
0.0
 10
-50.35028428694326
 20
19.24263104641551
 30
0.0
  0
SPLINE
  5
133
330
2
100
AcDbEntity
  8
GAIKEI
  6
Continuous
 62
     1
100
AcDbSpline
210
0.0
220
0.0
230
1.0
 70
     8
 71
     3
 72
     9
 73
     5
 74
     0
 42
0.0000000001
 43
0.0000000001
 40
0.0
 40
0.0
 40
0.0
 40
0.0
 40
42.29127472562083
 40
84.58180013910597
 40
84.58180013910597
 40
84.58180013910597
 40
84.58180013910597
 10
-54.77353868147455
 20
19.40152997219678
 30
0.0
 10
-54.06868447517192
 20
19.40080536406305
 30
0.0
 10
-52.65898819343821
 20
19.39967358520579
 30
0.0
 10
-51.24929139632732
 20
19.3994337582647
 30
0.0
 10
-50.54444932600578
 20
19.3996012612593
 30
0.0
  0
LINE
  5
134
330
2
100
AcDbEntity
  8
GAIKEI
  6
Continuous
 62
     1
100
AcDbLine
 10
-49.73877305178703
 20
18.80593669289993
 30
0.0
 11
-50.30215195178701
 21
18.80593669289993
 31
0.0
  0
LINE
  5
135
330
2
100
AcDbEntity
  8
GAIKEI
  6
Continuous
 62
     7
100
AcDbLine
 10
-50.28883031045689
 20
19.26371259289999
 30
0.0
 11
-50.30215860178699
 21
18.80593884289993
 31
0.0
  0
SPLINE
  5
136
330
2
100
AcDbEntity
  8
GAIKEI
  6
Continuous
 62
     7
100
AcDbSpline
210
0.0
220
0.0
230
1.0
 70
     8
 71
     3
 72
     9
 73
     5
 74
     0
 42
0.0000000001
 43
0.0000000001
 40
0.0
 40
0.0
 40
0.0
 40
0.0
 40
15.17019099972979
 40
30.07885911212641
 40
30.07885911212641
 40
30.07885911212641
 40
30.07885911212641
 10
-50.40790147444326
 20
19.53596600735301
 30
0.0
 10
-50.66073799089642
 20
19.53595572715295
 30
0.0
 10
-51.16205230936921
 20
19.53588869283908
 30
0.0
 10
-51.66336659418343
 20
19.53567279606892
 30
0.0
 10
-51.91184434553704
 20
19.53551434719679
 30
0.0
  0
SPLINE
  5
137
330
2
100
AcDbEntity
  8
GAIKEI
  6
Continuous
 62
     7
100
AcDbSpline
210
0.0
220
0.0
230
1.0
 70
     8
 71
     3
 72
     9
 73
     5
 74
     0
 42
0.0000000001
 43
0.0000000001
 40
0.0
 40
0.0
 40
0.0
 40
0.0
 40
0.000307133192375
 40
0.0012511406223669
 40
0.0012511406223669
 40
0.0012511406223669
 40
0.0012511406223669
 10
-50.40791368147452
 20
19.53602704250926
 30
0.0
 10
-50.40790875925947
 20
19.53602844778453
 30
0.0
 10
-50.40790789502867
 20
19.53599366041015
 30
0.0
 10
-50.4079028442467
 20
19.53598168106708
 30
0.0
 10
-50.40790147444326
 20
19.53596600735301
 30
0.0
  0
LINE
  5
138
330
2
100
AcDbEntity
  8
GAIKEI
  6
Continuous
 62
     7
100
AcDbLine
 10
-50.360871951787
 20
19.53031434289988
 30
0.0
 11
-50.360848951787
 21
19.53040924289991
 31
0.0
  0
SPLINE
  5
139
330
2
100
AcDbEntity
  8
GAIKEI
  6
Continuous
 62
     7
100
AcDbSpline
210
0.0
220
0.0
230
1.0
 70
     8
 71
     3
 72
     9
 73
     5
 74
     0
 42
0.0000000001
 43
0.0000000001
 40
0.0
 40
0.0
 40
0.0
 40
0.0
 40
0.4745936221338634
 40
0.9491322391598641
 40
0.9491322391598641
 40
0.9491322391598641
 40
0.9491322391598641
 10
-50.40790147444326
 20
19.53596600735301
 30
0.0
 10
-50.39999158463931
 20
19.53595815433357
 30
0.0
 10
-50.38416056570852
 20
19.53499024967141
 30
0.0
 10
-50.36855270806026
 20
19.53217112750582
 30
0.0
 10
-50.36086778303704
 20
19.53030194485308
 30
0.0
  0
SPLINE
  5
13A
330
2
100
AcDbEntity
  8
GAIKEI
  6
Continuous
 62
     1
100
AcDbSpline
210
0.0
220
0.0
230
1.0
 70
     8
 71
     3
 72
     9
 73
     5
 74
     0
 42
0.0000000001
 43
0.0000000001
 40
0.0
 40
0.0
 40
0.0
 40
0.0
 40
0.4322491288119172
 40
0.8653261276181417
 40
0.8653261276181417
 40
0.8653261276181417
 40
0.8653261276181417
 10
-50.35028428694326
 20
19.24263104641551
 30
0.0
 10
-50.34950293365622
 20
19.23546939191425
 30
0.0
 10
-50.34782428875499
 20
19.22114434769475
 30
0.0
 10
-50.34575088898563
 20
19.20686867246746
 30
0.0
 10
-50.34457139631829
 20
19.19974774563428
 30
0.0
  0
SPLINE
  5
13B
330
2
100
AcDbEntity
  8
GAIKEI
  6
Continuous
 62
     1
100
AcDbSpline
210
0.0
220
0.0
230
1.0
 70
     8
 71
     3
 72
     9
 73
     5
 74
     0
 42
0.0000000001
 43
0.0000000001
 40
0.0
 40
0.0
 40
0.0
 40
0.0
 40
1.517294350060504
 40
5.919467210682682
 40
5.919467210682682
 40
5.919467210682682
 40
5.919467210682682
 10
-54.73732041975577
 20
18.96594647610305
 30
0.0
 10
-54.73544344254233
 20
18.99116496132205
 30
0.0
 10
-54.70935501067933
 20
19.08815884215045
 30
0.0
 10
-54.61031683321952
 20
19.15816652086533
 30
0.0
 10
-54.53735704084952
 20
19.16590985500926
 30
0.0
  0
LINE
  5
13C
330
2
100
AcDbEntity
  8
GAIKEI
  6
Continuous
 62
     1
100
AcDbLine
 10
-54.53734950178702
 20
19.16591419289995
 30
0.0
 11
-54.773639701787
 21
19.40153439289992
 31
0.0
  0
SPLINE
  5
13D
330
2
100
AcDbEntity
  8
GAIKEI
  6
Continuous
 62
     1
100
AcDbSpline
210
0.0
220
0.0
230
1.0
 70
     8
 71
     3
 72
     9
 73
     5
 74
     0
 42
0.0000000001
 43
0.0000000001
 40
0.0
 40
0.0
 40
0.0
 40
0.0
 40
0.4081843447942165
 40
0.8155696340608679
 40
0.8155696340608679
 40
0.8155696340608679
 40
0.8155696340608679
 10
-54.77353868147455
 20
19.40152997219678
 30
0.0
 10
-54.78024954400851
 20
19.40041367550231
 30
0.0
 10
-54.79370729667014
 20
19.39847529094447
 30
0.0
 10
-54.80721509743446
 20
19.39694724589481
 30
0.0
 10
-54.81396836897451
 20
19.39624432766555
 30
0.0
  0
SPLINE
  5
13E
330
2
100
AcDbEntity
  8
GAIKEI
  6
Continuous
 62
     1
100
AcDbSpline
210
0.0
220
0.0
230
1.0
 70
     8
 71
     3
 72
     9
 73
     5
 74
     0
 42
0.0000000001
 43
0.0000000001
 40
0.0
 40
0.0
 40
0.0
 40
0.0
 40
1.656235735949052
 40
4.523791651747365
 40
4.523791651747365
 40
4.523791651747365
 40
4.523791651747365
 10
-54.81396836897451
 20
19.39624432766555
 30
0.0
 10
-54.8414227498844
 20
19.39337485709308
 30
0.0
 10
-54.91571518667413
 20
19.36782372941781
 30
0.0
 10
-54.96000366618014
 20
19.29225167518115
 30
0.0
 10
-54.96509141584951
 20
19.24473065579053
 30
0.0
  0
SPLINE
  5
13F
330
2
100
AcDbEntity
  8
GAIKEI
  6
Continuous
 62
     1
100
AcDbSpline
210
0.0
220
0.0
230
1.0
 70
     8
 71
     3
 72
     9
 73
     5
 74
     0
 42
0.0000000001
 43
0.0000000001
 40
0.0
 40
0.0
 40
0.0
 40
0.0
 40
0.4322048384549121
 40
0.8909782849838181
 40
0.8909782849838181
 40
0.8909782849838181
 40
0.8909782849838181
 10
-54.96509141584951
 20
19.24473065579053
 30
0.0
 10
-54.96586367159372
 20
19.23756875702344
 30
0.0
 10
-54.96752224933581
 20
19.22281121556784
 30
0.0
 10
-54.96968028091131
 20
19.20811359942968
 30
0.0
 10
-54.97097520491204
 20
19.20057782375926
 30
0.0
  0
LINE
  5
140
330
2
100
AcDbEntity
  8
GAIKEI
  6
Continuous
 62
     1
100
AcDbLine
 10
-54.97093990178703
 20
19.2005644928999
 30
0.0
 11
-54.73732180178703
 21
18.96596709289991
 31
0.0
  0
LINE
  5
141
330
2
100
AcDbEntity
  8
GAIKEI
  6
Continuous
 62
     1
100
AcDbLine
 10
-50.77826280178701
 20
19.16589764289989
 30
0.0
 11
-54.53735705178704
 21
19.16589764289989
 31
0.0
  0
SPLINE
  5
142
330
2
100
AcDbEntity
  8
GAIKEI
  6
Continuous
 62
     1
100
AcDbSpline
210
0.0
220
0.0
230
1.0
 70
     8
 71
     3
 72
     9
 73
     5
 74
     0
 42
0.0000000001
 43
0.0000000001
 40
0.0
 40
0.0
 40
0.0
 40
0.0
 40
0.0029398165566283
 40
0.8660048802469422
 40
0.8660048802469422
 40
0.8660048802469422
 40
0.8660048802469422
 10
-50.54444932600578
 20
19.3996012612593
 30
0.0
 10
-50.54440047550921
 20
19.39960504667448
 30
0.0
 10
-50.53001934134712
 20
19.40084936770614
 30
0.0
 10
-50.51582923488459
 20
19.39545824059127
 30
0.0
 10
-50.50152940413076
 20
19.39390057766553
 30
0.0
  0
LINE
  5
143
330
2
100
AcDbEntity
  8
GAIKEI
  6
Continuous
 62
     1
100
AcDbLine
 10
-50.40784279651822
 20
19.53596594039288
 30
0.0
 11
-50.77826375178702
 21
19.16590864289992
 31
0.0
  0
SPLINE
  5
144
330
2
100
AcDbEntity
  8
GAIKEI
  6
Continuous
 62
     1
100
AcDbSpline
210
0.0
220
0.0
230
1.0
 70
     8
 71
     3
 72
     9
 73
     5
 74
     0
 42
0.0000000001
 43
0.0000000001
 40
0.0
 40
0.0
 40
0.0
 40
0.0
 40
3.00649021551401
 40
6.013928399846387
 40
6.013928399846387
 40
6.013928399846387
 40
6.013928399846387
 10
-50.77826280256826
 20
19.16590985500926
 30
0.0
 10
-50.72843243871179
 20
19.16064074079599
 30
0.0
 10
-50.62839627217951
 20
19.1157640512227
 30
0.0
 10
-50.58354240915114
 20
19.01576070054722
 30
0.0
 10
-50.57820176741202
 20
18.96592206204053
 30
0.0
  0
LINE
  5
145
330
2
100
AcDbEntity
  8
GAIKEI
  6
Continuous
 62
     1
100
AcDbLine
 10
-50.57827070178703
 20
18.96592804289992
 30
0.0
 11
-50.20821896972421
 21
19.33634350644451
 31
0.0
  0
SPLINE
  5
146
330
2
100
AcDbEntity
  8
GAIKEI
  6
Continuous
 62
     7
100
AcDbSpline
210
0.0
220
0.0
230
1.0
 70
     8
 71
     3
 72
     9
 73
     5
 74
     0
 42
0.0000000001
 43
0.0000000001
 40
0.0
 40
0.0
 40
0.0
 40
0.0
 40
2.608801521942092
 40
5.218901201754872
 40
5.218901201754872
 40
5.218901201754872
 40
5.218901201754872
 10
-50.20821885725578
 20
19.33623456204054
 30
0.0
 10
-50.20825081541492
 20
19.37971457566147
 30
0.0
 10
-50.23928787612963
 20
19.46883921739783
 30
0.0
 10
-50.3185941931579
 20
19.52003850794227
 30
0.0
 10
-50.36086778303704
 20
19.53030194485308
 30
0.0
  0
SPLINE
  5
147
330
2
100
AcDbEntity
  8
GAIKEI
  6
Continuous
 62
     7
100
AcDbSpline
210
0.0
220
0.0
230
1.0
 70
     8
 71
     3
 72
     9
 73
     5
 74
     0
 42
0.0000000001
 43
0.0000000001
 40
0.0
 40
0.0
 40
0.0
 40
0.0
 40
29.41054305853916
 40
58.9011871801054
 40
58.9011871801054
 40
58.9011871801054
 40
58.9011871801054
 10
-51.91262559553703
 20
19.53561200344683
 30
0.0
 10
-52.4028012581472
 20
19.53537973021752
 30
0.0
 10
-53.38448687732906
 20
19.53485983634499
 30
0.0
 10
-54.36617549635551
 20
19.53992579099207
 30
0.0
 10
-54.85765733381831
 20
19.54525555813433
 30
0.0
  0
SPLINE
  5
148
330
2
100
AcDbEntity
  8
GAIKEI
  6
Continuous
 62
     1
100
AcDbSpline
210
0.0
220
0.0
230
1.0
 70
     8
 71
     3
 72
     9
 73
     5
 74
     0
 42
0.0000000001
 43
0.0000000001
 40
0.0
 40
0.0
 40
0.0
 40
0.0
 40
0.0078759195154627
 40
0.0157679125147925
 40
0.0157679125147925
 40
0.0157679125147925
 40
0.0157679125147925
 10
-51.91184434553704
 20
19.53551434719679
 30
0.0
 10
-51.91197247777276
 20
19.53554285536722
 30
0.0
 10
-51.91223131749771
 20
19.53559025577561
 30
0.0
 10
-51.91249406980958
 20
19.5356105998452
 30
0.0
 10
-51.91262559553703
 20
19.53561200344683
 30
0.0
  0
SPLINE
  5
149
330
2
100
AcDbEntity
  8
GAIKEI
  6
Continuous
 62
     7
100
AcDbSpline
210
0.0
220
0.0
230
1.0
 70
     8
 71
     3
 72
    10
 73
     6
 74
     0
 42
0.0000000001
 43
0.0000000001
 40
0.0
 40
0.0
 40
0.0
 40
0.0
 40
0.2724492370619989
 40
0.9948730228349431
 40
6.021982962936184
 40
6.021982962936184
 40
6.021982962936184
 40
6.021982962936184
 10
-54.85765733381831
 20
19.54525555813433
 30
0.0
 10
-54.85704238165542
 20
19.54075657094614
 30
0.0
 10
-54.86741901879637
 20
19.5234970685853
 30
0.0
 10
-54.98027233565498
 20
19.54608082217618
 30
0.0
 10
-55.05394254256666
 20
19.41290140830921
 30
0.0
 10
-55.05342149397453
 20
19.32911786282176
 30
0.0
  0
SPLINE
  5
14A
330
2
100
AcDbEntity
  8
GAIKEI
  6
Continuous
 62
     7
100
AcDbSpline
210
0.0
220
0.0
230
1.0
 70
     8
 71
     3
 72
     9
 73
     5
 74
     0
 42
0.0000000001
 43
0.0000000001
 40
0.0
 40
0.0
 40
0.0
 40
0.0
 40
15.17688766217361
 40
30.09423971492175
 40
30.09423971492175
 40
30.09423971492175
 40
30.09423971492175
 10
-50.40791368147452
 20
19.53602704250926
 30
0.0
 10
-50.66086180902655
 20
19.53601830638916
 30
0.0
 10
-51.16243247085762
 20
19.53595733526589
 30
0.0
 10
-51.66400310501709
 20
19.53575940046727
 30
0.0
 10
-51.91262559553703
 20
19.53561200344683
 30
0.0
  0
LINE
  5
14B
330
2
100
AcDbEntity
  8
GAIKEI
  6
Continuous
 62
     1
100
AcDbLine
 10
-55.05334825178701
 20
-16.45168045710011
 30
0.0
 11
-55.05340930178701
 21
-16.45168045710011
 31
0.0
  0
LINE
  5
14C
330
2
100
AcDbEntity
  8
GAIKEI
  6
Continuous
 62
     1
100
AcDbLine
 10
-50.20815830178705
 20
-16.45880665710007
 30
0.0
 11
-50.20814610178703
 21
-16.45880665710007
 31
0.0
  0
LINE
  5
14D
330
2
100
AcDbEntity
  8
GAIKEI
  6
Continuous
 62
     1
100
AcDbLine
 10
-50.20821885178699
 20
-16.45880940710009
 30
0.0
 11
-50.208157801787
 21
-16.45880940710009
 31
0.0
  0
LINE
  5
14E
330
2
100
AcDbEntity
  8
GAIKEI
  6
Continuous
 62
     7
100
AcDbLine
 10
-50.20821885178699
 20
-16.45880940710009
 30
0.0
 11
-50.20821885178699
 21
-16.3862874071001
 31
0.0
  0
SPLINE
  5
14F
330
2
100
AcDbEntity
  8
GAIKEI
  6
Continuous
 62
     1
100
AcDbSpline
210
0.0
220
0.0
230
1.0
 70
     8
 71
     3
 72
     9
 73
     5
 74
     0
 42
0.0000000001
 43
0.0000000001
 40
0.0
 40
0.0
 40
0.0
 40
0.0
 40
1.945368404595981
 40
4.533175250603751
 40
4.533175250603751
 40
4.533175250603751
 40
4.533175250603751
 10
-50.50152940413076
 20
-16.51646319186568
 30
0.0
 10
-50.46919030211111
 20
-16.51413491403144
 30
0.0
 10
-50.39487413221812
 20
-16.48243469017814
 30
0.0
 10
-50.35492103809523
 20
-16.40808601784545
 30
0.0
 10
-50.35028428694326
 20
-16.36520586764698
 30
0.0
  0
SPLINE
  5
150
330
2
100
AcDbEntity
  8
GAIKEI
  6
Continuous
 62
     1
100
AcDbSpline
210
0.0
220
0.0
230
1.0
 70
     8
 71
     3
 72
     9
 73
     5
 74
     0
 42
0.0000000001
 43
0.0000000001
 40
0.0
 40
0.0
 40
0.0
 40
0.0
 40
42.29127472562083
 40
84.58180013910597
 40
84.58180013910597
 40
84.58180013910597
 40
84.58180013910597
 10
-54.77353868147455
 20
-16.52410479342819
 30
0.0
 10
-54.06868447517192
 20
-16.52338018529446
 30
0.0
 10
-52.65898819343814
 20
-16.5222484064372
 30
0.0
 10
-51.24929139632732
 20
-16.52200857949606
 30
0.0
 10
-50.54444932600578
 20
-16.52217608249072
 30
0.0
  0
LINE
  5
151
330
2
100
AcDbEntity
  8
GAIKEI
  6
Continuous
 62
     1
100
AcDbLine
 10
-50.30215195178701
 20
-15.9285115071001
 30
0.0
 11
-49.74034775178703
 21
-15.9285115071001
 31
0.0
  0
LINE
  5
152
330
2
100
AcDbEntity
  8
GAIKEI
  6
Continuous
 62
     7
100
AcDbLine
 10
-50.2888298085528
 20
-16.3862874071001
 30
0.0
 11
-50.30215820178702
 21
-15.92851015710005
 31
0.0
  0
SPLINE
  5
153
330
2
100
AcDbEntity
  8
GAIKEI
  6
Continuous
 62
     7
100
AcDbSpline
210
0.0
220
0.0
230
1.0
 70
     8
 71
     3
 72
     9
 73
     5
 74
     0
 42
0.0000000001
 43
0.0000000001
 40
0.0
 40
0.0
 40
0.0
 40
0.0
 40
15.17019098155854
 40
30.07885903948136
 40
30.07885903948136
 40
30.07885903948136
 40
30.07885903948136
 10
-50.40790147444326
 20
-16.65852862155321
 30
0.0
 10
-50.66073799059362
 20
-16.65851834135316
 30
0.0
 10
-51.16205230782165
 20
-16.65845730441253
 30
0.0
 10
-51.66336659509133
 20
-16.65824761729976
 30
0.0
 10
-51.91184434553704
 20
-16.6580891684282
 30
0.0
  0
SPLINE
  5
154
330
2
100
AcDbEntity
  8
GAIKEI
  6
Continuous
 62
     7
100
AcDbSpline
210
0.0
220
0.0
230
1.0
 70
     8
 71
     3
 72
     9
 73
     5
 74
     0
 42
0.0000000001
 43
0.0000000001
 40
0.0
 40
0.0
 40
0.0
 40
0.0
 40
29.39312756231776
 40
58.78322706070662
 40
58.78322706070662
 40
58.78322706070662
 40
58.78322706070662
 10
-51.91184434553704
 20
-16.6580891684282
 30
0.0
 10
-52.40172965501196
 20
-16.65770593908246
 30
0.0
 10
-53.38144994110641
 20
-16.65718272152094
 30
0.0
 10
-54.36117011647676
 20
-16.65627199337649
 30
0.0
 10
-54.85100450178705
 20
-16.65550127780318
 30
0.0
  0
SPLINE
  5
155
330
2
100
AcDbEntity
  8
GAIKEI
  6
Continuous
 62
     7
100
AcDbSpline
210
0.0
220
0.0
230
1.0
 70
     8
 71
     3
 72
     9
 73
     5
 74
     0
 42
0.0000000001
 43
0.0000000001
 40
0.0
 40
0.0
 40
0.0
 40
0.0
 40
0.000307133192375
 40
0.0012511406223669
 40
0.0012511406223669
 40
0.0012511406223669
 40
0.0012511406223669
 10
-50.40791368147452
 20
-16.65858965670947
 30
0.0
 10
-50.40790875925947
 20
-16.65859106198468
 30
0.0
 10
-50.40790789502867
 20
-16.6585562746103
 30
0.0
 10
-50.4079028442467
 20
-16.65854429526729
 30
0.0
 10
-50.40790147444326
 20
-16.65852862155321
 30
0.0
  0
LINE
  5
156
330
2
100
AcDbEntity
  8
GAIKEI
  6
Continuous
 62
     7
100
AcDbLine
 10
-50.36086720178705
 20
-16.65287545710009
 30
0.0
 11
-50.36084260178703
 21
-16.65297705710009
 31
0.0
  0
SPLINE
  5
157
330
2
100
AcDbEntity
  8
GAIKEI
  6
Continuous
 62
     7
100
AcDbSpline
210
0.0
220
0.0
230
1.0
 70
     8
 71
     3
 72
     9
 73
     5
 74
     0
 42
0.0000000001
 43
0.0000000001
 40
0.0
 40
0.0
 40
0.0
 40
0.0
 40
0.4745863747763912
 40
0.9491031297469218
 40
0.9491031297469218
 40
0.9491031297469218
 40
0.9491031297469218
 10
-50.40790147444326
 20
-16.65852862155321
 30
0.0
 10
-50.39999170542856
 20
-16.65852076865366
 30
0.0
 10
-50.38416115286182
 20
-16.6575590656235
 30
0.0
 10
-50.36855235401478
 20
-16.65474586262377
 30
0.0
 10
-50.36086778303704
 20
-16.65287676608443
 30
0.0
  0
SPLINE
  5
158
330
2
100
AcDbEntity
  8
GAIKEI
  6
Continuous
 62
     1
100
AcDbSpline
210
0.0
220
0.0
230
1.0
 70
     8
 71
     3
 72
     9
 73
     5
 74
     0
 42
0.0000000001
 43
0.0000000001
 40
0.0
 40
0.0
 40
0.0
 40
0.0
 40
0.4323703203184989
 40
0.8655681094042307
 40
0.8655681094042307
 40
0.8655681094042307
 40
0.8655681094042307
 10
-50.35028428694326
 20
-16.36520586764698
 30
0.0
 10
-50.34950271458493
 20
-16.35804220520242
 30
0.0
 10
-50.3478242421281
 20
-16.34371309097213
 30
0.0
 10
-50.34575121795999
 20
-16.32943327277803
 30
0.0
 10
-50.34457139631829
 20
-16.32231035983443
 30
0.0
  0
SPLINE
  5
159
330
2
100
AcDbEntity
  8
GAIKEI
  6
Continuous
 62
     1
100
AcDbSpline
210
0.0
220
0.0
230
1.0
 70
     8
 71
     3
 72
     9
 73
     5
 74
     0
 42
0.0000000001
 43
0.0000000001
 40
0.0
 40
0.0
 40
0.0
 40
0.0
 40
1.517294349229331
 40
5.91932657678531
 40
5.91932657678531
 40
5.91932657678531
 40
5.91932657678531
 10
-54.73732041975577
 20
-16.08852129733447
 30
0.0
 10
-54.73544344254335
 20
-16.11373978253965
 30
0.0
 10
-54.70935684315762
 20
-16.21073284683564
 30
0.0
 10
-54.61031450242521
 20
-16.28072938243622
 30
0.0
 10
-54.53735704084952
 20
-16.28847246920947
 30
0.0
  0
LINE
  5
15A
330
2
100
AcDbEntity
  8
GAIKEI
  6
Continuous
 62
     1
100
AcDbLine
 10
-54.537357001787
 20
-16.28846385710005
 30
0.0
 11
-54.77364725178702
 21
-16.52408410710006
 31
0.0
  0
SPLINE
  5
15B
330
2
100
AcDbEntity
  8
GAIKEI
  6
Continuous
 62
     1
100
AcDbSpline
210
0.0
220
0.0
230
1.0
 70
     8
 71
     3
 72
     9
 73
     5
 74
     0
 42
0.0000000001
 43
0.0000000001
 40
0.0
 40
0.0
 40
0.0
 40
0.0
 40
0.4082020433341026
 40
0.8156013125728581
 40
0.8156013125728581
 40
0.8156013125728581
 40
0.8156013125728581
 10
-54.77353868147455
 20
-16.52410479342819
 30
0.0
 10
-54.78024983498599
 20
-16.522988448332
 30
0.0
 10
-54.79370714649056
 20
-16.52104404474602
 30
0.0
 10
-54.80721486568691
 20
-16.51950988421657
 30
0.0
 10
-54.81396836897451
 20
-16.5188069418657
 30
0.0
  0
SPLINE
  5
15C
330
2
100
AcDbEntity
  8
GAIKEI
  6
Continuous
 62
     1
100
AcDbSpline
210
0.0
220
0.0
230
1.0
 70
     8
 71
     3
 72
     9
 73
     5
 74
     0
 42
0.0000000001
 43
0.0000000001
 40
0.0
 40
0.0
 40
0.0
 40
0.0
 40
1.656235736553358
 40
4.523581821308481
 40
4.523581821308481
 40
4.523581821308481
 40
4.523581821308481
 10
-54.81396836897451
 20
-16.5188069418657
 30
0.0
 10
-54.84142274989441
 20
-16.5159374712922
 30
0.0
 10
-54.91571044660261
 20
-16.49038703225631
 30
0.0
 10
-54.96000403847202
 20
-16.41482301910105
 30
0.0
 10
-54.96509141584951
 20
-16.36730547702194
 30
0.0
  0
SPLINE
  5
15D
330
2
100
AcDbEntity
  8
GAIKEI
  6
Continuous
 62
     1
100
AcDbSpline
210
0.0
220
0.0
230
1.0
 70
     8
 71
     3
 72
     9
 73
     5
 74
     0
 42
0.0000000001
 43
0.0000000001
 40
0.0
 40
0.0
 40
0.0
 40
0.0
 40
0.432326092216564
 40
0.8912202709941183
 40
0.8912202709941183
 40
0.8912202709941183
 40
0.8912202709941183
 10
-54.96509141584951
 20
-16.36730547702194
 30
0.0
 10
-54.96586388824775
 20
-16.3601415690058
 30
0.0
 10
-54.9675222618263
 20
-16.34537995701379
 30
0.0
 10
-54.96967994013508
 20
-16.33067819676802
 30
0.0
 10
-54.97097520491204
 20
-16.32314043795946
 30
0.0
  0
LINE
  5
15E
330
2
100
AcDbEntity
  8
GAIKEI
  6
Continuous
 62
     1
100
AcDbLine
 10
-54.97093905178698
 20
-16.32312260710006
 30
0.0
 11
-54.73732095178704
 21
-16.08852520710007
 31
0.0
  0
LINE
  5
15F
330
2
100
AcDbEntity
  8
GAIKEI
  6
Continuous
 62
     1
100
AcDbLine
 10
-50.77826280178701
 20
-16.28847245710005
 30
0.0
 11
-54.53735705178704
 21
-16.28847245710005
 31
0.0
  0
SPLINE
  5
160
330
2
100
AcDbEntity
  8
GAIKEI
  6
Continuous
 62
     1
100
AcDbSpline
210
0.0
220
0.0
230
1.0
 70
     8
 71
     3
 72
     9
 73
     5
 74
     0
 42
0.0000000001
 43
0.0000000001
 40
0.0
 40
0.0
 40
0.0
 40
0.0
 40
0.0029296476091856
 40
0.8659950720233828
 40
0.8659950720233828
 40
0.8659950720233828
 40
0.8659950720233828
 10
-50.54444932600578
 20
-16.52217608249072
 30
0.0
 10
-50.54440064448508
 20
-16.52217985481195
 30
0.0
 10
-50.52994525084582
 20
-16.52163488666059
 30
0.0
 10
-50.51582924086133
 20
-16.5180208554425
 30
0.0
 10
-50.50152940413076
 20
-16.51646319186568
 30
0.0
  0
LINE
  5
161
330
2
100
AcDbEntity
  8
GAIKEI
  6
Continuous
 62
     1
100
AcDbLine
 10
-50.407847061094
 20
-16.6585285600982
 30
0.0
 11
-50.77826885178703
 21
-16.2884705071001
 31
0.0
  0
SPLINE
  5
162
330
2
100
AcDbEntity
  8
GAIKEI
  6
Continuous
 62
     1
100
AcDbSpline
210
0.0
220
0.0
230
1.0
 70
     8
 71
     3
 72
     9
 73
     5
 74
     0
 42
0.0000000001
 43
0.0000000001
 40
0.0
 40
0.0
 40
0.0
 40
0.0
 40
3.00649021551401
 40
6.013928399846387
 40
6.013928399846387
 40
6.013928399846387
 40
6.013928399846387
 10
-50.77826280256826
 20
-16.28847246920947
 30
0.0
 10
-50.72843243871179
 20
-16.2832033549962
 30
0.0
 10
-50.62839627217951
 20
-16.23832666542284
 30
0.0
 10
-50.58354240915114
 20
-16.13832331474737
 30
0.0
 10
-50.57820176741202
 20
-16.08848467624068
 30
0.0
  0
LINE
  5
163
330
2
100
AcDbEntity
  8
GAIKEI
  6
Continuous
 62
     1
100
AcDbLine
 10
-50.20821893742345
 20
-16.45889268657669
 30
0.0
 11
-50.57827520178702
 21
-16.08847260710007
 31
0.0
  0
SPLINE
  5
164
330
2
100
AcDbEntity
  8
GAIKEI
  6
Continuous
 62
     7
100
AcDbSpline
210
0.0
220
0.0
230
1.0
 70
     8
 71
     3
 72
     9
 73
     5
 74
     0
 42
0.0000000001
 43
0.0000000001
 40
0.0
 40
0.0
 40
0.0
 40
0.0
 40
2.608801521942092
 40
5.218901201754872
 40
5.218901201754872
 40
5.218901201754872
 40
5.218901201754872
 10
-50.20821885725578
 20
-16.45880938327195
 30
0.0
 10
-50.20825081541492
 20
-16.50228939689293
 30
0.0
 10
-50.23928787612963
 20
-16.59141403862929
 30
0.0
 10
-50.3185941931579
 20
-16.64261332917368
 30
0.0
 10
-50.36086778303704
 20
-16.65287676608443
 30
0.0
  0
SPLINE
  5
165
330
2
100
AcDbEntity
  8
GAIKEI
  6
Continuous
 62
     1
100
AcDbSpline
210
0.0
220
0.0
230
1.0
 70
     8
 71
     3
 72
     9
 73
     5
 74
     0
 42
0.0000000001
 43
0.0000000001
 40
0.0
 40
0.0
 40
0.0
 40
0.0
 40
0.0137885163468726
 40
0.0277971563202312
 40
0.0277971563202312
 40
0.0277971563202312
 40
0.0277971563202312
 10
-54.85235948225576
 20
-16.65578203952196
 30
0.0
 10
-54.85212967632574
 20
-16.65578093055848
 30
0.0
 10
-54.8516657000641
 20
-16.65572702893729
 30
0.0
 10
-54.85122139434233
 20
-16.65558770282524
 30
0.0
 10
-54.85100450178705
 20
-16.65550127780318
 30
0.0
  0
SPLINE
  5
166
330
2
100
AcDbEntity
  8
GAIKEI
  6
Continuous
 62
     7
100
AcDbSpline
210
0.0
220
0.0
230
1.0
 70
     8
 71
     3
 72
     9
 73
     5
 74
     0
 42
0.0000000001
 43
0.0000000001
 40
0.0
 40
0.0
 40
0.0
 40
0.0
 40
29.39737301754986
 40
58.7946987442469
 40
58.7946987442469
 40
58.7946987442469
 40
58.7946987442469
 10
-54.85235948225576
 20
-16.65578203952196
 30
0.0
 10
-54.36240374889425
 20
-16.65647043119111
 30
0.0
 10
-53.38249247957785
 20
-16.65742649256424
 30
0.0
 10
-52.40258096542309
 20
-16.65793439042198
 30
0.0
 10
-51.91262559553703
 20
-16.65817461764698
 30
0.0
  0
SPLINE
  5
167
330
2
100
AcDbEntity
  8
GAIKEI
  6
Continuous
 62
     1
100
AcDbSpline
210
0.0
220
0.0
230
1.0
 70
     8
 71
     3
 72
     9
 73
     5
 74
     0
 42
0.0000000001
 43
0.0000000001
 40
0.0
 40
0.0
 40
0.0
 40
0.0
 40
0.0078534411293542
 40
0.0157394946032041
 40
0.0157394946032041
 40
0.0157394946032041
 40
0.0157394946032041
 10
-51.91184434553704
 20
-16.6580891684282
 30
0.0
 10
-51.91197211207501
 20
-16.65811759523444
 30
0.0
 10
-51.91223180791829
 20
-16.65815901601729
 30
0.0
 10
-51.91249416879603
 20
-16.65817321510172
 30
0.0
 10
-51.91262559553703
 20
-16.65817461764698
 30
0.0
  0
SPLINE
  5
168
330
2
100
AcDbEntity
  8
GAIKEI
  6
Continuous
 62
     7
100
AcDbSpline
210
0.0
220
0.0
230
1.0
 70
     8
 71
     3
 72
     9
 73
     5
 74
     0
 42
0.0000000001
 43
0.0000000001
 40
0.0
 40
0.0
 40
0.0
 40
0.0
 40
3.131012357143871
 40
6.214320535329698
 40
6.214320535329698
 40
6.214320535329698
 40
6.214320535329698
 10
-55.05334825178701
 20
-16.45168047702197
 30
0.0
 10
-55.05327883357736
 20
-16.50386397013517
 30
0.0
 10
-55.01000136702529
 20
-16.61159769766811
 30
0.0
 10
-54.90239257115788
 20
-16.65570410262842
 30
0.0
 10
-54.85100450178705
 20
-16.65550127780318
 30
0.0
  0
SPLINE
  5
169
330
2
100
AcDbEntity
  8
GAIKEI
  6
Continuous
 62
     7
100
AcDbSpline
210
0.0
220
0.0
230
1.0
 70
     8
 71
     3
 72
     9
 73
     5
 74
     0
 42
0.0000000001
 43
0.0000000001
 40
0.0
 40
0.0
 40
0.0
 40
0.0
 40
14.91719755737096
 40
30.09423971494808
 40
30.09423971494808
 40
30.09423971494808
 40
30.09423971494808
 10
-51.91262559553703
 20
-16.65817461764698
 30
0.0
 10
-51.66400568032114
 20
-16.65832265541712
 30
0.0
 10
-51.1624350456004
 20
-16.6585199391867
 30
0.0
 10
-50.66086438392753
 20
-16.6585802942987
 30
0.0
 10
-50.40791368147452
 20
-16.65858965670947
 30
0.0
  0
LINE
  5
16A
330
2
100
AcDbEntity
  8
GAIKEI
  6
Continuous
 62
     7
100
AcDbLine
 10
-50.30215195178701
 20
18.80593669289993
 30
0.0
 11
-50.30215195178701
 21
-15.9285115071001
 31
0.0
  0
DIMENSION
  5
16B
330
2
100
AcDbEntity
  8
SUNPO
100
AcDbDimension
  2
*D6
 10
23.95535752493515
 20
19.53102881804085
 30
0.0
 11
22.20535752493515
 21
1.431028818040859
 31
0.0
 70
    33
  1
724
 71
     5
 42
36.19999999999999
  3
STANDARD
100
AcDbAlignedDimension
 13
15.95535752493515
 23
-16.66897118195914
 33
0.0
 14
15.95535752493515
 24
19.53102881804085
 34
0.0
1001
ACAD
1000
DSTYLE
1002
{
1070
   287
1070
     3
1070
   287
1070
     3
1070
   287
1070
     3
1070
   287
1070
     3
1070
   287
1070
     3
1070
   287
1070
     3
1070
   287
1070
     3
1070
   287
1070
     3
1070
   287
1070
     3
1070
   287
1070
     3
1070
   287
1070
     3
1070
   287
1070
     3
1070
   287
1070
     3
1070
   287
1070
     3
1070
   287
1070
     3
1070
   287
1070
     3
1070
   287
1070
     3
1070
   287
1070
     3
1070
   287
1070
     3
1070
   287
1070
     3
1070
   287
1070
     3
1070
   287
1070
     3
1070
   287
1070
     3
1070
   287
1070
     3
1070
   287
1070
     3
1070
   287
1070
     3
1070
   287
1070
     3
1070
   287
1070
     3
1070
   287
1070
     3
1070
   287
1070
     3
1070
   287
1070
     3
1070
   287
1070
     3
1070
   287
1070
     3
1070
   287
1070
     3
1070
    40
1040
1.0
1070
   140
1040
2.5
1070
   147
1040
0.5
1070
   172
1070
     1
1070
   279
1070
     0
1002
}
  0
SPLINE
  5
178
330
2
100
AcDbEntity
  8
GAIKEI
  6
Continuous
 62
     1
100
AcDbSpline
210
0.0
220
0.0
230
1.0
 70
     8
 71
     3
 72
    13
 73
     9
 74
     7
 42
0.0000000001
 43
0.0000000001
 44
0.000001
 12
-0.1367026333584174
 22
0.9906121289550588
 32
0.0
 13
-0.1693098136655528
 23
0.9855628782561444
 33
0.0
 40
0.0
 40
0.0
 40
0.0
 40
0.0
 40
0.0167470476316635
 40
0.0333774141265641
 40
0.0502571988826622
 40
0.0667711969075428
 40
0.1235173939548199
 40
0.1402380169356289
 40
0.1402380169356289
 40
0.1402380169356289
 40
0.1402380169356289
 10
39.22029040437758
 20
17.36195704172201
 30
0.0
 10
39.21952728254016
 20
17.36748698455804
 30
0.0
 10
39.21794057728076
 20
17.37849947883065
 30
0.0
 10
39.21532092247452
 20
17.39504615671697
 30
0.0
 10
39.21256640591818
 20
17.41149195504954
 30
0.0
 10
39.20710617247684
 20
17.44104182203321
 30
0.0
 10
39.20368580908823
 20
17.47087181980863
 30
0.0
 10
39.1992691799486
 20
17.49496225183226
 30
0.0
 10
39.19832552476151
 20
17.50045532693599
 30
0.0
 11
39.22029040437758
 21
17.36195704172201
 31
0.0
 11
39.21789549852474
 21
17.37853197308107
 31
0.0
 11
39.21530867909553
 21
17.39495991112676
 31
0.0
 11
39.21249825123101
 21
17.41160408091104
 31
0.0
 11
39.20962624259204
 21
17.42786641553061
 31
0.0
 11
39.20119644162628
 21
17.48398301619295
 31
0.0
 11
39.19832552476151
 21
17.50045532693599
 31
0.0
  0
SPLINE
  5
179
330
2
100
AcDbEntity
  8
GAIKEI
  6
Continuous
 62
     1
100
AcDbSpline
210
0.0
220
0.0
230
1.0
 70
     8
 71
     3
 72
    35
 73
    31
 74
    29
 42
0.0000000001
 43
0.0000000001
 44
0.000001
 12
-0.0254197298119269
 22
0.9996768664605022
 32
0.0
 13
-0.555524397846804
 23
0.8315002365585627
 33
0.0
 40
0.0
 40
0.0
 40
0.0
 40
0.0
 40
0.0275806639849073
 40
0.0463466764000972
 40
0.0658667687191301
 40
0.0863243287775273
 40
0.107556179521046
 40
0.1301098550111812
 40
0.1534456693045686
 40
0.1777301339391415
 40
0.2027520453587402
 40
0.2283265340758608
 40
0.2545592826343661
 40
0.2816029609292953
 40
0.309234403936909
 40
0.3380150010157092
 40
0.3673196186614396
 40
0.3973079319911159
 40
0.4277336080971323
 40
0.4740829563056059
 40
0.5213227404662599
 40
0.5580878557223703
 40
0.5729895593536203
 40
0.5734845308519342
 40
0.579249939372056
 40
0.5800416187173556
 40
0.5816820830763396
 40
0.5817084320311905
 40
0.5819521501676825
 40
0.5831999734319623
 40
0.5831999734319623
 40
0.5831999734319623
 40
0.5831999734319623
 10
39.79543234817788
 20
-14.19540604184738
 30
0.0
 10
39.79519865050239
 20
-14.1862154579316
 30
0.0
 10
39.79413714871396
 20
-14.17077538061251
 30
0.0
 10
39.79091055155314
 20
-14.14904826669632
 30
0.0
 10
39.78707902562474
 20
-14.12983808463472
 30
0.0
 10
39.78218040780758
 20
-14.1100252550673
 30
0.0
 10
39.77621383894294
 20
-14.08945371080382
 30
0.0
 10
39.76921058769659
 20
-14.06819958488689
 30
0.0
 10
39.76117700566664
 20
-14.04622727150784
 30
0.0
 10
39.75220863630168
 20
-14.02373204399732
 30
0.0
 10
39.74236885599245
 20
-14.00079041859096
 30
0.0
 10
39.73173276269631
 20
-13.97749160430751
 30
0.0
 10
39.72032469981679
 20
-13.9538109280513
 30
0.0
 10
39.70816539355264
 20
-13.92973663612371
 30
0.0
 10
39.6952024651531
 20
-13.90512154018688
 30
0.0
 10
39.68149482423019
 20
-13.88005095707717
 30
0.0
 10
39.66704264392689
 20
-13.85449570805619
 30
0.0
 10
39.65198061348159
 20
-13.82865845263931
 30
0.0
 10
39.63369009901925
 20
-13.79812979057374
 30
0.0
 10
39.61195933369774
 20
-13.76296203593678
 30
0.0
 10
39.58859009631522
 20
-13.72632849974581
 30
0.0
 10
39.57055127883001
 20
-13.69873179734603
 30
0.0
 10
39.56094939331712
 20
-13.68423622272526
 30
0.0
 10
39.55704369131459
 20
-13.6783621440203
 30
0.0
 10
39.55574080111034
 20
-13.6764055631498
 30
0.0
 10
39.55422455472848
 20
-13.67413231710058
 30
0.0
 10
39.55376974900628
 20
-13.67345060717827
 30
0.0
 10
39.55341575710506
 20
-13.67292121150242
 30
0.0
 10
39.55313453442213
 20
-13.67250060144923
 30
0.0
 10
39.55285827001183
 20
-13.67208724155215
 30
0.0
 10
39.55262720458933
 20
-13.67174138643901
 30
0.0
 11
39.79543234817788
 21
-14.19540604184738
 31
0.0
 11
39.79350619624944
 21
-14.16789236936569
 31
0.0
 11
39.79079715475331
 21
-14.14932299618579
 31
0.0
 11
39.78699806860595
 21
-14.13017620681518
 31
0.0
 11
39.78211244087532
 21
-14.11031062432153
 31
0.0
 11
39.77621760097708
 21
-14.0899135288758
 31
0.0
 11
39.76917875880014
 21
-14.0684863915248
 31
0.0
 11
39.76118193782474
 21
-14.04656356301672
 31
0.0
 11
39.75220364101188
 21
-14.02399976909288
 31
0.0
 11
39.74235344780311
 21
-14.00099826498342
 31
0.0
 11
39.73174410561922
 21
-13.97772820195359
 31
0.0
 11
39.72036860164769
 21
-13.9540902123793
 31
0.0
 11
39.70818529324424
 21
-13.92994632891685
 31
0.0
 11
39.69531782378164
 21
-13.90549383449434
 31
0.0
 11
39.68151809912252
 21
-13.88023735028747
 31
0.0
 11
39.66709896184119
 21
-13.85472561274633
 31
0.0
 11
39.65200186870004
 21
-13.82881468079728
 31
0.0
 11
39.63636998402853
 21
-13.80271169911287
 31
0.0
 11
39.61202145156972
 21
-13.76327300681726
 31
0.0
 11
39.58662870102603
 21
-13.72343828704476
 31
0.0
 11
39.56651839436478
 21
-13.69266087667114
 31
0.0
 11
39.55828946051855
 21
-13.6802372952103
 31
0.0
 11
39.55801540291577
 21
-13.67982511907587
 31
0.0
 11
39.55481982395327
 21
-13.67502634800178
 31
0.0
 11
39.55438054131162
 21
-13.67436772307479
 31
0.0
 11
39.55347002660057
 21
-13.67300336366742
 31
0.0
 11
39.5534554029756
 21
-13.6729814596153
 31
0.0
 11
39.55332012833662
 21
-13.67277885099554
 31
0.0
 11
39.55262720458933
 21
-13.67174138643901
 31
0.0
  0
SPLINE
  5
17A
330
2
100
AcDbEntity
  8
GAIKEI
  6
Continuous
 62
     1
100
AcDbSpline
210
0.0
220
0.0
230
1.0
 70
     8
 71
     3
 72
    20
 73
    16
 74
    14
 42
0.0000000001
 43
0.0000000001
 44
0.000001
 12
0.299379595244951
 22
-0.9541340880353082
 32
0.0
 13
0.0543241289414467
 23
-0.9985233542660647
 33
0.0
 40
0.0
 40
0.0
 40
0.0
 40
0.0
 40
0.0063807478429947
 40
0.0340721766799074
 40
0.0639604415144966
 40
0.096044420709983
 40
0.1303192580884646
 40
0.1667773842440195
 40
0.203422368353348
 40
0.2421105810853491
 40
0.2827305287953021
 40
0.3157167484610425
 40
0.3498659610588975
 40
0.3850650557778393
 40
0.4212011070297878
 40
0.4212011070297878
 40
0.4212011070297878
 40
0.4212011070297878
 10
39.60198183912218
 20
-14.58586291385342
 30
0.0
 10
39.6026185943577
 20
-14.58789227686147
 30
0.0
 10
39.60597764529229
 20
-14.59874167046971
 30
0.0
 10
39.61179643554715
 20
-14.61925773834515
 30
0.0
 10
39.61900618560117
 20
-14.64826751739799
 30
0.0
 10
39.62584166331954
 20
-14.67961740055514
 30
0.0
 10
39.63227380032754
 20
-14.7132842059878
 30
0.0
 10
39.63816454360173
 20
-14.74859183298439
 30
0.0
 10
39.64353185310131
 20
-14.7854693433343
 30
0.0
 10
39.64839291793976
 20
-14.82381551854963
 30
0.0
 10
39.65246308335293
 20
-14.86102683156272
 30
0.0
 10
39.65585537691953
 20
-14.89678558930829
 30
0.0
 10
39.65866955923895
 20
-14.93078162907757
 30
0.0
 10
39.66116659429332
 20
-14.96585500270485
 30
0.0
 10
39.66259263862949
 20
-14.98959117464416
 30
0.0
 10
39.6632469917987
 20
-15.00161873834616
 30
0.0
 11
39.60198183912218
 21
-14.58586291385342
 31
0.0
 11
39.60386674646605
 21
-14.59195914253712
 31
0.0
 11
39.61145497381784
 21
-14.61859052560464
 31
0.0
 11
39.61869339287029
 21
-14.64758901340053
 31
0.0
 11
39.6255539097146
 21
-14.67893090485057
 31
0.0
 11
39.63200843044205
 21
-14.71259249888055
 31
0.0
 11
39.63802886114388
 21
-14.74855009441609
 31
0.0
 11
39.64332428987706
 21
-14.78481043989006
 31
0.0
 11
39.64820386568374
 21
-14.82318969136821
 31
0.0
 11
39.65263205203519
 21
-14.86356754095044
 31
0.0
 11
39.65575330360548
 21
-14.89640575109621
 31
0.0
 11
39.6585753874852
 21
-14.93043814745141
 31
0.0
 11
39.66107953858074
 21
-14.96554803990506
 31
0.0
 11
39.6632469917987
 21
-15.00161873834616
 31
0.0
  0
SPLINE
  5
17B
330
2
100
AcDbEntity
  8
GAIKEI
  6
Continuous
 62
     1
100
AcDbSpline
210
0.0
220
0.0
230
1.0
 70
     8
 71
     3
 72
    18
 73
    14
 74
    12
 42
0.0000000001
 43
0.0000000001
 44
0.000001
 12
-0.9988897441339355
 22
-0.0471092248295469
 32
0.0
 13
-0.3585121632137753
 23
0.9335250552758502
 33
0.0
 40
0.0
 40
0.0
 40
0.0
 40
0.0
 40
0.0119805905300651
 40
0.024331061290752
 40
0.0376234896336699
 40
0.0522411295060456
 40
0.0668180788349941
 40
0.0830395302716152
 40
0.1011283162673229
 40
0.1216709828861066
 40
0.1446528964452394
 40
0.1703155568409978
 40
0.1739624955742539
 40
0.1739624955742539
 40
0.1739624955742539
 40
0.1739624955742539
 10
38.05058737012052
 20
-15.49355212312451
 30
0.0
 10
38.04659827378413
 20
-15.49374025523547
 30
0.0
 10
38.03842895392938
 20
-15.49333514623119
 30
0.0
 10
38.02624556194721
 20
-15.49001327835652
 30
0.0
 10
38.01414897780279
 20
-15.48403440819909
 30
0.0
 10
38.00264771851647
 20
-15.47567272648364
 30
0.0
 10
37.99167185937193
 20
-15.46519889359365
 30
0.0
 10
37.98115177952957
 20
-15.4527177840177
 30
0.0
 10
37.9706912795354
 20
-15.43769522836064
 30
0.0
 10
37.96030886562818
 20
-15.41995317091671
 30
0.0
 10
37.95006280731829
 20
-15.39927424690366
 30
0.0
 10
37.94328250872414
 20
-15.383204981828
 30
0.0
 10
37.93974441287105
 20
-15.3740983675403
 30
0.0
 10
37.93930858890627
 20
-15.37296353131279
 30
0.0
 11
38.05058737012052
 21
-15.49355212312451
 31
0.0
 11
38.03862267125391
 21
-15.49291816970975
 31
0.0
 11
38.0266888536296
 21
-15.48973759734548
 31
0.0
 11
38.01473491715245
 21
-15.48392463989898
 31
0.0
 11
38.00284864636854
 21
-15.4754163698164
 31
0.0
 11
37.99225158201159
 21
-15.46540693492238
 31
0.0
 11
37.9817410852001
 21
-15.45305120093411
 31
0.0
 11
37.97134691375561
 21
-15.43824698916586
 31
0.0
 11
37.96091763108376
 21
-15.42054866746179
 31
0.0
 11
37.95065970979573
 21
-15.3999830934639
 31
0.0
 11
37.94062884739827
 21
-15.37636206695288
 31
0.0
 11
37.93930858890627
 21
-15.37296353131279
 31
0.0
  0
SPLINE
  5
17C
330
2
100
AcDbEntity
  8
GAIKEI
  6
Continuous
 62
     1
100
AcDbSpline
210
0.0
220
0.0
230
1.0
 70
     8
 71
     3
 72
    11
 73
     7
 74
     5
 42
0.0000000001
 43
0.0000000001
 44
0.000001
 12
0.9703345670641711
 22
0.2417660603980373
 32
0.0
 13
0.9797500259308318
 23
0.2002245906189711
 33
0.0
 40
0.0
 40
0.0
 40
0.0
 40
0.0
 40
0.0041473159911531
 40
0.0230972194081771
 40
0.0430134616241683
 40
0.063731099072353
 40
0.063731099072353
 40
0.063731099072353
 40
0.063731099072353
 10
37.84606272235488
 20
-15.51770426518737
 30
0.0
 10
37.84740415037712
 20
-15.51737003843791
 30
0.0
 10
37.85487856523156
 20
-15.51552364732508
 30
0.0
 10
37.86884008229242
 20
-15.51225654452669
 30
0.0
 10
37.88824274526198
 20
-15.50801172436729
 30
0.0
 10
37.90149875156112
 20
-15.50522941901532
 30
0.0
 10
37.90826478683681
 20
-15.50384669218977
 30
0.0
 11
37.84606272235488
 21
-15.51770426518737
 31
0.0
 11
37.85008908985714
 21
-15.5167097609721
 31
0.0
 11
37.86853642838628
 21
-15.51237445694664
 31
0.0
 11
37.8879878248992
 21
-15.50809681245323
 31
0.0
 11
37.90826478683681
 21
-15.50384669218977
 31
0.0
  0
SPLINE
  5
17D
330
2
100
AcDbEntity
  8
GAIKEI
  6
Continuous
 62
     1
100
AcDbSpline
210
0.0
220
0.0
230
1.0
 70
     8
 71
     3
 72
     9
 73
     5
 74
     3
 42
0.0000000001
 43
0.0000000001
 44
0.000001
 12
0.9999857704525481
 22
-0.0053346876594615
 32
0.0
 13
0.9999959155307976
 23
-0.0028581325584514
 33
0.0
 40
0.0
 40
0.0
 40
0.0
 40
0.0
 40
0.3908998216266075
 40
0.4190327266555318
 40
0.4190327266555318
 40
0.4190327266555318
 40
0.4190327266555318
 10
36.76749669641845
 20
-16.67321233201284
 30
0.0
 10
36.89779478285146
 20
-16.67390744149767
 30
0.0
 10
37.03747132143639
 20
-16.67449123174343
 30
0.0
 10
37.17714829041958
 20
-16.67490206096439
 30
0.0
 10
37.18652588712655
 20
-16.67492886348833
 30
0.0
 11
36.76749669641845
 21
-16.67321233201284
 31
0.0
 11
37.15839310487854
 21
-16.67484611707556
 31
0.0
 11
37.18652588712655
 21
-16.67492886348833
 31
0.0
  0
SPLINE
  5
17E
330
2
100
AcDbEntity
  8
GAIKEI
  6
Continuous
 62
     7
100
AcDbSpline
210
0.0
220
0.0
230
1.0
 70
     8
 71
     3
 72
     9
 73
     5
 74
     3
 42
0.0000000001
 43
0.0000000001
 44
0.000001
 12
-0.9999967948792836
 22
-0.0025318434312368
 32
0.0
 13
-0.9999860532931538
 23
-0.0052814031451416
 33
0.0
 40
0.0
 40
0.0
 40
0.0
 40
0.0
 40
0.0968157403298449
 40
0.4877122289167754
 40
0.4877122289167754
 40
0.4877122289167754
 40
0.4877122289167754
 10
37.25520845736554
 20
19.51717529729319
 30
0.0
 10
37.22293664735764
 20
19.51709358986113
 30
0.0
 10
37.06036654394277
 20
19.51663761910845
 30
0.0
 10
36.8977970357515
 20
19.51595814809374
 30
0.0
 10
36.7675000234621
 20
19.51526998744566
 30
0.0
 11
37.25520845736554
 21
19.51717529729319
 31
0.0
 11
37.15839310487849
 21
19.51690375315724
 31
0.0
 11
36.7675000234621
 21
19.51526998744566
 31
0.0
  0
SPLINE
  5
17F
330
2
100
AcDbEntity
  8
GAIKEI
  6
Continuous
 62
     7
100
AcDbSpline
210
0.0
220
0.0
230
1.0
 70
     8
 71
     3
 72
     9
 73
     5
 74
     3
 42
0.0000000001
 43
0.0000000001
 44
0.000001
 12
-0.9947747753350329
 22
-0.1020938115516043
 32
0.0
 13
-0.9947988961165851
 23
-0.1018585111084175
 33
0.0
 40
0.0
 40
0.0
 40
0.0
 40
0.0
 40
0.1977011781494299
 40
0.944782611872483
 40
0.944782611872483
 40
0.944782611872483
 40
0.944782611872483
 10
36.76210848244995
 20
19.51519837424268
 30
0.0
 10
36.69655243409093
 20
19.50847035196751
 30
0.0
 10
36.38326966831954
 20
19.47632595243361
 30
0.0
 10
36.06998310057685
 20
19.44421860380262
 30
0.0
 10
35.82225117205121
 20
19.4188530696307
 30
0.0
 11
36.76210848244995
 21
19.51519837424268
 31
0.0
 11
36.56543983802249
 21
19.49501917457701
 31
0.0
 11
35.82225117205121
 21
19.4188530696307
 31
0.0
  0
SPLINE
  5
180
330
2
100
AcDbEntity
  8
GAIKEI
  6
Continuous
 62
     1
100
AcDbSpline
210
0.0
220
0.0
230
1.0
 70
     8
 71
     3
 72
    21
 73
    17
 74
    15
 42
0.0000000001
 43
0.0000000001
 44
0.000001
 12
0.0382553536958656
 22
0.9992679960419048
 32
0.0
 13
-0.7595848949301688
 23
0.6504081698394668
 33
0.0
 40
0.0
 40
0.0
 40
0.0
 40
0.0
 40
0.0221910289686871
 40
0.0441849332591015
 40
0.0655784734027641
 40
0.0863132603141312
 40
0.1060380685474968
 40
0.1243777896296458
 40
0.1409618325684401
 40
0.1558604188062607
 40
0.16879454101976
 40
0.1794887649079415
 40
0.1880571758778945
 40
0.1943546315347328
 40
0.1985899972598501
 40
0.200311883501781
 40
0.200311883501781
 40
0.200311883501781
 40
0.200311883501781
 10
35.82507525554365
 20
19.21916833352168
 30
0.0
 10
35.82535823076435
 20
19.22655992853757
 30
0.0
 10
35.82585016035762
 20
19.2412803536351
 30
0.0
 10
35.82634408816403
 20
19.2631345852896
 30
0.0
 10
35.82665672293928
 20
19.28450655867458
 30
0.0
 10
35.82681880316926
 20
19.30512375091919
 30
0.0
 10
35.82685272958605
 20
19.32472369643912
 30
0.0
 10
35.82677651693714
 20
19.34293954526099
 30
0.0
 10
35.82661072163432
 20
19.35954718718167
 30
0.0
 10
35.82635139551849
 20
19.37434782329751
 30
0.0
 10
35.82602767835377
 20
19.38719469443575
 30
0.0
 10
35.82556269172386
 20
19.39789419435837
 30
0.0
 10
35.82516253990306
 20
19.40646584467089
 30
0.0
 10
35.82427609246463
 20
19.41264721821201
 30
0.0
 10
35.82409927078265
 20
19.41699100063026
 30
0.0
 10
35.82267885930219
 20
19.41847880277611
 30
0.0
 10
35.82224288637548
 20
19.41885211240253
 30
0.0
 11
35.82507525554365
 21
19.21916833352168
 31
0.0
 11
35.82581131935547
 21
19.24134667826342
 31
0.0
 11
35.82631809901631
 21
19.26333474312355
 31
0.0
 11
35.82663453875938
 21
19.28472594140805
 31
0.0
 11
35.82679884158557
 21
19.30546007529966
 31
0.0
 11
35.82683248355954
 21
19.32518485231833
 31
0.0
 11
35.82675455924056
 21
19.34352440468558
 31
0.0
 11
35.82658228971633
 21
19.36010754876202
 31
0.0
 11
35.82631859230275
 21
19.37500379558048
 31
0.0
 11
35.82596521389718
 21
19.38793308150264
 31
0.0
 11
35.82552391100995
 21
19.39861818411657
 31
0.0
 11
35.82497424580703
 21
19.40716892582753
 31
0.0
 11
35.82429996100211
 21
19.41343013696928
 31
0.0
 11
35.82338781298086
 21
19.41756587855383
 31
0.0
 11
35.82224288637548
 21
19.41885211240253
 31
0.0
  0
SPLINE
  5
181
330
2
100
AcDbEntity
  8
GAIKEI
  6
Continuous
 62
     1
100
AcDbSpline
210
0.0
220
0.0
230
1.0
 70
     8
 71
     3
 72
    25
 73
    21
 74
    19
 42
0.0000000001
 43
0.0000000001
 44
0.000001
 12
-0.0255134206165988
 22
-0.9996744797024883
 32
0.0
 13
0.9743074816367307
 23
-0.2252219599121975
 33
0.0
 40
0.0
 40
0.0
 40
0.0
 40
0.0
 40
0.0204813486621756
 40
0.0409688729825677
 40
0.0576179634096592
 40
0.0741051539890635
 40
0.0901792402221535
 40
0.1058345015999207
 40
0.1202818072328477
 40
0.1339991181210809
 40
0.1470723265839186
 40
0.1591864839562975
 40
0.1697261044376251
 40
0.1792402916126943
 40
0.1877892930673852
 40
0.1951896496431825
 40
0.2012055425433604
 40
0.2062281867816495
 40
0.2104862133427884
 40
0.2122113217879108
 40
0.2122113217879108
 40
0.2122113217879108
 40
0.2122113217879108
 10
36.72512932896234
 20
-16.46936957102542
 30
0.0
 10
36.72495514587459
 20
-16.47619446488124
 30
0.0
 10
36.72475595404006
 20
-16.48985055458652
 30
0.0
 10
36.72489304705289
 20
-16.50905759911721
 30
0.0
 10
36.72538882839641
 20
-16.52692637327605
 30
0.0
 10
36.72616323397654
 20
-16.54331265459258
 30
0.0
 10
36.72725549013885
 20
-16.55934891408195
 30
0.0
 10
36.72864721003859
 20
-16.57467954201303
 30
0.0
 10
36.73032317851485
 20
-16.58919125465769
 30
0.0
 10
36.73226564557098
 20
-16.60280113043102
 30
0.0
 10
36.73449228055037
 20
-16.61557919248889
 30
0.0
 10
36.7369611751686
 20
-16.62723267032028
 30
0.0
 10
36.73962962197635
 20
-16.63762182774849
 30
0.0
 10
36.74246989259797
 20
-16.64672845610323
 30
0.0
 10
36.74552094884467
 20
-16.65465755217887
 30
0.0
 10
36.74873721583777
 20
-16.66124796983032
 30
0.0
 10
36.75207920522223
 20
-16.66643207715295
 30
0.0
 10
36.75553209776479
 20
-16.67021847226633
 30
0.0
 10
36.7586555215257
 20
-16.67228102812979
 30
0.0
 10
36.76057546611338
 20
-16.67285679190378
 30
0.0
 10
36.76113572813495
 20
-16.67298630267214
 30
0.0
 11
36.72512932896234
 21
-16.46936957102542
 31
0.0
 11
36.72483075494608
 21
-16.48984795394233
 31
0.0
 11
36.72498040574698
 21
-16.51033492736536
 31
0.0
 11
36.72544524002535
 21
-16.52697752371813
 31
0.0
 11
36.7262280851574
 21
-16.5434461138621
 31
0.0
 11
36.72732654029619
 21
-16.55948261843866
 31
0.0
 11
36.72875022411654
 21
-16.57507300458525
 31
0.0
 11
36.73041732652325
 21
-16.58942379561841
 31
0.0
 11
36.73236770534749
 21
-16.60300173368358
 31
0.0
 11
36.73462828835523
 21
-16.61587800093741
 31
0.0
 11
36.73716024717732
 21
-16.6277245894293
 31
0.0
 11
36.7398057649508
 21
-16.63792676962418
 31
0.0
 11
36.74266907304724
 21
-16.64699985103863
 31
0.0
 11
36.74578096279487
 21
-16.65496232902552
 31
0.0
 11
36.7490825022586
 21
-16.66158535675549
 31
0.0
 11
36.75240543168115
 21
-16.66660017605682
 31
0.0
 11
36.75586280540097
 21
-16.67024334081498
 31
0.0
 11
36.75948689054639
 21
-16.67247843080787
 31
0.0
 11
36.76113572813495
 21
-16.67298630267214
 31
0.0
  0
SPLINE
  5
182
330
2
100
AcDbEntity
  8
GAIKEI
  6
Continuous
 62
     1
100
AcDbSpline
210
0.0
220
0.0
230
1.0
 70
     8
 71
     3
 72
    21
 73
    17
 74
    15
 42
0.0000000001
 43
0.0000000001
 44
0.000001
 12
0.0382553536963009
 22
-0.9992679960418882
 32
0.0
 13
-0.7595848949307547
 23
-0.6504081698387826
 33
0.0
 40
0.0
 40
0.0
 40
0.0
 40
0.0
 40
0.0221910289687439
 40
0.0441849332590944
 40
0.0655784734027641
 40
0.0863132603141809
 40
0.1060380685475536
 40
0.1243777896297098
 40
0.1409618325684899
 40
0.1558604188063247
 40
0.1687945410197601
 40
0.1794887649079913
 40
0.1880571758779442
 40
0.194354631534726
 40
0.1985899972598988
 40
0.2003118835017926
 40
0.2003118835017926
 40
0.2003118835017926
 40
0.2003118835017926
 10
35.82507525554365
 20
-16.37711069743994
 30
0.0
 10
35.82535823076435
 20
-16.38450229245585
 30
0.0
 10
35.82585016035765
 20
-16.39922271755341
 30
0.0
 10
35.82634408816398
 20
-16.42107694920785
 30
0.0
 10
35.82665672293933
 20
-16.44244892259289
 30
0.0
 10
35.82681880316915
 20
-16.46306611483747
 30
0.0
 10
35.82685272958611
 20
-16.48266606035744
 30
0.0
 10
35.82677651693703
 20
-16.50088190917928
 30
0.0
 10
35.82661072163438
 20
-16.51748955110003
 30
0.0
 10
35.82635139551846
 20
-16.53229018721578
 30
0.0
 10
35.82602767835374
 20
-16.54513705835405
 30
0.0
 10
35.82556269172386
 20
-16.55583655827668
 30
0.0
 10
35.82516253990309
 20
-16.5644082085892
 30
0.0
 10
35.82427609246455
 20
-16.57058958213026
 30
0.0
 10
35.82409927078271
 20
-16.57493336454858
 30
0.0
 10
35.82267885930219
 20
-16.57642116669438
 30
0.0
 10
35.82224288637548
 20
-16.5767944763208
 30
0.0
 11
35.82507525554365
 21
-16.37711069743994
 31
0.0
 11
35.82581131935547
 21
-16.39928904218175
 31
0.0
 11
35.82631809901631
 21
-16.42127710704182
 31
0.0
 11
35.82663453875938
 21
-16.44266830532632
 31
0.0
 11
35.82679884158557
 21
-16.46340243921798
 31
0.0
 11
35.82683248355954
 21
-16.48312721623665
 31
0.0
 11
35.82675455924056
 21
-16.5014667686039
 31
0.0
 11
35.82658228971633
 21
-16.51804991268034
 31
0.0
 11
35.82631859230275
 21
-16.5329461594988
 31
0.0
 11
35.82596521389718
 21
-16.5458754454209
 31
0.0
 11
35.82552391100995
 21
-16.55656054803489
 31
0.0
 11
35.82497424580703
 21
-16.56511128974585
 31
0.0
 11
35.82429996100211
 21
-16.57137250088755
 31
0.0
 11
35.82338781298086
 21
-16.57550824247215
 31
0.0
 11
35.82224288637548
 21
-16.5767944763208
 31
0.0
  0
SPLINE
  5
183
330
2
100
AcDbEntity
  8
GAIKEI
  6
Continuous
 62
     7
100
AcDbSpline
210
0.0
220
0.0
230
1.0
 70
     8
 71
     3
 72
     9
 73
     5
 74
     3
 42
0.0000000001
 43
0.0000000001
 44
0.000001
 12
0.9946733934099068
 22
-0.1030768666695919
 32
0.0
 13
0.9996677582123131
 23
-0.0257754377415425
 33
0.0
 40
0.0
 40
0.0
 40
0.0
 40
0.0
 40
0.00192921952105
 40
0.0047028439137039
 40
0.0047028439137039
 40
0.0047028439137039
 40
0.0047028439137039
 10
36.76232855510813
 20
-16.67285577083118
 30
0.0
 10
36.762968202884
 20
-16.67292205679896
 30
0.0
 10
36.76453009320244
 20
-16.67305884165656
 30
0.0
 10
36.76609652958948
 20
-16.67313507449344
 30
0.0
 10
36.76702076388238
 20
-16.67315890495439
 30
0.0
 11
36.76232855510813
 21
-16.67285577083118
 31
0.0
 11
36.7642503792444
 21
-16.6730241133194
 31
0.0
 11
36.76702076388238
 21
-16.67315890495439
 31
0.0
  0
SPLINE
  5
184
330
2
100
AcDbEntity
  8
GAIKEI
  6
Continuous
 62
     1
100
AcDbSpline
210
0.0
220
0.0
230
1.0
 70
     8
 71
     3
 72
     9
 73
     5
 74
     3
 42
0.0000000001
 43
0.0000000001
 44
0.000001
 12
0.0107468806351511
 22
0.9999422506108109
 32
0.0
 13
0.1266484047962898
 23
0.9919476707783305
 33
0.0
 40
0.0
 40
0.0
 40
0.0
 40
0.0
 40
0.0181772876333758
 40
0.0364254517197337
 40
0.0364254517197337
 40
0.0364254517197337
 40
0.0364254517197337
 10
35.82256973088642
 20
19.18284455860066
 30
0.0
 10
35.82263484726656
 20
19.18890330456936
 30
0.0
 10
35.82311804890867
 20
19.20104315619102
 30
0.0
 10
35.82430488858631
 20
19.21313459223452
 30
0.0
 10
35.82507525554365
 20
19.21916833352168
 30
0.0
 11
35.82256973088642
 21
19.18284455860066
 31
0.0
 11
35.82329166477399
 21
19.20100751640137
 31
0.0
 11
35.82507525554365
 21
19.21916833352168
 31
0.0
  0
SPLINE
  5
185
330
2
100
AcDbEntity
  8
GAIKEI
  6
Continuous
 62
     1
100
AcDbSpline
210
0.0
220
0.0
230
1.0
 70
     8
 71
     3
 72
     9
 73
     5
 74
     3
 42
0.0000000001
 43
0.0000000001
 44
0.000001
 12
0.0107468806355603
 22
-0.9999422506108064
 32
0.0
 13
0.1266484047959066
 23
-0.9919476707783793
 33
0.0
 40
0.0
 40
0.0
 40
0.0
 40
0.0
 40
0.0181772876333676
 40
0.0364254517196732
 40
0.0364254517196732
 40
0.0364254517196732
 40
0.0364254517196732
 10
35.82256973088647
 20
-16.34078692251899
 30
0.0
 10
35.82263484726664
 20
-16.34684566848769
 30
0.0
 10
35.8231180489087
 20
-16.35898552010933
 30
0.0
 10
35.82430488858631
 20
-16.37107695615281
 30
0.0
 10
35.82507525554365
 20
-16.37711069743994
 30
0.0
 11
35.82256973088647
 21
-16.34078692251899
 31
0.0
 11
35.82329166477399
 21
-16.3589498803197
 31
0.0
 11
35.82507525554365
 21
-16.37711069743994
 31
0.0
  0
SPLINE
  5
186
330
2
100
AcDbEntity
  8
GAIKEI
  6
Continuous
 62
     1
100
AcDbSpline
210
0.0
220
0.0
230
1.0
 70
     8
 71
     3
 72
    17
 73
    13
 74
    11
 42
0.0000000001
 43
0.0000000001
 44
0.000001
 12
0.3612359225596014
 22
-0.9324744544771796
 32
0.0
 13
-0.0627016803872264
 23
-0.9980323137437075
 33
0.0
 40
0.0
 40
0.0
 40
0.0
 40
0.0
 40
0.0028300885610925
 40
0.0073793218412024
 40
0.0162740123555915
 40
0.0284944018718172
 40
0.0435304452718028
 40
0.0615754826925127
 40
0.0817126975661947
 40
0.1041653858556464
 40
0.1273126048373586
 40
0.1517927467179394
 40
0.1517927467179394
 40
0.1517927467179394
 40
0.1517927467179394
 10
35.76358437375871
 20
19.37855241016405
 30
0.0
 10
35.76392515030946
 20
19.37767274840168
 30
0.0
 10
35.76469915371209
 20
19.37532528298956
 30
0.0
 10
35.76529284243074
 20
19.36990920898772
 30
0.0
 10
35.76587487810241
 20
19.36138419520468
 30
0.0
 10
35.76615532767716
 20
19.34932892393868
 30
0.0
 10
35.76623073959826
 20
19.33423064861812
 30
0.0
 10
35.76604871238453
 20
19.31649069094865
 30
0.0
 10
35.76561729883946
 20
19.29628360398101
 30
0.0
 10
35.76491884585093
 20
19.27438186896893
 30
0.0
 10
35.76392812205038
 20
19.25104236390177
 30
0.0
 10
35.76303577103789
 20
19.23519104421403
 30
0.0
 10
35.76252412236056
 20
19.22704705333342
 30
0.0
 11
35.76358437375871
 21
19.37855241016405
 31
0.0
 11
35.76444365818304
 21
19.37585585220984
 31
0.0
 11
35.76511211207088
 21
19.37135608400558
 31
0.0
 11
35.76574258026563
 21
19.36248380082543
 31
0.0
 11
35.76609912902012
 21
19.35026863146925
 31
0.0
 11
35.76619000394106
 21
19.33523287308571
 31
0.0
 11
35.76602338486083
 21
19.31718861194213
 31
0.0
 11
35.76559937666792
 21
19.29705586643376
 31
0.0
 11
35.76488641991296
 21
19.27461450410686
 31
0.0
 11
35.76389424927169
 21
19.25148856024327
 31
0.0
 11
35.76252412236056
 21
19.22704705333342
 31
0.0
  0
SPLINE
  5
187
330
2
100
AcDbEntity
  8
GAIKEI
  6
Continuous
 62
     1
100
AcDbSpline
210
0.0
220
0.0
230
1.0
 70
     8
 71
     3
 72
    17
 73
    13
 74
    11
 42
0.0000000001
 43
0.0000000001
 44
0.000001
 12
0.3612359225583266
 22
0.9324744544776734
 32
0.0
 13
-0.0627016803875014
 23
0.9980323137436903
 33
0.0
 40
0.0
 40
0.0
 40
0.0
 40
0.0
 40
0.0028300885610925
 40
0.0073793218411953
 40
0.0162740123556482
 40
0.0284944018718171
 40
0.0435304452717957
 40
0.0615754826925055
 40
0.0817126975661946
 40
0.1041653858556463
 40
0.1273126048373657
 40
0.1517927467179393
 40
0.1517927467179393
 40
0.1517927467179393
 40
0.1517927467179393
 10
35.76358437375871
 20
-16.53649477408237
 30
0.0
 10
35.76392515030946
 20
-16.53561511231999
 30
0.0
 10
35.76469915371206
 20
-16.53326764690791
 30
0.0
 10
35.76529284243071
 20
-16.52785157290602
 30
0.0
 10
35.76587487810241
 20
-16.51932655912299
 30
0.0
 10
35.76615532767716
 20
-16.50727128785701
 30
0.0
 10
35.76623073959829
 20
-16.49217301253639
 30
0.0
 10
35.76604871238462
 20
-16.47443305486703
 30
0.0
 10
35.76561729883943
 20
-16.4542259678993
 30
0.0
 10
35.7649188458509
 20
-16.43232423288724
 30
0.0
 10
35.76392812205035
 20
-16.40898472782012
 30
0.0
 10
35.76303577103789
 20
-16.39313340813236
 30
0.0
 10
35.76252412236056
 20
-16.38498941725174
 30
0.0
 11
35.76358437375871
 21
-16.53649477408237
 31
0.0
 11
35.76444365818304
 21
-16.53379821612816
 31
0.0
 11
35.76511211207088
 21
-16.52929844792391
 31
0.0
 11
35.76574258026563
 21
-16.5204261647437
 31
0.0
 11
35.76609912902012
 21
-16.50821099538757
 31
0.0
 11
35.76619000394106
 21
-16.49317523700404
 31
0.0
 11
35.76602338486083
 21
-16.47513097586045
 31
0.0
 11
35.76559937666792
 21
-16.45499823035209
 31
0.0
 11
35.76488641991296
 21
-16.43255686802518
 31
0.0
 11
35.76389424927169
 21
-16.4094309241616
 31
0.0
 11
35.76252412236056
 21
-16.38498941725174
 31
0.0
  0
SPLINE
  5
188
330
2
100
AcDbEntity
  8
GAIKEI
  6
Continuous
 62
     1
100
AcDbSpline
210
0.0
220
0.0
230
1.0
 70
     8
 71
     3
 72
    11
 73
     7
 74
     5
 42
0.0000000001
 43
0.0000000001
 44
0.000001
 12
-0.0654000757821216
 22
-0.9978591233674684
 32
0.0
 13
0.0982885050871231
 23
-0.9951579622189326
 33
0.0
 40
0.0
 40
0.0
 40
0.0
 40
0.0
 40
0.0110413870342985
 40
0.0220816452102942
 40
0.0331549967802795
 40
0.0442276311423504
 40
0.0442276311423504
 40
0.0442276311423504
 40
0.0442276311423504
 10
35.76252412236056
 20
19.22704705333342
 30
0.0
 10
35.7622834198443
 20
19.22337447040448
 30
0.0
 10
35.76192726197934
 20
19.21602100125759
 30
0.0
 10
35.76174998982336
 20
19.20496870067129
 30
0.0
 10
35.7620093176615
 20
19.19390585180849
 30
0.0
 10
35.76255899977332
 20
19.18654056926957
 30
0.0
 10
35.76292177066625
 20
19.18286756252019
 30
0.0
 11
35.76252412236056
 21
19.22704705333342
 31
0.0
 11
35.76198775450223
 21
19.21601894080493
 31
0.0
 11
35.76182344755165
 21
19.20498038466604
 31
0.0
 11
35.76210252933743
 21
19.19391021058942
 31
0.0
 11
35.76292177066625
 21
19.18286756252019
 31
0.0
  0
SPLINE
  5
189
330
2
100
AcDbEntity
  8
GAIKEI
  6
Continuous
 62
     1
100
AcDbSpline
210
0.0
220
0.0
230
1.0
 70
     8
 71
     3
 72
    11
 73
     7
 74
     5
 42
0.0000000001
 43
0.0000000001
 44
0.000001
 12
-0.0654000757818637
 22
0.9978591233674855
 32
0.0
 13
0.098288505086618
 23
0.9951579622189827
 33
0.0
 40
0.0
 40
0.0
 40
0.0
 40
0.0
 40
0.0110413870343056
 40
0.0220816452102942
 40
0.0331549967803434
 40
0.0442276311424072
 40
0.0442276311424072
 40
0.0442276311424072
 40
0.0442276311424072
 10
35.76252412236056
 20
-16.38498941725174
 30
0.0
 10
35.7622834198443
 20
-16.38131683432281
 30
0.0
 10
35.76192726197934
 20
-16.3739633651759
 30
0.0
 10
35.76174998982339
 20
-16.36291106458957
 30
0.0
 10
35.7620093176615
 20
-16.35184821572679
 30
0.0
 10
35.76255899977332
 20
-16.34448293318783
 30
0.0
 10
35.76292177066625
 20
-16.34080992643845
 30
0.0
 11
35.76252412236056
 21
-16.38498941725174
 31
0.0
 11
35.76198775450223
 21
-16.37396130472325
 31
0.0
 11
35.76182344755165
 21
-16.36292274858436
 31
0.0
 11
35.76210252933743
 21
-16.35185257450769
 31
0.0
 11
35.76292177066625
 21
-16.34080992643845
 31
0.0
  0
SPLINE
  5
18A
330
2
100
AcDbEntity
  8
GAIKEI
  6
Continuous
 62
     1
100
AcDbSpline
210
0.0
220
0.0
230
1.0
 70
     8
 71
     3
 72
    12
 73
     8
 74
     6
 42
0.0000000001
 43
0.0000000001
 44
0.000001
 12
-0.9997199128824609
 22
0.0236663429005118
 32
0.0
 13
-0.5897290979336681
 23
-0.8076011336361174
 33
0.0
 40
0.0
 40
0.0
 40
0.0
 40
0.0
 40
0.0096251542167735
 40
0.0199387934551342
 40
0.0318105192887571
 40
0.0457159054561243
 40
0.050248664879283
 40
0.050248664879283
 40
0.050248664879283
 40
0.050248664879283
 10
36.8408103344176
 20
18.57272403152069
 30
0.0
 10
36.83760284830592
 20
18.57279996225408
 30
0.0
 10
36.83089001888163
 20
18.57214605111538
 30
0.0
 10
36.8209731703985
 20
18.56803588894306
 30
0.0
 10
36.81121511625014
 20
18.56084384784272
 30
0.0
 10
36.80435629009398
 20
18.55335708715888
 30
0.0
 10
36.800602345177
 20
18.54849068339119
 30
0.0
 10
36.79971131180173
 20
18.54727046284165
 30
0.0
 11
36.8408103344176
 21
18.57272403152069
 31
0.0
 11
36.83123669527674
 21
18.57172104196331
 31
0.0
 11
36.82165626434227
 21
18.56790123652763
 31
0.0
 11
36.8120050678678
 21
18.56098779467595
 31
0.0
 11
36.80247274256834
 21
18.55086369874431
 31
0.0
 11
36.79971131180173
 21
18.54727046284165
 31
0.0
  0
SPLINE
  5
18B
330
2
100
AcDbEntity
  8
GAIKEI
  6
Continuous
 62
     7
100
AcDbSpline
210
0.0
220
0.0
230
1.0
 70
     8
 71
     3
 72
    12
 73
     8
 74
     6
 42
0.0000000001
 43
0.0000000001
 44
0.000001
 12
-0.5210043848710568
 22
0.853554000017065
 32
0.0
 13
0.4724306694582073
 23
0.8813678361247761
 33
0.0
 40
0.0
 40
0.0
 40
0.0
 40
0.0
 40
0.0000005781458884
 40
0.0017333552898061
 40
0.0031452536161891
 40
0.0043832590831246
 40
0.0055717860833932
 40
0.0055717860833932
 40
0.0055717860833932
 40
0.0055717860833932
 10
35.76417380086912
 20
-16.5417747859521
 30
0.0
 10
35.7641737004636
 20
-16.54177462145919
 30
0.0
 10
35.76387269364389
 20
-16.54128143803008
 30
0.0
 10
35.76337985498913
 20
-16.54034704115393
 30
0.0
 10
35.76303151925143
 20
-16.5389090873773
 30
0.0
 10
35.76310807327016
 20
-16.53761296929786
 30
0.0
 10
35.76339720822324
 20
-16.5368439505725
 30
0.0
 10
35.76358437375871
 20
-16.53649477408237
 30
0.0
 11
35.76417380086912
 21
-16.5417747859521
 31
0.0
 11
35.76417349966954
 21
-16.54177429246903
 31
0.0
 11
35.76340265279214
 21
-16.54022286273778
 31
0.0
 11
35.7630917263009
 21
-16.53884547683259
 31
0.0
 11
35.76317086156803
 21
-16.53760987215543
 31
0.0
 11
35.76358437375871
 21
-16.53649477408237
 31
0.0
  0
SPLINE
  5
18C
330
2
100
AcDbEntity
  8
GAIKEI
  6
Continuous
 62
     1
100
AcDbSpline
210
0.0
220
0.0
230
1.0
 70
     8
 71
     3
 72
    24
 73
    20
 74
    18
 42
0.0000000001
 43
0.0000000001
 44
0.000001
 12
0.7763403989906265
 22
0.6303138780758956
 32
0.0
 13
0.7636803984192571
 23
0.6455944927508327
 33
0.0
 40
0.0
 40
0.0
 40
0.0
 40
0.0
 40
0.1773959314708884
 40
0.354481689505558
 40
0.5312969872922505
 40
0.7078822487365557
 40
0.8842795981092773
 40
1.115062369227088
 40
1.345689816078973
 40
1.576255225736605
 40
1.825996539094067
 40
2.075879877313447
 40
2.326007099412219
 40
2.576472834072538
 40
2.734121019363011
 40
2.891957822213213
 40
3.050003090005589
 40
3.208276939979012
 40
3.366799997369962
 40
3.366799997369962
 40
3.366799997369962
 40
3.366799997369962
 10
36.98623035120738
 20
-15.39403257636547
 30
0.0
 10
37.03213689394653
 20
-15.35676087052538
 30
0.0
 10
37.12393079837767
 20
-15.28235779829084
 30
0.0
 10
37.26172456241079
 20
-15.17110601565497
 30
0.0
 10
37.39943968870873
 20
-15.06018727768031
 30
0.0
 10
37.53705715697947
 20
-14.94951321140394
 30
0.0
 10
37.68872656672278
 20
-14.8276072706859
 30
0.0
 10
37.85440889141944
 20
-14.6943811327321
 30
0.0
 10
38.03402825044015
 20
-14.54967357810025
 30
0.0
 10
38.2183374447051
 20
-14.400714588551
 30
0.0
 10
38.40730515600683
 20
-14.24730898529357
 30
0.0
 10
38.6008963855235
 20
-14.08925433053393
 30
0.0
 10
38.79417735462835
 20
-13.93043967406426
 30
0.0
 10
38.96323416775138
 20
-13.79057413580854
 30
0.0
 10
39.10825825814433
 20
-13.66992186028443
 30
0.0
 10
39.22939499089583
 20
-13.56872664756479
 30
0.0
 10
39.35049226257959
 20
-13.46715939329916
 30
0.0
 10
39.47158673596755
 20
-13.36523326880287
 30
0.0
 10
39.55228302261554
 20
-13.29712115347659
 30
0.0
 10
39.59263667315787
 20
-13.26300728253471
 30
0.0
 11
36.98623035120738
 21
-15.39403257636547
 31
0.0
 11
37.12404734822383
 21
-15.28233750834562
 31
0.0
 11
37.26181731329393
 21
-15.17107744112792
 31
0.0
 11
37.39951356250765
 21
-15.06015678328879
 31
0.0
 11
37.53711167993919
 21
-14.94948107457747
 31
0.0
 11
37.67459384417134
 21
-14.83896103430839
 31
0.0
 11
37.85442748763461
 21
-14.69432166169446
 31
0.0
 11
38.03400744948021
 21
-14.54961486613064
 31
0.0
 11
38.21331616671699
 21
-14.40467076540261
 31
0.0
 11
38.40719594060823
 21
-14.24724980945757
 31
0.0
 11
38.60075128308938
 21
-14.08920547147892
 31
0.0
 11
38.79400165274581
 21
-13.93040395182021
 31
0.0
 11
38.98698368970895
 21
-13.77074488214913
 31
0.0
 11
39.10817649140847
 21
-13.66992199040243
 31
0.0
 11
39.2293091046738
 21
-13.56873233332845
 31
0.0
 11
39.35040490055968
 21
-13.46717390104925
 31
0.0
 11
39.47150049613401
 21
-13.365259877092
 31
0.0
 11
39.59263667315787
 21
-13.26300728253471
 31
0.0
  0
SPLINE
  5
18D
330
2
100
AcDbEntity
  8
GAIKEI
  6
Continuous
 62
     1
100
AcDbSpline
210
0.0
220
0.0
230
1.0
 70
     8
 71
     3
 72
    24
 73
    20
 74
    18
 42
0.0000000001
 43
0.0000000001
 44
0.000001
 12
-0.7636735410795518
 22
0.6456026042814714
 32
0.0
 13
-0.7763366358761542
 23
0.6303185129730015
 33
0.0
 40
0.0
 40
0.0
 40
0.0
 40
0.0
 40
0.1681222979462012
 40
0.3359656667857203
 40
0.5035547199692778
 40
0.6709132512745523
 40
0.8380651924213889
 40
1.005035010179513
 40
1.267110524497988
 40
1.528908353362705
 40
1.79054478854399
 40
2.010629314999003
 40
2.230766503968597
 40
2.451037449810018
 40
2.67152427472332
 40
2.844969077275459
 40
3.018637932547799
 40
3.192569038560268
 40
3.366800025634332
 40
3.366800025634332
 40
3.366800025634332
 40
3.366800025634332
 10
39.59263667315787
 20
16.10506491861645
 30
0.0
 10
39.54983982295554
 20
16.1412449830804
 30
0.0
 10
39.46425756047864
 20
16.21347464474537
 30
0.0
 10
39.33582579513453
 20
16.32154617820951
 30
0.0
 10
39.20738458968046
 20
16.42921068347986
 30
0.0
 10
39.0788936373902
 20
16.53645650239758
 30
0.0
 10
38.95032965365715
 20
16.64329210807418
 30
0.0
 10
38.7971975883454
 20
16.76996179266707
 30
0.0
 10
38.61933128417565
 20
16.91622582476017
 30
0.0
 10
38.41654228998473
 20
17.08186171007014
 30
0.0
 10
38.2241334359552
 20
17.23807773995445
 30
0.0
 10
38.0421843960697
 20
17.38514395742237
 30
0.0
 10
37.87074991493083
 20
17.52328347957204
 30
0.0
 10
37.69908154491228
 20
17.66134623925182
 30
0.0
 10
37.53949983972552
 20
17.78960288730644
 30
0.0
 10
37.39206698782243
 20
17.90817884782916
 30
0.0
 10
37.25680787558008
 20
18.01712963564671
 30
0.0
 10
37.12147391459203
 20
18.12640514511709
 30
0.0
 10
37.03131764657289
 20
18.19948321020781
 30
0.0
 10
36.98623034711608
 20
18.23609021576993
 30
0.0
 11
39.59263667315787
 21
16.10506491861645
 31
0.0
 11
39.46416062431388
 21
16.21350392992309
 31
0.0
 11
39.33572744465278
 21
16.32156092775636
 31
0.0
 11
39.2072885235603
 21
16.42921562859999
 31
0.0
 11
39.07880274357933
 21
16.53645499984714
 31
0.0
 11
38.95024353295435
 21
16.64328337242159
 31
0.0
 11
38.82158597944476
 21
16.74970777915132
 31
0.0
 11
38.61916868663661
 21
16.91617343823122
 31
0.0
 11
38.41642017594404
 21
17.08179694300338
 31
0.0
 11
38.21331616641726
 21
17.24672840172695
 31
0.0
 11
38.04216385449274
 21
17.38509055394092
 31
0.0
 11
37.87076369737054
 21
17.52322949934717
 31
0.0
 11
37.69913075885381
 21
17.66129261534155
 31
0.0
 11
37.52728688938777
 21
17.79943791696246
 31
0.0
 11
37.39213928026578
 21
17.90814956831599
 31
0.0
 11
37.25689806532102
 21
18.01710224118005
 31
0.0
 11
37.12158665931037
 21
18.12638560297614
 31
0.0
 11
36.98623034711608
 21
18.23609021576993
 31
0.0
  0
SPLINE
  5
18E
330
2
100
AcDbEntity
  8
GAIKEI
  6
Continuous
 62
     1
100
AcDbSpline
210
0.0
220
0.0
230
1.0
 70
     8
 71
     3
 72
     9
 73
     5
 74
     3
 42
0.0000000001
 43
0.0000000001
 44
0.000001
 12
-0.9990717831929515
 22
0.0430763511413879
 32
0.0
 13
-0.9992954629202728
 23
0.0375310243259837
 33
0.0
 40
0.0
 40
0.0
 40
0.0
 40
0.0
 40
0.3820310702061925
 40
0.5852208952986771
 40
0.5852208952986771
 40
0.5852208952986771
 40
0.5852208952986771
 10
37.60422630458692
 20
18.54256257207714
 30
0.0
 10
37.47700081707157
 20
18.54804807358618
 30
0.0
 10
37.28209279935263
 20
18.55609810282682
 30
0.0
 10
37.08716365259756
 20
18.56360723034444
 30
0.0
 10
37.0194814291554
 20
18.56614920443388
 30
0.0
 11
37.60422630458692
 21
18.54256257207714
 31
0.0
 11
37.22252062265045
 21
18.55832766031989
 31
0.0
 11
37.0194814291554
 21
18.56614920443388
 31
0.0
  0
SPLINE
  5
18F
330
2
100
AcDbEntity
  8
GAIKEI
  6
Continuous
 62
     7
100
AcDbSpline
210
0.0
220
0.0
230
1.0
 70
     8
 71
     3
 72
    12
 73
     8
 74
     6
 42
0.0000000001
 43
0.0000000001
 44
0.000001
 12
-0.9999805350888751
 22
-0.0062393463894028
 32
0.0
 13
-0.9999865056737114
 23
-0.0051950428756892
 33
0.0
 40
0.0
 40
0.0
 40
0.0
 40
0.0
 40
0.0822251272315459
 40
0.2143529371258685
 40
0.3902500169262791
 40
0.5839592036668935
 40
0.7876350594105253
 40
0.7876350594105253
 40
0.7876350594105253
 40
0.7876350594105253
 10
37.55559903387581
 20
19.51777272547122
 30
0.0
 10
37.52819119163357
 20
19.51760171512097
 30
0.0
 10
37.45674096222669
 20
19.51723571513675
 30
0.0
 10
37.3266573610519
 20
19.51719971598206
 30
0.0
 10
37.15941263397252
 20
19.51715059986222
 30
0.0
 10
36.96831963386742
 20
19.51644485036128
 30
0.0
 10
36.83585922668882
 20
19.51586964324224
 30
0.0
 10
36.76796819093045
 20
19.51551694164112
 30
0.0
 11
37.55559903387581
 21
19.51777272547122
 31
0.0
 11
37.47337487543138
 21
19.51737286823197
 31
0.0
 11
37.34124717721324
 21
19.51720443351632
 31
0.0
 11
37.16535015893311
 21
19.51705848526978
 31
0.0
 11
36.97164196698265
 21
19.51643768519955
 31
0.0
 11
36.76796819093045
 21
19.51551694164112
 31
0.0
  0
SPLINE
  5
190
330
2
100
AcDbEntity
  8
GAIKEI
  6
Continuous
 62
     1
100
AcDbSpline
210
0.0
220
0.0
230
1.0
 70
     8
 71
     3
 72
    23
 73
    19
 74
    17
 42
0.0000000001
 43
0.0000000001
 44
0.000001
 12
0.3343172427704102
 22
-0.9424605992753177
 32
0.0
 13
0.3418030246288111
 23
0.9397716171254568
 33
0.0
 40
0.0
 40
0.0
 40
0.0
 40
0.0
 40
0.0110606287305111
 40
0.0213816636358984
 40
0.0308284440343225
 40
0.0395086579665473
 40
0.0486747493217483
 40
0.0567474334353731
 40
0.0639195722325976
 40
0.0703086053834799
 40
0.0760678104611677
 40
0.0819273845724734
 40
0.0884765884175895
 40
0.0960764009306272
 40
0.1045711874195131
 40
0.1145725698843008
 40
0.1260215743937907
 40
0.1391753226881902
 40
0.1391753226881902
 40
0.1391753226881902
 40
0.1391753226881902
 10
36.9352031043311
 20
18.56928566154426
 30
0.0
 10
36.93643569063127
 20
18.56581092595034
 30
0.0
 10
36.93907458768567
 20
18.55918240687614
 30
0.0
 10
36.94352261831378
 20
18.54990961489568
 30
0.0
 10
36.94828012197741
 20
18.54169428777848
 30
0.0
 10
36.95349757132035
 20
18.53422733869665
 30
0.0
 10
36.95917723489711
 20
18.52768648082119
 30
0.0
 10
36.96534209220522
 20
18.52232548167876
 30
0.0
 10
36.97158474030278
 20
18.51861594025061
 30
0.0
 10
36.97781498630414
 20
18.51669765979652
 30
0.0
 10
36.98391263795028
 20
18.51667676357793
 30
0.0
 10
36.98976453723475
 20
18.51856953781708
 30
0.0
 10
36.99533536434837
 20
18.52236525345017
 30
0.0
 10
37.00053025082852
 20
18.52789903121963
 30
0.0
 10
37.00546878596578
 20
18.53508571651875
 30
0.0
 10
37.01022820123887
 20
18.54387522032384
 30
0.0
 10
37.01494725056776
 20
18.55440614521345
 30
0.0
 10
37.01798276550466
 20
18.56202869799858
 30
0.0
 10
37.0194814291554
 20
18.56614920443388
 30
0.0
 11
36.9352031043311
 21
18.56928566154426
 31
0.0
 11
36.93928483148409
 21
18.55900498420897
 31
0.0
 11
36.94377205830591
 21
18.54971040806009
 31
0.0
 11
36.94852578960985
 21
18.54154680397516
 31
0.0
 11
36.95352248467725
 21
18.5344489232225
 31
0.0
 11
36.95957946891196
 21
18.52756915481211
 31
0.0
 11
36.96572332895346
 21
18.52233253058648
 31
0.0
 11
36.97193927690546
 21
18.5187544585134
 31
0.0
 11
36.97807234210848
 21
18.51696384761817
 31
0.0
 11
36.98383161593393
 21
18.51697660855302
 31
0.0
 11
36.98942173580718
 21
18.51873334503818
 31
0.0
 11
36.99489455851813
 21
18.52233074115554
 31
0.0
 11
37.00018109501229
 21
18.52779065488675
 31
0.0
 11
37.00506581689905
 21
18.53474060266967
 31
0.0
 11
37.00989333136431
 21
18.54349980499205
 31
0.0
 11
37.01464602304793
 21
18.55391576528404
 31
0.0
 11
37.0194814291554
 21
18.56614920443388
 31
0.0
  0
SPLINE
  5
191
330
2
100
AcDbEntity
  8
GAIKEI
  6
Continuous
 62
     1
100
AcDbSpline
210
0.0
220
0.0
230
1.0
 70
     8
 71
     3
 72
    18
 73
    14
 74
    12
 42
0.0000000001
 43
0.0000000001
 44
0.000001
 12
0.9998994732917083
 22
0.0141789742564268
 32
0.0
 13
0.9974225315167563
 23
0.0717516105931105
 33
0.0
 40
0.0
 40
0.0
 40
0.0
 40
0.0
 40
0.0246557873785945
 40
0.0480435918468772
 40
0.0698213471902205
 40
0.0993046363999563
 40
0.1250283545728647
 40
0.1471181734152186
 40
0.1653689307141082
 40
0.1798007874401328
 40
0.1903565079763488
 40
0.1966250082130421
 40
0.1996259748885314
 40
0.1996259748885314
 40
0.1996259748885314
 40
0.1996259748885314
 10
37.71404801471488
 20
18.24257777096409
 30
0.0
 10
37.72226578431935
 20
18.24269430222226
 30
0.0
 10
37.73827894123235
 20
18.24290530675087
 30
0.0
 10
37.76155132533705
 20
18.24316122809853
 30
0.0
 10
37.78643295655678
 20
18.24341715115632
 30
0.0
 10
37.81209299688697
 20
18.24369991975718
 30
0.0
 10
37.83785671274762
 20
18.24401108816487
 30
0.0
 10
37.85987625213514
 20
18.24430456201224
 30
0.0
 10
37.87813142670029
 20
18.24458604072373
 30
0.0
 10
37.89254247872725
 20
18.24483284720901
 30
0.0
 10
37.90295743982915
 20
18.24508593877328
 30
0.0
 10
37.90956531598167
 20
18.24523971336698
 30
0.0
 10
37.91264910809835
 20
18.24543945696263
 30
0.0
 10
37.9136468520245
 20
18.2455112316934
 30
0.0
 11
37.71404801471488
 21
18.24257777096409
 31
0.0
 11
37.73870162643141
 21
18.24290268109217
 31
0.0
 11
37.76208795565953
 21
18.2431652578926
 31
0.0
 11
37.78386450947591
 21
18.24339399646419
 31
0.0
 11
37.81334599348821
 21
18.24372027925028
 31
0.0
 11
37.83906781706241
 21
18.24403248140544
 31
0.0
 11
37.86115561775409
 21
18.24433104349259
 31
0.0
 11
37.87940420427361
 21
18.2446124639581
 31
0.0
 11
37.89383365484332
 21
18.24487588656507
 31
0.0
 11
37.90438656233596
 21
18.24511939510557
 31
0.0
 11
37.91065168935882
 21
18.24532452109156
 31
0.0
 11
37.9136468520245
 21
18.2455112316934
 31
0.0
  0
SPLINE
  5
192
330
2
100
AcDbEntity
  8
GAIKEI
  6
Continuous
 62
     1
100
AcDbSpline
210
0.0
220
0.0
230
1.0
 70
     8
 71
     3
 72
    13
 73
     9
 74
     7
 42
0.0000000001
 43
0.0000000001
 44
0.000001
 12
0.7637990337596269
 22
0.6454541316219614
 32
0.0
 13
0.7678688356383296
 23
0.640607095851612
 33
0.0
 40
0.0
 40
0.0
 40
0.0
 40
0.0
 40
0.0372574737544062
 40
0.0738478101340961
 40
0.110432910852573
 40
0.1457620816897375
 40
0.1668062753165458
 40
0.1872171619431539
 40
0.1872171619431539
 40
0.1872171619431539
 40
0.1872171619431539
 10
39.59263667315787
 20
-13.26300728253471
 30
0.0
 10
39.60212241397585
 20
-13.25499128574519
 30
0.0
 10
39.62093785649125
 20
-13.23911916670565
 30
0.0
 10
39.64911282609802
 20
-13.21542909465359
 30
0.0
 10
39.67682652234478
 20
-13.19218924555251
 30
0.0
 10
39.70059200668669
 20
-13.17230598877307
 30
0.0
 10
39.72023439758883
 20
-13.15589660826281
 30
0.0
 10
39.73084331227557
 20
-13.14704234265713
 30
0.0
 10
39.73606760685834
 20
-13.14268388972192
 30
0.0
 11
39.59263667315787
 21
-13.26300728253471
 31
0.0
 11
39.62111369346116
 21
-13.23898271124352
 31
0.0
 11
39.6491192654147
 21
-13.21543397697712
 31
0.0
 11
39.677152466748
 21
-13.19192633731455
 31
0.0
 11
39.70424816573467
 21
-13.16925539355168
 31
0.0
 11
39.72039778368844
 21
-13.15576290508619
 31
0.0
 11
39.73606760685834
 21
-13.14268388972192
 31
0.0
  0
SPLINE
  5
193
330
2
100
AcDbEntity
  8
GAIKEI
  6
Continuous
 62
     7
100
AcDbSpline
210
0.0
220
0.0
230
1.0
 70
     8
 71
     3
 72
    25
 73
    21
 74
    19
 42
0.0000000001
 43
0.0000000001
 44
0.000001
 12
-0.6451586320068095
 22
-0.764048649987095
 32
0.0
 13
-0.6425976094944907
 23
-0.7662038320655713
 33
0.0
 40
0.0
 40
0.0
 40
0.0
 40
0.0
 40
0.1346775211142815
 40
0.2689615854355115
 40
0.4028938603756683
 40
0.5365171031036788
 40
0.6698748802144531
 40
0.8030107075722039
 40
0.9596952600508295
 40
1.11619837675817
 40
1.272586262931826
 40
1.428923207316386
 40
1.605307533803209
 40
1.781795357924578
 40
1.958471045709827
 40
2.135417707816523
 40
2.274690598981896
 40
2.414220734252835
 40
2.554047619677736
 40
2.694210893736128
 40
2.694210893736128
 40
2.694210893736128
 40
2.694210893736128
 10
39.64425076695193
 20
-13.33856438442302
 30
0.0
 10
39.61528797852387
 20
-13.37286444382001
 30
0.0
 10
39.55746690305932
 20
-13.44138114967082
 30
0.0
 10
39.47090238590701
 20
-13.54405795508821
 30
0.0
 10
39.38463057601851
 20
-13.64652185099456
 30
0.0
 10
39.29862952986468
 20
-13.74881004715932
 30
0.0
 10
39.21286716253892
 20
-13.85095202975275
 30
0.0
 10
39.12223129772156
 20
-13.95903946102348
 30
0.0
 10
39.02670987250934
 20
-14.07309870738812
 30
0.0
 10
38.92627487878172
 20
-14.19315264107982
 30
0.0
 10
38.82595440498779
 20
-14.31315129612648
 30
0.0
 10
38.72141227359634
 20
-14.43825847408494
 30
0.0
 10
38.6125783136045
 20
-14.56851054781737
 30
0.0
 10
38.49938086554047
 20
-14.70395137382728
 30
0.0
 10
38.38602958742567
 20
-14.83950791982462
 30
0.0
 10
38.2805947054203
 20
-14.96551369536189
 30
0.0
 10
38.18307051270961
 20
-15.08199405601731
 30
0.0
 10
38.09346094727968
 20
-15.18896349056634
 30
0.0
 10
38.00363431787701
 20
-15.29613825438739
 30
0.0
 10
37.9436697363864
 20
-15.367655720433
 30
0.0
 10
37.91364687477011
 20
-15.40345359966579
 30
0.0
 11
39.64425076695193
 21
-13.33856438442302
 31
0.0
 11
39.55738978040358
 21
-13.44148768450401
 31
0.0
 11
39.4708371062672
 21
-13.54415629960516
 31
0.0
 11
39.38457548281724
 21
-13.64661012742113
 31
0.0
 11
39.29858315123084
 21
-13.74888666579755
 31
0.0
 11
39.21282978358693
 21
-13.85101725480194
 31
0.0
 11
39.12728398838732
 21
-13.95303228502001
 31
0.0
 11
39.02668074418779
 21
-14.07315322278845
 31
0.0
 11
38.92625599415999
 21
-14.19318736552014
 31
0.0
 11
38.82594888987268
 21
-14.31316884935779
 31
0.0
 11
38.72569858289478
 21
-14.43313181044414
 31
0.0
 11
38.61259845635596
 21
-14.56848243074978
 31
0.0
 11
38.49941619352467
 21
-14.70389929352797
 31
0.0
 11
38.38608092943741
 21
-14.83943311284395
 31
0.0
 11
38.27252907651376
 21
-14.97513903645057
 31
0.0
 11
38.18312158883458
 21
-15.08192498716641
 31
0.0
 11
38.09352083554325
 21
-15.18888462254341
 31
0.0
 11
38.00370366998374
 21
-15.29605007697444
 31
0.0
 11
37.91364687477011
 21
-15.40345359966579
 31
0.0
  0
SPLINE
  5
194
330
2
100
AcDbEntity
  8
GAIKEI
  6
Continuous
 62
     1
100
AcDbSpline
210
0.0
220
0.0
230
1.0
 70
     8
 71
     3
 72
    18
 73
    14
 74
    12
 42
0.0000000001
 43
0.0000000001
 44
0.000001
 12
-0.9974326142388006
 22
0.0716113123239069
 32
0.0
 13
-0.9998995674987709
 23
0.0141723292288498
 33
0.0
 40
0.0
 40
0.0
 40
0.0
 40
0.0
 40
0.0030194903368492
 40
0.0093326477798688
 40
0.0197551294145397
 40
0.0339541950662335
 40
0.0519723480691575
 40
0.0737685187587457
 40
0.0995369569738442
 40
0.1291137252950859
 40
0.1510865399618099
 40
0.1747062822794232
 40
0.1996259723085328
 40
0.1996259723085328
 40
0.1996259723085328
 40
0.1996259723085328
 10
37.91364685213591
 20
-15.40345359562621
 30
0.0
 10
37.91264293942246
 20
-15.40338151907102
 30
0.0
 10
37.90953810426368
 20
-15.4031808033971
 30
0.0
 10
37.90295356294297
 20
-15.40302820656535
 30
0.0
 10
37.89264568505044
 20
-15.40277760725787
 30
0.0
 10
37.87843417130449
 20
-15.40253345505264
 30
0.0
 10
37.86043199197474
 20
-15.40225496611965
 30
0.0
 10
37.83857296486386
 20
-15.4019625325964
 30
0.0
 10
37.81286107201379
 20
-15.40165110747753
 30
0.0
 10
37.78708996020163
 20
-15.40136637552128
 30
0.0
 10
37.76203484558096
 20
-15.40110871900567
 30
0.0
 10
37.73853216829781
 20
-15.40085091050382
 30
0.0
 10
37.72235374342546
 20
-15.40063785822724
 30
0.0
 10
37.71404801433135
 20
-15.40052013487678
 30
0.0
 11
37.91364685213591
 21
-15.40345359562621
 31
0.0
 11
37.91063317870106
 21
-15.4032661015554
 31
0.0
 11
37.90432340085488
 21
-15.40306005049649
 31
0.0
 11
37.89390369531736
 21
-15.4028196778541
 31
0.0
 11
37.87970700828186
 21
-15.40255988873912
 31
0.0
 11
37.86169101274669
 21
-15.40228112692983
 31
0.0
 11
37.83989684796456
 21
-15.40198545795511
 31
0.0
 11
37.81413031956407
 21
-15.40167173348061
 31
0.0
 11
37.78455537012332
 21
-15.40134369797056
 31
0.0
 11
37.76258376740049
 21
-15.40111294279614
 31
0.0
 11
37.7389655096236
 21
-15.40084823701323
 31
0.0
 11
37.71404801433135
 21
-15.40052013487678
 31
0.0
  0
SPLINE
  5
195
330
2
100
AcDbEntity
  8
GAIKEI
  6
Continuous
 62
     1
100
AcDbSpline
210
0.0
220
0.0
230
1.0
 70
     8
 71
     3
 72
     9
 73
     5
 74
     3
 42
0.0000000001
 43
0.0000000001
 44
0.000001
 12
0.0052933080883875
 22
-0.9999859903466054
 32
0.0
 13
0.5270313734190337
 23
-0.8498458280370901
 33
0.0
 40
0.0
 40
0.0
 40
0.0
 40
0.0
 40
0.0139639987875722
 40
0.0279279975751703
 40
0.0279279975751703
 40
0.0279279975751703
 40
0.0279279975751703
 10
35.60867135918119
 20
-16.27958230569186
 30
0.0
 10
35.60869599776376
 20
-16.28423690674412
 30
0.0
 10
35.60996358725328
 20
-16.29359890380674
 30
0.0
 10
35.61386599490004
 20
-16.3022026812721
 30
0.0
 10
35.61631915005319
 20
-16.30615842997622
 30
0.0
 11
35.60867135918119
 21
-16.27958230569186
 31
0.0
 11
35.61062133079202
 21
-16.29340962545382
 31
0.0
 11
35.61631915005319
 21
-16.30615842997622
 31
0.0
  0
SPLINE
  5
196
330
2
100
AcDbEntity
  8
GAIKEI
  6
Continuous
 62
     1
100
AcDbSpline
210
0.0
220
0.0
230
1.0
 70
     8
 71
     3
 72
     9
 73
     5
 74
     3
 42
0.0000000001
 43
0.0000000001
 44
0.000001
 12
0.0052933080883382
 22
0.9999859903466058
 32
0.0
 13
0.5270313734190872
 23
0.8498458280370568
 33
0.0
 40
0.0
 40
0.0
 40
0.0
 40
0.0
 40
0.0139639987875651
 40
0.0279279975751697
 40
0.0279279975751697
 40
0.0279279975751697
 40
0.0279279975751697
 10
35.60867135918119
 20
19.12163994177354
 30
0.0
 10
35.60869599776376
 20
19.1262945428258
 30
0.0
 10
35.60996358725339
 20
19.13565653988844
 30
0.0
 10
35.61386599490004
 20
19.14426031735378
 30
0.0
 10
35.61631915005319
 20
19.1482160660579
 30
0.0
 11
35.60867135918119
 21
19.12163994177354
 31
0.0
 11
35.61062133079202
 21
19.13546726153549
 31
0.0
 11
35.61631915005319
 21
19.1482160660579
 31
0.0
  0
SPLINE
  5
197
330
2
100
AcDbEntity
  8
GAIKEI
  6
Continuous
 62
     1
100
AcDbSpline
210
0.0
220
0.0
230
1.0
 70
     8
 71
     3
 72
    59
 73
    55
 74
    53
 42
0.0000000001
 43
0.0000000001
 44
0.000001
 12
0.0089977794764152
 22
0.9999595191628978
 32
0.0
 13
-0.0199099484093854
 23
0.9998017773310547
 33
0.0
 40
0.0
 40
0.0
 40
0.0
 40
0.0
 40
0.0071046365436246
 40
0.0133021197047546
 40
0.0186828374795563
 40
0.023207550758405
 40
0.0286483835345599
 40
0.0332208135312284
 40
0.03834020931683
 40
0.0448916697000703
 40
0.0538566994810862
 40
0.0650468629299171
 40
0.0789337931676355
 40
0.0950521309527147
 40
0.111409154480846
 40
0.1293542498608177
 40
0.1492834698740562
 40
0.1706479900162211
 40
0.1891104049333325
 40
0.2084022034233933
 40
0.2288841586038661
 40
0.2501074508352288
 40
0.2691450956822694
 40
0.288643199428342
 40
0.3090214531403832
 40
0.3297475279782809
 40
0.3514651643548687
 40
0.3733585751871123
 40
0.396093410788665
 40
0.4187634841688394
 40
0.4405020959232127
 40
0.461955698965015
 40
0.4836621002266093
 40
0.5048792278715308
 40
0.5313551695999787
 40
0.5567647186620614
 40
0.5817988231016758
 40
0.6054398798716815
 40
0.625366577467506
 40
0.6439742128153788
 40
0.661548524561986
 40
0.6775243190967542
 40
0.6904031703393687
 40
0.7018285423541064
 40
0.7119382780791089
 40
0.7204241040763286
 40
0.7270822523453921
 40
0.7323924469401421
 40
0.7368318806871216
 40
0.7410607540037339
 40
0.7458848144140494
 40
0.7520052499216162
 40
0.7599420076097207
 40
0.7696500026631578
 40
0.7696500026631578
 40
0.7696500026631578
 40
0.7696500026631578
 10
39.99867135918123
 20
-3.685703231585648
 30
0.0
 10
39.99869266783219
 20
-3.683335115271646
 30
0.0
 10
39.99856826068677
 20
-3.678899073224641
 30
0.0
 10
39.998055812703
 20
-3.672689957004436
 30
0.0
 10
39.99713041751633
 20
-3.667386829922449
 30
0.0
 10
39.9956135762393
 20
-3.662499142623957
 30
0.0
 10
39.99315919853274
 20
-3.658172991708738
 30
0.0
 10
39.98863238202176
 20
-3.655393543567669
 30
0.0
 10
39.9829917051278
 20
-3.655639028625202
 30
0.0
 10
39.97659768825906
 20
-3.658323474874976
 30
0.0
 10
39.96920373818844
 20
-3.663355441869029
 30
0.0
 10
39.9606928043342
 20
-3.670886320001216
 30
0.0
 10
39.95124085075904
 20
-3.680866902550121
 30
0.0
 10
39.94138413854086
 20
-3.692781202669479
 30
0.0
 10
39.93135821737502
 20
-3.706277600946606
 30
0.0
 10
39.92123848392558
 20
-3.721263574004325
 30
0.0
 10
39.91089884379483
 20
-3.738093546482019
 30
0.0
 10
39.90121311582985
 20
-3.755506263949186
 30
0.0
 10
39.89233024134544
 20
-3.773101732026006
 30
0.0
 10
39.8842433313524
 20
-3.790754558476834
 30
0.0
 10
39.87652831200197
 20
-3.809572769913927
 30
0.0
 10
39.8696670556638
 20
-3.828629942959665
 30
0.0
 10
39.86374249513014
 20
-3.847654110729763
 30
0.0
 10
39.85871167292925
 20
-3.866643497492745
 30
0.0
 10
39.85444890743068
 20
-3.886397328892968
 30
0.0
 10
39.85103272719639
 20
-3.907066391072248
 30
0.0
 10
39.84865285341715
 20
-3.928390137220716
 30
0.0
 10
39.84738987321404
 20
-3.950480587749098
 30
0.0
 10
39.84739336411519
 20
-3.972925885628654
 30
0.0
 10
39.84866811410561
 20
-3.995282979715227
 30
0.0
 10
39.85115066260858
 20
-4.017107022274402
 30
0.0
 10
39.85472111978413
 20
-4.038452970281113
 30
0.0
 10
39.85935722822947
 20
-4.059414943159254
 30
0.0
 10
39.86545811862086
 20
-4.081737845740974
 30
0.0
 10
39.87312767029033
 20
-4.104881787882888
 30
0.0
 10
39.88251830123005
 20
-4.128752554562368
 30
0.0
 10
39.89273723862368
 20
-4.151245574460773
 30
0.0
 10
39.90320474011182
 20
-4.171586217311087
 30
0.0
 10
39.9134954974553
 20
-4.189582598463061
 30
0.0
 10
39.92344096639982
 20
-4.205428207206864
 30
0.0
 10
39.93329806171855
 20
-4.219756423885385
 30
0.0
 10
39.94264431189634
 20
-4.232099595112813
 30
0.0
 10
39.95126741477293
 20
-4.242398251852463
 30
0.0
 10
39.95910399696612
 20
-4.250785136068273
 30
0.0
 10
39.96643176939818
 20
-4.257614831526069
 30
0.0
 10
39.97311332360016
 20
-4.262764736401067
 30
0.0
 10
39.97905762030288
 20
-4.266163179500793
 30
0.0
 10
39.98431104373791
 20
-4.267878176092708
 30
0.0
 10
39.98913654104589
 20
-4.267682696588224
 30
0.0
 10
39.99307548425534
 20
-4.265120424505596
 30
0.0
 10
39.99572643296387
 20
-4.260691734555464
 30
0.0
 10
39.99751012497035
 20
-4.254620914833992
 30
0.0
 10
39.99847742844699
 20
-4.246739721570378
 30
0.0
 10
39.99873578774145
 20
-4.240854238953673
 30
0.0
 10
39.99867135918123
 20
-4.237618882050753
 30
0.0
 11
39.99867135918123
 21
-3.685703231585648
 31
0.0
 11
39.99849059305535
 21
-3.678600073667041
 31
0.0
 11
39.99793316095611
 21
-3.672427716219885
 31
0.0
 11
39.99695964361297
 21
-3.667135831583948
 31
0.0
 11
39.99555963156894
 21
-3.662833200661509
 31
0.0
 11
39.99262649384212
 21
-3.658250763781893
 31
0.0
 11
39.98869125891582
 21
-3.655922482076221
 31
0.0
 11
39.98357202320642
 21
-3.655875506597112
 31
0.0
 11
39.97743581199029
 21
-3.6581710534644
 31
0.0
 11
39.96992592001442
 21
-3.663067408455674
 31
0.0
 11
39.96146888816594
 21
-3.670395374334589
 31
0.0
 11
39.95186025358731
 21
-3.680421414513375
 31
0.0
 11
39.94154414859309
 21
-3.692806046653288
 31
0.0
 11
39.9317687270015
 21
-3.705920675337381
 31
0.0
 11
39.92171051153923
 21
-3.720781992344768
 31
0.0
 11
39.91126837073835
 21
-3.737756540904911
 31
0.0
 11
39.90087753450467
 21
-3.75642396585772
 31
0.0
 11
39.89255688416955
 21
-3.772905075721041
 31
0.0
 11
39.88452362486203
 21
-3.790444727982389
 31
0.0
 11
39.8767572701322
 21
-3.80939711567629
 31
0.0
 11
39.86957383748995
 21
-3.82936771340212
 31
0.0
 11
39.86391653022446
 21
-3.847545314713215
 31
0.0
 11
39.85892940175779
 21
-3.866394787931881
 31
0.0
 11
39.85463366448374
 21
-3.886315064898781
 31
0.0
 11
39.85126165133505
 21
-3.906764928396853
 31
0.0
 11
39.84885254066188
 21
-3.928348454758122
 31
0.0
 11
39.84760990475195
 21
-3.950206491523999
 31
0.0
 11
39.84760790123153
 21
-3.972941242163301
 31
0.0
 11
39.8489013049379
 21
-3.995574305674779
 31
0.0
 11
39.8513499567062
 21
-4.017174491985429
 31
0.0
 11
39.85488752673683
 21
-4.038334353012032
 31
0.0
 11
39.8595660018924
 21
-4.059530508615182
 31
0.0
 11
39.86515541251896
 21
-4.079998110959536
 31
0.0
 11
39.87347062313984
 21
-4.105134337541983
 31
0.0
 11
39.8827661862718
 21
-4.128782501499131
 31
0.0
 11
39.89311716315484
 21
-4.151576409353481
 31
0.0
 11
39.90393654515657
 21
-4.172596392430762
 31
0.0
 11
39.9138340337538
 21
-4.18989126554095
 31
0.0
 11
39.92373562981999
 21
-4.205645704606297
 31
0.0
 11
39.93371276478928
 21
-4.220113366456928
 31
0.0
 11
39.94337996027923
 21
-4.232832309262846
 31
0.0
 11
39.95167082548045
 21
-4.242687591474975
 31
0.0
 11
39.95950199286659
 21
-4.251006982347746
 31
0.0
 11
39.96693986236562
 21
-4.257854268218409
 31
0.0
 11
39.973719745219
 21
-4.2629575099063
 31
0.0
 11
39.97955786681348
 21
-4.266158761183078
 31
0.0
 11
39.98466124133381
 21
-4.267626557531229
 31
0.0
 11
39.98908717660436
 21
-4.267280125251716
 31
0.0
 11
39.99266930782278
 21
-4.265032562444673
 31
0.0
 11
39.99532857100928
 21
-4.261007717001518
 31
0.0
 11
39.99719458399329
 21
-4.255178727347583
 31
0.0
 11
39.99831163627391
 21
-4.247320983654901
 31
0.0
 11
39.99867135918123
 21
-4.237618882050753
 31
0.0
  0
SPLINE
  5
198
330
2
100
AcDbEntity
  8
GAIKEI
  6
Continuous
 62
     1
100
AcDbSpline
210
0.0
220
0.0
230
1.0
 70
     8
 71
     3
 72
    59
 73
    55
 74
    53
 42
0.0000000001
 43
0.0000000001
 44
0.000001
 12
0.0089977794764248
 22
0.9999595191628976
 32
0.0
 13
-0.0199099484093985
 23
0.9998017773310543
 33
0.0
 40
0.0
 40
0.0
 40
0.0
 40
0.0
 40
0.0071046365436246
 40
0.0133021197047476
 40
0.0186828374795563
 40
0.0232075507583981
 40
0.028648383534553
 40
0.0332208135312287
 40
0.0383402093168304
 40
0.0448916697000707
 40
0.0538566994810943
 40
0.0650468629299207
 40
0.078933793167639
 40
0.0950521309527183
 40
0.1114091544808438
 40
0.1293542498608214
 40
0.1492834698740539
 40
0.1706479900162312
 40
0.1891104049333426
 40
0.2084022034233905
 40
0.2288841586038698
 40
0.2501074508352326
 40
0.2691450956822663
 40
0.2886431994283458
 40
0.30902145314038
 40
0.3297475279782847
 40
0.3514651643548796
 40
0.3733585751871199
 40
0.3960934107886655
 40
0.418763484168847
 40
0.4405020959232062
 40
0.4619556989650225
 40
0.4836621002266029
 40
0.5048792278715381
 40
0.5313551695999792
 40
0.5567647186620553
 40
0.5817988231016309
 40
0.6054398798716872
 40
0.6253665774674562
 40
0.6439742128153771
 40
0.6615485245619785
 40
0.677524319096758
 40
0.690403170339367
 40
0.7018285423540995
 40
0.7119382780791068
 40
0.7204241040763222
 40
0.7270822523453927
 40
0.7323924469401544
 40
0.7368318806871417
 40
0.7410607540037237
 40
0.7458848144140453
 40
0.7520052499216119
 40
0.7599420076097165
 40
0.7696500026631536
 40
0.7696500026631536
 40
0.7696500026631536
 40
0.7696500026631536
 10
39.99867135918123
 20
-11.1530133567266
 30
0.0
 10
39.99869266783219
 20
-11.15064524041261
 30
0.0
 10
39.99856826068677
 20
-11.14620919836559
 30
0.0
 10
39.99805581270306
 20
-11.14000008214538
 30
0.0
 10
39.99713041751636
 20
-11.1346969550634
 30
0.0
 10
39.99561357623924
 20
-11.1298092677649
 30
0.0
 10
39.99315919853274
 20
-11.12548311684973
 30
0.0
 10
39.98863238202185
 20
-11.12270366870856
 30
0.0
 10
39.9829917051278
 20
-11.12294915376616
 30
0.0
 10
39.97659768825918
 20
-11.12563360001591
 30
0.0
 10
39.96920373818844
 20
-11.13066556700997
 30
0.0
 10
39.96069280433429
 20
-11.13819644514217
 30
0.0
 10
39.95124085075912
 20
-11.14817702769107
 30
0.0
 10
39.94138413854088
 20
-11.1600913278104
 30
0.0
 10
39.93135821737494
 20
-11.17358772608759
 30
0.0
 10
39.92123848392552
 20
-11.18857369914526
 30
0.0
 10
39.91089884379486
 20
-11.20540367162299
 30
0.0
 10
39.90121311582982
 20
-11.22281638909015
 30
0.0
 10
39.89233024134544
 20
-11.24041185716693
 30
0.0
 10
39.88424333135237
 20
-11.25806468361779
 30
0.0
 10
39.87652831200205
 20
-11.27688289505487
 30
0.0
 10
39.86966705566374
 20
-11.29594006810065
 30
0.0
 10
39.86374249513014
 20
-11.3149642358707
 30
0.0
 10
39.85871167292927
 20
-11.3339536226337
 30
0.0
 10
39.85444890743065
 20
-11.35370745403391
 30
0.0
 10
39.85103272719641
 20
-11.37437651621322
 30
0.0
 10
39.84865285341721
 20
-11.39570026236166
 30
0.0
 10
39.8473898732141
 20
-11.41779071289007
 30
0.0
 10
39.84739336411525
 20
-11.44023601076959
 30
0.0
 10
39.84866811410552
 20
-11.4625931048562
 30
0.0
 10
39.85115066260866
 20
-11.48441714741536
 30
0.0
 10
39.8547211197841
 20
-11.50576309542209
 30
0.0
 10
39.85935722822953
 20
-11.52672506830022
 30
0.0
 10
39.86545811862081
 20
-11.5490479708819
 30
0.0
 10
39.87312767029036
 20
-11.57219191302384
 30
0.0
 10
39.88251830123008
 20
-11.59606267970331
 30
0.0
 10
39.89273723862368
 20
-11.61855569960168
 30
0.0
 10
39.90320474011179
 20
-11.63889634245205
 30
0.0
 10
39.9134954974553
 20
-11.65689272360397
 30
0.0
 10
39.92344096639977
 20
-11.67273833234779
 30
0.0
 10
39.93329806171857
 20
-11.68706654902635
 30
0.0
 10
39.94264431189626
 20
-11.69940972025378
 30
0.0
 10
39.95126741477293
 20
-11.70970837699339
 30
0.0
 10
39.95910399696612
 20
-11.71809526120921
 30
0.0
 10
39.96643176939813
 20
-11.72492495666703
 30
0.0
 10
39.97311332360016
 20
-11.73007486154202
 30
0.0
 10
39.97905762030291
 20
-11.73347330464172
 30
0.0
 10
39.98431104373799
 20
-11.73518830123374
 30
0.0
 10
39.98913654104581
 20
-11.73499282172911
 30
0.0
 10
39.99307548425543
 20
-11.73243054964655
 30
0.0
 10
39.99572643296384
 20
-11.72800185969643
 30
0.0
 10
39.99751012497035
 20
-11.7219310399749
 30
0.0
 10
39.99847742844699
 20
-11.71404984671133
 30
0.0
 10
39.99873578774145
 20
-11.70816436409462
 30
0.0
 10
39.99867135918123
 20
-11.70492900719171
 30
0.0
 11
39.99867135918123
 21
-11.1530133567266
 31
0.0
 11
39.99849059305535
 21
-11.145910198808
 31
0.0
 11
39.99793316095611
 21
-11.13973784136084
 31
0.0
 11
39.99695964361297
 21
-11.1344459567249
 31
0.0
 11
39.99555963156894
 21
-11.13014332580246
 31
0.0
 11
39.99262649384212
 21
-11.12556088892285
 31
0.0
 11
39.98869125891582
 21
-11.12323260721717
 31
0.0
 11
39.98357202320642
 21
-11.12318563173807
 31
0.0
 11
39.97743581199029
 21
-11.12548117860535
 31
0.0
 11
39.96992592001442
 21
-11.13037753359663
 31
0.0
 11
39.96146888816594
 21
-11.13770549947554
 31
0.0
 11
39.95186025358731
 21
-11.14773153965433
 31
0.0
 11
39.94154414859309
 21
-11.16011617179424
 31
0.0
 11
39.9317687270015
 21
-11.17323080047833
 31
0.0
 11
39.92171051153923
 21
-11.18809211748572
 31
0.0
 11
39.91126837073835
 21
-11.20506666604586
 31
0.0
 11
39.90087753450467
 21
-11.22373409099867
 31
0.0
 11
39.89255688416955
 21
-11.24021520086199
 31
0.0
 11
39.88452362486203
 21
-11.25775485312334
 31
0.0
 11
39.8767572701322
 21
-11.27670724081724
 31
0.0
 11
39.86957383748995
 21
-11.29667783854307
 31
0.0
 11
39.86391653022446
 21
-11.31485543985417
 31
0.0
 11
39.85892940175779
 21
-11.33370491307283
 31
0.0
 11
39.85463366448374
 21
-11.35362519003973
 31
0.0
 11
39.85126165133505
 21
-11.37407505353781
 31
0.0
 11
39.84885254066188
 21
-11.39565857989907
 31
0.0
 11
39.84760990475201
 21
-11.41751661666495
 31
0.0
 11
39.84760790123153
 21
-11.44025136730425
 31
0.0
 11
39.8489013049379
 21
-11.46288443081573
 31
0.0
 11
39.8513499567062
 21
-11.48448461712638
 31
0.0
 11
39.85488752673683
 21
-11.50564447815298
 31
0.0
 11
39.8595660018924
 21
-11.52684063375613
 31
0.0
 11
39.86515541251896
 21
-11.54730823610049
 31
0.0
 11
39.87347062313984
 21
-11.57244446268294
 31
0.0
 11
39.8827661862718
 21
-11.59609262664008
 31
0.0
 11
39.89311716315484
 21
-11.61888653449438
 31
0.0
 11
39.90393654515657
 21
-11.63990651757171
 31
0.0
 11
39.9138340337538
 21
-11.65720139068185
 31
0.0
 11
39.92373562981999
 21
-11.67295582974725
 31
0.0
 11
39.93371276478928
 21
-11.68742349159788
 31
0.0
 11
39.94337996027923
 21
-11.7001424344038
 31
0.0
 11
39.95167082548045
 21
-11.70999771661593
 31
0.0
 11
39.95950199286659
 21
-11.7183171074887
 31
0.0
 11
39.96693986236562
 21
-11.72516439335936
 31
0.0
 11
39.973719745219
 21
-11.73026763504725
 31
0.0
 11
39.97955786681348
 21
-11.73346888632403
 31
0.0
 11
39.98466124133381
 21
-11.73493668267224
 31
0.0
 11
39.98908717660436
 21
-11.73459025039261
 31
0.0
 11
39.99266930782278
 21
-11.73234268758563
 31
0.0
 11
39.99532857100928
 21
-11.72831784214247
 31
0.0
 11
39.99719458399329
 21
-11.72248885248854
 31
0.0
 11
39.99831163627391
 21
-11.71463110879585
 31
0.0
 11
39.99867135918123
 21
-11.70492900719171
 31
0.0
  0
SPLINE
  5
199
330
2
100
AcDbEntity
  8
GAIKEI
  6
Continuous
 62
     1
100
AcDbSpline
210
0.0
220
0.0
230
1.0
 70
     8
 71
     3
 72
    28
 73
    24
 74
    22
 42
0.0000000001
 43
0.0000000001
 44
0.000001
 12
0.9487589978366965
 22
-0.3160005759866704
 32
0.0
 13
0.0000054313803437
 23
-0.99999999998525
 33
0.0
 40
0.0
 40
0.0
 40
0.0
 40
0.0
 40
0.0250363978119375
 40
0.0492743128618559
 40
0.0728614350637536
 40
0.0956093481586832
 40
0.1179746860340971
 40
0.1394496267202395
 40
0.1601754566906428
 40
0.1800039393190089
 40
0.1965316207031554
 40
0.2124004227282538
 40
0.2277014845916788
 40
0.2423732225697875
 40
0.2566537090712524
 40
0.2703439991034581
 40
0.2835481095936195
 40
0.2962417674944317
 40
0.3185295474440469
 40
0.3397575339669954
 40
0.3518752639972074
 40
0.3638915827049836
 40
0.3643443720623475
 40
0.3643443720623475
 40
0.3643443720623475
 40
0.3643443720623475
 10
39.73606760685778
 20
15.64281608777219
 30
0.0
 10
39.74398544275695
 20
15.64017891572912
 30
0.0
 10
39.75949685347482
 20
15.63477088428351
 30
0.0
 10
39.7822136899182
 20
15.62617144752008
 30
0.0
 10
39.80396669208187
 20
15.61720657009536
 30
0.0
 10
39.82486512296527
 20
15.60783398746579
 30
0.0
 10
39.8448086599139
 20
15.59808106841829
 30
0.0
 10
39.86379463555067
 20
15.58793482825618
 30
0.0
 10
39.88164169329028
 20
15.5774835488114
 30
0.0
 10
39.89764578958278
 20
15.56718066392668
 30
0.0
 10
39.91186779505671
 20
15.55713306256972
 30
0.0
 10
39.92445133519323
 20
15.54740645778808
 30
0.0
 10
39.93609771528233
 20
15.53750496325392
 30
0.0
 10
39.94684554744768
 20
15.52739174954445
 30
0.0
 10
39.95665152881242
 20
15.51709071492954
 30
0.0
 10
39.96550718972634
 20
15.50659352324895
 30
0.0
 10
39.97334697064855
 20
15.4959652864444
 30
0.0
 10
39.98195278699163
 20
15.48239023034185
 30
0.0
 10
39.99027641650389
 20
15.46552433467813
 30
0.0
 10
39.99577224232417
 20
15.44771518666094
 30
0.0
 10
39.99819714916907
 20
15.43276689735344
 30
0.0
 10
39.99866615098907
 20
15.42456638541338
 30
0.0
 10
39.99867135836146
 20
15.42041006928754
 30
0.0
 10
39.99867135918123
 20
15.42025913950175
 30
0.0
 11
39.73606760685778
 21
15.64281608777219
 31
0.0
 11
39.75970885166481
 21
15.63457809009548
 31
0.0
 11
39.78237202727354
 21
15.62598410691208
 31
0.0
 11
39.80417589240449
 21
15.61698724701841
 31
0.0
 11
39.82492670084298
 21
15.60766677464187
 31
0.0
 11
39.84501215907704
 21
15.5978289704218
 31
0.0
 11
39.86394470465433
 21
15.58769331740103
 31
0.0
 11
39.8818210503307
 21
15.57720542293276
 31
0.0
 11
39.89848322695377
 21
15.566456460192
 31
0.0
 11
39.91197456515755
 21
15.55690932851144
 31
0.0
 11
39.92452128955273
 21
15.54719345299162
 31
0.0
 11
39.93616927572645
 21
15.53727143035974
 31
0.0
 11
39.94684362837023
 21
15.52720576195986
 31
0.0
 11
39.95667781440335
 21
15.51685102290764
 31
0.0
 11
39.96549209928531
 21
15.50637572224428
 31
0.0
 11
39.97331632504034
 21
15.49573948812622
 31
0.0
 11
39.98009788757855
 21
15.48500921504563
 31
0.0
 11
39.98986982220401
 21
15.46497793577663
 31
0.0
 11
39.99605890913398
 21
15.44467227226533
 31
0.0
 11
39.99799271221304
 21
15.43270988643388
 31
0.0
 11
39.99867046096381
 21
15.42071219976174
 31
0.0
 11
39.99867135918123
 21
15.42025913950175
 31
0.0
  0
SPLINE
  5
19A
330
2
100
AcDbEntity
  8
GAIKEI
  6
Continuous
 62
     1
100
AcDbSpline
210
0.0
220
0.0
230
1.0
 70
     8
 71
     3
 72
    59
 73
    55
 74
    53
 42
0.0000000001
 43
0.0000000001
 44
0.000001
 12
0.0089977794764132
 22
0.9999595191628978
 32
0.0
 13
-0.0199099484095603
 23
0.9998017773310511
 33
0.0
 40
0.0
 40
0.0
 40
0.0
 40
0.0
 40
0.0071046365435678
 40
0.0133021197046978
 40
0.0186828374794995
 40
0.0232075507583481
 40
0.028648383534503
 40
0.0332208135312005
 40
0.0383402093168016
 40
0.0448916697000419
 40
0.0538566994810577
 40
0.0650468629298887
 40
0.078933793167566
 40
0.095052130952689
 40
0.1114091544808202
 40
0.1293542498607449
 40
0.1492834698740802
 40
0.1706479900161457
 40
0.1891104049333079
 40
0.2084022034233687
 40
0.2288841586038415
 40
0.2501074508351508
 40
0.2691450956822456
 40
0.2886431994282632
 40
0.30902145314036
 40
0.3297475279782577
 40
0.3514651643548455
 40
0.3733585751870891
 40
0.3960934107885849
 40
0.4187634841688161
 40
0.4405020959231329
 40
0.4619556989649912
 40
0.4836621002265855
 40
0.5048792278714522
 40
0.5313551695999541
 40
0.5567647186619837
 40
0.5817988231016499
 40
0.6054398798716556
 40
0.6253665774674308
 40
0.6439742128153517
 40
0.661548524561959
 40
0.6775243190967271
 40
0.6904031703393416
 40
0.7018285423540794
 40
0.7119382780790817
 40
0.7204241040762673
 40
0.7270822523453582
 40
0.7323924469401239
 40
0.7368318806871078
 40
0.7410607540037201
 40
0.7458848144140044
 40
0.7520052499215884
 40
0.7599420076096849
 40
0.7696500026631242
 40
0.7696500026631242
 40
0.7696500026631242
 40
0.7696500026631242
 10
39.99867135918123
 20
7.389296768414396
 30
0.0
 10
39.99869266783219
 20
7.391664884728371
 30
0.0
 10
39.99856826068679
 20
7.396100926775389
 30
0.0
 10
39.998055812703
 20
7.402310042995551
 30
0.0
 10
39.9971304175163
 20
7.407613170077524
 30
0.0
 10
39.9956135762393
 20
7.412500857376045
 30
0.0
 10
39.99315919853263
 20
7.416827008291207
 30
0.0
 10
39.98863238202185
 20
7.419606456432433
 30
0.0
 10
39.98299170512778
 20
7.419360971374743
 30
0.0
 10
39.97659768825915
 20
7.416676525125055
 30
0.0
 10
39.96920373818841
 20
7.411644558130944
 30
0.0
 10
39.96069280433435
 20
7.404113679998786
 30
0.0
 10
39.95124085075895
 20
7.394133097449895
 30
0.0
 10
39.94138413854097
 20
7.382218797330537
 30
0.0
 10
39.93135821737502
 20
7.36872239905341
 30
0.0
 10
39.92123848392544
 20
7.353736425995677
 30
0.0
 10
39.91089884379494
 20
7.336906453517954
 30
0.0
 10
39.90121311582973
 20
7.319493736050816
 30
0.0
 10
39.89233024134546
 20
7.301898267973996
 30
0.0
 10
39.88424333135231
 20
7.284245441523125
 30
0.0
 10
39.87652831200211
 20
7.265427230086089
 30
0.0
 10
39.86966705566369
 20
7.246370057040337
 30
0.0
 10
39.86374249513025
 20
7.227345889270267
 30
0.0
 10
39.85871167292922
 20
7.208356502507257
 30
0.0
 10
39.85444890743077
 20
7.188602671107048
 30
0.0
 10
39.8510327271963
 20
7.167933608927711
 30
0.0
 10
39.84865285341724
 20
7.1466098627793
 30
0.0
 10
39.84738987321398
 20
7.12451941225089
 30
0.0
 10
39.84739336411528
 20
7.102074114371376
 30
0.0
 10
39.84866811410552
 20
7.079717020284761
 30
0.0
 10
39.85115066260866
 20
7.057892977725614
 30
0.0
 10
39.85472111978413
 20
7.036547029718889
 30
0.0
 10
39.8593572282295
 20
7.015585056840734
 30
0.0
 10
39.86545811862092
 20
6.99326215425907
 30
0.0
 10
39.87312767029022
 20
6.970118212117114
 30
0.0
 10
39.88251830123011
 20
6.946247445437677
 30
0.0
 10
39.89273723862357
 20
6.923754425539215
 30
0.0
 10
39.90320474011184
 20
6.9034137826889
 30
0.0
 10
39.9134954974553
 20
6.885417401536969
 30
0.0
 10
39.92344096639977
 20
6.869571792793152
 30
0.0
 10
39.93329806171857
 20
6.855243576114602
 30
0.0
 10
39.94264431189629
 20
6.842900404887188
 30
0.0
 10
39.95126741477293
 20
6.832601748147538
 30
0.0
 10
39.95910399696612
 20
6.824214863931729
 30
0.0
 10
39.96643176939813
 20
6.81738516847389
 30
0.0
 10
39.97311332360022
 20
6.812235263599006
 30
0.0
 10
39.9790576203028
 20
6.808836820499223
 30
0.0
 10
39.98431104373799
 20
6.807121823907181
 30
0.0
 10
39.98913654104589
 20
6.807317303411792
 30
0.0
 10
39.99307548425537
 20
6.809879575494377
 30
0.0
 10
39.99572643296372
 20
6.814308265444552
 30
0.0
 10
39.99751012497046
 20
6.82037908516601
 30
0.0
 10
39.99847742844691
 20
6.828260278429624
 30
0.0
 10
39.99873578774145
 20
6.834145761046315
 30
0.0
 10
39.99867135918123
 20
6.837381117949234
 30
0.0
 11
39.99867135918123
 21
7.389296768414396
 31
0.0
 11
39.99849059305535
 21
7.396399926332946
 31
0.0
 11
39.99793316095611
 21
7.402572283780102
 31
0.0
 11
39.99695964361297
 21
7.40786416841604
 31
0.0
 11
39.99555963156894
 21
7.412166799338478
 31
0.0
 11
39.99262649384212
 21
7.416749236218095
 31
0.0
 11
39.98869125891582
 21
7.419077517923824
 31
0.0
 11
39.98357202320642
 21
7.419124493402875
 31
0.0
 11
39.97743581199029
 21
7.416828946535588
 31
0.0
 11
39.96992592001442
 21
7.411932591544314
 31
0.0
 11
39.96146888816594
 21
7.404604625665399
 31
0.0
 11
39.95186025358731
 21
7.394578585486669
 31
0.0
 11
39.94154414859309
 21
7.3821939533467
 31
0.0
 11
39.9317687270015
 21
7.369079324662607
 31
0.0
 11
39.92171051153923
 21
7.354218007655276
 31
0.0
 11
39.91126837073835
 21
7.33724345909502
 31
0.0
 11
39.90087753450467
 21
7.318576034142324
 31
0.0
 11
39.89255688416955
 21
7.302094924278947
 31
0.0
 11
39.88452362486203
 21
7.284555272017598
 31
0.0
 11
39.8767572701322
 21
7.265602884323698
 31
0.0
 11
39.86957383748995
 21
7.245632286597924
 31
0.0
 11
39.86391653022446
 21
7.227454685286772
 31
0.0
 11
39.85892940175779
 21
7.208605212068164
 31
0.0
 11
39.85463366448374
 21
7.188684935101207
 31
0.0
 11
39.85126165133505
 21
7.168235071603135
 31
0.0
 11
39.84885254066188
 21
7.146651545241866
 31
0.0
 11
39.84760990475195
 21
7.124793508475988
 31
0.0
 11
39.84760790123153
 21
7.102058757836744
 31
0.0
 11
39.8489013049379
 21
7.079425694325209
 31
0.0
 11
39.8513499567062
 21
7.057825508014616
 31
0.0
 11
39.85488752673683
 21
7.036665646987955
 31
0.0
 11
39.8595660018924
 21
7.015469491384806
 31
0.0
 11
39.86515541251896
 21
6.995001889040509
 31
0.0
 11
39.87347062313984
 21
6.969865662458005
 31
0.0
 11
39.8827661862718
 21
6.946217498500914
 31
0.0
 11
39.89311716315484
 21
6.923423590646507
 31
0.0
 11
39.90393654515657
 21
6.902403607569226
 31
0.0
 11
39.9138340337538
 21
6.885108734459095
 31
0.0
 11
39.92373562981999
 21
6.869354295393691
 31
0.0
 11
39.93371276478928
 21
6.85488663354306
 31
0.0
 11
39.94337996027923
 21
6.842167690737142
 31
0.0
 11
39.95167082548045
 21
6.832312408525012
 31
0.0
 11
39.95950199286659
 21
6.823993017652242
 31
0.0
 11
39.96693986236562
 21
6.817145731781579
 31
0.0
 11
39.973719745219
 21
6.812042490093745
 31
0.0
 11
39.97955786681348
 21
6.80884123881691
 31
0.0
 11
39.98466124133381
 21
6.807373442468701
 31
0.0
 11
39.98908717660436
 21
6.807719874748272
 31
0.0
 11
39.99266930782278
 21
6.809967437555314
 31
0.0
 11
39.99532857100922
 21
6.813992282998469
 31
0.0
 11
39.99719458399329
 21
6.819821272652404
 31
0.0
 11
39.99831163627386
 21
6.827679016345086
 31
0.0
 11
39.99867135918123
 21
6.837381117949234
 31
0.0
  0
SPLINE
  5
19B
330
2
100
AcDbEntity
  8
GAIKEI
  6
Continuous
 62
     1
100
AcDbSpline
210
0.0
220
0.0
230
1.0
 70
     8
 71
     3
 72
    59
 73
    55
 74
     0
 42
0.0000000001
 43
0.0000000001
 40
0.0349945438237978
 40
0.0349945438237978
 40
0.0349945438237978
 40
0.0349945438237978
 40
0.1421083323969185
 40
0.2660578875024012
 40
0.3736716343104173
 40
0.4641651363129852
 40
0.5729806802563652
 40
0.6644289759125779
 40
0.7668179451501672
 40
0.8978485888745707
 40
1.077150255517389
 40
1.300954130308442
 40
1.578693083064459
 40
1.901060028867446
 40
2.228200577322882
 40
2.587102481366617
 40
2.985686782952937
 40
3.412976968399689
 40
3.782224978463207
 40
4.16806053834409
 40
4.57769907473212
 40
5.00216417850695
 40
5.382916273834956
 40
5.772877394409236
 40
6.180441335270956
 40
6.594961553926577
 40
7.02931283558277
 40
7.467179523693534
 40
7.92187462311888
 40
8.375274510883524
 40
8.810045305201219
 40
9.239116053932869
 40
9.673242891533488
 40
10.09758443760665
 40
10.62710224024265
 40
11.1352924621226
 40
11.6359740092462
 40
12.10879480318595
 40
12.50732858316551
 40
12.87948121950628
 40
13.23096746971053
 40
13.55048345776405
 40
13.80806064780194
 40
14.03656835537501
 40
14.23876351157454
 40
14.40848075290273
 40
14.54164476715823
 40
14.64784989521401
 40
14.73663931130097
 40
14.82121640271464
 40
14.91769663157091
 40
15.0401044011609
 40
15.19883933843787
 40
15.39301392549999
 40
15.39301392549999
 40
15.39301392549999
 40
15.39301392549999
 10
39.99867135918118
 20
1.691046553104854
 30
0.0
 10
39.99865559834944
 20
1.692831889080423
 30
0.0
 10
39.99851952907466
 20
1.696682936562865
 30
0.0
 10
39.99805530496286
 20
1.702310797667223
 30
0.0
 10
39.99712979514567
 20
1.707613890819857
 30
0.0
 10
39.99561289779297
 20
1.71250151281356
 30
0.0
 10
39.99315840536372
 20
1.716827576749324
 30
0.0
 10
39.98863143683229
 20
1.719606789018882
 30
0.0
 10
39.98299074261013
 20
1.719360987272978
 30
0.0
 10
39.9765967780487
 20
1.716676301148822
 30
0.0
 10
39.96920288703325
 20
1.711644161264018
 30
0.0
 10
39.96069200746882
 20
1.704113175720465
 30
0.0
 10
39.95124009289066
 20
1.694132531348373
 30
0.0
 10
39.94138340275777
 20
1.682218200545946
 30
0.0
 10
39.9313574905683
 20
1.668721790429628
 30
0.0
 10
39.92123775601374
 20
1.65373581886638
 30
0.0
 10
39.91089810603899
 20
1.63690585887258
 30
0.0
 10
39.9012123615679
 20
1.619493162255309
 30
0.0
 10
39.89232946676032
 20
1.601897721599357
 30
0.0
 10
39.88424253449762
 20
1.584244928604903
 30
0.0
 10
39.87652749022641
 20
1.565426758372609
 30
0.0
 10
39.86966620838723
 20
1.546369631896141
 30
0.0
 10
39.86374162350478
 20
1.527345515285787
 30
0.0
 10
39.85871077905386
 20
1.508356184205354
 30
0.0
 10
39.8544479933563
 20
1.4886024144933
 30
0.0
 10
39.85103179607006
 20
1.467933420202939
 30
0.0
 10
39.84865190986636
 20
1.446609746626961
 30
0.0
 10
39.84738892295331
 20
1.42451937290275
 30
0.0
 10
39.84739241381334
 20
1.402074153528019
 30
0.0
 10
39.84866717062329
 20
1.379717137008356
 30
0.0
 10
39.85114973192924
 20
1.357893168452505
 30
0.0
 10
39.85472020684227
 20
1.336547289902341
 30
0.0
 10
39.85935633697096
 20
1.315585381607206
 30
0.0
 10
39.86545725409906
 20
1.293262542042157
 30
0.0
 10
39.87312683613203
 20
1.270118659092133
 30
0.0
 10
39.88251749859092
 20
1.24624794666272
 30
0.0
 10
39.89273646421577
 20
1.223754969770652
 30
0.0
 10
39.90320398769626
 20
1.203414358165161
 30
0.0
 10
39.91349475982304
 20
1.185417996818557
 30
0.0
 10
39.92344023622582
 20
1.169572397403783
 30
0.0
 10
39.9332973306241
 20
1.155244179486544
 30
0.0
 10
39.94264356982887
 20
1.142900994552292
 30
0.0
 10
39.95126665111025
 20
1.13260230869622
 30
0.0
 10
39.95910320171868
 20
1.124215375964013
 30
0.0
 10
39.96643093176852
 20
1.117385601655655
 30
0.0
 10
39.97311243521961
 20
1.112235575285751
 30
0.0
 10
39.97905668599378
 20
1.108836957695871
 30
0.0
 10
39.98431008051318
 20
1.107121739803346
 30
0.0
 10
39.98913561254176
 20
1.107316953249778
 30
0.0
 10
39.99307468551018
 20
1.109879031530454
 30
0.0
 10
39.99572572725595
 20
1.114307629513405
 30
0.0
 10
39.99750954784338
 20
1.120378391267877
 30
0.0
 10
39.99847659313622
 20
1.128259824256474
 30
0.0
 10
39.99873579261475
 20
1.134145516328317
 30
0.0
 10
39.99867135918123
 20
1.137381117949246
 30
0.0
  0
SPLINE
  5
19C
330
2
100
AcDbEntity
  8
GAIKEI
  6
Continuous
 62
     1
100
AcDbSpline
210
0.0
220
0.0
230
1.0
 70
     8
 71
     3
 72
    19
 73
    15
 74
    13
 42
0.0000000001
 43
0.0000000001
 44
0.000001
 12
-0.0912154340821383
 22
0.9958311827740718
 32
0.0
 13
-0.7628105112760477
 23
0.646622087379309
 33
0.0
 40
0.0
 40
0.0
 40
0.0
 40
0.0
 40
0.0467890381476132
 40
0.0987195309954746
 40
0.1429451523508886
 40
0.1873884241884096
 40
0.2319948084613284
 40
0.2767107229894731
 40
0.3214864445947492
 40
0.3716404223558689
 40
0.4222145537762471
 40
0.4731010924728824
 40
0.5241952257139959
 40
0.5754007836255317
 40
0.5754007836255317
 40
0.5754007836255317
 40
0.5754007836255317
 10
39.99561546897542
 20
15.48722811497839
 30
0.0
 10
39.99419284150045
 20
15.50275944271152
 30
0.0
 10
39.99015019255347
 20
15.53544198625309
 30
0.0
 10
39.98114771468602
 20
15.582272963657
 30
0.0
 10
39.96928222024141
 20
15.62764141785611
 30
0.0
 10
39.95546455281882
 20
15.66989120201164
 30
0.0
 10
39.93908708951878
 20
15.71139159074155
 30
0.0
 10
39.9202043059579
 20
15.75193646778187
 30
0.0
 10
39.89802695856193
 20
15.79289486407893
 30
0.0
 10
39.87217229751249
 20
15.83397627393258
 30
0.0
 10
39.84239025841134
 20
15.8748540365798
 30
0.0
 10
39.80972283200754
 20
15.91387552917671
 30
0.0
 10
39.77435393486857
 20
15.950756889792
 30
0.0
 10
39.74908765279522
 20
15.97370464422288
 30
0.0
 10
39.73606760685834
 20
15.9847415258036
 30
0.0
 11
39.99561546897542
 21
15.48722811497839
 31
0.0
 11
39.98987311296815
 21
15.53366384101491
 31
0.0
 11
39.98006277807349
 21
15.58465925290659
 31
0.0
 11
39.9688760448401
 21
15.62744667247284
 31
0.0
 11
39.95506628888586
 21
15.66968996660887
 31
0.0
 11
39.93869194443642
 21
15.71118226470378
 31
0.0
 11
39.91981144571719
 21
15.75171669614673
 31
0.0
 11
39.89848322695377
 21
15.79108639032671
 31
0.0
 11
39.87177977379003
 21
15.83354045771693
 31
0.0
 11
39.84200619114125
 21
15.87442170396264
 31
0.0
 11
39.80934277306477
 21
15.91344143006097
 31
0.0
 11
39.7739698136179
 21
15.95031093700902
 31
0.0
 11
39.73606760685834
 21
15.9847415258036
 31
0.0
  0
SPLINE
  5
19D
330
2
100
AcDbEntity
  8
GAIKEI
  6
Continuous
 62
     1
100
AcDbSpline
210
0.0
220
0.0
230
1.0
 70
     8
 71
     3
 72
    16
 73
    12
 74
    10
 42
0.0000000001
 43
0.0000000001
 44
0.000001
 12
0.0063007628878109
 22
-0.9999801499965045
 32
0.0
 13
-0.4249637329286279
 23
-0.905210376484586
 33
0.0
 40
0.0
 40
0.0
 40
0.0
 40
0.0
 40
0.0456928155558235
 40
0.0729223277433817
 40
0.1001494218405929
 40
0.1275729237482571
 40
0.1553508338207632
 40
0.1831848896977218
 40
0.2113769263847817
 40
0.2397509725392922
 40
0.2997926694746515
 40
0.2997926694746515
 40
0.2997926694746515
 40
0.2997926694746515
 10
39.98467429218062
 20
-12.63449750869637
 30
0.0
 10
39.98477025871279
 20
-12.6497281448808
 30
0.0
 10
39.98399463054233
 20
-12.6740539840879
 30
0.0
 10
39.9808897063806
 20
-12.70730128689797
 30
0.0
 10
39.97712010616761
 20
-12.73434306623275
 30
0.0
 10
39.97209097411769
 20
-12.76136479691883
 30
0.0
 10
39.96577974667633
 20
-12.78832358684101
 30
0.0
 10
39.95817717624186
 20
-12.81521606015818
 30
0.0
 10
39.94922598168469
 20
-12.84189256612666
 30
0.0
 10
39.93540986143444
 20
-12.87825775974872
 30
0.0
 10
39.92182030298213
 20
-12.90447037835746
 30
0.0
 10
39.9133151217618
 20
-12.92258716738666
 30
0.0
 11
39.98467429218062
 21
-12.63449750869637
 31
0.0
 11
39.9832160251035
 21
-12.68016747554083
 31
0.0
 11
39.98068581730246
 21
-12.70727916829094
 31
0.0
 11
39.97692692765952
 21
-12.73424554081157
 31
0.0
 11
39.97190921483235
 21
-12.76120608525679
 31
0.0
 11
39.9655807819625
 21
-12.78825351018639
 31
0.0
 11
39.95799845080575
 21
-12.81503490098851
 31
0.0
 11
39.9490715738284
 21
-12.84177628757953
 31
0.0
 11
39.93884218469634
 21
-12.86824222792529
 31
0.0
 11
39.9133151217618
 21
-12.92258716738666
 31
0.0
  0
SPLINE
  5
19E
330
2
100
AcDbEntity
  8
GAIKEI
  6
Continuous
 62
     7
100
AcDbSpline
210
0.0
220
0.0
230
1.0
 70
     8
 71
     3
 72
    19
 73
    15
 74
    13
 42
0.0000000001
 43
0.0000000001
 44
0.000001
 12
0.6454515731427639
 22
-0.7638011958144158
 32
0.0
 13
0.1202067029641735
 23
-0.9927488849464818
 33
0.0
 40
0.0
 40
0.0
 40
0.0
 40
0.0
 40
0.0355153739049589
 40
0.0709953650762931
 40
0.1065946142794694
 40
0.14216633649175
 40
0.1784911525315489
 40
0.2148012359927105
 40
0.2512585163379541
 40
0.2877170051074889
 40
0.3352601626282626
 40
0.382880637567705
 40
0.4192250038097903
 40
0.4386283337596443
 40
0.4386283337596443
 40
0.4386283337596443
 40
0.4386283337596443
 10
39.82051104108331
 20
15.97124910242047
 30
0.0
 10
39.82815219240254
 20
15.96220687406767
 30
0.0
 10
39.84300215555066
 20
15.94376753161543
 30
0.0
 10
39.86396614463757
 20
15.91506403916852
 30
0.0
 10
39.88356213532876
 20
15.88538610692872
 30
0.0
 10
39.90187801446655
 20
15.85457372749548
 30
0.0
 10
39.9188152503836
 20
15.82271298045596
 30
0.0
 10
39.93432487187977
 20
15.78980686987609
 30
0.0
 10
39.94824784352869
 20
15.75615000932403
 30
0.0
 10
39.96179357742631
 20
15.71833517991204
 30
0.0
 10
39.97428075727928
 20
15.67624451966847
 30
0.0
 10
39.98408964253085
 20
15.6334897238098
 30
0.0
 10
39.98992243224714
 20
15.59951743088445
 30
0.0
 10
39.99239408791434
 20
15.58109790693214
 30
0.0
 10
39.99317155802095
 20
15.57467702887481
 30
0.0
 11
39.82051104108331
 21
15.97124910242047
 31
0.0
 11
39.84278846219888
 21
15.94358896753624
 31
0.0
 11
39.86371461643046
 21
15.91493721759133
 31
0.0
 11
39.88333036074164
 21
15.88522983925077
 31
0.0
 11
39.90150669274181
 21
15.85465259015268
 31
0.0
 11
39.91855767557036
 21
15.82257835951441
 31
0.0
 11
39.93403852855528
 21
15.78973379534568
 31
0.0
 11
39.94797485541454
 21
15.75604533988166
 31
0.0
 11
39.96026984564094
 21
15.72172254445559
 31
0.0
 11
39.97379256706302
 21
15.67614307156623
 31
0.0
 11
39.98444116223936
 21
15.62972843547498
 31
0.0
 11
39.99059282153854
 21
15.59390845493112
 31
0.0
 11
39.99317155802095
 21
15.57467702887481
 31
0.0
  0
SPLINE
  5
19F
330
2
100
AcDbEntity
  8
GAIKEI
  6
Continuous
 62
     1
100
AcDbSpline
210
0.0
220
0.0
230
1.0
 70
     8
 71
     3
 72
     9
 73
     5
 74
     3
 42
0.0000000001
 43
0.0000000001
 44
0.000001
 12
-0.0085731655573233
 22
-0.9999632497408725
 32
0.0
 13
-0.2441696530740563
 23
-0.9697325304008808
 33
0.0
 40
0.0
 40
0.0
 40
0.0
 40
0.0
 40
0.0009645689144569
 40
0.0010700851662007
 40
0.0010700851662007
 40
0.0010700851662007
 40
0.0010700851662007
 10
39.99474445752594
 20
-3.170955593325743
 30
0.0
 10
39.99474170105628
 20
-3.171277104481177
 30
0.0
 10
39.99470057021836
 20
-3.171635421903459
 30
0.0
 10
39.99461765975022
 20
-3.171982288363622
 30
0.0
 10
39.99460907179468
 20
-3.172016395877562
 30
0.0
 11
39.99474445752594
 21
-3.170955593325743
 31
0.0
 11
39.99463361961483
 21
-3.171913821061195
 31
0.0
 11
39.99460907179468
 21
-3.172016395877562
 31
0.0
  0
SPLINE
  5
1A0
330
2
100
AcDbEntity
  8
GAIKEI
  6
Continuous
 62
     1
100
AcDbSpline
210
0.0
220
0.0
230
1.0
 70
     8
 71
     3
 72
     9
 73
     5
 74
     3
 42
0.0000000001
 43
0.0000000001
 44
0.000001
 12
-0.0000018445944591
 22
0.9999999999982986
 32
0.0
 13
-0.0427938538119136
 23
0.9990839234398302
 33
0.0
 40
0.0
 40
0.0
 40
0.0
 40
0.0
 40
0.0139258080615728
 40
0.0321069066857096
 40
0.0321069066857096
 40
0.0321069066857096
 40
0.0321069066857096
 10
39.99867135918123
 20
-3.24737256649962
 30
0.0
 10
39.99867135061874
 20
-3.242730630479101
 30
0.0
 10
39.99857195367477
 20
-3.232028168491652
 30
0.0
 10
39.99824354727551
 20
-3.221329634761019
 30
0.0
 10
39.99798420084994
 20
-3.215274820312401
 30
0.0
 11
39.99867135918123
 21
-3.24737256649962
 31
0.0
 11
39.99854207484577
 21
-3.233447416994636
 31
0.0
 11
39.99798420084994
 21
-3.215274820312401
 31
0.0
  0
SPLINE
  5
1A1
330
2
100
AcDbEntity
  8
GAIKEI
  6
Continuous
 62
     1
100
AcDbSpline
210
0.0
220
0.0
230
1.0
 70
     8
 71
     3
 72
    15
 73
    11
 74
     9
 42
0.0000000001
 43
0.0000000001
 44
0.000001
 12
-0.9993069237086784
 22
0.0372246185728951
 32
0.0
 13
-0.9993043250040534
 23
0.0372943162987813
 33
0.0
 40
0.0
 40
0.0
 40
0.0
 40
0.0
 40
0.0135550260818612
 40
0.0286448009222158
 40
0.0452836984744065
 40
0.1309398183227203
 40
0.1506979104907946
 40
0.171985562236962
 40
0.1948202008235673
 40
0.2191826589616368
 40
0.2191826589616368
 40
0.2191826589616368
 40
0.2191826589616368
 10
37.82335025918121
 20
18.53817757642048
 30
0.0
 10
37.81883504870967
 20
18.53834576997903
 30
0.0
 10
37.809292959902
 20
18.53869118625258
 30
0.0
 10
37.79420642123077
 20
18.53917633041958
 30
0.0
 10
37.75509955803358
 20
18.54054412397082
 30
0.0
 10
37.71439184710448
 20
18.5394373200029
 30
0.0
 10
37.67217736586994
 20
18.54079520193085
 30
0.0
 10
37.65089177552457
 20
18.54137180368892
 30
0.0
 10
37.62806582622727
 20
18.54173485677094
 30
0.0
 10
37.612341486844
 20
18.54225969733635
 30
0.0
 10
37.60422631691563
 20
18.54256255774288
 30
0.0
 11
37.82335025918121
 21
18.53817757642048
 31
0.0
 11
37.80980398178281
 21
18.53866505080134
 31
0.0
 11
37.79472257345486
 21
18.53916747103233
 31
0.0
 11
37.77809172217667
 21
18.53968484175993
 31
0.0
 11
37.69243723389446
 21
18.54021583004851
 31
0.0
 11
37.67268670654051
 21
18.54076172779878
 31
0.0
 11
37.6514063954213
 21
18.54132057918537
 31
0.0
 11
37.62857674193032
 21
18.541792026292
 31
0.0
 11
37.60422631691563
 21
18.54256255774288
 31
0.0
  0
SPLINE
  5
1A2
330
2
100
AcDbEntity
  8
GAIKEI
  6
Continuous
 62
     7
100
AcDbSpline
210
0.0
220
0.0
230
1.0
 70
     8
 71
     3
 72
    31
 73
    27
 74
    25
 42
0.0000000001
 43
0.0000000001
 44
0.000001
 12
0.999992804131436
 22
-0.0037936374823846
 32
0.0
 13
0.9989808044861298
 23
0.045137038762472
 33
0.0
 40
0.0
 40
0.0
 40
0.0
 40
0.0
 40
0.0026515889139971
 40
0.0190927368870625
 40
0.0353660989886413
 40
0.0521905496061845
 40
0.0681247117096913
 40
0.0831708709086167
 40
0.0973305489381677
 40
0.11060498366266
 40
0.1229945225111862
 40
0.1344996903740392
 40
0.1451210522003011
 40
0.1548589278232497
 40
0.1637121493750056
 40
0.1716610059610677
 40
0.1787060528869275
 40
0.1848481303573379
 40
0.190087663371175
 40
0.1944245152608512
 40
0.1978575922584349
 40
0.2003834863694502
 40
0.2020573366526684
 40
0.2033054059350345
 40
0.2045049137450708
 40
0.20509282600629
 40
0.20509282600629
 40
0.20509282600629
 40
0.20509282600629
 10
37.55574327429781
 20
-16.67584543071541
 30
0.0
 10
37.55662713090899
 20
-16.67584878377111
 30
0.0
 10
37.56299131764052
 20
-16.67587633508359
 30
0.0
 10
37.5747799972317
 20
-16.67590284312138
 30
0.0
 10
37.59129294021648
 20
-16.67593932633502
 30
0.0
 10
37.60763689436095
 20
-16.67597478014348
 30
0.0
 10
37.62357178196135
 20
-16.67600871147532
 30
0.0
 10
37.63861841554785
 20
-16.67604018757086
 30
0.0
 10
37.65277847622054
 20
-16.67606931895304
 30
0.0
 10
37.66605299951249
 20
-16.67609621508837
 30
0.0
 10
37.67844268856521
 20
-16.6761209845768
 30
0.0
 10
37.68994802224762
 20
-16.67614373733825
 30
0.0
 10
37.70056947023784
 20
-16.67616457855855
 30
0.0
 10
37.71030693793676
 20
-16.67618362897016
 30
0.0
 10
37.7191535723203
 20
-16.67620090522589
 30
0.0
 10
37.72710259886128
 20
-16.67621642470574
 30
0.0
 10
37.73414791231741
 20
-16.67623023164134
 30
0.0
 10
37.74029011960394
 20
-16.67624231098637
 30
0.0
 10
37.74552959636705
 20
-16.67625285982861
 30
0.0
 10
37.74986607537196
 20
-16.67626145151645
 30
0.0
 10
37.75329800682363
 20
-16.67626936463463
 30
0.0
 10
37.7558422787113
 20
-16.67627350766794
 30
0.0
 10
37.75765820106011
 20
-16.67628151571464
 30
0.0
 10
37.75903202863614
 20
-16.67627705300484
 30
0.0
 10
37.76004372448978
 20
-16.67625457565321
 30
0.0
 10
37.76063898587504
 20
-16.6762288188767
 30
0.0
 10
37.76083475689626
 20
-16.6762199733372
 30
0.0
 11
37.55574327429781
 21
-16.67584543071541
 31
0.0
 11
37.5583948226107
 21
-16.6758551811908
 31
0.0
 11
37.57483590451966
 21
-16.67590186099988
 31
0.0
 11
37.59110922608659
 21
-16.67593781361819
 31
0.0
 11
37.60793363641409
 21
-16.67597430929265
 31
0.0
 11
37.62386776194489
 21
-16.67600823961947
 31
0.0
 11
37.63891388791677
 21
-16.67603971650493
 31
0.0
 11
37.65307353575707
 21
-16.67606885037014
 31
0.0
 11
37.66634794305861
 21
-16.67609575128745
 31
0.0
 11
37.67873745700104
 21
-16.67612052785853
 31
0.0
 11
37.6902426022375
 21
-16.67614328945689
 31
0.0
 11
37.700863943488
 21
-16.67616414596961
 31
0.0
 11
37.71060180037574
 21
-16.67618320009722
 31
0.0
 11
37.71945500494218
 21
-16.6762004934049
 31
0.0
 11
37.72740384625178
 21
-16.67621602347231
 31
0.0
 11
37.73444887952036
 21
-16.6762298303737
 31
0.0
 11
37.74059094485352
 21
-16.6762419545085
 31
0.0
 11
37.74583046713167
 21
-16.67625243522616
 31
0.0
 11
37.750167309522
 21
-16.67626131045835
 31
0.0
 11
37.75360037797151
 21
-16.67626861558398
 31
0.0
 11
37.75612626386624
 21
-16.67627437899358
 31
0.0
 11
37.75780010453303
 21
-16.67627869422728
 31
0.0
 11
37.75904814903862
 21
-16.67627197762152
 31
0.0
 11
37.76024730905147
 21
-16.67624340887278
 31
0.0
 11
37.76083475689626
 21
-16.6762199733372
 31
0.0
  0
SPLINE
  5
1A3
330
2
100
AcDbEntity
  8
GAIKEI
  6
Continuous
 62
     7
100
AcDbSpline
210
0.0
220
0.0
230
1.0
 70
     8
 71
     3
 72
    33
 73
    29
 74
    27
 42
0.0000000001
 43
0.0000000001
 44
0.000001
 12
-0.9989727477710509
 22
0.045314999842833
 32
0.0
 13
-0.9999928005234256
 23
-0.0037945884251499
 33
0.0
 40
0.0
 40
0.0
 40
0.0
 40
0.0
 40
0.0003193646769821
 40
0.0011748899394403
 40
0.0019753776501472
 40
0.0028201779244463
 40
0.0037318287471469
 40
0.0049417168605845
 40
0.0075302588399667
 40
0.0110310545682711
 40
0.0154384379156915
 40
0.0207475065557477
 40
0.0269566282603146
 40
0.034065384364909
 40
0.0420740035210246
 40
0.0509831623433055
 40
0.0607939595965728
 40
0.0715076027536322
 40
0.0831059906884473
 40
0.095590036124345
 40
0.1089601796620204
 40
0.1232171652372821
 40
0.1383615413946444
 40
0.1543938196920376
 40
0.1713154071310187
 40
0.1869950681571027
 40
0.2032650978171542
 40
0.205092653612687
 40
0.205092653612687
 40
0.205092653612687
 40
0.205092653612687
 10
37.7608349759189
 20
19.51827759946923
 30
0.0
 10
37.7607286303826
 20
19.51828242347265
 30
0.0
 10
37.76033743998608
 20
19.51830106259345
 30
0.0
 10
37.75967921144323
 20
19.5183203186655
 30
0.0
 10
37.75884572420998
 20
19.51833487896402
 30
0.0
 10
37.75799339748071
 20
19.51833870148493
 30
0.0
 10
37.75700462482916
 20
19.51833485840657
 30
0.0
 10
37.75543460107284
 20
19.51833150346374
 30
0.0
 10
37.75300153270499
 20
19.51832579065106
 30
0.0
 10
37.74950263303924
 20
19.51831855719696
 30
0.0
 10
37.74509689306223
 20
19.51830954571829
 30
0.0
 10
37.73978837899347
 20
19.51829898049816
 30
0.0
 10
37.7335794089096
 20
19.51828674279299
 30
0.0
 10
37.72647059020301
 20
19.51827282854741
 30
0.0
 10
37.71846176077759
 20
19.51825719006255
 30
0.0
 10
37.70955225269086
 20
19.5182397901338
 30
0.0
 10
37.69974107172854
 20
19.51822059263989
 30
0.0
 10
37.68903348291215
 20
19.51819957263643
 30
0.0
 10
37.6774348134517
 20
19.51817661692344
 30
0.0
 10
37.66495064614941
 20
19.51815163243843
 30
0.0
 10
37.65158028214015
 20
19.5181245080911
 30
0.0
 10
37.63732314398789
 20
19.51809513600646
 30
0.0
 10
37.62217863047701
 20
19.51806340427392
 30
0.0
 10
37.60614591992663
 20
19.51802921641069
 30
0.0
 10
37.58993478150768
 20
19.51799395901223
 30
0.0
 10
37.57364439923731
 20
19.51795802678188
 30
0.0
 10
37.56238533519058
 20
19.51793239210838
 30
0.0
 10
37.5563528664135
 20
19.51790537996525
 30
0.0
 10
37.55574368553414
 20
19.51790306835789
 30
0.0
 11
37.7608349759189
 21
19.51827759946923
 31
0.0
 11
37.76051589701552
 21
19.51829113196328
 31
0.0
 11
37.75966080143104
 21
19.51831812083048
 31
0.0
 11
37.75886043799835
 21
19.51833193625191
 31
0.0
 11
37.75801565433187
 21
19.51833646814668
 31
0.0
 11
37.75710400900801
 21
19.51833447364833
 31
0.0
 11
37.75589412649293
 21
19.51833145865908
 31
0.0
 11
37.75330559257617
 21
19.5183256078476
 31
0.0
 11
37.74980480540376
 21
19.51831819354424
 31
0.0
 11
37.74539743162336
 21
19.51830919749193
 31
0.0
 11
37.74008837381001
 21
19.5182985935694
 31
0.0
 11
37.73387926434407
 21
19.51828634725871
 31
0.0
 11
37.72677052200271
 21
19.51827242109419
 31
0.0
 11
37.71876191823031
 21
19.51825677606137
 31
0.0
 11
37.7098527765009
 21
19.51823937204778
 31
0.0
 11
37.70004199812843
 21
19.51822017173651
 31
0.0
 11
37.68932837574437
 21
19.51819912425071
 31
0.0
 11
37.67773001065496
 21
19.51817616024345
 31
0.0
 11
37.66524599036813
 21
19.5181511687266
 31
0.0
 11
37.65187587452186
 21
19.51812404013753
 31
0.0
 11
37.63761891943284
 21
19.5180946647398
 31
0.0
 11
37.6224745768298
 21
19.51806293359209
 31
0.0
 11
37.6064423354656
 21
19.51802873821737
 31
0.0
 11
37.58952078871499
 21
19.51799196854927
 31
0.0
 11
37.57384116680999
 21
19.51795727871962
 31
0.0
 11
37.55757120944725
 21
19.5179098556269
 31
0.0
 11
37.55574368553414
 21
19.51790306835789
 31
0.0
  0
SPLINE
  5
1A4
330
2
100
AcDbEntity
  8
GAIKEI
  6
Continuous
 62
     1
100
AcDbSpline
210
0.0
220
0.0
230
1.0
 70
     8
 71
     3
 72
     9
 73
     5
 74
     3
 42
0.0000000001
 43
0.0000000001
 44
0.000001
 12
-0.1197400498887226
 22
0.9928052782155452
 32
0.0
 13
-0.1402453033452655
 23
0.9901167885101203
 33
0.0
 40
0.0
 40
0.0
 40
0.0
 40
0.0
 40
0.0092459895577719
 40
0.0156881724027867
 40
0.0156881724027867
 40
0.0156881724027867
 40
0.0156881724027867
 10
39.9932130163034
 20
15.57431285682224
 30
0.0
 10
39.99284397788642
 20
15.577372679234
 30
0.0
 10
39.99218616161744
 20
15.58256069266473
 30
0.0
 10
39.991474749633
 20
15.58774152787576
 30
0.0
 10
39.99117358767057
 20
15.58986769900559
 30
0.0
 11
39.9932130163034
 21
15.57431285682224
 31
0.0
 11
39.99204998012181
 21
15.58348541547303
 31
0.0
 11
39.99117358767057
 21
15.58986769900559
 31
0.0
  0
SPLINE
  5
1A5
330
2
100
AcDbEntity
  8
GAIKEI
  6
Continuous
 62
     7
100
AcDbSpline
210
0.0
220
0.0
230
1.0
 70
     8
 71
     3
 72
    23
 73
    19
 74
    17
 42
0.0000000001
 43
0.0000000001
 44
0.000001
 12
0.0049688130497012
 22
0.9999876553722437
 32
0.0
 13
0.1822247323104926
 23
0.9832569079006614
 33
0.0
 40
0.0
 40
0.0
 40
0.0
 40
0.0
 40
0.0072074501703136
 40
0.016160804614415
 40
0.0250756285633327
 40
0.0338013202979102
 40
0.0421697133357867
 40
0.050022301499075
 40
0.0572230662354535
 40
0.0636517750001245
 40
0.0694283394929529
 40
0.0747395269944793
 40
0.0796635137653787
 40
0.0946187857611875
 40
0.0978764069160453
 40
0.0998931476227535
 40
0.1009987819249754
 40
0.1012579302451571
 40
0.1012579302451571
 40
0.1012579302451571
 40
0.1012579302451571
 10
39.99077286046003
 20
-11.98480961647095
 30
0.0
 10
39.99078479795085
 20
-11.98240716273861
 30
0.0
 10
39.99083667103602
 20
-11.9770203743988
 30
0.0
 10
39.99101499924151
 20
-11.96866351679426
 30
0.0
 10
39.99130786993155
 20
-11.95980353657559
 30
0.0
 10
39.99169558548653
 20
-11.95114237434296
 30
0.0
 10
39.9921641277623
 20
-11.9428398396674
 30
0.0
 10
39.99269653327335
 20
-11.93505056408063
 30
0.0
 10
39.99327403904249
 20
-11.92791303102308
 30
0.0
 10
39.99388043740356
 20
-11.92147255635282
 30
0.0
 10
39.99451983828749
 20
-11.91566875953428
 30
0.0
 10
39.99514095031307
 20
-11.91036759726771
 30
0.0
 10
39.99626122767771
 20
-11.90204571301801
 30
0.0
 10
39.99703921089304
 20
-11.8943694130732
 30
0.0
 10
39.99804743239124
 20
-11.88770148697144
 30
0.0
 10
39.99838345113543
 20
-11.88560155977109
 30
0.0
 10
39.99857227727901
 20
-11.88449024983488
 30
0.0
 10
39.99865561810342
 20
-11.88404301841784
 30
0.0
 10
39.99867135918118
 20
-11.88395808195918
 30
0.0
 11
39.99077286046003
 21
-11.98480961647095
 31
0.0
 11
39.99084459343203
 21
-11.97760268928414
 31
0.0
 11
39.99103375906435
 21
-11.96865133480139
 31
0.0
 11
39.9913284806571
 21
-11.95974138936259
 31
0.0
 11
39.99171915213504
 21
-11.95102445292241
 31
0.0
 11
39.99219184793157
 21
-11.94266942458455
 31
0.0
 11
39.99272933885066
 21
-11.93483525405349
 31
0.0
 11
39.9933123811652
 21
-11.92765812967616
 31
0.0
 11
39.99391959246162
 21
-11.92125815454272
 31
0.0
 11
39.99454469700095
 21
-11.91551550282082
 31
0.0
 11
39.99517261419425
 21
-11.91024155640338
 31
0.0
 11
39.99580287074514
 21
-11.90535806547473
 31
0.0
 11
39.99763264011517
 21
-11.89051516552678
 31
0.0
 11
39.99811595198821
 21
-11.8872935998998
 31
0.0
 11
39.99843655361019
 21
-11.8853025088141
 31
0.0
 11
39.99862463596583
 21
-11.88421298589168
 31
0.0
 11
39.99867135918118
 21
-11.88395808195918
 31
0.0
  0
SPLINE
  5
1A6
330
2
100
AcDbEntity
  8
GAIKEI
  6
Continuous
 62
     7
100
AcDbSpline
210
0.0
220
0.0
230
1.0
 70
     8
 71
     3
 72
    24
 73
    20
 74
    18
 42
0.0000000001
 43
0.0000000001
 44
0.000001
 12
-0.6450891826635058
 22
0.764107287238206
 32
0.0
 13
-0.6426010606713996
 23
0.766200937629283
 33
0.0
 40
0.0
 40
0.0
 40
0.0
 40
0.0
 40
0.1279172834885418
 40
0.2554857142357851
 40
0.3827436792159488
 40
0.5097301885678475
 40
0.6364847985758504
 40
0.7630456544739852
 40
0.9616300444448327
 40
1.159970670116569
 40
1.358188676903859
 40
1.54739082842433
 40
1.736690393909553
 40
1.926182773689498
 40
2.115963864905431
 40
2.265343010524392
 40
2.415007555575902
 40
2.565005854690993
 40
2.695047218680627
 40
2.695047218680627
 40
2.695047218680627
 40
2.695047218680627
 10
39.64462201256834
 20
16.18022230139502
 30
0.0
 10
39.61711599395028
 20
16.21280314422078
 30
0.0
 10
39.56219681981674
 20
16.27789104628009
 30
0.0
 10
39.47996653034639
 20
16.37543667737532
 30
0.0
 10
39.3979940565697
 20
16.47279383013736
 30
0.0
 10
39.31625962343403
 20
16.56999674739508
 30
0.0
 10
39.23473489727735
 20
16.66707236574353
 30
0.0
 10
39.13792988752613
 20
16.78248111431205
 30
0.0
 10
39.02588578970955
 20
16.91625230975228
 30
0.0
 10
38.89859554599798
 20
17.06841084811914
 30
0.0
 10
38.7733724267589
 20
17.2182211868577
 30
0.0
 10
38.65010102809322
 20
17.36573506526912
 30
0.0
 10
38.52868285621344
 20
17.51100720228954
 30
0.0
 10
38.40710907158359
 20
17.65640078323697
 30
0.0
 10
38.29402639803971
 20
17.79154859585353
 30
0.0
 10
38.18942465515849
 20
17.9164823345306
 30
0.0
 10
38.09330400454257
 20
18.0312217003221
 30
0.0
 10
38.00129447774038
 20
18.1409961823736
 30
0.0
 10
37.94131826438516
 20
18.2125254293294
 30
0.0
 10
37.91346335824153
 20
18.24573803433588
 30
0.0
 11
39.64462201256834
 21
16.18022230139502
 31
0.0
 11
39.56212846412422
 21
16.27798552456596
 31
0.0
 11
39.4799087344565
 21
16.37552331507152
 31
0.0
 11
39.39794559328931
 21
16.47287131642395
 31
0.0
 11
39.31621915717091
 21
16.57006372136573
 31
0.0
 11
39.23470214014031
 21
16.66712920250967
 31
0.0
 11
39.15336686505702
 21
16.7640942691504
 31
0.0
 11
39.02584801534784
 21
16.9163266916064
 31
0.0
 11
38.8985802883567
 21
17.06845143509736
 31
0.0
 11
38.77144911810058
 21
17.22053045688005
 31
0.0
 11
38.65012064085244
 21
17.3657091486591
 31
0.0
 11
38.52871953713202
 21
17.5109541024691
 31
0.0
 11
38.40716355008067
 21
17.65632089211971
 31
0.0
 11
38.28537651890173
 21
17.80187081947883
 31
0.0
 11
38.18948119521741
 21
17.9164055999488
 31
0.0
 11
38.09337129528854
 21
18.03113294243917
 31
0.0
 11
37.99701819035204
 21
18.14609193020385
 31
0.0
 11
37.91346335824153
 21
18.24573803433588
 31
0.0
  0
SPLINE
  5
1A7
330
2
100
AcDbEntity
  8
GAIKEI
  6
Continuous
 62
     1
100
AcDbSpline
210
0.0
220
0.0
230
1.0
 70
     8
 71
     3
 72
    25
 73
    21
 74
    19
 42
0.0000000001
 43
0.0000000001
 44
0.000001
 12
0.6426013748113089
 22
0.7662006741648142
 32
0.0
 13
0.6450872868150431
 23
0.7641088877834143
 33
0.0
 40
0.0
 40
0.0
 40
0.0
 40
0.0
 40
0.1326317859703268
 40
0.2853164647643686
 40
0.437657623649872
 40
0.5897066217165989
 40
0.7415140041421128
 40
0.9400270843770522
 40
1.138322514449763
 40
1.336512972729854
 40
1.487863052283618
 40
1.639279180542459
 40
1.790817643098574
 40
1.942535579609289
 40
2.094494994475092
 40
2.214104019007496
 40
2.333933796202126
 40
2.454016354398273
 40
2.574382521159546
 40
2.695062719916482
 40
2.695062719916482
 40
2.695062719916482
 40
2.695062719916482
 10
37.91345340673331
 20
-15.40369226532277
 30
0.0
 10
37.94186319606939
 20
-15.36981807738072
 30
0.0
 10
38.00296944794928
 20
-15.2969409203765
 30
0.0
 10
38.09668137293056
 20
-15.18513410548002
 30
0.0
 10
38.19452028632517
 20
-15.06834115749189
 30
0.0
 10
38.2921382987262
 20
-14.95174464846783
 30
0.0
 10
38.39960096813829
 20
-14.82331781950211
 30
0.0
 10
38.51691246201094
 20
-14.68303179075742
 30
0.0
 10
38.64410450970752
 20
-14.53085374348596
 30
0.0
 10
38.76120130603112
 20
-14.39072709055571
 30
0.0
 10
38.86829202589985
 20
-14.26260311247118
 30
0.0
 10
38.96544182913556
 20
-14.14643753060483
 30
0.0
 10
39.06271211465869
 20
-14.03021287060666
 30
0.0
 10
39.16016129815154
 20
-13.91390180629155
 30
0.0
 10
39.25084824420748
 20
-13.80581013353419
 30
0.0
 10
39.33476768426763
 20
-13.70591556211194
 30
0.0
 10
39.4119070500268
 20
-13.6142026715469
 30
0.0
 10
39.48926498669905
 20
-13.5223438660185
 30
0.0
 10
39.5668560300586
 20
-13.43031079320493
 30
0.0
 10
39.61867225857219
 20
-13.36890226946322
 30
0.0
 10
39.64462201256834
 20
-13.33816466531334
 30
0.0
 11
37.91345340673331
 21
-15.40369226532277
 31
0.0
 11
37.99867249063209
 21
-15.30206107879763
 31
0.0
 11
38.09675056749052
 21
-15.18504269589073
 31
0.0
 11
38.19457805600212
 21
-15.06826251301368
 31
0.0
 11
38.29218541917283
 21
-14.95167906496812
 31
0.0
 11
38.38960558592948
 21
-14.83525401481313
 31
0.0
 11
38.51695348726082
 21
-14.68297153200751
 31
0.0
 11
38.644125306489
 21
-14.53082553292006
 31
0.0
 11
38.77121709091557
 21
-14.37874945434629
 31
0.0
 11
38.86828398063159
 21
-14.26262512525795
 31
0.0
 11
38.96542180455901
 21
-14.14647406860473
 31
0.0
 11
39.0626833648156
 21
-14.03026685007955
 31
0.0
 11
39.16012189881468
 21
-13.91397382772669
 31
0.0
 11
39.25779236311752
 21
-13.79756014617635
 31
0.0
 11
39.33472866035095
 21
-13.7059788962714
 31
0.0
 11
39.41186136622088
 21
-13.61427436261812
 31
0.0
 11
39.48921170953361
 21
-13.52242260513395
 31
0.0
 11
39.56679421046909
 21
-13.43039560014853
 31
0.0
 11
39.64462201256834
 21
-13.33816466531334
 31
0.0
  0
SPLINE
  5
1A8
330
2
100
AcDbEntity
  8
GAIKEI
  6
Continuous
 62
     7
100
AcDbSpline
210
0.0
220
0.0
230
1.0
 70
     8
 71
     3
 72
     9
 73
     5
 74
     3
 42
0.0000000001
 43
0.0000000001
 44
0.000001
 12
0.0384362357486041
 22
-0.9992610548707869
 32
0.0
 13
-0.0923148581174367
 23
-0.995729866465176
 33
0.0
 40
0.0
 40
0.0
 40
0.0
 40
0.0
 40
0.0028425387675167
 40
0.0039161070031314
 40
0.0039161070031314
 40
0.0039161070031314
 40
0.0039161070031314
 10
37.80867122525854
 20
-16.62236828313712
 30
0.0
 10
37.8087076440886
 20
-16.62331509589957
 30
0.0
 10
37.80869590095262
 20
-16.62462307365839
 30
0.0
 10
37.80859883000827
 20
-16.62592497370388
 30
0.0
 10
37.80856579457515
 20
-16.62628130168917
 30
0.0
 11
37.80867122525854
 21
-16.62236828313712
 31
0.0
 11
37.80864570086738
 21
-16.62521085786994
 31
0.0
 11
37.80856579457515
 21
-16.62628130168917
 31
0.0
  0
SPLINE
  5
1A9
330
2
100
AcDbEntity
  8
GAIKEI
  6
Continuous
 62
     7
100
AcDbSpline
210
0.0
220
0.0
230
1.0
 70
     8
 71
     3
 72
    14
 73
    10
 74
     8
 42
0.0000000001
 43
0.0000000001
 44
0.000001
 12
0.1947808622282301
 22
0.9808467850330282
 32
0.0
 13
0.0153479363363905
 23
0.9998822134882757
 33
0.0
 40
0.0
 40
0.0
 40
0.0
 40
0.0
 40
0.0013591386716992
 40
0.0035651883618917
 40
0.0052671280297612
 40
0.006666679763429
 40
0.0078708380490388
 40
0.0090561891698571
 40
0.0104212077209439
 40
0.0104212077209439
 40
0.0104212077209439
 40
0.0104212077209439
 10
37.8076077511767
 20
-16.63584768111246
 30
0.0
 10
37.80769599591082
 20
-16.63540331218028
 30
0.0
 10
37.8079102260727
 20
-16.63423423831951
 30
0.0
 10
37.8081691472517
 20
-16.63249715197524
 30
0.0
 10
37.80836223311272
 20
-16.63073822171643
 30
0.0
 10
37.8084771313429
 20
-16.62930745984217
 30
0.0
 10
37.80854936115492
 20
-16.62804641066297
 30
0.0
 10
37.80859628103929
 20
-16.62679574013803
 30
0.0
 10
37.80861799014505
 20
-16.62594585335384
 30
0.0
 10
37.80862497355099
 20
-16.62549090076374
 30
0.0
 11
37.8076077511767
 21
-16.63584768111246
 31
0.0
 11
37.80785467090209
 21
-16.63451093717805
 31
0.0
 11
37.80817901383449
 21
-16.63232884756928
 31
0.0
 11
37.80836517866499
 21
-16.63063711720463
 31
0.0
 11
37.80847760899979
 21
-16.62924208071064
 31
0.0
 11
37.80854673213622
 21
-16.62803989053475
 31
0.0
 11
37.80859282668155
 21
-16.62685535163041
 31
0.0
 11
37.80862497355099
 21
-16.62549090076374
 31
0.0
  0
LINE
  5
1AA
330
2
100
AcDbEntity
  8
GAIKEI
  6
Continuous
 62
     1
100
AcDbLine
 10
38.19518715918121
 20
17.90959051804083
 30
0.0
 11
39.39985200918119
 21
17.86752271804084
 31
0.0
  0
LINE
  5
1AB
330
2
100
AcDbEntity
  8
GAIKEI
  6
Continuous
 62
     1
100
AcDbLine
 10
39.05515560918122
 20
17.62975021804084
 30
0.0
 11
38.41055925918118
 21
17.6522600180408
 31
0.0
  0
LINE
  5
1AC
330
2
100
AcDbEntity
  8
GAIKEI
  6
Continuous
 62
     1
100
AcDbLine
 10
39.39985200918119
 20
17.86752271804084
 30
0.0
 11
39.62941950918116
 21
16.19823876804082
 31
0.0
  0
LINE
  5
1AD
330
2
100
AcDbEntity
  8
GAIKEI
  6
Continuous
 62
     1
100
AcDbLine
 10
39.89324395918118
 20
15.86881031804086
 30
0.0
 11
39.64049930918122
 21
17.70662501804088
 31
0.0
  0
LINE
  5
1AE
330
2
100
AcDbEntity
  8
GAIKEI
  6
Continuous
 62
     1
100
AcDbLine
 10
39.32911835918117
 20
16.57062251804086
 30
0.0
 11
39.22029040918119
 21
17.36195701804081
 31
0.0
  0
LINE
  5
1AF
330
2
100
AcDbEntity
  8
GAIKEI
  6
Continuous
 62
     1
100
AcDbLine
 10
37.86366260918118
 20
18.32321261804082
 30
0.0
 11
37.8629359091812
 21
18.31982141804087
 31
0.0
  0
LINE
  5
1B0
330
2
100
AcDbEntity
  8
GAIKEI
  6
Continuous
 62
     1
100
AcDbLine
 10
39.36724080918123
 20
18.00101726804087
 30
0.0
 11
37.86366260918118
 21
18.32321261804082
 31
0.0
  0
ARC
  5
1B1
330
2
100
AcDbEntity
  8
GAIKEI
  6
Continuous
 62
     1
100
AcDbCircle
 10
39.29397550918123
 20
17.65899446804087
 30
0.0
 40
0.34978195
100
AcDbArc
 50
7.826403999997514
 51
77.90929700000479
  0
ARC
  5
1B2
330
2
100
AcDbEntity
  8
GAIKEI
  6
Continuous
 62
     1
100
AcDbCircle
 10
37.85318615918118
 20
18.27432246804085
 30
0.0
 40
0.05
100
AcDbArc
 50
77.90524300000484
 51
81.20675999999384
  0
ELLIPSE
  5
1B3
330
2
100
AcDbEntity
  8
GAIKEI
  6
Continuous
 62
     1
100
AcDbEllipse
 10
39.0499278591812
 20
17.48004701804086
 30
0.0
 11
-0.1113231012696504
 21
0.100534407660774
 31
0.0
210
0.0
220
0.0
230
1.0
 40
0.997662000000159
 41
4.013930599304742
 42
5.410847361485449
  0
LINE
  5
1B4
330
2
100
AcDbEntity
  8
GAIKEI
  6
Continuous
 62
     1
100
AcDbLine
 10
37.91762255918121
 20
-16.03273643195916
 30
0.0
 11
37.91762255918121
 21
-16.01897118195916
 31
0.0
  0
LINE
  5
1B5
330
2
100
AcDbEntity
  8
GAIKEI
  6
Continuous
 62
     1
100
AcDbLine
 10
37.91762255918121
 20
-16.01897118195916
 30
0.0
 11
37.88589345918121
 21
-16.01897118195916
 31
0.0
  0
ARC
  5
1B6
330
2
100
AcDbEntity
  8
GAIKEI
  6
Continuous
 62
     1
100
AcDbCircle
 10
37.91762255918121
 20
-16.08397118195916
 30
0.0
 40
0.065
100
AcDbArc
 50
16.60154999999833
 51
90.0
  0
ARC
  5
1B7
330
2
100
AcDbEntity
  8
GAIKEI
  6
Continuous
 62
     1
100
AcDbCircle
 10
37.91762255918121
 20
-16.30397118195913
 30
0.0
 40
0.065
100
AcDbArc
 50
299.0713460000007
 51
343.3984500000017
  0
ARC
  5
1B8
330
2
100
AcDbEntity
  8
GAIKEI
  6
Continuous
 62
     1
100
AcDbCircle
 10
37.54867135918118
 20
-16.19397118195917
 30
0.0
 40
0.45
100
AcDbArc
 50
343.3984500000017
 51
0.0
  0
ARC
  5
1B9
330
2
100
AcDbEntity
  8
GAIKEI
  6
Continuous
 62
     1
100
AcDbCircle
 10
37.54867135918118
 20
-16.19397118195917
 30
0.0
 40
0.45
100
AcDbArc
 50
0.0
 51
16.60154999999833
  0
LINE
  5
1BA
330
2
100
AcDbEntity
  8
GAIKEI
  6
Continuous
 62
     1
100
AcDbLine
 10
37.87762255918119
 20
-16.01897118195916
 30
0.0
 11
37.8461713591812
 21
-16.01897118195916
 31
0.0
  0
LINE
  5
1BB
330
2
100
AcDbEntity
  8
GAIKEI
  6
Continuous
 62
     1
100
AcDbLine
 10
37.8461713591812
 20
-16.36897118195912
 30
0.0
 11
37.87762255918119
 21
-16.36897118195912
 31
0.0
  0
ARC
  5
1BC
330
2
100
AcDbEntity
  8
GAIKEI
  6
Continuous
 62
     1
100
AcDbCircle
 10
37.87762255918119
 20
-16.08397118195916
 30
0.0
 40
0.065
100
AcDbArc
 50
16.60154999999833
 51
90.0
  0
ARC
  5
1BD
330
2
100
AcDbEntity
  8
GAIKEI
  6
Continuous
 62
     1
100
AcDbCircle
 10
37.87762255918119
 20
-16.30397118195913
 30
0.0
 40
0.065
100
AcDbArc
 50
270.0
 51
343.3984500000017
  0
ARC
  5
1BE
330
2
100
AcDbEntity
  8
GAIKEI
  6
Continuous
 62
     1
100
AcDbCircle
 10
37.50867135918122
 20
-16.19397118195917
 30
0.0
 40
0.45
100
AcDbArc
 50
343.3984500000017
 51
0.0
  0
ARC
  5
1BF
330
2
100
AcDbEntity
  8
GAIKEI
  6
Continuous
 62
     1
100
AcDbCircle
 10
37.50867135918122
 20
-16.19397118195917
 30
0.0
 40
0.45
100
AcDbArc
 50
0.0
 51
16.60154999999833
  0
LINE
  5
1C0
330
2
100
AcDbEntity
  8
GAIKEI
  6
Continuous
 62
     1
100
AcDbLine
 10
37.87762255918119
 20
19.26852881804086
 30
0.0
 11
37.8461713591812
 21
19.26852881804086
 31
0.0
  0
LINE
  5
1C1
330
2
100
AcDbEntity
  8
GAIKEI
  6
Continuous
 62
     1
100
AcDbLine
 10
37.8461713591812
 20
18.91852881804084
 30
0.0
 11
37.87762255918119
 21
18.91852881804084
 31
0.0
  0
ARC
  5
1C2
330
2
100
AcDbEntity
  8
GAIKEI
  6
Continuous
 62
     1
100
AcDbCircle
 10
37.87762255918119
 20
19.20352881804081
 30
0.0
 40
0.065
100
AcDbArc
 50
16.60154999999833
 51
90.0
  0
ARC
  5
1C3
330
2
100
AcDbEntity
  8
GAIKEI
  6
Continuous
 62
     1
100
AcDbCircle
 10
37.87762255918119
 20
18.98352881804084
 30
0.0
 40
0.065
100
AcDbArc
 50
270.0
 51
343.3984500000017
  0
ARC
  5
1C4
330
2
100
AcDbEntity
  8
GAIKEI
  6
Continuous
 62
     1
100
AcDbCircle
 10
37.50867135918122
 20
19.09352881804085
 30
0.0
 40
0.45
100
AcDbArc
 50
343.3984500000017
 51
0.0
  0
ARC
  5
1C5
330
2
100
AcDbEntity
  8
GAIKEI
  6
Continuous
 62
     1
100
AcDbCircle
 10
37.50867135918122
 20
19.09352881804085
 30
0.0
 40
0.45
100
AcDbArc
 50
0.0
 51
16.60154999999833
  0
LINE
  5
1C6
330
2
100
AcDbEntity
  8
GAIKEI
  6
Continuous
 62
     1
100
AcDbLine
 10
37.93991305918121
 20
-16.39754263195914
 30
0.0
 11
37.93991305918121
 21
-16.32254263195915
 31
0.0
  0
LINE
  5
1C7
330
2
100
AcDbEntity
  8
GAIKEI
  6
Continuous
 62
     1
100
AcDbLine
 10
37.87762255918119
 20
-16.44397118195917
 30
0.0
 11
37.87762255918119
 21
-16.36897118195912
 31
0.0
  0
LINE
  5
1C8
330
2
100
AcDbEntity
  8
GAIKEI
  6
Continuous
 62
     1
100
AcDbLine
 10
37.8461713591812
 20
-16.44397118195917
 30
0.0
 11
37.87762255918119
 21
-16.44397118195917
 31
0.0
  0
ARC
  5
1C9
330
2
100
AcDbEntity
  8
GAIKEI
  6
Continuous
 62
     1
100
AcDbCircle
 10
37.87762255918119
 20
-16.37897118195911
 30
0.0
 40
0.065
100
AcDbArc
 50
270.0
 51
343.3984500000017
  0
ARC
  5
1CA
330
2
100
AcDbEntity
  8
GAIKEI
  6
Continuous
 62
     1
100
AcDbCircle
 10
37.50867135918122
 20
-16.26897118195916
 30
0.0
 40
0.45
100
AcDbArc
 50
343.3984500000017
 51
0.0
  0
ARC
  5
1CB
330
2
100
AcDbEntity
  8
GAIKEI
  6
Continuous
 62
     1
100
AcDbCircle
 10
37.50867135918122
 20
-16.26897118195916
 30
0.0
 40
0.45
100
AcDbArc
 50
0.0
 51
4.780191999998843
  0
ARC
  5
1CC
330
2
100
AcDbEntity
  8
GAIKEI
  6
Continuous
 62
     1
100
AcDbCircle
 10
37.80667600918122
 20
-15.78498713195915
 30
0.0
 40
0.05
100
AcDbArc
 50
16.25702800000192
 51
37.82319200000003
  0
ARC
  5
1CD
330
2
100
AcDbEntity
  8
GAIKEI
  6
Continuous
 62
     1
100
AcDbCircle
 10
37.84667600918118
 20
-15.81998713195918
 30
0.0
 40
0.05
100
AcDbArc
 50
16.25702800000192
 51
80.92142900000551
  0
ARC
  5
1CE
330
2
100
AcDbEntity
  8
GAIKEI
  6
Continuous
 62
     1
100
AcDbCircle
 10
37.84667600918118
 20
-15.98795523195912
 30
0.0
 40
0.05
100
AcDbArc
 50
320.9555469999992
 51
343.7429719999981
  0
ARC
  5
1CF
330
2
100
AcDbEntity
  8
GAIKEI
  6
Continuous
 62
     1
100
AcDbCircle
 10
37.55867135918118
 20
-15.90397118195915
 30
0.0
 40
0.35
100
AcDbArc
 50
343.7429719999981
 51
0.0
  0
ARC
  5
1D0
330
2
100
AcDbEntity
  8
GAIKEI
  6
Continuous
 62
     1
100
AcDbCircle
 10
37.55867135918118
 20
-15.90397118195915
 30
0.0
 40
0.35
100
AcDbArc
 50
0.0
 51
16.25702800000192
  0
LINE
  5
1D1
330
2
100
AcDbEntity
  8
GAIKEI
  6
Continuous
 62
     1
100
AcDbLine
 10
40.00867135918122
 20
-11.25647118195917
 30
0.0
 11
40.05103380918121
 21
-11.25276493195912
 31
0.0
  0
LINE
  5
1D2
330
2
100
AcDbEntity
  8
GAIKEI
  6
Continuous
 62
     1
100
AcDbLine
 10
40.05103380918121
 20
-10.98517743195913
 30
0.0
 11
40.00867135918122
 21
-10.98147118195913
 31
0.0
  0
LINE
  5
1D3
330
2
100
AcDbEntity
  8
GAIKEI
  6
Continuous
 62
     1
100
AcDbLine
 10
39.99867135918118
 20
-11.25397118195911
 30
0.0
 11
40.00867135918122
 21
-11.25397118195911
 31
0.0
  0
LINE
  5
1D4
330
2
100
AcDbEntity
  8
GAIKEI
  6
Continuous
 62
     1
100
AcDbLine
 10
40.00867135918122
 20
-10.98397118195913
 30
0.0
 11
39.99867135918118
 21
-10.98397118195913
 31
0.0
  0
ARC
  5
1D5
330
2
100
AcDbEntity
  8
GAIKEI
  6
Continuous
 62
     1
100
AcDbCircle
 10
40.04667600918117
 20
-11.03498713195915
 30
0.0
 40
0.05
100
AcDbArc
 50
16.25702800000192
 51
84.99999900000409
  0
ARC
  5
1D6
330
2
100
AcDbEntity
  8
GAIKEI
  6
Continuous
 62
     1
100
AcDbCircle
 10
40.04667600918117
 20
-11.20295523195915
 30
0.0
 40
0.05
100
AcDbArc
 50
275.0000009999959
 51
343.7429719999981
  0
ARC
  5
1D7
330
2
100
AcDbEntity
  8
GAIKEI
  6
Continuous
 62
     1
100
AcDbCircle
 10
39.75867135918122
 20
-11.11897118195912
 30
0.0
 40
0.35
100
AcDbArc
 50
343.7429719999981
 51
0.0
  0
ARC
  5
1D8
330
2
100
AcDbEntity
  8
GAIKEI
  6
Continuous
 62
     1
100
AcDbCircle
 10
39.75867135918122
 20
-11.11897118195912
 30
0.0
 40
0.35
100
AcDbArc
 50
0.0
 51
16.25702800000192
  0
LINE
  5
1D9
330
2
100
AcDbEntity
  8
GAIKEI
  6
Continuous
 62
     1
100
AcDbLine
 10
39.9736713591812
 20
-13.26897118195916
 30
0.0
 11
39.9736713591812
 21
-12.83089438195913
 31
0.0
  0
LINE
  5
1DA
330
2
100
AcDbEntity
  8
GAIKEI
  6
Continuous
 62
     1
100
AcDbLine
 10
39.94867135918116
 20
-13.26897118195916
 30
0.0
 11
39.9736713591812
 21
-13.26897118195916
 31
0.0
  0
LINE
  5
1DB
330
2
100
AcDbEntity
  8
GAIKEI
  6
Continuous
 62
     1
100
AcDbLine
 10
40.00867135918122
 20
-13.15647118195915
 30
0.0
 11
40.05103380918121
 21
-13.15276493195915
 31
0.0
  0
LINE
  5
1DC
330
2
100
AcDbEntity
  8
GAIKEI
  6
Continuous
 62
     1
100
AcDbLine
 10
40.05103380918121
 20
-12.88517743195916
 30
0.0
 11
39.9736713591812
 21
-12.87840906562735
 31
0.0
  0
LINE
  5
1DD
330
2
100
AcDbEntity
  8
GAIKEI
  6
Continuous
 62
     1
100
AcDbLine
 10
39.9736713591812
 20
-13.15397118195915
 30
0.0
 11
40.00867135918122
 21
-13.15397118195915
 31
0.0
  0
ARC
  5
1DE
330
2
100
AcDbEntity
  8
GAIKEI
  6
Continuous
 62
     1
100
AcDbCircle
 10
40.04667600918117
 20
-12.93498713195913
 30
0.0
 40
0.05
100
AcDbArc
 50
16.25702800000192
 51
84.99999900000409
  0
ARC
  5
1DF
330
2
100
AcDbEntity
  8
GAIKEI
  6
Continuous
 62
     1
100
AcDbCircle
 10
40.04667600918117
 20
-13.10295523195913
 30
0.0
 40
0.05
100
AcDbArc
 50
275.0000009999959
 51
343.7429719999981
  0
ARC
  5
1E0
330
2
100
AcDbEntity
  8
GAIKEI
  6
Continuous
 62
     1
100
AcDbCircle
 10
39.75867135918122
 20
-13.01897118195916
 30
0.0
 40
0.35
100
AcDbArc
 50
343.7429719999981
 51
0.0
  0
ARC
  5
1E1
330
2
100
AcDbEntity
  8
GAIKEI
  6
Continuous
 62
     1
100
AcDbCircle
 10
39.75867135918122
 20
-13.01897118195916
 30
0.0
 40
0.35
100
AcDbArc
 50
0.0
 51
16.25702800000192
  0
ARC
  5
1E2
330
2
100
AcDbEntity
  8
GAIKEI
  6
Continuous
 62
     1
100
AcDbCircle
 10
37.80667600918122
 20
-16.35295523195913
 30
0.0
 40
0.05
100
AcDbArc
 50
322.1768079999999
 51
341.3177600000024
  0
LINE
  5
1E3
330
2
100
AcDbEntity
  8
GAIKEI
  6
Continuous
 62
     1
100
AcDbLine
 10
39.5526272091812
 20
-13.44720023195913
 30
0.0
 11
39.5526272091812
 21
-13.67174138195918
 31
0.0
  0
LINE
  5
1E4
330
2
100
AcDbEntity
  8
GAIKEI
  6
Continuous
 62
     1
100
AcDbLine
 10
38.06013525918121
 20
18.38132286804085
 30
0.0
 11
37.90669345918121
 21
18.41393791804086
 31
0.0
  0
LINE
  5
1E5
330
2
100
AcDbEntity
  8
GAIKEI
  6
Continuous
 62
     1
100
AcDbLine
 10
38.38819700918122
 20
-14.83693738195916
 30
0.0
 11
39.78417640918122
 21
-14.32884243195912
 31
0.0
  0
LINE
  5
1E6
330
2
100
AcDbEntity
  8
GAIKEI
  6
Continuous
 62
     1
100
AcDbLine
 10
39.94867135918116
 20
-14.00769293195918
 30
0.0
 11
39.94867135918116
 21
-12.91189253195915
 31
0.0
  0
LINE
  5
1E7
330
2
100
AcDbEntity
  8
GAIKEI
  6
Continuous
 62
     7
100
AcDbLine
 10
39.99873835918118
 20
1.136641493181798
 30
0.0
 11
39.99873835918118
 21
-3.240408756818169
 31
0.0
  0
LINE
  5
1E8
330
2
100
AcDbEntity
  8
GAIKEI
  6
Continuous
 62
     7
100
AcDbLine
 10
39.99873835918118
 20
-3.240408756818169
 30
0.0
 11
39.99873835918118
 21
-10.30834153195911
 31
0.0
  0
LINE
  5
1E9
330
2
100
AcDbEntity
  8
GAIKEI
  6
Continuous
 62
     1
100
AcDbLine
 10
39.99873835918118
 20
-10.30834153195911
 30
0.0
 11
39.99867135918118
 21
-10.30839778195917
 31
0.0
  0
LINE
  5
1EA
330
2
100
AcDbEntity
  8
GAIKEI
  6
Continuous
 62
     1
100
AcDbLine
 10
39.94867135918116
 20
-14.09391928195913
 30
0.0
 11
39.94867135918116
 21
-14.00769293195918
 31
0.0
  0
LINE
  5
1EB
330
2
100
AcDbEntity
  8
GAIKEI
  6
Continuous
 62
     1
100
AcDbLine
 10
38.1034228591812
 20
18.37212176804087
 30
0.0
 11
38.0596990091812
 21
18.38141556804083
 31
0.0
  0
LINE
  5
1EC
330
2
100
AcDbEntity
  8
GAIKEI
  6
Continuous
 62
     1
100
AcDbLine
 10
39.45494475918122
 20
18.08484696804083
 30
0.0
 11
39.45869625918118
 21
18.08379731804086
 31
0.0
  0
LINE
  5
1ED
330
2
100
AcDbEntity
  8
GAIKEI
  6
Continuous
 62
     1
100
AcDbLine
 10
39.45494475918122
 20
18.08484696804083
 30
0.0
 11
38.1034228591812
 21
18.37212176804087
 31
0.0
  0
LINE
  5
1EE
330
2
100
AcDbEntity
  8
GAIKEI
  6
Continuous
 62
     1
100
AcDbLine
 10
39.45933160918116
 20
18.08387321804082
 30
0.0
 11
39.45862610918118
 21
18.08382806804081
 31
0.0
  0
LINE
  5
1EF
330
2
100
AcDbEntity
  8
GAIKEI
  6
Continuous
 62
     1
100
AcDbLine
 10
39.74095005918122
 20
17.23175856804084
 30
0.0
 11
39.65053385918123
 21
17.87510331804083
 31
0.0
  0
LINE
  5
1F0
330
2
100
AcDbEntity
  8
GAIKEI
  6
Continuous
 62
     1
100
AcDbLine
 10
39.94861415918121
 20
15.75415201804083
 30
0.0
 11
39.74095005918122
 21
17.23175856804084
 31
0.0
  0
LINE
  5
1F1
330
2
100
AcDbEntity
  8
GAIKEI
  6
Continuous
 62
     1
100
AcDbLine
 10
40.00117135918117
 20
-10.35496628195915
 30
0.0
 11
40.00117135918117
 21
-10.32072818195917
 31
0.0
  0
LINE
  5
1F2
330
2
100
AcDbEntity
  8
GAIKEI
  6
Continuous
 62
     1
100
AcDbLine
 10
39.94867135918116
 20
-13.81897118195917
 30
0.0
 11
39.94867135918116
 21
-13.66897118195913
 31
0.0
  0
LINE
  5
1F3
330
2
100
AcDbEntity
  8
GAIKEI
  6
Continuous
 62
     1
100
AcDbLine
 10
39.94867135918116
 20
-13.81897118195917
 30
0.0
 11
39.94867135918116
 21
-13.86897118195912
 31
0.0
  0
LINE
  5
1F4
330
2
100
AcDbEntity
  8
GAIKEI
  6
Continuous
 62
     1
100
AcDbLine
 10
38.02089885918121
 20
-15.49510803195915
 30
0.0
 11
38.05058735918118
 21
-15.49355213195912
 31
0.0
  0
LINE
  5
1F5
330
2
100
AcDbEntity
  8
GAIKEI
  6
Continuous
 62
     1
100
AcDbLine
 10
38.05058735918118
 20
-15.49355213195912
 30
0.0
 11
39.29126450918119
 21
-15.42853098195911
 31
0.0
  0
LINE
  5
1F6
330
2
100
AcDbEntity
  8
GAIKEI
  6
Continuous
 62
     1
100
AcDbLine
 10
40.00117135918117
 20
13.34818611804087
 30
0.0
 11
40.00117135918117
 21
13.81722031804088
 31
0.0
  0
LINE
  5
1F7
330
2
100
AcDbEntity
  8
GAIKEI
  6
Continuous
 62
     1
100
AcDbLine
 10
37.94558735918122
 20
-15.49905493195916
 30
0.0
 11
38.02089885918121
 21
-15.49510803195915
 31
0.0
  0
LINE
  5
1F8
330
2
100
AcDbEntity
  8
GAIKEI
  6
Continuous
 62
     1
100
AcDbLine
 10
39.83617135918121
 20
-14.85431898195912
 30
0.0
 11
39.83617135918121
 21
-14.46897118195909
 31
0.0
  0
LINE
  5
1F9
330
2
100
AcDbEntity
  8
GAIKEI
  6
Continuous
 62
     1
100
AcDbLine
 10
40.00117135918117
 20
-4.99869810681821
 30
0.0
 11
40.00117135918117
 21
-4.99863165681819
 31
0.0
  0
LINE
  5
1FA
330
2
100
AcDbEntity
  8
GAIKEI
  6
Continuous
 62
     1
100
AcDbLine
 10
40.00117135918117
 20
-5.628575956818167
 30
0.0
 11
40.00117135918117
 21
-4.99869810681821
 31
0.0
  0
LINE
  5
1FB
330
2
100
AcDbEntity
  8
GAIKEI
  6
Continuous
 62
     1
100
AcDbLine
 10
40.00117135918117
 20
-10.34670443195915
 30
0.0
 11
40.00117135918117
 21
-10.18938408195913
 31
0.0
  0
LINE
  5
1FC
330
2
100
AcDbEntity
  8
GAIKEI
  6
Continuous
 62
     1
100
AcDbLine
 10
40.00117135918117
 20
-10.18938408195913
 30
0.0
 11
40.00117135918117
 21
-10.18477518195914
 31
0.0
  0
LINE
  5
1FD
330
2
100
AcDbEntity
  8
GAIKEI
  6
Continuous
 62
     1
100
AcDbLine
 10
40.00117135918117
 20
-5.639047406818178
 30
0.0
 11
40.00117135918117
 21
-5.628575956818167
 31
0.0
  0
LINE
  5
1FE
330
2
100
AcDbEntity
  8
GAIKEI
  6
Continuous
 62
     1
100
AcDbLine
 10
40.00117135918117
 20
-10.18477518195914
 30
0.0
 11
40.00117135918117
 21
-6.245709206818219
 31
0.0
  0
LINE
  5
1FF
330
2
100
AcDbEntity
  8
GAIKEI
  6
Continuous
 62
     1
100
AcDbLine
 10
40.00117135918117
 20
-5.907612906818201
 30
0.0
 11
40.00117135918117
 21
-5.639047406818178
 31
0.0
  0
LINE
  5
200
330
2
100
AcDbEntity
  8
GAIKEI
  6
Continuous
 62
     7
100
AcDbLine
 10
39.99867135918118
 20
7.389296793181813
 30
0.0
 11
39.99867135918118
 21
1.691046553104854
 31
0.0
  0
LINE
  5
201
330
2
100
AcDbEntity
  8
GAIKEI
  6
Continuous
 62
     1
100
AcDbLine
 10
40.00117135918117
 20
12.92681171804082
 30
0.0
 11
40.00117135918117
 21
13.38605716804085
 31
0.0
  0
LINE
  5
202
330
2
100
AcDbEntity
  8
GAIKEI
  6
Continuous
 62
     7
100
AcDbLine
 10
40.00117135918117
 20
7.777556043181789
 30
0.0
 11
40.00117135918117
 21
7.820676943181808
 31
0.0
  0
LINE
  5
203
330
2
100
AcDbEntity
  8
GAIKEI
  6
Continuous
 62
     1
100
AcDbLine
 10
40.00117135918117
 20
12.8836908180408
 30
0.0
 11
40.00117135918117
 21
12.92681171804082
 31
0.0
  0
LINE
  5
204
330
2
100
AcDbEntity
  8
GAIKEI
  6
Continuous
 62
     7
100
AcDbLine
 10
40.00117135918117
 20
7.945294743181818
 30
0.0
 11
40.00117135918117
 21
7.820676943181808
 31
0.0
  0
LINE
  5
205
330
2
100
AcDbEntity
  8
GAIKEI
  6
Continuous
 62
     1
100
AcDbLine
 10
40.00117135918117
 20
8.754241543181819
 30
0.0
 11
40.00117135918117
 21
7.945294743181818
 31
0.0
  0
LINE
  5
206
330
2
100
AcDbEntity
  8
GAIKEI
  6
Continuous
 62
     1
100
AcDbLine
 10
40.00117135918117
 20
-10.34670443195915
 30
0.0
 11
40.00117135918117
 21
-10.18938408195913
 31
0.0
  0
LINE
  5
207
330
2
100
AcDbEntity
  8
GAIKEI
  6
Continuous
 62
     1
100
AcDbLine
 10
40.00117135918117
 20
-10.18477518195914
 30
0.0
 11
40.00117135918117
 21
-6.245709206818219
 31
0.0
  0
LINE
  5
208
330
2
100
AcDbEntity
  8
GAIKEI
  6
Continuous
 62
     1
100
AcDbLine
 10
40.00117135918117
 20
-5.907612906818201
 30
0.0
 11
40.00117135918117
 21
-5.639047406818178
 31
0.0
  0
ARC
  5
209
330
2
100
AcDbEntity
  8
GAIKEI
  6
Continuous
 62
     1
100
AcDbCircle
 10
37.95867135918121
 20
18.65847481804087
 30
0.0
 40
0.25
100
AcDbArc
 50
243.2563159999966
 51
257.999999999997
  0
ARC
  5
20A
330
2
100
AcDbEntity
  8
GAIKEI
  6
Continuous
 62
     1
100
AcDbCircle
 10
39.69867135918116
 20
-14.09391928195913
 30
0.0
 40
0.25
100
AcDbArc
 50
290.0000000000034
 51
0.0
  0
ARC
  5
20B
330
2
100
AcDbEntity
  8
GAIKEI
  6
Continuous
 62
     1
100
AcDbCircle
 10
39.40296685918122
 20
17.84031006804082
 30
0.0
 40
0.25
100
AcDbArc
 50
8.000000000000873
 51
76.97098900000298
  0
ARC
  5
20C
330
2
100
AcDbEntity
  8
GAIKEI
  6
Continuous
 62
     1
100
AcDbCircle
 10
39.8511713591812
 20
-10.35496628195915
 30
0.0
 40
0.15
100
AcDbArc
 50
349.524713000003
 51
0.0
  0
ARC
  5
20D
330
2
100
AcDbEntity
  8
GAIKEI
  6
Continuous
 62
     1
100
AcDbCircle
 10
39.8511713591812
 20
-10.35498103195914
 30
0.0
 40
0.15
100
AcDbArc
 50
349.5246860000031
 51
0.0
  0
ARC
  5
20E
330
2
100
AcDbEntity
  8
GAIKEI
  6
Continuous
 62
     1
100
AcDbCircle
 10
39.40296685918122
 20
17.84031006804082
 30
0.0
 40
0.25
100
AcDbArc
 50
8.000000000000873
 51
9.618225999999451
  0
ARC
  5
20F
330
2
100
AcDbEntity
  8
GAIKEI
  6
Continuous
 62
     1
100
AcDbCircle
 10
37.95867135918121
 20
-15.74871233195915
 30
0.0
 40
0.25
100
AcDbArc
 50
93.00000000000558
 51
101.6320760000017
  0
ARC
  5
210
330
2
100
AcDbEntity
  8
GAIKEI
  6
Continuous
 62
     1
100
AcDbCircle
 10
39.26117135918116
 20
-14.85431898195912
 30
0.0
 40
0.5750000000000001
100
AcDbArc
 50
273.0000000000056
 51
0.0
  0
ARC
  5
211
330
2
100
AcDbEntity
  8
GAIKEI
  6
Continuous
 62
     1
100
AcDbCircle
 10
39.26295635918121
 20
-14.85722023195916
 30
0.0
 40
0.57159935
100
AcDbArc
 50
298.277253
 51
304.9271009999994
  0
ELLIPSE
  5
212
330
2
100
AcDbEntity
  8
GAIKEI
  6
Continuous
 62
     1
100
AcDbEllipse
 10
39.69867135918122
 20
-13.56183043195915
 30
0.0
 11
-0.0848044079948102
 21
0.767177052496921
 31
0.0
210
0.0
220
0.0
230
1.0
 40
0.0616449999999753
 41
3.15661004303882
 42
3.73389512968818
  0
ELLIPSE
  5
213
330
2
100
AcDbEntity
  8
GAIKEI
  6
Continuous
 62
     1
100
AcDbEllipse
 10
39.75117135918123
 20
-10.30834153195911
 30
0.0
 11
-0.2210674003015577
 21
0.1217678606273331
 31
0.0
210
0.0
220
0.0
230
1.0
 40
0.9249590000073467
 41
3.542915323544484
 42
3.678700396373161
  0
ELLIPSE
  5
214
330
2
100
AcDbEntity
  8
GAIKEI
  6
Continuous
 62
     1
100
AcDbEllipse
 10
39.75117135918123
 20
-10.30834153195911
 30
0.0
 11
-0.2499505998823104
 21
0.0141361910263936
 31
0.0
210
0.0
220
0.0
230
1.0
 40
0.3515569999918309
 41
3.161472642457675
 42
3.30109898262038
  0
ELLIPSE
  5
215
330
2
100
AcDbEntity
  8
GAIKEI
  6
Continuous
 62
     1
100
AcDbEllipse
 10
39.8511713591812
 20
-10.32072818195917
 30
0.0
 11
0.1500000000000057
 21
0.0000000000002912
 31
0.0
210
0.0
220
0.0
230
1.0
 40
0.75021000000489
 41
-0.1853190537477316
 42
-0.0000000000025875
  0
ELLIPSE
  5
216
330
2
100
AcDbEntity
  8
GAIKEI
  6
Continuous
 62
     1
100
AcDbEllipse
 10
39.26117135918122
 20
-14.85431898195912
 30
0.0
 11
-0.0300931748396614
 21
0.5742119824838828
 31
0.0
210
0.0
220
0.0
230
1.0
 40
0.7162020000000488
 41
3.141592653589866
 42
4.415633639596251
  0
LINE
  5
217
330
2
100
AcDbEntity
  8
GAIKEI
  6
Continuous
 62
     1
100
AcDbLine
 10
39.98479255918119
 20
-13.86897118195912
 30
0.0
 11
39.94867135918116
 21
-13.86897118195912
 31
0.0
  0
LINE
  5
218
330
2
100
AcDbEntity
  8
GAIKEI
  6
Continuous
 62
     1
100
AcDbLine
 10
39.98610275918122
 20
-13.86897118195912
 30
0.0
 11
39.98479255918119
 21
-13.86897118195912
 31
0.0
  0
LINE
  5
219
330
2
100
AcDbEntity
  8
GAIKEI
  6
Continuous
 62
     1
100
AcDbLine
 10
40.03617135918119
 20
-14.21446268195916
 30
0.0
 11
40.03617135918119
 21
-13.91897118195913
 31
0.0
  0
LINE
  5
21A
330
2
100
AcDbEntity
  8
GAIKEI
  6
Continuous
 62
     1
100
AcDbLine
 10
38.0889577591812
 20
-15.34257798195915
 30
0.0
 11
39.89797475918118
 21
-14.43806948195913
 31
0.0
  0
ARC
  5
21B
330
2
100
AcDbEntity
  8
GAIKEI
  6
Continuous
 62
     1
100
AcDbCircle
 10
37.97715435918121
 20
-15.11897118195912
 30
0.0
 40
0.25
100
AcDbArc
 50
262.4671324998627
 51
296.5650509999959
  0
ARC
  5
21C
330
2
100
AcDbEntity
  8
GAIKEI
  6
Continuous
 62
     1
100
AcDbCircle
 10
39.7861713591812
 20
-14.21446268195916
 30
0.0
 40
0.25
100
AcDbArc
 50
296.5650509999959
 51
0.0
  0
ELLIPSE
  5
21D
330
2
100
AcDbEntity
  8
GAIKEI
  6
Continuous
 62
     1
100
AcDbEllipse
 10
39.98610275918122
 20
-13.91897118195913
 30
0.0
 11
0.0500686172998996
 21
0.0000000000052936
 31
0.0
210
0.0
220
0.0
230
1.0
 40
0.9986299999999392
 41
-0.0000000001058715
 42
1.570796326689314
  0
LINE
  5
21E
330
2
100
AcDbEntity
  8
GAIKEI
  6
Continuous
 62
     7
100
AcDbLine
 10
40.0247925591812
 20
-11.76897118195916
 30
0.0
 11
39.99867135918118
 21
-11.76897118195916
 31
0.0
  0
LINE
  5
21F
330
2
100
AcDbEntity
  8
GAIKEI
  6
Continuous
 62
     7
100
AcDbLine
 10
40.02610275918118
 20
-11.76897118195916
 30
0.0
 11
40.0247925591812
 21
-11.76897118195916
 31
0.0
  0
LINE
  5
220
330
2
100
AcDbEntity
  8
GAIKEI
  6
Continuous
 62
     1
100
AcDbLine
 10
40.07617135918121
 20
-12.11446268195914
 30
0.0
 11
40.07617135918121
 21
-11.81897118195917
 31
0.0
  0
ARC
  5
221
330
2
100
AcDbEntity
  8
GAIKEI
  6
Continuous
 62
     1
100
AcDbCircle
 10
39.82617135918122
 20
-12.11446268195914
 30
0.0
 40
0.25
100
AcDbArc
 50
311.1369879999968
 51
0.0
  0
ELLIPSE
  5
222
330
2
100
AcDbEntity
  8
GAIKEI
  6
Continuous
 62
     1
100
AcDbEllipse
 10
40.02610275918118
 20
-11.81897118195917
 30
0.0
 11
0.0500686172998997
 21
0.0000000000078924
 31
0.0
210
0.0
220
0.0
230
1.0
 40
0.9986299999997967
 41
-0.0000000001578486
 42
1.57079632663748
  0
LINE
  5
223
330
2
100
AcDbEntity
  8
GAIKEI
  6
Continuous
 62
     1
100
AcDbLine
 10
38.01648065918119
 20
-15.60662073195914
 30
0.0
 11
38.89388805918122
 21
-15.56063773195916
 31
0.0
  0
LINE
  5
224
330
2
100
AcDbEntity
  8
GAIKEI
  6
Continuous
 62
     1
100
AcDbLine
 10
39.53142345918121
 20
-15.48064993195913
 30
0.0
 11
39.5335166591812
 21
-15.36073093195915
 31
0.0
  0
LINE
  5
225
330
2
100
AcDbEntity
  8
GAIKEI
  6
Continuous
 62
     1
100
AcDbLine
 10
38.89388805918122
 20
-15.56063773195916
 30
0.0
 11
39.4840478591812
 21
-15.52970878195913
 31
0.0
  0
LINE
  5
226
330
2
100
AcDbEntity
  8
GAIKEI
  6
Continuous
 62
     1
100
AcDbLine
 10
38.01648065918119
 20
-15.60662073195914
 30
0.0
 11
39.02055715918118
 21
-15.55399928195913
 31
0.0
  0
ARC
  5
227
330
2
100
AcDbEntity
  8
GAIKEI
  6
Continuous
 62
     1
100
AcDbCircle
 10
38.0295646091812
 20
-15.85627808195915
 30
0.0
 40
0.25
100
AcDbArc
 50
93.00000000000558
 51
137.1867790000003
  0
ARC
  5
228
330
2
100
AcDbEntity
  8
GAIKEI
  6
Continuous
 62
     1
100
AcDbCircle
 10
39.4814310591812
 20
-15.47977728195911
 30
0.0
 40
0.05
100
AcDbArc
 50
273.0000000000056
 51
358.9999999999982
  0
LINE
  5
229
330
2
100
AcDbEntity
  8
GAIKEI
  6
Continuous
 62
     7
100
AcDbLine
 10
36.76320315918122
 20
-16.67318723195916
 30
0.0
 11
36.76749670918122
 21
-16.67321233195918
 31
0.0
  0
LINE
  5
22A
330
2
100
AcDbEntity
  8
GAIKEI
  6
Continuous
 62
     7
100
AcDbLine
 10
36.76320315918122
 20
-16.67318723195916
 30
0.0
 11
36.7622100591812
 21
-16.67308548195916
 31
0.0
  0
LINE
  5
22B
330
2
100
AcDbEntity
  8
GAIKEI
  6
Continuous
 62
     7
100
AcDbLine
 10
35.89770675918118
 20
-16.58452108195916
 30
0.0
 11
35.82224290918123
 21
-16.57679448195915
 31
0.0
  0
ARC
  5
22C
330
2
100
AcDbEntity
  8
GAIKEI
  6
Continuous
 62
     7
100
AcDbCircle
 10
40.24811265918117
 20
1168.14860761804
 30
0.0
 40
1184.8274414
100
AcDbArc
 50
269.8696709999958
 51
269.8794839999994
  0
ARC
  5
22D
330
2
100
AcDbEntity
  8
GAIKEI
  6
Continuous
 62
     7
100
AcDbCircle
 10
-801.065673890819
 20
-8190.700784281958
 30
0.0
 40
8216.853679149998
100
AcDbArc
 50
84.14769000000196
 51
84.15359199999754
  0
ARC
  5
22E
330
2
100
AcDbEntity
  8
GAIKEI
  6
Continuous
 62
     7
100
AcDbCircle
 10
-795.7976607908189
 20
8142.129978318042
 30
0.0
 40
8165.171627100001
100
AcDbArc
 50
275.8472929999958
 51
275.8523220000004
  0
ELLIPSE
  5
22F
330
2
100
AcDbEntity
  8
GAIKEI
  6
Continuous
 62
     7
100
AcDbEllipse
 10
37.75856665918122
 20
-16.62628128195916
 30
0.0
 11
0.0353550241816267
 21
0.0353550241816267
 31
0.0
210
0.0
220
0.0
230
1.0
 40
0.9999998118927134
 41
3.874615684312717
 42
3.973502160353997
  0
LINE
  5
230
330
2
100
AcDbEntity
  8
GAIKEI
  6
Continuous
 62
     7
100
AcDbLine
 10
36.76211985918121
 20
-16.67314193195915
 30
0.0
 11
36.76232395918118
 21
-16.67316048195914
 31
0.0
  0
LINE
  5
231
330
2
100
AcDbEntity
  8
GAIKEI
  6
Continuous
 62
     7
100
AcDbLine
 10
36.76210785918119
 20
-16.67314068195918
 30
0.0
 11
35.82225155918121
 21
-16.57679548195915
 31
0.0
  0
LINE
  5
232
330
2
100
AcDbEntity
  8
GAIKEI
  6
Continuous
 62
     7
100
AcDbLine
 10
36.76113570918119
 20
-16.67298628195914
 30
0.0
 11
36.76211985918121
 21
-16.67314193195915
 31
0.0
  0
LINE
  5
233
330
2
100
AcDbEntity
  8
GAIKEI
  6
Continuous
 62
     1
100
AcDbLine
 10
36.72512930918106
 20
19.51134243693934
 30
0.0
 11
36.72512930918117
 21
-16.46936958195914
 31
0.0
  0
LINE
  5
234
330
2
100
AcDbEntity
  8
GAIKEI
  6
Continuous
 62
     1
100
AcDbLine
 10
35.82256970918121
 20
-16.34078693195914
 30
0.0
 11
35.82256970918121
 21
19.18284456804087
 31
0.0
  0
LINE
  5
235
330
2
100
AcDbEntity
  8
GAIKEI
  6
Continuous
 62
     1
100
AcDbLine
 10
35.76292175918121
 20
19.18286756804082
 30
0.0
 11
35.76296720918117
 21
19.18290226804083
 31
0.0
  0
LINE
  5
236
330
2
100
AcDbEntity
  8
GAIKEI
  6
Continuous
 62
     1
100
AcDbLine
 10
35.76292175918121
 20
-16.34080993195914
 30
0.0
 11
35.76296720918117
 21
-16.34084463195916
 31
0.0
  0
LINE
  5
237
330
2
100
AcDbEntity
  8
GAIKEI
  6
Continuous
 62
     1
100
AcDbLine
 10
35.76296720918117
 20
19.18290226804083
 30
0.0
 11
35.76296720918117
 21
-16.34084463195916
 31
0.0
  0
LINE
  5
238
330
2
100
AcDbEntity
  8
GAIKEI
  6
Continuous
 62
     1
100
AcDbLine
 10
39.3789075091812
 20
15.76278341804084
 30
0.0
 11
39.3789075091812
 21
-13.4432157882963
 31
0.0
  0
LINE
  5
239
330
2
100
AcDbEntity
  8
GAIKEI
  6
Continuous
 62
     1
100
AcDbLine
 10
35.6163193591812
 20
-16.30615873195916
 30
0.0
 11
35.76417380918122
 21
-16.54177478195913
 31
0.0
  0
LINE
  5
23A
330
2
100
AcDbEntity
  8
GAIKEI
  6
Continuous
 62
     1
100
AcDbLine
 10
35.6163193591812
 20
19.14821636804083
 30
0.0
 11
35.76417380918122
 21
19.38383241804081
 31
0.0
  0
LINE
  5
23B
330
2
100
AcDbEntity
  8
GAIKEI
  6
Continuous
 62
     1
100
AcDbLine
 10
36.79971130918119
 20
-16.47522118195917
 30
0.0
 11
36.72499835427982
 21
-16.47522118195917
 31
0.0
  0
LINE
  5
23C
330
2
100
AcDbEntity
  8
GAIKEI
  6
Continuous
 62
     1
100
AcDbLine
 10
36.79971130918119
 20
18.54727046804083
 30
0.0
 11
36.79971130918119
 21
19.51543718573339
 31
0.0
  0
LINE
  5
23D
330
2
100
AcDbEntity
  8
GAIKEI
  6
Continuous
 62
     1
100
AcDbLine
 10
37.60422630918117
 20
-16.47522118195917
 30
0.0
 11
36.79971130918119
 21
-16.47522118195917
 31
0.0
  0
LINE
  5
23E
330
2
100
AcDbEntity
  8
GAIKEI
  6
Continuous
 62
     1
100
AcDbLine
 10
36.9352031091812
 20
18.56928566804083
 30
0.0
 11
36.84081035918121
 21
18.57272406804083
 31
0.0
  0
LINE
  5
23F
330
2
100
AcDbEntity
  8
GAIKEI
  6
Continuous
 62
     1
100
AcDbLine
 10
36.78214809100535
 20
19.31727881804085
 30
0.0
 11
37.60422630918117
 21
19.31727881804085
 31
0.0
  0
LINE
  5
240
330
2
100
AcDbEntity
  8
GAIKEI
  6
Continuous
 62
     1
100
AcDbLine
 10
37.60422630918117
 20
18.54256256804081
 30
0.0
 11
37.60422630918117
 21
19.31727881804085
 31
0.0
  0
LINE
  5
241
330
2
100
AcDbEntity
  8
GAIKEI
  6
Continuous
 62
     1
100
AcDbLine
 10
39.73606760918119
 20
-13.14268388195916
 30
0.0
 11
39.73991985918122
 21
-13.14249888195917
 31
0.0
  0
LINE
  5
242
330
2
100
AcDbEntity
  8
GAIKEI
  6
Continuous
 62
     1
100
AcDbLine
 10
39.73991985918122
 20
-13.14249888195917
 30
0.0
 11
39.7320892091812
 21
-13.14944488195914
 31
0.0
  0
LINE
  5
243
330
2
100
AcDbEntity
  8
GAIKEI
  6
Continuous
 62
     7
100
AcDbLine
 10
35.76418680918119
 20
-16.54179548195912
 30
0.0
 11
35.76417380918122
 21
-16.54177478195913
 31
0.0
  0
LINE
  5
244
330
2
100
AcDbEntity
  8
GAIKEI
  6
Continuous
 62
     1
100
AcDbLine
 10
35.60867135918119
 20
-16.27958238195913
 30
0.0
 11
35.60867135918119
 21
-16.10620713195913
 31
0.0
  0
LINE
  5
245
330
2
100
AcDbEntity
  8
GAIKEI
  6
Continuous
 62
     1
100
AcDbLine
 10
35.60867135918119
 20
18.94826476804087
 30
0.0
 11
35.60867135918119
 21
19.12164001804081
 31
0.0
  0
LINE
  5
246
330
2
100
AcDbEntity
  8
GAIKEI
  6
Continuous
 62
     1
100
AcDbLine
 10
35.60867135918119
 20
18.94826476804087
 30
0.0
 11
35.60867135918119
 21
-16.10620713195913
 31
0.0
  0
LINE
  5
247
330
2
100
AcDbEntity
  8
GAIKEI
  6
Continuous
 62
     7
100
AcDbLine
 10
39.99867135918118
 20
-3.685703206818175
 30
0.0
 11
39.99867135918118
 21
-3.247372556818163
 31
0.0
  0
LINE
  5
248
330
2
100
AcDbEntity
  8
GAIKEI
  6
Continuous
 62
     7
100
AcDbLine
 10
39.99867135918118
 20
-11.15301333195913
 30
0.0
 11
39.99867135918118
 21
-4.23761890681817
 31
0.0
  0
LINE
  5
249
330
2
100
AcDbEntity
  8
GAIKEI
  6
Continuous
 62
     7
100
AcDbLine
 10
39.99867135918118
 20
-11.88395808195918
 30
0.0
 11
39.99867135918118
 21
-11.70492903195912
 31
0.0
  0
LINE
  5
24A
330
2
100
AcDbEntity
  8
GAIKEI
  6
Continuous
 62
     7
100
AcDbLine
 10
39.99867135918118
 20
7.389296793181813
 30
0.0
 11
39.99867135918118
 21
15.4202591180408
 31
0.0
  0
LINE
  5
24B
330
2
100
AcDbEntity
  8
GAIKEI
  6
Continuous
 62
     1
100
AcDbLine
 10
39.99867135918118
 20
1.689296793181824
 30
0.0
 11
39.99867135918118
 21
1.689776793181806
 31
0.0
  0
LINE
  5
24C
330
2
100
AcDbEntity
  8
GAIKEI
  6
Continuous
 62
     1
100
AcDbLine
 10
39.99867135918118
 20
1.136901093181791
 30
0.0
 11
39.99867135918118
 21
1.137381093181829
 31
0.0
  0
LINE
  5
24D
330
2
100
AcDbEntity
  8
GAIKEI
  6
Continuous
 62
     7
100
AcDbLine
 10
39.96182715918121
 20
-11.71003418195914
 30
0.0
 11
39.96159040918121
 21
-11.71002758195914
 31
0.0
  0
LINE
  5
24E
330
2
100
AcDbEntity
  8
GAIKEI
  6
Continuous
 62
     7
100
AcDbLine
 10
39.99867135918118
 20
15.4202591180408
 30
0.0
 11
39.99867135918118
 21
15.48348196804085
 31
0.0
  0
LINE
  5
24F
330
2
100
AcDbEntity
  8
GAIKEI
  6
Continuous
 62
     1
100
AcDbLine
 10
39.98560740918117
 20
-12.63449753195914
 30
0.0
 11
39.98467430918117
 21
-12.63449753195914
 31
0.0
  0
LINE
  5
250
330
2
100
AcDbEntity
  8
GAIKEI
  6
Continuous
 62
     1
100
AcDbLine
 10
39.74028985918119
 20
-13.14218008195911
 30
0.0
 11
39.74100075918119
 21
-13.14155003195918
 31
0.0
  0
LINE
  5
251
330
2
100
AcDbEntity
  8
GAIKEI
  6
Continuous
 62
     1
100
AcDbLine
 10
39.74069265918121
 20
-13.14181533195915
 30
0.0
 11
39.73991985918122
 21
-13.14249888195917
 31
0.0
  0
LINE
  5
252
330
2
100
AcDbEntity
  8
GAIKEI
  6
Continuous
 62
     7
100
AcDbLine
 10
39.99867135918118
 20
-11.15301333195913
 30
0.0
 11
39.99867135918118
 21
-11.70492903195912
 31
0.0
  0
LINE
  5
253
330
2
100
AcDbEntity
  8
GAIKEI
  6
Continuous
 62
     7
100
AcDbLine
 10
39.99867135918118
 20
1.691046553104854
 30
0.0
 11
39.99867135918118
 21
1.137381093181829
 31
0.0
  0
LINE
  5
254
330
2
100
AcDbEntity
  8
GAIKEI
  6
Continuous
 62
     1
100
AcDbLine
 10
39.99867135918118
 20
-3.685703206818175
 30
0.0
 11
39.99867135918118
 21
-4.23761890681817
 31
0.0
  0
LINE
  5
255
330
2
100
AcDbEntity
  8
GAIKEI
  6
Continuous
 62
     1
100
AcDbLine
 10
37.80867135918118
 20
-16.47522118195917
 30
0.0
 11
37.60422630918117
 21
-16.47522118195917
 31
0.0
  0
LINE
  5
256
330
2
100
AcDbEntity
  8
GAIKEI
  6
Continuous
 62
     1
100
AcDbLine
 10
37.60422630918117
 20
19.31727881804085
 30
0.0
 11
37.80867135918118
 21
19.31727881804085
 31
0.0
  0
LINE
  5
257
330
2
100
AcDbEntity
  8
GAIKEI
  6
Continuous
 62
     7
100
AcDbLine
 10
37.80867135918118
 20
-16.62206948195916
 30
0.0
 11
37.80867120918117
 21
-16.62236828195915
 31
0.0
  0
LINE
  5
258
330
2
100
AcDbEntity
  8
GAIKEI
  6
Continuous
 62
     7
100
AcDbLine
 10
37.80867135918118
 20
-16.47522118195917
 30
0.0
 11
37.80867135918118
 21
-15.68362678195916
 31
0.0
  0
LINE
  5
259
330
2
100
AcDbEntity
  8
GAIKEI
  6
Continuous
 62
     7
100
AcDbLine
 10
39.99867135918118
 20
-3.336661056818172
 30
0.0
 11
39.99867135918118
 21
-3.247372556818163
 31
0.0
  0
LINE
  5
25A
330
2
100
AcDbEntity
  8
GAIKEI
  6
Continuous
 62
     7
100
AcDbLine
 10
39.99867135918118
 20
-3.247372556818163
 30
0.0
 11
39.99867135918118
 21
1.136640593181823
 31
0.0
  0
LINE
  5
25B
330
2
100
AcDbEntity
  8
GAIKEI
  6
Continuous
 62
     1
100
AcDbLine
 10
39.99867135918118
 20
1.136640593181823
 30
0.0
 11
39.99867135918118
 21
1.136901093181791
 31
0.0
  0
LINE
  5
25C
330
2
100
AcDbEntity
  8
GAIKEI
  6
Continuous
 62
     1
100
AcDbLine
 10
39.99867135918118
 20
1.689776793181806
 30
0.0
 11
39.99867135918118
 21
1.693940493181798
 31
0.0
  0
LINE
  5
25D
330
2
100
AcDbEntity
  8
GAIKEI
  6
Continuous
 62
     1
100
AcDbLine
 10
39.95067965918122
 20
-12.90686798195912
 30
0.0
 11
39.9523910591812
 21
-12.90226398195915
 31
0.0
  0
LINE
  5
25E
330
2
100
AcDbEntity
  8
GAIKEI
  6
Continuous
 62
     1
100
AcDbLine
 10
39.9523910591812
 20
-12.90226398195915
 30
0.0
 11
39.9529590091812
 21
-12.90071078195916
 31
0.0
  0
LINE
  5
25F
330
2
100
AcDbEntity
  8
GAIKEI
  6
Continuous
 62
     7
100
AcDbLine
 10
39.9906367591812
 20
-12.68741643195915
 30
0.0
 11
39.9906367591812
 21
-11.98480308195911
 31
0.0
  0
LINE
  5
260
330
2
100
AcDbEntity
  8
GAIKEI
  6
Continuous
 62
     1
100
AcDbLine
 10
39.95239150918121
 20
-12.90225098195913
 30
0.0
 11
39.95288530918117
 21
-12.90090018195911
 31
0.0
  0
LINE
  5
261
330
2
100
AcDbEntity
  8
GAIKEI
  6
Continuous
 62
     7
100
AcDbLine
 10
37.80867135918118
 20
-16.47522118195917
 30
0.0
 11
37.80867135918118
 21
-16.62206948195916
 31
0.0
  0
ARC
  5
262
330
2
100
AcDbEntity
  8
GAIKEI
  6
Continuous
 62
     1
100
AcDbCircle
 10
-368.2943966908188
 20
3966.14229061804
 30
0.0
 40
3967.55777285
100
AcDbArc
 50
275.8460559999969
 51
275.8599494945873
  0
ARC
  5
263
330
2
100
AcDbEntity
  8
GAIKEI
  6
Continuous
 62
     1
100
AcDbCircle
 10
-368.2944036908188
 20
-3963.30030138196
 30
0.0
 40
3967.557841600001
100
AcDbArc
 50
84.14087800000245
 51
84.15394400000305
  0
ARC
  5
264
330
2
100
AcDbEntity
  8
GAIKEI
  6
Continuous
 62
     7
100
AcDbCircle
 10
39.0283203091812
 20
635.0454364680409
 30
0.0
 40
651.72281555
100
AcDbArc
 50
269.801282
 51
269.870526999997
  0
ARC
  5
265
330
2
100
AcDbEntity
  8
GAIKEI
  6
Continuous
 62
     1
100
AcDbCircle
 10
36.7030415591812
 20
90.83397416804087
 30
0.0
 40
72.59843639999999
100
AcDbArc
 50
270.2234979999951
 51
270.7979269999943
  0
ARC
  5
266
330
2
100
AcDbEntity
  8
GAIKEI
  6
Continuous
 62
     1
100
AcDbCircle
 10
58.55538325918121
 20
38.56386791804084
 30
0.0
 40
29.39359775
100
AcDbArc
 50
229.8244369999979
 51
230.1893719999996
  0
ARC
  5
267
330
2
100
AcDbEntity
  8
GAIKEI
  6
Continuous
 62
     7
100
AcDbCircle
 10
-44.94082149081885
 20
58.04812931804088
 30
0.0
 40
110.68285545
100
AcDbArc
 50
319.8368629999968
 51
319.9785399999958
  0
ARC
  5
268
330
2
100
AcDbEntity
  8
GAIKEI
  6
Continuous
 62
     1
100
AcDbCircle
 10
36.7030415591812
 20
-87.99191603195913
 30
0.0
 40
72.59843590000001
100
AcDbArc
 50
89.20207300000571
 51
89.98256801461675
  0
ARC
  5
269
330
2
100
AcDbEntity
  8
GAIKEI
  6
Continuous
 62
     7
100
AcDbCircle
 10
35.82772005918122
 20
-16.50192193195914
 30
0.0
 40
0.0750092
100
AcDbArc
 50
212.1124469999995
 51
261.0218240000017
  0
ARC
  5
26A
330
2
100
AcDbEntity
  8
GAIKEI
  6
Continuous
 62
     7
100
AcDbCircle
 10
35.8309196091812
 20
-16.47931443195915
 30
0.0
 40
0.09784355
100
AcDbArc
 50
261.270591999999
 51
263.7463639999976
  0
ARC
  5
26B
330
2
100
AcDbEntity
  8
GAIKEI
  6
Continuous
 62
     1
100
AcDbCircle
 10
35.82772005918122
 20
19.34397956804082
 30
0.0
 40
0.07500915
100
AcDbArc
 50
98.93950799999487
 51
147.8875560000019
  0
ARC
  5
26C
330
2
100
AcDbEntity
  8
GAIKEI
  6
Continuous
 62
     1
100
AcDbCircle
 10
35.8300627591812
 20
19.32758826804081
 30
0.0
 40
0.09156935
100
AcDbArc
 50
96.37846500000591
 51
98.78995799999522
  0
ARC
  5
26D
330
2
100
AcDbEntity
  8
GAIKEI
  6
Continuous
 62
     1
100
AcDbCircle
 10
69.1347330591812
 20
103.7585359680408
 30
0.0
 40
92.89058949999999
100
AcDbArc
 50
251.3169980000066
 51
251.5493929999992
  0
ARC
  5
26E
330
2
100
AcDbEntity
  8
GAIKEI
  6
Continuous
 62
     1
100
AcDbCircle
 10
39.26314295918121
 20
15.42025011804082
 30
0.0
 40
0.7355284
100
AcDbArc
 50
0.0007010000002193
 51
5.224650999999753
  0
ARC
  5
26F
330
2
100
AcDbEntity
  8
GAIKEI
  6
Continuous
 62
     1
100
AcDbCircle
 10
39.19718395918119
 20
-12.52740913195913
 30
0.0
 40
0.8203027999999999
100
AcDbArc
 50
311.4962360000053
 51
316.8672290000018
  0
ARC
  5
270
330
2
100
AcDbEntity
  8
GAIKEI
  6
Continuous
 62
     1
100
AcDbCircle
 10
39.24723940918119
 20
-12.57464553195916
 30
0.0
 40
0.7514787
100
AcDbArc
 50
316.8862330000004
 51
332.4185359999961
  0
ARC
  5
271
330
2
100
AcDbEntity
  8
GAIKEI
  6
Continuous
 62
     1
100
AcDbCircle
 10
42.09312485918121
 20
-15.80240878195917
 30
0.0
 40
3.55142435
100
AcDbArc
 50
131.4916920000011
 51
131.6839700000027
  0
ARC
  5
272
330
2
100
AcDbEntity
  8
GAIKEI
  6
Continuous
 62
     1
100
AcDbCircle
 10
39.24867135918118
 20
-3.247372556818163
 30
0.0
 40
0.75
100
AcDbArc
 50
2.452836000002987
 51
5.883938000002939
  0
ARC
  5
273
330
2
100
AcDbEntity
  8
GAIKEI
  6
Continuous
 62
     1
100
AcDbCircle
 10
39.24908215918117
 20
15.48862901804085
 30
0.0
 40
0.7480767000000001
100
AcDbArc
 50
34.78967999999847
 51
40.00000300000237
  0
ARC
  5
274
330
2
100
AcDbEntity
  8
GAIKEI
  6
Continuous
 62
     7
100
AcDbCircle
 10
39.24000980918118
 20
15.48349191804084
 30
0.0
 40
0.7586615500000001
100
AcDbArc
 50
359.9992490000013
 51
6.903190000001132
  0
ARC
  5
275
330
2
100
AcDbEntity
  8
GAIKEI
  6
Continuous
 62
     7
100
AcDbCircle
 10
39.36767410918117
 20
-12.68731718195914
 30
0.0
 40
0.6229566000000001
100
AcDbArc
 50
339.968429000001
 51
359.9901120000005
  0
ARC
  5
276
330
2
100
AcDbEntity
  8
GAIKEI
  6
Continuous
 62
     7
100
AcDbCircle
 10
39.24499175918118
 20
-12.64296143195912
 30
0.0
 40
0.7534202500000001
100
AcDbArc
 50
319.8070549999944
 51
339.4956769999968
  0
ARC
  5
277
330
2
100
AcDbEntity
  8
GAIKEI
  6
Continuous
 62
     7
100
AcDbCircle
 10
-49.79806119081882
 20
-59.29059063195916
 30
0.0
 40
117.0292152
100
AcDbArc
 50
40.02245900000189
 51
40.1573269999973
  0
ARC
  5
278
330
2
100
AcDbEntity
  8
GAIKEI
  6
Continuous
 62
     1
100
AcDbCircle
 10
-50.12909349081883
 20
62.41123841804085
 30
0.0
 40
117.4618751
100
AcDbArc
 50
319.8429449999994
 51
319.9773099999972
  0
ELLIPSE
  5
279
330
2
100
AcDbEntity
  8
GAIKEI
  6
Continuous
 62
     7
100
AcDbEllipse
 10
36.76823990918121
 20
-16.62345798195912
 30
0.0
 11
0.0347438088505755
 21
0.0347438088505755
 31
0.0
210
0.0
220
0.0
230
1.0
 40
0.9996262438498131
 41
3.903110081489661
 42
3.921635253276855
  0
ELLIPSE
  5
27A
330
2
100
AcDbEntity
  8
GAIKEI
  6
Continuous
 62
     1
100
AcDbEllipse
 10
35.82987810918121
 20
19.34424181804081
 30
0.0
 11
-0.052891591344551
 21
0.052891591344551
 31
0.0
210
0.0
220
0.0
230
1.0
 40
0.9985021252113433
 41
-0.6841523578984687
 42
-0.667266823267458
  0
ELLIPSE
  5
27B
330
2
100
AcDbEntity
  8
GAIKEI
  6
Continuous
 62
     7
100
AcDbEllipse
 10
35.82987810918121
 20
-16.50218418195914
 30
0.0
 11
0.0528915914006684
 21
0.0528915914006684
 31
0.0
210
0.0
220
0.0
230
1.0
 40
0.9985021258155997
 41
3.809312810420805
 42
3.825745011191881
  0
ELLIPSE
  5
27C
330
2
100
AcDbEntity
  8
GAIKEI
  6
Continuous
 62
     1
100
AcDbEllipse
 10
37.27547705918119
 20
18.57272401804084
 30
0.0
 11
0.0161869617639733
 21
0.4497087749520076
 31
0.0
210
0.0
220
0.0
230
1.0
 40
0.9658839999999806
 41
1.605548642406345
 42
2.450753644648623
  0
ELLIPSE
  5
27D
330
2
100
AcDbEntity
  8
GAIKEI
  6
Continuous
 62
     1
100
AcDbEllipse
 10
39.3007658091812
 20
15.76278341804084
 30
0.0
 11
0.2907057944480269
 21
0.3434969302255366
 31
0.0
210
0.0
220
0.0
230
1.0
 40
0.1333920000000015
 41
-1.458380742976126
 42
-0.0278998439660725
  0
ELLIPSE
  5
27E
330
2
100
AcDbEntity
  8
GAIKEI
  6
Continuous
 62
     1
100
AcDbEllipse
 10
36.97788550918119
 20
18.7710288180408
 30
0.0
 11
-0.0000000000000108
 21
0.2570486010155661
 31
0.0
210
0.0
220
0.0
230
1.0
 40
0.2679519999999809
 41
3.790000710869833
 42
8.756426638127511
  0
ELLIPSE
  5
27F
330
2
100
AcDbEntity
  8
GAIKEI
  6
Continuous
 62
     1
100
AcDbEllipse
 10
38.03889290918119
 20
18.54256256804081
 30
0.0
 11
0.0193870350424885
 21
0.4495821870050824
 31
0.0
210
0.0
220
0.0
230
1.0
 40
0.9658659999999928
 41
1.612422652194193
 42
2.342160655069867
  0
ELLIPSE
  5
280
330
2
100
AcDbEntity
  8
GAIKEI
  6
Continuous
 62
     1
100
AcDbEllipse
 10
36.91105495918123
 20
18.56928566804083
 30
0.0
 11
0.0236739119823138
 21
0.008034045771143
 31
0.0
210
0.0
220
0.0
230
1.0
 40
0.7680479999811009
 41
-0.4160567989350552
 42
-0.0008255432148825
  0
ELLIPSE
  5
281
330
2
100
AcDbEntity
  8
GAIKEI
  6
Continuous
 62
     1
100
AcDbEllipse
 10
39.24867135918123
 20
-3.247372556818163
 30
0.0
 11
0.7500000000000002
 21
0.0
 31
0.0
210
0.0
220
0.0
230
1.0
 40
0.9666670000000001
 41
0.0
 42
0.1041276120068568
  0
ELLIPSE
  5
282
330
2
100
AcDbEntity
  8
GAIKEI
  6
Continuous
 62
     1
100
AcDbEllipse
 10
39.70716995918122
 20
-10.26241835681821
 30
0.0
 11
-0.0331278013229312
 21
0.0374506178788601
 31
0.0
210
0.0
220
0.0
230
1.0
 40
0.4749580000000001
 41
3.120750243315308
 42
3.142591199854433
  0
ELLIPSE
  5
283
330
2
100
AcDbEntity
  8
GAIKEI
  6
Continuous
 62
     7
100
AcDbEllipse
 10
38.2580874091812
 20
-15.69301778195915
 30
0.0
 11
-0.1107399054551541
 21
0.4361612928033433
 31
0.0
210
0.0
220
0.0
230
1.0
 40
0.9999039999998128
 41
0.6231415498564515
 42
0.9699193915931996
  0
ELLIPSE
  5
284
330
2
100
AcDbEntity
  8
GAIKEI
  6
Continuous
 62
     7
100
AcDbEllipse
 10
38.2580874091812
 20
18.53507536804085
 30
0.0
 11
0.1107271695606408
 21
0.4361645262069404
 31
0.0
210
0.0
220
0.0
230
0.9999999999999998
 40
0.9999039999999698
 41
2.171603098779832
 42
2.518422350654637
  0
ELLIPSE
  5
285
330
2
100
AcDbEntity
  8
GAIKEI
  6
Continuous
 62
     7
100
AcDbEllipse
 10
37.75856665918122
 20
-16.62628128195916
 30
0.0
 11
0.0353550241822256
 21
0.0353550241822256
 31
0.0
210
0.0
220
0.0
230
1.0
 40
0.9999998118931008
 41
3.973502160345834
 42
4.816435925500172
  0
ELLIPSE
  5
286
330
2
100
AcDbEntity
  8
GAIKEI
  6
Continuous
 62
     1
100
AcDbEllipse
 10
39.47740720918125
 20
15.68009506804083
 30
0.0
 11
0.3445865199815878
 21
0.2894134244415523
 31
0.0
210
0.0
220
0.0
230
1.0
 40
0.6039990000613244
 41
-0.0002846291689877
 42
0.0084124181329617
  0
ELLIPSE
  5
287
330
2
100
AcDbEntity
  8
GAIKEI
  6
Continuous
 62
     1
100
AcDbEllipse
 10
39.3007658091812
 20
13.03225169318182
 30
0.0
 11
-0.343856198516359
 21
-0.2902807515869154
 31
0.0
210
0.0
220
0.0
230
1.0
 40
0.113014
 41
3.141768349447379
 42
3.152307569470352
  0
ELLIPSE
  5
288
330
2
100
AcDbEntity
  8
GAIKEI
  6
Continuous
 62
     1
100
AcDbEllipse
 10
39.3007658091812
 20
-10.20557380681816
 30
0.0
 11
-0.3438561985162959
 21
0.2902807515869122
 31
0.0
210
0.0
220
0.0
230
1.0
 40
0.113014
 41
3.130877737714352
 42
3.14150348040864
  0
ELLIPSE
  5
289
330
2
100
AcDbEntity
  8
GAIKEI
  6
Continuous
 62
     7
100
AcDbEllipse
 10
38.2580874091812
 20
18.53507536804085
 30
0.0
 11
0.3181900624921142
 21
0.3181900624921142
 31
0.0
210
0.0
220
0.0
230
1.0
 40
0.9999542077870351
 41
2.617093918051603
 42
2.708415030973279
  0
ELLIPSE
  5
28A
330
2
100
AcDbEntity
  8
GAIKEI
  6
Continuous
 62
     7
100
AcDbEllipse
 10
38.2580874091812
 20
-15.69301778195915
 30
0.0
 11
-0.110739905774419
 21
0.4361612927222231
 31
0.0
210
0.0
220
0.0
230
1.0
 40
0.999903999999907
 41
0.9699193908611597
 42
1.322176525119691
  0
ELLIPSE
  5
28B
330
2
100
AcDbEntity
  8
GAIKEI
  6
Continuous
 62
     7
100
AcDbEllipse
 10
37.75856665918122
 20
-16.62628128195916
 30
0.0
 11
0.0353550241821352
 21
0.0353550241821352
 31
0.0
210
0.0
220
0.0
230
1.0
 40
0.9999998118951952
 41
4.816435925500389
 42
5.497787051848177
  0
LINE
  5
28C
330
2
100
AcDbEntity
  8
GAIKEI
  6
Continuous
 62
     7
100
AcDbLine
 10
35.7831877591812
 20
-16.56609558195913
 30
0.0
 11
35.78589245918119
 21
-16.56465453195915
 31
0.0
  0
LINE
  5
28D
330
2
100
AcDbEntity
  8
GAIKEI
  6
Continuous
 62
     7
100
AcDbLine
 10
35.7831877591812
 20
19.42815321804085
 30
0.0
 11
36.04846455918119
 21
19.44205576804086
 31
0.0
  0
LINE
  5
28E
330
2
100
AcDbEntity
  8
GAIKEI
  6
Continuous
 62
     7
100
AcDbLine
 10
37.74617135918118
 20
19.5210288180408
 30
0.0
 11
37.82335025918121
 21
19.51427651804084
 31
0.0
  0
LINE
  5
28F
330
2
100
AcDbEntity
  8
GAIKEI
  6
Continuous
 62
     1
100
AcDbLine
 10
37.82335025918121
 20
19.31503761804083
 30
0.0
 11
37.80867135918118
 21
19.31632181804082
 31
0.0
  0
LINE
  5
290
330
2
100
AcDbEntity
  8
GAIKEI
  6
Continuous
 62
     1
100
AcDbLine
 10
37.82335025918121
 20
-16.65221888195913
 30
0.0
 11
37.79984475918122
 21
-16.65427538195916
 31
0.0
  0
LINE
  5
291
330
2
100
AcDbEntity
  8
GAIKEI
  6
Continuous
 62
     7
100
AcDbLine
 10
37.82335025918121
 20
18.41899789058743
 30
0.0
 11
37.82335025918121
 21
19.31503761804083
 31
0.0
  0
LINE
  5
292
330
2
100
AcDbEntity
  8
GAIKEI
  6
Continuous
 62
     1
100
AcDbLine
 10
37.8461713591812
 20
19.31503761804083
 30
0.0
 11
37.8461713591812
 21
18.35396516804087
 31
0.0
  0
LINE
  5
293
330
2
100
AcDbEntity
  8
GAIKEI
  6
Continuous
 62
     1
100
AcDbLine
 10
37.8461713591812
 20
-15.51767720358663
 30
0.0
 11
37.8461713591812
 21
-16.45297998195912
 31
0.0
  0
LINE
  5
294
330
2
100
AcDbEntity
  8
GAIKEI
  6
Continuous
 62
     1
100
AcDbLine
 10
37.8461713591812
 20
19.31503761804083
 30
0.0
 11
37.82335025918121
 21
19.31503761804083
 31
0.0
  0
LINE
  5
295
330
2
100
AcDbEntity
  8
GAIKEI
  6
Continuous
 62
     1
100
AcDbLine
 10
37.8461713591812
 20
-16.45297998195912
 30
0.0
 11
37.8461713591812
 21
-16.62731403195914
 31
0.0
  0
LINE
  5
296
330
2
100
AcDbEntity
  8
GAIKEI
  6
Continuous
 62
     1
100
AcDbLine
 10
37.8461713591812
 20
19.4893716680408
 30
0.0
 11
37.8461713591812
 21
19.31503761804083
 31
0.0
  0
LINE
  5
297
330
2
100
AcDbEntity
  8
GAIKEI
  6
Continuous
 62
     7
100
AcDbLine
 10
35.72522955918117
 20
-16.53357103195918
 30
0.0
 11
35.56991575918118
 21
-16.30674198195913
 31
0.0
  0
LINE
  5
298
330
2
100
AcDbEntity
  8
GAIKEI
  6
Continuous
 62
     7
100
AcDbLine
 10
35.56991575918118
 20
19.16879961804085
 30
0.0
 11
35.72522955918117
 21
19.39562866804084
 31
0.0
  0
LINE
  5
299
330
2
100
AcDbEntity
  8
GAIKEI
  6
Continuous
 62
     7
100
AcDbLine
 10
35.56117135918118
 20
19.14055116804081
 30
0.0
 11
35.56117135918118
 21
18.97106051804087
 31
0.0
  0
LINE
  5
29A
330
2
100
AcDbEntity
  8
GAIKEI
  6
Continuous
 62
     7
100
AcDbLine
 10
35.56117135918118
 20
-16.27849353195915
 30
0.0
 11
35.56117135918118
 21
18.97106051804087
 31
0.0
  0
ARC
  5
29B
330
2
100
AcDbEntity
  8
GAIKEI
  6
Continuous
 62
     1
100
AcDbCircle
 10
37.82117135918122
 20
-16.62731403195914
 30
0.0
 40
0.025
100
AcDbArc
 50
274.9999999999998
 51
0.0
  0
ARC
  5
29C
330
2
100
AcDbEntity
  8
GAIKEI
  6
Continuous
 62
     1
100
AcDbCircle
 10
37.82117135918122
 20
19.4893716680408
 30
0.0
 40
0.025
100
AcDbArc
 50
0.0
 51
85.00000000000019
  0
ARC
  5
29D
330
2
100
AcDbEntity
  8
GAIKEI
  6
Continuous
 62
     7
100
AcDbCircle
 10
35.78711295918117
 20
-16.49119833195914
 30
0.0
 40
0.075
100
AcDbArc
 50
214.4001230000025
 51
266.9999999999944
  0
ARC
  5
29E
330
2
100
AcDbEntity
  8
GAIKEI
  6
Continuous
 62
     7
100
AcDbCircle
 10
35.78711295918117
 20
19.35325596804085
 30
0.0
 40
0.075
100
AcDbArc
 50
93.00000000000558
 51
145.5998769999974
  0
ARC
  5
29F
330
2
100
AcDbEntity
  8
GAIKEI
  6
Continuous
 62
     7
100
AcDbCircle
 10
35.61117135918119
 20
19.14055116804081
 30
0.0
 40
0.05
100
AcDbArc
 50
145.5998769999974
 51
180.0
  0
ARC
  5
2A0
330
2
100
AcDbEntity
  8
GAIKEI
  6
Continuous
 62
     7
100
AcDbCircle
 10
35.61117135918119
 20
-16.27849353195915
 30
0.0
 40
0.05
100
AcDbArc
 50
180.0
 51
214.4001230000025
  0
ELLIPSE
  5
2A1
330
2
100
AcDbEntity
  8
GAIKEI
  6
Continuous
 62
     7
100
AcDbEllipse
 10
37.82117135918122
 20
19.31370321804081
 30
0.0
 11
0.0021771064512899
 21
0.2005734268692124
 31
0.0
210
0.0
220
0.0
230
1.0
 40
0.0107899999999471
 41
-1.564026235558141
 42
-0.0008261053339396
  0
LINE
  5
2A2
330
2
100
AcDbEntity
  8
GAIKEI
  6
Continuous
 62
     1
100
AcDbLine
 10
38.0431300091812
 20
18.92497976804083
 30
0.0
 11
37.8461713591812
 21
18.89729901804082
 31
0.0
  0
LINE
  5
2A3
330
2
100
AcDbEntity
  8
GAIKEI
  6
Continuous
 62
     1
100
AcDbLine
 10
37.99200325918122
 20
19.09768776804083
 30
0.0
 11
37.98617135918119
 21
19.03102881804085
 31
0.0
  0
LINE
  5
2A4
330
2
100
AcDbEntity
  8
GAIKEI
  6
Continuous
 62
     1
100
AcDbLine
 10
37.98617135918119
 20
19.03102881804085
 30
0.0
 11
37.95430995918122
 21
19.03102881804085
 31
0.0
  0
LINE
  5
2A5
330
2
100
AcDbEntity
  8
GAIKEI
  6
Continuous
 62
     1
100
AcDbLine
 10
37.98642535918123
 20
19.03393191804082
 30
0.0
 11
37.95466600918121
 21
19.03362261804085
 31
0.0
  0
LINE
  5
2A6
330
2
100
AcDbEntity
  8
GAIKEI
  6
Continuous
 62
     1
100
AcDbLine
 10
37.99636970918118
 20
19.14759631804082
 30
0.0
 11
38.03704395918117
 21
19.14688631804085
 31
0.0
  0
LINE
  5
2A7
330
2
100
AcDbEntity
  8
GAIKEI
  6
Continuous
 62
     1
100
AcDbLine
 10
37.99200325918122
 20
19.09768776804083
 30
0.0
 11
37.99636970918118
 21
19.14759631804082
 31
0.0
  0
LINE
  5
2A8
330
2
100
AcDbEntity
  8
GAIKEI
  6
Continuous
 62
     1
100
AcDbLine
 10
38.08617135918121
 20
19.09689396804083
 30
0.0
 11
38.08617135918121
 21
18.97449316804085
 31
0.0
  0
ARC
  5
2A9
330
2
100
AcDbEntity
  8
GAIKEI
  6
Continuous
 62
     1
100
AcDbCircle
 10
38.0361713591812
 20
19.09689396804083
 30
0.0
 40
0.05
100
AcDbArc
 50
0.0
 51
88.99999999999822
  0
ARC
  5
2AA
330
2
100
AcDbEntity
  8
GAIKEI
  6
Continuous
 62
     1
100
AcDbCircle
 10
38.0361713591812
 20
18.97449316804085
 30
0.0
 40
0.05
100
AcDbArc
 50
278.0000000000008
 51
0.0
  0
DIMENSION
  5
2AB
330
2
100
AcDbEntity
  8
SUNPO
100
AcDbDimension
  2
*D5
 10
40.01117135918116
 20
27.53725249883054
 30
0.0
 11
46.59450469251449
 21
29.28725249883054
 31
0.0
 70
    33
  1
89
 71
     5
 42
4.449999999999988
  3
STANDARD
100
AcDbAlignedDimension
 13
35.56117135918118
 23
19.53727487824864
 33
0.0
 14
40.01117135918116
 24
19.53727487824864
 34
0.0
1001
ACAD
1000
DSTYLE
1002
{
1070
    40
1040
1.0
1070
   140
1040
2.5
1070
   147
1040
0.5
1070
   172
1070
     1
1070
   279
1070
     0
1070
   288
1070
     0
1002
}
  0
ENDSEC
  0
SECTION
  2
OBJECTS
  0
DICTIONARY
  5
7
330
0
100
AcDbDictionary
281
     1
  3
ACAD_COLOR
350
2D
  3
ACAD_GROUP
350
29
  3
ACAD_LAYOUT
350
B
  3
ACAD_MATERIAL
350
2C
  3
ACAD_MLINESTYLE
350
2A
  3
ACAD_PLOTSETTINGS
350
2B
  3
ACAD_PLOTSTYLENAME
350
6
  3
ACDBHEADERROUNDTRIPXREC
350
304
  3
AcDbVariableDictionary
350
2FF
  0
DICTIONARY
  5
11
330
10
100
AcDbDictionary
280
     1
281
     1
  3
ACAD_LAYERFILTERS
360
12
  3
ACAD_LAYERSTATES
360
13
  0
DICTIONARY
  5
2D
102
{ACAD_REACTORS
330
7
102
}
330
7
100
AcDbDictionary
281
     1
  0
DICTIONARY
  5
29
102
{ACAD_REACTORS
330
7
102
}
330
7
100
AcDbDictionary
281
     1
  0
DICTIONARY
  5
B
102
{ACAD_REACTORS
330
7
102
}
330
7
100
AcDbDictionary
281
     1
  3
Model
350
A
  3
レイアウト1
350
F
  0
DICTIONARY
  5
2C
102
{ACAD_REACTORS
330
7
102
}
330
7
100
AcDbDictionary
281
     1
  0
DICTIONARY
  5
2A
102
{ACAD_REACTORS
330
7
102
}
330
7
100
AcDbDictionary
281
     1
  3
Standard
350
2F
  0
DICTIONARY
  5
2B
102
{ACAD_REACTORS
330
7
102
}
330
7
100
AcDbDictionary
281
     1
  0
ACDBDICTIONARYWDFLT
  5
6
102
{ACAD_REACTORS
330
7
102
}
330
7
100
AcDbDictionary
281
     1
  3
Normal
350
5
100
AcDbDictionaryWithDefault
340
5
  0
DICTIONARY
  5
304
102
{ACAD_REACTORS
330
7
102
}
330
7
100
AcDbDictionary
281
     1
  3
COLORDICT
350
306
  3
MATERIALDICT
350
305
  0
DICTIONARY
  5
2FF
102
{ACAD_REACTORS
330
7
102
}
330
7
100
AcDbDictionary
281
     1
  3
DIMASSOC
350
301
  3
HIDETEXT
350
300
  3
PROJECTNAME
350
302
  0
DICTIONARY
  5
12
102
{ACAD_REACTORS
330
11
102
}
330
11
100
AcDbDictionary
281
     1
  0
DICTIONARY
  5
13
102
{ACAD_REACTORS
330
11
102
}
330
11
100
AcDbDictionary
281
     1
  0
LAYOUT
  5
A
102
{ACAD_XDICTIONARY
360
307
102
}
102
{ACAD_REACTORS
330
B
102
}
330
B
100
AcDbPlotSettings
  1

  2
10F06M_RICOH_SP-8100
  4
A4
  6

 40
5.873749732971191
 41
5.873747825622558
 42
5.873748779296875
 43
5.873748779296875
 44
209.9733276367187
 45
296.9259948730469
 46
5.419999999999999
 47
0.0
 48
0.0
 49
0.0
140
0.0
141
0.0
142
1.0
143
1.382473168219473
 70
 11956
 72
     1
 73
     0
 74
     1
  7
tmsacad.ctb
 75
     0
147
0.7233413443299798
148
0.0192216317385601
149
0.0180409818002545
100
AcDbLayout
  1
Model
 70
     1
 71
     0
 10
0.0
 20
0.0
 11
12.0
 21
9.0
 12
0.0
 22
0.0
 32
0.0
 14
0.0
 24
0.0
 34
0.0
 15
0.0
 25
0.0
 35
0.0
146
0.0
 13
0.0
 23
0.0
 33
0.0
 16
1.0
 26
0.0
 36
0.0
 17
0.0
 27
1.0
 37
0.0
 76
     0
330
2
  0
LAYOUT
  5
F
102
{ACAD_XDICTIONARY
360
309
102
}
102
{ACAD_REACTORS
330
B
102
}
330
B
100
AcDbPlotSettings
  1

  2
None
  4

  6

 40
0.0
 41
0.0
 42
0.0
 43
0.0
 44
0.0
 45
0.0
 46
0.0
 47
0.0
 48
0.0
 49
0.0
140
0.0
141
0.0
142
1.0
143
1.0
 70
   688
 72
     0
 73
     0
 74
     5
  7
tmsacad.ctb
 75
    16
147
1.0
148
0.0
149
0.0
100
AcDbLayout
  1
レイアウト1
 70
     1
 71
     1
 10
0.0
 20
0.0
 11
12.0
 21
9.0
 12
0.0
 22
0.0
 32
0.0
 14
0.0
 24
0.0
 34
0.0
 15
0.0
 25
0.0
 35
0.0
146
0.0
 13
0.0
 23
0.0
 33
0.0
 16
1.0
 26
0.0
 36
0.0
 17
0.0
 27
1.0
 37
0.0
 76
     0
330
C
  0
MLINESTYLE
  5
2F
102
{ACAD_REACTORS
330
2A
102
}
330
2A
100
AcDbMlineStyle
  2
STANDARD
 70
     0
  3

 62
   256
 51
90.0
 52
90.0
 71
     2
 49
0.5
 62
   256
  6
BYLAYER
 49
-0.5
 62
   256
  6
BYLAYER
  0
ACDBPLACEHOLDER
  5
5
102
{ACAD_REACTORS
330
6
102
}
330
6
  0
XRECORD
  5
306
102
{ACAD_REACTORS
330
304
102
}
330
304
100
AcDbXrecord
280
     1
340
2D
  0
XRECORD
  5
305
102
{ACAD_REACTORS
330
304
102
}
330
304
100
AcDbXrecord
280
     1
340
2C
  0
DICTIONARYVAR
  5
301
102
{ACAD_REACTORS
330
2FF
102
}
330
2FF
100
DictionaryVariables
280
     0
  1
1
  0
DICTIONARYVAR
  5
300
102
{ACAD_REACTORS
330
2FF
102
}
330
2FF
100
DictionaryVariables
280
     0
  1
1
  0
DICTIONARYVAR
  5
302
102
{ACAD_REACTORS
330
2FF
102
}
330
2FF
100
DictionaryVariables
280
     0
  1

  0
DICTIONARY
  5
307
330
A
100
AcDbDictionary
280
     1
281
     1
  3
ACAD_XREC_ROUNDTRIP
360
308
  0
DICTIONARY
  5
309
330
F
100
AcDbDictionary
280
     1
281
     1
  3
ACAD_XREC_ROUNDTRIP
360
30A
  0
XRECORD
  5
308
102
{ACAD_REACTORS
330
307
102
}
330
307
100
AcDbXrecord
280
     1
102
SHADEPLOT
 70
     0
102
SHADEPLOTRESLEVEL
 70
     2
102
SHADEPLOTCUSTOMDPI
 70
   300
  0
XRECORD
  5
30A
102
{ACAD_REACTORS
330
309
102
}
330
309
100
AcDbXrecord
280
     1
102
SHADEPLOT
 70
     0
102
SHADEPLOTRESLEVEL
 70
     2
102
SHADEPLOTCUSTOMDPI
 70
   300
  0
ENDSEC
  0
EOF
