  0
SECTION
  2
HEADER
  9
$ACADVER
  1
AC1015
  9
$ACADMAINTVER
 70
    20
  9
$DWGCODEPAGE
  3
ANSI_932
  9
$INSBASE
 10
0.4999999440410648
 20
246.5008351249344
 30
0.0
  9
$EXTMIN
 10
-63.87542634256579
 20
-59.42175230735654
 30
-0.0015258207003583
  9
$EXTMAX
 10
61.15814264998562
 20
53.60284464643666
 30
0.0000000349246037
  9
$LIMMIN
 10
0.0
 20
0.0
  9
$LIMMAX
 10
420.0
 20
297.0
  9
$ORTHOMODE
 70
     1
  9
$REGENMODE
 70
     0
  9
$FILLMODE
 70
     1
  9
$QTEXTMODE
 70
     0
  9
$MIRRTEXT
 70
     0
  9
$LTSCALE
 40
1.0
  9
$ATTMODE
 70
     1
  9
$TEXTSIZE
 40
2.5
  9
$TRACEWID
 40
1.0
  9
$TEXTSTYLE
  7
Standard
  9
$CLAYER
  8
SUNPO
  9
$CELTYPE
  6
ByLayer
  9
$CECOLOR
 62
   256
  9
$CELTSCALE
 40
1.0
  9
$DISPSILH
 70
     0
  9
$DIMSCALE
 40
1.0
  9
$DIMASZ
 40
2.0
  9
$DIMEXO
 40
2.0
  9
$DIMDLI
 40
8.0
  9
$DIMRND
 40
0.0
  9
$DIMDLE
 40
0.0
  9
$DIMEXE
 40
2.0
  9
$DIMTP
 40
0.0
  9
$DIMTM
 40
0.0
  9
$DIMTXT
 40
2.5
  9
$DIMCEN
 40
0.0
  9
$DIMTSZ
 40
0.0
  9
$DIMTOL
 70
     0
  9
$DIMLIM
 70
     0
  9
$DIMTIH
 70
     0
  9
$DIMTOH
 70
     0
  9
$DIMSE1
 70
     0
  9
$DIMSE2
 70
     0
  9
$DIMTAD
 70
     3
  9
$DIMZIN
 70
     0
  9
$DIMBLK
  1

  9
$DIMASO
 70
     1
  9
$DIMSHO
 70
     1
  9
$DIMPOST
  1

  9
$DIMAPOST
  1

  9
$DIMALT
 70
     0
  9
$DIMALTD
 70
     2
  9
$DIMALTF
 40
25.4
  9
$DIMLFAC
 40
1.0
  9
$DIMTOFL
 70
     1
  9
$DIMTVP
 40
0.0
  9
$DIMTIX
 70
     0
  9
$DIMSOXD
 70
     0
  9
$DIMSAH
 70
     1
  9
$DIMBLK1
  1
OPEN30
  9
$DIMBLK2
  1
OPEN30
  9
$DIMSTYLE
  2
STANDARD
  9
$DIMCLRD
 70
     0
  9
$DIMCLRE
 70
     0
  9
$DIMCLRT
 70
     0
  9
$DIMTFAC
 40
1.0
  9
$DIMGAP
 40
0.5
  9
$DIMJUST
 70
     0
  9
$DIMSD1
 70
     0
  9
$DIMSD2
 70
     0
  9
$DIMTOLJ
 70
     1
  9
$DIMTZIN
 70
     0
  9
$DIMALTZ
 70
     0
  9
$DIMALTTZ
 70
     0
  9
$DIMUPT
 70
     0
  9
$DIMDEC
 70
     4
  9
$DIMTDEC
 70
     4
  9
$DIMALTU
 70
     2
  9
$DIMALTTD
 70
     2
  9
$DIMTXSTY
  7
Standard
  9
$DIMAUNIT
 70
     0
  9
$DIMADEC
 70
     0
  9
$DIMALTRND
 40
0.0
  9
$DIMAZIN
 70
     0
  9
$DIMDSEP
 70
    46
  9
$DIMATFIT
 70
     3
  9
$DIMFRAC
 70
     0
  9
$DIMLDRBLK
  1
OPEN30
  9
$DIMLUNIT
 70
     2
  9
$DIMLWD
 70
    -2
  9
$DIMLWE
 70
    -2
  9
$DIMTMOVE
 70
     0
  9
$LUNITS
 70
     2
  9
$LUPREC
 70
     4
  9
$SKETCHINC
 40
1.0
  9
$FILLETRAD
 40
0.0
  9
$AUNITS
 70
     0
  9
$AUPREC
 70
     0
  9
$MENU
  1
.
  9
$ELEVATION
 40
0.0
  9
$PELEVATION
 40
0.0
  9
$THICKNESS
 40
0.0
  9
$LIMCHECK
 70
     0
  9
$CHAMFERA
 40
0.0
  9
$CHAMFERB
 40
0.0
  9
$CHAMFERC
 40
0.0
  9
$CHAMFERD
 40
0.0
  9
$SKPOLY
 70
     0
  9
$TDCREATE
 40
2454349.434269746
  9
$TDUCREATE
 40
2454349.059269746
  9
$TDUPDATE
 40
2455292.625875162
  9
$TDUUPDATE
 40
2455292.250875162
  9
$TDINDWG
 40
0.4077861690
  9
$TDUSRTIMER
 40
0.4077861690
  9
$USRTIMER
 70
     1
  9
$ANGBASE
 50
0.0
  9
$ANGDIR
 70
     0
  9
$PDMODE
 70
     0
  9
$PDSIZE
 40
0.0
  9
$PLINEWID
 40
0.0
  9
$SPLFRAME
 70
     0
  9
$SPLINETYPE
 70
     6
  9
$SPLINESEGS
 70
     8
  9
$HANDSEED
  5
5AB
  9
$SURFTAB1
 70
     6
  9
$SURFTAB2
 70
     6
  9
$SURFTYPE
 70
     6
  9
$SURFU
 70
     6
  9
$SURFV
 70
     6
  9
$UCSBASE
  2

  9
$UCSNAME
  2

  9
$UCSORG
 10
0.0
 20
0.0
 30
0.0
  9
$UCSXDIR
 10
1.0
 20
0.0
 30
0.0
  9
$UCSYDIR
 10
0.0
 20
1.0
 30
0.0
  9
$UCSORTHOREF
  2

  9
$UCSORTHOVIEW
 70
     0
  9
$UCSORGTOP
 10
0.0
 20
0.0
 30
0.0
  9
$UCSORGBOTTOM
 10
0.0
 20
0.0
 30
0.0
  9
$UCSORGLEFT
 10
0.0
 20
0.0
 30
0.0
  9
$UCSORGRIGHT
 10
0.0
 20
0.0
 30
0.0
  9
$UCSORGFRONT
 10
0.0
 20
0.0
 30
0.0
  9
$UCSORGBACK
 10
0.0
 20
0.0
 30
0.0
  9
$PUCSBASE
  2

  9
$PUCSNAME
  2

  9
$PUCSORG
 10
0.0
 20
0.0
 30
0.0
  9
$PUCSXDIR
 10
1.0
 20
0.0
 30
0.0
  9
$PUCSYDIR
 10
0.0
 20
1.0
 30
0.0
  9
$PUCSORTHOREF
  2

  9
$PUCSORTHOVIEW
 70
     0
  9
$PUCSORGTOP
 10
0.0
 20
0.0
 30
0.0
  9
$PUCSORGBOTTOM
 10
0.0
 20
0.0
 30
0.0
  9
$PUCSORGLEFT
 10
0.0
 20
0.0
 30
0.0
  9
$PUCSORGRIGHT
 10
0.0
 20
0.0
 30
0.0
  9
$PUCSORGFRONT
 10
0.0
 20
0.0
 30
0.0
  9
$PUCSORGBACK
 10
0.0
 20
0.0
 30
0.0
  9
$USERI1
 70
     0
  9
$USERI2
 70
     0
  9
$USERI3
 70
     0
  9
$USERI4
 70
     0
  9
$USERI5
 70
     0
  9
$USERR1
 40
0.0
  9
$USERR2
 40
0.0
  9
$USERR3
 40
0.0
  9
$USERR4
 40
0.0
  9
$USERR5
 40
0.0
  9
$WORLDVIEW
 70
     1
  9
$SHADEDGE
 70
     3
  9
$SHADEDIF
 70
    70
  9
$TILEMODE
 70
     1
  9
$MAXACTVP
 70
    64
  9
$PINSBASE
 10
0.0
 20
0.0
 30
0.0
  9
$PLIMCHECK
 70
     0
  9
$PEXTMIN
 10
0.0
 20
0.0
 30
0.0
  9
$PEXTMAX
 10
0.0
 20
0.0
 30
0.0
  9
$PLIMMIN
 10
0.0
 20
0.0
  9
$PLIMMAX
 10
12.0
 20
9.0
  9
$UNITMODE
 70
     0
  9
$VISRETAIN
 70
     1
  9
$PLINEGEN
 70
     0
  9
$PSLTSCALE
 70
     1
  9
$TREEDEPTH
 70
  3020
  9
$CMLSTYLE
  2
Standard
  9
$CMLJUST
 70
     0
  9
$CMLSCALE
 40
20.0
  9
$PROXYGRAPHICS
 70
     1
  9
$MEASUREMENT
 70
     1
  9
$CELWEIGHT
370
    -1
  9
$ENDCAPS
280
     0
  9
$JOINSTYLE
280
     0
  9
$LWDISPLAY
290
     0
  9
$INSUNITS
 70
     4
  9
$HYPERLINKBASE
  1

  9
$STYLESHEET
  1

  9
$XEDIT
290
     1
  9
$CEPSNTYPE
380
     0
  9
$PSTYLEMODE
290
     1
  9
$FINGERPRINTGUID
  2
{FDEAD578-A652-11D2-9A35-0060089B3A3F}
  9
$VERSIONGUID
  2
{6B635C43-93D2-4E7B-8077-8ABE0F9D41F5}
  9
$EXTNAMES
290
     1
  9
$PSVPSCALE
 40
0.0
  9
$OLESTARTUP
290
     0
  0
ENDSEC
  0
SECTION
  2
CLASSES
  0
CLASS
  1
ACDBDICTIONARYWDFLT
  2
AcDbDictionaryWithDefault
  3
ObjectDBX Classes
 90
        0
280
     0
281
     0
  0
CLASS
  1
ACDBPLACEHOLDER
  2
AcDbPlaceHolder
  3
ObjectDBX Classes
 90
        0
280
     0
281
     0
  0
CLASS
  1
LAYOUT
  2
AcDbLayout
  3
ObjectDBX Classes
 90
        0
280
     0
281
     0
  0
CLASS
  1
DICTIONARYVAR
  2
AcDbDictionaryVar
  3
ObjectDBX Classes
 90
        0
280
     0
281
     0
  0
CLASS
  1
SORTENTSTABLE
  2
AcDbSortentsTable
  3
ObjectDBX Classes
 90
    32768
280
     0
281
     0
  0
ENDSEC
  0
SECTION
  2
TABLES
  0
TABLE
  2
VPORT
  5
1C
330
0
100
AcDbSymbolTable
 70
     3
  0
VPORT
  5
5A3
330
1C
100
AcDbSymbolTableRecord
100
AcDbViewportTableRecord
  2
*Active
 70
     0
 10
0.0
 20
0.0
 11
1.0
 21
1.0
 12
-1.35864184629009
 22
-2.909453830459938
 13
0.0
 23
0.0
 14
10.0
 24
10.0
 15
10.0
 25
10.0
 16
0.0
 26
0.0
 36
1.0
 17
0.0
 27
0.0
 37
0.0
 40
113.8884792235037
 41
1.392857142857142
 42
50.0
 43
0.0
 44
0.0
 50
0.0
 51
0.0
 71
     0
 72
  1000
 73
     1
 74
     2
 75
     0
 76
     0
 77
     0
 78
     0
281
     0
 65
     1
110
0.0
120
0.0
130
0.0
111
1.0
121
0.0
131
0.0
112
0.0
122
1.0
132
0.0
 79
     0
146
0.0
  0
ENDTAB
  0
TABLE
  2
LTYPE
  5
17
330
0
100
AcDbSymbolTable
 70
     7
  0
LTYPE
  5
18
330
17
100
AcDbSymbolTableRecord
100
AcDbLinetypeTableRecord
  2
ByBlock
 70
     0
  3

 72
    65
 73
     0
 40
0.0
  0
LTYPE
  5
19
330
17
100
AcDbSymbolTableRecord
100
AcDbLinetypeTableRecord
  2
ByLayer
 70
     0
  3

 72
    65
 73
     0
 40
0.0
  0
LTYPE
  5
8
330
17
100
AcDbSymbolTableRecord
100
AcDbLinetypeTableRecord
  2
Continuous
 70
     0
  3
Solid line
 72
    65
 73
     0
 40
0.0
  0
LTYPE
  5
36
330
17
100
AcDbSymbolTableRecord
100
AcDbLinetypeTableRecord
  2
CENTER
 70
     0
  3
Center ____ _ ____ _ ____ _ ____ _ ____ _ ____
 72
    65
 73
     4
 40
50.8
 49
31.75
 74
     0
 49
-6.349999999999999
 74
     0
 49
6.349999999999999
 74
     0
 49
-6.349999999999999
 74
     0
  0
LTYPE
  5
42
330
17
100
AcDbSymbolTableRecord
100
AcDbLinetypeTableRecord
  2
DASHED
 70
     0
  3
Dashed __ __ __ __ __ __ __ __ __ __ __ __ __ _
 72
    65
 73
     2
 40
19.05
 49
12.7
 74
     0
 49
-6.349999999999999
 74
     0
  0
LTYPE
  5
5D
330
17
100
AcDbSymbolTableRecord
100
AcDbLinetypeTableRecord
  2
PHANTOM
 70
     0
  3
Phantom ______  __  __  ______  __  __  ______
 72
    65
 73
     6
 40
63.5
 49
31.75
 74
     0
 49
-6.349999999999999
 74
     0
 49
6.349999999999999
 74
     0
 49
-6.349999999999999
 74
     0
 49
6.349999999999999
 74
     0
 49
-6.349999999999999
 74
     0
  0
LTYPE
  5
2EB
330
17
100
AcDbSymbolTableRecord
100
AcDbLinetypeTableRecord
  2
HIDDEN2
 70
     0
  3
Hidden (.5x) _ _ _ _ _ _ _ _ _ _ _ _ _ _ _ _ _
 72
    65
 73
     2
 40
1.399999999999999
 49
0.7
 74
     0
 49
-0.7
 74
     0
  0
LTYPE
  5
53F
330
17
100
AcDbSymbolTableRecord
100
AcDbLinetypeTableRecord
  2
S50
 70
     0
  3
-------------- - ------------- 40,-1,1.5,-1
 72
    65
 73
     4
 40
43.5
 49
40.0
 74
     0
 49
-1.0
 74
     0
 49
1.5
 74
     0
 49
-1.0
 74
     0
  0
LTYPE
  5
540
330
17
100
AcDbSymbolTableRecord
100
AcDbLinetypeTableRecord
  2
S130
 70
     0
  3
--- - --- - --- 3,-1,1,-1
 72
    65
 73
     4
 40
6.0
 49
3.0
 74
     0
 49
-1.0
 74
     0
 49
1.0
 74
     0
 49
-1.0
 74
     0
  0
ENDTAB
  0
TABLE
  2
LAYER
  5
10
102
{ACAD_XDICTIONARY
360
11
102
}
330
0
100
AcDbSymbolTable
 70
     9
  0
LAYER
  5
4
330
10
100
AcDbSymbolTableRecord
100
AcDbLayerTableRecord
  2
0
 70
     0
 62
     7
  6
Continuous
370
    -3
390
5
  0
LAYER
  5
280
330
10
100
AcDbSymbolTableRecord
100
AcDbLayerTableRecord
  2
WAKU
 70
     0
 62
     4
  6
Continuous
370
    -3
390
5
  0
LAYER
  5
31
330
10
100
AcDbSymbolTableRecord
100
AcDbLayerTableRecord
  2
MOJI1
 70
     0
 62
     2
  6
Continuous
370
    -3
390
5
  0
LAYER
  5
33
330
10
100
AcDbSymbolTableRecord
100
AcDbLayerTableRecord
  2
TOUROKU
 70
     0
 62
     1
  6
Continuous
370
    -3
390
5
  0
LAYER
  5
20B
330
10
100
AcDbSymbolTableRecord
100
AcDbLayerTableRecord
  2
DEFPOINTS
 70
     0
 62
     7
  6
Continuous
290
     0
370
    -3
390
5
  0
LAYER
  5
FE
330
10
100
AcDbSymbolTableRecord
100
AcDbLayerTableRecord
  2
GAIKEI
 70
     0
 62
     7
  6
Continuous
370
    -3
390
5
  0
LAYER
  5
2E
330
10
100
AcDbSymbolTableRecord
100
AcDbLayerTableRecord
  2
SUNPO
 70
     0
 62
     3
  6
Continuous
370
    -3
390
5
  0
LAYER
  5
35
330
10
100
AcDbSymbolTableRecord
100
AcDbLayerTableRecord
  2
S1
 70
     0
 62
     1
  6
Continuous
370
    -3
390
5
  0
LAYER
  5
53E
330
10
100
AcDbSymbolTableRecord
100
AcDbLayerTableRecord
  2
KIJUN
 70
     0
 62
    14
  6
S50
370
    -3
390
5
  0
ENDTAB
  0
TABLE
  2
STYLE
  5
14
330
0
100
AcDbSymbolTable
 70
     1
  0
STYLE
  5
15
330
14
100
AcDbSymbolTableRecord
100
AcDbTextStyleTableRecord
  2
Standard
 70
     0
 40
0.0
 41
1.0
 50
0.0
 71
     0
 42
2.5
  3
MONOTXT.shx
  4
BIGFONT.shx
  0
ENDTAB
  0
TABLE
  2
VIEW
  5
1A
330
0
100
AcDbSymbolTable
 70
     0
  0
ENDTAB
  0
TABLE
  2
UCS
  5
1B
330
0
100
AcDbSymbolTable
 70
     0
  0
ENDTAB
  0
TABLE
  2
APPID
  5
1E
330
0
100
AcDbSymbolTable
 70
     1
  0
APPID
  5
1F
330
1E
100
AcDbSymbolTableRecord
100
AcDbRegAppTableRecord
  2
ACAD
 70
     0
  0
ENDTAB
  0
TABLE
  2
DIMSTYLE
  5
20
330
0
100
AcDbSymbolTable
 70
     1
100
AcDbDimStyleTable
 71
     1
340
21
  0
DIMSTYLE
105
21
102
{ACAD_REACTORS
330
2DD
330
2D0
330
2C2
330
2B4
330
201
330
232
102
}
330
20
100
AcDbSymbolTableRecord
100
AcDbDimStyleTableRecord
  2
STANDARD
 70
     0
 40
0.0
 41
2.0
 42
2.0
 43
8.0
 44
2.0
 73
     0
 74
     0
 77
     3
140
3.0
141
0.0
173
     1
279
     2
288
     1
340
15
341
22
343
22
344
22
  0
ENDTAB
  0
TABLE
  2
BLOCK_RECORD
  5
1
330
0
100
AcDbSymbolTable
 70
    13
  0
BLOCK_RECORD
  5
2
330
1
100
AcDbSymbolTableRecord
100
AcDbBlockTableRecord
  2
*Model_Space
340
A
  0
BLOCK_RECORD
  5
C
330
1
100
AcDbSymbolTableRecord
100
AcDbBlockTableRecord
  2
*Paper_Space
340
F
  0
BLOCK_RECORD
  5
22
330
1
100
AcDbSymbolTableRecord
100
AcDbBlockTableRecord
  2
_OPEN30
340
0
102
{BLKREFS
331
29C
331
2AE
331
207
331
208
331
238
331
239
331
2BB
331
2BC
331
2C9
331
2CA
331
2D6
331
2D7
331
2E3
331
2E4
331
559
331
55A
331
565
331
566
331
572
331
573
331
57F
331
580
331
58B
331
58C
331
597
331
598
102
}
  0
BLOCK_RECORD
  5
2DE
330
1
100
AcDbSymbolTableRecord
100
AcDbBlockTableRecord
  2
*D1
340
0
  0
BLOCK_RECORD
  5
2D1
330
1
100
AcDbSymbolTableRecord
100
AcDbBlockTableRecord
  2
*D2
340
0
  0
BLOCK_RECORD
  5
2C3
330
1
100
AcDbSymbolTableRecord
100
AcDbBlockTableRecord
  2
*D3
340
0
  0
BLOCK_RECORD
  5
2B5
330
1
100
AcDbSymbolTableRecord
100
AcDbBlockTableRecord
  2
*D4
340
0
  0
BLOCK_RECORD
  5
202
330
1
100
AcDbSymbolTableRecord
100
AcDbBlockTableRecord
  2
*D5
340
0
  0
BLOCK_RECORD
  5
233
330
1
100
AcDbSymbolTableRecord
100
AcDbBlockTableRecord
  2
*D6
340
0
  0
BLOCK_RECORD
  5
555
330
1
100
AcDbSymbolTableRecord
100
AcDbBlockTableRecord
  2
*D7
340
0
  0
BLOCK_RECORD
  5
561
330
1
100
AcDbSymbolTableRecord
100
AcDbBlockTableRecord
  2
*D8
340
0
  0
BLOCK_RECORD
  5
56D
330
1
100
AcDbSymbolTableRecord
100
AcDbBlockTableRecord
  2
*D9
340
0
  0
BLOCK_RECORD
  5
57A
330
1
100
AcDbSymbolTableRecord
100
AcDbBlockTableRecord
  2
*D10
340
0
  0
BLOCK_RECORD
  5
587
330
1
100
AcDbSymbolTableRecord
100
AcDbBlockTableRecord
  2
*D11
340
0
  0
BLOCK_RECORD
  5
593
330
1
100
AcDbSymbolTableRecord
100
AcDbBlockTableRecord
  2
*D12
340
0
  0
ENDTAB
  0
ENDSEC
  0
SECTION
  2
BLOCKS
  0
BLOCK
  5
3
330
2
100
AcDbEntity
  8
0
100
AcDbBlockBegin
  2
*Model_Space
 70
     0
 10
0.0
 20
0.0
 30
0.0
  3
*Model_Space
  1

  0
ENDBLK
  5
9
330
2
100
AcDbEntity
  8
0
100
AcDbBlockEnd
  0
BLOCK
  5
D
330
C
100
AcDbEntity
 67
     1
  8
0
100
AcDbBlockBegin
  2
*Paper_Space
 70
     0
 10
0.0
 20
0.0
 30
0.0
  3
*Paper_Space
  1

  0
ENDBLK
  5
E
330
C
100
AcDbEntity
 67
     1
  8
0
100
AcDbBlockEnd
  0
BLOCK
  5
23
330
22
100
AcDbEntity
  8
0
100
AcDbBlockBegin
  2
_OPEN30
 70
     0
 10
0.0
 20
0.0
 30
0.0
  3
_OPEN30
  1

  0
LINE
  5
24
330
22
100
AcDbEntity
  8
0
  6
ByBlock
 62
     0
100
AcDbLine
 10
-1.0
 20
0.26794919
 30
0.0
 11
0.0
 21
0.0
 31
0.0
  0
LINE
  5
25
330
22
100
AcDbEntity
  8
0
  6
ByBlock
 62
     0
100
AcDbLine
 10
0.0
 20
0.0
 30
0.0
 11
-1.0
 21
-0.26794919
 31
0.0
  0
LINE
  5
26
330
22
100
AcDbEntity
  8
0
  6
ByBlock
 62
     0
100
AcDbLine
 10
0.0
 20
0.0
 30
0.0
 11
-1.0
 21
0.0
 31
0.0
  0
ENDBLK
  5
27
330
22
100
AcDbEntity
  8
0
100
AcDbBlockEnd
  0
BLOCK
  5
2DF
330
2DE
100
AcDbEntity
  8
0
100
AcDbBlockBegin
  2
*D1
 70
     1
 10
0.0
 20
0.0
 30
0.0
  3
*D1
  1

  0
LINE
  5
2E0
330
2DE
100
AcDbEntity
  8
SUNPO
 62
     0
370
    -2
100
AcDbLine
 10
43.21724355466336
 20
184.7091672539628
 30
0.0
 11
43.21724355466336
 21
176.7091672539628
 31
0.0
  0
LINE
  5
2E1
330
2DE
100
AcDbEntity
  8
SUNPO
 62
     0
370
    -2
100
AcDbLine
 10
70.71724355466336
 20
184.7091672539628
 30
0.0
 11
70.71724355466336
 21
176.7091672539628
 31
0.0
  0
LINE
  5
2E2
330
2DE
100
AcDbEntity
  8
SUNPO
 62
     0
370
    -2
100
AcDbLine
 10
45.21724355466337
 20
178.7091672539628
 30
0.0
 11
68.71724355466337
 21
178.7091672539628
 31
0.0
  0
INSERT
  5
2E3
330
2DE
100
AcDbEntity
  8
SUNPO
 62
     0
370
    -2
100
AcDbBlockReference
  2
_OPEN30
 10
43.21724355466336
 20
178.7091672539628
 30
0.0
 41
2.0
 42
2.0
 43
2.0
 50
180.0
  0
INSERT
  5
2E4
330
2DE
100
AcDbEntity
  8
SUNPO
 62
     0
370
    -2
100
AcDbBlockReference
  2
_OPEN30
 10
70.71724355466336
 20
178.7091672539628
 30
0.0
 41
2.0
 42
2.0
 43
2.0
  0
MTEXT
  5
2E5
330
2DE
100
AcDbEntity
  8
SUNPO
 62
     0
100
AcDbMText
 10
56.96724355466336
 20
180.4591672539628
 30
0.0
 40
2.5
 41
0.0
 71
     5
 72
     1
  1
\A1;550
 73
     1
 44
1.0
1001
ACAD
1000
MTEXTBEGIN
1070
    73
1070
     1
1070
    44
1040
1.0
1070
    74
1070
     0
1000
MTEXTEND
  0
POINT
  5
2E6
330
2DE
100
AcDbEntity
  8
DEFPOINTS
 62
     0
100
AcDbPoint
 10
43.21724355466336
 20
186.7091672539628
 30
0.0
  0
POINT
  5
2E7
330
2DE
100
AcDbEntity
  8
DEFPOINTS
 62
     0
100
AcDbPoint
 10
70.71724355466336
 20
186.7091672539628
 30
0.0
  0
POINT
  5
2E8
330
2DE
100
AcDbEntity
  8
DEFPOINTS
 62
     0
100
AcDbPoint
 10
70.71724355466336
 20
178.7091672539628
 30
0.0
  0
ENDBLK
  5
2E9
330
2DE
100
AcDbEntity
  8
0
100
AcDbBlockEnd
  0
BLOCK
  5
2D2
330
2D1
100
AcDbEntity
  8
0
100
AcDbBlockBegin
  2
*D2
 70
     1
 10
0.0
 20
0.0
 30
0.0
  3
*D2
  1

  0
LINE
  5
2D3
330
2D1
100
AcDbEntity
  8
SUNPO
 62
     0
370
    -2
100
AcDbLine
 10
24.5683324354502
 20
216.3244832324496
 30
0.0
 11
16.56833243545021
 21
216.3244832324496
 31
0.0
  0
LINE
  5
2D4
330
2D1
100
AcDbEntity
  8
SUNPO
 62
     0
370
    -2
100
AcDbLine
 10
24.5683324354502
 20
192.0744832324497
 30
0.0
 11
16.5683324354502
 21
192.0744832324497
 31
0.0
  0
LINE
  5
2D5
330
2D1
100
AcDbEntity
  8
SUNPO
 62
     0
370
    -2
100
AcDbLine
 10
18.5683324354502
 20
214.3244832324496
 30
0.0
 11
18.5683324354502
 21
194.0744832324497
 31
0.0
  0
INSERT
  5
2D6
330
2D1
100
AcDbEntity
  8
SUNPO
 62
     0
370
    -2
100
AcDbBlockReference
  2
_OPEN30
 10
18.56833243545021
 20
216.3244832324496
 30
0.0
 41
2.0
 42
2.0
 43
2.0
 50
90.0
  0
INSERT
  5
2D7
330
2D1
100
AcDbEntity
  8
SUNPO
 62
     0
370
    -2
100
AcDbBlockReference
  2
_OPEN30
 10
18.5683324354502
 20
192.0744832324497
 30
0.0
 41
2.0
 42
2.0
 43
2.0
 50
270.0
  0
MTEXT
  5
2D8
330
2D1
100
AcDbEntity
  8
SUNPO
 62
     0
100
AcDbMText
 10
16.81833243545017
 20
204.1994832324497
 30
0.0
 40
2.5
 41
0.0
 71
     5
 72
     1
  1
\A1;485
 11
0.0000000000000001
 21
1.0
 31
0.0
 73
     1
 44
1.0
1001
ACAD
1000
MTEXTBEGIN
1070
    73
1070
     1
1070
    44
1040
1.0
1070
    74
1070
     0
1000
MTEXTEND
  0
POINT
  5
2D9
330
2D1
100
AcDbEntity
  8
DEFPOINTS
 62
     0
100
AcDbPoint
 10
26.5683324354502
 20
216.3244832324496
 30
0.0
  0
POINT
  5
2DA
330
2D1
100
AcDbEntity
  8
DEFPOINTS
 62
     0
100
AcDbPoint
 10
26.5683324354502
 20
192.0744832324497
 30
0.0
  0
POINT
  5
2DB
330
2D1
100
AcDbEntity
  8
DEFPOINTS
 62
     0
100
AcDbPoint
 10
18.5683324354502
 20
192.0744832324497
 30
0.0
  0
ENDBLK
  5
2DC
330
2D1
100
AcDbEntity
  8
0
100
AcDbBlockEnd
  0
BLOCK
  5
2C4
330
2C3
100
AcDbEntity
  8
0
100
AcDbBlockBegin
  2
*D3
 70
     1
 10
0.0
 20
0.0
 30
0.0
  3
*D3
  1

  0
LINE
  5
2C5
330
2C3
100
AcDbEntity
  8
SUNPO
 62
     0
370
    -2
100
AcDbLine
 10
24.5683324354502
 20
192.0744832324497
 30
0.0
 11
16.5683324354502
 21
192.0744832324497
 31
0.0
  0
LINE
  5
2C6
330
2C3
100
AcDbEntity
  8
SUNPO
 62
     0
370
    -2
100
AcDbLine
 10
24.5683324354502
 20
186.7783281646192
 30
0.0
 11
16.5683324354502
 21
186.7783281646192
 31
0.0
  0
LINE
  5
2C7
330
2C3
100
AcDbEntity
  8
SUNPO
 62
     0
370
    -2
100
AcDbLine
 10
18.5683324354502
 20
190.0744832324497
 30
0.0
 11
18.5683324354502
 21
188.7783281646192
 31
0.0
  0
LINE
  5
2C8
330
2C3
100
AcDbEntity
  8
SUNPO
 62
     0
370
    -2
100
AcDbLine
 10
18.5683324354502
 20
186.7783281646192
 30
0.0
 11
18.5683324354502
 21
177.1116614979526
 31
0.0
  0
INSERT
  5
2C9
330
2C3
100
AcDbEntity
  8
SUNPO
 62
     0
370
    -2
100
AcDbBlockReference
  2
_OPEN30
 10
18.5683324354502
 20
192.0744832324497
 30
0.0
 41
2.0
 42
2.0
 43
2.0
 50
90.0
  0
INSERT
  5
2CA
330
2C3
100
AcDbEntity
  8
SUNPO
 62
     0
370
    -2
100
AcDbBlockReference
  2
_OPEN30
 10
18.5683324354502
 20
186.7783281646192
 30
0.0
 41
2.0
 42
2.0
 43
2.0
 50
270.0
  0
MTEXT
  5
2CB
330
2C3
100
AcDbEntity
  8
SUNPO
 62
     0
100
AcDbMText
 10
16.81833243545017
 20
180.9449948312859
 30
0.0
 40
2.5
 41
0.0
 71
     5
 72
     1
  1
\A1;106
 11
0.0000000000000001
 21
1.0
 31
0.0
 73
     1
 44
1.0
1001
ACAD
1000
MTEXTBEGIN
1070
    73
1070
     1
1070
    44
1040
1.0
1070
    74
1070
     0
1000
MTEXTEND
  0
POINT
  5
2CC
330
2C3
100
AcDbEntity
  8
DEFPOINTS
 62
     0
100
AcDbPoint
 10
26.5683324354502
 20
192.0744832324497
 30
0.0
  0
POINT
  5
2CD
330
2C3
100
AcDbEntity
  8
DEFPOINTS
 62
     0
100
AcDbPoint
 10
26.5683324354502
 20
186.7783281646192
 30
0.0
  0
POINT
  5
2CE
330
2C3
100
AcDbEntity
  8
DEFPOINTS
 62
     0
100
AcDbPoint
 10
18.5683324354502
 20
186.7783281646192
 30
0.0
  0
ENDBLK
  5
2CF
330
2C3
100
AcDbEntity
  8
0
100
AcDbBlockEnd
  0
BLOCK
  5
2B6
330
2B5
100
AcDbEntity
  8
0
100
AcDbBlockBegin
  2
*D4
 70
     1
 10
0.0
 20
0.0
 30
0.0
  3
*D4
  1

  0
LINE
  5
2B7
330
2B5
100
AcDbEntity
  8
SUNPO
 62
     0
370
    -2
100
AcDbLine
 10
24.5683324354502
 20
216.3244832324497
 30
0.0
 11
16.5683324354502
 21
216.3244832324497
 31
0.0
  0
LINE
  5
2B8
330
2B5
100
AcDbEntity
  8
SUNPO
 62
     0
370
    -2
100
AcDbLine
 10
24.5683324354502
 20
222.9706383002801
 30
0.0
 11
16.5683324354502
 21
222.9706383002801
 31
0.0
  0
LINE
  5
2B9
330
2B5
100
AcDbEntity
  8
SUNPO
 62
     0
370
    -2
100
AcDbLine
 10
18.5683324354502
 20
218.3244832324497
 30
0.0
 11
18.5683324354502
 21
220.9706383002801
 31
0.0
  0
LINE
  5
2BA
330
2B5
100
AcDbEntity
  8
SUNPO
 62
     0
370
    -2
100
AcDbLine
 10
18.5683324354502
 20
222.9706383002801
 30
0.0
 11
18.5683324354502
 21
232.6373049669467
 31
0.0
  0
INSERT
  5
2BB
330
2B5
100
AcDbEntity
  8
SUNPO
 62
     0
370
    -2
100
AcDbBlockReference
  2
_OPEN30
 10
18.5683324354502
 20
216.3244832324497
 30
0.0
 41
2.0
 42
2.0
 43
2.0
 50
270.0
  0
INSERT
  5
2BC
330
2B5
100
AcDbEntity
  8
SUNPO
 62
     0
370
    -2
100
AcDbBlockReference
  2
_OPEN30
 10
18.5683324354502
 20
222.9706383002801
 30
0.0
 41
2.0
 42
2.0
 43
2.0
 50
90.0
  0
MTEXT
  5
2BD
330
2B5
100
AcDbEntity
  8
SUNPO
 62
     0
100
AcDbMText
 10
16.81833243545016
 20
228.8039716336134
 30
0.0
 40
2.5
 41
0.0
 71
     5
 72
     1
  1
\A1;133
 11
0.0000000000000001
 21
1.0
 31
0.0
 73
     1
 44
1.0
1001
ACAD
1000
MTEXTBEGIN
1070
    73
1070
     1
1070
    44
1040
1.0
1070
    74
1070
     0
1000
MTEXTEND
  0
POINT
  5
2BE
330
2B5
100
AcDbEntity
  8
DEFPOINTS
 62
     0
100
AcDbPoint
 10
26.5683324354502
 20
216.3244832324497
 30
0.0
  0
POINT
  5
2BF
330
2B5
100
AcDbEntity
  8
DEFPOINTS
 62
     0
100
AcDbPoint
 10
26.5683324354502
 20
222.9706383002801
 30
0.0
  0
POINT
  5
2C0
330
2B5
100
AcDbEntity
  8
DEFPOINTS
 62
     0
100
AcDbPoint
 10
18.5683324354502
 20
222.9706383002801
 30
0.0
  0
ENDBLK
  5
2C1
330
2B5
100
AcDbEntity
  8
0
100
AcDbBlockEnd
  0
BLOCK
  5
203
330
202
100
AcDbEntity
  8
0
100
AcDbBlockBegin
  2
*D5
 70
     1
 10
0.0
 20
0.0
 30
0.0
  3
*D5
  1

  0
LINE
  5
204
330
202
100
AcDbEntity
  8
SUNPO
 62
     0
370
    -2
100
AcDbLine
 10
88.77747835283566
 20
186.7783281646192
 30
0.0
 11
96.77747835283566
 21
186.7783281646192
 31
0.0
  0
LINE
  5
205
330
202
100
AcDbEntity
  8
SUNPO
 62
     0
370
    -2
100
AcDbLine
 10
88.77747835283562
 20
222.9706383002801
 30
0.0
 11
96.77747835283566
 21
222.9706383002801
 31
0.0
  0
LINE
  5
206
330
202
100
AcDbEntity
  8
SUNPO
 62
     0
370
    -2
100
AcDbLine
 10
94.77747835283565
 20
188.7783281646192
 30
0.0
 11
94.77747835283565
 21
220.9706383002801
 31
0.0
  0
INSERT
  5
207
330
202
100
AcDbEntity
  8
SUNPO
 62
     0
370
    -2
100
AcDbBlockReference
  2
_OPEN30
 10
94.77747835283565
 20
186.7783281646192
 30
0.0
 41
2.0
 42
2.0
 43
2.0
 50
270.0
  0
INSERT
  5
208
330
202
100
AcDbEntity
  8
SUNPO
 62
     0
370
    -2
100
AcDbBlockReference
  2
_OPEN30
 10
94.77747835283565
 20
222.9706383002801
 30
0.0
 41
2.0
 42
2.0
 43
2.0
 50
90.0
  0
MTEXT
  5
209
330
202
100
AcDbEntity
  8
SUNPO
 62
     0
100
AcDbMText
 10
93.02747835283563
 20
204.8744832324497
 30
0.0
 40
2.5
 41
0.0
 71
     5
 72
     1
  1
\A1;724
 11
0.0000000000000001
 21
1.0
 31
0.0
 73
     1
 44
1.0
1001
ACAD
1000
MTEXTBEGIN
1070
    73
1070
     1
1070
    44
1040
1.0
1070
    74
1070
     0
1000
MTEXTEND
  0
POINT
  5
20A
330
202
100
AcDbEntity
  8
DEFPOINTS
 62
     0
100
AcDbPoint
 10
86.77747835283566
 20
186.7783281646192
 30
0.0
  0
POINT
  5
20C
330
202
100
AcDbEntity
  8
DEFPOINTS
 62
     0
100
AcDbPoint
 10
86.77747835283563
 20
222.9706383002801
 30
0.0
  0
POINT
  5
20D
330
202
100
AcDbEntity
  8
DEFPOINTS
 62
     0
100
AcDbPoint
 10
94.77747835283565
 20
222.9706383002801
 30
0.0
  0
ENDBLK
  5
20E
330
202
100
AcDbEntity
  8
0
100
AcDbBlockEnd
  0
BLOCK
  5
234
330
233
100
AcDbEntity
  8
0
100
AcDbBlockBegin
  2
*D6
 70
     1
 10
0.0
 20
0.0
 30
0.0
  3
*D6
  1

  0
LINE
  5
235
330
233
100
AcDbEntity
  8
SUNPO
 62
     0
370
    -2
100
AcDbLine
 10
26.71724356676342
 20
224.9703518559287
 30
0.0
 11
26.71724356676342
 21
232.9703518559287
 31
0.0
  0
LINE
  5
236
330
233
100
AcDbEntity
  8
SUNPO
 62
     0
370
    -2
100
AcDbLine
 10
87.21724354256332
 20
224.9703518559287
 30
0.0
 11
87.21724354256332
 21
232.9703518559287
 31
0.0
  0
LINE
  5
237
330
233
100
AcDbEntity
  8
SUNPO
 62
     0
370
    -2
100
AcDbLine
 10
28.71724356676342
 20
230.9703518559287
 30
0.0
 11
85.21724354256333
 21
230.9703518559287
 31
0.0
  0
INSERT
  5
238
330
233
100
AcDbEntity
  8
SUNPO
 62
     0
370
    -2
100
AcDbBlockReference
  2
_OPEN30
 10
26.71724356676342
 20
230.9703518559287
 30
0.0
 41
2.0
 42
2.0
 43
2.0
 50
180.0
  0
INSERT
  5
239
330
233
100
AcDbEntity
  8
SUNPO
 62
     0
370
    -2
100
AcDbBlockReference
  2
_OPEN30
 10
87.21724354256332
 20
230.9703518559287
 30
0.0
 41
2.0
 42
2.0
 43
2.0
  0
MTEXT
  5
23A
330
233
100
AcDbEntity
  8
SUNPO
 62
     0
100
AcDbMText
 10
56.96724355466336
 20
232.7203518559287
 30
0.0
 40
2.5
 41
0.0
 71
     5
 72
     1
  1
\A1;1210
 73
     1
 44
1.0
1001
ACAD
1000
MTEXTBEGIN
1070
    73
1070
     1
1070
    44
1040
1.0
1070
    74
1070
     0
1000
MTEXTEND
  0
POINT
  5
23B
330
233
100
AcDbEntity
  8
DEFPOINTS
 62
     0
100
AcDbPoint
 10
26.71724356676342
 20
222.9703518559287
 30
0.0
  0
POINT
  5
23C
330
233
100
AcDbEntity
  8
DEFPOINTS
 62
     0
100
AcDbPoint
 10
87.21724354256332
 20
222.9703518559287
 30
0.0
  0
POINT
  5
23D
330
233
100
AcDbEntity
  8
DEFPOINTS
 62
     0
100
AcDbPoint
 10
87.21724354256332
 20
230.9703518559287
 30
0.0
  0
ENDBLK
  5
23E
330
233
100
AcDbEntity
  8
0
100
AcDbBlockEnd
  0
BLOCK
  5
55F
330
555
100
AcDbEntity
  8
0
100
AcDbBlockBegin
  2
*D7
 70
     1
 10
0.0
 20
0.0
 30
0.0
  3
*D7
  1

  0
LINE
  5
556
330
555
100
AcDbEntity
  8
SUNPO
 62
     0
370
    -2
100
AcDbLine
 10
-23.14341298576493
 20
-6.192874283373782
 30
0.0
 11
-23.14341298576493
 21
-14.19287428337375
 31
0.0
  0
LINE
  5
557
330
555
100
AcDbEntity
  8
SUNPO
 62
     0
370
    -2
100
AcDbLine
 10
4.356587014235074
 20
-6.192874283373754
 30
0.0
 11
4.356587014235073
 21
-14.19287428337375
 31
0.0
  0
LINE
  5
558
330
555
100
AcDbEntity
  8
SUNPO
 62
     0
370
    -2
100
AcDbLine
 10
-21.14341298576492
 20
-12.19287428337375
 30
0.0
 11
2.356587014235073
 21
-12.19287428337375
 31
0.0
  0
INSERT
  5
559
330
555
100
AcDbEntity
  8
SUNPO
 62
     0
370
    -2
100
AcDbBlockReference
  2
_OPEN30
 10
-23.14341298576493
 20
-12.19287428337375
 30
0.0
 41
2.0
 42
2.0
 43
2.0
 50
180.0
  0
INSERT
  5
55A
330
555
100
AcDbEntity
  8
SUNPO
 62
     0
370
    -2
100
AcDbBlockReference
  2
_OPEN30
 10
4.356587014235073
 20
-12.19287428337375
 30
0.0
 41
2.0
 42
2.0
 43
2.0
  0
MTEXT
  5
55B
330
555
100
AcDbEntity
  8
SUNPO
 62
     0
100
AcDbMText
 10
-9.393412985764925
 20
-10.44287428337375
 30
0.0
 40
2.5
 41
0.0
 71
     5
 72
     1
  1
\A1;550
 73
     1
 44
1.0
1001
ACAD
1000
MTEXTBEGIN
1070
    73
1070
     1
1070
    44
1040
1.0
1070
    74
1070
     0
1000
MTEXTEND
  0
POINT
  5
55C
330
555
100
AcDbEntity
  8
DEFPOINTS
 62
     0
100
AcDbPoint
 10
-23.14341298576493
 20
-4.192874283373782
 30
0.0
  0
POINT
  5
55D
330
555
100
AcDbEntity
  8
DEFPOINTS
 62
     0
100
AcDbPoint
 10
4.356587014235074
 20
-4.192874283373754
 30
0.0
  0
POINT
  5
55E
330
555
100
AcDbEntity
  8
DEFPOINTS
 62
     0
100
AcDbPoint
 10
4.356587014235073
 20
-12.19287428337375
 30
0.0
  0
ENDBLK
  5
560
330
555
100
AcDbEntity
  8
0
100
AcDbBlockEnd
  0
BLOCK
  5
56B
330
561
100
AcDbEntity
  8
0
100
AcDbBlockBegin
  2
*D8
 70
     1
 10
0.0
 20
0.0
 30
0.0
  3
*D8
  1

  0
LINE
  5
562
330
561
100
AcDbEntity
  8
SUNPO
 62
     0
370
    -2
100
AcDbLine
 10
-41.79232410497809
 20
25.42244169511304
 30
0.0
 11
-49.79232410497808
 21
25.42244169511304
 31
0.0
  0
LINE
  5
563
330
561
100
AcDbEntity
  8
SUNPO
 62
     0
370
    -2
100
AcDbLine
 10
-41.79232410497809
 20
1.172441695113122
 30
0.0
 11
-49.79232410497809
 21
1.172441695113124
 31
0.0
  0
LINE
  5
564
330
561
100
AcDbEntity
  8
SUNPO
 62
     0
370
    -2
100
AcDbLine
 10
-47.79232410497808
 20
23.42244169511304
 30
0.0
 11
-47.79232410497809
 21
3.172441695113124
 31
0.0
  0
INSERT
  5
565
330
561
100
AcDbEntity
  8
SUNPO
 62
     0
370
    -2
100
AcDbBlockReference
  2
_OPEN30
 10
-47.79232410497808
 20
25.42244169511304
 30
0.0
 41
2.0
 42
2.0
 43
2.0
 50
90.0
  0
INSERT
  5
566
330
561
100
AcDbEntity
  8
SUNPO
 62
     0
370
    -2
100
AcDbBlockReference
  2
_OPEN30
 10
-47.79232410497809
 20
1.172441695113124
 30
0.0
 41
2.0
 42
2.0
 43
2.0
 50
270.0
  0
MTEXT
  5
567
330
561
100
AcDbEntity
  8
SUNPO
 62
     0
100
AcDbMText
 10
-49.54232410497809
 20
13.29744169511307
 30
0.0
 40
2.5
 41
0.0
 71
     5
 72
     1
  1
\A1;485
 11
0.0000000000000001
 21
1.0
 31
0.0
 73
     1
 44
1.0
1001
ACAD
1000
MTEXTBEGIN
1070
    73
1070
     1
1070
    44
1040
1.0
1070
    74
1070
     0
1000
MTEXTEND
  0
POINT
  5
568
330
561
100
AcDbEntity
  8
DEFPOINTS
 62
     0
100
AcDbPoint
 10
-39.79232410497809
 20
25.42244169511304
 30
0.0
  0
POINT
  5
569
330
561
100
AcDbEntity
  8
DEFPOINTS
 62
     0
100
AcDbPoint
 10
-39.79232410497809
 20
1.172441695113121
 30
0.0
  0
POINT
  5
56A
330
561
100
AcDbEntity
  8
DEFPOINTS
 62
     0
100
AcDbPoint
 10
-47.79232410497809
 20
1.172441695113124
 30
0.0
  0
ENDBLK
  5
56C
330
561
100
AcDbEntity
  8
0
100
AcDbBlockEnd
  0
BLOCK
  5
578
330
56D
100
AcDbEntity
  8
0
100
AcDbBlockBegin
  2
*D9
 70
     1
 10
0.0
 20
0.0
 30
0.0
  3
*D9
  1

  0
LINE
  5
56E
330
56D
100
AcDbEntity
  8
SUNPO
 62
     0
370
    -2
100
AcDbLine
 10
-41.79232410497809
 20
1.172441695113122
 30
0.0
 11
-49.79232410497809
 21
1.172441695113124
 31
0.0
  0
LINE
  5
56F
330
56D
100
AcDbEntity
  8
SUNPO
 62
     0
370
    -2
100
AcDbLine
 10
-41.79232410497809
 20
-4.123713372717332
 30
0.0
 11
-49.79232410497809
 21
-4.12371337271733
 31
0.0
  0
LINE
  5
570
330
56D
100
AcDbEntity
  8
SUNPO
 62
     0
370
    -2
100
AcDbLine
 10
-47.79232410497809
 20
-0.827558304886876
 30
0.0
 11
-47.79232410497809
 21
-2.12371337271733
 31
0.0
  0
LINE
  5
571
330
56D
100
AcDbEntity
  8
SUNPO
 62
     0
370
    -2
100
AcDbLine
 10
-47.79232410497809
 20
-4.12371337271733
 30
0.0
 11
-47.79232410497809
 21
-13.790380039384
 31
0.0
  0
INSERT
  5
572
330
56D
100
AcDbEntity
  8
SUNPO
 62
     0
370
    -2
100
AcDbBlockReference
  2
_OPEN30
 10
-47.79232410497809
 20
1.172441695113124
 30
0.0
 41
2.0
 42
2.0
 43
2.0
 50
90.0
  0
INSERT
  5
573
330
56D
100
AcDbEntity
  8
SUNPO
 62
     0
370
    -2
100
AcDbBlockReference
  2
_OPEN30
 10
-47.79232410497809
 20
-4.12371337271733
 30
0.0
 41
2.0
 42
2.0
 43
2.0
 50
270.0
  0
MTEXT
  5
574
330
56D
100
AcDbEntity
  8
SUNPO
 62
     0
100
AcDbMText
 10
-49.54232410497809
 20
-9.95704670605067
 30
0.0
 40
2.5
 41
0.0
 71
     5
 72
     1
  1
\A1;106
 11
0.0000000000000001
 21
1.0
 31
0.0
 73
     1
 44
1.0
1001
ACAD
1000
MTEXTBEGIN
1070
    73
1070
     1
1070
    44
1040
1.0
1070
    74
1070
     0
1000
MTEXTEND
  0
POINT
  5
575
330
56D
100
AcDbEntity
  8
DEFPOINTS
 62
     0
100
AcDbPoint
 10
-39.79232410497809
 20
1.172441695113121
 30
0.0
  0
POINT
  5
576
330
56D
100
AcDbEntity
  8
DEFPOINTS
 62
     0
100
AcDbPoint
 10
-39.79232410497809
 20
-4.123713372717332
 30
0.0
  0
POINT
  5
577
330
56D
100
AcDbEntity
  8
DEFPOINTS
 62
     0
100
AcDbPoint
 10
-47.79232410497809
 20
-4.12371337271733
 30
0.0
  0
ENDBLK
  5
579
330
56D
100
AcDbEntity
  8
0
100
AcDbBlockEnd
  0
BLOCK
  5
585
330
57A
100
AcDbEntity
  8
0
100
AcDbBlockBegin
  2
*D10
 70
     1
 10
0.0
 20
0.0
 30
0.0
  3
*D10
  1

  0
LINE
  5
57B
330
57A
100
AcDbEntity
  8
SUNPO
 62
     0
370
    -2
100
AcDbLine
 10
-41.79232410497809
 20
25.42244169511307
 30
0.0
 11
-49.79232410497809
 21
25.42244169511307
 31
0.0
  0
LINE
  5
57C
330
57A
100
AcDbEntity
  8
SUNPO
 62
     0
370
    -2
100
AcDbLine
 10
-41.79232410497809
 20
32.06859676294349
 30
0.0
 11
-49.79232410497809
 21
32.06859676294349
 31
0.0
  0
LINE
  5
57D
330
57A
100
AcDbEntity
  8
SUNPO
 62
     0
370
    -2
100
AcDbLine
 10
-47.79232410497809
 20
27.42244169511307
 30
0.0
 11
-47.79232410497809
 21
30.06859676294349
 31
0.0
  0
LINE
  5
57E
330
57A
100
AcDbEntity
  8
SUNPO
 62
     0
370
    -2
100
AcDbLine
 10
-47.79232410497809
 20
32.06859676294349
 30
0.0
 11
-47.79232410497809
 21
41.73526342961014
 31
0.0
  0
INSERT
  5
57F
330
57A
100
AcDbEntity
  8
SUNPO
 62
     0
370
    -2
100
AcDbBlockReference
  2
_OPEN30
 10
-47.79232410497809
 20
25.42244169511307
 30
0.0
 41
2.0
 42
2.0
 43
2.0
 50
270.0
  0
INSERT
  5
580
330
57A
100
AcDbEntity
  8
SUNPO
 62
     0
370
    -2
100
AcDbBlockReference
  2
_OPEN30
 10
-47.79232410497809
 20
32.06859676294349
 30
0.0
 41
2.0
 42
2.0
 43
2.0
 50
90.0
  0
MTEXT
  5
581
330
57A
100
AcDbEntity
  8
SUNPO
 62
     0
100
AcDbMText
 10
-49.5423241049781
 20
37.90193009627682
 30
0.0
 40
2.5
 41
0.0
 71
     5
 72
     1
  1
\A1;133
 11
0.0000000000000001
 21
1.0
 31
0.0
 73
     1
 44
1.0
1001
ACAD
1000
MTEXTBEGIN
1070
    73
1070
     1
1070
    44
1040
1.0
1070
    74
1070
     0
1000
MTEXTEND
  0
POINT
  5
582
330
57A
100
AcDbEntity
  8
DEFPOINTS
 62
     0
100
AcDbPoint
 10
-39.79232410497809
 20
25.42244169511306
 30
0.0
  0
POINT
  5
583
330
57A
100
AcDbEntity
  8
DEFPOINTS
 62
     0
100
AcDbPoint
 10
-39.79232410497809
 20
32.06859676294349
 30
0.0
  0
POINT
  5
584
330
57A
100
AcDbEntity
  8
DEFPOINTS
 62
     0
100
AcDbPoint
 10
-47.79232410497809
 20
32.06859676294349
 30
0.0
  0
ENDBLK
  5
586
330
57A
100
AcDbEntity
  8
0
100
AcDbBlockEnd
  0
BLOCK
  5
591
330
587
100
AcDbEntity
  8
0
100
AcDbBlockBegin
  2
*D11
 70
     1
 10
0.0
 20
0.0
 30
0.0
  3
*D11
  1

  0
LINE
  5
588
330
587
100
AcDbEntity
  8
SUNPO
 62
     0
370
    -2
100
AcDbLine
 10
-39.64341297366488
 20
34.06831031859216
 30
0.0
 11
-39.64341297366488
 21
42.06831031859215
 31
0.0
  0
LINE
  5
589
330
587
100
AcDbEntity
  8
SUNPO
 62
     0
370
    -2
100
AcDbLine
 10
20.85658700213503
 20
34.06831031859216
 30
0.0
 11
20.85658700213503
 21
42.06831031859215
 31
0.0
  0
LINE
  5
58A
330
587
100
AcDbEntity
  8
SUNPO
 62
     0
370
    -2
100
AcDbLine
 10
-37.64341297366488
 20
40.06831031859215
 30
0.0
 11
18.85658700213503
 21
40.06831031859215
 31
0.0
  0
INSERT
  5
58B
330
587
100
AcDbEntity
  8
SUNPO
 62
     0
370
    -2
100
AcDbBlockReference
  2
_OPEN30
 10
-39.64341297366488
 20
40.06831031859215
 30
0.0
 41
2.0
 42
2.0
 43
2.0
 50
180.0
  0
INSERT
  5
58C
330
587
100
AcDbEntity
  8
SUNPO
 62
     0
370
    -2
100
AcDbBlockReference
  2
_OPEN30
 10
20.85658700213503
 20
40.06831031859215
 30
0.0
 41
2.0
 42
2.0
 43
2.0
  0
MTEXT
  5
58D
330
587
100
AcDbEntity
  8
SUNPO
 62
     0
100
AcDbMText
 10
-9.393412985764925
 20
41.81831031859215
 30
0.0
 40
2.5
 41
0.0
 71
     5
 72
     1
  1
\A1;1210
 73
     1
 44
1.0
1001
ACAD
1000
MTEXTBEGIN
1070
    73
1070
     1
1070
    44
1040
1.0
1070
    74
1070
     0
1000
MTEXTEND
  0
POINT
  5
58E
330
587
100
AcDbEntity
  8
DEFPOINTS
 62
     0
100
AcDbPoint
 10
-39.64341297366488
 20
32.06831031859215
 30
0.0
  0
POINT
  5
58F
330
587
100
AcDbEntity
  8
DEFPOINTS
 62
     0
100
AcDbPoint
 10
20.85658700213503
 20
32.06831031859215
 30
0.0
  0
POINT
  5
590
330
587
100
AcDbEntity
  8
DEFPOINTS
 62
     0
100
AcDbPoint
 10
20.85658700213503
 20
40.06831031859215
 30
0.0
  0
ENDBLK
  5
592
330
587
100
AcDbEntity
  8
0
100
AcDbBlockEnd
  0
BLOCK
  5
59D
330
593
100
AcDbEntity
  8
0
100
AcDbBlockBegin
  2
*D12
 70
     1
 10
0.0
 20
0.0
 30
0.0
  3
*D12
  1

  0
LINE
  5
594
330
593
100
AcDbEntity
  8
SUNPO
 62
     0
370
    -2
100
AcDbLine
 10
22.41682181240737
 20
-4.123713372717333
 30
0.0
 11
30.41682181240736
 21
-4.123713372717336
 31
0.0
  0
LINE
  5
595
330
593
100
AcDbEntity
  8
SUNPO
 62
     0
370
    -2
100
AcDbLine
 10
22.41682181240733
 20
32.06859676294349
 30
0.0
 11
30.41682181240736
 21
32.06859676294349
 31
0.0
  0
LINE
  5
596
330
593
100
AcDbEntity
  8
SUNPO
 62
     0
370
    -2
100
AcDbLine
 10
28.41682181240736
 20
-2.123713372717335
 30
0.0
 11
28.41682181240737
 21
30.06859676294349
 31
0.0
  0
INSERT
  5
597
330
593
100
AcDbEntity
  8
SUNPO
 62
     0
370
    -2
100
AcDbBlockReference
  2
_OPEN30
 10
28.41682181240736
 20
-4.123713372717335
 30
0.0
 41
2.0
 42
2.0
 43
2.0
 50
270.0
  0
INSERT
  5
598
330
593
100
AcDbEntity
  8
SUNPO
 62
     0
370
    -2
100
AcDbBlockReference
  2
_OPEN30
 10
28.41682181240737
 20
32.06859676294349
 30
0.0
 41
2.0
 42
2.0
 43
2.0
 50
90.0
  0
MTEXT
  5
599
330
593
100
AcDbEntity
  8
SUNPO
 62
     0
100
AcDbMText
 10
26.66682181240736
 20
13.97244169511308
 30
0.0
 40
2.5
 41
0.0
 71
     5
 72
     1
  1
\A1;724
 11
0.0000000000000001
 21
1.0
 31
0.0
 73
     1
 44
1.0
1001
ACAD
1000
MTEXTBEGIN
1070
    73
1070
     1
1070
    44
1040
1.0
1070
    74
1070
     0
1000
MTEXTEND
  0
POINT
  5
59A
330
593
100
AcDbEntity
  8
DEFPOINTS
 62
     0
100
AcDbPoint
 10
20.41682181240736
 20
-4.123713372717332
 30
0.0
  0
POINT
  5
59B
330
593
100
AcDbEntity
  8
DEFPOINTS
 62
     0
100
AcDbPoint
 10
20.41682181240734
 20
32.06859676294349
 30
0.0
  0
POINT
  5
59C
330
593
100
AcDbEntity
  8
DEFPOINTS
 62
     0
100
AcDbPoint
 10
28.41682181240737
 20
32.06859676294349
 30
0.0
  0
ENDBLK
  5
59E
330
593
100
AcDbEntity
  8
0
100
AcDbBlockEnd
  0
ENDSEC
  0
SECTION
  2
ENTITIES
  0
TEXT
  5
30
330
2
100
AcDbEntity
  8
MOJI1
100
AcDbText
 10
-36.86065659638743
 20
49.59879358759841
 30
0.0
 40
4.0
  1
ハイビジョンプラズマディスプレイ壁掛け金具付
 41
0.93
100
AcDbText
  0
TEXT
  5
32
330
2
100
AcDbEntity
  8
TOUROKU
100
AcDbText
 10
14.07262676987357
 20
43.59879358759792
 30
0.0
 40
2.0
  1
ＴＨ５０ＰＦ２０Ｊ＋ＴＹＷＫ４２ＰＶ２０
 72
     2
 11
61.1392934365402
 21
43.59879358759792
 31
0.0
100
AcDbText
  0
LINE
  5
34
330
2
100
AcDbEntity
  8
S1
  6
CENTER
 62
     3
100
AcDbLine
 10
45.84136081487204
 20
6.672441695113064
 30
0.0
 11
44.39790616487201
 21
6.672441695113064
 31
0.0
  0
LINE
  5
37
330
2
100
AcDbEntity
  8
S1
  6
Continuous
 62
     3
100
AcDbLine
 10
45.660952764872
 20
1.172441695113064
 30
0.0
 11
45.660952764872
 21
1.272441695113059
 31
0.0
  0
ARC
  5
38
330
2
100
AcDbEntity
  8
S1
  6
Continuous
 62
     3
100
AcDbCircle
 10
45.96095276487202
 20
2.572441745113081
 30
0.0
 40
0.1
100
AcDbArc
 50
0.0
 51
90.0
  0
LINE
  5
39
330
2
100
AcDbEntity
  8
S1
  6
Continuous
 62
     3
100
AcDbLine
 10
45.86095276487205
 20
3.32244169511307
 30
0.0
 11
45.16095276487201
 21
3.32244169511307
 31
0.0
  0
LINE
  5
3A
330
2
100
AcDbEntity
  8
S1
  6
Continuous
 62
     3
100
AcDbLine
 10
45.86095276487205
 20
2.672441695113064
 30
0.0
 11
45.86095276487205
 21
3.32244169511307
 31
0.0
  0
ARC
  5
3B
330
2
100
AcDbEntity
  8
S1
  6
Continuous
 62
     3
100
AcDbCircle
 10
45.96095276487202
 20
2.672441695113064
 30
0.0
 40
0.1
100
AcDbArc
 50
180.0
 51
270.0
  0
LINE
  5
3C
330
2
100
AcDbEntity
  8
S1
  6
Continuous
 62
     3
100
AcDbLine
 10
45.96095276487202
 20
1.272441695113059
 30
0.0
 11
45.96095276487202
 21
2.57244169511307
 31
0.0
  0
LINE
  5
3D
330
2
100
AcDbEntity
  8
S1
  6
Continuous
 62
     3
100
AcDbLine
 10
45.96095276487202
 20
1.272441695113059
 30
0.0
 11
45.660952764872
 21
1.272441695113059
 31
0.0
  0
LINE
  5
3E
330
2
100
AcDbEntity
  8
S1
  6
Continuous
 62
     3
100
AcDbLine
 10
46.06095276487204
 20
1.287441695113074
 30
0.0
 11
46.06095276487204
 21
2.572441745113081
 31
0.0
  0
LINE
  5
3F
330
2
100
AcDbEntity
  8
S1
  6
Continuous
 62
     3
100
AcDbLine
 10
45.96095276487202
 20
2.672441695113064
 30
0.0
 11
45.96095276487202
 21
3.307441695113055
 31
0.0
  0
LINE
  5
40
330
2
100
AcDbEntity
  8
S1
  6
Continuous
 62
     3
100
AcDbLine
 10
45.94595276487203
 20
1.172441695113064
 30
0.0
 11
45.660952764872
 21
1.172441695113064
 31
0.0
  0
LINE
  5
41
330
2
100
AcDbEntity
  8
S1
  6
DASHED
 62
     3
100
AcDbLine
 10
45.96095276487202
 20
1.872441695113053
 30
0.0
 11
46.06095276487204
 21
1.872441695113053
 31
0.0
  0
LINE
  5
43
330
2
100
AcDbEntity
  8
S1
  6
DASHED
 62
     3
100
AcDbLine
 10
45.96095276487202
 20
2.222441695113076
 30
0.0
 11
46.06095276487204
 21
2.222441695113076
 31
0.0
  0
LINE
  5
44
330
2
100
AcDbEntity
  8
S1
  6
Continuous
 62
     3
100
AcDbLine
 10
45.84595276487201
 20
3.422441695113064
 30
0.0
 11
45.16095276487201
 21
3.422441695113064
 31
0.0
  0
LINE
  5
45
330
2
100
AcDbEntity
  8
S1
  6
Continuous
 62
     3
100
AcDbLine
 10
45.16095276487201
 20
3.32244169511307
 30
0.0
 11
45.16095276487201
 21
3.422441695113064
 31
0.0
  0
LINE
  5
46
330
2
100
AcDbEntity
  8
S1
  6
DASHED
 62
     3
100
AcDbLine
 10
45.86095276487205
 20
2.872441695113053
 30
0.0
 11
45.96095276487202
 21
2.872441695113053
 31
0.0
  0
LINE
  5
47
330
2
100
AcDbEntity
  8
S1
  6
DASHED
 62
     3
100
AcDbLine
 10
45.410952764872
 20
3.32244169511307
 30
0.0
 11
45.410952764872
 21
3.422441695113064
 31
0.0
  0
LINE
  5
48
330
2
100
AcDbEntity
  8
S1
  6
DASHED
 62
     3
100
AcDbLine
 10
45.71095276487201
 20
3.32244169511307
 30
0.0
 11
45.71095276487201
 21
3.422441695113064
 31
0.0
  0
LINE
  5
49
330
2
100
AcDbEntity
  8
S1
  6
DASHED
 62
     3
100
AcDbLine
 10
45.96095276487202
 20
2.472441695113076
 30
0.0
 11
46.06095276487204
 21
2.472441695113076
 31
0.0
  0
ARC
  5
4A
330
2
100
AcDbEntity
  8
S1
  6
Continuous
 62
     3
100
AcDbCircle
 10
45.94595276487203
 20
1.287441695113074
 30
0.0
 40
0.115
100
AcDbArc
 50
270.0
 51
0.0
  0
ARC
  5
4B
330
2
100
AcDbEntity
  8
S1
  6
Continuous
 62
     3
100
AcDbCircle
 10
45.84595276487201
 20
3.307441695113055
 30
0.0
 40
0.115
100
AcDbArc
 50
0.0
 51
90.0
  0
LINE
  5
4C
330
2
100
AcDbEntity
  8
S1
  6
DASHED
 62
     3
100
AcDbLine
 10
45.86095276487205
 20
2.922441695113064
 30
0.0
 11
45.96095276487202
 21
2.922441695113064
 31
0.0
  0
LINE
  5
4D
330
2
100
AcDbEntity
  8
S1
  6
DASHED
 62
     3
100
AcDbLine
 10
45.81095276487204
 20
1.272441695113059
 30
0.0
 11
45.81095276487204
 21
1.172441695113064
 31
0.0
  0
LINE
  5
4E
330
2
100
AcDbEntity
  8
S1
  6
Continuous
 62
     3
100
AcDbLine
 10
45.06095276487203
 20
6.672441695113064
 30
0.0
 11
45.06095276487203
 21
7.172441695113064
 31
0.0
  0
LINE
  5
4F
330
2
100
AcDbEntity
  8
S1
  6
CENTER
 62
     3
100
AcDbLine
 10
45.72533726487202
 20
21.67244169511306
 30
0.0
 11
44.70065201487201
 21
21.67244169511306
 31
0.0
  0
ARC
  5
50
330
2
100
AcDbEntity
  8
S1
  6
Continuous
 62
     3
100
AcDbCircle
 10
45.30095276487204
 20
3.502441695113077
 30
0.0
 40
0.08
100
AcDbArc
 50
180.0
 51
270.0
  0
ARC
  5
51
330
2
100
AcDbEntity
  8
S1
  6
Continuous
 62
     3
100
AcDbCircle
 10
45.14095276487203
 20
3.502441695113077
 30
0.0
 40
0.08
100
AcDbArc
 50
0.0
 51
90.0
  0
LINE
  5
52
330
2
100
AcDbEntity
  8
S1
  6
Continuous
 62
     3
100
AcDbLine
 10
45.14095276487203
 20
3.582441695113061
 30
0.0
 11
45.06095276487203
 21
3.582441695113061
 31
0.0
  0
ARC
  5
53
330
2
100
AcDbEntity
  8
S1
  6
Continuous
 62
     3
100
AcDbCircle
 10
45.30095276487204
 20
23.09244169511305
 30
0.0
 40
0.08
100
AcDbArc
 50
90.0
 51
180.0
  0
ARC
  5
54
330
2
100
AcDbEntity
  8
S1
  6
Continuous
 62
     3
100
AcDbCircle
 10
45.14095276487203
 20
23.09244169511305
 30
0.0
 40
0.08
100
AcDbArc
 50
270.0
 51
0.0
  0
LINE
  5
55
330
2
100
AcDbEntity
  8
S1
  6
Continuous
 62
     3
100
AcDbLine
 10
45.14095276487203
 20
23.01244169511307
 30
0.0
 11
45.06095276487203
 21
23.01244169511307
 31
0.0
  0
LINE
  5
56
330
2
100
AcDbEntity
  8
S1
  6
DASHED
 62
     3
100
AcDbLine
 10
45.98095276487206
 20
3.422441695113064
 30
0.0
 11
46.06095276487204
 21
3.422441695113064
 31
0.0
  0
LINE
  5
57
330
2
100
AcDbEntity
  8
S1
  6
DASHED
 62
     3
100
AcDbLine
 10
45.98095276487206
 20
3.272441695113059
 30
0.0
 11
46.06095276487204
 21
3.272441695113059
 31
0.0
  0
LINE
  5
58
330
2
100
AcDbEntity
  8
S1
  6
DASHED
 62
     3
100
AcDbLine
 10
45.98095276487206
 20
23.17244169511306
 30
0.0
 11
46.06095276487204
 21
23.17244169511306
 31
0.0
  0
LINE
  5
59
330
2
100
AcDbEntity
  8
S1
  6
DASHED
 62
     3
100
AcDbLine
 10
45.98095276487206
 20
23.32244169511307
 30
0.0
 11
46.06095276487204
 21
23.32244169511307
 31
0.0
  0
LINE
  5
5A
330
2
100
AcDbEntity
  8
S1
  6
Continuous
 62
     3
100
AcDbLine
 10
45.98095276487206
 20
23.17244169511306
 30
0.0
 11
45.98095276487206
 21
3.422441695113064
 31
0.0
  0
LINE
  5
5B
330
2
100
AcDbEntity
  8
S1
  6
DASHED
 62
     3
100
AcDbLine
 10
45.14095276487203
 20
6.047441695113064
 30
0.0
 11
45.14095276487203
 21
13.54744169511306
 31
0.0
  0
LINE
  5
5C
330
2
100
AcDbEntity
  8
S1
  6
PHANTOM
 62
     3
100
AcDbLine
 10
45.06095276487203
 20
5.434941695113053
 30
0.0
 11
45.14095276487203
 21
5.434941695113053
 31
0.0
  0
LINE
  5
5E
330
2
100
AcDbEntity
  8
S1
  6
PHANTOM
 62
     3
100
AcDbLine
 10
45.06095276487203
 20
4.709941695113059
 30
0.0
 11
45.14095276487203
 21
4.709941695113059
 31
0.0
  0
LINE
  5
5F
330
2
100
AcDbEntity
  8
S1
  6
PHANTOM
 62
     3
100
AcDbLine
 10
45.71095276487201
 20
4.297441695113064
 30
0.0
 11
45.790952764872
 21
4.297441695113064
 31
0.0
  0
LINE
  5
60
330
2
100
AcDbEntity
  8
S1
  6
PHANTOM
 62
     3
100
AcDbLine
 10
45.790952764872
 20
4.297441695113064
 30
0.0
 11
45.790952764872
 21
4.19744169511307
 31
0.0
  0
ARC
  5
61
330
2
100
AcDbEntity
  8
S1
  6
PHANTOM
 62
     3
100
AcDbCircle
 10
45.69095276487203
 20
4.19744169511307
 30
0.0
 40
0.1
100
AcDbArc
 50
270.0
 51
0.0
  0
LINE
  5
62
330
2
100
AcDbEntity
  8
S1
  6
PHANTOM
 62
     3
100
AcDbLine
 10
45.69095276487203
 20
4.097441695113076
 30
0.0
 11
45.06095276487203
 21
4.097441695113076
 31
0.0
  0
LINE
  5
63
330
2
100
AcDbEntity
  8
S1
  6
PHANTOM
 62
     3
100
AcDbLine
 10
45.790952764872
 20
5.94744169511307
 30
0.0
 11
45.790952764872
 21
5.847441695113076
 31
0.0
  0
LINE
  5
64
330
2
100
AcDbEntity
  8
S1
  6
PHANTOM
 62
     3
100
AcDbLine
 10
45.71095276487201
 20
5.847441695113076
 30
0.0
 11
45.790952764872
 21
5.847441695113076
 31
0.0
  0
ARC
  5
65
330
2
100
AcDbEntity
  8
S1
  6
PHANTOM
 62
     3
100
AcDbCircle
 10
45.69095276487203
 20
5.94744169511307
 30
0.0
 40
0.1
100
AcDbArc
 50
0.0
 51
90.0
  0
LINE
  5
66
330
2
100
AcDbEntity
  8
S1
  6
PHANTOM
 62
     3
100
AcDbLine
 10
45.71095276487201
 20
5.847441695113076
 30
0.0
 11
45.71095276487201
 21
4.297441695113064
 31
0.0
  0
LINE
  5
67
330
2
100
AcDbEntity
  8
S1
  6
PHANTOM
 62
     3
100
AcDbLine
 10
45.790952764872
 20
5.847441695113076
 30
0.0
 11
45.790952764872
 21
4.297441695113064
 31
0.0
  0
LINE
  5
68
330
2
100
AcDbEntity
  8
S1
  6
PHANTOM
 62
     3
100
AcDbLine
 10
45.14095276487203
 20
4.097441695113076
 30
0.0
 11
45.14095276487203
 21
6.047441695113064
 31
0.0
  0
LINE
  5
69
330
2
100
AcDbEntity
  8
S1
  6
PHANTOM
 62
     3
100
AcDbLine
 10
45.69095276487203
 20
6.047441695113064
 30
0.0
 11
45.06095276487203
 21
6.047441695113064
 31
0.0
  0
LINE
  5
6A
330
2
100
AcDbEntity
  8
S1
  6
DASHED
 62
     3
100
AcDbLine
 10
45.14095276487203
 20
19.09744169511307
 30
0.0
 11
45.14095276487203
 21
13.54744169511306
 31
0.0
  0
LINE
  5
6B
330
2
100
AcDbEntity
  8
S1
  6
PHANTOM
 62
     3
100
AcDbLine
 10
45.06095276487203
 20
19.70994169511306
 30
0.0
 11
45.14095276487203
 21
19.70994169511306
 31
0.0
  0
ARC
  5
6C
330
2
100
AcDbEntity
  8
S1
  6
PHANTOM
 62
     3
100
AcDbCircle
 10
45.69095276487203
 20
19.19744169511307
 30
0.0
 40
0.1
100
AcDbArc
 50
270.0
 51
0.0
  0
LINE
  5
6D
330
2
100
AcDbEntity
  8
S1
  6
PHANTOM
 62
     3
100
AcDbLine
 10
45.790952764872
 20
19.29744169511306
 30
0.0
 11
45.790952764872
 21
19.19744169511307
 31
0.0
  0
LINE
  5
6E
330
2
100
AcDbEntity
  8
S1
  6
PHANTOM
 62
     3
100
AcDbLine
 10
45.71095276487201
 20
19.29744169511306
 30
0.0
 11
45.790952764872
 21
19.29744169511306
 31
0.0
  0
LINE
  5
6F
330
2
100
AcDbEntity
  8
S1
  6
PHANTOM
 62
     3
100
AcDbLine
 10
45.69095276487203
 20
19.09744169511307
 30
0.0
 11
45.06095276487203
 21
19.09744169511307
 31
0.0
  0
ARC
  5
70
330
2
100
AcDbEntity
  8
S1
  6
PHANTOM
 62
     3
100
AcDbCircle
 10
45.69095276487203
 20
20.94744169511307
 30
0.0
 40
0.1
100
AcDbArc
 50
0.0
 51
90.0
  0
LINE
  5
71
330
2
100
AcDbEntity
  8
S1
  6
PHANTOM
 62
     3
100
AcDbLine
 10
45.71095276487201
 20
20.84744169511308
 30
0.0
 11
45.790952764872
 21
20.84744169511308
 31
0.0
  0
LINE
  5
72
330
2
100
AcDbEntity
  8
S1
  6
PHANTOM
 62
     3
100
AcDbLine
 10
45.790952764872
 20
20.94744169511307
 30
0.0
 11
45.790952764872
 21
20.84744169511308
 31
0.0
  0
LINE
  5
73
330
2
100
AcDbEntity
  8
S1
  6
PHANTOM
 62
     3
100
AcDbLine
 10
45.69095276487203
 20
21.04744169511306
 30
0.0
 11
45.06095276487203
 21
21.04744169511306
 31
0.0
  0
LINE
  5
74
330
2
100
AcDbEntity
  8
S1
  6
PHANTOM
 62
     3
100
AcDbLine
 10
45.14095276487203
 20
19.09744169511307
 30
0.0
 11
45.14095276487203
 21
21.04744169511306
 31
0.0
  0
LINE
  5
75
330
2
100
AcDbEntity
  8
S1
  6
PHANTOM
 62
     3
100
AcDbLine
 10
45.06095276487203
 20
20.43494169511305
 30
0.0
 11
45.14095276487203
 21
20.43494169511305
 31
0.0
  0
LINE
  5
76
330
2
100
AcDbEntity
  8
S1
  6
PHANTOM
 62
     3
100
AcDbLine
 10
45.71095276487201
 20
20.84744169511308
 30
0.0
 11
45.71095276487201
 21
19.29744169511306
 31
0.0
  0
LINE
  5
77
330
2
100
AcDbEntity
  8
S1
  6
PHANTOM
 62
     3
100
AcDbLine
 10
45.790952764872
 20
20.84744169511308
 30
0.0
 11
45.790952764872
 21
19.29744169511306
 31
0.0
  0
LINE
  5
78
330
2
100
AcDbEntity
  8
S1
  6
DASHED
 62
     3
100
AcDbLine
 10
45.71095276487201
 20
8.247441695113053
 30
0.0
 11
45.71095276487201
 21
7.747441695113053
 31
0.0
  0
LINE
  5
79
330
2
100
AcDbEntity
  8
S1
  6
DASHED
 62
     3
100
AcDbLine
 10
45.14095276487203
 20
8.247441695113053
 30
0.0
 11
45.71095276487201
 21
8.247441695113053
 31
0.0
  0
ARC
  5
7A
330
2
100
AcDbEntity
  8
S1
  6
DASHED
 62
     3
100
AcDbCircle
 10
45.14095276487203
 20
8.327441695113094
 30
0.0
 40
0.08
100
AcDbArc
 50
180.0
 51
270.0
  0
LINE
  5
7B
330
2
100
AcDbEntity
  8
S1
  6
DASHED
 62
     3
100
AcDbLine
 10
45.14095276487203
 20
8.327441695113094
 30
0.0
 11
45.71095276487201
 21
8.327441695113094
 31
0.0
  0
LINE
  5
7C
330
2
100
AcDbEntity
  8
S1
  6
DASHED
 62
     3
100
AcDbLine
 10
45.790952764872
 20
8.247441695113053
 30
0.0
 11
45.790952764872
 21
7.747441695113053
 31
0.0
  0
ARC
  5
7D
330
2
100
AcDbEntity
  8
S1
  6
DASHED
 62
     3
100
AcDbCircle
 10
45.71095276487201
 20
8.247441695113053
 30
0.0
 40
0.08
100
AcDbArc
 50
0.0
 51
90.0
  0
LINE
  5
7E
330
2
100
AcDbEntity
  8
S1
  6
DASHED
 62
     3
100
AcDbLine
 10
45.71095276487201
 20
7.747441695113053
 30
0.0
 11
45.790952764872
 21
7.747441695113053
 31
0.0
  0
LINE
  5
7F
330
2
100
AcDbEntity
  8
S1
  6
DASHED
 62
     3
100
AcDbLine
 10
45.14095276487203
 20
8.427441695113088
 30
0.0
 11
45.06095276487203
 21
8.427441695113088
 31
0.0
  0
ARC
  5
80
330
2
100
AcDbEntity
  8
S1
  6
Continuous
 62
     3
100
AcDbCircle
 10
45.14095276487203
 20
23.09244169511305
 30
0.0
 40
0.08
100
AcDbArc
 50
90.0
 51
180.0
  0
ARC
  5
81
330
2
100
AcDbEntity
  8
S1
  6
Continuous
 62
     3
100
AcDbCircle
 10
45.14095276487203
 20
3.502441695113077
 30
0.0
 40
0.08
100
AcDbArc
 50
180.0
 51
270.0
  0
LINE
  5
82
330
2
100
AcDbEntity
  8
S1
  6
DASHED
 62
     3
100
AcDbLine
 10
45.71095276487201
 20
3.422441695113064
 30
0.0
 11
45.71095276487201
 21
3.502441695113077
 31
0.0
  0
LINE
  5
83
330
2
100
AcDbEntity
  8
S1
  6
DASHED
 62
     3
100
AcDbLine
 10
45.71095276487201
 20
23.17244169511306
 30
0.0
 11
45.71095276487201
 21
23.09244169511305
 31
0.0
  0
ARC
  5
84
330
2
100
AcDbEntity
  8
S1
  6
Continuous
 62
     3
100
AcDbCircle
 10
45.790952764872
 20
23.96744169511305
 30
0.0
 40
0.08
100
AcDbArc
 50
90.0
 51
180.0
  0
ARC
  5
85
330
2
100
AcDbEntity
  8
S1
  6
Continuous
 62
     3
100
AcDbCircle
 10
45.98095276487206
 20
23.96744169511305
 30
0.0
 40
0.08
100
AcDbArc
 50
0.0
 51
90.0
  0
ARC
  5
86
330
2
100
AcDbEntity
  8
S1
  6
Continuous
 62
     3
100
AcDbCircle
 10
45.790952764872
 20
2.627441695113077
 30
0.0
 40
0.08
100
AcDbArc
 50
180.0
 51
270.0
  0
ARC
  5
87
330
2
100
AcDbEntity
  8
S1
  6
Continuous
 62
     3
100
AcDbCircle
 10
45.98095276487206
 20
2.627441695113077
 30
0.0
 40
0.08
100
AcDbArc
 50
270.0
 51
0.0
  0
LINE
  5
88
330
2
100
AcDbEntity
  8
S1
  6
Continuous
 62
     3
100
AcDbLine
 10
45.06095276487203
 20
23.09244169511305
 30
0.0
 11
45.06095276487203
 21
3.502441695113077
 31
0.0
  0
LINE
  5
89
330
2
100
AcDbEntity
  8
S1
  6
Continuous
 62
     3
100
AcDbLine
 10
45.14095276487203
 20
23.17244169511306
 30
0.0
 11
45.98095276487206
 21
23.17244169511306
 31
0.0
  0
LINE
  5
8A
330
2
100
AcDbEntity
  8
S1
  6
Continuous
 62
     3
100
AcDbLine
 10
45.14095276487203
 20
23.09244169511305
 30
0.0
 11
45.14095276487203
 21
23.01244169511307
 31
0.0
  0
LINE
  5
8B
330
2
100
AcDbEntity
  8
S1
  6
Continuous
 62
     3
100
AcDbLine
 10
45.14095276487203
 20
23.09244169511305
 30
0.0
 11
45.22095276487201
 21
23.09244169511305
 31
0.0
  0
LINE
  5
8C
330
2
100
AcDbEntity
  8
S1
  6
Continuous
 62
     3
100
AcDbLine
 10
46.06095276487204
 20
23.96744169511305
 30
0.0
 11
46.06095276487204
 21
2.627441695113077
 31
0.0
  0
LINE
  5
8D
330
2
100
AcDbEntity
  8
S1
  6
Continuous
 62
     3
100
AcDbLine
 10
45.98095276487206
 20
23.96744169511305
 30
0.0
 11
45.98095276487206
 21
23.17244169511306
 31
0.0
  0
LINE
  5
8E
330
2
100
AcDbEntity
  8
S1
  6
Continuous
 62
     3
100
AcDbLine
 10
45.98095276487206
 20
24.04744169511307
 30
0.0
 11
45.790952764872
 21
24.04744169511307
 31
0.0
  0
LINE
  5
8F
330
2
100
AcDbEntity
  8
S1
  6
Continuous
 62
     3
100
AcDbLine
 10
45.98095276487206
 20
23.96744169511305
 30
0.0
 11
45.790952764872
 21
23.96744169511305
 31
0.0
  0
LINE
  5
90
330
2
100
AcDbEntity
  8
S1
  6
Continuous
 62
     3
100
AcDbLine
 10
45.71095276487201
 20
23.76744169511304
 30
0.0
 11
45.71095276487201
 21
23.96744169511305
 31
0.0
  0
LINE
  5
91
330
2
100
AcDbEntity
  8
S1
  6
Continuous
 62
     3
100
AcDbLine
 10
45.71095276487201
 20
2.827441695113094
 30
0.0
 11
45.71095276487201
 21
2.627441695113077
 31
0.0
  0
LINE
  5
92
330
2
100
AcDbEntity
  8
S1
  6
Continuous
 62
     3
100
AcDbLine
 10
45.98095276487206
 20
2.627441695113077
 30
0.0
 11
45.790952764872
 21
2.627441695113077
 31
0.0
  0
LINE
  5
93
330
2
100
AcDbEntity
  8
S1
  6
Continuous
 62
     3
100
AcDbLine
 10
45.98095276487206
 20
2.547441695113064
 30
0.0
 11
45.790952764872
 21
2.547441695113064
 31
0.0
  0
LINE
  5
94
330
2
100
AcDbEntity
  8
S1
  6
Continuous
 62
     3
100
AcDbLine
 10
45.98095276487206
 20
2.627441695113077
 30
0.0
 11
45.98095276487206
 21
3.422441695113064
 31
0.0
  0
LINE
  5
95
330
2
100
AcDbEntity
  8
S1
  6
Continuous
 62
     3
100
AcDbLine
 10
45.14095276487203
 20
3.502441695113077
 30
0.0
 11
45.22095276487201
 21
3.502441695113077
 31
0.0
  0
LINE
  5
96
330
2
100
AcDbEntity
  8
S1
  6
Continuous
 62
     3
100
AcDbLine
 10
45.14095276487203
 20
3.502441695113077
 30
0.0
 11
45.14095276487203
 21
3.582441695113061
 31
0.0
  0
LINE
  5
97
330
2
100
AcDbEntity
  8
S1
  6
Continuous
 62
     3
100
AcDbLine
 10
45.14095276487203
 20
3.422441695113064
 30
0.0
 11
45.98095276487206
 21
3.422441695113064
 31
0.0
  0
LINE
  5
98
330
2
100
AcDbEntity
  8
S1
  6
DASHED
 62
     3
100
AcDbLine
 10
45.22095276487201
 20
23.09244169511305
 30
0.0
 11
45.98095276487206
 21
23.09244169511305
 31
0.0
  0
LINE
  5
99
330
2
100
AcDbEntity
  8
S1
  6
DASHED
 62
     3
100
AcDbLine
 10
45.14095276487203
 20
23.01244169511307
 30
0.0
 11
45.14095276487203
 21
21.04744169511306
 31
0.0
  0
LINE
  5
9A
330
2
100
AcDbEntity
  8
S1
  6
DASHED
 62
     3
100
AcDbLine
 10
45.22095276487201
 20
3.502441695113077
 30
0.0
 11
45.98095276487206
 21
3.502441695113077
 31
0.0
  0
LINE
  5
9B
330
2
100
AcDbEntity
  8
S1
  6
DASHED
 62
     3
100
AcDbLine
 10
45.14095276487203
 20
3.582441695113061
 30
0.0
 11
45.14095276487203
 21
4.097441695113076
 31
0.0
  0
LINE
  5
9C
330
2
100
AcDbEntity
  8
S1
  6
Continuous
 62
     3
100
AcDbLine
 10
45.790952764872
 20
23.76744169511304
 30
0.0
 11
45.71095276487201
 21
23.76744169511304
 31
0.0
  0
LINE
  5
9D
330
2
100
AcDbEntity
  8
S1
  6
Continuous
 62
     3
100
AcDbLine
 10
45.790952764872
 20
23.76744169511304
 30
0.0
 11
45.790952764872
 21
23.96744169511305
 31
0.0
  0
LINE
  5
9E
330
2
100
AcDbEntity
  8
S1
  6
Continuous
 62
     3
100
AcDbLine
 10
45.790952764872
 20
2.827441695113094
 30
0.0
 11
45.71095276487201
 21
2.827441695113094
 31
0.0
  0
LINE
  5
9F
330
2
100
AcDbEntity
  8
S1
  6
Continuous
 62
     3
100
AcDbLine
 10
45.790952764872
 20
2.827441695113094
 30
0.0
 11
45.790952764872
 21
2.627441695113077
 31
0.0
  0
LINE
  5
A0
330
2
100
AcDbEntity
  8
S1
  6
DASHED
 62
     3
100
AcDbLine
 10
45.660952764872
 20
23.09244169511305
 30
0.0
 11
45.660952764872
 21
22.99244169511306
 31
0.0
  0
LINE
  5
A1
330
2
100
AcDbEntity
  8
S1
  6
DASHED
 62
     3
100
AcDbLine
 10
45.46095276487202
 20
23.09244169511305
 30
0.0
 11
45.46095276487202
 21
22.99244169511306
 31
0.0
  0
LINE
  5
A2
330
2
100
AcDbEntity
  8
S1
  6
DASHED
 62
     3
100
AcDbLine
 10
45.76095276487203
 20
23.09244169511305
 30
0.0
 11
45.76095276487203
 21
22.99244169511306
 31
0.0
  0
LINE
  5
A3
330
2
100
AcDbEntity
  8
S1
  6
DASHED
 62
     3
100
AcDbLine
 10
45.36095276487205
 20
23.09244169511305
 30
0.0
 11
45.36095276487205
 21
22.99244169511306
 31
0.0
  0
LINE
  5
A4
330
2
100
AcDbEntity
  8
S1
  6
DASHED
 62
     3
100
AcDbLine
 10
45.76095276487203
 20
22.99244169511306
 30
0.0
 11
45.36095276487205
 21
22.99244169511306
 31
0.0
  0
ARC
  5
A5
330
2
100
AcDbEntity
  8
S1
  6
DASHED
 62
     3
100
AcDbCircle
 10
45.74095276487205
 20
23.09244169511305
 30
0.0
 40
0.08
100
AcDbArc
 50
90.0
 51
180.0
  0
ARC
  5
A6
330
2
100
AcDbEntity
  8
S1
  6
DASHED
 62
     3
100
AcDbCircle
 10
45.38095276487204
 20
23.09244169511305
 30
0.0
 40
0.08
100
AcDbArc
 50
0.0
 51
90.0
  0
LINE
  5
A7
330
2
100
AcDbEntity
  8
S1
  6
DASHED
 62
     3
100
AcDbLine
 10
45.660952764872
 20
3.502441695113077
 30
0.0
 11
45.660952764872
 21
3.602441695113071
 31
0.0
  0
LINE
  5
A8
330
2
100
AcDbEntity
  8
S1
  6
DASHED
 62
     3
100
AcDbLine
 10
45.46095276487202
 20
3.502441695113077
 30
0.0
 11
45.46095276487202
 21
3.602441695113071
 31
0.0
  0
LINE
  5
A9
330
2
100
AcDbEntity
  8
S1
  6
DASHED
 62
     3
100
AcDbLine
 10
45.76095276487203
 20
3.502441695113077
 30
0.0
 11
45.76095276487203
 21
3.602441695113071
 31
0.0
  0
LINE
  5
AA
330
2
100
AcDbEntity
  8
S1
  6
DASHED
 62
     3
100
AcDbLine
 10
45.36095276487205
 20
3.502441695113077
 30
0.0
 11
45.36095276487205
 21
3.602441695113071
 31
0.0
  0
LINE
  5
AB
330
2
100
AcDbEntity
  8
S1
  6
DASHED
 62
     3
100
AcDbLine
 10
45.76095276487203
 20
3.602441695113071
 30
0.0
 11
45.36095276487205
 21
3.602441695113071
 31
0.0
  0
ARC
  5
AC
330
2
100
AcDbEntity
  8
S1
  6
DASHED
 62
     3
100
AcDbCircle
 10
45.74095276487205
 20
3.502441695113077
 30
0.0
 40
0.08
100
AcDbArc
 50
180.0
 51
270.0
  0
ARC
  5
AD
330
2
100
AcDbEntity
  8
S1
  6
DASHED
 62
     3
100
AcDbCircle
 10
45.38095276487204
 20
3.502441695113077
 30
0.0
 40
0.08
100
AcDbArc
 50
270.0
 51
0.0
  0
LINE
  5
AE
330
2
100
AcDbEntity
  8
S1
  6
Continuous
 62
     3
100
AcDbLine
 10
45.660952764872
 20
25.42244169511306
 30
0.0
 11
45.660952764872
 21
25.32244169511307
 31
0.0
  0
ARC
  5
AF
330
2
100
AcDbEntity
  8
S1
  6
Continuous
 62
     3
100
AcDbCircle
 10
45.96095276487202
 20
24.02244164511305
 30
0.0
 40
0.1
100
AcDbArc
 50
270.0
 51
0.0
  0
LINE
  5
B0
330
2
100
AcDbEntity
  8
S1
  6
Continuous
 62
     3
100
AcDbLine
 10
45.86095276487205
 20
23.27244169511306
 30
0.0
 11
45.16095276487201
 21
23.27244169511306
 31
0.0
  0
LINE
  5
B1
330
2
100
AcDbEntity
  8
S1
  6
Continuous
 62
     3
100
AcDbLine
 10
45.86095276487205
 20
23.92244169511307
 30
0.0
 11
45.86095276487205
 21
23.27244169511306
 31
0.0
  0
ARC
  5
B2
330
2
100
AcDbEntity
  8
S1
  6
Continuous
 62
     3
100
AcDbCircle
 10
45.96095276487202
 20
23.92244169511307
 30
0.0
 40
0.1
100
AcDbArc
 50
90.0
 51
180.0
  0
LINE
  5
B3
330
2
100
AcDbEntity
  8
S1
  6
Continuous
 62
     3
100
AcDbLine
 10
45.96095276487202
 20
25.32244169511307
 30
0.0
 11
45.96095276487202
 21
24.02244169511306
 31
0.0
  0
LINE
  5
B4
330
2
100
AcDbEntity
  8
S1
  6
Continuous
 62
     3
100
AcDbLine
 10
45.96095276487202
 20
25.32244169511307
 30
0.0
 11
45.660952764872
 21
25.32244169511307
 31
0.0
  0
LINE
  5
B5
330
2
100
AcDbEntity
  8
S1
  6
Continuous
 62
     3
100
AcDbLine
 10
46.06095276487204
 20
25.30744169511306
 30
0.0
 11
46.06095276487204
 21
24.02244164511305
 31
0.0
  0
LINE
  5
B6
330
2
100
AcDbEntity
  8
S1
  6
Continuous
 62
     3
100
AcDbLine
 10
45.96095276487202
 20
23.92244169511307
 30
0.0
 11
45.96095276487202
 21
23.28744169511308
 31
0.0
  0
LINE
  5
B7
330
2
100
AcDbEntity
  8
S1
  6
Continuous
 62
     3
100
AcDbLine
 10
45.94595276487203
 20
25.42244169511306
 30
0.0
 11
45.660952764872
 21
25.42244169511306
 31
0.0
  0
LINE
  5
B8
330
2
100
AcDbEntity
  8
S1
  6
DASHED
 62
     3
100
AcDbLine
 10
45.96095276487202
 20
24.72244169511308
 30
0.0
 11
46.06095276487204
 21
24.72244169511308
 31
0.0
  0
LINE
  5
B9
330
2
100
AcDbEntity
  8
S1
  6
DASHED
 62
     3
100
AcDbLine
 10
45.96095276487202
 20
24.37244169511306
 30
0.0
 11
46.06095276487204
 21
24.37244169511306
 31
0.0
  0
LINE
  5
BA
330
2
100
AcDbEntity
  8
S1
  6
Continuous
 62
     3
100
AcDbLine
 10
45.84595276487201
 20
23.17244169511306
 30
0.0
 11
45.16095276487201
 21
23.17244169511306
 31
0.0
  0
LINE
  5
BB
330
2
100
AcDbEntity
  8
S1
  6
Continuous
 62
     3
100
AcDbLine
 10
45.16095276487201
 20
23.27244169511306
 30
0.0
 11
45.16095276487201
 21
23.17244169511306
 31
0.0
  0
LINE
  5
BC
330
2
100
AcDbEntity
  8
S1
  6
DASHED
 62
     3
100
AcDbLine
 10
45.86095276487205
 20
23.72244169511308
 30
0.0
 11
45.96095276487202
 21
23.72244169511308
 31
0.0
  0
LINE
  5
BD
330
2
100
AcDbEntity
  8
S1
  6
DASHED
 62
     3
100
AcDbLine
 10
45.410952764872
 20
23.27244169511306
 30
0.0
 11
45.410952764872
 21
23.17244169511306
 31
0.0
  0
LINE
  5
BE
330
2
100
AcDbEntity
  8
S1
  6
DASHED
 62
     3
100
AcDbLine
 10
45.71095276487201
 20
23.27244169511306
 30
0.0
 11
45.71095276487201
 21
23.17244169511306
 31
0.0
  0
LINE
  5
BF
330
2
100
AcDbEntity
  8
S1
  6
DASHED
 62
     3
100
AcDbLine
 10
45.96095276487202
 20
24.12244169511306
 30
0.0
 11
46.06095276487204
 21
24.12244169511306
 31
0.0
  0
ARC
  5
C0
330
2
100
AcDbEntity
  8
S1
  6
Continuous
 62
     3
100
AcDbCircle
 10
45.94595276487203
 20
25.30744169511306
 30
0.0
 40
0.115
100
AcDbArc
 50
0.0
 51
90.0
  0
ARC
  5
C1
330
2
100
AcDbEntity
  8
S1
  6
Continuous
 62
     3
100
AcDbCircle
 10
45.84595276487201
 20
23.28744169511308
 30
0.0
 40
0.115
100
AcDbArc
 50
270.0
 51
0.0
  0
LINE
  5
C2
330
2
100
AcDbEntity
  8
S1
  6
DASHED
 62
     3
100
AcDbLine
 10
45.86095276487205
 20
23.67244169511307
 30
0.0
 11
45.96095276487202
 21
23.67244169511307
 31
0.0
  0
LINE
  5
C3
330
2
100
AcDbEntity
  8
S1
  6
DASHED
 62
     3
100
AcDbLine
 10
45.81095276487204
 20
25.32244169511307
 30
0.0
 11
45.81095276487204
 21
25.42244169511306
 31
0.0
  0
POINT
  5
C4
330
2
100
AcDbEntity
  8
S1
  6
Continuous
 62
     3
100
AcDbPoint
 10
45.06095276487203
 20
23.09244169511308
 30
0.0
  0
LINE
  5
C5
330
2
100
AcDbEntity
  8
S1
  6
Continuous
 62
     3
100
AcDbLine
 10
45.79095276487206
 20
23.38744169511307
 30
0.0
 11
45.33095276487202
 21
23.38744169511307
 31
0.0
  0
LINE
  5
C6
330
2
100
AcDbEntity
  8
S1
  6
Continuous
 62
     3
100
AcDbLine
 10
45.56095276487204
 20
23.38744169511307
 30
0.0
 11
45.59848051487202
 21
23.32244169511307
 31
0.0
  0
LINE
  5
C7
330
2
100
AcDbEntity
  8
S1
  6
Continuous
 62
     3
100
AcDbLine
 10
45.52342501487205
 20
23.38744169511307
 30
0.0
 11
45.56095276487204
 21
23.32244169511307
 31
0.0
  0
LINE
  5
C8
330
2
100
AcDbEntity
  8
S1
  6
Continuous
 62
     3
100
AcDbLine
 10
45.79095276487206
 20
23.32244169511307
 30
0.0
 11
45.79095276487206
 21
23.38744169511307
 31
0.0
  0
LINE
  5
C9
330
2
100
AcDbEntity
  8
S1
  6
Continuous
 62
     3
100
AcDbLine
 10
45.33095276487202
 20
23.32244169511307
 30
0.0
 11
45.79095276487206
 21
23.32244169511307
 31
0.0
  0
LINE
  5
CA
330
2
100
AcDbEntity
  8
S1
  6
Continuous
 62
     3
100
AcDbLine
 10
45.33095276487202
 20
23.38744169511307
 30
0.0
 11
45.33095276487202
 21
23.32244169511307
 31
0.0
  0
LINE
  5
CB
330
2
100
AcDbEntity
  8
S1
  6
Continuous
 62
     3
100
AcDbLine
 10
45.81095276487204
 20
23.32244169511307
 30
0.0
 11
45.31095276487204
 21
23.32244169511307
 31
0.0
  0
LINE
  5
CC
330
2
100
AcDbEntity
  8
S1
  6
Continuous
 62
     3
100
AcDbLine
 10
45.81095276487204
 20
23.27244169511306
 30
0.0
 11
45.81095276487204
 21
23.32244169511307
 31
0.0
  0
LINE
  5
CD
330
2
100
AcDbEntity
  8
S1
  6
Continuous
 62
     3
100
AcDbLine
 10
45.31095276487204
 20
23.27244169511306
 30
0.0
 11
45.81095276487204
 21
23.27244169511306
 31
0.0
  0
LINE
  5
CE
330
2
100
AcDbEntity
  8
S1
  6
Continuous
 62
     3
100
AcDbLine
 10
45.31095276487204
 20
23.32244169511307
 30
0.0
 11
45.31095276487204
 21
23.27244169511306
 31
0.0
  0
LINE
  5
CF
330
2
100
AcDbEntity
  8
S1
  6
Continuous
 62
     3
100
AcDbLine
 10
45.44845276487203
 20
23.14244169511306
 30
0.0
 11
45.44845276487203
 21
23.27244169511306
 31
0.0
  0
LINE
  5
D0
330
2
100
AcDbEntity
  8
S1
  6
Continuous
 62
     3
100
AcDbLine
 10
45.46095276487204
 20
23.11744169511306
 30
0.0
 11
45.44845276487203
 21
23.14244169511306
 31
0.0
  0
LINE
  5
D1
330
2
100
AcDbEntity
  8
S1
  6
Continuous
 62
     3
100
AcDbLine
 10
45.66095276487203
 20
23.11744169511306
 30
0.0
 11
45.67345276487205
 21
23.14244169511306
 31
0.0
  0
LINE
  5
D2
330
2
100
AcDbEntity
  8
S1
  6
Continuous
 62
     3
100
AcDbLine
 10
45.67345276487205
 20
23.14244169511306
 30
0.0
 11
45.67345276487205
 21
23.27244169511306
 31
0.0
  0
LINE
  5
D3
330
2
100
AcDbEntity
  8
S1
  6
Continuous
 62
     3
100
AcDbLine
 10
45.66095276487203
 20
23.11744169511306
 30
0.0
 11
45.66095276487203
 21
22.88744169511307
 31
0.0
  0
LINE
  5
D4
330
2
100
AcDbEntity
  8
S1
  6
Continuous
 62
     3
100
AcDbLine
 10
45.46095276487204
 20
23.11744169511306
 30
0.0
 11
45.46095276487204
 21
22.88744169511307
 31
0.0
  0
LINE
  5
D5
330
2
100
AcDbEntity
  8
S1
  6
Continuous
 62
     3
100
AcDbLine
 10
45.43595276487204
 20
22.88744169511307
 30
0.0
 11
45.68595276487203
 21
22.88744169511307
 31
0.0
  0
LINE
  5
D6
330
2
100
AcDbEntity
  8
S1
  6
Continuous
 62
     3
100
AcDbLine
 10
45.43595276487204
 20
23.11744169511306
 30
0.0
 11
45.68595276487203
 21
23.11744169511306
 31
0.0
  0
LINE
  5
D7
330
2
100
AcDbEntity
  8
S1
  6
Continuous
 62
     3
100
AcDbLine
 10
45.68595276487203
 20
23.11744169511306
 30
0.0
 11
45.68595276487203
 21
22.88744169511307
 31
0.0
  0
LINE
  5
D8
330
2
100
AcDbEntity
  8
S1
  6
Continuous
 62
     3
100
AcDbLine
 10
45.67345276487205
 20
23.14244169511306
 30
0.0
 11
45.68595276487203
 21
23.11744169511306
 31
0.0
  0
LINE
  5
D9
330
2
100
AcDbEntity
  8
S1
  6
Continuous
 62
     3
100
AcDbLine
 10
45.43595276487204
 20
23.11744169511306
 30
0.0
 11
45.43595276487204
 21
22.88744169511307
 31
0.0
  0
LINE
  5
DA
330
2
100
AcDbEntity
  8
S1
  6
Continuous
 62
     3
100
AcDbLine
 10
45.44845276487203
 20
23.14244169511306
 30
0.0
 11
45.43595276487204
 21
23.11744169511306
 31
0.0
  0
ARC
  5
DB
330
2
100
AcDbEntity
  8
S1
  6
Continuous
 62
     3
100
AcDbCircle
 10
45.56095276487204
 20
22.95244169511307
 30
0.0
 40
0.6000000000000001
100
AcDbArc
 50
74.21400999999973
 51
105.7859900000002
  0
ARC
  5
DC
330
2
100
AcDbEntity
  8
S1
  6
Continuous
 62
     3
100
AcDbCircle
 10
45.70241626487202
 20
23.45282969511305
 30
0.0
 40
0.08
100
AcDbArc
 50
3.000000000005764
 51
74.21400999999973
  0
ARC
  5
DD
330
2
100
AcDbEntity
  8
S1
  6
Continuous
 62
     3
100
AcDbCircle
 10
45.41948951487202
 20
23.45282969511305
 30
0.0
 40
0.08
100
AcDbArc
 50
105.7859900000002
 51
176.9999999999942
  0
LINE
  5
DE
330
2
100
AcDbEntity
  8
S1
  6
Continuous
 62
     3
100
AcDbLine
 10
45.33595276487204
 20
23.38744169511307
 30
0.0
 11
45.78595276487203
 21
23.38744169511307
 31
0.0
  0
LINE
  5
DF
330
2
100
AcDbEntity
  8
S1
  6
Continuous
 62
     3
100
AcDbLine
 10
45.78595276487203
 20
23.38744169511307
 30
0.0
 11
45.78230651487203
 21
23.45701644511306
 31
0.0
  0
LINE
  5
E0
330
2
100
AcDbEntity
  8
S1
  6
Continuous
 62
     3
100
AcDbLine
 10
45.33595276487204
 20
23.38744169511307
 30
0.0
 11
45.33959901487205
 21
23.45701644511306
 31
0.0
  0
LINE
  5
E1
330
2
100
AcDbEntity
  8
S1
  6
Continuous
 62
     3
100
AcDbLine
 10
45.33095276487202
 20
3.207441695113061
 30
0.0
 11
45.79095276487206
 21
3.207441695113061
 31
0.0
  0
LINE
  5
E2
330
2
100
AcDbEntity
  8
S1
  6
Continuous
 62
     3
100
AcDbLine
 10
45.56095276487204
 20
3.207441695113061
 30
0.0
 11
45.52342501487205
 21
3.272441695113059
 31
0.0
  0
LINE
  5
E3
330
2
100
AcDbEntity
  8
S1
  6
Continuous
 62
     3
100
AcDbLine
 10
45.59848051487202
 20
3.207441695113061
 30
0.0
 11
45.56095276487204
 21
3.272441695113059
 31
0.0
  0
LINE
  5
E4
330
2
100
AcDbEntity
  8
S1
  6
Continuous
 62
     3
100
AcDbLine
 10
45.33095276487202
 20
3.272441695113059
 30
0.0
 11
45.33095276487202
 21
3.207441695113061
 31
0.0
  0
LINE
  5
E5
330
2
100
AcDbEntity
  8
S1
  6
Continuous
 62
     3
100
AcDbLine
 10
45.79095276487206
 20
3.272441695113059
 30
0.0
 11
45.33095276487202
 21
3.272441695113059
 31
0.0
  0
LINE
  5
E6
330
2
100
AcDbEntity
  8
S1
  6
Continuous
 62
     3
100
AcDbLine
 10
45.79095276487206
 20
3.207441695113061
 30
0.0
 11
45.79095276487206
 21
3.272441695113059
 31
0.0
  0
LINE
  5
E7
330
2
100
AcDbEntity
  8
S1
  6
Continuous
 62
     3
100
AcDbLine
 10
45.31095276487204
 20
3.272441695113059
 30
0.0
 11
45.81095276487204
 21
3.272441695113059
 31
0.0
  0
LINE
  5
E8
330
2
100
AcDbEntity
  8
S1
  6
Continuous
 62
     3
100
AcDbLine
 10
45.31095276487204
 20
3.32244169511307
 30
0.0
 11
45.31095276487204
 21
3.272441695113059
 31
0.0
  0
LINE
  5
E9
330
2
100
AcDbEntity
  8
S1
  6
Continuous
 62
     3
100
AcDbLine
 10
45.81095276487204
 20
3.32244169511307
 30
0.0
 11
45.31095276487204
 21
3.32244169511307
 31
0.0
  0
LINE
  5
EA
330
2
100
AcDbEntity
  8
S1
  6
Continuous
 62
     3
100
AcDbLine
 10
45.81095276487204
 20
3.272441695113059
 30
0.0
 11
45.81095276487204
 21
3.32244169511307
 31
0.0
  0
LINE
  5
EB
330
2
100
AcDbEntity
  8
S1
  6
Continuous
 62
     3
100
AcDbLine
 10
45.67345276487205
 20
3.452441695113066
 30
0.0
 11
45.67345276487205
 21
3.32244169511307
 31
0.0
  0
LINE
  5
EC
330
2
100
AcDbEntity
  8
S1
  6
Continuous
 62
     3
100
AcDbLine
 10
45.66095276487203
 20
3.477441695113071
 30
0.0
 11
45.67345276487205
 21
3.452441695113066
 31
0.0
  0
LINE
  5
ED
330
2
100
AcDbEntity
  8
S1
  6
Continuous
 62
     3
100
AcDbLine
 10
45.46095276487204
 20
3.477441695113071
 30
0.0
 11
45.44845276487203
 21
3.452441695113066
 31
0.0
  0
LINE
  5
EE
330
2
100
AcDbEntity
  8
S1
  6
Continuous
 62
     3
100
AcDbLine
 10
45.44845276487203
 20
3.452441695113066
 30
0.0
 11
45.44845276487203
 21
3.32244169511307
 31
0.0
  0
LINE
  5
EF
330
2
100
AcDbEntity
  8
S1
  6
Continuous
 62
     3
100
AcDbLine
 10
45.46095276487204
 20
3.477441695113071
 30
0.0
 11
45.46095276487204
 21
3.707441695113061
 31
0.0
  0
LINE
  5
F0
330
2
100
AcDbEntity
  8
S1
  6
Continuous
 62
     3
100
AcDbLine
 10
45.66095276487203
 20
3.477441695113071
 30
0.0
 11
45.66095276487203
 21
3.707441695113061
 31
0.0
  0
LINE
  5
F1
330
2
100
AcDbEntity
  8
S1
  6
Continuous
 62
     3
100
AcDbLine
 10
45.68595276487203
 20
3.707441695113061
 30
0.0
 11
45.43595276487204
 21
3.707441695113061
 31
0.0
  0
LINE
  5
F2
330
2
100
AcDbEntity
  8
S1
  6
Continuous
 62
     3
100
AcDbLine
 10
45.68595276487203
 20
3.477441695113071
 30
0.0
 11
45.43595276487204
 21
3.477441695113071
 31
0.0
  0
LINE
  5
F3
330
2
100
AcDbEntity
  8
S1
  6
Continuous
 62
     3
100
AcDbLine
 10
45.43595276487204
 20
3.477441695113071
 30
0.0
 11
45.43595276487204
 21
3.707441695113061
 31
0.0
  0
LINE
  5
F4
330
2
100
AcDbEntity
  8
S1
  6
Continuous
 62
     3
100
AcDbLine
 10
45.44845276487203
 20
3.452441695113066
 30
0.0
 11
45.43595276487204
 21
3.477441695113071
 31
0.0
  0
LINE
  5
F5
330
2
100
AcDbEntity
  8
S1
  6
Continuous
 62
     3
100
AcDbLine
 10
45.68595276487203
 20
3.477441695113071
 30
0.0
 11
45.68595276487203
 21
3.707441695113061
 31
0.0
  0
LINE
  5
F6
330
2
100
AcDbEntity
  8
S1
  6
Continuous
 62
     3
100
AcDbLine
 10
45.67345276487205
 20
3.452441695113066
 30
0.0
 11
45.68595276487203
 21
3.477441695113071
 31
0.0
  0
ARC
  5
F7
330
2
100
AcDbEntity
  8
S1
  6
Continuous
 62
     3
100
AcDbCircle
 10
45.56095276487204
 20
3.642441695113063
 30
0.0
 40
0.6000000000000001
100
AcDbArc
 50
254.2140099999997
 51
285.7859900000002
  0
ARC
  5
F8
330
2
100
AcDbEntity
  8
S1
  6
Continuous
 62
     3
100
AcDbCircle
 10
45.41948926487205
 20
3.142053695113077
 30
0.0
 40
0.08
100
AcDbArc
 50
183.0000000000058
 51
254.2140099999997
  0
ARC
  5
F9
330
2
100
AcDbEntity
  8
S1
  6
Continuous
 62
     3
100
AcDbCircle
 10
45.70241601487206
 20
3.142053695113077
 30
0.0
 40
0.08
100
AcDbArc
 50
285.7859900000002
 51
356.9999999999942
  0
LINE
  5
FA
330
2
100
AcDbEntity
  8
S1
  6
Continuous
 62
     3
100
AcDbLine
 10
45.78595276487203
 20
3.207441695113061
 30
0.0
 11
45.33595276487204
 21
3.207441695113061
 31
0.0
  0
LINE
  5
FB
330
2
100
AcDbEntity
  8
S1
  6
Continuous
 62
     3
100
AcDbLine
 10
45.33595276487204
 20
3.207441695113061
 30
0.0
 11
45.33959901487205
 21
3.137866945113074
 31
0.0
  0
LINE
  5
FC
330
2
100
AcDbEntity
  8
S1
  6
Continuous
 62
     3
100
AcDbLine
 10
45.78595276487203
 20
3.207441695113061
 30
0.0
 11
45.78230651487203
 21
3.137866945113074
 31
0.0
  0
SPLINE
  5
FD
330
2
100
AcDbEntity
  8
GAIKEI
  6
Continuous
 62
     1
100
AcDbSpline
210
0.0
220
0.0
230
1.0
 70
     8
 71
     3
 72
    19
 73
    15
 74
    13
 42
0.0000000001
 43
0.0000000001
 44
0.000001
 12
-0.4537847692220346
 22
-0.891111319208832
 32
0.0
 13
0.0558661521317871
 23
-0.9984382670180405
 33
0.0
 40
0.0
 40
0.0
 40
0.0
 40
0.0
 40
0.0058433329848989
 40
0.0115431011623589
 40
0.0191493870676808
 40
0.0323458963040312
 40
0.0491681393602182
 40
0.0697806678864571
 40
0.0924149932146331
 40
0.1149878612986715
 40
0.1372182372400615
 40
0.153517971264874
 40
0.1694067174933785
 40
0.1997454480061722
 40
0.1997454480061722
 40
0.1997454480061722
 40
0.1997454480061722
 10
40.70910244945216
 20
31.94088644503748
 30
0.0
 10
40.70821857761548
 20
31.93915075831589
 30
0.0
 10
40.70662538569479
 20
31.93563741827507
 30
0.0
 10
40.70467911272523
 20
31.92955119192124
 30
0.0
 10
40.7023864630266
 20
31.92101725359942
 30
0.0
 10
40.70001303508857
 20
31.90868682946302
 30
0.0
 10
40.69807984205121
 20
31.89190548540455
 30
0.0
 10
40.69735581346725
 20
31.87187300177849
 30
0.0
 10
40.69822719014783
 20
31.84993450155656
 30
0.0
 10
40.70027095226495
 20
31.82754335327144
 30
0.0
 10
40.70268232994577
 20
31.80731818988716
 30
0.0
 10
40.70490784283558
 20
31.78931585806203
 30
0.0
 10
40.7073508324587
 20
31.76861626881183
 30
0.0
 10
40.70853748007405
 20
31.75324449040696
 30
0.0
 10
40.70910244945216
 20
31.74314737390139
 30
0.0
 11
40.70910244945216
 21
31.94088644503748
 31
0.0
 11
40.70671398356515
 21
31.93555328437074
 31
0.0
 11
40.70491065428578
 21
31.93014638652576
 31
0.0
 11
40.70293603583556
 21
31.92280088049998
 31
0.0
 11
40.70038701615047
 21
31.90985287205482
 31
0.0
 11
40.69842287679145
 21
31.89314565602265
 31
0.0
 11
40.69762943666265
 21
31.87254837368042
 31
0.0
 11
40.69842218014125
 21
31.84992792232359
 31
0.0
 11
40.70038624932116
 21
31.82744066592855
 31
0.0
 11
40.70293552288657
 21
31.80535696080042
 31
0.0
 11
40.70491039358083
 21
31.7891773388582
 31
0.0
 11
40.70671393368885
 21
31.77339135572598
 31
0.0
 11
40.70910244945216
 21
31.74314737390139
 31
0.0
  0
SPLINE
  5
FF
330
2
100
AcDbEntity
  8
GAIKEI
  6
Continuous
 62
     1
100
AcDbSpline
210
0.0
220
0.0
230
1.0
 70
     8
 71
     3
 72
    11
 73
     7
 74
     5
 42
0.0000000001
 43
0.0000000001
 44
0.000001
 12
-0.9272724310398604
 22
-0.3743872842838379
 32
0.0
 13
-0.8850743362206914
 23
-0.465449695846396
 33
0.0
 40
0.0
 40
0.0
 40
0.0
 40
0.0
 40
0.0143995265551268
 40
0.0364303848129772
 40
0.054352588973912
 40
0.0655662738736491
 40
0.0655662738736491
 40
0.0655662738736491
 40
0.0655662738736491
 10
40.76706067414469
 20
31.77368509509259
 30
0.0
 10
40.76260991281316
 20
31.77188809521195
 30
0.0
 10
40.75147217650675
 20
31.76702377190983
 30
0.0
 10
40.73552839234844
 20
31.758372364352
 30
0.0
 10
40.7209722643618
 20
31.74947939442982
 30
0.0
 10
40.71241076435856
 20
31.7448871759768
 30
0.0
 10
40.70910244945216
 20
31.74314737390151
 30
0.0
 11
40.76706067414469
 21
31.77368509509259
 31
0.0
 11
40.7538752199413
 21
31.76789758841861
 31
0.0
 11
40.73443014634281
 21
31.75754143527573
 31
0.0
 11
40.71896085375445
 21
31.74849095232881
 31
0.0
 11
40.70910244945216
 21
31.74314737390151
 31
0.0
  0
SPLINE
  5
100
330
2
100
AcDbEntity
  8
GAIKEI
  6
Continuous
 62
     1
100
AcDbSpline
210
0.0
220
0.0
230
1.0
 70
     8
 71
     3
 72
    15
 73
    11
 74
     9
 42
0.0000000001
 43
0.0000000001
 44
0.000001
 12
0.1151974769613444
 22
0.9933426102316062
 32
0.0
 13
-0.8415501913672635
 23
0.5401789290686208
 33
0.0
 40
0.0
 40
0.0
 40
0.0
 40
0.0
 40
0.0394084963478186
 40
0.0771399072617108
 40
0.1117967484186215
 40
0.1420880407746224
 40
0.1668916500996185
 40
0.1853241616436613
 40
0.196879107761351
 40
0.2022733320264348
 40
0.2022733320264348
 40
0.2022733320264348
 40
0.2022733320264348
 10
40.76706067414469
 20
31.77368509509259
 30
0.0
 10
40.76857392726139
 20
31.78673380796841
 30
0.0
 10
40.77118518150645
 20
31.81232050138238
 30
0.0
 10
40.77393804978081
 20
31.84947891454601
 30
0.0
 10
40.77564804975534
 20
31.88369581624994
 30
0.0
 10
40.77614956769056
 20
31.91352871321218
 30
0.0
 10
40.77605418858158
 20
31.93827102488029
 30
0.0
 10
40.77394335131907
 20
31.95595316350722
 30
0.0
 10
40.77313838770346
 20
31.96863246151554
 30
0.0
 10
40.76857384429881
 20
31.97243971994794
 30
0.0
 10
40.76706067414463
 20
31.97341100204349
 30
0.0
 11
40.76706067414469
 21
31.77368509509259
 31
0.0
 11
40.7710553427793
 21
31.81288998718324
 31
0.0
 11
40.77385616782462
 21
31.85051729544867
 31
0.0
 11
40.77551527316976
 21
31.88513439202294
 31
0.0
 11
40.77606474168502
 21
31.91542068583536
 31
0.0
 11
40.77551538848794
 21
31.94021818494926
 31
0.0
 11
40.7738563488007
 21
31.95857582604745
 31
0.0
 11
40.77105549605997
 21
31.96978587445668
 31
0.0
 11
40.76706067414463
 21
31.97341100204349
 31
0.0
  0
SPLINE
  5
101
330
2
100
AcDbEntity
  8
GAIKEI
  6
Continuous
 62
     1
100
AcDbSpline
210
0.0
220
0.0
230
1.0
 70
     8
 71
     3
 72
    13
 73
     9
 74
     7
 42
0.0000000001
 43
0.0000000001
 44
0.000001
 12
-0.9958439311814659
 22
-0.091076147969947
 32
0.0
 13
-0.9929680145434634
 23
-0.1183829468023682
 33
0.0
 40
0.0
 40
0.0
 40
0.0
 40
0.0
 40
0.279084967055747
 40
0.4824077539591936
 40
0.6857426128006065
 40
0.8891214813044726
 40
1.092568902581011
 40
1.132064281388675
 40
1.132064281388675
 40
1.132064281388675
 40
1.132064281388675
 10
44.65956989748948
 20
-2.448671079245372
 30
0.0
 10
44.56692820724734
 20
-2.457143740497286
 30
0.0
 10
44.40683291071903
 20
-2.472218527767722
 30
0.0
 10
44.17935363268191
 20
-2.49463798897662
 30
0.0
 10
43.97708017478334
 20
-2.51549892132661
 30
0.0
 10
43.77487396596666
 20
-2.537392362015452
 30
0.0
 10
43.62706201534638
 20
-2.554294018485961
 30
0.0
 10
43.54664449521211
 20
-2.563830050903277
 30
0.0
 10
43.53357194591936
 20
-2.565388577346055
 30
0.0
 11
44.65956989748948
 21
-2.448671079245372
 31
0.0
 11
44.38171270635476
 21
-2.474820264182625
 31
0.0
 11
44.17937312710208
 21
-2.494791325733075
 31
0.0
 11
43.9771130161366
 21
-2.515669715415896
 31
0.0
 11
43.7749192268063
 21
-2.537592946866055
 31
0.0
 11
43.5727927095435
 21
-2.560738477303146
 31
0.0
 11
43.53357194591936
 21
-2.565388577346055
 31
0.0
  0
SPLINE
  5
102
330
2
100
AcDbEntity
  8
GAIKEI
  6
Continuous
 62
     1
100
AcDbSpline
210
0.0
220
0.0
230
1.0
 70
     8
 71
     3
 72
    23
 73
    19
 74
    17
 42
0.0000000001
 43
0.0000000001
 44
0.000001
 12
0.1037512493360999
 22
-0.9946032768200588
 32
0.0
 13
-0.9066396789115103
 23
-0.4219057864301387
 33
0.0
 40
0.0
 40
0.0
 40
0.0
 40
0.0
 40
0.06070261108013
 40
0.1185986751946899
 40
0.1736064872697767
 40
0.2256490779792203
 40
0.2746574152566821
 40
0.3205734925395332
 40
0.3633544662869462
 40
0.4029783719659
 40
0.4389238356325391
 40
0.472113962282652
 40
0.5025974616641785
 40
0.5304770080022387
 40
0.5559339520156263
 40
0.5792613998137482
 40
0.6009024388063949
 40
0.6214788907307601
 40
0.6214788907307601
 40
0.6214788907307601
 40
0.6214788907307601
 10
44.87832124927595
 20
25.81017258507714
 30
0.0
 10
44.88042057318845
 20
25.79004757977987
 30
0.0
 10
44.88402857364739
 20
25.75067516625492
 30
0.0
 10
44.88797068408996
 20
25.69293536770477
 30
0.0
 10
44.8902820130946
 20
25.63799490710562
 30
0.0
 10
44.89099627155295
 20
25.58597259219747
 30
0.0
 10
44.89012324143661
 20
25.53698226785622
 30
0.0
 10
44.88767219321807
 20
25.4911348907109
 30
0.0
 10
44.88364509912552
 20
25.44853756358004
 30
0.0
 10
44.87806601189618
 20
25.40946598653761
 30
0.0
 10
44.87093003696429
 20
25.37390000969288
 30
0.0
 10
44.86229778184609
 20
25.34180732019161
 30
0.0
 10
44.85213025655883
 20
25.31299540497736
 30
0.0
 10
44.84043302108005
 20
25.28757066850398
 30
0.0
 10
44.8272009701906
 20
25.26563101735866
 30
0.0
 10
44.81238811095567
 20
25.24731232488625
 30
0.0
 10
44.79599030079572
 20
25.2326850494627
 30
0.0
 10
44.78371049206749
 20
25.2255990895361
 30
0.0
 10
44.77749201614554
 20
25.22270531482573
 30
0.0
 11
44.87832124927595
 21
25.81017258507714
 31
0.0
 11
44.88387363706093
 21
25.7497252817382
 31
0.0
 11
44.88777753170021
 21
25.69196099714591
 31
0.0
 11
44.89005626112398
 21
25.63700041358712
 31
0.0
 11
44.89072769108284
 21
25.58496216438758
 31
0.0
 11
44.8898042495405
 21
25.53596253930815
 31
0.0
 11
44.88729296575459
 21
25.49011520142884
 31
0.0
 11
44.88319552363387
 21
25.44753091609781
 31
0.0
 11
44.87750832893127
 21
25.40831729246921
 31
0.0
 11
44.87035556084075
 21
25.37309070079962
 31
0.0
 11
44.86164061821935
 21
25.34106520156595
 31
0.0
 11
44.85138696963739
 21
25.31235798105902
 31
0.0
 11
44.83961301555038
 21
25.28708663591252
 31
0.0
 11
44.82633185555679
 21
25.26536880580537
 31
0.0
 11
44.81155106528669
 21
25.2473217909243
 31
0.0
 11
44.79527248426913
 21
25.23306215499898
 31
0.0
 11
44.77749201614554
 21
25.22270531482573
 31
0.0
  0
SPLINE
  5
103
330
2
100
AcDbEntity
  8
GAIKEI
  6
Continuous
 62
     1
100
AcDbSpline
210
0.0
220
0.0
230
1.0
 70
     8
 71
     3
 72
    27
 73
    23
 74
    21
 42
0.0000000001
 43
0.0000000001
 44
0.000001
 12
-0.3587289631765114
 22
-0.9334417662491352
 32
0.0
 13
-0.3043867708718783
 23
-0.952548525650106
 33
0.0
 40
0.0
 40
0.0
 40
0.0
 40
0.0
 40
0.000052765316051
 40
0.0137452944832241
 40
0.0277848726959967
 40
0.0420904151999906
 40
0.0621802894338646
 40
0.0825042457509836
 40
0.1029273041856878
 40
0.120440706794733
 40
0.1390172120262889
 40
0.1586623151565132
 40
0.1727209773580527
 40
0.1881397105005395
 40
0.2049363464391857
 40
0.2220007426194276
 40
0.2384281114962712
 40
0.2550330349711858
 40
0.2718074234064913
 40
0.3201416250121446
 40
0.3656184092027507
 40
0.4082186707019203
 40
0.4082186707019203
 40
0.4082186707019203
 40
0.4082186707019203
 10
44.54749001121391
 20
24.8015604446887
 30
0.0
 10
44.54748370173153
 20
24.80154402690545
 30
0.0
 10
44.54584042791018
 20
24.79726708648789
 30
0.0
 10
44.54255952010768
 20
24.78860585157955
 30
0.0
 10
44.53775175277162
 20
24.77544349108345
 30
0.0
 10
44.53242358947878
 20
24.76020241843276
 30
0.0
 10
44.5267945320854
 20
24.74284991745617
 30
0.0
 10
44.52118436491843
 20
24.72335817562413
 30
0.0
 10
44.51651041454556
 20
24.70450307559597
 30
0.0
 10
44.51271470935083
 20
24.68604783211339
 30
0.0
 10
44.50956919819264
 20
24.66773482416437
 30
0.0
 10
44.50711861547472
 20
24.65047880929478
 30
0.0
 10
44.5051804164855
 20
24.63421913562678
 30
0.0
 10
44.50356232617095
 20
24.618879230987
 30
0.0
 10
44.50199431496928
 20
24.60252745273908
 30
0.0
 10
44.5005163785237
 20
24.58582988544169
 30
0.0
 10
44.49897488801321
 20
24.56920226855118
 30
0.0
 10
44.49737939995682
 20
24.55267675141275
 30
0.0
 10
44.49479977183965
 20
24.5255620839732
 30
0.0
 10
44.49008379585956
 20
24.48897637697053
 30
0.0
 10
44.48105599637734
 20
24.44436905970295
 30
0.0
 10
44.47309000267177
 20
24.4160808336255
 30
0.0
 10
44.46876768399309
 20
24.40255456153105
 30
0.0
 11
44.54749001121391
 21
24.8015604446887
 31
0.0
 11
44.54747108359995
 21
24.8015111906266
 31
0.0
 11
44.54262463020532
 21
24.78870486849169
 31
0.0
 11
44.53781151816079
 21
24.77551608962202
 31
0.0
 11
44.53310137221089
 21
24.76200819339161
 31
0.0
 11
44.52692403331755
 21
24.74289160250194
 31
0.0
 11
44.52131407493348
 21
24.72335721848916
 31
0.0
 11
44.51641958670282
 21
24.70352931161452
 31
0.0
 11
44.51287629783601
 21
24.68637807901362
 31
0.0
 11
44.50971485290406
 21
24.66807255632719
 31
0.0
 11
44.50694069821352
 21
24.64862430839222
 31
0.0
 11
44.50526318394056
 21
24.63466608751029
 31
0.0
 11
44.50363275303269
 21
24.61933380473638
 31
0.0
 11
44.50202208358169
 21
24.60261458350649
 31
0.0
 11
44.50048465924126
 21
24.58561960546959
 31
0.0
 11
44.49896904559111
 21
24.56926233064749
 31
0.0
 11
44.49738768814174
 21
24.55273292179621
 31
0.0
 11
44.49574726493986
 21
24.53603902121396
 31
0.0
 11
44.48937612829169
 21
24.48812738956761
 31
0.0
 11
44.48029687380656
 21
24.44356559578015
 31
0.0
 11
44.46876768399309
 21
24.40255456153105
 31
0.0
  0
SPLINE
  5
104
330
2
100
AcDbEntity
  8
GAIKEI
  6
Continuous
 62
     1
100
AcDbSpline
210
0.0
220
0.0
230
1.0
 70
     8
 71
     3
 72
    30
 73
    26
 74
    24
 42
0.0000000001
 43
0.0000000001
 44
0.000001
 12
-0.0200236380412519
 22
-0.9997995068610471
 32
0.0
 13
0.6382126117635996
 23
-0.7698601575519316
 33
0.0
 40
0.0
 40
0.0
 40
0.0
 40
0.0
 40
0.016606923821622
 40
0.0373010785549166
 40
0.062161223043328
 40
0.0912321347745232
 40
0.1271247647504396
 40
0.1661149835442321
 40
0.1996843709300213
 40
0.2075830122509619
 40
0.2151115874076531
 40
0.2222706400800026
 40
0.2290608027015173
 40
0.2354828166742121
 40
0.2415375586176954
 40
0.2695382121071211
 40
0.2966935088714128
 40
0.3230613834755171
 40
0.3487051081642308
 40
0.37369345664966
 40
0.3981007431757767
 40
0.4408164956220404
 40
0.4807239607646424
 40
0.5184525715331308
 40
0.5547443344004151
 40
0.5547443344004151
 40
0.5547443344004151
 40
0.5547443344004151
 10
44.46876768399309
 20
1.674886347960779
 30
0.0
 10
44.4686568403159
 20
1.669351816545002
 30
0.0
 10
44.4680284179521
 20
1.656919655134174
 30
0.0
 10
44.46516205196798
 20
1.636380200926851
 30
0.0
 10
44.46067434895747
 20
1.611910599360101
 30
0.0
 10
44.45421674599876
 20
1.582667374806021
 30
0.0
 10
44.44582744152394
 20
1.549046189062352
 30
0.0
 10
44.43774488735047
 20
1.513808342908305
 30
0.0
 10
44.43222324098553
 20
1.48756072313219
 30
0.0
 10
44.42916160304824
 20
1.471517873639129
 30
0.0
 10
44.42781001241548
 20
1.464111345434304
 30
0.0
 10
44.4265872356955
 20
1.457057164648091
 30
0.0
 10
44.42549404818495
 20
1.450355224383713
 30
0.0
 10
44.42452770130361
 20
1.444005842876265
 30
0.0
 10
44.4226776476811
 20
1.430640626465958
 30
0.0
 10
44.42044362737724
 20
1.410352055550362
 30
0.0
 10
44.41864888727198
 20
1.383227873980899
 30
0.0
 10
44.41816843583558
 20
1.356832359632505
 30
0.0
 10
44.41899374747506
 20
1.331167958191969
 30
0.0
 10
44.42112376143586
 20
1.306232075878028
 30
0.0
 10
44.42546052159808
 20
1.27582365041934
 30
0.0
 10
44.43326177986806
 20
1.240932135118299
 30
0.0
 10
44.44657618570379
 20
1.202981515117045
 30
0.0
 10
44.46382896214657
 20
1.169005913630968
 30
0.0
 10
44.47828789361324
 20
1.148882491361035
 30
0.0
 10
44.48600851386825
 20
1.139569297268081
 30
0.0
 11
44.46876768399309
 21
1.674886347960779
 31
0.0
 11
44.46787993773855
 21
1.658303366368414
 31
0.0
 11
44.46522134915719
 21
1.637780729688785
 31
0.0
 11
44.46079191824904
 21
1.613318437922117
 31
0.0
 11
44.45459164501417
 21
1.584916491068298
 31
0.0
 11
44.44618279101033
 21
1.550022837788475
 31
0.0
 11
44.43746363948346
 21
1.512020101830472
 31
0.0
 11
44.43062758618774
 21
1.479154183586757
 31
0.0
 11
44.42914837219214
 21
1.471395299309648
 31
0.0
 11
44.42779832763304
 21
1.463988770442512
 31
0.0
 11
44.42657745251032
 21
1.456934596985576
 31
0.0
 11
44.42548574682419
 21
1.450232778938726
 31
0.0
 11
44.42452321057451
 21
1.443883316301963
 31
0.0
 11
44.4236898437613
 21
1.437886209075401
 31
0.0
 11
44.42061789794698
 21
1.410054617625775
 31
0.0
 11
44.41885053953663
 21
1.382956931317977
 31
0.0
 11
44.41838776853038
 21
1.356593150151894
 31
0.0
 11
44.4192295849281
 21
1.33096327412764
 31
0.0
 11
44.42137598872991
 21
1.306067303245214
 31
0.0
 11
44.42482697993571
 21
1.281905237504503
 31
0.0
 11
44.43429938622014
 21
1.240253013654552
 31
0.0
 11
44.44765377730371
 21
1.202646282331926
 31
0.0
 11
44.46489015318642
 21
1.169085043536398
 31
0.0
 11
44.48600851386825
 21
1.139569297268081
 31
0.0
  0
SPLINE
  5
105
330
2
100
AcDbEntity
  8
GAIKEI
  6
Continuous
 62
     1
100
AcDbSpline
210
0.0
220
0.0
230
1.0
 70
     8
 71
     3
 72
    12
 73
     8
 74
     6
 42
0.0000000001
 43
0.0000000001
 44
0.000001
 12
0.4769591228667053
 22
0.8789254775657735
 32
0.0
 13
0.3555935529301539
 23
0.9346406930550958
 33
0.0
 40
0.0
 40
0.0
 40
0.0
 40
0.0
 40
0.0463485371772527
 40
0.09288144435473
 40
0.139644928986831
 40
0.1864441356849683
 40
0.1874282895021357
 40
0.1874282895021357
 40
0.1874282895021357
 40
0.1874282895021357
 10
42.90301634216771
 20
23.17301022154439
 30
0.0
 10
42.91038512804712
 20
23.18658919160205
 30
0.0
 10
42.92450480338852
 20
23.2141640580231
 30
0.0
 10
42.94332893796678
 20
23.25675333046638
 30
0.0
 10
42.96091897498489
 20
23.30001545309295
 30
0.0
 10
42.97223500320664
 20
23.32943075184502
 30
0.0
 10
42.97789968925004
 20
23.34431717360729
 30
0.0
 10
42.97801634216753
 20
23.34462378367587
 30
0.0
 11
42.90301634216771
 21
23.17301022154439
 31
0.0
 11
42.92407952596519
 21
23.21429646110098
 31
0.0
 11
42.94308423716936
 21
23.25677215785518
 31
0.0
 11
42.96077737723388
 21
23.30005951338106
 31
0.0
 11
42.97766628385878
 21
23.34370400849028
 31
0.0
 11
42.97801634216753
 21
23.34462378367587
 31
0.0
  0
SPLINE
  5
106
330
2
100
AcDbEntity
  8
GAIKEI
  6
Continuous
 62
     1
100
AcDbSpline
210
0.0
220
0.0
230
1.0
 70
     8
 71
     3
 72
    12
 73
     8
 74
     6
 42
0.0000000001
 43
0.0000000001
 44
0.000001
 12
0.4769591228668367
 22
0.8789254775657024
 32
0.0
 13
0.355593553261721
 23
0.9346406929289477
 33
0.0
 40
0.0
 40
0.0
 40
0.0
 40
0.0
 40
0.0463485371772527
 40
0.0928814443548106
 40
0.1396449289866037
 40
0.1864441356849522
 40
0.1874282895021245
 40
0.1874282895021245
 40
0.1874282895021245
 40
0.1874282895021245
 10
42.90301634216771
 20
4.04570008588351
 30
0.0
 10
42.91038512804712
 20
4.059279055941175
 30
0.0
 10
42.92450480338871
 20
4.086853922362195
 30
0.0
 10
42.94332893796609
 20
4.12944319480573
 30
0.0
 10
42.96091897498671
 20
4.172705317431052
 30
0.0
 10
42.97223500320142
 20
4.202120616186732
 30
0.0
 10
42.97789968924994
 20
4.217007037946444
 30
0.0
 10
42.97801634216753
 20
4.217313648014993
 30
0.0
 11
42.90301634216771
 21
4.04570008588351
 31
0.0
 11
42.92407952596519
 21
4.086986325440108
 31
0.0
 11
42.94308423716936
 21
4.129462022194303
 31
0.0
 11
42.96077737723388
 21
4.172749377720066
 31
0.0
 11
42.9776662838585
 21
4.216393872829513
 31
0.0
 11
42.97801634216753
 21
4.217313648014993
 31
0.0
  0
SPLINE
  5
107
330
2
100
AcDbEntity
  8
GAIKEI
  6
Continuous
 62
     1
100
AcDbSpline
210
0.0
220
0.0
230
1.0
 70
     8
 71
     3
 72
    13
 73
     9
 74
     7
 42
0.0000000001
 43
0.0000000001
 44
0.000001
 12
-0.355604041378737
 22
0.9346367025508412
 32
0.0
 13
-0.4792288571631189
 23
0.877689980837272
 33
0.0
 40
0.0
 40
0.0
 40
0.0
 40
0.0
 40
0.0009841552556062
 40
0.0341752847051327
 40
0.0724502295558032
 40
0.1107098708129845
 40
0.1490911211199224
 40
0.1874325864602336
 40
0.1874325864602336
 40
0.1874325864602336
 40
0.1874325864602336
 10
42.97801634216753
 20
24.07794944192929
 30
0.0
 10
42.97789968563878
 20
24.07825605113692
 30
0.0
 10
42.97384835683813
 20
24.08890306777437
 30
0.0
 10
42.96519596996282
 20
24.11145008687316
 30
0.0
 10
42.95171294276953
 20
24.14545146858362
 30
0.0
 10
42.93682965039116
 20
24.1807505009532
 30
0.0
 10
42.92091520481136
 20
24.21562909340261
 30
0.0
 10
42.90914112104005
 20
24.23834569740083
 30
0.0
 10
42.90301634216771
 20
24.24956300406078
 30
0.0
 11
42.97801634216753
 21
24.07794944192929
 31
0.0
 11
42.97766628389732
 21
24.07886921713126
 31
0.0
 11
42.96574934496485
 21
24.10984659577369
 31
0.0
 11
42.95158376373698
 21
24.14540351024803
 31
0.0
 11
42.93667589189854
 21
24.18063897407822
 31
0.0
 11
42.92062162718607
 21
24.2155020227008
 31
0.0
 11
42.90301634216771
 21
24.24956300406078
 31
0.0
  0
SPLINE
  5
108
330
2
100
AcDbEntity
  8
GAIKEI
  6
Continuous
 62
     1
100
AcDbSpline
210
0.0
220
0.0
230
1.0
 70
     8
 71
     3
 72
    13
 73
     9
 74
     7
 42
0.0000000001
 43
0.0000000001
 44
0.000001
 12
-0.3556040416314752
 22
0.9346367024546809
 32
0.0
 13
-0.4792288571630963
 23
0.8776899808372844
 33
0.0
 40
0.0
 40
0.0
 40
0.0
 40
0.0
 40
0.0009841552556542
 40
0.0341752847052571
 40
0.0724502295558696
 40
0.110709870812993
 40
0.1490911211198894
 40
0.1874325864602258
 40
0.1874325864602258
 40
0.1874325864602258
 40
0.1874325864602258
 10
42.97801634216753
 20
4.950639306268413
 30
0.0
 10
42.9778996856387
 20
4.95094591547604
 30
0.0
 10
42.97384835683469
 20
4.961592932112779
 30
0.0
 10
42.96519596996442
 20
4.984139951212654
 30
0.0
 10
42.95171294276897
 20
5.018141332922709
 30
0.0
 10
42.93682965039116
 20
5.053440365292317
 30
0.0
 10
42.92091520481133
 20
5.088318957741734
 30
0.0
 10
42.90914112104005
 20
5.111035561739953
 30
0.0
 10
42.90301634216771
 20
5.122252868399897
 30
0.0
 11
42.97801634216753
 21
4.950639306268413
 31
0.0
 11
42.97766628389709
 21
4.951559081470378
 31
0.0
 11
42.96574934496485
 21
4.982536460112811
 31
0.0
 11
42.95158376373698
 21
5.018093374587152
 31
0.0
 11
42.93667589189854
 21
5.053328838417343
 31
0.0
 11
42.92062162718607
 21
5.088191887039926
 31
0.0
 11
42.90301634216771
 21
5.122252868399897
 31
0.0
  0
SPLINE
  5
109
330
2
100
AcDbEntity
  8
GAIKEI
  6
Continuous
 62
     1
100
AcDbSpline
210
0.0
220
0.0
230
1.0
 70
     8
 71
     3
 72
    11
 73
     7
 74
     5
 42
0.0000000001
 43
0.0000000001
 44
0.000001
 12
-0.5697183474043875
 22
0.8218400115781744
 32
0.0
 13
-0.7258381967822672
 23
0.6878654752870411
 33
0.0
 40
0.0
 40
0.0
 40
0.0
 40
0.0
 40
0.0271269143005231
 40
0.0541651219876576
 40
0.0813877632111977
 40
0.09275576614124
 40
0.09275576614124
 40
0.09275576614124
 40
0.09275576614124
 10
42.90301634216771
 20
5.122252868399897
 30
0.0
 10
42.89786477523922
 20
5.129684196254174
 30
0.0
 10
42.88711327105798
 20
5.144207152313327
 30
0.0
 10
42.86960334699424
 20
5.164949893059713
 30
0.0
 10
42.8545231030841
 20
5.180816343152969
 30
0.0
 10
42.84529135478538
 20
5.189775751575723
 30
0.0
 10
42.8425409112028
 20
5.192382303821915
 30
0.0
 11
42.90301634216771
 21
5.122252868399897
 31
0.0
 11
42.88687005887206
 21
5.144051613199309
 31
0.0
 11
42.86944603094028
 21
5.164727323186326
 31
0.0
 11
42.850697701536
 21
5.184465043734491
 31
0.0
 11
42.8425409112028
 21
5.192382303821915
 31
0.0
  0
SPLINE
  5
10A
330
2
100
AcDbEntity
  8
GAIKEI
  6
Continuous
 62
     1
100
AcDbSpline
210
0.0
220
0.0
230
1.0
 70
     8
 71
     3
 72
    11
 73
     7
 74
     5
 42
0.0000000001
 43
0.0000000001
 44
0.000001
 12
0.7261327727614697
 22
0.6875545042552915
 32
0.0
 13
0.5694961259186093
 23
0.8219940161361854
 33
0.0
 40
0.0
 40
0.0
 40
0.0
 40
0.0
 40
0.0216057200346824
 40
0.0445668898279335
 40
0.0685149071729348
 40
0.0928153822368551
 40
0.0928153822368551
 40
0.0928153822368551
 40
0.0928153822368551
 10
42.84249945281996
 20
23.10284148048018
 30
0.0
 10
42.84772899328539
 20
23.10779318385602
 30
0.0
 10
42.85828354020154
 20
23.11825593196454
 30
0.0
 10
42.87373463671966
 20
23.13508623437201
 30
0.0
 10
42.88887003237519
 20
23.15338625492515
 30
0.0
 10
42.89840333336542
 20
23.16635193984712
 30
0.0
 10
42.90301634216771
 20
23.17301022154439
 30
0.0
 11
42.84249945281996
 21
23.10284148048018
 31
0.0
 11
42.85784316110576
 21
23.11805209737727
 31
0.0
 11
42.87336602740921
 21
23.13497036340144
 31
0.0
 11
42.88861780052392
 21
23.1534343504899
 31
0.0
 11
42.90301634216771
 21
23.17301022154439
 31
0.0
  0
SPLINE
  5
10B
330
2
100
AcDbEntity
  8
GAIKEI
  6
Continuous
 62
     1
100
AcDbSpline
210
0.0
220
0.0
230
1.0
 70
     8
 71
     3
 72
    11
 73
     7
 74
     5
 42
0.0000000001
 43
0.0000000001
 44
0.000001
 12
0.7261327727615202
 22
0.6875545042552385
 32
0.0
 13
0.5694961259181754
 23
0.8219940161364862
 33
0.0
 40
0.0
 40
0.0
 40
0.0
 40
0.0
 40
0.0216057200346824
 40
0.0445668898279335
 40
0.0685149071729348
 40
0.0928153822368551
 40
0.0928153822368551
 40
0.0928153822368551
 40
0.0928153822368551
 10
42.84249945281996
 20
3.975531344819302
 30
0.0
 10
42.84772899328539
 20
3.980483048195139
 30
0.0
 10
42.85828354020154
 20
3.990945796303691
 30
0.0
 10
42.87373463671966
 20
4.007776098711133
 30
0.0
 10
42.88887003237519
 20
4.026076119264217
 30
0.0
 10
42.89840333336542
 20
4.03904180418624
 30
0.0
 10
42.90301634216771
 20
4.04570008588351
 30
0.0
 11
42.84249945281996
 21
3.975531344819302
 31
0.0
 11
42.85784316110576
 21
3.990741961716395
 31
0.0
 11
42.87336602740921
 21
4.007660227740558
 31
0.0
 11
42.88861780052392
 21
4.026124214829025
 31
0.0
 11
42.90301634216771
 21
4.04570008588351
 31
0.0
  0
SPLINE
  5
10C
330
2
100
AcDbEntity
  8
GAIKEI
  6
Continuous
 62
     1
100
AcDbSpline
210
0.0
220
0.0
230
1.0
 70
     8
 71
     3
 72
    11
 73
     7
 74
     5
 42
0.0000000001
 43
0.0000000001
 44
0.000001
 12
-0.5697183474044964
 22
0.8218400115780987
 32
0.0
 13
-0.725838196782078
 23
0.6878654752872409
 33
0.0
 40
0.0
 40
0.0
 40
0.0
 40
0.0
 40
0.0271269143005231
 40
0.0541651219876576
 40
0.0813877632111977
 40
0.09275576614124
 40
0.09275576614124
 40
0.09275576614124
 40
0.09275576614124
 10
42.90301634216771
 20
24.24956300406078
 30
0.0
 10
42.89786477523922
 20
24.25699433191506
 30
0.0
 10
42.88711327105798
 20
24.27151728797418
 30
0.0
 10
42.86960334699424
 20
24.29226002872062
 30
0.0
 10
42.8545231030841
 20
24.30812647881385
 30
0.0
 10
42.84529135478538
 20
24.3170858872366
 30
0.0
 10
42.8425409112028
 20
24.31969243948279
 30
0.0
 11
42.90301634216771
 21
24.24956300406078
 31
0.0
 11
42.88687005887206
 21
24.27136174886019
 31
0.0
 11
42.86944603094028
 21
24.2920374588472
 31
0.0
 11
42.850697701536
 21
24.31177517939537
 31
0.0
 11
42.8425409112028
 21
24.31969243948279
 31
0.0
  0
SPLINE
  5
10D
330
2
100
AcDbEntity
  8
GAIKEI
  6
Continuous
 62
     1
100
AcDbSpline
210
0.0
220
0.0
230
1.0
 70
     8
 71
     3
 72
    16
 73
    12
 74
    10
 42
0.0000000001
 43
0.0000000001
 44
0.000001
 12
-0.7246933390181188
 22
0.6890715234159442
 32
0.0
 13
-0.0435589224551712
 23
0.999050859703621
 33
0.0
 40
0.0
 40
0.0
 40
0.0
 40
0.0
 40
0.0008245869742816
 40
0.0042427686756445
 40
0.0104169723952511
 40
0.0192855983072546
 40
0.0307089239071615
 40
0.0445088940072586
 40
0.0604644486191605
 40
0.0783168924071109
 40
0.082870902017959
 40
0.082870902017959
 40
0.082870902017959
 40
0.082870902017959
 10
42.97470684701093
 20
28.90878737268341
 30
0.0
 10
42.97450765611503
 20
28.90897677248427
 30
0.0
 10
42.97352693730049
 20
28.91003367175625
 30
0.0
 10
42.97331637550505
 20
28.91374517356633
 30
0.0
 10
42.97225607930404
 20
28.91966418536092
 30
0.0
 10
42.97159826604937
 20
28.92853814727084
 30
0.0
 10
42.97073585683006
 20
28.93983962526721
 30
0.0
 10
42.96993880939456
 20
28.95355396905456
 30
0.0
 10
42.96911286344972
 20
28.96939811418582
 30
0.0
 10
42.96852001611855
 20
28.98217277172245
 30
0.0
 10
42.96819297116741
 20
28.98963435780326
 30
0.0
 10
42.96812684858358
 20
28.99115092020887
 30
0.0
 11
42.97470684701093
 21
28.90878737268341
 31
0.0
 11
42.97416093153882
 21
28.90940550420387
 31
0.0
 11
42.97332759820548
 21
28.91272029565576
 31
0.0
 11
42.97249426487215
 21
28.91883796530877
 31
0.0
 11
42.97166093153876
 21
28.9276673357156
 31
0.0
 11
42.97082759820549
 21
28.93906021554372
 31
0.0
 11
42.96999426487215
 21
28.95283499580856
 31
0.0
 11
42.96916093153882
 21
28.96876876982961
 31
0.0
 11
42.96832759820543
 21
28.98660175005082
 31
0.0
 11
42.96812684858358
 21
28.99115092020887
 31
0.0
  0
SPLINE
  5
10E
330
2
100
AcDbEntity
  8
GAIKEI
  6
Continuous
 62
     1
100
AcDbSpline
210
0.0
220
0.0
230
1.0
 70
     8
 71
     3
 72
    18
 73
    14
 74
    12
 42
0.0000000001
 43
0.0000000001
 44
0.000001
 12
-0.5846562919338174
 22
-0.8112810982034519
 32
0.0
 13
-0.0371796361213846
 23
-0.9993085983107928
 33
0.0
 40
0.0
 40
0.0
 40
0.0
 40
0.0
 40
0.0015787525645141
 40
0.0058612971317786
 40
0.0128958923591835
 40
0.0225827165460995
 40
0.0347748335201429
 40
0.0492781281816704
 40
0.065858034089557
 40
0.0842514048913159
 40
0.1041566705154397
 40
0.1252574645254108
 40
0.1472102067833216
 40
0.1472102067833216
 40
0.1472102067833216
 40
0.1472102067833216
 10
42.95413410793182
 20
29.26378799375917
 30
0.0
 10
42.9538264320584
 20
29.26336105638774
 30
0.0
 10
42.95277663625076
 20
29.26167885780052
 30
0.0
 10
42.95246475052855
 20
29.25726283651016
 30
0.0
 10
42.95146489043164
 20
29.25039915549968
 30
0.0
 10
42.95076132731135
 20
29.24075243506647
 30
0.0
 10
42.9499132029575
 20
29.22866760457737
 30
0.0
 10
42.94910844066502
 20
29.21426005071126
 30
0.0
 10
42.94828297916317
 20
29.1977900292365
 30
0.0
 10
42.94746116123931
 20
29.17951509983704
 30
0.0
 10
42.9466357144317
 20
29.15973263177068
 30
0.0
 10
42.94581077107771
 20
29.13876252757567
 30
0.0
 10
42.94526632986179
 20
29.12442168570342
 30
0.0
 10
42.94499426487212
 20
29.11710916433847
 30
0.0
 11
42.95413410793182
 21
29.26378799375917
 31
0.0
 11
42.9533275982055
 21
29.26243069860019
 31
0.0
 11
42.95249426487217
 21
29.25823019020359
 31
0.0
 11
42.95166093153878
 21
29.25124515896474
 31
0.0
 11
42.95082759820551
 21
29.24159426068391
 31
0.0
 11
42.94999426487217
 21
29.22943066477572
 31
0.0
 11
42.94916093153884
 21
29.21495133630188
 31
0.0
 11
42.94832759820545
 21
29.19839238976127
 31
0.0
 11
42.94749426487217
 21
29.1800179089793
 31
0.0
 11
42.94666093153878
 21
29.16013009687097
 31
0.0
 11
42.94582759820551
 21
29.13904576667827
 31
0.0
 11
42.94499426487212
 21
29.11710916433847
 31
0.0
  0
SPLINE
  5
10F
330
2
100
AcDbEntity
  8
GAIKEI
  6
Continuous
 62
     1
100
AcDbSpline
210
0.0
220
0.0
230
1.0
 70
     8
 71
     3
 72
    18
 73
    14
 74
    12
 42
0.0000000001
 43
0.0000000001
 44
0.000001
 12
-0.5844656576224157
 22
-0.8114184463394934
 32
0.0
 13
-0.0371796361214128
 23
-0.9993085983107919
 33
0.0
 40
0.0
 40
0.0
 40
0.0
 40
0.0
 40
0.0015785755413335
 40
0.0058611200296906
 40
0.0128957152542895
 40
0.0225825394405173
 40
0.034774656414307
 40
0.049277951075762
 40
0.0658578569835888
 40
0.0842512277853361
 40
0.1041564934094463
 40
0.1252572874194946
 40
0.1472100295646769
 40
0.1472100295646769
 40
0.1472100295646769
 40
0.1472100295646769
 10
42.99413376814098
 20
29.26378798967417
 30
0.0
 10
42.99382622707702
 20
29.2633610279031
 30
0.0
 10
42.99277681478374
 20
29.26167870221405
 30
0.0
 10
42.99246463750029
 20
29.25726289493468
 30
0.0
 10
42.99146494147822
 20
29.25039912890119
 30
0.0
 10
42.99076130743557
 20
29.24075244523468
 30
0.0
 10
42.98991320993081
 20
29.22866760082863
 30
0.0
 10
42.98910843829199
 20
29.21426005180769
 30
0.0
 10
42.98828297985821
 20
29.19779002874299
 30
0.0
 10
42.98746116097106
 20
29.17951509984244
 30
0.0
 10
42.98663571446036
 20
29.15973263162491
 30
0.0
 10
42.98581077100005
 20
29.1387625275132
 30
0.0
 10
42.98526632986048
 20
29.12442168566588
 30
0.0
 10
42.9849942648722
 20
29.11710916433847
 30
0.0
 11
42.99413376814098
 21
29.26378798967417
 31
0.0
 11
42.99332759820546
 21
29.26243069860019
 31
0.0
 11
42.99249426487214
 21
29.25823019020359
 31
0.0
 11
42.99166093153885
 21
29.25124515896474
 31
0.0
 11
42.99082759820547
 21
29.24159426068391
 31
0.0
 11
42.98999426487213
 21
29.22943066477572
 31
0.0
 11
42.9891609315388
 21
29.21495133630188
 31
0.0
 11
42.98832759820553
 21
29.19839238976127
 31
0.0
 11
42.98749426487214
 21
29.1800179089793
 31
0.0
 11
42.9866609315388
 21
29.16013009687097
 31
0.0
 11
42.98582759820547
 21
29.13904576667827
 31
0.0
 11
42.9849942648722
 21
29.11710916433847
 31
0.0
  0
SPLINE
  5
110
330
2
100
AcDbEntity
  8
GAIKEI
  6
Continuous
 62
     1
100
AcDbSpline
210
0.0
220
0.0
230
1.0
 70
     8
 71
     3
 72
    20
 73
    16
 74
    14
 42
0.0000000001
 43
0.0000000001
 44
0.000001
 12
-0.0366600883891987
 22
-0.9993277930285419
 32
0.0
 13
-0.8962567755996664
 23
-0.4435355591062449
 33
0.0
 40
0.0
 40
0.0
 40
0.0
 40
0.0
 40
0.0225441489661379
 40
0.0447243509194737
 40
0.0661807098233039
 40
0.0865702989487998
 40
0.105560024997201
 40
0.1228469656545089
 40
0.1381506161008582
 40
0.1512251988682196
 40
0.1618642916135566
 40
0.1698958897130195
 40
0.1752100305703667
 40
0.1777642420885789
 40
0.1780980751421449
 40
0.1780980751421449
 40
0.1780980751421449
 40
0.1780980751421449
 10
43.02499426487216
 20
29.08628661280252
 30
0.0
 10
43.02471877470757
 20
29.07877694792518
 30
0.0
 10
43.02416814278219
 20
29.06387900816714
 30
0.0
 10
43.02334224389312
 20
29.04183421098728
 30
0.0
 10
43.02251603266031
 20
29.02050823297367
 30
0.0
 10
43.02169128974358
 20
29.00024615073684
 30
0.0
 10
43.02086639182525
 20
28.98137632711905
 30
0.0
 10
43.02004710558981
 20
28.96419930247541
 30
0.0
 10
43.01921957196035
 20
28.94900935987704
 30
0.0
 10
43.01843009429823
 20
28.93599985527294
 30
0.0
 10
43.01755696907997
 20
28.92552764585764
 30
0.0
 10
43.01693611005335
 20
28.91737600874251
 30
0.0
 10
43.01585329716941
 20
28.91251909619555
 30
0.0
 10
43.01566722217867
 20
28.90931494793298
 30
0.0
 10
43.01480632030847
 20
28.90883672934186
 30
0.0
 10
43.01470658692974
 20
28.90878737373183
 30
0.0
 11
43.02499426487216
 21
29.08628661280252
 31
0.0
 11
43.02416093153877
 21
29.06375840719173
 31
0.0
 11
43.0233275982055
 21
29.04159386678092
 31
0.0
 11
43.02249426487216
 21
29.02015369817187
 31
0.0
 11
43.02166093153883
 21
28.99978114739034
 31
0.0
 11
43.02082759820544
 21
28.98080971732159
 31
0.0
 11
43.01999426487216
 21
28.96354287749583
 31
0.0
 11
43.01916093153884
 21
28.9482619375323
 31
0.0
 11
43.0183275982055
 21
28.93521394610051
 31
0.0
 11
43.01749426487211
 21
28.92460755199536
 31
0.0
 11
43.01666093153883
 21
28.91661932538275
 31
0.0
 11
43.0158275982055
 21
28.91137098552182
 31
0.0
 11
43.01499426487217
 21
28.90895686106117
 31
0.0
 11
43.01470658692974
 21
28.90878737373183
 31
0.0
  0
SPLINE
  5
111
330
2
100
AcDbEntity
  8
GAIKEI
  6
Continuous
 62
     1
100
AcDbSpline
210
0.0
220
0.0
230
1.0
 70
     8
 71
     3
 72
    16
 73
    12
 74
    10
 42
0.0000000001
 43
0.0000000001
 44
0.000001
 12
-0.0430768721965857
 22
0.9990717607268052
 32
0.0
 13
-0.9995301167088943
 23
0.0306520112211923
 33
0.0
 40
0.0
 40
0.0
 40
0.0
 40
0.0
 40
0.0160287203942783
 40
0.032720496009847
 40
0.0473482253724105
 40
0.0596792524286389
 40
0.0695126747968553
 40
0.076703010901108
 40
0.0811430012141032
 40
0.0828762629778461
 40
0.0829034368634654
 40
0.0829034368634654
 40
0.0829034368634654
 40
0.0829034368634654
 10
43.00072079285704
 20
29.18137659527136
 30
0.0
 10
43.00049063714374
 20
29.18671454257353
 30
0.0
 10
42.9999949921585
 20
29.19760851617809
 30
0.0
 10
42.9992168394306
 20
29.213379366222
 30
0.0
 10
42.99839483056888
 20
29.22788408134375
 30
0.0
 10
42.99759385826821
 20
29.24018653153513
 30
0.0
 10
42.9967640888843
 20
29.24976661195191
 30
0.0
 10
42.99605229279165
 20
29.25728340639031
 30
0.0
 10
42.99520966305595
 20
29.26094124419802
 30
0.0
 10
42.99473284927759
 20
29.26377526874182
 30
0.0
 10
42.99414282184666
 20
29.26378771202943
 30
0.0
 10
42.99413376814098
 20
29.26378798967417
 30
0.0
 11
43.00072079285704
 21
29.18137659527136
 31
0.0
 11
42.99999426487218
 21
29.19738812685958
 31
0.0
 11
42.99916093153879
 21
29.21405908397131
 31
0.0
 11
42.99832759820552
 21
29.22866305219069
 31
0.0
 11
42.99749426487212
 21
29.24096588142291
 31
0.0
 11
42.9966609315388
 21
29.25076391708538
 31
0.0
 11
42.99582759820546
 21
29.25790577299498
 31
0.0
 11
42.99499426487218
 21
29.26226677597006
 31
0.0
 11
42.9941609315388
 21
29.26378680018607
 31
0.0
 11
42.99413376814098
 21
29.26378798967417
 31
0.0
  0
SPLINE
  5
112
330
2
100
AcDbEntity
  8
GAIKEI
  6
Continuous
 62
     1
100
AcDbSpline
210
0.0
220
0.0
230
1.0
 70
     8
 71
     3
 72
    20
 73
    16
 74
    14
 42
0.0000000001
 43
0.0000000001
 44
0.000001
 12
-0.03666008838921
 22
-0.9993277930285415
 32
0.0
 13
-0.89604732285992
 23
-0.443958551213478
 33
0.0
 40
0.0
 40
0.0
 40
0.0
 40
0.0
 40
0.0225441487658523
 40
0.0447243507194046
 40
0.0661807096233909
 40
0.0865702987490919
 40
0.1055600247977212
 40
0.1228469654553875
 40
0.1381506159022363
 40
0.1512251986703218
 40
0.1618642914167718
 40
0.1698958895183468
 40
0.1752100303814307
 40
0.177764241802365
 40
0.1780978513807454
 40
0.1780978513807454
 40
0.1780978513807454
 40
0.1780978513807454
 10
42.9849942648722
 20
29.08628661280252
 30
0.0
 10
42.98471877471006
 20
29.07877694799188
 30
0.0
 10
42.98416814297482
 20
29.06387900828918
 30
0.0
 10
42.9833422440038
 20
29.04183421119842
 30
0.0
 10
42.98251603283097
 20
29.02050823311475
 30
0.0
 10
42.98169128976889
 20
29.00024615111608
 30
0.0
 10
42.98086639232534
 20
28.9813763267008
 30
0.0
 10
42.98004710456011
 20
28.96419930463526
 30
0.0
 10
42.97921957567986
 20
28.94900935403581
 30
0.0
 10
42.97843008404851
 20
28.93599987297228
 30
0.0
 10
42.97755699705938
 20
28.92552759914309
 30
0.0
 10
42.97693604436614
 20
28.91737611986224
 30
0.0
 10
42.97585342087581
 20
28.91251888823394
 30
0.0
 10
42.97566709120769
 20
28.90931526501913
 30
0.0
 10
42.97480649033412
 20
28.90883674229178
 30
0.0
 10
42.97470684701093
 20
28.90878737268341
 30
0.0
 11
42.9849942648722
 21
29.08628661280252
 31
0.0
 11
42.98416093153881
 21
29.06375840719173
 31
0.0
 11
42.98332759820548
 21
29.04159386678092
 31
0.0
 11
42.98249426487214
 21
29.02015369817187
 31
0.0
 11
42.98166093153887
 21
28.99978114739034
 31
0.0
 11
42.98082759820547
 21
28.98080971732159
 31
0.0
 11
42.97999426487215
 21
28.96354287749583
 31
0.0
 11
42.97916093153881
 21
28.9482619375323
 31
0.0
 11
42.97832759820553
 21
28.93521394610051
 31
0.0
 11
42.97749426487214
 21
28.92460755199536
 31
0.0
 11
42.97666093153881
 21
28.91661932538275
 31
0.0
 11
42.97582759820548
 21
28.91137098552182
 31
0.0
 11
42.9749942648722
 21
28.90895686106117
 31
0.0
 11
42.97470684701093
 21
28.90878737268341
 31
0.0
  0
SPLINE
  5
113
330
2
100
AcDbEntity
  8
GAIKEI
  6
Continuous
 62
     1
100
AcDbSpline
210
0.0
220
0.0
230
1.0
 70
     8
 71
     3
 72
    20
 73
    16
 74
    14
 42
0.0000000001
 43
0.0000000001
 44
0.000001
 12
-0.0366600883891941
 22
-0.9993277930285421
 32
0.0
 13
-0.8960473228605128
 23
-0.4439585512122816
 33
0.0
 40
0.0
 40
0.0
 40
0.0
 40
0.0
 40
0.0225441487658523
 40
0.0447243507194046
 40
0.0661807096233909
 40
0.0865702987490919
 40
0.1055600247977212
 40
0.1228469654553875
 40
0.1381506159022363
 40
0.1512251986703218
 40
0.1618642914167718
 40
0.1698958895183468
 40
0.1752100303814307
 40
0.177764241802365
 40
0.1780978513807454
 40
0.1780978513807454
 40
0.1780978513807454
 40
0.1780978513807454
 10
42.9849942648722
 20
25.46628661280252
 30
0.0
 10
42.98471877471006
 20
25.45877694799188
 30
0.0
 10
42.98416814297482
 20
25.4438790082892
 30
0.0
 10
42.9833422440038
 20
25.42183421119842
 30
0.0
 10
42.98251603283097
 20
25.40050823311481
 30
0.0
 10
42.98169128976889
 20
25.38024615111604
 30
0.0
 10
42.98086639232534
 20
25.36137632670076
 30
0.0
 10
42.98004710456011
 20
25.34419930463525
 30
0.0
 10
42.97921957567986
 20
25.32900935403586
 30
0.0
 10
42.97843008404851
 20
25.31599987297224
 30
0.0
 10
42.97755699705938
 20
25.30552759914309
 30
0.0
 10
42.97693604436614
 20
25.2973761198623
 30
0.0
 10
42.97585342087581
 20
25.29251888823379
 30
0.0
 10
42.97566709120769
 20
25.28931526501924
 30
0.0
 10
42.97480649033412
 20
25.28883674229178
 30
0.0
 10
42.97470684701093
 20
25.2887873726834
 30
0.0
 11
42.9849942648722
 21
25.46628661280252
 31
0.0
 11
42.98416093153881
 21
25.44375840719172
 31
0.0
 11
42.98332759820548
 21
25.42159386678091
 31
0.0
 11
42.98249426487214
 21
25.40015369817187
 31
0.0
 11
42.98166093153887
 21
25.37978114739033
 31
0.0
 11
42.98082759820547
 21
25.36080971732159
 31
0.0
 11
42.97999426487215
 21
25.34354287749582
 31
0.0
 11
42.97916093153881
 21
25.32826193753229
 31
0.0
 11
42.97832759820553
 21
25.3152139461005
 31
0.0
 11
42.97749426487214
 21
25.30460755199536
 31
0.0
 11
42.97666093153881
 21
25.29661932538275
 31
0.0
 11
42.97582759820548
 21
25.29137098552181
 31
0.0
 11
42.9749942648722
 21
25.28895686106117
 31
0.0
 11
42.97470684701093
 21
25.2887873726834
 31
0.0
  0
SPLINE
  5
114
330
2
100
AcDbEntity
  8
GAIKEI
  6
Continuous
 62
     1
100
AcDbSpline
210
0.0
220
0.0
230
1.0
 70
     8
 71
     3
 72
    16
 73
    12
 74
    10
 42
0.0000000001
 43
0.0000000001
 44
0.000001
 12
-0.7246933390218108
 22
0.6890715234120614
 32
0.0
 13
-0.043558922455188
 23
0.9990508597036205
 33
0.0
 40
0.0
 40
0.0
 40
0.0
 40
0.0
 40
0.0008245869742816
 40
0.0042427686756445
 40
0.0104169723952511
 40
0.0192855983072439
 40
0.0307089239071591
 40
0.0445088940072562
 40
0.0604644486191581
 40
0.0783168924071085
 40
0.0828709020179566
 40
0.0828709020179566
 40
0.0828709020179566
 40
0.0828709020179566
 10
42.97470684701093
 20
25.2887873726834
 30
0.0
 10
42.97450765611503
 20
25.28897677248426
 30
0.0
 10
42.97352693730049
 20
25.29003367175628
 30
0.0
 10
42.97331637550505
 20
25.29374517356627
 30
0.0
 10
42.972256079304
 20
25.29966418536088
 30
0.0
 10
42.9715982660496
 20
25.30853814727095
 30
0.0
 10
42.97073585682997
 20
25.31983962526712
 30
0.0
 10
42.96993880939462
 20
25.33355396905466
 30
0.0
 10
42.96911286344974
 20
25.34939811418576
 30
0.0
 10
42.96852001611855
 20
25.3621727717225
 30
0.0
 10
42.96819297116741
 20
25.36963435780325
 30
0.0
 10
42.96812684858358
 20
25.37115092020886
 30
0.0
 11
42.97470684701093
 21
25.2887873726834
 31
0.0
 11
42.97416093153882
 21
25.28940550420387
 31
0.0
 11
42.97332759820548
 21
25.29272029565575
 31
0.0
 11
42.97249426487215
 21
25.29883796530877
 31
0.0
 11
42.97166093153887
 21
25.30766733571559
 31
0.0
 11
42.97082759820549
 21
25.31906021554372
 31
0.0
 11
42.96999426487215
 21
25.33283499580856
 31
0.0
 11
42.96916093153882
 21
25.34876876982961
 31
0.0
 11
42.96832759820543
 21
25.36660175005082
 31
0.0
 11
42.96812684858358
 21
25.37115092020886
 31
0.0
  0
SPLINE
  5
115
330
2
100
AcDbEntity
  8
GAIKEI
  6
Continuous
 62
     1
100
AcDbSpline
210
0.0
220
0.0
230
1.0
 70
     8
 71
     3
 72
    18
 73
    14
 74
    12
 42
0.0000000001
 43
0.0000000001
 44
0.000001
 12
-0.5846562919338174
 22
-0.8112810982034519
 32
0.0
 13
-0.0371796361214128
 23
-0.9993085983107919
 33
0.0
 40
0.0
 40
0.0
 40
0.0
 40
0.0
 40
0.0015787525645141
 40
0.0058612971317786
 40
0.0128958923591835
 40
0.0225827165462128
 40
0.0347748335201427
 40
0.0492781281816702
 40
0.0658580340895569
 40
0.0842514048913158
 40
0.1041566705155508
 40
0.1252574645254105
 40
0.1472102067833213
 40
0.1472102067833213
 40
0.1472102067833213
 40
0.1472102067833213
 10
42.95413410793182
 20
25.64378799375916
 30
0.0
 10
42.9538264320584
 20
25.64336105638773
 30
0.0
 10
42.95277663625076
 20
25.64167885780054
 30
0.0
 10
42.95246475052853
 20
25.63726283651011
 30
0.0
 10
42.95146489043164
 20
25.63039915549968
 30
0.0
 10
42.95076132731128
 20
25.62075243506632
 30
0.0
 10
42.94991320295756
 20
25.60866760457742
 30
0.0
 10
42.94910844066501
 20
25.59426005071117
 30
0.0
 10
42.94828297916318
 20
25.57779002923656
 30
0.0
 10
42.94746116123926
 20
25.55951509983695
 30
0.0
 10
42.94663571443185
 20
25.53973263177068
 30
0.0
 10
42.94581077107766
 20
25.51876252757555
 30
0.0
 10
42.94526632986179
 20
25.50442168570342
 30
0.0
 10
42.94499426487212
 20
25.49710916433847
 30
0.0
 11
42.95413410793182
 21
25.64378799375916
 31
0.0
 11
42.9533275982055
 21
25.64243069860018
 31
0.0
 11
42.95249426487217
 21
25.63823019020359
 31
0.0
 11
42.95166093153878
 21
25.63124515896473
 31
0.0
 11
42.95082759820551
 21
25.62159426068379
 31
0.0
 11
42.94999426487217
 21
25.60943066477572
 31
0.0
 11
42.94916093153884
 21
25.59495133630188
 31
0.0
 11
42.94832759820545
 21
25.57839238976126
 31
0.0
 11
42.94749426487217
 21
25.56001790897929
 31
0.0
 11
42.94666093153884
 21
25.54013009687086
 31
0.0
 11
42.94582759820551
 21
25.51904576667826
 31
0.0
 11
42.94499426487212
 21
25.49710916433847
 31
0.0
  0
SPLINE
  5
116
330
2
100
AcDbEntity
  8
GAIKEI
  6
Continuous
 62
     1
100
AcDbSpline
210
0.0
220
0.0
230
1.0
 70
     8
 71
     3
 72
    18
 73
    14
 74
    12
 42
0.0000000001
 43
0.0000000001
 44
0.000001
 12
-0.5844656576229886
 22
-0.8114184463390806
 32
0.0
 13
-0.0371796361214176
 23
-0.9993085983107917
 33
0.0
 40
0.0
 40
0.0
 40
0.0
 40
0.0
 40
0.0015785755413335
 40
0.0058611200296906
 40
0.0128957152542895
 40
0.0225825394406305
 40
0.0347746564143068
 40
0.0492779510757618
 40
0.0658578569835887
 40
0.084251227785336
 40
0.1041564934095597
 40
0.1252572874194945
 40
0.1472100295646767
 40
0.1472100295646767
 40
0.1472100295646767
 40
0.1472100295646767
 10
42.99413376814098
 20
25.64378798967417
 30
0.0
 10
42.99382622707702
 20
25.6433610279031
 30
0.0
 10
42.99277681478375
 20
25.64167870221408
 30
0.0
 10
42.99246463750026
 20
25.63726289493471
 30
0.0
 10
42.99146494147826
 20
25.63039912890119
 30
0.0
 10
42.9907613074356
 20
25.62075244523467
 30
0.0
 10
42.98991320993074
 20
25.60866760082854
 30
0.0
 10
42.98910843829196
 20
25.59426005180763
 30
0.0
 10
42.98828297985823
 20
25.57779002874304
 30
0.0
 10
42.98746116097106
 20
25.55951509984237
 30
0.0
 10
42.98663571446037
 20
25.53973263162485
 30
0.0
 10
42.98581077100003
 20
25.51876252751311
 30
0.0
 10
42.98526632986048
 20
25.50442168566588
 30
0.0
 10
42.9849942648722
 20
25.49710916433847
 30
0.0
 11
42.99413376814098
 21
25.64378798967417
 31
0.0
 11
42.99332759820546
 21
25.64243069860018
 31
0.0
 11
42.99249426487214
 21
25.63823019020359
 31
0.0
 11
42.99166093153885
 21
25.63124515896473
 31
0.0
 11
42.99082759820547
 21
25.62159426068379
 31
0.0
 11
42.98999426487213
 21
25.60943066477572
 31
0.0
 11
42.9891609315388
 21
25.59495133630188
 31
0.0
 11
42.98832759820553
 21
25.57839238976126
 31
0.0
 11
42.98749426487214
 21
25.56001790897929
 31
0.0
 11
42.9866609315388
 21
25.54013009687086
 31
0.0
 11
42.98582759820547
 21
25.51904576667826
 31
0.0
 11
42.9849942648722
 21
25.49710916433847
 31
0.0
  0
SPLINE
  5
117
330
2
100
AcDbEntity
  8
GAIKEI
  6
Continuous
 62
     1
100
AcDbSpline
210
0.0
220
0.0
230
1.0
 70
     8
 71
     3
 72
    20
 73
    16
 74
    14
 42
0.0000000001
 43
0.0000000001
 44
0.000001
 12
-0.0366600883891987
 22
-0.9993277930285419
 32
0.0
 13
-0.8962567756003743
 23
-0.4435355591048144
 33
0.0
 40
0.0
 40
0.0
 40
0.0
 40
0.0
 40
0.0225441489661379
 40
0.0447243509194737
 40
0.0661807098233039
 40
0.0865702989487998
 40
0.105560024997201
 40
0.1228469656545089
 40
0.1381506161008582
 40
0.1512251988682196
 40
0.1618642916135566
 40
0.1698958897130195
 40
0.1752100305703667
 40
0.1777642420885789
 40
0.1780980751421449
 40
0.1780980751421449
 40
0.1780980751421449
 40
0.1780980751421449
 10
43.02499426487216
 20
25.46628661280252
 30
0.0
 10
43.02471877470757
 20
25.45877694792518
 30
0.0
 10
43.02416814278219
 20
25.4438790081671
 30
0.0
 10
43.02334224389312
 20
25.42183421098733
 30
0.0
 10
43.02251603266031
 20
25.40050823297369
 30
0.0
 10
43.02169128974358
 20
25.38024615073681
 30
0.0
 10
43.02086639182525
 20
25.36137632711913
 30
0.0
 10
43.02004710558981
 20
25.34419930247535
 30
0.0
 10
43.01921957196035
 20
25.32900935987709
 30
0.0
 10
43.01843009429823
 20
25.31599985527288
 30
0.0
 10
43.01755696907997
 20
25.30552764585764
 30
0.0
 10
43.01693611005335
 20
25.29737600874251
 30
0.0
 10
43.01585329716941
 20
25.2925190961956
 30
0.0
 10
43.01566722217867
 20
25.28931494793293
 30
0.0
 10
43.01480632030847
 20
25.28883672934185
 30
0.0
 10
43.01470658692974
 20
25.28878737373182
 30
0.0
 11
43.02499426487216
 21
25.46628661280252
 31
0.0
 11
43.02416093153877
 21
25.44375840719172
 31
0.0
 11
43.0233275982055
 21
25.42159386678091
 31
0.0
 11
43.02249426487216
 21
25.40015369817187
 31
0.0
 11
43.02166093153883
 21
25.37978114739033
 31
0.0
 11
43.02082759820544
 21
25.36080971732159
 31
0.0
 11
43.01999426487216
 21
25.34354287749582
 31
0.0
 11
43.01916093153884
 21
25.32826193753229
 31
0.0
 11
43.0183275982055
 21
25.3152139461005
 31
0.0
 11
43.01749426487211
 21
25.30460755199536
 31
0.0
 11
43.01666093153883
 21
25.29661932538275
 31
0.0
 11
43.0158275982055
 21
25.29137098552181
 31
0.0
 11
43.01499426487217
 21
25.28895686106117
 31
0.0
 11
43.01470658692974
 21
25.28878737373182
 31
0.0
  0
SPLINE
  5
118
330
2
100
AcDbEntity
  8
GAIKEI
  6
Continuous
 62
     1
100
AcDbSpline
210
0.0
220
0.0
230
1.0
 70
     8
 71
     3
 72
    16
 73
    12
 74
    10
 42
0.0000000001
 43
0.0000000001
 44
0.000001
 12
-0.0430768721966507
 22
0.9990717607268027
 32
0.0
 13
-0.9995301167089067
 23
0.0306520112207888
 33
0.0
 40
0.0
 40
0.0
 40
0.0
 40
0.0
 40
0.0160287203942783
 40
0.032720496009847
 40
0.0473482253724105
 40
0.0596792524286389
 40
0.0695126747968553
 40
0.076703010901108
 40
0.0811430012141032
 40
0.0828762629778461
 40
0.0829034368634654
 40
0.0829034368634654
 40
0.0829034368634654
 40
0.0829034368634654
 10
43.00072079285704
 20
25.56137659527136
 30
0.0
 10
43.00049063714374
 20
25.56671454257352
 30
0.0
 10
42.9999949921585
 20
25.57760851617809
 30
0.0
 10
42.9992168394306
 20
25.59337936622197
 30
0.0
 10
42.99839483056888
 20
25.6078840813438
 30
0.0
 10
42.99759385826821
 20
25.62018653153496
 30
0.0
 10
42.9967640888843
 20
25.62976661195214
 30
0.0
 10
42.99605229279165
 20
25.63728340638977
 30
0.0
 10
42.99520966305595
 20
25.64094124419893
 30
0.0
 10
42.99473284927759
 20
25.64377526874111
 30
0.0
 10
42.99414282184666
 20
25.64378771202942
 30
0.0
 10
42.99413376814098
 20
25.64378798967417
 30
0.0
 11
43.00072079285704
 21
25.56137659527136
 31
0.0
 11
42.99999426487218
 21
25.57738812685958
 31
0.0
 11
42.99916093153879
 21
25.5940590839713
 31
0.0
 11
42.99832759820552
 21
25.60866305219068
 31
0.0
 11
42.99749426487212
 21
25.62096588142291
 31
0.0
 11
42.9966609315388
 21
25.63076391708538
 31
0.0
 11
42.99582759820546
 21
25.63790577299497
 31
0.0
 11
42.99499426487218
 21
25.64226677597006
 31
0.0
 11
42.9941609315388
 21
25.64378680018606
 31
0.0
 11
42.99413376814098
 21
25.64378798967417
 31
0.0
  0
SPLINE
  5
119
330
2
100
AcDbEntity
  8
GAIKEI
  6
Continuous
 62
     1
100
AcDbSpline
210
0.0
220
0.0
230
1.0
 70
     8
 71
     3
 72
    11
 73
     7
 74
     5
 42
0.0000000001
 43
0.0000000001
 44
0.000001
 12
0.0263247353920106
 22
0.9996534441027755
 32
0.0
 13
0.1800564184768131
 23
0.9836562845655501
 33
0.0
 40
0.0
 40
0.0
 40
0.0
 40
0.0
 40
0.0222209517494547
 40
0.0388462874323282
 40
0.0498820484480651
 40
0.0553514638909737
 40
0.0553514638909737
 40
0.0553514638909737
 40
0.0553514638909737
 10
42.90585178647418
 20
25.12770843369779
 30
0.0
 10
42.90604677336584
 20
25.13511285068032
 30
0.0
 10
42.90647083010201
 20
25.14805789500957
 30
0.0
 10
42.90729510480787
 20
25.16465736482016
 30
0.0
 10
42.90783468008955
 20
25.17570285561553
 30
0.0
 10
42.90871004724635
 20
25.18114040987405
 30
0.0
 10
42.9090383150316
 20
25.1829337514985
 30
0.0
 11
42.90585178647418
 21
25.12770843369779
 31
0.0
 11
42.90660418892949
 21
25.14991653849487
 31
0.0
 11
42.90738607784075
 21
25.1665234597273
 31
0.0
 11
42.90819745320814
 21
25.17752919739522
 31
0.0
 11
42.9090383150316
 21
25.1829337514985
 31
0.0
  0
SPLINE
  5
11A
330
2
100
AcDbEntity
  8
GAIKEI
  6
Continuous
 62
     1
100
AcDbSpline
210
0.0
220
0.0
230
1.0
 70
     8
 71
     3
 72
    13
 73
     9
 74
     7
 42
0.0000000001
 43
0.0000000001
 44
0.000001
 12
-0.1367026333584174
 22
0.9906121289550588
 32
0.0
 13
-0.1693098136655528
 23
0.9855628782561444
 33
0.0
 40
0.0
 40
0.0
 40
0.0
 40
0.0
 40
0.0167469922486217
 40
0.033377344270269
 40
0.0502571168681159
 40
0.0667711030725145
 40
0.0840636332563762
 40
0.1007849533910366
 40
0.1007849533910366
 40
0.1007849533910366
 40
0.1007849533910366
 10
44.21661331006837
 20
29.90721483648375
 30
0.0
 10
44.21585019075462
 20
29.91274476103209
 30
0.0
 10
44.21425861942125
 20
29.92375648721776
 30
0.0
 10
44.21164903607241
 20
29.94030477912321
 30
0.0
 10
44.20886135607986
 20
29.95674508530493
 30
0.0
 10
44.20591326479976
 20
29.97338138241793
 30
0.0
 10
44.20290941034584
 20
29.98995401350541
 30
0.0
 10
44.20096869979261
 20
30.00112473233614
 30
0.0
 10
44.20002500526052
 20
30.00661803646952
 30
0.0
 11
44.21661331006837
 21
29.90721483648375
 31
0.0
 11
44.21421840421547
 21
29.9237897678428
 31
0.0
 11
44.21163158478626
 21
29.9402177058885
 31
0.0
 11
44.2088211569218
 21
29.95686187567279
 31
0.0
 11
44.20594914828282
 21
29.97312421029235
 31
0.0
 11
44.20289592212523
 21
29.99014572572642
 31
0.0
 11
44.20002500526052
 21
30.00661803646952
 31
0.0
  0
SPLINE
  5
11B
330
2
100
AcDbEntity
  8
GAIKEI
  6
Continuous
 62
     1
100
AcDbSpline
210
0.0
220
0.0
230
1.0
 70
     8
 71
     3
 72
    13
 73
     9
 74
     7
 42
0.0000000001
 43
0.0000000001
 44
0.000001
 12
0.1358537149050929
 22
0.9907289074951259
 32
0.0
 13
0.1028701000007821
 23
0.9946947986824044
 33
0.0
 40
0.0
 40
0.0
 40
0.0
 40
0.0
 40
0.0167629848690894
 40
0.0334123275051457
 40
0.0503098774188273
 40
0.0668410117252876
 40
0.0842373612998062
 40
0.1010541529109475
 40
0.1010541529109475
 40
0.1010541529109475
 40
0.1010541529109475
 10
44.3821013589459
 20
26.53883329109218
 30
0.0
 10
44.38286046353502
 20
26.54436914898742
 30
0.0
 10
44.38430350696555
 20
26.55541306943758
 30
0.0
 10
44.38626604415635
 20
26.57206821221354
 30
0.0
 10
44.38802603123605
 20
26.58866812925765
 30
0.0
 10
44.38968510064329
 20
26.60552844612662
 30
0.0
 10
44.39126843055716
 20
26.62236899458205
 30
0.0
 10
44.39242216487296
 20
26.63371496660503
 30
0.0
 10
44.39299881321787
 20
26.63929082498706
 30
0.0
 11
44.3821013589459
 21
26.53883329109218
 31
0.0
 11
44.3842742593006
 21
26.55545491220735
 31
0.0
 11
44.38622543064539
 21
26.5719895329336
 31
0.0
 11
44.38801853550844
 21
26.58879167937303
 31
0.0
 11
44.3896462523962
 21
26.60524248891344
 31
0.0
 11
44.39130926327575
 21
26.6225598267703
 31
0.0
 11
44.39299881321787
 21
26.63929082498706
 31
0.0
  0
SPLINE
  5
11C
330
2
100
AcDbEntity
  8
GAIKEI
  6
Continuous
 62
     1
100
AcDbSpline
210
0.0
220
0.0
230
1.0
 70
     8
 71
     3
 72
    13
 73
     9
 74
     7
 42
0.0000000001
 43
0.0000000001
 44
0.000001
 12
0.1686465211669663
 22
0.9856765954907725
 32
0.0
 13
0.1366868105490227
 23
0.9906143123445854
 33
0.0
 40
0.0
 40
0.0
 40
0.0
 40
0.0
 40
0.0148768856753241
 40
0.0303404718420846
 40
0.0467491639371592
 40
0.0635503078503692
 40
0.0820032027515629
 40
0.100784933155334
 40
0.100784933155334
 40
0.100784933155334
 40
0.100784933155334
 10
44.20002500526052
 20
25.23609556426871
 30
0.0
 10
44.20086131693217
 20
25.24098349694336
 30
0.0
 10
44.20258600693711
 20
25.25094894104129
 30
0.0
 10
44.20536232202048
 20
25.2662827369289
 30
0.0
 10
44.20821138326862
 20
25.28225512987666
 30
0.0
 10
44.21112614349623
 20
25.29922779498651
 30
0.0
 10
44.21397408143337
 20
25.31701367866233
 30
0.0
 10
44.2157575717932
 20
25.32929694727162
 30
0.0
 10
44.21661331006837
 20
25.33549876425448
 30
0.0
 11
44.20002500526052
 21
25.23609556426871
 31
0.0
 11
44.20257213509095
 21
25.25075256760207
 31
0.0
 11
44.20530076952608
 21
25.26597367169339
 31
0.0
 11
44.20817223961697
 21
25.28212916389114
 31
0.0
 11
44.2110041903675
 21
25.29868991785284
 31
0.0
 11
44.21391377857199
 21
25.31691198778859
 31
0.0
 11
44.21661331006837
 21
25.33549876425448
 31
0.0
  0
SPLINE
  5
11D
330
2
100
AcDbEntity
  8
GAIKEI
  6
Continuous
 62
     1
100
AcDbSpline
210
0.0
220
0.0
230
1.0
 70
     8
 71
     3
 72
    23
 73
    19
 74
    17
 42
0.0000000001
 43
0.0000000001
 44
0.000001
 12
-0.0195855615079534
 22
0.9998081844936148
 32
0.0
 13
-0.1708806009777295
 23
0.9852917437030972
 33
0.0
 40
0.0
 40
0.0
 40
0.0
 40
0.0
 40
0.0246422057409199
 40
0.056169339313358
 40
0.0946352834720208
 40
0.123838348924552
 40
0.15607741030755
 40
0.1637317308166681
 40
0.1715387786614241
 40
0.1794984554017315
 40
0.1876106488051588
 40
0.1958752329952762
 40
0.2042920686457141
 40
0.2128610032233555
 40
0.2387981685051789
 40
0.2711882160498585
 40
0.3100387699381648
 40
0.3553446180978695
 40
0.3553446180978695
 40
0.3553446180978695
 40
0.3553446180978695
 10
42.90585178647418
 20
30.11500516704044
 30
0.0
 10
42.90569090932878
 20
30.12321766003501
 30
0.0
 10
42.90497223740023
 20
30.14193514496398
 30
0.0
 10
42.90203113706422
 20
30.17335393550926
 30
0.0
 10
42.89804162639207
 20
30.20617935342782
 30
0.0
 10
42.89341371495878
 20
30.23916009846678
 30
0.0
 10
42.88996672653229
 20
30.26193313365559
 30
0.0
 10
42.88751381480662
 20
30.27764293343756
 30
0.0
 10
42.88629696970078
 20
30.2853545372584
 30
0.0
 10
42.88504485273338
 20
30.29321507780239
 30
0.0
 10
42.88375828450514
 20
30.3012245583098
 30
0.0
 10
42.88243809734519
 20
30.30938297203898
 30
0.0
 10
42.88108537282717
 20
30.31769034393153
 30
0.0
 10
42.87877307616834
 20
30.3318099048698
 30
0.0
 10
42.87514730553396
 20
30.3538118891571
 30
0.0
 10
42.86977968235842
 20
30.38575673825713
 30
0.0
 10
42.86320780190547
 20
30.42404568787418
 30
0.0
 10
42.85844003190345
 20
30.45168968688009
 30
0.0
 10
42.85585940171634
 20
30.46656951292451
 30
0.0
 11
42.90585178647418
 21
30.11500516704044
 31
0.0
 11
42.90486167113377
 21
30.13962759547761
 31
0.0
 11
42.9021159857032
 21
30.17103487257501
 31
0.0
 11
42.89753463558546
 21
30.20922699833287
 31
0.0
 11
42.89350386630807
 21
30.23815054142929
 31
0.0
 11
42.88869924255251
 21
30.27002956460208
 31
0.0
 11
42.8875186532521
 21
30.27759228926484
 31
0.0
 11
42.88630204105814
 21
30.28530395732176
 31
0.0
 11
42.8850501563152
 21
30.29316456877282
 31
0.0
 11
42.88376380962941
 21
30.30117412361793
 31
0.0
 11
42.88244387240459
 21
30.30933262185718
 31
0.0
 11
42.88109127729629
 21
30.31764006349047
 31
0.0
 11
42.87970701857855
 21
30.32609644851792
 31
0.0
 11
42.87548411376374
 21
30.35168753140479
 31
0.0
 11
42.87011854428286
 21
30.3836300697682
 31
0.0
 11
42.86356605143853
 21
30.42192406360815
 31
0.0
 11
42.85585940171634
 21
30.46656951292451
 31
0.0
  0
ARC
  5
11E
330
2
100
AcDbEntity
  8
GAIKEI
  6
Continuous
 62
     1
100
AcDbCircle
 10
43.03249426487198
 20
31.64215176280257
 30
0.0
 40
0.05
100
AcDbArc
 50
0.0
 51
89.0000000000243
  0
ARC
  5
11F
330
2
100
AcDbEntity
  8
GAIKEI
  6
Continuous
 62
     1
100
AcDbCircle
 10
43.03249426487198
 20
31.51975096280253
 30
0.0
 40
0.05
100
AcDbArc
 50
277.9999999999843
 51
0.0
  0
LINE
  5
120
330
2
100
AcDbEntity
  8
GAIKEI
  6
Continuous
 62
     1
100
AcDbLine
 10
43.08249426487205
 20
31.64215176280257
 30
0.0
 11
43.08249426487205
 21
31.51975096280253
 31
0.0
  0
LINE
  5
121
330
2
100
AcDbEntity
  8
GAIKEI
  6
Continuous
 62
     1
100
AcDbLine
 10
42.988326164872
 20
31.64294556280257
 30
0.0
 11
42.99269261487203
 21
31.69285411280262
 31
0.0
  0
LINE
  5
122
330
2
100
AcDbEntity
  8
GAIKEI
  6
Continuous
 62
     1
100
AcDbLine
 10
42.99269261487203
 20
31.69285411280262
 30
0.0
 11
43.03336686487202
 21
31.6921441128026
 31
0.0
  0
LINE
  5
123
330
2
100
AcDbEntity
  8
GAIKEI
  6
Continuous
 62
     1
100
AcDbLine
 10
42.954990764872
 20
31.64056756280255
 30
0.0
 11
42.98827071487202
 21
31.64231166280254
 31
0.0
  0
LINE
  5
124
330
2
100
AcDbEntity
  8
GAIKEI
  6
Continuous
 62
     1
100
AcDbLine
 10
42.98249426487203
 20
31.57628661280253
 30
0.0
 11
42.950632864872
 21
31.57628661280253
 31
0.0
  0
LINE
  5
125
330
2
100
AcDbEntity
  8
GAIKEI
  6
Continuous
 62
     1
100
AcDbLine
 10
42.988326164872
 20
31.64294556280257
 30
0.0
 11
42.98249426487203
 21
31.57628661280253
 31
0.0
  0
LINE
  5
126
330
2
100
AcDbEntity
  8
GAIKEI
  6
Continuous
 62
     1
100
AcDbLine
 10
43.03945291487198
 20
31.47023756280251
 30
0.0
 11
42.84249426487204
 21
31.44255681280256
 31
0.0
  0
ARC
  5
127
330
2
100
AcDbEntity
  8
GAIKEI
  6
Continuous
 62
     7
100
AcDbCircle
 10
40.59504426487203
 20
-3.725545872858305
 30
0.0
 40
0.05
100
AcDbArc
 50
180.0
 51
214.4001229999903
  0
ARC
  5
128
330
2
100
AcDbEntity
  8
GAIKEI
  6
Continuous
 62
     7
100
AcDbCircle
 10
40.59504426487203
 20
31.68580896280256
 30
0.0
 40
0.05
100
AcDbArc
 50
145.5998770000096
 51
180.0
  0
ARC
  5
129
330
2
100
AcDbEntity
  8
GAIKEI
  6
Continuous
 62
     7
100
AcDbCircle
 10
40.77098586487202
 20
31.89851376280254
 30
0.0
 40
0.075
100
AcDbArc
 50
93.00000000000558
 51
145.5998770000096
  0
ARC
  5
12A
330
2
100
AcDbEntity
  8
GAIKEI
  6
Continuous
 62
     7
100
AcDbCircle
 10
40.77098586487202
 20
-3.938250672858288
 30
0.0
 40
0.075
100
AcDbArc
 50
214.4001229999903
 51
266.9999999999944
  0
ARC
  5
12B
330
2
100
AcDbEntity
  8
GAIKEI
  6
Continuous
 62
     7
100
AcDbCircle
 10
42.81749426487201
 20
32.03462946280254
 30
0.0
 40
0.025
100
AcDbArc
 50
0.0
 51
84.99999999997728
  0
ARC
  5
12C
330
2
100
AcDbEntity
  8
GAIKEI
  6
Continuous
 62
     7
100
AcDbCircle
 10
42.81749426487201
 20
-4.074366372858293
 30
0.0
 40
0.025
100
AcDbArc
 50
275.0000000000227
 51
0.0
  0
LINE
  5
12D
330
2
100
AcDbEntity
  8
GAIKEI
  6
Continuous
 62
     7
100
AcDbLine
 10
40.54504426487201
 20
31.68580896280256
 30
0.0
 11
40.54504426487201
 21
31.51631831280261
 31
0.0
  0
LINE
  5
12E
330
2
100
AcDbEntity
  8
GAIKEI
  6
Continuous
 62
     7
100
AcDbLine
 10
40.54504426487201
 20
31.51631831280261
 30
0.0
 11
40.55378866487197
 21
31.51631831280261
 31
0.0
  0
LINE
  5
12F
330
2
100
AcDbEntity
  8
GAIKEI
  6
Continuous
 62
     7
100
AcDbLine
 10
40.54504426487201
 20
-3.725545872858305
 30
0.0
 11
40.54504426487201
 21
31.51631831280261
 31
0.0
  0
LINE
  5
130
330
2
100
AcDbEntity
  8
GAIKEI
  6
Continuous
 62
     1
100
AcDbLine
 10
40.70910246487201
 20
31.74314736280261
 30
0.0
 11
40.55378866487197
 21
31.51631831280261
 31
0.0
  0
LINE
  5
131
330
2
100
AcDbEntity
  8
GAIKEI
  6
Continuous
 62
     7
100
AcDbLine
 10
40.55378866487197
 20
31.71405741280253
 30
0.0
 11
40.70910246487201
 21
31.94088646280253
 31
0.0
  0
LINE
  5
132
330
2
100
AcDbEntity
  8
GAIKEI
  6
Continuous
 62
     7
100
AcDbLine
 10
40.70910246487201
 20
-3.980623372858389
 30
0.0
 11
40.55378866487197
 21
-3.753794322858283
 31
0.0
  0
LINE
  5
133
330
2
100
AcDbEntity
  8
GAIKEI
  6
Continuous
 62
     1
100
AcDbLine
 10
40.70910246487201
 20
-3.980623372858389
 30
0.0
 11
40.70910246487201
 21
31.74314736280261
 31
0.0
  0
LINE
  5
134
330
2
100
AcDbEntity
  8
GAIKEI
  6
Continuous
 62
     7
100
AcDbLine
 10
42.84249426487204
 20
32.03462946280254
 30
0.0
 11
42.84249426487204
 21
31.86029541280257
 31
0.0
  0
LINE
  5
135
330
2
100
AcDbEntity
  8
GAIKEI
  6
Continuous
 62
     1
100
AcDbLine
 10
42.84249426487204
 20
31.86029541280257
 30
0.0
 11
42.81967316487199
 21
31.86029541280257
 31
0.0
  0
LINE
  5
136
330
2
100
AcDbEntity
  8
GAIKEI
  6
Continuous
 62
     7
100
AcDbLine
 10
42.84249426487204
 20
31.86029541280257
 30
0.0
 11
42.84249426487204
 21
-4.074366372858293
 31
0.0
  0
LINE
  5
137
330
2
100
AcDbEntity
  8
GAIKEI
  6
Continuous
 62
     7
100
AcDbLine
 10
42.81967316487199
 20
-4.099271222858277
 30
0.0
 11
42.74249426487202
 21
-4.106023522858293
 31
0.0
  0
LINE
  5
138
330
2
100
AcDbEntity
  8
GAIKEI
  6
Continuous
 62
     1
100
AcDbLine
 10
42.81967316487199
 20
31.86029541280257
 30
0.0
 11
42.74249426487202
 21
31.86704766280255
 31
0.0
  0
LINE
  5
139
330
2
100
AcDbEntity
  8
GAIKEI
  6
Continuous
 62
     7
100
AcDbLine
 10
42.74249426487202
 20
32.06628661280254
 30
0.0
 11
42.81967316487199
 21
32.05953431280253
 31
0.0
  0
LINE
  5
13A
330
2
100
AcDbEntity
  8
GAIKEI
  6
Continuous
 62
     1
100
AcDbLine
 10
42.74249426487202
 20
-3.916297622858309
 30
0.0
 11
42.74249426487202
 21
-4.116023522858284
 31
0.0
  0
LINE
  5
13B
330
2
100
AcDbEntity
  8
GAIKEI
  6
Continuous
 62
     7
100
AcDbLine
 10
42.74249426487202
 20
-4.116023522858284
 30
0.0
 11
40.76706066487199
 21
-4.013147922858337
 31
0.0
  0
LINE
  5
13C
330
2
100
AcDbEntity
  8
GAIKEI
  6
Continuous
 62
     1
100
AcDbLine
 10
42.74249426487202
 20
32.07628661280253
 30
0.0
 11
42.74249426487202
 21
31.87656071280256
 31
0.0
  0
LINE
  5
13D
330
2
100
AcDbEntity
  8
GAIKEI
  6
Continuous
 62
     7
100
AcDbLine
 10
40.76706066487199
 20
31.97341101280259
 30
0.0
 11
42.74249426487202
 21
32.07628661280253
 31
0.0
  0
LINE
  5
13E
330
2
100
AcDbEntity
  8
GAIKEI
  6
Continuous
 62
     1
100
AcDbLine
 10
40.76706066487199
 20
31.77368511280261
 30
0.0
 11
40.76706066487199
 21
-4.013147922858337
 31
0.0
  0
LINE
  5
13F
330
2
100
AcDbEntity
  8
GAIKEI
  6
Continuous
 62
     1
100
AcDbLine
 10
40.76706066487199
 20
-3.813422022858361
 30
0.0
 11
42.74249426487202
 21
-3.916297622858309
 31
0.0
  0
LINE
  5
140
330
2
100
AcDbEntity
  8
GAIKEI
  6
Continuous
 62
     1
100
AcDbLine
 10
42.74249426487202
 20
31.87656071280256
 30
0.0
 11
42.74249426487202
 21
-3.916297622858309
 31
0.0
  0
LINE
  5
141
330
2
100
AcDbEntity
  8
GAIKEI
  6
Continuous
 62
     1
100
AcDbLine
 10
42.74249426487202
 20
31.87656071280256
 30
0.0
 11
40.76706066487199
 21
31.77368511280261
 31
0.0
  0
ELLIPSE
  5
142
330
2
100
AcDbEntity
  8
GAIKEI
  6
Continuous
 62
     1
100
AcDbEllipse
 10
44.257494264872
 20
-2.301371322858329
 30
0.0
 11
-0.5749999999999888
 21
0.0000000000000021
 31
0.0
210
0.0
220
0.0
230
1.0
 40
0.3583520000000866
 41
2.345160897092421
 42
3.141592653589802
  0
ARC
  5
143
330
2
100
AcDbEntity
  8
GAIKEI
  6
Continuous
 62
     1
100
AcDbCircle
 10
44.257494264872
 20
-2.301371322858329
 30
0.0
 40
0.5750000000000001
100
AcDbArc
 50
273.0000000000056
 51
0.0
  0
ARC
  5
144
330
2
100
AcDbEntity
  8
GAIKEI
  6
Continuous
 62
     1
100
AcDbCircle
 10
42.95499426487199
 20
-3.195764672858302
 30
0.0
 40
0.25
100
AcDbArc
 50
93.00000000000558
 51
101.6320759999917
  0
ARC
  5
145
330
2
100
AcDbEntity
  8
GAIKEI
  6
Continuous
 62
     1
100
AcDbCircle
 10
44.39928976487201
 20
30.38556786280256
 30
0.0
 40
0.25
100
AcDbArc
 50
7.999999999984294
 51
9.618225999996241
  0
ARC
  5
146
330
2
100
AcDbEntity
  8
GAIKEI
  6
Continuous
 62
     1
100
AcDbCircle
 10
42.95499426487199
 20
-3.195764672858302
 30
0.0
 40
0.25
100
AcDbArc
 50
101.6320759999917
 51
116.7436839999987
  0
ARC
  5
147
330
2
100
AcDbEntity
  8
GAIKEI
  6
Continuous
 62
     1
100
AcDbCircle
 10
44.84749426487198
 20
2.19796662714171
 30
0.0
 40
0.15
100
AcDbArc
 50
317.5188869999822
 51
0.0
  0
ARC
  5
148
330
2
100
AcDbEntity
  8
GAIKEI
  6
Continuous
 62
     1
100
AcDbCircle
 10
44.99499426487202
 20
2.06289717714165
 30
0.0
 40
0.05
100
AcDbArc
 50
137.5188869999822
 51
180.0
  0
ARC
  5
149
330
2
100
AcDbEntity
  8
GAIKEI
  6
Continuous
 62
     1
100
AcDbCircle
 10
44.99499426487202
 20
2.062912327141731
 30
0.0
 40
0.05
100
AcDbArc
 50
137.5189609999848
 51
180.0
  0
ARC
  5
14A
330
2
100
AcDbEntity
  8
GAIKEI
  6
Continuous
 62
     1
100
AcDbCircle
 10
44.84749426487198
 20
2.197981377141701
 30
0.0
 40
0.15
100
AcDbArc
 50
317.5189609999849
 51
0.0
  0
ARC
  5
14B
330
2
100
AcDbEntity
  8
GAIKEI
  6
Continuous
 62
     7
100
AcDbCircle
 10
44.39928976487201
 20
30.38556786280256
 30
0.0
 40
0.25
100
AcDbArc
 50
7.999999999984294
 51
76.97098900001979
  0
ARC
  5
14C
330
2
100
AcDbEntity
  8
GAIKEI
  6
Continuous
 62
     7
100
AcDbCircle
 10
44.694994264872
 20
-1.540971622858336
 30
0.0
 40
0.25
100
AcDbArc
 50
289.9999999999965
 51
0.0
  0
ARC
  5
14D
330
2
100
AcDbEntity
  8
GAIKEI
  6
Continuous
 62
     7
100
AcDbCircle
 10
42.95499426487199
 20
31.20373261280261
 30
0.0
 40
0.25
100
AcDbArc
 50
243.2563160000013
 51
257.9999999999828
  0
LINE
  5
14E
330
2
100
AcDbEntity
  8
GAIKEI
  6
Continuous
 62
     1
100
AcDbLine
 10
44.99749426487201
 20
2.368172477141712
 30
0.0
 11
44.99749426487201
 21
3.464928327141734
 31
0.0
  0
LINE
  5
14F
330
2
100
AcDbEntity
  8
GAIKEI
  6
Continuous
 62
     1
100
AcDbLine
 10
44.99749426487201
 20
2.206243227141641
 30
0.0
 11
44.99749426487201
 21
2.363563577141604
 31
0.0
  0
LINE
  5
150
330
2
100
AcDbEntity
  8
GAIKEI
  6
Continuous
 62
     1
100
AcDbLine
 10
44.99749426487201
 20
25.42894861280255
 30
0.0
 11
44.99749426487201
 21
25.47206951280262
 31
0.0
  0
LINE
  5
151
330
2
100
AcDbEntity
  8
GAIKEI
  6
Continuous
 62
     1
100
AcDbLine
 10
44.99749426487201
 20
25.47206951280262
 30
0.0
 11
44.99749426487201
 21
25.93131496280264
 31
0.0
  0
LINE
  5
152
330
2
100
AcDbEntity
  8
GAIKEI
  6
Continuous
 62
     1
100
AcDbLine
 10
44.99749426487201
 20
2.368172477141712
 30
0.0
 11
44.99749426487201
 21
3.464928327141734
 31
0.0
  0
LINE
  5
153
330
2
100
AcDbEntity
  8
GAIKEI
  6
Continuous
 62
     1
100
AcDbLine
 10
44.99749426487201
 20
2.206243227141641
 30
0.0
 11
44.99749426487201
 21
2.363563577141604
 31
0.0
  0
LINE
  5
154
330
2
100
AcDbEntity
  8
GAIKEI
  6
Continuous
 62
     1
100
AcDbLine
 10
44.99749426487201
 20
2.363563577141604
 30
0.0
 11
44.99749426487201
 21
2.368172477141712
 31
0.0
  0
LINE
  5
155
330
2
100
AcDbEntity
  8
GAIKEI
  6
Continuous
 62
     1
100
AcDbLine
 10
44.99749426487201
 20
26.36247811280262
 30
0.0
 11
44.99749426487201
 21
27.92544151280257
 31
0.0
  0
LINE
  5
156
330
2
100
AcDbEntity
  8
GAIKEI
  6
Continuous
 62
     1
100
AcDbLine
 10
44.99749426487201
 20
27.92544151280257
 30
0.0
 11
44.99749426487201
 21
27.92544576280264
 31
0.0
  0
LINE
  5
157
330
2
100
AcDbEntity
  8
GAIKEI
  6
Continuous
 62
     1
100
AcDbLine
 10
44.83249426487205
 20
-2.301371322858329
 30
0.0
 11
44.83249426487205
 21
-1.916023522858353
 31
0.0
  0
LINE
  5
158
330
2
100
AcDbEntity
  8
GAIKEI
  6
Continuous
 62
     1
100
AcDbLine
 10
42.94191026487195
 20
-2.94610727285837
 30
0.0
 11
43.01722176487195
 21
-2.942160372858296
 31
0.0
  0
LINE
  5
159
330
2
100
AcDbEntity
  8
GAIKEI
  6
Continuous
 62
     1
100
AcDbLine
 10
44.99749426487201
 20
26.36247811280262
 30
0.0
 11
44.99749426487201
 21
27.92544151280257
 31
0.0
  0
LINE
  5
15A
330
2
100
AcDbEntity
  8
GAIKEI
  6
Continuous
 62
     1
100
AcDbLine
 10
44.99749426487201
 20
27.92544151280257
 30
0.0
 11
44.99749426487201
 21
27.92544576280264
 31
0.0
  0
LINE
  5
15B
330
2
100
AcDbEntity
  8
GAIKEI
  6
Continuous
 62
     1
100
AcDbLine
 10
44.99749426487201
 20
25.89344391280261
 30
0.0
 11
44.99749426487201
 21
26.36247811280262
 31
0.0
  0
LINE
  5
15C
330
2
100
AcDbEntity
  8
GAIKEI
  6
Continuous
 62
     1
100
AcDbLine
 10
43.04691026487197
 20
-2.940604472858325
 30
0.0
 11
44.28758741487198
 21
-2.875583322858318
 31
0.0
  0
LINE
  5
15D
330
2
100
AcDbEntity
  8
GAIKEI
  6
Continuous
 62
     1
100
AcDbLine
 10
43.01722176487195
 20
-2.942160372858296
 30
0.0
 11
43.04691026487197
 21
-2.940604472858325
 31
0.0
  0
LINE
  5
15E
330
2
100
AcDbEntity
  8
GAIKEI
  6
Continuous
 62
     1
100
AcDbLine
 10
44.94499426487201
 20
-1.266023522858375
 30
0.0
 11
44.94499426487201
 21
-1.31602352285833
 31
0.0
  0
LINE
  5
15F
330
2
100
AcDbEntity
  8
GAIKEI
  6
Continuous
 62
     1
100
AcDbLine
 10
44.94499426487201
 20
-1.266023522858375
 30
0.0
 11
44.94499426487201
 21
-1.116023522858284
 31
0.0
  0
LINE
  5
160
330
2
100
AcDbEntity
  8
GAIKEI
  6
Continuous
 62
     7
100
AcDbLine
 10
44.99749426487201
 20
2.197981377141701
 30
0.0
 11
44.99749426487201
 21
2.232219477141626
 31
0.0
  0
LINE
  5
161
330
2
100
AcDbEntity
  8
GAIKEI
  6
Continuous
 62
     7
100
AcDbLine
 10
44.99749426487201
 20
2.232219477141626
 30
0.0
 11
44.99749426487201
 21
27.92247566280256
 31
0.0
  0
LINE
  5
162
330
2
100
AcDbEntity
  8
GAIKEI
  6
Continuous
 62
     1
100
AcDbLine
 10
44.99749426487201
 20
27.92544576280264
 30
0.0
 11
44.99499946487199
 21
27.94319726280256
 31
0.0
  0
LINE
  5
163
330
2
100
AcDbEntity
  8
GAIKEI
  6
Continuous
 62
     1
100
AcDbLine
 10
44.99749426487201
 20
27.92247566280256
 30
0.0
 11
44.99749426487201
 21
27.92544576280264
 31
0.0
  0
LINE
  5
164
330
2
100
AcDbEntity
  8
GAIKEI
  6
Continuous
 62
     7
100
AcDbLine
 10
44.99499946487199
 20
27.94319726280256
 30
0.0
 11
44.737272964872
 21
29.77701636280258
 31
0.0
  0
LINE
  5
165
330
2
100
AcDbEntity
  8
GAIKEI
  6
Continuous
 62
     7
100
AcDbLine
 10
44.737272964872
 20
29.77701636280258
 30
0.0
 11
44.64685676487195
 21
30.42036111280257
 31
0.0
  0
LINE
  5
166
330
2
100
AcDbEntity
  8
GAIKEI
  6
Continuous
 62
     7
100
AcDbLine
 10
44.455654514872
 20
30.62913101280256
 30
0.0
 11
44.45494901487203
 21
30.62908586280256
 31
0.0
  0
LINE
  5
167
330
2
100
AcDbEntity
  8
GAIKEI
  6
Continuous
 62
     1
100
AcDbLine
 10
44.94256126487201
 20
1.343335127141727
 30
0.0
 11
44.94499426487201
 21
1.343335127141727
 31
0.0
  0
LINE
  5
168
330
2
100
AcDbEntity
  8
GAIKEI
  6
Continuous
 62
     7
100
AcDbLine
 10
44.45126766487194
 20
30.63010476280263
 30
0.0
 11
43.09974576487198
 21
30.91737956280261
 31
0.0
  0
LINE
  5
169
330
2
100
AcDbEntity
  8
GAIKEI
  6
Continuous
 62
     7
100
AcDbLine
 10
44.45126766487194
 20
30.63010476280263
 30
0.0
 11
44.45501916487197
 21
30.62905511280261
 31
0.0
  0
LINE
  5
16A
330
2
100
AcDbEntity
  8
GAIKEI
  6
Continuous
 62
     1
100
AcDbLine
 10
44.87832126487197
 20
26.74687381280254
 30
0.0
 11
44.87832126487197
 21
25.81017256280259
 31
0.0
  0
LINE
  5
16B
330
2
100
AcDbEntity
  8
GAIKEI
  6
Continuous
 62
     7
100
AcDbLine
 10
43.09974576487198
 20
30.91737956280261
 30
0.0
 11
43.05602191487198
 21
30.92667336280263
 31
0.0
  0
LINE
  5
16C
330
2
100
AcDbEntity
  8
GAIKEI
  6
Continuous
 62
     1
100
AcDbLine
 10
44.94499426487201
 20
1.155074827141703
 30
0.0
 11
44.94499426487201
 21
1.155550977141643
 31
0.0
  0
LINE
  5
16D
330
2
100
AcDbEntity
  8
GAIKEI
  6
Continuous
 62
     7
100
AcDbLine
 10
44.94256126487201
 20
2.200553377141687
 30
0.0
 11
44.94256126487201
 21
1.343335127141727
 31
0.0
  0
LINE
  5
16E
330
2
100
AcDbEntity
  8
GAIKEI
  6
Continuous
 62
     7
100
AcDbLine
 10
44.99506126487202
 20
2.244606127141679
 30
0.0
 11
44.94256126487201
 21
2.200553377141687
 31
0.0
  0
LINE
  5
16F
330
2
100
AcDbEntity
  8
GAIKEI
  6
Continuous
 62
     1
100
AcDbLine
 10
44.77749201487202
 20
25.22270531280256
 30
0.0
 11
44.63418271487197
 21
24.97509506280258
 31
0.0
  0
LINE
  5
170
330
2
100
AcDbEntity
  8
GAIKEI
  6
Continuous
 62
     7
100
AcDbLine
 10
44.94499426487201
 20
-1.540971622858336
 30
0.0
 11
44.94499426487201
 21
1.343335127141727
 31
0.0
  0
LINE
  5
171
330
2
100
AcDbEntity
  8
GAIKEI
  6
Continuous
 62
     7
100
AcDbLine
 10
42.84249426487204
 20
-2.481270957984037
 30
0.0
 11
44.780499314872
 21
-1.775894772858322
 31
0.0
  0
LINE
  5
172
330
2
100
AcDbEntity
  8
GAIKEI
  6
Continuous
 62
     7
100
AcDbLine
 10
43.05645816487199
 20
30.92658066280254
 30
0.0
 11
42.903016364872
 21
30.95919571280254
 31
0.0
  0
LINE
  5
173
330
2
100
AcDbEntity
  8
GAIKEI
  6
Continuous
 62
     1
100
AcDbLine
 10
44.54895011487198
 20
-1.118793722858271
 30
0.0
 11
42.84249426487204
 21
-1.739892893811514
 31
0.0
  0
LINE
  5
174
330
2
100
AcDbEntity
  8
GAIKEI
  6
Continuous
 62
     1
100
AcDbLine
 10
44.54895011487198
 20
1.064558427141633
 30
0.0
 11
44.54895011487198
 21
-1.118793722858271
 31
0.0
  0
LINE
  5
175
330
2
100
AcDbEntity
  8
GAIKEI
  6
Continuous
 62
     1
100
AcDbLine
 10
44.48600851487199
 20
1.139569277141646
 30
0.0
 11
44.54895011487198
 21
1.064558427141633
 31
0.0
  0
LINE
  5
176
330
2
100
AcDbEntity
  8
GAIKEI
  6
Continuous
 62
     1
100
AcDbLine
 10
44.46876766487199
 20
24.40255456280264
 30
0.0
 11
44.46876766487199
 21
1.674886327141649
 31
0.0
  0
LINE
  5
177
330
2
100
AcDbEntity
  8
GAIKEI
  6
Continuous
 62
     1
100
AcDbLine
 10
42.97801636487199
 20
23.34462376280251
 30
0.0
 11
42.97801636487199
 21
24.07794946280254
 31
0.0
  0
LINE
  5
178
330
2
100
AcDbEntity
  8
GAIKEI
  6
Continuous
 62
     1
100
AcDbLine
 10
42.97801636487199
 20
4.217313627141635
 30
0.0
 11
42.97801636487199
 21
4.950639327141658
 31
0.0
  0
ARC
  5
179
330
2
100
AcDbEntity
  8
GAIKEI
  6
Continuous
 62
     1
100
AcDbCircle
 10
44.75499426487201
 20
-0.4660235228583077
 30
0.0
 40
0.35
100
AcDbArc
 50
0.0
 51
16.25702800000551
  0
ARC
  5
17A
330
2
100
AcDbEntity
  8
GAIKEI
  6
Continuous
 62
     1
100
AcDbCircle
 10
44.75499426487201
 20
-0.4660235228583077
 30
0.0
 40
0.35
100
AcDbArc
 50
343.7429719999945
 51
0.0
  0
ARC
  5
17B
330
2
100
AcDbEntity
  8
GAIKEI
  6
Continuous
 62
     1
100
AcDbCircle
 10
45.04299891487201
 20
-0.5500075728583341
 30
0.0
 40
0.05
100
AcDbArc
 50
275.000001000022
 51
343.7429719999945
  0
ARC
  5
17C
330
2
100
AcDbEntity
  8
GAIKEI
  6
Continuous
 62
     1
100
AcDbCircle
 10
45.04299891487201
 20
-0.3820394728583949
 30
0.0
 40
0.05
100
AcDbArc
 50
16.25702800000551
 51
84.99999899997797
  0
LINE
  5
17D
330
2
100
AcDbEntity
  8
GAIKEI
  6
Continuous
 62
     1
100
AcDbLine
 10
45.00499426487201
 20
-0.3310235228583167
 30
0.0
 11
44.96999426487199
 21
-0.3310235228583167
 31
0.0
  0
LINE
  5
17E
330
2
100
AcDbEntity
  8
GAIKEI
  6
Continuous
 62
     1
100
AcDbLine
 10
44.96999426487199
 20
-0.6010235228582986
 30
0.0
 11
45.00499426487201
 21
-0.6010235228582986
 31
0.0
  0
LINE
  5
17F
330
2
100
AcDbEntity
  8
GAIKEI
  6
Continuous
 62
     1
100
AcDbLine
 10
45.04735671487199
 20
-0.3322297728583123
 30
0.0
 11
45.00499426487201
 21
-0.3285235228583758
 31
0.0
  0
LINE
  5
180
330
2
100
AcDbEntity
  8
GAIKEI
  6
Continuous
 62
     1
100
AcDbLine
 10
45.00499426487201
 20
-0.6035235228583531
 30
0.0
 11
45.04735671487199
 21
-0.5998172728583029
 31
0.0
  0
LINE
  5
181
330
2
100
AcDbEntity
  8
GAIKEI
  6
Continuous
 62
     1
100
AcDbLine
 10
44.96999426487199
 20
-0.2160235228583076
 30
0.0
 11
44.94499426487201
 21
-0.2160235228583076
 31
0.0
  0
LINE
  5
182
330
2
100
AcDbEntity
  8
GAIKEI
  6
Continuous
 62
     1
100
AcDbLine
 10
44.94499426487201
 20
-0.7160235228583077
 30
0.0
 11
44.96999426487199
 21
-0.7160235228583077
 31
0.0
  0
LINE
  5
183
330
2
100
AcDbEntity
  8
GAIKEI
  6
Continuous
 62
     1
100
AcDbLine
 10
44.96999426487199
 20
-0.7160235228583077
 30
0.0
 11
44.96999426487199
 21
-0.2160235228583076
 31
0.0
  0
ARC
  5
184
330
2
100
AcDbEntity
  8
GAIKEI
  6
Continuous
 62
     1
100
AcDbCircle
 10
44.75499426487201
 20
1.433976477141669
 30
0.0
 40
0.35
100
AcDbArc
 50
0.0
 51
16.25702800000551
  0
ARC
  5
185
330
2
100
AcDbEntity
  8
GAIKEI
  6
Continuous
 62
     1
100
AcDbCircle
 10
44.75499426487201
 20
1.433976477141669
 30
0.0
 40
0.35
100
AcDbArc
 50
343.7429719999945
 51
0.0
  0
ARC
  5
186
330
2
100
AcDbEntity
  8
GAIKEI
  6
Continuous
 62
     1
100
AcDbCircle
 10
45.04299891487201
 20
1.349992427141643
 30
0.0
 40
0.05
100
AcDbArc
 50
275.000001000022
 51
343.7429719999945
  0
ARC
  5
187
330
2
100
AcDbEntity
  8
GAIKEI
  6
Continuous
 62
     1
100
AcDbCircle
 10
45.04299891487201
 20
1.517960527141696
 30
0.0
 40
0.05
100
AcDbArc
 50
16.25702800000551
 51
84.99999899997797
  0
LINE
  5
188
330
2
100
AcDbEntity
  8
GAIKEI
  6
Continuous
 62
     1
100
AcDbLine
 10
45.00499426487201
 20
1.56897647714166
 30
0.0
 11
44.96999426487199
 21
1.56897647714166
 31
0.0
  0
LINE
  5
189
330
2
100
AcDbEntity
  8
GAIKEI
  6
Continuous
 62
     1
100
AcDbLine
 10
44.96999426487199
 20
1.298976477141678
 30
0.0
 11
45.00499426487201
 21
1.298976477141678
 31
0.0
  0
LINE
  5
18A
330
2
100
AcDbEntity
  8
GAIKEI
  6
Continuous
 62
     1
100
AcDbLine
 10
45.04735671487199
 20
1.567770227141664
 30
0.0
 11
45.00499426487201
 21
1.571476477141715
 31
0.0
  0
LINE
  5
18B
330
2
100
AcDbEntity
  8
GAIKEI
  6
Continuous
 62
     1
100
AcDbLine
 10
45.00499426487201
 20
1.296476477141624
 30
0.0
 11
45.04735671487199
 21
1.300182727141674
 31
0.0
  0
LINE
  5
18C
330
2
100
AcDbEntity
  8
GAIKEI
  6
Continuous
 62
     1
100
AcDbLine
 10
44.96999426487199
 20
1.683976477141669
 30
0.0
 11
44.94499426487201
 21
1.683976477141669
 31
0.0
  0
LINE
  5
18D
330
2
100
AcDbEntity
  8
GAIKEI
  6
Continuous
 62
     1
100
AcDbLine
 10
44.94499426487201
 20
1.183976477141669
 30
0.0
 11
44.96999426487199
 21
1.183976477141669
 31
0.0
  0
LINE
  5
18E
330
2
100
AcDbEntity
  8
GAIKEI
  6
Continuous
 62
     1
100
AcDbLine
 10
44.96999426487199
 20
1.183976477141669
 30
0.0
 11
44.96999426487199
 21
1.683976477141669
 31
0.0
  0
LINE
  5
18F
330
2
100
AcDbEntity
  8
GAIKEI
  6
Continuous
 62
     1
100
AcDbLine
 10
42.94499426487201
 20
29.08628661280252
 30
0.0
 11
42.94499426487201
 21
29.33628661280252
 31
0.0
  0
LINE
  5
190
330
2
100
AcDbEntity
  8
GAIKEI
  6
Continuous
 62
     1
100
AcDbLine
 10
42.91167081487199
 20
28.83628661280253
 30
0.0
 11
42.94499426487201
 21
28.83628661280253
 31
0.0
  0
LINE
  5
191
330
2
100
AcDbEntity
  8
GAIKEI
  6
Continuous
 62
     1
100
AcDbLine
 10
42.94499426487201
 20
29.33628661280252
 30
0.0
 11
42.91167081487199
 21
29.33628661280252
 31
0.0
  0
LINE
  5
192
330
2
100
AcDbEntity
  8
GAIKEI
  6
Continuous
 62
     1
100
AcDbLine
 10
42.94499426487201
 20
28.83628661280253
 30
0.0
 11
42.94499426487201
 21
29.08628661280252
 31
0.0
  0
ARC
  5
193
330
2
100
AcDbEntity
  8
GAIKEI
  6
Continuous
 62
     1
100
AcDbCircle
 10
42.704994264872
 20
29.08628661280252
 30
0.0
 40
0.45
100
AcDbArc
 50
0.0
 51
16.60155000001892
  0
ARC
  5
194
330
2
100
AcDbEntity
  8
GAIKEI
  6
Continuous
 62
     1
100
AcDbCircle
 10
42.704994264872
 20
29.08628661280252
 30
0.0
 40
0.45
100
AcDbArc
 50
343.3984499999811
 51
0.0
  0
ARC
  5
195
330
2
100
AcDbEntity
  8
GAIKEI
  6
Continuous
 62
     1
100
AcDbCircle
 10
43.07394546487197
 20
28.97628661280263
 30
0.0
 40
0.065
100
AcDbArc
 50
270.0
 51
343.3984499999811
  0
ARC
  5
196
330
2
100
AcDbEntity
  8
GAIKEI
  6
Continuous
 62
     1
100
AcDbCircle
 10
43.07394546487197
 20
29.19628661280254
 30
0.0
 40
0.065
100
AcDbArc
 50
16.60155000001892
 51
90.0
  0
LINE
  5
197
330
2
100
AcDbEntity
  8
GAIKEI
  6
Continuous
 62
     1
100
AcDbLine
 10
42.94499426487201
 20
28.99128661280261
 30
0.0
 11
42.97785196487203
 21
28.99128661280261
 31
0.0
  0
LINE
  5
198
330
2
100
AcDbEntity
  8
GAIKEI
  6
Continuous
 62
     1
100
AcDbLine
 10
42.94755181487201
 20
29.18128661280255
 30
0.0
 11
42.94499426487201
 21
29.18128661280255
 31
0.0
  0
LINE
  5
199
330
2
100
AcDbEntity
  8
GAIKEI
  6
Continuous
 62
     1
100
AcDbLine
 10
43.02499426487199
 20
29.18128661280255
 30
0.0
 11
42.99098461487202
 21
29.18128661280255
 31
0.0
  0
LINE
  5
19A
330
2
100
AcDbEntity
  8
GAIKEI
  6
Continuous
 62
     1
100
AcDbLine
 10
43.02499426487199
 20
28.91128661280257
 30
0.0
 11
43.07394546487197
 21
28.91128661280257
 31
0.0
  0
LINE
  5
19B
330
2
100
AcDbEntity
  8
GAIKEI
  6
Continuous
 62
     1
100
AcDbLine
 10
43.07394546487197
 20
29.26128661280259
 30
0.0
 11
43.02499426487199
 21
29.26128661280259
 31
0.0
  0
LINE
  5
19C
330
2
100
AcDbEntity
  8
GAIKEI
  6
Continuous
 62
     1
100
AcDbLine
 10
43.02499426487199
 20
29.08628661280252
 30
0.0
 11
43.02499426487199
 21
29.26128661280259
 31
0.0
  0
LINE
  5
19D
330
2
100
AcDbEntity
  8
GAIKEI
  6
Continuous
 62
     1
100
AcDbLine
 10
43.02499426487199
 20
28.91128661280257
 30
0.0
 11
43.02499426487199
 21
29.08628661280252
 31
0.0
  0
LINE
  5
19E
330
2
100
AcDbEntity
  8
GAIKEI
  6
Continuous
 62
     1
100
AcDbLine
 10
42.94499426487201
 20
29.10495381280262
 30
0.0
 11
42.98499426487197
 21
29.10495381280262
 31
0.0
  0
LINE
  5
19F
330
2
100
AcDbEntity
  8
GAIKEI
  6
Continuous
 62
     1
100
AcDbLine
 10
42.98499426487197
 20
29.08628661280252
 30
0.0
 11
43.02499426487199
 21
29.08628661280252
 31
0.0
  0
LINE
  5
1A0
330
2
100
AcDbEntity
  8
GAIKEI
  6
Continuous
 62
     1
100
AcDbLine
 10
43.01470676487198
 20
28.90878736280254
 30
0.0
 11
42.97470676487196
 21
28.90878736280254
 31
0.0
  0
LINE
  5
1A1
330
2
100
AcDbEntity
  8
GAIKEI
  6
Continuous
 62
     1
100
AcDbLine
 10
42.99413406487198
 20
29.26378801280262
 30
0.0
 11
42.95413406487202
 21
29.26378801280262
 31
0.0
  0
LINE
  5
1A2
330
2
100
AcDbEntity
  8
GAIKEI
  6
Continuous
 62
     1
100
AcDbLine
 10
42.98499426487197
 20
29.11710916280256
 30
0.0
 11
42.98499426487197
 21
29.10495381280262
 31
0.0
  0
LINE
  5
1A3
330
2
100
AcDbEntity
  8
GAIKEI
  6
Continuous
 62
     1
100
AcDbLine
 10
42.94499426487201
 20
25.46628661280263
 30
0.0
 11
42.94499426487201
 21
25.71628661280263
 31
0.0
  0
LINE
  5
1A4
330
2
100
AcDbEntity
  8
GAIKEI
  6
Continuous
 62
     1
100
AcDbLine
 10
42.90585176487198
 20
25.21628661280264
 30
0.0
 11
42.94499426487201
 21
25.21628661280264
 31
0.0
  0
LINE
  5
1A5
330
2
100
AcDbEntity
  8
GAIKEI
  6
Continuous
 62
     1
100
AcDbLine
 10
42.94499426487201
 20
25.71628661280263
 30
0.0
 11
42.90585176487198
 21
25.71628661280263
 31
0.0
  0
LINE
  5
1A6
330
2
100
AcDbEntity
  8
GAIKEI
  6
Continuous
 62
     1
100
AcDbLine
 10
42.94499426487201
 20
25.21628661280264
 30
0.0
 11
42.94499426487201
 21
25.46628661280263
 31
0.0
  0
ARC
  5
1A7
330
2
100
AcDbEntity
  8
GAIKEI
  6
Continuous
 62
     1
100
AcDbCircle
 10
42.704994264872
 20
25.46628661280263
 30
0.0
 40
0.45
100
AcDbArc
 50
0.0
 51
16.60155000001892
  0
ARC
  5
1A8
330
2
100
AcDbEntity
  8
GAIKEI
  6
Continuous
 62
     1
100
AcDbCircle
 10
42.704994264872
 20
25.46628661280263
 30
0.0
 40
0.45
100
AcDbArc
 50
343.3984499999811
 51
0.0
  0
ARC
  5
1A9
330
2
100
AcDbEntity
  8
GAIKEI
  6
Continuous
 62
     1
100
AcDbCircle
 10
43.07394546487197
 20
25.35628661280262
 30
0.0
 40
0.065
100
AcDbArc
 50
270.0
 51
343.3984499999811
  0
ARC
  5
1AA
330
2
100
AcDbEntity
  8
GAIKEI
  6
Continuous
 62
     1
100
AcDbCircle
 10
43.07394546487197
 20
25.57628661280253
 30
0.0
 40
0.065
100
AcDbArc
 50
16.60155000001892
 51
90.0
  0
LINE
  5
1AB
330
2
100
AcDbEntity
  8
GAIKEI
  6
Continuous
 62
     1
100
AcDbLine
 10
42.94499426487201
 20
25.37128661280261
 30
0.0
 11
42.97785196487203
 21
25.37128661280261
 31
0.0
  0
LINE
  5
1AC
330
2
100
AcDbEntity
  8
GAIKEI
  6
Continuous
 62
     1
100
AcDbLine
 10
43.02499426487199
 20
25.56128661280255
 30
0.0
 11
42.99098461487202
 21
25.56128661280255
 31
0.0
  0
LINE
  5
1AD
330
2
100
AcDbEntity
  8
GAIKEI
  6
Continuous
 62
     1
100
AcDbLine
 10
43.02499426487199
 20
25.29128661280257
 30
0.0
 11
43.07394546487197
 21
25.29128661280257
 31
0.0
  0
LINE
  5
1AE
330
2
100
AcDbEntity
  8
GAIKEI
  6
Continuous
 62
     1
100
AcDbLine
 10
43.07394546487197
 20
25.64128661280259
 30
0.0
 11
43.02499426487199
 21
25.64128661280259
 31
0.0
  0
LINE
  5
1AF
330
2
100
AcDbEntity
  8
GAIKEI
  6
Continuous
 62
     1
100
AcDbLine
 10
43.02499426487199
 20
25.46628661280263
 30
0.0
 11
43.02499426487199
 21
25.64128661280259
 31
0.0
  0
LINE
  5
1B0
330
2
100
AcDbEntity
  8
GAIKEI
  6
Continuous
 62
     1
100
AcDbLine
 10
43.02499426487199
 20
25.29128661280257
 30
0.0
 11
43.02499426487199
 21
25.46628661280263
 31
0.0
  0
LINE
  5
1B1
330
2
100
AcDbEntity
  8
GAIKEI
  6
Continuous
 62
     1
100
AcDbLine
 10
42.94499426487201
 20
25.48495381280261
 30
0.0
 11
42.98499426487197
 21
25.48495381280261
 31
0.0
  0
LINE
  5
1B2
330
2
100
AcDbEntity
  8
GAIKEI
  6
Continuous
 62
     1
100
AcDbLine
 10
42.98499426487197
 20
25.46628661280263
 30
0.0
 11
43.02499426487199
 21
25.46628661280263
 31
0.0
  0
LINE
  5
1B3
330
2
100
AcDbEntity
  8
GAIKEI
  6
Continuous
 62
     1
100
AcDbLine
 10
43.01470676487198
 20
25.28878736280254
 30
0.0
 11
42.97470676487196
 21
25.28878736280254
 31
0.0
  0
LINE
  5
1B4
330
2
100
AcDbEntity
  8
GAIKEI
  6
Continuous
 62
     1
100
AcDbLine
 10
42.99413406487198
 20
25.64378801280262
 30
0.0
 11
42.95413406487202
 21
25.64378801280262
 31
0.0
  0
LINE
  5
1B5
330
2
100
AcDbEntity
  8
GAIKEI
  6
Continuous
 62
     1
100
AcDbLine
 10
42.98499426487197
 20
25.49710916280256
 30
0.0
 11
42.98499426487197
 21
25.48495381280261
 31
0.0
  0
ARC
  5
1B6
330
2
100
AcDbEntity
  8
GAIKEI
  6
Continuous
 62
     1
100
AcDbCircle
 10
42.55499426487202
 20
-3.351023522858298
 30
0.0
 40
0.35
100
AcDbArc
 50
0.0
 51
16.25702800000551
  0
ARC
  5
1B7
330
2
100
AcDbEntity
  8
GAIKEI
  6
Continuous
 62
     1
100
AcDbCircle
 10
42.55499426487202
 20
-3.351023522858298
 30
0.0
 40
0.35
100
AcDbArc
 50
343.7429719999945
 51
0.0
  0
ARC
  5
1B8
330
2
100
AcDbEntity
  8
GAIKEI
  6
Continuous
 62
     1
100
AcDbCircle
 10
42.84299891487196
 20
-3.435007572858324
 30
0.0
 40
0.05
100
AcDbArc
 50
320.9555470000153
 51
343.7429719999945
  0
ARC
  5
1B9
330
2
100
AcDbEntity
  8
GAIKEI
  6
Continuous
 62
     1
100
AcDbCircle
 10
42.84299891487196
 20
-3.267039472858385
 30
0.0
 40
0.05
100
AcDbArc
 50
16.25702800000551
 51
80.92142899999226
  0
ARC
  5
1BA
330
2
100
AcDbEntity
  8
GAIKEI
  6
Continuous
 62
     1
100
AcDbCircle
 10
42.802998914872
 20
-3.232039472858303
 30
0.0
 40
0.05
100
AcDbArc
 50
16.25702800000551
 51
37.82319200001224
  0
ARC
  5
1BB
330
2
100
AcDbEntity
  8
GAIKEI
  6
Continuous
 62
     1
100
AcDbCircle
 10
42.50499426487201
 20
-3.716023522858307
 30
0.0
 40
0.45
100
AcDbArc
 50
343.3984499999811
 51
348.2276048164396
  0
ARC
  5
1BC
330
2
100
AcDbEntity
  8
GAIKEI
  6
Continuous
 62
     1
100
AcDbCircle
 10
42.87394546487203
 20
-3.826023522858321
 30
0.0
 40
0.065
100
AcDbArc
 50
270.0
 51
343.3984499999811
  0
LINE
  5
1BD
330
2
100
AcDbEntity
  8
GAIKEI
  6
Continuous
 62
     1
100
AcDbLine
 10
42.84249426487204
 20
-3.891023522858375
 30
0.0
 11
42.87394546487203
 21
-3.891023522858375
 31
0.0
  0
ARC
  5
1BE
330
2
100
AcDbEntity
  8
GAIKEI
  6
Continuous
 62
     1
100
AcDbCircle
 10
42.50499426487201
 20
31.63878661280254
 30
0.0
 40
0.45
100
AcDbArc
 50
0.0
 51
16.60155000001892
  0
ARC
  5
1BF
330
2
100
AcDbEntity
  8
GAIKEI
  6
Continuous
 62
     1
100
AcDbCircle
 10
42.50499426487201
 20
31.63878661280254
 30
0.0
 40
0.45
100
AcDbArc
 50
343.3984499999811
 51
0.0
  0
ARC
  5
1C0
330
2
100
AcDbEntity
  8
GAIKEI
  6
Continuous
 62
     1
100
AcDbCircle
 10
42.87394546487203
 20
31.52878661280252
 30
0.0
 40
0.065
100
AcDbArc
 50
270.0
 51
343.3984499999811
  0
ARC
  5
1C1
330
2
100
AcDbEntity
  8
GAIKEI
  6
Continuous
 62
     1
100
AcDbCircle
 10
42.87394546487203
 20
31.74878661280255
 30
0.0
 40
0.065
100
AcDbArc
 50
16.60155000001892
 51
90.0
  0
LINE
  5
1C2
330
2
100
AcDbEntity
  8
GAIKEI
  6
Continuous
 62
     1
100
AcDbLine
 10
42.84249426487204
 20
31.46378661280258
 30
0.0
 11
42.87394546487203
 21
31.46378661280258
 31
0.0
  0
LINE
  5
1C3
330
2
100
AcDbEntity
  8
GAIKEI
  6
Continuous
 62
     1
100
AcDbLine
 10
42.87394546487203
 20
31.8137866128026
 30
0.0
 11
42.84249426487204
 21
31.8137866128026
 31
0.0
  0
ARC
  5
1C4
330
2
100
AcDbEntity
  8
GAIKEI
  6
Continuous
 62
     1
100
AcDbCircle
 10
42.50499426487201
 20
13.37421227637449
 30
0.0
 40
0.45
100
AcDbArc
 50
0.0
 51
16.60155000001892
  0
ARC
  5
1C5
330
2
100
AcDbEntity
  8
GAIKEI
  6
Continuous
 62
     1
100
AcDbCircle
 10
42.50499426487201
 20
13.37421227637449
 30
0.0
 40
0.45
100
AcDbArc
 50
343.3984499999811
 51
0.0
  0
ARC
  5
1C6
330
2
100
AcDbEntity
  8
GAIKEI
  6
Continuous
 62
     1
100
AcDbCircle
 10
42.87394546487203
 20
13.26421227637459
 30
0.0
 40
0.065
100
AcDbArc
 50
270.0
 51
343.3984499999811
  0
ARC
  5
1C7
330
2
100
AcDbEntity
  8
GAIKEI
  6
Continuous
 62
     1
100
AcDbCircle
 10
42.87394546487203
 20
13.4842122763745
 30
0.0
 40
0.065
100
AcDbArc
 50
16.60155000001892
 51
90.0
  0
LINE
  5
1C8
330
2
100
AcDbEntity
  8
GAIKEI
  6
Continuous
 62
     1
100
AcDbLine
 10
42.84249426487204
 20
13.19921227637454
 30
0.0
 11
42.87394546487203
 21
13.19921227637454
 31
0.0
  0
LINE
  5
1C9
330
2
100
AcDbEntity
  8
GAIKEI
  6
Continuous
 62
     1
100
AcDbLine
 10
42.87394546487203
 20
13.54921227637456
 30
0.0
 11
42.84249426487204
 21
13.54921227637456
 31
0.0
  0
LINE
  5
1CA
330
2
100
AcDbEntity
  8
GAIKEI
  6
Continuous
 62
     1
100
AcDbLine
 10
42.87394546487203
 20
-3.466023522858307
 30
0.0
 11
42.84249426487204
 21
-3.466023522858307
 31
0.0
  0
ARC
  5
1CB
330
2
100
AcDbEntity
  8
GAIKEI
  6
Continuous
 62
     1
100
AcDbCircle
 10
42.54499426487202
 20
-3.641023522858375
 30
0.0
 40
0.45
100
AcDbArc
 50
0.0
 51
16.60155000001892
  0
ARC
  5
1CC
330
2
100
AcDbEntity
  8
GAIKEI
  6
Continuous
 62
     1
100
AcDbCircle
 10
42.54499426487202
 20
-3.641023522858375
 30
0.0
 40
0.45
100
AcDbArc
 50
343.3984499999811
 51
0.0
  0
ARC
  5
1CD
330
2
100
AcDbEntity
  8
GAIKEI
  6
Continuous
 62
     1
100
AcDbCircle
 10
42.91394546487199
 20
-3.751023522858275
 30
0.0
 40
0.065
100
AcDbArc
 50
299.0713460000127
 51
343.3984499999811
  0
ARC
  5
1CE
330
2
100
AcDbEntity
  8
GAIKEI
  6
Continuous
 62
     1
100
AcDbCircle
 10
42.91394546487199
 20
-3.531023522858362
 30
0.0
 40
0.065
100
AcDbArc
 50
16.60155000001892
 51
90.0
  0
LINE
  5
1CF
330
2
100
AcDbEntity
  8
GAIKEI
  6
Continuous
 62
     1
100
AcDbLine
 10
42.91394546487199
 20
-3.466023522858307
 30
0.0
 11
42.88221636487199
 21
-3.466023522858307
 31
0.0
  0
ELLIPSE
  5
1D0
330
2
100
AcDbEntity
  8
GAIKEI
  6
Continuous
 62
     1
100
AcDbEllipse
 10
43.05901546487203
 20
30.05977986280257
 30
0.0
 11
0.1424851626795885
 21
0.0468826024892312
 31
0.0
210
0.0
220
0.0
230
1.0
 40
0.9984440000001793
 41
1.218517221577885
 42
2.82325303544779
  0
ELLIPSE
  5
1D1
330
2
100
AcDbEntity
  8
GAIKEI
  6
Continuous
 62
     1
100
AcDbEllipse
 10
43.05901546487203
 20
25.18293376280249
 30
0.0
 11
-0.1424851626777184
 21
0.0468826024949143
 31
0.0
210
0.0
220
0.0
230
1.0
 40
0.9984440000005646
 41
0.318339618181823
 42
1.923075432051857
  0
ELLIPSE
  5
1D2
330
2
100
AcDbEntity
  8
GAIKEI
  6
Continuous
 62
     1
100
AcDbEllipse
 10
43.49593821487198
 20
27.85149871280251
 30
0.0
 11
-0.0677683608693831
 21
0.9901836694613271
 31
0.0
210
0.0
220
0.0
230
1.0
 40
0.9986229999985823
 41
4.644149142569689
 42
4.780628818045713
  0
ELLIPSE
  5
1D3
330
2
100
AcDbEntity
  8
GAIKEI
  6
Continuous
 62
     1
100
AcDbEllipse
 10
44.04625076487199
 20
25.21740876280254
 30
0.0
 11
0.1113231012737732
 21
0.1005344076561978
 31
0.0
210
0.0
220
0.0
230
1.0
 40
0.9976620000000806
 41
4.013930599325021
 42
5.410847361505642
  0
ELLIPSE
  5
1D4
330
2
100
AcDbEntity
  8
GAIKEI
  6
Continuous
 62
     1
100
AcDbEllipse
 10
43.49593821487198
 20
27.39121486280251
 30
0.0
 11
0.0677683607176556
 21
0.9901836694785888
 31
0.0
210
0.0
220
0.0
230
1.0
 40
0.998622999991616
 41
4.644149142570644
 42
4.78062881804572
  0
ELLIPSE
  5
1D5
330
2
100
AcDbEntity
  8
GAIKEI
  6
Continuous
 62
     1
100
AcDbEllipse
 10
44.04625076487199
 20
30.0253048128026
 30
0.0
 11
-0.1113231012655573
 21
0.1005344076653982
 31
0.0
210
0.0
220
0.0
230
1.0
 40
0.9976619999996227
 41
4.013930599346159
 42
5.410847361526342
  0
ELLIPSE
  5
1D6
330
2
100
AcDbEntity
  8
GAIKEI
  6
Continuous
 62
     1
100
AcDbEllipse
 10
44.28993951487202
 20
25.0387944628026
 30
0.0
 11
-0.2200773139313426
 21
0.2042784546889193
 31
0.0
210
0.0
220
0.0
230
1.0
 40
0.9990920000004408
 41
2.530501865473186
 42
3.75268344169062
  0
ELLIPSE
  5
1D7
330
2
100
AcDbEntity
  8
GAIKEI
  6
Continuous
 62
     1
100
AcDbEllipse
 10
43.45233391487201
 20
27.3941991628025
 30
0.0
 11
-1.447501845782709
 21
0.0990673050774751
 31
0.0
210
0.0
220
0.0
230
1.0
 40
0.9993879999934986
 41
3.073300713334443
 42
3.209884594306729
  0
ELLIPSE
  5
1D8
330
2
100
AcDbEntity
  8
GAIKEI
  6
Continuous
 62
     1
100
AcDbEllipse
 10
43.45233391487201
 20
27.84851441280253
 30
0.0
 11
1.447501845805857
 21
0.0990673047384905
 31
0.0
210
0.0
220
0.0
230
1.0
 40
0.9993880000055288
 41
-0.0682919404817914
 42
0.0682919404888547
  0
ELLIPSE
  5
1D9
330
2
100
AcDbEntity
  8
GAIKEI
  6
Continuous
 62
     1
100
AcDbEllipse
 10
44.28993951487202
 20
30.20391916280258
 30
0.0
 11
0.2200773139137207
 21
0.2042784547079607
 31
0.0
210
0.0
220
0.0
230
1.0
 40
0.9990919999997052
 41
-0.6110907881875775
 42
0.6110907880307086
  0
ARC
  5
1DA
330
2
100
AcDbEntity
  8
GAIKEI
  6
Continuous
 62
     1
100
AcDbCircle
 10
44.29029841487201
 20
25.03846136280257
 30
0.0
 40
0.34978195
100
AcDbArc
 50
317.3057001384147
 51
349.609110091751
  0
LINE
  5
1DB
330
2
100
AcDbEntity
  8
GAIKEI
  6
Continuous
 62
     1
100
AcDbLine
 10
42.96975141487197
 20
25.33747846280258
 30
0.0
 11
42.96975141487197
 21
25.20687206280255
 31
0.0
  0
LINE
  5
1DC
330
2
100
AcDbEntity
  8
GAIKEI
  6
Continuous
 62
     1
100
AcDbLine
 10
42.96975141487197
 20
25.20687206280255
 30
0.0
 11
42.91975901487197
 21
25.20687206280255
 31
0.0
  0
LINE
  5
1DD
330
2
100
AcDbEntity
  8
GAIKEI
  6
Continuous
 62
     1
100
AcDbLine
 10
44.051478514872
 20
25.0677056128026
 30
0.0
 11
44.050174664872
 21
25.06914936280262
 31
0.0
  0
LINE
  5
1DE
330
2
100
AcDbEntity
  8
GAIKEI
  6
Continuous
 62
     1
100
AcDbLine
 10
42.91975901487197
 20
25.20687206280255
 30
0.0
 11
42.91975901487197
 21
25.21628661280264
 31
0.0
  0
LINE
  5
1DF
330
2
100
AcDbEntity
  8
GAIKEI
  6
Continuous
 62
     1
100
AcDbLine
 10
44.47783621487198
 20
27.9865338128026
 30
0.0
 11
44.32544126487201
 21
29.1158803128026
 31
0.0
  0
LINE
  5
1E0
330
2
100
AcDbEntity
  8
GAIKEI
  6
Continuous
 62
     1
100
AcDbLine
 10
44.20002501487195
 20
30.00661801280265
 30
0.0
 11
44.19464846487201
 21
30.04571316280252
 31
0.0
  0
LINE
  5
1E1
330
2
100
AcDbEntity
  8
GAIKEI
  6
Continuous
 62
     1
100
AcDbLine
 10
44.32544126487201
 20
29.1158803128026
 30
0.0
 11
44.21661331487203
 21
29.90721481280255
 31
0.0
  0
LINE
  5
1E2
330
2
100
AcDbEntity
  8
GAIKEI
  6
Continuous
 62
     1
100
AcDbLine
 10
44.48707801487197
 20
27.39121486280263
 30
0.0
 11
44.48707801487197
 21
27.85149871280263
 31
0.0
  0
LINE
  5
1E3
330
2
100
AcDbEntity
  8
GAIKEI
  6
Continuous
 62
     1
100
AcDbLine
 10
44.39299881487201
 20
26.63929081280256
 30
0.0
 11
44.47783621487198
 21
27.25617981280257
 31
0.0
  0
LINE
  5
1E4
330
2
100
AcDbEntity
  8
GAIKEI
  6
Continuous
 62
     1
100
AcDbLine
 10
44.21661331487203
 20
25.33549876280259
 30
0.0
 11
44.38210136487206
 21
26.53883331280261
 31
0.0
  0
LINE
  5
1E5
330
2
100
AcDbEntity
  8
GAIKEI
  6
Continuous
 62
     1
100
AcDbLine
 10
44.19464846487201
 20
25.19700046280255
 30
0.0
 11
44.20002501487195
 21
25.2360955628026
 31
0.0
  0
LINE
  5
1E6
330
2
100
AcDbEntity
  8
GAIKEI
  6
Continuous
 62
     1
100
AcDbLine
 10
43.06424321487199
 20
25.03323056280263
 30
0.0
 11
44.051478514872
 21
25.0677056128026
 31
0.0
  0
LINE
  5
1E7
330
2
100
AcDbEntity
  8
GAIKEI
  6
Continuous
 62
     1
100
AcDbLine
 10
42.84950906487202
 20
24.42313331280255
 30
0.0
 11
44.35308726487201
 21
24.74532866280256
 31
0.0
  0
LINE
  5
1E8
330
2
100
AcDbEntity
  8
GAIKEI
  6
Continuous
 62
     1
100
AcDbLine
 10
44.587288414872
 20
24.99764291280261
 30
0.0
 11
44.889705564872
 21
27.19664736280257
 31
0.0
  0
LINE
  5
1E9
330
2
100
AcDbEntity
  8
GAIKEI
  6
Continuous
 62
     1
100
AcDbLine
 10
44.90321776487204
 20
27.39407821280261
 30
0.0
 11
44.90321776487204
 21
27.84863536280253
 31
0.0
  0
LINE
  5
1EA
330
2
100
AcDbEntity
  8
GAIKEI
  6
Continuous
 62
     1
100
AcDbLine
 10
44.889705564872
 20
28.04606626280261
 30
0.0
 11
44.587288414872
 21
30.24507071280257
 31
0.0
  0
LINE
  5
1EB
330
2
100
AcDbEntity
  8
GAIKEI
  6
Continuous
 62
     1
100
AcDbLine
 10
44.35308726487201
 20
30.49738496280261
 30
0.0
 11
42.84950906487202
 21
30.81958026280259
 31
0.0
  0
LINE
  5
1EC
330
2
100
AcDbEntity
  8
GAIKEI
  6
Continuous
 62
     1
100
AcDbLine
 10
42.90585176487198
 20
30.11500516280265
 30
0.0
 11
42.90585176487198
 21
25.12770841280261
 31
0.0
  0
LINE
  5
1ED
330
2
100
AcDbEntity
  8
GAIKEI
  6
Continuous
 62
     1
100
AcDbLine
 10
44.051478514872
 20
30.17500801280258
 30
0.0
 11
43.06424321487199
 21
30.20948301280262
 31
0.0
  0
ARC
  5
1EE
330
2
100
AcDbEntity
  8
GAIKEI
  6
Continuous
 62
     1
100
AcDbCircle
 10
44.47775396487204
 20
-2.926829622858321
 30
0.0
 40
0.05
100
AcDbArc
 50
273.0000000000056
 51
359.0000000000243
  0
ARC
  5
1EF
330
2
100
AcDbEntity
  8
GAIKEI
  6
Continuous
 62
     1
100
AcDbCircle
 10
43.02588751487198
 20
-3.303330422858351
 30
0.0
 40
0.25
100
AcDbArc
 50
93.00000000000558
 51
137.1867789999951
  0
LINE
  5
1F0
330
2
100
AcDbEntity
  8
GAIKEI
  6
Continuous
 62
     1
100
AcDbLine
 10
43.01280356487203
 20
-3.053673072858344
 30
0.0
 11
44.01688006487202
 21
-3.001051622858284
 31
0.0
  0
LINE
  5
1F1
330
2
100
AcDbEntity
  8
GAIKEI
  6
Continuous
 62
     1
100
AcDbLine
 10
43.890210964872
 20
-3.007690072858366
 30
0.0
 11
44.48037076487199
 21
-2.976761122858277
 31
0.0
  0
LINE
  5
1F2
330
2
100
AcDbEntity
  8
GAIKEI
  6
Continuous
 62
     1
100
AcDbLine
 10
44.527746364872
 20
-2.92770227285834
 30
0.0
 11
44.52983956487199
 21
-2.807783272858358
 31
0.0
  0
LINE
  5
1F3
330
2
100
AcDbEntity
  8
GAIKEI
  6
Continuous
 62
     1
100
AcDbLine
 10
43.01280356487203
 20
-3.053673072858344
 30
0.0
 11
43.890210964872
 21
-3.007690072858366
 31
0.0
  0
ELLIPSE
  5
1F4
330
2
100
AcDbEntity
  8
GAIKEI
  6
Continuous
 62
     1
100
AcDbEllipse
 10
45.02242566487203
 20
0.7339764771416242
 30
0.0
 11
0.0500686172998712
 21
0.0000000000139555
 31
0.0
210
0.0
220
0.0
230
1.0
 40
0.9986299999997962
 41
-0.0000000002791107
 42
1.57079632651655
  0
ARC
  5
1F5
330
2
100
AcDbEntity
  8
GAIKEI
  6
Continuous
 62
     1
100
AcDbCircle
 10
44.82249426487195
 20
0.4384849771417123
 30
0.0
 40
0.25
100
AcDbArc
 50
299.340581999988
 51
0.0
  0
LINE
  5
1F6
330
2
100
AcDbEntity
  8
GAIKEI
  6
Continuous
 62
     1
100
AcDbLine
 10
45.07249426487194
 20
0.4384849771417123
 30
0.0
 11
45.07249426487194
 21
0.7339764771416242
 31
0.0
  0
LINE
  5
1F7
330
2
100
AcDbEntity
  8
GAIKEI
  6
Continuous
 62
     1
100
AcDbLine
 10
45.02242566487203
 20
0.7839764771416924
 30
0.0
 11
45.02111546487199
 21
0.7839764771416924
 31
0.0
  0
LINE
  5
1F8
330
2
100
AcDbEntity
  8
GAIKEI
  6
Continuous
 62
     1
100
AcDbLine
 10
45.02111546487199
 20
0.7839764771416924
 30
0.0
 11
44.94499426487201
 21
0.7839764771416924
 31
0.0
  0
ELLIPSE
  5
1F9
330
2
100
AcDbEntity
  8
GAIKEI
  6
Continuous
 62
     1
100
AcDbEllipse
 10
44.98242566487195
 20
-1.366023522858284
 30
0.0
 11
-0.0500686172998712
 21
0.0000000000068056
 31
0.0
210
0.0
220
0.0
230
1.0
 40
0.9986300000009318
 41
3.141592653725905
 42
4.712388980520429
  0
ARC
  5
1FA
330
2
100
AcDbEntity
  8
GAIKEI
  6
Continuous
 62
     1
100
AcDbCircle
 10
42.97347726487195
 20
-2.56602352285833
 30
0.0
 40
0.25
100
AcDbArc
 50
270.0
 51
296.5650509999872
  0
ARC
  5
1FB
330
2
100
AcDbEntity
  8
GAIKEI
  6
Continuous
 62
     1
100
AcDbCircle
 10
44.78249426487198
 20
-1.66151502285831
 30
0.0
 40
0.25
100
AcDbArc
 50
296.5650509999872
 51
0.0
  0
LINE
  5
1FC
330
2
100
AcDbEntity
  8
GAIKEI
  6
Continuous
 62
     1
100
AcDbLine
 10
45.03249426487198
 20
-1.66151502285831
 30
0.0
 11
45.03249426487198
 21
-1.366023522858284
 31
0.0
  0
LINE
  5
1FD
330
2
100
AcDbEntity
  8
GAIKEI
  6
Continuous
 62
     1
100
AcDbLine
 10
43.08528066487198
 20
-2.7896303228583
 30
0.0
 11
44.89429766487197
 21
-1.88512182285828
 31
0.0
  0
LINE
  5
1FE
330
2
100
AcDbEntity
  8
GAIKEI
  6
Continuous
 62
     1
100
AcDbLine
 10
44.98242566487195
 20
-1.31602352285833
 30
0.0
 11
44.98111546487203
 21
-1.31602352285833
 31
0.0
  0
LINE
  5
1FF
330
2
100
AcDbEntity
  8
GAIKEI
  6
Continuous
 62
     1
100
AcDbLine
 10
44.98111546487203
 20
-1.31602352285833
 30
0.0
 11
44.94499426487201
 21
-1.31602352285833
 31
0.0
  0
LINE
  5
200
330
2
100
AcDbEntity
  8
GAIKEI
  6
Continuous
 62
     1
100
AcDbLine
 10
42.84249426487204
 20
-2.81602352285833
 30
0.0
 11
42.97347726487195
 21
-2.81602352285833
 31
0.0
  0
DIMENSION
  5
201
330
2
100
AcDbEntity
  8
SUNPO
100
AcDbDimension
  2
*D12
 10
28.41682181240737
 20
32.06859676294349
 30
0.0
 11
26.66682181240736
 21
13.97244169511308
 31
0.0
 70
    33
  1
724
 71
     5
 42
36.19231013566082
  3
STANDARD
100
AcDbAlignedDimension
 13
20.41682181240736
 23
-4.123713372717332
 33
0.0
 14
20.41682181240734
 24
32.06859676294349
 34
0.0
1001
ACAD
1000
DSTYLE
1002
{
1070
   287
1070
     3
1070
   287
1070
     3
1070
   287
1070
     3
1070
   287
1070
     3
1070
   287
1070
     3
1070
   287
1070
     3
1070
   287
1070
     3
1070
   287
1070
     3
1070
   287
1070
     3
1070
   287
1070
     3
1070
   287
1070
     3
1070
   287
1070
     3
1070
   287
1070
     3
1070
   287
1070
     3
1070
   287
1070
     3
1070
   287
1070
     3
1070
   287
1070
     3
1070
   287
1070
     3
1070
   287
1070
     3
1070
   287
1070
     3
1070
   287
1070
     3
1070
   287
1070
     3
1070
   287
1070
     3
1070
   287
1070
     3
1070
   287
1070
     3
1070
   287
1070
     3
1070
   287
1070
     3
1070
   287
1070
     3
1070
   287
1070
     3
1070
   287
1070
     3
1070
   287
1070
     3
1070
   287
1070
     3
1070
   287
1070
     3
1070
   287
1070
     3
1070
    40
1040
1.0
1070
   140
1040
2.5
1070
   147
1040
0.5
1070
   172
1070
     1
1070
   279
1070
     0
1002
}
  0
SPLINE
  5
20F
330
2
100
AcDbEntity
  8
GAIKEI
  6
Continuous
 62
     1
100
AcDbSpline
210
0.0
220
0.0
230
1.0
 70
     8
 71
     3
 72
    19
 73
    15
 74
    13
 42
0.0000000001
 43
0.0000000001
 44
0.000001
 12
0.9971663916962711
 22
-0.075227569889229
 32
0.0
 13
0.075244651693976
 23
-0.9971651028748709
 33
0.0
 40
0.0
 40
0.0
 40
0.0
 40
0.0
 40
0.030715435588374
 40
0.0474030577445464
 40
0.0651725077316638
 40
0.0907715901302183
 40
0.1187843457395302
 40
0.1493748434368632
 40
0.1799684720857404
 40
0.2079831862986427
 40
0.2335829246383331
 40
0.2513519490620154
 40
0.2680383244320077
 40
0.2987487387217205
 40
0.2987487387217205
 40
0.2987487387217205
 40
0.2987487387217205
 10
20.52344776336716
 20
31.9408864450916
 30
0.0
 10
20.53365723005883
 20
31.94011622923247
 30
0.0
 10
20.54936785460833
 20
31.93739455936947
 30
0.0
 10
20.56991917814236
 20
31.93026388950193
 30
0.0
 10
20.5881600110867
 20
31.92194747268718
 30
0.0
 10
20.6086879278361
 20
31.90980892622292
 30
0.0
 10
20.63120546262942
 20
31.89297140666111
 30
0.0
 10
20.65316946165585
 20
31.87286757002133
 30
0.0
 10
20.67327221756423
 20
31.85090171604634
 30
0.0
 10
20.69011000300816
 20
31.82838202048873
 30
0.0
 10
20.70224857107479
 20
31.80785328691133
 30
0.0
 10
20.71056485366614
 20
31.78961277772879
 30
0.0
 10
20.71769508974819
 20
31.76906366835757
 30
0.0
 10
20.72041656961537
 20
31.75335515850961
 30
0.0
 10
20.72118683442423
 20
31.74314737403475
 30
0.0
 11
20.52344776336716
 21
31.9408864450916
 31
0.0
 11
20.55369675795842
 21
31.93555328442656
 31
0.0
 11
20.56948397650828
 21
31.93014638658386
 31
0.0
 11
20.58566398449355
 21
31.92280088056091
 31
0.0
 11
20.60774689641917
 21
31.90985287212098
 31
0.0
 11
20.63023190985248
 21
31.89314565609587
 31
0.0
 11
20.65284876309434
 21
31.87254837376193
 31
0.0
 11
20.67344674443021
 21
31.84992792242284
 31
0.0
 11
20.69015422579426
 21
31.82744066604201
 31
0.0
 11
20.70310217836951
 21
31.8053569609248
 31
0.0
 11
20.71044750544022
 21
31.78917733898803
 31
0.0
 11
20.715854162939
 21
31.7733913558591
 31
0.0
 11
20.72118683442423
 21
31.74314737403475
 31
0.0
  0
SPLINE
  5
210
330
2
100
AcDbEntity
  8
GAIKEI
  6
Continuous
 62
     1
100
AcDbSpline
210
0.0
220
0.0
230
1.0
 70
     8
 71
     3
 72
    19
 73
    15
 74
    13
 42
0.0000000001
 43
0.0000000001
 44
0.000001
 12
-0.0752275697466489
 22
-0.9971663917070275
 32
0.0
 13
-0.9971651028676605
 23
-0.0752446517895329
 33
0.0
 40
0.0
 40
0.0
 40
0.0
 40
0.0
 40
0.030715435581542
 40
0.0474030577359828
 40
0.0651725077224488
 40
0.0907715901219655
 40
0.118784345734847
 40
0.1493748434380533
 40
0.179968472082968
 40
0.2079831862935395
 40
0.2335829246325459
 40
0.251351949056575
 40
0.2680383244278028
 40
0.2987487387220733
 40
0.2987487387220733
 40
0.2987487387220733
 40
0.2987487387220733
 10
20.72118683442412
 20
-3.790574133949547
 30
0.0
 10
20.72041661856662
 20
-3.800783600639078
 30
0.0
 10
20.71769494870586
 20
-3.816494225186147
 30
0.0
 10
20.71056427884006
 20
-3.837045548717526
 30
0.0
 10
20.7022478620259
 20
-3.855286381661613
 30
0.0
 10
20.69010931556106
 20
-3.875814298412251
 30
0.0
 10
20.67327179599702
 20
-3.898331833208203
 30
0.0
 10
20.65316795935611
 20
-3.920295832236092
 30
0.0
 10
20.63120210538103
 20
-3.940398588144176
 30
0.0
 10
20.6086824098253
 20
-3.957236373586653
 30
0.0
 10
20.58815367624877
 20
-3.969374941653029
 30
0.0
 10
20.56991316706606
 20
-3.977691224244665
 30
0.0
 10
20.54936405769308
 20
-3.984821460327907
 30
0.0
 10
20.53365554784344
 20
-3.987542940196533
 30
0.0
 10
20.52344776336716
 20
-3.988313205006505
 30
0.0
 11
20.72118683442412
 21
-3.790574133949547
 31
0.0
 11
20.71585367376352
 21
-3.820823128534669
 31
0.0
 11
20.71044677592206
 21
-3.836610347083109
 31
0.0
 11
20.7031012698998
 21
-3.85279035506798
 31
0.0
 11
20.69015326145953
 21
-3.874873266994512
 31
0.0
 11
20.67344604543226
 21
-3.897358280430665
 31
0.0
 11
20.65284876309434
 21
-3.919975133676842
 31
0.0
 11
20.63022831175803
 21
-3.940573115009868
 31
0.0
 11
20.60774105537908
 21
-3.957280596372555
 31
0.0
 11
20.58565735026255
 21
-3.970228548947574
 31
0.0
 11
20.56947772832555
 21
-3.977573876018681
 31
0.0
 11
20.55369174519561
 21
-3.982980533518315
 31
0.0
 11
20.52344776336716
 21
-3.988313205006505
 31
0.0
  0
LINE
  5
211
330
2
100
AcDbEntity
  8
GAIKEI
  6
Continuous
 62
     1
100
AcDbLine
 10
19.04805190285847
 20
30.08055986360094
 30
0.0
 11
19.04805190285847
 21
-2.127986623515624
 31
0.0
  0
LINE
  5
212
330
2
100
AcDbEntity
  8
GAIKEI
  6
Continuous
 62
     1
100
AcDbLine
 10
20.49435780228001
 20
31.51631831302657
 30
0.0
 11
20.49435780228001
 21
-3.563745072941372
 31
0.0
  0
LINE
  5
213
330
2
100
AcDbEntity
  8
GAIKEI
  6
Continuous
 62
     1
100
AcDbLine
 10
20.29661870235904
 20
31.71405741294748
 30
0.0
 11
20.52344775226837
 21
31.94088646285675
 31
0.0
  0
LINE
  5
214
330
2
100
AcDbEntity
  8
GAIKEI
  6
Continuous
 62
     1
100
AcDbLine
 10
20.72118685218928
 20
31.74314736293585
 30
0.0
 11
20.49435780228001
 21
31.51631831302657
 31
0.0
  0
LINE
  5
215
330
2
100
AcDbEntity
  8
GAIKEI
  6
Continuous
 62
     1
100
AcDbLine
 10
20.49435780228001
 20
-3.563745072941372
 30
0.0
 11
20.72118685218928
 21
-3.790574122850642
 31
0.0
  0
LINE
  5
216
330
2
100
AcDbEntity
  8
GAIKEI
  6
Continuous
 62
     1
100
AcDbLine
 10
20.52344775226837
 20
-3.988313222771552
 30
0.0
 11
20.29661870235904
 21
-3.761484172862282
 31
0.0
  0
LINE
  5
217
330
2
100
AcDbEntity
  8
GAIKEI
  6
Continuous
 62
     1
100
AcDbLine
 10
20.72118685218928
 20
-3.790574122850642
 30
0.0
 11
20.72118685218928
 21
31.74314736293585
 31
0.0
  0
LINE
  5
218
330
2
100
AcDbEntity
  8
GAIKEI
  6
Continuous
 62
     1
100
AcDbLine
 10
18.88951580292192
 20
-2.121266173518364
 30
0.0
 11
18.88951580292192
 21
30.07383941360357
 31
0.0
  0
LINE
  5
219
330
2
100
AcDbEntity
  8
GAIKEI
  6
Continuous
 62
     1
100
AcDbLine
 10
18.86868085293022
 20
30.12588046358283
 30
0.0
 11
18.29746225315872
 21
29.55466186381128
 31
0.0
  0
LINE
  5
21A
330
2
100
AcDbEntity
  8
GAIKEI
  6
Continuous
 62
     1
100
AcDbLine
 10
18.29746225315872
 20
-1.602088623726075
 30
0.0
 11
18.86868085293022
 21
-2.173307223497516
 31
0.0
  0
LINE
  5
21B
330
2
100
AcDbEntity
  8
GAIKEI
  6
Continuous
 62
     1
100
AcDbLine
 10
18.33935105314199
 20
29.45171111385244
 30
0.0
 11
18.33935105314199
 21
-1.499137873767239
 31
0.0
  0
LINE
  5
21C
330
2
100
AcDbEntity
  8
GAIKEI
  6
Continuous
 62
     1
100
AcDbLine
 10
18.2790870031661
 20
29.43703201385839
 30
0.0
 11
18.2790870031661
 21
-1.48445877377307
 31
0.0
  0
LINE
  5
21D
330
2
100
AcDbEntity
  8
GAIKEI
  6
Continuous
 62
     1
100
AcDbLine
 10
20.85658700213506
 20
31.87656071288248
 30
0.0
 11
20.72118685218925
 21
31.7411605629367
 31
0.0
  0
LINE
  5
21E
330
2
100
AcDbEntity
  8
GAIKEI
  6
Continuous
 62
     1
100
AcDbLine
 10
20.52146095226911
 20
31.94088646285675
 30
0.0
 11
20.656861102215
 21
32.07628661280265
 31
0.0
  0
LINE
  5
21F
330
2
100
AcDbEntity
  8
GAIKEI
  6
Continuous
 62
     1
100
AcDbLine
 10
20.656861102215
 20
-4.123713372717332
 30
0.0
 11
20.52146095226911
 21
-3.988313222771552
 31
0.0
  0
LINE
  5
220
330
2
100
AcDbEntity
  8
GAIKEI
  6
Continuous
 62
     1
100
AcDbLine
 10
20.72118685218925
 20
-3.788587322851384
 30
0.0
 11
20.85658700213506
 21
-3.923987472797278
 31
0.0
  0
LINE
  5
221
330
2
100
AcDbEntity
  8
GAIKEI
  6
Continuous
100
AcDbLine
 10
20.85658700213506
 20
31.87656071288248
 30
0.0
 11
20.85658700213506
 21
-3.923987472797278
 31
0.0
  0
ELLIPSE
  5
222
330
2
100
AcDbEntity
  8
GAIKEI
  6
Continuous
 62
     1
100
AcDbEllipse
 10
18.82274310294858
 20
-2.127369473515926
 30
0.0
 11
-0.159535404709188
 21
0.1595354047089651
 31
0.0
210
0.0
220
0.0
230
1.0
 40
0.9972649999999998
 41
2.357564018062
 42
3.925621289115982
  0
ELLIPSE
  5
223
330
2
100
AcDbEntity
  8
GAIKEI
  6
Continuous
 62
     1
100
AcDbEllipse
 10
18.82274310294858
 20
30.07994271360102
 30
0.0
 11
-0.1595354047091992
 21
-0.1595354047089533
 31
0.0
210
0.0
220
0.0
230
1.0
 40
0.9972649999999998
 41
2.357564018063572
 42
3.925621289117657
  0
ELLIPSE
  5
224
330
2
100
AcDbEntity
  8
GAIKEI
  6
Continuous
 62
     1
100
AcDbEllipse
 10
19.93510655250364
 20
31.15480616317123
 30
0.0
 11
-0.5021965241687404
 21
-0.5021965241687347
 31
0.0
210
0.0
220
0.0
230
1.0
 40
0.49281
 41
2.730628648546677
 42
3.552556658632908
  0
ELLIPSE
  5
225
330
2
100
AcDbEntity
  8
GAIKEI
  6
Continuous
 62
     1
100
AcDbEllipse
 10
19.93510655250364
 20
-3.202232923086029
 30
0.0
 11
-0.5021965241687355
 21
0.502196524168813
 31
0.0
210
0.0
220
0.0
230
1.0
 40
0.49281
 41
2.730628648546692
 42
3.552556658632933
  0
ELLIPSE
  5
226
330
2
100
AcDbEntity
  8
GAIKEI
  6
Continuous
 62
     1
100
AcDbEllipse
 10
18.81675200295095
 20
30.07193041360429
 30
0.0
 11
-0.0740370952919559
 21
0.0126634681883976
 31
0.0
210
0.0
220
0.0
230
1.0
 40
0.9955149999999999
 41
4.117568889116213
 42
4.882540434961859
  0
ELLIPSE
  5
227
330
2
100
AcDbEntity
  8
GAIKEI
  6
Continuous
 62
     1
100
AcDbEllipse
 10
18.8147308029518
 20
-2.121378373518354
 30
0.0
 11
-0.0126634681884195
 21
-0.0740370952919523
 31
0.0
210
0.0
220
0.0
230
1.0
 40
0.9955149999999999
 41
0.975976235527481
 42
1.740947781372396
  0
ELLIPSE
  5
228
330
2
100
AcDbEntity
  8
GAIKEI
  6
Continuous
 62
     1
100
AcDbEllipse
 10
18.8147308029518
 20
30.07395161360356
 30
0.0
 11
-0.0126634681884039
 21
0.0740370952919547
 31
0.0
210
0.0
220
0.0
230
1.0
 40
0.9955149999999999
 41
4.542237525807408
 42
5.30720907164956
  0
ELLIPSE
  5
229
330
2
100
AcDbEntity
  8
GAIKEI
  6
Continuous
 62
     1
100
AcDbEllipse
 10
18.816752002951
 20
-2.119357173519205
 30
0.0
 11
-0.074037095291956
 21
-0.0126634681883971
 31
0.0
210
0.0
220
0.0
230
1.0
 40
0.9955149999999999
 41
1.400644872217725
 42
2.165616418060674
  0
ELLIPSE
  5
22A
330
2
100
AcDbEntity
  8
GAIKEI
  6
Continuous
 62
     1
100
AcDbEllipse
 10
18.19074670320137
 20
29.44390391385551
 30
0.0
 11
-0.0866320186582728
 21
-0.1272290693382461
 31
0.0
210
0.0
220
0.0
230
1.0
 40
0.9735809999999998
 41
2.9680855374661
 42
3.7270002697099
  0
ELLIPSE
  5
22B
330
2
100
AcDbEntity
  8
GAIKEI
  6
Continuous
 62
     1
100
AcDbEllipse
 10
18.18670430320301
 20
29.44794631385392
 30
0.0
 11
-0.1272290693382016
 21
-0.0866320186583367
 31
0.0
210
0.0
220
0.0
230
0.9999999999999998
 40
0.9735809999999998
 41
2.556185037469163
 42
3.315099769710879
  0
ELLIPSE
  5
22C
330
2
100
AcDbEntity
  8
GAIKEI
  6
Continuous
 62
     1
100
AcDbEllipse
 10
18.18670430320301
 20
-1.495373073768831
 30
0.0
 11
-0.1272290693381955
 21
0.0866320186583462
 31
0.0
210
0.0
220
0.0
230
1.0
 40
0.973581
 41
2.968085537466982
 42
3.727000269710492
  0
ELLIPSE
  5
22D
330
2
100
AcDbEntity
  8
GAIKEI
  6
Continuous
 62
     1
100
AcDbEllipse
 10
18.19074670320137
 20
-1.49133067377042
 30
0.0
 11
-0.0866320186582643
 21
0.1272290693382531
 31
0.0
210
0.0
220
0.0
230
1.0
 40
0.9735809999999998
 41
2.556185037470086
 42
3.315099769710523
  0
ELLIPSE
  5
22E
330
2
100
AcDbEntity
  8
GAIKEI
  6
Continuous
 62
     1
100
AcDbEllipse
 10
18.17833600320634
 20
29.43553561385889
 30
0.0
 11
-0.0717687987905403
 21
-0.0717687987905877
 31
0.0
210
0.0
220
0.0
230
1.0
 40
0.9852569999999998
 41
2.363620831663935
 42
3.919564475514135
  0
ELLIPSE
  5
22F
330
2
100
AcDbEntity
  8
GAIKEI
  6
Continuous
 62
     1
100
AcDbEllipse
 10
18.17833600320634
 20
-1.482962373773688
 30
0.0
 11
-0.0717687987905345
 21
0.071768798790594
 31
0.0
210
0.0
220
0.0
230
1.0
 40
0.985257
 41
2.363620831665123
 42
3.919564475515255
  0
ELLIPSE
  5
230
330
2
100
AcDbEntity
  8
GAIKEI
  6
Continuous
100
AcDbEllipse
 10
20.65631255221516
 20
31.87601216288263
 30
0.0
 11
-0.1418092486302781
 21
-0.1418092486303011
 31
0.0
210
0.0
220
0.0
230
1.0
 40
0.9972649999999998
 41
2.357564018062679
 42
3.925621289116665
  0
ELLIPSE
  5
231
330
2
100
AcDbEntity
  8
GAIKEI
  6
Continuous
100
AcDbEllipse
 10
20.65631255221516
 20
-3.923438922797544
 30
0.0
 11
-0.1418092486302895
 21
0.1418092486302897
 31
0.0
210
0.0
220
0.0
230
1.0
 40
0.9972649999999998
 41
2.35756401806288
 42
3.925621289116826
  0
DIMENSION
  5
232
330
2
100
AcDbEntity
  8
SUNPO
100
AcDbDimension
  2
*D11
 10
20.85658700213503
 20
40.06831031859215
 30
0.0
 11
-9.393412985764925
 21
41.81831031859215
 31
0.0
 70
    33
  1
1210
 71
     5
 42
60.49999997579991
  3
STANDARD
100
AcDbAlignedDimension
 13
-39.64341297366488
 23
32.06831031859215
 33
0.0
 14
20.85658700213503
 24
32.06831031859215
 34
0.0
1001
ACAD
1000
DSTYLE
1002
{
1070
   287
1070
     3
1070
   287
1070
     3
1070
   287
1070
     3
1070
   287
1070
     3
1070
   287
1070
     3
1070
   287
1070
     3
1070
   287
1070
     3
1070
   287
1070
     3
1070
   287
1070
     3
1070
   287
1070
     3
1070
   287
1070
     3
1070
   287
1070
     3
1070
   287
1070
     3
1070
   287
1070
     3
1070
   287
1070
     3
1070
   287
1070
     3
1070
   287
1070
     3
1070
   287
1070
     3
1070
   287
1070
     3
1070
   287
1070
     3
1070
   287
1070
     3
1070
   287
1070
     3
1070
   287
1070
     3
1070
   287
1070
     3
1070
   287
1070
     3
1070
   287
1070
     3
1070
   287
1070
     3
1070
   287
1070
     3
1070
   287
1070
     3
1070
   287
1070
     3
1070
   287
1070
     3
1070
   287
1070
     3
1070
   287
1070
     3
1070
   287
1070
     3
1070
    40
1040
1.0
1070
   140
1040
2.5
1070
   147
1040
0.5
1070
   172
1070
     1
1070
   279
1070
     0
1002
}
  0
SPLINE
  5
23F
330
2
100
AcDbEntity
  8
GAIKEI
  6
Continuous
 62
     1
100
AcDbSpline
210
0.0
220
0.0
230
1.0
 70
     8
 71
     3
 72
    19
 73
    15
 74
    13
 42
0.0000000001
 43
0.0000000001
 44
0.000001
 12
-0.9971663916962876
 22
-0.0752275698890099
 32
0.0
 13
-0.0752446516939761
 23
-0.9971651028748709
 33
0.0
 40
0.0
 40
0.0
 40
0.0
 40
0.0
 40
0.030715435588262
 40
0.0474030577445487
 40
0.0651725077316046
 40
0.0907715901301653
 40
0.1187843457395228
 40
0.1493748434368532
 40
0.1799684720857738
 40
0.2079831862985551
 40
0.233582924638303
 40
0.2513519490619589
 40
0.2680383244319317
 40
0.2987487387216457
 40
0.2987487387216457
 40
0.2987487387216457
 40
0.2987487387216457
 10
-39.3102737348971
 20
31.9408864450916
 30
0.0
 10
-39.32048320158873
 20
31.94011622923247
 30
0.0
 10
-39.33619382613821
 20
31.93739455936944
 30
0.0
 10
-39.35674514967227
 20
31.93026388950196
 30
0.0
 10
-39.37498598261657
 20
31.92194747268715
 30
0.0
 10
-39.39551389936602
 20
31.90980892622292
 30
0.0
 10
-39.41803143415933
 20
31.89297140666116
 30
0.0
 10
-39.43999543318584
 20
31.8728675700213
 30
0.0
 10
-39.46009818909405
 20
31.85090171604623
 30
0.0
 10
-39.47693597453797
 20
31.82838202048868
 30
0.0
 10
-39.48907454260477
 20
31.80785328691138
 30
0.0
 10
-39.497390825196
 20
31.78961277772885
 30
0.0
 10
-39.50452106127797
 20
31.76906366835761
 30
0.0
 10
-39.50724254114519
 20
31.75335515850961
 30
0.0
 10
-39.50801280595405
 20
31.74314737403475
 30
0.0
 11
-39.3102737348971
 21
31.9408864450916
 31
0.0
 11
-39.34052272948824
 21
31.93555328442656
 31
0.0
 11
-39.35630994803822
 21
31.93014638658386
 31
0.0
 11
-39.37248995602343
 21
31.92280088056091
 31
0.0
 11
-39.39457286794905
 21
31.90985287212098
 31
0.0
 11
-39.41705788138242
 21
31.89314565609587
 31
0.0
 11
-39.43967473462428
 21
31.87254837376193
 31
0.0
 11
-39.46027271596009
 21
31.84992792242272
 31
0.0
 11
-39.47698019732408
 21
31.82744066604201
 31
0.0
 11
-39.48992814989944
 21
31.8053569609248
 31
0.0
 11
-39.4972734769701
 21
31.78917733898803
 31
0.0
 11
-39.50268013446882
 21
31.7733913558591
 31
0.0
 11
-39.50801280595405
 21
31.74314737403475
 31
0.0
  0
SPLINE
  5
240
330
2
100
AcDbEntity
  8
GAIKEI
  6
Continuous
 62
     1
100
AcDbSpline
210
0.0
220
0.0
230
1.0
 70
     8
 71
     3
 72
    19
 73
    15
 74
    13
 42
0.0000000001
 43
0.0000000001
 44
0.000001
 12
0.075227569746649
 22
-0.9971663917070275
 32
0.0
 13
0.9971651028676605
 23
-0.0752446517895329
 33
0.0
 40
0.0
 40
0.0
 40
0.0
 40
0.0
 40
0.0307154355815327
 40
0.0474030577359908
 40
0.0651725077224553
 40
0.0907715901219451
 40
0.1187843457348308
 40
0.1493748434379435
 40
0.1799684720829767
 40
0.2079831862935112
 40
0.2335829246325604
 40
0.2513519490565929
 40
0.2680383244278274
 40
0.2987487387220349
 40
0.2987487387220349
 40
0.2987487387220349
 40
0.2987487387220349
 10
-39.50801280595399
 20
-3.790574133949547
 30
0.0
 10
-39.5072425900965
 20
-3.80078360063905
 30
0.0
 10
-39.50452092023584
 20
-3.816494225186204
 30
0.0
 10
-39.4973902503699
 20
-3.837045548717526
 30
0.0
 10
-39.48907383355578
 20
-3.855286381661585
 30
0.0
 10
-39.47693528709101
 20
-3.875814298412251
 30
0.0
 10
-39.46009776752699
 20
-3.898331833208089
 30
0.0
 10
-39.43999393088597
 20
-3.920295832236035
 30
0.0
 10
-39.41802807691097
 20
-3.940398588144148
 30
0.0
 10
-39.39550838135523
 20
-3.957236373586738
 30
0.0
 10
-39.37497964777865
 20
-3.969374941653001
 30
0.0
 10
-39.35673913859595
 20
-3.977691224244665
 30
0.0
 10
-39.33619002922298
 20
-3.984821460327879
 30
0.0
 10
-39.32048151937336
 20
-3.987542940196533
 30
0.0
 10
-39.3102737348971
 20
-3.988313205006505
 30
0.0
 11
-39.50801280595399
 21
-3.790574133949547
 31
0.0
 11
-39.50267964529345
 21
-3.820823128534669
 31
0.0
 11
-39.49727274745195
 21
-3.836610347083109
 31
0.0
 11
-39.48992724142968
 21
-3.85279035506798
 31
0.0
 11
-39.47697923298946
 21
-3.874873266994512
 31
0.0
 11
-39.4602720169622
 21
-3.897358280430665
 31
0.0
 11
-39.43967473462428
 21
-3.919975133676729
 31
0.0
 11
-39.41705428328791
 21
-3.940573115009868
 31
0.0
 11
-39.39456702690902
 21
-3.957280596372555
 31
0.0
 11
-39.37248332179243
 21
-3.970228548947574
 31
0.0
 11
-39.35630369985543
 21
-3.977573876018681
 31
0.0
 11
-39.34051771672549
 21
-3.982980533518315
 31
0.0
 11
-39.3102737348971
 21
-3.988313205006505
 31
0.0
  0
LINE
  5
241
330
2
100
AcDbEntity
  8
GAIKEI
  6
Continuous
 62
     1
100
AcDbLine
 10
20.29661870235904
 20
31.71405741294748
 30
0.0
 11
-39.08344467388892
 21
31.71405741294748
 31
0.0
  0
LINE
  5
242
330
2
100
AcDbEntity
  8
GAIKEI
  6
Continuous
 62
     1
100
AcDbLine
 10
-37.83487787438835
 20
30.08055986360094
 30
0.0
 11
-37.83487787438835
 21
-2.127986623515624
 31
0.0
  0
LINE
  5
243
330
2
100
AcDbEntity
  8
GAIKEI
  6
Continuous
 62
     1
100
AcDbLine
 10
-37.61018622447821
 20
-2.352678273425766
 30
0.0
 11
18.82336025294839
 21
-2.352678273425766
 31
0.0
  0
LINE
  5
244
330
2
100
AcDbEntity
  8
GAIKEI
  6
Continuous
 62
     1
100
AcDbLine
 10
18.82336025294839
 20
30.30525151351108
 30
0.0
 11
-37.61018622447821
 21
30.30525151351108
 31
0.0
  0
LINE
  5
245
330
2
100
AcDbEntity
  8
GAIKEI
  6
Continuous
 62
     1
100
AcDbLine
 10
-36.70341297484092
 20
-3.598808522927328
 30
0.0
 11
-36.70341297484092
 21
-3.298618223047441
 31
0.0
  0
LINE
  5
246
330
2
100
AcDbEntity
  8
GAIKEI
  6
Continuous
 62
     1
100
AcDbLine
 10
-37.0285081247109
 20
-3.273713373057347
 30
0.0
 11
-36.72831782483096
 21
-3.273713373057347
 31
0.0
  0
LINE
  5
247
330
2
100
AcDbEntity
  8
GAIKEI
  6
Continuous
 62
     1
100
AcDbLine
 10
-37.05341297470094
 20
-3.598808522927328
 30
0.0
 11
-37.05341297470094
 21
-3.298618223047441
 31
0.0
  0
LINE
  5
248
330
2
100
AcDbEntity
  8
GAIKEI
  6
Continuous
 62
     1
100
AcDbLine
 10
-37.0285081247109
 20
-3.623713372917421
 30
0.0
 11
-36.72831782483096
 21
-3.623713372917421
 31
0.0
  0
LINE
  5
249
330
2
100
AcDbEntity
  8
GAIKEI
  6
Continuous
 62
     1
100
AcDbLine
 10
-38.53716297410742
 20
-3.504963372964851
 30
0.0
 11
-38.53716297410742
 21
-3.392463373009917
 31
0.0
  0
LINE
  5
24A
330
2
100
AcDbEntity
  8
GAIKEI
  6
Continuous
 62
     1
100
AcDbLine
 10
-38.64966297406247
 20
-3.392463373009917
 30
0.0
 11
-38.53716297410742
 21
-3.392463373009917
 31
0.0
  0
LINE
  5
24B
330
2
100
AcDbEntity
  8
GAIKEI
  6
Continuous
 62
     1
100
AcDbLine
 10
-38.64966297406247
 20
-3.504963372964851
 30
0.0
 11
-38.64966297406247
 21
-3.392463373009917
 31
0.0
  0
LINE
  5
24C
330
2
100
AcDbEntity
  8
GAIKEI
  6
Continuous
 62
     1
100
AcDbLine
 10
-38.64966297406247
 20
-3.504963372964851
 30
0.0
 11
-38.53716297410742
 21
-3.504963372964851
 31
0.0
  0
LINE
  5
24D
330
2
100
AcDbEntity
  8
GAIKEI
  6
Continuous
 62
     1
100
AcDbLine
 10
-39.28118377380983
 20
31.51631831302657
 30
0.0
 11
-39.28118377380983
 21
-3.563745072941372
 31
0.0
  0
LINE
  5
24E
330
2
100
AcDbEntity
  8
GAIKEI
  6
Continuous
 62
     1
100
AcDbLine
 10
-39.08344467388892
 20
-3.761484172862282
 30
0.0
 11
20.29661870235904
 21
-3.761484172862282
 31
0.0
  0
LINE
  5
24F
330
2
100
AcDbEntity
  8
GAIKEI
  6
Continuous
 62
     1
100
AcDbLine
 10
-39.5080128237191
 20
31.74314736293585
 30
0.0
 11
-39.28118377380983
 21
31.51631831302657
 31
0.0
  0
LINE
  5
250
330
2
100
AcDbEntity
  8
GAIKEI
  6
Continuous
 62
     1
100
AcDbLine
 10
-39.08344467388892
 20
31.71405741294748
 30
0.0
 11
-39.31027372379819
 21
31.94088646285675
 31
0.0
  0
LINE
  5
251
330
2
100
AcDbEntity
  8
GAIKEI
  6
Continuous
 62
     1
100
AcDbLine
 10
-39.31027372379819
 20
-3.988313222771552
 30
0.0
 11
-39.08344467388892
 21
-3.761484172862282
 31
0.0
  0
LINE
  5
252
330
2
100
AcDbEntity
  8
GAIKEI
  6
Continuous
 62
     1
100
AcDbLine
 10
-39.28118377380983
 20
-3.563745072941372
 30
0.0
 11
-39.5080128237191
 21
-3.790574122850642
 31
0.0
  0
LINE
  5
253
330
2
100
AcDbEntity
  8
GAIKEI
  6
Continuous
 62
     1
100
AcDbLine
 10
-39.31027372379819
 20
31.94088646285675
 30
0.0
 11
20.52344775226837
 21
31.94088646285675
 31
0.0
  0
LINE
  5
254
330
2
100
AcDbEntity
  8
GAIKEI
  6
Continuous
 62
     1
100
AcDbLine
 10
-39.5080128237191
 20
-3.790574122850642
 30
0.0
 11
-39.5080128237191
 21
31.74314736293585
 31
0.0
  0
LINE
  5
255
330
2
100
AcDbEntity
  8
GAIKEI
  6
Continuous
 62
     1
100
AcDbLine
 10
20.52344775226837
 20
-3.988313222771552
 30
0.0
 11
-39.31027372379819
 21
-3.988313222771552
 31
0.0
  0
LINE
  5
256
330
2
100
AcDbEntity
  8
GAIKEI
  6
Continuous
 62
     1
100
AcDbLine
 10
-37.60346577448089
 20
30.14671541357441
 30
0.0
 11
18.81663980295107
 21
30.14671541357441
 31
0.0
  0
LINE
  5
257
330
2
100
AcDbEntity
  8
GAIKEI
  6
Continuous
 62
     1
100
AcDbLine
 10
-37.67634177445174
 20
-2.121266173518364
 30
0.0
 11
-37.67634177445174
 21
30.07383941360357
 31
0.0
  0
LINE
  5
258
330
2
100
AcDbEntity
  8
GAIKEI
  6
Continuous
 62
     1
100
AcDbLine
 10
18.81663980295107
 20
-2.194142173489211
 30
0.0
 11
-37.60346577448089
 21
-2.194142173489211
 31
0.0
  0
LINE
  5
259
330
2
100
AcDbEntity
  8
GAIKEI
  6
Continuous
 62
     1
100
AcDbLine
 10
-37.65550682446005
 20
30.12588046358283
 30
0.0
 11
-37.08428822468855
 21
29.55466186381128
 31
0.0
  0
LINE
  5
25A
330
2
100
AcDbEntity
  8
GAIKEI
  6
Continuous
 62
     1
100
AcDbLine
 10
18.19451150319995
 20
29.59655066379449
 30
0.0
 11
-36.98133747472977
 21
29.59655066379449
 31
0.0
  0
LINE
  5
25B
330
2
100
AcDbEntity
  8
GAIKEI
  6
Continuous
 62
     1
100
AcDbLine
 10
-37.08428822468855
 20
-1.602088623726075
 30
0.0
 11
-37.65550682446005
 21
-2.173307223497516
 31
0.0
  0
LINE
  5
25C
330
2
100
AcDbEntity
  8
GAIKEI
  6
Continuous
 62
     1
100
AcDbLine
 10
-37.12617702467182
 20
29.45171111385244
 30
0.0
 11
-37.12617702467182
 21
-1.499137873767239
 31
0.0
  0
LINE
  5
25D
330
2
100
AcDbEntity
  8
GAIKEI
  6
Continuous
 62
     1
100
AcDbLine
 10
-36.98133747472977
 20
-1.643977423709287
 30
0.0
 11
18.19451150319995
 21
-1.643977423709287
 31
0.0
  0
LINE
  5
25E
330
2
100
AcDbEntity
  8
GAIKEI
  6
Continuous
 62
     1
100
AcDbLine
 10
-36.9666583747356
 20
29.53628661381859
 30
0.0
 11
18.17983240320578
 21
29.53628661381859
 31
0.0
  0
LINE
  5
25F
330
2
100
AcDbEntity
  8
GAIKEI
  6
Continuous
 62
     1
100
AcDbLine
 10
-37.06591297469592
 20
29.43703201385839
 30
0.0
 11
-37.06591297469592
 21
-1.48445877377307
 31
0.0
  0
LINE
  5
260
330
2
100
AcDbEntity
  8
GAIKEI
  6
Continuous
 62
     1
100
AcDbLine
 10
-36.9666583747356
 20
-1.583713373733388
 30
0.0
 11
18.17983240320578
 21
-1.583713373733388
 31
0.0
  0
LINE
  5
261
330
2
100
AcDbEntity
  8
GAIKEI
  6
Continuous
 62
     1
100
AcDbLine
 10
-39.30828692379896
 20
31.94088646285675
 30
0.0
 11
-39.44368707374483
 21
32.07628661280265
 31
0.0
  0
LINE
  5
262
330
2
100
AcDbEntity
  8
GAIKEI
  6
Continuous
 62
     1
100
AcDbLine
 10
-39.64341297366494
 20
31.87656071288248
 30
0.0
 11
-39.5080128237191
 21
31.74116056293681
 31
0.0
  0
LINE
  5
263
330
2
100
AcDbEntity
  8
GAIKEI
  6
Continuous
 62
     1
100
AcDbLine
 10
-39.5080128237191
 20
-3.788587322851498
 30
0.0
 11
-39.64341297366494
 21
-3.923987472797278
 31
0.0
  0
LINE
  5
264
330
2
100
AcDbEntity
  8
GAIKEI
  6
Continuous
 62
     1
100
AcDbLine
 10
-39.44368707374483
 20
-4.123713372717332
 30
0.0
 11
-39.30828692379899
 21
-3.988313222771552
 31
0.0
  0
LINE
  5
265
330
2
100
AcDbEntity
  8
GAIKEI
  6
Continuous
100
AcDbLine
 10
-39.44368707374483
 20
32.07628661280265
 30
0.0
 11
20.656861102215
 21
32.07628661280265
 31
0.0
  0
LINE
  5
266
330
2
100
AcDbEntity
  8
GAIKEI
  6
Continuous
100
AcDbLine
 10
-39.64341297366494
 20
31.87656071288248
 30
0.0
 11
-39.64341297366494
 21
-3.923987472797278
 31
0.0
  0
LINE
  5
267
330
2
100
AcDbEntity
  8
GAIKEI
  6
Continuous
100
AcDbLine
 10
-39.44368707374483
 20
-4.123713372717332
 30
0.0
 11
20.656861102215
 21
-4.123713372717332
 31
0.0
  0
ELLIPSE
  5
268
330
2
100
AcDbEntity
  8
GAIKEI
  6
Continuous
 62
     1
100
AcDbEllipse
 10
-37.60956907447846
 20
30.07994271360102
 30
0.0
 11
-0.159535404709199
 21
0.1595354047089534
 31
0.0
210
0.0
220
0.0
230
1.0
 40
0.9972649999999998
 41
5.499156671651721
 42
7.067213942705842
  0
ELLIPSE
  5
269
330
2
100
AcDbEntity
  8
GAIKEI
  6
Continuous
 62
     1
100
AcDbEllipse
 10
-37.60956907447846
 20
-2.12736947351604
 30
0.0
 11
-0.1595354047091879
 21
-0.1595354047089651
 31
0.0
210
0.0
220
0.0
230
1.0
 40
0.9972649999999999
 41
5.499156671653361
 42
7.067213942707414
  0
ELLIPSE
  5
26A
330
2
100
AcDbEntity
  8
GAIKEI
  6
Continuous
 62
     1
100
AcDbEllipse
 10
-36.72850847483088
 20
-3.598617872927519
 30
0.0
 11
-0.0178124651901289
 21
0.0178124651901336
 31
0.0
210
0.0
220
0.0
230
1.0
 40
0.9924329999999997
 41
2.359992588465599
 42
3.923192718713108
  0
ELLIPSE
  5
26B
330
2
100
AcDbEntity
  8
GAIKEI
  6
Continuous
 62
     1
100
AcDbEllipse
 10
-36.72850847483088
 20
-3.298808873047363
 30
0.0
 11
-0.0178124651901247
 21
-0.017812465190138
 31
0.0
210
0.0
220
0.0
230
1.0
 40
0.9924329999999999
 41
2.359992588465041
 42
3.923192718713587
  0
ELLIPSE
  5
26C
330
2
100
AcDbEntity
  8
GAIKEI
  6
Continuous
 62
     1
100
AcDbEllipse
 10
-37.02831747471098
 20
-3.298808873047477
 30
0.0
 11
-0.0178124651901339
 21
0.0178124651901291
 31
0.0
210
0.0
220
0.0
230
1.0
 40
0.9924329999999999
 41
5.501585242053079
 42
7.064785372305734
  0
ELLIPSE
  5
26D
330
2
100
AcDbEntity
  8
GAIKEI
  6
Continuous
 62
     1
100
AcDbEllipse
 10
-37.02831747471098
 20
-3.598617872927519
 30
0.0
 11
-0.0178124651901381
 21
-0.0178124651901247
 31
0.0
210
0.0
220
0.0
230
1.0
 40
0.9924329999999999
 41
5.501585242054793
 42
7.064785372306292
  0
ELLIPSE
  5
26E
330
2
100
AcDbEntity
  8
GAIKEI
  6
Continuous
 62
     1
100
AcDbEllipse
 10
-38.72193252403352
 20
31.15480616317123
 30
0.0
 11
-0.5021965241687404
 21
0.5021965241687347
 31
0.0
210
0.0
220
0.0
230
1.0
 40
0.49281
 41
5.87222130213647
 42
6.694149312222702
  0
ELLIPSE
  5
26F
330
2
100
AcDbEntity
  8
GAIKEI
  6
Continuous
 62
     1
100
AcDbEllipse
 10
-38.72193252403346
 20
-3.202232923086029
 30
0.0
 11
-0.5021965241687356
 21
-0.502196524168813
 31
0.0
210
0.0
220
0.0
230
1.0
 40
0.49281
 41
5.872221302136444
 42
6.694149312222707
  0
ELLIPSE
  5
270
330
2
100
AcDbEntity
  8
GAIKEI
  6
Continuous
 62
     1
100
AcDbEllipse
 10
-37.60357797448083
 20
30.07193041360429
 30
0.0
 11
-0.0740370952919559
 21
-0.0126634681883976
 31
0.0
210
0.0
220
0.0
230
1.0
 40
0.9955150000000001
 41
4.54223752580752
 42
5.307209071653165
  0
ELLIPSE
  5
271
330
2
100
AcDbEntity
  8
GAIKEI
  6
Continuous
 62
     1
100
AcDbEllipse
 10
-37.60155677448163
 20
-2.121378373518354
 30
0.0
 11
-0.0126634681884195
 21
0.0740370952919524
 31
0.0
210
0.0
220
0.0
230
1.0
 40
0.9955149999999999
 41
1.400644872217396
 42
2.165616418062327
  0
ELLIPSE
  5
272
330
2
100
AcDbEntity
  8
GAIKEI
  6
Continuous
 62
     1
100
AcDbEllipse
 10
-37.60155677448163
 20
30.07395161360344
 30
0.0
 11
-0.012663468188404
 21
-0.0740370952919547
 31
0.0
210
0.0
220
0.0
230
1.0
 40
0.9955149999999997
 41
4.117568889119865
 42
4.882540434962009
  0
ELLIPSE
  5
273
330
2
100
AcDbEntity
  8
GAIKEI
  6
Continuous
 62
     1
100
AcDbEllipse
 10
-37.60357797448083
 20
-2.119357173519205
 30
0.0
 11
-0.0740370952919559
 21
0.0126634681883972
 31
0.0
210
0.0
220
0.0
230
1.0
 40
0.9955149999999999
 41
0.9759762355291181
 42
1.740947781372067
  0
ELLIPSE
  5
274
330
2
100
AcDbEntity
  8
GAIKEI
  6
Continuous
 62
     1
100
AcDbEllipse
 10
-36.97757267473131
 20
29.44390391385551
 30
0.0
 11
-0.0866320186582728
 21
0.1272290693382462
 31
0.0
210
0.0
220
0.0
230
1.0
 40
0.9735809999999998
 41
5.69777769105948
 42
6.456692423303279
  0
ELLIPSE
  5
275
330
2
100
AcDbEntity
  8
GAIKEI
  6
Continuous
 62
     1
100
AcDbEllipse
 10
-36.97353027473289
 20
-1.495373073768831
 30
0.0
 11
-0.1272290693381955
 21
-0.0866320186583462
 31
0.0
210
0.0
220
0.0
230
1.0
 40
0.9735809999999997
 41
5.697777691058886
 42
6.456692423302397
  0
ELLIPSE
  5
276
330
2
100
AcDbEntity
  8
GAIKEI
  6
Continuous
 62
     1
100
AcDbEllipse
 10
-36.97353027473289
 20
29.44794631385392
 30
0.0
 11
-0.1272290693382015
 21
0.0866320186583368
 31
0.0
210
0.0
220
0.0
230
1.0
 40
0.9735809999999998
 41
6.109678191058712
 42
6.868592923300215
  0
ELLIPSE
  5
277
330
2
100
AcDbEntity
  8
GAIKEI
  6
Continuous
 62
     1
100
AcDbEllipse
 10
-36.97757267473125
 20
-1.49133067377042
 30
0.0
 11
-0.0866320186582643
 21
-0.127229069338253
 31
0.0
210
0.0
220
0.0
230
1.0
 40
0.973581
 41
6.10967819105908
 42
6.868592923299293
  0
ELLIPSE
  5
278
330
2
100
AcDbEntity
  8
GAIKEI
  6
Continuous
 62
     1
100
AcDbEllipse
 10
-36.96516197473622
 20
29.43553561385889
 30
0.0
 11
-0.0717687987905402
 21
0.0717687987905878
 31
0.0
210
0.0
220
0.0
230
1.0
 40
0.9852570000000001
 41
5.505213485255321
 42
7.061157129105444
  0
ELLIPSE
  5
279
330
2
100
AcDbEntity
  8
GAIKEI
  6
Continuous
 62
     1
100
AcDbEllipse
 10
-36.96516197473622
 20
-1.482962373773688
 30
0.0
 11
-0.0717687987905345
 21
-0.071768798790594
 31
0.0
210
0.0
220
0.0
230
1.0
 40
0.985257
 41
5.505213485254125
 42
7.061157129104256
  0
ELLIPSE
  5
27A
330
2
100
AcDbEntity
  8
GAIKEI
  6
Continuous
100
AcDbEllipse
 10
-39.44313852374504
 20
31.87601216288263
 30
0.0
 11
-0.1418092486302778
 21
0.1418092486303013
 31
0.0
210
0.0
220
0.0
230
1.0
 40
0.9972649999999999
 41
5.499156671652713
 42
7.067213942706739
  0
ELLIPSE
  5
27B
330
2
100
AcDbEntity
  8
GAIKEI
  6
Continuous
100
AcDbEllipse
 10
-39.44313852374504
 20
-3.923438922797544
 30
0.0
 11
-0.1418092486302894
 21
-0.1418092486302897
 31
0.0
210
0.0
220
0.0
230
1.0
 40
0.9972649999999999
 41
5.499156671652512
 42
7.067213942706579
  0
TEXT
  5
27C
330
2
100
AcDbEntity
  8
MOJI1
100
AcDbText
 10
-22.36065659638734
 20
-23.40120641240174
 30
0.0
 40
3.0
  1
４６０Ｗ
100
AcDbText
  0
TEXT
  5
27D
330
2
100
AcDbEntity
  8
MOJI1
100
AcDbText
 10
-22.36065659638734
 20
-28.40120641240174
 30
0.0
 40
3.0
  1
５０型（１２６８ｃｍ）１６：９
100
AcDbText
  0
TEXT
  5
27E
330
2
100
AcDbEntity
  8
MOJI1
100
AcDbText
 10
-22.36065659638734
 20
-38.40120641240174
 30
0.0
 40
3.0
  1
５００００００：１
100
AcDbText
  0
LINE
  5
27F
330
2
100
AcDbEntity
  8
WAKU
 62
     1
100
AcDbLine
 10
-63.86065659638735
 20
-24.40120641240174
 30
0.0
 11
61.13934340361243
 21
-24.40120641240174
 31
0.0
  0
LINE
  5
281
330
2
100
AcDbEntity
  8
WAKU
 62
     1
100
AcDbLine
 10
-63.86065659638735
 20
-34.40120641240174
 30
0.0
 11
61.13934340361243
 21
-34.40120641240174
 31
0.0
  0
LINE
  5
282
330
2
100
AcDbEntity
  8
WAKU
 62
     4
100
AcDbLine
 10
-63.86065659638735
 20
-14.40120641240173
 30
0.0
 11
61.13934340361243
 21
-14.40120641240173
 31
0.0
  0
LINE
  5
283
330
2
100
AcDbEntity
  8
WAKU
 62
     1
100
AcDbLine
 10
-63.86065659638735
 20
-19.40120641240173
 30
0.0
 11
61.13934340361243
 21
-19.40120641240173
 31
0.0
  0
LINE
  5
284
330
2
100
AcDbEntity
  8
WAKU
 62
     1
100
AcDbLine
 10
-63.86065659638735
 20
-29.40120641240174
 30
0.0
 11
61.13934340361243
 21
-29.40120641240174
 31
0.0
  0
LINE
  5
285
330
2
100
AcDbEntity
  8
WAKU
 62
     1
100
AcDbLine
 10
-63.86065659638735
 20
-39.40120641240174
 30
0.0
 11
61.13934340361243
 21
-39.40120641240174
 31
0.0
  0
LINE
  5
286
330
2
100
AcDbEntity
  8
WAKU
 62
     1
100
AcDbLine
 10
-63.86065659638735
 20
-44.40120641240173
 30
0.0
 11
61.13934340361243
 21
-44.40120641240173
 31
0.0
  0
LINE
  5
287
330
2
100
AcDbEntity
  8
WAKU
 62
     4
100
AcDbLine
 10
61.13934340361243
 20
-59.40120641240174
 30
0.0
 11
-63.86065659638735
 21
-59.40120641240174
 31
0.0
  0
TEXT
  5
288
330
2
100
AcDbEntity
  8
MOJI1
100
AcDbText
 10
-22.36065659638734
 20
-33.40120641240174
 30
0.0
 40
3.0
  1
１９２０×１０８０画素
100
AcDbText
  0
TEXT
  5
289
330
2
100
AcDbEntity
  8
MOJI1
100
AcDbText
 10
-22.36065659638734
 20
-43.40120641240173
 30
0.0
 40
3.0
  1
ＲＣＡ×２(左右)
100
AcDbText
  0
TEXT
  5
28A
330
2
100
AcDbEntity
  8
MOJI1
100
AcDbText
 10
-22.36065659638734
 20
-18.40120641240173
 30
0.0
 40
3.0
  1
ＡＣ１００Ｖ　５０Ｈｚ／６０Ｈｚ
100
AcDbText
  0
TEXT
  5
28B
330
2
100
AcDbEntity
  8
MOJI1
100
AcDbText
 10
-22.36065659638734
 20
-48.40120641240173
 30
0.0
 40
3.0
  1
ビデオ入力、ＲＧＢ／コンポーネントビデオ入力、ＨＤＭＩ入力
 41
0.7800000000000001
100
AcDbText
  0
LINE
  5
28C
330
2
100
AcDbEntity
  8
WAKU
 62
     4
100
AcDbLine
 10
-23.86065659638757
 20
-14.40120641240173
 30
0.0
 11
-23.86065659638757
 21
-59.40120641240174
 31
0.0
  0
LINE
  5
28D
330
2
100
AcDbEntity
  8
WAKU
 62
     4
100
AcDbLine
 10
-63.86065659638757
 20
-14.40120641240173
 30
0.0
 11
-63.86065659638735
 21
-59.40120641240174
 31
0.0
  0
TEXT
  5
28E
330
2
100
AcDbEntity
  8
MOJI1
100
AcDbText
 10
-61.36065659638735
 20
-28.40120641240174
 30
0.0
 40
3.0
  1
画面サイズ
100
AcDbText
  0
TEXT
  5
28F
330
2
100
AcDbEntity
  8
MOJI1
100
AcDbText
 10
-61.36065659638735
 20
-38.40120641240174
 30
0.0
 40
3.0
  1
コントラスト
100
AcDbText
  0
TEXT
  5
290
330
2
100
AcDbEntity
  8
MOJI1
100
AcDbText
 10
-61.36065659638735
 20
-43.40120641240173
 30
0.0
 40
3.0
  1
音声出力
100
AcDbText
  0
TEXT
  5
291
330
2
100
AcDbEntity
  8
MOJI1
100
AcDbText
 10
-61.36065659638735
 20
-23.40120641240174
 30
0.0
 40
3.0
  1
消費電力
100
AcDbText
  0
TEXT
  5
292
330
2
100
AcDbEntity
  8
MOJI1
100
AcDbText
 10
-61.36065659638735
 20
-18.40120641240173
 30
0.0
 40
3.0
  1
電  源
100
AcDbText
  0
TEXT
  5
293
330
2
100
AcDbEntity
  8
MOJI1
100
AcDbText
 10
-61.36065659638735
 20
-33.40120641240174
 30
0.0
 40
3.0
  1
画素数
100
AcDbText
  0
LINE
  5
294
330
2
100
AcDbEntity
  8
WAKU
 62
     4
100
AcDbLine
 10
61.13934340361243
 20
-14.40120641240173
 30
0.0
 11
61.13934340361243
 21
-59.40120641240174
 31
0.0
  0
TEXT
  5
295
330
2
100
AcDbEntity
  8
MOJI1
100
AcDbText
 10
-22.36065659638734
 20
-53.40120641240173
 30
0.0
 40
3.0
  1
ＤＶＩ入力、ＰＣ入力、ＬＡＮ、ＲＳ２３２Ｃ、スロット２．０
 41
0.7900000000000001
100
AcDbText
  0
LINE
  5
296
330
2
100
AcDbEntity
  8
WAKU
 62
     1
100
AcDbLine
 10
-63.86065659638735
 20
-49.40120641240174
 30
0.0
 11
61.13934340361243
 21
-49.40120641240174
 31
0.0
  0
TEXT
  5
297
330
2
100
AcDbEntity
  8
MOJI1
100
AcDbText
 10
-61.36065659638735
 20
-48.40120641240173
 30
0.0
 40
3.0
  1
入出力端子
100
AcDbText
  0
LINE
  5
298
330
2
100
AcDbEntity
  8
WAKU
 62
     1
100
AcDbLine
 10
-63.86065659638735
 20
-54.40120641240174
 30
0.0
 11
61.13934340361243
 21
-54.40120641240174
 31
0.0
  0
TEXT
  5
299
330
2
100
AcDbEntity
  8
MOJI1
100
AcDbText
 10
-22.36065659638734
 20
-58.40120641240173
 30
0.0
 40
3.0
  1
約３１．０ ｋｇ
100
AcDbText
  0
TEXT
  5
29A
330
2
100
AcDbEntity
  8
MOJI1
100
AcDbText
 10
-61.36065659638735
 20
-58.40120641240173
 30
0.0
 40
3.0
  1
質　量
100
AcDbText
  0
MTEXT
  5
29B
330
2
100
AcDbEntity
  8
SUNPO
100
AcDbMText
 10
55.05337759810759
 20
41.81831031859215
 30
0.0
 40
2.5
 41
0.0
 71
     5
 72
     1
  1
20
 73
     1
 44
1.0
1001
ACAD
1000
MTEXTBEGIN
1070
    73
1070
     1
1070
    44
1040
1.0
1070
    74
1070
     0
1000
MTEXTEND
  0
INSERT
  5
29C
330
2
100
AcDbEntity
  8
SUNPO
100
AcDbBlockReference
  2
_OPEN30
 10
45.97004426477427
 20
40.06831031859215
 30
0.0
 41
2.0
 42
2.0
 43
2.0
 50
180.0
  0
LINE
  5
29D
330
2
100
AcDbEntity
  8
SUNPO
100
AcDbLine
 10
44.99504426487201
 20
40.06831031859215
 30
0.0
 11
45.97004426477427
 21
40.06831031859215
 31
0.0
  0
LINE
  5
29E
330
2
100
AcDbEntity
  8
SUNPO
100
AcDbLine
 10
47.97004426477427
 20
40.06831031859215
 30
0.0
 11
60.13671093144096
 21
40.06831031859215
 31
0.0
  0
LINE
  5
29F
330
2
100
AcDbEntity
  8
SUNPO
100
AcDbLine
 10
42.99504426487202
 20
40.06831031859215
 30
0.0
 11
40.99504426487202
 21
40.06831031859215
 31
0.0
  0
LINE
  5
2A0
330
2
100
AcDbEntity
  8
SUNPO
100
AcDbLine
 10
45.97004426477427
 20
34.07484282315122
 30
0.0
 11
45.97004426477427
 21
42.06831031859215
 31
0.0
  0
LINE
  5
2A1
330
2
100
AcDbEntity
  8
SUNPO
100
AcDbLine
 10
44.99504426487201
 20
34.07484282315122
 30
0.0
 11
44.99504426487201
 21
42.06831031859215
 31
0.0
  0
CIRCLE
  5
2A2
330
2
100
AcDbEntity
  8
SUNPO
100
AcDbCircle
 10
44.99504426487201
 20
40.06831031859215
 30
0.0
 40
0.2429999999756999
  0
LINE
  5
2A3
330
2
100
AcDbEntity
  8
SUNPO
100
AcDbLine
 10
44.75294855027776
 20
40.04736598849317
 30
0.0
 11
45.23713997946628
 21
40.04736598849317
 31
0.0
  0
LINE
  5
2A4
330
2
100
AcDbEntity
  8
SUNPO
100
AcDbLine
 10
44.75323788626717
 20
40.09236598848869
 30
0.0
 11
45.23685064347692
 21
40.09236598848869
 31
0.0
  0
LINE
  5
2A5
330
2
100
AcDbEntity
  8
SUNPO
100
AcDbLine
 10
44.86309623124292
 20
40.27236598847062
 30
0.0
 11
45.12699229850123
 21
40.27236598847062
 31
0.0
  0
LINE
  5
2A6
330
2
100
AcDbEntity
  8
SUNPO
100
AcDbLine
 10
44.8113317343625
 20
40.22736598847515
 30
0.0
 11
45.17875679538166
 21
40.22736598847515
 31
0.0
  0
LINE
  5
2A7
330
2
100
AcDbEntity
  8
SUNPO
100
AcDbLine
 10
44.780474220004
 20
40.18236598847974
 30
0.0
 11
45.20961430974016
 21
40.18236598847974
 31
0.0
  0
LINE
  5
2A8
330
2
100
AcDbEntity
  8
SUNPO
100
AcDbLine
 10
44.76206290414983
 20
40.13736598848416
 30
0.0
 11
45.22802562559421
 21
40.13736598848416
 31
0.0
  0
LINE
  5
2A9
330
2
100
AcDbEntity
  8
SUNPO
100
AcDbLine
 10
44.76116321536913
 20
40.00236598849769
 30
0.0
 11
45.22892531437501
 21
40.00236598849769
 31
0.0
  0
LINE
  5
2AA
330
2
100
AcDbEntity
  8
SUNPO
100
AcDbLine
 10
44.77884908544136
 20
39.95736598850218
 30
0.0
 11
45.21123944430279
 21
39.95736598850218
 31
0.0
  0
LINE
  5
2AB
330
2
100
AcDbEntity
  8
SUNPO
100
AcDbLine
 10
44.80868341624123
 20
39.91236598850665
 30
0.0
 11
45.18140511350281
 21
39.91236598850665
 31
0.0
  0
LINE
  5
2AC
330
2
100
AcDbEntity
  8
SUNPO
100
AcDbLine
 10
44.85840467984449
 20
39.86736598851124
 30
0.0
 11
45.13168384989966
 21
39.86736598851124
 31
0.0
  0
MTEXT
  5
2AD
330
2
100
AcDbEntity
  8
SUNPO
100
AcDbMText
 10
33.96171093153872
 20
41.81831031859215
 30
0.0
 40
2.5
 41
0.0
 71
     5
 72
     1
  1
\A1;89
 73
     1
 44
1.0
1001
ACAD
1000
MTEXTBEGIN
1070
    73
1070
     1
1070
    44
1040
1.0
1070
    74
1070
     0
1000
MTEXTEND
  0
INSERT
  5
2AE
330
2
100
AcDbEntity
  8
SUNPO
100
AcDbBlockReference
  2
_OPEN30
 10
40.54504426487203
 20
40.06831031859215
 30
0.0
 41
2.0
 42
2.0
 43
2.0
  0
LINE
  5
2AF
330
2
100
AcDbEntity
  8
SUNPO
100
AcDbLine
 10
44.99504426487201
 20
40.06831031859215
 30
0.0
 11
40.54504426487203
 21
40.06831031859215
 31
0.0
  0
LINE
  5
2B0
330
2
100
AcDbEntity
  8
SUNPO
100
AcDbLine
 10
38.54504426487203
 20
40.06831031859215
 30
0.0
 11
31.37837759820535
 21
40.06831031859215
 31
0.0
  0
LINE
  5
2B1
330
2
100
AcDbEntity
  8
SUNPO
100
AcDbLine
 10
46.99504426487202
 20
40.06831031859215
 30
0.0
 11
48.99504426487202
 21
40.06831031859215
 31
0.0
  0
LINE
  5
2B2
330
2
100
AcDbEntity
  8
SUNPO
100
AcDbLine
 10
40.54504426487203
 20
34.07484282315122
 30
0.0
 11
40.54504426487203
 21
42.06831031859215
 31
0.0
  0
LINE
  5
2B3
330
2
100
AcDbEntity
  8
SUNPO
100
AcDbLine
 10
44.99504426487201
 20
34.07484282315122
 30
0.0
 11
44.99504426487201
 21
42.06831031859215
 31
0.0
  0
DIMENSION
  5
2B4
330
2
100
AcDbEntity
  8
SUNPO
100
AcDbDimension
  2
*D10
 10
-47.79232410497809
 20
32.06859676294349
 30
0.0
 11
-49.5423241049781
 21
37.90193009627682
 31
0.0
 70
    33
  1
133
 71
     5
 42
6.64615506783042
  3
STANDARD
100
AcDbAlignedDimension
 13
-39.79232410497809
 23
25.42244169511306
 33
0.0
 14
-39.79232410497809
 24
32.06859676294349
 34
0.0
1001
ACAD
1000
DSTYLE
1002
{
1070
    40
1040
1.0
1070
   140
1040
2.5
1070
   147
1040
0.5
1070
   172
1070
     1
1070
   279
1070
     0
1070
   288
1070
     0
1002
}
  0
DIMENSION
  5
2C2
330
2
100
AcDbEntity
  8
SUNPO
100
AcDbDimension
  2
*D9
 10
-47.79232410497809
 20
-4.12371337271733
 30
0.0
 11
-49.54232410497809
 21
-9.95704670605067
 31
0.0
 70
    33
  1
106
 71
     5
 42
5.296155067830454
  3
STANDARD
100
AcDbAlignedDimension
 13
-39.79232410497809
 23
1.172441695113121
 33
0.0
 14
-39.79232410497809
 24
-4.123713372717332
 34
0.0
1001
ACAD
1000
DSTYLE
1002
{
1070
    40
1040
1.0
1070
   140
1040
2.5
1070
   147
1040
0.5
1070
   172
1070
     1
1070
   279
1070
     0
1070
   288
1070
     0
1002
}
  0
DIMENSION
  5
2D0
330
2
100
AcDbEntity
  8
SUNPO
100
AcDbDimension
  2
*D8
 10
-47.79232410497809
 20
1.172441695113124
 30
0.0
 11
-49.54232410497809
 21
13.29744169511307
 31
0.0
 70
    33
  1
485
 71
     5
 42
24.24999999999992
  3
STANDARD
100
AcDbAlignedDimension
 13
-39.79232410497809
 23
25.42244169511304
 33
0.0
 14
-39.79232410497809
 24
1.172441695113121
 34
0.0
1001
ACAD
1000
DSTYLE
1002
{
1070
    40
1040
1.0
1070
   140
1040
2.5
1070
   147
1040
0.5
1070
   172
1070
     1
1070
   279
1070
     0
1070
   288
1070
     0
1002
}
  0
DIMENSION
  5
2DD
330
2
100
AcDbEntity
  8
SUNPO
100
AcDbDimension
  2
*D7
 10
4.356587014235073
 20
-12.19287428337375
 30
0.0
 11
-9.393412985764925
 21
-10.44287428337375
 31
0.0
 70
    33
  1
550
 71
     5
 42
27.5
  3
STANDARD
100
AcDbAlignedDimension
 13
-23.14341298576493
 23
-4.192874283373782
 33
0.0
 14
4.356587014235074
 24
-4.192874283373754
 34
0.0
1001
ACAD
1000
DSTYLE
1002
{
1070
    40
1040
1.0
1070
   140
1040
2.5
1070
   147
1040
0.5
1070
   172
1070
     1
1070
   279
1070
     0
1070
   288
1070
     0
1002
}
  0
LINE
  5
2EA
330
2
100
AcDbEntity
  8
S1
  6
HIDDEN2
 62
     3
100
AcDbLine
 10
1.581587014235097
 20
23.17244169511306
 30
0.0
 11
1.581587014235097
 21
23.27244169511306
 31
0.0
  0
LINE
  5
2EC
330
2
100
AcDbEntity
  8
S1
  6
HIDDEN2
 62
     3
100
AcDbLine
 10
-20.36841298576495
 20
23.17244169511306
 30
0.0
 11
-20.36841298576495
 21
23.27244169511306
 31
0.0
  0
LINE
  5
2ED
330
2
100
AcDbEntity
  8
S1
  6
HIDDEN2
 62
     3
100
AcDbLine
 10
3.856587014235074
 20
23.17244169511306
 30
0.0
 11
3.856587014235074
 21
23.27244169511306
 31
0.0
  0
LINE
  5
2EE
330
2
100
AcDbEntity
  8
S1
  6
HIDDEN2
 62
     3
100
AcDbLine
 10
-0.3684129857649481
 20
23.17244169511306
 30
0.0
 11
-0.3684129857649481
 21
23.27244169511306
 31
0.0
  0
LINE
  5
2EF
330
2
100
AcDbEntity
  8
S1
  6
HIDDEN2
 62
     3
100
AcDbLine
 10
3.606587014235074
 20
24.37244169511306
 30
0.0
 11
1.606587014235074
 21
24.37244169511306
 31
0.0
  0
LINE
  5
2F0
330
2
100
AcDbEntity
  8
S1
  6
HIDDEN2
 62
     3
100
AcDbLine
 10
3.606587014235074
 20
24.72244169511308
 30
0.0
 11
1.606587014235074
 21
24.72244169511308
 31
0.0
  0
ARC
  5
2F1
330
2
100
AcDbEntity
  8
S1
  6
HIDDEN2
 62
     3
100
AcDbCircle
 10
3.606587014235074
 20
24.54744169511307
 30
0.0
 40
0.175
100
AcDbArc
 50
270.0
 51
90.0
  0
ARC
  5
2F2
330
2
100
AcDbEntity
  8
S1
  6
HIDDEN2
 62
     3
100
AcDbCircle
 10
1.606587014235074
 20
24.54744169511307
 30
0.0
 40
0.175
100
AcDbArc
 50
90.0
 51
270.0
  0
LINE
  5
2F3
330
2
100
AcDbEntity
  8
S1
  6
HIDDEN2
 62
     3
100
AcDbLine
 10
2.156587014235029
 20
24.12244169511306
 30
0.0
 11
2.156587014235029
 21
23.72244169511308
 31
0.0
  0
LINE
  5
2F4
330
2
100
AcDbEntity
  8
S1
  6
HIDDEN2
 62
     3
100
AcDbLine
 10
2.956587014235097
 20
24.12244169511306
 30
0.0
 11
2.956587014235097
 21
23.72244169511308
 31
0.0
  0
LINE
  5
2F5
330
2
100
AcDbEntity
  8
S1
  6
HIDDEN2
 62
     3
100
AcDbLine
 10
4.356587014235074
 20
23.92244169511307
 30
0.0
 11
2.956587014235097
 21
23.92244169511307
 31
0.0
  0
LINE
  5
2F6
330
2
100
AcDbEntity
  8
S1
  6
HIDDEN2
 62
     3
100
AcDbLine
 10
4.356587014235074
 20
24.02244169511306
 30
0.0
 11
2.956587014235097
 21
24.02244169511306
 31
0.0
  0
LINE
  5
2F7
330
2
100
AcDbEntity
  8
S1
  6
HIDDEN2
 62
     3
100
AcDbLine
 10
2.956587014235097
 20
23.72244169511308
 30
0.0
 11
2.156587014235029
 21
23.72244169511308
 31
0.0
  0
LINE
  5
2F8
330
2
100
AcDbEntity
  8
S1
  6
HIDDEN2
 62
     3
100
AcDbLine
 10
2.956587014235097
 20
24.12244169511306
 30
0.0
 11
2.156587014235029
 21
24.12244169511306
 31
0.0
  0
LINE
  5
2F9
330
2
100
AcDbEntity
  8
S1
  6
HIDDEN2
 62
     3
100
AcDbLine
 10
-0.868412985764948
 20
23.27244169511306
 30
0.0
 11
-0.868412985764948
 21
23.17244169511306
 31
0.0
  0
LINE
  5
2FA
330
2
100
AcDbEntity
  8
S1
  6
HIDDEN2
 62
     3
100
AcDbLine
 10
-0.5684129857649367
 20
23.27244169511306
 30
0.0
 11
-0.5684129857649367
 21
23.17244169511306
 31
0.0
  0
LINE
  5
2FB
330
2
100
AcDbEntity
  8
S1
  6
HIDDEN2
 62
     3
100
AcDbLine
 10
1.781587014235029
 20
23.27244169511306
 30
0.0
 11
1.781587014235029
 21
23.17244169511306
 31
0.0
  0
LINE
  5
2FC
330
2
100
AcDbEntity
  8
S1
  6
HIDDEN2
 62
     3
100
AcDbLine
 10
2.081587014235097
 20
23.27244169511306
 30
0.0
 11
2.081587014235097
 21
23.17244169511306
 31
0.0
  0
LINE
  5
2FD
330
2
100
AcDbEntity
  8
S1
  6
HIDDEN2
 62
     3
100
AcDbLine
 10
-1.743412985764948
 20
24.12244169511306
 30
0.0
 11
-1.743412985764948
 21
23.72244169511308
 31
0.0
  0
LINE
  5
2FE
330
2
100
AcDbEntity
  8
S1
  6
HIDDEN2
 62
     3
100
AcDbLine
 10
-0.9434129857649367
 20
24.12244169511306
 30
0.0
 11
-0.9434129857649367
 21
23.72244169511308
 31
0.0
  0
LINE
  5
2FF
330
2
100
AcDbEntity
  8
S1
  6
HIDDEN2
 62
     3
100
AcDbLine
 10
-1.743412985764948
 20
23.72244169511308
 30
0.0
 11
-0.9434129857649367
 21
23.72244169511308
 31
0.0
  0
LINE
  5
300
330
2
100
AcDbEntity
  8
S1
  6
HIDDEN2
 62
     3
100
AcDbLine
 10
-1.743412985764948
 20
24.12244169511306
 30
0.0
 11
-0.9434129857649367
 21
24.12244169511306
 31
0.0
  0
LINE
  5
301
330
2
100
AcDbEntity
  8
S1
  6
HIDDEN2
 62
     3
100
AcDbLine
 10
-0.9434129857649367
 20
24.02244169511306
 30
0.0
 11
2.156587014235029
 21
24.02244169511306
 31
0.0
  0
LINE
  5
302
330
2
100
AcDbEntity
  8
S1
  6
HIDDEN2
 62
     3
100
AcDbLine
 10
-0.9434129857649367
 20
23.92244169511307
 30
0.0
 11
2.156587014235029
 21
23.92244169511307
 31
0.0
  0
LINE
  5
303
330
2
100
AcDbEntity
  8
S1
  6
HIDDEN2
 62
     3
100
AcDbLine
 10
4.356587014235074
 20
23.17244169511306
 30
0.0
 11
4.356587014235074
 21
25.42244169511306
 31
0.0
  0
LINE
  5
304
330
2
100
AcDbEntity
  8
S1
  6
HIDDEN2
 62
     3
100
AcDbLine
 10
-9.062845285764964
 20
23.92244169511307
 30
0.0
 11
-1.743412985764948
 21
23.92244169511307
 31
0.0
  0
LINE
  5
305
330
2
100
AcDbEntity
  8
S1
  6
HIDDEN2
 62
     3
100
AcDbLine
 10
-9.043412985764902
 20
24.02244169511306
 30
0.0
 11
-1.743412985764948
 21
24.02244169511306
 31
0.0
  0
LINE
  5
306
330
2
100
AcDbEntity
  8
S1
  6
HIDDEN2
 62
     3
100
AcDbLine
 10
-9.393412985764925
 20
25.32244169511307
 30
0.0
 11
4.356587014235074
 21
25.32244169511307
 31
0.0
  0
LINE
  5
307
330
2
100
AcDbEntity
  8
S1
  6
HIDDEN2
 62
     3
100
AcDbLine
 10
-9.393412985764925
 20
23.27244169511306
 30
0.0
 11
4.356587014235074
 21
23.27244169511306
 31
0.0
  0
LINE
  5
308
330
2
100
AcDbEntity
  8
S1
  6
HIDDEN2
 62
     3
100
AcDbLine
 10
-9.393412985764925
 20
23.17244169511306
 30
0.0
 11
4.356587014235074
 21
23.17244169511306
 31
0.0
  0
LINE
  5
309
330
2
100
AcDbEntity
  8
S1
  6
HIDDEN2
 62
     3
100
AcDbLine
 10
-9.393412985764925
 20
25.42244169511306
 30
0.0
 11
4.356587014235074
 21
25.42244169511306
 31
0.0
  0
LINE
  5
30A
330
2
100
AcDbEntity
  8
S1
  6
HIDDEN2
 62
     3
100
AcDbLine
 10
-23.14341298576493
 20
23.17244169511306
 30
0.0
 11
-23.14341298576493
 21
25.42244169511306
 31
0.0
  0
LINE
  5
30B
330
2
100
AcDbEntity
  8
S1
  6
HIDDEN2
 62
     3
100
AcDbLine
 10
-17.0434129857649
 20
24.12244169511306
 30
0.0
 11
-17.84341298576497
 21
24.12244169511306
 31
0.0
  0
LINE
  5
30C
330
2
100
AcDbEntity
  8
S1
  6
HIDDEN2
 62
     3
100
AcDbLine
 10
-17.0434129857649
 20
23.72244169511308
 30
0.0
 11
-17.84341298576497
 21
23.72244169511308
 31
0.0
  0
LINE
  5
30D
330
2
100
AcDbEntity
  8
S1
  6
HIDDEN2
 62
     3
100
AcDbLine
 10
-17.84341298576497
 20
24.12244169511306
 30
0.0
 11
-17.84341298576497
 21
23.72244169511308
 31
0.0
  0
LINE
  5
30E
330
2
100
AcDbEntity
  8
S1
  6
HIDDEN2
 62
     3
100
AcDbLine
 10
-17.0434129857649
 20
24.12244169511306
 30
0.0
 11
-17.0434129857649
 21
23.72244169511308
 31
0.0
  0
LINE
  5
30F
330
2
100
AcDbEntity
  8
S1
  6
HIDDEN2
 62
     3
100
AcDbLine
 10
-20.86841298576495
 20
23.27244169511306
 30
0.0
 11
-20.86841298576495
 21
23.17244169511306
 31
0.0
  0
LINE
  5
310
330
2
100
AcDbEntity
  8
S1
  6
HIDDEN2
 62
     3
100
AcDbLine
 10
-20.56841298576494
 20
23.27244169511306
 30
0.0
 11
-20.56841298576494
 21
23.17244169511306
 31
0.0
  0
LINE
  5
311
330
2
100
AcDbEntity
  8
S1
  6
HIDDEN2
 62
     3
100
AcDbLine
 10
-18.21841298576497
 20
23.27244169511306
 30
0.0
 11
-18.21841298576497
 21
23.17244169511306
 31
0.0
  0
LINE
  5
312
330
2
100
AcDbEntity
  8
S1
  6
HIDDEN2
 62
     3
100
AcDbLine
 10
-17.9184129857649
 20
23.27244169511306
 30
0.0
 11
-17.9184129857649
 21
23.17244169511306
 31
0.0
  0
LINE
  5
313
330
2
100
AcDbEntity
  8
S1
  6
HIDDEN2
 62
     3
100
AcDbLine
 10
-21.74341298576495
 20
24.12244169511306
 30
0.0
 11
-20.94341298576494
 21
24.12244169511306
 31
0.0
  0
LINE
  5
314
330
2
100
AcDbEntity
  8
S1
  6
HIDDEN2
 62
     3
100
AcDbLine
 10
-21.74341298576495
 20
23.72244169511308
 30
0.0
 11
-20.94341298576494
 21
23.72244169511308
 31
0.0
  0
LINE
  5
315
330
2
100
AcDbEntity
  8
S1
  6
HIDDEN2
 62
     3
100
AcDbLine
 10
-23.14341298576493
 20
24.02244169511306
 30
0.0
 11
-21.74341298576495
 21
24.02244169511306
 31
0.0
  0
LINE
  5
316
330
2
100
AcDbEntity
  8
S1
  6
HIDDEN2
 62
     3
100
AcDbLine
 10
-23.14341298576493
 20
23.92244169511307
 30
0.0
 11
-21.74341298576495
 21
23.92244169511307
 31
0.0
  0
LINE
  5
317
330
2
100
AcDbEntity
  8
S1
  6
HIDDEN2
 62
     3
100
AcDbLine
 10
-21.74341298576495
 20
24.12244169511306
 30
0.0
 11
-21.74341298576495
 21
23.72244169511308
 31
0.0
  0
LINE
  5
318
330
2
100
AcDbEntity
  8
S1
  6
HIDDEN2
 62
     3
100
AcDbLine
 10
-20.94341298576494
 20
24.12244169511306
 30
0.0
 11
-20.94341298576494
 21
23.72244169511308
 31
0.0
  0
LINE
  5
319
330
2
100
AcDbEntity
  8
S1
  6
HIDDEN2
 62
     3
100
AcDbLine
 10
-20.94341298576494
 20
23.92244169511307
 30
0.0
 11
-17.84341298576497
 21
23.92244169511307
 31
0.0
  0
LINE
  5
31A
330
2
100
AcDbEntity
  8
S1
  6
HIDDEN2
 62
     3
100
AcDbLine
 10
-20.94341298576494
 20
24.02244169511306
 30
0.0
 11
-17.84341298576497
 21
24.02244169511306
 31
0.0
  0
LINE
  5
31B
330
2
100
AcDbEntity
  8
S1
  6
HIDDEN2
 62
     3
100
AcDbLine
 10
-9.723980685764942
 20
23.92244169511307
 30
0.0
 11
-17.0434129857649
 21
23.92244169511307
 31
0.0
  0
LINE
  5
31C
330
2
100
AcDbEntity
  8
S1
  6
HIDDEN2
 62
     3
100
AcDbLine
 10
-9.743412985764948
 20
24.02244169511306
 30
0.0
 11
-17.0434129857649
 21
24.02244169511306
 31
0.0
  0
LINE
  5
31D
330
2
100
AcDbEntity
  8
S1
  6
HIDDEN2
 62
     3
100
AcDbLine
 10
-9.393412985764925
 20
25.32244169511307
 30
0.0
 11
-23.14341298576493
 21
25.32244169511307
 31
0.0
  0
ARC
  5
31E
330
2
100
AcDbEntity
  8
S1
  6
HIDDEN2
 62
     3
100
AcDbCircle
 10
-20.39341298576493
 20
24.54744169511307
 30
0.0
 40
0.175
100
AcDbArc
 50
270.0
 51
90.0
  0
ARC
  5
31F
330
2
100
AcDbEntity
  8
S1
  6
HIDDEN2
 62
     3
100
AcDbCircle
 10
-22.39341298576492
 20
24.54744169511307
 30
0.0
 40
0.175
100
AcDbArc
 50
90.0
 51
270.0
  0
LINE
  5
320
330
2
100
AcDbEntity
  8
S1
  6
HIDDEN2
 62
     3
100
AcDbLine
 10
-22.39341298576492
 20
24.72244169511308
 30
0.0
 11
-20.39341298576493
 21
24.72244169511308
 31
0.0
  0
LINE
  5
321
330
2
100
AcDbEntity
  8
S1
  6
HIDDEN2
 62
     3
100
AcDbLine
 10
-22.39341298576492
 20
24.37244169511306
 30
0.0
 11
-20.39341298576493
 21
24.37244169511306
 31
0.0
  0
ARC
  5
322
330
2
100
AcDbEntity
  8
S1
  6
HIDDEN2
 62
     3
100
AcDbCircle
 10
-9.618412985764948
 20
24.3681605951131
 30
0.0
 40
0.05
100
AcDbArc
 50
304.2288660000121
 51
0.0
  0
ARC
  5
323
330
2
100
AcDbEntity
  8
S1
  6
HIDDEN2
 62
     3
100
AcDbCircle
 10
-9.168412985764902
 20
24.3681605951131
 30
0.0
 40
0.05
100
AcDbArc
 50
180.0
 51
235.7711339999879
  0
LINE
  5
324
330
2
100
AcDbEntity
  8
S1
  6
HIDDEN2
 62
     3
100
AcDbLine
 10
-9.393412985764925
 20
23.27244169511306
 30
0.0
 11
-23.14341298576493
 21
23.27244169511306
 31
0.0
  0
ARC
  5
325
330
2
100
AcDbEntity
  8
S1
  6
HIDDEN2
 62
     3
100
AcDbCircle
 10
-9.393412985764925
 20
24.03744169511308
 30
0.0
 40
0.35
100
AcDbArc
 50
124.2288660000121
 51
55.77113399998792
  0
LINE
  5
326
330
2
100
AcDbEntity
  8
S1
  6
HIDDEN2
 62
     3
100
AcDbLine
 10
-9.393412985764925
 20
23.17244169511306
 30
0.0
 11
-23.14341298576493
 21
23.17244169511306
 31
0.0
  0
LINE
  5
327
330
2
100
AcDbEntity
  8
S1
  6
HIDDEN2
 62
     3
100
AcDbLine
 10
-9.393412985764925
 20
25.42244169511306
 30
0.0
 11
-23.14341298576493
 21
25.42244169511306
 31
0.0
  0
LINE
  5
328
330
2
100
AcDbEntity
  8
S1
  6
HIDDEN2
 62
     3
100
AcDbLine
 10
-9.21841298576497
 20
24.3681605951131
 30
0.0
 11
-9.21841298576497
 21
24.54744169511307
 31
0.0
  0
ARC
  5
329
330
2
100
AcDbEntity
  8
S1
  6
HIDDEN2
 62
     3
100
AcDbCircle
 10
-8.643412985764925
 20
24.54744169511307
 30
0.0
 40
0.175
100
AcDbArc
 50
90.0
 51
270.0
  0
LINE
  5
32A
330
2
100
AcDbEntity
  8
S1
  6
HIDDEN2
 62
     3
100
AcDbLine
 10
-8.643412985764925
 20
24.72244169511308
 30
0.0
 11
-6.643412985764925
 21
24.72244169511308
 31
0.0
  0
LINE
  5
32B
330
2
100
AcDbEntity
  8
S1
  6
HIDDEN2
 62
     3
100
AcDbLine
 10
-8.643412985764925
 20
24.37244169511306
 30
0.0
 11
-6.643412985764925
 21
24.37244169511306
 31
0.0
  0
ARC
  5
32C
330
2
100
AcDbEntity
  8
S1
  6
HIDDEN2
 62
     3
100
AcDbCircle
 10
-6.643412985764925
 20
24.54744169511307
 30
0.0
 40
0.175
100
AcDbArc
 50
270.0
 51
90.0
  0
LINE
  5
32D
330
2
100
AcDbEntity
  8
S1
  6
HIDDEN2
 62
     3
100
AcDbLine
 10
-9.568412985764936
 20
24.3681605951131
 30
0.0
 11
-9.568412985764936
 21
24.54744169511307
 31
0.0
  0
ARC
  5
32E
330
2
100
AcDbEntity
  8
S1
  6
HIDDEN2
 62
     3
100
AcDbCircle
 10
-10.14341298576492
 20
24.54744169511307
 30
0.0
 40
0.175
100
AcDbArc
 50
270.0
 51
90.0
  0
LINE
  5
32F
330
2
100
AcDbEntity
  8
S1
  6
HIDDEN2
 62
     3
100
AcDbLine
 10
-10.14341298576492
 20
24.72244169511308
 30
0.0
 11
-12.14341298576492
 21
24.72244169511308
 31
0.0
  0
LINE
  5
330
330
2
100
AcDbEntity
  8
S1
  6
HIDDEN2
 62
     3
100
AcDbLine
 10
-10.14341298576492
 20
24.37244169511306
 30
0.0
 11
-12.14341298576492
 21
24.37244169511306
 31
0.0
  0
ARC
  5
331
330
2
100
AcDbEntity
  8
S1
  6
HIDDEN2
 62
     3
100
AcDbCircle
 10
-12.14341298576492
 20
24.54744169511307
 30
0.0
 40
0.175
100
AcDbArc
 50
90.0
 51
270.0
  0
ARC
  5
332
330
2
100
AcDbEntity
  8
S1
  6
HIDDEN2
 62
     3
100
AcDbCircle
 10
-9.393412985764925
 20
24.54744169511307
 30
0.0
 40
0.175
100
AcDbArc
 50
0.0
 51
180.0
  0
LINE
  5
333
330
2
100
AcDbEntity
  8
S1
  6
HIDDEN2
 62
     3
100
AcDbLine
 10
-18.4184129857649
 20
23.17244169511306
 30
0.0
 11
-18.4184129857649
 21
23.27244169511306
 31
0.0
  0
LINE
  5
334
330
2
100
AcDbEntity
  8
S1
  6
HIDDEN2
 62
     3
100
AcDbLine
 10
-22.64341298576493
 20
23.17244169511306
 30
0.0
 11
-22.64341298576493
 21
23.27244169511306
 31
0.0
  0
LINE
  5
335
330
2
100
AcDbEntity
  8
S1
  6
HIDDEN2
 62
     3
100
AcDbLine
 10
-14.81841298576493
 20
23.17244169511306
 30
0.0
 11
-14.81841298576493
 21
23.27244169511306
 31
0.0
  0
LINE
  5
336
330
2
100
AcDbEntity
  8
S1
  6
HIDDEN2
 62
     3
100
AcDbLine
 10
-3.34341298576497
 20
23.17244169511306
 30
0.0
 11
-3.34341298576497
 21
23.27244169511306
 31
0.0
  0
ARC
  5
337
330
2
100
AcDbEntity
  8
S1
  6
HIDDEN2
 62
     3
100
AcDbCircle
 10
0.506587014235052
 20
7.472441695113076
 30
0.0
 40
0.65
100
AcDbArc
 50
180.0
 51
235.2885059999925
  0
ARC
  5
338
330
2
100
AcDbEntity
  8
S1
  6
HIDDEN2
 62
     3
100
AcDbCircle
 10
1.219087014235029
 20
6.732614845113062
 30
0.0
 40
0.25
100
AcDbArc
 50
124.7114940000075
 51
180.0
  0
ARC
  5
339
330
2
100
AcDbEntity
  8
S1
  6
HIDDEN2
 62
     3
100
AcDbCircle
 10
-0.0059129857649367
 20
6.732614845113062
 30
0.0
 40
0.25
100
AcDbArc
 50
0.0
 51
55.28850599999251
  0
LINE
  5
33A
330
2
100
AcDbEntity
  8
S1
  6
HIDDEN2
 62
     3
100
AcDbLine
 10
1.156587014235029
 20
8.297441695113064
 30
0.0
 11
0.0565870142350633
 21
8.297441695113064
 31
0.0
  0
LINE
  5
33B
330
2
100
AcDbEntity
  8
S1
  6
HIDDEN2
 62
     3
100
AcDbLine
 10
1.356587014235074
 20
7.472441695113076
 30
0.0
 11
1.356587014235074
 21
8.377441695113077
 31
0.0
  0
LINE
  5
33C
330
2
100
AcDbEntity
  8
S1
  6
HIDDEN2
 62
     3
100
AcDbLine
 10
1.156587014235029
 20
8.377441695113077
 30
0.0
 11
0.0565870142350633
 21
8.377441695113077
 31
0.0
  0
ARC
  5
33D
330
2
100
AcDbEntity
  8
S1
  6
HIDDEN2
 62
     3
100
AcDbCircle
 10
0.7065870142350974
 20
7.472441695113076
 30
0.0
 40
0.65
100
AcDbArc
 50
304.7114940000075
 51
0.0
  0
LINE
  5
33E
330
2
100
AcDbEntity
  8
S1
  6
HIDDEN2
 62
     3
100
AcDbLine
 10
-0.1434129857649253
 20
7.472441695113076
 30
0.0
 11
-0.1434129857649253
 21
8.377441695113077
 31
0.0
  0
LINE
  5
33F
330
2
100
AcDbEntity
  8
S1
  6
HIDDEN2
 62
     3
100
AcDbLine
 10
2.356587014235074
 20
23.24744169511305
 30
0.0
 11
2.356587014235074
 21
3.347441695113076
 31
0.0
  0
LINE
  5
340
330
2
100
AcDbEntity
  8
S1
  6
HIDDEN2
 62
     3
100
AcDbLine
 10
2.251587014235056
 20
23.17244169511306
 30
0.0
 11
-1.038412985764907
 21
23.17244169511306
 31
0.0
  0
LINE
  5
341
330
2
100
AcDbEntity
  8
S1
  6
HIDDEN2
 62
     3
100
AcDbLine
 10
2.251587014235056
 20
3.422441695113064
 30
0.0
 11
-1.038412985764907
 21
3.422441695113064
 31
0.0
  0
LINE
  5
342
330
2
100
AcDbEntity
  8
S1
  6
HIDDEN2
 62
     3
100
AcDbLine
 10
1.581452164235045
 20
23.09244169511305
 30
0.0
 11
1.381587014235051
 21
23.09244169511305
 31
0.0
  0
LINE
  5
343
330
2
100
AcDbEntity
  8
S1
  6
HIDDEN2
 62
     3
100
AcDbLine
 10
2.276587014235033
 20
23.17244169511306
 30
0.0
 11
2.276587014235033
 21
23.01244169511307
 31
0.0
  0
LINE
  5
344
330
2
100
AcDbEntity
  8
S1
  6
HIDDEN2
 62
     3
100
AcDbLine
 10
2.356587014235074
 20
23.01244169511307
 30
0.0
 11
2.251587014235056
 21
23.01244169511307
 31
0.0
  0
LINE
  5
345
330
2
100
AcDbEntity
  8
S1
  6
HIDDEN2
 62
     3
100
AcDbLine
 10
2.276587014235033
 20
23.17244169511306
 30
0.0
 11
2.356587014235074
 21
23.17244169511306
 31
0.0
  0
LINE
  5
346
330
2
100
AcDbEntity
  8
S1
  6
HIDDEN2
 62
     3
100
AcDbLine
 10
2.171587014235072
 20
23.09244169511305
 30
0.0
 11
2.171587014235072
 21
23.17244169511306
 31
0.0
  0
LINE
  5
347
330
2
100
AcDbEntity
  8
S1
  6
HIDDEN2
 62
     3
100
AcDbLine
 10
2.171587014235072
 20
23.09244169511305
 30
0.0
 11
2.251587014235056
 21
23.09244169511305
 31
0.0
  0
LINE
  5
348
330
2
100
AcDbEntity
  8
S1
  6
HIDDEN2
 62
     3
100
AcDbLine
 10
2.276587014235033
 20
3.422441695113064
 30
0.0
 11
2.276587014235033
 21
3.582441695113061
 31
0.0
  0
LINE
  5
349
330
2
100
AcDbEntity
  8
S1
  6
HIDDEN2
 62
     3
100
AcDbLine
 10
2.356587014235074
 20
3.582441695113061
 30
0.0
 11
2.251587014235056
 21
3.582441695113061
 31
0.0
  0
LINE
  5
34A
330
2
100
AcDbEntity
  8
S1
  6
HIDDEN2
 62
     3
100
AcDbLine
 10
2.276587014235033
 20
3.422441695113064
 30
0.0
 11
2.356587014235074
 21
3.422441695113064
 31
0.0
  0
LINE
  5
34B
330
2
100
AcDbEntity
  8
S1
  6
HIDDEN2
 62
     3
100
AcDbLine
 10
2.171587014235072
 20
3.502441695113077
 30
0.0
 11
2.171587014235072
 21
3.422441695113064
 31
0.0
  0
LINE
  5
34C
330
2
100
AcDbEntity
  8
S1
  6
HIDDEN2
 62
     3
100
AcDbLine
 10
2.171587014235072
 20
3.502441695113077
 30
0.0
 11
2.251587014235056
 21
3.502441695113077
 31
0.0
  0
LINE
  5
34D
330
2
100
AcDbEntity
  8
S1
  6
HIDDEN2
 62
     3
100
AcDbLine
 10
2.251587014235056
 20
23.17244169511306
 30
0.0
 11
2.251587014235056
 21
23.09244169511305
 31
0.0
  0
LINE
  5
34E
330
2
100
AcDbEntity
  8
S1
  6
HIDDEN2
 62
     3
100
AcDbLine
 10
2.251587014235056
 20
3.422441695113064
 30
0.0
 11
2.251587014235056
 21
3.502441695113077
 31
0.0
  0
LINE
  5
34F
330
2
100
AcDbEntity
  8
S1
  6
HIDDEN2
 62
     3
100
AcDbLine
 10
2.181587014235063
 20
24.04744169511307
 30
0.0
 11
2.181587014235063
 21
23.39744169511306
 31
0.0
  0
LINE
  5
350
330
2
100
AcDbEntity
  8
S1
  6
HIDDEN2
 62
     3
100
AcDbLine
 10
2.931587014235063
 20
24.04744169511307
 30
0.0
 11
2.181587014235063
 21
24.04744169511307
 31
0.0
  0
LINE
  5
351
330
2
100
AcDbEntity
  8
S1
  6
HIDDEN2
 62
     3
100
AcDbLine
 10
2.931587014235063
 20
23.96744169511305
 30
0.0
 11
2.181587014235063
 21
23.96744169511305
 31
0.0
  0
LINE
  5
352
330
2
100
AcDbEntity
  8
S1
  6
HIDDEN2
 62
     3
100
AcDbLine
 10
2.831587014235097
 20
23.76744169511304
 30
0.0
 11
2.281587014235029
 21
23.76744169511304
 31
0.0
  0
ARC
  5
353
330
2
100
AcDbEntity
  8
S1
  6
HIDDEN2
 62
     3
100
AcDbCircle
 10
2.281587014235029
 20
23.86744169511306
 30
0.0
 40
0.1
100
AcDbArc
 50
180.0
 51
270.0
  0
ARC
  5
354
330
2
100
AcDbEntity
  8
S1
  6
HIDDEN2
 62
     3
100
AcDbCircle
 10
2.831587014235097
 20
23.86744169511306
 30
0.0
 40
0.1
100
AcDbArc
 50
270.0
 51
0.0
  0
LINE
  5
355
330
2
100
AcDbEntity
  8
S1
  6
HIDDEN2
 62
     3
100
AcDbLine
 10
2.276587014235033
 20
3.582441695113061
 30
0.0
 11
2.276587014235033
 21
23.01244169511307
 31
0.0
  0
LINE
  5
356
330
2
100
AcDbEntity
  8
S1
  6
HIDDEN2
 62
     3
100
AcDbLine
 10
2.171587014235072
 20
3.502441695113077
 30
0.0
 11
-0.958412985764923
 21
3.502441695113077
 31
0.0
  0
LINE
  5
357
330
2
100
AcDbEntity
  8
S1
  6
HIDDEN2
 62
     3
100
AcDbLine
 10
-0.3682781357649532
 20
23.09244169511305
 30
0.0
 11
-0.958412985764923
 21
23.09244169511305
 31
0.0
  0
LINE
  5
358
330
2
100
AcDbEntity
  8
S1
  6
HIDDEN2
 62
     3
100
AcDbLine
 10
1.581452164235045
 20
23.09244169511305
 30
0.0
 11
2.171587014235072
 21
23.09244169511305
 31
0.0
  0
LINE
  5
359
330
2
100
AcDbEntity
  8
S1
  6
HIDDEN2
 62
     3
100
AcDbLine
 10
2.931587014235063
 20
24.04744169511307
 30
0.0
 11
2.931587014235063
 21
2.547441695113064
 31
0.0
  0
ARC
  5
35A
330
2
100
AcDbEntity
  8
S1
  6
HIDDEN2
 62
     3
100
AcDbCircle
 10
2.256587014235051
 20
23.39744169511306
 30
0.0
 40
0.075
100
AcDbArc
 50
180.0
 51
270.0
  0
LINE
  5
35B
330
2
100
AcDbEntity
  8
S1
  6
HIDDEN2
 62
     3
100
AcDbLine
 10
-0.958412985764923
 20
3.502441695113077
 30
0.0
 11
-1.038412985764907
 21
3.502441695113077
 31
0.0
  0
LINE
  5
35C
330
2
100
AcDbEntity
  8
S1
  6
HIDDEN2
 62
     3
100
AcDbLine
 10
-1.038412985764907
 20
3.422441695113064
 30
0.0
 11
-1.038412985764907
 21
3.502441695113077
 31
0.0
  0
LINE
  5
35D
330
2
100
AcDbEntity
  8
S1
  6
HIDDEN2
 62
     3
100
AcDbLine
 10
-1.063412985764941
 20
3.422441695113064
 30
0.0
 11
-1.143412985764925
 21
3.422441695113064
 31
0.0
  0
LINE
  5
35E
330
2
100
AcDbEntity
  8
S1
  6
HIDDEN2
 62
     3
100
AcDbLine
 10
-1.143412985764925
 20
3.582441695113061
 30
0.0
 11
-1.038412985764907
 21
3.582441695113061
 31
0.0
  0
LINE
  5
35F
330
2
100
AcDbEntity
  8
S1
  6
HIDDEN2
 62
     3
100
AcDbLine
 10
-1.063412985764941
 20
3.422441695113064
 30
0.0
 11
-1.063412985764941
 21
3.582441695113061
 31
0.0
  0
LINE
  5
360
330
2
100
AcDbEntity
  8
S1
  6
HIDDEN2
 62
     3
100
AcDbLine
 10
-0.958412985764923
 20
3.502441695113077
 30
0.0
 11
-0.958412985764923
 21
3.422441695113064
 31
0.0
  0
LINE
  5
361
330
2
100
AcDbEntity
  8
S1
  6
HIDDEN2
 62
     3
100
AcDbLine
 10
1.731587014235074
 20
23.09244169511305
 30
0.0
 11
1.731587014235074
 21
22.99244169511306
 31
0.0
  0
LINE
  5
362
330
2
100
AcDbEntity
  8
S1
  6
HIDDEN2
 62
     3
100
AcDbLine
 10
2.131587014235051
 20
23.09244169511305
 30
0.0
 11
2.131587014235051
 21
22.99244169511306
 31
0.0
  0
LINE
  5
363
330
2
100
AcDbEntity
  8
S1
  6
HIDDEN2
 62
     3
100
AcDbLine
 10
1.831587014235097
 20
23.09244169511305
 30
0.0
 11
1.831587014235097
 21
22.99244169511306
 31
0.0
  0
LINE
  5
364
330
2
100
AcDbEntity
  8
S1
  6
HIDDEN2
 62
     3
100
AcDbLine
 10
2.031587014235029
 20
23.09244169511305
 30
0.0
 11
2.031587014235029
 21
22.99244169511306
 31
0.0
  0
LINE
  5
365
330
2
100
AcDbEntity
  8
S1
  6
HIDDEN2
 62
     3
100
AcDbLine
 10
2.131587014235051
 20
22.99244169511306
 30
0.0
 11
1.731587014235074
 21
22.99244169511306
 31
0.0
  0
ARC
  5
366
330
2
100
AcDbEntity
  8
S1
  6
HIDDEN2
 62
     3
100
AcDbCircle
 10
2.11158701423507
 20
23.09244169511305
 30
0.0
 40
0.08
100
AcDbArc
 50
90.0
 51
180.0
  0
ARC
  5
367
330
2
100
AcDbEntity
  8
S1
  6
HIDDEN2
 62
     3
100
AcDbCircle
 10
1.751587014235056
 20
23.09244169511305
 30
0.0
 40
0.08
100
AcDbArc
 50
0.0
 51
90.0
  0
LINE
  5
368
330
2
100
AcDbEntity
  8
S1
  6
HIDDEN2
 62
     3
100
AcDbLine
 10
-1.143412985764925
 20
23.24744169511305
 30
0.0
 11
-1.143412985764925
 21
3.347441695113076
 31
0.0
  0
LINE
  5
369
330
2
100
AcDbEntity
  8
S1
  6
HIDDEN2
 62
     3
100
AcDbLine
 10
-1.71841298576497
 20
24.04744169511307
 30
0.0
 11
-1.71841298576497
 21
2.547441695113064
 31
0.0
  0
ARC
  5
36A
330
2
100
AcDbEntity
  8
S1
  6
HIDDEN2
 62
     3
100
AcDbCircle
 10
-1.043412985764902
 20
23.39744169511306
 30
0.0
 40
0.075
100
AcDbArc
 50
270.0
 51
0.0
  0
ARC
  5
36B
330
2
100
AcDbEntity
  8
S1
  6
HIDDEN2
 62
     3
100
AcDbCircle
 10
-1.618412985764948
 20
23.86744169511306
 30
0.0
 40
0.1
100
AcDbArc
 50
180.0
 51
270.0
  0
ARC
  5
36C
330
2
100
AcDbEntity
  8
S1
  6
HIDDEN2
 62
     3
100
AcDbCircle
 10
-1.068412985764936
 20
23.86744169511306
 30
0.0
 40
0.1
100
AcDbArc
 50
270.0
 51
0.0
  0
LINE
  5
36D
330
2
100
AcDbEntity
  8
S1
  6
HIDDEN2
 62
     3
100
AcDbLine
 10
-1.618412985764948
 20
23.76744169511304
 30
0.0
 11
-1.068412985764936
 21
23.76744169511304
 31
0.0
  0
LINE
  5
36E
330
2
100
AcDbEntity
  8
S1
  6
HIDDEN2
 62
     3
100
AcDbLine
 10
-1.71841298576497
 20
23.96744169511305
 30
0.0
 11
-0.9684129857649708
 21
23.96744169511305
 31
0.0
  0
LINE
  5
36F
330
2
100
AcDbEntity
  8
S1
  6
HIDDEN2
 62
     3
100
AcDbLine
 10
-1.71841298576497
 20
24.04744169511307
 30
0.0
 11
-0.9684129857649708
 21
24.04744169511307
 31
0.0
  0
LINE
  5
370
330
2
100
AcDbEntity
  8
S1
  6
HIDDEN2
 62
     3
100
AcDbLine
 10
-0.9684129857649708
 20
24.04744169511307
 30
0.0
 11
-0.9684129857649708
 21
23.39744169511306
 31
0.0
  0
LINE
  5
371
330
2
100
AcDbEntity
  8
S1
  6
HIDDEN2
 62
     3
100
AcDbLine
 10
-1.063412985764941
 20
3.582441695113061
 30
0.0
 11
-1.063412985764941
 21
23.01244169511307
 31
0.0
  0
ARC
  5
372
330
2
100
AcDbEntity
  8
S1
  6
HIDDEN2
 62
     3
100
AcDbCircle
 10
-0.5384129857649072
 20
23.09244169511305
 30
0.0
 40
0.08
100
AcDbArc
 50
90.0
 51
180.0
  0
ARC
  5
373
330
2
100
AcDbEntity
  8
S1
  6
HIDDEN2
 62
     3
100
AcDbCircle
 10
-0.8984129857649207
 20
23.09244169511305
 30
0.0
 40
0.08
100
AcDbArc
 50
0.0
 51
90.0
  0
LINE
  5
374
330
2
100
AcDbEntity
  8
S1
  6
HIDDEN2
 62
     3
100
AcDbLine
 10
-0.9184129857649026
 20
22.99244169511306
 30
0.0
 11
-0.5184129857649254
 21
22.99244169511306
 31
0.0
  0
LINE
  5
375
330
2
100
AcDbEntity
  8
S1
  6
HIDDEN2
 62
     3
100
AcDbLine
 10
-0.8184129857649367
 20
23.09244169511305
 30
0.0
 11
-0.8184129857649367
 21
22.99244169511306
 31
0.0
  0
LINE
  5
376
330
2
100
AcDbEntity
  8
S1
  6
HIDDEN2
 62
     3
100
AcDbLine
 10
-0.6184129857649481
 20
23.09244169511305
 30
0.0
 11
-0.6184129857649481
 21
22.99244169511306
 31
0.0
  0
LINE
  5
377
330
2
100
AcDbEntity
  8
S1
  6
HIDDEN2
 62
     3
100
AcDbLine
 10
-0.9184129857649026
 20
23.09244169511305
 30
0.0
 11
-0.9184129857649026
 21
22.99244169511306
 31
0.0
  0
LINE
  5
378
330
2
100
AcDbEntity
  8
S1
  6
HIDDEN2
 62
     3
100
AcDbLine
 10
-0.5184129857649254
 20
23.09244169511305
 30
0.0
 11
-0.5184129857649254
 21
22.99244169511306
 31
0.0
  0
LINE
  5
379
330
2
100
AcDbEntity
  8
S1
  6
HIDDEN2
 62
     3
100
AcDbLine
 10
-1.038412985764907
 20
23.17244169511306
 30
0.0
 11
-1.038412985764907
 21
23.09244169511305
 31
0.0
  0
LINE
  5
37A
330
2
100
AcDbEntity
  8
S1
  6
HIDDEN2
 62
     3
100
AcDbLine
 10
-0.958412985764923
 20
23.09244169511305
 30
0.0
 11
-1.038412985764907
 21
23.09244169511305
 31
0.0
  0
LINE
  5
37B
330
2
100
AcDbEntity
  8
S1
  6
HIDDEN2
 62
     3
100
AcDbLine
 10
-0.958412985764923
 20
23.09244169511305
 30
0.0
 11
-0.958412985764923
 21
23.17244169511306
 31
0.0
  0
LINE
  5
37C
330
2
100
AcDbEntity
  8
S1
  6
HIDDEN2
 62
     3
100
AcDbLine
 10
-1.063412985764941
 20
23.17244169511306
 30
0.0
 11
-1.143412985764925
 21
23.17244169511306
 31
0.0
  0
LINE
  5
37D
330
2
100
AcDbEntity
  8
S1
  6
HIDDEN2
 62
     3
100
AcDbLine
 10
-1.143412985764925
 20
23.01244169511307
 30
0.0
 11
-1.038412985764907
 21
23.01244169511307
 31
0.0
  0
LINE
  5
37E
330
2
100
AcDbEntity
  8
S1
  6
HIDDEN2
 62
     3
100
AcDbLine
 10
-1.063412985764941
 20
23.17244169511306
 30
0.0
 11
-1.063412985764941
 21
23.01244169511307
 31
0.0
  0
LINE
  5
37F
330
2
100
AcDbEntity
  8
S1
  6
HIDDEN2
 62
     3
100
AcDbLine
 10
-0.9684129857649708
 20
2.547441695113064
 30
0.0
 11
-0.9684129857649708
 21
3.19744169511307
 31
0.0
  0
LINE
  5
380
330
2
100
AcDbEntity
  8
S1
  6
HIDDEN2
 62
     3
100
AcDbLine
 10
-1.71841298576497
 20
2.547441695113064
 30
0.0
 11
-0.9684129857649708
 21
2.547441695113064
 31
0.0
  0
LINE
  5
381
330
2
100
AcDbEntity
  8
S1
  6
HIDDEN2
 62
     3
100
AcDbLine
 10
-1.71841298576497
 20
2.627441695113077
 30
0.0
 11
-0.9684129857649708
 21
2.627441695113077
 31
0.0
  0
LINE
  5
382
330
2
100
AcDbEntity
  8
S1
  6
HIDDEN2
 62
     3
100
AcDbLine
 10
-1.618412985764948
 20
2.827441695113094
 30
0.0
 11
-1.068412985764936
 21
2.827441695113094
 31
0.0
  0
ARC
  5
383
330
2
100
AcDbEntity
  8
S1
  6
HIDDEN2
 62
     3
100
AcDbCircle
 10
-1.068412985764936
 20
2.727441695113071
 30
0.0
 40
0.1
100
AcDbArc
 50
0.0
 51
90.0
  0
ARC
  5
384
330
2
100
AcDbEntity
  8
S1
  6
HIDDEN2
 62
     3
100
AcDbCircle
 10
-1.618412985764948
 20
2.727441695113071
 30
0.0
 40
0.1
100
AcDbArc
 50
90.0
 51
180.0
  0
ARC
  5
385
330
2
100
AcDbEntity
  8
S1
  6
HIDDEN2
 62
     3
100
AcDbCircle
 10
-1.043412985764902
 20
3.19744169511307
 30
0.0
 40
0.075
100
AcDbArc
 50
0.0
 51
90.0
  0
ARC
  5
386
330
2
100
AcDbEntity
  8
S1
  6
HIDDEN2
 62
     3
100
AcDbCircle
 10
2.256587014235051
 20
3.19744169511307
 30
0.0
 40
0.075
100
AcDbArc
 50
90.0
 51
180.0
  0
ARC
  5
387
330
2
100
AcDbEntity
  8
S1
  6
HIDDEN2
 62
     3
100
AcDbCircle
 10
2.831587014235097
 20
2.727441695113071
 30
0.0
 40
0.1
100
AcDbArc
 50
0.0
 51
90.0
  0
ARC
  5
388
330
2
100
AcDbEntity
  8
S1
  6
HIDDEN2
 62
     3
100
AcDbCircle
 10
2.281587014235029
 20
2.727441695113071
 30
0.0
 40
0.1
100
AcDbArc
 50
90.0
 51
180.0
  0
LINE
  5
389
330
2
100
AcDbEntity
  8
S1
  6
HIDDEN2
 62
     3
100
AcDbLine
 10
2.831587014235097
 20
2.827441695113094
 30
0.0
 11
2.281587014235029
 21
2.827441695113094
 31
0.0
  0
LINE
  5
38A
330
2
100
AcDbEntity
  8
S1
  6
HIDDEN2
 62
     3
100
AcDbLine
 10
2.931587014235063
 20
2.627441695113077
 30
0.0
 11
2.181587014235063
 21
2.627441695113077
 31
0.0
  0
LINE
  5
38B
330
2
100
AcDbEntity
  8
S1
  6
HIDDEN2
 62
     3
100
AcDbLine
 10
2.931587014235063
 20
2.547441695113064
 30
0.0
 11
2.181587014235063
 21
2.547441695113064
 31
0.0
  0
LINE
  5
38C
330
2
100
AcDbEntity
  8
S1
  6
HIDDEN2
 62
     3
100
AcDbLine
 10
2.181587014235063
 20
2.547441695113064
 30
0.0
 11
2.181587014235063
 21
3.19744169511307
 31
0.0
  0
LINE
  5
38D
330
2
100
AcDbEntity
  8
S1
  6
HIDDEN2
 62
     3
100
AcDbLine
 10
-0.9184129857649026
 20
3.602441695113071
 30
0.0
 11
-0.5184129857649254
 21
3.602441695113071
 31
0.0
  0
LINE
  5
38E
330
2
100
AcDbEntity
  8
S1
  6
HIDDEN2
 62
     3
100
AcDbLine
 10
-0.8184129857649367
 20
3.502441695113077
 30
0.0
 11
-0.8184129857649367
 21
3.602441695113071
 31
0.0
  0
LINE
  5
38F
330
2
100
AcDbEntity
  8
S1
  6
HIDDEN2
 62
     3
100
AcDbLine
 10
-0.6184129857649481
 20
3.502441695113077
 30
0.0
 11
-0.6184129857649481
 21
3.602441695113071
 31
0.0
  0
LINE
  5
390
330
2
100
AcDbEntity
  8
S1
  6
HIDDEN2
 62
     3
100
AcDbLine
 10
-0.5184129857649254
 20
3.502441695113077
 30
0.0
 11
-0.5184129857649254
 21
3.602441695113071
 31
0.0
  0
ARC
  5
391
330
2
100
AcDbEntity
  8
S1
  6
HIDDEN2
 62
     3
100
AcDbCircle
 10
-0.8984129857649207
 20
3.502441695113077
 30
0.0
 40
0.08
100
AcDbArc
 50
270.0
 51
0.0
  0
ARC
  5
392
330
2
100
AcDbEntity
  8
S1
  6
HIDDEN2
 62
     3
100
AcDbCircle
 10
-0.5384129857649072
 20
3.502441695113077
 30
0.0
 40
0.08
100
AcDbArc
 50
180.0
 51
270.0
  0
LINE
  5
393
330
2
100
AcDbEntity
  8
S1
  6
HIDDEN2
 62
     3
100
AcDbLine
 10
1.731587014235074
 20
3.502441695113077
 30
0.0
 11
1.731587014235074
 21
3.602441695113071
 31
0.0
  0
LINE
  5
394
330
2
100
AcDbEntity
  8
S1
  6
HIDDEN2
 62
     3
100
AcDbLine
 10
1.831587014235097
 20
3.502441695113077
 30
0.0
 11
1.831587014235097
 21
3.602441695113071
 31
0.0
  0
LINE
  5
395
330
2
100
AcDbEntity
  8
S1
  6
HIDDEN2
 62
     3
100
AcDbLine
 10
2.031587014235029
 20
3.502441695113077
 30
0.0
 11
2.031587014235029
 21
3.602441695113071
 31
0.0
  0
LINE
  5
396
330
2
100
AcDbEntity
  8
S1
  6
HIDDEN2
 62
     3
100
AcDbLine
 10
2.131587014235051
 20
3.602441695113071
 30
0.0
 11
1.731587014235074
 21
3.602441695113071
 31
0.0
  0
ARC
  5
397
330
2
100
AcDbEntity
  8
S1
  6
HIDDEN2
 62
     3
100
AcDbCircle
 10
1.751587014235056
 20
3.502441695113077
 30
0.0
 40
0.08
100
AcDbArc
 50
270.0
 51
0.0
  0
ARC
  5
398
330
2
100
AcDbEntity
  8
S1
  6
HIDDEN2
 62
     3
100
AcDbCircle
 10
2.11158701423507
 20
3.502441695113077
 30
0.0
 40
0.08
100
AcDbArc
 50
180.0
 51
270.0
  0
LINE
  5
399
330
2
100
AcDbEntity
  8
S1
  6
HIDDEN2
 62
     3
100
AcDbLine
 10
-0.9184129857649026
 20
3.502441695113077
 30
0.0
 11
-0.9184129857649026
 21
3.602441695113071
 31
0.0
  0
LINE
  5
39A
330
2
100
AcDbEntity
  8
S1
  6
HIDDEN2
 62
     3
100
AcDbLine
 10
2.131587014235051
 20
3.502441695113077
 30
0.0
 11
2.131587014235051
 21
3.602441695113071
 31
0.0
  0
LINE
  5
39B
330
2
100
AcDbEntity
  8
S1
  6
HIDDEN2
 62
     3
100
AcDbLine
 10
2.256587014235051
 20
23.32244169511307
 30
0.0
 11
2.281587014235029
 21
23.32244169511307
 31
0.0
  0
ARC
  5
39C
330
2
100
AcDbEntity
  8
S1
  6
HIDDEN2
 62
     3
100
AcDbCircle
 10
2.281587014235029
 20
23.24744169511305
 30
0.0
 40
0.075
100
AcDbArc
 50
0.0
 51
90.0
  0
LINE
  5
39D
330
2
100
AcDbEntity
  8
S1
  6
HIDDEN2
 62
     3
100
AcDbLine
 10
-1.043412985764902
 20
23.32244169511307
 30
0.0
 11
-1.068412985764936
 21
23.32244169511307
 31
0.0
  0
ARC
  5
39E
330
2
100
AcDbEntity
  8
S1
  6
HIDDEN2
 62
     3
100
AcDbCircle
 10
-1.068412985764936
 20
23.24744169511305
 30
0.0
 40
0.075
100
AcDbArc
 50
90.0
 51
180.0
  0
LINE
  5
39F
330
2
100
AcDbEntity
  8
S1
  6
HIDDEN2
 62
     3
100
AcDbLine
 10
-1.043412985764902
 20
3.272441695113059
 30
0.0
 11
-1.068412985764936
 21
3.272441695113059
 31
0.0
  0
ARC
  5
3A0
330
2
100
AcDbEntity
  8
S1
  6
HIDDEN2
 62
     3
100
AcDbCircle
 10
-1.068412985764936
 20
3.347441695113076
 30
0.0
 40
0.075
100
AcDbArc
 50
180.0
 51
270.0
  0
LINE
  5
3A1
330
2
100
AcDbEntity
  8
S1
  6
HIDDEN2
 62
     3
100
AcDbLine
 10
2.256587014235051
 20
3.272441695113059
 30
0.0
 11
2.281587014235029
 21
3.272441695113059
 31
0.0
  0
ARC
  5
3A2
330
2
100
AcDbEntity
  8
S1
  6
HIDDEN2
 62
     3
100
AcDbCircle
 10
2.281587014235029
 20
3.347441695113076
 30
0.0
 40
0.075
100
AcDbArc
 50
270.0
 51
0.0
  0
LINE
  5
3A3
330
2
100
AcDbEntity
  8
S1
  6
HIDDEN2
 62
     3
100
AcDbLine
 10
0.9690870142350291
 20
21.47244169511308
 30
0.0
 11
0.9690870142350291
 21
22.44884784511308
 31
0.0
  0
ARC
  5
3A4
330
2
100
AcDbEntity
  8
S1
  6
HIDDEN2
 62
     3
100
AcDbCircle
 10
0.6440870142350974
 20
21.47244169511308
 30
0.0
 40
0.325
100
AcDbArc
 50
270.0
 51
0.0
  0
LINE
  5
3A5
330
2
100
AcDbEntity
  8
S1
  6
HIDDEN2
 62
     3
100
AcDbLine
 10
0.2440870142350633
 20
21.47244169511308
 30
0.0
 11
0.2440870142350633
 21
22.44884784511308
 31
0.0
  0
LINE
  5
3A6
330
2
100
AcDbEntity
  8
S1
  6
HIDDEN2
 62
     3
100
AcDbLine
 10
0.6440870142350974
 20
21.14744169511306
 30
0.0
 11
0.569087014235052
 21
21.14744169511306
 31
0.0
  0
ARC
  5
3A7
330
2
100
AcDbEntity
  8
S1
  6
HIDDEN2
 62
     3
100
AcDbCircle
 10
0.569087014235052
 20
21.47244169511308
 30
0.0
 40
0.325
100
AcDbArc
 50
180.0
 51
270.0
  0
LINE
  5
3A8
330
2
100
AcDbEntity
  8
S1
  6
HIDDEN2
 62
     3
100
AcDbLine
 10
0.6440870142350974
 20
6.147441695113059
 30
0.0
 11
0.569087014235052
 21
6.147441695113059
 31
0.0
  0
ARC
  5
3A9
330
2
100
AcDbEntity
  8
S1
  6
HIDDEN2
 62
     3
100
AcDbCircle
 10
0.6440870142350974
 20
6.472441695113076
 30
0.0
 40
0.325
100
AcDbArc
 50
270.0
 51
0.0
  0
ARC
  5
3AA
330
2
100
AcDbEntity
  8
S1
  6
HIDDEN2
 62
     3
100
AcDbCircle
 10
0.569087014235052
 20
6.472441695113076
 30
0.0
 40
0.325
100
AcDbArc
 50
180.0
 51
270.0
  0
LINE
  5
3AB
330
2
100
AcDbEntity
  8
S1
  6
HIDDEN2
 62
     3
100
AcDbLine
 10
0.2440870142350633
 20
6.472441695113076
 30
0.0
 11
0.2440870142350633
 21
6.732614845113062
 31
0.0
  0
LINE
  5
3AC
330
2
100
AcDbEntity
  8
S1
  6
HIDDEN2
 62
     3
100
AcDbLine
 10
0.9690870142350291
 20
6.472441695113076
 30
0.0
 11
0.9690870142350291
 21
6.732614845113062
 31
0.0
  0
LINE
  5
3AD
330
2
100
AcDbEntity
  8
S1
  6
HIDDEN2
 62
     3
100
AcDbLine
 10
1.231587014235074
 20
4.659941695113076
 30
0.0
 11
0.7214138642350605
 21
4.659941695113076
 31
0.0
  0
LINE
  5
3AE
330
2
100
AcDbEntity
  8
S1
  6
HIDDEN2
 62
     3
100
AcDbLine
 10
1.231587014235074
 20
5.38494169511307
 30
0.0
 11
0.7214138642350605
 21
5.38494169511307
 31
0.0
  0
LINE
  5
3AF
330
2
100
AcDbEntity
  8
S1
  6
HIDDEN2
 62
     3
100
AcDbLine
 10
1.556587014235063
 20
4.984941695113064
 30
0.0
 11
1.556587014235063
 21
5.059941695113053
 31
0.0
  0
ARC
  5
3B0
330
2
100
AcDbEntity
  8
S1
  6
HIDDEN2
 62
     3
100
AcDbCircle
 10
1.231587014235074
 20
5.059941695113053
 30
0.0
 40
0.325
100
AcDbArc
 50
0.0
 51
90.0
  0
ARC
  5
3B1
330
2
100
AcDbEntity
  8
S1
  6
HIDDEN2
 62
     3
100
AcDbCircle
 10
1.231587014235074
 20
4.984941695113064
 30
0.0
 40
0.325
100
AcDbArc
 50
270.0
 51
0.0
  0
LINE
  5
3B2
330
2
100
AcDbEntity
  8
S1
  6
HIDDEN2
 62
     3
100
AcDbLine
 10
1.156587014235029
 20
8.297441695113064
 30
0.0
 11
1.156587014235029
 21
8.377441695113077
 31
0.0
  0
LINE
  5
3B3
330
2
100
AcDbEntity
  8
S1
  6
HIDDEN2
 62
     3
100
AcDbLine
 10
0.0565870142350633
 20
8.297441695113064
 30
0.0
 11
0.0565870142350633
 21
8.377441695113077
 31
0.0
  0
LINE
  5
3B4
330
2
100
AcDbEntity
  8
S1
  6
HIDDEN2
 62
     3
100
AcDbLine
 10
-0.5934129857649709
 20
5.57244169511307
 30
0.0
 11
-0.5934129857649709
 21
4.472441695113076
 31
0.0
  0
LINE
  5
3B5
330
2
100
AcDbEntity
  8
S1
  6
HIDDEN2
 62
     3
100
AcDbLine
 10
-0.6734129857648981
 20
5.57244169511307
 30
0.0
 11
-0.6734129857648981
 21
4.472441695113076
 31
0.0
  0
LINE
  5
3B6
330
2
100
AcDbEntity
  8
S1
  6
HIDDEN2
 62
     3
100
AcDbLine
 10
-0.5934129857649709
 20
5.57244169511307
 30
0.0
 11
-0.6734129857648981
 21
5.57244169511307
 31
0.0
  0
LINE
  5
3B7
330
2
100
AcDbEntity
  8
S1
  6
HIDDEN2
 62
     3
100
AcDbLine
 10
-0.5934129857649709
 20
4.472441695113076
 30
0.0
 11
-0.6734129857648981
 21
4.472441695113076
 31
0.0
  0
LINE
  5
3B8
330
2
100
AcDbEntity
  8
S1
  6
HIDDEN2
 62
     3
100
AcDbLine
 10
-0.0184129857649254
 20
4.272441695113059
 30
0.0
 11
-0.6734129857648981
 21
4.272441695113059
 31
0.0
  0
LINE
  5
3B9
330
2
100
AcDbEntity
  8
S1
  6
HIDDEN2
 62
     3
100
AcDbLine
 10
-0.0184129857649254
 20
5.772441695113059
 30
0.0
 11
-0.6734129857648981
 21
5.772441695113059
 31
0.0
  0
ARC
  5
3BA
330
2
100
AcDbEntity
  8
S1
  6
HIDDEN2
 62
     3
100
AcDbCircle
 10
-0.0184129857649254
 20
5.122441695113053
 30
0.0
 40
0.65
100
AcDbArc
 50
34.71149400001837
 51
90.0
  0
ARC
  5
3BB
330
2
100
AcDbEntity
  8
S1
  6
HIDDEN2
 62
     3
100
AcDbCircle
 10
0.7214138642350605
 20
5.63494169511307
 30
0.0
 40
0.25
100
AcDbArc
 50
214.7114940000184
 51
270.0
  0
ARC
  5
3BC
330
2
100
AcDbEntity
  8
S1
  6
HIDDEN2
 62
     3
100
AcDbCircle
 10
0.7214138642350605
 20
4.409941695113076
 30
0.0
 40
0.25
100
AcDbArc
 50
90.0
 51
145.2885059999816
  0
ARC
  5
3BD
330
2
100
AcDbEntity
  8
S1
  6
HIDDEN2
 62
     3
100
AcDbCircle
 10
-0.0184129857649254
 20
4.922441695113064
 30
0.0
 40
0.65
100
AcDbArc
 50
270.0
 51
325.2885059999816
  0
ARC
  5
3BE
330
2
100
AcDbEntity
  8
S1
  6
HIDDEN2
 62
     3
100
AcDbCircle
 10
2.251587014235056
 20
3.502441695113077
 30
0.0
 40
0.08
100
AcDbArc
 50
90.0
 51
180.0
  0
ARC
  5
3BF
330
2
100
AcDbEntity
  8
S1
  6
HIDDEN2
 62
     3
100
AcDbCircle
 10
-1.038412985764907
 20
3.502441695113077
 30
0.0
 40
0.08
100
AcDbArc
 50
0.0
 51
90.0
  0
ARC
  5
3C0
330
2
100
AcDbEntity
  8
S1
  6
HIDDEN2
 62
     3
100
AcDbCircle
 10
-1.038412985764907
 20
23.09244169511305
 30
0.0
 40
0.08
100
AcDbArc
 50
270.0
 51
0.0
  0
ARC
  5
3C1
330
2
100
AcDbEntity
  8
S1
  6
HIDDEN2
 62
     3
100
AcDbCircle
 10
2.251587014235056
 20
23.09244169511305
 30
0.0
 40
0.08
100
AcDbArc
 50
180.0
 51
270.0
  0
LINE
  5
3C2
330
2
100
AcDbEntity
  8
S1
  6
HIDDEN2
 62
     3
100
AcDbLine
 10
2.056587014235063
 20
22.99244169511306
 30
0.0
 11
2.056587014235063
 21
23.15053644511306
 31
0.0
  0
LINE
  5
3C3
330
2
100
AcDbEntity
  8
S1
  6
HIDDEN2
 62
     3
100
AcDbLine
 10
1.806587014235063
 20
22.99244169511306
 30
0.0
 11
1.806587014235063
 21
23.15053644511306
 31
0.0
  0
LINE
  5
3C4
330
2
100
AcDbEntity
  8
S1
  6
HIDDEN2
 62
     3
100
AcDbLine
 10
2.276587014235033
 20
7.497441695113053
 30
0.0
 11
2.176587014235067
 21
7.497441695113053
 31
0.0
  0
LINE
  5
3C5
330
2
100
AcDbEntity
  8
S1
  6
HIDDEN2
 62
     3
100
AcDbLine
 10
2.276587014235033
 20
7.047441695113064
 30
0.0
 11
2.176587014235067
 21
7.047441695113064
 31
0.0
  0
LINE
  5
3C6
330
2
100
AcDbEntity
  8
S1
  6
HIDDEN2
 62
     3
100
AcDbLine
 10
2.276587014235033
 20
7.397441695113059
 30
0.0
 11
2.176587014235067
 21
7.397441695113059
 31
0.0
  0
LINE
  5
3C7
330
2
100
AcDbEntity
  8
S1
  6
HIDDEN2
 62
     3
100
AcDbLine
 10
2.276587014235033
 20
7.147441695113059
 30
0.0
 11
2.176587014235067
 21
7.147441695113059
 31
0.0
  0
LINE
  5
3C8
330
2
100
AcDbEntity
  8
S1
  6
HIDDEN2
 62
     3
100
AcDbLine
 10
2.176587014235067
 20
7.122441695113053
 30
0.0
 11
2.334681764235043
 21
7.122441695113053
 31
0.0
  0
LINE
  5
3C9
330
2
100
AcDbEntity
  8
S1
  6
HIDDEN2
 62
     3
100
AcDbLine
 10
2.176587014235067
 20
7.422441695113064
 30
0.0
 11
2.334681764235043
 21
7.422441695113064
 31
0.0
  0
LINE
  5
3CA
330
2
100
AcDbEntity
  8
S1
  6
HIDDEN2
 62
     3
100
AcDbLine
 10
2.176587014235067
 20
7.047441695113064
 30
0.0
 11
2.176587014235067
 21
7.497441695113053
 31
0.0
  0
ARC
  5
3CB
330
2
100
AcDbEntity
  8
S1
  6
HIDDEN2
 62
     3
100
AcDbCircle
 10
2.276587014235033
 20
7.067441695113046
 30
0.0
 40
0.08
100
AcDbArc
 50
0.0
 51
90.0
  0
ARC
  5
3CC
330
2
100
AcDbEntity
  8
S1
  6
HIDDEN2
 62
     3
100
AcDbCircle
 10
2.276587014235033
 20
7.477441695113071
 30
0.0
 40
0.08
100
AcDbArc
 50
270.0
 51
0.0
  0
LINE
  5
3CD
330
2
100
AcDbEntity
  8
S1
  6
HIDDEN2
 62
     3
100
AcDbLine
 10
0.6065870142350747
 20
3.602441695113071
 30
0.0
 11
0.6065870142350747
 21
3.444346945113068
 31
0.0
  0
LINE
  5
3CE
330
2
100
AcDbEntity
  8
S1
  6
HIDDEN2
 62
     3
100
AcDbLine
 10
0.3565870142350747
 20
3.602441695113071
 30
0.0
 11
0.3565870142350747
 21
3.444346945113068
 31
0.0
  0
LINE
  5
3CF
330
2
100
AcDbEntity
  8
S1
  6
HIDDEN2
 62
     3
100
AcDbLine
 10
0.2815870142350292
 20
3.502441695113077
 30
0.0
 11
0.2815870142350292
 21
3.602441695113071
 31
0.0
  0
LINE
  5
3D0
330
2
100
AcDbEntity
  8
S1
  6
HIDDEN2
 62
     3
100
AcDbLine
 10
0.3815870142350519
 20
3.502441695113077
 30
0.0
 11
0.3815870142350519
 21
3.602441695113071
 31
0.0
  0
LINE
  5
3D1
330
2
100
AcDbEntity
  8
S1
  6
HIDDEN2
 62
     3
100
AcDbLine
 10
0.5815870142350974
 20
3.502441695113077
 30
0.0
 11
0.5815870142350974
 21
3.602441695113071
 31
0.0
  0
LINE
  5
3D2
330
2
100
AcDbEntity
  8
S1
  6
HIDDEN2
 62
     3
100
AcDbLine
 10
0.6815870142350633
 20
3.502441695113077
 30
0.0
 11
0.6815870142350633
 21
3.602441695113071
 31
0.0
  0
LINE
  5
3D3
330
2
100
AcDbEntity
  8
S1
  6
HIDDEN2
 62
     3
100
AcDbLine
 10
0.6815870142350633
 20
3.602441695113071
 30
0.0
 11
0.2815870142350292
 21
3.602441695113071
 31
0.0
  0
ARC
  5
3D4
330
2
100
AcDbEntity
  8
S1
  6
HIDDEN2
 62
     3
100
AcDbCircle
 10
0.6615870142350815
 20
3.502441695113077
 30
0.0
 40
0.08
100
AcDbArc
 50
180.0
 51
270.0
  0
ARC
  5
3D5
330
2
100
AcDbEntity
  8
S1
  6
HIDDEN2
 62
     3
100
AcDbCircle
 10
0.3015870142350678
 20
3.502441695113077
 30
0.0
 40
0.08
100
AcDbArc
 50
270.0
 51
0.0
  0
LINE
  5
3D6
330
2
100
AcDbEntity
  8
S1
  6
HIDDEN2
 62
     3
100
AcDbLine
 10
1.381587014235051
 20
23.17244169511306
 30
0.0
 11
1.381587014235051
 21
23.09244169511305
 31
0.0
  0
LINE
  5
3D7
330
2
100
AcDbEntity
  8
S1
  6
HIDDEN2
 62
     3
100
AcDbLine
 10
-0.1684129857649026
 20
23.09244169511305
 30
0.0
 11
-0.1684129857649026
 21
23.17244169511306
 31
0.0
  0
LINE
  5
3D8
330
2
100
AcDbEntity
  8
S1
  6
HIDDEN2
 62
     3
100
AcDbLine
 10
1.381587014235051
 20
23.02244169511306
 30
0.0
 11
1.381587014235051
 21
23.09244169511305
 31
0.0
  0
LINE
  5
3D9
330
2
100
AcDbEntity
  8
S1
  6
HIDDEN2
 62
     3
100
AcDbLine
 10
-0.1684129857649026
 20
23.02244169511306
 30
0.0
 11
-0.1684129857649026
 21
23.09244169511305
 31
0.0
  0
LINE
  5
3DA
330
2
100
AcDbEntity
  8
S1
  6
HIDDEN2
 62
     3
100
AcDbLine
 10
1.381587014235051
 20
23.09244169511305
 30
0.0
 11
-0.1684129857649026
 21
23.09244169511305
 31
0.0
  0
LINE
  5
3DB
330
2
100
AcDbEntity
  8
S1
  6
HIDDEN2
 62
     3
100
AcDbLine
 10
-0.1684129857649026
 20
23.09244169511305
 30
0.0
 11
-0.3682781357649532
 21
23.09244169511305
 31
0.0
  0
LINE
  5
3DC
330
2
100
AcDbEntity
  8
S1
  6
HIDDEN2
 62
     3
100
AcDbLine
 10
1.581587014235097
 20
23.17244169511306
 30
0.0
 11
1.581587014235097
 21
23.07980109511305
 31
0.0
  0
LINE
  5
3DD
330
2
100
AcDbEntity
  8
S1
  6
HIDDEN2
 62
     3
100
AcDbLine
 10
-0.3684129857649481
 20
23.17244169511306
 30
0.0
 11
-0.3684129857649481
 21
23.07980109511305
 31
0.0
  0
LINE
  5
3DE
330
2
100
AcDbEntity
  8
S1
  6
HIDDEN2
 62
     3
100
AcDbLine
 10
0.1618409642350826
 20
22.77244169511306
 30
0.0
 11
1.051333064235066
 21
22.77244169511306
 31
0.0
  0
ARC
  5
3DF
330
2
100
AcDbEntity
  8
S1
  6
HIDDEN2
 62
     3
100
AcDbCircle
 10
1.131587014235051
 20
23.02244169511306
 30
0.0
 40
0.25
100
AcDbArc
 50
270.0
 51
343.334908999996
  0
ARC
  5
3E0
330
2
100
AcDbEntity
  8
S1
  6
HIDDEN2
 62
     3
100
AcDbCircle
 10
0.0815870142350974
 20
23.02244169511306
 30
0.0
 40
0.25
100
AcDbArc
 50
196.665091000004
 51
270.0
  0
LINE
  5
3E1
330
2
100
AcDbEntity
  8
S1
  6
HIDDEN2
 62
     3
100
AcDbLine
 10
1.051333064235066
 20
22.77244169511306
 30
0.0
 11
1.131587014235051
 21
22.77244169511306
 31
0.0
  0
ARC
  5
3E2
330
2
100
AcDbEntity
  8
S1
  6
HIDDEN2
 62
     3
100
AcDbCircle
 10
1.131587014235051
 20
23.02244169511306
 30
0.0
 40
0.25
100
AcDbArc
 50
343.334908999996
 51
0.0
  0
LINE
  5
3E3
330
2
100
AcDbEntity
  8
S1
  6
HIDDEN2
 62
     3
100
AcDbLine
 10
0.0815870142350974
 20
22.77244169511306
 30
0.0
 11
0.1618409642350826
 21
22.77244169511306
 31
0.0
  0
ARC
  5
3E4
330
2
100
AcDbEntity
  8
S1
  6
HIDDEN2
 62
     3
100
AcDbCircle
 10
0.0815870142350974
 20
23.02244169511306
 30
0.0
 40
0.25
100
AcDbArc
 50
180.0
 51
196.665091000004
  0
ARC
  5
3E5
330
2
100
AcDbEntity
  8
S1
  6
HIDDEN2
 62
     3
100
AcDbCircle
 10
0.6065870142350747
 20
8.297441695113064
 30
0.0
 40
0.55
100
AcDbArc
 50
180.0
 51
0.0
  0
ARC
  5
3E6
330
2
100
AcDbEntity
  8
S1
  6
HIDDEN2
 62
     3
100
AcDbCircle
 10
1.256587014235051
 20
8.377441695113077
 30
0.0
 40
0.1
100
AcDbArc
 50
0.0
 51
180.0
  0
ARC
  5
3E7
330
2
100
AcDbEntity
  8
S1
  6
HIDDEN2
 62
     3
100
AcDbCircle
 10
-0.0434129857649026
 20
8.377441695113077
 30
0.0
 40
0.1
100
AcDbArc
 50
0.0
 51
180.0
  0
ARC
  5
3E8
330
2
100
AcDbEntity
  8
S1
  6
HIDDEN2
 62
     3
100
AcDbCircle
 10
-0.5934129857649709
 20
5.022441695113059
 30
0.0
 40
0.55
100
AcDbArc
 50
270.0
 51
90.0
  0
ARC
  5
3E9
330
2
100
AcDbEntity
  8
S1
  6
HIDDEN2
 62
     3
100
AcDbCircle
 10
-0.6734129857648981
 20
5.672441695113064
 30
0.0
 40
0.1
100
AcDbArc
 50
90.0
 51
270.0
  0
ARC
  5
3EA
330
2
100
AcDbEntity
  8
S1
  6
HIDDEN2
 62
     3
100
AcDbCircle
 10
-0.6734129857648981
 20
4.372441695113053
 30
0.0
 40
0.1
100
AcDbArc
 50
90.0
 51
270.0
  0
LINE
  5
3EB
330
2
100
AcDbEntity
  8
S1
  6
HIDDEN2
 62
     3
100
AcDbLine
 10
1.231587014235074
 20
19.65994169511307
 30
0.0
 11
0.7214138642350605
 21
19.65994169511307
 31
0.0
  0
LINE
  5
3EC
330
2
100
AcDbEntity
  8
S1
  6
HIDDEN2
 62
     3
100
AcDbLine
 10
1.231587014235074
 20
20.38494169511307
 30
0.0
 11
0.7214138642350605
 21
20.38494169511307
 31
0.0
  0
ARC
  5
3ED
330
2
100
AcDbEntity
  8
S1
  6
HIDDEN2
 62
     3
100
AcDbCircle
 10
1.231587014235074
 20
19.98494169511306
 30
0.0
 40
0.325
100
AcDbArc
 50
270.0
 51
0.0
  0
ARC
  5
3EE
330
2
100
AcDbEntity
  8
S1
  6
HIDDEN2
 62
     3
100
AcDbCircle
 10
1.231587014235074
 20
20.05994169511305
 30
0.0
 40
0.325
100
AcDbArc
 50
0.0
 51
90.0
  0
LINE
  5
3EF
330
2
100
AcDbEntity
  8
S1
  6
HIDDEN2
 62
     3
100
AcDbLine
 10
1.556587014235063
 20
19.98494169511306
 30
0.0
 11
1.556587014235063
 21
20.05994169511305
 31
0.0
  0
ARC
  5
3F0
330
2
100
AcDbEntity
  8
S1
  6
HIDDEN2
 62
     3
100
AcDbCircle
 10
-0.0184129857649254
 20
20.12244169511305
 30
0.0
 40
0.65
100
AcDbArc
 50
34.71149400001837
 51
90.0
  0
ARC
  5
3F1
330
2
100
AcDbEntity
  8
S1
  6
HIDDEN2
 62
     3
100
AcDbCircle
 10
-0.0184129857649254
 20
19.92244169511306
 30
0.0
 40
0.65
100
AcDbArc
 50
270.0
 51
325.2885059999816
  0
ARC
  5
3F2
330
2
100
AcDbEntity
  8
S1
  6
HIDDEN2
 62
     3
100
AcDbCircle
 10
-0.6734129857648981
 20
19.37244169511305
 30
0.0
 40
0.1
100
AcDbArc
 50
90.0
 51
270.0
  0
ARC
  5
3F3
330
2
100
AcDbEntity
  8
S1
  6
HIDDEN2
 62
     3
100
AcDbCircle
 10
-0.6734129857648981
 20
20.67244169511306
 30
0.0
 40
0.1
100
AcDbArc
 50
90.0
 51
270.0
  0
ARC
  5
3F4
330
2
100
AcDbEntity
  8
S1
  6
HIDDEN2
 62
     3
100
AcDbCircle
 10
-0.5934129857649709
 20
20.02244169511306
 30
0.0
 40
0.55
100
AcDbArc
 50
270.0
 51
90.0
  0
LINE
  5
3F5
330
2
100
AcDbEntity
  8
S1
  6
HIDDEN2
 62
     3
100
AcDbLine
 10
-0.0184129857649254
 20
20.77244169511306
 30
0.0
 11
-0.6734129857648981
 21
20.77244169511306
 31
0.0
  0
LINE
  5
3F6
330
2
100
AcDbEntity
  8
S1
  6
HIDDEN2
 62
     3
100
AcDbLine
 10
-0.0184129857649254
 20
19.27244169511306
 30
0.0
 11
-0.6734129857648981
 21
19.27244169511306
 31
0.0
  0
LINE
  5
3F7
330
2
100
AcDbEntity
  8
S1
  6
HIDDEN2
 62
     3
100
AcDbLine
 10
-0.5934129857649709
 20
19.47244169511307
 30
0.0
 11
-0.6734129857648981
 21
19.47244169511307
 31
0.0
  0
LINE
  5
3F8
330
2
100
AcDbEntity
  8
S1
  6
HIDDEN2
 62
     3
100
AcDbLine
 10
-0.5934129857649709
 20
20.57244169511307
 30
0.0
 11
-0.6734129857648981
 21
20.57244169511307
 31
0.0
  0
LINE
  5
3F9
330
2
100
AcDbEntity
  8
S1
  6
HIDDEN2
 62
     3
100
AcDbLine
 10
-0.6734129857648981
 20
20.57244169511307
 30
0.0
 11
-0.6734129857648981
 21
19.47244169511307
 31
0.0
  0
LINE
  5
3FA
330
2
100
AcDbEntity
  8
S1
  6
HIDDEN2
 62
     3
100
AcDbLine
 10
-0.5934129857649709
 20
20.57244169511307
 30
0.0
 11
-0.5934129857649709
 21
19.47244169511307
 31
0.0
  0
ARC
  5
3FB
330
2
100
AcDbEntity
  8
S1
  6
HIDDEN2
 62
     3
100
AcDbCircle
 10
0.7214138642350605
 20
20.63494169511307
 30
0.0
 40
0.25
100
AcDbArc
 50
214.7114940000184
 51
270.0
  0
ARC
  5
3FC
330
2
100
AcDbEntity
  8
S1
  6
HIDDEN2
 62
     3
100
AcDbCircle
 10
0.7214138642350605
 20
19.40994169511307
 30
0.0
 40
0.25
100
AcDbArc
 50
90.0
 51
145.2885059999816
  0
LINE
  5
3FD
330
2
100
AcDbEntity
  8
S1
  6
HIDDEN2
 62
     3
100
AcDbLine
 10
1.55206651423505
 20
23.03418759511308
 30
0.0
 11
1.26429181423505
 21
22.90498264511308
 31
0.0
  0
LINE
  5
3FE
330
2
100
AcDbEntity
  8
S1
  6
HIDDEN2
 62
     3
100
AcDbLine
 10
-0.3388924857649584
 20
23.03418759511308
 30
0.0
 11
-0.0511177857649585
 21
22.90498264511308
 31
0.0
  0
ARC
  5
3FF
330
2
100
AcDbEntity
  8
S1
  6
HIDDEN2
 62
     3
100
AcDbCircle
 10
1.469087014235029
 20
22.44884784511308
 30
0.0
 40
0.5
100
AcDbArc
 50
114.1791069999964
 51
180.0
  0
ARC
  5
400
330
2
100
AcDbEntity
  8
S1
  6
HIDDEN2
 62
     3
100
AcDbCircle
 10
-0.2559129857649367
 20
22.44884784511308
 30
0.0
 40
0.5
100
AcDbArc
 50
0.0
 51
65.82089300000358
  0
ARC
  5
401
330
2
100
AcDbEntity
  8
S1
  6
HIDDEN2
 62
     3
100
AcDbCircle
 10
-0.3184129857649367
 20
23.07980109511305
 30
0.0
 40
0.05
100
AcDbArc
 50
180.0
 51
245.8208930000036
  0
ARC
  5
402
330
2
100
AcDbEntity
  8
S1
  6
HIDDEN2
 62
     3
100
AcDbCircle
 10
1.531587014235029
 20
23.07980109511305
 30
0.0
 40
0.05
100
AcDbArc
 50
294.1791069999964
 51
0.0
  0
HATCH
  5
403
330
2
100
AcDbEntity
  8
S1
  6
HIDDEN2
 62
     3
100
AcDbHatch
 10
0.0
 20
0.0
 30
0.0
210
0.0
220
0.0
230
1.0
  2
ANSI31
 70
     0
 71
     0
 91
        1
 92
        1
 93
        4
 72
     1
 10
-0.3684129857649481
 20
3.322441695113155
 11
1.581587014235054
 21
3.322441695113155
 72
     1
 10
1.581587014235097
 20
3.322441695113155
 11
1.581587014235097
 21
3.42244169511315
 72
     1
 10
1.581587014235097
 20
3.42244169511315
 11
-0.3684129857649054
 21
3.42244169511315
 72
     1
 10
-0.3684129857649481
 20
3.42244169511315
 11
-0.3684129857649481
 21
3.322441695113155
 97
        0
 75
     0
 76
     1
 52
0.0
 41
0.01574805
 77
     0
 78
     1
 53
45.0
 43
-9.393412985764925
 44
13.97244169511308
 45
-0.0353553390593274
 46
0.0353553390593274
 79
     0
 98
        1
 10
-9.393412985764925
 20
13.97244169511308
  0
LINE
  5
404
330
2
100
AcDbEntity
  8
S1
  6
HIDDEN2
 62
     3
100
AcDbLine
 10
-20.36841298576495
 20
3.422441695113064
 30
0.0
 11
-20.36841298576495
 21
3.32244169511307
 31
0.0
  0
LINE
  5
405
330
2
100
AcDbEntity
  8
S1
  6
HIDDEN2
 62
     3
100
AcDbLine
 10
1.581587014235097
 20
3.422441695113064
 30
0.0
 11
1.581587014235097
 21
3.32244169511307
 31
0.0
  0
LINE
  5
406
330
2
100
AcDbEntity
  8
S1
  6
HIDDEN2
 62
     3
100
AcDbLine
 10
-22.64341298576493
 20
3.422441695113064
 30
0.0
 11
-22.64341298576493
 21
3.32244169511307
 31
0.0
  0
LINE
  5
407
330
2
100
AcDbEntity
  8
S1
  6
HIDDEN2
 62
     3
100
AcDbLine
 10
-18.4184129857649
 20
3.422441695113064
 30
0.0
 11
-18.4184129857649
 21
3.32244169511307
 31
0.0
  0
LINE
  5
408
330
2
100
AcDbEntity
  8
S1
  6
HIDDEN2
 62
     3
100
AcDbLine
 10
-22.39341298576492
 20
2.222441695113076
 30
0.0
 11
-20.39341298576493
 21
2.222441695113076
 31
0.0
  0
LINE
  5
409
330
2
100
AcDbEntity
  8
S1
  6
HIDDEN2
 62
     3
100
AcDbLine
 10
-22.39341298576492
 20
1.872441695113053
 30
0.0
 11
-20.39341298576493
 21
1.872441695113053
 31
0.0
  0
ARC
  5
40A
330
2
100
AcDbEntity
  8
S1
  6
HIDDEN2
 62
     3
100
AcDbCircle
 10
-22.39341298576492
 20
2.047441695113064
 30
0.0
 40
0.175
100
AcDbArc
 50
90.0
 51
270.0
  0
ARC
  5
40B
330
2
100
AcDbEntity
  8
S1
  6
HIDDEN2
 62
     3
100
AcDbCircle
 10
-20.39341298576493
 20
2.047441695113064
 30
0.0
 40
0.175
100
AcDbArc
 50
270.0
 51
90.0
  0
LINE
  5
40C
330
2
100
AcDbEntity
  8
S1
  6
HIDDEN2
 62
     3
100
AcDbLine
 10
-20.94341298576494
 20
2.472441695113076
 30
0.0
 11
-20.94341298576494
 21
2.872441695113053
 31
0.0
  0
LINE
  5
40D
330
2
100
AcDbEntity
  8
S1
  6
HIDDEN2
 62
     3
100
AcDbLine
 10
-21.74341298576495
 20
2.472441695113076
 30
0.0
 11
-21.74341298576495
 21
2.872441695113053
 31
0.0
  0
LINE
  5
40E
330
2
100
AcDbEntity
  8
S1
  6
HIDDEN2
 62
     3
100
AcDbLine
 10
-23.14341298576493
 20
2.672441695113064
 30
0.0
 11
-21.74341298576495
 21
2.672441695113064
 31
0.0
  0
LINE
  5
40F
330
2
100
AcDbEntity
  8
S1
  6
HIDDEN2
 62
     3
100
AcDbLine
 10
-23.14341298576493
 20
2.57244169511307
 30
0.0
 11
-21.74341298576495
 21
2.57244169511307
 31
0.0
  0
LINE
  5
410
330
2
100
AcDbEntity
  8
S1
  6
HIDDEN2
 62
     3
100
AcDbLine
 10
-21.74341298576495
 20
2.872441695113053
 30
0.0
 11
-20.94341298576494
 21
2.872441695113053
 31
0.0
  0
LINE
  5
411
330
2
100
AcDbEntity
  8
S1
  6
HIDDEN2
 62
     3
100
AcDbLine
 10
-21.74341298576495
 20
2.472441695113076
 30
0.0
 11
-20.94341298576494
 21
2.472441695113076
 31
0.0
  0
LINE
  5
412
330
2
100
AcDbEntity
  8
S1
  6
HIDDEN2
 62
     3
100
AcDbLine
 10
-17.9184129857649
 20
3.32244169511307
 30
0.0
 11
-17.9184129857649
 21
3.422441695113064
 31
0.0
  0
LINE
  5
413
330
2
100
AcDbEntity
  8
S1
  6
HIDDEN2
 62
     3
100
AcDbLine
 10
-18.21841298576497
 20
3.32244169511307
 30
0.0
 11
-18.21841298576497
 21
3.422441695113064
 31
0.0
  0
LINE
  5
414
330
2
100
AcDbEntity
  8
S1
  6
HIDDEN2
 62
     3
100
AcDbLine
 10
-20.56841298576494
 20
3.32244169511307
 30
0.0
 11
-20.56841298576494
 21
3.422441695113064
 31
0.0
  0
LINE
  5
415
330
2
100
AcDbEntity
  8
S1
  6
HIDDEN2
 62
     3
100
AcDbLine
 10
-20.86841298576495
 20
3.32244169511307
 30
0.0
 11
-20.86841298576495
 21
3.422441695113064
 31
0.0
  0
LINE
  5
416
330
2
100
AcDbEntity
  8
S1
  6
HIDDEN2
 62
     3
100
AcDbLine
 10
-17.0434129857649
 20
2.472441695113076
 30
0.0
 11
-17.0434129857649
 21
2.872441695113053
 31
0.0
  0
LINE
  5
417
330
2
100
AcDbEntity
  8
S1
  6
HIDDEN2
 62
     3
100
AcDbLine
 10
-17.84341298576497
 20
2.472441695113076
 30
0.0
 11
-17.84341298576497
 21
2.872441695113053
 31
0.0
  0
LINE
  5
418
330
2
100
AcDbEntity
  8
S1
  6
HIDDEN2
 62
     3
100
AcDbLine
 10
-17.0434129857649
 20
2.872441695113053
 30
0.0
 11
-17.84341298576497
 21
2.872441695113053
 31
0.0
  0
LINE
  5
419
330
2
100
AcDbEntity
  8
S1
  6
HIDDEN2
 62
     3
100
AcDbLine
 10
-17.0434129857649
 20
2.472441695113076
 30
0.0
 11
-17.84341298576497
 21
2.472441695113076
 31
0.0
  0
LINE
  5
41A
330
2
100
AcDbEntity
  8
S1
  6
HIDDEN2
 62
     3
100
AcDbLine
 10
-17.84341298576497
 20
2.57244169511307
 30
0.0
 11
-20.94341298576494
 21
2.57244169511307
 31
0.0
  0
LINE
  5
41B
330
2
100
AcDbEntity
  8
S1
  6
HIDDEN2
 62
     3
100
AcDbLine
 10
-17.84341298576497
 20
2.672441695113064
 30
0.0
 11
-20.94341298576494
 21
2.672441695113064
 31
0.0
  0
LINE
  5
41C
330
2
100
AcDbEntity
  8
S1
  6
HIDDEN2
 62
     3
100
AcDbLine
 10
-23.14341298576493
 20
3.422441695113064
 30
0.0
 11
-23.14341298576493
 21
1.172441695113064
 31
0.0
  0
LINE
  5
41D
330
2
100
AcDbEntity
  8
S1
  6
HIDDEN2
 62
     3
100
AcDbLine
 10
-9.723980685764942
 20
2.672441695113064
 30
0.0
 11
-17.0434129857649
 21
2.672441695113064
 31
0.0
  0
LINE
  5
41E
330
2
100
AcDbEntity
  8
S1
  6
HIDDEN2
 62
     3
100
AcDbLine
 10
-9.743412985764948
 20
2.57244169511307
 30
0.0
 11
-17.0434129857649
 21
2.57244169511307
 31
0.0
  0
LINE
  5
41F
330
2
100
AcDbEntity
  8
S1
  6
HIDDEN2
 62
     3
100
AcDbLine
 10
-9.393412985764925
 20
1.272441695113059
 30
0.0
 11
-23.14341298576493
 21
1.272441695113059
 31
0.0
  0
LINE
  5
420
330
2
100
AcDbEntity
  8
S1
  6
HIDDEN2
 62
     3
100
AcDbLine
 10
-9.393412985764925
 20
3.32244169511307
 30
0.0
 11
-23.14341298576493
 21
3.32244169511307
 31
0.0
  0
LINE
  5
421
330
2
100
AcDbEntity
  8
S1
  6
HIDDEN2
 62
     3
100
AcDbLine
 10
-9.393412985764925
 20
3.422441695113064
 30
0.0
 11
-23.14341298576493
 21
3.422441695113064
 31
0.0
  0
LINE
  5
422
330
2
100
AcDbEntity
  8
S1
  6
HIDDEN2
 62
     3
100
AcDbLine
 10
-9.393412985764925
 20
1.172441695113064
 30
0.0
 11
-23.14341298576493
 21
1.172441695113064
 31
0.0
  0
LINE
  5
423
330
2
100
AcDbEntity
  8
S1
  6
HIDDEN2
 62
     3
100
AcDbLine
 10
4.356587014235074
 20
3.422441695113064
 30
0.0
 11
4.356587014235074
 21
1.172441695113064
 31
0.0
  0
LINE
  5
424
330
2
100
AcDbEntity
  8
S1
  6
HIDDEN2
 62
     3
100
AcDbLine
 10
-1.743412985764948
 20
2.472441695113076
 30
0.0
 11
-0.9434129857649367
 21
2.472441695113076
 31
0.0
  0
LINE
  5
425
330
2
100
AcDbEntity
  8
S1
  6
HIDDEN2
 62
     3
100
AcDbLine
 10
-1.743412985764948
 20
2.872441695113053
 30
0.0
 11
-0.9434129857649367
 21
2.872441695113053
 31
0.0
  0
LINE
  5
426
330
2
100
AcDbEntity
  8
S1
  6
HIDDEN2
 62
     3
100
AcDbLine
 10
-0.9434129857649367
 20
2.472441695113076
 30
0.0
 11
-0.9434129857649367
 21
2.872441695113053
 31
0.0
  0
LINE
  5
427
330
2
100
AcDbEntity
  8
S1
  6
HIDDEN2
 62
     3
100
AcDbLine
 10
-1.743412985764948
 20
2.472441695113076
 30
0.0
 11
-1.743412985764948
 21
2.872441695113053
 31
0.0
  0
LINE
  5
428
330
2
100
AcDbEntity
  8
S1
  6
HIDDEN2
 62
     3
100
AcDbLine
 10
2.081587014235097
 20
3.32244169511307
 30
0.0
 11
2.081587014235097
 21
3.422441695113064
 31
0.0
  0
LINE
  5
429
330
2
100
AcDbEntity
  8
S1
  6
HIDDEN2
 62
     3
100
AcDbLine
 10
1.781587014235029
 20
3.32244169511307
 30
0.0
 11
1.781587014235029
 21
3.422441695113064
 31
0.0
  0
LINE
  5
42A
330
2
100
AcDbEntity
  8
S1
  6
HIDDEN2
 62
     3
100
AcDbLine
 10
-0.5684129857649367
 20
3.32244169511307
 30
0.0
 11
-0.5684129857649367
 21
3.422441695113064
 31
0.0
  0
LINE
  5
42B
330
2
100
AcDbEntity
  8
S1
  6
HIDDEN2
 62
     3
100
AcDbLine
 10
-0.868412985764948
 20
3.32244169511307
 30
0.0
 11
-0.868412985764948
 21
3.422441695113064
 31
0.0
  0
LINE
  5
42C
330
2
100
AcDbEntity
  8
S1
  6
HIDDEN2
 62
     3
100
AcDbLine
 10
2.956587014235097
 20
2.472441695113076
 30
0.0
 11
2.156587014235029
 21
2.472441695113076
 31
0.0
  0
LINE
  5
42D
330
2
100
AcDbEntity
  8
S1
  6
HIDDEN2
 62
     3
100
AcDbLine
 10
2.956587014235097
 20
2.872441695113053
 30
0.0
 11
2.156587014235029
 21
2.872441695113053
 31
0.0
  0
LINE
  5
42E
330
2
100
AcDbEntity
  8
S1
  6
HIDDEN2
 62
     3
100
AcDbLine
 10
4.356587014235074
 20
2.57244169511307
 30
0.0
 11
2.956587014235097
 21
2.57244169511307
 31
0.0
  0
LINE
  5
42F
330
2
100
AcDbEntity
  8
S1
  6
HIDDEN2
 62
     3
100
AcDbLine
 10
4.356587014235074
 20
2.672441695113064
 30
0.0
 11
2.956587014235097
 21
2.672441695113064
 31
0.0
  0
LINE
  5
430
330
2
100
AcDbEntity
  8
S1
  6
HIDDEN2
 62
     3
100
AcDbLine
 10
2.956587014235097
 20
2.472441695113076
 30
0.0
 11
2.956587014235097
 21
2.872441695113053
 31
0.0
  0
LINE
  5
431
330
2
100
AcDbEntity
  8
S1
  6
HIDDEN2
 62
     3
100
AcDbLine
 10
2.156587014235029
 20
2.472441695113076
 30
0.0
 11
2.156587014235029
 21
2.872441695113053
 31
0.0
  0
LINE
  5
432
330
2
100
AcDbEntity
  8
S1
  6
HIDDEN2
 62
     3
100
AcDbLine
 10
2.156587014235029
 20
2.672441695113064
 30
0.0
 11
-0.9434129857649367
 21
2.672441695113064
 31
0.0
  0
LINE
  5
433
330
2
100
AcDbEntity
  8
S1
  6
HIDDEN2
 62
     3
100
AcDbLine
 10
2.156587014235029
 20
2.57244169511307
 30
0.0
 11
-0.9434129857649367
 21
2.57244169511307
 31
0.0
  0
LINE
  5
434
330
2
100
AcDbEntity
  8
S1
  6
HIDDEN2
 62
     3
100
AcDbLine
 10
-9.062845285764964
 20
2.672441695113064
 30
0.0
 11
-1.743412985764948
 21
2.672441695113064
 31
0.0
  0
LINE
  5
435
330
2
100
AcDbEntity
  8
S1
  6
HIDDEN2
 62
     3
100
AcDbLine
 10
-9.043412985764902
 20
2.57244169511307
 30
0.0
 11
-1.743412985764948
 21
2.57244169511307
 31
0.0
  0
LINE
  5
436
330
2
100
AcDbEntity
  8
S1
  6
HIDDEN2
 62
     3
100
AcDbLine
 10
-9.393412985764925
 20
1.272441695113059
 30
0.0
 11
4.356587014235074
 21
1.272441695113059
 31
0.0
  0
ARC
  5
437
330
2
100
AcDbEntity
  8
S1
  6
HIDDEN2
 62
     3
100
AcDbCircle
 10
1.606587014235074
 20
2.047441695113064
 30
0.0
 40
0.175
100
AcDbArc
 50
90.0
 51
270.0
  0
ARC
  5
438
330
2
100
AcDbEntity
  8
S1
  6
HIDDEN2
 62
     3
100
AcDbCircle
 10
3.606587014235074
 20
2.047441695113064
 30
0.0
 40
0.175
100
AcDbArc
 50
270.0
 51
90.0
  0
LINE
  5
439
330
2
100
AcDbEntity
  8
S1
  6
HIDDEN2
 62
     3
100
AcDbLine
 10
3.606587014235074
 20
1.872441695113053
 30
0.0
 11
1.606587014235074
 21
1.872441695113053
 31
0.0
  0
LINE
  5
43A
330
2
100
AcDbEntity
  8
S1
  6
HIDDEN2
 62
     3
100
AcDbLine
 10
3.606587014235074
 20
2.222441695113076
 30
0.0
 11
1.606587014235074
 21
2.222441695113076
 31
0.0
  0
ARC
  5
43B
330
2
100
AcDbEntity
  8
S1
  6
HIDDEN2
 62
     3
100
AcDbCircle
 10
-9.168412985764902
 20
2.226722795113033
 30
0.0
 40
0.05
100
AcDbArc
 50
124.2288660000121
 51
180.0
  0
ARC
  5
43C
330
2
100
AcDbEntity
  8
S1
  6
HIDDEN2
 62
     3
100
AcDbCircle
 10
-9.618412985764948
 20
2.226722795113033
 30
0.0
 40
0.05
100
AcDbArc
 50
0.0
 51
55.77113399998792
  0
LINE
  5
43D
330
2
100
AcDbEntity
  8
S1
  6
HIDDEN2
 62
     3
100
AcDbLine
 10
-9.393412985764925
 20
3.32244169511307
 30
0.0
 11
4.356587014235074
 21
3.32244169511307
 31
0.0
  0
ARC
  5
43E
330
2
100
AcDbEntity
  8
S1
  6
HIDDEN2
 62
     3
100
AcDbCircle
 10
-9.393412985764925
 20
2.557441695113055
 30
0.0
 40
0.35
100
AcDbArc
 50
304.2288660000121
 51
235.7711339999879
  0
LINE
  5
43F
330
2
100
AcDbEntity
  8
S1
  6
HIDDEN2
 62
     3
100
AcDbLine
 10
-9.393412985764925
 20
3.422441695113064
 30
0.0
 11
4.356587014235074
 21
3.422441695113064
 31
0.0
  0
LINE
  5
440
330
2
100
AcDbEntity
  8
S1
  6
HIDDEN2
 62
     3
100
AcDbLine
 10
-9.393412985764925
 20
1.172441695113064
 30
0.0
 11
4.356587014235074
 21
1.172441695113064
 31
0.0
  0
LINE
  5
441
330
2
100
AcDbEntity
  8
S1
  6
HIDDEN2
 62
     3
100
AcDbLine
 10
-9.568412985764936
 20
2.226722795113033
 30
0.0
 11
-9.568412985764936
 21
2.047441695113064
 31
0.0
  0
ARC
  5
442
330
2
100
AcDbEntity
  8
S1
  6
HIDDEN2
 62
     3
100
AcDbCircle
 10
-10.14341298576492
 20
2.047441695113064
 30
0.0
 40
0.175
100
AcDbArc
 50
270.0
 51
90.0
  0
LINE
  5
443
330
2
100
AcDbEntity
  8
S1
  6
HIDDEN2
 62
     3
100
AcDbLine
 10
-10.14341298576492
 20
1.872441695113053
 30
0.0
 11
-12.14341298576492
 21
1.872441695113053
 31
0.0
  0
LINE
  5
444
330
2
100
AcDbEntity
  8
S1
  6
HIDDEN2
 62
     3
100
AcDbLine
 10
-10.14341298576492
 20
2.222441695113076
 30
0.0
 11
-12.14341298576492
 21
2.222441695113076
 31
0.0
  0
ARC
  5
445
330
2
100
AcDbEntity
  8
S1
  6
HIDDEN2
 62
     3
100
AcDbCircle
 10
-12.14341298576492
 20
2.047441695113064
 30
0.0
 40
0.175
100
AcDbArc
 50
90.0
 51
270.0
  0
LINE
  5
446
330
2
100
AcDbEntity
  8
S1
  6
HIDDEN2
 62
     3
100
AcDbLine
 10
-9.21841298576497
 20
2.226722795113033
 30
0.0
 11
-9.21841298576497
 21
2.047441695113064
 31
0.0
  0
ARC
  5
447
330
2
100
AcDbEntity
  8
S1
  6
HIDDEN2
 62
     3
100
AcDbCircle
 10
-8.643412985764925
 20
2.047441695113064
 30
0.0
 40
0.175
100
AcDbArc
 50
90.0
 51
270.0
  0
LINE
  5
448
330
2
100
AcDbEntity
  8
S1
  6
HIDDEN2
 62
     3
100
AcDbLine
 10
-8.643412985764925
 20
1.872441695113053
 30
0.0
 11
-6.643412985764925
 21
1.872441695113053
 31
0.0
  0
LINE
  5
449
330
2
100
AcDbEntity
  8
S1
  6
HIDDEN2
 62
     3
100
AcDbLine
 10
-8.643412985764925
 20
2.222441695113076
 30
0.0
 11
-6.643412985764925
 21
2.222441695113076
 31
0.0
  0
ARC
  5
44A
330
2
100
AcDbEntity
  8
S1
  6
HIDDEN2
 62
     3
100
AcDbCircle
 10
-6.643412985764925
 20
2.047441695113064
 30
0.0
 40
0.175
100
AcDbArc
 50
270.0
 51
90.0
  0
ARC
  5
44B
330
2
100
AcDbEntity
  8
S1
  6
HIDDEN2
 62
     3
100
AcDbCircle
 10
-9.393412985764925
 20
2.047441695113064
 30
0.0
 40
0.175
100
AcDbArc
 50
180.0
 51
0.0
  0
LINE
  5
44C
330
2
100
AcDbEntity
  8
S1
  6
HIDDEN2
 62
     3
100
AcDbLine
 10
-0.3684129857649481
 20
3.422441695113064
 30
0.0
 11
-0.3684129857649481
 21
3.32244169511307
 31
0.0
  0
LINE
  5
44D
330
2
100
AcDbEntity
  8
S1
  6
HIDDEN2
 62
     3
100
AcDbLine
 10
3.856587014235074
 20
3.422441695113064
 30
0.0
 11
3.856587014235074
 21
3.32244169511307
 31
0.0
  0
LINE
  5
44E
330
2
100
AcDbEntity
  8
S1
  6
HIDDEN2
 62
     3
100
AcDbLine
 10
-3.96841298576497
 20
3.422441695113064
 30
0.0
 11
-3.96841298576497
 21
3.32244169511307
 31
0.0
  0
LINE
  5
44F
330
2
100
AcDbEntity
  8
S1
  6
HIDDEN2
 62
     3
100
AcDbLine
 10
-15.44341298576493
 20
3.422441695113064
 30
0.0
 11
-15.44341298576493
 21
3.32244169511307
 31
0.0
  0
ARC
  5
450
330
2
100
AcDbEntity
  8
S1
  6
HIDDEN2
 62
     3
100
AcDbCircle
 10
-19.9184129857649
 20
23.02244169511306
 30
0.0
 40
0.25
100
AcDbArc
 50
180.0
 51
196.665091000004
  0
LINE
  5
451
330
2
100
AcDbEntity
  8
S1
  6
HIDDEN2
 62
     3
100
AcDbLine
 10
-19.83815903576497
 20
22.77244169511306
 30
0.0
 11
-19.9184129857649
 21
22.77244169511306
 31
0.0
  0
LINE
  5
452
330
2
100
AcDbEntity
  8
S1
  6
HIDDEN2
 62
     3
100
AcDbLine
 10
-18.86841298576495
 20
22.77244169511306
 30
0.0
 11
-18.94866693576493
 21
22.77244169511306
 31
0.0
  0
ARC
  5
453
330
2
100
AcDbEntity
  8
S1
  6
HIDDEN2
 62
     3
100
AcDbCircle
 10
-18.86841298576495
 20
23.02244169511306
 30
0.0
 40
0.25
100
AcDbArc
 50
343.334908999996
 51
0.0
  0
ARC
  5
454
330
2
100
AcDbEntity
  8
S1
  6
HIDDEN2
 62
     3
100
AcDbCircle
 10
-19.9184129857649
 20
23.02244169511306
 30
0.0
 40
0.25
100
AcDbArc
 50
196.665091000004
 51
270.0
  0
ARC
  5
455
330
2
100
AcDbEntity
  8
S1
  6
HIDDEN2
 62
     3
100
AcDbCircle
 10
-18.86841298576495
 20
23.02244169511306
 30
0.0
 40
0.25
100
AcDbArc
 50
270.0
 51
343.334908999996
  0
LINE
  5
456
330
2
100
AcDbEntity
  8
S1
  6
HIDDEN2
 62
     3
100
AcDbLine
 10
-19.83815903576497
 20
22.77244169511306
 30
0.0
 11
-18.94866693576493
 21
22.77244169511306
 31
0.0
  0
LINE
  5
457
330
2
100
AcDbEntity
  8
S1
  6
HIDDEN2
 62
     3
100
AcDbLine
 10
-20.36841298576495
 20
23.17244169511306
 30
0.0
 11
-20.36841298576495
 21
23.07980109511305
 31
0.0
  0
LINE
  5
458
330
2
100
AcDbEntity
  8
S1
  6
HIDDEN2
 62
     3
100
AcDbLine
 10
-18.4184129857649
 20
23.17244169511306
 30
0.0
 11
-18.4184129857649
 21
23.07980109511305
 31
0.0
  0
LINE
  5
459
330
2
100
AcDbEntity
  8
S1
  6
HIDDEN2
 62
     3
100
AcDbLine
 10
-20.1684129857649
 20
23.09244169511305
 30
0.0
 11
-18.61841298576495
 21
23.09244169511305
 31
0.0
  0
LINE
  5
45A
330
2
100
AcDbEntity
  8
S1
  6
HIDDEN2
 62
     3
100
AcDbLine
 10
-18.61841298576495
 20
23.09244169511305
 30
0.0
 11
-18.4185478357649
 21
23.09244169511305
 31
0.0
  0
LINE
  5
45B
330
2
100
AcDbEntity
  8
S1
  6
HIDDEN2
 62
     3
100
AcDbLine
 10
-20.1684129857649
 20
23.02244169511306
 30
0.0
 11
-20.1684129857649
 21
23.09244169511305
 31
0.0
  0
LINE
  5
45C
330
2
100
AcDbEntity
  8
S1
  6
HIDDEN2
 62
     3
100
AcDbLine
 10
-18.61841298576495
 20
23.02244169511306
 30
0.0
 11
-18.61841298576495
 21
23.09244169511305
 31
0.0
  0
LINE
  5
45D
330
2
100
AcDbEntity
  8
S1
  6
HIDDEN2
 62
     3
100
AcDbLine
 10
-20.1684129857649
 20
23.09244169511305
 30
0.0
 11
-20.1684129857649
 21
23.17244169511306
 31
0.0
  0
LINE
  5
45E
330
2
100
AcDbEntity
  8
S1
  6
HIDDEN2
 62
     3
100
AcDbLine
 10
-18.61841298576495
 20
23.17244169511306
 30
0.0
 11
-18.61841298576495
 21
23.09244169511305
 31
0.0
  0
LINE
  5
45F
330
2
100
AcDbEntity
  8
S1
  6
HIDDEN2
 62
     3
100
AcDbLine
 10
-19.31841298576493
 20
3.502441695113077
 30
0.0
 11
-19.31841298576493
 21
3.602441695113071
 31
0.0
  0
LINE
  5
460
330
2
100
AcDbEntity
  8
S1
  6
HIDDEN2
 62
     3
100
AcDbLine
 10
-19.4184129857649
 20
3.502441695113077
 30
0.0
 11
-19.4184129857649
 21
3.602441695113071
 31
0.0
  0
LINE
  5
461
330
2
100
AcDbEntity
  8
S1
  6
HIDDEN2
 62
     3
100
AcDbLine
 10
-19.61841298576494
 20
3.502441695113077
 30
0.0
 11
-19.61841298576494
 21
3.602441695113071
 31
0.0
  0
LINE
  5
462
330
2
100
AcDbEntity
  8
S1
  6
HIDDEN2
 62
     3
100
AcDbLine
 10
-19.71841298576497
 20
3.502441695113077
 30
0.0
 11
-19.71841298576497
 21
3.602441695113071
 31
0.0
  0
LINE
  5
463
330
2
100
AcDbEntity
  8
S1
  6
HIDDEN2
 62
     3
100
AcDbLine
 10
-19.31841298576493
 20
3.602441695113071
 30
0.0
 11
-19.71841298576497
 21
3.602441695113071
 31
0.0
  0
ARC
  5
464
330
2
100
AcDbEntity
  8
S1
  6
HIDDEN2
 62
     3
100
AcDbCircle
 10
-19.69841298576493
 20
3.502441695113077
 30
0.0
 40
0.08
100
AcDbArc
 50
270.0
 51
0.0
  0
ARC
  5
465
330
2
100
AcDbEntity
  8
S1
  6
HIDDEN2
 62
     3
100
AcDbCircle
 10
-19.33841298576497
 20
3.502441695113077
 30
0.0
 40
0.08
100
AcDbArc
 50
180.0
 51
270.0
  0
LINE
  5
466
330
2
100
AcDbEntity
  8
S1
  6
HIDDEN2
 62
     3
100
AcDbLine
 10
-19.64341298576492
 20
3.602441695113071
 30
0.0
 11
-19.64341298576492
 21
3.444346945113068
 31
0.0
  0
LINE
  5
467
330
2
100
AcDbEntity
  8
S1
  6
HIDDEN2
 62
     3
100
AcDbLine
 10
-19.39341298576492
 20
3.602441695113071
 30
0.0
 11
-19.39341298576492
 21
3.444346945113068
 31
0.0
  0
LINE
  5
468
330
2
100
AcDbEntity
  8
S1
  6
HIDDEN2
 62
     3
100
AcDbLine
 10
-21.06341298576494
 20
7.497441695113053
 30
0.0
 11
-20.96341298576497
 21
7.497441695113053
 31
0.0
  0
LINE
  5
469
330
2
100
AcDbEntity
  8
S1
  6
HIDDEN2
 62
     3
100
AcDbLine
 10
-21.06341298576494
 20
7.397441695113059
 30
0.0
 11
-20.96341298576497
 21
7.397441695113059
 31
0.0
  0
LINE
  5
46A
330
2
100
AcDbEntity
  8
S1
  6
HIDDEN2
 62
     3
100
AcDbLine
 10
-20.96341298576497
 20
7.422441695113064
 30
0.0
 11
-21.12150773576495
 21
7.422441695113064
 31
0.0
  0
LINE
  5
46B
330
2
100
AcDbEntity
  8
S1
  6
HIDDEN2
 62
     3
100
AcDbLine
 10
-20.96341298576497
 20
7.047441695113064
 30
0.0
 11
-20.96341298576497
 21
7.497441695113053
 31
0.0
  0
LINE
  5
46C
330
2
100
AcDbEntity
  8
S1
  6
HIDDEN2
 62
     3
100
AcDbLine
 10
-21.06341298576494
 20
7.147441695113059
 30
0.0
 11
-20.96341298576497
 21
7.147441695113059
 31
0.0
  0
LINE
  5
46D
330
2
100
AcDbEntity
  8
S1
  6
HIDDEN2
 62
     3
100
AcDbLine
 10
-20.96341298576497
 20
7.122441695113053
 30
0.0
 11
-21.12150773576495
 21
7.122441695113053
 31
0.0
  0
LINE
  5
46E
330
2
100
AcDbEntity
  8
S1
  6
HIDDEN2
 62
     3
100
AcDbLine
 10
-21.06341298576494
 20
7.047441695113064
 30
0.0
 11
-20.96341298576497
 21
7.047441695113064
 31
0.0
  0
ARC
  5
46F
330
2
100
AcDbEntity
  8
S1
  6
HIDDEN2
 62
     3
100
AcDbCircle
 10
-21.06341298576494
 20
7.477441695113071
 30
0.0
 40
0.08
100
AcDbArc
 50
180.0
 51
270.0
  0
ARC
  5
470
330
2
100
AcDbEntity
  8
S1
  6
HIDDEN2
 62
     3
100
AcDbCircle
 10
-21.06341298576494
 20
7.067441695113046
 30
0.0
 40
0.08
100
AcDbArc
 50
90.0
 51
180.0
  0
ARC
  5
471
330
2
100
AcDbEntity
  8
S1
  6
HIDDEN2
 62
     3
100
AcDbCircle
 10
-21.03841298576491
 20
3.502441695113077
 30
0.0
 40
0.08
100
AcDbArc
 50
0.0
 51
90.0
  0
ARC
  5
472
330
2
100
AcDbEntity
  8
S1
  6
HIDDEN2
 62
     3
100
AcDbCircle
 10
-17.74841298576494
 20
3.502441695113077
 30
0.0
 40
0.08
100
AcDbArc
 50
90.0
 51
180.0
  0
ARC
  5
473
330
2
100
AcDbEntity
  8
S1
  6
HIDDEN2
 62
     3
100
AcDbCircle
 10
-17.74841298576494
 20
23.09244169511305
 30
0.0
 40
0.08
100
AcDbArc
 50
180.0
 51
270.0
  0
ARC
  5
474
330
2
100
AcDbEntity
  8
S1
  6
HIDDEN2
 62
     3
100
AcDbCircle
 10
-21.03841298576491
 20
23.09244169511305
 30
0.0
 40
0.08
100
AcDbArc
 50
270.0
 51
0.0
  0
LINE
  5
475
330
2
100
AcDbEntity
  8
S1
  6
HIDDEN2
 62
     3
100
AcDbLine
 10
-21.06341298576494
 20
20.79744169511307
 30
0.0
 11
-21.06341298576494
 21
19.24744169511305
 31
0.0
  0
LINE
  5
476
330
2
100
AcDbEntity
  8
S1
  6
HIDDEN2
 62
     3
100
AcDbLine
 10
-21.06341298576494
 20
20.99744169511305
 30
0.0
 11
-21.06341298576494
 21
20.79744169511307
 31
0.0
  0
LINE
  5
477
330
2
100
AcDbEntity
  8
S1
  6
HIDDEN2
 62
     3
100
AcDbLine
 10
-21.06341298576494
 20
4.247441695113053
 30
0.0
 11
-21.06341298576494
 21
5.797441695113064
 31
0.0
  0
LINE
  5
478
330
2
100
AcDbEntity
  8
S1
  6
HIDDEN2
 62
     3
100
AcDbLine
 10
-21.06341298576494
 20
5.797441695113064
 30
0.0
 11
-21.06341298576494
 21
5.997441695113053
 31
0.0
  0
LINE
  5
479
330
2
100
AcDbEntity
  8
S1
  6
HIDDEN2
 62
     3
100
AcDbLine
 10
-21.06341298576494
 20
4.247441695113053
 30
0.0
 11
-21.06341298576494
 21
4.047441695113064
 31
0.0
  0
LINE
  5
47A
330
2
100
AcDbEntity
  8
S1
  6
HIDDEN2
 62
     3
100
AcDbLine
 10
-18.84341298576497
 20
8.297441695113064
 30
0.0
 11
-18.84341298576497
 21
8.377441695113077
 31
0.0
  0
LINE
  5
47B
330
2
100
AcDbEntity
  8
S1
  6
HIDDEN2
 62
     3
100
AcDbLine
 10
-19.94341298576493
 20
8.297441695113064
 30
0.0
 11
-19.94341298576493
 21
8.377441695113077
 31
0.0
  0
ARC
  5
47C
330
2
100
AcDbEntity
  8
S1
  6
HIDDEN2
 62
     3
100
AcDbCircle
 10
-17.1684129857649
 20
23.86744169511306
 30
0.0
 40
0.1
100
AcDbArc
 50
270.0
 51
0.0
  0
ARC
  5
47D
330
2
100
AcDbEntity
  8
S1
  6
HIDDEN2
 62
     3
100
AcDbCircle
 10
-17.71841298576497
 20
3.347441695113076
 30
0.0
 40
0.075
100
AcDbArc
 50
270.0
 51
0.0
  0
LINE
  5
47E
330
2
100
AcDbEntity
  8
S1
  6
HIDDEN2
 62
     3
100
AcDbLine
 10
-17.74341298576494
 20
3.272441695113059
 30
0.0
 11
-17.71841298576497
 21
3.272441695113059
 31
0.0
  0
ARC
  5
47F
330
2
100
AcDbEntity
  8
S1
  6
HIDDEN2
 62
     3
100
AcDbCircle
 10
-21.06841298576494
 20
3.347441695113076
 30
0.0
 40
0.075
100
AcDbArc
 50
180.0
 51
270.0
  0
LINE
  5
480
330
2
100
AcDbEntity
  8
S1
  6
HIDDEN2
 62
     3
100
AcDbLine
 10
-21.0434129857649
 20
3.272441695113059
 30
0.0
 11
-21.06841298576494
 21
3.272441695113059
 31
0.0
  0
ARC
  5
481
330
2
100
AcDbEntity
  8
S1
  6
HIDDEN2
 62
     3
100
AcDbCircle
 10
-21.06841298576494
 20
23.24744169511305
 30
0.0
 40
0.075
100
AcDbArc
 50
90.0
 51
180.0
  0
LINE
  5
482
330
2
100
AcDbEntity
  8
S1
  6
HIDDEN2
 62
     3
100
AcDbLine
 10
-21.0434129857649
 20
23.32244169511307
 30
0.0
 11
-21.06841298576494
 21
23.32244169511307
 31
0.0
  0
ARC
  5
483
330
2
100
AcDbEntity
  8
S1
  6
HIDDEN2
 62
     3
100
AcDbCircle
 10
-17.71841298576497
 20
23.24744169511305
 30
0.0
 40
0.075
100
AcDbArc
 50
0.0
 51
90.0
  0
LINE
  5
484
330
2
100
AcDbEntity
  8
S1
  6
HIDDEN2
 62
     3
100
AcDbLine
 10
-17.74341298576494
 20
23.32244169511307
 30
0.0
 11
-17.71841298576497
 21
23.32244169511307
 31
0.0
  0
LINE
  5
485
330
2
100
AcDbEntity
  8
S1
  6
HIDDEN2
 62
     3
100
AcDbLine
 10
-21.06341298576494
 20
5.997441695113053
 30
0.0
 11
-21.06341298576494
 21
19.04744169511306
 31
0.0
  0
LINE
  5
486
330
2
100
AcDbEntity
  8
S1
  6
HIDDEN2
 62
     3
100
AcDbLine
 10
-21.06341298576494
 20
19.04744169511306
 30
0.0
 11
-21.06341298576494
 21
19.24744169511305
 31
0.0
  0
LINE
  5
487
330
2
100
AcDbEntity
  8
S1
  6
HIDDEN2
 62
     3
100
AcDbLine
 10
-21.06341298576494
 20
20.99744169511305
 30
0.0
 11
-21.06341298576494
 21
23.01244169511307
 31
0.0
  0
LINE
  5
488
330
2
100
AcDbEntity
  8
S1
  6
HIDDEN2
 62
     3
100
AcDbLine
 10
-17.86841298576495
 20
3.502441695113077
 30
0.0
 11
-17.86841298576495
 21
3.602441695113071
 31
0.0
  0
LINE
  5
489
330
2
100
AcDbEntity
  8
S1
  6
HIDDEN2
 62
     3
100
AcDbLine
 10
-20.9184129857649
 20
3.502441695113077
 30
0.0
 11
-20.9184129857649
 21
3.602441695113071
 31
0.0
  0
ARC
  5
48A
330
2
100
AcDbEntity
  8
S1
  6
HIDDEN2
 62
     3
100
AcDbCircle
 10
-17.88841298576493
 20
3.502441695113077
 30
0.0
 40
0.08
100
AcDbArc
 50
180.0
 51
270.0
  0
ARC
  5
48B
330
2
100
AcDbEntity
  8
S1
  6
HIDDEN2
 62
     3
100
AcDbCircle
 10
-18.24841298576494
 20
3.502441695113077
 30
0.0
 40
0.08
100
AcDbArc
 50
270.0
 51
0.0
  0
LINE
  5
48C
330
2
100
AcDbEntity
  8
S1
  6
HIDDEN2
 62
     3
100
AcDbLine
 10
-18.26841298576492
 20
3.502441695113077
 30
0.0
 11
-18.26841298576492
 21
3.602441695113071
 31
0.0
  0
LINE
  5
48D
330
2
100
AcDbEntity
  8
S1
  6
HIDDEN2
 62
     3
100
AcDbLine
 10
-18.1684129857649
 20
3.502441695113077
 30
0.0
 11
-18.1684129857649
 21
3.602441695113071
 31
0.0
  0
LINE
  5
48E
330
2
100
AcDbEntity
  8
S1
  6
HIDDEN2
 62
     3
100
AcDbLine
 10
-17.96841298576497
 20
3.502441695113077
 30
0.0
 11
-17.96841298576497
 21
3.602441695113071
 31
0.0
  0
LINE
  5
48F
330
2
100
AcDbEntity
  8
S1
  6
HIDDEN2
 62
     3
100
AcDbLine
 10
-17.86841298576495
 20
3.602441695113071
 30
0.0
 11
-18.26841298576492
 21
3.602441695113071
 31
0.0
  0
ARC
  5
490
330
2
100
AcDbEntity
  8
S1
  6
HIDDEN2
 62
     3
100
AcDbCircle
 10
-20.53841298576491
 20
3.502441695113077
 30
0.0
 40
0.08
100
AcDbArc
 50
180.0
 51
270.0
  0
ARC
  5
491
330
2
100
AcDbEntity
  8
S1
  6
HIDDEN2
 62
     3
100
AcDbCircle
 10
-20.89841298576492
 20
3.502441695113077
 30
0.0
 40
0.08
100
AcDbArc
 50
270.0
 51
0.0
  0
LINE
  5
492
330
2
100
AcDbEntity
  8
S1
  6
HIDDEN2
 62
     3
100
AcDbLine
 10
-20.81841298576494
 20
3.502441695113077
 30
0.0
 11
-20.81841298576494
 21
3.602441695113071
 31
0.0
  0
LINE
  5
493
330
2
100
AcDbEntity
  8
S1
  6
HIDDEN2
 62
     3
100
AcDbLine
 10
-20.61841298576495
 20
3.502441695113077
 30
0.0
 11
-20.61841298576495
 21
3.602441695113071
 31
0.0
  0
LINE
  5
494
330
2
100
AcDbEntity
  8
S1
  6
HIDDEN2
 62
     3
100
AcDbLine
 10
-20.51841298576492
 20
3.502441695113077
 30
0.0
 11
-20.51841298576492
 21
3.602441695113071
 31
0.0
  0
LINE
  5
495
330
2
100
AcDbEntity
  8
S1
  6
HIDDEN2
 62
     3
100
AcDbLine
 10
-20.9184129857649
 20
3.602441695113071
 30
0.0
 11
-20.51841298576492
 21
3.602441695113071
 31
0.0
  0
ARC
  5
496
330
2
100
AcDbEntity
  8
S1
  6
HIDDEN2
 62
     3
100
AcDbCircle
 10
-17.74341298576494
 20
3.19744169511307
 30
0.0
 40
0.075
100
AcDbArc
 50
90.0
 51
180.0
  0
ARC
  5
497
330
2
100
AcDbEntity
  8
S1
  6
HIDDEN2
 62
     3
100
AcDbCircle
 10
-17.1684129857649
 20
2.727441695113071
 30
0.0
 40
0.1
100
AcDbArc
 50
0.0
 51
90.0
  0
ARC
  5
498
330
2
100
AcDbEntity
  8
S1
  6
HIDDEN2
 62
     3
100
AcDbCircle
 10
-17.71841298576497
 20
2.727441695113071
 30
0.0
 40
0.1
100
AcDbArc
 50
90.0
 51
180.0
  0
LINE
  5
499
330
2
100
AcDbEntity
  8
S1
  6
HIDDEN2
 62
     3
100
AcDbLine
 10
-17.1684129857649
 20
2.827441695113094
 30
0.0
 11
-17.71841298576497
 21
2.827441695113094
 31
0.0
  0
LINE
  5
49A
330
2
100
AcDbEntity
  8
S1
  6
HIDDEN2
 62
     3
100
AcDbLine
 10
-17.06841298576494
 20
2.627441695113077
 30
0.0
 11
-17.81841298576494
 21
2.627441695113077
 31
0.0
  0
LINE
  5
49B
330
2
100
AcDbEntity
  8
S1
  6
HIDDEN2
 62
     3
100
AcDbLine
 10
-17.06841298576494
 20
2.547441695113064
 30
0.0
 11
-17.81841298576494
 21
2.547441695113064
 31
0.0
  0
LINE
  5
49C
330
2
100
AcDbEntity
  8
S1
  6
HIDDEN2
 62
     3
100
AcDbLine
 10
-17.81841298576494
 20
2.547441695113064
 30
0.0
 11
-17.81841298576494
 21
3.19744169511307
 31
0.0
  0
LINE
  5
49D
330
2
100
AcDbEntity
  8
S1
  6
HIDDEN2
 62
     3
100
AcDbLine
 10
-20.96841298576497
 20
2.547441695113064
 30
0.0
 11
-20.96841298576497
 21
3.19744169511307
 31
0.0
  0
LINE
  5
49E
330
2
100
AcDbEntity
  8
S1
  6
HIDDEN2
 62
     3
100
AcDbLine
 10
-21.71841298576497
 20
2.547441695113064
 30
0.0
 11
-20.96841298576497
 21
2.547441695113064
 31
0.0
  0
LINE
  5
49F
330
2
100
AcDbEntity
  8
S1
  6
HIDDEN2
 62
     3
100
AcDbLine
 10
-21.71841298576497
 20
2.627441695113077
 30
0.0
 11
-20.96841298576497
 21
2.627441695113077
 31
0.0
  0
LINE
  5
4A0
330
2
100
AcDbEntity
  8
S1
  6
HIDDEN2
 62
     3
100
AcDbLine
 10
-21.61841298576495
 20
2.827441695113094
 30
0.0
 11
-21.06841298576494
 21
2.827441695113094
 31
0.0
  0
ARC
  5
4A1
330
2
100
AcDbEntity
  8
S1
  6
HIDDEN2
 62
     3
100
AcDbCircle
 10
-21.06841298576494
 20
2.727441695113071
 30
0.0
 40
0.1
100
AcDbArc
 50
0.0
 51
90.0
  0
ARC
  5
4A2
330
2
100
AcDbEntity
  8
S1
  6
HIDDEN2
 62
     3
100
AcDbCircle
 10
-21.61841298576495
 20
2.727441695113071
 30
0.0
 40
0.1
100
AcDbArc
 50
90.0
 51
180.0
  0
ARC
  5
4A3
330
2
100
AcDbEntity
  8
S1
  6
HIDDEN2
 62
     3
100
AcDbCircle
 10
-21.0434129857649
 20
3.19744169511307
 30
0.0
 40
0.075
100
AcDbArc
 50
0.0
 51
90.0
  0
LINE
  5
4A4
330
2
100
AcDbEntity
  8
S1
  6
HIDDEN2
 62
     3
100
AcDbLine
 10
-17.72341298576496
 20
23.17244169511306
 30
0.0
 11
-17.72341298576496
 21
23.01244169511307
 31
0.0
  0
LINE
  5
4A5
330
2
100
AcDbEntity
  8
S1
  6
HIDDEN2
 62
     3
100
AcDbLine
 10
-17.82841298576492
 20
23.09244169511305
 30
0.0
 11
-17.82841298576492
 21
23.17244169511306
 31
0.0
  0
LINE
  5
4A6
330
2
100
AcDbEntity
  8
S1
  6
HIDDEN2
 62
     3
100
AcDbLine
 10
-17.82841298576492
 20
23.09244169511305
 30
0.0
 11
-17.74841298576494
 21
23.09244169511305
 31
0.0
  0
LINE
  5
4A7
330
2
100
AcDbEntity
  8
S1
  6
HIDDEN2
 62
     3
100
AcDbLine
 10
-17.74841298576494
 20
23.17244169511306
 30
0.0
 11
-17.74841298576494
 21
23.09244169511305
 31
0.0
  0
LINE
  5
4A8
330
2
100
AcDbEntity
  8
S1
  6
HIDDEN2
 62
     3
100
AcDbLine
 10
-18.26841298576492
 20
23.09244169511305
 30
0.0
 11
-18.26841298576492
 21
22.99244169511306
 31
0.0
  0
LINE
  5
4A9
330
2
100
AcDbEntity
  8
S1
  6
HIDDEN2
 62
     3
100
AcDbLine
 10
-17.86841298576495
 20
23.09244169511305
 30
0.0
 11
-17.86841298576495
 21
22.99244169511306
 31
0.0
  0
LINE
  5
4AA
330
2
100
AcDbEntity
  8
S1
  6
HIDDEN2
 62
     3
100
AcDbLine
 10
-18.1684129857649
 20
23.09244169511305
 30
0.0
 11
-18.1684129857649
 21
22.99244169511306
 31
0.0
  0
LINE
  5
4AB
330
2
100
AcDbEntity
  8
S1
  6
HIDDEN2
 62
     3
100
AcDbLine
 10
-17.96841298576497
 20
23.09244169511305
 30
0.0
 11
-17.96841298576497
 21
22.99244169511306
 31
0.0
  0
LINE
  5
4AC
330
2
100
AcDbEntity
  8
S1
  6
HIDDEN2
 62
     3
100
AcDbLine
 10
-17.86841298576495
 20
22.99244169511306
 30
0.0
 11
-18.26841298576492
 21
22.99244169511306
 31
0.0
  0
ARC
  5
4AD
330
2
100
AcDbEntity
  8
S1
  6
HIDDEN2
 62
     3
100
AcDbCircle
 10
-17.88841298576493
 20
23.09244169511305
 30
0.0
 40
0.08
100
AcDbArc
 50
90.0
 51
180.0
  0
ARC
  5
4AE
330
2
100
AcDbEntity
  8
S1
  6
HIDDEN2
 62
     3
100
AcDbCircle
 10
-18.24841298576494
 20
23.09244169511305
 30
0.0
 40
0.08
100
AcDbArc
 50
0.0
 51
90.0
  0
LINE
  5
4AF
330
2
100
AcDbEntity
  8
S1
  6
HIDDEN2
 62
     3
100
AcDbLine
 10
-17.72341298576496
 20
3.582441695113061
 30
0.0
 11
-17.72341298576496
 21
23.01244169511307
 31
0.0
  0
LINE
  5
4B0
330
2
100
AcDbEntity
  8
S1
  6
HIDDEN2
 62
     3
100
AcDbLine
 10
-17.72341298576496
 20
23.17244169511306
 30
0.0
 11
-17.64341298576492
 21
23.17244169511306
 31
0.0
  0
LINE
  5
4B1
330
2
100
AcDbEntity
  8
S1
  6
HIDDEN2
 62
     3
100
AcDbLine
 10
-17.64341298576492
 20
23.01244169511307
 30
0.0
 11
-17.74841298576494
 21
23.01244169511307
 31
0.0
  0
ARC
  5
4B2
330
2
100
AcDbEntity
  8
S1
  6
HIDDEN2
 62
     3
100
AcDbCircle
 10
-20.53841298576491
 20
23.09244169511305
 30
0.0
 40
0.08
100
AcDbArc
 50
90.0
 51
180.0
  0
ARC
  5
4B3
330
2
100
AcDbEntity
  8
S1
  6
HIDDEN2
 62
     3
100
AcDbCircle
 10
-20.89841298576492
 20
23.09244169511305
 30
0.0
 40
0.08
100
AcDbArc
 50
0.0
 51
90.0
  0
LINE
  5
4B4
330
2
100
AcDbEntity
  8
S1
  6
HIDDEN2
 62
     3
100
AcDbLine
 10
-20.9184129857649
 20
22.99244169511306
 30
0.0
 11
-20.51841298576492
 21
22.99244169511306
 31
0.0
  0
LINE
  5
4B5
330
2
100
AcDbEntity
  8
S1
  6
HIDDEN2
 62
     3
100
AcDbLine
 10
-20.81841298576494
 20
23.09244169511305
 30
0.0
 11
-20.81841298576494
 21
22.99244169511306
 31
0.0
  0
LINE
  5
4B6
330
2
100
AcDbEntity
  8
S1
  6
HIDDEN2
 62
     3
100
AcDbLine
 10
-20.61841298576495
 20
23.09244169511305
 30
0.0
 11
-20.61841298576495
 21
22.99244169511306
 31
0.0
  0
LINE
  5
4B7
330
2
100
AcDbEntity
  8
S1
  6
HIDDEN2
 62
     3
100
AcDbLine
 10
-20.9184129857649
 20
23.09244169511305
 30
0.0
 11
-20.9184129857649
 21
22.99244169511306
 31
0.0
  0
LINE
  5
4B8
330
2
100
AcDbEntity
  8
S1
  6
HIDDEN2
 62
     3
100
AcDbLine
 10
-20.51841298576492
 20
23.09244169511305
 30
0.0
 11
-20.51841298576492
 21
22.99244169511306
 31
0.0
  0
LINE
  5
4B9
330
2
100
AcDbEntity
  8
S1
  6
HIDDEN2
 62
     3
100
AcDbLine
 10
-21.03841298576491
 20
23.17244169511306
 30
0.0
 11
-21.03841298576491
 21
23.09244169511305
 31
0.0
  0
LINE
  5
4BA
330
2
100
AcDbEntity
  8
S1
  6
HIDDEN2
 62
     3
100
AcDbLine
 10
-20.95841298576492
 20
23.09244169511305
 30
0.0
 11
-21.03841298576491
 21
23.09244169511305
 31
0.0
  0
LINE
  5
4BB
330
2
100
AcDbEntity
  8
S1
  6
HIDDEN2
 62
     3
100
AcDbLine
 10
-20.95841298576492
 20
23.09244169511305
 30
0.0
 11
-20.95841298576492
 21
23.17244169511306
 31
0.0
  0
LINE
  5
4BC
330
2
100
AcDbEntity
  8
S1
  6
HIDDEN2
 62
     3
100
AcDbLine
 10
-21.06341298576494
 20
23.17244169511306
 30
0.0
 11
-21.06341298576494
 21
23.01244169511307
 31
0.0
  0
LINE
  5
4BD
330
2
100
AcDbEntity
  8
S1
  6
HIDDEN2
 62
     3
100
AcDbLine
 10
-21.14341298576492
 20
23.01244169511307
 30
0.0
 11
-21.03841298576491
 21
23.01244169511307
 31
0.0
  0
LINE
  5
4BE
330
2
100
AcDbEntity
  8
S1
  6
HIDDEN2
 62
     3
100
AcDbLine
 10
-21.06341298576494
 20
23.17244169511306
 30
0.0
 11
-21.14341298576492
 21
23.17244169511306
 31
0.0
  0
LINE
  5
4BF
330
2
100
AcDbEntity
  8
S1
  6
HIDDEN2
 62
     3
100
AcDbLine
 10
-21.06341298576494
 20
3.582441695113061
 30
0.0
 11
-21.06341298576494
 21
4.047441695113064
 31
0.0
  0
LINE
  5
4C0
330
2
100
AcDbEntity
  8
S1
  6
HIDDEN2
 62
     3
100
AcDbLine
 10
-17.81841298576494
 20
24.04744169511307
 30
0.0
 11
-17.81841298576494
 21
23.39744169511306
 31
0.0
  0
LINE
  5
4C1
330
2
100
AcDbEntity
  8
S1
  6
HIDDEN2
 62
     3
100
AcDbLine
 10
-17.06841298576494
 20
24.04744169511307
 30
0.0
 11
-17.81841298576494
 21
24.04744169511307
 31
0.0
  0
LINE
  5
4C2
330
2
100
AcDbEntity
  8
S1
  6
HIDDEN2
 62
     3
100
AcDbLine
 10
-17.06841298576494
 20
23.96744169511305
 30
0.0
 11
-17.81841298576494
 21
23.96744169511305
 31
0.0
  0
LINE
  5
4C3
330
2
100
AcDbEntity
  8
S1
  6
HIDDEN2
 62
     3
100
AcDbLine
 10
-17.1684129857649
 20
23.76744169511304
 30
0.0
 11
-17.71841298576497
 21
23.76744169511304
 31
0.0
  0
ARC
  5
4C4
330
2
100
AcDbEntity
  8
S1
  6
HIDDEN2
 62
     3
100
AcDbCircle
 10
-17.71841298576497
 20
23.86744169511306
 30
0.0
 40
0.1
100
AcDbArc
 50
180.0
 51
270.0
  0
ARC
  5
4C5
330
2
100
AcDbEntity
  8
S1
  6
HIDDEN2
 62
     3
100
AcDbCircle
 10
-17.74341298576494
 20
23.39744169511306
 30
0.0
 40
0.075
100
AcDbArc
 50
180.0
 51
270.0
  0
LINE
  5
4C6
330
2
100
AcDbEntity
  8
S1
  6
HIDDEN2
 62
     3
100
AcDbLine
 10
-17.06841298576494
 20
24.04744169511307
 30
0.0
 11
-17.06841298576494
 21
2.547441695113064
 31
0.0
  0
LINE
  5
4C7
330
2
100
AcDbEntity
  8
S1
  6
HIDDEN2
 62
     3
100
AcDbLine
 10
-17.64341298576492
 20
23.24744169511305
 30
0.0
 11
-17.64341298576492
 21
3.347441695113076
 31
0.0
  0
ARC
  5
4C8
330
2
100
AcDbEntity
  8
S1
  6
HIDDEN2
 62
     3
100
AcDbCircle
 10
-21.0434129857649
 20
23.39744169511306
 30
0.0
 40
0.075
100
AcDbArc
 50
270.0
 51
0.0
  0
ARC
  5
4C9
330
2
100
AcDbEntity
  8
S1
  6
HIDDEN2
 62
     3
100
AcDbCircle
 10
-21.61841298576495
 20
23.86744169511306
 30
0.0
 40
0.1
100
AcDbArc
 50
180.0
 51
270.0
  0
ARC
  5
4CA
330
2
100
AcDbEntity
  8
S1
  6
HIDDEN2
 62
     3
100
AcDbCircle
 10
-21.06841298576494
 20
23.86744169511306
 30
0.0
 40
0.1
100
AcDbArc
 50
270.0
 51
0.0
  0
LINE
  5
4CB
330
2
100
AcDbEntity
  8
S1
  6
HIDDEN2
 62
     3
100
AcDbLine
 10
-21.61841298576495
 20
23.76744169511304
 30
0.0
 11
-21.06841298576494
 21
23.76744169511304
 31
0.0
  0
LINE
  5
4CC
330
2
100
AcDbEntity
  8
S1
  6
HIDDEN2
 62
     3
100
AcDbLine
 10
-21.71841298576497
 20
23.96744169511305
 30
0.0
 11
-20.96841298576497
 21
23.96744169511305
 31
0.0
  0
LINE
  5
4CD
330
2
100
AcDbEntity
  8
S1
  6
HIDDEN2
 62
     3
100
AcDbLine
 10
-21.71841298576497
 20
24.04744169511307
 30
0.0
 11
-20.96841298576497
 21
24.04744169511307
 31
0.0
  0
LINE
  5
4CE
330
2
100
AcDbEntity
  8
S1
  6
HIDDEN2
 62
     3
100
AcDbLine
 10
-20.96841298576497
 20
24.04744169511307
 30
0.0
 11
-20.96841298576497
 21
23.39744169511306
 31
0.0
  0
LINE
  5
4CF
330
2
100
AcDbEntity
  8
S1
  6
HIDDEN2
 62
     3
100
AcDbLine
 10
-21.71841298576497
 20
24.04744169511307
 30
0.0
 11
-21.71841298576497
 21
2.547441695113064
 31
0.0
  0
LINE
  5
4D0
330
2
100
AcDbEntity
  8
S1
  6
HIDDEN2
 62
     3
100
AcDbLine
 10
-21.14341298576492
 20
23.24744169511305
 30
0.0
 11
-21.14341298576492
 21
3.347441695113076
 31
0.0
  0
LINE
  5
4D1
330
2
100
AcDbEntity
  8
S1
  6
HIDDEN2
 62
     3
100
AcDbLine
 10
-17.82841298576492
 20
3.502441695113077
 30
0.0
 11
-17.82841298576492
 21
3.422441695113064
 31
0.0
  0
LINE
  5
4D2
330
2
100
AcDbEntity
  8
S1
  6
HIDDEN2
 62
     3
100
AcDbLine
 10
-17.72341298576496
 20
3.422441695113064
 30
0.0
 11
-17.72341298576496
 21
3.582441695113061
 31
0.0
  0
LINE
  5
4D3
330
2
100
AcDbEntity
  8
S1
  6
HIDDEN2
 62
     3
100
AcDbLine
 10
-17.64341298576492
 20
3.582441695113061
 30
0.0
 11
-17.74841298576494
 21
3.582441695113061
 31
0.0
  0
LINE
  5
4D4
330
2
100
AcDbEntity
  8
S1
  6
HIDDEN2
 62
     3
100
AcDbLine
 10
-17.72341298576496
 20
3.422441695113064
 30
0.0
 11
-17.64341298576492
 21
3.422441695113064
 31
0.0
  0
LINE
  5
4D5
330
2
100
AcDbEntity
  8
S1
  6
HIDDEN2
 62
     3
100
AcDbLine
 10
-17.74841298576494
 20
3.422441695113064
 30
0.0
 11
-17.74841298576494
 21
3.502441695113077
 31
0.0
  0
LINE
  5
4D6
330
2
100
AcDbEntity
  8
S1
  6
HIDDEN2
 62
     3
100
AcDbLine
 10
-17.82841298576492
 20
3.502441695113077
 30
0.0
 11
-17.74841298576494
 21
3.502441695113077
 31
0.0
  0
LINE
  5
4D7
330
2
100
AcDbEntity
  8
S1
  6
HIDDEN2
 62
     3
100
AcDbLine
 10
-20.95841298576492
 20
3.502441695113077
 30
0.0
 11
-20.95841298576492
 21
3.422441695113064
 31
0.0
  0
LINE
  5
4D8
330
2
100
AcDbEntity
  8
S1
  6
HIDDEN2
 62
     3
100
AcDbLine
 10
-21.03841298576491
 20
3.422441695113064
 30
0.0
 11
-21.03841298576491
 21
3.502441695113077
 31
0.0
  0
LINE
  5
4D9
330
2
100
AcDbEntity
  8
S1
  6
HIDDEN2
 62
     3
100
AcDbLine
 10
-21.14341298576492
 20
3.582441695113061
 30
0.0
 11
-21.03841298576491
 21
3.582441695113061
 31
0.0
  0
LINE
  5
4DA
330
2
100
AcDbEntity
  8
S1
  6
HIDDEN2
 62
     3
100
AcDbLine
 10
-21.06341298576494
 20
3.422441695113064
 30
0.0
 11
-21.06341298576494
 21
3.582441695113061
 31
0.0
  0
LINE
  5
4DB
330
2
100
AcDbEntity
  8
S1
  6
HIDDEN2
 62
     3
100
AcDbLine
 10
-21.06341298576494
 20
3.422441695113064
 30
0.0
 11
-21.14341298576492
 21
3.422441695113064
 31
0.0
  0
LINE
  5
4DC
330
2
100
AcDbEntity
  8
S1
  6
HIDDEN2
 62
     3
100
AcDbLine
 10
-21.03841298576491
 20
3.502441695113077
 30
0.0
 11
-20.95841298576492
 21
3.502441695113077
 31
0.0
  0
LINE
  5
4DD
330
2
100
AcDbEntity
  8
S1
  6
HIDDEN2
 62
     3
100
AcDbLine
 10
-20.36827813576495
 20
23.09244169511305
 30
0.0
 11
-20.95841298576492
 21
23.09244169511305
 31
0.0
  0
LINE
  5
4DE
330
2
100
AcDbEntity
  8
S1
  6
HIDDEN2
 62
     3
100
AcDbLine
 10
-17.82841298576492
 20
23.09244169511305
 30
0.0
 11
-18.4185478357649
 21
23.09244169511305
 31
0.0
  0
LINE
  5
4DF
330
2
100
AcDbEntity
  8
S1
  6
HIDDEN2
 62
     3
100
AcDbLine
 10
-20.95841298576492
 20
3.502441695113077
 30
0.0
 11
-17.82841298576492
 21
3.502441695113077
 31
0.0
  0
LINE
  5
4E0
330
2
100
AcDbEntity
  8
S1
  6
HIDDEN2
 62
     3
100
AcDbLine
 10
-19.03091298576497
 20
21.47244169511308
 30
0.0
 11
-19.03091298576497
 21
22.44884784511308
 31
0.0
  0
LINE
  5
4E1
330
2
100
AcDbEntity
  8
S1
  6
HIDDEN2
 62
     3
100
AcDbLine
 10
-19.75591298576494
 20
21.47214119511307
 30
0.0
 11
-19.75591298576494
 21
22.44884784511308
 31
0.0
  0
LINE
  5
4E2
330
2
100
AcDbEntity
  8
S1
  6
HIDDEN2
 62
     3
100
AcDbLine
 10
-19.03091298576497
 20
6.472441695113076
 30
0.0
 11
-19.03091298576497
 21
6.732614845113062
 31
0.0
  0
LINE
  5
4E3
330
2
100
AcDbEntity
  8
S1
  6
HIDDEN2
 62
     3
100
AcDbLine
 10
-19.75591298576494
 20
6.472441695113076
 30
0.0
 11
-19.75591298576494
 21
6.732614845113062
 31
0.0
  0
LINE
  5
4E4
330
2
100
AcDbEntity
  8
S1
  6
HIDDEN2
 62
     3
100
AcDbLine
 10
-20.36827813576495
 20
23.09244169511305
 30
0.0
 11
-20.1684129857649
 21
23.09244169511305
 31
0.0
  0
LINE
  5
4E5
330
2
100
AcDbEntity
  8
S1
  6
HIDDEN2
 62
     3
100
AcDbLine
 10
-21.03841298576491
 20
3.422441695113064
 30
0.0
 11
-17.74841298576494
 21
3.422441695113064
 31
0.0
  0
LINE
  5
4E6
330
2
100
AcDbEntity
  8
S1
  6
HIDDEN2
 62
     3
100
AcDbLine
 10
-21.03841298576491
 20
23.17244169511306
 30
0.0
 11
-17.74841298576494
 21
23.17244169511306
 31
0.0
  0
ARC
  5
4E7
330
2
100
AcDbEntity
  8
S1
  6
HIDDEN2
 62
     3
100
AcDbCircle
 10
-19.49341298576495
 20
7.472441695113076
 30
0.0
 40
0.65
100
AcDbArc
 50
180.0
 51
235.2885059999925
  0
LINE
  5
4E8
330
2
100
AcDbEntity
  8
S1
  6
HIDDEN2
 62
     3
100
AcDbLine
 10
-20.14341298576493
 20
7.472441695113076
 30
0.0
 11
-20.14341298576493
 21
8.378270345113065
 31
0.0
  0
ARC
  5
4E9
330
2
100
AcDbEntity
  8
S1
  6
HIDDEN2
 62
     3
100
AcDbCircle
 10
-19.2934129857649
 20
7.472441695113076
 30
0.0
 40
0.65
100
AcDbArc
 50
304.7114940000075
 51
0.0
  0
LINE
  5
4EA
330
2
100
AcDbEntity
  8
S1
  6
HIDDEN2
 62
     3
100
AcDbLine
 10
-18.84341298576497
 20
8.377441695113077
 30
0.0
 11
-19.94341298576493
 21
8.377441695113077
 31
0.0
  0
LINE
  5
4EB
330
2
100
AcDbEntity
  8
S1
  6
HIDDEN2
 62
     3
100
AcDbLine
 10
-18.64341298576492
 20
7.472441695113076
 30
0.0
 11
-18.64341298576492
 21
8.377441695113077
 31
0.0
  0
LINE
  5
4EC
330
2
100
AcDbEntity
  8
S1
  6
HIDDEN2
 62
     3
100
AcDbLine
 10
-18.84341298576497
 20
8.297441695113064
 30
0.0
 11
-19.94341298576493
 21
8.297441695113064
 31
0.0
  0
ARC
  5
4ED
330
2
100
AcDbEntity
  8
S1
  6
HIDDEN2
 62
     3
100
AcDbCircle
 10
-18.78091298576497
 20
6.732614845113062
 30
0.0
 40
0.25
100
AcDbArc
 50
124.7114940000075
 51
180.0
  0
ARC
  5
4EE
330
2
100
AcDbEntity
  8
S1
  6
HIDDEN2
 62
     3
100
AcDbCircle
 10
-20.00591298576494
 20
6.732614845113062
 30
0.0
 40
0.25
100
AcDbArc
 50
0.0
 51
55.28850599999251
  0
LINE
  5
4EF
330
2
100
AcDbEntity
  8
S1
  6
HIDDEN2
 62
     3
100
AcDbLine
 10
-19.43091298576495
 20
21.14744169511306
 30
0.0
 11
-19.3559129857649
 21
21.14744169511306
 31
0.0
  0
ARC
  5
4F0
330
2
100
AcDbEntity
  8
S1
  6
HIDDEN2
 62
     3
100
AcDbCircle
 10
-19.3559129857649
 20
21.47244169511308
 30
0.0
 40
0.325
100
AcDbArc
 50
270.0
 51
0.0
  0
ARC
  5
4F1
330
2
100
AcDbEntity
  8
S1
  6
HIDDEN2
 62
     3
100
AcDbCircle
 10
-19.43091298576495
 20
21.47244169511308
 30
0.0
 40
0.325
100
AcDbArc
 50
180.0
 51
270.0
  0
LINE
  5
4F2
330
2
100
AcDbEntity
  8
S1
  6
HIDDEN2
 62
     3
100
AcDbLine
 10
-19.43091298576495
 20
6.147441695113059
 30
0.0
 11
-19.3559129857649
 21
6.147441695113059
 31
0.0
  0
ARC
  5
4F3
330
2
100
AcDbEntity
  8
S1
  6
HIDDEN2
 62
     3
100
AcDbCircle
 10
-19.3559129857649
 20
6.472441695113076
 30
0.0
 40
0.325
100
AcDbArc
 50
270.0
 51
0.0
  0
ARC
  5
4F4
330
2
100
AcDbEntity
  8
S1
  6
HIDDEN2
 62
     3
100
AcDbCircle
 10
-19.43091298576495
 20
6.472441695113076
 30
0.0
 40
0.325
100
AcDbArc
 50
180.0
 51
270.0
  0
ARC
  5
4F5
330
2
100
AcDbEntity
  8
S1
  6
HIDDEN2
 62
     3
100
AcDbCircle
 10
-19.39341298576492
 20
8.297441695113064
 30
0.0
 40
0.55
100
AcDbArc
 50
180.0
 51
0.0
  0
ARC
  5
4F6
330
2
100
AcDbEntity
  8
S1
  6
HIDDEN2
 62
     3
100
AcDbCircle
 10
-18.74341298576495
 20
8.377441695113077
 30
0.0
 40
0.1
100
AcDbArc
 50
0.0
 51
180.0
  0
ARC
  5
4F7
330
2
100
AcDbEntity
  8
S1
  6
HIDDEN2
 62
     3
100
AcDbCircle
 10
-20.0434129857649
 20
8.377441695113077
 30
0.0
 40
0.1
100
AcDbArc
 50
0.0
 51
180.0
  0
LINE
  5
4F8
330
2
100
AcDbEntity
  8
S1
  6
HIDDEN2
 62
     3
100
AcDbLine
 10
-21.14341298576492
 20
19.24744169511305
 30
0.0
 11
-20.7934129857649
 21
19.24744169511305
 31
0.0
  0
LINE
  5
4F9
330
2
100
AcDbEntity
  8
S1
  6
HIDDEN2
 62
     3
100
AcDbLine
 10
-21.14341298576492
 20
20.79744169511307
 30
0.0
 11
-20.7934129857649
 21
20.79744169511307
 31
0.0
  0
LINE
  5
4FA
330
2
100
AcDbEntity
  8
S1
  6
HIDDEN2
 62
     3
100
AcDbLine
 10
-21.14341298576492
 20
20.99744169511305
 30
0.0
 11
-20.50520988576493
 21
20.99744169511305
 31
0.0
  0
LINE
  5
4FB
330
2
100
AcDbEntity
  8
S1
  6
HIDDEN2
 62
     3
100
AcDbLine
 10
-21.14341298576492
 20
19.04744169511306
 30
0.0
 11
-20.50520988576493
 21
19.04744169511306
 31
0.0
  0
ARC
  5
4FC
330
2
100
AcDbEntity
  8
S1
  6
HIDDEN2
 62
     3
100
AcDbCircle
 10
-20.7934129857649
 20
20.54744169511307
 30
0.0
 40
0.25
100
AcDbArc
 50
0.0
 51
90.0
  0
LINE
  5
4FD
330
2
100
AcDbEntity
  8
S1
  6
HIDDEN2
 62
     3
100
AcDbLine
 10
-20.5434129857649
 20
19.49744169511305
 30
0.0
 11
-20.5434129857649
 21
20.54744169511307
 31
0.0
  0
ARC
  5
4FE
330
2
100
AcDbEntity
  8
S1
  6
HIDDEN2
 62
     3
100
AcDbCircle
 10
-20.7934129857649
 20
19.49744169511305
 30
0.0
 40
0.25
100
AcDbArc
 50
270.0
 51
0.0
  0
LINE
  5
4FF
330
2
100
AcDbEntity
  8
S1
  6
HIDDEN2
 62
     3
100
AcDbLine
 10
-18.76841298576492
 20
19.65994169511307
 30
0.0
 11
-19.74481913576493
 21
19.65994169511307
 31
0.0
  0
LINE
  5
500
330
2
100
AcDbEntity
  8
S1
  6
HIDDEN2
 62
     3
100
AcDbLine
 10
-18.76841298576492
 20
20.38494169511307
 30
0.0
 11
-19.74481913576493
 21
20.38494169511307
 31
0.0
  0
ARC
  5
501
330
2
100
AcDbEntity
  8
S1
  6
HIDDEN2
 62
     3
100
AcDbCircle
 10
-18.76841298576492
 20
19.98494169511306
 30
0.0
 40
0.325
100
AcDbArc
 50
270.0
 51
0.0
  0
ARC
  5
502
330
2
100
AcDbEntity
  8
S1
  6
HIDDEN2
 62
     3
100
AcDbCircle
 10
-18.76841298576492
 20
20.05994169511305
 30
0.0
 40
0.325
100
AcDbArc
 50
0.0
 51
90.0
  0
LINE
  5
503
330
2
100
AcDbEntity
  8
S1
  6
HIDDEN2
 62
     3
100
AcDbLine
 10
-18.44341298576494
 20
19.98494169511306
 30
0.0
 11
-18.44341298576494
 21
20.05994169511305
 31
0.0
  0
LINE
  5
504
330
2
100
AcDbEntity
  8
S1
  6
HIDDEN2
 62
     3
100
AcDbLine
 10
-19.78923563576494
 20
22.77244169511306
 30
0.0
 11
-18.98589423576492
 21
22.77244169511306
 31
0.0
  0
LINE
  5
505
330
2
100
AcDbEntity
  8
S1
  6
HIDDEN2
 62
     3
100
AcDbLine
 10
-19.78923563576494
 20
22.77244169511306
 30
0.0
 11
-18.98589423576492
 21
22.77244169511306
 31
0.0
  0
LINE
  5
506
330
2
100
AcDbEntity
  8
S1
  6
HIDDEN2
 62
     3
100
AcDbLine
 10
-19.78923563576494
 20
22.77244169511306
 30
0.0
 11
-18.98589423576492
 21
22.77244169511306
 31
0.0
  0
LINE
  5
507
330
2
100
AcDbEntity
  8
S1
  6
HIDDEN2
 62
     3
100
AcDbLine
 10
-19.78923563576494
 20
22.77244169511306
 30
0.0
 11
-18.98589423576492
 21
22.77244169511306
 31
0.0
  0
LINE
  5
508
330
2
100
AcDbEntity
  8
S1
  6
HIDDEN2
 62
     3
100
AcDbLine
 10
-18.44793348576495
 20
23.03418759511308
 30
0.0
 11
-18.73570818576495
 21
22.90498264511308
 31
0.0
  0
LINE
  5
509
330
2
100
AcDbEntity
  8
S1
  6
HIDDEN2
 62
     3
100
AcDbLine
 10
-20.05111778576496
 20
22.90498264511308
 30
0.0
 11
-20.33889248576496
 21
23.03418759511308
 31
0.0
  0
ARC
  5
50A
330
2
100
AcDbEntity
  8
S1
  6
HIDDEN2
 62
     3
100
AcDbCircle
 10
-18.53091298576497
 20
22.44884784511308
 30
0.0
 40
0.5
100
AcDbArc
 50
114.1791069999964
 51
180.0
  0
ARC
  5
50B
330
2
100
AcDbEntity
  8
S1
  6
HIDDEN2
 62
     3
100
AcDbCircle
 10
-20.25591298576494
 20
22.44884784511308
 30
0.0
 40
0.5
100
AcDbArc
 50
0.0
 51
65.82089300000358
  0
ARC
  5
50C
330
2
100
AcDbEntity
  8
S1
  6
HIDDEN2
 62
     3
100
AcDbCircle
 10
-20.31841298576494
 20
23.07980109511305
 30
0.0
 40
0.05
100
AcDbArc
 50
180.0
 51
245.8208930000036
  0
ARC
  5
50D
330
2
100
AcDbEntity
  8
S1
  6
HIDDEN2
 62
     3
100
AcDbCircle
 10
-18.46841298576497
 20
23.07980109511305
 30
0.0
 40
0.05
100
AcDbArc
 50
294.1791069999964
 51
0.0
  0
LINE
  5
50E
330
2
100
AcDbEntity
  8
S1
  6
HIDDEN2
 62
     3
100
AcDbLine
 10
-20.2009539357649
 20
20.68014649511306
 30
0.0
 11
-20.27714253576492
 21
20.84983929511307
 31
0.0
  0
LINE
  5
50F
330
2
100
AcDbEntity
  8
S1
  6
HIDDEN2
 62
     3
100
AcDbLine
 10
-20.2009539357649
 20
19.36473689511305
 30
0.0
 11
-20.27714253576492
 21
19.19504409511307
 31
0.0
  0
ARC
  5
510
330
2
100
AcDbEntity
  8
S1
  6
HIDDEN2
 62
     3
100
AcDbCircle
 10
-19.74481913576493
 20
20.88494169511307
 30
0.0
 40
0.5
100
AcDbArc
 50
204.1791069999861
 51
270.0
  0
ARC
  5
511
330
2
100
AcDbEntity
  8
S1
  6
HIDDEN2
 62
     3
100
AcDbCircle
 10
-19.74481913576493
 20
19.15994169511307
 30
0.0
 40
0.5
100
AcDbArc
 50
90.0
 51
155.8208930000138
  0
ARC
  5
512
330
2
100
AcDbEntity
  8
S1
  6
HIDDEN2
 62
     3
100
AcDbCircle
 10
-20.50520988576493
 20
20.74744169511305
 30
0.0
 40
0.25
100
AcDbArc
 50
24.17910699998617
 51
90.0
  0
ARC
  5
513
330
2
100
AcDbEntity
  8
S1
  6
HIDDEN2
 62
     3
100
AcDbCircle
 10
-20.50520988576493
 20
19.29744169511306
 30
0.0
 40
0.25
100
AcDbArc
 50
270.0
 51
335.8208930000138
  0
LINE
  5
514
330
2
100
AcDbEntity
  8
S1
  6
HIDDEN2
 62
     3
100
AcDbLine
 10
-18.76841298576492
 20
4.659941695113076
 30
0.0
 11
-19.74481913576493
 21
4.659941695113076
 31
0.0
  0
LINE
  5
515
330
2
100
AcDbEntity
  8
S1
  6
HIDDEN2
 62
     3
100
AcDbLine
 10
-18.76841298576492
 20
5.38494169511307
 30
0.0
 11
-19.74481913576493
 21
5.38494169511307
 31
0.0
  0
ARC
  5
516
330
2
100
AcDbEntity
  8
S1
  6
HIDDEN2
 62
     3
100
AcDbCircle
 10
-18.76841298576492
 20
5.059941695113053
 30
0.0
 40
0.325
100
AcDbArc
 50
0.0
 51
90.0
  0
ARC
  5
517
330
2
100
AcDbEntity
  8
S1
  6
HIDDEN2
 62
     3
100
AcDbCircle
 10
-18.76841298576492
 20
4.984941695113064
 30
0.0
 40
0.325
100
AcDbArc
 50
270.0
 51
0.0
  0
LINE
  5
518
330
2
100
AcDbEntity
  8
S1
  6
HIDDEN2
 62
     3
100
AcDbLine
 10
-21.14341298576492
 20
5.997441695113053
 30
0.0
 11
-20.50520988576493
 21
5.997441695113053
 31
0.0
  0
LINE
  5
519
330
2
100
AcDbEntity
  8
S1
  6
HIDDEN2
 62
     3
100
AcDbLine
 10
-21.14341298576492
 20
4.047441695113064
 30
0.0
 11
-20.50520988576493
 21
4.047441695113064
 31
0.0
  0
ARC
  5
51A
330
2
100
AcDbEntity
  8
S1
  6
HIDDEN2
 62
     3
100
AcDbCircle
 10
-20.7934129857649
 20
5.547441695113064
 30
0.0
 40
0.25
100
AcDbArc
 50
0.0
 51
90.0
  0
ARC
  5
51B
330
2
100
AcDbEntity
  8
S1
  6
HIDDEN2
 62
     3
100
AcDbCircle
 10
-20.7934129857649
 20
4.497441695113053
 30
0.0
 40
0.25
100
AcDbArc
 50
270.0
 51
0.0
  0
ARC
  5
51C
330
2
100
AcDbEntity
  8
S1
  6
HIDDEN2
 62
     3
100
AcDbCircle
 10
-20.50520988576493
 20
4.297441695113064
 30
0.0
 40
0.25
100
AcDbArc
 50
270.0
 51
335.8208930000138
  0
ARC
  5
51D
330
2
100
AcDbEntity
  8
S1
  6
HIDDEN2
 62
     3
100
AcDbCircle
 10
-20.50520988576493
 20
5.747441695113053
 30
0.0
 40
0.25
100
AcDbArc
 50
24.17910699998617
 51
90.0
  0
ARC
  5
51E
330
2
100
AcDbEntity
  8
S1
  6
HIDDEN2
 62
     3
100
AcDbCircle
 10
-19.74481913576493
 20
4.159941695113076
 30
0.0
 40
0.5
100
AcDbArc
 50
90.0
 51
155.8208930000138
  0
ARC
  5
51F
330
2
100
AcDbEntity
  8
S1
  6
HIDDEN2
 62
     3
100
AcDbCircle
 10
-19.74481913576493
 20
5.88494169511307
 30
0.0
 40
0.5
100
AcDbArc
 50
204.1791069999861
 51
270.0
  0
LINE
  5
520
330
2
100
AcDbEntity
  8
S1
  6
HIDDEN2
 62
     3
100
AcDbLine
 10
-20.2009539357649
 20
4.364736895113054
 30
0.0
 11
-20.27714253576492
 21
4.195044095113075
 31
0.0
  0
LINE
  5
521
330
2
100
AcDbEntity
  8
S1
  6
HIDDEN2
 62
     3
100
AcDbLine
 10
-20.2009539357649
 20
5.680146495113064
 30
0.0
 11
-20.27714253576492
 21
5.849839295113071
 31
0.0
  0
LINE
  5
522
330
2
100
AcDbEntity
  8
S1
  6
HIDDEN2
 62
     3
100
AcDbLine
 10
-20.5434129857649
 20
4.497441695113053
 30
0.0
 11
-20.5434129857649
 21
5.547441695113064
 31
0.0
  0
LINE
  5
523
330
2
100
AcDbEntity
  8
S1
  6
HIDDEN2
 62
     3
100
AcDbLine
 10
-21.14341298576492
 20
4.247441695113053
 30
0.0
 11
-20.7934129857649
 21
4.247441695113053
 31
0.0
  0
LINE
  5
524
330
2
100
AcDbEntity
  8
S1
  6
HIDDEN2
 62
     3
100
AcDbLine
 10
-21.14341298576492
 20
5.797441695113064
 30
0.0
 11
-20.7934129857649
 21
5.797441695113064
 31
0.0
  0
CIRCLE
  5
525
330
2
100
AcDbEntity
  8
S1
  6
HIDDEN2
 62
     3
100
AcDbCircle
 10
-19.39341298576492
 20
6.472441695113076
 30
0.0
 40
0.5
  0
CIRCLE
  5
526
330
2
100
AcDbEntity
  8
S1
  6
HIDDEN2
 62
     3
100
AcDbCircle
 10
-19.39341298576492
 20
6.472441695113076
 30
0.0
 40
0.325
  0
CIRCLE
  5
527
330
2
100
AcDbEntity
  8
S1
  6
HIDDEN2
 62
     3
100
AcDbCircle
 10
-19.39341298576492
 20
6.472441695113076
 30
0.0
 40
0.6000000000000001
  0
CIRCLE
  5
528
330
2
100
AcDbEntity
  8
S1
  6
HIDDEN2
 62
     3
100
AcDbCircle
 10
-19.39341298576492
 20
6.472441695113076
 30
0.0
 40
0.425
  0
CIRCLE
  5
529
330
2
100
AcDbEntity
  8
S1
  6
HIDDEN2
 62
     3
100
AcDbCircle
 10
-19.39341298576492
 20
6.472441695113076
 30
0.0
 40
0.2
  0
CIRCLE
  5
52A
330
2
100
AcDbEntity
  8
S1
  6
HIDDEN2
 62
     3
100
AcDbCircle
 10
-19.39341298576492
 20
21.47244169511308
 30
0.0
 40
0.5
  0
CIRCLE
  5
52B
330
2
100
AcDbEntity
  8
S1
  6
HIDDEN2
 62
     3
100
AcDbCircle
 10
-19.39341298576492
 20
21.47244169511308
 30
0.0
 40
0.325
  0
CIRCLE
  5
52C
330
2
100
AcDbEntity
  8
S1
  6
HIDDEN2
 62
     3
100
AcDbCircle
 10
-19.39341298576492
 20
21.47244169511308
 30
0.0
 40
0.6000000000000001
  0
CIRCLE
  5
52D
330
2
100
AcDbEntity
  8
S1
  6
HIDDEN2
 62
     3
100
AcDbCircle
 10
-19.39341298576492
 20
21.47244169511308
 30
0.0
 40
0.425
  0
CIRCLE
  5
52E
330
2
100
AcDbEntity
  8
S1
  6
HIDDEN2
 62
     3
100
AcDbCircle
 10
-19.39341298576492
 20
21.47244169511308
 30
0.0
 40
0.2
  0
CIRCLE
  5
52F
330
2
100
AcDbEntity
  8
S1
  6
HIDDEN2
 62
     3
100
AcDbCircle
 10
0.6065870142350747
 20
21.47244169511308
 30
0.0
 40
0.5
  0
CIRCLE
  5
530
330
2
100
AcDbEntity
  8
S1
  6
HIDDEN2
 62
     3
100
AcDbCircle
 10
0.6065870142350747
 20
21.47244169511308
 30
0.0
 40
0.325
  0
CIRCLE
  5
531
330
2
100
AcDbEntity
  8
S1
  6
HIDDEN2
 62
     3
100
AcDbCircle
 10
0.6065870142350747
 20
21.47244169511308
 30
0.0
 40
0.6000000000000001
  0
CIRCLE
  5
532
330
2
100
AcDbEntity
  8
S1
  6
HIDDEN2
 62
     3
100
AcDbCircle
 10
0.6065870142350747
 20
21.47244169511308
 30
0.0
 40
0.425
  0
CIRCLE
  5
533
330
2
100
AcDbEntity
  8
S1
  6
HIDDEN2
 62
     3
100
AcDbCircle
 10
0.6065870142350747
 20
21.47244169511308
 30
0.0
 40
0.2
  0
CIRCLE
  5
534
330
2
100
AcDbEntity
  8
S1
  6
HIDDEN2
 62
     3
100
AcDbCircle
 10
0.6065870142350747
 20
6.472441695113076
 30
0.0
 40
0.5
  0
CIRCLE
  5
535
330
2
100
AcDbEntity
  8
S1
  6
HIDDEN2
 62
     3
100
AcDbCircle
 10
0.6065870142350747
 20
6.472441695113076
 30
0.0
 40
0.325
  0
CIRCLE
  5
536
330
2
100
AcDbEntity
  8
S1
  6
HIDDEN2
 62
     3
100
AcDbCircle
 10
0.6065870142350747
 20
6.472441695113076
 30
0.0
 40
0.6000000000000001
  0
CIRCLE
  5
537
330
2
100
AcDbEntity
  8
S1
  6
HIDDEN2
 62
     3
100
AcDbCircle
 10
0.6065870142350747
 20
6.472441695113076
 30
0.0
 40
0.425
  0
CIRCLE
  5
538
330
2
100
AcDbEntity
  8
S1
  6
HIDDEN2
 62
     3
100
AcDbCircle
 10
0.6065870142350747
 20
6.472441695113076
 30
0.0
 40
0.2
  0
LINE
  5
539
330
2
100
AcDbEntity
  8
S1
  6
HIDDEN2
 62
     3
100
AcDbLine
 10
-20.62130143576495
 20
21.47244169511308
 30
0.0
 11
1.957184614235089
 21
21.47244169511308
 31
0.0
  0
LINE
  5
53A
330
2
100
AcDbEntity
  8
S1
  6
HIDDEN2
 62
     3
100
AcDbLine
 10
-20.62130143576495
 20
6.472441695113076
 30
0.0
 11
1.957184614235089
 21
6.472441695113076
 31
0.0
  0
LINE
  5
53B
330
2
100
AcDbEntity
  8
S1
  6
HIDDEN2
 62
     3
100
AcDbLine
 10
0.6065870142350747
 20
4.922541295113092
 30
0.0
 11
0.6065870142350747
 21
23.63568869511306
 31
0.0
  0
LINE
  5
53C
330
2
100
AcDbEntity
  8
S1
  6
HIDDEN2
 62
     3
100
AcDbLine
 10
-19.39341298576492
 20
4.922541295113092
 30
0.0
 11
-19.39341298576492
 21
23.63568869511306
 31
0.0
  0
LINE
  5
53D
330
2
100
AcDbEntity
  8
KIJUN
  6
S130
100
AcDbLine
 10
-9.393412985764925
 20
19.45021615617838
 30
0.0
 11
-9.393412985764925
 21
8.494667234047767
 31
0.0
  0
LINE
  5
541
330
2
100
AcDbEntity
  8
KIJUN
  6
S130
100
AcDbLine
 10
-3.915638524699602
 20
13.97244169511308
 30
0.0
 11
-14.87118744683025
 21
13.97244169511308
 31
0.0
  0
ENDSEC
  0
SECTION
  2
OBJECTS
  0
DICTIONARY
  5
7
330
0
100
AcDbDictionary
281
     1
  3
ACAD_COLOR
350
2D
  3
ACAD_GROUP
350
29
  3
ACAD_LAYOUT
350
B
  3
ACAD_MATERIAL
350
2C
  3
ACAD_MLINESTYLE
350
2A
  3
ACAD_PLOTSETTINGS
350
2B
  3
ACAD_PLOTSTYLENAME
350
6
  3
ACDBHEADERROUNDTRIPXREC
350
5A4
  3
AcDbVariableDictionary
350
59F
  0
DICTIONARY
  5
11
330
10
100
AcDbDictionary
280
     1
281
     1
  3
ACAD_LAYERFILTERS
360
12
  3
ACAD_LAYERSTATES
360
13
  0
DICTIONARY
  5
2D
102
{ACAD_REACTORS
330
7
102
}
330
7
100
AcDbDictionary
281
     1
  0
DICTIONARY
  5
29
102
{ACAD_REACTORS
330
7
102
}
330
7
100
AcDbDictionary
281
     1
  0
DICTIONARY
  5
B
102
{ACAD_REACTORS
330
7
102
}
330
7
100
AcDbDictionary
281
     1
  3
Model
350
A
  3
レイアウト1
350
F
  0
DICTIONARY
  5
2C
102
{ACAD_REACTORS
330
7
102
}
330
7
100
AcDbDictionary
281
     1
  0
DICTIONARY
  5
2A
102
{ACAD_REACTORS
330
7
102
}
330
7
100
AcDbDictionary
281
     1
  3
Standard
350
2F
  0
DICTIONARY
  5
2B
102
{ACAD_REACTORS
330
7
102
}
330
7
100
AcDbDictionary
281
     1
  0
ACDBDICTIONARYWDFLT
  5
6
102
{ACAD_REACTORS
330
7
102
}
330
7
100
AcDbDictionary
281
     1
  3
Normal
350
5
100
AcDbDictionaryWithDefault
340
5
  0
DICTIONARY
  5
5A4
102
{ACAD_REACTORS
330
7
102
}
330
7
100
AcDbDictionary
281
     1
  3
COLORDICT
350
5A6
  3
MATERIALDICT
350
5A5
  0
DICTIONARY
  5
59F
102
{ACAD_REACTORS
330
7
102
}
330
7
100
AcDbDictionary
281
     1
  3
DIMASSOC
350
5A1
  3
HIDETEXT
350
5A0
  3
PROJECTNAME
350
5A2
  0
DICTIONARY
  5
12
102
{ACAD_REACTORS
330
11
102
}
330
11
100
AcDbDictionary
281
     1
  0
DICTIONARY
  5
13
102
{ACAD_REACTORS
330
11
102
}
330
11
100
AcDbDictionary
281
     1
  0
LAYOUT
  5
A
102
{ACAD_XDICTIONARY
360
5A7
102
}
102
{ACAD_REACTORS
330
B
102
}
330
B
100
AcDbPlotSettings
  1

  2
10F06M_RICOH_SP-8100
  4
A4
  6

 40
5.873749732971191
 41
5.873747825622558
 42
5.873748779296875
 43
5.873748779296875
 44
209.9733276367187
 45
296.9259948730469
 46
5.419999999999999
 47
0.0
 48
0.0
 49
0.0
140
0.0
141
0.0
142
1.0
143
1.382473168219473
 70
 11956
 72
     1
 73
     0
 74
     1
  7
tmsacad.ctb
 75
     0
147
0.7233413443299798
148
0.0192216317385601
149
0.0180409818002545
100
AcDbLayout
  1
Model
 70
     1
 71
     0
 10
0.0
 20
0.0
 11
12.0
 21
9.0
 12
0.0
 22
0.0
 32
0.0
 14
0.0
 24
0.0
 34
0.0
 15
0.0
 25
0.0
 35
0.0
146
0.0
 13
0.0
 23
0.0
 33
0.0
 16
1.0
 26
0.0
 36
0.0
 17
0.0
 27
1.0
 37
0.0
 76
     0
330
2
  0
LAYOUT
  5
F
102
{ACAD_XDICTIONARY
360
5A9
102
}
102
{ACAD_REACTORS
330
B
102
}
330
B
100
AcDbPlotSettings
  1

  2
None
  4

  6

 40
0.0
 41
0.0
 42
0.0
 43
0.0
 44
0.0
 45
0.0
 46
0.0
 47
0.0
 48
0.0
 49
0.0
140
0.0
141
0.0
142
1.0
143
1.0
 70
   688
 72
     0
 73
     0
 74
     5
  7
tmsacad.ctb
 75
    16
147
1.0
148
0.0
149
0.0
100
AcDbLayout
  1
レイアウト1
 70
     1
 71
     1
 10
0.0
 20
0.0
 11
12.0
 21
9.0
 12
0.0
 22
0.0
 32
0.0
 14
0.0
 24
0.0
 34
0.0
 15
0.0
 25
0.0
 35
0.0
146
0.0
 13
0.0
 23
0.0
 33
0.0
 16
1.0
 26
0.0
 36
0.0
 17
0.0
 27
1.0
 37
0.0
 76
     0
330
C
  0
MLINESTYLE
  5
2F
102
{ACAD_REACTORS
330
2A
102
}
330
2A
100
AcDbMlineStyle
  2
STANDARD
 70
     0
  3

 62
   256
 51
90.0
 52
90.0
 71
     2
 49
0.5
 62
   256
  6
BYLAYER
 49
-0.5
 62
   256
  6
BYLAYER
  0
ACDBPLACEHOLDER
  5
5
102
{ACAD_REACTORS
330
6
102
}
330
6
  0
XRECORD
  5
5A6
102
{ACAD_REACTORS
330
5A4
102
}
330
5A4
100
AcDbXrecord
280
     1
340
2D
  0
XRECORD
  5
5A5
102
{ACAD_REACTORS
330
5A4
102
}
330
5A4
100
AcDbXrecord
280
     1
340
2C
  0
DICTIONARYVAR
  5
5A1
102
{ACAD_REACTORS
330
59F
102
}
330
59F
100
DictionaryVariables
280
     0
  1
1
  0
DICTIONARYVAR
  5
5A0
102
{ACAD_REACTORS
330
59F
102
}
330
59F
100
DictionaryVariables
280
     0
  1
1
  0
DICTIONARYVAR
  5
5A2
102
{ACAD_REACTORS
330
59F
102
}
330
59F
100
DictionaryVariables
280
     0
  1

  0
DICTIONARY
  5
5A7
330
A
100
AcDbDictionary
280
     1
281
     1
  3
ACAD_XREC_ROUNDTRIP
360
5A8
  0
DICTIONARY
  5
5A9
330
F
100
AcDbDictionary
280
     1
281
     1
  3
ACAD_XREC_ROUNDTRIP
360
5AA
  0
XRECORD
  5
5A8
102
{ACAD_REACTORS
330
5A7
102
}
330
5A7
100
AcDbXrecord
280
     1
102
SHADEPLOT
 70
     0
102
SHADEPLOTRESLEVEL
 70
     2
102
SHADEPLOTCUSTOMDPI
 70
   300
  0
XRECORD
  5
5AA
102
{ACAD_REACTORS
330
5A9
102
}
330
5A9
100
AcDbXrecord
280
     1
102
SHADEPLOT
 70
     0
102
SHADEPLOTRESLEVEL
 70
     2
102
SHADEPLOTCUSTOMDPI
 70
   300
  0
ENDSEC
  0
EOF
