  0
SECTION
  2
HEADER
  9
$ACADVER
  1
AC1015
  9
$ACADMAINTVER
 70
    20
  9
$DWGCODEPAGE
  3
ANSI_932
  9
$INSBASE
 10
0.4999999440410648
 20
372.5008351249344
 30
0.0
  9
$EXTMIN
 10
-62.94616608757769
 20
-71.56713806368305
 30
-0.0015258207003583
  9
$EXTMAX
 10
62.0874029049736
 20
41.45745889011005
 30
0.0000000349246037
  9
$LIMMIN
 10
0.0
 20
0.0
  9
$LIMMAX
 10
420.0
 20
297.0
  9
$ORTHOMODE
 70
     1
  9
$REGENMODE
 70
     0
  9
$FILLMODE
 70
     1
  9
$QTEXTMODE
 70
     0
  9
$MIRRTEXT
 70
     0
  9
$LTSCALE
 40
1.0
  9
$ATTMODE
 70
     1
  9
$TEXTSIZE
 40
2.5
  9
$TRACEWID
 40
1.0
  9
$TEXTSTYLE
  7
Standard
  9
$CLAYER
  8
GAIKEI
  9
$CELTYPE
  6
ByLayer
  9
$CECOLOR
 62
   256
  9
$CELTSCALE
 40
1.0
  9
$DISPSILH
 70
     0
  9
$DIMSCALE
 40
1.0
  9
$DIMASZ
 40
2.0
  9
$DIMEXO
 40
2.0
  9
$DIMDLI
 40
8.0
  9
$DIMRND
 40
0.0
  9
$DIMDLE
 40
0.0
  9
$DIMEXE
 40
2.0
  9
$DIMTP
 40
0.0
  9
$DIMTM
 40
0.0
  9
$DIMTXT
 40
2.5
  9
$DIMCEN
 40
0.0
  9
$DIMTSZ
 40
0.0
  9
$DIMTOL
 70
     0
  9
$DIMLIM
 70
     0
  9
$DIMTIH
 70
     0
  9
$DIMTOH
 70
     0
  9
$DIMSE1
 70
     0
  9
$DIMSE2
 70
     0
  9
$DIMTAD
 70
     3
  9
$DIMZIN
 70
     0
  9
$DIMBLK
  1

  9
$DIMASO
 70
     1
  9
$DIMSHO
 70
     1
  9
$DIMPOST
  1

  9
$DIMAPOST
  1

  9
$DIMALT
 70
     0
  9
$DIMALTD
 70
     2
  9
$DIMALTF
 40
25.4
  9
$DIMLFAC
 40
1.0
  9
$DIMTOFL
 70
     1
  9
$DIMTVP
 40
0.0
  9
$DIMTIX
 70
     0
  9
$DIMSOXD
 70
     0
  9
$DIMSAH
 70
     1
  9
$DIMBLK1
  1
OPEN30
  9
$DIMBLK2
  1
OPEN30
  9
$DIMSTYLE
  2
STANDARD
  9
$DIMCLRD
 70
     0
  9
$DIMCLRE
 70
     0
  9
$DIMCLRT
 70
     0
  9
$DIMTFAC
 40
1.0
  9
$DIMGAP
 40
0.5
  9
$DIMJUST
 70
     0
  9
$DIMSD1
 70
     0
  9
$DIMSD2
 70
     0
  9
$DIMTOLJ
 70
     1
  9
$DIMTZIN
 70
     0
  9
$DIMALTZ
 70
     0
  9
$DIMALTTZ
 70
     0
  9
$DIMUPT
 70
     0
  9
$DIMDEC
 70
     4
  9
$DIMTDEC
 70
     4
  9
$DIMALTU
 70
     2
  9
$DIMALTTD
 70
     2
  9
$DIMTXSTY
  7
Standard
  9
$DIMAUNIT
 70
     0
  9
$DIMADEC
 70
     0
  9
$DIMALTRND
 40
0.0
  9
$DIMAZIN
 70
     0
  9
$DIMDSEP
 70
    46
  9
$DIMATFIT
 70
     3
  9
$DIMFRAC
 70
     0
  9
$DIMLDRBLK
  1
OPEN30
  9
$DIMLUNIT
 70
     2
  9
$DIMLWD
 70
    -2
  9
$DIMLWE
 70
    -2
  9
$DIMTMOVE
 70
     0
  9
$LUNITS
 70
     2
  9
$LUPREC
 70
     4
  9
$SKETCHINC
 40
1.0
  9
$FILLETRAD
 40
0.0
  9
$AUNITS
 70
     0
  9
$AUPREC
 70
     0
  9
$MENU
  1
.
  9
$ELEVATION
 40
0.0
  9
$PELEVATION
 40
0.0
  9
$THICKNESS
 40
0.0
  9
$LIMCHECK
 70
     0
  9
$CHAMFERA
 40
0.0
  9
$CHAMFERB
 40
0.0
  9
$CHAMFERC
 40
0.0
  9
$CHAMFERD
 40
0.0
  9
$SKPOLY
 70
     0
  9
$TDCREATE
 40
2454349.434269746
  9
$TDUCREATE
 40
2454349.059269746
  9
$TDUPDATE
 40
2455292.627126493
  9
$TDUUPDATE
 40
2455292.252126493
  9
$TDINDWG
 40
0.1678876042
  9
$TDUSRTIMER
 40
0.1678876042
  9
$USRTIMER
 70
     1
  9
$ANGBASE
 50
0.0
  9
$ANGDIR
 70
     0
  9
$PDMODE
 70
     0
  9
$PDSIZE
 40
0.0
  9
$PLINEWID
 40
0.0
  9
$SPLFRAME
 70
     0
  9
$SPLINETYPE
 70
     6
  9
$SPLINESEGS
 70
     8
  9
$HANDSEED
  5
231
  9
$SURFTAB1
 70
     6
  9
$SURFTAB2
 70
     6
  9
$SURFTYPE
 70
     6
  9
$SURFU
 70
     6
  9
$SURFV
 70
     6
  9
$UCSBASE
  2

  9
$UCSNAME
  2

  9
$UCSORG
 10
0.0
 20
0.0
 30
0.0
  9
$UCSXDIR
 10
1.0
 20
0.0
 30
0.0
  9
$UCSYDIR
 10
0.0
 20
1.0
 30
0.0
  9
$UCSORTHOREF
  2

  9
$UCSORTHOVIEW
 70
     0
  9
$UCSORGTOP
 10
0.0
 20
0.0
 30
0.0
  9
$UCSORGBOTTOM
 10
0.0
 20
0.0
 30
0.0
  9
$UCSORGLEFT
 10
0.0
 20
0.0
 30
0.0
  9
$UCSORGRIGHT
 10
0.0
 20
0.0
 30
0.0
  9
$UCSORGFRONT
 10
0.0
 20
0.0
 30
0.0
  9
$UCSORGBACK
 10
0.0
 20
0.0
 30
0.0
  9
$PUCSBASE
  2

  9
$PUCSNAME
  2

  9
$PUCSORG
 10
0.0
 20
0.0
 30
0.0
  9
$PUCSXDIR
 10
1.0
 20
0.0
 30
0.0
  9
$PUCSYDIR
 10
0.0
 20
1.0
 30
0.0
  9
$PUCSORTHOREF
  2

  9
$PUCSORTHOVIEW
 70
     0
  9
$PUCSORGTOP
 10
0.0
 20
0.0
 30
0.0
  9
$PUCSORGBOTTOM
 10
0.0
 20
0.0
 30
0.0
  9
$PUCSORGLEFT
 10
0.0
 20
0.0
 30
0.0
  9
$PUCSORGRIGHT
 10
0.0
 20
0.0
 30
0.0
  9
$PUCSORGFRONT
 10
0.0
 20
0.0
 30
0.0
  9
$PUCSORGBACK
 10
0.0
 20
0.0
 30
0.0
  9
$USERI1
 70
     0
  9
$USERI2
 70
     0
  9
$USERI3
 70
     0
  9
$USERI4
 70
     0
  9
$USERI5
 70
     0
  9
$USERR1
 40
0.0
  9
$USERR2
 40
0.0
  9
$USERR3
 40
0.0
  9
$USERR4
 40
0.0
  9
$USERR5
 40
0.0
  9
$WORLDVIEW
 70
     1
  9
$SHADEDGE
 70
     3
  9
$SHADEDIF
 70
    70
  9
$TILEMODE
 70
     1
  9
$MAXACTVP
 70
    64
  9
$PINSBASE
 10
0.0
 20
0.0
 30
0.0
  9
$PLIMCHECK
 70
     0
  9
$PEXTMIN
 10
0.0
 20
0.0
 30
0.0
  9
$PEXTMAX
 10
0.0
 20
0.0
 30
0.0
  9
$PLIMMIN
 10
0.0
 20
0.0
  9
$PLIMMAX
 10
12.0
 20
9.0
  9
$UNITMODE
 70
     0
  9
$VISRETAIN
 70
     1
  9
$PLINEGEN
 70
     0
  9
$PSLTSCALE
 70
     1
  9
$TREEDEPTH
 70
  3020
  9
$CMLSTYLE
  2
Standard
  9
$CMLJUST
 70
     0
  9
$CMLSCALE
 40
20.0
  9
$PROXYGRAPHICS
 70
     1
  9
$MEASUREMENT
 70
     1
  9
$CELWEIGHT
370
    -1
  9
$ENDCAPS
280
     0
  9
$JOINSTYLE
280
     0
  9
$LWDISPLAY
290
     0
  9
$INSUNITS
 70
     4
  9
$HYPERLINKBASE
  1

  9
$STYLESHEET
  1

  9
$XEDIT
290
     1
  9
$CEPSNTYPE
380
     0
  9
$PSTYLEMODE
290
     1
  9
$FINGERPRINTGUID
  2
{FDEAD578-A652-11D2-9A35-0060089B3A3F}
  9
$VERSIONGUID
  2
{B7595388-45C4-4507-A0E0-09D9141DC49D}
  9
$EXTNAMES
290
     1
  9
$PSVPSCALE
 40
0.0
  9
$OLESTARTUP
290
     0
  0
ENDSEC
  0
SECTION
  2
CLASSES
  0
CLASS
  1
ACDBDICTIONARYWDFLT
  2
AcDbDictionaryWithDefault
  3
ObjectDBX Classes
 90
        0
280
     0
281
     0
  0
CLASS
  1
ACDBPLACEHOLDER
  2
AcDbPlaceHolder
  3
ObjectDBX Classes
 90
        0
280
     0
281
     0
  0
CLASS
  1
LAYOUT
  2
AcDbLayout
  3
ObjectDBX Classes
 90
        0
280
     0
281
     0
  0
CLASS
  1
DICTIONARYVAR
  2
AcDbDictionaryVar
  3
ObjectDBX Classes
 90
        0
280
     0
281
     0
  0
ENDSEC
  0
SECTION
  2
TABLES
  0
TABLE
  2
VPORT
  5
1B
330
0
100
AcDbSymbolTable
 70
     3
  0
VPORT
  5
229
330
1B
100
AcDbSymbolTableRecord
100
AcDbViewportTableRecord
  2
*Active
 70
     0
 10
0.0
 20
0.0
 11
1.0
 21
1.0
 12
-0.4293815913020503
 22
-15.0548395867865
 13
0.0
 23
0.0
 14
10.0
 24
10.0
 15
10.0
 25
10.0
 16
0.0
 26
0.0
 36
1.0
 17
0.0
 27
0.0
 37
0.0
 40
113.8884792235036
 41
1.392857142857142
 42
50.0
 43
0.0
 44
0.0
 50
0.0
 51
0.0
 71
     0
 72
  1000
 73
     1
 74
     2
 75
     0
 76
     0
 77
     0
 78
     0
281
     0
 65
     1
110
0.0
120
0.0
130
0.0
111
1.0
121
0.0
131
0.0
112
0.0
122
1.0
132
0.0
 79
     0
146
0.0
  0
ENDTAB
  0
TABLE
  2
LTYPE
  5
16
330
0
100
AcDbSymbolTable
 70
     1
  0
LTYPE
  5
17
330
16
100
AcDbSymbolTableRecord
100
AcDbLinetypeTableRecord
  2
ByBlock
 70
     0
  3

 72
    65
 73
     0
 40
0.0
  0
LTYPE
  5
18
330
16
100
AcDbSymbolTableRecord
100
AcDbLinetypeTableRecord
  2
ByLayer
 70
     0
  3

 72
    65
 73
     0
 40
0.0
  0
LTYPE
  5
8
330
16
100
AcDbSymbolTableRecord
100
AcDbLinetypeTableRecord
  2
Continuous
 70
     0
  3
Solid line
 72
    65
 73
     0
 40
0.0
  0
ENDTAB
  0
TABLE
  2
LAYER
  5
10
102
{ACAD_XDICTIONARY
360
11
102
}
330
0
100
AcDbSymbolTable
 70
     7
  0
LAYER
  5
4
330
10
100
AcDbSymbolTableRecord
100
AcDbLayerTableRecord
  2
0
 70
     0
 62
     7
  6
Continuous
370
    -3
390
5
  0
LAYER
  5
1CD
330
10
100
AcDbSymbolTableRecord
100
AcDbLayerTableRecord
  2
WAKU
 70
     0
 62
     4
  6
Continuous
370
    -3
390
5
  0
LAYER
  5
1CA
330
10
100
AcDbSymbolTableRecord
100
AcDbLayerTableRecord
  2
MOJI1
 70
     0
 62
     2
  6
Continuous
370
    -3
390
5
  0
LAYER
  5
1EA
330
10
100
AcDbSymbolTableRecord
100
AcDbLayerTableRecord
  2
TOUROKU
 70
     0
 62
     1
  6
Continuous
370
    -3
390
5
  0
LAYER
  5
3C
330
10
100
AcDbSymbolTableRecord
100
AcDbLayerTableRecord
  2
DEFPOINTS
 70
     0
 62
     7
  6
Continuous
290
     0
370
    -3
390
5
  0
LAYER
  5
2D
330
10
100
AcDbSymbolTableRecord
100
AcDbLayerTableRecord
  2
GAIKEI
 70
     0
 62
     7
  6
Continuous
370
    -3
390
5
  0
LAYER
  5
30
330
10
100
AcDbSymbolTableRecord
100
AcDbLayerTableRecord
  2
SUNPO
 70
     0
 62
     3
  6
Continuous
370
    -3
390
5
  0
ENDTAB
  0
TABLE
  2
STYLE
  5
13
330
0
100
AcDbSymbolTable
 70
     1
  0
STYLE
  5
14
330
13
100
AcDbSymbolTableRecord
100
AcDbTextStyleTableRecord
  2
Standard
 70
     0
 40
0.0
 41
1.0
 50
0.0
 71
     0
 42
2.5
  3
MONOTXT.shx
  4
BIGFONT.shx
  0
ENDTAB
  0
TABLE
  2
VIEW
  5
19
330
0
100
AcDbSymbolTable
 70
     0
  0
ENDTAB
  0
TABLE
  2
UCS
  5
1A
330
0
100
AcDbSymbolTable
 70
     0
  0
ENDTAB
  0
TABLE
  2
APPID
  5
1D
330
0
100
AcDbSymbolTable
 70
     1
  0
APPID
  5
1E
330
1D
100
AcDbSymbolTableRecord
100
AcDbRegAppTableRecord
  2
ACAD
 70
     0
  0
ENDTAB
  0
TABLE
  2
DIMSTYLE
  5
1F
330
0
100
AcDbSymbolTable
 70
     1
100
AcDbDimStyleTable
 71
     1
340
20
  0
DIMSTYLE
105
20
102
{ACAD_REACTORS
330
40
330
4D
330
2F
102
}
330
1F
100
AcDbSymbolTableRecord
100
AcDbDimStyleTableRecord
  2
STANDARD
 70
     0
 40
0.0
 41
2.0
 42
2.0
 43
8.0
 44
2.0
 73
     0
 74
     0
 77
     3
140
3.0
141
0.0
173
     1
279
     2
288
     1
340
14
341
21
343
21
344
21
  0
ENDTAB
  0
TABLE
  2
BLOCK_RECORD
  5
1
330
0
100
AcDbSymbolTable
 70
     7
  0
BLOCK_RECORD
  5
2
330
1
100
AcDbSymbolTableRecord
100
AcDbBlockTableRecord
  2
*Model_Space
340
A
  0
BLOCK_RECORD
  5
C
330
1
100
AcDbSymbolTableRecord
100
AcDbBlockTableRecord
  2
*Paper_Space
340
F
  0
BLOCK_RECORD
  5
21
330
1
100
AcDbSymbolTableRecord
100
AcDbBlockTableRecord
  2
_OPEN30
340
0
102
{BLKREFS
331
38
331
39
331
46
331
47
331
53
331
54
331
203
331
204
331
20F
331
210
331
21D
331
21E
102
}
  0
BLOCK_RECORD
  5
41
330
1
100
AcDbSymbolTableRecord
100
AcDbBlockTableRecord
  2
*D1
340
0
  0
BLOCK_RECORD
  5
4E
330
1
100
AcDbSymbolTableRecord
100
AcDbBlockTableRecord
  2
*D2
340
0
  0
BLOCK_RECORD
  5
31
330
1
100
AcDbSymbolTableRecord
100
AcDbBlockTableRecord
  2
*D3
340
0
  0
BLOCK_RECORD
  5
1FF
330
1
100
AcDbSymbolTableRecord
100
AcDbBlockTableRecord
  2
*D4
340
0
  0
BLOCK_RECORD
  5
20B
330
1
100
AcDbSymbolTableRecord
100
AcDbBlockTableRecord
  2
*D5
340
0
  0
BLOCK_RECORD
  5
217
330
1
100
AcDbSymbolTableRecord
100
AcDbBlockTableRecord
  2
*D6
340
0
  0
ENDTAB
  0
ENDSEC
  0
SECTION
  2
BLOCKS
  0
BLOCK
  5
3
330
2
100
AcDbEntity
  8
0
100
AcDbBlockBegin
  2
*Model_Space
 70
     0
 10
0.0
 20
0.0
 30
0.0
  3
*Model_Space
  1

  0
ENDBLK
  5
9
330
2
100
AcDbEntity
  8
0
100
AcDbBlockEnd
  0
BLOCK
  5
D
330
C
100
AcDbEntity
 67
     1
  8
0
100
AcDbBlockBegin
  2
*Paper_Space
 70
     0
 10
0.0
 20
0.0
 30
0.0
  3
*Paper_Space
  1

  0
ENDBLK
  5
E
330
C
100
AcDbEntity
 67
     1
  8
0
100
AcDbBlockEnd
  0
BLOCK
  5
22
330
21
100
AcDbEntity
  8
0
100
AcDbBlockBegin
  2
_OPEN30
 70
     0
 10
0.0
 20
0.0
 30
0.0
  3
_OPEN30
  1

  0
LINE
  5
23
330
21
100
AcDbEntity
  8
0
  6
ByBlock
 62
     0
100
AcDbLine
 10
-1.0
 20
0.26794919
 30
0.0
 11
0.0
 21
0.0
 31
0.0
  0
LINE
  5
24
330
21
100
AcDbEntity
  8
0
  6
ByBlock
 62
     0
100
AcDbLine
 10
0.0
 20
0.0
 30
0.0
 11
-1.0
 21
-0.26794919
 31
0.0
  0
LINE
  5
25
330
21
100
AcDbEntity
  8
0
  6
ByBlock
 62
     0
100
AcDbLine
 10
0.0
 20
0.0
 30
0.0
 11
-1.0
 21
0.0
 31
0.0
  0
ENDBLK
  5
26
330
21
100
AcDbEntity
  8
0
100
AcDbBlockEnd
  0
BLOCK
  5
42
330
41
100
AcDbEntity
  8
0
100
AcDbBlockBegin
  2
*D1
 70
     1
 10
0.0
 20
0.0
 30
0.0
  3
*D1
  1

  0
LINE
  5
43
330
41
100
AcDbEntity
  8
SUNPO
 62
     0
370
    -2
100
AcDbLine
 10
77.55323642036403
 20
312.9063385293402
 30
0.0
 11
85.55323642036404
 21
312.9063385293402
 31
0.0
  0
LINE
  5
44
330
41
100
AcDbEntity
  8
SUNPO
 62
     0
370
    -2
100
AcDbLine
 10
77.55323642036403
 20
343.4063385293402
 30
0.0
 11
85.55323642036404
 21
343.4063385293402
 31
0.0
  0
LINE
  5
45
330
41
100
AcDbEntity
  8
SUNPO
 62
     0
370
    -2
100
AcDbLine
 10
83.55323642036402
 20
314.9063385293402
 30
0.0
 11
83.55323642036402
 21
341.4063385293402
 31
0.0
  0
INSERT
  5
46
330
41
100
AcDbEntity
  8
SUNPO
 62
     0
370
    -2
100
AcDbBlockReference
  2
_OPEN30
 10
83.55323642036402
 20
312.9063385293402
 30
0.0
 41
2.0
 42
2.0
 43
2.0
 50
270.0
  0
INSERT
  5
47
330
41
100
AcDbEntity
  8
SUNPO
 62
     0
370
    -2
100
AcDbBlockReference
  2
_OPEN30
 10
83.55323642036402
 20
343.4063385293402
 30
0.0
 41
2.0
 42
2.0
 43
2.0
 50
90.0
  0
MTEXT
  5
48
330
41
100
AcDbEntity
  8
SUNPO
 62
     0
100
AcDbMText
 10
81.80323642036396
 20
328.1563385293402
 30
0.0
 40
2.5
 41
0.0
 71
     5
 72
     1
  1
\A1;610
 11
0.0000000000000001
 21
1.0
 31
0.0
 73
     1
 44
1.0
1001
ACAD
1000
MTEXTBEGIN
1070
    73
1070
     1
1070
    44
1040
1.0
1070
    74
1070
     0
1000
MTEXTEND
  0
POINT
  5
49
330
41
100
AcDbEntity
  8
DEFPOINTS
 62
     0
100
AcDbPoint
 10
75.55323642036403
 20
312.9063385293402
 30
0.0
  0
POINT
  5
4A
330
41
100
AcDbEntity
  8
DEFPOINTS
 62
     0
100
AcDbPoint
 10
75.55323642036403
 20
343.4063385293402
 30
0.0
  0
POINT
  5
4B
330
41
100
AcDbEntity
  8
DEFPOINTS
 62
     0
100
AcDbPoint
 10
83.55323642036402
 20
343.4063385293402
 30
0.0
  0
ENDBLK
  5
4C
330
41
100
AcDbEntity
  8
0
100
AcDbBlockEnd
  0
BLOCK
  5
4F
330
4E
100
AcDbEntity
  8
0
100
AcDbBlockBegin
  2
*D2
 70
     1
 10
0.0
 20
0.0
 30
0.0
  3
*D2
  1

  0
LINE
  5
50
330
4E
100
AcDbEntity
  8
SUNPO
 62
     0
370
    -2
100
AcDbLine
 10
24.99300161009171
 20
345.4060520849889
 30
0.0
 11
24.99300161009171
 21
353.4060520849889
 31
0.0
  0
LINE
  5
51
330
4E
100
AcDbEntity
  8
SUNPO
 62
     0
370
    -2
100
AcDbLine
 10
75.99300161009174
 20
345.4060520849889
 30
0.0
 11
75.99300161009174
 21
353.4060520849889
 31
0.0
  0
LINE
  5
52
330
4E
100
AcDbEntity
  8
SUNPO
 62
     0
370
    -2
100
AcDbLine
 10
26.99300161009171
 20
351.4060520849889
 30
0.0
 11
73.99300161009174
 21
351.4060520849889
 31
0.0
  0
INSERT
  5
53
330
4E
100
AcDbEntity
  8
SUNPO
 62
     0
370
    -2
100
AcDbBlockReference
  2
_OPEN30
 10
24.99300161009171
 20
351.4060520849889
 30
0.0
 41
2.0
 42
2.0
 43
2.0
 50
180.0
  0
INSERT
  5
54
330
4E
100
AcDbEntity
  8
SUNPO
 62
     0
370
    -2
100
AcDbBlockReference
  2
_OPEN30
 10
75.99300161009174
 20
351.4060520849889
 30
0.0
 41
2.0
 42
2.0
 43
2.0
  0
MTEXT
  5
55
330
4E
100
AcDbEntity
  8
SUNPO
 62
     0
100
AcDbMText
 10
50.49300161009172
 20
353.1560520849889
 30
0.0
 40
2.5
 41
0.0
 71
     5
 72
     1
  1
\A1;1020
 73
     1
 44
1.0
1001
ACAD
1000
MTEXTBEGIN
1070
    73
1070
     1
1070
    44
1040
1.0
1070
    74
1070
     0
1000
MTEXTEND
  0
POINT
  5
56
330
4E
100
AcDbEntity
  8
DEFPOINTS
 62
     0
100
AcDbPoint
 10
24.99300161009171
 20
343.4060520849889
 30
0.0
  0
POINT
  5
57
330
4E
100
AcDbEntity
  8
DEFPOINTS
 62
     0
100
AcDbPoint
 10
75.99300161009174
 20
343.4060520849889
 30
0.0
  0
POINT
  5
58
330
4E
100
AcDbEntity
  8
DEFPOINTS
 62
     0
100
AcDbPoint
 10
75.99300161009174
 20
351.4060520849889
 30
0.0
  0
ENDBLK
  5
59
330
4E
100
AcDbEntity
  8
0
100
AcDbBlockEnd
  0
BLOCK
  5
32
330
31
100
AcDbEntity
  8
0
100
AcDbBlockBegin
  2
*D3
 70
     1
 10
0.0
 20
0.0
 30
0.0
  3
*D3
  1

  0
LINE
  5
33
330
31
100
AcDbEntity
  8
SUNPO
 62
     0
370
    -2
100
AcDbLine
 10
95.09230096981264
 20
345.4125845895479
 30
0.0
 11
95.09230096981264
 21
353.4060520849889
 31
0.0
  0
LINE
  5
34
330
31
100
AcDbEntity
  8
SUNPO
 62
     0
370
    -2
100
AcDbLine
 10
99.54230096981262
 20
345.4125845895479
 30
0.0
 11
99.54230096981262
 21
353.4060520849889
 31
0.0
  0
LINE
  5
35
330
31
100
AcDbEntity
  8
SUNPO
 62
     0
370
    -2
100
AcDbLine
 10
93.09230096981265
 20
351.4060520849889
 30
0.0
 11
91.09230096981264
 21
351.4060520849889
 31
0.0
  0
LINE
  5
36
330
31
100
AcDbEntity
  8
SUNPO
 62
     0
370
    -2
100
AcDbLine
 10
101.5423009698126
 20
351.4060520849889
 30
0.0
 11
108.7089676364793
 21
351.4060520849889
 31
0.0
  0
LINE
  5
37
330
31
100
AcDbEntity
  8
SUNPO
 62
     0
370
    -2
100
AcDbLine
 10
95.09230096981264
 20
351.4060520849889
 30
0.0
 11
99.54230096981262
 21
351.4060520849889
 31
0.0
  0
INSERT
  5
38
330
31
100
AcDbEntity
  8
SUNPO
 62
     0
370
    -2
100
AcDbBlockReference
  2
_OPEN30
 10
95.09230096981264
 20
351.4060520849889
 30
0.0
 41
2.0
 42
2.0
 43
2.0
  0
INSERT
  5
39
330
31
100
AcDbEntity
  8
SUNPO
 62
     0
370
    -2
100
AcDbBlockReference
  2
_OPEN30
 10
99.54230096981262
 20
351.4060520849889
 30
0.0
 41
2.0
 42
2.0
 43
2.0
 50
180.0
  0
MTEXT
  5
3A
330
31
100
AcDbEntity
  8
SUNPO
 62
     0
100
AcDbMText
 10
106.1256343031459
 20
353.1560520849889
 30
0.0
 40
2.5
 41
0.0
 71
     5
 72
     1
  1
\A1;89
 73
     1
 44
1.0
1001
ACAD
1000
MTEXTBEGIN
1070
    73
1070
     1
1070
    44
1040
1.0
1070
    74
1070
     0
1000
MTEXTEND
  0
POINT
  5
3B
330
31
100
AcDbEntity
  8
DEFPOINTS
 62
     0
100
AcDbPoint
 10
95.09230096981264
 20
343.4125845895479
 30
0.0
  0
POINT
  5
3D
330
31
100
AcDbEntity
  8
DEFPOINTS
 62
     0
100
AcDbPoint
 10
99.54230096981262
 20
343.4125845895479
 30
0.0
  0
POINT
  5
3E
330
31
100
AcDbEntity
  8
DEFPOINTS
 62
     0
100
AcDbPoint
 10
99.54230096981262
 20
351.4060520849889
 30
0.0
  0
ENDBLK
  5
3F
330
31
100
AcDbEntity
  8
0
100
AcDbBlockEnd
  0
BLOCK
  5
209
330
1FF
100
AcDbEntity
  8
0
100
AcDbBlockBegin
  2
*D4
 70
     1
 10
0.0
 20
0.0
 30
0.0
  3
*D4
  1

  0
LINE
  5
200
330
1FF
100
AcDbEntity
  8
SUNPO
 62
     0
370
    -2
100
AcDbLine
 10
-40.44659656253895
 20
16.34630888324813
 30
0.0
 11
-40.44659656253895
 21
24.34630888324813
 31
0.0
  0
LINE
  5
201
330
1FF
100
AcDbEntity
  8
SUNPO
 62
     0
370
    -2
100
AcDbLine
 10
10.55340343746107
 20
16.34630888324813
 30
0.0
 11
10.55340343746107
 21
24.34630888324813
 31
0.0
  0
LINE
  5
202
330
1FF
100
AcDbEntity
  8
SUNPO
 62
     0
370
    -2
100
AcDbLine
 10
-38.44659656253896
 20
22.34630888324813
 30
0.0
 11
8.553403437461071
 21
22.34630888324813
 31
0.0
  0
INSERT
  5
203
330
1FF
100
AcDbEntity
  8
SUNPO
 62
     0
370
    -2
100
AcDbBlockReference
  2
_OPEN30
 10
-40.44659656253895
 20
22.34630888324813
 30
0.0
 41
2.0
 42
2.0
 43
2.0
 50
180.0
  0
INSERT
  5
204
330
1FF
100
AcDbEntity
  8
SUNPO
 62
     0
370
    -2
100
AcDbBlockReference
  2
_OPEN30
 10
10.55340343746107
 20
22.34630888324813
 30
0.0
 41
2.0
 42
2.0
 43
2.0
  0
MTEXT
  5
205
330
1FF
100
AcDbEntity
  8
SUNPO
 62
     0
100
AcDbMText
 10
-14.94659656253894
 20
24.09630888324813
 30
0.0
 40
2.5
 41
0.0
 71
     5
 72
     1
  1
\A1;1020
 73
     1
 44
1.0
1001
ACAD
1000
MTEXTBEGIN
1070
    73
1070
     1
1070
    44
1040
1.0
1070
    74
1070
     0
1000
MTEXTEND
  0
POINT
  5
206
330
1FF
100
AcDbEntity
  8
DEFPOINTS
 62
     0
100
AcDbPoint
 10
-40.44659656253895
 20
14.34630888324813
 30
0.0
  0
POINT
  5
207
330
1FF
100
AcDbEntity
  8
DEFPOINTS
 62
     0
100
AcDbPoint
 10
10.55340343746107
 20
14.34630888324813
 30
0.0
  0
POINT
  5
208
330
1FF
100
AcDbEntity
  8
DEFPOINTS
 62
     0
100
AcDbPoint
 10
10.55340343746107
 20
22.34630888324813
 30
0.0
  0
ENDBLK
  5
20A
330
1FF
100
AcDbEntity
  8
0
100
AcDbBlockEnd
  0
BLOCK
  5
215
330
20B
100
AcDbEntity
  8
0
100
AcDbBlockBegin
  2
*D5
 70
     1
 10
0.0
 20
0.0
 30
0.0
  3
*D5
  1

  0
LINE
  5
20C
330
20B
100
AcDbEntity
  8
SUNPO
 62
     0
370
    -2
100
AcDbLine
 10
12.11363824773336
 20
-16.15340467240054
 30
0.0
 11
20.11363824773336
 21
-16.15340467240054
 31
0.0
  0
LINE
  5
20D
330
20B
100
AcDbEntity
  8
SUNPO
 62
     0
370
    -2
100
AcDbLine
 10
12.11363824773336
 20
14.34659532759946
 30
0.0
 11
20.11363824773336
 21
14.34659532759945
 31
0.0
  0
LINE
  5
20E
330
20B
100
AcDbEntity
  8
SUNPO
 62
     0
370
    -2
100
AcDbLine
 10
18.11363824773335
 20
-14.15340467240054
 30
0.0
 11
18.11363824773336
 21
12.34659532759946
 31
0.0
  0
INSERT
  5
20F
330
20B
100
AcDbEntity
  8
SUNPO
 62
     0
370
    -2
100
AcDbBlockReference
  2
_OPEN30
 10
18.11363824773335
 20
-16.15340467240054
 30
0.0
 41
2.0
 42
2.0
 43
2.0
 50
270.0
  0
INSERT
  5
210
330
20B
100
AcDbEntity
  8
SUNPO
 62
     0
370
    -2
100
AcDbBlockReference
  2
_OPEN30
 10
18.11363824773336
 20
14.34659532759946
 30
0.0
 41
2.0
 42
2.0
 43
2.0
 50
90.0
  0
MTEXT
  5
211
330
20B
100
AcDbEntity
  8
SUNPO
 62
     0
100
AcDbMText
 10
16.36363824773336
 20
-0.9034046724005388
 30
0.0
 40
2.5
 41
0.0
 71
     5
 72
     1
  1
\A1;610
 11
0.0000000000000001
 21
1.0
 31
0.0
 73
     1
 44
1.0
1001
ACAD
1000
MTEXTBEGIN
1070
    73
1070
     1
1070
    44
1040
1.0
1070
    74
1070
     0
1000
MTEXTEND
  0
POINT
  5
212
330
20B
100
AcDbEntity
  8
DEFPOINTS
 62
     0
100
AcDbPoint
 10
10.11363824773336
 20
-16.15340467240054
 30
0.0
  0
POINT
  5
213
330
20B
100
AcDbEntity
  8
DEFPOINTS
 62
     0
100
AcDbPoint
 10
10.11363824773336
 20
14.34659532759946
 30
0.0
  0
POINT
  5
214
330
20B
100
AcDbEntity
  8
DEFPOINTS
 62
     0
100
AcDbPoint
 10
18.11363824773336
 20
14.34659532759946
 30
0.0
  0
ENDBLK
  5
216
330
20B
100
AcDbEntity
  8
0
100
AcDbBlockEnd
  0
BLOCK
  5
223
330
217
100
AcDbEntity
  8
0
100
AcDbBlockBegin
  2
*D6
 70
     1
 10
0.0
 20
0.0
 30
0.0
  3
*D6
  1

  0
LINE
  5
218
330
217
100
AcDbEntity
  8
SUNPO
 62
     0
370
    -2
100
AcDbLine
 10
29.65270279718197
 20
16.35284138780719
 30
0.0
 11
29.65270279718197
 21
24.34630888324813
 31
0.0
  0
LINE
  5
219
330
217
100
AcDbEntity
  8
SUNPO
 62
     0
370
    -2
100
AcDbLine
 10
34.10270279718196
 20
16.35284138780719
 30
0.0
 11
34.10270279718196
 21
24.34630888324813
 31
0.0
  0
LINE
  5
21A
330
217
100
AcDbEntity
  8
SUNPO
 62
     0
370
    -2
100
AcDbLine
 10
27.65270279718198
 20
22.34630888324813
 30
0.0
 11
25.65270279718197
 21
22.34630888324813
 31
0.0
  0
LINE
  5
21B
330
217
100
AcDbEntity
  8
SUNPO
 62
     0
370
    -2
100
AcDbLine
 10
36.10270279718196
 20
22.34630888324813
 30
0.0
 11
43.26936946384862
 21
22.34630888324813
 31
0.0
  0
LINE
  5
21C
330
217
100
AcDbEntity
  8
SUNPO
 62
     0
370
    -2
100
AcDbLine
 10
29.65270279718197
 20
22.34630888324813
 30
0.0
 11
34.10270279718196
 21
22.34630888324813
 31
0.0
  0
INSERT
  5
21D
330
217
100
AcDbEntity
  8
SUNPO
 62
     0
370
    -2
100
AcDbBlockReference
  2
_OPEN30
 10
29.65270279718197
 20
22.34630888324813
 30
0.0
 41
2.0
 42
2.0
 43
2.0
  0
INSERT
  5
21E
330
217
100
AcDbEntity
  8
SUNPO
 62
     0
370
    -2
100
AcDbBlockReference
  2
_OPEN30
 10
34.10270279718196
 20
22.34630888324813
 30
0.0
 41
2.0
 42
2.0
 43
2.0
 50
180.0
  0
MTEXT
  5
21F
330
217
100
AcDbEntity
  8
SUNPO
 62
     0
100
AcDbMText
 10
40.68603613051529
 20
24.09630888324813
 30
0.0
 40
2.5
 41
0.0
 71
     5
 72
     1
  1
\A1;89
 73
     1
 44
1.0
1001
ACAD
1000
MTEXTBEGIN
1070
    73
1070
     1
1070
    44
1040
1.0
1070
    74
1070
     0
1000
MTEXTEND
  0
POINT
  5
220
330
217
100
AcDbEntity
  8
DEFPOINTS
 62
     0
100
AcDbPoint
 10
29.65270279718197
 20
14.35284138780719
 30
0.0
  0
POINT
  5
221
330
217
100
AcDbEntity
  8
DEFPOINTS
 62
     0
100
AcDbPoint
 10
34.10270279718196
 20
14.35284138780719
 30
0.0
  0
POINT
  5
222
330
217
100
AcDbEntity
  8
DEFPOINTS
 62
     0
100
AcDbPoint
 10
34.10270279718196
 20
22.34630888324813
 30
0.0
  0
ENDBLK
  5
224
330
217
100
AcDbEntity
  8
0
100
AcDbBlockEnd
  0
ENDSEC
  0
SECTION
  2
ENTITIES
  0
DIMENSION
  5
2F
330
2
100
AcDbEntity
  8
SUNPO
100
AcDbDimension
  2
*D6
 10
34.10270279718196
 20
22.34630888324813
 30
0.0
 11
40.68603613051529
 21
24.09630888324813
 31
0.0
 70
    33
  1
89
 71
     5
 42
4.449999999999988
  3
STANDARD
100
AcDbAlignedDimension
 13
29.65270279718197
 23
14.35284138780719
 33
0.0
 14
34.10270279718196
 24
14.35284138780719
 34
0.0
1001
ACAD
1000
DSTYLE
1002
{
1070
    40
1040
1.0
1070
   140
1040
2.5
1070
   147
1040
0.5
1070
   172
1070
     1
1070
   279
1070
     0
1070
   288
1070
     0
1002
}
  0
DIMENSION
  5
40
330
2
100
AcDbEntity
  8
SUNPO
100
AcDbDimension
  2
*D5
 10
18.11363824773336
 20
14.34659532759946
 30
0.0
 11
16.36363824773336
 21
-0.9034046724005388
 31
0.0
 70
    33
  1
610
 71
     5
 42
30.5
  3
STANDARD
100
AcDbAlignedDimension
 13
10.11363824773336
 23
-16.15340467240054
 33
0.0
 14
10.11363824773336
 24
14.34659532759946
 34
0.0
1001
ACAD
1000
DSTYLE
1002
{
1070
   287
1070
     3
1070
   287
1070
     3
1070
   287
1070
     3
1070
   287
1070
     3
1070
   287
1070
     3
1070
   287
1070
     3
1070
   287
1070
     3
1070
   287
1070
     3
1070
   287
1070
     3
1070
   287
1070
     3
1070
   287
1070
     3
1070
   287
1070
     3
1070
   287
1070
     3
1070
   287
1070
     3
1070
   287
1070
     3
1070
   287
1070
     3
1070
   287
1070
     3
1070
   287
1070
     3
1070
   287
1070
     3
1070
   287
1070
     3
1070
   287
1070
     3
1070
   287
1070
     3
1070
   287
1070
     3
1070
   287
1070
     3
1070
   287
1070
     3
1070
   287
1070
     3
1070
   287
1070
     3
1070
   287
1070
     3
1070
   287
1070
     3
1070
   287
1070
     3
1070
   287
1070
     3
1070
   287
1070
     3
1070
   287
1070
     3
1070
   287
1070
     3
1070
    40
1040
1.0
1070
   140
1040
2.5
1070
   147
1040
0.5
1070
   172
1070
     1
1070
   279
1070
     0
1002
}
  0
DIMENSION
  5
4D
330
2
100
AcDbEntity
  8
SUNPO
100
AcDbDimension
  2
*D4
 10
10.55340343746107
 20
22.34630888324813
 30
0.0
 11
-14.94659656253894
 21
24.09630888324813
 31
0.0
 70
    33
  1
1020
 71
     5
 42
51.00000000000003
  3
STANDARD
100
AcDbAlignedDimension
 13
-40.44659656253895
 23
14.34630888324813
 33
0.0
 14
10.55340343746107
 24
14.34630888324813
 34
0.0
1001
ACAD
1000
DSTYLE
1002
{
1070
   287
1070
     3
1070
   287
1070
     3
1070
   287
1070
     3
1070
   287
1070
     3
1070
   287
1070
     3
1070
   287
1070
     3
1070
   287
1070
     3
1070
   287
1070
     3
1070
   287
1070
     3
1070
   287
1070
     3
1070
   287
1070
     3
1070
   287
1070
     3
1070
   287
1070
     3
1070
   287
1070
     3
1070
   287
1070
     3
1070
   287
1070
     3
1070
   287
1070
     3
1070
   287
1070
     3
1070
   287
1070
     3
1070
   287
1070
     3
1070
   287
1070
     3
1070
   287
1070
     3
1070
   287
1070
     3
1070
   287
1070
     3
1070
   287
1070
     3
1070
   287
1070
     3
1070
   287
1070
     3
1070
   287
1070
     3
1070
   287
1070
     3
1070
   287
1070
     3
1070
   287
1070
     3
1070
   287
1070
     3
1070
   287
1070
     3
1070
   287
1070
     3
1070
    40
1040
1.0
1070
   140
1040
2.5
1070
   147
1040
0.5
1070
   172
1070
     1
1070
   279
1070
     0
1002
}
  0
SPLINE
  5
5A
330
2
100
AcDbEntity
  8
GAIKEI
  6
Continuous
 62
     1
100
AcDbSpline
210
0.0
220
0.0
230
1.0
 70
     8
 71
     3
 72
    19
 73
    15
 74
    13
 42
0.0000000001
 43
0.0000000001
 44
0.000001
 12
-0.0752275696311223
 22
-0.997166391715743
 32
0.0
 13
-0.9971651028730411
 23
-0.075244651718227
 33
0.0
 40
0.0
 40
0.0
 40
0.0
 40
0.0
 40
0.0307154355883291
 40
0.0474030577479735
 40
0.0651725077410082
 40
0.0907715901516846
 40
0.1187843457784013
 40
0.1493748434985142
 40
0.1799684721587333
 40
0.2079831863822425
 40
0.2335829247319934
 40
0.2513519491628464
 40
0.2680383245397779
 40
0.2987487388429205
 40
0.2987487388429205
 40
0.2987487388429205
 40
0.2987487388429205
 10
10.418003269696
 20
-15.81257558364041
 30
0.0
 10
10.41723305383951
 20
-15.8227850503323
 30
0.0
 10
10.4145113839796
 20
-15.83849567488369
 30
0.0
 10
10.40738071411229
 20
-15.85904699842115
 30
0.0
 10
10.39906429729525
 20
-15.87728783137231
 30
0.0
 10
10.38692575082518
 20
-15.89781574813219
 30
0.0
 10
10.37008823125256
 20
-15.92033328293922
 30
0.0
 10
10.34998439460119
 20
-15.9422972819782
 30
0.0
 10
10.32801854061517
 20
-15.96240003789677
 30
0.0
 10
10.30549884504903
 20
-15.97923782334709
 30
0.0
 10
10.28497011146365
 20
-15.9913763914185
 30
0.0
 10
10.26672960227385
 20
-15.99969267401332
 30
0.0
 10
10.24618049289391
 20
-16.00682291009821
 30
0.0
 10
10.23047198303926
 20
-16.009544389967
 30
0.0
 10
10.22026419855997
 20
-16.01031465477644
 30
0.0
 11
10.418003269696
 21
-15.81257558364041
 31
0.0
 11
10.41267010903694
 21
-15.84282457823269
 31
0.0
 11
10.40726321119436
 21
-15.85861179678625
 31
0.0
 11
10.39991770516967
 21
-15.8747918047772
 31
0.0
 11
10.38696969672391
 21
-15.89687471671345
 31
0.0
 11
10.37026248068828
 21
-15.91935973016063
 31
0.0
 11
10.34966519833892
 21
-15.94197658341932
 31
0.0
 11
10.32704474699139
 21
-15.96257456476275
 31
0.0
 11
10.30455749060206
 21
-15.9792820461331
 31
0.0
 11
10.28247378547621
 21
-15.99222999871352
 31
0.0
 11
10.26629416353293
 21
-15.99957532578725
 31
0.0
 11
10.25050818039744
 21
-16.00498198328836
 31
0.0
 11
10.22026419855997
 21
-16.01031465477644
 31
0.0
  0
SPLINE
  5
5B
330
2
100
AcDbEntity
  8
GAIKEI
  6
Continuous
 62
     1
100
AcDbSpline
210
0.0
220
0.0
230
1.0
 70
     8
 71
     3
 72
    19
 73
    15
 74
    13
 42
0.0000000001
 43
0.0000000001
 44
0.000001
 12
0.0752275696311222
 22
-0.997166391715743
 32
0.0
 13
0.9971651028730605
 23
-0.0752446517179686
 33
0.0
 40
0.0
 40
0.0
 40
0.0
 40
0.0
 40
0.0307154355883346
 40
0.0474030577479733
 40
0.0651725077410124
 40
0.0907715901516762
 40
0.1187843457784767
 40
0.1493748434985284
 40
0.1799684721587266
 40
0.2079831863822528
 40
0.2335829247320007
 40
0.251351949162844
 40
0.2680383245397553
 40
0.2987487388429329
 40
0.2987487388429329
 40
0.2987487388429329
 40
0.2987487388429329
 10
-40.3111963947739
 20
-15.81257558364041
 30
0.0
 10
-40.31042617891741
 20
-15.8227850503323
 30
0.0
 10
-40.30770450905742
 20
-15.83849567488369
 30
0.0
 10
-40.3005738391902
 20
-15.85904699842115
 30
0.0
 10
-40.29225742237311
 20
-15.87728783137231
 30
0.0
 10
-40.2801188759031
 20
-15.89781574813219
 30
0.0
 10
-40.26328135633042
 20
-15.92033328293917
 30
0.0
 10
-40.24317751967904
 20
-15.94229728197831
 30
0.0
 10
-40.22121166569307
 20
-15.96240003789666
 30
0.0
 10
-40.1986919701269
 20
-15.97923782334703
 30
0.0
 10
-40.17816323654153
 20
-15.9913763914185
 30
0.0
 10
-40.15992272735174
 20
-15.9996926740132
 30
0.0
 10
-40.13937361797181
 20
-16.00682291009838
 30
0.0
 10
-40.12366510811715
 20
-16.009544389967
 30
0.0
 10
-40.11345732363785
 20
-16.01031465477644
 30
0.0
 11
-40.3111963947739
 21
-15.81257558364041
 31
0.0
 11
-40.30586323411481
 21
-15.84282457823269
 31
0.0
 11
-40.30045633627224
 21
-15.85861179678625
 31
0.0
 11
-40.29311083024754
 21
-15.8747918047772
 31
0.0
 11
-40.28016282180181
 21
-15.89687471671345
 31
0.0
 11
-40.26345560576612
 21
-15.91935973016069
 31
0.0
 11
-40.24285832341678
 21
-15.94197658341932
 31
0.0
 11
-40.22023787206927
 21
-15.96257456476275
 31
0.0
 11
-40.19775061567993
 21
-15.9792820461331
 31
0.0
 11
-40.17566691055408
 21
-15.99222999871352
 31
0.0
 11
-40.15948728861082
 21
-15.99957532578725
 31
0.0
 11
-40.14370130547535
 21
-16.00498198328836
 31
0.0
 11
-40.11345732363785
 21
-16.01031465477644
 31
0.0
  0
SPLINE
  5
5C
330
2
100
AcDbEntity
  8
GAIKEI
  6
Continuous
 62
     1
100
AcDbSpline
210
0.0
220
0.0
230
1.0
 70
     8
 71
     3
 72
    19
 73
    15
 74
    13
 42
0.0000000001
 43
0.0000000001
 44
0.000001
 12
0.9971663916999085
 22
-0.0752275698410131
 32
0.0
 13
0.0752446515490343
 23
-0.9971651028858081
 33
0.0
 40
0.0
 40
0.0
 40
0.0
 40
0.0
 40
0.0307154356042738
 40
0.0474030577681561
 40
0.0651725077626301
 40
0.0907715901709523
 40
0.1187843457902515
 40
0.1493748434978376
 40
0.1799684721688007
 40
0.2079831863987552
 40
0.2335829247506261
 40
0.2513519491800738
 40
0.268038324553368
 40
0.2987487388426722
 40
0.2987487388426722
 40
0.2987487388426722
 40
0.2987487388426722
 10
10.22026419855992
 20
14.21888500969339
 30
0.0
 10
10.23047366525692
 20
14.21811479383433
 30
0.0
 10
10.24618428981441
 20
14.21539312397067
 30
0.0
 10
10.26673561335828
 20
14.20826245409995
 30
0.0
 10
10.28497644631021
 20
14.1999460372819
 30
0.0
 10
10.3055043630674
 20
14.18780749081293
 30
0.0
 10
10.32802189786781
 20
14.17096997124383
 30
0.0
 10
10.34998589690345
 20
14.15086613459311
 30
0.0
 10
10.37008865282118
 20
14.1289002806044
 30
0.0
 10
10.3869264382747
 20
14.10638058503269
 30
0.0
 10
10.39906500634687
 20
14.08585185144488
 30
0.0
 10
10.40738128894078
 20
14.06761134225587
 30
0.0
 10
10.41451152502317
 20
14.0470622328815
 30
0.0
 10
10.41723300488863
 20
14.03135372303217
 30
0.0
 10
10.418003269696
 20
14.02114593855737
 30
0.0
 11
10.22026419855992
 21
14.21888500969339
 31
0.0
 11
10.25051319316704
 21
14.21355184902671
 31
0.0
 11
10.26630041172424
 21
14.20814495118174
 31
0.0
 11
10.28248041971628
 21
14.20079944515589
 31
0.0
 11
10.30456333165016
 21
14.18785143671073
 31
0.0
 11
10.32704834509071
 21
14.17114422067863
 31
0.0
 11
10.34966519833888
 21
14.15054693833633
 31
0.0
 11
10.37026317968811
 21
14.12792648697956
 31
0.0
 11
10.38697066106151
 21
14.10543923058446
 31
0.0
 11
10.39991861364237
 21
14.0833555254564
 31
0.0
 11
10.40726394071507
 21
14.06717590351417
 31
0.0
 11
10.41267059821425
 21
14.05138992038189
 31
0.0
 11
10.418003269696
 21
14.02114593855737
 31
0.0
  0
SPLINE
  5
5D
330
2
100
AcDbEntity
  8
GAIKEI
  6
Continuous
 62
     1
100
AcDbSpline
210
0.0
220
0.0
230
1.0
 70
     8
 71
     3
 72
    19
 73
    15
 74
    13
 42
0.0000000001
 43
0.0000000001
 44
0.000001
 12
-0.9971663916999085
 22
-0.0752275698410132
 32
0.0
 13
-0.0752446515492926
 23
-0.9971651028857888
 33
0.0
 40
0.0
 40
0.0
 40
0.0
 40
0.0
 40
0.0307154356042598
 40
0.0474030577681489
 40
0.0651725077626261
 40
0.0907715901709421
 40
0.1187843457902642
 40
0.1493748434978266
 40
0.1799684721688065
 40
0.2079831863987482
 40
0.2335829247506263
 40
0.2513519491800711
 40
0.268038324553364
 40
0.298748738842672
 40
0.298748738842672
 40
0.298748738842672
 40
0.298748738842672
 10
-40.1134573236378
 20
14.21888500969339
 30
0.0
 10
-40.12366679033479
 20
14.21811479383433
 30
0.0
 10
-40.13937741489228
 20
14.21539312397067
 30
0.0
 10
-40.15992873843615
 20
14.20826245410001
 30
0.0
 10
-40.1781695713881
 20
14.1999460372819
 30
0.0
 10
-40.19869748814524
 20
14.18780749081287
 30
0.0
 10
-40.22121502294574
 20
14.17096997124395
 30
0.0
 10
-40.24317902198133
 20
14.15086613459306
 30
0.0
 10
-40.26328177789906
 20
14.1289002806044
 30
0.0
 10
-40.28011956335257
 20
14.10638058503264
 30
0.0
 10
-40.29225813142478
 20
14.08585185144488
 30
0.0
 10
-40.30057441401866
 20
14.06761134225587
 30
0.0
 10
-40.30770465010106
 20
14.04706223288156
 30
0.0
 10
-40.31042612996652
 20
14.03135372303217
 30
0.0
 10
-40.3111963947739
 20
14.02114593855737
 30
0.0
 11
-40.1134573236378
 21
14.21888500969339
 31
0.0
 11
-40.1437063182449
 21
14.21355184902671
 31
0.0
 11
-40.15949353680213
 21
14.20814495118174
 31
0.0
 11
-40.17567354479417
 21
14.20079944515589
 31
0.0
 11
-40.19775645672803
 21
14.18785143671073
 31
0.0
 11
-40.22024147016861
 21
14.17114422067863
 31
0.0
 11
-40.24285832341675
 21
14.15054693833633
 31
0.0
 11
-40.263456304766
 21
14.12792648697956
 31
0.0
 11
-40.28016378613938
 21
14.10543923058446
 31
0.0
 11
-40.29311173872025
 21
14.0833555254564
 31
0.0
 11
-40.30045706579295
 21
14.06717590351417
 31
0.0
 11
-40.30586372329213
 21
14.05138992038189
 31
0.0
 11
-40.3111963947739
 21
14.02114593855737
 31
0.0
  0
SPLINE
  5
5E
330
2
100
AcDbEntity
  8
GAIKEI
  6
Continuous
 62
     1
100
AcDbSpline
210
0.0
220
0.0
230
1.0
 70
     8
 71
     3
 72
    15
 73
    11
 74
     9
 42
0.0000000001
 43
0.0000000001
 44
0.000001
 12
-0.2924958065310857
 22
0.9562668054270888
 32
0.0
 13
-0.9560185359242824
 23
0.2933062545688235
 33
0.0
 40
0.0
 40
0.0
 40
0.0
 40
0.0
 40
0.0168063404896338
 40
0.0336211194742906
 40
0.05035831261842
 40
0.067000842935413
 40
0.0837880166497287
 40
0.1004733571095651
 40
0.1170568982760898
 40
0.1337837633035091
 40
0.1337837633035091
 40
0.1337837633035091
 40
0.1337837633035091
 10
8.170881395679998
 20
12.03328904905294
 30
0.0
 10
8.169242800974544
 20
12.03864616422993
 30
0.0
 10
8.165313220921547
 20
12.04917632479009
 30
0.0
 10
8.157557550337301
 20
12.06410851769919
 30
0.0
 10
8.148061805265086
 20
12.07793614038098
 30
0.0
 10
8.136951937308197
 20
12.09049008258267
 30
0.0
 10
8.124397254375594
 20
12.10157437912539
 30
0.0
 10
8.110593576029273
 20
12.11102271876945
 30
0.0
 10
8.09576612136945
 20
12.11871457258178
 30
0.0
 10
8.085335766609418
 20
12.12261392303617
 30
0.0
 10
8.080005368938046
 20
12.1242492877468
 30
0.0
 11
8.170881395679998
 21
12.03328904905294
 31
0.0
 11
8.165002994649555
 21
12.0490342193105
 31
0.0
 11
8.157249973921025
 21
12.06395491374758
 31
0.0
 11
8.147773724825938
 21
12.07775110728767
 31
0.0
 11
8.136743915425952
 21
12.09021376913995
 31
0.0
 11
8.124159874138868
 21
12.10132466289474
 31
0.0
 11
8.110392037840668
 21
12.11075057880896
 31
0.0
 11
8.095672659450059
 21
12.11838951690157
 31
0.0
 11
8.080005368938046
 21
12.1242492877468
 31
0.0
  0
SPLINE
  5
5F
330
2
100
AcDbEntity
  8
GAIKEI
  6
Continuous
 62
     1
100
AcDbSpline
210
0.0
220
0.0
230
1.0
 70
     8
 71
     3
 72
    15
 73
    11
 74
     9
 42
0.0000000001
 43
0.0000000001
 44
0.000001
 12
0.9999398593324002
 22
0.0109671198725969
 32
0.0
 13
-0.0109745129035742
 23
-0.9999397782199332
 33
0.0
 40
0.0
 40
0.0
 40
0.0
 40
0.0
 40
0.0144545412891253
 40
0.0288481230524442
 40
0.0432449733897656
 40
0.0575864329608035
 40
0.0720053976517272
 40
0.0863379338911846
 40
0.1007485460548398
 40
0.1151186774904425
 40
0.1151186774904425
 40
0.1151186774904425
 40
0.1151186774904425
 10
8.585744572986413
 20
12.61469490910042
 30
0.0
 10
8.590562463647529
 20
12.61474775066278
 30
0.0
 10
8.60021610424414
 20
12.61392558881022
 30
0.0
 10
8.61414406267103
 20
12.60987012533962
 30
0.0
 10
8.626963154884776
 20
12.60314603444885
 30
0.0
 10
8.638180576152876
 20
12.59398407384219
 30
0.0
 10
8.647313207120504
 20
12.58276868106992
 30
0.0
 10
8.654021721624957
 20
12.56993143500426
 30
0.0
 10
8.658049142329019
 20
12.55604086924205
 30
0.0
 10
8.65886373911384
 20
12.5464103357034
 30
0.0
 10
8.658811170716219
 20
12.54162058035649
 30
0.0
 11
8.585744572986413
 21
12.61469490910042
 31
0.0
 11
8.600146104914571
 21
12.61345185830862
 31
0.0
 11
8.613964721987116
 21
12.60942421055415
 31
0.0
 11
8.626711361849984
 21
12.60273139329285
 31
0.0
 11
8.637817935600736
 21
12.59365819518649
 31
0.0
 11
8.646923687314838
 21
12.58247815532525
 31
0.0
 11
8.65356717846852
 21
12.56977827608
 31
0.0
 11
8.657583911980552
 21
12.55593874827468
 31
0.0
 11
8.658811170716219
 21
12.54162058035649
 31
0.0
  0
SPLINE
  5
60
330
2
100
AcDbEntity
  8
GAIKEI
  6
Continuous
 62
     1
100
AcDbSpline
210
0.0
220
0.0
230
1.0
 70
     8
 71
     3
 72
    15
 73
    11
 74
     9
 42
0.0000000001
 43
0.0000000001
 44
0.000001
 12
-0.9999398593324002
 22
0.0109671198725968
 32
0.0
 13
0.0109745129035741
 23
-0.9999397782199332
 33
0.0
 40
0.0
 40
0.0
 40
0.0
 40
0.0
 40
0.0144545412891253
 40
0.0288481230524579
 40
0.0432449733897824
 40
0.0575864329608231
 40
0.0720053976517423
 40
0.086337933891198
 40
0.1007485460548502
 40
0.1151186774904529
 40
0.1151186774904529
 40
0.1151186774904529
 40
0.1151186774904529
 10
-38.47893769806429
 20
12.61469490910042
 30
0.0
 10
-38.4837555887254
 20
12.61474775066278
 30
0.0
 10
-38.49340922932205
 20
12.61392558881016
 30
0.0
 10
-38.50733718774892
 20
12.60987012533968
 30
0.0
 10
-38.52015627996266
 20
12.60314603444885
 30
0.0
 10
-38.53137370123076
 20
12.59398407384208
 30
0.0
 10
-38.54050633219839
 20
12.58276868106998
 30
0.0
 10
-38.54721484670285
 20
12.56993143500426
 30
0.0
 10
-38.55124226740689
 20
12.55604086924217
 30
0.0
 10
-38.55205686419171
 20
12.5464103357034
 30
0.0
 10
-38.55200429579409
 20
12.54162058035649
 30
0.0
 11
-38.47893769806429
 21
12.61469490910042
 31
0.0
 11
-38.49333922999245
 21
12.61345185830862
 31
0.0
 11
-38.507157847065
 21
12.60942421055415
 31
0.0
 11
-38.51990448692787
 21
12.60273139329285
 31
0.0
 11
-38.53101106067862
 21
12.59365819518649
 31
0.0
 11
-38.54011681239273
 21
12.58247815532525
 31
0.0
 11
-38.54676030354641
 21
12.56977827608
 31
0.0
 11
-38.55077703705843
 21
12.55593874827468
 31
0.0
 11
-38.55200429579409
 21
12.54162058035649
 31
0.0
  0
SPLINE
  5
61
330
2
100
AcDbEntity
  8
GAIKEI
  6
Continuous
 62
     1
100
AcDbSpline
210
0.0
220
0.0
230
1.0
 70
     8
 71
     3
 72
    15
 73
    11
 74
     9
 42
0.0000000001
 43
0.0000000001
 44
0.000001
 12
0.2924958065310856
 22
0.956266805427089
 32
0.0
 13
0.9560185359243778
 23
0.293306254568513
 33
0.0
 40
0.0
 40
0.0
 40
0.0
 40
0.0
 40
0.0168063404896351
 40
0.0336211194742837
 40
0.050358312618413
 40
0.0670008429354108
 40
0.0837880166497184
 40
0.1004733571095696
 40
0.1170568982760847
 40
0.1337837633035007
 40
0.1337837633035007
 40
0.1337837633035007
 40
0.1337837633035007
 10
-38.06407452075787
 20
12.03328904905294
 30
0.0
 10
-38.06243592605241
 20
12.03864616422993
 30
0.0
 10
-38.05850634599938
 20
12.04917632479004
 30
0.0
 10
-38.0507506754152
 20
12.06410851769925
 30
0.0
 10
-38.04125493034297
 20
12.07793614038087
 30
0.0
 10
-38.03014506238606
 20
12.09049008258262
 30
0.0
 10
-38.0175903794535
 20
12.10157437912539
 30
0.0
 10
-38.00378670110715
 20
12.11102271876939
 30
0.0
 10
-37.98895924644732
 20
12.11871457258167
 30
0.0
 10
-37.9785288916873
 20
12.12261392303617
 30
0.0
 10
-37.97319849401593
 20
12.1242492877468
 30
0.0
 11
-38.06407452075787
 21
12.03328904905294
 31
0.0
 11
-38.05819611972743
 21
12.0490342193105
 31
0.0
 11
-38.05044309899891
 21
12.06395491374758
 31
0.0
 11
-38.04096684990383
 21
12.07775110728767
 31
0.0
 11
-38.02993704050383
 21
12.09021376913995
 31
0.0
 11
-38.01735299921676
 21
12.10132466289474
 31
0.0
 11
-38.00358516291854
 21
12.11075057880896
 31
0.0
 11
-37.98886578452794
 21
12.11838951690157
 31
0.0
 11
-37.97319849401593
 21
12.1242492877468
 31
0.0
  0
SPLINE
  5
62
330
2
100
AcDbEntity
  8
GAIKEI
  6
Continuous
 62
     1
100
AcDbSpline
210
0.0
220
0.0
230
1.0
 70
     8
 71
     3
 72
    15
 73
    11
 74
     9
 42
0.0000000001
 43
0.0000000001
 44
0.000001
 12
-0.9560175965648596
 22
0.2933093163510996
 32
0.0
 13
-0.2924928147296205
 23
0.9562677205320401
 33
0.0
 40
0.0
 40
0.0
 40
0.0
 40
0.0
 40
0.016806382719163
 40
0.0336212646659093
 40
0.0503584224868288
 40
0.0670009486666065
 40
0.0837881260373797
 40
0.1004733754750064
 40
0.1170569269589584
 40
0.133783763042594
 40
0.133783763042594
 40
0.133783763042594
 40
0.133783763042594
 10
-37.97319849401575
 20
-13.91567893283013
 30
0.0
 10
-37.97855422655379
 20
-13.91403577662157
 30
0.0
 10
-37.98908102904328
 20
-13.91009699721417
 30
0.0
 10
-38.00400612547205
 20
-13.90232753894446
 30
0.0
 10
-38.01782474105875
 20
-13.89281862807013
 30
0.0
 10
-38.03036793646719
 20
-13.88169663770998
 30
0.0
 10
-38.04144007254122
 20
-13.8691312775943
 30
0.0
 10
-38.05087527061654
 20
-13.85531866326471
 30
0.0
 10
-38.05855344280981
 20
-13.84048418993518
 30
0.0
 10
-38.06244369430227
 20
-13.83005047194058
 30
0.0
 10
-38.06407452075814
 20
-13.82471869413609
 30
0.0
 11
-37.97319849401575
 21
-13.91567893283013
 31
0.0
 11
-37.98893856851805
 21
-13.90978677532644
 31
0.0
 11
-38.00385222982214
 21
-13.90202001094809
 31
0.0
 11
-38.01763939780732
 21
-13.89253069741693
 31
0.0
 11
-38.03009142066218
 21
-13.8814888848234
 31
0.0
 11
-38.04119018548354
 21
-13.86889414000791
 31
0.0
 11
-38.05060299673611
 21
-13.85511745127826
 31
0.0
 11
-38.05822843559986
 21
-13.84039106363559
 31
0.0
 11
-38.06407452075814
 21
-13.82471869413609
 31
0.0
  0
SPLINE
  5
63
330
2
100
AcDbEntity
  8
GAIKEI
  6
Continuous
 62
     1
100
AcDbSpline
210
0.0
220
0.0
230
1.0
 70
     8
 71
     3
 72
    15
 73
    11
 74
     9
 42
0.0000000001
 43
0.0000000001
 44
0.000001
 12
-0.0109562642203222
 22
-0.999939978335867
 32
0.0
 13
0.9999396584535912
 23
0.0109854199608156
 33
0.0
 40
0.0
 40
0.0
 40
0.0
 40
0.0
 40
0.0144545160023279
 40
0.0288481527290777
 40
0.0432449883425921
 40
0.0575864997006204
 40
0.0720054578610227
 40
0.0863379547938092
 40
0.100748565253515
 40
0.115118677686571
 40
0.115118677686571
 40
0.115118677686571
 40
0.115118677686571
 10
-38.55200429579391
 20
-14.33305022543948
 30
0.0
 10
-38.55205708495941
 20
-14.33786810824557
 30
0.0
 10
-38.55123509376122
 20
-14.34752172471485
 30
0.0
 10
-38.54718084418767
 20
-14.36144998084319
 30
0.0
 10
-38.54045853758553
 20
-14.37426999606725
 30
0.0
 10
-38.53129847435028
 20
-14.38548896095682
 30
0.0
 10
-38.52008460659646
 20
-14.39462349266614
 30
0.0
 10
-38.50724826562109
 20
-14.40133379279876
 30
0.0
 10
-38.49335800638619
 20
-14.40536241211822
 30
0.0
 10
-38.48372744650367
 20
-14.40617717475658
 30
0.0
 10
-38.47893769806424
 20
-14.40612455418323
 30
0.0
 11
-38.55200429579391
 21
-14.33305022543948
 31
0.0
 11
-38.55076152919997
 21
-14.34745175559226
 31
0.0
 11
-38.54673501862066
 21
-14.36127076120761
 31
0.0
 11
-38.54004392873259
 21
-14.3740182912262
 31
0.0
 11
-38.53097251674217
 21
-14.38512639069819
 31
0.0
 11
-38.51979396925663
 21
-14.39423396412701
 31
0.0
 11
-38.50709501802099
 21
-14.40087914430376
 31
0.0
 11
-38.49325582454654
 21
-14.40489702380523
 31
0.0
 11
-38.47893769806424
 21
-14.40612455418323
 31
0.0
  0
SPLINE
  5
64
330
2
100
AcDbEntity
  8
GAIKEI
  6
Continuous
 62
     1
100
AcDbSpline
210
0.0
220
0.0
230
1.0
 70
     8
 71
     3
 72
    15
 73
    11
 74
     9
 42
0.0000000001
 43
0.0000000001
 44
0.000001
 12
0.0109562642203223
 22
-0.999939978335867
 32
0.0
 13
-0.9999396584535912
 23
0.0109854199608153
 33
0.0
 40
0.0
 40
0.0
 40
0.0
 40
0.0
 40
0.0144545160023285
 40
0.0288481527290773
 40
0.0432449883425933
 40
0.0575864997006172
 40
0.0720054578610167
 40
0.0863379547938189
 40
0.1007485652535077
 40
0.1151186776865673
 40
0.1151186776865673
 40
0.1151186776865673
 40
0.1151186776865673
 10
8.658811170716035
 20
-14.33305022543948
 30
0.0
 10
8.658863959881529
 20
-14.33786810824557
 30
0.0
 10
8.658041968683335
 20
-14.34752172471479
 30
0.0
 10
8.653987719109807
 20
-14.36144998084313
 30
0.0
 10
8.647265412507636
 20
-14.37426999606725
 30
0.0
 10
8.638105349272407
 20
-14.38548896095688
 30
0.0
 10
8.626891481518597
 20
-14.39462349266603
 30
0.0
 10
8.614055140543186
 20
-14.40133379279882
 30
0.0
 10
8.600164881308316
 20
-14.40536241211816
 30
0.0
 10
8.590534321425792
 20
-14.40617717475658
 30
0.0
 10
8.585744572986371
 20
-14.40612455418323
 30
0.0
 11
8.658811170716035
 21
-14.33305022543948
 31
0.0
 11
8.657568404122088
 21
-14.34745175559226
 31
0.0
 11
8.653541893542794
 21
-14.36127076120761
 31
0.0
 11
8.6468508036547
 21
-14.3740182912262
 31
0.0
 11
8.637779391664295
 21
-14.38512639069819
 31
0.0
 11
8.626600844178753
 21
-14.39423396412701
 31
0.0
 11
8.613901892943104
 21
-14.40087914430376
 31
0.0
 11
8.600062699468665
 21
-14.40489702380523
 31
0.0
 11
8.585744572986371
 21
-14.40612455418323
 31
0.0
  0
SPLINE
  5
65
330
2
100
AcDbEntity
  8
GAIKEI
  6
Continuous
 62
     1
100
AcDbSpline
210
0.0
220
0.0
230
1.0
 70
     8
 71
     3
 72
    15
 73
    11
 74
     9
 42
0.0000000001
 43
0.0000000001
 44
0.000001
 12
0.9560175965647362
 22
0.2933093163515012
 32
0.0
 13
0.2924928147293096
 23
0.9562677205321351
 33
0.0
 40
0.0
 40
0.0
 40
0.0
 40
0.0
 40
0.0168063827191663
 40
0.0336212646659001
 40
0.0503584224868137
 40
0.067000948666594
 40
0.0837881260373742
 40
0.100473375475003
 40
0.1170569269589534
 40
0.1337837630425902
 40
0.1337837630425902
 40
0.1337837630425902
 40
0.1337837630425902
 10
8.080005368937875
 20
-13.91567893283013
 30
0.0
 10
8.085361101475911
 20
-13.91403577662157
 30
0.0
 10
8.09588790396539
 20
-13.91009699721434
 30
0.0
 10
8.110813000394188
 20
-13.90232753894429
 30
0.0
 10
8.12463161598086
 20
-13.89281862807019
 30
0.0
 10
8.137174811389314
 20
-13.88169663770998
 30
0.0
 10
8.148246947463334
 20
-13.86913127759436
 30
0.0
 10
8.157682145538657
 20
-13.85531866326471
 30
0.0
 10
8.165360317731938
 20
-13.84048418993512
 30
0.0
 10
8.169250569224402
 20
-13.83005047194058
 30
0.0
 10
8.170881395680268
 20
-13.82471869413609
 30
0.0
 11
8.080005368937875
 21
-13.91567893283013
 31
0.0
 11
8.095745443440179
 21
-13.90978677532644
 31
0.0
 11
8.110659104744257
 21
-13.90202001094809
 31
0.0
 11
8.124446272729429
 21
-13.89253069741693
 31
0.0
 11
8.136898295584288
 21
-13.8814888848234
 31
0.0
 11
8.147997060405671
 21
-13.86889414000791
 31
0.0
 11
8.157409871658231
 21
-13.85511745127826
 31
0.0
 11
8.165035310521986
 21
-13.84039106363559
 31
0.0
 11
8.170881395680268
 21
-13.82471869413609
 31
0.0
  0
LINE
  5
66
330
2
100
AcDbEntity
  8
GAIKEI
  6
Continuous
 62
     1
100
AcDbLine
 10
10.19117423746105
 20
13.79431687745853
 30
0.0
 11
10.19117423746105
 21
-15.58574652254151
 31
0.0
  0
LINE
  5
67
330
2
100
AcDbEntity
  8
GAIKEI
  6
Continuous
 62
     1
100
AcDbLine
 10
-40.08436736253893
 20
13.79431687745853
 30
0.0
 11
-40.08436736253893
 21
-15.58574652254151
 31
0.0
  0
LINE
  5
68
330
2
100
AcDbEntity
  8
GAIKEI
  6
Continuous
 62
     1
100
AcDbLine
 10
9.993435137461077
 20
-15.78348562254149
 30
0.0
 11
-39.88662826253895
 21
-15.78348562254149
 31
0.0
  0
LINE
  5
69
330
2
100
AcDbEntity
  8
GAIKEI
  6
Continuous
 62
     1
100
AcDbLine
 10
-38.71056146253896
 20
12.54855842745849
 30
0.0
 11
-38.71056146253896
 21
-14.33998807254147
 31
0.0
  0
LINE
  5
6A
330
2
100
AcDbEntity
  8
GAIKEI
  6
Continuous
 62
     1
100
AcDbLine
 10
8.592676687461064
 20
-14.56467972254148
 30
0.0
 11
-38.48586981253894
 21
-14.56467972254148
 31
0.0
  0
LINE
  5
6B
330
2
100
AcDbEntity
  8
GAIKEI
  6
Continuous
 62
     1
100
AcDbLine
 10
8.817368337461076
 20
12.54855842745849
 30
0.0
 11
8.817368337461076
 21
-14.33998807254147
 31
0.0
  0
LINE
  5
6C
330
2
100
AcDbEntity
  8
GAIKEI
  6
Continuous
 62
     1
100
AcDbLine
 10
-38.48586981253894
 20
12.7732500774585
 30
0.0
 11
8.592676687461064
 21
12.7732500774585
 31
0.0
  0
LINE
  5
6D
330
2
100
AcDbEntity
  8
GAIKEI
  6
Continuous
 62
     1
100
AcDbLine
 10
-39.45284656253894
 20
-15.52696482254146
 30
0.0
 11
-39.34034656253894
 21
-15.52696482254146
 31
0.0
  0
LINE
  5
6E
330
2
100
AcDbEntity
  8
GAIKEI
  6
Continuous
 62
     1
100
AcDbLine
 10
-39.45284656253894
 20
-15.4144648225415
 30
0.0
 11
-39.34034656253894
 21
-15.4144648225415
 31
0.0
  0
LINE
  5
6F
330
2
100
AcDbEntity
  8
GAIKEI
  6
Continuous
 62
     1
100
AcDbLine
 10
-37.50659656253893
 20
-15.62080997254151
 30
0.0
 11
-37.50659656253893
 21
-15.32061967254151
 31
0.0
  0
LINE
  5
70
330
2
100
AcDbEntity
  8
GAIKEI
  6
Continuous
 62
     1
100
AcDbLine
 10
-37.85659656253894
 20
-15.62080997254151
 30
0.0
 11
-37.85659656253894
 21
-15.32061967254151
 31
0.0
  0
LINE
  5
71
330
2
100
AcDbEntity
  8
GAIKEI
  6
Continuous
 62
     1
100
AcDbLine
 10
-39.34034656253894
 20
-15.52696482254146
 30
0.0
 11
-39.34034656253894
 21
-15.4144648225415
 31
0.0
  0
LINE
  5
72
330
2
100
AcDbEntity
  8
GAIKEI
  6
Continuous
 62
     1
100
AcDbLine
 10
-39.45284656253894
 20
-15.52696482254146
 30
0.0
 11
-39.45284656253894
 21
-15.4144648225415
 31
0.0
  0
LINE
  5
73
330
2
100
AcDbEntity
  8
GAIKEI
  6
Continuous
 62
     1
100
AcDbLine
 10
-37.83169171253895
 20
-15.29571482254153
 30
0.0
 11
-37.53150141253892
 21
-15.29571482254153
 31
0.0
  0
LINE
  5
74
330
2
100
AcDbEntity
  8
GAIKEI
  6
Continuous
 62
     1
100
AcDbLine
 10
-37.83169171253895
 20
-15.64571482254149
 30
0.0
 11
-37.53150141253892
 21
-15.64571482254149
 31
0.0
  0
LINE
  5
75
330
2
100
AcDbEntity
  8
GAIKEI
  6
Continuous
 62
     1
100
AcDbLine
 10
-39.88662826253895
 20
13.9920559774585
 30
0.0
 11
9.993435137461077
 21
13.9920559774585
 31
0.0
  0
LINE
  5
76
330
2
100
AcDbEntity
  8
GAIKEI
  6
Continuous
 62
     1
100
AcDbLine
 10
10.19117423746105
 20
-15.58574652254151
 30
0.0
 11
10.41800328746107
 21
-15.8125755725415
 31
0.0
  0
LINE
  5
77
330
2
100
AcDbEntity
  8
GAIKEI
  6
Continuous
 62
     1
100
AcDbLine
 10
10.22026418746108
 20
-16.01031467254154
 30
0.0
 11
9.993435137461077
 21
-15.78348562254149
 31
0.0
  0
LINE
  5
78
330
2
100
AcDbEntity
  8
GAIKEI
  6
Continuous
 62
     1
100
AcDbLine
 10
-40.11345731253896
 20
-16.01031467254154
 30
0.0
 11
-39.88662826253895
 21
-15.78348562254149
 31
0.0
  0
LINE
  5
79
330
2
100
AcDbEntity
  8
GAIKEI
  6
Continuous
 62
     1
100
AcDbLine
 10
-40.08436736253893
 20
-15.58574652254151
 30
0.0
 11
-40.31119641253894
 21
-15.8125755725415
 31
0.0
  0
LINE
  5
7A
330
2
100
AcDbEntity
  8
GAIKEI
  6
Continuous
 62
     1
100
AcDbLine
 10
9.993435137461077
 20
13.9920559774585
 30
0.0
 11
10.22026418746108
 21
14.2188850274585
 31
0.0
  0
LINE
  5
7B
330
2
100
AcDbEntity
  8
GAIKEI
  6
Continuous
 62
     1
100
AcDbLine
 10
10.41800328746107
 20
14.02114592745852
 30
0.0
 11
10.19117423746105
 21
13.79431687745853
 31
0.0
  0
LINE
  5
7C
330
2
100
AcDbEntity
  8
GAIKEI
  6
Continuous
 62
     1
100
AcDbLine
 10
-40.31119641253894
 20
14.02114592745852
 30
0.0
 11
-40.08436736253893
 21
13.79431687745853
 31
0.0
  0
LINE
  5
7D
330
2
100
AcDbEntity
  8
GAIKEI
  6
Continuous
 62
     1
100
AcDbLine
 10
-39.88662826253895
 20
13.9920559774585
 30
0.0
 11
-40.11345731253896
 21
14.2188850274585
 31
0.0
  0
LINE
  5
7E
330
2
100
AcDbEntity
  8
GAIKEI
  6
Continuous
 62
     1
100
AcDbLine
 10
-40.11345731253896
 20
-16.01031467254154
 30
0.0
 11
10.22026418746108
 21
-16.01031467254154
 31
0.0
  0
LINE
  5
7F
330
2
100
AcDbEntity
  8
GAIKEI
  6
Continuous
 62
     1
100
AcDbLine
 10
-40.31119641253894
 20
-15.8125755725415
 30
0.0
 11
-40.31119641253894
 21
14.02114592745852
 31
0.0
  0
LINE
  5
80
330
2
100
AcDbEntity
  8
GAIKEI
  6
Continuous
 62
     1
100
AcDbLine
 10
10.41800328746107
 20
-15.8125755725415
 30
0.0
 11
10.41800328746107
 21
14.02114592745852
 31
0.0
  0
LINE
  5
81
330
2
100
AcDbEntity
  8
GAIKEI
  6
Continuous
 62
     1
100
AcDbLine
 10
10.22026418746108
 20
14.2188850274585
 30
0.0
 11
-40.11345731253896
 21
14.2188850274585
 31
0.0
  0
LINE
  5
82
330
2
100
AcDbEntity
  8
GAIKEI
  6
Continuous
 62
     1
100
AcDbLine
 10
8.568004187461056
 20
12.61448077745854
 30
0.0
 11
8.080005387461042
 21
12.12424927745849
 31
0.0
  0
LINE
  5
83
330
2
100
AcDbEntity
  8
GAIKEI
  6
Continuous
 62
     1
100
AcDbLine
 10
8.568004187461056
 20
12.61448077745854
 30
0.0
 11
8.585744587461064
 21
12.61469492745851
 31
0.0
  0
LINE
  5
84
330
2
100
AcDbEntity
  8
GAIKEI
  6
Continuous
 62
     1
100
AcDbLine
 10
8.658811187461054
 20
12.5416205774585
 30
0.0
 11
8.65858933746108
 21
12.52322832745847
 31
0.0
  0
LINE
  5
85
330
2
100
AcDbEntity
  8
GAIKEI
  6
Continuous
 62
     1
100
AcDbLine
 10
8.170881387461079
 20
12.03328902745852
 30
0.0
 11
8.65858933746108
 21
12.52322832745847
 31
0.0
  0
LINE
  5
86
330
2
100
AcDbEntity
  8
GAIKEI
  6
Continuous
 62
     1
100
AcDbLine
 10
-38.55200431253893
 20
12.5416205774585
 30
0.0
 11
-38.55178246253895
 21
12.52322832745847
 31
0.0
  0
LINE
  5
87
330
2
100
AcDbEntity
  8
GAIKEI
  6
Continuous
 62
     1
100
AcDbLine
 10
-38.46119731253894
 20
12.61448077745854
 30
0.0
 11
-38.47893771253895
 21
12.61469492745851
 31
0.0
  0
LINE
  5
88
330
2
100
AcDbEntity
  8
GAIKEI
  6
Continuous
 62
     1
100
AcDbLine
 10
-38.46119731253894
 20
12.61448077745854
 30
0.0
 11
-37.97319851253893
 21
12.12424927745849
 31
0.0
  0
LINE
  5
89
330
2
100
AcDbEntity
  8
GAIKEI
  6
Continuous
 62
     1
100
AcDbLine
 10
-38.06407451253895
 20
12.03328902745852
 30
0.0
 11
-38.55178246253895
 21
12.52322832745847
 31
0.0
  0
LINE
  5
8A
330
2
100
AcDbEntity
  8
GAIKEI
  6
Continuous
 62
     1
100
AcDbLine
 10
-37.97319851253893
 20
-13.91567892254147
 30
0.0
 11
-38.46119731253894
 21
-14.40591042254152
 31
0.0
  0
LINE
  5
8B
330
2
100
AcDbEntity
  8
GAIKEI
  6
Continuous
 62
     1
100
AcDbLine
 10
-38.47893771253895
 20
-14.4061245725415
 30
0.0
 11
-38.46119731253894
 21
-14.40591042254152
 31
0.0
  0
LINE
  5
8C
330
2
100
AcDbEntity
  8
GAIKEI
  6
Continuous
 62
     1
100
AcDbLine
 10
-38.55178246253895
 20
-14.31465797254145
 30
0.0
 11
-38.55200431253893
 21
-14.33305022254149
 31
0.0
  0
LINE
  5
8D
330
2
100
AcDbEntity
  8
GAIKEI
  6
Continuous
 62
     1
100
AcDbLine
 10
-38.55178246253895
 20
-14.31465797254145
 30
0.0
 11
-38.06407451253895
 21
-13.82471867254151
 31
0.0
  0
LINE
  5
8E
330
2
100
AcDbEntity
  8
GAIKEI
  6
Continuous
 62
     1
100
AcDbLine
 10
8.65858933746108
 20
-14.31465797254145
 30
0.0
 11
8.658811187461054
 21
-14.33305022254149
 31
0.0
  0
LINE
  5
8F
330
2
100
AcDbEntity
  8
GAIKEI
  6
Continuous
 62
     1
100
AcDbLine
 10
8.585744587461064
 20
-14.4061245725415
 30
0.0
 11
8.568004187461056
 21
-14.40591042254152
 31
0.0
  0
LINE
  5
90
330
2
100
AcDbEntity
  8
GAIKEI
  6
Continuous
 62
     1
100
AcDbLine
 10
8.080005387461042
 20
-13.91567892254147
 30
0.0
 11
8.568004187461056
 21
-14.40591042254152
 31
0.0
  0
LINE
  5
91
330
2
100
AcDbEntity
  8
GAIKEI
  6
Continuous
 62
     1
100
AcDbLine
 10
8.65858933746108
 20
-14.31465797254145
 30
0.0
 11
8.170881387461079
 21
-13.82471867254151
 31
0.0
  0
LINE
  5
92
330
2
100
AcDbEntity
  8
GAIKEI
  6
Continuous
 62
     1
100
AcDbLine
 10
-38.46119731253894
 20
12.61448077745854
 30
0.0
 11
8.568004187461056
 21
12.61448077745854
 31
0.0
  0
LINE
  5
93
330
2
100
AcDbEntity
  8
GAIKEI
  6
Continuous
 62
     1
100
AcDbLine
 10
8.568004187461056
 20
-14.40591042254152
 30
0.0
 11
-38.46119731253894
 21
-14.40591042254152
 31
0.0
  0
LINE
  5
94
330
2
100
AcDbEntity
  8
GAIKEI
  6
Continuous
 62
     1
100
AcDbLine
 10
-38.55178246253895
 20
12.52322832745847
 30
0.0
 11
-38.55178246253895
 21
-14.31465797254145
 31
0.0
  0
LINE
  5
95
330
2
100
AcDbEntity
  8
GAIKEI
  6
Continuous
 62
     1
100
AcDbLine
 10
8.65858933746108
 20
12.52322832745847
 30
0.0
 11
8.65858933746108
 21
-14.31465797254145
 31
0.0
  0
LINE
  5
96
330
2
100
AcDbEntity
  8
GAIKEI
  6
Continuous
 62
     1
100
AcDbLine
 10
8.033877937461056
 20
12.13160602745853
 30
0.0
 11
-37.92707106253893
 21
12.13160602745853
 31
0.0
  0
LINE
  5
97
330
2
100
AcDbEntity
  8
GAIKEI
  6
Continuous
 62
     1
100
AcDbLine
 10
-37.92707106253893
 20
-13.92303567254151
 30
0.0
 11
8.033877937461056
 21
-13.92303567254151
 31
0.0
  0
LINE
  5
98
330
2
100
AcDbEntity
  8
GAIKEI
  6
Continuous
 62
     1
100
AcDbLine
 10
8.178205787461038
 20
-13.77869142254144
 30
0.0
 11
8.178205787461038
 21
11.98726177745846
 31
0.0
  0
LINE
  5
99
330
2
100
AcDbEntity
  8
GAIKEI
  6
Continuous
 62
     1
100
AcDbLine
 10
-38.07139891253893
 20
-13.77869142254144
 30
0.0
 11
-38.07139891253893
 21
11.98726177745846
 31
0.0
  0
LINE
  5
9A
330
2
100
AcDbEntity
  8
GAIKEI
  6
Continuous
 62
     1
100
AcDbLine
 10
8.118403437461068
 20
11.97253057745854
 30
0.0
 11
8.118403437461068
 21
-13.76396022254153
 31
0.0
  0
LINE
  5
9B
330
2
100
AcDbEntity
  8
GAIKEI
  6
Continuous
 62
     1
100
AcDbLine
 10
-38.01159656253894
 20
11.97253057745854
 30
0.0
 11
-38.01159656253894
 21
-13.76396022254153
 31
0.0
  0
LINE
  5
9C
330
2
100
AcDbEntity
  8
GAIKEI
  6
Continuous
 62
     1
100
AcDbLine
 10
8.019148837461074
 20
12.07178517745854
 30
0.0
 11
-37.91234196253895
 21
12.07178517745854
 31
0.0
  0
LINE
  5
9D
330
2
100
AcDbEntity
  8
GAIKEI
  6
Continuous
 62
     1
100
AcDbLine
 10
8.019148837461074
 20
-13.86321482254152
 30
0.0
 11
-37.91234196253895
 21
-13.86321482254152
 31
0.0
  0
LINE
  5
9E
330
2
100
AcDbEntity
  8
GAIKEI
  6
Continuous
 62
     1
100
AcDbLine
 10
10.55340343746105
 20
14.15455927745847
 30
0.0
 11
10.41800328746107
 21
14.01915912745852
 31
0.0
  0
LINE
  5
9F
330
2
100
AcDbEntity
  8
GAIKEI
  6
Continuous
 62
     1
100
AcDbLine
 10
10.21827738746111
 20
14.21888502745844
 30
0.0
 11
10.35367753746104
 21
14.35428517745851
 31
0.0
  0
LINE
  5
A0
330
2
100
AcDbEntity
  8
GAIKEI
  6
Continuous
 62
     1
100
AcDbLine
 10
-40.11147051253894
 20
14.21888502745844
 30
0.0
 11
-40.24687066253892
 21
14.35428517745851
 31
0.0
  0
LINE
  5
A1
330
2
100
AcDbEntity
  8
GAIKEI
  6
Continuous
 62
     1
100
AcDbLine
 10
-40.44659656253895
 20
14.15455927745847
 30
0.0
 11
-40.31119641253894
 21
14.01915912745852
 31
0.0
  0
LINE
  5
A2
330
2
100
AcDbEntity
  8
GAIKEI
  6
Continuous
 62
     1
100
AcDbLine
 10
10.35367753746104
 20
-16.14571482254149
 30
0.0
 11
10.21827738746115
 21
-16.01031467254154
 31
0.0
  0
LINE
  5
A3
330
2
100
AcDbEntity
  8
GAIKEI
  6
Continuous
 62
     1
100
AcDbLine
 10
10.41800328746107
 20
-15.8105887725415
 30
0.0
 11
10.55340343746105
 21
-15.94598892254146
 31
0.0
  0
LINE
  5
A4
330
2
100
AcDbEntity
  8
GAIKEI
  6
Continuous
 62
     1
100
AcDbLine
 10
-40.31119641253894
 20
-15.8105887725415
 30
0.0
 11
-40.44659656253895
 21
-15.94598892254146
 31
0.0
  0
LINE
  5
A5
330
2
100
AcDbEntity
  8
GAIKEI
  6
Continuous
 62
     1
100
AcDbLine
 10
-40.24687066253892
 20
-16.14571482254149
 30
0.0
 11
-40.11147051253894
 21
-16.01031467254154
 31
0.0
  0
LINE
  5
A6
330
2
100
AcDbEntity
  8
GAIKEI
  6
Continuous
100
AcDbLine
 10
10.35367753746104
 20
14.35428517745851
 30
0.0
 11
-40.24687066253892
 21
14.35428517745851
 31
0.0
  0
LINE
  5
A7
330
2
100
AcDbEntity
  8
GAIKEI
  6
Continuous
100
AcDbLine
 10
10.35367753746104
 20
-16.14571482254149
 30
0.0
 11
-40.24687066253892
 21
-16.14571482254149
 31
0.0
  0
LINE
  5
A8
330
2
100
AcDbEntity
  8
GAIKEI
  6
Continuous
100
AcDbLine
 10
-40.44659656253895
 20
14.15455927745847
 30
0.0
 11
-40.44659656253895
 21
-15.94598892254146
 31
0.0
  0
LINE
  5
A9
330
2
100
AcDbEntity
  8
GAIKEI
  6
Continuous
100
AcDbLine
 10
10.55340343746105
 20
14.15455927745847
 30
0.0
 11
10.55340343746105
 21
-15.94598892254146
 31
0.0
  0
ELLIPSE
  5
AA
330
2
100
AcDbEntity
  8
GAIKEI
  6
Continuous
 62
     1
100
AcDbEllipse
 10
9.631922987461067
 20
-15.2242343725415
 30
0.0
 11
-0.5021965243696157
 21
0.5021965243696128
 31
0.0
210
0.0
220
0.0
230
1.0
 40
0.4928100000000001
 41
2.730628648546607
 42
3.552556658632978
  0
ELLIPSE
  5
AB
330
2
100
AcDbEntity
  8
GAIKEI
  6
Continuous
 62
     1
100
AcDbEllipse
 10
-39.52511611253895
 20
-15.2242343725415
 30
0.0
 11
-0.5021965243696153
 21
-0.5021965243696134
 31
0.0
210
0.0
220
0.0
230
1.0
 40
0.4928100000000001
 41
5.87222130213642
 42
6.694149312222752
  0
ELLIPSE
  5
AC
330
2
100
AcDbEntity
  8
GAIKEI
  6
Continuous
 62
     1
100
AcDbEllipse
 10
-37.53169206253894
 20
-15.32081032254149
 30
0.0
 11
-0.0178124651972479
 21
-0.017812465197265
 31
0.0
210
0.0
220
0.0
230
1.0
 40
0.9924329999999999
 41
2.359992588466298
 42
3.92319271871233
  0
ELLIPSE
  5
AD
330
2
100
AcDbEntity
  8
GAIKEI
  6
Continuous
 62
     1
100
AcDbEllipse
 10
-38.48525266253893
 20
-14.33937092254149
 30
0.0
 11
-0.1595354047728906
 21
-0.1595354047728889
 31
0.0
210
0.0
220
0.0
230
1.0
 40
0.9972650000000001
 41
5.499156671652367
 42
7.067213942706732
  0
ELLIPSE
  5
AE
330
2
100
AcDbEntity
  8
GAIKEI
  6
Continuous
 62
     1
100
AcDbEllipse
 10
8.59205953746104
 20
-14.33937092254149
 30
0.0
 11
-0.1595354047728908
 21
0.1595354047728888
 31
0.0
210
0.0
220
0.0
230
1.0
 40
0.9972650000000001
 41
2.357564018062646
 42
3.925621289117011
  0
ELLIPSE
  5
AF
330
2
100
AcDbEntity
  8
GAIKEI
  6
Continuous
 62
     1
100
AcDbEllipse
 10
8.59205953746104
 20
12.5479412774585
 30
0.0
 11
-0.1595354047729553
 21
-0.1595354047728233
 31
0.0
210
0.0
220
0.0
230
1.0
 40
0.9972650000000001
 41
2.357564018063184
 42
3.925621289117327
  0
ELLIPSE
  5
B0
330
2
100
AcDbEntity
  8
GAIKEI
  6
Continuous
 62
     1
100
AcDbEllipse
 10
-38.48525266253893
 20
12.5479412774585
 30
0.0
 11
-0.1595354047729555
 21
0.1595354047728232
 31
0.0
210
0.0
220
0.0
230
1.0
 40
0.9972650000000001
 41
5.499156671652052
 42
7.067213942706194
  0
ELLIPSE
  5
B1
330
2
100
AcDbEntity
  8
GAIKEI
  6
Continuous
 62
     1
100
AcDbEllipse
 10
-37.53169206253894
 20
-15.62061932254153
 30
0.0
 11
-0.0178124651972535
 21
0.0178124651972591
 31
0.0
210
0.0
220
0.0
230
1.0
 40
0.9924329999999999
 41
2.359992588465879
 42
3.923192718713985
  0
ELLIPSE
  5
B2
330
2
100
AcDbEntity
  8
GAIKEI
  6
Continuous
 62
     1
100
AcDbEllipse
 10
-37.83150106253894
 20
-15.32081032254149
 30
0.0
 11
-0.0178124651972548
 21
0.0178124651972583
 31
0.0
210
0.0
220
0.0
230
1.0
 40
0.9924329999999999
 41
5.501585242056628
 42
7.064785372302901
  0
ELLIPSE
  5
B3
330
2
100
AcDbEntity
  8
GAIKEI
  6
Continuous
 62
     1
100
AcDbEllipse
 10
-37.83150106253894
 20
-15.62061932254153
 30
0.0
 11
-0.0178124651972604
 21
-0.0178124651972525
 31
0.0
210
0.0
220
0.0
230
1.0
 40
0.9924329999999999
 41
5.501585242055452
 42
7.064785372304038
  0
ELLIPSE
  5
B4
330
2
100
AcDbEntity
  8
GAIKEI
  6
Continuous
 62
     1
100
AcDbEllipse
 10
-39.52511611253895
 20
13.43280472745852
 30
0.0
 11
-0.502196524369635
 21
0.502196524369629
 31
0.0
210
0.0
220
0.0
230
1.0
 40
0.4928100000000001
 41
5.8722213021364
 42
6.694149312222771
  0
ELLIPSE
  5
B5
330
2
100
AcDbEntity
  8
GAIKEI
  6
Continuous
 62
     1
100
AcDbEllipse
 10
9.631922987461067
 20
13.43280472745852
 30
0.0
 11
-0.502196524369635
 21
-0.5021965243696292
 31
0.0
210
0.0
220
0.0
230
1.0
 40
0.4928100000000001
 41
2.730628648546607
 42
3.552556658632978
  0
ELLIPSE
  5
B6
330
2
100
AcDbEntity
  8
GAIKEI
  6
Continuous
 62
     1
100
AcDbEllipse
 10
8.029924037461071
 20
11.97877022745848
 30
0.0
 11
-0.0852591893587102
 21
-0.1284167499128905
 31
0.0
210
0.0
220
0.0
230
1.0
 40
0.9720119999999997
 41
3.403155640402645
 42
3.714687518768249
  0
ELLIPSE
  5
B7
330
2
100
AcDbEntity
  8
GAIKEI
  6
Continuous
 62
     1
100
AcDbEllipse
 10
-37.92311716253895
 20
11.97877022745848
 30
0.0
 11
-0.0852591893587101
 21
0.1284167499128906
 31
0.0
210
0.0
220
0.0
230
1.0
 40
0.9720119999999999
 41
5.710090442001129
 42
6.021622320366733
  0
ELLIPSE
  5
B8
330
2
100
AcDbEntity
  8
GAIKEI
  6
Continuous
 62
     1
100
AcDbEllipse
 10
-37.92311716253895
 20
-13.77019987254147
 30
0.0
 11
-0.0852591893587031
 21
-0.1284167499128963
 31
0.0
210
0.0
220
0.0
230
1.0
 40
0.9720119999999999
 41
0.2615629868133669
 42
0.5730948651780916
  0
ELLIPSE
  5
B9
330
2
100
AcDbEntity
  8
GAIKEI
  6
Continuous
 62
     1
100
AcDbEllipse
 10
8.029924037461071
 20
-13.77019987254147
 30
0.0
 11
-0.0852591893587031
 21
0.1284167499128964
 31
0.0
210
0.0
220
0.0
230
1.0
 40
0.9720120000000001
 41
2.568497788411701
 42
2.880029666776426
  0
ELLIPSE
  5
BA
330
2
100
AcDbEntity
  8
GAIKEI
  6
Continuous
 62
     1
100
AcDbEllipse
 10
8.025362037461079
 20
-13.77472962254148
 30
0.0
 11
-0.1284635822396583
 21
0.085205278687155
 31
0.0
210
0.0
220
0.0
230
1.0
 40
0.9719459999999997
 41
3.40336993521502
 42
3.714202442900464
  0
ELLIPSE
  5
BB
330
2
100
AcDbEntity
  8
GAIKEI
  6
Continuous
 62
     1
100
AcDbEllipse
 10
8.025362037461079
 20
11.9832999774585
 30
0.0
 11
-0.1284635822396632
 21
-0.0852052786871471
 31
0.0
210
0.0
220
0.0
230
0.9999999999999996
 40
0.9719459999999997
 41
2.568982864279124
 42
2.879815371962863
  0
ELLIPSE
  5
BC
330
2
100
AcDbEntity
  8
GAIKEI
  6
Continuous
 62
     1
100
AcDbEllipse
 10
-37.91855516253895
 20
11.9832999774585
 30
0.0
 11
-0.1284635822396632
 21
0.085205278687147
 31
0.0
210
0.0
220
0.0
230
1.0
 40
0.9719459999999997
 41
0.261777281627073
 42
0.5726097893106687
  0
ELLIPSE
  5
BD
330
2
100
AcDbEntity
  8
GAIKEI
  6
Continuous
 62
     1
100
AcDbEllipse
 10
-37.91855516253895
 20
-13.77472962254148
 30
0.0
 11
-0.1284635822396583
 21
-0.0852052786871549
 31
0.0
210
0.0
220
0.0
230
1.0
 40
0.9719459999999997
 41
5.710575517868846
 42
6.021408025554217
  0
ELLIPSE
  5
BE
330
2
100
AcDbEntity
  8
GAIKEI
  6
Continuous
 62
     1
100
AcDbEllipse
 10
8.01765243746108
 20
-13.76246382254146
 30
0.0
 11
-0.0717687988192684
 21
0.0717687988192765
 31
0.0
210
0.0
220
0.0
230
1.0
 40
0.9852569999999998
 41
2.36362083166532
 42
3.91956447551467
  0
ELLIPSE
  5
BF
330
2
100
AcDbEntity
  8
GAIKEI
  6
Continuous
 62
     1
100
AcDbEllipse
 10
-37.91084556253895
 20
-13.76246382254146
 30
0.0
 11
-0.0717687988192685
 21
-0.0717687988192765
 31
0.0
210
0.0
220
0.0
230
1.0
 40
0.9852569999999998
 41
5.505213485254747
 42
7.061157129104018
  0
ELLIPSE
  5
C0
330
2
100
AcDbEntity
  8
GAIKEI
  6
Continuous
 62
     1
100
AcDbEllipse
 10
-37.91084556253895
 20
11.97103417745847
 30
0.0
 11
-0.0717687988192732
 21
0.0717687988192714
 31
0.0
210
0.0
220
0.0
230
1.0
 40
0.9852569999999998
 41
5.505213485254509
 42
7.061157129104899
  0
ELLIPSE
  5
C1
330
2
100
AcDbEntity
  8
GAIKEI
  6
Continuous
 62
     1
100
AcDbEllipse
 10
8.01765243746108
 20
11.97103417745847
 30
0.0
 11
-0.0717687988192732
 21
-0.0717687988192713
 31
0.0
210
0.0
220
0.0
230
1.0
 40
0.9852569999999998
 41
2.36362083166448
 42
3.919564475514829
  0
ELLIPSE
  5
C2
330
2
100
AcDbEntity
  8
GAIKEI
  6
Continuous
100
AcDbEllipse
 10
10.35312898746106
 20
14.15401072745851
 30
0.0
 11
-0.1418092486870018
 21
-0.1418092486870248
 31
0.0
210
0.0
220
0.0
230
1.0
 40
0.9972649999999999
 41
2.35756401806276
 42
3.925621289116665
  0
ELLIPSE
  5
C3
330
2
100
AcDbEntity
  8
GAIKEI
  6
Continuous
100
AcDbEllipse
 10
-40.24632211253893
 20
14.15401072745851
 30
0.0
 11
-0.1418092486870015
 21
0.141809248687025
 31
0.0
210
0.0
220
0.0
230
1.0
 40
0.9972650000000001
 41
5.499156671652713
 42
7.067213942706619
  0
ELLIPSE
  5
C4
330
2
100
AcDbEntity
  8
GAIKEI
  6
Continuous
100
AcDbEllipse
 10
10.35312898746106
 20
-15.9454403725415
 30
0.0
 11
-0.1418092486870132
 21
0.1418092486870135
 31
0.0
210
0.0
220
0.0
230
1.0
 40
0.9972649999999999
 41
2.35756401806288
 42
3.925621289116705
  0
ELLIPSE
  5
C5
330
2
100
AcDbEntity
  8
GAIKEI
  6
Continuous
100
AcDbEllipse
 10
-40.24632211253893
 20
-15.9454403725415
 30
0.0
 11
-0.1418092486870132
 21
-0.1418092486870135
 31
0.0
210
0.0
220
0.0
230
1.0
 40
0.9972649999999999
 41
5.499156671652633
 42
7.067213942706539
  0
LINE
  5
C6
330
2
100
AcDbEntity
  8
GAIKEI
  6
Continuous
 62
     1
100
AcDbLine
 10
31.95015279718197
 20
-14.84571482254148
 30
0.0
 11
32.08113579718193
 21
-14.84571482254148
 31
0.0
  0
LINE
  5
C7
330
2
100
AcDbEntity
  8
GAIKEI
  6
Continuous
 62
     1
100
AcDbLine
 10
34.08877399718196
 20
-13.34571482254148
 30
0.0
 11
34.05265279718197
 21
-13.34571482254148
 31
0.0
  0
LINE
  5
C8
330
2
100
AcDbEntity
  8
GAIKEI
  6
Continuous
 62
     1
100
AcDbLine
 10
34.09008419718194
 20
-13.34571482254148
 30
0.0
 11
34.08877399718196
 21
-13.34571482254148
 31
0.0
  0
LINE
  5
C9
330
2
100
AcDbEntity
  8
GAIKEI
  6
Continuous
 62
     1
100
AcDbLine
 10
32.19293919718194
 20
-14.81932162254151
 30
0.0
 11
34.00195619718193
 21
-13.91481312254149
 31
0.0
  0
LINE
  5
CA
330
2
100
AcDbEntity
  8
GAIKEI
  6
Continuous
 62
     1
100
AcDbLine
 10
34.14015279718197
 20
-13.69120632254146
 30
0.0
 11
34.14015279718197
 21
-13.39571482254149
 31
0.0
  0
ARC
  5
CB
330
2
100
AcDbEntity
  8
GAIKEI
  6
Continuous
 62
     1
100
AcDbCircle
 10
33.89015279718197
 20
-13.69120632254146
 30
0.0
 40
0.25
100
AcDbArc
 50
296.5650509999879
 51
0.0
  0
ARC
  5
CC
330
2
100
AcDbEntity
  8
GAIKEI
  6
Continuous
 62
     1
100
AcDbCircle
 10
32.08113579718193
 20
-14.59571482254148
 30
0.0
 40
0.25
100
AcDbArc
 50
270.0
 51
296.5650509999879
  0
ELLIPSE
  5
CD
330
2
100
AcDbEntity
  8
GAIKEI
  6
Continuous
 62
     1
100
AcDbEllipse
 10
34.09008419718194
 20
-13.39571482254149
 30
0.0
 11
0.0500686172998961
 21
0.0000000000027717
 31
0.0
210
0.0
220
0.0
230
1.0
 40
0.9986299999998678
 41
-0.0000000000554334
 42
1.570796326739615
  0
LINE
  5
CE
330
2
100
AcDbEntity
  8
GAIKEI
  6
Continuous
 62
     1
100
AcDbLine
 10
34.12877399718195
 20
-11.24571482254146
 30
0.0
 11
34.05265279718197
 21
-11.24571482254146
 31
0.0
  0
LINE
  5
CF
330
2
100
AcDbEntity
  8
GAIKEI
  6
Continuous
 62
     1
100
AcDbLine
 10
34.13008419718196
 20
-11.24571482254146
 30
0.0
 11
34.12877399718195
 21
-11.24571482254146
 31
0.0
  0
LINE
  5
D0
330
2
100
AcDbEntity
  8
GAIKEI
  6
Continuous
 62
     1
100
AcDbLine
 10
34.18015279718193
 20
-11.59120632254144
 30
0.0
 11
34.18015279718193
 21
-11.29571482254152
 31
0.0
  0
ARC
  5
D1
330
2
100
AcDbEntity
  8
GAIKEI
  6
Continuous
 62
     1
100
AcDbCircle
 10
33.93015279718194
 20
-11.59120632254144
 30
0.0
 40
0.25
100
AcDbArc
 50
299.3405819999887
 51
0.0
  0
ELLIPSE
  5
D2
330
2
100
AcDbEntity
  8
GAIKEI
  6
Continuous
 62
     1
100
AcDbEllipse
 10
34.13008419718196
 20
-11.29571482254152
 30
0.0
 11
0.0500686172998961
 21
0.0000000000027717
 31
0.0
210
0.0
220
0.0
230
1.0
 40
0.9986299999998678
 41
-0.0000000000554334
 42
1.570796326739615
  0
LINE
  5
D3
330
2
100
AcDbEntity
  8
GAIKEI
  6
Continuous
 62
     1
100
AcDbLine
 10
32.12046209718197
 20
-15.08336437254149
 30
0.0
 11
32.99786949718197
 21
-15.03738137254152
 31
0.0
  0
LINE
  5
D4
330
2
100
AcDbEntity
  8
GAIKEI
  6
Continuous
 62
     1
100
AcDbLine
 10
33.63540489718194
 20
-14.95739357254149
 30
0.0
 11
33.63749809718193
 21
-14.83747457254151
 31
0.0
  0
LINE
  5
D5
330
2
100
AcDbEntity
  8
GAIKEI
  6
Continuous
 62
     1
100
AcDbLine
 10
32.99786949718197
 20
-15.03738137254152
 30
0.0
 11
33.58802929718195
 21
-15.00645242254148
 31
0.0
  0
LINE
  5
D6
330
2
100
AcDbEntity
  8
GAIKEI
  6
Continuous
 62
     1
100
AcDbLine
 10
32.12046209718197
 20
-15.08336437254149
 30
0.0
 11
33.12453859718195
 21
-15.03074292254149
 31
0.0
  0
ARC
  5
D7
330
2
100
AcDbEntity
  8
GAIKEI
  6
Continuous
 62
     1
100
AcDbCircle
 10
32.13354604718194
 20
-15.3330217225415
 30
0.0
 40
0.25
100
AcDbArc
 50
93.00000000000558
 51
137.1867789999962
  0
ARC
  5
D8
330
2
100
AcDbEntity
  8
GAIKEI
  6
Continuous
 62
     1
100
AcDbCircle
 10
33.58541249718198
 20
-14.95652092254147
 30
0.0
 40
0.05
100
AcDbArc
 50
273.0000000000056
 51
359.0000000000243
  0
LINE
  5
D9
330
2
100
AcDbEntity
  8
GAIKEI
  6
Continuous
 62
     1
100
AcDbLine
 10
33.15913704718196
 20
12.45300657745849
 30
0.0
 11
32.17190174718195
 21
12.48748157745854
 31
0.0
  0
LINE
  5
DA
330
2
100
AcDbEntity
  8
GAIKEI
  6
Continuous
 62
     1
100
AcDbLine
 10
32.01351029718194
 20
12.39300372745856
 30
0.0
 11
32.01351029718194
 21
7.405706977458521
 31
0.0
  0
LINE
  5
DB
330
2
100
AcDbEntity
  8
GAIKEI
  6
Continuous
 62
     1
100
AcDbLine
 10
33.46074579718194
 20
12.77538352745853
 30
0.0
 11
31.95716759718195
 21
13.0975788274585
 31
0.0
  0
LINE
  5
DC
330
2
100
AcDbEntity
  8
GAIKEI
  6
Continuous
 62
     1
100
AcDbLine
 10
33.99736409718194
 20
10.32406482745853
 30
0.0
 11
33.69494694718196
 21
12.52306927745849
 31
0.0
  0
LINE
  5
DD
330
2
100
AcDbEntity
  8
GAIKEI
  6
Continuous
 62
     1
100
AcDbLine
 10
34.01087629718197
 20
9.672076777458528
 30
0.0
 11
34.01087629718197
 21
10.1266339274585
 31
0.0
  0
LINE
  5
DE
330
2
100
AcDbEntity
  8
GAIKEI
  6
Continuous
 62
     1
100
AcDbLine
 10
33.69494694718196
 20
7.27564147745852
 30
0.0
 11
33.99736409718194
 21
9.474645927458482
 31
0.0
  0
LINE
  5
DF
330
2
100
AcDbEntity
  8
GAIKEI
  6
Continuous
 62
     1
100
AcDbLine
 10
31.95716759718195
 20
6.701131877458522
 30
0.0
 11
33.46074579718194
 21
7.02332722745848
 31
0.0
  0
LINE
  5
E0
330
2
100
AcDbEntity
  8
GAIKEI
  6
Continuous
 62
     1
100
AcDbLine
 10
32.17190174718195
 20
7.311229127458545
 30
0.0
 11
33.15913704718196
 21
7.345704177458515
 31
0.0
  0
LINE
  5
E1
330
2
100
AcDbEntity
  8
GAIKEI
  6
Continuous
 62
     1
100
AcDbLine
 10
33.30230699718196
 20
7.474999027458466
 30
0.0
 11
33.30768354718194
 21
7.51409412745852
 31
0.0
  0
LINE
  5
E2
330
2
100
AcDbEntity
  8
GAIKEI
  6
Continuous
 62
     1
100
AcDbLine
 10
33.32427184718196
 20
7.613497327458503
 30
0.0
 11
33.48975989718198
 21
8.816831877458525
 31
0.0
  0
LINE
  5
E3
330
2
100
AcDbEntity
  8
GAIKEI
  6
Continuous
 62
     1
100
AcDbLine
 10
33.50065734718197
 20
8.91728937745853
 30
0.0
 11
33.58549474718194
 21
9.534178377458488
 31
0.0
  0
LINE
  5
E4
330
2
100
AcDbEntity
  8
GAIKEI
  6
Continuous
 62
     1
100
AcDbLine
 10
33.59473654718196
 20
9.669213427458544
 30
0.0
 11
33.59473654718196
 21
10.12949727745854
 31
0.0
  0
LINE
  5
E5
330
2
100
AcDbEntity
  8
GAIKEI
  6
Continuous
 62
     1
100
AcDbLine
 10
33.43309979718197
 20
11.39387887745852
 30
0.0
 11
33.32427184718196
 21
12.18521337745852
 31
0.0
  0
LINE
  5
E6
330
2
100
AcDbEntity
  8
GAIKEI
  6
Continuous
 62
     1
100
AcDbLine
 10
33.30768354718194
 20
12.28461657745856
 30
0.0
 11
33.30230699718196
 21
12.32371172745849
 31
0.0
  0
LINE
  5
E7
330
2
100
AcDbEntity
  8
GAIKEI
  6
Continuous
 62
     1
100
AcDbLine
 10
33.58549474718194
 20
10.26453237745852
 30
0.0
 11
33.43309979718197
 21
11.39387887745852
 31
0.0
  0
LINE
  5
E8
330
2
100
AcDbEntity
  8
GAIKEI
  6
Continuous
 62
     1
100
AcDbLine
 10
32.02741754718195
 20
7.484870627458462
 30
0.0
 11
32.02741754718195
 21
7.49428517745855
 31
0.0
  0
LINE
  5
E9
330
2
100
AcDbEntity
  8
GAIKEI
  6
Continuous
 62
     1
100
AcDbLine
 10
33.15913704718196
 20
7.345704177458515
 30
0.0
 11
33.15783319718195
 21
7.347147927458536
 31
0.0
  0
LINE
  5
EA
330
2
100
AcDbEntity
  8
GAIKEI
  6
Continuous
 62
     1
100
AcDbLine
 10
32.07740994718193
 20
7.484870627458462
 30
0.0
 11
32.02741754718195
 21
7.484870627458462
 31
0.0
  0
LINE
  5
EB
330
2
100
AcDbEntity
  8
GAIKEI
  6
Continuous
 62
     1
100
AcDbLine
 10
32.07740994718193
 20
7.615477027458496
 30
0.0
 11
32.07740994718193
 21
7.484870627458462
 31
0.0
  0
ARC
  5
EC
330
2
100
AcDbEntity
  8
GAIKEI
  6
Continuous
 62
     1
100
AcDbCircle
 10
33.39795694718197
 20
7.316459927458481
 30
0.0
 40
0.34978195
100
AcDbArc
 50
317.3057001384137
 51
349.609110091751
  0
ELLIPSE
  5
ED
330
2
100
AcDbEntity
  8
GAIKEI
  6
Continuous
 62
     1
100
AcDbEllipse
 10
33.39759804718197
 20
12.48191772745849
 30
0.0
 11
0.2200773139238433
 21
0.204278454697023
 31
0.0
210
0.0
220
0.0
230
1.0
 40
0.9990920000000295
 41
-0.6110907881377886
 42
0.6110907880802437
  0
ELLIPSE
  5
EE
330
2
100
AcDbEntity
  8
GAIKEI
  6
Continuous
 62
     1
100
AcDbEllipse
 10
32.55999244718197
 20
10.1265129774585
 30
0.0
 11
1.447501845803997
 21
0.0990673047661277
 31
0.0
210
0.0
220
0.0
230
1.0
 40
0.9993880000001503
 41
-0.0682919405012414
 42
0.0682919404700984
  0
ELLIPSE
  5
EF
330
2
100
AcDbEntity
  8
GAIKEI
  6
Continuous
 62
     1
100
AcDbEllipse
 10
32.55999244718197
 20
9.672197727458467
 30
0.0
 11
-1.447501845804628
 21
0.0990673047569007
 31
0.0
210
0.0
220
0.0
230
1.0
 40
0.9993880000003459
 41
3.073300713113309
 42
3.209884594084662
  0
ELLIPSE
  5
F0
330
2
100
AcDbEntity
  8
GAIKEI
  6
Continuous
 62
     1
100
AcDbEllipse
 10
33.39759804718197
 20
7.316793027458516
 30
0.0
 11
-0.2200773139307833
 21
0.2042784546895481
 31
0.0
210
0.0
220
0.0
230
1.0
 40
0.9990919999999141
 41
2.530501865475673
 42
3.75268344169356
  0
ELLIPSE
  5
F1
330
2
100
AcDbEntity
  8
GAIKEI
  6
Continuous
 62
     1
100
AcDbEllipse
 10
33.15390929718197
 20
12.30330337745852
 30
0.0
 11
-0.1113231012704047
 21
0.1005344076599612
 31
0.0
210
0.0
220
0.0
230
1.0
 40
0.9976620000000188
 41
4.013930599297418
 42
5.410847361477967
  0
ELLIPSE
  5
F2
330
2
100
AcDbEntity
  8
GAIKEI
  6
Continuous
 62
     1
100
AcDbEllipse
 10
32.60359674718194
 20
9.669213427458487
 30
0.0
 11
0.0677683607875804
 21
0.9901836694660344
 31
0.0
210
0.0
220
0.0
230
1.0
 40
0.998622999999463
 41
4.644149142641135
 42
4.780628818117281
  0
ELLIPSE
  5
F3
330
2
100
AcDbEntity
  8
GAIKEI
  6
Continuous
 62
     1
100
AcDbEllipse
 10
33.15390929718197
 20
7.495407327458508
 30
0.0
 11
0.1113231012697903
 21
0.1005344076606298
 31
0.0
210
0.0
220
0.0
230
1.0
 40
0.9976620000000872
 41
4.013930599285374
 42
5.410847361466131
  0
ELLIPSE
  5
F4
330
2
100
AcDbEntity
  8
GAIKEI
  6
Continuous
 62
     1
100
AcDbEllipse
 10
32.60359674718194
 20
10.12949727745848
 30
0.0
 11
-0.0677683607886161
 21
0.9901836694651574
 31
0.0
210
0.0
220
0.0
230
1.0
 40
0.9986230000002741
 41
4.644149142650942
 42
4.780628818127169
  0
ELLIPSE
  5
F5
330
2
100
AcDbEntity
  8
GAIKEI
  6
Continuous
 62
     1
100
AcDbEllipse
 10
32.16667399718196
 20
7.460932327458465
 30
0.0
 11
-0.1424851626757441
 21
0.0468826025010389
 31
0.0
210
0.0
220
0.0
230
1.0
 40
0.9984440000000159
 41
0.3183396182249396
 42
1.923075432094771
  0
ELLIPSE
  5
F6
330
2
100
AcDbEntity
  8
GAIKEI
  6
Continuous
 62
     1
100
AcDbEllipse
 10
32.16667399718196
 20
12.33777842745849
 30
0.0
 11
0.142485162672844
 21
0.0468826025098882
 31
0.0
210
0.0
220
0.0
230
1.0
 40
0.9984439999998613
 41
1.218517221433086
 42
2.823253035302647
  0
LINE
  5
F7
330
2
100
AcDbEntity
  8
GAIKEI
  6
Continuous
 62
     1
100
AcDbLine
 10
32.02160399718195
 20
-15.49571482254146
 30
0.0
 11
31.98987489718194
 21
-15.49571482254146
 31
0.0
  0
ARC
  5
F8
330
2
100
AcDbEntity
  8
GAIKEI
  6
Continuous
 62
     1
100
AcDbCircle
 10
32.02160399718195
 20
-15.56071482254151
 30
0.0
 40
0.065
100
AcDbArc
 50
16.60155000001845
 51
90.0
  0
ARC
  5
F9
330
2
100
AcDbEntity
  8
GAIKEI
  6
Continuous
 62
     1
100
AcDbCircle
 10
32.02160399718195
 20
-15.78071482254148
 30
0.0
 40
0.065
100
AcDbArc
 50
299.0713460000133
 51
343.3984499999815
  0
ARC
  5
FA
330
2
100
AcDbEntity
  8
GAIKEI
  6
Continuous
 62
     1
100
AcDbCircle
 10
31.65265279718197
 20
-15.67071482254152
 30
0.0
 40
0.45
100
AcDbArc
 50
343.3984499999815
 51
0.0
  0
ARC
  5
FB
330
2
100
AcDbEntity
  8
GAIKEI
  6
Continuous
 62
     1
100
AcDbCircle
 10
31.65265279718197
 20
-15.67071482254152
 30
0.0
 40
0.45
100
AcDbArc
 50
0.0
 51
16.60155000001845
  0
LINE
  5
FC
330
2
100
AcDbEntity
  8
GAIKEI
  6
Continuous
 62
     1
100
AcDbLine
 10
31.98160399718196
 20
-15.49571482254146
 30
0.0
 11
31.95015279718197
 21
-15.49571482254146
 31
0.0
  0
LINE
  5
FD
330
2
100
AcDbEntity
  8
GAIKEI
  6
Continuous
 62
     1
100
AcDbLine
 10
31.98160399718196
 20
-0.7207148225414813
 30
0.0
 11
31.95015279718197
 21
-0.7207148225414813
 31
0.0
  0
LINE
  5
FE
330
2
100
AcDbEntity
  8
GAIKEI
  6
Continuous
 62
     1
100
AcDbLine
 10
31.95015279718197
 20
-1.070714822541503
 30
0.0
 11
31.98160399718196
 21
-1.070714822541503
 31
0.0
  0
ARC
  5
FF
330
2
100
AcDbEntity
  8
GAIKEI
  6
Continuous
 62
     1
100
AcDbCircle
 10
31.98160399718196
 20
-0.7857148225415358
 30
0.0
 40
0.065
100
AcDbArc
 50
16.60155000001845
 51
90.0
  0
ARC
  5
100
330
2
100
AcDbEntity
  8
GAIKEI
  6
Continuous
 62
     1
100
AcDbCircle
 10
31.98160399718196
 20
-1.005714822541449
 30
0.0
 40
0.065
100
AcDbArc
 50
270.0
 51
343.3984499999815
  0
ARC
  5
101
330
2
100
AcDbEntity
  8
GAIKEI
  6
Continuous
 62
     1
100
AcDbCircle
 10
31.61265279718197
 20
-0.8957148225414925
 30
0.0
 40
0.45
100
AcDbArc
 50
343.3984499999815
 51
0.0
  0
ARC
  5
102
330
2
100
AcDbEntity
  8
GAIKEI
  6
Continuous
 62
     1
100
AcDbCircle
 10
31.61265279718197
 20
-0.8957148225414925
 30
0.0
 40
0.45
100
AcDbArc
 50
0.0
 51
16.60155000001845
  0
LINE
  5
103
330
2
100
AcDbEntity
  8
GAIKEI
  6
Continuous
 62
     1
100
AcDbLine
 10
31.98160399718196
 20
14.09178517745852
 30
0.0
 11
31.95015279718197
 21
14.09178517745852
 31
0.0
  0
LINE
  5
104
330
2
100
AcDbEntity
  8
GAIKEI
  6
Continuous
 62
     1
100
AcDbLine
 10
31.95015279718197
 20
13.74178517745849
 30
0.0
 11
31.98160399718196
 21
13.74178517745849
 31
0.0
  0
ARC
  5
105
330
2
100
AcDbEntity
  8
GAIKEI
  6
Continuous
 62
     1
100
AcDbCircle
 10
31.98160399718196
 20
14.02678517745852
 30
0.0
 40
0.065
100
AcDbArc
 50
16.60155000001845
 51
90.0
  0
ARC
  5
106
330
2
100
AcDbEntity
  8
GAIKEI
  6
Continuous
 62
     1
100
AcDbCircle
 10
31.98160399718196
 20
13.80678517745849
 30
0.0
 40
0.065
100
AcDbArc
 50
270.0
 51
343.3984499999815
  0
ARC
  5
107
330
2
100
AcDbEntity
  8
GAIKEI
  6
Continuous
 62
     1
100
AcDbCircle
 10
31.61265279718197
 20
13.91678517745851
 30
0.0
 40
0.45
100
AcDbArc
 50
343.3984499999815
 51
0.0
  0
ARC
  5
108
330
2
100
AcDbEntity
  8
GAIKEI
  6
Continuous
 62
     1
100
AcDbCircle
 10
31.61265279718197
 20
13.91678517745851
 30
0.0
 40
0.45
100
AcDbArc
 50
0.0
 51
16.60155000001845
  0
LINE
  5
109
330
2
100
AcDbEntity
  8
GAIKEI
  6
Continuous
 62
     1
100
AcDbLine
 10
31.95015279718197
 20
-15.92071482254153
 30
0.0
 11
31.98160399718196
 21
-15.92071482254153
 31
0.0
  0
ARC
  5
10A
330
2
100
AcDbEntity
  8
GAIKEI
  6
Continuous
 62
     1
100
AcDbCircle
 10
31.98160399718196
 20
-15.85571482254147
 30
0.0
 40
0.065
100
AcDbArc
 50
270.0
 51
343.3984499999815
  0
ARC
  5
10B
330
2
100
AcDbEntity
  8
GAIKEI
  6
Continuous
 62
     1
100
AcDbCircle
 10
31.61265279718197
 20
-15.74571482254146
 30
0.0
 40
0.45
100
AcDbArc
 50
343.3984499999815
 51
348.2276048164417
  0
ARC
  5
10C
330
2
100
AcDbEntity
  8
GAIKEI
  6
Continuous
 62
     1
100
AcDbCircle
 10
31.91065744718195
 20
-15.26173077254151
 30
0.0
 40
0.05
100
AcDbArc
 50
16.25702800000551
 51
37.82319200001274
  0
ARC
  5
10D
330
2
100
AcDbEntity
  8
GAIKEI
  6
Continuous
 62
     1
100
AcDbCircle
 10
31.95065744718196
 20
-15.29673077254154
 30
0.0
 40
0.05
100
AcDbArc
 50
16.25702800000551
 51
80.92142899999226
  0
ARC
  5
10E
330
2
100
AcDbEntity
  8
GAIKEI
  6
Continuous
 62
     1
100
AcDbCircle
 10
31.95065744718196
 20
-15.46469887254147
 30
0.0
 40
0.05
100
AcDbArc
 50
320.9555470000158
 51
343.7429719999945
  0
ARC
  5
10F
330
2
100
AcDbEntity
  8
GAIKEI
  6
Continuous
 62
     1
100
AcDbCircle
 10
31.66265279718196
 20
-15.38071482254145
 30
0.0
 40
0.35
100
AcDbArc
 50
343.7429719999945
 51
0.0
  0
ARC
  5
110
330
2
100
AcDbEntity
  8
GAIKEI
  6
Continuous
 62
     1
100
AcDbCircle
 10
31.66265279718196
 20
-15.38071482254145
 30
0.0
 40
0.35
100
AcDbArc
 50
0.0
 51
16.25702800000551
  0
LINE
  5
111
330
2
100
AcDbEntity
  8
GAIKEI
  6
Continuous
 62
     1
100
AcDbLine
 10
32.09265279718193
 20
7.775107727458475
 30
0.0
 11
32.09265279718193
 21
7.762952377458532
 31
0.0
  0
LINE
  5
112
330
2
100
AcDbEntity
  8
GAIKEI
  6
Continuous
 62
     1
100
AcDbLine
 10
32.10179259718194
 20
7.921786577458533
 30
0.0
 11
32.06179259718198
 21
7.921786577458533
 31
0.0
  0
LINE
  5
113
330
2
100
AcDbEntity
  8
GAIKEI
  6
Continuous
 62
     1
100
AcDbLine
 10
32.12236529718194
 20
7.566785927458454
 30
0.0
 11
32.08236529718192
 21
7.566785927458454
 31
0.0
  0
LINE
  5
114
330
2
100
AcDbEntity
  8
GAIKEI
  6
Continuous
 62
     1
100
AcDbLine
 10
32.09265279718193
 20
7.74428517745855
 30
0.0
 11
32.13265279718195
 21
7.74428517745855
 31
0.0
  0
LINE
  5
115
330
2
100
AcDbEntity
  8
GAIKEI
  6
Continuous
 62
     1
100
AcDbLine
 10
32.05265279718196
 20
7.762952377458532
 30
0.0
 11
32.09265279718193
 21
7.762952377458532
 31
0.0
  0
LINE
  5
116
330
2
100
AcDbEntity
  8
GAIKEI
  6
Continuous
 62
     1
100
AcDbLine
 10
32.13265279718195
 20
7.569285177458482
 30
0.0
 11
32.13265279718195
 21
7.74428517745855
 31
0.0
  0
LINE
  5
117
330
2
100
AcDbEntity
  8
GAIKEI
  6
Continuous
 62
     1
100
AcDbLine
 10
32.13265279718195
 20
7.74428517745855
 30
0.0
 11
32.13265279718195
 21
7.919285177458505
 31
0.0
  0
LINE
  5
118
330
2
100
AcDbEntity
  8
GAIKEI
  6
Continuous
 62
     1
100
AcDbLine
 10
32.18160399718196
 20
7.919285177458505
 30
0.0
 11
32.13265279718195
 21
7.919285177458505
 31
0.0
  0
LINE
  5
119
330
2
100
AcDbEntity
  8
GAIKEI
  6
Continuous
 62
     1
100
AcDbLine
 10
32.13265279718195
 20
7.569285177458482
 30
0.0
 11
32.18160399718196
 21
7.569285177458482
 31
0.0
  0
LINE
  5
11A
330
2
100
AcDbEntity
  8
GAIKEI
  6
Continuous
 62
     1
100
AcDbLine
 10
32.13265279718195
 20
7.839285177458464
 30
0.0
 11
32.09864314718195
 21
7.839285177458464
 31
0.0
  0
LINE
  5
11B
330
2
100
AcDbEntity
  8
GAIKEI
  6
Continuous
 62
     1
100
AcDbLine
 10
32.05265279718196
 20
7.649285177458523
 30
0.0
 11
32.08551049718196
 21
7.649285177458523
 31
0.0
  0
ARC
  5
11C
330
2
100
AcDbEntity
  8
GAIKEI
  6
Continuous
 62
     1
100
AcDbCircle
 10
32.18160399718196
 20
7.854285177458507
 30
0.0
 40
0.065
100
AcDbArc
 50
16.60155000001845
 51
90.0
  0
ARC
  5
11D
330
2
100
AcDbEntity
  8
GAIKEI
  6
Continuous
 62
     1
100
AcDbCircle
 10
32.18160399718196
 20
7.634285177458536
 30
0.0
 40
0.065
100
AcDbArc
 50
270.0
 51
343.3984499999815
  0
ARC
  5
11E
330
2
100
AcDbEntity
  8
GAIKEI
  6
Continuous
 62
     1
100
AcDbCircle
 10
31.81265279718195
 20
7.74428517745855
 30
0.0
 40
0.45
100
AcDbArc
 50
343.3984499999815
 51
0.0
  0
ARC
  5
11F
330
2
100
AcDbEntity
  8
GAIKEI
  6
Continuous
 62
     1
100
AcDbCircle
 10
31.81265279718195
 20
7.74428517745855
 30
0.0
 40
0.45
100
AcDbArc
 50
0.0
 51
16.60155000001845
  0
LINE
  5
120
330
2
100
AcDbEntity
  8
GAIKEI
  6
Continuous
 62
     1
100
AcDbLine
 10
32.05265279718196
 20
7.49428517745855
 30
0.0
 11
32.05265279718196
 21
7.74428517745855
 31
0.0
  0
LINE
  5
121
330
2
100
AcDbEntity
  8
GAIKEI
  6
Continuous
 62
     1
100
AcDbLine
 10
32.05265279718196
 20
7.99428517745855
 30
0.0
 11
32.01351029718194
 21
7.99428517745855
 31
0.0
  0
LINE
  5
122
330
2
100
AcDbEntity
  8
GAIKEI
  6
Continuous
 62
     1
100
AcDbLine
 10
32.01351029718194
 20
7.49428517745855
 30
0.0
 11
32.05265279718196
 21
7.49428517745855
 31
0.0
  0
LINE
  5
123
330
2
100
AcDbEntity
  8
GAIKEI
  6
Continuous
 62
     1
100
AcDbLine
 10
32.05265279718196
 20
7.74428517745855
 30
0.0
 11
32.05265279718196
 21
7.99428517745855
 31
0.0
  0
LINE
  5
124
330
2
100
AcDbEntity
  8
GAIKEI
  6
Continuous
 62
     1
100
AcDbLine
 10
32.09265279718193
 20
11.39510772745848
 30
0.0
 11
32.09265279718193
 21
11.38295237745853
 31
0.0
  0
LINE
  5
125
330
2
100
AcDbEntity
  8
GAIKEI
  6
Continuous
 62
     1
100
AcDbLine
 10
32.10179259718194
 20
11.54178657745854
 30
0.0
 11
32.06179259718198
 21
11.54178657745854
 31
0.0
  0
LINE
  5
126
330
2
100
AcDbEntity
  8
GAIKEI
  6
Continuous
 62
     1
100
AcDbLine
 10
32.12236529718194
 20
11.18678592745851
 30
0.0
 11
32.08236529718192
 21
11.18678592745851
 31
0.0
  0
LINE
  5
127
330
2
100
AcDbEntity
  8
GAIKEI
  6
Continuous
 62
     1
100
AcDbLine
 10
32.09265279718193
 20
11.3642851774585
 30
0.0
 11
32.13265279718195
 21
11.3642851774585
 31
0.0
  0
LINE
  5
128
330
2
100
AcDbEntity
  8
GAIKEI
  6
Continuous
 62
     1
100
AcDbLine
 10
32.05265279718196
 20
11.38295237745853
 30
0.0
 11
32.09265279718193
 21
11.38295237745853
 31
0.0
  0
LINE
  5
129
330
2
100
AcDbEntity
  8
GAIKEI
  6
Continuous
 62
     1
100
AcDbLine
 10
32.13265279718195
 20
11.18928517745849
 30
0.0
 11
32.13265279718195
 21
11.3642851774585
 31
0.0
  0
LINE
  5
12A
330
2
100
AcDbEntity
  8
GAIKEI
  6
Continuous
 62
     1
100
AcDbLine
 10
32.13265279718195
 20
11.3642851774585
 30
0.0
 11
32.13265279718195
 21
11.53928517745851
 31
0.0
  0
LINE
  5
12B
330
2
100
AcDbEntity
  8
GAIKEI
  6
Continuous
 62
     1
100
AcDbLine
 10
32.18160399718196
 20
11.53928517745851
 30
0.0
 11
32.13265279718195
 21
11.53928517745851
 31
0.0
  0
LINE
  5
12C
330
2
100
AcDbEntity
  8
GAIKEI
  6
Continuous
 62
     1
100
AcDbLine
 10
32.13265279718195
 20
11.18928517745849
 30
0.0
 11
32.18160399718196
 21
11.18928517745849
 31
0.0
  0
LINE
  5
12D
330
2
100
AcDbEntity
  8
GAIKEI
  6
Continuous
 62
     1
100
AcDbLine
 10
32.13265279718195
 20
11.45928517745852
 30
0.0
 11
32.09864314718195
 21
11.45928517745852
 31
0.0
  0
LINE
  5
12E
330
2
100
AcDbEntity
  8
GAIKEI
  6
Continuous
 62
     1
100
AcDbLine
 10
32.05521034718195
 20
11.45928517745852
 30
0.0
 11
32.05265279718196
 21
11.45928517745852
 31
0.0
  0
LINE
  5
12F
330
2
100
AcDbEntity
  8
GAIKEI
  6
Continuous
 62
     1
100
AcDbLine
 10
32.05265279718196
 20
11.26928517745853
 30
0.0
 11
32.08551049718196
 21
11.26928517745853
 31
0.0
  0
ARC
  5
130
330
2
100
AcDbEntity
  8
GAIKEI
  6
Continuous
 62
     1
100
AcDbCircle
 10
32.18160399718196
 20
11.47428517745845
 30
0.0
 40
0.065
100
AcDbArc
 50
16.60155000001845
 51
90.0
  0
ARC
  5
131
330
2
100
AcDbEntity
  8
GAIKEI
  6
Continuous
 62
     1
100
AcDbCircle
 10
32.18160399718196
 20
11.25428517745854
 30
0.0
 40
0.065
100
AcDbArc
 50
270.0
 51
343.3984499999815
  0
ARC
  5
132
330
2
100
AcDbEntity
  8
GAIKEI
  6
Continuous
 62
     1
100
AcDbCircle
 10
31.81265279718195
 20
11.3642851774585
 30
0.0
 40
0.45
100
AcDbArc
 50
343.3984499999815
 51
0.0
  0
ARC
  5
133
330
2
100
AcDbEntity
  8
GAIKEI
  6
Continuous
 62
     1
100
AcDbCircle
 10
31.81265279718195
 20
11.3642851774585
 30
0.0
 40
0.45
100
AcDbArc
 50
0.0
 51
16.60155000001845
  0
LINE
  5
134
330
2
100
AcDbEntity
  8
GAIKEI
  6
Continuous
 62
     1
100
AcDbLine
 10
32.05265279718196
 20
11.1142851774585
 30
0.0
 11
32.05265279718196
 21
11.3642851774585
 31
0.0
  0
LINE
  5
135
330
2
100
AcDbEntity
  8
GAIKEI
  6
Continuous
 62
     1
100
AcDbLine
 10
32.05265279718196
 20
11.6142851774585
 30
0.0
 11
32.01932934718194
 21
11.6142851774585
 31
0.0
  0
LINE
  5
136
330
2
100
AcDbEntity
  8
GAIKEI
  6
Continuous
 62
     1
100
AcDbLine
 10
32.01932934718194
 20
11.1142851774585
 30
0.0
 11
32.05265279718196
 21
11.1142851774585
 31
0.0
  0
LINE
  5
137
330
2
100
AcDbEntity
  8
GAIKEI
  6
Continuous
 62
     1
100
AcDbLine
 10
32.05265279718196
 20
11.3642851774585
 30
0.0
 11
32.05265279718196
 21
11.6142851774585
 31
0.0
  0
LINE
  5
138
330
2
100
AcDbEntity
  8
GAIKEI
  6
Continuous
 62
     1
100
AcDbLine
 10
34.07765279718197
 20
-10.84571482254148
 30
0.0
 11
34.07765279718197
 21
-10.34571482254148
 31
0.0
  0
LINE
  5
139
330
2
100
AcDbEntity
  8
GAIKEI
  6
Continuous
 62
     1
100
AcDbLine
 10
34.05265279718197
 20
-10.84571482254148
 30
0.0
 11
34.07765279718197
 21
-10.84571482254148
 31
0.0
  0
LINE
  5
13A
330
2
100
AcDbEntity
  8
GAIKEI
  6
Continuous
 62
     1
100
AcDbLine
 10
34.07765279718197
 20
-10.34571482254148
 30
0.0
 11
34.05265279718197
 21
-10.34571482254148
 31
0.0
  0
LINE
  5
13B
330
2
100
AcDbEntity
  8
GAIKEI
  6
Continuous
 62
     1
100
AcDbLine
 10
34.11265279718197
 20
-10.73321482254153
 30
0.0
 11
34.15501524718194
 21
-10.72950857254147
 31
0.0
  0
LINE
  5
13C
330
2
100
AcDbEntity
  8
GAIKEI
  6
Continuous
 62
     1
100
AcDbLine
 10
34.15501524718194
 20
-10.46192107254148
 30
0.0
 11
34.11265279718197
 21
-10.45821482254149
 31
0.0
  0
LINE
  5
13D
330
2
100
AcDbEntity
  8
GAIKEI
  6
Continuous
 62
     1
100
AcDbLine
 10
34.07765279718197
 20
-10.73071482254147
 30
0.0
 11
34.11265279718197
 21
-10.73071482254147
 31
0.0
  0
LINE
  5
13E
330
2
100
AcDbEntity
  8
GAIKEI
  6
Continuous
 62
     1
100
AcDbLine
 10
34.11265279718197
 20
-10.46071482254149
 30
0.0
 11
34.07765279718197
 21
-10.46071482254149
 31
0.0
  0
ARC
  5
13F
330
2
100
AcDbEntity
  8
GAIKEI
  6
Continuous
 62
     1
100
AcDbCircle
 10
34.15065744718196
 20
-10.51173077254151
 30
0.0
 40
0.05
100
AcDbArc
 50
16.25702800000551
 51
84.99999899997797
  0
ARC
  5
140
330
2
100
AcDbEntity
  8
GAIKEI
  6
Continuous
 62
     1
100
AcDbCircle
 10
34.15065744718196
 20
-10.6796988725415
 30
0.0
 40
0.05
100
AcDbArc
 50
275.000001000022
 51
343.7429719999945
  0
ARC
  5
141
330
2
100
AcDbEntity
  8
GAIKEI
  6
Continuous
 62
     1
100
AcDbCircle
 10
33.86265279718197
 20
-10.59571482254148
 30
0.0
 40
0.35
100
AcDbArc
 50
343.7429719999945
 51
0.0
  0
ARC
  5
142
330
2
100
AcDbEntity
  8
GAIKEI
  6
Continuous
 62
     1
100
AcDbCircle
 10
33.86265279718197
 20
-10.59571482254148
 30
0.0
 40
0.35
100
AcDbArc
 50
0.0
 51
16.25702800000551
  0
LINE
  5
143
330
2
100
AcDbEntity
  8
GAIKEI
  6
Continuous
 62
     1
100
AcDbLine
 10
34.07765279718197
 20
-12.74571482254146
 30
0.0
 11
34.07765279718197
 21
-12.24571482254146
 31
0.0
  0
LINE
  5
144
330
2
100
AcDbEntity
  8
GAIKEI
  6
Continuous
 62
     1
100
AcDbLine
 10
34.05265279718197
 20
-12.74571482254146
 30
0.0
 11
34.07765279718197
 21
-12.74571482254146
 31
0.0
  0
LINE
  5
145
330
2
100
AcDbEntity
  8
GAIKEI
  6
Continuous
 62
     1
100
AcDbLine
 10
34.07765279718197
 20
-12.24571482254146
 30
0.0
 11
34.05265279718197
 21
-12.24571482254146
 31
0.0
  0
LINE
  5
146
330
2
100
AcDbEntity
  8
GAIKEI
  6
Continuous
 62
     1
100
AcDbLine
 10
34.11265279718197
 20
-12.6332148225415
 30
0.0
 11
34.15501524718194
 21
-12.62950857254145
 31
0.0
  0
LINE
  5
147
330
2
100
AcDbEntity
  8
GAIKEI
  6
Continuous
 62
     1
100
AcDbLine
 10
34.15501524718194
 20
-12.36192107254146
 30
0.0
 11
34.11265279718197
 21
-12.35821482254152
 31
0.0
  0
LINE
  5
148
330
2
100
AcDbEntity
  8
GAIKEI
  6
Continuous
 62
     1
100
AcDbLine
 10
34.07765279718197
 20
-12.63071482254145
 30
0.0
 11
34.11265279718197
 21
-12.63071482254145
 31
0.0
  0
LINE
  5
149
330
2
100
AcDbEntity
  8
GAIKEI
  6
Continuous
 62
     1
100
AcDbLine
 10
34.11265279718197
 20
-12.36071482254146
 30
0.0
 11
34.07765279718197
 21
-12.36071482254146
 31
0.0
  0
ARC
  5
14A
330
2
100
AcDbEntity
  8
GAIKEI
  6
Continuous
 62
     1
100
AcDbCircle
 10
34.15065744718196
 20
-12.41173077254154
 30
0.0
 40
0.05
100
AcDbArc
 50
16.25702800000551
 51
84.99999899997797
  0
ARC
  5
14B
330
2
100
AcDbEntity
  8
GAIKEI
  6
Continuous
 62
     1
100
AcDbCircle
 10
34.15065744718196
 20
-12.57969887254148
 30
0.0
 40
0.05
100
AcDbArc
 50
275.000001000022
 51
343.7429719999945
  0
ARC
  5
14C
330
2
100
AcDbEntity
  8
GAIKEI
  6
Continuous
 62
     1
100
AcDbCircle
 10
33.86265279718197
 20
-12.49571482254146
 30
0.0
 40
0.35
100
AcDbArc
 50
343.7429719999945
 51
0.0
  0
ARC
  5
14D
330
2
100
AcDbEntity
  8
GAIKEI
  6
Continuous
 62
     1
100
AcDbCircle
 10
33.86265279718197
 20
-12.49571482254146
 30
0.0
 40
0.35
100
AcDbArc
 50
0.0
 51
16.25702800000551
  0
LINE
  5
14E
330
2
100
AcDbEntity
  8
GAIKEI
  6
Continuous
 62
     1
100
AcDbLine
 10
32.08567489718195
 20
-7.812377672541515
 30
0.0
 11
32.08567489718195
 21
-7.079051972541492
 31
0.0
  0
LINE
  5
14F
330
2
100
AcDbEntity
  8
GAIKEI
  6
Continuous
 62
     1
100
AcDbLine
 10
32.08567489718195
 20
5.622622327458486
 30
0.0
 11
32.08567489718195
 21
6.355948027458509
 31
0.0
  0
LINE
  5
150
330
2
100
AcDbEntity
  8
GAIKEI
  6
Continuous
 62
     1
100
AcDbLine
 10
33.57642619718195
 20
6.680553127458551
 30
0.0
 11
33.57642619718195
 21
-10.3548049725415
 31
0.0
  0
LINE
  5
151
330
2
100
AcDbEntity
  8
GAIKEI
  6
Continuous
 62
     1
100
AcDbLine
 10
33.59366704718195
 20
-10.8901220225415
 30
0.0
 11
33.65660864718194
 21
-10.96513287254151
 31
0.0
  0
LINE
  5
152
330
2
100
AcDbEntity
  8
GAIKEI
  6
Continuous
 62
     1
100
AcDbLine
 10
33.65660864718194
 20
-10.96513287254151
 30
0.0
 11
33.65660864718194
 21
-13.14848502254148
 31
0.0
  0
LINE
  5
153
330
2
100
AcDbEntity
  8
GAIKEI
  6
Continuous
 62
     1
100
AcDbLine
 10
33.65660864718194
 20
-13.14848502254148
 30
0.0
 11
31.95015279718197
 21
-13.76958419349466
 31
0.0
  0
LINE
  5
154
330
2
100
AcDbEntity
  8
GAIKEI
  6
Continuous
 62
     7
100
AcDbLine
 10
32.16411669718195
 20
13.20457922745851
 30
0.0
 11
32.01067489718194
 21
13.23719427745851
 31
0.0
  0
LINE
  5
155
330
2
100
AcDbEntity
  8
GAIKEI
  6
Continuous
 62
     7
100
AcDbLine
 10
31.95015279718197
 20
-14.51096225766718
 30
0.0
 11
33.88815784718196
 21
-13.80558607254147
 31
0.0
  0
LINE
  5
156
330
2
100
AcDbEntity
  8
GAIKEI
  6
Continuous
 62
     7
100
AcDbLine
 10
34.05265279718198
 20
-13.57066292254148
 30
0.0
 11
34.05265279718197
 21
-10.68635617254148
 31
0.0
  0
LINE
  5
157
330
2
100
AcDbEntity
  8
GAIKEI
  6
Continuous
 62
     1
100
AcDbLine
 10
33.88515054718197
 20
7.500703877458477
 30
0.0
 11
33.74184124718195
 21
7.253093627458497
 31
0.0
  0
LINE
  5
158
330
2
100
AcDbEntity
  8
GAIKEI
  6
Continuous
 62
     7
100
AcDbLine
 10
34.10271979718196
 20
-9.785085172541471
 30
0.0
 11
34.05021979718195
 21
-9.829137922541463
 31
0.0
  0
LINE
  5
159
330
2
100
AcDbEntity
  8
GAIKEI
  6
Continuous
 62
     7
100
AcDbLine
 10
34.05021979718195
 20
-9.829137922541463
 30
0.0
 11
34.05021979718195
 21
-10.68635617254148
 31
0.0
  0
LINE
  5
15A
330
2
100
AcDbEntity
  8
GAIKEI
  6
Continuous
 62
     1
100
AcDbLine
 10
34.05265279718197
 20
-10.87461647254144
 30
0.0
 11
34.05265279718197
 21
-10.87414032254151
 31
0.0
  0
LINE
  5
15B
330
2
100
AcDbEntity
  8
GAIKEI
  6
Continuous
 62
     7
100
AcDbLine
 10
32.20740429718194
 20
13.19537812745852
 30
0.0
 11
32.16368044718193
 21
13.20467192745855
 31
0.0
  0
LINE
  5
15C
330
2
100
AcDbEntity
  8
GAIKEI
  6
Continuous
 62
     1
100
AcDbLine
 10
33.98597979718193
 20
9.024872377458507
 30
0.0
 11
33.98597979718193
 21
8.088171127458508
 31
0.0
  0
LINE
  5
15D
330
2
100
AcDbEntity
  8
GAIKEI
  6
Continuous
 62
     7
100
AcDbLine
 10
33.55892619718193
 20
12.90810332745855
 30
0.0
 11
33.56267769718193
 21
12.90705367745852
 31
0.0
  0
LINE
  5
15E
330
2
100
AcDbEntity
  8
GAIKEI
  6
Continuous
 62
     7
100
AcDbLine
 10
33.55892619718193
 20
12.90810332745855
 30
0.0
 11
32.20740429718194
 21
13.19537812745852
 31
0.0
  0
LINE
  5
15F
330
2
100
AcDbEntity
  8
GAIKEI
  6
Continuous
 62
     1
100
AcDbLine
 10
34.05021979718195
 20
-10.68635617254148
 30
0.0
 11
34.05265279718197
 21
-10.68635617254148
 31
0.0
  0
LINE
  5
160
330
2
100
AcDbEntity
  8
GAIKEI
  6
Continuous
 62
     7
100
AcDbLine
 10
33.56331304718196
 20
12.90712957745848
 30
0.0
 11
33.56260754718197
 21
12.90708442745847
 31
0.0
  0
LINE
  5
161
330
2
100
AcDbEntity
  8
GAIKEI
  6
Continuous
 62
     7
100
AcDbLine
 10
33.84493149718196
 20
12.0550149274585
 30
0.0
 11
33.75451529718194
 21
12.69835967745848
 31
0.0
  0
LINE
  5
162
330
2
100
AcDbEntity
  8
GAIKEI
  6
Continuous
 62
     7
100
AcDbLine
 10
34.10265799718195
 20
10.22119582745847
 30
0.0
 11
33.84493149718196
 21
12.0550149274585
 31
0.0
  0
LINE
  5
163
330
2
100
AcDbEntity
  8
GAIKEI
  6
Continuous
 62
     1
100
AcDbLine
 10
34.10515279718195
 20
10.20047422745853
 30
0.0
 11
34.10515279718195
 21
10.20344432745855
 31
0.0
  0
LINE
  5
164
330
2
100
AcDbEntity
  8
GAIKEI
  6
Continuous
 62
     1
100
AcDbLine
 10
34.10515279718195
 20
10.20344432745855
 30
0.0
 11
34.10265799718195
 21
10.22119582745847
 31
0.0
  0
LINE
  5
165
330
2
100
AcDbEntity
  8
GAIKEI
  6
Continuous
 62
     7
100
AcDbLine
 10
34.10515279718195
 20
-9.797471822541524
 30
0.0
 11
34.10515279718195
 21
10.20047422745853
 31
0.0
  0
LINE
  5
166
330
2
100
AcDbEntity
  8
GAIKEI
  6
Continuous
 62
     7
100
AcDbLine
 10
34.10515279718195
 20
-9.831709922541449
 30
0.0
 11
34.10515279718195
 21
-9.797471822541524
 31
0.0
  0
LINE
  5
167
330
2
100
AcDbEntity
  8
GAIKEI
  6
Continuous
 62
     1
100
AcDbLine
 10
34.05265279718197
 20
-13.29571482254152
 30
0.0
 11
34.05265279718197
 21
-13.14571482254149
 31
0.0
  0
LINE
  5
168
330
2
100
AcDbEntity
  8
GAIKEI
  6
Continuous
 62
     1
100
AcDbLine
 10
34.05265279718197
 20
-13.29571482254152
 30
0.0
 11
34.05265279718197
 21
-13.34571482254148
 31
0.0
  0
LINE
  5
169
330
2
100
AcDbEntity
  8
GAIKEI
  6
Continuous
 62
     1
100
AcDbLine
 10
32.12488029718193
 20
-14.9718516725415
 30
0.0
 11
32.15456879718195
 21
-14.97029577254147
 31
0.0
  0
LINE
  5
16A
330
2
100
AcDbEntity
  8
GAIKEI
  6
Continuous
 62
     1
100
AcDbLine
 10
32.15456879718195
 20
-14.97029577254147
 30
0.0
 11
33.39524594718196
 21
-14.90527462254147
 31
0.0
  0
LINE
  5
16B
330
2
100
AcDbEntity
  8
GAIKEI
  6
Continuous
 62
     1
100
AcDbLine
 10
34.10515279718195
 20
8.171442477458526
 30
0.0
 11
34.10515279718195
 21
8.640476677458536
 31
0.0
  0
LINE
  5
16C
330
2
100
AcDbEntity
  8
GAIKEI
  6
Continuous
 62
     1
100
AcDbLine
 10
34.10515279718195
 20
10.20344007745848
 30
0.0
 11
34.10515279718195
 21
10.20344432745855
 31
0.0
  0
LINE
  5
16D
330
2
100
AcDbEntity
  8
GAIKEI
  6
Continuous
 62
     1
100
AcDbLine
 10
34.10515279718195
 20
8.640476677458536
 30
0.0
 11
34.10515279718195
 21
10.20344007745848
 31
0.0
  0
LINE
  5
16E
330
2
100
AcDbEntity
  8
GAIKEI
  6
Continuous
 62
     1
100
AcDbLine
 10
32.04956879718193
 20
-14.97579857254152
 30
0.0
 11
32.12488029718193
 21
-14.9718516725415
 31
0.0
  0
LINE
  5
16F
330
2
100
AcDbEntity
  8
GAIKEI
  6
Continuous
 62
     1
100
AcDbLine
 10
33.94015279718198
 20
-14.33106262254148
 30
0.0
 11
33.94015279718198
 21
-13.94571482254156
 31
0.0
  0
LINE
  5
170
330
2
100
AcDbEntity
  8
GAIKEI
  6
Continuous
 62
     1
100
AcDbLine
 10
34.10515279718195
 20
10.20344007745848
 30
0.0
 11
34.10515279718195
 21
10.20344432745855
 31
0.0
  0
LINE
  5
171
330
2
100
AcDbEntity
  8
GAIKEI
  6
Continuous
 62
     1
100
AcDbLine
 10
34.10515279718195
 20
8.640476677458536
 30
0.0
 11
34.10515279718195
 21
10.20344007745848
 31
0.0
  0
LINE
  5
172
330
2
100
AcDbEntity
  8
GAIKEI
  6
Continuous
 62
     1
100
AcDbLine
 10
34.10515279718195
 20
-9.666127722541546
 30
0.0
 11
34.10515279718195
 21
-9.661518822541438
 31
0.0
  0
LINE
  5
173
330
2
100
AcDbEntity
  8
GAIKEI
  6
Continuous
 62
     1
100
AcDbLine
 10
34.10515279718195
 20
-9.823448072541509
 30
0.0
 11
34.10515279718195
 21
-9.666127722541546
 31
0.0
  0
LINE
  5
174
330
2
100
AcDbEntity
  8
GAIKEI
  6
Continuous
 62
     1
100
AcDbLine
 10
34.10515279718195
 20
-9.661518822541438
 30
0.0
 11
34.10515279718195
 21
-8.564762972541473
 31
0.0
  0
LINE
  5
175
330
2
100
AcDbEntity
  8
GAIKEI
  6
Continuous
 62
     1
100
AcDbLine
 10
34.10515279718195
 20
7.750068077458536
 30
0.0
 11
34.10515279718195
 21
8.209313527458562
 31
0.0
  0
LINE
  5
176
330
2
100
AcDbEntity
  8
GAIKEI
  6
Continuous
 62
     1
100
AcDbLine
 10
34.10515279718195
 20
7.706947177458516
 30
0.0
 11
34.10515279718195
 21
7.750068077458536
 31
0.0
  0
LINE
  5
177
330
2
100
AcDbEntity
  8
GAIKEI
  6
Continuous
 62
     1
100
AcDbLine
 10
34.10515279718195
 20
-9.823448072541509
 30
0.0
 11
34.10515279718195
 21
-9.666127722541546
 31
0.0
  0
LINE
  5
178
330
2
100
AcDbEntity
  8
GAIKEI
  6
Continuous
 62
     1
100
AcDbLine
 10
34.10515279718195
 20
-9.661518822541438
 30
0.0
 11
34.10515279718195
 21
-8.564762972541473
 31
0.0
  0
ARC
  5
179
330
2
100
AcDbEntity
  8
GAIKEI
  6
Continuous
 62
     7
100
AcDbCircle
 10
32.06265279718195
 20
13.48173117745853
 30
0.0
 40
0.25
100
AcDbArc
 50
243.2563160000013
 51
257.9999999999836
  0
ARC
  5
17A
330
2
100
AcDbEntity
  8
GAIKEI
  6
Continuous
 62
     7
100
AcDbCircle
 10
33.80265279718197
 20
-13.57066292254148
 30
0.0
 40
0.25
100
AcDbArc
 50
289.9999999999965
 51
0.0
  0
ARC
  5
17B
330
2
100
AcDbEntity
  8
GAIKEI
  6
Continuous
 62
     7
100
AcDbCircle
 10
33.50694829718197
 20
12.66356642745847
 30
0.0
 40
0.25
100
AcDbArc
 50
7.999999999984294
 51
76.97098900001979
  0
ARC
  5
17C
330
2
100
AcDbEntity
  8
GAIKEI
  6
Continuous
 62
     1
100
AcDbCircle
 10
33.95515279718194
 20
-9.831709922541449
 30
0.0
 40
0.15
100
AcDbArc
 50
317.5189609999844
 51
0.0
  0
ARC
  5
17D
330
2
100
AcDbEntity
  8
GAIKEI
  6
Continuous
 62
     1
100
AcDbCircle
 10
34.10265279718198
 20
-9.966778972541476
 30
0.0
 40
0.05
100
AcDbArc
 50
137.5189609999843
 51
180.0
  0
ARC
  5
17E
330
2
100
AcDbEntity
  8
GAIKEI
  6
Continuous
 62
     1
100
AcDbCircle
 10
34.10265279718198
 20
-9.9667941225415
 30
0.0
 40
0.05
100
AcDbArc
 50
137.5188869999828
 51
180.0
  0
ARC
  5
17F
330
2
100
AcDbEntity
  8
GAIKEI
  6
Continuous
 62
     1
100
AcDbCircle
 10
33.95515279718194
 20
-9.83172467254144
 30
0.0
 40
0.15
100
AcDbArc
 50
317.5188869999828
 51
0.0
  0
ARC
  5
180
330
2
100
AcDbEntity
  8
GAIKEI
  6
Continuous
 62
     1
100
AcDbCircle
 10
32.06265279718195
 20
-15.22545597254151
 30
0.0
 40
0.25
100
AcDbArc
 50
101.6320759999917
 51
116.7436839999987
  0
ARC
  5
181
330
2
100
AcDbEntity
  8
GAIKEI
  6
Continuous
 62
     1
100
AcDbCircle
 10
33.50694829718197
 20
12.66356642745847
 30
0.0
 40
0.25
100
AcDbArc
 50
7.999999999984294
 51
9.618225999996512
  0
ARC
  5
182
330
2
100
AcDbEntity
  8
GAIKEI
  6
Continuous
 62
     1
100
AcDbCircle
 10
32.06265279718195
 20
-15.22545597254151
 30
0.0
 40
0.25
100
AcDbArc
 50
93.00000000000558
 51
101.6320759999917
  0
ARC
  5
183
330
2
100
AcDbEntity
  8
GAIKEI
  6
Continuous
 62
     1
100
AcDbCircle
 10
33.36515279718196
 20
-14.33106262254148
 30
0.0
 40
0.5750000000000001
100
AcDbArc
 50
273.0000000000056
 51
0.0
  0
ELLIPSE
  5
184
330
2
100
AcDbEntity
  8
GAIKEI
  6
Continuous
 62
     1
100
AcDbEllipse
 10
33.36515279718196
 20
-14.33106262254148
 30
0.0
 11
0.5749999999999993
 21
0.0000000000000171
 31
0.0
210
0.0
220
0.0
230
1.0
 40
0.3583520000000312
 41
-0.7964317564974064
 42
-0.000000000000083
  0
LINE
  5
185
330
2
100
AcDbEntity
  8
GAIKEI
  6
Continuous
 62
     1
100
AcDbLine
 10
31.85015279718196
 20
14.15455927745847
 30
0.0
 11
29.87471919718195
 21
14.05168367745853
 31
0.0
  0
LINE
  5
186
330
2
100
AcDbEntity
  8
GAIKEI
  6
Continuous
 62
     1
100
AcDbLine
 10
31.85015279718196
 20
14.15455927745847
 30
0.0
 11
31.85015279718196
 21
-15.94598892254146
 31
0.0
  0
LINE
  5
187
330
2
100
AcDbEntity
  8
GAIKEI
  6
Continuous
 62
     1
100
AcDbLine
 10
29.87471919718195
 20
-15.84311332254151
 30
0.0
 11
31.85015279718196
 21
-15.94598892254146
 31
0.0
  0
LINE
  5
188
330
2
100
AcDbEntity
  8
GAIKEI
  6
Continuous
 62
     1
100
AcDbLine
 10
29.87471919718195
 20
14.05168367745853
 30
0.0
 11
29.87471919718196
 21
-16.04283922254154
 31
0.0
  0
LINE
  5
189
330
2
100
AcDbEntity
  8
GAIKEI
  6
Continuous
 62
     7
100
AcDbLine
 10
29.87471919718195
 20
14.2514095774585
 30
0.0
 11
31.85015279718196
 21
14.35428517745851
 31
0.0
  0
LINE
  5
18A
330
2
100
AcDbEntity
  8
GAIKEI
  6
Continuous
 62
     1
100
AcDbLine
 10
31.85015279718196
 20
14.35428517745851
 30
0.0
 11
31.85015279718196
 21
14.15455927745847
 31
0.0
  0
LINE
  5
18B
330
2
100
AcDbEntity
  8
GAIKEI
  6
Continuous
 62
     7
100
AcDbLine
 10
31.85015279718196
 20
-16.14571482254149
 30
0.0
 11
29.87471919718195
 21
-16.04283922254149
 31
0.0
  0
LINE
  5
18C
330
2
100
AcDbEntity
  8
GAIKEI
  6
Continuous
 62
     1
100
AcDbLine
 10
31.85015279718196
 20
-15.94598892254146
 30
0.0
 11
31.85015279718196
 21
-16.14571482254149
 31
0.0
  0
LINE
  5
18D
330
2
100
AcDbEntity
  8
GAIKEI
  6
Continuous
 62
     7
100
AcDbLine
 10
31.85015279718196
 20
14.34428517745852
 30
0.0
 11
31.92733169718195
 21
14.3375328774585
 31
0.0
  0
LINE
  5
18E
330
2
100
AcDbEntity
  8
GAIKEI
  6
Continuous
 62
     1
100
AcDbLine
 10
31.92733169718195
 20
14.13829397745849
 30
0.0
 11
31.85015279718196
 21
14.14504622745852
 31
0.0
  0
LINE
  5
18F
330
2
100
AcDbEntity
  8
GAIKEI
  6
Continuous
 62
     7
100
AcDbLine
 10
31.92733169718195
 20
-16.12896252254148
 30
0.0
 11
31.85015279718196
 21
-16.1357148225415
 31
0.0
  0
LINE
  5
190
330
2
100
AcDbEntity
  8
GAIKEI
  6
Continuous
 62
     7
100
AcDbLine
 10
31.95015279718197
 20
14.13829397745849
 30
0.0
 11
31.95015279718197
 21
-16.1040576725415
 31
0.0
  0
LINE
  5
191
330
2
100
AcDbEntity
  8
GAIKEI
  6
Continuous
 62
     1
100
AcDbLine
 10
31.95015279718197
 20
14.13829397745849
 30
0.0
 11
31.92733169718195
 21
14.13829397745849
 31
0.0
  0
LINE
  5
192
330
2
100
AcDbEntity
  8
GAIKEI
  6
Continuous
 62
     7
100
AcDbLine
 10
31.95015279718197
 20
14.31262802745851
 30
0.0
 11
31.95015279718197
 21
14.13829397745849
 31
0.0
  0
LINE
  5
193
330
2
100
AcDbEntity
  8
GAIKEI
  6
Continuous
 62
     1
100
AcDbLine
 10
29.81676099718198
 20
-16.01031467254154
 30
0.0
 11
29.81676099718198
 21
14.02114592745852
 31
0.0
  0
LINE
  5
194
330
2
100
AcDbEntity
  8
GAIKEI
  6
Continuous
 62
     7
100
AcDbLine
 10
29.81676099718198
 20
-16.01031467254154
 30
0.0
 11
29.66144719718196
 21
-15.78348562254149
 31
0.0
  0
LINE
  5
195
330
2
100
AcDbEntity
  8
GAIKEI
  6
Continuous
 62
     7
100
AcDbLine
 10
29.66144719718196
 20
13.9920559774585
 30
0.0
 11
29.81676099718198
 21
14.2188850274585
 31
0.0
  0
LINE
  5
196
330
2
100
AcDbEntity
  8
GAIKEI
  6
Continuous
 62
     1
100
AcDbLine
 10
29.81676099718198
 20
14.02114592745852
 30
0.0
 11
29.66144719718196
 21
13.79431687745853
 31
0.0
  0
LINE
  5
197
330
2
100
AcDbEntity
  8
GAIKEI
  6
Continuous
 62
     7
100
AcDbLine
 10
29.65270279718197
 20
-15.75523717254145
 30
0.0
 11
29.65270279718197
 21
13.79431687745853
 31
0.0
  0
LINE
  5
198
330
2
100
AcDbEntity
  8
GAIKEI
  6
Continuous
 62
     7
100
AcDbLine
 10
29.65270279718197
 20
13.79431687745853
 30
0.0
 11
29.66144719718196
 21
13.79431687745853
 31
0.0
  0
LINE
  5
199
330
2
100
AcDbEntity
  8
GAIKEI
  6
Continuous
 62
     7
100
AcDbLine
 10
29.65270279718197
 20
13.96380752745853
 30
0.0
 11
29.65270279718197
 21
13.79431687745853
 31
0.0
  0
ARC
  5
19A
330
2
100
AcDbEntity
  8
GAIKEI
  6
Continuous
 62
     7
100
AcDbCircle
 10
31.92515279718197
 20
-16.1040576725415
 30
0.0
 40
0.025
100
AcDbArc
 50
275.0000000000227
 51
0.0
  0
ARC
  5
19B
330
2
100
AcDbEntity
  8
GAIKEI
  6
Continuous
 62
     7
100
AcDbCircle
 10
31.92515279718197
 20
14.31262802745851
 30
0.0
 40
0.025
100
AcDbArc
 50
0.0
 51
84.99999999997728
  0
ARC
  5
19C
330
2
100
AcDbEntity
  8
GAIKEI
  6
Continuous
 62
     7
100
AcDbCircle
 10
29.87864439718196
 20
-15.96794197254144
 30
0.0
 40
0.075
100
AcDbArc
 50
214.4001229999908
 51
266.9999999999944
  0
ARC
  5
19D
330
2
100
AcDbEntity
  8
GAIKEI
  6
Continuous
 62
     7
100
AcDbCircle
 10
29.87864439718196
 20
14.17651232745851
 30
0.0
 40
0.075
100
AcDbArc
 50
93.00000000000558
 51
145.5998770000092
  0
ARC
  5
19E
330
2
100
AcDbEntity
  8
GAIKEI
  6
Continuous
 62
     7
100
AcDbCircle
 10
29.70270279718197
 20
13.96380752745853
 30
0.0
 40
0.05
100
AcDbArc
 50
145.5998770000092
 51
180.0
  0
ARC
  5
19F
330
2
100
AcDbEntity
  8
GAIKEI
  6
Continuous
 62
     7
100
AcDbCircle
 10
29.70270279718197
 20
-15.75523717254145
 30
0.0
 40
0.05
100
AcDbArc
 50
180.0
 51
214.4001229999908
  0
LINE
  5
1A0
330
2
100
AcDbEntity
  8
GAIKEI
  6
Continuous
 62
     1
100
AcDbLine
 10
32.14711144718194
 20
13.74823612745848
 30
0.0
 11
31.95015279718197
 21
13.72055537745854
 31
0.0
  0
LINE
  5
1A1
330
2
100
AcDbEntity
  8
GAIKEI
  6
Continuous
 62
     1
100
AcDbLine
 10
32.09598469718195
 20
13.92094412745854
 30
0.0
 11
32.09015279718197
 21
13.8542851774585
 31
0.0
  0
LINE
  5
1A2
330
2
100
AcDbEntity
  8
GAIKEI
  6
Continuous
 62
     1
100
AcDbLine
 10
32.09015279718197
 20
13.8542851774585
 30
0.0
 11
32.05829139718195
 21
13.8542851774585
 31
0.0
  0
LINE
  5
1A3
330
2
100
AcDbEntity
  8
GAIKEI
  6
Continuous
 62
     1
100
AcDbLine
 10
32.06264929718197
 20
13.91856612745852
 30
0.0
 11
32.09592924718196
 21
13.92031022745851
 31
0.0
  0
LINE
  5
1A4
330
2
100
AcDbEntity
  8
GAIKEI
  6
Continuous
 62
     1
100
AcDbLine
 10
32.10035114718195
 20
13.97085267745854
 30
0.0
 11
32.14102539718198
 21
13.97014267745851
 31
0.0
  0
LINE
  5
1A5
330
2
100
AcDbEntity
  8
GAIKEI
  6
Continuous
 62
     1
100
AcDbLine
 10
32.09598469718195
 20
13.92094412745854
 30
0.0
 11
32.10035114718195
 21
13.97085267745854
 31
0.0
  0
LINE
  5
1A6
330
2
100
AcDbEntity
  8
GAIKEI
  6
Continuous
 62
     1
100
AcDbLine
 10
32.19015279718198
 20
13.92015032745848
 30
0.0
 11
32.19015279718198
 21
13.7977495274585
 31
0.0
  0
ARC
  5
1A7
330
2
100
AcDbEntity
  8
GAIKEI
  6
Continuous
 62
     1
100
AcDbCircle
 10
32.14015279718197
 20
13.7977495274585
 30
0.0
 40
0.05
100
AcDbArc
 50
277.9999999999843
 51
0.0
  0
ARC
  5
1A8
330
2
100
AcDbEntity
  8
GAIKEI
  6
Continuous
 62
     1
100
AcDbCircle
 10
32.14015279718197
 20
13.92015032745848
 30
0.0
 40
0.05
100
AcDbArc
 50
0.0
 51
89.0000000000243
  0
SPLINE
  5
1A9
330
2
100
AcDbEntity
  8
GAIKEI
  6
Continuous
 62
     1
100
AcDbSpline
210
0.0
220
0.0
230
1.0
 70
     8
 71
     3
 72
    23
 73
    19
 74
    17
 42
0.0000000001
 43
0.0000000001
 44
0.000001
 12
-0.0195855615079534
 22
0.9998081844936148
 32
0.0
 13
-0.1708806009777295
 23
0.9852917437030972
 33
0.0
 40
0.0
 40
0.0
 40
0.0
 40
0.0
 40
0.0246422057409193
 40
0.056169339313387
 40
0.0946352834719917
 40
0.1238383489245248
 40
0.1560774103075207
 40
0.1637317308166625
 40
0.1715387786615094
 40
0.1794984554017606
 40
0.1876106488051575
 40
0.1958752329952424
 40
0.2042920686457645
 40
0.2128610032233846
 40
0.2387981685051544
 40
0.2711882160498595
 40
0.3100387699381586
 40
0.3553446180979195
 40
0.3553446180979195
 40
0.3553446180979195
 40
0.3553446180979195
 10
32.01351031878413
 20
12.39300373169635
 30
0.0
 10
32.01334944163872
 20
12.40121622469092
 30
0.0
 10
32.01263076971017
 20
12.4199337096199
 30
0.0
 10
32.00968966937421
 20
12.45135250016523
 30
0.0
 10
32.00570015870201
 20
12.48417791808373
 30
0.0
 10
32.00107224726875
 20
12.5171586631227
 30
0.0
 10
31.99762525884222
 20
12.53993169831147
 30
0.0
 10
31.99517234711662
 20
12.55564149809356
 30
0.0
 10
31.9939555020107
 20
12.56335310191423
 30
0.0
 10
31.99270338504331
 20
12.57121364245836
 30
0.0
 10
31.9914168168151
 20
12.57922312296574
 30
0.0
 10
31.99009662965517
 20
12.58738153669486
 30
0.0
 10
31.98874390513716
 20
12.59568890858747
 30
0.0
 10
31.98643160847823
 20
12.60980846952572
 30
0.0
 10
31.98280583784387
 20
12.63181045381299
 30
0.0
 10
31.9774382146684
 20
12.6637553029131
 30
0.0
 10
31.97086633421546
 20
12.70204425253018
 30
0.0
 10
31.96609856421344
 20
12.72968825153606
 30
0.0
 10
31.96351793402633
 20
12.74456807758048
 30
0.0
 11
32.01351031878413
 21
12.39300373169635
 31
0.0
 11
32.01252020344373
 21
12.41762616013352
 31
0.0
 11
32.00977451801314
 21
12.44903343723092
 31
0.0
 11
32.00519316789542
 21
12.48722556298878
 31
0.0
 11
32.00116239861801
 21
12.51614910608521
 31
0.0
 11
31.99635777486248
 21
12.548028129258
 31
0.0
 11
31.99517718556208
 21
12.55559085392076
 31
0.0
 11
31.99396057336809
 21
12.56330252197773
 31
0.0
 11
31.99270868862515
 21
12.57116313342874
 31
0.0
 11
31.99142234193937
 21
12.57917268827384
 31
0.0
 11
31.99010240471458
 21
12.58733118651309
 31
0.0
 11
31.98874980960628
 21
12.59563862814644
 31
0.0
 11
31.9873655508885
 21
12.60409501317383
 31
0.0
 11
31.98314264607367
 21
12.62968609606071
 31
0.0
 11
31.9777770765928
 21
12.66162863442412
 31
0.0
 11
31.97122458374852
 21
12.69992262826406
 31
0.0
 11
31.96351793402633
 21
12.74456807758048
 31
0.0
  0
SPLINE
  5
1AA
330
2
100
AcDbEntity
  8
GAIKEI
  6
Continuous
 62
     1
100
AcDbSpline
210
0.0
220
0.0
230
1.0
 70
     8
 71
     3
 72
    13
 73
     9
 74
     7
 42
0.0000000001
 43
0.0000000001
 44
0.000001
 12
0.1686465211669663
 22
0.9856765954907725
 32
0.0
 13
0.1366868105490227
 23
0.9906143123445854
 33
0.0
 40
0.0
 40
0.0
 40
0.0
 40
0.0
 40
0.0148768856752681
 40
0.0303404718420946
 40
0.0467491639371058
 40
0.063550307850407
 40
0.0820032027515075
 40
0.100784933155339
 40
0.100784933155339
 40
0.100784933155339
 40
0.100784933155339
 10
33.30768353757046
 20
7.514094128924682
 30
0.0
 10
33.30851984924211
 20
7.518982061599331
 30
0.0
 10
33.31024453924702
 20
7.52894750569726
 30
0.0
 10
33.31302085433052
 20
7.544281301584874
 30
0.0
 10
33.31586991557852
 20
7.560253694532605
 30
0.0
 10
33.3187846758063
 20
7.577226359642509
 30
0.0
 10
33.32163261374325
 20
7.595012243318308
 30
0.0
 10
33.32341610410316
 20
7.607295511927588
 30
0.0
 10
33.32427184237833
 20
7.613497328910455
 30
0.0
 11
33.30768353757046
 21
7.514094128924682
 31
0.0
 11
33.31023066740087
 21
7.52875113225798
 31
0.0
 11
33.31295930183606
 21
7.543972236349361
 31
0.0
 11
33.31583077192691
 21
7.560127728547058
 31
0.0
 11
33.31866272267749
 21
7.576688482508814
 31
0.0
 11
33.32157231088192
 21
7.594910552444503
 31
0.0
 11
33.32427184237833
 21
7.613497328910455
 31
0.0
  0
SPLINE
  5
1AB
330
2
100
AcDbEntity
  8
GAIKEI
  6
Continuous
 62
     1
100
AcDbSpline
210
0.0
220
0.0
230
1.0
 70
     8
 71
     3
 72
    13
 73
     9
 74
     7
 42
0.0000000001
 43
0.0000000001
 44
0.000001
 12
0.1358537149050929
 22
0.9907289074951259
 32
0.0
 13
0.1028701000007821
 23
0.9946947986824044
 33
0.0
 40
0.0
 40
0.0
 40
0.0
 40
0.0
 40
0.0167629848691176
 40
0.0334123275052038
 40
0.0503098774188006
 40
0.0668410117253174
 40
0.0842373612997498
 40
0.1010541529110057
 40
0.1010541529110057
 40
0.1010541529110057
 40
0.1010541529110057
 10
33.48975989125584
 20
8.816831855748091
 30
0.0
 10
33.49051899584497
 20
8.822367713643359
 30
0.0
 10
33.49196203927548
 20
8.833411634093522
 30
0.0
 10
33.49392457646636
 20
8.850066776869539
 30
0.0
 10
33.49568456354601
 20
8.866666693913657
 30
0.0
 10
33.49734363295326
 20
8.883527010782529
 30
0.0
 10
33.49892696286707
 20
8.900367559237906
 30
0.0
 10
33.50008069718291
 20
8.911713531260943
 30
0.0
 10
33.50065734552783
 20
8.91728938964303
 30
0.0
 11
33.48975989125584
 21
8.816831855748091
 31
0.0
 11
33.49193279161055
 21
8.833453476863326
 31
0.0
 11
33.49388396295535
 21
8.849988097589573
 31
0.0
 11
33.49567706781841
 21
8.866790244028948
 31
0.0
 11
33.49730478470616
 21
8.883241053569349
 31
0.0
 11
33.49896779558572
 21
8.900558391426216
 31
0.0
 11
33.50065734552783
 21
8.91728938964303
 31
0.0
  0
SPLINE
  5
1AC
330
2
100
AcDbEntity
  8
GAIKEI
  6
Continuous
 62
     1
100
AcDbSpline
210
0.0
220
0.0
230
1.0
 70
     8
 71
     3
 72
    13
 73
     9
 74
     7
 42
0.0000000001
 43
0.0000000001
 44
0.000001
 12
-0.1367026333584174
 22
0.9906121289550588
 32
0.0
 13
-0.1693098136655528
 23
0.9855628782561444
 33
0.0
 40
0.0
 40
0.0
 40
0.0
 40
0.0
 40
0.0167469922486458
 40
0.0333773442702694
 40
0.050257116868093
 40
0.0667711030724892
 40
0.0840636332563483
 40
0.1007849533910367
 40
0.1007849533910367
 40
0.1007849533910367
 40
0.1007849533910367
 10
33.32427184237833
 20
12.18521340113966
 30
0.0
 10
33.32350872306458
 20
12.190743325688
 30
0.0
 10
33.32191715173127
 20
12.2017550518737
 30
0.0
 10
33.31930756838237
 20
12.21830334377915
 30
0.0
 10
33.31651988838982
 20
12.23474364996082
 30
0.0
 10
33.31357179710968
 20
12.25137994707381
 30
0.0
 10
33.31056794265582
 20
12.26795257816133
 30
0.0
 10
33.30862723210257
 20
12.27912329699205
 30
0.0
 10
33.30768353757048
 20
12.28461660112543
 30
0.0
 11
33.32427184237833
 21
12.18521340113966
 31
0.0
 11
33.32187693652546
 21
12.20178833249872
 31
0.0
 11
33.31929011709622
 21
12.21821627054441
 31
0.0
 11
33.31647968923173
 21
12.2348604403287
 31
0.0
 11
33.31360768059277
 21
12.25112277494827
 31
0.0
 11
33.31055445443522
 21
12.26814429038234
 31
0.0
 11
33.30768353757048
 21
12.28461660112543
 31
0.0
  0
SPLINE
  5
1AD
330
2
100
AcDbEntity
  8
GAIKEI
  6
Continuous
 62
     1
100
AcDbSpline
210
0.0
220
0.0
230
1.0
 70
     8
 71
     3
 72
    11
 73
     7
 74
     5
 42
0.0000000001
 43
0.0000000001
 44
0.000001
 12
0.0263247353920106
 22
0.9996534441027755
 32
0.0
 13
0.1800564184768131
 23
0.9836562845655501
 33
0.0
 40
0.0
 40
0.0
 40
0.0
 40
0.0
 40
0.0222209517494258
 40
0.038846287432329
 40
0.0498820484480659
 40
0.0553514638909745
 40
0.0553514638909745
 40
0.0553514638909745
 40
0.0553514638909745
 10
32.01351031878413
 20
7.405706998353707
 30
0.0
 10
32.01370530567579
 20
7.413111415336231
 30
0.0
 10
32.01412936241194
 20
7.42605645966546
 30
0.0
 10
32.01495363711783
 20
7.442655929476075
 30
0.0
 10
32.01549321239952
 20
7.453701420271386
 30
0.0
 10
32.0163685795563
 20
7.459138974529992
 30
0.0
 10
32.01669684734156
 20
7.460932316154412
 30
0.0
 11
32.01351031878413
 21
7.405706998353707
 31
0.0
 11
32.01426272123942
 21
7.42791510315078
 31
0.0
 11
32.01504461015071
 21
7.444522024383218
 31
0.0
 11
32.0158559855181
 21
7.455527762051133
 31
0.0
 11
32.01669684734156
 21
7.460932316154412
 31
0.0
  0
SPLINE
  5
1AE
330
2
100
AcDbEntity
  8
GAIKEI
  6
Continuous
 62
     1
100
AcDbSpline
210
0.0
220
0.0
230
1.0
 70
     8
 71
     3
 72
    16
 73
    12
 74
    10
 42
0.0000000001
 43
0.0000000001
 44
0.000001
 12
-0.0430768721966507
 22
0.9990717607268027
 32
0.0
 13
-0.9995301167089067
 23
0.0306520112207888
 33
0.0
 40
0.0
 40
0.0
 40
0.0
 40
0.0
 40
0.0160287203943654
 40
0.0327204960098483
 40
0.0473482253724418
 40
0.059679252428638
 40
0.0695126747968567
 40
0.0767030109011095
 40
0.0811430012141379
 40
0.0828762629778286
 40
0.0829034368634922
 40
0.0829034368634922
 40
0.0829034368634922
 40
0.0829034368634922
 10
32.10837932516702
 20
7.839375159927271
 30
0.0
 10
32.10814916945373
 20
7.844713107229495
 30
0.0
 10
32.10765352446844
 20
7.855607080833976
 30
0.0
 10
32.10687537174062
 20
7.871377930877997
 30
0.0
 10
32.10605336287875
 20
7.885882645999686
 30
0.0
 10
32.1052523905783
 20
7.898185096190786
 30
0.0
 10
32.10442262119403
 20
7.90776517660845
 30
0.0
 10
32.10371082510204
 20
7.915281971044691
 30
0.0
 10
32.1028681953652
 20
7.918939808856521
 30
0.0
 10
32.10239138158809
 20
7.921773833395491
 30
0.0
 10
32.10180135415662
 20
7.921786276685395
 30
0.0
 10
32.10179230045092
 20
7.92178655433014
 30
0.0
 11
32.10837932516702
 21
7.839375159927271
 31
0.0
 11
32.10765279718213
 21
7.855386691515548
 31
0.0
 11
32.10681946384875
 21
7.872057648627219
 31
0.0
 11
32.10598613051545
 21
7.886661616846595
 31
0.0
 11
32.10515279718212
 21
7.898964446078821
 31
0.0
 11
32.10431946384876
 21
7.908762481741291
 31
0.0
 11
32.10348613051542
 21
7.915904337650886
 31
0.0
 11
32.10265279718212
 21
7.920265340625974
 31
0.0
 11
32.10181946384878
 21
7.921785364842037
 31
0.0
 11
32.10179230045092
 21
7.92178655433014
 31
0.0
  0
SPLINE
  5
1AF
330
2
100
AcDbEntity
  8
GAIKEI
  6
Continuous
 62
     1
100
AcDbSpline
210
0.0
220
0.0
230
1.0
 70
     8
 71
     3
 72
    20
 73
    16
 74
    14
 42
0.0000000001
 43
0.0000000001
 44
0.000001
 12
-0.0366600883891987
 22
-0.9993277930285419
 32
0.0
 13
-0.8962567756003743
 23
-0.4435355591048144
 33
0.0
 40
0.0
 40
0.0
 40
0.0
 40
0.0
 40
0.0225441489661653
 40
0.0447243509195595
 40
0.0661807098233607
 40
0.0865702989487714
 40
0.1055600249971998
 40
0.1228469656545381
 40
0.1381506161008299
 40
0.1512251988683065
 40
0.1618642916136108
 40
0.1698958897130215
 40
0.1752100305703945
 40
0.1777642420885892
 40
0.1780980751421306
 40
0.1780980751421306
 40
0.1780980751421306
 40
0.1780980751421306
 10
32.13265279718212
 20
7.744285177458493
 30
0.0
 10
32.13237730701754
 20
7.736775512581118
 30
0.0
 10
32.13182667509224
 20
7.721877572823132
 30
0.0
 10
32.13100077620302
 20
7.69983277564313
 30
0.0
 10
32.13017456497031
 20
7.678506797629779
 30
0.0
 10
32.12934982205353
 20
7.658244715392697
 30
0.0
 10
32.12852492413527
 20
7.639374891775048
 30
0.0
 10
32.12770563789971
 20
7.622197867131376
 30
0.0
 10
32.12687810427038
 20
7.607007924533036
 30
0.0
 10
32.12608862660808
 20
7.593998419928936
 30
0.0
 10
32.12521550139006
 20
7.583526210513582
 30
0.0
 10
32.12459464236321
 20
7.575374573398448
 30
0.0
 10
32.12351182947947
 20
7.570517660851521
 30
0.0
 10
32.12332575448859
 20
7.567313512589009
 30
0.0
 10
32.12246485261842
 20
7.566835293997826
 30
0.0
 10
32.12236511923971
 20
7.566785938387795
 30
0.0
 11
32.13265279718212
 21
7.744285177458493
 31
0.0
 11
32.13181946384876
 21
7.721756971847639
 31
0.0
 11
32.13098613051544
 21
7.699592431436826
 31
0.0
 11
32.13015279718212
 21
7.678152262827779
 31
0.0
 11
32.12931946384879
 21
7.657779712046306
 31
0.0
 11
32.12848613051543
 21
7.63880828197756
 31
0.0
 11
32.12765279718211
 21
7.621541442151794
 31
0.0
 11
32.12681946384879
 21
7.606260502188263
 31
0.0
 11
32.12598613051543
 21
7.593212510756416
 31
0.0
 11
32.1251527971821
 21
7.582606116651277
 31
0.0
 11
32.12431946384878
 21
7.574617890038723
 31
0.0
 11
32.12348613051546
 21
7.569369550177725
 31
0.0
 11
32.1226527971821
 21
7.566955425717139
 31
0.0
 11
32.12236511923971
 21
7.566785938387795
 31
0.0
  0
SPLINE
  5
1B0
330
2
100
AcDbEntity
  8
GAIKEI
  6
Continuous
 62
     1
100
AcDbSpline
210
0.0
220
0.0
230
1.0
 70
     8
 71
     3
 72
    18
 73
    14
 74
    12
 42
0.0000000001
 43
0.0000000001
 44
0.000001
 12
-0.5844656576229886
 22
-0.8114184463390806
 32
0.0
 13
-0.0371796361214176
 23
-0.9993085983107917
 33
0.0
 40
0.0
 40
0.0
 40
0.0
 40
0.0
 40
0.0015785755413751
 40
0.0058611200297043
 40
0.0128957152543348
 40
0.0225825394406143
 40
0.0347746564143209
 40
0.0492779510757191
 40
0.0658578569836326
 40
0.0842512277853489
 40
0.1041564934095454
 40
0.1252572874195086
 40
0.1472100295647203
 40
0.1472100295647203
 40
0.1472100295647203
 40
0.1472100295647203
 10
32.10179230045092
 20
7.92178655433014
 30
0.0
 10
32.10148475938697
 20
7.921359592559042
 30
0.0
 10
32.10043534709375
 20
7.919677266869996
 30
0.0
 10
32.1001231698102
 20
7.915261459590624
 30
0.0
 10
32.09912347378813
 20
7.908397693556992
 30
0.0
 10
32.09841983974563
 20
7.898751009890588
 30
0.0
 10
32.09757174224068
 20
7.886666165484484
 30
0.0
 10
32.09676697060196
 20
7.872258616463625
 30
0.0
 10
32.09594151216811
 20
7.85578859339887
 30
0.0
 10
32.09511969328105
 20
7.837513664498374
 30
0.0
 10
32.09429424677032
 20
7.817731196280703
 30
0.0
 10
32.09346930331003
 20
7.796761092169163
 30
0.0
 10
32.09292486217041
 20
7.782420250321763
 30
0.0
 10
32.09265279718213
 20
7.775107728994385
 30
0.0
 11
32.10179230045092
 21
7.92178655433014
 31
0.0
 11
32.10098613051542
 21
7.920429263256096
 31
0.0
 11
32.10015279718209
 21
7.916228754859503
 31
0.0
 11
32.09931946384879
 21
7.909243723620647
 31
0.0
 11
32.09848613051546
 21
7.899592825339766
 31
0.0
 11
32.09765279718209
 21
7.887429229431688
 31
0.0
 11
32.09681946384876
 21
7.872949900957848
 31
0.0
 11
32.09598613051546
 21
7.856390954417179
 31
0.0
 11
32.09515279718213
 21
7.838016473635263
 31
0.0
 11
32.09431946384877
 21
7.818128661526827
 31
0.0
 11
32.09348613051543
 21
7.797044331334177
 31
0.0
 11
32.09265279718213
 21
7.775107728994385
 31
0.0
  0
SPLINE
  5
1B1
330
2
100
AcDbEntity
  8
GAIKEI
  6
Continuous
 62
     1
100
AcDbSpline
210
0.0
220
0.0
230
1.0
 70
     8
 71
     3
 72
    18
 73
    14
 74
    12
 42
0.0000000001
 43
0.0000000001
 44
0.000001
 12
-0.5846562919338174
 22
-0.8112810982034519
 32
0.0
 13
-0.0371796361214128
 23
-0.9993085983107919
 33
0.0
 40
0.0
 40
0.0
 40
0.0
 40
0.0
 40
0.0015787525645385
 40
0.0058612971317807
 40
0.0128958923591789
 40
0.0225827165461552
 40
0.0347748335200558
 40
0.0492781281816133
 40
0.0658580340895538
 40
0.0842514048912863
 40
0.1041566705154923
 40
0.1252574645254099
 40
0.1472102067833186
 40
0.1472102067833186
 40
0.1472102067833186
 40
0.1472102067833186
 10
32.06179264024178
 20
7.921786558415078
 30
0.0
 10
32.06148496436836
 20
7.92135962104362
 30
0.0
 10
32.06043516856069
 20
7.919677422456231
 30
0.0
 10
32.06012328283843
 20
7.915261401166162
 30
0.0
 10
32.05912342274172
 20
7.908397720155619
 30
0.0
 10
32.05841985962122
 20
7.898750999722381
 30
0.0
 10
32.05757173526752
 20
7.886666169233308
 30
0.0
 10
32.0567669729749
 20
7.872258615367229
 30
0.0
 10
32.05594151147318
 20
7.855788593892384
 30
0.0
 10
32.05511969354919
 20
7.83751366449303
 30
0.0
 10
32.05429424674181
 20
7.817731196426564
 30
0.0
 10
32.0534693033876
 20
7.796761092231633
 30
0.0
 10
32.05292486217178
 20
7.782420250359336
 30
0.0
 10
32.05265279718211
 20
7.775107728994385
 30
0.0
 11
32.06179264024178
 21
7.921786558415078
 31
0.0
 11
32.06098613051546
 21
7.920429263256096
 31
0.0
 11
32.0601527971821
 21
7.916228754859503
 31
0.0
 11
32.05931946384877
 21
7.909243723620647
 31
0.0
 11
32.05848613051545
 21
7.899592825339766
 31
0.0
 11
32.05765279718213
 21
7.887429229431688
 31
0.0
 11
32.05681946384877
 21
7.872949900957848
 31
0.0
 11
32.05598613051544
 21
7.856390954417179
 31
0.0
 11
32.05515279718212
 21
7.838016473635263
 31
0.0
 11
32.0543194638488
 21
7.818128661526827
 31
0.0
 11
32.05348613051544
 21
7.797044331334177
 31
0.0
 11
32.05265279718211
 21
7.775107728994385
 31
0.0
  0
SPLINE
  5
1B2
330
2
100
AcDbEntity
  8
GAIKEI
  6
Continuous
 62
     1
100
AcDbSpline
210
0.0
220
0.0
230
1.0
 70
     8
 71
     3
 72
    16
 73
    12
 74
    10
 42
0.0000000001
 43
0.0000000001
 44
0.000001
 12
-0.7246933390218108
 22
0.6890715234120614
 32
0.0
 13
-0.043558922455188
 23
0.9990508597036205
 33
0.0
 40
0.0
 40
0.0
 40
0.0
 40
0.0
 40
0.0008245869742485
 40
0.0042427686756079
 40
0.0104169723951864
 40
0.0192855983072384
 40
0.0307089239071242
 40
0.0445088940072205
 40
0.0604644486191224
 40
0.0783168924070715
 40
0.0828709020179214
 40
0.0828709020179214
 40
0.0828709020179214
 40
0.0828709020179214
 10
32.08236537932089
 20
7.566785937339375
 30
0.0
 10
32.08216618842499
 20
7.566975337140206
 30
0.0
 10
32.08118546961035
 20
7.568032236412136
 30
0.0
 10
32.08097490781503
 20
7.57174373822221
 30
0.0
 10
32.07991461161396
 20
7.57766275001677
 30
0.0
 10
32.07925679835952
 20
7.586536711926953
 30
0.0
 10
32.07839438913989
 20
7.597838189923038
 30
0.0
 10
32.07759734170459
 20
7.611552533710494
 30
0.0
 10
32.07677139575961
 20
7.627396678841705
 30
0.0
 10
32.07617854842859
 20
7.640171336378273
 30
0.0
 10
32.07585150347735
 20
7.647632922459195
 30
0.0
 10
32.07578538089352
 20
7.649149484864778
 30
0.0
 11
32.08236537932089
 21
7.566785937339375
 31
0.0
 11
32.08181946384876
 21
7.567404068859787
 31
0.0
 11
32.08098613051544
 21
7.570718860311671
 31
0.0
 11
32.08015279718211
 21
7.57683652996468
 31
0.0
 11
32.0793194638488
 21
7.585665900371566
 31
0.0
 11
32.07848613051543
 21
7.597058780199631
 31
0.0
 11
32.07765279718211
 21
7.61083356046447
 31
0.0
 11
32.07681946384878
 21
7.626767334485521
 31
0.0
 11
32.07598613051542
 21
7.644600314706735
 31
0.0
 11
32.07578538089352
 21
7.649149484864778
 31
0.0
  0
SPLINE
  5
1B3
330
2
100
AcDbEntity
  8
GAIKEI
  6
Continuous
 62
     1
100
AcDbSpline
210
0.0
220
0.0
230
1.0
 70
     8
 71
     3
 72
    20
 73
    16
 74
    14
 42
0.0000000001
 43
0.0000000001
 44
0.000001
 12
-0.0366600883891941
 22
-0.9993277930285421
 32
0.0
 13
-0.8960473228605128
 23
-0.4439585512122816
 33
0.0
 40
0.0
 40
0.0
 40
0.0
 40
0.0
 40
0.022544148765907
 40
0.0447243507194604
 40
0.0661807096234183
 40
0.086570298749092
 40
0.1055600247977207
 40
0.1228469654554148
 40
0.1381506159022068
 40
0.1512251986703508
 40
0.161864291416828
 40
0.169895889518345
 40
0.175210030381485
 40
0.1777642418023527
 40
0.1780978513807107
 40
0.1780978513807107
 40
0.1780978513807107
 40
0.1780978513807107
 10
32.09265279718213
 20
7.744285177458493
 30
0.0
 10
32.09237730701999
 20
7.736775512647852
 30
0.0
 10
32.09182667528481
 20
7.721877572945061
 30
0.0
 10
32.09100077631376
 20
7.69983277585436
 30
0.0
 10
32.09017456514097
 20
7.678506797770808
 30
0.0
 10
32.08934982207879
 20
7.65824471577207
 30
0.0
 10
32.0885249246353
 20
7.639374891356681
 30
0.0
 10
32.08770563687006
 20
7.622197869291312
 30
0.0
 10
32.08687810798986
 20
7.607007918691749
 30
0.0
 10
32.08608861635843
 20
7.593998437628215
 30
0.0
 10
32.08521552936935
 20
7.583526163799035
 30
0.0
 10
32.08459457667598
 20
7.575374684518351
 30
0.0
 10
32.08351195318599
 20
7.570517452889703
 30
0.0
 10
32.08332562351744
 20
7.567313829675242
 30
0.0
 10
32.08246502264409
 20
7.566835306947723
 30
0.0
 10
32.08236537932089
 20
7.566785937339375
 30
0.0
 11
32.09265279718213
 21
7.744285177458493
 31
0.0
 11
32.09181946384879
 21
7.721756971847639
 31
0.0
 11
32.09098613051543
 21
7.699592431436826
 31
0.0
 11
32.0901527971821
 21
7.678152262827779
 31
0.0
 11
32.08931946384879
 21
7.657779712046306
 31
0.0
 11
32.08848613051542
 21
7.63880828197756
 31
0.0
 11
32.0876527971821
 21
7.621541442151794
 31
0.0
 11
32.08681946384877
 21
7.606260502188263
 31
0.0
 11
32.08598613051547
 21
7.593212510756416
 31
0.0
 11
32.08515279718209
 21
7.582606116651277
 31
0.0
 11
32.08431946384877
 21
7.574617890038723
 31
0.0
 11
32.08348613051544
 21
7.569369550177725
 31
0.0
 11
32.08265279718214
 21
7.566955425717139
 31
0.0
 11
32.08236537932089
 21
7.566785937339375
 31
0.0
  0
SPLINE
  5
1B4
330
2
100
AcDbEntity
  8
GAIKEI
  6
Continuous
 62
     1
100
AcDbSpline
210
0.0
220
0.0
230
1.0
 70
     8
 71
     3
 72
    20
 73
    16
 74
    14
 42
0.0000000001
 43
0.0000000001
 44
0.000001
 12
-0.03666008838921
 22
-0.9993277930285415
 32
0.0
 13
-0.89604732285992
 23
-0.443958551213478
 33
0.0
 40
0.0
 40
0.0
 40
0.0
 40
0.0
 40
0.0225441487658518
 40
0.0447243507194604
 40
0.0661807096234183
 40
0.0865702987491487
 40
0.1055600247977207
 40
0.1228469654554715
 40
0.1381506159022635
 40
0.1512251986702941
 40
0.161864291416828
 40
0.169895889518345
 40
0.175210030381485
 40
0.1777642418023481
 40
0.178097851380747
 40
0.178097851380747
 40
0.178097851380747
 40
0.178097851380747
 10
32.09265279718213
 20
11.3642851774585
 30
0.0
 10
32.09237730701999
 20
11.35677551264786
 30
0.0
 10
32.09182667528472
 20
11.34187757294506
 30
0.0
 10
32.09100077631376
 20
11.31983277585431
 30
0.0
 10
32.09017456514096
 20
11.29850679777064
 30
0.0
 10
32.08934982207882
 20
11.27824471577207
 30
0.0
 10
32.08852492463527
 20
11.25937489135663
 30
0.0
 10
32.08770563687006
 20
11.24219786929131
 30
0.0
 10
32.08687810798989
 20
11.22700791869164
 30
0.0
 10
32.08608861635838
 20
11.21399843762827
 30
0.0
 10
32.08521552936935
 20
11.20352616379898
 30
0.0
 10
32.084594576676
 20
11.19537468451841
 30
0.0
 10
32.08351195318591
 20
11.19051745288937
 30
0.0
 10
32.08332562351751
 20
11.18731382967564
 30
0.0
 10
32.08246502264409
 20
11.18683530694767
 30
0.0
 10
32.08236537932089
 20
11.18678593733932
 30
0.0
 11
32.09265279718213
 21
11.3642851774585
 31
0.0
 11
32.09181946384875
 21
11.3417569718477
 31
0.0
 11
32.09098613051543
 21
11.31959243143683
 31
0.0
 11
32.0901527971821
 21
11.29815226282778
 31
0.0
 11
32.08931946384879
 21
11.27777971204625
 31
0.0
 11
32.08848613051542
 21
11.25880828197756
 31
0.0
 11
32.0876527971821
 21
11.24154144215174
 31
0.0
 11
32.08681946384877
 21
11.22626050218821
 31
0.0
 11
32.08598613051547
 21
11.21321251075648
 31
0.0
 11
32.08515279718209
 21
11.20260611665128
 31
0.0
 11
32.08431946384877
 21
11.19461789003873
 31
0.0
 11
32.08348613051544
 21
11.18936955017773
 31
0.0
 11
32.08265279718214
 21
11.18695542571714
 31
0.0
 11
32.08236537932089
 21
11.18678593733932
 31
0.0
  0
SPLINE
  5
1B5
330
2
100
AcDbEntity
  8
GAIKEI
  6
Continuous
 62
     1
100
AcDbSpline
210
0.0
220
0.0
230
1.0
 70
     8
 71
     3
 72
    16
 73
    12
 74
    10
 42
0.0000000001
 43
0.0000000001
 44
0.000001
 12
-0.0430768721965857
 22
0.9990717607268052
 32
0.0
 13
-0.9995301167088943
 23
0.0306520112211923
 33
0.0
 40
0.0
 40
0.0
 40
0.0
 40
0.0
 40
0.0160287203943654
 40
0.032720496009905
 40
0.0473482253724418
 40
0.059679252428638
 40
0.0695126747968568
 40
0.0767030109011095
 40
0.0811430012141379
 40
0.0828762629777788
 40
0.0829034368634424
 40
0.0829034368634424
 40
0.0829034368634424
 40
0.0829034368634424
 10
32.10837932516702
 20
11.45937515992727
 30
0.0
 10
32.10814916945373
 20
11.4647131072295
 30
0.0
 10
32.10765352446848
 20
11.47560708083421
 30
0.0
 10
32.10687537174057
 20
11.49137793087789
 30
0.0
 10
32.10605336287883
 20
11.50588264599992
 30
0.0
 10
32.10525239057822
 20
11.51818509619079
 30
0.0
 10
32.10442262119426
 20
11.52776517660845
 30
0.0
 10
32.10371082510159
 20
11.53528197104447
 30
0.0
 10
32.10286819536591
 20
11.53893980885681
 30
0.0
 10
32.10239138158751
 20
11.54177383339527
 30
0.0
 10
32.10180135415662
 20
11.54178627668534
 30
0.0
 10
32.10179230045092
 20
11.54178655433009
 30
0.0
 11
32.10837932516702
 21
11.45937515992727
 31
0.0
 11
32.10765279718213
 21
11.47538669151555
 31
0.0
 11
32.10681946384875
 21
11.49205764862728
 31
0.0
 11
32.10598613051545
 21
11.5066616168466
 31
0.0
 11
32.10515279718212
 21
11.51896444607882
 31
0.0
 11
32.10431946384876
 21
11.52876248174129
 31
0.0
 11
32.10348613051542
 21
11.53590433765089
 31
0.0
 11
32.10265279718212
 21
11.54026534062598
 31
0.0
 11
32.10181946384878
 21
11.54178536484198
 31
0.0
 11
32.10179230045092
 21
11.54178655433009
 31
0.0
  0
SPLINE
  5
1B6
330
2
100
AcDbEntity
  8
GAIKEI
  6
Continuous
 62
     1
100
AcDbSpline
210
0.0
220
0.0
230
1.0
 70
     8
 71
     3
 72
    20
 73
    16
 74
    14
 42
0.0000000001
 43
0.0000000001
 44
0.000001
 12
-0.0366600883891987
 22
-0.9993277930285419
 32
0.0
 13
-0.8962567755996664
 23
-0.4435355591062449
 33
0.0
 40
0.0
 40
0.0
 40
0.0
 40
0.0
 40
0.0225441489661085
 40
0.0447243509195595
 40
0.0661807098233607
 40
0.0865702989488282
 40
0.1055600249971998
 40
0.1228469656545949
 40
0.1381506161008867
 40
0.1512251988682498
 40
0.1618642916136108
 40
0.1698958897130215
 40
0.1752100305703945
 40
0.1777642420885892
 40
0.1780980751421593
 40
0.1780980751421593
 40
0.1780980751421593
 40
0.1780980751421593
 10
32.13265279718212
 20
11.3642851774585
 30
0.0
 10
32.13237730701754
 20
11.35677551258118
 30
0.0
 10
32.13182667509223
 20
11.34187757282296
 30
0.0
 10
32.13100077620306
 20
11.31983277564336
 30
0.0
 10
32.13017456497027
 20
11.29850679762955
 30
0.0
 10
32.12934982205354
 20
11.27824471539281
 30
0.0
 10
32.12852492413527
 20
11.25937489177499
 30
0.0
 10
32.12770563789978
 20
11.24219786713149
 30
0.0
 10
32.12687810427033
 20
11.22700792453287
 30
0.0
 10
32.12608862660807
 20
11.21399841992888
 30
0.0
 10
32.12521550139002
 20
11.20352621051347
 30
0.0
 10
32.12459464236321
 20
11.19537457339851
 30
0.0
 10
32.12351182947951
 20
11.19051766085135
 30
0.0
 10
32.12332575448849
 20
11.18731351258924
 30
0.0
 10
32.12246485261843
 20
11.18683529399777
 30
0.0
 10
32.12236511923971
 20
11.18678593838774
 30
0.0
 11
32.13265279718212
 21
11.3642851774585
 31
0.0
 11
32.13181946384876
 21
11.3417569718477
 31
0.0
 11
32.13098613051544
 21
11.31959243143683
 31
0.0
 11
32.13015279718212
 21
11.29815226282778
 31
0.0
 11
32.12931946384879
 21
11.27777971204625
 31
0.0
 11
32.12848613051543
 21
11.25880828197756
 31
0.0
 11
32.12765279718211
 21
11.24154144215174
 31
0.0
 11
32.12681946384879
 21
11.22626050218821
 31
0.0
 11
32.12598613051543
 21
11.21321251075648
 31
0.0
 11
32.1251527971821
 21
11.20260611665128
 31
0.0
 11
32.12431946384878
 21
11.19461789003873
 31
0.0
 11
32.12348613051546
 21
11.18936955017773
 31
0.0
 11
32.1226527971821
 21
11.18695542571714
 31
0.0
 11
32.12236511923971
 21
11.18678593838774
 31
0.0
  0
SPLINE
  5
1B7
330
2
100
AcDbEntity
  8
GAIKEI
  6
Continuous
 62
     1
100
AcDbSpline
210
0.0
220
0.0
230
1.0
 70
     8
 71
     3
 72
    18
 73
    14
 74
    12
 42
0.0000000001
 43
0.0000000001
 44
0.000001
 12
-0.5844656576224157
 22
-0.8114184463394934
 32
0.0
 13
-0.0371796361214128
 23
-0.9993085983107919
 33
0.0
 40
0.0
 40
0.0
 40
0.0
 40
0.0
 40
0.0015785755412774
 40
0.0058611200296623
 40
0.0128957152542928
 40
0.0225825394405157
 40
0.034774656414279
 40
0.049277951075734
 40
0.0658578569835907
 40
0.0842512277853638
 40
0.1041564934094467
 40
0.1252572874194667
 40
0.1472100295646784
 40
0.1472100295646784
 40
0.1472100295646784
 40
0.1472100295646784
 10
32.10179230045092
 20
11.54178655433009
 30
0.0
 10
32.10148475938698
 20
11.54135959255905
 30
0.0
 10
32.10043534709368
 20
11.53967726687011
 30
0.0
 10
32.10012316981023
 20
11.53526145959057
 30
0.0
 10
32.09912347378818
 20
11.52839769355722
 30
0.0
 10
32.09841983974559
 20
11.51875100989065
 30
0.0
 10
32.09757174224072
 20
11.50666616548449
 30
0.0
 10
32.09676697060195
 20
11.49225861646363
 30
0.0
 10
32.09594151216814
 20
11.47578859339887
 30
0.0
 10
32.09511969328104
 20
11.45751366449838
 30
0.0
 10
32.09429424677033
 20
11.43773119628071
 30
0.0
 10
32.09346930331
 20
11.41676109216911
 30
0.0
 10
32.09292486217041
 20
11.40242025032176
 30
0.0
 10
32.09265279718213
 20
11.39510772899439
 30
0.0
 11
32.10179230045092
 21
11.54178655433009
 31
0.0
 11
32.10098613051542
 21
11.54042926325616
 31
0.0
 11
32.10015279718209
 21
11.5362287548595
 31
0.0
 11
32.09931946384879
 21
11.52924372362065
 31
0.0
 11
32.09848613051546
 21
11.51959282533983
 31
0.0
 11
32.09765279718209
 21
11.50742922943169
 31
0.0
 11
32.09681946384876
 21
11.49294990095779
 31
0.0
 11
32.09598613051546
 21
11.47639095441718
 31
0.0
 11
32.09515279718213
 21
11.45801647363521
 31
0.0
 11
32.09431946384877
 21
11.43812866152689
 31
0.0
 11
32.09348613051543
 21
11.41704433133418
 31
0.0
 11
32.09265279718213
 21
11.39510772899439
 31
0.0
  0
SPLINE
  5
1B8
330
2
100
AcDbEntity
  8
GAIKEI
  6
Continuous
 62
     1
100
AcDbSpline
210
0.0
220
0.0
230
1.0
 70
     8
 71
     3
 72
    18
 73
    14
 74
    12
 42
0.0000000001
 43
0.0000000001
 44
0.000001
 12
-0.5846562919338174
 22
-0.8112810982034519
 32
0.0
 13
-0.0371796361213846
 23
-0.9993085983107928
 33
0.0
 40
0.0
 40
0.0
 40
0.0
 40
0.0
 40
0.0015787525644896
 40
0.0058612971317876
 40
0.0128958923591858
 40
0.0225827165461054
 40
0.0347748335200628
 40
0.049278128181677
 40
0.0658580340895608
 40
0.0842514048913501
 40
0.1041566705154449
 40
0.125257464525417
 40
0.1472102067833257
 40
0.1472102067833257
 40
0.1472102067833257
 40
0.1472102067833257
 10
32.06179264024178
 20
11.54178655841508
 30
0.0
 10
32.06148496436836
 20
11.54135962104362
 30
0.0
 10
32.0604351685607
 20
11.53967742245658
 30
0.0
 10
32.06012328283842
 20
11.53526140116594
 30
0.0
 10
32.05912342274172
 20
11.52839772015574
 30
0.0
 10
32.05841985962119
 20
11.51875099972233
 30
0.0
 10
32.05757173526752
 20
11.50666616923331
 30
0.0
 10
32.05676697297493
 20
11.49225861536723
 30
0.0
 10
32.05594151147315
 20
11.47578859389239
 30
0.0
 10
32.05511969354923
 20
11.45751366449292
 30
0.0
 10
32.05429424674168
 20
11.43773119642657
 30
0.0
 10
32.05346930338763
 20
11.41676109223164
 30
0.0
 10
32.05292486217178
 20
11.40242025035934
 30
0.0
 10
32.05265279718211
 20
11.39510772899439
 30
0.0
 11
32.06179264024178
 21
11.54178655841508
 31
0.0
 11
32.06098613051546
 21
11.54042926325616
 31
0.0
 11
32.0601527971821
 21
11.5362287548595
 31
0.0
 11
32.05931946384877
 21
11.52924372362065
 31
0.0
 11
32.05848613051545
 21
11.51959282533983
 31
0.0
 11
32.05765279718213
 21
11.50742922943169
 31
0.0
 11
32.05681946384877
 21
11.49294990095779
 31
0.0
 11
32.05598613051544
 21
11.47639095441718
 31
0.0
 11
32.05515279718212
 21
11.45801647363521
 31
0.0
 11
32.05431946384874
 21
11.43812866152689
 31
0.0
 11
32.05348613051544
 21
11.41704433133418
 31
0.0
 11
32.05265279718211
 21
11.39510772899439
 31
0.0
  0
SPLINE
  5
1B9
330
2
100
AcDbEntity
  8
GAIKEI
  6
Continuous
 62
     1
100
AcDbSpline
210
0.0
220
0.0
230
1.0
 70
     8
 71
     3
 72
    16
 73
    12
 74
    10
 42
0.0000000001
 43
0.0000000001
 44
0.000001
 12
-0.7246933390181188
 22
0.6890715234159442
 32
0.0
 13
-0.0435589224551712
 23
0.999050859703621
 33
0.0
 40
0.0
 40
0.0
 40
0.0
 40
0.0
 40
0.0008245869742911
 40
0.0042427686756505
 40
0.0104169723952289
 40
0.0192855983072863
 40
0.030708923907168
 40
0.0445088940072642
 40
0.0604644486191661
 40
0.0783168924071152
 40
0.0828709020179652
 40
0.0828709020179652
 40
0.0828709020179652
 40
0.0828709020179652
 10
32.08236537932089
 20
11.18678593733932
 30
0.0
 10
32.08216618842499
 20
11.18697533714015
 30
0.0
 10
32.08118546961035
 20
11.18803223641197
 30
0.0
 10
32.08097490781503
 20
11.19174373822233
 30
0.0
 10
32.07991461161396
 20
11.19766275001666
 30
0.0
 10
32.07925679835943
 20
11.2065367119269
 30
0.0
 10
32.0783943891399
 20
11.21783818992298
 30
0.0
 10
32.07759734170458
 20
11.2315525337105
 30
0.0
 10
32.07677139575967
 20
11.24739667884188
 30
0.0
 10
32.07617854842859
 20
11.26017133637827
 30
0.0
 10
32.07585150347735
 20
11.2676329224592
 30
0.0
 10
32.07578538089352
 20
11.26914948486478
 30
0.0
 11
32.08236537932089
 21
11.18678593733932
 31
0.0
 11
32.08181946384876
 21
11.18740406885979
 31
0.0
 11
32.08098613051544
 21
11.19071886031167
 31
0.0
 11
32.08015279718211
 21
11.19683652996468
 31
0.0
 11
32.07931946384875
 21
11.20566590037157
 31
0.0
 11
32.07848613051543
 21
11.21705878019963
 31
0.0
 11
32.07765279718211
 21
11.23083356046447
 31
0.0
 11
32.07681946384878
 21
11.24676733448552
 31
0.0
 11
32.07598613051542
 21
11.26460031470674
 31
0.0
 11
32.07578538089352
 21
11.26914948486478
 31
0.0
  0
SPLINE
  5
1BA
330
2
100
AcDbEntity
  8
GAIKEI
  6
Continuous
 62
     1
100
AcDbSpline
210
0.0
220
0.0
230
1.0
 70
     8
 71
     3
 72
    11
 73
     7
 74
     5
 42
0.0000000001
 43
0.0000000001
 44
0.000001
 12
-0.5697183474044964
 22
0.8218400115780987
 32
0.0
 13
-0.725838196782078
 23
0.6878654752872409
 33
0.0
 40
0.0
 40
0.0
 40
0.0
 40
0.0
 40
0.0271269143005002
 40
0.0541651219876256
 40
0.0813877632111755
 40
0.092755766141198
 40
0.092755766141198
 40
0.092755766141198
 40
0.092755766141198
 10
32.01067487447768
 20
6.527561568716748
 30
0.0
 10
32.00552330754919
 20
6.534992896570997
 30
0.0
 10
31.99477180336794
 20
6.549515852630179
 30
0.0
 10
31.97726187930421
 20
6.570258593376593
 30
0.0
 10
31.96218163539405
 20
6.586125043469792
 30
0.0
 10
31.95294988709534
 20
6.595084451892546
 30
0.0
 10
31.95019944351276
 20
6.59769100413871
 30
0.0
 11
32.01067487447768
 21
6.527561568716748
 31
0.0
 11
31.99452859118202
 21
6.549360313516103
 31
0.0
 11
31.97710456325026
 21
6.570036023503178
 31
0.0
 11
31.95835623384596
 21
6.589773744051342
 31
0.0
 11
31.95019944351276
 21
6.59769100413871
 31
0.0
  0
SPLINE
  5
1BB
330
2
100
AcDbEntity
  8
GAIKEI
  6
Continuous
 62
     1
100
AcDbSpline
210
0.0
220
0.0
230
1.0
 70
     8
 71
     3
 72
    11
 73
     7
 74
     5
 42
0.0000000001
 43
0.0000000001
 44
0.000001
 12
0.7261327727615202
 22
0.6875545042552385
 32
0.0
 13
0.5694961259181754
 23
0.8219940161364862
 33
0.0
 40
0.0
 40
0.0
 40
0.0
 40
0.0
 40
0.0216057200347222
 40
0.0445668898279812
 40
0.0685149071729425
 40
0.0928153822368483
 40
0.0928153822368483
 40
0.0928153822368483
 40
0.0928153822368483
 10
31.95015798512992
 20
-8.054159954863905
 30
0.0
 10
31.95538752559536
 20
-8.049208251488039
 30
0.0
 10
31.96594207251143
 20
-8.038745503379402
 30
0.0
 10
31.9813931690296
 20
-8.021915200972216
 30
0.0
 10
31.99652856468511
 20
-8.003615180418876
 30
0.0
 10
32.00606186567538
 20
-7.990649495496938
 30
0.0
 10
32.01067487447768
 20
-7.983991213799697
 30
0.0
 11
31.95015798512992
 21
-8.054159954863905
 31
0.0
 11
31.96550169341569
 21
-8.038949337966755
 31
0.0
 11
31.98102455971918
 21
-8.022031071942592
 31
0.0
 11
31.99627633283386
 21
-8.003567084854125
 31
0.0
 11
32.01067487447768
 21
-7.983991213799697
 31
0.0
  0
SPLINE
  5
1BC
330
2
100
AcDbEntity
  8
GAIKEI
  6
Continuous
 62
     1
100
AcDbSpline
210
0.0
220
0.0
230
1.0
 70
     8
 71
     3
 72
    11
 73
     7
 74
     5
 42
0.0000000001
 43
0.0000000001
 44
0.000001
 12
0.7261327727614697
 22
0.6875545042552915
 32
0.0
 13
0.5694961259186093
 23
0.8219940161361854
 33
0.0
 40
0.0
 40
0.0
 40
0.0
 40
0.0
 40
0.0216057200346422
 40
0.0445668898279849
 40
0.0685149071729024
 40
0.092815382236854
 40
0.092815382236854
 40
0.092815382236854
 40
0.092815382236854
 10
31.95015798512992
 20
5.380840045136096
 30
0.0
 10
31.95538752559534
 20
5.385791748511906
 30
0.0
 10
31.96594207251151
 20
5.396254496620485
 30
0.0
 10
31.98139316902955
 20
5.413084799027842
 30
0.0
 10
31.99652856468518
 20
5.431384819581126
 30
0.0
 10
32.00606186567538
 20
5.444350504503006
 30
0.0
 10
32.01067487447768
 20
5.451008786200304
 30
0.0
 11
31.95015798512992
 21
5.380840045136096
 31
0.0
 11
31.96550169341569
 21
5.396050662033189
 31
0.0
 11
31.98102455971918
 21
5.412968928057409
 31
0.0
 11
31.99627633283386
 21
5.431432915145819
 31
0.0
 11
32.01067487447768
 21
5.451008786200304
 31
0.0
  0
SPLINE
  5
1BD
330
2
100
AcDbEntity
  8
GAIKEI
  6
Continuous
 62
     1
100
AcDbSpline
210
0.0
220
0.0
230
1.0
 70
     8
 71
     3
 72
    11
 73
     7
 74
     5
 42
0.0000000001
 43
0.0000000001
 44
0.000001
 12
-0.5697183474043875
 22
0.8218400115781744
 32
0.0
 13
-0.7258381967822672
 23
0.6878654752870411
 33
0.0
 40
0.0
 40
0.0
 40
0.0
 40
0.0
 40
0.0271269143005459
 40
0.0541651219876278
 40
0.0813877632111777
 40
0.0927557661412398
 40
0.0927557661412398
 40
0.0927557661412398
 40
0.0927557661412398
 10
32.01067487447768
 20
-6.907438431283253
 30
0.0
 10
32.00552330754919
 20
-6.900007103428947
 30
0.0
 10
31.99477180336797
 20
-6.885484147369766
 30
0.0
 10
31.97726187930419
 20
-6.864741406623352
 30
0.0
 10
31.96218163539403
 20
-6.848874956530323
 30
0.0
 10
31.95294988709534
 20
-6.839915548107398
 30
0.0
 10
31.95019944351276
 20
-6.837308995861235
 30
0.0
 11
32.01067487447768
 21
-6.907438431283253
 31
0.0
 11
31.99452859118202
 21
-6.885639686483841
 31
0.0
 11
31.97710456325026
 21
-6.864963976496824
 31
0.0
 11
31.95835623384596
 21
-6.845226255948659
 31
0.0
 11
31.95019944351276
 21
-6.837308995861235
 31
0.0
  0
SPLINE
  5
1BE
330
2
100
AcDbEntity
  8
GAIKEI
  6
Continuous
 62
     1
100
AcDbSpline
210
0.0
220
0.0
230
1.0
 70
     8
 71
     3
 72
    13
 73
     9
 74
     7
 42
0.0000000001
 43
0.0000000001
 44
0.000001
 12
-0.3556040416314752
 22
0.9346367024546809
 32
0.0
 13
-0.4792288571630963
 23
0.8776899808372844
 33
0.0
 40
0.0
 40
0.0
 40
0.0
 40
0.0
 40
0.0009841552556807
 40
0.0341752847052409
 40
0.072450229555922
 40
0.110709870812978
 40
0.1490911211199517
 40
0.1874325864602751
 40
0.1874325864602751
 40
0.1874325864602751
 40
0.1874325864602751
 10
32.08567487447749
 20
-7.079051993414793
 30
0.0
 10
32.08555821794866
 20
-7.078745384207195
 30
0.0
 10
32.08150688914461
 20
-7.068098367570769
 30
0.0
 10
32.07285450227434
 20
-7.045551348470382
 30
0.0
 10
32.05937147507893
 20
-7.011549966760526
 30
0.0
 10
32.04448818270103
 20
-6.976250934390975
 30
0.0
 10
32.02857373712131
 20
-6.941372341941359
 30
0.0
 10
32.01679965335001
 20
-6.918655737943197
 30
0.0
 10
32.01067487447768
 20
-6.907438431283253
 30
0.0
 11
32.08567487447749
 21
-7.079051993414793
 31
0.0
 11
32.08532481620702
 21
-7.078132218212829
 31
0.0
 11
32.07340787727478
 21
-7.047154839570396
 31
0.0
 11
32.05924229604693
 21
-7.011597925095998
 31
0.0
 11
32.04433442420847
 21
-6.976362461265864
 31
0.0
 11
32.02828015949601
 21
-6.941499412643224
 31
0.0
 11
32.01067487447768
 21
-6.907438431283253
 31
0.0
  0
SPLINE
  5
1BF
330
2
100
AcDbEntity
  8
GAIKEI
  6
Continuous
 62
     1
100
AcDbSpline
210
0.0
220
0.0
230
1.0
 70
     8
 71
     3
 72
    13
 73
     9
 74
     7
 42
0.0000000001
 43
0.0000000001
 44
0.000001
 12
-0.355604041378737
 22
0.9346367025508412
 32
0.0
 13
-0.4792288571631189
 23
0.877689980837272
 33
0.0
 40
0.0
 40
0.0
 40
0.0
 40
0.0
 40
0.000984155255696
 40
0.0341752847051429
 40
0.0724502295558293
 40
0.1107098708129955
 40
0.1490911211199593
 40
0.1874325864602826
 40
0.1874325864602826
 40
0.1874325864602826
 40
0.1874325864602826
 10
32.08567487447749
 20
6.355948006585208
 30
0.0
 10
32.08555821794873
 20
6.356254615792863
 30
0.0
 10
32.08150688914813
 20
6.366901632430824
 30
0.0
 10
32.07285450227265
 20
6.389448651528709
 30
0.0
 10
32.05937147507956
 20
6.423450033239703
 30
0.0
 10
32.04448818270105
 20
6.458749065609083
 30
0.0
 10
32.02857373712129
 20
6.493627658058528
 30
0.0
 10
32.01679965335001
 20
6.516344262056804
 30
0.0
 10
32.01067487447768
 20
6.527561568716748
 30
0.0
 11
32.08567487447749
 21
6.355948006585208
 31
0.0
 11
32.08532481620728
 21
6.356867781787229
 31
0.0
 11
32.07340787727478
 21
6.387845160429606
 31
0.0
 11
32.05924229604693
 21
6.423402074904004
 31
0.0
 11
32.04433442420847
 21
6.458637538734137
 31
0.0
 11
32.02828015949601
 21
6.493500587356777
 31
0.0
 11
32.01067487447768
 21
6.527561568716748
 31
0.0
  0
SPLINE
  5
1C0
330
2
100
AcDbEntity
  8
GAIKEI
  6
Continuous
 62
     1
100
AcDbSpline
210
0.0
220
0.0
230
1.0
 70
     8
 71
     3
 72
    12
 73
     8
 74
     6
 42
0.0000000001
 43
0.0000000001
 44
0.000001
 12
0.4769591228668367
 22
0.8789254775657024
 32
0.0
 13
0.355593553261721
 23
0.9346406929289477
 33
0.0
 40
0.0
 40
0.0
 40
0.0
 40
0.0
 40
0.0463485371772527
 40
0.0928814443548106
 40
0.1396449289866773
 40
0.1864441356849462
 40
0.1874282895021767
 40
0.1874282895021767
 40
0.1874282895021767
 40
0.1874282895021767
 10
32.01067487447768
 20
-7.983991213799697
 30
0.0
 10
32.01804366035708
 20
-7.970412243742032
 30
0.0
 10
32.03216333569861
 20
-7.942837377320984
 30
0.0
 10
32.0509874702762
 20
-7.900248104877505
 30
0.0
 10
32.06857750729634
 20
-7.856985982251785
 30
0.0
 10
32.0798935355119
 20
-7.827570683497299
 30
0.0
 10
32.08555822155988
 20
-7.812684261736706
 30
0.0
 10
32.08567487447749
 20
-7.812377651668157
 30
0.0
 11
32.01067487447768
 21
-7.983991213799697
 31
0.0
 11
32.03173805827515
 21
-7.942704974243099
 31
0.0
 11
32.05074276947931
 21
-7.900229277488904
 31
0.0
 11
32.06843590954382
 21
-7.856941921963084
 31
0.0
 11
32.08532481616845
 21
-7.813297426853694
 31
0.0
 11
32.08567487447749
 21
-7.812377651668157
 31
0.0
  0
SPLINE
  5
1C1
330
2
100
AcDbEntity
  8
GAIKEI
  6
Continuous
 62
     1
100
AcDbSpline
210
0.0
220
0.0
230
1.0
 70
     8
 71
     3
 72
    12
 73
     8
 74
     6
 42
0.0000000001
 43
0.0000000001
 44
0.000001
 12
0.4769591228667053
 22
0.8789254775657735
 32
0.0
 13
0.3555935529301539
 23
0.9346406930550958
 33
0.0
 40
0.0
 40
0.0
 40
0.0
 40
0.0
 40
0.0463485371772527
 40
0.09288144435473
 40
0.1396449289868256
 40
0.186444135684968
 40
0.1874282895021885
 40
0.1874282895021885
 40
0.1874282895021885
 40
0.1874282895021885
 10
32.01067487447768
 20
5.451008786200304
 30
0.0
 10
32.01804366035708
 20
5.464587756257969
 30
0.0
 10
32.03216333569844
 20
5.492162622679074
 30
0.0
 10
32.05098747027681
 20
5.534751895122212
 30
0.0
 10
32.06857750729466
 20
5.578014017749183
 30
0.0
 10
32.07989353551686
 20
5.607429316500429
 30
0.0
 10
32.08555822155999
 20
5.622315738263239
 30
0.0
 10
32.08567487447749
 20
5.622622348331844
 30
0.0
 11
32.01067487447768
 21
5.451008786200304
 31
0.0
 11
32.03173805827515
 21
5.492295025756902
 31
0.0
 11
32.05074276947931
 21
5.534770722511098
 31
0.0
 11
32.06843590954382
 21
5.578058078036974
 31
0.0
 11
32.08532481616876
 21
5.621702573146194
 31
0.0
 11
32.08567487447749
 21
5.622622348331844
 31
0.0
  0
SPLINE
  5
1C2
330
2
100
AcDbEntity
  8
GAIKEI
  6
Continuous
 62
     1
100
AcDbSpline
210
0.0
220
0.0
230
1.0
 70
     8
 71
     3
 72
    30
 73
    26
 74
    24
 42
0.0000000001
 43
0.0000000001
 44
0.000001
 12
-0.0200236380412519
 22
-0.9997995068610471
 32
0.0
 13
0.6382126117635996
 23
-0.7698601575519316
 33
0.0
 40
0.0
 40
0.0
 40
0.0
 40
0.0
 40
0.0166069238216534
 40
0.037301078554888
 40
0.0621612230433223
 40
0.0912321347745792
 40
0.1271247647505298
 40
0.1661149835441988
 40
0.1996843709300523
 40
0.2075830122509956
 40
0.2151115874076587
 40
0.2222706400799754
 40
0.2290608027015228
 40
0.2354828166742133
 40
0.2415375586177529
 40
0.269538212107097
 40
0.2966935088714161
 40
0.3230613834754922
 40
0.3487051081642353
 40
0.3736934566497212
 40
0.3981007431757856
 40
0.4408164956220493
 40
0.4807239607647317
 40
0.5184525715331189
 40
0.5547443344004014
 40
0.5547443344004014
 40
0.5547443344004014
 40
0.5547443344004014
 10
33.57642621630308
 20
-10.35480495172237
 30
0.0
 10
33.57631537262589
 20
-10.36033948313815
 30
0.0
 10
33.57568695026197
 20
-10.37277164454895
 30
0.0
 10
33.57282058427792
 20
-10.39331109875638
 30
0.0
 10
33.56833288126751
 20
-10.4177807003229
 30
0.0
 10
33.56187527830871
 20
-10.44702392487727
 30
0.0
 10
33.55348597383383
 20
-10.4806451106208
 30
0.0
 10
33.54540341966049
 20
-10.51588295677493
 30
0.0
 10
33.53988177329546
 20
-10.54213057655084
 30
0.0
 10
33.53682013535817
 20
-10.55817342604405
 30
0.0
 10
33.53546854472542
 20
-10.56557995424879
 30
0.0
 10
33.53424576800541
 20
-10.57263413503523
 30
0.0
 10
33.53315258049491
 20
-10.57933607529941
 30
0.0
 10
33.53218623361356
 20
-10.58568545680685
 30
0.0
 10
33.53033617999108
 20
-10.59905067321733
 30
0.0
 10
33.52810215968711
 20
-10.61933924413273
 30
0.0
 10
33.526307419582
 20
-10.64646342570222
 30
0.0
 10
33.52582696814547
 20
-10.67285894005062
 30
0.0
 10
33.52665227978503
 20
-10.69852334149129
 30
0.0
 10
33.52878229374579
 20
-10.72345922380509
 30
0.0
 10
33.53311905390807
 20
-10.75386764926389
 30
0.0
 10
33.54092031217806
 20
-10.78875916456485
 30
0.0
 10
33.5542347180137
 20
-10.82670978456616
 30
0.0
 10
33.57148749445662
 20
-10.86068538605212
 30
0.0
 10
33.58594642592318
 20
-10.88080880832211
 30
0.0
 10
33.5936670461782
 20
-10.89012200241507
 30
0.0
 11
33.57642621630308
 21
-10.35480495172237
 31
0.0
 11
33.57553847004849
 21
-10.37138793331479
 31
0.0
 11
33.57287988146715
 21
-10.39191056999436
 31
0.0
 11
33.56845045055903
 21
-10.41637286176103
 31
0.0
 11
33.56225017732413
 21
-10.44477480861491
 31
0.0
 11
33.55384132332026
 21
-10.47966846189473
 31
0.0
 11
33.54512217179345
 21
-10.51767119785268
 31
0.0
 11
33.53828611849768
 21
-10.55053711609639
 31
0.0
 11
33.53680690450207
 21
-10.55829600037356
 31
0.0
 11
33.53545685994297
 21
-10.56570252924064
 31
0.0
 11
33.53423598482027
 21
-10.57275670269757
 31
0.0
 11
33.53314427913412
 21
-10.57945852074442
 31
0.0
 11
33.53218174288446
 21
-10.58580798338119
 31
0.0
 11
33.53134837607127
 21
-10.5918050906078
 31
0.0
 11
33.52827643025691
 21
-10.61963668205737
 31
0.0
 11
33.52650907184658
 21
-10.64673436836517
 31
0.0
 11
33.52604630084031
 21
-10.67309814953125
 31
0.0
 11
33.52688811723806
 21
-10.69872802555551
 31
0.0
 11
33.52903452103987
 21
-10.72362399643799
 31
0.0
 11
33.5324855122457
 21
-10.74778606217865
 31
0.0
 11
33.54195791853013
 21
-10.7894382860286
 31
0.0
 11
33.5553123096137
 21
-10.82704501735128
 31
0.0
 11
33.5725486854964
 21
-10.86060625614675
 31
0.0
 11
33.5936670461782
 21
-10.89012200241507
 31
0.0
  0
SPLINE
  5
1C3
330
2
100
AcDbEntity
  8
GAIKEI
  6
Continuous
 62
     1
100
AcDbSpline
210
0.0
220
0.0
230
1.0
 70
     8
 71
     3
 72
    27
 73
    23
 74
    21
 42
0.0000000001
 43
0.0000000001
 44
0.000001
 12
-0.3587289631765114
 22
-0.9334417662491352
 32
0.0
 13
-0.3043867708718783
 23
-0.952548525650106
 33
0.0
 40
0.0
 40
0.0
 40
0.0
 40
0.0
 40
0.0000527653160561
 40
0.0137452944832407
 40
0.02778487269604
 40
0.0420904152000339
 40
0.0621802894338721
 40
0.0825042457510262
 40
0.1029273041857615
 40
0.1204407067947538
 40
0.1390172120262769
 40
0.1586623151565334
 40
0.1727209773581225
 40
0.188139710500529
 40
0.2049363464391738
 40
0.2220007426194981
 40
0.2384281114963444
 40
0.2550330349711458
 40
0.2718074234065375
 40
0.3201416250121607
 40
0.3656184092027612
 40
0.4082186707019581
 40
0.4082186707019581
 40
0.4082186707019581
 40
0.4082186707019581
 10
33.65514854352384
 20
7.079559009344677
 30
0.0
 10
33.65514223404146
 20
7.079542591561391
 30
0.0
 10
33.65349896021553
 20
7.075265651143354
 30
0.0
 10
33.65021805241985
 20
7.066604416235747
 30
0.0
 10
33.64541028508098
 20
7.05344205573931
 30
0.0
 10
33.64008212178895
 20
7.038200983088643
 30
0.0
 10
33.63445306439535
 20
7.020848482112114
 30
0.0
 10
33.62884289722838
 20
7.001356740280129
 30
0.0
 10
33.62416894685552
 20
6.982501640251939
 30
0.0
 10
33.62037324166073
 20
6.964046396769163
 30
0.0
 10
33.61722773050266
 20
6.945733388820372
 30
0.0
 10
33.61477714778459
 20
6.928477373950727
 30
0.0
 10
33.61283894879557
 20
6.912217700282724
 30
0.0
 10
33.61122085848081
 20
6.896877795642865
 30
0.0
 10
33.60965284727925
 20
6.880526017395141
 30
0.0
 10
33.60817491083373
 20
6.863828450097514
 30
0.0
 10
33.60663342032316
 20
6.847200833207296
 30
0.0
 10
33.60503793226681
 20
6.83067531606872
 30
0.0
 10
33.60245830414958
 20
6.803560648629115
 30
0.0
 10
33.59774232816952
 20
6.766974941626472
 30
0.0
 10
33.58871452868733
 20
6.722367624358867
 30
0.0
 10
33.58074853498175
 20
6.694079398281417
 30
0.0
 10
33.57642621630308
 20
6.680553126186964
 30
0.0
 11
33.65514854352384
 21
7.079559009344677
 31
0.0
 11
33.6551296159099
 21
7.079509755282515
 31
0.0
 11
33.65028316251528
 21
7.066703433147608
 31
0.0
 11
33.64547005047075
 21
7.053514654277933
 31
0.0
 11
33.64075990452085
 21
7.040006758047525
 31
0.0
 11
33.63458256562754
 21
7.020890167157915
 31
0.0
 11
33.62897260724344
 21
7.001355783145072
 31
0.0
 11
33.62407811901277
 21
6.981527876270433
 31
0.0
 11
33.62053483014594
 21
6.964376643669595
 31
0.0
 11
33.61737338521403
 21
6.946071120983162
 31
0.0
 11
33.61459923052346
 21
6.926622873048188
 31
0.0
 11
33.61292171625056
 21
6.912664652166199
 31
0.0
 11
33.61129128534263
 21
6.897332369392358
 31
0.0
 11
33.60968061589165
 21
6.880613148162467
 31
0.0
 11
33.60814319155125
 21
6.863618170125505
 31
0.0
 11
33.60662757790107
 21
6.847260895303406
 31
0.0
 11
33.6050462204517
 21
6.830731486452179
 31
0.0
 11
33.60340579724981
 21
6.814037585869868
 31
0.0
 11
33.59703466060165
 21
6.766125954223582
 31
0.0
 11
33.58795540611655
 21
6.721564160436059
 31
0.0
 11
33.57642621630308
 21
6.680553126186964
 31
0.0
  0
SPLINE
  5
1C4
330
2
100
AcDbEntity
  8
GAIKEI
  6
Continuous
 62
     1
100
AcDbSpline
210
0.0
220
0.0
230
1.0
 70
     8
 71
     3
 72
    23
 73
    19
 74
    17
 42
0.0000000001
 43
0.0000000001
 44
0.000001
 12
0.1037512493360999
 22
-0.9946032768200588
 32
0.0
 13
-0.9066396789115103
 23
-0.4219057864301387
 33
0.0
 40
0.0
 40
0.0
 40
0.0
 40
0.0
 40
0.0607026110801326
 40
0.1185986751946622
 40
0.1736064872697786
 40
0.225649077979165
 40
0.274657415256655
 40
0.3205734925395038
 40
0.3633544662868911
 40
0.4029783719658731
 40
0.4389238356324564
 40
0.4721139622826166
 40
0.502597461664104
 40
0.5304770080022355
 40
0.5559339520156136
 40
0.5792613998136735
 40
0.6009024388063763
 40
0.6214788907307539
 40
0.6214788907307539
 40
0.6214788907307539
 40
0.6214788907307539
 10
33.98597978158588
 20
8.088171149733057
 30
0.0
 10
33.98807910549839
 20
8.068046144435754
 30
0.0
 10
33.99168710595737
 20
8.028673730910895
 30
0.0
 10
33.99562921639994
 20
7.970933932360708
 30
0.0
 10
33.99794054540453
 20
7.91599347176151
 30
0.0
 10
33.99865480386292
 20
7.863971156853324
 30
0.0
 10
33.99778177374654
 20
7.814980832512219
 30
0.0
 10
33.99533072552811
 20
7.769133455366841
 30
0.0
 10
33.99130363143547
 20
7.726536128235977
 30
0.0
 10
33.98572454420612
 20
7.687464551193556
 30
0.0
 10
33.97858856927424
 20
7.651898574348933
 30
0.0
 10
33.96995631415612
 20
7.619805884847437
 30
0.0
 10
33.95978878886871
 20
7.590993969633473
 30
0.0
 10
33.94809155339007
 20
7.565569233159862
 30
0.0
 10
33.93485950250056
 20
7.543629582014716
 30
0.0
 10
33.92004664326561
 20
7.525310889542197
 30
0.0
 10
33.90364883310571
 20
7.510683614118647
 30
0.0
 10
33.89136902437744
 20
7.503597654191992
 30
0.0
 10
33.88515054845548
 20
7.500703879481648
 30
0.0
 11
33.98597978158588
 21
8.088171149733057
 31
0.0
 11
33.99153216937089
 21
8.02772384639411
 31
0.0
 11
33.99543606401014
 21
7.969959561801829
 31
0.0
 11
33.99771479343395
 21
7.914998978243033
 31
0.0
 11
33.99838622339277
 21
7.86296072904355
 31
0.0
 11
33.99746278185045
 21
7.813961103964061
 31
0.0
 11
33.99495149806458
 21
7.768113766084809
 31
0.0
 11
33.99085405594383
 21
7.725529480753777
 31
0.0
 11
33.98516686124123
 21
7.686315857125123
 31
0.0
 11
33.97801409315071
 21
7.651089265455595
 31
0.0
 11
33.96929915052934
 21
7.619063766221927
 31
0.0
 11
33.95904550194733
 21
7.590356545714996
 31
0.0
 11
33.94727154786034
 21
7.565085200568432
 31
0.0
 11
33.93399038786672
 21
7.543367370461339
 31
0.0
 11
33.91920959759665
 21
7.525320355580277
 31
0.0
 11
33.90293101657909
 21
7.511060719654892
 31
0.0
 11
33.88515054845548
 21
7.500703879481648
 31
0.0
  0
SPLINE
  5
1C5
330
2
100
AcDbEntity
  8
GAIKEI
  6
Continuous
 62
     1
100
AcDbSpline
210
0.0
220
0.0
230
1.0
 70
     8
 71
     3
 72
    13
 73
     9
 74
     7
 42
0.0000000001
 43
0.0000000001
 44
0.000001
 12
-0.9958439311814659
 22
-0.091076147969947
 32
0.0
 13
-0.9929680145434634
 23
-0.1183829468023682
 33
0.0
 40
0.0
 40
0.0
 40
0.0
 40
0.0
 40
0.2790849670557549
 40
0.4824077539591704
 40
0.6857426128006058
 40
0.8891214813044779
 40
1.092568902581033
 40
1.13206428138868
 40
1.13206428138868
 40
1.13206428138868
 40
1.13206428138868
 10
33.76722842979944
 20
-14.47836237892852
 30
0.0
 10
33.6745867395573
 20
-14.48683504018044
 30
0.0
 10
33.51449144302904
 20
-14.50190982745096
 30
0.0
 10
33.28701216499187
 20
-14.52432928865988
 30
0.0
 10
33.0847387070933
 20
-14.54519022100965
 30
0.0
 10
32.88253249827662
 20
-14.56708366169869
 30
0.0
 10
32.73472054765631
 20
-14.58398531816925
 30
0.0
 10
32.65430302752208
 20
-14.59352135058651
 30
0.0
 10
32.64123047822932
 20
-14.59507987702926
 30
0.0
 11
33.76722842979944
 21
-14.47836237892852
 31
0.0
 11
33.48937123866472
 21
-14.50451156386583
 31
0.0
 11
33.28703165941206
 21
-14.52448262541628
 31
0.0
 11
33.08477154844656
 21
-14.54536101509904
 31
0.0
 11
32.88257775911626
 21
-14.56728424654926
 31
0.0
 11
32.68045124185344
 21
-14.59042977698629
 31
0.0
 11
32.64123047822932
 21
-14.59507987702926
 31
0.0
  0
SPLINE
  5
1C6
330
2
100
AcDbEntity
  8
GAIKEI
  6
Continuous
 62
     1
100
AcDbSpline
210
0.0
220
0.0
230
1.0
 70
     8
 71
     3
 72
    15
 73
    11
 74
     9
 42
0.0000000001
 43
0.0000000001
 44
0.000001
 12
0.1151974769613444
 22
0.9933426102316062
 32
0.0
 13
-0.8415501913672635
 23
0.5401789290686208
 33
0.0
 40
0.0
 40
0.0
 40
0.0
 40
0.0
 40
0.039408496347878
 40
0.0771399072617702
 40
0.1117967484186539
 40
0.1420880407746827
 40
0.1668916500996791
 40
0.1853241616436924
 40
0.1968791077613752
 40
0.2022733320265095
 40
0.2022733320265095
 40
0.2022733320265095
 40
0.2022733320265095
 10
29.87471920645461
 20
14.0516836597485
 30
0.0
 10
29.87623245957131
 20
14.06473237262435
 30
0.0
 10
29.87884371381644
 20
14.09031906603832
 30
0.0
 10
29.88159658209071
 20
14.12747747920201
 30
0.0
 10
29.88330658206538
 20
14.16169438090594
 30
0.0
 10
29.88380810000052
 20
14.19152727786809
 30
0.0
 10
29.8837127208915
 20
14.21626958953641
 30
0.0
 10
29.881601883629
 20
14.2339517281631
 30
0.0
 10
29.88079692001347
 20
14.2466310261716
 30
0.0
 10
29.87623237660877
 20
14.25043828460388
 30
0.0
 10
29.87471920645457
 20
14.25140956669946
 30
0.0
 11
29.87471920645461
 21
14.0516836597485
 31
0.0
 11
29.87871387508926
 21
14.09088855183921
 31
0.0
 11
29.88151470013458
 21
14.12851586010464
 31
0.0
 11
29.88317380547974
 21
14.1631329566789
 31
0.0
 11
29.88372327399498
 21
14.19341925049133
 31
0.0
 11
29.88317392079789
 21
14.21821674960523
 31
0.0
 11
29.88151488111066
 21
14.23657439070342
 31
0.0
 11
29.87871402836996
 21
14.24778443911265
 31
0.0
 11
29.87471920645457
 21
14.25140956669946
 31
0.0
  0
SPLINE
  5
1C7
330
2
100
AcDbEntity
  8
GAIKEI
  6
Continuous
 62
     1
100
AcDbSpline
210
0.0
220
0.0
230
1.0
 70
     8
 71
     3
 72
    11
 73
     7
 74
     5
 42
0.0000000001
 43
0.0000000001
 44
0.000001
 12
-0.9272724310398604
 22
-0.3743872842838379
 32
0.0
 13
-0.8850743362206914
 23
-0.465449695846396
 33
0.0
 40
0.0
 40
0.0
 40
0.0
 40
0.0
 40
0.0143995265550779
 40
0.0364303848129551
 40
0.0543525889738857
 40
0.0655662738736249
 40
0.0655662738736249
 40
0.0655662738736249
 40
0.0655662738736249
 10
29.87471920645461
 20
14.0516836597485
 30
0.0
 10
29.8702684451231
 20
14.04988665986786
 30
0.0
 10
29.85913070881665
 20
14.04502233656592
 30
0.0
 10
29.84318692465848
 20
14.03637092900783
 30
0.0
 10
29.82863079667168
 20
14.0274779590859
 30
0.0
 10
29.82006929666852
 20
14.02288574063272
 30
0.0
 10
29.81676098176212
 20
14.02114593855742
 30
0.0
 11
29.87471920645461
 21
14.0516836597485
 31
0.0
 11
29.86153375225126
 21
14.04589615307458
 31
0.0
 11
29.84208867865277
 21
14.03553999993164
 31
0.0
 11
29.82661938606438
 21
14.02648951698478
 31
0.0
 11
29.81676098176212
 21
14.02114593855742
 31
0.0
  0
SPLINE
  5
1C8
330
2
100
AcDbEntity
  8
GAIKEI
  6
Continuous
 62
     1
100
AcDbSpline
210
0.0
220
0.0
230
1.0
 70
     8
 71
     3
 72
    19
 73
    15
 74
    13
 42
0.0000000001
 43
0.0000000001
 44
0.000001
 12
-0.4537847692220346
 22
-0.891111319208832
 32
0.0
 13
0.0558661521317871
 23
-0.9984382670180405
 33
0.0
 40
0.0
 40
0.0
 40
0.0
 40
0.0
 40
0.0058433329848587
 40
0.0115431011623097
 40
0.0191493870676902
 40
0.0323458963040323
 40
0.0491681393601961
 40
0.0697806678864628
 40
0.0924149932145815
 40
0.114987861298647
 40
0.1372182372399837
 40
0.153517971264821
 40
0.1694067174933836
 40
0.1997454480061217
 40
0.1997454480061217
 40
0.1997454480061217
 40
0.1997454480061217
 10
29.81676098176212
 20
14.21888500969339
 30
0.0
 10
29.81587710992544
 20
14.2171493229718
 30
0.0
 10
29.81428391800466
 20
14.21363598293101
 30
0.0
 10
29.81233764503521
 20
14.20754975657712
 30
0.0
 10
29.81004499533654
 20
14.1990158182553
 30
0.0
 10
29.80767156739856
 20
14.18668539411896
 30
0.0
 10
29.80573837436114
 20
14.16990405006049
 30
0.0
 10
29.80501434577727
 20
14.14987156643457
 30
0.0
 10
29.80588572245775
 20
14.12793306621245
 30
0.0
 10
29.80792948457487
 20
14.10554191792738
 30
0.0
 10
29.81034086225577
 20
14.0853167545431
 30
0.0
 10
29.81256637514551
 20
14.06731442271803
 30
0.0
 10
29.81500936476866
 20
14.0466148334678
 30
0.0
 10
29.81619601238401
 20
14.03124305506293
 30
0.0
 10
29.81676098176212
 20
14.02114593855737
 30
0.0
 11
29.81676098176212
 21
14.21888500969339
 31
0.0
 11
29.81437251587508
 21
14.21355184902671
 31
0.0
 11
29.81256918659574
 21
14.20814495118174
 31
0.0
 11
29.81059456814551
 21
14.20079944515589
 31
0.0
 11
29.80804554846045
 21
14.18785143671073
 31
0.0
 11
29.8060814091014
 21
14.17114422067863
 31
0.0
 11
29.80528796897261
 21
14.15054693833633
 31
0.0
 11
29.80608071245119
 21
14.12792648697956
 31
0.0
 11
29.80804478163108
 21
14.10543923058446
 31
0.0
 11
29.81059405519653
 21
14.0833555254564
 31
0.0
 11
29.81256892589076
 21
14.06717590351417
 31
0.0
 11
29.8143724659988
 21
14.05138992038189
 31
0.0
 11
29.81676098176212
 21
14.02114593855737
 31
0.0
  0
TEXT
  5
1C9
330
2
100
AcDbEntity
  8
MOJI1
100
AcDbText
 10
-60.43959822858972
 20
-70.55890807680601
 30
0.0
 40
3.0
  1
質　量
100
AcDbText
  0
TEXT
  5
1CB
330
2
100
AcDbEntity
  8
MOJI1
100
AcDbText
 10
-21.43959822858972
 20
-70.55890807680601
 30
0.0
 40
3.0
  1
約２４．０ ｋｇ
100
AcDbText
  0
LINE
  5
1CC
330
2
100
AcDbEntity
  8
WAKU
 62
     1
100
AcDbLine
 10
-62.93959822858972
 20
-66.558908076806
 30
0.0
 11
62.06040177141005
 21
-66.558908076806
 31
0.0
  0
TEXT
  5
1CE
330
2
100
AcDbEntity
  8
MOJI1
100
AcDbText
 10
-60.43959822858972
 20
-60.55890807680601
 30
0.0
 40
3.0
  1
入出力端子
100
AcDbText
  0
LINE
  5
1CF
330
2
100
AcDbEntity
  8
WAKU
 62
     1
100
AcDbLine
 10
-62.93959822858972
 20
-61.558908076806
 30
0.0
 11
62.06040177141005
 21
-61.558908076806
 31
0.0
  0
TEXT
  5
1D0
330
2
100
AcDbEntity
  8
MOJI1
100
AcDbText
 10
-21.43959822858972
 20
-65.55890807680601
 30
0.0
 40
3.0
  1
ＤＶＩ入力、ＰＣ入力、ＬＡＮ、ＲＳ２３２Ｃ、スロット２．０
 41
0.7900000000000001
100
AcDbText
  0
LINE
  5
1D1
330
2
100
AcDbEntity
  8
WAKU
 62
     4
100
AcDbLine
 10
62.06040177141005
 20
-26.55890807680601
 30
0.0
 11
62.06040177141005
 21
-71.558908076806
 31
0.0
  0
TEXT
  5
1D2
330
2
100
AcDbEntity
  8
MOJI1
100
AcDbText
 10
-60.43959822858972
 20
-45.558908076806
 30
0.0
 40
3.0
  1
画素数
100
AcDbText
  0
TEXT
  5
1D3
330
2
100
AcDbEntity
  8
MOJI1
100
AcDbText
 10
-60.43959822858972
 20
-30.55890807680601
 30
0.0
 40
3.0
  1
電  源
100
AcDbText
  0
TEXT
  5
1D4
330
2
100
AcDbEntity
  8
MOJI1
100
AcDbText
 10
-60.43959822858972
 20
-35.55890807680601
 30
0.0
 40
3.0
  1
消費電力
100
AcDbText
  0
TEXT
  5
1D5
330
2
100
AcDbEntity
  8
MOJI1
100
AcDbText
 10
-60.43959822858972
 20
-55.55890807680601
 30
0.0
 40
3.0
  1
音声出力
100
AcDbText
  0
TEXT
  5
1D6
330
2
100
AcDbEntity
  8
MOJI1
100
AcDbText
 10
-60.43959822858972
 20
-50.55890807680601
 30
0.0
 40
3.0
  1
コントラスト
100
AcDbText
  0
TEXT
  5
1D7
330
2
100
AcDbEntity
  8
MOJI1
100
AcDbText
 10
-60.43959822858972
 20
-40.558908076806
 30
0.0
 40
3.0
  1
画面サイズ
100
AcDbText
  0
LINE
  5
1D8
330
2
100
AcDbEntity
  8
WAKU
 62
     4
100
AcDbLine
 10
-62.93959822858994
 20
-26.55890807680601
 30
0.0
 11
-62.93959822858972
 21
-71.558908076806
 31
0.0
  0
LINE
  5
1D9
330
2
100
AcDbEntity
  8
WAKU
 62
     4
100
AcDbLine
 10
-22.93959822858994
 20
-26.55890807680601
 30
0.0
 11
-22.93959822858994
 21
-71.558908076806
 31
0.0
  0
TEXT
  5
1DA
330
2
100
AcDbEntity
  8
MOJI1
100
AcDbText
 10
-21.43959822858972
 20
-60.55890807680601
 30
0.0
 40
3.0
  1
ビデオ入力、ＲＧＢ／コンポーネントビデオ入力、ＨＤＭＩ入力
 41
0.7800000000000001
100
AcDbText
  0
TEXT
  5
1DB
330
2
100
AcDbEntity
  8
MOJI1
100
AcDbText
 10
-21.43959822858972
 20
-30.55890807680601
 30
0.0
 40
3.0
  1
ＡＣ１００Ｖ　５０Ｈｚ／６０Ｈｚ
100
AcDbText
  0
TEXT
  5
1DC
330
2
100
AcDbEntity
  8
MOJI1
100
AcDbText
 10
-21.43959822858972
 20
-55.55890807680601
 30
0.0
 40
3.0
  1
ＲＣＡ×２(左右)
100
AcDbText
  0
TEXT
  5
1DD
330
2
100
AcDbEntity
  8
MOJI1
100
AcDbText
 10
-21.43959822858972
 20
-45.558908076806
 30
0.0
 40
3.0
  1
１９２０×１０８０画素
100
AcDbText
  0
LINE
  5
1DE
330
2
100
AcDbEntity
  8
WAKU
 62
     4
100
AcDbLine
 10
62.06040177141005
 20
-71.558908076806
 30
0.0
 11
-62.93959822858972
 21
-71.558908076806
 31
0.0
  0
LINE
  5
1DF
330
2
100
AcDbEntity
  8
WAKU
 62
     1
100
AcDbLine
 10
-62.93959822858972
 20
-56.558908076806
 30
0.0
 11
62.06040177141005
 21
-56.558908076806
 31
0.0
  0
LINE
  5
1E0
330
2
100
AcDbEntity
  8
WAKU
 62
     1
100
AcDbLine
 10
-62.93959822858972
 20
-51.558908076806
 30
0.0
 11
62.06040177141005
 21
-51.558908076806
 31
0.0
  0
LINE
  5
1E1
330
2
100
AcDbEntity
  8
WAKU
 62
     1
100
AcDbLine
 10
-62.93959822858972
 20
-41.558908076806
 30
0.0
 11
62.06040177141005
 21
-41.558908076806
 31
0.0
  0
LINE
  5
1E2
330
2
100
AcDbEntity
  8
WAKU
 62
     1
100
AcDbLine
 10
-62.93959822858972
 20
-31.55890807680601
 30
0.0
 11
62.06040177141005
 21
-31.55890807680601
 31
0.0
  0
LINE
  5
1E3
330
2
100
AcDbEntity
  8
WAKU
 62
     4
100
AcDbLine
 10
-62.93959822858972
 20
-26.55890807680601
 30
0.0
 11
62.06040177141005
 21
-26.55890807680601
 31
0.0
  0
LINE
  5
1E4
330
2
100
AcDbEntity
  8
WAKU
 62
     1
100
AcDbLine
 10
-62.93959822858972
 20
-46.558908076806
 30
0.0
 11
62.06040177141005
 21
-46.558908076806
 31
0.0
  0
LINE
  5
1E5
330
2
100
AcDbEntity
  8
WAKU
 62
     1
100
AcDbLine
 10
-62.93959822858972
 20
-36.55890807680601
 30
0.0
 11
62.06040177141005
 21
-36.55890807680601
 31
0.0
  0
TEXT
  5
1E6
330
2
100
AcDbEntity
  8
MOJI1
100
AcDbText
 10
-21.43959822858972
 20
-50.55890807680601
 30
0.0
 40
3.0
  1
５００００００：１
100
AcDbText
  0
TEXT
  5
1E7
330
2
100
AcDbEntity
  8
MOJI1
100
AcDbText
 10
-21.43959822858972
 20
-40.558908076806
 30
0.0
 40
3.0
  1
４２型（１０５７ｃｍ）１６：９
100
AcDbText
  0
TEXT
  5
1E8
330
2
100
AcDbEntity
  8
MOJI1
100
AcDbText
 10
-21.43959822858972
 20
-35.55890807680601
 30
0.0
 40
3.0
  1
３９０Ｗ
100
AcDbText
  0
TEXT
  5
1E9
330
2
100
AcDbEntity
  8
TOUROKU
100
AcDbText
 10
43.793685137671
 20
31.44109192319366
 30
0.0
 40
2.0
  1
ＴＨ４２ＰＦ２０
 72
     2
 11
62.06035180433769
 21
31.44109192319366
 31
0.0
100
AcDbText
  0
TEXT
  5
1EB
330
2
100
AcDbEntity
  8
MOJI1
100
AcDbText
 10
-35.93959822858995
 20
37.44109192319411
 30
0.0
 40
4.0
  1
ハイビジョンプラズマディスプレイ
100
AcDbText
  0
ENDSEC
  0
SECTION
  2
OBJECTS
  0
DICTIONARY
  5
7
330
0
100
AcDbDictionary
281
     1
  3
ACAD_COLOR
350
2C
  3
ACAD_GROUP
350
28
  3
ACAD_LAYOUT
350
B
  3
ACAD_MATERIAL
350
2B
  3
ACAD_MLINESTYLE
350
29
  3
ACAD_PLOTSETTINGS
350
2A
  3
ACAD_PLOTSTYLENAME
350
6
  3
ACDBHEADERROUNDTRIPXREC
350
22A
  3
AcDbVariableDictionary
350
225
  0
DICTIONARY
  5
11
330
10
100
AcDbDictionary
280
     1
281
     1
  3
ACAD_LAYERSTATES
360
12
  0
DICTIONARY
  5
2C
102
{ACAD_REACTORS
330
7
102
}
330
7
100
AcDbDictionary
281
     1
  0
DICTIONARY
  5
28
102
{ACAD_REACTORS
330
7
102
}
330
7
100
AcDbDictionary
281
     1
  0
DICTIONARY
  5
B
102
{ACAD_REACTORS
330
7
102
}
330
7
100
AcDbDictionary
281
     1
  3
Model
350
A
  3
レイアウト1
350
F
  0
DICTIONARY
  5
2B
102
{ACAD_REACTORS
330
7
102
}
330
7
100
AcDbDictionary
281
     1
  0
DICTIONARY
  5
29
102
{ACAD_REACTORS
330
7
102
}
330
7
100
AcDbDictionary
281
     1
  3
Standard
350
2E
  0
DICTIONARY
  5
2A
102
{ACAD_REACTORS
330
7
102
}
330
7
100
AcDbDictionary
281
     1
  0
ACDBDICTIONARYWDFLT
  5
6
102
{ACAD_REACTORS
330
7
102
}
330
7
100
AcDbDictionary
281
     1
  3
Normal
350
5
100
AcDbDictionaryWithDefault
340
5
  0
DICTIONARY
  5
22A
102
{ACAD_REACTORS
330
7
102
}
330
7
100
AcDbDictionary
281
     1
  3
COLORDICT
350
22C
  3
MATERIALDICT
350
22B
  0
DICTIONARY
  5
225
102
{ACAD_REACTORS
330
7
102
}
330
7
100
AcDbDictionary
281
     1
  3
DIMASSOC
350
227
  3
HIDETEXT
350
226
  3
PROJECTNAME
350
228
  0
DICTIONARY
  5
12
102
{ACAD_REACTORS
330
11
102
}
330
11
100
AcDbDictionary
281
     1
  0
LAYOUT
  5
A
102
{ACAD_XDICTIONARY
360
22D
102
}
102
{ACAD_REACTORS
330
B
102
}
330
B
100
AcDbPlotSettings
  1

  2
10F06M_RICOH_SP-8100
  4
A4
  6

 40
5.873749732971191
 41
5.873747825622558
 42
5.873748779296875
 43
5.873748779296875
 44
209.9733276367187
 45
296.9259948730469
 46
5.429999999999999
 47
0.0
 48
0.0
 49
0.0
140
0.0
141
0.0
142
1.0
143
1.382515366965649
 70
 11956
 72
     1
 73
     0
 74
     1
  7
tmsacad.ctb
 75
     0
147
0.7233192656619828
148
0.0256332569354072
149
0.0240599051811614
100
AcDbLayout
  1
Model
 70
     1
 71
     0
 10
0.0
 20
0.0
 11
12.0
 21
9.0
 12
0.0
 22
0.0
 32
0.0
 14
0.0
 24
0.0
 34
0.0
 15
0.0
 25
0.0
 35
0.0
146
0.0
 13
0.0
 23
0.0
 33
0.0
 16
1.0
 26
0.0
 36
0.0
 17
0.0
 27
1.0
 37
0.0
 76
     0
330
2
  0
LAYOUT
  5
F
102
{ACAD_XDICTIONARY
360
22F
102
}
102
{ACAD_REACTORS
330
B
102
}
330
B
100
AcDbPlotSettings
  1

  2
None
  4

  6

 40
0.0
 41
0.0
 42
0.0
 43
0.0
 44
0.0
 45
0.0
 46
0.0
 47
0.0
 48
0.0
 49
0.0
140
0.0
141
0.0
142
1.0
143
1.0
 70
   688
 72
     0
 73
     0
 74
     5
  7
tmsacad.ctb
 75
    16
147
1.0
148
0.0
149
0.0
100
AcDbLayout
  1
レイアウト1
 70
     1
 71
     1
 10
0.0
 20
0.0
 11
12.0
 21
9.0
 12
0.0
 22
0.0
 32
0.0
 14
0.0
 24
0.0
 34
0.0
 15
0.0
 25
0.0
 35
0.0
146
0.0
 13
0.0
 23
0.0
 33
0.0
 16
1.0
 26
0.0
 36
0.0
 17
0.0
 27
1.0
 37
0.0
 76
     0
330
C
  0
MLINESTYLE
  5
2E
102
{ACAD_REACTORS
330
29
102
}
330
29
100
AcDbMlineStyle
  2
STANDARD
 70
     0
  3

 62
   256
 51
90.0
 52
90.0
 71
     2
 49
0.5
 62
   256
  6
BYLAYER
 49
-0.5
 62
   256
  6
BYLAYER
  0
ACDBPLACEHOLDER
  5
5
102
{ACAD_REACTORS
330
6
102
}
330
6
  0
XRECORD
  5
22C
102
{ACAD_REACTORS
330
22A
102
}
330
22A
100
AcDbXrecord
280
     1
340
2C
  0
XRECORD
  5
22B
102
{ACAD_REACTORS
330
22A
102
}
330
22A
100
AcDbXrecord
280
     1
340
2B
  0
DICTIONARYVAR
  5
227
102
{ACAD_REACTORS
330
225
102
}
330
225
100
DictionaryVariables
280
     0
  1
1
  0
DICTIONARYVAR
  5
226
102
{ACAD_REACTORS
330
225
102
}
330
225
100
DictionaryVariables
280
     0
  1
1
  0
DICTIONARYVAR
  5
228
102
{ACAD_REACTORS
330
225
102
}
330
225
100
DictionaryVariables
280
     0
  1

  0
DICTIONARY
  5
22D
330
A
100
AcDbDictionary
280
     1
281
     1
  3
ACAD_XREC_ROUNDTRIP
360
22E
  0
DICTIONARY
  5
22F
330
F
100
AcDbDictionary
280
     1
281
     1
  3
ACAD_XREC_ROUNDTRIP
360
230
  0
XRECORD
  5
22E
102
{ACAD_REACTORS
330
22D
102
}
330
22D
100
AcDbXrecord
280
     1
102
SHADEPLOT
 70
     0
102
SHADEPLOTRESLEVEL
 70
     2
102
SHADEPLOTCUSTOMDPI
 70
   300
  0
XRECORD
  5
230
102
{ACAD_REACTORS
330
22F
102
}
330
22F
100
AcDbXrecord
280
     1
102
SHADEPLOT
 70
     0
102
SHADEPLOTRESLEVEL
 70
     2
102
SHADEPLOTCUSTOMDPI
 70
   300
  0
ENDSEC
  0
EOF
