  0
SECTION
  2
HEADER
  9
$ACADVER
  1
AC1015
  9
$ACADMAINTVER
 70
    20
  9
$DWGCODEPAGE
  3
ANSI_932
  9
$INSBASE
 10
0.4999999440410648
 20
372.5008351249344
 30
0.0
  9
$EXTMIN
 10
-61.1517324917387
 20
-47.97880490633986
 30
-0.0015258207003583
  9
$EXTMAX
 10
64.87518366993777
 20
65.04579204745335
 30
0.0000000349246037
  9
$LIMMIN
 10
0.0
 20
0.0
  9
$LIMMAX
 10
420.0
 20
297.0
  9
$ORTHOMODE
 70
     1
  9
$REGENMODE
 70
     0
  9
$FILLMODE
 70
     1
  9
$QTEXTMODE
 70
     0
  9
$MIRRTEXT
 70
     0
  9
$LTSCALE
 40
1.0
  9
$ATTMODE
 70
     1
  9
$TEXTSIZE
 40
2.5
  9
$TRACEWID
 40
1.0
  9
$TEXTSTYLE
  7
Standard
  9
$CLAYER
  8
GAIKEI
  9
$CELTYPE
  6
ByLayer
  9
$CECOLOR
 62
   256
  9
$CELTSCALE
 40
1.0
  9
$DISPSILH
 70
     0
  9
$DIMSCALE
 40
1.0
  9
$DIMASZ
 40
2.0
  9
$DIMEXO
 40
2.0
  9
$DIMDLI
 40
8.0
  9
$DIMRND
 40
0.0
  9
$DIMDLE
 40
0.0
  9
$DIMEXE
 40
2.0
  9
$DIMTP
 40
0.0
  9
$DIMTM
 40
0.0
  9
$DIMTXT
 40
2.5
  9
$DIMCEN
 40
0.0
  9
$DIMTSZ
 40
0.0
  9
$DIMTOL
 70
     0
  9
$DIMLIM
 70
     0
  9
$DIMTIH
 70
     0
  9
$DIMTOH
 70
     0
  9
$DIMSE1
 70
     0
  9
$DIMSE2
 70
     0
  9
$DIMTAD
 70
     3
  9
$DIMZIN
 70
     0
  9
$DIMBLK
  1

  9
$DIMASO
 70
     1
  9
$DIMSHO
 70
     1
  9
$DIMPOST
  1

  9
$DIMAPOST
  1

  9
$DIMALT
 70
     0
  9
$DIMALTD
 70
     2
  9
$DIMALTF
 40
25.4
  9
$DIMLFAC
 40
1.0
  9
$DIMTOFL
 70
     1
  9
$DIMTVP
 40
0.0
  9
$DIMTIX
 70
     0
  9
$DIMSOXD
 70
     0
  9
$DIMSAH
 70
     1
  9
$DIMBLK1
  1
OPEN30
  9
$DIMBLK2
  1
OPEN30
  9
$DIMSTYLE
  2
STANDARD
  9
$DIMCLRD
 70
     0
  9
$DIMCLRE
 70
     0
  9
$DIMCLRT
 70
     0
  9
$DIMTFAC
 40
1.0
  9
$DIMGAP
 40
0.5
  9
$DIMJUST
 70
     0
  9
$DIMSD1
 70
     0
  9
$DIMSD2
 70
     0
  9
$DIMTOLJ
 70
     1
  9
$DIMTZIN
 70
     0
  9
$DIMALTZ
 70
     0
  9
$DIMALTTZ
 70
     0
  9
$DIMUPT
 70
     0
  9
$DIMDEC
 70
     4
  9
$DIMTDEC
 70
     4
  9
$DIMALTU
 70
     2
  9
$DIMALTTD
 70
     2
  9
$DIMTXSTY
  7
Standard
  9
$DIMAUNIT
 70
     0
  9
$DIMADEC
 70
     0
  9
$DIMALTRND
 40
0.0
  9
$DIMAZIN
 70
     0
  9
$DIMDSEP
 70
    46
  9
$DIMATFIT
 70
     3
  9
$DIMFRAC
 70
     0
  9
$DIMLDRBLK
  1
OPEN30
  9
$DIMLUNIT
 70
     2
  9
$DIMLWD
 70
    -2
  9
$DIMLWE
 70
    -2
  9
$DIMTMOVE
 70
     0
  9
$LUNITS
 70
     2
  9
$LUPREC
 70
     4
  9
$SKETCHINC
 40
1.0
  9
$FILLETRAD
 40
0.0
  9
$AUNITS
 70
     0
  9
$AUPREC
 70
     0
  9
$MENU
  1
.
  9
$ELEVATION
 40
0.0
  9
$PELEVATION
 40
0.0
  9
$THICKNESS
 40
0.0
  9
$LIMCHECK
 70
     0
  9
$CHAMFERA
 40
0.0
  9
$CHAMFERB
 40
0.0
  9
$CHAMFERC
 40
0.0
  9
$CHAMFERD
 40
0.0
  9
$SKPOLY
 70
     0
  9
$TDCREATE
 40
2454349.434269746
  9
$TDUCREATE
 40
2454349.059269746
  9
$TDUPDATE
 40
2455755.736154954
  9
$TDUUPDATE
 40
2455755.361154954
  9
$TDINDWG
 40
0.5001024537
  9
$TDUSRTIMER
 40
0.5001024537
  9
$USRTIMER
 70
     1
  9
$ANGBASE
 50
0.0
  9
$ANGDIR
 70
     0
  9
$PDMODE
 70
     0
  9
$PDSIZE
 40
0.0
  9
$PLINEWID
 40
0.0
  9
$SPLFRAME
 70
     0
  9
$SPLINETYPE
 70
     6
  9
$SPLINESEGS
 70
     8
  9
$HANDSEED
  5
2ED
  9
$SURFTAB1
 70
     6
  9
$SURFTAB2
 70
     6
  9
$SURFTYPE
 70
     6
  9
$SURFU
 70
     6
  9
$SURFV
 70
     6
  9
$UCSBASE
  2

  9
$UCSNAME
  2

  9
$UCSORG
 10
0.0
 20
0.0
 30
0.0
  9
$UCSXDIR
 10
1.0
 20
0.0
 30
0.0
  9
$UCSYDIR
 10
0.0
 20
1.0
 30
0.0
  9
$UCSORTHOREF
  2

  9
$UCSORTHOVIEW
 70
     0
  9
$UCSORGTOP
 10
0.0
 20
0.0
 30
0.0
  9
$UCSORGBOTTOM
 10
0.0
 20
0.0
 30
0.0
  9
$UCSORGLEFT
 10
0.0
 20
0.0
 30
0.0
  9
$UCSORGRIGHT
 10
0.0
 20
0.0
 30
0.0
  9
$UCSORGFRONT
 10
0.0
 20
0.0
 30
0.0
  9
$UCSORGBACK
 10
0.0
 20
0.0
 30
0.0
  9
$PUCSBASE
  2

  9
$PUCSNAME
  2

  9
$PUCSORG
 10
0.0
 20
0.0
 30
0.0
  9
$PUCSXDIR
 10
1.0
 20
0.0
 30
0.0
  9
$PUCSYDIR
 10
0.0
 20
1.0
 30
0.0
  9
$PUCSORTHOREF
  2

  9
$PUCSORTHOVIEW
 70
     0
  9
$PUCSORGTOP
 10
0.0
 20
0.0
 30
0.0
  9
$PUCSORGBOTTOM
 10
0.0
 20
0.0
 30
0.0
  9
$PUCSORGLEFT
 10
0.0
 20
0.0
 30
0.0
  9
$PUCSORGRIGHT
 10
0.0
 20
0.0
 30
0.0
  9
$PUCSORGFRONT
 10
0.0
 20
0.0
 30
0.0
  9
$PUCSORGBACK
 10
0.0
 20
0.0
 30
0.0
  9
$USERI1
 70
     0
  9
$USERI2
 70
     0
  9
$USERI3
 70
     0
  9
$USERI4
 70
     0
  9
$USERI5
 70
     0
  9
$USERR1
 40
0.0
  9
$USERR2
 40
0.0
  9
$USERR3
 40
0.0
  9
$USERR4
 40
0.0
  9
$USERR5
 40
0.0
  9
$WORLDVIEW
 70
     1
  9
$SHADEDGE
 70
     3
  9
$SHADEDIF
 70
    70
  9
$TILEMODE
 70
     1
  9
$MAXACTVP
 70
    64
  9
$PINSBASE
 10
0.0
 20
0.0
 30
0.0
  9
$PLIMCHECK
 70
     0
  9
$PEXTMIN
 10
0.0
 20
0.0
 30
0.0
  9
$PEXTMAX
 10
0.0
 20
0.0
 30
0.0
  9
$PLIMMIN
 10
0.0
 20
0.0
  9
$PLIMMAX
 10
12.0
 20
9.0
  9
$UNITMODE
 70
     0
  9
$VISRETAIN
 70
     1
  9
$PLINEGEN
 70
     0
  9
$PSLTSCALE
 70
     1
  9
$TREEDEPTH
 70
  3020
  9
$CMLSTYLE
  2
Standard
  9
$CMLJUST
 70
     0
  9
$CMLSCALE
 40
20.0
  9
$PROXYGRAPHICS
 70
     1
  9
$MEASUREMENT
 70
     1
  9
$CELWEIGHT
370
    -1
  9
$ENDCAPS
280
     0
  9
$JOINSTYLE
280
     0
  9
$LWDISPLAY
290
     0
  9
$INSUNITS
 70
     4
  9
$HYPERLINKBASE
  1

  9
$STYLESHEET
  1

  9
$XEDIT
290
     1
  9
$CEPSNTYPE
380
     0
  9
$PSTYLEMODE
290
     1
  9
$FINGERPRINTGUID
  2
{FDEAD578-A652-11D2-9A35-0060089B3A3F}
  9
$VERSIONGUID
  2
{3C26BE4D-78FB-4935-A3DB-F8E68A8A86E6}
  9
$EXTNAMES
290
     1
  9
$PSVPSCALE
 40
0.0
  9
$OLESTARTUP
290
     0
  0
ENDSEC
  0
SECTION
  2
CLASSES
  0
CLASS
  1
ACDBDICTIONARYWDFLT
  2
AcDbDictionaryWithDefault
  3
ObjectDBX Classes
 90
        0
280
     0
281
     0
  0
CLASS
  1
ACDBPLACEHOLDER
  2
AcDbPlaceHolder
  3
ObjectDBX Classes
 90
        0
280
     0
281
     0
  0
CLASS
  1
LAYOUT
  2
AcDbLayout
  3
ObjectDBX Classes
 90
        0
280
     0
281
     0
  0
CLASS
  1
DICTIONARYVAR
  2
AcDbDictionaryVar
  3
ObjectDBX Classes
 90
        0
280
     0
281
     0
  0
CLASS
  1
SORTENTSTABLE
  2
AcDbSortentsTable
  3
ObjectDBX Classes
 90
    32768
280
     0
281
     0
  0
ENDSEC
  0
SECTION
  2
TABLES
  0
TABLE
  2
VPORT
  5
1C
330
0
100
AcDbSymbolTable
 70
     3
  0
VPORT
  5
2E5
330
1C
100
AcDbSymbolTableRecord
100
AcDbViewportTableRecord
  2
*Active
 70
     0
 10
0.0
 20
0.0
 11
1.0
 21
1.0
 12
1.861725589099535
 22
8.533493570556743
 13
0.0
 23
0.0
 14
10.0
 24
10.0
 15
10.0
 25
10.0
 16
0.0
 26
0.0
 36
1.0
 17
0.0
 27
0.0
 37
0.0
 40
113.8786871070964
 41
2.184110970996216
 42
50.0
 43
0.0
 44
0.0
 50
0.0
 51
0.0
 71
     0
 72
  1000
 73
     1
 74
     2
 75
     0
 76
     0
 77
     0
 78
     0
281
     0
 65
     1
110
0.0
120
0.0
130
0.0
111
1.0
121
0.0
131
0.0
112
0.0
122
1.0
132
0.0
 79
     0
146
0.0
  0
ENDTAB
  0
TABLE
  2
LTYPE
  5
17
330
0
100
AcDbSymbolTable
 70
     1
  0
LTYPE
  5
18
330
17
100
AcDbSymbolTableRecord
100
AcDbLinetypeTableRecord
  2
ByBlock
 70
     0
  3

 72
    65
 73
     0
 40
0.0
  0
LTYPE
  5
19
330
17
100
AcDbSymbolTableRecord
100
AcDbLinetypeTableRecord
  2
ByLayer
 70
     0
  3

 72
    65
 73
     0
 40
0.0
  0
LTYPE
  5
8
330
17
100
AcDbSymbolTableRecord
100
AcDbLinetypeTableRecord
  2
Continuous
 70
     0
  3
Solid line
 72
    65
 73
     0
 40
0.0
  0
ENDTAB
  0
TABLE
  2
LAYER
  5
10
102
{ACAD_XDICTIONARY
360
11
102
}
330
0
100
AcDbSymbolTable
 70
     7
  0
LAYER
  5
4
330
10
100
AcDbSymbolTableRecord
100
AcDbLayerTableRecord
  2
0
 70
     0
 62
     7
  6
Continuous
370
    -3
390
5
  0
LAYER
  5
283
330
10
100
AcDbSymbolTableRecord
100
AcDbLayerTableRecord
  2
WAKU
 70
     0
 62
     4
  6
Continuous
370
    -3
390
5
  0
LAYER
  5
31
330
10
100
AcDbSymbolTableRecord
100
AcDbLayerTableRecord
  2
MOJI1
 70
     0
 62
     2
  6
Continuous
370
    -3
390
5
  0
LAYER
  5
33
330
10
100
AcDbSymbolTableRecord
100
AcDbLayerTableRecord
  2
TOUROKU
 70
     0
 62
     1
  6
Continuous
370
    -3
390
5
  0
LAYER
  5
3F
330
10
100
AcDbSymbolTableRecord
100
AcDbLayerTableRecord
  2
DEFPOINTS
 70
     0
 62
     7
  6
Continuous
290
     0
370
    -3
390
5
  0
LAYER
  5
2E
330
10
100
AcDbSymbolTableRecord
100
AcDbLayerTableRecord
  2
GAIKEI
 70
     0
 62
     7
  6
Continuous
370
    -3
390
5
  0
LAYER
  5
35
330
10
100
AcDbSymbolTableRecord
100
AcDbLayerTableRecord
  2
SUNPO
 70
     0
 62
     3
  6
Continuous
370
    -3
390
5
  0
ENDTAB
  0
TABLE
  2
STYLE
  5
14
330
0
100
AcDbSymbolTable
 70
     1
  0
STYLE
  5
15
330
14
100
AcDbSymbolTableRecord
100
AcDbTextStyleTableRecord
  2
Standard
 70
     0
 40
0.0
 41
1.0
 50
0.0
 71
     0
 42
2.5
  3
MONOTXT.shx
  4
BIGFONT.shx
  0
ENDTAB
  0
TABLE
  2
VIEW
  5
1A
330
0
100
AcDbSymbolTable
 70
     0
  0
ENDTAB
  0
TABLE
  2
UCS
  5
1B
330
0
100
AcDbSymbolTable
 70
     0
  0
ENDTAB
  0
TABLE
  2
APPID
  5
1E
330
0
100
AcDbSymbolTable
 70
     1
  0
APPID
  5
1F
330
1E
100
AcDbSymbolTableRecord
100
AcDbRegAppTableRecord
  2
ACAD
 70
     0
  0
ENDTAB
  0
TABLE
  2
DIMSTYLE
  5
20
330
0
100
AcDbSymbolTable
 70
     1
100
AcDbDimStyleTable
 71
     1
340
21
  0
DIMSTYLE
105
21
102
{ACAD_REACTORS
330
F7
330
104
330
E8
330
34
102
}
330
20
100
AcDbSymbolTableRecord
100
AcDbDimStyleTableRecord
  2
STANDARD
 70
     0
 40
0.0
 41
2.0
 42
2.0
 43
8.0
 44
2.0
 73
     0
 74
     0
 77
     3
140
3.0
141
0.0
173
     1
279
     2
288
     1
340
15
341
22
343
22
344
22
  0
ENDTAB
  0
TABLE
  2
BLOCK_RECORD
  5
1
330
0
100
AcDbSymbolTable
 70
     9
  0
BLOCK_RECORD
  5
2
330
1
100
AcDbSymbolTableRecord
100
AcDbBlockTableRecord
  2
*Model_Space
340
A
  0
BLOCK_RECORD
  5
C
330
1
100
AcDbSymbolTableRecord
100
AcDbBlockTableRecord
  2
*Paper_Space
340
F
  0
BLOCK_RECORD
  5
22
330
1
100
AcDbSymbolTableRecord
100
AcDbBlockTableRecord
  2
_OPEN30
340
0
102
{BLKREFS
331
3B
331
3C
331
F0
331
F1
331
FD
331
FE
331
10A
331
10B
331
2B3
331
2B4
331
2BF
331
2C0
331
2CD
331
2CE
331
2D9
331
2DA
102
}
  0
BLOCK_RECORD
  5
F8
330
1
100
AcDbSymbolTableRecord
100
AcDbBlockTableRecord
  2
*D1
340
0
  0
BLOCK_RECORD
  5
105
330
1
100
AcDbSymbolTableRecord
100
AcDbBlockTableRecord
  2
*D2
340
0
  0
BLOCK_RECORD
  5
E9
330
1
100
AcDbSymbolTableRecord
100
AcDbBlockTableRecord
  2
*D3
340
0
  0
BLOCK_RECORD
  5
36
330
1
100
AcDbSymbolTableRecord
100
AcDbBlockTableRecord
  2
*D4
340
0
  0
BLOCK_RECORD
  5
2AF
330
1
100
AcDbSymbolTableRecord
100
AcDbBlockTableRecord
  2
*D5
340
0
  0
BLOCK_RECORD
  5
2BB
330
1
100
AcDbSymbolTableRecord
100
AcDbBlockTableRecord
  2
*D6
340
0
  0
BLOCK_RECORD
  5
2C7
330
1
100
AcDbSymbolTableRecord
100
AcDbBlockTableRecord
  2
*D7
340
0
  0
BLOCK_RECORD
  5
2D5
330
1
100
AcDbSymbolTableRecord
100
AcDbBlockTableRecord
  2
*D8
340
0
  0
ENDTAB
  0
ENDSEC
  0
SECTION
  2
BLOCKS
  0
BLOCK
  5
3
330
2
100
AcDbEntity
  8
0
100
AcDbBlockBegin
  2
*Model_Space
 70
     0
 10
0.0
 20
0.0
 30
0.0
  3
*Model_Space
  1

  0
ENDBLK
  5
9
330
2
100
AcDbEntity
  8
0
100
AcDbBlockEnd
  0
BLOCK
  5
D
330
C
100
AcDbEntity
 67
     1
  8
0
100
AcDbBlockBegin
  2
*Paper_Space
 70
     0
 10
0.0
 20
0.0
 30
0.0
  3
*Paper_Space
  1

  0
ENDBLK
  5
E
330
C
100
AcDbEntity
 67
     1
  8
0
100
AcDbBlockEnd
  0
BLOCK
  5
23
330
22
100
AcDbEntity
  8
0
100
AcDbBlockBegin
  2
_OPEN30
 70
     0
 10
0.0
 20
0.0
 30
0.0
  3
_OPEN30
  1

  0
LINE
  5
24
330
22
100
AcDbEntity
  8
0
  6
ByBlock
 62
     0
100
AcDbLine
 10
-1.0
 20
0.26794919
 30
0.0
 11
0.0
 21
0.0
 31
0.0
  0
LINE
  5
25
330
22
100
AcDbEntity
  8
0
  6
ByBlock
 62
     0
100
AcDbLine
 10
0.0
 20
0.0
 30
0.0
 11
-1.0
 21
-0.26794919
 31
0.0
  0
LINE
  5
26
330
22
100
AcDbEntity
  8
0
  6
ByBlock
 62
     0
100
AcDbLine
 10
0.0
 20
0.0
 30
0.0
 11
-1.0
 21
0.0
 31
0.0
  0
ENDBLK
  5
27
330
22
100
AcDbEntity
  8
0
100
AcDbBlockEnd
  0
BLOCK
  5
F9
330
F8
100
AcDbEntity
  8
0
100
AcDbBlockBegin
  2
*D1
 70
     1
 10
0.0
 20
0.0
 30
0.0
  3
*D1
  1

  0
LINE
  5
FA
330
F8
100
AcDbEntity
  8
SUNPO
 62
     0
370
    -2
100
AcDbLine
 10
69.98455392814019
 20
312.3226899251946
 30
0.0
 11
77.98455392814019
 21
312.3226899251946
 31
0.0
  0
LINE
  5
FB
330
F8
100
AcDbEntity
  8
SUNPO
 62
     0
370
    -2
100
AcDbLine
 10
69.98455392814019
 20
342.8226899251947
 30
0.0
 11
77.98455392814019
 21
342.8226899251947
 31
0.0
  0
LINE
  5
FC
330
F8
100
AcDbEntity
  8
SUNPO
 62
     0
370
    -2
100
AcDbLine
 10
75.98455392814019
 20
314.3226899251946
 30
0.0
 11
75.98455392814019
 21
340.8226899251947
 31
0.0
  0
INSERT
  5
FD
330
F8
100
AcDbEntity
  8
SUNPO
 62
     0
370
    -2
100
AcDbBlockReference
  2
_OPEN30
 10
75.98455392814019
 20
312.3226899251946
 30
0.0
 41
2.0
 42
2.0
 43
2.0
 50
270.0
  0
INSERT
  5
FE
330
F8
100
AcDbEntity
  8
SUNPO
 62
     0
370
    -2
100
AcDbBlockReference
  2
_OPEN30
 10
75.98455392814019
 20
342.8226899251947
 30
0.0
 41
2.0
 42
2.0
 43
2.0
 50
90.0
  0
MTEXT
  5
FF
330
F8
100
AcDbEntity
  8
SUNPO
 62
     0
100
AcDbMText
 10
74.23455392814013
 20
327.5726899251946
 30
0.0
 40
2.5
 41
0.0
 71
     5
 72
     1
  1
\A1;610
 11
0.0000000000000001
 21
1.0
 31
0.0
 73
     1
 44
1.0
1001
ACAD
1000
MTEXTBEGIN
1070
    73
1070
     1
1070
    44
1040
1.0
1070
    74
1070
     0
1000
MTEXTEND
  0
POINT
  5
100
330
F8
100
AcDbEntity
  8
DEFPOINTS
 62
     0
100
AcDbPoint
 10
67.98455392814019
 20
312.3226899251946
 30
0.0
  0
POINT
  5
101
330
F8
100
AcDbEntity
  8
DEFPOINTS
 62
     0
100
AcDbPoint
 10
67.98455392814019
 20
342.8226899251947
 30
0.0
  0
POINT
  5
102
330
F8
100
AcDbEntity
  8
DEFPOINTS
 62
     0
100
AcDbPoint
 10
75.98455392814019
 20
342.8226899251947
 30
0.0
  0
ENDBLK
  5
103
330
F8
100
AcDbEntity
  8
0
100
AcDbBlockEnd
  0
BLOCK
  5
106
330
105
100
AcDbEntity
  8
0
100
AcDbBlockBegin
  2
*D2
 70
     1
 10
0.0
 20
0.0
 30
0.0
  3
*D2
  1

  0
LINE
  5
107
330
105
100
AcDbEntity
  8
SUNPO
 62
     0
370
    -2
100
AcDbLine
 10
17.42431911786787
 20
344.8224034808433
 30
0.0
 11
17.42431911786787
 21
352.8224034808433
 31
0.0
  0
LINE
  5
108
330
105
100
AcDbEntity
  8
SUNPO
 62
     0
370
    -2
100
AcDbLine
 10
68.42431911786789
 20
344.8224034808433
 30
0.0
 11
68.42431911786789
 21
352.8224034808433
 31
0.0
  0
LINE
  5
109
330
105
100
AcDbEntity
  8
SUNPO
 62
     0
370
    -2
100
AcDbLine
 10
19.42431911786787
 20
350.8224034808433
 30
0.0
 11
66.4243191178679
 21
350.8224034808433
 31
0.0
  0
INSERT
  5
10A
330
105
100
AcDbEntity
  8
SUNPO
 62
     0
370
    -2
100
AcDbBlockReference
  2
_OPEN30
 10
17.42431911786787
 20
350.8224034808433
 30
0.0
 41
2.0
 42
2.0
 43
2.0
 50
180.0
  0
INSERT
  5
10B
330
105
100
AcDbEntity
  8
SUNPO
 62
     0
370
    -2
100
AcDbBlockReference
  2
_OPEN30
 10
68.42431911786789
 20
350.8224034808433
 30
0.0
 41
2.0
 42
2.0
 43
2.0
  0
MTEXT
  5
10C
330
105
100
AcDbEntity
  8
SUNPO
 62
     0
100
AcDbMText
 10
42.92431911786787
 20
352.5724034808433
 30
0.0
 40
2.5
 41
0.0
 71
     5
 72
     1
  1
\A1;1020
 73
     1
 44
1.0
1001
ACAD
1000
MTEXTBEGIN
1070
    73
1070
     1
1070
    44
1040
1.0
1070
    74
1070
     0
1000
MTEXTEND
  0
POINT
  5
10D
330
105
100
AcDbEntity
  8
DEFPOINTS
 62
     0
100
AcDbPoint
 10
17.42431911786787
 20
342.8224034808433
 30
0.0
  0
POINT
  5
10E
330
105
100
AcDbEntity
  8
DEFPOINTS
 62
     0
100
AcDbPoint
 10
68.42431911786789
 20
342.8224034808433
 30
0.0
  0
POINT
  5
10F
330
105
100
AcDbEntity
  8
DEFPOINTS
 62
     0
100
AcDbPoint
 10
68.42431911786789
 20
350.8224034808433
 30
0.0
  0
ENDBLK
  5
110
330
105
100
AcDbEntity
  8
0
100
AcDbBlockEnd
  0
BLOCK
  5
EA
330
E9
100
AcDbEntity
  8
0
100
AcDbBlockBegin
  2
*D3
 70
     1
 10
0.0
 20
0.0
 30
0.0
  3
*D3
  1

  0
LINE
  5
EB
330
E9
100
AcDbEntity
  8
SUNPO
 62
     0
370
    -2
100
AcDbLine
 10
100.8905319922321
 20
344.8289359854024
 30
0.0
 11
100.8905319922321
 21
352.8224034808433
 31
0.0
  0
LINE
  5
EC
330
E9
100
AcDbEntity
  8
SUNPO
 62
     0
370
    -2
100
AcDbLine
 10
105.3405319922321
 20
344.8289359854024
 30
0.0
 11
105.3405319922321
 21
352.8224034808433
 31
0.0
  0
LINE
  5
ED
330
E9
100
AcDbEntity
  8
SUNPO
 62
     0
370
    -2
100
AcDbLine
 10
98.89053199223212
 20
350.8224034808433
 30
0.0
 11
96.89053199223213
 21
350.8224034808433
 31
0.0
  0
LINE
  5
EE
330
E9
100
AcDbEntity
  8
SUNPO
 62
     0
370
    -2
100
AcDbLine
 10
107.3405319922321
 20
350.8224034808433
 30
0.0
 11
114.5071986588988
 21
350.8224034808433
 31
0.0
  0
LINE
  5
EF
330
E9
100
AcDbEntity
  8
SUNPO
 62
     0
370
    -2
100
AcDbLine
 10
100.8905319922321
 20
350.8224034808433
 30
0.0
 11
105.3405319922321
 21
350.8224034808433
 31
0.0
  0
INSERT
  5
F0
330
E9
100
AcDbEntity
  8
SUNPO
 62
     0
370
    -2
100
AcDbBlockReference
  2
_OPEN30
 10
100.8905319922321
 20
350.8224034808433
 30
0.0
 41
2.0
 42
2.0
 43
2.0
  0
INSERT
  5
F1
330
E9
100
AcDbEntity
  8
SUNPO
 62
     0
370
    -2
100
AcDbBlockReference
  2
_OPEN30
 10
105.3405319922321
 20
350.8224034808433
 30
0.0
 41
2.0
 42
2.0
 43
2.0
 50
180.0
  0
MTEXT
  5
F2
330
E9
100
AcDbEntity
  8
SUNPO
 62
     0
100
AcDbMText
 10
111.9238653255654
 20
352.5724034808433
 30
0.0
 40
2.5
 41
0.0
 71
     5
 72
     1
  1
\A1;89
 73
     1
 44
1.0
1001
ACAD
1000
MTEXTBEGIN
1070
    73
1070
     1
1070
    44
1040
1.0
1070
    74
1070
     0
1000
MTEXTEND
  0
POINT
  5
F3
330
E9
100
AcDbEntity
  8
DEFPOINTS
 62
     0
100
AcDbPoint
 10
100.8905319922321
 20
342.8289359854024
 30
0.0
  0
POINT
  5
F4
330
E9
100
AcDbEntity
  8
DEFPOINTS
 62
     0
100
AcDbPoint
 10
105.3405319922321
 20
342.8289359854024
 30
0.0
  0
POINT
  5
F5
330
E9
100
AcDbEntity
  8
DEFPOINTS
 62
     0
100
AcDbPoint
 10
105.3405319922321
 20
350.8224034808433
 30
0.0
  0
ENDBLK
  5
F6
330
E9
100
AcDbEntity
  8
0
100
AcDbBlockEnd
  0
BLOCK
  5
37
330
36
100
AcDbEntity
  8
0
100
AcDbBlockBegin
  2
*D4
 70
     1
 10
0.0
 20
0.0
 30
0.0
  3
*D4
  1

  0
LINE
  5
38
330
36
100
AcDbEntity
  8
SUNPO
 62
     0
370
    -2
100
AcDbLine
 10
77.9845539281402
 20
342.8226899251947
 30
0.0
 11
84.98455392814021
 21
342.8226899251947
 31
0.0
  0
LINE
  5
39
330
36
100
AcDbEntity
  8
SUNPO
 62
     0
370
    -2
100
AcDbLine
 10
59.43585891859408
 20
309.3556119550728
 30
0.0
 11
84.98455392814021
 21
309.3556119550728
 31
0.0
  0
LINE
  5
3A
330
36
100
AcDbEntity
  8
SUNPO
 62
     0
370
    -2
100
AcDbLine
 10
82.9845539281402
 20
340.8226899251947
 30
0.0
 11
82.9845539281402
 21
311.3556119550728
 31
0.0
  0
INSERT
  5
3B
330
36
100
AcDbEntity
  8
SUNPO
 62
     0
370
    -2
100
AcDbBlockReference
  2
_OPEN30
 10
82.9845539281402
 20
342.8226899251947
 30
0.0
 41
2.0
 42
2.0
 43
2.0
 50
90.0
  0
INSERT
  5
3C
330
36
100
AcDbEntity
  8
SUNPO
 62
     0
370
    -2
100
AcDbBlockReference
  2
_OPEN30
 10
82.9845539281402
 20
309.3556119550728
 30
0.0
 41
2.0
 42
2.0
 43
2.0
 50
270.0
  0
MTEXT
  5
3D
330
36
100
AcDbEntity
  8
SUNPO
 62
     0
100
AcDbMText
 10
81.23455392814014
 20
326.0891509401338
 30
0.0
 40
2.5
 41
0.0
 71
     5
 72
     1
  1
\A1;669
 11
0.0000000000000001
 21
1.0
 31
0.0
 73
     1
 44
1.0
1001
ACAD
1000
MTEXTBEGIN
1070
    73
1070
     1
1070
    44
1040
1.0
1070
    74
1070
     0
1000
MTEXTEND
  0
POINT
  5
3E
330
36
100
AcDbEntity
  8
DEFPOINTS
 62
     0
100
AcDbPoint
 10
75.9845539281402
 20
342.8226899251947
 30
0.0
  0
POINT
  5
40
330
36
100
AcDbEntity
  8
DEFPOINTS
 62
     0
100
AcDbPoint
 10
57.43585891859408
 20
309.3556119550728
 30
0.0
  0
POINT
  5
41
330
36
100
AcDbEntity
  8
DEFPOINTS
 62
     0
100
AcDbPoint
 10
82.9845539281402
 20
309.3556119550728
 30
0.0
  0
ENDBLK
  5
42
330
36
100
AcDbEntity
  8
0
100
AcDbBlockEnd
  0
BLOCK
  5
2B9
330
2AF
100
AcDbEntity
  8
0
100
AcDbBlockBegin
  2
*D5
 70
     1
 10
0.0
 20
0.0
 30
0.0
  3
*D5
  1

  0
LINE
  5
2B0
330
2AF
100
AcDbEntity
  8
SUNPO
 62
     0
370
    -2
100
AcDbLine
 10
-46.20992451570543
 20
39.35259250275232
 30
0.0
 11
-46.20992451570543
 21
47.35259250275231
 31
0.0
  0
LINE
  5
2B1
330
2AF
100
AcDbEntity
  8
SUNPO
 62
     0
370
    -2
100
AcDbLine
 10
4.79007548429459
 20
39.35259250275232
 30
0.0
 11
4.79007548429459
 21
47.35259250275231
 31
0.0
  0
LINE
  5
2B2
330
2AF
100
AcDbEntity
  8
SUNPO
 62
     0
370
    -2
100
AcDbLine
 10
-44.20992451570543
 20
45.35259250275231
 30
0.0
 11
2.79007548429459
 21
45.35259250275231
 31
0.0
  0
INSERT
  5
2B3
330
2AF
100
AcDbEntity
  8
SUNPO
 62
     0
370
    -2
100
AcDbBlockReference
  2
_OPEN30
 10
-46.20992451570543
 20
45.35259250275231
 30
0.0
 41
2.0
 42
2.0
 43
2.0
 50
180.0
  0
INSERT
  5
2B4
330
2AF
100
AcDbEntity
  8
SUNPO
 62
     0
370
    -2
100
AcDbBlockReference
  2
_OPEN30
 10
4.79007548429459
 20
45.35259250275231
 30
0.0
 41
2.0
 42
2.0
 43
2.0
  0
MTEXT
  5
2B5
330
2AF
100
AcDbEntity
  8
SUNPO
 62
     0
100
AcDbMText
 10
-20.70992451570543
 20
47.10259250275231
 30
0.0
 40
2.5
 41
0.0
 71
     5
 72
     1
  1
\A1;1020
 73
     1
 44
1.0
1001
ACAD
1000
MTEXTBEGIN
1070
    73
1070
     1
1070
    44
1040
1.0
1070
    74
1070
     0
1000
MTEXTEND
  0
POINT
  5
2B6
330
2AF
100
AcDbEntity
  8
DEFPOINTS
 62
     0
100
AcDbPoint
 10
-46.20992451570543
 20
37.35259250275232
 30
0.0
  0
POINT
  5
2B7
330
2AF
100
AcDbEntity
  8
DEFPOINTS
 62
     0
100
AcDbPoint
 10
4.79007548429459
 20
37.35259250275232
 30
0.0
  0
POINT
  5
2B8
330
2AF
100
AcDbEntity
  8
DEFPOINTS
 62
     0
100
AcDbPoint
 10
4.79007548429459
 20
45.35259250275231
 30
0.0
  0
ENDBLK
  5
2BA
330
2AF
100
AcDbEntity
  8
0
100
AcDbBlockEnd
  0
BLOCK
  5
2C5
330
2BB
100
AcDbEntity
  8
0
100
AcDbBlockBegin
  2
*D6
 70
     1
 10
0.0
 20
0.0
 30
0.0
  3
*D6
  1

  0
LINE
  5
2BC
330
2BB
100
AcDbEntity
  8
SUNPO
 62
     0
370
    -2
100
AcDbLine
 10
6.350310294566881
 20
6.852878947103646
 30
0.0
 11
14.35031029456687
 21
6.852878947103643
 31
0.0
  0
LINE
  5
2BD
330
2BB
100
AcDbEntity
  8
SUNPO
 62
     0
370
    -2
100
AcDbLine
 10
6.350310294566881
 20
37.35287894710365
 30
0.0
 11
14.35031029456688
 21
37.35287894710365
 31
0.0
  0
LINE
  5
2BE
330
2BB
100
AcDbEntity
  8
SUNPO
 62
     0
370
    -2
100
AcDbLine
 10
12.35031029456687
 20
8.852878947103643
 30
0.0
 11
12.35031029456688
 21
35.35287894710365
 31
0.0
  0
INSERT
  5
2BF
330
2BB
100
AcDbEntity
  8
SUNPO
 62
     0
370
    -2
100
AcDbBlockReference
  2
_OPEN30
 10
12.35031029456687
 20
6.852878947103644
 30
0.0
 41
2.0
 42
2.0
 43
2.0
 50
270.0
  0
INSERT
  5
2C0
330
2BB
100
AcDbEntity
  8
SUNPO
 62
     0
370
    -2
100
AcDbBlockReference
  2
_OPEN30
 10
12.35031029456688
 20
37.35287894710365
 30
0.0
 41
2.0
 42
2.0
 43
2.0
 50
90.0
  0
MTEXT
  5
2C1
330
2BB
100
AcDbEntity
  8
SUNPO
 62
     0
100
AcDbMText
 10
10.60031029456687
 20
22.10287894710365
 30
0.0
 40
2.5
 41
0.0
 71
     5
 72
     1
  1
\A1;610
 11
0.0000000000000001
 21
1.0
 31
0.0
 73
     1
 44
1.0
1001
ACAD
1000
MTEXTBEGIN
1070
    73
1070
     1
1070
    44
1040
1.0
1070
    74
1070
     0
1000
MTEXTEND
  0
POINT
  5
2C2
330
2BB
100
AcDbEntity
  8
DEFPOINTS
 62
     0
100
AcDbPoint
 10
4.350310294566881
 20
6.852878947103647
 30
0.0
  0
POINT
  5
2C3
330
2BB
100
AcDbEntity
  8
DEFPOINTS
 62
     0
100
AcDbPoint
 10
4.350310294566881
 20
37.35287894710365
 30
0.0
  0
POINT
  5
2C4
330
2BB
100
AcDbEntity
  8
DEFPOINTS
 62
     0
100
AcDbPoint
 10
12.35031029456688
 20
37.35287894710365
 30
0.0
  0
ENDBLK
  5
2C6
330
2BB
100
AcDbEntity
  8
0
100
AcDbBlockEnd
  0
BLOCK
  5
2D3
330
2C7
100
AcDbEntity
  8
0
100
AcDbBlockBegin
  2
*D7
 70
     1
 10
0.0
 20
0.0
 30
0.0
  3
*D7
  1

  0
LINE
  5
2C8
330
2C7
100
AcDbEntity
  8
SUNPO
 62
     0
370
    -2
100
AcDbLine
 10
37.25628835865882
 20
39.35912500731138
 30
0.0
 11
37.25628835865882
 21
47.35259250275231
 31
0.0
  0
LINE
  5
2C9
330
2C7
100
AcDbEntity
  8
SUNPO
 62
     0
370
    -2
100
AcDbLine
 10
41.70628835865881
 20
39.35912500731138
 30
0.0
 11
41.70628835865881
 21
47.35259250275231
 31
0.0
  0
LINE
  5
2CA
330
2C7
100
AcDbEntity
  8
SUNPO
 62
     0
370
    -2
100
AcDbLine
 10
35.25628835865882
 20
45.35259250275231
 30
0.0
 11
33.25628835865882
 21
45.35259250275231
 31
0.0
  0
LINE
  5
2CB
330
2C7
100
AcDbEntity
  8
SUNPO
 62
     0
370
    -2
100
AcDbLine
 10
43.70628835865881
 20
45.35259250275231
 30
0.0
 11
50.87295502532548
 21
45.35259250275231
 31
0.0
  0
LINE
  5
2CC
330
2C7
100
AcDbEntity
  8
SUNPO
 62
     0
370
    -2
100
AcDbLine
 10
37.25628835865882
 20
45.35259250275231
 30
0.0
 11
41.70628835865881
 21
45.35259250275231
 31
0.0
  0
INSERT
  5
2CD
330
2C7
100
AcDbEntity
  8
SUNPO
 62
     0
370
    -2
100
AcDbBlockReference
  2
_OPEN30
 10
37.25628835865882
 20
45.35259250275231
 30
0.0
 41
2.0
 42
2.0
 43
2.0
  0
INSERT
  5
2CE
330
2C7
100
AcDbEntity
  8
SUNPO
 62
     0
370
    -2
100
AcDbBlockReference
  2
_OPEN30
 10
41.70628835865881
 20
45.35259250275231
 30
0.0
 41
2.0
 42
2.0
 43
2.0
 50
180.0
  0
MTEXT
  5
2CF
330
2C7
100
AcDbEntity
  8
SUNPO
 62
     0
100
AcDbMText
 10
48.28962169199215
 20
47.10259250275231
 30
0.0
 40
2.5
 41
0.0
 71
     5
 72
     1
  1
\A1;89
 73
     1
 44
1.0
1001
ACAD
1000
MTEXTBEGIN
1070
    73
1070
     1
1070
    44
1040
1.0
1070
    74
1070
     0
1000
MTEXTEND
  0
POINT
  5
2D0
330
2C7
100
AcDbEntity
  8
DEFPOINTS
 62
     0
100
AcDbPoint
 10
37.25628835865882
 20
37.35912500731138
 30
0.0
  0
POINT
  5
2D1
330
2C7
100
AcDbEntity
  8
DEFPOINTS
 62
     0
100
AcDbPoint
 10
41.70628835865881
 20
37.35912500731138
 30
0.0
  0
POINT
  5
2D2
330
2C7
100
AcDbEntity
  8
DEFPOINTS
 62
     0
100
AcDbPoint
 10
41.70628835865881
 20
45.35259250275231
 30
0.0
  0
ENDBLK
  5
2D4
330
2C7
100
AcDbEntity
  8
0
100
AcDbBlockEnd
  0
BLOCK
  5
2DF
330
2D5
100
AcDbEntity
  8
0
100
AcDbBlockBegin
  2
*D8
 70
     1
 10
0.0
 20
0.0
 30
0.0
  3
*D8
  1

  0
LINE
  5
2D6
330
2D5
100
AcDbEntity
  8
SUNPO
 62
     0
370
    -2
100
AcDbLine
 10
14.35031029456689
 20
37.35287894710365
 30
0.0
 11
21.3503102945669
 21
37.35287894710364
 31
0.0
  0
LINE
  5
2D7
330
2D5
100
AcDbEntity
  8
SUNPO
 62
     0
370
    -2
100
AcDbLine
 10
-4.198384714979226
 20
3.88580097698184
 30
0.0
 11
21.3503102945669
 21
3.885800976981832
 31
0.0
  0
LINE
  5
2D8
330
2D5
100
AcDbEntity
  8
SUNPO
 62
     0
370
    -2
100
AcDbLine
 10
19.3503102945669
 20
35.35287894710364
 30
0.0
 11
19.35031029456689
 21
5.885800976981832
 31
0.0
  0
INSERT
  5
2D9
330
2D5
100
AcDbEntity
  8
SUNPO
 62
     0
370
    -2
100
AcDbBlockReference
  2
_OPEN30
 10
19.3503102945669
 20
37.35287894710364
 30
0.0
 41
2.0
 42
2.0
 43
2.0
 50
90.0
  0
INSERT
  5
2DA
330
2D5
100
AcDbEntity
  8
SUNPO
 62
     0
370
    -2
100
AcDbBlockReference
  2
_OPEN30
 10
19.35031029456689
 20
3.885800976981833
 30
0.0
 41
2.0
 42
2.0
 43
2.0
 50
270.0
  0
MTEXT
  5
2DB
330
2D5
100
AcDbEntity
  8
SUNPO
 62
     0
100
AcDbMText
 10
17.60031029456689
 20
20.61933996204274
 30
0.0
 40
2.5
 41
0.0
 71
     5
 72
     1
  1
\A1;669
 11
0.0000000000000001
 21
1.0
 31
0.0
 73
     1
 44
1.0
1001
ACAD
1000
MTEXTBEGIN
1070
    73
1070
     1
1070
    44
1040
1.0
1070
    74
1070
     0
1000
MTEXTEND
  0
POINT
  5
2DC
330
2D5
100
AcDbEntity
  8
DEFPOINTS
 62
     0
100
AcDbPoint
 10
12.35031029456689
 20
37.35287894710365
 30
0.0
  0
POINT
  5
2DD
330
2D5
100
AcDbEntity
  8
DEFPOINTS
 62
     0
100
AcDbPoint
 10
-6.198384714979226
 20
3.88580097698184
 30
0.0
  0
POINT
  5
2DE
330
2D5
100
AcDbEntity
  8
DEFPOINTS
 62
     0
100
AcDbPoint
 10
19.35031029456689
 20
3.885800976981833
 30
0.0
  0
ENDBLK
  5
2E0
330
2D5
100
AcDbEntity
  8
0
100
AcDbBlockEnd
  0
ENDSEC
  0
SECTION
  2
ENTITIES
  0
TEXT
  5
30
330
2
100
AcDbEntity
  8
MOJI1
100
AcDbText
 10
-34.13424368953258
 20
61.03102414684383
 30
0.0
 40
4.0
  1
フルハイビジョンプラズマディスプレイ据置きスタンド付
 41
0.8
100
AcDbText
  0
TEXT
  5
32
330
2
100
AcDbEntity
  8
TOUROKU
100
AcDbText
 10
26.26570634339506
 20
55.03102414684338
 30
0.0
 40
2.0
  1
ＴＨ４２ＰＦ３０＋ＴＹＳＴ２０Ｋ
 72
     2
 11
63.86570634339505
 21
55.03102414684338
 31
0.0
100
AcDbText
  0
DIMENSION
  5
34
330
2
100
AcDbEntity
  8
SUNPO
100
AcDbDimension
  2
*D8
 10
19.35031029456689
 20
3.885800976981833
 30
0.0
 11
17.60031029456689
 21
20.61933996204274
 31
0.0
 70
    32
  1
669
 71
     5
 42
33.46707797012181
  3
STANDARD
100
AcDbAlignedDimension
 13
12.35031029456689
 23
37.35287894710365
 33
0.0
 14
-6.198384714979226
 24
3.88580097698184
 34
0.0
 50
90.0
100
AcDbRotatedDimension
1001
ACAD
1000
DSTYLE
1002
{
1070
    40
1040
1.0
1070
   140
1040
2.5
1070
   147
1040
0.5
1070
   172
1070
     1
1070
   279
1070
     0
1070
   288
1070
     0
1002
}
  0
LINE
  5
43
330
2
100
AcDbEntity
  8
GAIKEI
  6
Continuous
 62
     1
100
AcDbLine
 10
46.98814017529541
 20
4.007952896962706
 30
0.0
 11
46.98814017529541
 21
3.922957446962698
 31
0.0
  0
LINE
  5
44
330
2
100
AcDbEntity
  8
GAIKEI
  6
Continuous
 62
     1
100
AcDbLine
 10
45.31803927529544
 20
4.007952896962706
 30
0.0
 11
45.31803927529544
 21
3.922957446962698
 31
0.0
  0
LINE
  5
45
330
2
100
AcDbEntity
  8
GAIKEI
  6
Continuous
 62
     1
100
AcDbLine
 10
42.31803927529544
 20
4.007952896962706
 30
0.0
 11
42.31803927529544
 21
3.922957446962698
 31
0.0
  0
LINE
  5
46
330
2
100
AcDbEntity
  8
GAIKEI
  6
Continuous
 62
     1
100
AcDbLine
 10
42.31803927529544
 20
3.922957446962698
 30
0.0
 11
46.98814017529541
 21
3.922957446962698
 31
0.0
  0
LINE
  5
47
330
2
100
AcDbEntity
  8
GAIKEI
  6
Continuous
 62
     1
100
AcDbLine
 10
31.03290017529541
 20
3.922957446962698
 30
0.0
 11
34.08034032529541
 21
3.922957446962698
 31
0.0
  0
LINE
  5
48
330
2
100
AcDbEntity
  8
GAIKEI
  6
Continuous
 62
     1
100
AcDbLine
 10
31.03290017529541
 20
4.007952896962706
 30
0.0
 11
31.03290017529541
 21
3.922957446962698
 31
0.0
  0
LINE
  5
49
330
2
100
AcDbEntity
  8
GAIKEI
  6
Continuous
 62
     1
100
AcDbLine
 10
34.08034032529541
 20
4.007952896962706
 30
0.0
 11
34.08034032529541
 21
3.922957446962698
 31
0.0
  0
LINE
  5
4A
330
2
100
AcDbEntity
  8
GAIKEI
  6
Continuous
 62
     1
100
AcDbLine
 10
40.59991077529541
 20
8.082771396962698
 30
0.0
 11
40.59884052529541
 21
8.021457046962723
 31
0.0
  0
ELLIPSE
  5
4B
330
2
100
AcDbEntity
  8
GAIKEI
  6
Continuous
 62
     1
100
AcDbEllipse
 10
40.59796792529543
 20
8.021457046962723
 30
0.0
 11
0.0026167978121473
 21
-0.0499314767377287
 31
0.0
210
0.0
220
0.0
230
1.0
 40
0.017428
 41
0.0
 42
1.569882938288277
  0
LINE
  5
4C
330
2
100
AcDbEntity
  8
GAIKEI
  6
Continuous
 62
     7
100
AcDbLine
 10
30.83286882529545
 20
4.057951996962685
 30
0.0
 11
47.18286802529546
 21
4.057951996962685
 31
0.0
  0
LINE
  5
4D
330
2
100
AcDbEntity
  8
GAIKEI
  6
Continuous
 62
     7
100
AcDbLine
 10
33.33111587529542
 20
4.957989296962693
 30
0.0
 11
34.64211887529546
 21
5.014316796962702
 31
0.0
  0
LINE
  5
4E
330
2
100
AcDbEntity
  8
GAIKEI
  6
Continuous
 62
     7
100
AcDbLine
 10
34.64211887529546
 20
5.014316796962702
 30
0.0
 11
41.63525187529545
 21
5.314539846962702
 31
0.0
  0
LINE
  5
4F
330
2
100
AcDbEntity
  8
GAIKEI
  6
Continuous
 62
     1
100
AcDbLine
 10
45.57772002529541
 20
4.007951996962674
 30
0.0
 11
42.87698167529542
 21
4.007951996962674
 31
0.0
  0
LINE
  5
50
330
2
100
AcDbEntity
  8
GAIKEI
  6
Continuous
 62
     1
100
AcDbLine
 10
42.87698167529542
 20
4.007951996962674
 30
0.0
 11
32.62139537529542
 21
4.007951996962674
 31
0.0
  0
LINE
  5
51
330
2
100
AcDbEntity
  8
GAIKEI
  6
Continuous
 62
     7
100
AcDbLine
 10
47.18286817529547
 20
4.057949496962692
 30
0.0
 11
47.1643861752954
 21
4.410606596962679
 31
0.0
  0
LINE
  5
52
330
2
100
AcDbEntity
  8
GAIKEI
  6
Continuous
 62
     7
100
AcDbLine
 10
47.1643861752954
 20
4.410606596962679
 30
0.0
 11
47.16436247529542
 21
4.411058996962651
 31
0.0
  0
LINE
  5
53
330
2
100
AcDbEntity
  8
GAIKEI
  6
Continuous
 62
     1
100
AcDbLine
 10
47.13461567529542
 20
4.007951996962674
 30
0.0
 11
45.57772002529541
 21
4.007951996962674
 31
0.0
  0
LINE
  5
54
330
2
100
AcDbEntity
  8
GAIKEI
  6
Continuous
 62
     1
100
AcDbLine
 10
47.13461567529542
 20
4.007951996962674
 30
0.0
 11
47.13548842529546
 21
4.057951996962685
 31
0.0
  0
LINE
  5
55
330
2
100
AcDbEntity
  8
GAIKEI
  6
Continuous
 62
     1
100
AcDbLine
 10
43.46706189472283
 20
6.907951996962651
 30
0.0
 11
43.53194887529541
 21
5.340366796962712
 31
0.0
  0
LINE
  5
56
330
2
100
AcDbEntity
  8
GAIKEI
  6
Continuous
 62
     1
100
AcDbLine
 10
43.10556717529543
 20
5.377699096962714
 30
0.0
 11
43.14280962529544
 21
6.682951996962685
 31
0.0
  0
LINE
  5
57
330
2
100
AcDbEntity
  8
GAIKEI
  6
Continuous
 62
     1
100
AcDbLine
 10
43.1504003747091
 20
6.907951996962651
 30
0.0
 11
43.14280962529544
 21
6.682951996962685
 31
0.0
  0
LINE
  5
58
330
2
100
AcDbEntity
  8
GAIKEI
  6
Continuous
 62
     7
100
AcDbLine
 10
39.11562257529543
 20
6.303886396962695
 30
0.0
 11
39.05796932529545
 21
5.203796996962694
 31
0.0
  0
LINE
  5
59
330
2
100
AcDbEntity
  8
GAIKEI
  6
Continuous
 62
     1
100
AcDbLine
 10
43.1428097252954
 20
6.682951996962685
 30
0.0
 11
43.13312807529546
 21
6.682452646962701
 31
0.0
  0
LINE
  5
5A
330
2
100
AcDbEntity
  8
GAIKEI
  6
Continuous
 62
     7
100
AcDbLine
 10
40.1447982014964
 20
6.86056914684002
 30
0.0
 11
40.13548842529546
 21
6.682951996962685
 31
0.0
  0
LINE
  5
5B
330
2
100
AcDbEntity
  8
GAIKEI
  6
Continuous
 62
     1
100
AcDbLine
 10
39.11605972529542
 20
6.306914196962679
 30
0.0
 11
39.11562257529543
 21
6.303886396962695
 31
0.0
  0
LINE
  5
5C
330
2
100
AcDbEntity
  8
GAIKEI
  6
Continuous
 62
     7
100
AcDbLine
 10
43.14280962529544
 20
6.682951996962685
 30
0.0
 11
39.50786702529546
 21
6.682951996962685
 31
0.0
  0
LINE
  5
5D
330
2
100
AcDbEntity
  8
GAIKEI
  6
Continuous
 62
     7
100
AcDbLine
 10
46.08115707529542
 20
4.857483446962646
 30
0.0
 11
45.97617992529545
 21
6.860568796962695
 31
0.0
  0
LINE
  5
5E
330
2
100
AcDbEntity
  8
GAIKEI
  6
Continuous
 62
     7
100
AcDbLine
 10
30.85103947529545
 20
4.404669546962736
 30
0.0
 11
30.83286882529545
 21
4.057951996962685
 31
0.0
  0
LINE
  5
5F
330
2
100
AcDbEntity
  8
GAIKEI
  6
Continuous
 62
     7
100
AcDbLine
 10
30.90521262529545
 20
4.472824346962681
 30
0.0
 11
30.90647322529541
 21
4.472830646962734
 31
0.0
  0
LINE
  5
60
330
2
100
AcDbEntity
  8
GAIKEI
  6
Continuous
 62
     1
100
AcDbLine
 10
30.88024842529545
 20
4.057951996962685
 30
0.0
 11
30.88112117529544
 21
4.007951996962674
 31
0.0
  0
LINE
  5
61
330
2
100
AcDbEntity
  8
GAIKEI
  6
Continuous
 62
     1
100
AcDbLine
 10
32.62139537529542
 20
4.007951996962674
 30
0.0
 11
30.88112117529544
 21
4.007951996962674
 31
0.0
  0
LINE
  5
62
330
2
100
AcDbEntity
  8
GAIKEI
  6
Continuous
 62
     7
100
AcDbLine
 10
33.32834957529546
 20
4.957732696962693
 30
0.0
 11
33.24628717529542
 21
4.948020646962731
 31
0.0
  0
LINE
  5
63
330
2
100
AcDbEntity
  8
GAIKEI
  6
Continuous
 62
     7
100
AcDbLine
 10
39.50670017529545
 20
6.682951996962685
 30
0.0
 11
39.50646512529544
 21
6.682951996962685
 31
0.0
  0
ARC
  5
64
330
2
100
AcDbEntity
  8
GAIKEI
  6
Continuous
 62
     1
100
AcDbCircle
 10
51.13030231764724
 20
-25819.25082693005
 30
0.0
 40
25823.66365687701
100
AcDbArc
 50
90.01833963584077
 51
90.04112100375493
  0
ARC
  5
65
330
2
100
AcDbEntity
  8
GAIKEI
  6
Continuous
 62
     1
100
AcDbCircle
 10
34.42835582529544
 20
-4963.261313603037
 30
0.0
 40
4967.73539265
100
AcDbArc
 50
90.02062899999971
 51
90.04062000001299
  0
ARC
  5
66
330
2
100
AcDbEntity
  8
GAIKEI
  6
Continuous
 62
     1
100
AcDbCircle
 10
45.00067132529544
 20
1913.634048146962
 30
0.0
 40
1909.15915585
100
AcDbArc
 50
270.016738000005
 51
270.0635419999989
  0
ARC
  5
67
330
2
100
AcDbEntity
  8
GAIKEI
  6
Continuous
 62
     1
100
AcDbCircle
 10
51.43759621859134
 20
-49911.07681009149
 30
0.0
 40
49915.55410673845
100
AcDbArc
 50
90.00981797549687
 51
90.02157695766809
  0
ARC
  5
68
330
2
100
AcDbEntity
  8
GAIKEI
  6
Continuous
 62
     7
100
AcDbCircle
 10
-144.9144585247045
 20
4362.188334796964
 30
0.0
 40
4360.86574655
100
AcDbArc
 50
272.4517550000123
 51
272.4664899999906
  0
ARC
  5
69
330
2
100
AcDbEntity
  8
GAIKEI
  6
Continuous
 62
     7
100
AcDbCircle
 10
411.0883960252955
 20
-8558.424124303037
 30
0.0
 40
8571.704208699999
100
AcDbArc
 50
92.4594359999879
 51
92.4628020000051
  0
ARC
  5
6A
330
2
100
AcDbEntity
  8
GAIKEI
  6
Continuous
 62
     7
100
AcDbCircle
 10
41.42246017529543
 20
-9.407028503037281
 30
0.0
 40
15.00599075
100
AcDbArc
 50
69.52202899999353
 51
71.91329799998952
  0
ARC
  5
6B
330
2
100
AcDbEntity
  8
GAIKEI
  6
Continuous
 62
     1
100
AcDbCircle
 10
44.05727902529541
 20
1560.689824546962
 30
0.0
 40
1556.2823196
100
AcDbArc
 50
270.0570450000015
 51
270.1143910000083
  0
ARC
  5
6C
330
2
100
AcDbEntity
  8
GAIKEI
  6
Continuous
 62
     7
100
AcDbCircle
 10
47.08948897529545
 20
4.406681396962653
 30
0.0
 40
0.075
100
AcDbArc
 50
3.000002000000589
 51
67.68834699999986
  0
ARC
  5
6D
330
2
100
AcDbEntity
  8
GAIKEI
  6
Continuous
 62
     1
100
AcDbCircle
 10
39.51507422529544
 20
6.282951996962651
 30
0.0
 40
0.4
100
AcDbArc
 50
175.1237199999948
 51
176.7800380000024
  0
ARC
  5
6E
330
2
100
AcDbEntity
  8
GAIKEI
  6
Continuous
 62
     1
100
AcDbCircle
 10
39.51507422529544
 20
6.282951996962651
 30
0.0
 40
0.4
100
AcDbArc
 50
176.7800380000024
 51
176.9999999999944
  0
ARC
  5
6F
330
2
100
AcDbEntity
  8
GAIKEI
  6
Continuous
 62
     7
100
AcDbCircle
 10
45.92624842529544
 20
6.857951996962697
 30
0.0
 40
0.05
100
AcDbArc
 50
3.000000000005594
 51
90.0
  0
ARC
  5
70
330
2
100
AcDbEntity
  8
GAIKEI
  6
Continuous
 62
     1
100
AcDbCircle
 10
34.4838906752954
 20
-3187.114461753038
 30
0.0
 40
3191.5211989
100
AcDbArc
 50
90.03388100001188
 51
90.06521899999134
  0
ARC
  5
71
330
2
100
AcDbEntity
  8
GAIKEI
  6
Continuous
 62
     7
100
AcDbCircle
 10
30.92593717529546
 20
4.400743796962728
 30
0.0
 40
0.07500075
100
AcDbArc
 50
106.0409520000038
 51
125.8179270000076
  0
ARC
  5
72
330
2
100
AcDbEntity
  8
GAIKEI
  6
Continuous
 62
     7
100
AcDbCircle
 10
30.92593672529544
 20
4.40074434696271
 30
0.0
 40
0.075
100
AcDbArc
 50
125.8333480000042
 51
127.2449389999962
  0
ARC
  5
73
330
2
100
AcDbEntity
  8
GAIKEI
  6
Continuous
 62
     7
100
AcDbCircle
 10
30.92593672529544
 20
4.40074434696271
 30
0.0
 40
0.075
100
AcDbArc
 50
106.0408240000075
 51
117.7383060000023
  0
ARC
  5
74
330
2
100
AcDbEntity
  8
GAIKEI
  6
Continuous
 62
     7
100
AcDbCircle
 10
30.92593672529544
 20
4.40074434696271
 30
0.0
 40
0.075
100
AcDbArc
 50
120.6622640000078
 51
125.8333480000042
  0
ARC
  5
75
330
2
100
AcDbEntity
  8
GAIKEI
  6
Continuous
 62
     7
100
AcDbCircle
 10
39.36460937529544
 20
-14.76807050303728
 30
0.0
 40
20.74830165
100
AcDbArc
 50
68.71392599999144
 51
69.0164889999891
  0
ARC
  5
76
330
2
100
AcDbEntity
  8
GAIKEI
  6
Continuous
 62
     7
100
AcDbCircle
 10
30.92593672529544
 20
4.40074434696271
 30
0.0
 40
0.075
100
AcDbArc
 50
127.2449389999962
 51
177.0000019999894
  0
LINE
  5
77
330
2
100
AcDbEntity
  8
GAIKEI
  6
Continuous
 62
     7
100
AcDbLine
 10
40.02286802529543
 20
7.69507459696274
 30
0.0
 11
40.02286802529543
 21
7.322951996962729
 31
0.0
  0
LINE
  5
78
330
2
100
AcDbEntity
  8
GAIKEI
  6
Continuous
 62
     7
100
AcDbLine
 10
40.02286802529543
 20
7.322951996962729
 30
0.0
 11
40.02401782529545
 21
7.257079346962655
 31
0.0
  0
LINE
  5
79
330
2
100
AcDbEntity
  8
GAIKEI
  6
Continuous
 62
     7
100
AcDbLine
 10
40.02286802529543
 20
7.941248746962685
 30
0.0
 11
40.02286802529543
 21
7.697566196962725
 31
0.0
  0
LINE
  5
7A
330
2
100
AcDbEntity
  8
GAIKEI
  6
Continuous
 62
     7
100
AcDbLine
 10
40.14372449791882
 20
7.158883480919371
 30
0.0
 11
40.14593787529541
 21
7.032079346962689
 31
0.0
  0
LINE
  5
7B
330
2
100
AcDbEntity
  8
GAIKEI
  6
Continuous
 62
     7
100
AcDbLine
 10
42.29417697529543
 20
7.678691896962732
 30
0.0
 11
41.31371900278293
 21
7.695805858827952
 31
0.0
  0
LINE
  5
7C
330
2
100
AcDbEntity
  8
GAIKEI
  6
Continuous
 62
     7
100
AcDbLine
 10
40.22529732529544
 20
6.982951996962697
 30
0.0
 11
40.61786802529541
 21
6.982951996962754
 31
0.0
  0
LINE
  5
7D
330
2
100
AcDbEntity
  8
GAIKEI
  6
Continuous
 62
     7
100
AcDbLine
 10
40.22529732529544
 20
6.982951996962697
 30
0.0
 11
40.19593027529542
 21
6.982951996962697
 31
0.0
  0
LINE
  5
7E
330
2
100
AcDbEntity
  8
GAIKEI
  6
Continuous
 62
     7
100
AcDbLine
 10
42.36786802529539
 20
6.907951996962594
 30
0.0
 11
42.3678680252954
 21
7.628270746962698
 31
0.0
  0
LINE
  5
7F
330
2
100
AcDbEntity
  8
GAIKEI
  6
Continuous
 62
     7
100
AcDbLine
 10
42.31874062529543
 20
7.678263146962649
 30
0.0
 11
42.29417697529543
 21
7.678691896962732
 31
0.0
  0
LINE
  5
80
330
2
100
AcDbEntity
  8
GAIKEI
  6
Continuous
 62
     1
100
AcDbLine
 10
40.62128362529544
 20
7.953107596962695
 30
0.0
 11
40.62127332529546
 21
7.972609796962728
 31
0.0
  0
LINE
  5
81
330
2
100
AcDbEntity
  8
GAIKEI
  6
Continuous
 62
     7
100
AcDbLine
 10
40.02496582529544
 20
7.256999446962709
 30
0.0
 11
40.02401782529545
 21
7.257079346962655
 31
0.0
  0
LINE
  5
82
330
2
100
AcDbEntity
  8
GAIKEI
  6
Continuous
 62
     7
100
AcDbLine
 10
40.09373317529541
 20
7.207951996962719
 30
0.0
 11
40.07401022529545
 21
7.207951996962719
 31
0.0
  0
LINE
  5
83
330
2
100
AcDbEntity
  8
GAIKEI
  6
Continuous
 62
     7
100
AcDbLine
 10
40.02286802529543
 20
7.695351446962718
 30
0.0
 11
40.02286802529543
 21
7.697566246962651
 31
0.0
  0
LINE
  5
84
330
2
100
AcDbEntity
  8
GAIKEI
  6
Continuous
 62
     7
100
AcDbLine
 10
41.06792852937558
 20
7.94027169012287
 30
0.0
 11
41.06792852937558
 21
7.993349074164655
 31
0.0
  0
ARC
  5
85
330
2
100
AcDbEntity
  8
GAIKEI
  6
Continuous
 62
     7
100
AcDbCircle
 10
40.19593027529542
 20
7.032951996962651
 30
0.0
 40
0.05
100
AcDbArc
 50
181.0000000000017
 51
270.0
  0
ARC
  5
86
330
2
100
AcDbEntity
  8
GAIKEI
  6
Continuous
 62
     7
100
AcDbCircle
 10
42.31786802529545
 20
7.628270746962698
 30
0.0
 40
0.05
100
AcDbArc
 50
77.54762100000641
 51
88.99999999999824
  0
ARC
  5
87
330
2
100
AcDbEntity
  8
GAIKEI
  6
Continuous
 62
     7
100
AcDbCircle
 10
40.09373317529541
 20
7.157951996962651
 30
0.0
 40
0.05
100
AcDbArc
 50
1.000000000001761
 51
90.0
  0
ARC
  5
88
330
2
100
AcDbEntity
  8
GAIKEI
  6
Continuous
 62
     7
100
AcDbCircle
 10
41.31786802529545
 20
7.945771546962703
 30
0.0
 40
0.25
100
AcDbArc
 50
266.3658909999983
 51
268.9999999999983
  0
ELLIPSE
  5
89
330
2
100
AcDbEntity
  8
GAIKEI
  6
Continuous
 62
     7
100
AcDbEllipse
 10
40.07286802529544
 20
7.69507459696274
 30
0.0
 11
0.05
 21
0.0
 31
0.0
210
0.0
220
0.0
230
1.0
 40
0.980911
 41
3.037361646230472
 42
3.141592653589792
  0
ELLIPSE
  5
8A
330
2
100
AcDbEntity
  8
GAIKEI
  6
Continuous
 62
     7
100
AcDbEllipse
 10
39.77401457529543
 20
7.721482046962705
 30
0.0
 11
-0.2488534375446101
 21
0.0239158236787032
 31
0.0
210
0.0
220
0.0
230
1.0
 40
0.7971729999999999
 41
3.152374835161784
 42
3.260011954860289
  0
ELLIPSE
  5
8B
330
2
100
AcDbEntity
  8
GAIKEI
  6
Continuous
 62
     7
100
AcDbEllipse
 10
40.07286802529544
 20
7.695351446962718
 30
0.0
 11
0.05
 21
0.0000000000000001
 31
0.0
210
0.0
220
0.0
230
1.0
 40
0.9972190000000001
 41
3.054136244002213
 42
3.141592653589792
  0
LINE
  5
8C
330
2
100
AcDbEntity
  8
GAIKEI
  6
Continuous
 62
     7
100
AcDbLine
 10
40.02401782529545
 20
7.257079346962655
 30
0.0
 11
40.02403322529544
 21
7.25705839696269
 31
0.0
  0
ARC
  5
8D
330
2
100
AcDbEntity
  8
GAIKEI
  6
Continuous
 62
     7
100
AcDbCircle
 10
42.31786802529545
 20
7.628270746962698
 30
0.0
 40
0.05
100
AcDbArc
 50
76.51164299999121
 51
77.54762100000641
  0
ARC
  5
8E
330
2
100
AcDbEntity
  8
GAIKEI
  6
Continuous
 62
     7
100
AcDbCircle
 10
42.31734082529543
 20
7.628294646962672
 30
0.0
 40
0.0501562
100
AcDbArc
 50
359.9751490000079
 51
35.43354499999367
  0
LINE
  5
8F
330
2
100
AcDbEntity
  8
GAIKEI
  6
Continuous
 62
     1
100
AcDbLine
 10
40.61786802529541
 20
6.982951996962754
 30
0.0
 11
40.61786802529541
 21
6.907951996962651
 31
0.0
  0
LINE
  5
90
330
2
100
AcDbEntity
  8
GAIKEI
  6
Continuous
 62
     1
100
AcDbLine
 10
42.81425707529545
 20
7.207951996962719
 30
0.0
 11
42.81425707529545
 21
6.907951996962651
 31
0.0
  0
LINE
  5
91
330
2
100
AcDbEntity
  8
GAIKEI
  6
Continuous
 62
     1
100
AcDbLine
 10
43.92022722529541
 20
7.207951996962719
 30
0.0
 11
43.92022722529541
 21
6.907951996962651
 31
0.0
  0
LINE
  5
92
330
2
100
AcDbEntity
  8
GAIKEI
  6
Continuous
 62
     7
100
AcDbLine
 10
45.92624842529544
 20
6.907951996962651
 30
0.0
 11
40.19472965978192
 21
6.907951996962651
 31
0.0
  0
LINE
  5
93
330
2
100
AcDbEntity
  8
GAIKEI
  6
Continuous
 62
     7
100
AcDbLine
 10
44.8678680252954
 20
7.207951996962719
 30
0.0
 11
44.8678680252954
 21
6.907951996962651
 31
0.0
  0
LINE
  5
94
330
2
100
AcDbEntity
  8
GAIKEI
  6
Continuous
 62
     7
100
AcDbLine
 10
44.8678680252954
 20
7.207951996962719
 30
0.0
 11
42.36786802529539
 21
7.207951996962663
 31
0.0
  0
SPLINE
  5
95
330
2
100
AcDbEntity
  8
GAIKEI
  6
Continuous
 62
     1
100
AcDbSpline
210
0.0
220
0.0
230
1.0
 70
     8
 71
     3
 72
    82
 73
    78
 74
    76
 42
0.0000000001
 43
0.0000000001
 44
0.000001
 12
-0.9995741508772198
 22
-0.0291807624657947
 32
0.0
 13
-0.9999622455141839
 23
0.0086895078244443
 33
0.0
 40
0.0
 40
0.0
 40
0.0
 40
0.0
 40
0.0156970871674594
 40
0.0338358434209383
 40
0.0545721643883805
 40
0.0780611155210447
 40
0.1044560385481389
 40
0.1339075760106851
 40
0.1611166113097521
 40
0.1906705507151967
 40
0.2226508729752282
 40
0.2571355611223686
 40
0.2896125049030233
 40
0.32413354850799
 40
0.3335181551442334
 40
0.3430467888570694
 40
0.3527201906839756
 40
0.3625390845064829
 40
0.3725041766146582
 40
0.3826161552677065
 40
0.4337481896043919
 40
0.4878330654657048
 40
0.5448539663270146
 40
0.5840840588051625
 40
0.6245725977239366
 40
0.6326726376323205
 40
0.640820709158037
 40
0.6490167156797578
 40
0.6572605578331345
 40
0.6655521334983062
 40
0.6738913377875774
 40
0.68227806303301
 40
0.6907121987739871
 40
0.7205887716124251
 40
0.7531096028392762
 40
0.788361649701387
 40
0.8264323485262224
 40
0.8674084468829608
 40
0.9105629194391195
 40
0.9566789484765301
 40
1.005829265586074
 40
1.058080674587897
 40
1.112225345201811
 40
1.164533141258724
 40
1.214865268311046
 40
1.263099149587115
 40
1.309127171564652
 40
1.333957195635447
 40
1.358047799768175
 40
1.3813853218999
 40
1.403957208504988
 40
1.425751950833737
 40
1.446759022676508
 40
1.466968819777724
 40
1.519862750444704
 40
1.575208167402992
 40
1.632995324160089
 40
1.69320461082103
 40
1.725699668343676
 40
1.758845424487928
 40
1.792635235564809
 40
1.827061457148159
 40
1.862115398324028
 40
1.897787275764293
 40
1.970298722078834
 40
2.041150693785629
 40
2.110259354769546
 40
2.177552834899325
 40
2.242970606635313
 40
2.306462849037341
 40
2.367989804220489
 40
2.437247362096569
 40
2.503755823150162
 40
2.567496871227422
 40
2.628465697017552
 40
2.686669667056508
 40
2.742127049182805
 40
2.742127049182805
 40
2.742127049182805
 40
2.742127049182805
 10
45.60675720259625
 20
4.408276300490797
 30
0.0
 10
45.60152706840404
 20
4.40812361616679
 30
0.0
 10
45.59025254657541
 20
4.407817698604617
 30
0.0
 10
45.57206591997308
 20
4.407428266698559
 30
0.0
 10
45.55128115939739
 20
4.407058982135367
 30
0.0
 10
45.52774356099916
 20
4.406715807451746
 30
0.0
 10
45.50130032505322
 20
4.40639692587257
 30
0.0
 10
45.47361651670875
 20
4.406121075961209
 30
0.0
 10
45.44487934707302
 20
4.405880254538715
 30
0.0
 10
45.41529899088274
 20
4.405669643535929
 30
0.0
 10
45.38329325083807
 20
4.4054766372534
 30
0.0
 10
45.35031302098587
 20
4.405309021856169
 30
0.0
 10
45.31648577366621
 20
4.40516334609947
 30
0.0
 10
45.29102507732227
 20
4.405070266018526
 30
0.0
 10
45.27321374610593
 20
4.405011549086339
 30
0.0
 10
45.26368491255408
 20
4.404981552196545
 30
0.0
 10
45.25401131304042
 20
4.40495249591953
 30
0.0
 10
45.24419222401824
 20
4.404924377055976
 30
0.0
 10
45.23422693949078
 20
4.404897209241482
 30
0.0
 10
45.21049065118255
 20
4.404835547646484
 30
0.0
 10
45.17204777476774
 20
4.404752375294606
 30
0.0
 10
45.11796856373215
 20
4.404670212802841
 30
0.0
 10
45.0678566271568
 20
4.404622771987362
 30
0.0
 10
45.02227678855038
 20
4.404599066149103
 30
0.0
 10
44.99300389813635
 20
4.40459323400654
 30
0.0
 10
44.9740916813567
 20
4.404592836354197
 30
0.0
 10
44.96594364203791
 20
4.404593142688781
 30
0.0
 10
44.9577476686708
 20
4.404593925503661
 30
0.0
 10
44.94950386064904
 20
4.404595184796562
 30
0.0
 10
44.94121232012381
 20
4.404596920749497
 30
0.0
 10
44.93287315201292
 20
4.404599132630892
 30
0.0
 10
44.92448646401491
 20
4.40460182320811
 30
0.0
 10
44.9089206538254
 20
4.404607653130085
 30
0.0
 10
44.88531014341906
 20
4.404619584009878
 30
0.0
 10
44.85276033367546
 20
4.404641455082582
 30
0.0
 10
44.81747915286365
 20
4.404670052081655
 30
0.0
 10
44.77937955449758
 20
4.404705388903437
 30
0.0
 10
44.73864581930629
 20
4.404747185636836
 30
0.0
 10
44.69523031263868
 20
4.404795326086741
 30
0.0
 10
44.64909007174646
 20
4.4048497022535
 30
0.0
 10
44.59991752438853
 20
4.404910605089639
 30
0.0
 10
44.54806876844623
 20
4.404977368467257
 30
0.0
 10
44.49516752389321
 20
4.405048163513811
 30
0.0
 10
44.44290604438228
 20
4.405121728901463
 30
0.0
 10
44.39261483154425
 20
4.405196339895269
 30
0.0
 10
44.34441688080449
 20
4.405272027439309
 30
0.0
 10
44.3047196268796
 20
4.405338266984813
 30
0.0
 10
44.27307012565828
 20
4.40539387968937
 30
0.0
 10
44.24898411564187
 20
4.405437839457363
 30
0.0
 10
44.2256508200469
 20
4.405482137869171
 30
0.0
 10
44.20308281380061
 20
4.405526770803817
 30
0.0
 10
44.18129162660702
 20
4.405571752259731
 30
0.0
 10
44.16028780494889
 20
4.405617031020483
 30
0.0
 10
44.12891761878405
 20
4.405688063434979
 30
0.0
 10
44.08610136259453
 20
4.405791814086569
 30
0.0
 10
44.03075938101909
 20
4.405935603700527
 30
0.0
 10
43.97297898183644
 20
4.406095485209334
 30
0.0
 10
43.92281536198427
 20
4.406242008170011
 30
0.0
 10
43.88086552105106
 20
4.406369106967702
 30
0.0
 10
43.84772213898225
 20
4.406471944730753
 30
0.0
 10
43.81393504619498
 20
4.406579179984134
 30
0.0
 10
43.77951190248535
 20
4.406690788283128
 30
0.0
 10
43.74446141459161
 20
4.406806862872201
 30
0.0
 10
43.69671593063493
 20
4.406967740893719
 30
0.0
 10
43.63703786627825
 20
4.407177319790889
 30
0.0
 10
43.56621433923183
 20
4.407443454391
 30
0.0
 10
43.49713018955108
 20
4.407720465612953
 30
0.0
 10
43.42985750116994
 20
4.408008540940272
 30
0.0
 10
43.36445701933475
 20
4.408307632406319
 30
0.0
 10
43.30097878596627
 20
4.408617751083511
 30
0.0
 10
43.23622074869549
 20
4.408955823525843
 30
0.0
 10
43.17045745640395
 20
4.409324706089876
 30
0.0
 10
43.10395632205348
 20
4.409728149377997
 30
0.0
 10
43.04021824691164
 20
4.410146487680492
 30
0.0
 10
42.9792485051823
 20
4.410580190086534
 30
0.0
 10
42.92104016112394
 20
4.41102761375896
 30
0.0
 10
42.88315438248488
 20
4.411346499444334
 30
0.0
 10
42.86466928636444
 20
4.411507131896314
 30
0.0
 11
45.60675720259625
 21
4.408276300490797
 31
0.0
 11
45.59106577668994
 21
4.407854647387409
 31
0.0
 11
45.57293135822788
 21
4.407458082861012
 31
0.0
 11
45.55219836642611
 21
4.407086606911661
 31
0.0
 11
45.52871197073476
 21
4.406740219539415
 31
0.0
 11
45.50231900437613
 21
4.406418920744215
 31
0.0
 11
45.47286895742916
 21
4.406122710526005
 31
0.0
 11
45.44566089009122
 21
4.40589328239514
 31
0.0
 11
45.41610770970009
 21
4.405681556764136
 31
0.0
 11
45.38412797655034
 21
4.405487533633163
 31
0.0
 11
45.34964373966089
 21
4.405311213002164
 31
0.0
 11
45.31716710026937
 21
4.405170694354751
 31
0.0
 11
45.28264628994314
 21
4.405043884523422
 31
0.0
 11
45.27326173442354
 21
4.405012937798801
 31
0.0
 11
45.26373314804674
 21
4.404982931418146
 31
0.0
 11
45.25405978997592
 21
4.404953865381457
 31
0.0
 11
45.24424093652224
 21
4.404925739688678
 31
0.0
 11
45.23427588158067
 21
4.404898554339865
 31
0.0
 11
45.22416393706975
 21
4.404872309335019
 31
0.0
 11
45.17303202462669
 21
4.40476084067717
 31
0.0
 11
45.11894721300255
 21
4.404677724641942
 31
0.0
 11
45.06192633879492
 21
4.404622961229392
 31
0.0
 11
45.02269625195985
 21
4.40460234894374
 31
0.0
 11
44.98220771410767
 21
4.404594087060445
 31
0.0
 11
44.97410767424462
 21
4.40459391544158
 31
0.0
 11
44.96595960276799
 21
4.404594220352919
 31
0.0
 11
44.95776359632678
 21
4.404595001794405
 31
0.0
 11
44.94951975431256
 21
4.404596259766094
 31
0.0
 11
44.94122817887187
 21
4.404597994267987
 31
0.0
 11
44.93288897491867
 21
4.404600205300084
 31
0.0
 11
44.92450225014674
 21
4.404602892862385
 31
0.0
 11
44.91606811504207
 21
4.404606056954889
 31
0.0
 11
44.88619154605645
 21
4.404620932906141
 31
0.0
 11
44.85367072218109
 21
4.404642564268101
 31
0.0
 11
44.8184186869115
 21
4.40467095104077
 31
0.0
 11
44.78034800447334
 21
4.404706093224262
 31
0.0
 11
44.73937192770601
 21
4.404747990818464
 31
0.0
 11
44.6962174817069
 21
4.404795715780664
 31
0.0
 11
44.65010148473543
 21
4.404849957043097
 31
0.0
 11
44.60095120534423
 21
4.404910714605705
 31
0.0
 11
44.54869983981278
 21
4.404977988468544
 31
0.0
 11
44.49455521807014
 21
4.405050619788767
 31
0.0
 11
44.44224747409076
 21
4.405124330559146
 31
0.0
 11
44.39191540273507
 21
4.405199120779798
 31
0.0
 11
44.34368158124901
 21
4.405274990450607
 31
0.0
 11
44.29765362370533
 21
4.405351939571573
 31
0.0
 11
44.2728236380775
 21
4.405395598208542
 31
0.0
 11
44.24873307418287
 21
4.405439596842995
 31
0.0
 11
44.22539559422811
 21
4.405483935475103
 31
0.0
 11
44.20282375189827
 21
4.40552861410481
 31
0.0
 11
44.18102905612061
 21
4.405573632732057
 31
0.0
 11
44.16002203330349
 21
4.405618991356902
 31
0.0
 11
44.13981228792595
 21
4.405664689979346
 31
0.0
 11
44.08691851145043
 21
4.405792342008567
 31
0.0
 11
44.03157328114177
 21
4.405936012799429
 31
0.0
 11
43.97378634521662
 21
4.406095702352104
 31
0.0
 11
43.91357731514254
 21
4.406271410666477
 31
0.0
 11
43.88108240680939
 21
4.40636984133016
 31
0.0
 11
43.84793681027473
 21
4.406472667164337
 31
0.0
 11
43.81414716943099
 21
4.406579888168948
 31
0.0
 11
43.77972112890761
 21
4.406691504343996
 31
0.0
 11
43.74466737982332
 21
4.406807515689479
 31
0.0
 11
43.70899570571417
 21
4.406927922205454
 31
0.0
 11
43.63648470924447
 21
4.407183268264361
 31
0.0
 11
43.56563323855429
 21
4.407449651299771
 31
0.0
 11
43.49652513464893
 21
4.407727071311683
 31
0.0
 11
43.42923227302928
 21
4.408015528300211
 31
0.0
 11
43.3638151871351
 21
4.408315022265355
 31
0.0
 11
43.3003237043939
 21
4.408625553207002
 31
0.0
 11
43.23879758982859
 21
4.408947121125208
 31
0.0
 11
43.16954112537568
 21
4.409336233208478
 31
0.0
 11
43.10303389251747
 21
4.409740367843255
 31
0.0
 11
43.03929422295253
 21
4.410159525029371
 31
0.0
 11
42.97832694341962
 21
4.410593704766938
 31
0.0
 11
42.92012470680588
 21
4.4110429070559
 31
0.0
 11
42.86466928636444
 21
4.411507131896314
 31
0.0
  0
SPLINE
  5
96
330
2
100
AcDbEntity
  8
GAIKEI
  6
Continuous
 62
     1
100
AcDbSpline
210
0.0
220
0.0
230
1.0
 70
     8
 71
     3
 72
    47
 73
    43
 74
    41
 42
0.0000000001
 43
0.0000000001
 44
0.000001
 12
0.9999915442633941
 22
-0.0041123474697924
 32
0.0
 13
0.9998713639292569
 23
0.0160391893263794
 33
0.0
 40
0.0
 40
0.0
 40
0.0
 40
0.0
 40
0.078359929971528
 40
0.158036741486055
 40
0.2388775665533784
 40
0.3207295260784002
 40
0.4034397423849063
 40
0.4868639118779134
 40
0.5708554523217704
 40
0.6552510139082109
 40
0.7398871107700627
 40
0.8246002552511569
 40
0.9092327077130606
 40
0.9936332852833034
 40
1.077638931255897
 40
1.161086180760768
 40
1.243811570447489
 40
1.325656848398993
 40
1.406480053750905
 40
1.486129998231774
 40
1.564454528469834
 40
1.641301359335716
 40
1.71652196725922
 40
1.789977227128408
 40
1.861529050297416
 40
1.931039349010334
 40
1.998370037182993
 40
2.063386887767082
 40
2.125988160037604
 40
2.186064438604745
 40
2.243502032857883
 40
2.298187253991916
 40
2.350010744801044
 40
2.398890090839369
 40
2.444740125009844
 40
2.487473929939228
 40
2.527004595411094
 40
2.563252206434759
 40
2.596165167244609
 40
2.625694515720348
 40
2.65179107709685
 40
2.674405733654405
 40
2.674405733654405
 40
2.674405733654405
 40
2.674405733654405
 10
42.88400907458508
 20
4.476563747296609
 30
0.0
 10
42.9101288303786
 20
4.476456332876693
 30
0.0
 10
42.96280731828332
 20
4.476244362235036
 30
0.0
 10
43.04243261185061
 20
4.475944982085309
 30
0.0
 10
43.12322197813064
 20
4.475660764639542
 30
0.0
 10
43.2050225482222
 20
4.475395139522788
 30
0.0
 10
43.28768430256412
 20
4.475150486140307
 30
0.0
 10
43.37105931894079
 20
4.47492926939401
 30
0.0
 10
43.45499616574635
 20
4.474726754920823
 30
0.0
 10
43.53933702330308
 20
4.474538952505554
 30
0.0
 10
43.6239184384966
 20
4.474361603645093
 30
0.0
 10
43.7085788309929
 20
4.474190882730852
 30
0.0
 10
43.79316071953849
 20
4.474021491594101
 30
0.0
 10
43.87750677961
 20
4.47385450738335
 30
0.0
 10
43.96145778571475
 20
4.473694898782468
 30
0.0
 10
44.0448504161976
 20
4.473546791405738
 30
0.0
 10
44.12752294940668
 20
4.473414139694568
 30
0.0
 10
44.209320831638
 20
4.473302385320607
 30
0.0
 10
44.29009359098242
 20
4.473212036369204
 30
0.0
 10
44.36969278194303
 20
4.473136381838571
 30
0.0
 10
44.44796652268926
 20
4.473070362365774
 30
0.0
 10
44.52476382060709
 20
4.473008278356473
 30
0.0
 10
44.59993802613531
 20
4.472944130392988
 30
0.0
 10
44.67334723100438
 20
4.472882984333637
 30
0.0
 10
44.74485300428732
 20
4.472828511760667
 30
0.0
 10
44.81431726082784
 20
4.472784758622651
 30
0.0
 10
44.88160320092444
 20
4.472755608347711
 30
0.0
 10
44.94658613819571
 20
4.472745198866903
 30
0.0
 10
45.00915093892738
 20
4.472757153646114
 30
0.0
 10
45.06918931252513
 20
4.472791233842713
 30
0.0
 10
45.12658898441613
 20
4.472847802864976
 30
0.0
 10
45.18123769826613
 20
4.472926918534881
 30
0.0
 10
45.23303361860776
 20
4.47302925404972
 30
0.0
 10
45.2818844318852
 20
4.473148585128228
 30
0.0
 10
45.32770528853052
 20
4.47328667231352
 30
0.0
 10
45.37040983581755
 20
4.473444441406059
 30
0.0
 10
45.40991346798015
 20
4.473622227751718
 30
0.0
 10
45.44614333287199
 20
4.473823124928856
 30
0.0
 10
45.47903916242911
 20
4.474056679258524
 30
0.0
 10
45.50855094063865
 20
4.474322055244499
 30
0.0
 10
45.53462954684876
 20
4.474613076165496
 30
0.0
 10
45.55086488140382
 20
4.474852857096095
 30
0.0
 10
45.55840213056948
 20
4.47497376401543
 30
0.0
 11
42.88400907458508
 21
4.476563747296609
 31
0.0
 11
42.96236836614302
 21
4.476250547442532
 31
0.0
 11
43.04204461319288
 21
4.475950629258818
 31
0.0
 11
43.12288493927955
 21
4.475666575898003
 31
0.0
 11
43.20473646794811
 21
4.475400970512851
 31
0.0
 11
43.28744632274338
 21
4.475156396256181
 31
0.0
 11
43.37087019616449
 21
4.474934104725775
 31
0.0
 11
43.45486149030243
 21
4.474730677187153
 31
0.0
 11
43.53925684088248
 21
4.474541955902736
 31
0.0
 11
43.623892750171
 21
4.474363788872835
 31
0.0
 11
43.70860572043407
 21
4.47419202409776
 31
0.0
 11
43.79323800331557
 21
4.474022660744367
 31
0.0
 11
43.87763841689745
 21
4.473856354112058
 31
0.0
 11
43.96164391216045
 21
4.473697303434278
 31
0.0
 11
44.04509103109596
 21
4.473549759305001
 31
0.0
 11
44.12781631569565
 21
4.473417972318316
 31
0.0
 11
44.20966151739882
 21
4.473306319456582
 31
0.0
 11
44.29048467095507
 21
4.473214880010687
 31
0.0
 11
44.37013457864667
 21
4.473138394227021
 31
0.0
 11
44.44845908016747
 21
4.473071408503642
 31
0.0
 11
44.52530588499387
 21
4.473008258742083
 31
0.0
 11
44.60052646610113
 21
4.472944886693198
 31
0.0
 11
44.67398170086925
 21
4.472884338358142
 31
0.0
 11
44.74553350368334
 21
4.472830589347267
 31
0.0
 11
44.81504378892831
 21
4.472787615271158
 31
0.0
 11
44.88237447098917
 21
4.472759391740169
 31
0.0
 11
44.94739132068336
 21
4.472749948250566
 31
0.0
 11
45.0099925915229
 21
4.472762324155041
 31
0.0
 11
45.07006885986309
 21
4.472797011205898
 31
0.0
 11
45.12750642538508
 21
4.472854240049059
 31
0.0
 11
45.18219158777019
 21
4.472934241330449
 31
0.0
 11
45.2340149777517
 21
4.473036344615593
 31
0.0
 11
45.28289417496084
 21
4.473156850946736
 31
0.0
 11
45.32874399707798
 21
4.473296188001313
 31
0.0
 11
45.37147750520499
 21
4.473455350385847
 31
0.0
 11
45.41100776044378
 21
4.473635332706521
 31
0.0
 11
45.44725479226046
 21
4.473840133296391
 31
0.0
 11
45.48016690263749
 21
4.474076628769125
 31
0.0
 11
45.50969503365074
 21
4.47434466655261
 31
0.0
 11
45.53578987854614
 21
4.474643845387618
 31
0.0
 11
45.55840213056948
 21
4.47497376401543
 31
0.0
  0
SPLINE
  5
97
330
2
100
AcDbEntity
  8
GAIKEI
  6
Continuous
 62
     7
100
AcDbSpline
210
0.0
220
0.0
230
1.0
 70
     8
 71
     3
 72
    19
 73
    15
 74
    13
 42
0.0000000001
 43
0.0000000001
 44
0.000001
 12
-0.9934340189717568
 22
-0.1144065118322512
 32
0.0
 13
-0.9609945012889504
 23
-0.276567475478231
 33
0.0
 40
0.0
 40
0.0
 40
0.0
 40
0.0
 40
0.195566141481904
 40
0.4062179203837353
 40
0.6168773225613203
 40
0.8275453647084059
 40
1.038222990410201
 40
1.248911084086371
 40
1.459610491671956
 40
1.670322039507979
 40
1.881046551333384
 40
2.091784867535452
 40
2.302537825135901
 40
2.475350066912813
 40
2.475350066912813
 40
2.475350066912813
 40
2.475350066912813
 10
33.33117119200169
 20
4.957995661649874
 30
0.0
 10
33.26641050603263
 20
4.950537648290037
 30
0.0
 10
33.13199366464497
 20
4.934163491505501
 30
0.0
 10
32.92822761970481
 20
4.906521455053507
 30
0.0
 10
32.71989324145865
 20
4.875259984899969
 30
0.0
 10
32.51201182275388
 20
4.841063438529204
 30
0.0
 10
32.30462336264033
 20
4.803940001178375
 30
0.0
 10
32.09776795055403
 20
4.763897988147164
 30
0.0
 10
31.89148564843657
 20
4.720945681199452
 30
0.0
 10
31.68581652303576
 20
4.675091392401213
 30
0.0
 10
31.48080066283879
 20
4.626343382436971
 30
0.0
 10
31.27647812612561
 20
4.574710108739225
 30
0.0
 10
31.08511121962909
 20
4.523471689762345
 30
0.0
 10
30.96203756114498
 20
4.488821827139361
 30
0.0
 10
30.90668035644397
 20
4.472890411992693
 30
0.0
 11
33.33117119200169
 21
4.957995661649874
 31
0.0
 11
33.13703925366996
 21
4.934348402527632
 31
0.0
 11
32.9282993685619
 21
4.906031992363068
 31
0.0
 11
32.71997226616428
 21
4.874772158133509
 31
0.0
 11
32.5120980387109
 21
4.840577183115215
 31
0.0
 11
32.30471677541128
 21
4.803455351031971
 31
0.0
 11
32.09786856245062
 21
4.763414946054695
 31
0.0
 11
31.89159348298971
 21
4.720464252801775
 31
0.0
 11
31.68593161716517
 21
4.674611556338732
 31
0.0
 11
31.48092304208926
 21
4.625865142178554
 31
0.0
 11
31.27660783184995
 21
4.574233296281306
 31
0.0
 11
31.07302605751077
 21
4.519724305054523
 31
0.0
 11
30.90668035644397
 21
4.472890411992693
 31
0.0
  0
SPLINE
  5
98
330
2
100
AcDbEntity
  8
GAIKEI
  6
Continuous
 62
     7
100
AcDbSpline
210
0.0
220
0.0
230
1.0
 70
     8
 71
     3
 72
     9
 73
     5
 74
     3
 42
0.0000000001
 43
0.0000000001
 44
0.000001
 12
-0.9251335181800996
 22
0.3796419017175416
 32
0.0
 13
-0.9310512113159196
 23
0.364888533537516
 33
0.0
 40
0.0
 40
0.0
 40
0.0
 40
0.0
 40
0.1330954377982604
 40
0.237670511751881
 40
0.237670511751881
 40
0.237670511751881
 40
0.237670511751881
 10
47.11796228898764
 20
4.476066356038188
 30
0.0
 10
47.07691860544629
 20
4.492909224410084
 30
0.0
 10
47.00349197500736
 20
4.522659742759401
 30
0.0
 10
46.92983177015871
 20
4.551825518410339
 30
0.0
 10
46.89737685373272
 20
4.564544933536865
 30
0.0
 11
47.11796228898764
 21
4.476066356038188
 31
0.0
 11
46.99460751390318
 21
4.526046448018746
 31
0.0
 11
46.89737685373272
 21
4.564544933536865
 31
0.0
  0
SPLINE
  5
99
330
2
100
AcDbEntity
  8
GAIKEI
  6
Continuous
 62
     7
100
AcDbSpline
210
0.0
220
0.0
230
1.0
 70
     8
 71
     3
 72
    19
 73
    15
 74
    13
 42
0.0000000001
 43
0.0000000001
 44
0.000001
 12
-0.9901268894224729
 22
0.1401739734850163
 32
0.0
 13
-0.9859442945742936
 23
0.1670743786353803
 33
0.0
 40
0.0
 40
0.0
 40
0.0
 40
0.0
 40
0.017369612890696
 40
0.0363602337694537
 40
0.0574606886895504
 40
0.0799713134709023
 40
0.1030304079062903
 40
0.1270999610099386
 40
0.1527349372812666
 40
0.179078993268898
 40
0.2029213596309002
 40
0.2270426910471398
 40
0.2518693187549186
 40
0.2767048754459467
 40
0.2767048754459467
 40
0.2767048754459467
 40
0.2767048754459467
 10
43.53194890570811
 20
5.340366787105551
 30
0.0
 10
43.5262161987808
 20
5.341178376324478
 30
0.0
 10
43.51421932493773
 20
5.342902545634842
 30
0.0
 10
43.49527567600174
 20
5.345730952445137
 30
0.0
 10
43.47464881890985
 20
5.348889388327449
 30
0.0
 10
43.45269241318803
 20
5.352324043442308
 30
0.0
 10
43.42976751492815
 20
5.355970620729408
 30
0.0
 10
43.40582218327644
 20
5.359831268931998
 30
0.0
 10
43.38080314825387
 20
5.363911352137449
 30
0.0
 10
43.35586516112823
 20
5.368017710088679
 30
0.0
 10
43.33143008509764
 20
5.372072721444737
 30
0.0
 10
43.30749823146871
 20
5.376070367954071
 30
0.0
 10
43.2832436443553
 20
5.380145277663814
 30
0.0
 10
43.26692120698789
 20
5.382904821485965
 30
0.0
 10
43.25875904851385
 20
5.384287949886697
 30
0.0
 11
43.53194890570811
 21
5.340366787105551
 31
0.0
 11
43.51475648385682
 21
5.342841642748339
 31
0.0
 11
43.49597305304387
 21
5.345639151607883
 31
0.0
 11
43.4751152743559
 21
5.348830097480856
 31
0.0
 11
43.45287466071794
 21
5.352306194032507
 31
0.0
 11
43.43010154124492
 21
5.355926525496613
 31
0.0
 11
43.4063385968747
 21
5.359756121441023
 31
0.0
 11
43.38103761476593
 21
5.363880713421735
 31
0.0
 11
43.35504342501086
 21
5.3681598880313
 31
0.0
 11
43.33152264711832
 21
5.372062631074868
 31
0.0
 11
43.30773086956468
 21
5.376036283182941
 31
0.0
 11
43.2832474273557
 21
5.380149974406094
 31
0.0
 11
43.25875904851385
 21
5.384287949886697
 31
0.0
  0
SPLINE
  5
9A
330
2
100
AcDbEntity
  8
GAIKEI
  6
Continuous
 62
     7
100
AcDbSpline
210
0.0
220
0.0
230
1.0
 70
     8
 71
     3
 72
    55
 73
    51
 74
    49
 42
0.0000000001
 43
0.0000000001
 44
0.000001
 12
-0.9999757864183036
 22
0.0069589206846395
 32
0.0
 13
-0.9902090542819808
 23
0.1395923666178968
 33
0.0
 40
0.0
 40
0.0
 40
0.0
 40
0.0
 40
0.0013482875491148
 40
0.0054845270457244
 40
0.0124209636755139
 40
0.022156689837095
 40
0.0347456459709396
 40
0.0501504145739603
 40
0.0683623812305741
 40
0.089372858477437
 40
0.1106811109618435
 40
0.1342475929945719
 40
0.1600626550669755
 40
0.1881717651050414
 40
0.2185234757739814
 40
0.2511056400581297
 40
0.2863612920522802
 40
0.3238864268452417
 40
0.3636661090743702
 40
0.4057682278069331
 40
0.4501129802758223
 40
0.4966832364505355
 40
0.5331899512369202
 40
0.5709450031844742
 40
0.6099600956787241
 40
0.6502126421999716
 40
0.7129184934311229
 40
0.7783831143089918
 40
0.8465760280186655
 40
0.9174668622429127
 40
0.9913380308281015
 40
1.067899431165669
 40
1.147117134093737
 40
1.228957342746279
 40
1.304881412827104
 40
1.382904648932486
 40
1.463000718997606
 40
1.545302222853366
 40
1.629653741636187
 40
1.716027633973413
 40
1.805534726432199
 40
1.897083691463865
 40
1.990644691128266
 40
2.086376013551469
 40
2.184094014692933
 40
2.283767588643504
 40
2.360057845743848
 40
2.437437042986577
 40
2.515931776544558
 40
2.595497813542205
 40
2.595497813542205
 40
2.595497813542205
 40
2.595497813542205
 10
46.08115706131115
 20
4.857483439276848
 30
0.0
 10
46.08070764301039
 20
4.857486566818863
 30
0.0
 10
46.07887622118977
 20
4.857544267469222
 30
0.0
 10
46.07482837598873
 20
4.858515378159495
 30
0.0
 10
46.06803063710105
 20
4.859837183820218
 30
0.0
 10
46.05851114852278
 20
4.861989397651484
 30
0.0
 10
46.04624292733568
 20
4.864746134131792
 30
0.0
 10
46.03123188567349
 20
4.868197930966573
 30
0.0
 10
46.01349105439706
 20
4.872299398571783
 30
0.0
 10
45.99383787704342
 20
4.876867112901265
 30
0.0
 10
45.97244828666046
 20
4.881847276807718
 30
0.0
 10
45.94949907804024
 20
4.887191594091291
 30
0.0
 10
45.92434056406952
 20
4.893043877703064
 30
0.0
 10
45.89697620809272
 20
4.899396075860295
 30
0.0
 10
45.86740992792217
 20
4.906238284010498
 30
0.0
 10
45.83551653869577
 20
4.913590467894039
 30
0.0
 10
45.8012852421576
 20
4.921445550029034
 30
0.0
 10
45.76470580023993
 20
4.929794638409248
 30
0.0
 10
45.72588997965733
 20
4.938601287497931
 30
0.0
 10
45.6848442119705
 20
4.947853067826599
 30
0.0
 10
45.64157540134099
 20
4.957536163853887
 30
0.0
 10
45.60011153080886
 20
4.966743882688604
 30
0.0
 10
45.56077881792989
 20
4.975415838069523
 30
0.0
 10
45.52389433863834
 20
4.983495111229217
 30
0.0
 10
45.48577834682333
 20
4.991787413693316
 30
0.0
 10
45.43952072199815
 20
5.00177949333397
 30
0.0
 10
45.38462268229781
 20
5.013527851041544
 30
0.0
 10
45.32058467218592
 20
5.027071423773293
 30
0.0
 10
45.25384213253864
 20
5.041011883892792
 30
0.0
 10
45.18431892021939
 20
5.055343704351571
 30
0.0
 10
45.11202351280689
 20
5.070042686598412
 30
0.0
 10
45.03696536718843
 20
5.085082875925763
 30
0.0
 10
44.95925753236631
 20
5.100418143255637
 30
0.0
 10
44.88171241199403
 20
5.115478858868641
 30
0.0
 10
44.80451443351467
 20
5.130236706484083
 30
0.0
 10
44.72784580926981
 20
5.144665670972869
 30
0.0
 10
44.64904484348514
 20
5.1592564059207
 30
0.0
 10
44.5681249990041
 20
5.173987749010223
 30
0.0
 10
44.48510020624516
 20
5.188838043671466
 30
0.0
 10
44.3996633640304
 20
5.203842110720586
 30
0.0
 10
44.31181404105081
 20
5.218976711541586
 30
0.0
 10
44.22155255713223
 20
5.23421771268886
 30
0.0
 10
44.12919286473157
 20
5.249490501136619
 30
0.0
 10
44.03475080557763
 20
5.264771359036672
 30
0.0
 10
43.93824272651994
 20
5.280036097904599
 30
0.0
 10
43.84808457947741
 20
5.293963166519006
 30
0.0
 10
43.76458565163992
 20
5.306586806851328
 30
0.0
 10
43.68803486452867
 20
5.317940475268187
 30
0.0
 10
43.61037139854204
 20
5.32923252874491
 30
0.0
 10
43.55821119704697
 20
5.336664526126412
 30
0.0
 10
43.5319488602975
 20
5.34036679659539
 30
0.0
 11
46.08115706131115
 21
4.857483439276848
 31
0.0
 11
46.07980987586301
 21
4.85753836336687
 31
0.0
 11
46.07573978854371
 21
4.85827479378554
 31
0.0
 11
46.06894912147048
 21
4.859689304000596
 31
0.0
 11
46.05944019676046
 21
4.861778467479666
 31
0.0
 11
46.04716026871078
 21
4.864550667832986
 31
0.0
 11
46.03214477777849
 21
4.86799186737079
 31
0.0
 11
46.01440069851593
 21
4.872093491225257
 31
0.0
 11
45.99393500547551
 21
4.876846964528681
 31
0.0
 11
45.97318156143574
 21
4.881677714534248
 31
0.0
 11
45.95022898066058
 21
4.887021690244068
 31
0.0
 11
45.92508505065477
 21
4.892869782439674
 31
0.0
 11
45.89770380703287
 21
4.899225058698561
 31
0.0
 11
45.86813345318988
 21
4.906067608530861
 31
0.0
 11
45.83638387479918
 21
4.913386192944926
 31
0.0
 11
45.80202121196918
 21
4.921270885622107
 31
0.0
 11
45.76543684692665
 21
4.92962073325043
 31
0.0
 11
45.72664305395362
 21
4.93842213805226
 31
0.0
 11
45.68557128092537
 21
4.947679451108569
 31
0.0
 11
45.64229687309698
 21
4.95736359706882
 31
0.0
 11
45.596834060889
 21
4.967459212551091
 31
0.0
 11
45.56118353351449
 21
4.975319245303467
 31
0.0
 11
45.52430286907461
 21
4.983397644337912
 31
0.0
 11
45.48617952200679
 21
4.991691488081414
 31
0.0
 11
45.44683443169303
 21
5.000190391741625
 31
0.0
 11
45.38551692094983
 21
5.013312382518734
 31
0.0
 11
45.32146901797561
 21
5.026857961117912
 31
0.0
 11
45.25471664666342
 21
5.040800500121406
 31
0.0
 11
45.18528573090615
 21
5.05511337211152
 31
0.0
 11
45.11289564384621
 21
5.069831552533628
 31
0.0
 11
45.03782652052517
 21
5.084873983776333
 31
0.0
 11
44.96010776617247
 21
5.100211508743996
 31
0.0
 11
44.87976878601766
 21
5.115814970340863
 31
0.0
 11
44.80519516166912
 21
5.130071160739021
 31
0.0
 11
44.72851803621402
 21
5.144501815619378
 31
0.0
 11
44.64976066554292
 21
5.159084579460909
 31
0.0
 11
44.56878999174402
 21
5.173825255098563
 31
0.0
 11
44.48575628039605
 21
5.188677241426717
 31
0.0
 11
44.40068429448039
 21
5.203617338056915
 31
0.0
 11
44.31247665034014
 21
5.218813755837231
 31
0.0
 11
44.22220554433214
 21
5.234056472669408
 31
0.0
 11
44.1298981034203
 21
5.249320712208145
 31
0.0
 11
44.03539581925729
 21
5.26461137534693
 31
0.0
 11
43.9388777110908
 21
5.279877761348416
 31
0.0
 11
43.84037248575332
 21
5.295094263047417
 31
0.0
 11
43.76493942755472
 21
5.306498519184117
 31
0.0
 11
43.68839749401881
 21
5.317850724902086
 31
0.0
 11
43.61071961602151
 21
5.329145434352881
 31
0.0
 11
43.5319488602975
 21
5.34036679659539
 31
0.0
  0
SPLINE
  5
9B
330
2
100
AcDbEntity
  8
GAIKEI
  6
Continuous
 62
     7
100
AcDbSpline
210
0.0
220
0.0
230
1.0
 70
     8
 71
     3
 72
    16
 73
    12
 74
    10
 42
0.0000000001
 43
0.0000000001
 44
0.000001
 12
-0.9337830805485097
 22
0.3578395708712714
 32
0.0
 13
-0.9346817497408627
 23
0.355485620948808
 33
0.0
 40
0.0
 40
0.0
 40
0.0
 40
0.0
 40
0.0213733415896433
 40
0.0422526893684332
 40
0.0621143195030739
 40
0.0804230170514605
 40
0.0966111977704591
 40
0.1099415818990994
 40
0.1202790023906166
 40
0.1272817432121614
 40
0.1308031894761157
 40
0.1308031894761157
 40
0.1308031894761157
 40
0.1308031894761157
 10
46.79456082584327
 20
4.604276890152959
 30
0.0
 10
46.78790813759287
 20
4.606826299280442
 30
0.0
 10
46.77475304702355
 20
4.611857127011148
 30
0.0
 10
46.75540665882112
 20
4.619233105031412
 30
0.0
 10
46.73700658397836
 20
4.626223581773786
 30
0.0
 10
46.72006195827117
 20
4.632642002882846
 30
0.0
 10
46.70514865375477
 20
4.63827708641935
 30
0.0
 10
46.69271764377154
 20
4.642964302584402
 30
0.0
 10
46.68315144377447
 20
4.646570962112946
 30
0.0
 10
46.67664302124933
 20
4.64901981332531
 30
0.0
 10
46.67336411909857
 20
4.650266939266828
 30
0.0
 10
46.6722669752467
 20
4.650684213770773
 30
0.0
 11
46.79456082584327
 21
4.604276890152959
 31
0.0
 11
46.77459829112744
 21
4.611913454483101
 31
0.0
 11
46.75508854126808
 21
4.619350982383082
 31
0.0
 11
46.73652183429122
 21
4.626405182682447
 31
0.0
 11
46.71940037055922
 21
4.632890850168337
 31
0.0
 11
46.70425717089021
 21
4.638612798696101
 31
0.0
 11
46.69178447022692
 21
4.643317145017874
 31
0.0
 11
46.68211121822024
 21
4.646962752136687
 31
0.0
 11
46.67555924623115
 21
4.649434599003598
 31
0.0
 11
46.6722669752467
 21
4.650684213770773
 31
0.0
  0
SPLINE
  5
9C
330
2
100
AcDbEntity
  8
GAIKEI
  6
Continuous
 62
     7
100
AcDbSpline
210
0.0
220
0.0
230
1.0
 70
     8
 71
     3
 72
     9
 73
     5
 74
     3
 42
0.0000000001
 43
0.0000000001
 44
0.000001
 12
0.9261749038414755
 22
-0.3770942156732637
 32
0.0
 13
-0.9306389607116207
 23
0.365938689954471
 33
0.0
 40
0.0
 40
0.0
 40
0.0
 40
0.0
 40
0.0005031755707309
 40
0.0016702141705755
 40
0.0016702141705755
 40
0.0016702141705755
 40
0.0016702141705755
 10
46.89738045807454
 20
4.564543504313633
 30
0.0
 10
46.8975358009365
 20
4.564480256114563
 30
0.0
 10
46.89836169009111
 20
4.564142881259215
 30
0.0
 10
46.89711874083663
 20
4.564629111271983
 30
0.0
 10
46.89675671030674
 20
4.564771466130764
 30
0.0
 11
46.89738045807454
 21
4.564543504313633
 31
0.0
 11
46.89784658297246
 21
4.564351357152418
 31
0.0
 11
46.89675671030674
 21
4.564771466130764
 31
0.0
  0
SPLINE
  5
9D
330
2
100
AcDbEntity
  8
GAIKEI
  6
Continuous
 62
     1
100
AcDbSpline
210
0.0
220
0.0
230
1.0
 70
     8
 71
     3
 72
    59
 73
    55
 74
    53
 42
0.0000000001
 43
0.0000000001
 44
0.000001
 12
-0.9986723007289826
 22
-0.0515134521914467
 32
0.0
 13
-0.2549869627555228
 23
-0.9669444910772869
 33
0.0
 40
0.0
 40
0.0
 40
0.0
 40
0.0
 40
0.1366102373034389
 40
0.2809754535862872
 40
0.4233446446949084
 40
0.5636614819241713
 40
0.7018704551416826
 40
0.8379168958546319
 40
0.9717470000199602
 40
1.092432395288402
 40
1.211170888166285
 40
1.327923046163152
 40
1.442650107497673
 40
1.555313995240679
 40
1.665877331369443
 40
1.78405314364704
 40
1.899638890932753
 40
2.012589010092553
 40
2.122859010312799
 40
2.230405494637294
 40
2.335186181651505
 40
2.437159927416834
 40
2.528135873851746
 40
2.61668967351268
 40
2.702792250951425
 40
2.786415396763643
 40
2.867531784130221
 40
2.946114986308405
 40
3.028923074037544
 40
3.108654281877467
 40
3.185278133919632
 40
3.258765557815153
 40
3.329088929534453
 40
3.396222125803034
 40
3.460140586787231
 40
3.515888864756439
 40
3.56890021990098
 40
3.619159578551724
 40
3.666653268199439
 40
3.711369145270456
 40
3.753296763919029
 40
3.795845976027064
 40
3.835058819102237
 40
3.870931168298201
 40
3.903463830385746
 40
3.9326641937257
 40
3.958548918773001
 40
3.981148545597206
 40
3.999024053111157
 40
4.014251598716565
 40
4.026947074599844
 40
4.037316405684676
 40
4.045742410180633
 40
4.049904467755323
 40
4.049904467755323
 40
4.049904467755323
 40
4.049904467755323
 10
43.13312805778359
 20
6.682452653933978
 30
0.0
 10
43.08765177111993
 20
6.680106898957888
 30
0.0
 10
42.99411917460979
 20
6.675252362369406
 30
0.0
 10
42.85319894145726
 20
6.667842843064704
 30
0.0
 10
42.7110504174619
 20
6.660263816483677
 30
0.0
 10
42.57095692843208
 20
6.652684831139026
 30
0.0
 10
42.43297414601466
 20
6.645105923932362
 30
0.0
 10
42.2971569133642
 20
6.63752709116045
 30
0.0
 10
42.16717855251416
 20
6.630153661138706
 30
0.0
 10
42.04296691261319
 20
6.622990497747764
 30
0.0
 10
41.92444499025637
 20
6.616043067730515
 30
0.0
 10
41.80791264055223
 20
6.609095710031851
 30
0.0
 10
41.69340881154198
 20
6.602148429126145
 30
0.0
 10
41.5809717788917
 20
6.595201231820055
 30
0.0
 10
41.46739565962691
 20
6.588049894952803
 30
0.0
 10
41.35285694073809
 20
6.580688973773703
 30
0.0
 10
41.23753504469266
 20
6.573111091045461
 30
0.0
 10
41.12485422012963
 20
6.565533368171372
 30
0.0
 10
41.01485933306364
 20
6.557955820346421
 30
0.0
 10
40.90759418865402
 20
6.550378464147854
 30
0.0
 10
40.80310151521049
 20
6.542801315663723
 30
0.0
 10
40.70413238975885
 20
6.535426306471549
 30
0.0
 10
40.61057178047983
 20
6.528261312073652
 30
0.0
 10
40.52230045119557
 20
6.52131554265668
 30
0.0
 10
40.43648782283869
 20
6.514369989416763
 30
0.0
 10
40.35316265235756
 20
6.507424671281
 30
0.0
 10
40.27235286829119
 20
6.50047961692303
 30
0.0
 10
40.19183322297372
 20
6.493334986527884
 30
0.0
 10
40.11179595075981
 20
6.485981986769161
 30
0.0
 10
40.03243534098754
 20
6.478407812308205
 30
0.0
 10
39.95619622879627
 20
6.470834213471391
 30
0.0
 10
39.88310906142361
 20
6.463261271271278
 30
0.0
 10
39.81320302974429
 20
6.455689081958496
 30
0.0
 10
39.74650606437582
 20
6.448117745685181
 30
0.0
 10
39.68467739837428
 20
6.440742193072537
 30
0.0
 10
39.6275655379115
 20
6.43357582560958
 30
0.0
 10
39.57501498069843
 20
6.426636549795603
 30
0.0
 10
39.52524093237088
 20
6.419698387718426
 30
0.0
 10
39.47826007506035
 20
6.41276151403963
 30
0.0
 10
39.43408809942845
 20
6.405826200479964
 30
0.0
 10
39.39161600086942
 20
6.398704185439555
 30
0.0
 10
39.351040395049
 20
6.391380485323679
 30
0.0
 10
39.3125615468773
 20
6.383826825638266
 30
0.0
 10
39.27748978548333
 20
6.376277975960135
 30
0.0
 10
39.24583783587915
 20
6.368735200368064
 30
0.0
 10
39.21761609999456
 20
6.361200286195696
 30
0.0
 10
39.19283228456585
 20
6.353675056504926
 30
0.0
 10
39.17195829455208
 20
6.346328282943318
 30
0.0
 10
39.15480612760894
 20
6.339185538334106
 30
0.0
 10
39.14115896287956
 20
6.332310032726979
 30
0.0
 10
39.13036197039451
 20
6.32543239709156
 30
0.0
 10
39.12241550630145
 20
6.318518523005309
 30
0.0
 10
39.11779461443231
 20
6.312250214740743
 30
0.0
 10
39.11641347231135
 20
6.308255711571518
 30
0.0
 10
39.11605971550476
 20
6.306914218690394
 30
0.0
 11
43.13312805778359
 21
6.682452653933978
 31
0.0
 11
42.9967021439999
 21
6.67537066935688
 31
0.0
 11
42.85253613118395
 21
6.667789357792514
 31
0.0
 11
42.7103689402732
 21
6.660208046228149
 31
0.0
 11
42.57025706210105
 21
6.652626734663726
 31
0.0
 11
42.43225617851668
 21
6.645045423099304
 31
0.0
 11
42.29642114025675
 21
6.637464111534882
 31
0.0
 11
42.16280594514448
 21
6.629882799970459
 31
0.0
 11
42.04232080717274
 21
6.622933264369748
 31
0.0
 11
41.92378586073128
 21
6.615983728769037
 31
0.0
 11
41.80724071827715
 21
6.609034193168326
 31
0.0
 11
41.6927243332892
 21
6.602084657567615
 31
0.0
 11
41.58027498724884
 21
6.595135121966791
 31
0.0
 11
41.46993027684321
 21
6.58818558636608
 31
0.0
 11
41.35199789726214
 21
6.580604274801657
 31
0.0
 11
41.23666104922726
 21
6.573022963237235
 31
0.0
 11
41.12396565025436
 21
6.565441651672699
 31
0.0
 11
41.01395657575589
 21
6.557860340108277
 31
0.0
 11
40.9066776411718
 21
6.550279028543798
 31
0.0
 11
40.80217158451908
 21
6.542697716979319
 31
0.0
 11
40.70048004936608
 21
6.535116405414839
 31
0.0
 11
40.60976992538421
 21
6.528166869814072
 31
0.0
 11
40.52148924126156
 21
6.521217334213247
 31
0.0
 11
40.43566757973273
 21
6.514267798612479
 31
0.0
 11
40.35233370755491
 21
6.507318263011711
 31
0.0
 11
40.27151556586583
 21
6.500368727410887
 31
0.0
 11
40.193240260816
 21
6.493419191810062
 31
0.0
 11
40.11077995030284
 21
6.485837880245526
 31
0.0
 11
40.03141000067221
 21
6.47825656868099
 31
0.0
 11
39.95516212801026
 21
6.470675257116454
 31
0.0
 11
39.88206681464446
 21
6.463093945551918
 31
0.0
 11
39.81215329695867
 21
6.455512633987382
 31
0.0
 11
39.7454495537002
 21
6.447931322422846
 31
0.0
 11
39.68198229478451
 21
6.440350010858253
 31
0.0
 11
39.62666887795261
 21
6.433400475257371
 31
0.0
 11
39.57411502616746
 21
6.426450939656547
 31
0.0
 11
39.52433845867641
 21
6.419501404055608
 31
0.0
 11
39.47735597184173
 21
6.412551868454784
 31
0.0
 11
39.43318343347373
 21
6.405602332853845
 31
0.0
 11
39.39183577747285
 21
6.398652797253021
 31
0.0
 11
39.34996742998685
 21
6.391071485688371
 31
0.0
 11
39.3114944514346
 21
6.383490174123721
 31
0.0
 11
39.27643238657804
 21
6.375908862559128
 31
0.0
 11
39.24479543055575
 21
6.368327550994479
 31
0.0
 11
39.21659642313868
 21
6.360746239429829
 31
0.0
 11
39.19184684352205
 21
6.353164927865179
 31
0.0
 11
39.17055680565606
 21
6.345583616300473
 31
0.0
 11
39.15408754184044
 21
6.338634080699534
 31
0.0
 11
39.140538339489
 21
6.331684545098596
 31
0.0
 11
39.12991394938517
 21
6.324735009497658
 31
0.0
 11
39.12221814925401
 21
6.317785473896719
 31
0.0
 11
39.11745374242388
 21
6.310835938295667
 31
0.0
 11
39.11605971550476
 21
6.306914218690394
 31
0.0
  0
SPLINE
  5
9E
330
2
100
AcDbEntity
  8
GAIKEI
  6
Continuous
 62
     7
100
AcDbSpline
210
0.0
220
0.0
230
1.0
 70
     8
 71
     3
 72
    84
 73
    80
 74
    78
 42
0.0000000001
 43
0.0000000001
 44
0.000001
 12
-0.9999999816231508
 22
0.0001917125403609
 32
0.0
 13
-0.0550833690895655
 23
-0.9984817586965435
 33
0.0
 40
0.0
 40
0.0
 40
0.0
 40
0.0
 40
0.0064690685056402
 40
0.0126476455451479
 40
0.0185444258559827
 40
0.0241659847950826
 40
0.0295162487921733
 40
0.0327230894914683
 40
0.03582429150457
 40
0.0388192367922086
 40
0.0417069040769442
 40
0.0474692575111722
 40
0.0530269537825802
 40
0.058386273547224
 40
0.0702136015578843
 40
0.0884148137701216
 40
0.0975583957460383
 40
0.1052352544507983
 40
0.1121816812883821
 40
0.1175397302682042
 40
0.1230283251697391
 40
0.1286483096129042
 40
0.1344000844283571
 40
0.1402836154478752
 40
0.1462984429651758
 40
0.1524436931302007
 40
0.1587180915787081
 40
0.1651199796373426
 40
0.171585901076548
 40
0.1777350215592115
 40
0.1835016363253035
 40
0.1888844666061817
 40
0.193881522493649
 40
0.1984901257855238
 40
0.2024740603593865
 40
0.2076444046770988
 40
0.2147947864822432
 40
0.2257824719707753
 40
0.2395637536070782
 40
0.2599990038480629
 40
0.2819698080223301
 40
0.3039694458640738
 40
0.325962835456363
 40
0.347915125473274
 40
0.3697920206912351
 40
0.39589634088747
 40
0.4216249692928703
 40
0.4455745408279979
 40
0.4674443605634316
 40
0.4872587441584604
 40
0.4986146437348854
 40
0.5091778867517114
 40
0.518528391406224
 40
0.5264713981889879
 40
0.5330229284193669
 40
0.5381978795612657
 40
0.5420106128291275
 40
0.543643878585923
 40
0.5445048737229029
 40
0.5453956503922904
 40
0.5458522533272984
 40
0.5463163556585366
 40
0.5467879740213672
 40
0.5472671243301518
 40
0.5482480800190254
 40
0.5492593353736098
 40
0.5513731240668424
 40
0.5536091234438514
 40
0.5567812427972494
 40
0.5601717546315781
 40
0.5637805560707479
 40
0.5666301741392959
 40
0.5697762560620991
 40
0.5734104689017956
 40
0.5775303430034004
 40
0.5821310628159386
 40
0.5872057780940502
 40
0.5927456882941061
 40
0.598739140018845
 40
0.598739140018845
 40
0.598739140018845
 40
0.598739140018845
 10
39.50786705483596
 20
6.682951986352804
 30
0.0
 10
39.50571069870703
 20
6.682952399753332
 30
0.0
 10
39.50149474974987
 20
6.682918981422176
 30
0.0
 10
39.49531464178988
 20
6.682779263979057
 30
0.0
 10
39.48941964735352
 20
6.682556584730036
 30
0.0
 10
39.48380430347111
 20
6.68226215282749
 30
0.0
 10
39.47908840398947
 20
6.681947476565596
 30
0.0
 10
39.47521404354271
 20
6.681645079040436
 30
0.0
 10
39.47212454508338
 20
6.681377872025393
 30
0.0
 10
39.46914325312966
 20
6.681095458096592
 30
0.0
 10
39.46528190971098
 20
6.680698543295022
 30
0.0
 10
39.46057669171273
 20
6.680158493119165
 30
0.0
 10
39.45506291686294
 20
6.679443164284975
 30
0.0
 10
39.44755902841288
 20
6.678359901198689
 30
0.0
 10
39.43592327122511
 20
6.676411721143495
 30
0.0
 10
39.42313434587303
 20
6.673749676752322
 30
0.0
 10
39.41179659861101
 20
6.670964777082247
 30
0.0
 10
39.40414578452934
 20
6.668906521952521
 30
0.0
 10
39.39774697430642
 20
6.667056885185843
 30
0.0
 10
39.39207439854015
 20
6.665324594781566
 30
0.0
 10
39.38684652805293
 20
6.663651578005669
 30
0.0
 10
39.38151748846639
 20
6.661865783881978
 30
0.0
 10
39.37608973011959
 20
6.659961985974973
 30
0.0
 10
39.37056637442349
 20
6.657934884979738
 30
0.0
 10
39.36495124818504
 20
6.655779022034948
 30
0.0
 10
39.35924889510105
 20
6.653488803789741
 30
0.0
 10
39.35346458431994
 20
6.651058513212774
 30
0.0
 10
39.34762310455102
 20
6.64849050646012
 30
0.0
 10
39.3418638846969
 20
6.645841329865277
 30
0.0
 10
39.33634238233847
 20
6.643184378093451
 30
0.0
 10
39.33118721334427
 20
6.640600619480665
 30
0.0
 10
39.32641183942962
 20
6.638117577945877
 30
0.0
 10
39.32201083041608
 20
6.635752377960784
 30
0.0
 10
39.31804757760719
 20
6.633558458683523
 30
0.0
 10
39.31405852988925
 20
6.631292513672576
 30
0.0
 10
39.3093645631848
 20
6.628552727478222
 30
0.0
 10
39.30271687139909
 20
6.624530379459599
 30
0.0
 10
39.29374307915185
 20
6.618811361507425
 30
0.0
 10
39.281296949448
 20
6.610312575670945
 30
0.0
 10
39.26629967525378
 20
6.599078974294684
 30
0.0
 10
39.24983005468405
 20
6.585290091755609
 30
0.0
 10
39.23377930943578
 20
6.57024517259515
 30
0.0
 10
39.21859925762075
 20
6.554330827797173
 30
0.0
 10
39.20435651103908
 20
6.53762610601791
 30
0.0
 10
39.19023272131266
 20
6.51906634207944
 30
0.0
 10
39.17655601756914
 20
6.498632741923586
 30
0.0
 10
39.16389797097006
 20
6.476751789634249
 30
0.0
 10
39.15326163176987
 20
6.455389428927844
 30
0.0
 10
39.14464809747334
 20
6.435266740730867
 30
0.0
 10
39.1385451128748
 20
6.418665226028792
 30
0.0
 10
39.13425836865659
 20
6.405429326800174
 30
0.0
 10
39.13131517546188
 20
6.395428917039339
 30
0.0
 10
39.12892951709611
 20
6.386453997519879
 30
0.0
 10
39.12707754096317
 20
6.378723562094648
 30
0.0
 10
39.12570077428821
 20
6.372312828336703
 30
0.0
 10
39.12471968648512
 20
6.367226117553059
 30
0.0
 10
39.12416042488138
 20
6.363729796087227
 30
0.0
 10
39.12386235285494
 20
6.361648669428404
 30
0.0
 10
39.12368483181707
 20
6.360534353951493
 30
0.0
 10
39.12356549425098
 20
6.359807965995742
 30
0.0
 10
39.12346489953788
 20
6.359212575675542
 30
0.0
 10
39.12338635475779
 20
6.358755162023442
 30
0.0
 10
39.12330530623041
 20
6.358290554056566
 30
0.0
 10
39.12319305022121
 20
6.357656505974091
 30
0.0
 10
39.12304647277705
 20
6.356845860752287
 30
0.0
 10
39.12279706343929
 20
6.355500107116597
 30
0.0
 10
39.12246106706712
 20
6.353744948128735
 30
0.0
 10
39.12197562278937
 20
6.351285080274521
 30
0.0
 10
39.12139610759338
 20
6.348410024952102
 30
0.0
 10
39.12072355053286
 20
6.345086917306105
 30
0.0
 10
39.12008656922433
 20
6.341866328574951
 30
0.0
 10
39.11947897574766
 20
6.338722956856656
 30
0.0
 10
39.11892948685011
 20
6.335560056215172
 30
0.0
 10
39.11839742980533
 20
6.331965529196281
 30
0.0
 10
39.11786595480837
 20
6.327881526673479
 30
0.0
 10
39.11734952806967
 20
6.323311964814251
 30
0.0
 10
39.11686022093919
 20
6.318263627916394
 30
0.0
 10
39.11641493807277
 20
6.312745305221483
 30
0.0
 10
39.11616977969528
 20
6.308908445757197
 30
0.0
 10
39.1160597331908
 20
6.306913661684291
 30
0.0
 11
39.50786705483596
 21
6.682951986352804
 31
0.0
 11
39.50139768842034
 21
6.682902898538941
 31
0.0
 11
39.49522071667018
 21
6.68276205096123
 31
0.0
 11
39.48932813338512
 21
6.682539279479215
 31
0.0
 11
39.48371428753244
 21
6.682244623013616
 31
0.0
 11
39.47837589241094
 21
6.681888226377509
 31
0.0
 11
39.47517877001347
 21
6.681638641430026
 31
0.0
 11
39.47208909734932
 21
6.681371376041511
 31
0.0
 11
39.4691074965604
 21
6.681088877851948
 31
0.0
 11
39.46623496068365
 21
6.680793566609509
 31
0.0
 11
39.46051009151203
 21
6.68013722602916
 31
0.0
 11
39.45499858860312
 21
6.679422048704338
 31
0.0
 11
39.44969423783554
 21
6.678656347941569
 31
0.0
 11
39.43802925861557
 21
6.67670328066822
 31
0.0
 11
39.42020981616968
 21
6.672994832882409
 31
0.0
 11
39.41133018040101
 21
6.670813695476113
 31
0.0
 11
39.40391672381087
 21
6.668819968183584
 31
0.0
 11
39.39724325730718
 21
6.666891813718962
 31
0.0
 11
39.39211885384695
 21
6.665326815226194
 31
0.0
 11
39.38689140064337
 21
6.663653960363376
 31
0.0
 11
39.3815626690237
 21
6.661868217955202
 31
0.0
 11
39.37613510391445
 21
6.659964411706937
 31
0.0
 11
39.37061183809145
 21
6.657937222224859
 31
0.0
 11
39.3649967068785
 21
6.655781189787717
 31
0.0
 11
39.35929426325798
 21
6.653490717927297
 31
0.0
 11
39.35350979334844
 21
6.651060077870511
 31
0.0
 11
39.34764933219815
 21
6.648483413899043
 31
0.0
 11
39.34177542540389
 21
6.645780564298945
 31
0.0
 11
39.33623431284575
 21
6.643114519649657
 31
0.0
 11
39.33107888292578
 21
6.640530834871356
 31
0.0
 11
39.32630298594295
 21
6.638047750990835
 31
0.0
 11
39.32190123712887
 21
6.635682332137889
 31
0.0
 11
39.31786914243894
 21
6.633450412909439
 31
0.0
 11
39.31440507769041
 21
6.631482670577497
 31
0.0
 11
39.30993971940278
 21
6.628876318965239
 31
0.0
 11
39.30382204524686
 21
6.625174686174432
 31
0.0
 11
39.29455606757505
 21
6.619269515915675
 31
0.0
 11
39.28317498708917
 21
6.611498096788523
 31
0.0
 11
39.26681909173196
 21
6.599247193708606
 31
0.0
 11
39.24997271606746
 21
6.585143421018187
 31
0.0
 11
39.2339215476981
 21
6.57009866863234
 31
0.0
 11
39.21874105884676
 21
6.554184447714874
 31
0.0
 11
39.20449799411811
 21
6.537479999603192
 31
0.0
 11
39.1912494385483
 21
6.520070958622682
 31
0.0
 11
39.17672897341269
 21
6.49837782424521
 31
0.0
 11
39.16384483515354
 21
6.476107630040473
 31
0.0
 11
39.15316980144933
 21
6.454668750455994
 31
0.0
 11
39.14456315331448
 21
6.434563673265699
 31
0.0
 11
39.13772661757234
 21
6.415966079649138
 31
0.0
 11
39.13422678936432
 21
6.405162980691784
 31
0.0
 11
39.13124787935378
 21
6.395028526660553
 31
0.0
 11
39.1288486858471
 21
6.385991146002993
 31
0.0
 11
39.12700243627704
 21
6.378265834863896
 31
0.0
 11
39.12562952020299
 21
6.371859957755873
 31
0.0
 11
39.12466552751731
 21
6.366775488990469
 31
0.0
 11
39.1240609758837
 21
6.363010665138745
 31
0.0
 11
39.123821268122
 21
6.361394974231643
 31
0.0
 11
39.1236866859695
 21
6.360544521920076
 31
0.0
 11
39.12354212876049
 21
6.359665519985867
 31
0.0
 11
39.12346609562984
 21
6.359215277823579
 31
0.0
 11
39.1233875601652
 21
6.358757855767294
 31
0.0
 11
39.12330652793479
 21
6.358293239255317
 31
0.0
 11
39.12322300855276
 21
6.357821413536157
 31
0.0
 11
39.12304856702672
 21
6.356856074525921
 31
0.0
 11
39.12286439346393
 21
6.355861716960021
 31
0.0
 11
39.12246780585853
 21
6.35378544417955
 31
0.0
 11
39.12203580590624
 21
6.351591561901045
 31
0.0
 11
39.12141109155543
 21
6.34848156503466
 31
0.0
 11
39.12074135399864
 21
6.345157876799476
 31
0.0
 11
39.12004130571363
 21
6.341617675364432
 31
0.0
 11
39.11950709467719
 21
6.338818664480527
 31
0.0
 11
39.11897029515966
 21
6.335718856264691
 31
0.0
 11
39.11843182052552
 21
6.332124914750352
 31
0.0
 11
39.11789817190048
 21
6.32803989622289
 31
0.0
 11
39.11737930714541
 21
6.323468633424113
 31
0.0
 11
39.1168885024113
 21
6.318417761549653
 31
0.0
 11
39.11644218485559
 21
6.31289587028732
 31
0.0
 11
39.1160597331908
 21
6.306913661684291
 31
0.0
  0
SPLINE
  5
9F
330
2
100
AcDbEntity
  8
GAIKEI
  6
Continuous
 62
     1
100
AcDbSpline
210
0.0
220
0.0
230
1.0
 70
     8
 71
     3
 72
     9
 73
     5
 74
     3
 42
0.0000000001
 43
0.0000000001
 44
0.000001
 12
-0.9675249312242513
 22
-0.2527756069313413
 32
0.0
 13
-0.9610663920915447
 23
-0.2763175528122328
 33
0.0
 40
0.0
 40
0.0
 40
0.0
 40
0.0
 40
0.1479095536828696
 40
0.3657856434040561
 40
0.3657856434040561
 40
0.3657856434040561
 40
0.3657856434040561
 10
31.25795799133276
 20
4.569597099941859
 30
0.0
 10
31.21025593108128
 20
4.557134457540826
 30
0.0
 10
31.09243877995883
 20
4.525731475126349
 30
0.0
 10
30.97501034583109
 20
4.492891887423468
 30
0.0
 10
30.90521255000731
 20
4.472824224780765
 30
0.0
 11
31.25795799133276
 21
4.569597099941859
 31
0.0
 11
31.11503837585734
 21
4.531503396021207
 31
0.0
 11
30.90521255000731
 21
4.472824224780765
 31
0.0
  0
SPLINE
  5
A0
330
2
100
AcDbEntity
  8
GAIKEI
  6
Continuous
 62
     7
100
AcDbSpline
210
0.0
220
0.0
230
1.0
 70
     8
 71
     3
 72
     9
 73
     5
 74
     3
 42
0.0000000001
 43
0.0000000001
 44
0.000001
 12
-0.0523359692175336
 22
0.9986295340746044
 32
0.0
 13
-0.0597968860352182
 23
0.9982105651717432
 33
0.0
 40
0.0
 40
0.0
 40
0.0
 40
0.0
 40
0.0002800777325767
 40
0.0005604569668953
 40
0.0005604569668953
 40
0.0005604569668953
 40
0.0005604569668953
 10
47.16438617831612
 20
4.410606610743798
 30
0.0
 10
47.16438129226959
 20
4.410699842042333
 30
0.0
 10
47.16437116656175
 20
4.410886386908487
 30
0.0
 10
47.16436034393335
 20
4.4110728926413
 30
0.0
 10
47.16435475533164
 20
4.41116618514593
 30
0.0
 11
47.16438617831612
 21
4.410606610743798
 31
0.0
 11
47.16437099796893
 21
4.410886276782662
 31
0.0
 11
47.16435475533164
 21
4.41116618514593
 31
0.0
  0
SPLINE
  5
A1
330
2
100
AcDbEntity
  8
GAIKEI
  6
Continuous
 62
     7
100
AcDbSpline
210
0.0
220
0.0
230
1.0
 70
     8
 71
     3
 72
     9
 73
     5
 74
     3
 42
0.0000000001
 43
0.0000000001
 44
0.000001
 12
-0.0431849594917586
 22
-0.9990670944804934
 32
0.0
 13
0.0000296297639101
 23
-0.9999999995610387
 33
0.0
 40
0.0
 40
0.0
 40
0.0
 40
0.0
 40
0.0132218854411306
 40
0.0236114203613664
 40
0.0236114203613664
 40
0.0236114203613664
 40
0.0236114203613664
 10
40.02337760904622
 20
7.721170784392256
 30
0.0
 10
40.02318728018383
 20
7.716767600835169
 30
0.0
 10
40.02294256404513
 20
7.708900006013323
 30
0.0
 10
40.02286792311958
 20
7.701029401025778
 30
0.0
 10
40.02286802573273
 20
7.697566222720524
 30
0.0
 11
40.02337760904622
 21
7.721170784392256
 31
0.0
 11
40.02296651757744
 21
7.707955250897498
 31
0.0
 11
40.02286802573273
 21
7.697566222720524
 31
0.0
  0
SPLINE
  5
A2
330
2
100
AcDbEntity
  8
GAIKEI
  6
Continuous
 62
     7
100
AcDbSpline
210
0.0
220
0.0
230
1.0
 70
     8
 71
     3
 72
     9
 73
     5
 74
     3
 42
0.0000000001
 43
0.0000000001
 44
0.000001
 12
-0.2411640456581831
 22
-0.970484365191824
 32
0.0
 13
-0.0939959462488436
 23
-0.995572580020555
 33
0.0
 40
0.0
 40
0.0
 40
0.0
 40
0.0
 40
0.0002222621876604
 40
0.000477989616156
 40
0.000477989616156
 40
0.000477989616156
 40
0.000477989616156
 10
40.02313938250096
 20
7.700177399390781
 30
0.0
 10
40.02312151528482
 20
7.700105498731431
 30
0.0
 10
40.02308846909746
 20
7.699949493471422
 30
0.0
 10
40.0230671319225
 20
7.699791398020011
 30
0.0
 10
40.02305911947529
 20
7.699706532948084
 30
0.0
 11
40.02313938250096
 21
7.700177399390781
 31
0.0
 11
40.02309329717194
 21
7.699959972627311
 31
0.0
 11
40.02305911947529
 21
7.699706532948084
 31
0.0
  0
SPLINE
  5
A3
330
2
100
AcDbEntity
  8
GAIKEI
  6
Continuous
 62
     7
100
AcDbSpline
210
0.0
220
0.0
230
1.0
 70
     8
 71
     3
 72
     9
 73
     5
 74
     3
 42
0.0000000001
 43
0.0000000001
 44
0.000001
 12
0.9999823164383766
 22
-0.005947000129366
 32
0.0
 13
0.9999814749337781
 23
-0.0060868538068126
 33
0.0
 40
0.0
 40
0.0
 40
0.0
 40
0.0
 40
0.000108936915476
 40
0.0014078173522187
 40
0.0014078173522187
 40
0.0014078173522187
 40
0.0014078173522187
 10
42.36646023386457
 20
7.628279230306873
 30
0.0
 10
42.36649654552759
 20
7.628279014357588
 30
0.0
 10
42.36696580966484
 20
7.628276221055045
 30
0.0
 10
42.36743507360745
 20
7.628273394937821
 30
0.0
 10
42.36786802573242
 20
7.628270759572728
 30
0.0
 11
42.36646023386457
 21
7.628279230306873
 31
0.0
 11
42.36656916885015
 21
7.628278581869608
 31
0.0
 11
42.36786802573242
 21
7.628270759572728
 31
0.0
  0
SPLINE
  5
A4
330
2
100
AcDbEntity
  8
GAIKEI
  6
Continuous
 62
     7
100
AcDbSpline
210
0.0
220
0.0
230
1.0
 70
     8
 71
     3
 72
    15
 73
    11
 74
     9
 42
0.0000000001
 43
0.0000000001
 44
0.000001
 12
-0.0020523424015809
 22
0.9999978939431155
 32
0.0
 13
-0.9808057763838966
 23
0.1949872534602752
 33
0.0
 40
0.0
 40
0.0
 40
0.0
 40
0.0
 40
0.0119733572161857
 40
0.0229553035813785
 40
0.0324633497321865
 40
0.040218595133114
 40
0.0466589963270099
 40
0.0532363983836909
 40
0.0601091701300848
 40
0.0673970191910536
 40
0.0673970191910536
 40
0.0673970191910536
 40
0.0673970191910536
 10
42.36645431994524
 20
7.628278984058397
 30
0.0
 10
42.36644612880235
 20
7.632270094724958
 30
0.0
 10
42.36555822025948
 20
7.639954242756061
 30
0.0
 10
42.3618783617718
 20
7.650218196578975
 30
0.0
 10
42.35695325380656
 20
7.658310219889642
 30
0.0
 10
42.35171048886917
 20
7.66426482821032
 30
0.0
 10
42.34645316201635
 20
7.668792669899858
 30
0.0
 10
42.34095659183412
 20
7.672535597537262
 30
0.0
 10
42.33468339124434
 20
7.675508885934448
 30
0.0
 10
42.33012013552858
 20
7.676813341512229
 30
0.0
 10
42.32773748070978
 20
7.67728702073623
 30
0.0
 11
42.36645431994524
 21
7.628278984058397
 31
0.0
 11
42.36505446129437
 21
7.640170435510867
 31
0.0
 11
42.36135312401397
 21
7.650509762445153
 31
0.0
 11
42.35640347672999
 21
7.658627782951953
 31
0.0
 11
42.35128549893498
 21
7.664454270112628
 31
0.0
 11
42.34641471802897
 21
7.668667714131174
 31
0.0
 11
42.34095508042684
 21
7.672335932654448
 31
0.0
 11
42.33474403750135
 21
7.675278636103257
 31
0.0
 11
42.32773748070978
 21
7.67728702073623
 31
0.0
  0
SPLINE
  5
A5
330
2
100
AcDbEntity
  8
GAIKEI
  6
Continuous
 62
     7
100
AcDbSpline
210
0.0
220
0.0
230
1.0
 70
     8
 71
     3
 72
    16
 73
    12
 74
    10
 42
0.0000000001
 43
0.0000000001
 44
0.000001
 12
0.0195553393702535
 22
-0.9998087760677609
 32
0.0
 13
0.983734430859786
 23
-0.1796289774534527
 33
0.0
 40
0.0
 40
0.0
 40
0.0
 40
0.0
 40
0.0069006652968285
 40
0.0135051225486435
 40
0.0253662887769001
 40
0.0349609474397477
 40
0.0420607594918606
 40
0.0484275005554353
 40
0.0547806353053543
 40
0.0611525477670479
 40
0.0766353440936145
 40
0.0766353440936145
 40
0.0766353440936145
 40
0.0766353440936145
 10
40.0249673244409
 20
7.257000418957773
 30
0.0
 10
40.02501230605815
 20
7.254700637049609
 30
0.0
 10
40.02540710292001
 20
7.250198804542435
 30
0.0
 10
40.02727424366476
 20
7.241931993413516
 30
0.0
 10
40.03101193706197
 20
7.233252614953016
 30
0.0
 10
40.0365823536876
 20
7.225460134680758
 30
0.0
 10
40.04206752190356
 20
7.22004417610799
 30
0.0
 10
40.04729582225613
 20
7.215974538846467
 30
0.0
 10
40.0527863525134
 20
7.21274744011896
 30
0.0
 10
40.06145687021194
 20
7.208895128203835
 30
0.0
 10
40.06893323868463
 20
7.208879049920142
 30
0.0
 10
40.07401022529545
 20
7.207951996962719
 30
0.0
 11
40.0249673244409
 21
7.257000418957773
 31
0.0
 11
40.02557176925704
 21
7.25012542713307
 31
0.0
 11
40.02702765941767
 21
7.243683415427028
 31
0.0
 11
40.03171916520726
 21
7.23278946133729
 31
0.0
 11
40.03730461391739
 21
7.224988114235031
 31
0.0
 11
40.04233870259871
 21
7.219981545630844
 31
0.0
 11
40.0473749726958
 21
7.216086467050899
 31
0.0
 11
40.05284349610336
 21
7.212852608476055
 31
0.0
 11
40.05872064855724
 21
7.210390762080066
 31
0.0
 11
40.07401022529545
 21
7.207951996962719
 31
0.0
  0
SPLINE
  5
A6
330
2
100
AcDbEntity
  8
GAIKEI
  6
Continuous
 62
     7
100
AcDbSpline
210
0.0
220
0.0
230
1.0
 70
     8
 71
     3
 72
    27
 73
    23
 74
    21
 42
0.0000000001
 43
0.0000000001
 44
0.000001
 12
-0.998092145457185
 22
0.0617419563722557
 32
0.0
 13
-0.0178361196726982
 23
0.9998409237648864
 33
0.0
 40
0.0
 40
0.0
 40
0.0
 40
0.0
 40
0.0073560352850189
 40
0.0153952151257226
 40
0.0240412313408529
 40
0.0332416808533531
 40
0.0463217356877476
 40
0.0603105378113
 40
0.0749337022185753
 40
0.097787270526462
 40
0.1217048069928199
 40
0.1466145178376645
 40
0.1724121884034875
 40
0.1987608571952916
 40
0.2254084422230601
 40
0.2521981222281025
 40
0.2789679566591702
 40
0.296728270068756
 40
0.31418962885937
 40
0.3304909002575233
 40
0.3526310000638222
 40
0.3721378351942566
 40
0.3721378351942566
 40
0.3721378351942566
 40
0.3721378351942566
 10
41.30246565981109
 20
7.696246439758056
 30
0.0
 10
41.30001832613119
 20
7.69639783176126
 30
0.0
 10
41.29490053680775
 20
7.696785823262644
 30
0.0
 10
41.28692877374634
 20
7.697615774975247
 30
0.0
 10
41.27837709361979
 20
7.698776996762944
 30
0.0
 10
41.26821388913714
 20
7.700515851612692
 30
0.0
 10
41.25639388211088
 20
7.703084508506606
 30
0.0
 10
41.24299694257371
 20
7.706810489772124
 30
0.0
 10
41.22675621946982
 20
7.71236441016282
 30
0.0
 10
41.20791696087377
 20
7.720435126934489
 30
0.0
 10
41.18690371503329
 20
7.731884531313596
 30
0.0
 10
41.16629699778818
 20
7.745891772960817
 30
0.0
 10
41.14659701183039
 20
7.762445084200635
 30
0.0
 10
41.12832857192027
 20
7.781383548451344
 30
0.0
 10
41.1119658476524
 20
7.802413879516734
 30
0.0
 10
41.09786740519811
 20
7.825189484763484
 30
0.0
 10
41.08756577926176
 20
7.846668403451076
 30
0.0
 10
41.08031525222644
 20
7.866034872304339
 30
0.0
 10
41.07543026155553
 20
7.882515712806196
 30
0.0
 10
41.07142286289636
 20
7.900729011023884
 30
0.0
 10
41.06882447068388
 20
7.91989604794935
 30
0.0
 10
41.06804450479084
 20
7.933770446103949
 30
0.0
 10
41.06792852937558
 20
7.940271690122813
 30
0.0
 11
41.30246565981109
 21
7.696246439758056
 31
0.0
 11
41.29513011635269
 21
7.696800481307548
 31
0.0
 11
41.28713426047879
 21
7.697633985472862
 31
0.0
 11
41.27856706537516
 21
7.698798854967321
 31
0.0
 11
41.26949869443329
 21
7.70035230465146
 31
0.0
 11
41.25671836877931
 21
7.703136523587204
 31
0.0
 11
41.24323966729484
 21
7.706879806125982
 31
0.0
 11
41.22940255663609
 21
7.711609733388058
 31
0.0
 11
41.20839589753295
 21
7.720610160115484
 31
0.0
 11
41.18739325402173
 21
7.732053023865489
 31
0.0
 11
41.16679213645191
 21
7.746056208350296
 31
0.0
 11
41.1470410344621
 21
7.762651848591985
 31
0.0
 11
41.12874783551778
 21
7.781615305582079
 31
0.0
 11
41.11238371293454
 21
7.802646491298901
 31
0.0
 11
41.09828302774359
 21
7.825424972670191
 31
0.0
 11
41.08670593203628
 21
7.849562014001719
 31
0.0
 11
41.08047784836507
 21
7.866194534125497
 31
0.0
 11
41.07552831029333
 21
7.882939757270833
 31
0.0
 11
41.07202615942218
 21
7.898860421657843
 31
0.0
 11
41.06901289406503
 21
7.92079451800032
 31
0.0
 11
41.06792852937558
 21
7.940271690122813
 31
0.0
  0
SPLINE
  5
A7
330
2
100
AcDbEntity
  8
GAIKEI
  6
Continuous
 62
     7
100
AcDbSpline
210
0.0
220
0.0
230
1.0
 70
     8
 71
     3
 72
     9
 73
     5
 74
     3
 42
0.0000000001
 43
0.0000000001
 44
0.000001
 12
-0.1768406705951678
 22
-0.9842394918024023
 32
0.0
 13
-0.0002330135877314
 23
-0.9999999728523334
 33
0.0
 40
0.0
 40
0.0
 40
0.0
 40
0.0
 40
0.0012069233834746
 40
0.0021509069004982
 40
0.0021509069004982
 40
0.0021509069004982
 40
0.0021509069004982
 10
40.02305911947529
 20
7.699706532948084
 30
0.0
 10
40.02298797509513
 20
7.699310565728865
 30
0.0
 10
40.02289633110062
 20
7.698598039066951
 30
0.0
 10
40.02286809905306
 20
7.697880883884351
 30
0.0
 10
40.02286802573273
 20
7.697566222720524
 30
0.0
 11
40.02305911947529
 21
7.699706532948084
 31
0.0
 11
40.0229049518616
 21
7.698509428229954
 31
0.0
 11
40.02286802573273
 21
7.697566222720524
 31
0.0
  0
SPLINE
  5
A8
330
2
100
AcDbEntity
  8
GAIKEI
  6
Continuous
 62
     7
100
AcDbSpline
210
0.0
220
0.0
230
1.0
 70
     8
 71
     3
 72
    15
 73
    11
 74
     9
 42
0.0000000001
 43
0.0000000001
 44
0.000001
 12
-0.0952280898330146
 22
0.9954554791183557
 32
0.0
 13
-0.9361924463683209
 23
0.3514878424112258
 33
0.0
 40
0.0
 40
0.0
 40
0.0
 40
0.0
 40
0.008971917104563
 40
0.0174488440530274
 40
0.0251938520377874
 40
0.0320248211546514
 40
0.0388638623660284
 40
0.0465284370060388
 40
0.05493113259677
 40
0.0560810390688527
 40
0.0560810390688527
 40
0.0560810390688527
 40
0.0560810390688527
 10
42.36766945135978
 20
7.632722501424041
 30
0.0
 10
42.36738465851712
 20
7.635699549437333
 30
0.0
 10
42.36630897684918
 20
7.641456852886449
 30
0.0
 10
42.36325857420453
 20
7.649323821367147
 30
0.0
 10
42.35939174364775
 20
7.655995843477739
 30
0.0
 10
42.35499469437136
 20
7.661642968296291
 30
0.0
 10
42.34993186879558
 20
7.666666350083005
 30
0.0
 10
42.34376719392048
 20
7.671222778699871
 30
0.0
 10
42.33861796414022
 20
7.673832668081331
 30
0.0
 10
42.33565187947536
 20
7.674990626402745
 30
0.0
 10
42.33529303489096
 20
7.675125352451004
 30
0.0
 11
42.36766945135978
 21
7.632722501424041
 31
0.0
 11
42.36600502106158
 21
7.641539235302388
 31
0.0
 11
42.36296390707541
 21
7.649451982442542
 31
0.0
 11
42.35908450486429
 21
7.656155168245788
 31
0.0
 11
42.3548880902395
 21
7.661544866013684
 31
0.0
 11
42.35002608007469
 21
7.666354518617822
 31
0.0
 11
42.3438572489686
 21
7.670903320823356
 31
0.0
 11
42.33636513257606
 21
7.674708243168993
 31
0.0
 11
42.33529303489096
 21
7.675125352451004
 31
0.0
  0
ARC
  5
A9
330
2
100
AcDbEntity
  8
GAIKEI
  6
Continuous
 62
     7
100
AcDbCircle
 10
40.19472965978192
 20
6.85795199696264
 30
0.0
 40
0.05
100
AcDbArc
 50
90.0
 51
176.9995960092138
  0
LINE
  5
AA
330
2
100
AcDbEntity
  8
GAIKEI
  6
Continuous
 62
     1
100
AcDbLine
 10
-9.486141019944071
 20
3.922956546962723
 30
0.0
 11
-6.486141019944071
 21
3.922956546962723
 31
0.0
  0
LINE
  5
AB
330
2
100
AcDbEntity
  8
GAIKEI
  6
Continuous
 62
     1
100
AcDbLine
 10
-6.486141019944071
 20
3.922956546962723
 30
0.0
 11
-6.486141019944071
 21
4.057951996962685
 31
0.0
  0
LINE
  5
AC
330
2
100
AcDbEntity
  8
GAIKEI
  6
Continuous
 62
     1
100
AcDbLine
 10
-9.486141019944071
 20
3.922956546962723
 30
0.0
 11
-9.486141019944071
 21
4.007951996962674
 31
0.0
  0
LINE
  5
AD
330
2
100
AcDbEntity
  8
GAIKEI
  6
Continuous
 62
     1
100
AcDbLine
 10
-15.4600110199441
 20
3.922956546962723
 30
0.0
 11
-15.4600110199441
 21
4.007951996962674
 31
0.0
  0
LINE
  5
AE
330
2
100
AcDbEntity
  8
GAIKEI
  6
Continuous
 62
     1
100
AcDbLine
 10
-34.93388101994408
 20
3.922956546962723
 30
0.0
 11
-31.93388101994408
 21
3.922956546962723
 31
0.0
  0
LINE
  5
AF
330
2
100
AcDbEntity
  8
GAIKEI
  6
Continuous
 62
     1
100
AcDbLine
 10
-31.93388101994408
 20
3.922956546962723
 30
0.0
 11
-31.93388101994408
 21
4.007951996962674
 31
0.0
  0
LINE
  5
B0
330
2
100
AcDbEntity
  8
GAIKEI
  6
Continuous
 62
     1
100
AcDbLine
 10
-34.93388101994408
 20
3.922956546962723
 30
0.0
 11
-34.93388101994408
 21
4.057951996962685
 31
0.0
  0
LINE
  5
B1
330
2
100
AcDbEntity
  8
GAIKEI
  6
Continuous
 62
     1
100
AcDbLine
 10
-25.9600110199441
 20
3.922956546962723
 30
0.0
 11
-25.9600110199441
 21
4.007951996962674
 31
0.0
  0
LINE
  5
B2
330
2
100
AcDbEntity
  8
GAIKEI
  6
Continuous
 62
     1
100
AcDbLine
 10
-25.9600110199441
 20
3.922956546962723
 30
0.0
 11
-15.4600110199441
 21
3.922956546962723
 31
0.0
  0
LINE
  5
B3
330
2
100
AcDbEntity
  8
GAIKEI
  6
Continuous
 62
     1
100
AcDbLine
 10
-20.70996606994409
 20
4.472824196962733
 30
0.0
 11
-20.70997126994406
 21
4.404669546962736
 31
0.0
  0
LINE
  5
B4
330
2
100
AcDbEntity
  8
GAIKEI
  6
Continuous
 62
     1
100
AcDbLine
 10
-20.71000731994407
 20
4.957951996962719
 30
0.0
 11
-20.71000731994407
 21
4.472824246962659
 31
0.0
  0
LINE
  5
B5
330
2
100
AcDbEntity
  8
GAIKEI
  6
Continuous
 62
     1
100
AcDbLine
 10
-31.60382876994409
 20
5.339370496962715
 30
0.0
 11
-31.60485821994412
 21
5.339205346962671
 31
0.0
  0
LINE
  5
B6
330
2
100
AcDbEntity
  8
GAIKEI
  6
Continuous
 62
     1
100
AcDbLine
 10
-15.08863256994409
 20
4.007951996962674
 30
0.0
 11
-26.33138396994407
 21
4.007951996962674
 31
0.0
  0
LINE
  5
B7
330
2
100
AcDbEntity
  8
GAIKEI
  6
Continuous
 62
     7
100
AcDbLine
 10
-35.16001071994408
 20
4.057951996962742
 30
0.0
 11
-6.260005819944083
 21
4.057951996962685
 31
0.0
  0
LINE
  5
B8
330
2
100
AcDbEntity
  8
GAIKEI
  6
Continuous
 62
     1
100
AcDbLine
 10
-26.33138396994407
 20
4.007951996962674
 30
0.0
 11
-34.93667011994406
 21
4.007951996962674
 31
0.0
  0
LINE
  5
B9
330
2
100
AcDbEntity
  8
GAIKEI
  6
Continuous
 62
     1
100
AcDbLine
 10
-6.483346469944038
 20
4.007951996962674
 30
0.0
 11
-15.08863256994409
 21
4.007951996962674
 31
0.0
  0
LINE
  5
BA
330
2
100
AcDbEntity
  8
GAIKEI
  6
Continuous
 62
     1
100
AcDbLine
 10
-20.71005936994409
 20
5.05008739696268
 30
0.0
 11
-20.71006486994408
 21
5.053309246962726
 31
0.0
  0
LINE
  5
BB
330
2
100
AcDbEntity
  8
GAIKEI
  6
Continuous
 62
     1
100
AcDbLine
 10
-28.13327916994406
 20
5.226077696962704
 30
0.0
 11
-28.1334221699441
 21
5.220279396962723
 31
0.0
  0
LINE
  5
BC
330
2
100
AcDbEntity
  8
GAIKEI
  6
Continuous
 62
     1
100
AcDbLine
 10
-20.71000731994407
 20
6.682951996962685
 30
0.0
 11
-20.71000731994407
 21
6.303886346962713
 31
0.0
  0
LINE
  5
BD
330
2
100
AcDbEntity
  8
GAIKEI
  6
Continuous
 62
     1
100
AcDbLine
 10
-20.71000826994408
 20
6.682951996962685
 30
0.0
 11
-28.12876257024579
 21
6.682951996962628
 31
0.0
  0
LINE
  5
BE
330
2
100
AcDbEntity
  8
GAIKEI
  6
Continuous
 62
     1
100
AcDbLine
 10
-13.2912539696424
 20
6.682951996962685
 30
0.0
 11
-20.71000826994408
 21
6.682951996962685
 31
0.0
  0
LINE
  5
BF
330
2
100
AcDbEntity
  8
GAIKEI
  6
Continuous
 62
     1
100
AcDbLine
 10
-20.71000826994408
 20
6.86056864696269
 30
0.0
 11
-20.71000826994408
 21
6.682951996962685
 31
0.0
  0
LINE
  5
C0
330
2
100
AcDbEntity
  8
GAIKEI
  6
Continuous
 62
     7
100
AcDbLine
 10
-6.260005819944083
 20
4.057951996962685
 30
0.0
 11
-6.278300269944068
 21
4.407030196962693
 31
0.0
  0
LINE
  5
C1
330
2
100
AcDbEntity
  8
GAIKEI
  6
Continuous
 62
     7
100
AcDbLine
 10
-35.14171646994409
 20
4.40702689696269
 30
0.0
 11
-35.16001071994408
 21
4.057951996962742
 31
0.0
  0
LINE
  5
C2
330
2
100
AcDbEntity
  8
GAIKEI
  6
Continuous
 62
     7
100
AcDbLine
 10
-6.329501919944121
 20
4.474280846962699
 30
0.0
 11
-6.329493619944074
 21
4.474277796962724
 31
0.0
  0
LINE
  5
C3
330
2
100
AcDbEntity
  8
GAIKEI
  6
Continuous
 62
     1
100
AcDbLine
 10
-6.308258219944107
 20
4.007951996962674
 30
0.0
 11
-6.483346469944038
 21
4.007951996962674
 31
0.0
  0
LINE
  5
C4
330
2
100
AcDbEntity
  8
GAIKEI
  6
Continuous
 62
     1
100
AcDbLine
 10
-6.308258219944107
 20
4.007951996962674
 30
0.0
 11
-6.307385419944083
 21
4.057951996962685
 31
0.0
  0
LINE
  5
C5
330
2
100
AcDbEntity
  8
GAIKEI
  6
Continuous
 62
     1
100
AcDbLine
 10
-35.11263111994408
 20
4.057951996962685
 30
0.0
 11
-35.1117583699441
 21
4.007951996962674
 31
0.0
  0
LINE
  5
C6
330
2
100
AcDbEntity
  8
GAIKEI
  6
Continuous
 62
     1
100
AcDbLine
 10
-34.93667011994406
 20
4.007951996962674
 30
0.0
 11
-35.1117583699441
 21
4.007951996962674
 31
0.0
  0
LINE
  5
C7
330
2
100
AcDbEntity
  8
GAIKEI
  6
Continuous
 62
     7
100
AcDbLine
 10
-28.1194540699441
 20
6.860568796962695
 30
0.0
 11
-28.19682316994409
 21
5.384278146962685
 31
0.0
  0
ARC
  5
C8
330
2
100
AcDbEntity
  8
GAIKEI
  6
Continuous
 62
     1
100
AcDbCircle
 10
-20.01291401994406
 20
13137.48264054696
 30
0.0
 40
13133.0779895
100
AcDbArc
 50
269.9723600000023
 51
269.9969590000104
  0
ARC
  5
C9
330
2
100
AcDbEntity
  8
GAIKEI
  6
Continuous
 62
     1
100
AcDbCircle
 10
-21.40717076994407
 20
13137.73755934696
 30
0.0
 40
13133.3329083
100
AcDbArc
 50
270.0030409999896
 51
270.0276390000027
  0
ARC
  5
CA
330
2
100
AcDbEntity
  8
GAIKEI
  6
Continuous
 62
     1
100
AcDbCircle
 10
-19.89393446994411
 20
21773.04103054696
 30
0.0
 40
21768.5682216
100
AcDbArc
 50
269.9830900000068
 51
269.9978520000073
  0
ARC
  5
CB
330
2
100
AcDbEntity
  8
GAIKEI
  6
Continuous
 62
     1
100
AcDbCircle
 10
-21.52608221994406
 20
21773.04173199696
 30
0.0
 40
21768.56892305
100
AcDbArc
 50
270.0021479999926
 51
270.0169099999932
  0
ARC
  5
CC
330
2
100
AcDbEntity
  8
GAIKEI
  6
Continuous
 62
     1
100
AcDbCircle
 10
-33.94943198839229
 20
73280.66951982634
 30
0.0
 40
73276.19818682939
100
AcDbArc
 50
270.0147378338578
 51
270.0215911794426
  0
ARC
  5
CD
330
2
100
AcDbEntity
  8
GAIKEI
  6
Continuous
 62
     7
100
AcDbCircle
 10
-20.37680314639143
 20
-1118.020949766976
 30
0.0
 40
1123.428004065934
100
AcDbArc
 50
89.49062581369167
 51
89.63518976520346
  0
ARC
  5
CE
330
2
100
AcDbEntity
  8
GAIKEI
  6
Continuous
 62
     7
100
AcDbCircle
 10
-21.04321339347207
 20
-1118.020949516971
 30
0.0
 40
1123.428003815928
100
AcDbArc
 50
90.36481023479797
 51
90.50937418630981
  0
ARC
  5
CF
330
2
100
AcDbEntity
  8
GAIKEI
  6
Continuous
 62
     1
100
AcDbCircle
 10
-7.438713214573056
 20
73528.6989395534
 30
0.0
 40
73524.22760655644
100
AcDbArc
 50
269.978456806296
 51
269.9852870463845
  0
ARC
  5
D0
330
2
100
AcDbEntity
  8
GAIKEI
  6
Continuous
 62
     1
100
AcDbCircle
 10
-34.35693674513159
 20
38154.3981469426
 30
0.0
 40
38149.99684224563
100
AcDbArc
 50
270.0289635932444
 51
270.0421694731375
  0
ARC
  5
D1
330
2
100
AcDbEntity
  8
GAIKEI
  6
Continuous
 62
     1
100
AcDbCircle
 10
-7.063349897832907
 20
38153.96107811332
 30
0.0
 40
38149.55977336634
100
AcDbArc
 50
269.9578304492856
 51
269.9710364065244
  0
ARC
  5
D2
330
2
100
AcDbEntity
  8
GAIKEI
  6
Continuous
 62
     1
100
AcDbCircle
 10
-21.55879356994406
 20
9.732092546962689
 30
0.0
 40
7.9704473
100
AcDbArc
 50
214.1955579999895
 51
215.3130209492369
  0
ARC
  5
D3
330
2
100
AcDbEntity
  8
GAIKEI
  6
Continuous
 62
     7
100
AcDbCircle
 10
-6.353282569944056
 20
4.403060646962671
 30
0.0
 40
0.07508555
100
AcDbArc
 50
3.016737999993796
 51
71.53609600000561
  0
ARC
  5
D4
330
2
100
AcDbEntity
  8
GAIKEI
  6
Continuous
 62
     7
100
AcDbCircle
 10
-35.06673546994405
 20
4.403061796962674
 30
0.0
 40
0.075084
100
AcDbArc
 50
108.4630779999906
 51
176.9840879999948
  0
SPLINE
  5
D5
330
2
100
AcDbEntity
  8
GAIKEI
  6
Continuous
 62
     1
100
AcDbSpline
210
0.0
220
0.0
230
1.0
 70
     8
 71
     3
 72
    14
 73
    10
 74
     8
 42
0.0000000001
 43
0.0000000001
 44
0.000001
 12
0.987420814030629
 22
-0.1581143131379631
 32
0.0
 13
-0.8667181469768204
 23
-0.4987982094004213
 33
0.0
 40
0.0
 40
0.0
 40
0.0
 40
0.0
 40
0.0025529197616756
 40
0.0117257667036393
 40
0.0188820345696876
 40
0.0237710887792997
 40
0.0265723452764174
 40
0.0284023321299426
 40
0.0295824606948589
 40
0.0295824606948589
 40
0.0295824606948589
 40
0.0295824606948589
 10
-9.816252167781343
 20
5.339380823774604
 30
0.0
 10
-9.815411899078263
 20
5.339246272723073
 30
0.0
 10
-9.811553241684308
 20
5.338603584698034
 30
0.0
 10
-9.805407278319592
 20
5.337449514312197
 30
0.0
 10
-9.798401778787699
 20
5.335739074215609
 30
0.0
 10
-9.794023140633072
 20
5.334054135886333
 30
0.0
 10
-9.79079167734303
 20
5.332269653383605
 30
0.0
 10
-9.791207217904251
 20
5.330007795146741
 30
0.0
 10
-9.791995756961277
 20
5.329341794294009
 30
0.0
 10
-9.79233670324227
 20
5.32914557895566
 30
0.0
 11
-9.816252167781343
 21
5.339380823774604
 31
0.0
 11
-9.813734677538448
 21
5.33896304318489
 31
0.0
 11
-9.804727801447441
 21
5.337226014381599
 31
0.0
 11
-9.79780400220018
 21
5.335416825564379
 31
0.0
 11
-9.793269918828983
 21
5.333587874381862
 31
0.0
 11
-9.791158680668402
 21
5.331746634816397
 31
0.0
 11
-9.791465603397242
 21
5.32994272083971
 31
0.0
 11
-9.79233670324227
 21
5.32914557895566
 31
0.0
  0
SPLINE
  5
D6
330
2
100
AcDbEntity
  8
GAIKEI
  6
Continuous
 62
     7
100
AcDbSpline
210
0.0
220
0.0
230
1.0
 70
     8
 71
     3
 72
    70
 73
    66
 74
    64
 42
0.0000000001
 43
0.0000000001
 44
0.000001
 12
-0.9482877715048783
 22
0.3174118813376585
 32
0.0
 13
-0.9873735858455495
 23
0.158408970625093
 33
0.0
 40
0.0
 40
0.0
 40
0.0
 40
0.0
 40
0.0991638175971129
 40
0.2240129106214327
 40
0.3456529951460175
 40
0.464098212711919
 40
0.5793621098099618
 40
0.6914576095339516
 40
0.8003970284220162
 40
0.9061920979599186
 40
1.013664670565526
 40
1.117710761659094
 40
1.218341954516031
 40
1.315569237548491
 40
1.409403031798958
 40
1.499853218008407
 40
1.586929163200089
 40
1.67063974672283
 40
1.750993385701353
 40
1.827998059842985
 40
1.90166133555247
 40
1.971990389307405
 40
2.035252889994717
 40
2.095562816513323
 40
2.152925336835534
 40
2.207345376400355
 40
2.2592251388624
 40
2.331869048518874
 40
2.401828213076315
 40
2.469112383512065
 40
2.533731031388124
 40
2.595693371314887
 40
2.634829250275087
 40
2.672832657311909
 40
2.710808628855599
 40
2.751903680517779
 40
2.796310918573771
 40
2.844029715733719
 40
2.892668256025727
 40
2.944323518849146
 40
2.998995473216293
 40
3.056684296490707
 40
3.093135027482142
 40
3.127195926570196
 40
3.15883523968506
 40
3.188053637034516
 40
3.214851698142908
 40
3.242366756873225
 40
3.266757623632836
 40
3.288024783157329
 40
3.306503634705174
 40
3.32291358033441
 40
3.327622379661239
 40
3.332809495397207
 40
3.339969162295164
 40
3.349155037518258
 40
3.364554854787312
 40
3.383557114543303
 40
3.406162067597918
 40
3.432370038478442
 40
3.462181438194185
 40
3.495596779054114
 40
3.532616691455914
 40
3.573241607181744
 40
3.595548285152357
 40
3.595548285152357
 40
3.595548285152357
 40
3.595548285152357
 10
-6.330174957671843
 20
4.474507506120062
 30
0.0
 10
-6.361520236206203
 20
4.484999430754783
 30
0.0
 10
-6.432379547764902
 20
4.508552513169888
 30
0.0
 10
-6.541885365712843
 20
4.544381404583589
 30
0.0
 10
-6.657695460949256
 20
4.581605190178379
 30
0.0
 10
-6.770647452926915
 20
4.617274594353659
 30
0.0
 10
-6.880737896025337
 20
4.651435418948267
 30
0.0
 10
-6.987963418641982
 20
4.684132619329773
 30
0.0
 10
-7.092320771411834
 20
4.715410097913832
 30
0.0
 10
-7.195345000368362
 20
4.745763929923555
 30
0.0
 10
-7.296943010308424
 20
4.775183041718776
 30
0.0
 10
-7.397021160970339
 20
4.80365815539119
 30
0.0
 10
-7.49393815443318
 20
4.830760511804328
 30
0.0
 10
-7.587690948266384
 20
4.856534388809905
 30
0.0
 10
-7.67827665785478
 20
4.881022752677154
 30
0.0
 10
-7.765692558275517
 20
4.904267244529592
 30
0.0
 10
-7.849936088485378
 20
4.926308167962702
 30
0.0
 10
-7.931004854620546
 20
4.947184476933443
 30
0.0
 10
-8.00889663311279
 20
4.966933764111843
 30
0.0
 10
-8.083609373849007
 20
4.985592249798799
 30
0.0
 10
-8.155141201922219
 20
5.003194770844686
 30
0.0
 10
-8.222279169068514
 20
5.019480948305726
 30
0.0
 10
-8.285138025817495
 20
5.034524466659945
 30
0.0
 10
-8.343833242356126
 20
5.048394437057424
 30
0.0
 10
-8.399695749926124
 20
5.061434187393501
 30
0.0
 10
-8.452853824651981
 20
5.07369698625223
 30
0.0
 10
-8.511008451465166
 20
5.08696040497989
 30
0.0
 10
-8.574255204364853
 20
5.101190126107155
 30
0.0
 10
-8.642562755406039
 20
5.116317433242159
 30
0.0
 10
-8.708305294348889
 20
5.130653347106374
 30
0.0
 10
-8.771486043371822
 20
5.144224359287591
 30
0.0
 10
-8.825527772980493
 20
5.155663020636552
 30
0.0
 10
-8.870912873412002
 20
5.165155803160814
 30
0.0
 10
-8.908486187150529
 20
5.172942915981479
 30
0.0
 10
-8.946713196792494
 20
5.1807935948475
 30
0.0
 10
-8.987046673117426
 20
5.188997907379359
 30
0.0
 10
-9.030580514906155
 20
5.197760998718081
 30
0.0
 10
-9.076599634042665
 20
5.206919275693394
 30
0.0
 10
-9.125010316035172
 20
5.216437805518808
 30
0.0
 10
-9.175718928928709
 20
5.226281949263068
 30
0.0
 10
-9.229415369680054
 20
5.236564361139301
 30
0.0
 10
-9.278159040013633
 20
5.245762291860785
 30
0.0
 10
-9.32016926422559
 20
5.253591304005112
 30
0.0
 10
-9.353653805974971
 20
5.259772763682121
 30
0.0
 10
-9.384776665190344
 20
5.265467381444636
 30
0.0
 10
-9.413525787146525
 20
5.270684141687411
 30
0.0
 10
-9.440928930410862
 20
5.275618463763919
 30
0.0
 10
-9.466754433421385
 20
5.280233797929213
 30
0.0
 10
-9.490770409734196
 20
5.284494715387211
 30
0.0
 10
-9.511824735271488
 20
5.288206243073375
 30
0.0
 10
-9.5302622599865
 20
5.291438226081709
 30
0.0
 10
-9.543265141938775
 20
5.293706254152937
 30
0.0
 10
-9.551904110006191
 20
5.295208563125584
 30
0.0
 10
-9.557505476001601
 20
5.296181255452495
 30
0.0
 10
-9.564577562133365
 20
5.297407167945948
 30
0.0
 10
-9.575004574061672
 20
5.29921039666533
 30
0.0
 10
-9.58932284877104
 20
5.301677807098428
 30
0.0
 10
-9.608051857062122
 20
5.304889255797604
 30
0.0
 10
-9.630335597160438
 20
5.308687139993708
 30
0.0
 10
-9.656176354374956
 20
5.313059845727536
 30
0.0
 10
-9.685576792180043
 20
5.317993870865109
 30
0.0
 10
-9.718539933071845
 20
5.323473961116576
 30
0.0
 10
-9.755069152410897
 20
5.32948246412161
 30
0.0
 10
-9.78795451832665
 20
5.334829236815153
 30
0.0
 10
-9.808665025178896
 20
5.338163590486828
 30
0.0
 10
-9.816006700050948
 20
5.339341449785308
 30
0.0
 11
-6.330174957671843
 21
4.474507506120062
 31
0.0
 11
-6.424275372584659
 21
4.505786798265546
 31
0.0
 11
-6.542934992326266
 21
4.544609767109363
 31
0.0
 11
-6.658740284045691
 21
4.58183146255925
 31
0.0
 11
-6.771687687210388
 21
4.617498806083176
 31
0.0
 11
-6.881773737135816
 21
4.651657726078497
 31
0.0
 11
-6.988995069963678
 21
4.684353144939564
 31
0.0
 11
-7.093348427395611
 21
4.71562896644167
 31
0.0
 11
-7.194830661188703
 21
4.74552806344576
 31
0.0
 11
-7.298062618964948
 21
4.775419867850018
 31
0.0
 11
-7.398136824697715
 21
4.803893461637358
 31
0.0
 11
-7.495050076871748
 21
4.830994413421251
 31
0.0
 11
-7.588799325858715
 21
4.856766993487781
 31
0.0
 11
-7.679381678161703
 21
4.881254160387925
 31
0.0
 11
-7.766794400386643
 21
4.904497547969242
 31
0.0
 11
-7.851034922947704
 21
4.926537452849515
 31
0.0
 11
-7.932100843511491
 21
4.947412822334342
 31
0.0
 11
-8.009989930185284
 21
4.967161242781457
 31
0.0
 11
-8.084700124454414
 21
4.985818928412641
 31
0.0
 11
-8.156229543872498
 21
5.003420710577188
 31
0.0
 11
-8.224576484508318
 21
5.020000027465812
 31
0.0
 11
-8.286101624008622
 21
5.034724260936513
 31
0.0
 11
-8.344795121206814
 21
5.048593735404722
 31
0.0
 11
-8.400655993776652
 21
5.06163302954144
 31
0.0
 11
-8.453683406211567
 21
5.07386559284987
 31
0.0
 11
-8.504264369264618
 21
5.085401497932707
 31
0.0
 11
-8.575136683348162
 21
5.101346862246487
 31
0.0
 11
-8.643440963664218
 21
5.116473377182387
 31
0.0
 11
-8.70918032316861
 21
5.130808554753116
 31
0.0
 11
-8.77235798735434
 21
5.144378863053816
 31
0.0
 11
-8.832977302047495
 21
5.157209722282118
 31
0.0
 11
-8.871284225463639
 21
5.165222018531551
 31
0.0
 11
-8.908496842271304
 21
5.172934367206153
 31
0.0
 11
-8.945696439900601
 21
5.18057403795251
 31
0.0
 11
-8.98596681949796
 21
5.18876550002983
 31
0.0
 11
-9.029500841129859
 21
5.197528607167214
 31
0.0
 11
-9.076301866560996
 21
5.206842465744784
 31
0.0
 11
-9.124026652795649
 21
5.216226107652687
 31
0.0
 11
-9.174735233479751
 21
5.226070213771208
 31
0.0
 11
-9.228431566906479
 21
5.236352568880647
 31
0.0
 11
-9.285119958791327
 21
5.247049627874901
 31
0.0
 11
-9.320953752472931
 21
5.253727593300254
 31
0.0
 11
-9.354448691467226
 21
5.259910964988421
 31
0.0
 11
-9.385571322369472
 21
5.265605535457325
 31
0.0
 11
-9.414320247581443
 21
5.270822255934831
 31
0.0
 11
-9.440694160163573
 21
5.275571247660877
 31
0.0
 11
-9.467780084854169
 21
5.280411831656692
 31
0.0
 11
-9.491795898629746
 21
5.284672718509739
 31
0.0
 11
-9.51274012000097
 21
5.288364835757988
 31
0.0
 11
-9.530941444486259
 21
5.29155541391151
 31
0.0
 11
-9.547107317786256
 21
5.294375146627601
 31
0.0
 11
-9.551746493420537
 21
5.295181895330074
 31
0.0
 11
-9.55685712556847
 21
5.296069370535803
 31
0.0
 11
-9.563911589079751
 21
5.297292228390347
 31
0.0
 11
-9.572963107350417
 21
5.298857581854122
 31
0.0
 11
-9.588139237171063
 21
5.301472822903065
 31
0.0
 11
-9.606868161711716
 21
5.30468425658023
 31
0.0
 11
-9.629151792144583
 21
5.308482121636075
 31
0.0
 11
-9.654992409677291
 21
5.312854798497426
 31
0.0
 11
-9.684392668705257
 21
5.317788804992801
 31
0.0
 11
-9.717355600443923
 21
5.323268791389807
 31
0.0
 11
-9.75388461703126
 21
5.329277534743482
 31
0.0
 11
-9.793983516087635
 21
5.335795932550468
 31
0.0
 11
-9.816006700050948
 21
5.339341449785308
 31
0.0
  0
SPLINE
  5
D7
330
2
100
AcDbEntity
  8
GAIKEI
  6
Continuous
 62
     1
100
AcDbSpline
210
0.0
220
0.0
230
1.0
 70
     8
 71
     3
 72
    36
 73
    32
 74
    30
 42
0.0000000001
 43
0.0000000001
 44
0.000001
 12
-0.9995681457324756
 22
-0.0293857454719199
 32
0.0
 13
-0.9999999999992031
 23
-0.0000012623855154
 33
0.0
 40
0.0
 40
0.0
 40
0.0
 40
0.0
 40
0.1421210855843028
 40
0.2863919374776475
 40
0.432694547317883
 40
0.5812602507239446
 40
0.7318041708546241
 40
0.8842072002060856
 40
1.038350222033387
 40
1.194114111862239
 40
1.351379738854986
 40
1.472380838233128
 40
1.594239045658597
 40
1.716900041704884
 40
1.84030950563257
 40
1.965065630484741
 40
2.0905422470427
 40
2.216680258475725
 40
2.343420566307409
 40
2.496964514179028
 40
2.651351837498893
 40
2.806478499051072
 40
2.962240458901504
 40
3.118533674998105
 40
3.275254103751373
 40
3.434992143610541
 40
3.595172949905708
 40
3.755686048047016
 40
3.916420963140814
 40
4.077267220533191
 40
4.238114382626117
 40
4.238114382626117
 40
4.238114382626117
 40
4.238114382626117
 10
-16.47241390093696
 20
5.014316809032834
 30
0.0
 10
-16.51976713759929
 20
5.012924697683786
 30
0.0
 10
-16.61519179218701
 20
5.010183589906432
 30
0.0
 10
-16.75936968023406
 20
5.006249161712901
 30
0.0
 10
-16.9057001970946
 20
5.002452404917619
 30
0.0
 10
-17.05412599180907
 20
4.998797552764187
 30
0.0
 10
-17.20458926890636
 20
4.99528559698092
 30
0.0
 10
-17.35691546751918
 20
4.991920566454268
 30
0.0
 10
-17.510985267386
 20
4.988705041356752
 30
0.0
 10
-17.6666793477078
 20
4.9856416056042
 30
0.0
 10
-17.81133149350526
 20
4.982965070716716
 30
0.0
 10
-17.94468609640889
 20
4.980632934504114
 30
0.0
 10
-18.06650938403876
 20
4.978607961372858
 30
0.0
 10
-18.18913704788499
 20
4.976674589670778
 30
0.0
 10
-18.31273216853685
 20
4.974830561458134
 30
0.0
 10
-18.43726724556553
 20
4.973077412564862
 30
0.0
 10
-18.56271317739795
 20
4.971416100856515
 30
0.0
 10
-18.68882177781197
 20
4.969849864966704
 30
0.0
 10
-18.8242867594383
 20
4.968277784901488
 30
0.0
 10
-18.96916899228891
 20
4.966725380059131
 30
0.0
 10
-19.12351431336135
 20
4.965219465605059
 30
0.0
 10
-19.27860029894995
 20
4.96385310381504
 30
0.0
 10
-19.43432277381879
 20
4.962627003710167
 30
0.0
 10
-19.59057756321771
 20
4.961541876644446
 30
0.0
 10
-19.74815862368123
 20
4.960593023303147
 30
0.0
 10
-19.90703634364597
 20
4.959783683635919
 30
0.0
 10
-20.06717895897839
 20
4.959116694892202
 30
0.0
 10
-20.22765441283194
 20
4.958596776731894
 30
0.0
 10
-20.38835209538472
 20
4.958224809229818
 30
0.0
 10
-20.54916140604637
 20
4.958000392644748
 30
0.0
 10
-20.6563925531705
 20
4.957952054036525
 30
0.0
 10
-20.7100082738681
 20
4.957951986352838
 30
0.0
 11
-16.47241390093696
 21
5.014316809032834
 31
0.0
 11
-16.61447650064663
 21
5.010238898696456
 31
0.0
 11
-16.75869358499888
 21
5.006300649923787
 31
0.0
 11
-16.90494694633175
 21
5.002504935614297
 31
0.0
 11
-17.05346759282874
 21
4.99884631859561
 31
0.0
 11
-17.20397049195709
 21
4.995332202960639
 31
0.0
 11
-17.35633632243953
 21
4.99196517571994
 31
0.0
 11
-17.51044576299882
 21
4.988747823883954
 31
0.0
 11
-17.66617949235775
 21
4.985682734463125
 31
0.0
 11
-17.82341818923909
 21
4.982772494467951
 31
0.0
 11
-17.94440078216367
 21
4.980656324584174
 31
0.0
 11
-18.06624215278761
 21
4.978630729320911
 31
0.0
 11
-18.18888790135561
 21
4.976696763860672
 31
0.0
 11
-18.31228362811261
 21
4.974855483386136
 31
0.0
 11
-18.43702738807543
 21
4.973099084661498
 31
0.0
 11
-18.56249299811323
 21
4.971437191578843
 31
0.0
 11
-18.68862127843307
 21
4.969870439570627
 31
0.0
 11
-18.81535304924212
 21
4.968399464069477
 31
0.0
 11
-18.96888817763631
 21
4.966753839977627
 31
0.0
 11
-19.12326814820501
 21
4.965247160732189
 31
0.0
 11
-19.27838878563445
 21
4.963880135080444
 31
0.0
 11
-19.43414591461085
 21
4.962653471769499
 31
0.0
 11
-19.5904353598204
 21
4.961567879546635
 31
0.0
 11
-19.74715294594939
 21
4.960624067158903
 31
0.0
 11
-19.90688891143436
 21
4.959810136035116
 31
0.0
 11
-20.06706832698127
 21
4.959142826709864
 31
0.0
 11
-20.22758058179416
 21
4.958622748131062
 31
0.0
 11
-20.38831506507695
 21
4.958250509246681
 31
0.0
 11
-20.54916116603358
 21
4.958026719004578
 31
0.0
 11
-20.7100082738681
 21
4.957951986352838
 31
0.0
  0
SPLINE
  5
D8
330
2
100
AcDbEntity
  8
GAIKEI
  6
Continuous
 62
     1
100
AcDbSpline
210
0.0
220
0.0
230
1.0
 70
     8
 71
     3
 72
    42
 73
    38
 74
    36
 42
0.0000000001
 43
0.0000000001
 44
0.000001
 12
-0.9974441891449011
 22
-0.0714499093146438
 32
0.0
 13
-0.999567622729952
 23
-0.0294035302301001
 33
0.0
 40
0.0
 40
0.0
 40
0.0
 40
0.0
 40
0.1331513903811676
 40
0.2687754437432299
 40
0.4068729868877482
 40
0.5474086076314224
 40
0.6903548097526294
 40
0.8356840733566507
 40
0.9836954134088962
 40
1.134081348693154
 40
1.286813239050686
 40
1.441862428292259
 40
1.621035829611841
 40
1.803181220353415
 40
1.988253881672302
 40
2.176209079702164
 40
2.367034085174623
 40
2.5545921343732
 40
2.751082405606779
 40
2.950336312036756
 40
3.15455090729541
 40
3.361554160586268
 40
3.571289809857227
 40
3.783701581154812
 40
4.0018535472069
 40
4.222717267422725
 40
4.446233388766434
 40
4.672342549164603
 40
4.901025224005589
 40
5.132261412411674
 40
5.3659908141852
 40
5.602153122605763
 40
5.795004667055115
 40
5.989432111333819
 40
6.185402798496873
 40
6.382884069890709
 40
6.581843322492302
 40
6.581843322492302
 40
6.581843322492302
 40
6.581843322492302
 10
-9.897864474237636
 20
5.314539869677901
 30
0.0
 10
-9.942134834441723
 20
5.311368651421958
 30
0.0
 10
-10.03150316760792
 20
5.305043789953515
 30
0.0
 10
-10.16680607746608
 20
5.295711036696275
 30
0.0
 10
-10.30458120740977
 20
5.286453398048479
 30
0.0
 10
-10.44480696390812
 20
5.277264321456414
 30
0.0
 10
-10.58745296710928
 20
5.268146812095721
 30
0.0
 10
-10.73259994936254
 20
5.259094468953946
 30
0.0
 10
-10.88023559857944
 20
5.250107946149171
 30
0.0
 10
-11.03034723687234
 20
5.241187777432742
 30
0.0
 10
-11.18281316433624
 20
5.232340849267529
 30
0.0
 10
-11.34487130787545
 20
5.22315614886628
 30
0.0
 10
-11.51673174192696
 20
5.213657633979721
 30
0.0
 10
-11.69859888649869
 20
5.203865731025416
 30
0.0
 10
-11.88340337606269
 20
5.194186781759015
 30
0.0
 10
-12.07110801072962
 20
5.184564996581457
 30
0.0
 10
-12.25966116836145
 20
5.175324356611895
 30
0.0
 10
-12.45103547447927
 20
5.165529848619939
 30
0.0
 10
-12.64526053950141
 20
5.156508168848233
 30
0.0
 10
-12.84503372831021
 20
5.14728080467222
 30
0.0
 10
-13.04832109477082
 20
5.138186600286474
 30
0.0
 10
-13.25510879833059
 20
5.129162178908586
 30
0.0
 10
-13.46463668457893
 20
5.12025937144557
 30
0.0
 10
-13.67788723745436
 20
5.111432182811256
 30
0.0
 10
-13.89485354959125
 20
5.102685931118401
 30
0.0
 10
-14.11552759021056
 20
5.094023976776043
 30
0.0
 10
-14.33886091265846
 20
5.085488421190632
 30
0.0
 10
-14.56480723227801
 20
5.077080873309228
 30
0.0
 10
-14.79333338544693
 20
5.068802564755515
 30
0.0
 10
-15.02440589822912
 20
5.060654589079717
 30
0.0
 10
-15.25797772103272
 20
5.052638608705137
 30
0.0
 10
-15.47876908044436
 20
5.045265021987006
 30
0.0
 10
-15.68647267053431
 20
5.038498404798531
 30
0.0
 10
-15.88079066263834
 20
5.032307869571923
 30
0.0
 10
-16.07665549178347
 20
5.02620716223555
 30
0.0
 10
-16.27403442093266
 20
5.020196778071976
 30
0.0
 10
-16.40612282522247
 20
5.016266843832283
 30
0.0
 10
-16.47241390093684
 20
5.014316809032834
 30
0.0
 11
-9.897864474237636
 21
5.314539869677901
 31
0.0
 11
-10.03068385040895
 21
5.305142178452911
 31
0.0
 11
-10.16598634034365
 21
5.295808428018403
 31
0.0
 11
-10.30377294589466
 21
5.286546575235149
 31
0.0
 11
-10.44400766693907
 21
5.277355097388863
 31
0.0
 11
-10.58666262892616
 21
5.268234888122265
 31
0.0
 11
-10.73170995730557
 21
5.259186841077905
 31
0.0
 11
-10.87944774375678
 21
5.25019222909043
 31
0.0
 11
-11.02956875725097
 21
5.241269747768683
 31
0.0
 11
-11.18204407205674
 21
5.232420535275764
 31
0.0
 11
-11.33684476244293
 21
5.22364572977483
 31
0.0
 11
-11.51574498298721
 21
5.213755397137333
 31
0.0
 11
-11.69762696585134
 21
5.203963178975584
 31
0.0
 11
-11.88244571637121
 21
5.19427198264168
 31
0.0
 11
-12.07015623988271
 21
5.184684715487662
 31
0.0
 11
-12.26074551769552
 21
5.17520264007328
 31
0.0
 11
-12.44806908810643
 21
5.165826939103226
 31
0.0
 11
-12.64434072835458
 21
5.156560352943699
 31
0.0
 11
-12.84338421567936
 21
5.147405621960729
 31
0.0
 11
-13.04739418757596
 21
5.138266037207472
 31
0.0
 11
-13.25420066114772
 21
5.129242229774035
 31
0.0
 11
-13.46374713627149
 21
5.120336215569977
 31
0.0
 11
-13.67597711282424
 21
5.111550010504515
 31
0.0
 11
-13.89395197954305
 21
5.102761521725938
 31
0.0
 11
-14.11464569322716
 21
5.094097376050513
 31
0.0
 11
-14.33799869721118
 21
5.085559701176634
 31
0.0
 11
-14.56395143482974
 21
5.077150624803039
 31
0.0
 11
-14.79248416828933
 21
5.068870811970214
 31
0.0
 11
-15.02357669104528
 21
5.060720931728837
 31
0.0
 11
-15.25716853129525
 21
5.052703125577636
 31
0.0
 11
-15.49319921723698
 21
5.044819535015108
 31
0.0
 11
-15.68594848340889
 21
5.038539532403035
 31
0.0
 11
-15.88027732197004
 21
5.032348134364951
 31
0.0
 11
-16.07615299581523
 21
5.026246465034773
 31
0.0
 11
-16.27354276783929
 21
5.020235648546076
 31
0.0
 11
-16.47241390093684
 21
5.014316809032834
 31
0.0
  0
SPLINE
  5
D9
330
2
100
AcDbEntity
  8
GAIKEI
  6
Continuous
 62
     7
100
AcDbSpline
210
0.0
220
0.0
230
1.0
 70
     8
 71
     3
 72
    27
 73
    23
 74
    21
 42
0.0000000001
 43
0.0000000001
 44
0.000001
 12
0.9999603996302754
 22
-0.0088993916230307
 32
0.0
 13
0.9877675839060561
 23
-0.1559333196734816
 33
0.0
 40
0.0
 40
0.0
 40
0.0
 40
0.0
 40
0.0402630383833027
 40
0.079967439833726
 40
0.1189366584327473
 40
0.1581670255675076
 40
0.1964408517547103
 40
0.233576953395679
 40
0.2687141182607381
 40
0.3025861217069343
 40
0.3350249445381296
 40
0.3668333454294142
 40
0.396970766887476
 40
0.4253018919311888
 40
0.4509009754738665
 40
0.4747058250263166
 40
0.4966079109522665
 40
0.5170852326922921
 40
0.535425233640642
 40
0.5515294220494415
 40
0.5650513259312764
 40
0.5738607813250328
 40
0.5738607813250328
 40
0.5738607813250328
 40
0.5738607813250328
 10
-10.38937963051189
 20
5.36265868213718
 30
0.0
 10
-10.37595914919453
 20
5.362539243288324
 30
0.0
 10
-10.34930467948144
 20
5.362267973696418
 30
0.0
 10
-10.30966236301749
 20
5.361757915805696
 30
0.0
 10
-10.27036570788427
 20
5.361148797587134
 30
0.0
 10
-10.23154765260262
 20
5.360440183092407
 30
0.0
 10
-10.19334268538284
 20
5.359633352966568
 30
0.0
 10
-10.15650430354391
 20
5.358745097709174
 30
0.0
 10
-10.12113561777524
 20
5.357781220853439
 30
0.0
 10
-10.08733535217523
 20
5.356747692721455
 30
0.0
 10
-10.05464793463018
 20
5.355630972983306
 30
0.0
 10
-10.02320937538199
 20
5.354425641223258
 30
0.0
 10
-9.993144928527108
 20
5.353127837833881
 30
0.0
 10
-9.965155251425869
 20
5.351767778313103
 30
0.0
 10
-9.93928204882097
 20
5.350352982971344
 30
0.0
 10
-9.915557749978418
 20
5.348898078040008
 30
0.0
 10
-9.893548423071678
 20
5.347379118426147
 30
0.0
 10
-9.873370040656894
 20
5.345799393302399
 30
0.0
 10
-9.855135458420562
 20
5.344164310130736
 30
0.0
 10
-9.83923296199417
 20
5.342501324864826
 30
0.0
 10
-9.826515265674366
 20
5.340939496554995
 30
0.0
 10
-9.819152732604614
 20
5.339838719649264
 30
0.0
 10
-9.816252167781343
 20
5.339380823774604
 30
0.0
 11
-10.38937963051189
 21
5.36265868213718
 31
0.0
 11
-10.34911880923398
 21
5.362246917516756
 31
0.0
 11
-10.30941769374938
 21
5.361736182646438
 31
0.0
 11
-10.270453170311
 21
5.361131333194862
 31
0.0
 11
-10.23122935512727
 21
5.360414427281284
 31
0.0
 11
-10.19296409030023
 21
5.359604983235271
 31
0.0
 11
-10.15583882201265
 21
5.358708091476614
 31
0.0
 11
-10.12071475211435
 21
5.357748934944652
 31
0.0
 11
-10.08685864264005
 21
5.356711450394413
 31
0.0
 11
-10.05443886591406
 21
5.355600053982016
 31
0.0
 11
-10.02265398563027
 21
5.354377089939589
 31
0.0
 11
-9.992544799345139
 21
5.353072881681839
 31
0.0
 11
-9.9642473249515
 21
5.351692493551809
 31
0.0
 11
-9.938686685629662
 21
5.350290109704587
 31
0.0
 11
-9.914926863689473
 21
5.348826689799466
 31
0.0
 11
-9.89307730836613
 21
5.347310721376175
 31
0.0
 11
-9.872663261036748
 21
5.345702240871105
 31
0.0
 11
-9.854397939449043
 21
5.344048921649005
 31
0.0
 11
-9.838382714641241
 21
5.34235859311002
 31
0.0
 11
-9.824965903701993
 21
5.340676133965416
 31
0.0
 11
-9.816252167781343
 21
5.339380823774604
 31
0.0
  0
SPLINE
  5
DA
330
2
100
AcDbEntity
  8
GAIKEI
  6
Continuous
 62
     1
100
AcDbSpline
210
0.0
220
0.0
230
1.0
 70
     8
 71
     3
 72
    14
 73
    10
 74
     8
 42
0.0000000001
 43
0.0000000001
 44
0.000001
 12
-0.9874312780711054
 22
-0.1580489515525594
 32
0.0
 13
0.8667181469821155
 23
-0.4987982093912209
 33
0.0
 40
0.0
 40
0.0
 40
0.0
 40
0.0
 40
0.0025699638483221
 40
0.0117428107984367
 40
0.0188990786802287
 40
0.0237881329345434
 40
0.0265893895839491
 40
0.0284193765367071
 40
0.0295995053452568
 40
0.0295995053452568
 40
0.0295995053452568
 40
0.0295995053452568
 10
-31.60374755318954
 20
5.339383537981461
 30
0.0
 10
-31.60459344075198
 20
5.339248144617556
 30
0.0
 10
-31.60845774142396
 20
5.338604620366254
 30
0.0
 10
-31.61460927453406
 20
5.337449516294441
 30
0.0
 10
-31.6216147681711
 20
5.33573907407117
 30
0.0
 10
-31.62599340735333
 20
5.334054136002066
 30
0.0
 10
-31.62922487058736
 20
5.332269653596881
 30
0.0
 10
-31.62880933026535
 20
5.330007794981383
 30
0.0
 10
-31.62802079084531
 20
5.329341794334538
 30
0.0
 10
-31.62767984449393
 20
5.32914557895566
 30
0.0
 11
-31.60374755318954
 21
5.339383537981461
 31
0.0
 11
-31.60628187019678
 21
5.338963043185117
 31
0.0
 11
-31.61528874628796
 21
5.337226014381712
 31
0.0
 11
-31.6222125455355
 21
5.335416825564607
 31
0.0
 11
-31.62674662890693
 21
5.333587874382033
 31
0.0
 11
-31.62885786706768
 21
5.331746634816568
 31
0.0
 11
-31.62855094433901
 21
5.329942720839881
 31
0.0
 11
-31.62767984449393
 21
5.32914557895566
 31
0.0
  0
SPLINE
  5
DB
330
2
100
AcDbEntity
  8
GAIKEI
  6
Continuous
 62
     7
100
AcDbSpline
210
0.0
220
0.0
230
1.0
 70
     8
 71
     3
 72
    73
 73
    69
 74
    67
 42
0.0000000001
 43
0.0000000001
 44
0.000001
 12
-0.9873494173332577
 22
-0.1585595411562369
 32
0.0
 13
-0.9482847424276179
 23
-0.3174209307512443
 33
0.0
 40
0.0
 40
0.0
 40
0.0
 40
0.0
 40
0.0625821016034525
 40
0.1471366554862394
 40
0.2286190215146027
 40
0.3070320947345256
 40
0.3823783193551678
 40
0.4546597175066078
 40
0.5238779219571947
 40
0.59003420762574
 40
0.656057719350342
 40
0.7187225325697999
 40
0.7780290584804878
 40
0.8339774141649998
 40
0.8865674528094983
 40
0.9357987919699382
 40
0.9674396214120594
 40
0.9972933237968392
 40
1.024602441966475
 40
1.049304566028732
 40
1.071398700960191
 40
1.090883938411091
 40
1.107759462066776
 40
1.122024552359081
 40
1.133678590532463
 40
1.142721062070991
 40
1.149889244134445
 40
1.156006388474562
 40
1.161763727350052
 40
1.167874611854829
 40
1.176426105665312
 40
1.187331980685055
 40
1.200723087810587
 40
1.216600335540228
 40
1.234964815016032
 40
1.258854278646426
 40
1.285959385232105
 40
1.316282628256025
 40
1.349826832686331
 40
1.386595164423511
 40
1.426591140680152
 40
1.469818641273385
 40
1.516281920807196
 40
1.560665315841535
 40
1.607653780902775
 40
1.65725119624227
 40
1.709461718355859
 40
1.764289789251379
 40
1.820691223510397
 40
1.879626900368849
 40
1.941101887551515
 40
2.005121555922518
 40
2.081240044604664
 40
2.160684055837533
 40
2.243463100550207
 40
2.329587277806778
 40
2.419067296052034
 40
2.510226915581883
 40
2.604645886877073
 40
2.702336193512007
 40
2.803310467465135
 40
2.909744425786313
 40
3.019626482898304
 40
3.132972281966535
 40
3.249798258672385
 40
3.370121658941002
 40
3.4939605037545
 40
3.592386160510519
 40
3.592386160510519
 40
3.592386160510519
 40
3.592386160510519
 10
-31.60709873064464
 20
5.338845663225072
 30
0.0
 10
-31.62769553116252
 20
5.335538000120152
 30
0.0
 10
-31.67610860908596
 20
5.327686368749084
 30
0.0
 10
-31.75128874890686
 20
5.315220980165236
 30
0.0
 10
-31.83162036380823
 20
5.301568166130039
 30
0.0
 10
-31.90887455391556
 20
5.288131003281932
 30
0.0
 10
-31.98305863846969
 20
5.274943821331248
 30
0.0
 10
-32.05417958765085
 20
5.262039911833483
 30
0.0
 10
-32.1222439452633
 20
5.249451043319538
 30
0.0
 10
-32.1882170623056
 20
5.237026959176887
 30
0.0
 10
-32.25200503138686
 20
5.224804916101618
 30
0.0
 10
-32.31351391133316
 20
5.212823037740633
 30
0.0
 10
-32.37169306436727
 20
5.201313728769036
 30
0.0
 10
-32.42654774334994
 20
5.190305338418966
 30
0.0
 10
-32.47808275993192
 20
5.179824569554511
 30
0.0
 10
-32.52165621397933
 20
5.170853121910681
 30
0.0
 10
-32.55779222029559
 20
5.163340700373851
 30
0.0
 10
-32.58676497782731
 20
5.157273415110807
 30
0.0
 10
-32.6134663456499
 20
5.151644072737838
 30
0.0
 10
-32.63763053886909
 20
5.146518588246863
 30
0.0
 10
-32.65923844838016
 20
5.141910351866613
 30
0.0
 10
-32.67829087083413
 20
5.137827561129938
 30
0.0
 10
-32.69478850427298
 20
5.134277440800531
 30
0.0
 10
-32.70873194876453
 20
5.131266244518428
 30
0.0
 10
-32.7201217069363
 20
5.12879925631978
 30
0.0
 10
-32.72919848124465
 20
5.126828621689071
 30
0.0
 10
-32.73647103880763
 20
5.125246789483753
 30
0.0
 10
-32.7426731485932
 20
5.12389575618755
 30
0.0
 10
-32.74853054461445
 20
5.122618099191413
 30
0.0
 10
-32.75518034371783
 20
5.121165652669617
 30
0.0
 10
-32.76350616572621
 20
5.119344120800406
 30
0.0
 10
-32.77420158351132
 20
5.116999035804951
 30
0.0
 10
-32.78728061564315
 20
5.114123483194703
 30
0.0
 10
-32.80278550492612
 20
5.110703395368034
 30
0.0
 10
-32.82170433376526
 20
5.106514290444806
 30
0.0
 10
-32.84427230731101
 20
5.101493677836515
 30
0.0
 10
-32.87072435127465
 20
5.095575770659479
 30
0.0
 10
-32.90030807211489
 20
5.088915421071646
 30
0.0
 10
-32.93302316819967
 20
5.081498692552713
 30
0.0
 10
-32.96886931295758
 20
5.073310184200863
 30
0.0
 10
-33.0078461549972
 20
5.064333034759613
 30
0.0
 10
-33.04995331784942
 20
5.054548927125381
 30
0.0
 10
-33.09346382608242
 20
5.044343079251461
 30
0.0
 10
-33.13817265042122
 20
5.033756708473731
 30
0.0
 10
-33.18387507872686
 20
5.022832929748858
 30
0.0
 10
-33.23208923204915
 20
5.011195028075349
 30
0.0
 10
-33.28281475613609
 20
4.998824915415298
 30
0.0
 10
-33.33571179953732
 20
4.985787259129608
 30
0.0
 10
-33.39075062926982
 20
4.972072715314482
 30
0.0
 10
-33.44790158152679
 20
4.957671668203488
 30
0.0
 10
-33.50747350938596
 20
4.942486493630156
 30
0.0
 10
-33.57254794541783
 20
4.925700814041306
 30
0.0
 10
-33.64336384035921
 20
4.907194044567972
 30
0.0
 10
-33.72015865614904
 20
4.886836300162826
 30
0.0
 10
-33.80009943143763
 20
4.865332076517233
 30
0.0
 10
-33.88318547372316
 20
4.842644305586134
 30
0.0
 10
-33.96887399577578
 20
4.818884850618246
 30
0.0
 10
-34.05712796280231
 20
4.794032432242261
 30
0.0
 10
-34.1479105202907
 20
4.768065621116193
 30
0.0
 10
-34.24172415714365
 20
4.740802481920695
 30
0.0
 10
-34.33925940465171
 20
4.711997392722821
 30
0.0
 10
-34.44055592208027
 20
4.681583603998262
 30
0.0
 10
-34.54565301708831
 20
4.649491493962329
 30
0.0
 10
-34.65390287195045
 20
4.615867359277103
 30
0.0
 10
-34.76530457411036
 20
4.580661881720402
 30
0.0
 10
-34.87985727157686
 20
4.543824790242581
 30
0.0
 10
-34.98838910643292
 20
4.50830468102464
 30
0.0
 10
-35.05869480151655
 20
4.484933750263792
 30
0.0
 10
-35.08980665103827
 20
4.47451962907138
 30
0.0
 11
-31.60709873064464
 21
5.338845663225072
 31
0.0
 11
-31.66887440463025
 21
5.328828784289612
 31
0.0
 11
-31.75228999894939
 21
5.314997176298163
 31
0.0
 11
-31.8326205084265
 21
5.301344846262395
 31
0.0
 11
-31.9098737211511
 21
5.287907884811829
 31
0.0
 11
-31.98405699889766
 21
5.274720937830807
 31
0.0
 11
-32.0551772856664
 21
5.261817217751513
 31
0.0
 11
-32.12324111599953
 21
5.249228514347009
 31
0.0
 11
-32.18825462304411
 21
5.236985205031146
 31
0.0
 11
-32.25309859813901
 21
5.224560890232396
 31
0.0
 11
-32.31460726668861
 21
5.212579109663579
 31
0.0
 11
-32.37278631745001
 21
5.201069870919468
 31
0.0
 11
-32.42764099169252
 21
5.190061525119688
 31
0.0
 11
-32.47917609129281
 21
5.179580776824309
 31
0.0
 11
-32.52739598632435
 21
5.169652693338548
 31
0.0
 11
-32.55837446377991
 21
5.163212493665469
 31
0.0
 11
-32.58759434018681
 21
5.157093465786488
 31
0.0
 11
-32.61431605940318
 21
5.151459837413199
 31
0.0
 11
-32.63848057406831
 21
5.146334288164439
 31
0.0
 11
-32.66008877785733
 21
5.14172599129597
 31
0.0
 11
-32.67914146539802
 21
5.137643145173569
 31
0.0
 11
-32.69563933296986
 21
5.134092975237649
 31
0.0
 11
-32.7095829791195
 21
5.131081735734028
 31
0.0
 11
-32.72097290519203
 21
5.12861471121198
 31
0.0
 11
-32.7298095157786
 21
5.126696217789117
 31
0.0
 11
-32.73681392608371
 21
5.125172709337391
 31
0.0
 11
-32.74279090498204
 21
5.123870717140562
 31
0.0
 11
-32.74841598024905
 21
5.122643735443261
 31
0.0
 11
-32.75438611529508
 21
5.121339740618395
 31
0.0
 11
-32.76274001618965
 21
5.119512065287835
 31
0.0
 11
-32.77339282938966
 21
5.117176321574333
 31
0.0
 11
-32.78647156588774
 21
5.11430083398875
 31
0.0
 11
-32.80197609983482
 21
5.110880825012372
 31
0.0
 11
-32.81990628992425
 21
5.106910630715333
 31
0.0
 11
-32.84322567205347
 21
5.101722858412927
 31
0.0
 11
-32.86967690115678
 21
5.095805138983791
 31
0.0
 11
-32.89925969763086
 21
5.089145005643786
 31
0.0
 11
-32.93197375643963
 21
5.081728523814149
 31
0.0
 11
-32.96781874722736
 21
5.073540294774204
 31
0.0
 11
-33.00679431444128
 21
5.064563459698774
 31
0.0
 11
-33.04890007746413
 21
5.054779704080146
 31
0.0
 11
-33.09413563075516
 21
5.044169262533557
 31
0.0
 11
-33.1373248030816
 21
5.033942751726385
 31
0.0
 11
-33.18302594965185
 21
5.023019314776718
 31
0.0
 11
-33.23123872837864
 21
5.011381787069467
 31
0.0
 11
-33.28196278151286
 21
4.99901208286468
 31
0.0
 11
-33.33519773575229
 21
4.985891199122988
 31
0.0
 11
-33.38992573489595
 21
4.972254171758606
 31
0.0
 11
-33.44707500316163
 21
4.957853622505808
 31
0.0
 11
-33.50664514373121
 21
4.942668987685237
 31
0.0
 11
-33.56863574575989
 21
4.926678866028964
 31
0.0
 11
-33.64228095339827
 21
4.907432857866865
 31
0.0
 11
-33.71907259530674
 21
4.887076142353294
 31
0.0
 11
-33.79900999670026
 21
4.865573039972616
 31
0.0
 11
-33.88209246001175
 21
4.842886488668852
 31
0.0
 11
-33.96831926516764
 21
4.818978053803107
 31
0.0
 11
-34.05606620754357
 21
4.794268705114745
 31
0.0
 11
-34.1468447567196
 21
4.768303365741189
 31
0.0
 11
-34.24065416875313
 21
4.741041816535243
 31
0.0
 11
-34.33749367987231
 21
4.712442601500981
 31
0.0
 11
-34.43943218273604
 21
4.681836532457964
 31
0.0
 11
-34.54452405567913
 21
4.649746543028868
 31
0.0
 11
-34.65276842535157
 21
4.616124676381332
 31
0.0
 11
-34.76416439828764
 21
4.580921684620875
 31
0.0
 11
-34.87871106128292
 21
4.544087042358228
 31
0.0
 11
-34.99640748178406
 21
4.505568960668824
 31
0.0
 11
-35.08980665103827
 21
4.47451962907138
 31
0.0
  0
SPLINE
  5
DC
330
2
100
AcDbEntity
  8
GAIKEI
  6
Continuous
 62
     7
100
AcDbSpline
210
0.0
220
0.0
230
1.0
 70
     8
 71
     3
 72
    27
 73
    23
 74
    21
 42
0.0000000001
 43
0.0000000001
 44
0.000001
 12
-0.9999603996302861
 22
-0.0088993916218352
 32
0.0
 13
-0.9877744331132488
 23
-0.1558899268323646
 33
0.0
 40
0.0
 40
0.0
 40
0.0
 40
0.0
 40
0.0402630383584463
 40
0.0799674398085712
 40
0.1189366584071956
 40
0.1581670255415974
 40
0.1964408517284391
 40
0.2335769533690384
 40
0.2687141182339981
 40
0.3025861216800896
 40
0.3350249445111054
 40
0.3668333454022956
 40
0.3969707668600827
 40
0.4253018919036748
 40
0.4509009754461303
 40
0.4747058249982401
 40
0.4966079109237875
 40
0.5170852326630588
 40
0.5354252336101375
 40
0.5515294220163699
 40
0.565051325888947
 40
0.5738437383403205
 40
0.5738437383403205
 40
0.5738437383403205
 40
0.5738437383403205
 10
-31.0306369172243
 20
5.36265868213718
 30
0.0
 10
-31.04405739853338
 20
5.362539243288438
 30
0.0
 10
-31.07071186823812
 20
5.362267973700568
 30
0.0
 10
-31.11035418469356
 20
5.361757915808595
 30
0.0
 10
-31.14965083982641
 20
5.361148797590089
 30
0.0
 10
-31.18846889510771
 20
5.360440183095647
 30
0.0
 10
-31.22667386232711
 20
5.359633352969694
 30
0.0
 10
-31.26351224416577
 20
5.358745097712244
 30
0.0
 10
-31.29888092993425
 20
5.357781220856566
 30
0.0
 10
-31.33268119553413
 20
5.356747692724866
 30
0.0
 10
-31.36536861307904
 20
5.355630972986375
 30
0.0
 10
-31.39680717232712
 20
5.35442564122718
 30
0.0
 10
-31.42687161918161
 20
5.35312783783587
 30
0.0
 10
-31.45486129628346
 20
5.351767778321686
 30
0.0
 10
-31.48073449888544
 20
5.350352982958497
 30
0.0
 10
-31.50445879773665
 20
5.348898078098841
 30
0.0
 10
-31.52646812461304
 20
5.34737911824726
 30
0.0
 10
-31.54664650712629
 20
5.345799393914774
 30
0.0
 10
-31.5648810890452
 20
5.344164308225572
 30
0.0
 10
-31.58078358643149
 20
5.342501330645575
 30
0.0
 10
-31.59349564087996
 20
5.340940173869796
 30
0.0
 10
-31.60085257978126
 20
5.339840420826021
 30
0.0
 10
-31.60374755318954
 20
5.339383537981461
 30
0.0
 11
-31.0306369172243
 21
5.36265868213718
 31
0.0
 11
-31.07089773850181
 21
5.362246917516813
 31
0.0
 11
-31.11059885398608
 21
5.361736182646495
 31
0.0
 11
-31.14956337742406
 21
5.361131333194862
 31
0.0
 11
-31.18878719260745
 21
5.360414427281398
 31
0.0
 11
-31.22705245743414
 21
5.359604983235328
 31
0.0
 11
-31.26417772572138
 21
5.358708091476614
 31
0.0
 11
-31.29930179561963
 21
5.357748934944652
 31
0.0
 11
-31.33315790509387
 21
5.356711450394527
 31
0.0
 11
-31.36557768181975
 21
5.355600053982129
 31
0.0
 11
-31.39736256210354
 21
5.354377089939703
 31
0.0
 11
-31.42747174838856
 21
5.353072881681953
 31
0.0
 11
-31.45576922278231
 21
5.351692493551922
 31
0.0
 11
-31.48132986210426
 21
5.350290109704701
 31
0.0
 11
-31.50508968404456
 21
5.348826689799579
 31
0.0
 11
-31.52693923936813
 21
5.347310721376402
 31
0.0
 11
-31.54735328669769
 21
5.345702240871275
 31
0.0
 11
-31.56561860828556
 21
5.344048921649118
 31
0.0
 11
-31.58163383309354
 21
5.342358593110134
 31
0.0
 11
-31.59505064403301
 21
5.340676133965644
 31
0.0
 11
-31.60374755318954
 21
5.339383537981461
 31
0.0
  0
SPLINE
  5
DD
330
2
100
AcDbEntity
  8
GAIKEI
  6
Continuous
 62
     1
100
AcDbSpline
210
0.0
220
0.0
230
1.0
 70
     8
 71
     3
 72
    42
 73
    38
 74
    36
 42
0.0000000001
 43
0.0000000001
 44
0.000001
 12
0.9974441891448979
 22
-0.0714499093146873
 32
0.0
 13
0.999567622729952
 23
-0.0294035302300999
 33
0.0
 40
0.0
 40
0.0
 40
0.0
 40
0.0
 40
0.1331513902809842
 40
0.2687754436467165
 40
0.4068729867926475
 40
0.5474086075338541
 40
0.6903548096511181
 40
0.8356840732501717
 40
0.9836954132966805
 40
1.134081348574308
 40
1.286813238924522
 40
1.441862428157818
 40
1.621035829466938
 40
1.797060385602302
 40
1.982133048002951
 40
2.170088246821849
 40
2.360913252881231
 40
2.554593886895627
 40
2.751084158082822
 40
2.9503380644741
 40
3.154552659699767
 40
3.361555912962582
 40
3.571291562209373
 40
3.783703333485954
 40
4.001855299519545
 40
4.222719019719082
 40
4.44623514104839
 40
4.67234430143375
 40
4.901026976263269
 40
5.132263164659018
 40
5.365992566423196
 40
5.602154874835207
 40
5.795006419278089
 40
5.989433863550557
 40
6.185404550707298
 40
6.382885822093278
 40
6.581845074524231
 40
6.581845074524231
 40
6.581845074524231
 40
6.581845074524231
 10
-31.52215207349851
 20
5.314539869677901
 30
0.0
 10
-31.47788171332773
 20
5.311368651424345
 30
0.0
 10
-31.38851338018443
 20
5.305043790124159
 30
0.0
 10
-31.25321047039839
 20
5.295711036130512
 30
0.0
 10
-31.115435340302
 20
5.286453400253435
 30
0.0
 10
-30.97520958438628
 20
5.277264313061209
 30
0.0
 10
-30.83256357896507
 20
5.268146844278135
 30
0.0
 10
-30.68741660523059
 20
5.259094345786479
 30
0.0
 10
-30.53978092339734
 20
5.250108418224954
 30
0.0
 10
-30.38966940984554
 20
5.241185973526057
 30
0.0
 10
-30.23720300595921
 20
5.232347738590021
 30
0.0
 10
-30.07514676643454
 20
5.223128296541119
 30
0.0
 10
-29.90531533825165
 20
5.213891338930693
 30
0.0
 10
-29.72551709247455
 20
5.203633047951029
 30
0.0
 10
-29.54274160434143
 20
5.194214766976529
 30
0.0
 10
-29.35503765069254
 20
5.184584206008594
 30
0.0
 10
-29.16445226909313
 20
5.1751165801777
 30
0.0
 10
-28.97101406215383
 20
5.165739924000604
 30
0.0
 10
-28.77475756121273
 20
5.156476604450915
 30
0.0
 10
-28.57498238891867
 20
5.147289543951842
 30
0.0
 10
-28.37169557074743
 20
5.138184199429474
 30
0.0
 10
-28.16490771676762
 20
5.129162835047452
 30
0.0
 10
-27.95537987165321
 20
5.120259192272101
 30
0.0
 10
-27.74212930753706
 20
5.111432232471941
 30
0.0
 10
-27.52516299853564
 20
5.10268591744699
 30
0.0
 10
-27.30448895707799
 20
5.094023980473309
 30
0.0
 10
-27.08115563487768
 20
5.085488420151875
 30
0.0
 10
-26.85520931520744
 20
5.077080873563488
 30
0.0
 10
-26.62668316206732
 20
5.068802564658824
 30
0.0
 10
-26.39561064929078
 20
5.060654589080115
 30
0.0
 10
-26.16203882649785
 20
5.05263860868041
 30
0.0
 10
-25.94124746709397
 20
5.045265021969612
 30
0.0
 10
-25.73354387701116
 20
5.038498404780796
 30
0.0
 10
-25.53922588491346
 20
5.032307869554642
 30
0.0
 10
-25.34336105577504
 20
5.026207162220316
 30
0.0
 10
-25.14598212668759
 20
5.020196778053787
 30
0.0
 10
-25.01389372245681
 20
5.016266843830578
 30
0.0
 10
-24.9476026467993
 20
5.014316809032777
 30
0.0
 11
-31.52215207349851
 21
5.314539869677901
 31
0.0
 11
-31.38933269732714
 21
5.305142178452911
 31
0.0
 11
-31.25403020739255
 21
5.295808428018403
 31
0.0
 11
-31.11624360184142
 21
5.286546575235149
 31
0.0
 11
-30.97600888079713
 21
5.277355097388863
 31
0.0
 11
-30.83335391881004
 21
5.268234888122265
 31
0.0
 11
-30.68830659043063
 21
5.259186841077962
 31
0.0
 11
-30.54056880397935
 21
5.25019222909043
 31
0.0
 11
-30.39044779048523
 21
5.241269747768683
 31
0.0
 11
-30.2379724756794
 21
5.232420535275764
 31
0.0
 11
-30.08317178529326
 21
5.22364572977483
 31
0.0
 11
-29.90427156474898
 21
5.213755397137333
 31
0.0
 11
-29.72851958188484
 21
5.203963178975527
 31
0.0
 11
-29.54370083136497
 21
5.19427198264168
 31
0.0
 11
-29.35599030785347
 21
5.184684715487662
 31
0.0
 11
-29.1654010300406
 21
5.17520264007328
 31
0.0
 11
-28.97194745962976
 21
5.165826939103226
 31
0.0
 11
-28.77567581938156
 21
5.156560352943699
 31
0.0
 11
-28.57663233205683
 21
5.147405621960729
 31
0.0
 11
-28.37262236016023
 21
5.138266037207472
 31
0.0
 11
-28.16581588658842
 21
5.129242229774035
 31
0.0
 11
-27.95626941146465
 21
5.120336215569977
 31
0.0
 11
-27.74403943491196
 21
5.111550010504515
 31
0.0
 11
-27.5260645681931
 21
5.102761521725938
 31
0.0
 11
-27.30537085450898
 21
5.094097376050513
 31
0.0
 11
-27.08201785052497
 21
5.085559701176634
 31
0.0
 11
-26.85606511290639
 21
5.077150624803039
 31
0.0
 11
-26.62753237944681
 21
5.068870811970214
 31
0.0
 11
-26.39643985669086
 21
5.060720931728837
 31
0.0
 11
-26.16284801644089
 21
5.052703125577579
 31
0.0
 11
-25.92681733049917
 21
5.044819535015108
 31
0.0
 11
-25.73406806432725
 21
5.038539532403035
 31
0.0
 11
-25.5397392257661
 21
5.032348134364951
 31
0.0
 11
-25.3438635519209
 21
5.026246465034716
 31
0.0
 11
-25.14647377989691
 21
5.020235648546076
 31
0.0
 11
-24.9476026467993
 21
5.014316809032777
 31
0.0
  0
SPLINE
  5
DE
330
2
100
AcDbEntity
  8
GAIKEI
  6
Continuous
 62
     1
100
AcDbSpline
210
0.0
220
0.0
230
1.0
 70
     8
 71
     3
 72
    36
 73
    32
 74
    30
 42
0.0000000001
 43
0.0000000001
 44
0.000001
 12
0.999568145732478
 22
-0.0293857454718413
 32
0.0
 13
0.9999999999992031
 23
-0.0000012623855154
 33
0.0
 40
0.0
 40
0.0
 40
0.0
 40
0.0
 40
0.1421210855843012
 40
0.2863919374777027
 40
0.4326945473179383
 40
0.581260250724
 40
0.7318041708546793
 40
0.884207200206084
 40
1.038350222033385
 40
1.194114111862294
 40
1.351379738855042
 40
1.472380838233183
 40
1.594239045658595
 40
1.71690004170494
 40
1.840309505632626
 40
1.965065630484797
 40
2.090542247042755
 40
2.216680258475781
 40
2.343420566307464
 40
2.496964514179027
 40
2.651351837498892
 40
2.80647849905107
 40
2.962240458901503
 40
3.11853367499816
 40
3.275254103751372
 40
3.434992143610539
 40
3.595172949905763
 40
3.755686048047071
 40
3.916420963140813
 40
4.07726722053319
 40
4.238114382626116
 40
4.238114382626116
 40
4.238114382626116
 40
4.238114382626116
 10
-24.94760264679924
 20
5.014316809032777
 30
0.0
 10
-24.90024941013691
 20
5.012924697683729
 30
0.0
 10
-24.80482475554917
 20
5.010183589906375
 30
0.0
 10
-24.6606468675021
 20
5.006249161713014
 30
0.0
 10
-24.51431635064153
 20
5.002452404917619
 30
0.0
 10
-24.36589055592707
 20
4.998797552764244
 30
0.0
 10
-24.2154272788298
 20
4.99528559698092
 30
0.0
 10
-24.06310108021699
 20
4.991920566454382
 30
0.0
 10
-23.90903128035017
 20
4.988705041356695
 30
0.0
 10
-23.75333720002835
 20
4.9856416056042
 30
0.0
 10
-23.60868505423088
 20
4.982965070716772
 30
0.0
 10
-23.47533045132728
 20
4.980632934504058
 30
0.0
 10
-23.35350716369736
 20
4.978607961372858
 30
0.0
 10
-23.23087949985119
 20
4.976674589670892
 30
0.0
 10
-23.10728437919928
 20
4.97483056145819
 30
0.0
 10
-22.98274930217059
 20
4.973077412564748
 30
0.0
 10
-22.85730337033817
 20
4.971416100856572
 30
0.0
 10
-22.73119476992419
 20
4.96984986496659
 30
0.0
 10
-22.59572978829786
 20
4.968277784901488
 30
0.0
 10
-22.45084755544727
 20
4.966725380059074
 30
0.0
 10
-22.29650223437483
 20
4.965219465605173
 30
0.0
 10
-22.14141624878626
 20
4.96385310381504
 30
0.0
 10
-21.98569377391736
 20
4.96262700371011
 30
0.0
 10
-21.82943898451848
 20
4.961541876644503
 30
0.0
 10
-21.67185792405493
 20
4.960593023303204
 30
0.0
 10
-21.51298020409021
 20
4.959783683635919
 30
0.0
 10
-21.35283758875775
 20
4.959116694892202
 30
0.0
 10
-21.19236213490422
 20
4.958596776731894
 30
0.0
 10
-21.03166445235147
 20
4.958224809229761
 30
0.0
 10
-20.8708551416898
 20
4.958000392644748
 30
0.0
 10
-20.7636239945657
 20
4.957952054036525
 30
0.0
 10
-20.7100082738681
 20
4.957951986352838
 30
0.0
 11
-24.94760264679924
 21
5.014316809032777
 31
0.0
 11
-24.80554004708956
 21
5.010238898696456
 31
0.0
 11
-24.66132296273726
 21
5.006300649923787
 31
0.0
 11
-24.51506960140439
 21
5.002504935614297
 31
0.0
 11
-24.3665489549074
 21
4.99884631859561
 31
0.0
 11
-24.21604605577905
 21
4.995332202960639
 31
0.0
 11
-24.06368022529667
 21
4.99196517571994
 31
0.0
 11
-23.90957078473737
 21
4.988747823883954
 31
0.0
 11
-23.75383705537839
 21
4.985682734463125
 31
0.0
 11
-23.59659835849705
 21
4.982772494467951
 31
0.0
 11
-23.47561576557247
 21
4.980656324584174
 31
0.0
 11
-23.35377439494859
 21
4.978630729320911
 31
0.0
 11
-23.23112864638053
 21
4.976696763860672
 31
0.0
 11
-23.10773291962353
 21
4.974855483386136
 31
0.0
 11
-22.9829891596607
 21
4.973099084661498
 31
0.0
 11
-22.85752354962291
 21
4.971437191578843
 31
0.0
 11
-22.73139526930306
 21
4.969870439570627
 31
0.0
 11
-22.60466349849402
 21
4.968399464069477
 31
0.0
 11
-22.45112837009988
 21
4.966753839977627
 31
0.0
 11
-22.29674839953118
 21
4.965247160732189
 31
0.0
 11
-22.14162776210175
 21
4.963880135080444
 31
0.0
 11
-21.98587063312535
 21
4.962653471769499
 31
0.0
 11
-21.82958118791574
 21
4.961567879546635
 31
0.0
 11
-21.6728636017868
 21
4.960624067158903
 31
0.0
 11
-21.51312763630183
 21
4.959810136035116
 31
0.0
 11
-21.35294822075487
 21
4.959142826709864
 31
0.0
 11
-21.19243596594198
 21
4.958622748131062
 31
0.0
 11
-21.03170148265924
 21
4.958250509246624
 31
0.0
 11
-20.87085538170261
 21
4.958026719004578
 31
0.0
 11
-20.7100082738681
 21
4.957951986352838
 31
0.0
  0
SPLINE
  5
DF
330
2
100
AcDbEntity
  8
GAIKEI
  6
Continuous
 62
     1
100
AcDbSpline
210
0.0
220
0.0
230
1.0
 70
     8
 71
     3
 72
    59
 73
    55
 74
    53
 42
0.0000000001
 43
0.0000000001
 44
0.000001
 12
-0.9968356298091919
 22
-0.0794904217054616
 32
0.0
 13
-0.9990680155620923
 23
-0.0431636453606841
 33
0.0
 40
0.0
 40
0.0
 40
0.0
 40
0.0
 40
0.0967341375894392
 40
0.1963526337712188
 40
0.2988169805390333
 40
0.4040875029952172
 40
0.5121233598135554
 40
0.6228825656106219
 40
0.7363220125024596
 40
0.8426249526714821
 40
0.9511080537098573
 40
1.061735716507364
 40
1.17447160666933
 40
1.289278668214235
 40
1.40611913733202
 40
1.535855350928429
 40
1.667914856033333
 40
1.802245860309729
 40
1.938795651847915
 40
2.077510621272184
 40
2.218336284070796
 40
2.3612173031567
 40
2.493949188505582
 40
2.628317098276967
 40
2.764276618909716
 40
2.901782797488095
 40
3.040790157087312
 40
3.181252712261153
 40
3.336089607404145
 40
3.492541995364588
 40
3.650548236817063
 40
3.8100460660594
 40
3.970972616027321
 40
4.133264443520062
 40
4.296857554629022
 40
4.447905953337748
 40
4.599943518056603
 40
4.752919847693623
 40
4.906784222377607
 40
5.061485620477839
 40
5.216972735717676
 40
5.387430541555168
 40
5.558694738843321
 40
5.730697704933689
 40
5.903371516669025
 40
6.076647977451254
 40
6.250458644413015
 40
6.424734855682797
 40
6.584838214380287
 40
6.74522174853899
 40
6.905832203170947
 40
7.066616242956822
 40
7.227520470198694
 40
7.388491477640093
 40
7.388491477640093
 40
7.388491477640093
 40
7.388491477640093
 10
-13.33155373868222
 20
6.682951980921302
 30
0.0
 10
-13.36369641700489
 20
6.680388835124517
 30
0.0
 10
-13.42894584139192
 20
6.675256686167699
 30
0.0
 10
-13.5282631607928
 20
6.667682133007758
 30
0.0
 10
-13.63043373890766
 20
6.660104563809795
 30
0.0
 10
-13.73541763854219
 20
6.652527542388668
 30
0.0
 10
-13.84317346103561
 20
6.644950099464949
 30
0.0
 10
-13.95365880239696
 20
6.637372529626304
 30
0.0
 10
-14.063579910219
 20
6.630012398184248
 30
0.0
 10
-14.17275451548089
 20
6.622861753545464
 30
0.0
 10
-14.28100309132033
 20
6.615914737868195
 30
0.0
 10
-14.391400300427
 20
6.608967625889647
 30
0.0
 10
-14.5039095800476
 20
6.602020425348655
 30
0.0
 10
-14.61849366091403
 20
6.595073141677289
 30
0.0
 10
-14.73874174816421
 20
6.587909704679475
 30
0.0
 10
-14.86473825456188
 20
6.580536022707292
 30
0.0
 10
-14.99656284557731
 20
6.57295734338902
 30
0.0
 10
-15.13066230913408
 20
6.565378577245382
 30
0.0
 10
-15.26698373688345
 20
6.557799729712314
 30
0.0
 10
-15.40547333580704
 20
6.550220806561128
 30
0.0
 10
-15.54607644897284
 20
6.54264181330484
 30
0.0
 10
-15.68469383861617
 20
6.535277582310641
 30
0.0
 10
-15.8211667255629
 20
6.52812331647874
 30
0.0
 10
-15.95534006907639
 20
6.521175430482458
 30
0.0
 10
-16.09110694812855
 20
6.514227506140969
 30
0.0
 10
-16.22842230889807
 20
6.507279546219137
 30
0.0
 10
-16.36724057832267
 20
6.500331552570173
 30
0.0
 10
-16.51183226186207
 20
6.49316972164695
 30
0.0
 10
-16.66223564606438
 20
6.485797549043297
 30
0.0
 10
-16.81848376682222
 20
6.478218119249277
 30
0.0
 10
-16.9762873388138
 20
6.470638653192338
 30
0.0
 10
-17.13558399911094
 20
6.463059153070275
 30
0.0
 10
-17.29631078782688
 20
6.455479621235895
 30
0.0
 10
-17.45840417287034
 20
6.447900059993628
 30
0.0
 10
-17.61721118400387
 20
6.440533339821513
 30
0.0
 10
-17.77260617215531
 20
6.433376801899157
 30
0.0
 10
-17.92446806780575
 20
6.426428557798715
 30
0.0
 10
-18.07726959707467
 20
6.419480297960888
 30
0.0
 10
-18.23095998216378
 20
6.412532023656353
 30
0.0
 10
-18.385488145202
 20
6.405583735835875
 30
0.0
 10
-18.54554349930507
 20
6.398423348072128
 30
0.0
 10
-18.7111158938105
 20
6.391052602418824
 30
0.0
 10
-18.88218971661202
 20
6.383472864453665
 30
0.0
 10
-19.05400292883497
 20
6.375893113278095
 30
0.0
 10
-19.22648754471713
 20
6.368313350160008
 30
0.0
 10
-19.39957530644761
 20
6.360733576535039
 30
0.0
 10
-19.57319771113437
 20
6.353153793444732
 30
0.0
 10
-19.74243412030748
 20
6.34578525519953
 30
0.0
 10
-19.90719973335576
 20
6.338627007714251
 30
0.0
 10
-20.06741491509959
 20
6.331678642845133
 30
0.0
 10
-20.22785720161822
 20
6.324730235197137
 30
0.0
 10
-20.38847322126529
 20
6.317781973134174
 30
0.0
 10
-20.54920951349745
 20
6.310833156002729
 30
0.0
 10
-20.65640128063801
 20
6.306202434520912
 30
0.0
 10
-20.71000827562718
 20
6.303886402694729
 30
0.0
 11
-13.33155373868222
 21
6.682951980921302
 31
0.0
 11
-13.42799035223926
 21
6.67537066935688
 31
0.0
 11
-13.5273199453601
 21
6.667789357792514
 31
0.0
 11
-13.62950343642383
 21
6.660208046228149
 31
0.0
 11
-13.73450060988178
 21
6.652626734663726
 31
0.0
 11
-13.84227013208409
 21
6.645045423099304
 31
0.0
 11
-13.9527695675509
 21
6.637464111534882
 31
0.0
 11
-14.06595539568083
 21
6.629882799970459
 31
0.0
 11
-14.17203092977804
 21
6.622933264369748
 31
0.0
 11
-14.28029120439778
 21
6.615983728769037
 31
0.0
 11
-14.39070036900718
 21
6.609034193168326
 31
0.0
 11
-14.50322185490121
 21
6.602084657567615
 31
0.0
 11
-14.61781838731373
 21
6.595135121966791
 31
0.0
 11
-14.7344519977657
 21
6.58818558636608
 31
0.0
 11
-14.86396650941562
 21
6.580604274801657
 31
0.0
 11
-14.9958082194379
 21
6.573022963237235
 31
0.0
 11
-15.12992511742716
 21
6.565441651672699
 31
0.0
 11
-15.26626428710575
 21
6.557860340108277
 31
0.0
 11
-15.40477192720171
 21
6.550279028543798
 31
0.0
 11
-15.54539337267921
 21
6.542697716979319
 31
0.0
 11
-15.68807311631293
 21
6.535116405414839
 31
0.0
 11
-15.82062294570791
 21
6.528166869814072
 31
0.0
 11
-15.95481101918229
 21
6.521217334213247
 31
0.0
 11
-16.09059281155198
 21
6.514267798612479
 31
0.0
 11
-16.2279232635196
 21
6.507318263011711
 31
0.0
 11
-16.36675679662689
 21
6.500368727410887
 31
0.0
 11
-16.507047328382
 21
6.493419191810062
 31
0.0
 11
-16.66169850924537
 21
6.485837880245526
 31
0.0
 11
-16.8179671028454
 21
6.47825656868099
 31
0.0
 11
-16.97579135949623
 21
6.470675257116454
 31
0.0
 11
-17.13510890775957
 21
6.463093945551918
 31
0.0
 11
-17.29585677909331
 21
6.455512633987382
 31
0.0
 11
-17.45797143273928
 21
6.447931322422846
 31
0.0
 11
-17.62138878083961
 21
6.440350010858253
 31
0.0
 11
-17.77227722526454
 21
6.433400475257371
 31
0.0
 11
-17.92415587746957
 21
6.426450939656547
 31
0.0
 11
-18.07697427080173
 21
6.419501404055608
 31
0.0
 11
-18.23068162166591
 21
6.412551868454784
 31
0.0
 11
-18.38522684640061
 21
6.405602332853845
 31
0.0
 11
-18.54055857825547
 21
6.398652797253021
 31
0.0
 11
-18.71084770662368
 21
6.391071485688371
 31
0.0
 11
-18.88194402144002
 21
6.383490174123721
 31
0.0
 11
-19.05377982683645
 21
6.375908862559128
 31
0.0
 11
-19.22628712793637
 21
6.368327550994479
 31
0.0
 11
-19.39939765775985
 21
6.360746239429829
 31
0.0
 11
-19.57304290423919
 21
6.353164927865179
 31
0.0
 11
-19.74715413733391
 21
6.345583616300473
 31
0.0
 11
-19.9071065971054
 21
6.338634080699534
 31
0.0
 11
-20.0673394961856
 21
6.331684545098596
 31
0.0
 11
-20.2277995287471
 21
6.324735009497658
 31
0.0
 11
-20.38843330896186
 21
6.317785473896719
 31
0.0
 11
-20.54918738876263
 21
6.310835938295667
 31
0.0
 11
-20.71000827562718
 21
6.303886402694729
 31
0.0
  0
SPLINE
  5
E0
330
2
100
AcDbEntity
  8
GAIKEI
  6
Continuous
 62
     1
100
AcDbSpline
210
0.0
220
0.0
230
1.0
 70
     8
 71
     3
 72
    59
 73
    55
 74
    53
 42
0.0000000001
 43
0.0000000001
 44
0.000001
 12
-0.9990680549083727
 22
0.0431627346399753
 32
0.0
 13
-0.9968346603052797
 23
0.079502578662947
 33
0.0
 40
0.0
 40
0.0
 40
0.0
 40
0.0
 40
0.1756022257121126
 40
0.3511192012831265
 40
0.5264815860402515
 40
0.7016200721723118
 40
0.8764654471524773
 40
1.0509486214155
 40
1.225000655888114
 40
1.384110879469245
 40
1.54274823229113
 40
1.700860064176658
 40
1.85839390523576
 40
2.015297483432908
 40
2.171518742091851
 40
2.341102861294578
 40
2.509746352973785
 40
2.677382657237756
 40
2.843945621750382
 40
3.009369528139445
 40
3.173589118246199
 40
3.33653962020617
 40
3.484741163400612
 40
3.631773218039686
 40
3.777587080443215
 40
3.922134459679162
 40
4.065367493850774
 40
4.207238766258483
 40
4.360399180433359
 40
4.511822801240836
 40
4.661450016379575
 40
4.809221937762142
 40
4.955080425393677
 40
5.098968111012228
 40
5.240828421487766
 40
5.369038413819136
 40
5.495455663784369
 40
5.62003845484757
 40
5.742745693655573
 40
5.863536924447599
 40
5.982372343333852
 40
6.10973441454994
 40
6.234672455681342
 40
6.357137563702049
 40
6.477081841626851
 40
6.59445841974446
 40
6.709221476761729
 40
6.821326260902754
 40
6.921716453421937
 40
7.019803448453562
 40
7.115555234737904
 40
7.208940613917982
 40
7.299929215232679
 40
7.388491488881227
 40
7.388491488881227
 40
7.388491488881227
 40
7.388491488881227
 10
-20.71000827210902
 20
6.303886402694729
 30
0.0
 10
-20.76848779680228
 20
6.306412893451579
 30
0.0
 10
-20.88541845940723
 20
6.311464568787414
 30
0.0
 10
-21.06074853707356
 20
6.319044772016184
 30
0.0
 10
-21.23592391195726
 20
6.326624476510346
 30
0.0
 10
-21.41087520472015
 20
6.334204309952099
 30
0.0
 10
-21.58553315374841
 20
6.341784103013537
 30
0.0
 10
-21.75982861058397
 20
6.349363899479783
 30
0.0
 10
-21.92888317729535
 20
6.356734014869914
 30
0.0
 10
-22.09265995562247
 20
6.363893781953493
 30
0.0
 10
-22.2511274994517
 20
6.370842130016512
 30
0.0
 10
-22.40906907634306
 20
6.37779047031131
 30
0.0
 10
-22.56643216783114
 20
6.384738801972105
 30
0.0
 10
-22.72316445232927
 20
6.391687124017209
 30
0.0
 10
-22.88390817259899
 20
6.398844458203939
 30
0.0
 10
-23.04855971000479
 20
6.406212032609005
 30
0.0
 10
-23.21701057365545
 20
6.413791721840368
 30
0.0
 10
-23.38445336183321
 20
6.421371391822162
 30
0.0
 10
-23.55082185011985
 20
6.428951040821232
 30
0.0
 10
-23.71605024558341
 20
6.43653066707526
 30
0.0
 10
-23.88007321272882
 20
6.444110268930216
 30
0.0
 10
-24.03835887072445
 20
6.451481809298911
 30
0.0
 10
-24.19091892640528
 20
6.458642993794796
 30
0.0
 10
-24.33777046895532
 20
6.465591149625765
 30
0.0
 10
-24.48340258431226
 20
6.472539282411048
 30
0.0
 10
-24.62776690802791
 20
6.479487390835004
 30
0.0
 10
-24.77081550165321
 20
6.486435473003211
 30
0.0
 10
-24.91672840802749
 20
6.493590840846195
 30
0.0
 10
-25.06536447126067
 20
6.500956288241013
 30
0.0
 10
-25.2165784001282
 20
6.508535591916484
 30
0.0
 10
-25.36599388613992
 20
6.51611484774304
 30
0.0
 10
-25.51355191629141
 20
6.523694052104303
 30
0.0
 10
-25.65919421870046
 20
6.531273201265094
 30
0.0
 10
-25.80286328534832
 20
6.5388522917317
 30
0.0
 10
-25.94065217402455
 20
6.546225294413375
 30
0.0
 10
-26.07262046565992
 20
6.55338799542045
 30
0.0
 10
-26.19883274174021
 20
6.560335670071879
 30
0.0
 10
-26.32320795291396
 20
6.567283289709621
 30
0.0
 10
-26.44570486059882
 20
6.57423085114641
 30
0.0
 10
-26.56628285501654
 20
6.581178349526624
 30
0.0
 10
-26.68840316866584
 20
6.588330845738198
 30
0.0
 10
-26.81189577628028
 20
6.595693090539555
 30
0.0
 10
-26.93658746309195
 20
6.603271463689623
 30
0.0
 10
-27.05880190779286
 20
6.610849718818712
 30
0.0
 10
-27.17849093333981
 20
6.618427845453652
 30
0.0
 10
-27.29560736782624
 20
6.626005832909811
 30
0.0
 10
-27.41010506229652
 20
6.633583669008601
 30
0.0
 10
-27.518941563753
 20
6.640958245426304
 30
0.0
 10
-27.62222073087797
 20
6.648122688060198
 30
0.0
 10
-27.72005079053825
 20
6.655069188903155
 30
0.0
 10
-27.81553991921712
 20
6.662015360244595
 30
0.0
 10
-27.90865647320277
 20
6.668962012112672
 30
0.0
 10
-27.9993698866685
 20
6.675906175297086
 30
0.0
 10
-28.05903549439708
 20
6.680605004545498
 30
0.0
 10
-28.08846280905319
 20
6.682951980921245
 30
0.0
 11
-20.71000827210902
 21
6.303886402694729
 31
0.0
 11
-20.88544673088968
 21
6.311467714259435
 31
0.0
 11
-21.06079989532675
 21
6.319049025824142
 31
0.0
 11
-21.23599832463653
 21
6.326630337388849
 31
0.0
 11
-21.41097264557762
 21
6.334211648953555
 31
0.0
 11
-21.58565357992059
 21
6.341792960518205
 31
0.0
 11
-21.75997197187765
 21
6.349374272082911
 31
0.0
 11
-21.93385881548131
 21
6.356955583647618
 31
0.0
 11
-22.09281719735777
 21
6.363905119248556
 31
0.0
 11
-22.25130225542507
 21
6.370854654849495
 31
0.0
 11
-22.40926128587831
 21
6.377804190450433
 31
0.0
 11
-22.56664176432931
 21
6.384753726051314
 31
0.0
 11
-22.72339136327191
 21
6.391703261652196
 31
0.0
 11
-22.8794579694805
 21
6.398652797253134
 31
0.0
 11
-23.04887254132565
 21
6.406234108817784
 31
0.0
 11
-23.21734553901912
 21
6.413815420382377
 31
0.0
 11
-23.38481032388934
 21
6.42139673194697
 31
0.0
 11
-23.5512006625806
 21
6.428978043511563
 31
0.0
 11
-23.71645075324842
 21
6.436559355076155
 31
0.0
 11
-23.88049525158233
 21
6.444140666640691
 31
0.0
 11
-24.04326929664428
 21
6.451721978205341
 31
0.0
 11
-24.19130780957137
 21
6.458671513806166
 31
0.0
 11
-24.33817553575462
 21
6.465621049406991
 31
0.0
 11
-24.48382369527009
 21
6.472570585007815
 31
0.0
 11
-24.62820391809688
 21
6.47952012060864
 31
0.0
 11
-24.77126826018049
 21
6.486469656209465
 31
0.0
 11
-24.9129692193538
 21
6.493419191810289
 31
0.0
 11
-25.06594188394742
 21
6.501000503374825
 31
0.0
 11
-25.21717559903335
 21
6.508581814939361
 31
0.0
 11
-25.36661062554306
 21
6.51616312650384
 31
0.0
 11
-25.51418794217518
 21
6.52374443806832
 31
0.0
 11
-25.65984926870625
 21
6.531325749632856
 31
0.0
 11
-25.80353708900641
 21
6.538907061197278
 31
0.0
 11
-25.94519467375001
 21
6.546488372761814
 31
0.0
 11
-26.07321617980451
 21
6.553437908362525
 31
0.0
 11
-26.19944226651144
 21
6.56038744396335
 31
0.0
 11
-26.32383107510499
 21
6.567336979564061
 31
0.0
 11
-26.44634136172483
 21
6.574286515164772
 31
0.0
 11
-26.56693251109125
 21
6.581236050765539
 31
0.0
 11
-26.68556454996987
 21
6.588185586366307
 31
0.0
 11
-26.81270077923178
 21
6.59576689793073
 31
0.0
 11
-26.93740858862817
 21
6.603348209495152
 31
0.0
 11
-27.0596388069916
 21
6.610929521059574
 31
0.0
 11
-27.17934324885217
 21
6.618510832623996
 31
0.0
 11
-27.29647473343233
 21
6.626092144188419
 31
0.0
 11
-27.41098710324316
 21
6.633673455752784
 31
0.0
 11
-27.52283524227222
 21
6.64125476731715
 31
0.0
 11
-27.62298460365578
 21
6.648204302917861
 31
0.0
 11
-27.72082509841978
 21
6.655153838518572
 31
0.0
 11
-27.81632435695333
 21
6.662103374119226
 31
0.0
 11
-27.90945079148345
 21
6.66905290971988
 31
0.0
 11
-28.00017360652289
 21
6.676002445320591
 31
0.0
 11
-28.08846280905319
 21
6.682951980921245
 31
0.0
  0
SPLINE
  5
E1
330
2
100
AcDbEntity
  8
GAIKEI
  6
Continuous
 62
     1
100
AcDbSpline
210
0.0
220
0.0
230
1.0
 70
     8
 71
     3
 72
    16
 73
    12
 74
    10
 42
0.0000000001
 43
0.0000000001
 44
0.000001
 12
0.846847135539641
 22
-0.5318363742997513
 32
0.0
 13
0.9975201175830006
 23
-0.0703819225170532
 33
0.0
 40
0.0
 40
0.0
 40
0.0
 40
0.0
 40
0.0020390468541652
 40
0.00732063670775
 40
0.0150635724184101
 40
0.0251520501987797
 40
0.0375509936636239
 40
0.0516519408192397
 40
0.0678452521739637
 40
0.0863404634655593
 40
0.1069122161983377
 40
0.1069122161983377
 40
0.1069122161983377
 40
0.1069122161983377
 10
-31.62767984449393
 20
5.32914557895566
 30
0.0
 10
-31.62710425749803
 20
5.328784099193683
 30
0.0
 10
-31.62498254464579
 20
5.327563289607383
 30
0.0
 10
-31.62015111557754
 20
5.326063345877628
 30
0.0
 10
-31.6126619219277
 20
5.324301207833343
 30
0.0
 10
-31.60272387731402
 20
5.322575077819578
 30
0.0
 10
-31.59064855794194
 20
5.320871784030828
 30
0.0
 10
-31.57651195350644
 20
5.31921894508423
 30
0.0
 10
-31.56032923624956
 20
5.317600518080666
 30
0.0
 10
-31.54197694202512
 20
5.316016011878218
 30
0.0
 10
-31.52899231923858
 20
5.315022496180517
 30
0.0
 10
-31.52215207350362
 20
5.314539869678242
 30
0.0
 11
-31.62767984449393
 21
5.32914557895566
 31
0.0
 11
-31.62590418417081
 21
5.328142999206136
 31
0.0
 11
-31.62093303022381
 21
5.326359283912665
 31
0.0
 11
-31.61340562473818
 21
5.324545282920666
 31
0.0
 11
-31.60347717471673
 21
5.322755640988361
 31
0.0
 11
-31.59120354265925
 21
5.320997402007378
 31
0.0
 11
-31.57720067458634
 21
5.319337244299049
 31
0.0
 11
-31.56108915667467
 21
5.31771179732965
 31
0.0
 11
-31.54266389338552
 21
5.316104865998454
 31
0.0
 11
-31.52215207350362
 21
5.314539869678242
 31
0.0
  0
SPLINE
  5
E2
330
2
100
AcDbEntity
  8
GAIKEI
  6
Continuous
 62
     1
100
AcDbSpline
210
0.0
220
0.0
230
1.0
 70
     8
 71
     3
 72
    16
 73
    12
 74
    10
 42
0.0000000001
 43
0.0000000001
 44
0.000001
 12
-0.8468471355437145
 22
-0.5318363742932651
 32
0.0
 13
-0.9975201175830209
 23
-0.0703819225167654
 33
0.0
 40
0.0
 40
0.0
 40
0.0
 40
0.0
 40
0.002039046854546
 40
0.0073206367082721
 40
0.015063572419098
 40
0.0251520501998133
 40
0.037550993664762
 40
0.0516519408203214
 40
0.0678452521747569
 40
0.0863404634659611
 40
0.106912216198334
 40
0.106912216198334
 40
0.106912216198334
 40
0.106912216198334
 10
-9.79233670324227
 20
5.32914557895566
 30
0.0
 10
-9.792912290238277
 20
5.328784099193626
 30
0.0
 10
-9.795034003090677
 20
5.327563289607155
 30
0.0
 10
-9.799865432159165
 20
5.326063345877741
 30
0.0
 10
-9.807354625809232
 20
5.324301207833116
 30
0.0
 10
-9.817292670423142
 20
5.322575077819408
 30
0.0
 10
-9.82936798979535
 20
5.320871784030714
 30
0.0
 10
-9.843504594230765
 20
5.31921894508406
 30
0.0
 10
-9.859687311487398
 20
5.31760051808078
 30
0.0
 10
-9.878039605711478
 20
5.31601601187782
 30
0.0
 10
-9.891024228497748
 20
5.315022496180517
 30
0.0
 10
-9.897864474232576
 20
5.314539869678242
 30
0.0
 11
-9.79233670324227
 21
5.32914557895566
 31
0.0
 11
-9.79411236356573
 21
5.328142999205965
 31
0.0
 11
-9.799083517512897
 21
5.326359283912552
 31
0.0
 11
-9.8066109229987
 21
5.324545282920553
 31
0.0
 11
-9.816539373020489
 21
5.322755640988191
 31
0.0
 11
-9.828813005078089
 21
5.320997402007265
 31
0.0
 11
-9.842815873150939
 21
5.319337244298935
 31
0.0
 11
-9.858927391062323
 21
5.317711797329593
 31
0.0
 11
-9.877352654351071
 21
5.31610486599834
 31
0.0
 11
-9.897864474232576
 21
5.314539869678242
 31
0.0
  0
SPLINE
  5
E3
330
2
100
AcDbEntity
  8
GAIKEI
  6
Continuous
 62
     1
100
AcDbSpline
210
0.0
220
0.0
230
1.0
 70
     8
 71
     3
 72
    13
 73
     9
 74
     7
 42
0.0000000001
 43
0.0000000001
 44
0.000001
 12
0.027372054828509
 22
-0.9996253151128502
 32
0.0
 13
0.5639451705954599
 23
-0.8258122332358958
 33
0.0
 40
0.0
 40
0.0
 40
0.0
 40
0.0
 40
0.0201988042453599
 40
0.040738777488443
 40
0.0615680704069777
 40
0.0829297721069791
 40
0.1113175574376786
 40
0.1409811927843299
 40
0.1409811927843299
 40
0.1409811927843299
 40
0.1409811927843299
 10
-28.1961847046032
 20
5.384249725690324
 30
0.0
 10
-28.19600041034411
 20
5.377519313670745
 30
0.0
 10
-28.19501024354493
 20
5.363952697652621
 30
0.0
 10
-28.19159124920687
 20
5.343688288001033
 30
0.0
 10
-28.18626991411882
 20
5.323438145217153
 30
0.0
 10
-28.17832105089986
 20
5.301264773097727
 30
0.0
 10
-28.16697704719653
 20
5.277293705749457
 30
0.0
 10
-28.15691927833805
 20
5.260713232519435
 30
0.0
 10
-28.15134305703937
 20
5.252547701535604
 30
0.0
 11
-28.1961847046032
 21
5.384249725690324
 31
0.0
 11
-28.19470640273017
 21
5.364104332033662
 31
0.0
 11
-28.1913089315707
 21
5.343847133097597
 31
0.0
 11
-28.18602945667603
 21
5.323697927945943
 31
0.0
 11
-28.17883514834655
 21
5.303584053615509
 31
0.0
 11
-28.16673657499446
 21
5.277903407429221
 31
0.0
 11
-28.15134305703937
 21
5.252547701535604
 31
0.0
  0
SPLINE
  5
E4
330
2
100
AcDbEntity
  8
GAIKEI
  6
Continuous
 62
     1
100
AcDbSpline
210
0.0
220
0.0
230
1.0
 70
     8
 71
     3
 72
    13
 73
     9
 74
     7
 42
0.0000000001
 43
0.0000000001
 44
0.000001
 12
-0.027372054828509
 22
-0.9996253151128502
 32
0.0
 13
-0.5639451705954599
 23
-0.8258122332358958
 33
0.0
 40
0.0
 40
0.0
 40
0.0
 40
0.0
 40
0.0201988042453599
 40
0.040738777488443
 40
0.0615680704069777
 40
0.0829297721069791
 40
0.1113175574376786
 40
0.1409811927843299
 40
0.1409811927843299
 40
0.1409811927843299
 40
0.1409811927843299
 10
-13.22383123528495
 20
5.384249725690324
 30
0.0
 10
-13.22401552954404
 20
5.377519313670745
 30
0.0
 10
-13.22500569634322
 20
5.363952697652621
 30
0.0
 10
-13.22842469068127
 20
5.343688288001033
 30
0.0
 10
-13.23374602576933
 20
5.323438145217153
 30
0.0
 10
-13.2416948889883
 20
5.301264773097727
 30
0.0
 10
-13.25303889269159
 20
5.277293705749457
 30
0.0
 10
-13.26309666155009
 20
5.260713232519435
 30
0.0
 10
-13.26867288284877
 20
5.252547701535604
 30
0.0
 11
-13.22383123528495
 21
5.384249725690324
 31
0.0
 11
-13.22530953715797
 21
5.364104332033662
 31
0.0
 11
-13.22870700831744
 21
5.343847133097597
 31
0.0
 11
-13.23398648321212
 21
5.323697927945943
 31
0.0
 11
-13.24118079154159
 21
5.303584053615509
 31
0.0
 11
-13.25327936489368
 21
5.277903407429221
 31
0.0
 11
-13.26867288284877
 21
5.252547701535604
 31
0.0
  0
ARC
  5
E5
330
2
100
AcDbEntity
  8
GAIKEI
  6
Continuous
 62
     1
100
AcDbCircle
 10
-19.86122236994409
 20
9.732092546962689
 30
0.0
 40
7.9704473
100
AcDbArc
 50
324.6869790507631
 51
325.8044420000104
  0
LINE
  5
E6
330
2
100
AcDbEntity
  8
GAIKEI
  6
Continuous
 62
     7
100
AcDbLine
 10
-13.30056186994404
 20
6.860568796962695
 30
0.0
 11
-13.22319276994405
 21
5.384278146962685
 31
0.0
  0
LINE
  5
E7
330
2
100
AcDbEntity
  8
GAIKEI
  6
Continuous
 62
     1
100
AcDbLine
 10
-13.28673676994408
 20
5.226077696962704
 30
0.0
 11
-13.28659376994405
 21
5.220279396962723
 31
0.0
  0
DIMENSION
  5
E8
330
2
100
AcDbEntity
  8
SUNPO
100
AcDbDimension
  2
*D7
 10
41.70628835865881
 20
45.35259250275231
 30
0.0
 11
48.28962169199215
 21
47.10259250275231
 31
0.0
 70
    33
  1
89
 71
     5
 42
4.449999999999988
  3
STANDARD
100
AcDbAlignedDimension
 13
37.25628835865882
 23
37.35912500731138
 33
0.0
 14
41.70628835865881
 24
37.35912500731138
 34
0.0
1001
ACAD
1000
DSTYLE
1002
{
1070
    40
1040
1.0
1070
   140
1040
2.5
1070
   147
1040
0.5
1070
   172
1070
     1
1070
   279
1070
     0
1070
   288
1070
     0
1002
}
  0
DIMENSION
  5
F7
330
2
100
AcDbEntity
  8
SUNPO
100
AcDbDimension
  2
*D6
 10
12.35031029456688
 20
37.35287894710365
 30
0.0
 11
10.60031029456687
 21
22.10287894710365
 31
0.0
 70
    33
  1
610
 71
     5
 42
30.5
  3
STANDARD
100
AcDbAlignedDimension
 13
4.350310294566881
 23
6.852878947103647
 33
0.0
 14
4.350310294566881
 24
37.35287894710365
 34
0.0
1001
ACAD
1000
DSTYLE
1002
{
1070
   287
1070
     3
1070
   287
1070
     3
1070
   287
1070
     3
1070
   287
1070
     3
1070
   287
1070
     3
1070
   287
1070
     3
1070
   287
1070
     3
1070
   287
1070
     3
1070
   287
1070
     3
1070
   287
1070
     3
1070
   287
1070
     3
1070
   287
1070
     3
1070
   287
1070
     3
1070
   287
1070
     3
1070
   287
1070
     3
1070
   287
1070
     3
1070
   287
1070
     3
1070
   287
1070
     3
1070
   287
1070
     3
1070
   287
1070
     3
1070
   287
1070
     3
1070
   287
1070
     3
1070
   287
1070
     3
1070
   287
1070
     3
1070
   287
1070
     3
1070
   287
1070
     3
1070
   287
1070
     3
1070
   287
1070
     3
1070
   287
1070
     3
1070
   287
1070
     3
1070
   287
1070
     3
1070
   287
1070
     3
1070
   287
1070
     3
1070
   287
1070
     3
1070
    40
1040
1.0
1070
   140
1040
2.5
1070
   147
1040
0.5
1070
   172
1070
     1
1070
   279
1070
     0
1002
}
  0
DIMENSION
  5
104
330
2
100
AcDbEntity
  8
SUNPO
100
AcDbDimension
  2
*D5
 10
4.79007548429459
 20
45.35259250275231
 30
0.0
 11
-20.70992451570543
 21
47.10259250275231
 31
0.0
 70
    33
  1
1020
 71
     5
 42
51.00000000000003
  3
STANDARD
100
AcDbAlignedDimension
 13
-46.20992451570543
 23
37.35259250275232
 33
0.0
 14
4.79007548429459
 24
37.35259250275232
 34
0.0
1001
ACAD
1000
DSTYLE
1002
{
1070
   287
1070
     3
1070
   287
1070
     3
1070
   287
1070
     3
1070
   287
1070
     3
1070
   287
1070
     3
1070
   287
1070
     3
1070
   287
1070
     3
1070
   287
1070
     3
1070
   287
1070
     3
1070
   287
1070
     3
1070
   287
1070
     3
1070
   287
1070
     3
1070
   287
1070
     3
1070
   287
1070
     3
1070
   287
1070
     3
1070
   287
1070
     3
1070
   287
1070
     3
1070
   287
1070
     3
1070
   287
1070
     3
1070
   287
1070
     3
1070
   287
1070
     3
1070
   287
1070
     3
1070
   287
1070
     3
1070
   287
1070
     3
1070
   287
1070
     3
1070
   287
1070
     3
1070
   287
1070
     3
1070
   287
1070
     3
1070
   287
1070
     3
1070
   287
1070
     3
1070
   287
1070
     3
1070
   287
1070
     3
1070
   287
1070
     3
1070
   287
1070
     3
1070
    40
1040
1.0
1070
   140
1040
2.5
1070
   147
1040
0.5
1070
   172
1070
     1
1070
   279
1070
     0
1002
}
  0
SPLINE
  5
111
330
2
100
AcDbEntity
  8
GAIKEI
  6
Continuous
 62
     1
100
AcDbSpline
210
0.0
220
0.0
230
1.0
 70
     8
 71
     3
 72
    19
 73
    15
 74
    13
 42
0.0000000001
 43
0.0000000001
 44
0.000001
 12
-0.0752275696311223
 22
-0.997166391715743
 32
0.0
 13
-0.9971651028730411
 23
-0.075244651718227
 33
0.0
 40
0.0
 40
0.0
 40
0.0
 40
0.0
 40
0.0307154355883291
 40
0.0474030577479735
 40
0.0651725077410082
 40
0.0907715901516846
 40
0.1187843457784013
 40
0.1493748434985142
 40
0.1799684721587333
 40
0.2079831863822425
 40
0.2335829247319934
 40
0.2513519491628464
 40
0.2680383245397779
 40
0.2987487388429205
 40
0.2987487388429205
 40
0.2987487388429205
 40
0.2987487388429205
 10
4.65467531652952
 20
7.193708035863778
 30
0.0
 10
4.653905100673028
 20
7.183498569171888
 30
0.0
 10
4.651183430813091
 20
7.167787944620386
 30
0.0
 10
4.644052760945839
 20
7.147236621083152
 30
0.0
 10
4.635736344128758
 20
7.12899578813176
 30
0.0
 10
4.623597797658717
 20
7.108467871371999
 30
0.0
 10
4.606760278086085
 20
7.085950336565019
 30
0.0
 10
4.586656441434726
 20
7.063986337525989
 30
0.0
 10
4.564690587448694
 20
7.043883581607474
 30
0.0
 10
4.542170891882548
 20
7.027045796157153
 30
0.0
 10
4.521642158297169
 20
7.014907228085689
 30
0.0
 10
4.503401649107374
 20
7.00659094549087
 30
0.0
 10
4.482852539727446
 20
6.999460709405923
 30
0.0
 10
4.467144029872784
 20
6.996739229537183
 30
0.0
 10
4.456936245393492
 20
6.995968964727751
 30
0.0
 11
4.65467531652952
 21
7.193708035863778
 31
0.0
 11
4.649342155870456
 21
7.163459041271494
 31
0.0
 11
4.64393525802788
 21
7.147671822717938
 31
0.0
 11
4.636589752003189
 21
7.131491814726985
 31
0.0
 11
4.623641743557428
 21
7.109408902790733
 31
0.0
 11
4.606934527521801
 21
7.086923889343552
 31
0.0
 11
4.586337245172444
 21
7.064307036084869
 31
0.0
 11
4.563716793824909
 21
7.043709054741441
 31
0.0
 11
4.541229537435583
 21
7.02700157337108
 31
0.0
 11
4.519145832309732
 21
7.014053620790662
 31
0.0
 11
4.502966210366452
 21
7.00670829371694
 31
0.0
 11
4.487180227230965
 21
7.001301636215828
 31
0.0
 11
4.456936245393492
 21
6.995968964727751
 31
0.0
  0
SPLINE
  5
112
330
2
100
AcDbEntity
  8
GAIKEI
  6
Continuous
 62
     1
100
AcDbSpline
210
0.0
220
0.0
230
1.0
 70
     8
 71
     3
 72
    19
 73
    15
 74
    13
 42
0.0000000001
 43
0.0000000001
 44
0.000001
 12
0.0752275696311222
 22
-0.997166391715743
 32
0.0
 13
0.9971651028730608
 23
-0.0752446517179686
 33
0.0
 40
0.0
 40
0.0
 40
0.0
 40
0.0
 40
0.0307154355883346
 40
0.0474030577479733
 40
0.0651725077410124
 40
0.0907715901516762
 40
0.1187843457784767
 40
0.1493748434985284
 40
0.1799684721587266
 40
0.2079831863822528
 40
0.2335829247320007
 40
0.251351949162844
 40
0.2680383245397553
 40
0.2987487388429329
 40
0.2987487388429329
 40
0.2987487388429329
 40
0.2987487388429329
 10
-46.07452434794038
 20
7.193708035863778
 30
0.0
 10
-46.07375413208389
 20
7.183498569171888
 30
0.0
 10
-46.0710324622239
 20
7.167787944620499
 30
0.0
 10
-46.06390179235668
 20
7.147236621083038
 30
0.0
 10
-46.05558537553959
 20
7.128995788131874
 30
0.0
 10
-46.04344682906958
 20
7.108467871371999
 30
0.0
 10
-46.02660930949691
 20
7.085950336565076
 30
0.0
 10
-46.00650547284551
 20
7.063986337525818
 30
0.0
 10
-45.98453961885955
 20
7.043883581607474
 30
0.0
 10
-45.96201992329338
 20
7.027045796157153
 30
0.0
 10
-45.94149118970801
 20
7.014907228085746
 30
0.0
 10
-45.92325068051822
 20
7.00659094549087
 30
0.0
 10
-45.90270157113829
 20
6.999460709405923
 30
0.0
 10
-45.88699306128363
 20
6.996739229537183
 30
0.0
 10
-45.87678527680433
 20
6.995968964727751
 30
0.0
 11
-46.07452434794038
 21
7.193708035863778
 31
0.0
 11
-46.06919118728129
 21
7.163459041271494
 31
0.0
 11
-46.06378428943872
 21
7.147671822717938
 31
0.0
 11
-46.05643878341402
 21
7.131491814726985
 31
0.0
 11
-46.04349077496829
 21
7.109408902790733
 31
0.0
 11
-46.0267835589326
 21
7.086923889343495
 31
0.0
 11
-46.00618627658326
 21
7.064307036084869
 31
0.0
 11
-45.98356582523575
 21
7.043709054741441
 31
0.0
 11
-45.96107856884642
 21
7.02700157337108
 31
0.0
 11
-45.93899486372056
 21
7.014053620790662
 31
0.0
 11
-45.9228152417773
 21
7.00670829371694
 31
0.0
 11
-45.90702925864184
 21
7.001301636215828
 31
0.0
 11
-45.87678527680433
 21
6.995968964727751
 31
0.0
  0
SPLINE
  5
113
330
2
100
AcDbEntity
  8
GAIKEI
  6
Continuous
 62
     1
100
AcDbSpline
210
0.0
220
0.0
230
1.0
 70
     8
 71
     3
 72
    19
 73
    15
 74
    13
 42
0.0000000001
 43
0.0000000001
 44
0.000001
 12
0.9971663916999085
 22
-0.0752275698410131
 32
0.0
 13
0.0752446515490343
 23
-0.9971651028858081
 33
0.0
 40
0.0
 40
0.0
 40
0.0
 40
0.0
 40
0.0307154356042738
 40
0.0474030577681561
 40
0.0651725077626301
 40
0.0907715901709523
 40
0.1187843457902515
 40
0.1493748434978376
 40
0.1799684721688007
 40
0.2079831863987552
 40
0.2335829247506261
 40
0.2513519491800738
 40
0.268038324553368
 40
0.2987487388426722
 40
0.2987487388426722
 40
0.2987487388426722
 40
0.2987487388426722
 10
4.456936245393436
 20
37.22516862919758
 30
0.0
 10
4.467145712090442
 20
37.22439841333852
 30
0.0
 10
4.482856336647927
 20
37.22167674347486
 30
0.0
 10
4.503407660191797
 20
37.2145460736042
 30
0.0
 10
4.521648493143729
 20
37.20622965678604
 30
0.0
 10
4.542176409900889
 20
37.19409111031718
 30
0.0
 10
4.564693944701346
 20
37.17725359074802
 30
0.0
 10
4.58665794373698
 20
37.15714975409736
 30
0.0
 10
4.606760699654671
 20
37.13518390010859
 30
0.0
 10
4.623598485108232
 20
37.11266420453688
 30
0.0
 10
4.635737053180392
 20
37.09213547094902
 30
0.0
 10
4.644053335774316
 20
37.07389496176006
 30
0.0
 10
4.651183571856691
 20
37.05334585238575
 30
0.0
 10
4.653905051722148
 20
37.03763734253636
 30
0.0
 10
4.65467531652952
 20
37.02742955806156
 30
0.0
 11
4.456936245393436
 21
37.22516862919758
 31
0.0
 11
4.487185240000556
 21
37.21983546853091
 31
0.0
 11
4.502972458557763
 21
37.21442857068593
 31
0.0
 11
4.519152466549797
 21
37.20708306466008
 31
0.0
 11
4.541235378483676
 21
37.19413505621492
 31
0.0
 11
4.563720391924235
 21
37.17742784018282
 31
0.0
 11
4.586337245172401
 21
37.15683055784052
 31
0.0
 11
4.606935226521628
 21
37.13421010648375
 31
0.0
 11
4.623642707895029
 21
37.11172285008866
 31
0.0
 11
4.636590660475889
 21
37.08963914496059
 31
0.0
 11
4.643935987548587
 21
37.07345952301836
 31
0.0
 11
4.649342645047767
 21
37.05767353988608
 31
0.0
 11
4.65467531652952
 21
37.02742955806156
 31
0.0
  0
SPLINE
  5
114
330
2
100
AcDbEntity
  8
GAIKEI
  6
Continuous
 62
     1
100
AcDbSpline
210
0.0
220
0.0
230
1.0
 70
     8
 71
     3
 72
    19
 73
    15
 74
    13
 42
0.0000000001
 43
0.0000000001
 44
0.000001
 12
-0.9971663916999085
 22
-0.0752275698410132
 32
0.0
 13
-0.0752446515492926
 23
-0.9971651028857888
 33
0.0
 40
0.0
 40
0.0
 40
0.0
 40
0.0
 40
0.0307154356042598
 40
0.0474030577681489
 40
0.0651725077626261
 40
0.0907715901709421
 40
0.1187843457902642
 40
0.1493748434978266
 40
0.1799684721688065
 40
0.2079831863987482
 40
0.2335829247506263
 40
0.2513519491800711
 40
0.268038324553364
 40
0.298748738842672
 40
0.298748738842672
 40
0.298748738842672
 40
0.298748738842672
 10
-45.87678527680428
 20
37.22516862919758
 30
0.0
 10
-45.88699474350128
 20
37.22439841333852
 30
0.0
 10
-45.90270536805876
 20
37.22167674347486
 30
0.0
 10
-45.92325669160262
 20
37.2145460736042
 30
0.0
 10
-45.94149752455458
 20
37.20622965678615
 30
0.0
 10
-45.96202544131172
 20
37.194091110317
 30
0.0
 10
-45.98454297611222
 20
37.17725359074819
 30
0.0
 10
-46.0065069751478
 20
37.15714975409719
 30
0.0
 10
-46.02660973106554
 20
37.13518390010859
 30
0.0
 10
-46.04344751651905
 20
37.11266420453683
 30
0.0
 10
-46.05558608459126
 20
37.09213547094908
 30
0.0
 10
-46.06390236718514
 20
37.07389496176006
 30
0.0
 10
-46.07103260326754
 20
37.05334585238569
 30
0.0
 10
-46.073754083133
 20
37.03763734253636
 30
0.0
 10
-46.07452434794038
 20
37.02742955806156
 30
0.0
 11
-45.87678527680428
 21
37.22516862919758
 31
0.0
 11
-45.90703427141138
 21
37.21983546853091
 31
0.0
 11
-45.92282148996861
 21
37.21442857068593
 31
0.0
 11
-45.93900149796064
 21
37.20708306466008
 31
0.0
 11
-45.96108440989451
 21
37.19413505621492
 31
0.0
 11
-45.98356942333509
 21
37.17742784018282
 31
0.0
 11
-46.00618627658323
 21
37.15683055784052
 31
0.0
 11
-46.02678425793249
 21
37.13421010648375
 31
0.0
 11
-46.04349173930586
 21
37.11172285008866
 31
0.0
 11
-46.05643969188673
 21
37.08963914496059
 31
0.0
 11
-46.06378501895943
 21
37.07345952301836
 31
0.0
 11
-46.06919167645862
 21
37.05767353988608
 31
0.0
 11
-46.07452434794038
 21
37.02742955806156
 31
0.0
  0
SPLINE
  5
115
330
2
100
AcDbEntity
  8
GAIKEI
  6
Continuous
 62
     1
100
AcDbSpline
210
0.0
220
0.0
230
1.0
 70
     8
 71
     3
 72
    15
 73
    11
 74
     9
 42
0.0000000001
 43
0.0000000001
 44
0.000001
 12
-0.2924958065310857
 22
0.9562668054270888
 32
0.0
 13
-0.9560185359242824
 23
0.2933062545688235
 33
0.0
 40
0.0
 40
0.0
 40
0.0
 40
0.0
 40
0.0168063404896338
 40
0.0336211194742906
 40
0.05035831261842
 40
0.067000842935413
 40
0.0837880166497287
 40
0.1004733571095651
 40
0.1170568982760898
 40
0.1337837633035091
 40
0.1337837633035091
 40
0.1337837633035091
 40
0.1337837633035091
 10
2.407553442513517
 20
35.03957266855713
 30
0.0
 10
2.405914847808062
 20
35.04492978373412
 30
0.0
 10
2.401985267755065
 20
35.05545994429423
 30
0.0
 10
2.394229597170806
 20
35.07039213720338
 30
0.0
 10
2.384733852098605
 20
35.08421975988523
 30
0.0
 10
2.373623984141715
 20
35.09677370208687
 30
0.0
 10
2.361069301209113
 20
35.10785799862958
 30
0.0
 10
2.347265622862778
 20
35.11730633827358
 30
0.0
 10
2.332438168202955
 20
35.12499819208597
 30
0.0
 10
2.322007813442937
 20
35.12889754254036
 30
0.0
 10
2.316677415771565
 20
35.130532907251
 30
0.0
 11
2.407553442513517
 21
35.03957266855713
 31
0.0
 11
2.401675041483073
 21
35.05531783881469
 31
0.0
 11
2.393922020754544
 21
35.07023853325177
 31
0.0
 11
2.384445771659457
 21
35.08403472679186
 31
0.0
 11
2.373415962259471
 21
35.09649738864414
 31
0.0
 11
2.360831920972387
 21
35.10760828239893
 31
0.0
 11
2.347064084674187
 21
35.11703419831315
 31
0.0
 11
2.332344706283578
 21
35.12467313640576
 31
0.0
 11
2.316677415771565
 21
35.130532907251
 31
0.0
  0
SPLINE
  5
116
330
2
100
AcDbEntity
  8
GAIKEI
  6
Continuous
 62
     1
100
AcDbSpline
210
0.0
220
0.0
230
1.0
 70
     8
 71
     3
 72
    15
 73
    11
 74
     9
 42
0.0000000001
 43
0.0000000001
 44
0.000001
 12
0.9999398593324002
 22
0.0109671198725969
 32
0.0
 13
-0.0109745129035742
 23
-0.9999397782199332
 33
0.0
 40
0.0
 40
0.0
 40
0.0
 40
0.0
 40
0.0144545412891253
 40
0.0288481230524442
 40
0.0432449733897656
 40
0.0575864329608035
 40
0.0720053976517272
 40
0.0863379338911846
 40
0.1007485460548398
 40
0.1151186774904425
 40
0.1151186774904425
 40
0.1151186774904425
 40
0.1151186774904425
 10
2.822416619819932
 20
35.62097852860461
 30
0.0
 10
2.827234510481048
 20
35.62103137016698
 30
0.0
 10
2.836888151077687
 20
35.62020920831435
 30
0.0
 10
2.850816109504535
 20
35.61615374484381
 30
0.0
 10
2.863635201718309
 20
35.60942965395304
 30
0.0
 10
2.874852622986381
 20
35.60026769334627
 30
0.0
 10
2.883985253954037
 20
35.58905230057423
 30
0.0
 10
2.890693768458476
 20
35.57621505450839
 30
0.0
 10
2.894721189162524
 20
35.56232448874619
 30
0.0
 10
2.895535785947359
 20
35.55269395520759
 30
0.0
 10
2.895483217549738
 20
35.54790419986068
 30
0.0
 11
2.822416619819932
 21
35.62097852860461
 31
0.0
 11
2.83681815174809
 21
35.61973547781281
 31
0.0
 11
2.850636768820635
 21
35.61570783005834
 31
0.0
 11
2.863383408683503
 21
35.60901501279705
 31
0.0
 11
2.874489982434255
 21
35.59994181469068
 31
0.0
 11
2.883595734148357
 21
35.58876177482944
 31
0.0
 11
2.890239225302039
 21
35.57606189558419
 31
0.0
 11
2.894255958814071
 21
35.56222236777887
 31
0.0
 11
2.895483217549738
 21
35.54790419986068
 31
0.0
  0
SPLINE
  5
117
330
2
100
AcDbEntity
  8
GAIKEI
  6
Continuous
 62
     1
100
AcDbSpline
210
0.0
220
0.0
230
1.0
 70
     8
 71
     3
 72
    15
 73
    11
 74
     9
 42
0.0000000001
 43
0.0000000001
 44
0.000001
 12
-0.9999398593324002
 22
0.0109671198725968
 32
0.0
 13
0.0109745129035741
 23
-0.9999397782199332
 33
0.0
 40
0.0
 40
0.0
 40
0.0
 40
0.0
 40
0.0144545412891253
 40
0.0288481230524579
 40
0.0432449733897824
 40
0.0575864329608231
 40
0.0720053976517423
 40
0.086337933891198
 40
0.1007485460548502
 40
0.1151186774904529
 40
0.1151186774904529
 40
0.1151186774904529
 40
0.1151186774904529
 10
-44.24226565123077
 20
35.62097852860461
 30
0.0
 10
-44.24708354189188
 20
35.62103137016698
 30
0.0
 10
-44.25673718248852
 20
35.62020920831435
 30
0.0
 10
-44.27066514091539
 20
35.61615374484387
 30
0.0
 10
-44.28348423312914
 20
35.60942965395304
 30
0.0
 10
-44.29470165439723
 20
35.60026769334633
 30
0.0
 10
-44.30383428536487
 20
35.58905230057417
 30
0.0
 10
-44.31054279986933
 20
35.57621505450839
 30
0.0
 10
-44.31457022057337
 20
35.5623244887463
 30
0.0
 10
-44.31538481735819
 20
35.55269395520759
 30
0.0
 10
-44.31533224896057
 20
35.54790419986068
 30
0.0
 11
-44.24226565123077
 21
35.62097852860461
 31
0.0
 11
-44.25666718315892
 21
35.61973547781281
 31
0.0
 11
-44.27048580023148
 21
35.61570783005834
 31
0.0
 11
-44.28323244009435
 21
35.60901501279705
 31
0.0
 11
-44.2943390138451
 21
35.59994181469068
 31
0.0
 11
-44.3034447655592
 21
35.58876177482944
 31
0.0
 11
-44.31008825671288
 21
35.57606189558419
 31
0.0
 11
-44.3141049902249
 21
35.56222236777887
 31
0.0
 11
-44.31533224896057
 21
35.54790419986068
 31
0.0
  0
SPLINE
  5
118
330
2
100
AcDbEntity
  8
GAIKEI
  6
Continuous
 62
     1
100
AcDbSpline
210
0.0
220
0.0
230
1.0
 70
     8
 71
     3
 72
    15
 73
    11
 74
     9
 42
0.0000000001
 43
0.0000000001
 44
0.000001
 12
0.2924958065310856
 22
0.9562668054270886
 32
0.0
 13
0.9560185359243778
 23
0.293306254568513
 33
0.0
 40
0.0
 40
0.0
 40
0.0
 40
0.0
 40
0.0168063404896351
 40
0.0336211194742837
 40
0.050358312618413
 40
0.0670008429354108
 40
0.0837880166497184
 40
0.1004733571095696
 40
0.1170568982760847
 40
0.1337837633035007
 40
0.1337837633035007
 40
0.1337837633035007
 40
0.1337837633035007
 10
-43.82740247392435
 20
35.03957266855713
 30
0.0
 10
-43.82576387921889
 20
35.04492978373412
 30
0.0
 10
-43.82183429916587
 20
35.05545994429429
 30
0.0
 10
-43.81407862858167
 20
35.07039213720338
 30
0.0
 10
-43.80458288350944
 20
35.08421975988517
 30
0.0
 10
-43.79347301555253
 20
35.09677370208675
 30
0.0
 10
-43.78091833261997
 20
35.10785799862958
 30
0.0
 10
-43.76711465427362
 20
35.11730633827358
 30
0.0
 10
-43.7522871996138
 20
35.12499819208585
 30
0.0
 10
-43.74185684485378
 20
35.12889754254036
 30
0.0
 10
-43.73652644718241
 20
35.130532907251
 30
0.0
 11
-43.82740247392435
 21
35.03957266855713
 31
0.0
 11
-43.82152407289391
 21
35.05531783881469
 31
0.0
 11
-43.81377105216539
 21
35.07023853325177
 31
0.0
 11
-43.8042948030703
 21
35.08403472679186
 31
0.0
 11
-43.79326499367031
 21
35.09649738864414
 31
0.0
 11
-43.78068095238323
 21
35.10760828239893
 31
0.0
 11
-43.76691311608502
 21
35.11703419831315
 31
0.0
 11
-43.75219373769442
 21
35.12467313640576
 31
0.0
 11
-43.73652644718241
 21
35.130532907251
 31
0.0
  0
SPLINE
  5
119
330
2
100
AcDbEntity
  8
GAIKEI
  6
Continuous
 62
     1
100
AcDbSpline
210
0.0
220
0.0
230
1.0
 70
     8
 71
     3
 72
    15
 73
    11
 74
     9
 42
0.0000000001
 43
0.0000000001
 44
0.000001
 12
-0.9560175965648596
 22
0.2933093163510996
 32
0.0
 13
-0.2924928147296205
 23
0.9562677205320401
 33
0.0
 40
0.0
 40
0.0
 40
0.0
 40
0.0
 40
0.016806382719163
 40
0.0336212646659093
 40
0.0503584224868288
 40
0.0670009486666065
 40
0.0837881260373797
 40
0.1004733754750064
 40
0.1170569269589584
 40
0.133783763042594
 40
0.133783763042594
 40
0.133783763042594
 40
0.133783763042594
 10
-43.73652644718222
 20
9.090604686674055
 30
0.0
 10
-43.74188217972027
 20
9.092247842882613
 30
0.0
 10
-43.75240898220975
 20
9.096186622289962
 30
0.0
 10
-43.76733407863852
 20
9.103956080559783
 30
0.0
 10
-43.78115269422522
 20
9.113464991434
 30
0.0
 10
-43.79369588963366
 20
9.124586981794266
 30
0.0
 10
-43.80476802570769
 20
9.137152341909882
 30
0.0
 10
-43.81420322378302
 20
9.150964956239477
 30
0.0
 10
-43.82188139597629
 20
9.165799429569005
 30
0.0
 10
-43.82577164746875
 20
9.176233147563607
 30
0.0
 10
-43.82740247392462
 20
9.181564925368093
 30
0.0
 11
-43.73652644718222
 21
9.090604686674055
 31
0.0
 11
-43.75226652168453
 21
9.09649684417775
 31
0.0
 11
-43.76718018298862
 21
9.104263608556095
 31
0.0
 11
-43.78096735097379
 21
9.113752922087257
 31
0.0
 11
-43.79341937382865
 21
9.12479473468079
 31
0.0
 11
-43.80451813865002
 21
9.137389479496277
 31
0.0
 11
-43.81393094990258
 21
9.151166168225927
 31
0.0
 11
-43.82155638876634
 21
9.165892555868595
 31
0.0
 11
-43.82740247392462
 21
9.181564925368093
 31
0.0
  0
SPLINE
  5
11A
330
2
100
AcDbEntity
  8
GAIKEI
  6
Continuous
 62
     1
100
AcDbSpline
210
0.0
220
0.0
230
1.0
 70
     8
 71
     3
 72
    15
 73
    11
 74
     9
 42
0.0000000001
 43
0.0000000001
 44
0.000001
 12
-0.0109562642203222
 22
-0.999939978335867
 32
0.0
 13
0.9999396584535913
 23
0.0109854199608156
 33
0.0
 40
0.0
 40
0.0
 40
0.0
 40
0.0
 40
0.0144545160023279
 40
0.0288481527290777
 40
0.0432449883425921
 40
0.0575864997006204
 40
0.0720054578610227
 40
0.0863379547938092
 40
0.100748565253515
 40
0.115118677686571
 40
0.115118677686571
 40
0.115118677686571
 40
0.115118677686571
 10
-44.31533224896038
 20
8.673233394064709
 30
0.0
 10
-44.31538503812588
 20
8.668415511258615
 30
0.0
 10
-44.3145630469277
 20
8.658761894789336
 30
0.0
 10
-44.31050879735415
 20
8.644833638660998
 30
0.0
 10
-44.303786490752
 20
8.632013623436989
 30
0.0
 10
-44.29462642751675
 20
8.62079465854731
 30
0.0
 10
-44.28341255976294
 20
8.61166012683816
 30
0.0
 10
-44.27057621878756
 20
8.604949826705308
 30
0.0
 10
-44.25668595955266
 20
8.600921207386022
 30
0.0
 10
-44.24705539967014
 20
8.600106444747609
 30
0.0
 10
-44.24226565123072
 20
8.600159065320951
 30
0.0
 11
-44.31533224896038
 21
8.673233394064709
 31
0.0
 11
-44.31408948236645
 21
8.658831863911927
 31
0.0
 11
-44.31006297178714
 21
8.645012858296581
 31
0.0
 11
-44.30337188189906
 21
8.632265328277981
 31
0.0
 11
-44.29430046990865
 21
8.621157228805998
 31
0.0
 11
-44.2831219224231
 21
8.612049655377177
 31
0.0
 11
-44.27042297118747
 21
8.60540447520043
 31
0.0
 11
-44.25658377771301
 21
8.601386595698954
 31
0.0
 11
-44.24226565123072
 21
8.600159065320951
 31
0.0
  0
SPLINE
  5
11B
330
2
100
AcDbEntity
  8
GAIKEI
  6
Continuous
 62
     1
100
AcDbSpline
210
0.0
220
0.0
230
1.0
 70
     8
 71
     3
 72
    15
 73
    11
 74
     9
 42
0.0000000001
 43
0.0000000001
 44
0.000001
 12
0.0109562642203223
 22
-0.999939978335867
 32
0.0
 13
-0.9999396584535913
 23
0.0109854199608153
 33
0.0
 40
0.0
 40
0.0
 40
0.0
 40
0.0
 40
0.0144545160023285
 40
0.0288481527290773
 40
0.0432449883425933
 40
0.0575864997006172
 40
0.0720054578610167
 40
0.0863379547938189
 40
0.1007485652535077
 40
0.1151186776865673
 40
0.1151186776865673
 40
0.1151186776865673
 40
0.1151186776865673
 10
2.895483217549553
 20
8.673233394064709
 30
0.0
 10
2.895536006715047
 20
8.668415511258615
 30
0.0
 10
2.894714015516868
 20
8.658761894789336
 30
0.0
 10
2.890659765943325
 20
8.644833638661054
 30
0.0
 10
2.883937459341154
 20
8.632013623436932
 30
0.0
 10
2.874777396105926
 20
8.62079465854731
 30
0.0
 10
2.863563528352116
 20
8.61166012683816
 30
0.0
 10
2.850727187376705
 20
8.604949826705365
 30
0.0
 10
2.836836928141835
 20
8.600921207385965
 30
0.0
 10
2.827206368259311
 20
8.600106444747609
 30
0.0
 10
2.82241661981989
 20
8.600159065320951
 30
0.0
 11
2.895483217549553
 21
8.673233394064709
 31
0.0
 11
2.894240450955607
 21
8.658831863911927
 31
0.0
 11
2.890213940376312
 21
8.645012858296581
 31
0.0
 11
2.883522850488219
 21
8.632265328277981
 31
0.0
 11
2.874451438497814
 21
8.621157228805998
 31
0.0
 11
2.863272891012272
 21
8.612049655377177
 31
0.0
 11
2.850573939776623
 21
8.60540447520043
 31
0.0
 11
2.836734746302184
 21
8.601386595698954
 31
0.0
 11
2.82241661981989
 21
8.600159065320951
 31
0.0
  0
SPLINE
  5
11C
330
2
100
AcDbEntity
  8
GAIKEI
  6
Continuous
 62
     1
100
AcDbSpline
210
0.0
220
0.0
230
1.0
 70
     8
 71
     3
 72
    15
 73
    11
 74
     9
 42
0.0000000001
 43
0.0000000001
 44
0.000001
 12
0.9560175965647365
 22
0.2933093163515013
 32
0.0
 13
0.2924928147293096
 23
0.9562677205321351
 33
0.0
 40
0.0
 40
0.0
 40
0.0
 40
0.0
 40
0.0168063827191663
 40
0.0336212646659001
 40
0.0503584224868137
 40
0.067000948666594
 40
0.0837881260373742
 40
0.100473375475003
 40
0.1170569269589534
 40
0.1337837630425902
 40
0.1337837630425902
 40
0.1337837630425902
 40
0.1337837630425902
 10
2.316677415771394
 20
9.090604686674055
 30
0.0
 10
2.322033148309429
 20
9.092247842882613
 30
0.0
 10
2.332559950798909
 20
9.096186622289906
 30
0.0
 10
2.347485047227706
 20
9.103956080559839
 30
0.0
 10
2.361303662814378
 20
9.113464991434057
 30
0.0
 10
2.373846858222833
 20
9.124586981794209
 30
0.0
 10
2.384918994296853
 20
9.137152341909882
 30
0.0
 10
2.394354192372176
 20
9.15096495623942
 30
0.0
 10
2.402032364565442
 20
9.165799429569062
 30
0.0
 10
2.405922616057921
 20
9.176233147563607
 30
0.0
 10
2.407553442513787
 20
9.181564925368093
 30
0.0
 11
2.316677415771394
 21
9.090604686674055
 31
0.0
 11
2.332417490273698
 21
9.09649684417775
 31
0.0
 11
2.347331151577776
 21
9.104263608556095
 31
0.0
 11
2.361118319562947
 21
9.113752922087257
 31
0.0
 11
2.373570342417806
 21
9.12479473468079
 31
0.0
 11
2.38466910723919
 21
9.137389479496277
 31
0.0
 11
2.39408191849175
 21
9.151166168225927
 31
0.0
 11
2.401707357355505
 21
9.165892555868595
 31
0.0
 11
2.407553442513787
 21
9.181564925368093
 31
0.0
  0
LINE
  5
11D
330
2
100
AcDbEntity
  8
GAIKEI
  6
Continuous
 62
     1
100
AcDbLine
 10
4.427846284294574
 20
36.80060049696272
 30
0.0
 11
4.427846284294574
 21
7.420537096962675
 31
0.0
  0
LINE
  5
11E
330
2
100
AcDbEntity
  8
GAIKEI
  6
Continuous
 62
     1
100
AcDbLine
 10
-45.84769531570542
 20
36.80060049696272
 30
0.0
 11
-45.84769531570542
 21
7.420537096962675
 31
0.0
  0
LINE
  5
11F
330
2
100
AcDbEntity
  8
GAIKEI
  6
Continuous
 62
     1
100
AcDbLine
 10
4.230107184294595
 20
7.222797996962697
 30
0.0
 11
-45.64995621570543
 21
7.222797996962697
 31
0.0
  0
LINE
  5
120
330
2
100
AcDbEntity
  8
GAIKEI
  6
Continuous
 62
     1
100
AcDbLine
 10
-44.47388941570544
 20
35.55484204696268
 30
0.0
 11
-44.47388941570544
 21
8.666295546962714
 31
0.0
  0
LINE
  5
121
330
2
100
AcDbEntity
  8
GAIKEI
  6
Continuous
 62
     1
100
AcDbLine
 10
2.829348734294583
 20
8.441603896962703
 30
0.0
 11
-44.24919776570542
 21
8.441603896962703
 31
0.0
  0
LINE
  5
122
330
2
100
AcDbEntity
  8
GAIKEI
  6
Continuous
 62
     1
100
AcDbLine
 10
3.054040384294594
 20
35.55484204696268
 30
0.0
 11
3.054040384294594
 21
8.666295546962714
 31
0.0
  0
LINE
  5
123
330
2
100
AcDbEntity
  8
GAIKEI
  6
Continuous
 62
     1
100
AcDbLine
 10
-44.24919776570542
 20
35.77953369696269
 30
0.0
 11
2.829348734294583
 21
35.77953369696269
 31
0.0
  0
LINE
  5
124
330
2
100
AcDbEntity
  8
GAIKEI
  6
Continuous
 62
     1
100
AcDbLine
 10
-45.21617451570541
 20
7.479318796962729
 30
0.0
 11
-45.10367451570542
 21
7.479318796962729
 31
0.0
  0
LINE
  5
125
330
2
100
AcDbEntity
  8
GAIKEI
  6
Continuous
 62
     1
100
AcDbLine
 10
-45.21617451570541
 20
7.591818796962684
 30
0.0
 11
-45.10367451570542
 21
7.591818796962684
 31
0.0
  0
LINE
  5
126
330
2
100
AcDbEntity
  8
GAIKEI
  6
Continuous
 62
     1
100
AcDbLine
 10
-43.26992451570541
 20
7.38547364696268
 30
0.0
 11
-43.26992451570541
 21
7.685663946962677
 31
0.0
  0
LINE
  5
127
330
2
100
AcDbEntity
  8
GAIKEI
  6
Continuous
 62
     1
100
AcDbLine
 10
-43.61992451570542
 20
7.38547364696268
 30
0.0
 11
-43.61992451570542
 21
7.685663946962677
 31
0.0
  0
LINE
  5
128
330
2
100
AcDbEntity
  8
GAIKEI
  6
Continuous
 62
     1
100
AcDbLine
 10
-45.10367451570542
 20
7.479318796962729
 30
0.0
 11
-45.10367451570542
 21
7.591818796962684
 31
0.0
  0
LINE
  5
129
330
2
100
AcDbEntity
  8
GAIKEI
  6
Continuous
 62
     1
100
AcDbLine
 10
-45.21617451570541
 20
7.479318796962729
 30
0.0
 11
-45.21617451570541
 21
7.591818796962684
 31
0.0
  0
LINE
  5
12A
330
2
100
AcDbEntity
  8
GAIKEI
  6
Continuous
 62
     1
100
AcDbLine
 10
-43.59501966570543
 20
7.710568796962661
 30
0.0
 11
-43.29482936570539
 21
7.710568796962661
 31
0.0
  0
LINE
  5
12B
330
2
100
AcDbEntity
  8
GAIKEI
  6
Continuous
 62
     1
100
AcDbLine
 10
-43.59501966570543
 20
7.360568796962695
 30
0.0
 11
-43.29482936570539
 21
7.360568796962695
 31
0.0
  0
LINE
  5
12C
330
2
100
AcDbEntity
  8
GAIKEI
  6
Continuous
 62
     1
100
AcDbLine
 10
-45.64995621570543
 20
36.99833959696269
 30
0.0
 11
4.230107184294595
 21
36.99833959696269
 31
0.0
  0
LINE
  5
12D
330
2
100
AcDbEntity
  8
GAIKEI
  6
Continuous
 62
     1
100
AcDbLine
 10
4.427846284294574
 20
7.420537096962675
 30
0.0
 11
4.654675334294594
 21
7.193708046962683
 31
0.0
  0
LINE
  5
12E
330
2
100
AcDbEntity
  8
GAIKEI
  6
Continuous
 62
     1
100
AcDbLine
 10
4.456936234294602
 20
6.995968946962648
 30
0.0
 11
4.230107184294595
 21
7.222797996962697
 31
0.0
  0
LINE
  5
12F
330
2
100
AcDbEntity
  8
GAIKEI
  6
Continuous
 62
     1
100
AcDbLine
 10
-45.87678526570543
 20
6.995968946962648
 30
0.0
 11
-45.64995621570543
 21
7.222797996962697
 31
0.0
  0
LINE
  5
130
330
2
100
AcDbEntity
  8
GAIKEI
  6
Continuous
 62
     1
100
AcDbLine
 10
-45.84769531570542
 20
7.420537096962675
 30
0.0
 11
-46.07452436570542
 21
7.193708046962683
 31
0.0
  0
LINE
  5
131
330
2
100
AcDbEntity
  8
GAIKEI
  6
Continuous
 62
     1
100
AcDbLine
 10
4.230107184294595
 20
36.99833959696269
 30
0.0
 11
4.456936234294602
 21
37.22516864696269
 31
0.0
  0
LINE
  5
132
330
2
100
AcDbEntity
  8
GAIKEI
  6
Continuous
 62
     1
100
AcDbLine
 10
4.654675334294594
 20
37.02742954696271
 30
0.0
 11
4.427846284294574
 21
36.80060049696272
 31
0.0
  0
LINE
  5
133
330
2
100
AcDbEntity
  8
GAIKEI
  6
Continuous
 62
     1
100
AcDbLine
 10
-46.07452436570542
 20
37.02742954696271
 30
0.0
 11
-45.84769531570542
 21
36.80060049696272
 31
0.0
  0
LINE
  5
134
330
2
100
AcDbEntity
  8
GAIKEI
  6
Continuous
 62
     1
100
AcDbLine
 10
-45.64995621570543
 20
36.99833959696269
 30
0.0
 11
-45.87678526570543
 21
37.22516864696269
 31
0.0
  0
LINE
  5
135
330
2
100
AcDbEntity
  8
GAIKEI
  6
Continuous
 62
     1
100
AcDbLine
 10
-45.87678526570543
 20
6.995968946962648
 30
0.0
 11
4.456936234294602
 21
6.995968946962648
 31
0.0
  0
LINE
  5
136
330
2
100
AcDbEntity
  8
GAIKEI
  6
Continuous
 62
     1
100
AcDbLine
 10
-46.07452436570542
 20
7.193708046962683
 30
0.0
 11
-46.07452436570542
 21
37.02742954696271
 31
0.0
  0
LINE
  5
137
330
2
100
AcDbEntity
  8
GAIKEI
  6
Continuous
 62
     1
100
AcDbLine
 10
4.654675334294594
 20
7.193708046962683
 30
0.0
 11
4.654675334294594
 21
37.02742954696271
 31
0.0
  0
LINE
  5
138
330
2
100
AcDbEntity
  8
GAIKEI
  6
Continuous
 62
     1
100
AcDbLine
 10
4.456936234294602
 20
37.22516864696269
 30
0.0
 11
-45.87678526570543
 21
37.22516864696269
 31
0.0
  0
LINE
  5
139
330
2
100
AcDbEntity
  8
GAIKEI
  6
Continuous
 62
     1
100
AcDbLine
 10
2.804676234294575
 20
35.62076439696273
 30
0.0
 11
2.316677434294561
 21
35.13053289696268
 31
0.0
  0
LINE
  5
13A
330
2
100
AcDbEntity
  8
GAIKEI
  6
Continuous
 62
     1
100
AcDbLine
 10
2.804676234294575
 20
35.62076439696273
 30
0.0
 11
2.822416634294583
 21
35.62097854696271
 31
0.0
  0
LINE
  5
13B
330
2
100
AcDbEntity
  8
GAIKEI
  6
Continuous
 62
     1
100
AcDbLine
 10
2.895483234294573
 20
35.54790419696269
 30
0.0
 11
2.895261384294599
 21
35.52951194696266
 31
0.0
  0
LINE
  5
13C
330
2
100
AcDbEntity
  8
GAIKEI
  6
Continuous
 62
     1
100
AcDbLine
 10
2.407553434294598
 20
35.03957264696271
 30
0.0
 11
2.895261384294599
 21
35.52951194696266
 31
0.0
  0
LINE
  5
13D
330
2
100
AcDbEntity
  8
GAIKEI
  6
Continuous
 62
     1
100
AcDbLine
 10
-44.3153322657054
 20
35.54790419696269
 30
0.0
 11
-44.31511041570543
 21
35.52951194696266
 31
0.0
  0
LINE
  5
13E
330
2
100
AcDbEntity
  8
GAIKEI
  6
Continuous
 62
     1
100
AcDbLine
 10
-44.22452526570542
 20
35.62076439696273
 30
0.0
 11
-44.24226566570543
 21
35.62097854696271
 31
0.0
  0
LINE
  5
13F
330
2
100
AcDbEntity
  8
GAIKEI
  6
Continuous
 62
     1
100
AcDbLine
 10
-44.22452526570542
 20
35.62076439696273
 30
0.0
 11
-43.7365264657054
 21
35.13053289696268
 31
0.0
  0
LINE
  5
140
330
2
100
AcDbEntity
  8
GAIKEI
  6
Continuous
 62
     1
100
AcDbLine
 10
-43.82740246570543
 20
35.03957264696271
 30
0.0
 11
-44.31511041570543
 21
35.52951194696266
 31
0.0
  0
LINE
  5
141
330
2
100
AcDbEntity
  8
GAIKEI
  6
Continuous
 62
     1
100
AcDbLine
 10
-43.7365264657054
 20
9.090604696962714
 30
0.0
 11
-44.22452526570542
 21
8.600373196962664
 31
0.0
  0
LINE
  5
142
330
2
100
AcDbEntity
  8
GAIKEI
  6
Continuous
 62
     1
100
AcDbLine
 10
-44.24226566570543
 20
8.600159046962687
 30
0.0
 11
-44.22452526570542
 21
8.600373196962664
 31
0.0
  0
LINE
  5
143
330
2
100
AcDbEntity
  8
GAIKEI
  6
Continuous
 62
     1
100
AcDbLine
 10
-44.31511041570543
 20
8.691625646962734
 30
0.0
 11
-44.3153322657054
 21
8.6732333969627
 31
0.0
  0
LINE
  5
144
330
2
100
AcDbEntity
  8
GAIKEI
  6
Continuous
 62
     1
100
AcDbLine
 10
-44.31511041570543
 20
8.691625646962734
 30
0.0
 11
-43.82740246570543
 21
9.18156494696268
 31
0.0
  0
LINE
  5
145
330
2
100
AcDbEntity
  8
GAIKEI
  6
Continuous
 62
     1
100
AcDbLine
 10
2.895261384294599
 20
8.691625646962734
 30
0.0
 11
2.895483234294573
 21
8.6732333969627
 31
0.0
  0
LINE
  5
146
330
2
100
AcDbEntity
  8
GAIKEI
  6
Continuous
 62
     1
100
AcDbLine
 10
2.822416634294583
 20
8.600159046962687
 30
0.0
 11
2.804676234294575
 21
8.600373196962664
 31
0.0
  0
LINE
  5
147
330
2
100
AcDbEntity
  8
GAIKEI
  6
Continuous
 62
     1
100
AcDbLine
 10
2.316677434294561
 20
9.090604696962714
 30
0.0
 11
2.804676234294575
 21
8.600373196962664
 31
0.0
  0
LINE
  5
148
330
2
100
AcDbEntity
  8
GAIKEI
  6
Continuous
 62
     1
100
AcDbLine
 10
2.895261384294599
 20
8.691625646962734
 30
0.0
 11
2.407553434294598
 21
9.18156494696268
 31
0.0
  0
LINE
  5
149
330
2
100
AcDbEntity
  8
GAIKEI
  6
Continuous
 62
     1
100
AcDbLine
 10
-44.22452526570542
 20
35.62076439696273
 30
0.0
 11
2.804676234294575
 21
35.62076439696273
 31
0.0
  0
LINE
  5
14A
330
2
100
AcDbEntity
  8
GAIKEI
  6
Continuous
 62
     1
100
AcDbLine
 10
2.804676234294575
 20
8.600373196962664
 30
0.0
 11
-44.22452526570542
 21
8.600373196962664
 31
0.0
  0
LINE
  5
14B
330
2
100
AcDbEntity
  8
GAIKEI
  6
Continuous
 62
     1
100
AcDbLine
 10
-44.31511041570543
 20
35.52951194696266
 30
0.0
 11
-44.31511041570543
 21
8.691625646962734
 31
0.0
  0
LINE
  5
14C
330
2
100
AcDbEntity
  8
GAIKEI
  6
Continuous
 62
     1
100
AcDbLine
 10
2.895261384294599
 20
35.52951194696266
 30
0.0
 11
2.895261384294599
 21
8.691625646962734
 31
0.0
  0
LINE
  5
14D
330
2
100
AcDbEntity
  8
GAIKEI
  6
Continuous
 62
     1
100
AcDbLine
 10
2.270549984294575
 20
35.13788964696272
 30
0.0
 11
-43.6903990157054
 21
35.13788964696272
 31
0.0
  0
LINE
  5
14E
330
2
100
AcDbEntity
  8
GAIKEI
  6
Continuous
 62
     1
100
AcDbLine
 10
-43.6903990157054
 20
9.083247946962671
 30
0.0
 11
2.270549984294575
 21
9.083247946962671
 31
0.0
  0
LINE
  5
14F
330
2
100
AcDbEntity
  8
GAIKEI
  6
Continuous
 62
     1
100
AcDbLine
 10
2.414877834294557
 20
9.227592196962746
 30
0.0
 11
2.414877834294557
 21
34.99354539696265
 31
0.0
  0
LINE
  5
150
330
2
100
AcDbEntity
  8
GAIKEI
  6
Continuous
 62
     1
100
AcDbLine
 10
-43.83472686570541
 20
9.227592196962746
 30
0.0
 11
-43.83472686570541
 21
34.99354539696265
 31
0.0
  0
LINE
  5
151
330
2
100
AcDbEntity
  8
GAIKEI
  6
Continuous
 62
     1
100
AcDbLine
 10
2.355075484294587
 20
34.97881419696273
 30
0.0
 11
2.355075484294587
 21
9.24232339696266
 31
0.0
  0
LINE
  5
152
330
2
100
AcDbEntity
  8
GAIKEI
  6
Continuous
 62
     1
100
AcDbLine
 10
-43.77492451570542
 20
34.97881419696273
 30
0.0
 11
-43.77492451570542
 21
9.24232339696266
 31
0.0
  0
LINE
  5
153
330
2
100
AcDbEntity
  8
GAIKEI
  6
Continuous
 62
     1
100
AcDbLine
 10
2.255820884294593
 20
35.07806879696273
 30
0.0
 11
-43.67566991570543
 21
35.07806879696273
 31
0.0
  0
LINE
  5
154
330
2
100
AcDbEntity
  8
GAIKEI
  6
Continuous
 62
     1
100
AcDbLine
 10
2.255820884294593
 20
9.143068796962666
 30
0.0
 11
-43.67566991570543
 21
9.143068796962666
 31
0.0
  0
LINE
  5
155
330
2
100
AcDbEntity
  8
GAIKEI
  6
Continuous
 62
     1
100
AcDbLine
 10
4.790075484294575
 20
37.16084289696266
 30
0.0
 11
4.654675334294594
 21
37.02544274696271
 31
0.0
  0
LINE
  5
156
330
2
100
AcDbEntity
  8
GAIKEI
  6
Continuous
 62
     1
100
AcDbLine
 10
4.454949434294633
 20
37.22516864696263
 30
0.0
 11
4.590349584294557
 21
37.3605687969627
 31
0.0
  0
LINE
  5
157
330
2
100
AcDbEntity
  8
GAIKEI
  6
Continuous
 62
     1
100
AcDbLine
 10
-45.87479846570542
 20
37.22516864696263
 30
0.0
 11
-46.01019861570541
 21
37.3605687969627
 31
0.0
  0
LINE
  5
158
330
2
100
AcDbEntity
  8
GAIKEI
  6
Continuous
 62
     1
100
AcDbLine
 10
-46.20992451570543
 20
37.16084289696266
 30
0.0
 11
-46.07452436570542
 21
37.02544274696271
 31
0.0
  0
LINE
  5
159
330
2
100
AcDbEntity
  8
GAIKEI
  6
Continuous
 62
     1
100
AcDbLine
 10
4.590349584294557
 20
6.860568796962695
 30
0.0
 11
4.454949434294675
 21
6.995968946962648
 31
0.0
  0
LINE
  5
15A
330
2
100
AcDbEntity
  8
GAIKEI
  6
Continuous
 62
     1
100
AcDbLine
 10
4.654675334294594
 20
7.19569484696268
 30
0.0
 11
4.790075484294575
 21
7.060294696962728
 31
0.0
  0
LINE
  5
15B
330
2
100
AcDbEntity
  8
GAIKEI
  6
Continuous
 62
     1
100
AcDbLine
 10
-46.07452436570542
 20
7.19569484696268
 30
0.0
 11
-46.20992451570543
 21
7.060294696962728
 31
0.0
  0
LINE
  5
15C
330
2
100
AcDbEntity
  8
GAIKEI
  6
Continuous
 62
     1
100
AcDbLine
 10
-46.01019861570541
 20
6.860568796962695
 30
0.0
 11
-45.87479846570542
 21
6.995968946962648
 31
0.0
  0
LINE
  5
15D
330
2
100
AcDbEntity
  8
GAIKEI
  6
Continuous
100
AcDbLine
 10
4.590349584294557
 20
37.3605687969627
 30
0.0
 11
-46.01019861570541
 21
37.3605687969627
 31
0.0
  0
LINE
  5
15E
330
2
100
AcDbEntity
  8
GAIKEI
  6
Continuous
100
AcDbLine
 10
4.590349584294557
 20
6.860568796962695
 30
0.0
 11
-46.01019861570541
 21
6.860568796962695
 31
0.0
  0
LINE
  5
15F
330
2
100
AcDbEntity
  8
GAIKEI
  6
Continuous
100
AcDbLine
 10
-46.20992451570543
 20
37.16084289696266
 30
0.0
 11
-46.20992451570543
 21
7.060294696962728
 31
0.0
  0
LINE
  5
160
330
2
100
AcDbEntity
  8
GAIKEI
  6
Continuous
100
AcDbLine
 10
4.790075484294575
 20
37.16084289696266
 30
0.0
 11
4.790075484294575
 21
7.060294696962728
 31
0.0
  0
ELLIPSE
  5
161
330
2
100
AcDbEntity
  8
GAIKEI
  6
Continuous
 62
     1
100
AcDbEllipse
 10
3.868595034294585
 20
7.782049246962685
 30
0.0
 11
-0.5021965243696157
 21
0.5021965243696128
 31
0.0
210
0.0
220
0.0
230
1.0
 40
0.4928100000000001
 41
2.730628648546607
 42
3.552556658632978
  0
ELLIPSE
  5
162
330
2
100
AcDbEntity
  8
GAIKEI
  6
Continuous
 62
     1
100
AcDbEllipse
 10
-45.28844406570543
 20
7.782049246962685
 30
0.0
 11
-0.5021965243696153
 21
-0.5021965243696134
 31
0.0
210
0.0
220
0.0
230
1.0
 40
0.4928100000000001
 41
5.87222130213642
 42
6.694149312222752
  0
ELLIPSE
  5
163
330
2
100
AcDbEntity
  8
GAIKEI
  6
Continuous
 62
     1
100
AcDbEllipse
 10
-43.29502001570541
 20
7.685473296962697
 30
0.0
 11
-0.0178124651972479
 21
-0.017812465197265
 31
0.0
210
0.0
220
0.0
230
1.0
 40
0.9924329999999999
 41
2.359992588466298
 42
3.92319271871233
  0
ELLIPSE
  5
164
330
2
100
AcDbEntity
  8
GAIKEI
  6
Continuous
 62
     1
100
AcDbEllipse
 10
-44.24858061570541
 20
8.666912696962697
 30
0.0
 11
-0.1595354047728906
 21
-0.1595354047728889
 31
0.0
210
0.0
220
0.0
230
1.0
 40
0.9972650000000001
 41
5.499156671652367
 42
7.067213942706732
  0
ELLIPSE
  5
165
330
2
100
AcDbEntity
  8
GAIKEI
  6
Continuous
 62
     1
100
AcDbEllipse
 10
2.828731584294558
 20
8.666912696962697
 30
0.0
 11
-0.1595354047728908
 21
0.1595354047728888
 31
0.0
210
0.0
220
0.0
230
1.0
 40
0.9972650000000001
 41
2.357564018062646
 42
3.925621289117011
  0
ELLIPSE
  5
166
330
2
100
AcDbEntity
  8
GAIKEI
  6
Continuous
 62
     1
100
AcDbEllipse
 10
2.828731584294558
 20
35.55422489696269
 30
0.0
 11
-0.1595354047729553
 21
-0.1595354047728233
 31
0.0
210
0.0
220
0.0
230
1.0
 40
0.9972650000000001
 41
2.357564018063184
 42
3.925621289117327
  0
ELLIPSE
  5
167
330
2
100
AcDbEntity
  8
GAIKEI
  6
Continuous
 62
     1
100
AcDbEllipse
 10
-44.24858061570541
 20
35.55422489696269
 30
0.0
 11
-0.1595354047729555
 21
0.1595354047728232
 31
0.0
210
0.0
220
0.0
230
1.0
 40
0.9972650000000001
 41
5.499156671652052
 42
7.067213942706194
  0
ELLIPSE
  5
168
330
2
100
AcDbEntity
  8
GAIKEI
  6
Continuous
 62
     1
100
AcDbEllipse
 10
-43.29502001570541
 20
7.385664296962659
 30
0.0
 11
-0.0178124651972535
 21
0.0178124651972591
 31
0.0
210
0.0
220
0.0
230
1.0
 40
0.9924329999999999
 41
2.359992588465879
 42
3.923192718713985
  0
ELLIPSE
  5
169
330
2
100
AcDbEntity
  8
GAIKEI
  6
Continuous
 62
     1
100
AcDbEllipse
 10
-43.59482901570541
 20
7.685473296962697
 30
0.0
 11
-0.0178124651972548
 21
0.0178124651972583
 31
0.0
210
0.0
220
0.0
230
1.0
 40
0.9924329999999999
 41
5.501585242056628
 42
7.064785372302901
  0
ELLIPSE
  5
16A
330
2
100
AcDbEntity
  8
GAIKEI
  6
Continuous
 62
     1
100
AcDbEllipse
 10
-43.59482901570541
 20
7.385664296962659
 30
0.0
 11
-0.0178124651972604
 21
-0.0178124651972525
 31
0.0
210
0.0
220
0.0
230
1.0
 40
0.9924329999999999
 41
5.501585242055452
 42
7.064785372304038
  0
ELLIPSE
  5
16B
330
2
100
AcDbEntity
  8
GAIKEI
  6
Continuous
 62
     1
100
AcDbEllipse
 10
-45.28844406570543
 20
36.43908834696271
 30
0.0
 11
-0.502196524369635
 21
0.502196524369629
 31
0.0
210
0.0
220
0.0
230
1.0
 40
0.4928100000000001
 41
5.8722213021364
 42
6.694149312222771
  0
ELLIPSE
  5
16C
330
2
100
AcDbEntity
  8
GAIKEI
  6
Continuous
 62
     1
100
AcDbEllipse
 10
3.868595034294585
 20
36.43908834696271
 30
0.0
 11
-0.502196524369635
 21
-0.5021965243696292
 31
0.0
210
0.0
220
0.0
230
1.0
 40
0.4928100000000001
 41
2.730628648546607
 42
3.552556658632978
  0
ELLIPSE
  5
16D
330
2
100
AcDbEntity
  8
GAIKEI
  6
Continuous
 62
     1
100
AcDbEllipse
 10
2.26659608429459
 20
34.98505384696267
 30
0.0
 11
-0.0852591893587102
 21
-0.1284167499128905
 31
0.0
210
0.0
220
0.0
230
1.0
 40
0.9720119999999997
 41
3.403155640402645
 42
3.714687518768249
  0
ELLIPSE
  5
16E
330
2
100
AcDbEntity
  8
GAIKEI
  6
Continuous
 62
     1
100
AcDbEllipse
 10
-43.68644511570543
 20
34.98505384696267
 30
0.0
 11
-0.0852591893587101
 21
0.1284167499128906
 31
0.0
210
0.0
220
0.0
230
1.0
 40
0.9720119999999999
 41
5.710090442001129
 42
6.021622320366733
  0
ELLIPSE
  5
16F
330
2
100
AcDbEntity
  8
GAIKEI
  6
Continuous
 62
     1
100
AcDbEllipse
 10
-43.68644511570543
 20
9.236083746962719
 30
0.0
 11
-0.0852591893587031
 21
-0.1284167499128963
 31
0.0
210
0.0
220
0.0
230
1.0
 40
0.9720119999999999
 41
0.2615629868133669
 42
0.5730948651780916
  0
ELLIPSE
  5
170
330
2
100
AcDbEntity
  8
GAIKEI
  6
Continuous
 62
     1
100
AcDbEllipse
 10
2.26659608429459
 20
9.236083746962719
 30
0.0
 11
-0.0852591893587031
 21
0.1284167499128964
 31
0.0
210
0.0
220
0.0
230
1.0
 40
0.9720120000000001
 41
2.568497788411701
 42
2.880029666776426
  0
ELLIPSE
  5
171
330
2
100
AcDbEntity
  8
GAIKEI
  6
Continuous
 62
     1
100
AcDbEllipse
 10
2.262034084294597
 20
9.231553996962702
 30
0.0
 11
-0.1284635822396583
 21
0.085205278687155
 31
0.0
210
0.0
220
0.0
230
1.0
 40
0.9719459999999997
 41
3.40336993521502
 42
3.714202442900464
  0
ELLIPSE
  5
172
330
2
100
AcDbEntity
  8
GAIKEI
  6
Continuous
 62
     1
100
AcDbEllipse
 10
2.262034084294597
 20
34.98958359696269
 30
0.0
 11
-0.1284635822396632
 21
-0.0852052786871471
 31
0.0
210
0.0
220
0.0
230
0.9999999999999996
 40
0.9719459999999997
 41
2.568982864279124
 42
2.879815371962863
  0
ELLIPSE
  5
173
330
2
100
AcDbEntity
  8
GAIKEI
  6
Continuous
 62
     1
100
AcDbEllipse
 10
-43.68188311570543
 20
34.98958359696269
 30
0.0
 11
-0.1284635822396632
 21
0.085205278687147
 31
0.0
210
0.0
220
0.0
230
1.0
 40
0.9719459999999997
 41
0.261777281627073
 42
0.5726097893106687
  0
ELLIPSE
  5
174
330
2
100
AcDbEntity
  8
GAIKEI
  6
Continuous
 62
     1
100
AcDbEllipse
 10
-43.68188311570543
 20
9.231553996962702
 30
0.0
 11
-0.1284635822396583
 21
-0.0852052786871549
 31
0.0
210
0.0
220
0.0
230
1.0
 40
0.9719459999999997
 41
5.710575517868846
 42
6.021408025554217
  0
ELLIPSE
  5
175
330
2
100
AcDbEntity
  8
GAIKEI
  6
Continuous
 62
     1
100
AcDbEllipse
 10
2.254324484294599
 20
9.243819796962725
 30
0.0
 11
-0.0717687988192684
 21
0.0717687988192765
 31
0.0
210
0.0
220
0.0
230
1.0
 40
0.9852569999999998
 41
2.36362083166532
 42
3.91956447551467
  0
ELLIPSE
  5
176
330
2
100
AcDbEntity
  8
GAIKEI
  6
Continuous
 62
     1
100
AcDbEllipse
 10
-43.67417351570543
 20
9.243819796962725
 30
0.0
 11
-0.0717687988192685
 21
-0.0717687988192765
 31
0.0
210
0.0
220
0.0
230
1.0
 40
0.9852569999999998
 41
5.505213485254747
 42
7.061157129104018
  0
ELLIPSE
  5
177
330
2
100
AcDbEntity
  8
GAIKEI
  6
Continuous
 62
     1
100
AcDbEllipse
 10
-43.67417351570543
 20
34.97731779696267
 30
0.0
 11
-0.0717687988192732
 21
0.0717687988192714
 31
0.0
210
0.0
220
0.0
230
1.0
 40
0.9852569999999998
 41
5.505213485254509
 42
7.061157129104899
  0
ELLIPSE
  5
178
330
2
100
AcDbEntity
  8
GAIKEI
  6
Continuous
 62
     1
100
AcDbEllipse
 10
2.254324484294599
 20
34.97731779696267
 30
0.0
 11
-0.0717687988192732
 21
-0.0717687988192713
 31
0.0
210
0.0
220
0.0
230
1.0
 40
0.9852569999999998
 41
2.36362083166448
 42
3.919564475514829
  0
ELLIPSE
  5
179
330
2
100
AcDbEntity
  8
GAIKEI
  6
Continuous
100
AcDbEllipse
 10
4.58980103429458
 20
37.1602943469627
 30
0.0
 11
-0.1418092486870018
 21
-0.1418092486870248
 31
0.0
210
0.0
220
0.0
230
1.0
 40
0.9972649999999999
 41
2.35756401806276
 42
3.925621289116665
  0
ELLIPSE
  5
17A
330
2
100
AcDbEntity
  8
GAIKEI
  6
Continuous
100
AcDbEllipse
 10
-46.00965006570541
 20
37.1602943469627
 30
0.0
 11
-0.1418092486870015
 21
0.141809248687025
 31
0.0
210
0.0
220
0.0
230
1.0
 40
0.9972650000000001
 41
5.499156671652713
 42
7.067213942706619
  0
ELLIPSE
  5
17B
330
2
100
AcDbEntity
  8
GAIKEI
  6
Continuous
100
AcDbEllipse
 10
4.58980103429458
 20
7.06084324696269
 30
0.0
 11
-0.1418092486870132
 21
0.1418092486870135
 31
0.0
210
0.0
220
0.0
230
1.0
 40
0.9972649999999999
 41
2.35756401806288
 42
3.925621289116705
  0
ELLIPSE
  5
17C
330
2
100
AcDbEntity
  8
GAIKEI
  6
Continuous
100
AcDbEllipse
 10
-46.00965006570541
 20
7.06084324696269
 30
0.0
 11
-0.1418092486870132
 21
-0.1418092486870135
 31
0.0
210
0.0
220
0.0
230
1.0
 40
0.9972649999999999
 41
5.499156671652633
 42
7.067213942706539
  0
LINE
  5
17D
330
2
100
AcDbEntity
  8
GAIKEI
  6
Continuous
 62
     1
100
AcDbLine
 10
39.55373835865882
 20
8.160568796962706
 30
0.0
 11
39.68472135865878
 21
8.160568796962706
 31
0.0
  0
LINE
  5
17E
330
2
100
AcDbEntity
  8
GAIKEI
  6
Continuous
 62
     1
100
AcDbLine
 10
41.69235955865881
 20
9.660568796962706
 30
0.0
 11
41.65623835865881
 21
9.660568796962706
 31
0.0
  0
LINE
  5
17F
330
2
100
AcDbEntity
  8
GAIKEI
  6
Continuous
 62
     1
100
AcDbLine
 10
41.69366975865878
 20
9.660568796962706
 30
0.0
 11
41.69235955865881
 21
9.660568796962706
 31
0.0
  0
LINE
  5
180
330
2
100
AcDbEntity
  8
GAIKEI
  6
Continuous
 62
     1
100
AcDbLine
 10
39.79652475865879
 20
8.186961996962679
 30
0.0
 11
41.60554175865877
 21
9.091470496962699
 31
0.0
  0
LINE
  5
181
330
2
100
AcDbEntity
  8
GAIKEI
  6
Continuous
 62
     1
100
AcDbLine
 10
41.74373835865881
 20
9.315077296962726
 30
0.0
 11
41.74373835865881
 21
9.610568796962695
 31
0.0
  0
ARC
  5
182
330
2
100
AcDbEntity
  8
GAIKEI
  6
Continuous
 62
     1
100
AcDbCircle
 10
41.49373835865882
 20
9.315077296962726
 30
0.0
 40
0.25
100
AcDbArc
 50
296.5650509999879
 51
0.0
  0
ARC
  5
183
330
2
100
AcDbEntity
  8
GAIKEI
  6
Continuous
 62
     1
100
AcDbCircle
 10
39.68472135865878
 20
8.410568796962706
 30
0.0
 40
0.25
100
AcDbArc
 50
270.0
 51
296.5650509999879
  0
ELLIPSE
  5
184
330
2
100
AcDbEntity
  8
GAIKEI
  6
Continuous
 62
     1
100
AcDbEllipse
 10
41.69366975865878
 20
9.610568796962695
 30
0.0
 11
0.0500686172998961
 21
0.0000000000027717
 31
0.0
210
0.0
220
0.0
230
1.0
 40
0.9986299999998678
 41
-0.0000000000554334
 42
1.570796326739615
  0
LINE
  5
185
330
2
100
AcDbEntity
  8
GAIKEI
  6
Continuous
 62
     1
100
AcDbLine
 10
41.73235955865879
 20
11.76056879696273
 30
0.0
 11
41.65623835865881
 21
11.76056879696273
 31
0.0
  0
LINE
  5
186
330
2
100
AcDbEntity
  8
GAIKEI
  6
Continuous
 62
     1
100
AcDbLine
 10
41.73366975865881
 20
11.76056879696273
 30
0.0
 11
41.73235955865879
 21
11.76056879696273
 31
0.0
  0
LINE
  5
187
330
2
100
AcDbEntity
  8
GAIKEI
  6
Continuous
 62
     1
100
AcDbLine
 10
41.78373835865878
 20
11.41507729696275
 30
0.0
 11
41.78373835865878
 21
11.71056879696266
 31
0.0
  0
ARC
  5
188
330
2
100
AcDbEntity
  8
GAIKEI
  6
Continuous
 62
     1
100
AcDbCircle
 10
41.53373835865878
 20
11.41507729696275
 30
0.0
 40
0.25
100
AcDbArc
 50
299.3405819999887
 51
0.0
  0
ELLIPSE
  5
189
330
2
100
AcDbEntity
  8
GAIKEI
  6
Continuous
 62
     1
100
AcDbEllipse
 10
41.73366975865881
 20
11.71056879696266
 30
0.0
 11
0.0500686172998961
 21
0.0000000000027717
 31
0.0
210
0.0
220
0.0
230
1.0
 40
0.9986299999998678
 41
-0.0000000000554334
 42
1.570796326739615
  0
LINE
  5
18A
330
2
100
AcDbEntity
  8
GAIKEI
  6
Continuous
 62
     1
100
AcDbLine
 10
39.72404765865882
 20
7.922919246962692
 30
0.0
 11
40.60145505865881
 21
7.96890224696267
 31
0.0
  0
LINE
  5
18B
330
2
100
AcDbEntity
  8
GAIKEI
  6
Continuous
 62
     1
100
AcDbLine
 10
41.23899045865878
 20
8.048890046962696
 30
0.0
 11
41.24108365865878
 21
8.168809046962678
 31
0.0
  0
LINE
  5
18C
330
2
100
AcDbEntity
  8
GAIKEI
  6
Continuous
 62
     1
100
AcDbLine
 10
40.60145505865881
 20
7.96890224696267
 30
0.0
 11
41.1916148586588
 21
7.999831196962702
 31
0.0
  0
LINE
  5
18D
330
2
100
AcDbEntity
  8
GAIKEI
  6
Continuous
 62
     1
100
AcDbLine
 10
39.72404765865882
 20
7.922919246962692
 30
0.0
 11
40.7281241586588
 21
7.975540696962696
 31
0.0
  0
ARC
  5
18E
330
2
100
AcDbEntity
  8
GAIKEI
  6
Continuous
 62
     1
100
AcDbCircle
 10
39.73713160865879
 20
7.673261896962685
 30
0.0
 40
0.25
100
AcDbArc
 50
93.00000000000558
 51
137.1867789999962
  0
ARC
  5
18F
330
2
100
AcDbEntity
  8
GAIKEI
  6
Continuous
 62
     1
100
AcDbCircle
 10
41.18899805865882
 20
8.049762696962716
 30
0.0
 40
0.05
100
AcDbArc
 50
273.0000000000056
 51
359.0000000000243
  0
LINE
  5
190
330
2
100
AcDbEntity
  8
GAIKEI
  6
Continuous
 62
     1
100
AcDbLine
 10
40.7627226086588
 20
35.45929019696269
 30
0.0
 11
39.7754873086588
 21
35.49376519696273
 31
0.0
  0
LINE
  5
191
330
2
100
AcDbEntity
  8
GAIKEI
  6
Continuous
 62
     1
100
AcDbLine
 10
39.61709585865879
 20
35.39928734696275
 30
0.0
 11
39.61709585865879
 21
30.41199059696271
 31
0.0
  0
LINE
  5
192
330
2
100
AcDbEntity
  8
GAIKEI
  6
Continuous
 62
     1
100
AcDbLine
 10
41.06433135865879
 20
35.78166714696272
 30
0.0
 11
39.5607531586588
 21
36.1038624469627
 31
0.0
  0
LINE
  5
193
330
2
100
AcDbEntity
  8
GAIKEI
  6
Continuous
 62
     1
100
AcDbLine
 10
41.60094965865879
 20
33.33034844696272
 30
0.0
 11
41.2985325086588
 21
35.52935289696268
 31
0.0
  0
LINE
  5
194
330
2
100
AcDbEntity
  8
GAIKEI
  6
Continuous
 62
     1
100
AcDbLine
 10
41.61446185865881
 20
32.67836039696272
 30
0.0
 11
41.61446185865881
 21
33.13291754696269
 31
0.0
  0
LINE
  5
195
330
2
100
AcDbEntity
  8
GAIKEI
  6
Continuous
 62
     1
100
AcDbLine
 10
41.2985325086588
 20
30.28192509696271
 30
0.0
 11
41.60094965865879
 21
32.48092954696267
 31
0.0
  0
LINE
  5
196
330
2
100
AcDbEntity
  8
GAIKEI
  6
Continuous
 62
     1
100
AcDbLine
 10
39.5607531586588
 20
29.70741549696271
 30
0.0
 11
41.06433135865879
 21
30.02961084696267
 31
0.0
  0
LINE
  5
197
330
2
100
AcDbEntity
  8
GAIKEI
  6
Continuous
 62
     1
100
AcDbLine
 10
39.7754873086588
 20
30.31751274696274
 30
0.0
 11
40.7627226086588
 21
30.3519877969627
 31
0.0
  0
LINE
  5
198
330
2
100
AcDbEntity
  8
GAIKEI
  6
Continuous
 62
     1
100
AcDbLine
 10
40.9058925586588
 20
30.48128264696265
 30
0.0
 11
40.91126910865878
 21
30.52037774696271
 31
0.0
  0
LINE
  5
199
330
2
100
AcDbEntity
  8
GAIKEI
  6
Continuous
 62
     1
100
AcDbLine
 10
40.9278574086588
 20
30.61978094696269
 30
0.0
 11
41.09334545865883
 21
31.82311549696271
 31
0.0
  0
LINE
  5
19A
330
2
100
AcDbEntity
  8
GAIKEI
  6
Continuous
 62
     1
100
AcDbLine
 10
41.10424290865881
 20
31.92357299696272
 30
0.0
 11
41.18908030865878
 21
32.54046199696268
 31
0.0
  0
LINE
  5
19B
330
2
100
AcDbEntity
  8
GAIKEI
  6
Continuous
 62
     1
100
AcDbLine
 10
41.1983221086588
 20
32.67549704696274
 30
0.0
 11
41.1983221086588
 21
33.13578089696273
 31
0.0
  0
LINE
  5
19C
330
2
100
AcDbEntity
  8
GAIKEI
  6
Continuous
 62
     1
100
AcDbLine
 10
41.03668535865881
 20
34.40016249696271
 30
0.0
 11
40.9278574086588
 21
35.19149699696271
 31
0.0
  0
LINE
  5
19D
330
2
100
AcDbEntity
  8
GAIKEI
  6
Continuous
 62
     1
100
AcDbLine
 10
40.91126910865878
 20
35.29090019696275
 30
0.0
 11
40.9058925586588
 21
35.32999534696268
 31
0.0
  0
LINE
  5
19E
330
2
100
AcDbEntity
  8
GAIKEI
  6
Continuous
 62
     1
100
AcDbLine
 10
41.18908030865878
 20
33.27081599696271
 30
0.0
 11
41.03668535865881
 21
34.40016249696271
 31
0.0
  0
LINE
  5
19F
330
2
100
AcDbEntity
  8
GAIKEI
  6
Continuous
 62
     1
100
AcDbLine
 10
39.6310031086588
 20
30.49115424696265
 30
0.0
 11
39.6310031086588
 21
30.50056879696274
 31
0.0
  0
LINE
  5
1A0
330
2
100
AcDbEntity
  8
GAIKEI
  6
Continuous
 62
     1
100
AcDbLine
 10
40.7627226086588
 20
30.3519877969627
 30
0.0
 11
40.76141875865879
 21
30.35343154696273
 31
0.0
  0
LINE
  5
1A1
330
2
100
AcDbEntity
  8
GAIKEI
  6
Continuous
 62
     1
100
AcDbLine
 10
39.68099550865878
 20
30.49115424696265
 30
0.0
 11
39.6310031086588
 21
30.49115424696265
 31
0.0
  0
LINE
  5
1A2
330
2
100
AcDbEntity
  8
GAIKEI
  6
Continuous
 62
     1
100
AcDbLine
 10
39.68099550865878
 20
30.62176064696269
 30
0.0
 11
39.68099550865878
 21
30.49115424696265
 31
0.0
  0
ARC
  5
1A3
330
2
100
AcDbEntity
  8
GAIKEI
  6
Continuous
 62
     1
100
AcDbCircle
 10
41.00154250865881
 20
30.32274354696267
 30
0.0
 40
0.34978195
100
AcDbArc
 50
317.3057001384137
 51
349.609110091751
  0
ELLIPSE
  5
1A4
330
2
100
AcDbEntity
  8
GAIKEI
  6
Continuous
 62
     1
100
AcDbEllipse
 10
41.00118360865882
 20
35.48820134696268
 30
0.0
 11
0.2200773139238433
 21
0.204278454697023
 31
0.0
210
0.0
220
0.0
230
1.0
 40
0.9990920000000295
 41
-0.6110907881377886
 42
0.6110907880802437
  0
ELLIPSE
  5
1A5
330
2
100
AcDbEntity
  8
GAIKEI
  6
Continuous
 62
     1
100
AcDbEllipse
 10
40.16357800865882
 20
33.13279659696269
 30
0.0
 11
1.447501845803997
 21
0.0990673047661277
 31
0.0
210
0.0
220
0.0
230
1.0
 40
0.9993880000001503
 41
-0.0682919405012414
 42
0.0682919404700984
  0
ELLIPSE
  5
1A6
330
2
100
AcDbEntity
  8
GAIKEI
  6
Continuous
 62
     1
100
AcDbEllipse
 10
40.16357800865882
 20
32.67848134696266
 30
0.0
 11
-1.447501845804628
 21
0.0990673047569007
 31
0.0
210
0.0
220
0.0
230
1.0
 40
0.9993880000003459
 41
3.073300713113309
 42
3.209884594084662
  0
ELLIPSE
  5
1A7
330
2
100
AcDbEntity
  8
GAIKEI
  6
Continuous
 62
     1
100
AcDbEllipse
 10
41.00118360865882
 20
30.32307664696271
 30
0.0
 11
-0.2200773139307833
 21
0.2042784546895481
 31
0.0
210
0.0
220
0.0
230
1.0
 40
0.9990919999999141
 41
2.530501865475673
 42
3.75268344169356
  0
ELLIPSE
  5
1A8
330
2
100
AcDbEntity
  8
GAIKEI
  6
Continuous
 62
     1
100
AcDbEllipse
 10
40.75749485865881
 20
35.30958699696271
 30
0.0
 11
-0.1113231012704047
 21
0.1005344076599612
 31
0.0
210
0.0
220
0.0
230
1.0
 40
0.9976620000000188
 41
4.013930599297418
 42
5.410847361477967
  0
ELLIPSE
  5
1A9
330
2
100
AcDbEntity
  8
GAIKEI
  6
Continuous
 62
     1
100
AcDbEllipse
 10
40.20718230865878
 20
32.67549704696268
 30
0.0
 11
0.0677683607875804
 21
0.9901836694660344
 31
0.0
210
0.0
220
0.0
230
1.0
 40
0.998622999999463
 41
4.644149142641135
 42
4.780628818117281
  0
ELLIPSE
  5
1AA
330
2
100
AcDbEntity
  8
GAIKEI
  6
Continuous
 62
     1
100
AcDbEllipse
 10
40.75749485865881
 20
30.5016909469627
 30
0.0
 11
0.1113231012697903
 21
0.1005344076606298
 31
0.0
210
0.0
220
0.0
230
1.0
 40
0.9976620000000872
 41
4.013930599285374
 42
5.410847361466131
  0
ELLIPSE
  5
1AB
330
2
100
AcDbEntity
  8
GAIKEI
  6
Continuous
 62
     1
100
AcDbEllipse
 10
40.20718230865878
 20
33.13578089696267
 30
0.0
 11
-0.0677683607886163
 21
0.9901836694651578
 31
0.0
210
0.0
220
0.0
230
1.0
 40
0.9986230000002741
 41
4.644149142650942
 42
4.780628818127169
  0
ELLIPSE
  5
1AC
330
2
100
AcDbEntity
  8
GAIKEI
  6
Continuous
 62
     1
100
AcDbEllipse
 10
39.77025955865881
 20
30.46721594696265
 30
0.0
 11
-0.1424851626757441
 21
0.0468826025010389
 31
0.0
210
0.0
220
0.0
230
1.0
 40
0.9984440000000159
 41
0.3183396182249396
 42
1.923075432094771
  0
ELLIPSE
  5
1AD
330
2
100
AcDbEntity
  8
GAIKEI
  6
Continuous
 62
     1
100
AcDbEllipse
 10
39.77025955865881
 20
35.34406204696268
 30
0.0
 11
0.142485162672844
 21
0.0468826025098882
 31
0.0
210
0.0
220
0.0
230
1.0
 40
0.9984439999998613
 41
1.218517221433086
 42
2.823253035302647
  0
LINE
  5
1AE
330
2
100
AcDbEntity
  8
GAIKEI
  6
Continuous
 62
     1
100
AcDbLine
 10
39.6251895586588
 20
7.510568796962729
 30
0.0
 11
39.59346045865878
 21
7.510568796962729
 31
0.0
  0
ARC
  5
1AF
330
2
100
AcDbEntity
  8
GAIKEI
  6
Continuous
 62
     1
100
AcDbCircle
 10
39.6251895586588
 20
7.445568796962675
 30
0.0
 40
0.065
100
AcDbArc
 50
16.60155000001845
 51
90.0
  0
ARC
  5
1B0
330
2
100
AcDbEntity
  8
GAIKEI
  6
Continuous
 62
     1
100
AcDbCircle
 10
39.6251895586588
 20
7.225568796962704
 30
0.0
 40
0.065
100
AcDbArc
 50
299.0713460000133
 51
343.3984499999815
  0
ARC
  5
1B1
330
2
100
AcDbEntity
  8
GAIKEI
  6
Continuous
 62
     1
100
AcDbCircle
 10
39.25623835865882
 20
7.335568796962661
 30
0.0
 40
0.45
100
AcDbArc
 50
343.3984499999815
 51
0.0
  0
ARC
  5
1B2
330
2
100
AcDbEntity
  8
GAIKEI
  6
Continuous
 62
     1
100
AcDbCircle
 10
39.25623835865882
 20
7.335568796962661
 30
0.0
 40
0.45
100
AcDbArc
 50
0.0
 51
16.60155000001845
  0
LINE
  5
1B3
330
2
100
AcDbEntity
  8
GAIKEI
  6
Continuous
 62
     1
100
AcDbLine
 10
39.58518955865881
 20
7.510568796962729
 30
0.0
 11
39.55373835865882
 21
7.510568796962729
 31
0.0
  0
LINE
  5
1B4
330
2
100
AcDbEntity
  8
GAIKEI
  6
Continuous
 62
     1
100
AcDbLine
 10
39.58518955865881
 20
22.28556879696271
 30
0.0
 11
39.55373835865882
 21
22.28556879696271
 31
0.0
  0
LINE
  5
1B5
330
2
100
AcDbEntity
  8
GAIKEI
  6
Continuous
 62
     1
100
AcDbLine
 10
39.55373835865882
 20
21.93556879696268
 30
0.0
 11
39.58518955865881
 21
21.93556879696268
 31
0.0
  0
ARC
  5
1B6
330
2
100
AcDbEntity
  8
GAIKEI
  6
Continuous
 62
     1
100
AcDbCircle
 10
39.58518955865881
 20
22.22056879696265
 30
0.0
 40
0.065
100
AcDbArc
 50
16.60155000001845
 51
90.0
  0
ARC
  5
1B7
330
2
100
AcDbEntity
  8
GAIKEI
  6
Continuous
 62
     1
100
AcDbCircle
 10
39.58518955865881
 20
22.00056879696274
 30
0.0
 40
0.065
100
AcDbArc
 50
270.0
 51
343.3984499999815
  0
ARC
  5
1B8
330
2
100
AcDbEntity
  8
GAIKEI
  6
Continuous
 62
     1
100
AcDbCircle
 10
39.21623835865882
 20
22.1105687969627
 30
0.0
 40
0.45
100
AcDbArc
 50
343.3984499999815
 51
0.0
  0
ARC
  5
1B9
330
2
100
AcDbEntity
  8
GAIKEI
  6
Continuous
 62
     1
100
AcDbCircle
 10
39.21623835865882
 20
22.1105687969627
 30
0.0
 40
0.45
100
AcDbArc
 50
0.0
 51
16.60155000001845
  0
LINE
  5
1BA
330
2
100
AcDbEntity
  8
GAIKEI
  6
Continuous
 62
     1
100
AcDbLine
 10
39.58518955865881
 20
37.09806879696271
 30
0.0
 11
39.55373835865882
 21
37.09806879696271
 31
0.0
  0
LINE
  5
1BB
330
2
100
AcDbEntity
  8
GAIKEI
  6
Continuous
 62
     1
100
AcDbLine
 10
39.55373835865882
 20
36.74806879696268
 30
0.0
 11
39.58518955865881
 21
36.74806879696268
 31
0.0
  0
ARC
  5
1BC
330
2
100
AcDbEntity
  8
GAIKEI
  6
Continuous
 62
     1
100
AcDbCircle
 10
39.58518955865881
 20
37.03306879696271
 30
0.0
 40
0.065
100
AcDbArc
 50
16.60155000001845
 51
90.0
  0
ARC
  5
1BD
330
2
100
AcDbEntity
  8
GAIKEI
  6
Continuous
 62
     1
100
AcDbCircle
 10
39.58518955865881
 20
36.81306879696268
 30
0.0
 40
0.065
100
AcDbArc
 50
270.0
 51
343.3984499999815
  0
ARC
  5
1BE
330
2
100
AcDbEntity
  8
GAIKEI
  6
Continuous
 62
     1
100
AcDbCircle
 10
39.21623835865882
 20
36.9230687969627
 30
0.0
 40
0.45
100
AcDbArc
 50
343.3984499999815
 51
0.0
  0
ARC
  5
1BF
330
2
100
AcDbEntity
  8
GAIKEI
  6
Continuous
 62
     1
100
AcDbCircle
 10
39.21623835865882
 20
36.9230687969627
 30
0.0
 40
0.45
100
AcDbArc
 50
0.0
 51
16.60155000001845
  0
LINE
  5
1C0
330
2
100
AcDbEntity
  8
GAIKEI
  6
Continuous
 62
     1
100
AcDbLine
 10
39.55373835865882
 20
7.085568796962661
 30
0.0
 11
39.58518955865881
 21
7.085568796962661
 31
0.0
  0
ARC
  5
1C1
330
2
100
AcDbEntity
  8
GAIKEI
  6
Continuous
 62
     1
100
AcDbCircle
 10
39.58518955865881
 20
7.150568796962716
 30
0.0
 40
0.065
100
AcDbArc
 50
270.0
 51
343.3984499999815
  0
ARC
  5
1C2
330
2
100
AcDbEntity
  8
GAIKEI
  6
Continuous
 62
     1
100
AcDbCircle
 10
39.21623835865882
 20
7.260568796962729
 30
0.0
 40
0.45
100
AcDbArc
 50
343.3984499999815
 51
348.2276048164417
  0
ARC
  5
1C3
330
2
100
AcDbEntity
  8
GAIKEI
  6
Continuous
 62
     1
100
AcDbCircle
 10
39.5142430086588
 20
7.744552846962676
 30
0.0
 40
0.05
100
AcDbArc
 50
16.25702800000551
 51
37.82319200001274
  0
ARC
  5
1C4
330
2
100
AcDbEntity
  8
GAIKEI
  6
Continuous
 62
     1
100
AcDbCircle
 10
39.5542430086588
 20
7.709552846962651
 30
0.0
 40
0.05
100
AcDbArc
 50
16.25702800000551
 51
80.92142899999226
  0
ARC
  5
1C5
330
2
100
AcDbEntity
  8
GAIKEI
  6
Continuous
 62
     1
100
AcDbCircle
 10
39.5542430086588
 20
7.541584746962712
 30
0.0
 40
0.05
100
AcDbArc
 50
320.9555470000158
 51
343.7429719999945
  0
ARC
  5
1C6
330
2
100
AcDbEntity
  8
GAIKEI
  6
Continuous
 62
     1
100
AcDbCircle
 10
39.26623835865881
 20
7.625568796962738
 30
0.0
 40
0.35
100
AcDbArc
 50
343.7429719999945
 51
0.0
  0
ARC
  5
1C7
330
2
100
AcDbEntity
  8
GAIKEI
  6
Continuous
 62
     1
100
AcDbCircle
 10
39.26623835865881
 20
7.625568796962738
 30
0.0
 40
0.35
100
AcDbArc
 50
0.0
 51
16.25702800000551
  0
LINE
  5
1C8
330
2
100
AcDbEntity
  8
GAIKEI
  6
Continuous
 62
     1
100
AcDbLine
 10
39.69623835865878
 20
30.78139134696267
 30
0.0
 11
39.69623835865878
 21
30.76923599696272
 31
0.0
  0
LINE
  5
1C9
330
2
100
AcDbEntity
  8
GAIKEI
  6
Continuous
 62
     1
100
AcDbLine
 10
39.70537815865879
 20
30.92807019696272
 30
0.0
 11
39.66537815865883
 21
30.92807019696272
 31
0.0
  0
LINE
  5
1CA
330
2
100
AcDbEntity
  8
GAIKEI
  6
Continuous
 62
     1
100
AcDbLine
 10
39.72595085865879
 20
30.57306954696264
 30
0.0
 11
39.68595085865877
 21
30.57306954696264
 31
0.0
  0
LINE
  5
1CB
330
2
100
AcDbEntity
  8
GAIKEI
  6
Continuous
 62
     1
100
AcDbLine
 10
39.69623835865878
 20
30.75056879696274
 30
0.0
 11
39.73623835865879
 21
30.75056879696274
 31
0.0
  0
LINE
  5
1CC
330
2
100
AcDbEntity
  8
GAIKEI
  6
Continuous
 62
     1
100
AcDbLine
 10
39.65623835865881
 20
30.76923599696272
 30
0.0
 11
39.69623835865878
 21
30.76923599696272
 31
0.0
  0
LINE
  5
1CD
330
2
100
AcDbEntity
  8
GAIKEI
  6
Continuous
 62
     1
100
AcDbLine
 10
39.73623835865879
 20
30.57556879696267
 30
0.0
 11
39.73623835865879
 21
30.75056879696274
 31
0.0
  0
LINE
  5
1CE
330
2
100
AcDbEntity
  8
GAIKEI
  6
Continuous
 62
     1
100
AcDbLine
 10
39.73623835865879
 20
30.75056879696274
 30
0.0
 11
39.73623835865879
 21
30.9255687969627
 31
0.0
  0
LINE
  5
1CF
330
2
100
AcDbEntity
  8
GAIKEI
  6
Continuous
 62
     1
100
AcDbLine
 10
39.7851895586588
 20
30.9255687969627
 30
0.0
 11
39.73623835865879
 21
30.9255687969627
 31
0.0
  0
LINE
  5
1D0
330
2
100
AcDbEntity
  8
GAIKEI
  6
Continuous
 62
     1
100
AcDbLine
 10
39.73623835865879
 20
30.57556879696267
 30
0.0
 11
39.7851895586588
 21
30.57556879696267
 31
0.0
  0
LINE
  5
1D1
330
2
100
AcDbEntity
  8
GAIKEI
  6
Continuous
 62
     1
100
AcDbLine
 10
39.73623835865879
 20
30.84556879696265
 30
0.0
 11
39.7022287086588
 21
30.84556879696265
 31
0.0
  0
LINE
  5
1D2
330
2
100
AcDbEntity
  8
GAIKEI
  6
Continuous
 62
     1
100
AcDbLine
 10
39.65623835865881
 20
30.65556879696271
 30
0.0
 11
39.68909605865881
 21
30.65556879696271
 31
0.0
  0
ARC
  5
1D3
330
2
100
AcDbEntity
  8
GAIKEI
  6
Continuous
 62
     1
100
AcDbCircle
 10
39.7851895586588
 20
30.8605687969627
 30
0.0
 40
0.065
100
AcDbArc
 50
16.60155000001845
 51
90.0
  0
ARC
  5
1D4
330
2
100
AcDbEntity
  8
GAIKEI
  6
Continuous
 62
     1
100
AcDbCircle
 10
39.7851895586588
 20
30.64056879696273
 30
0.0
 40
0.065
100
AcDbArc
 50
270.0
 51
343.3984499999815
  0
ARC
  5
1D5
330
2
100
AcDbEntity
  8
GAIKEI
  6
Continuous
 62
     1
100
AcDbCircle
 10
39.4162383586588
 20
30.75056879696274
 30
0.0
 40
0.45
100
AcDbArc
 50
343.3984499999815
 51
0.0
  0
ARC
  5
1D6
330
2
100
AcDbEntity
  8
GAIKEI
  6
Continuous
 62
     1
100
AcDbCircle
 10
39.4162383586588
 20
30.75056879696274
 30
0.0
 40
0.45
100
AcDbArc
 50
0.0
 51
16.60155000001845
  0
LINE
  5
1D7
330
2
100
AcDbEntity
  8
GAIKEI
  6
Continuous
 62
     1
100
AcDbLine
 10
39.65623835865881
 20
30.50056879696274
 30
0.0
 11
39.65623835865881
 21
30.75056879696274
 31
0.0
  0
LINE
  5
1D8
330
2
100
AcDbEntity
  8
GAIKEI
  6
Continuous
 62
     1
100
AcDbLine
 10
39.65623835865881
 20
31.00056879696274
 30
0.0
 11
39.61709585865879
 21
31.00056879696274
 31
0.0
  0
LINE
  5
1D9
330
2
100
AcDbEntity
  8
GAIKEI
  6
Continuous
 62
     1
100
AcDbLine
 10
39.61709585865879
 20
30.50056879696274
 30
0.0
 11
39.65623835865881
 21
30.50056879696274
 31
0.0
  0
LINE
  5
1DA
330
2
100
AcDbEntity
  8
GAIKEI
  6
Continuous
 62
     1
100
AcDbLine
 10
39.65623835865881
 20
30.75056879696274
 30
0.0
 11
39.65623835865881
 21
31.00056879696274
 31
0.0
  0
LINE
  5
1DB
330
2
100
AcDbEntity
  8
GAIKEI
  6
Continuous
 62
     1
100
AcDbLine
 10
39.69623835865878
 20
34.40139134696267
 30
0.0
 11
39.69623835865878
 21
34.38923599696273
 31
0.0
  0
LINE
  5
1DC
330
2
100
AcDbEntity
  8
GAIKEI
  6
Continuous
 62
     1
100
AcDbLine
 10
39.70537815865879
 20
34.54807019696273
 30
0.0
 11
39.66537815865883
 21
34.54807019696273
 31
0.0
  0
LINE
  5
1DD
330
2
100
AcDbEntity
  8
GAIKEI
  6
Continuous
 62
     1
100
AcDbLine
 10
39.72595085865879
 20
34.19306954696271
 30
0.0
 11
39.68595085865877
 21
34.19306954696271
 31
0.0
  0
LINE
  5
1DE
330
2
100
AcDbEntity
  8
GAIKEI
  6
Continuous
 62
     1
100
AcDbLine
 10
39.69623835865878
 20
34.37056879696269
 30
0.0
 11
39.73623835865879
 21
34.37056879696269
 31
0.0
  0
LINE
  5
1DF
330
2
100
AcDbEntity
  8
GAIKEI
  6
Continuous
 62
     1
100
AcDbLine
 10
39.65623835865881
 20
34.38923599696273
 30
0.0
 11
39.69623835865878
 21
34.38923599696273
 31
0.0
  0
LINE
  5
1E0
330
2
100
AcDbEntity
  8
GAIKEI
  6
Continuous
 62
     1
100
AcDbLine
 10
39.73623835865879
 20
34.19556879696268
 30
0.0
 11
39.73623835865879
 21
34.37056879696269
 31
0.0
  0
LINE
  5
1E1
330
2
100
AcDbEntity
  8
GAIKEI
  6
Continuous
 62
     1
100
AcDbLine
 10
39.73623835865879
 20
34.37056879696269
 30
0.0
 11
39.73623835865879
 21
34.5455687969627
 31
0.0
  0
LINE
  5
1E2
330
2
100
AcDbEntity
  8
GAIKEI
  6
Continuous
 62
     1
100
AcDbLine
 10
39.7851895586588
 20
34.5455687969627
 30
0.0
 11
39.73623835865879
 21
34.5455687969627
 31
0.0
  0
LINE
  5
1E3
330
2
100
AcDbEntity
  8
GAIKEI
  6
Continuous
 62
     1
100
AcDbLine
 10
39.73623835865879
 20
34.19556879696268
 30
0.0
 11
39.7851895586588
 21
34.19556879696268
 31
0.0
  0
LINE
  5
1E4
330
2
100
AcDbEntity
  8
GAIKEI
  6
Continuous
 62
     1
100
AcDbLine
 10
39.73623835865879
 20
34.46556879696272
 30
0.0
 11
39.7022287086588
 21
34.46556879696272
 31
0.0
  0
LINE
  5
1E5
330
2
100
AcDbEntity
  8
GAIKEI
  6
Continuous
 62
     1
100
AcDbLine
 10
39.6587959086588
 20
34.46556879696272
 30
0.0
 11
39.65623835865881
 21
34.46556879696272
 31
0.0
  0
LINE
  5
1E6
330
2
100
AcDbEntity
  8
GAIKEI
  6
Continuous
 62
     1
100
AcDbLine
 10
39.65623835865881
 20
34.27556879696272
 30
0.0
 11
39.68909605865881
 21
34.27556879696272
 31
0.0
  0
ARC
  5
1E7
330
2
100
AcDbEntity
  8
GAIKEI
  6
Continuous
 62
     1
100
AcDbCircle
 10
39.7851895586588
 20
34.48056879696264
 30
0.0
 40
0.065
100
AcDbArc
 50
16.60155000001845
 51
90.0
  0
ARC
  5
1E8
330
2
100
AcDbEntity
  8
GAIKEI
  6
Continuous
 62
     1
100
AcDbCircle
 10
39.7851895586588
 20
34.26056879696273
 30
0.0
 40
0.065
100
AcDbArc
 50
270.0
 51
343.3984499999815
  0
ARC
  5
1E9
330
2
100
AcDbEntity
  8
GAIKEI
  6
Continuous
 62
     1
100
AcDbCircle
 10
39.4162383586588
 20
34.37056879696269
 30
0.0
 40
0.45
100
AcDbArc
 50
343.3984499999815
 51
0.0
  0
ARC
  5
1EA
330
2
100
AcDbEntity
  8
GAIKEI
  6
Continuous
 62
     1
100
AcDbCircle
 10
39.4162383586588
 20
34.37056879696269
 30
0.0
 40
0.45
100
AcDbArc
 50
0.0
 51
16.60155000001845
  0
LINE
  5
1EB
330
2
100
AcDbEntity
  8
GAIKEI
  6
Continuous
 62
     1
100
AcDbLine
 10
39.65623835865881
 20
34.12056879696269
 30
0.0
 11
39.65623835865881
 21
34.37056879696269
 31
0.0
  0
LINE
  5
1EC
330
2
100
AcDbEntity
  8
GAIKEI
  6
Continuous
 62
     1
100
AcDbLine
 10
39.65623835865881
 20
34.62056879696269
 30
0.0
 11
39.62291490865879
 21
34.62056879696269
 31
0.0
  0
LINE
  5
1ED
330
2
100
AcDbEntity
  8
GAIKEI
  6
Continuous
 62
     1
100
AcDbLine
 10
39.62291490865879
 20
34.12056879696269
 30
0.0
 11
39.65623835865881
 21
34.12056879696269
 31
0.0
  0
LINE
  5
1EE
330
2
100
AcDbEntity
  8
GAIKEI
  6
Continuous
 62
     1
100
AcDbLine
 10
39.65623835865881
 20
34.37056879696269
 30
0.0
 11
39.65623835865881
 21
34.62056879696269
 31
0.0
  0
LINE
  5
1EF
330
2
100
AcDbEntity
  8
GAIKEI
  6
Continuous
 62
     1
100
AcDbLine
 10
41.68123835865881
 20
12.1605687969627
 30
0.0
 11
41.68123835865881
 21
12.66056879696271
 31
0.0
  0
LINE
  5
1F0
330
2
100
AcDbEntity
  8
GAIKEI
  6
Continuous
 62
     1
100
AcDbLine
 10
41.65623835865881
 20
12.1605687969627
 30
0.0
 11
41.68123835865881
 21
12.1605687969627
 31
0.0
  0
LINE
  5
1F1
330
2
100
AcDbEntity
  8
GAIKEI
  6
Continuous
 62
     1
100
AcDbLine
 10
41.68123835865881
 20
12.66056879696271
 30
0.0
 11
41.65623835865881
 21
12.66056879696271
 31
0.0
  0
LINE
  5
1F2
330
2
100
AcDbEntity
  8
GAIKEI
  6
Continuous
 62
     1
100
AcDbLine
 10
41.71623835865881
 20
12.27306879696266
 30
0.0
 11
41.75860080865878
 21
12.27677504696271
 31
0.0
  0
LINE
  5
1F3
330
2
100
AcDbEntity
  8
GAIKEI
  6
Continuous
 62
     1
100
AcDbLine
 10
41.75860080865878
 20
12.5443625469627
 30
0.0
 11
41.71623835865881
 21
12.54806879696269
 31
0.0
  0
LINE
  5
1F4
330
2
100
AcDbEntity
  8
GAIKEI
  6
Continuous
 62
     1
100
AcDbLine
 10
41.68123835865881
 20
12.27556879696271
 30
0.0
 11
41.71623835865881
 21
12.27556879696271
 31
0.0
  0
LINE
  5
1F5
330
2
100
AcDbEntity
  8
GAIKEI
  6
Continuous
 62
     1
100
AcDbLine
 10
41.71623835865881
 20
12.5455687969627
 30
0.0
 11
41.68123835865881
 21
12.5455687969627
 31
0.0
  0
ARC
  5
1F6
330
2
100
AcDbEntity
  8
GAIKEI
  6
Continuous
 62
     1
100
AcDbCircle
 10
41.7542430086588
 20
12.49455284696267
 30
0.0
 40
0.05
100
AcDbArc
 50
16.25702800000551
 51
84.99999899997797
  0
ARC
  5
1F7
330
2
100
AcDbEntity
  8
GAIKEI
  6
Continuous
 62
     1
100
AcDbCircle
 10
41.7542430086588
 20
12.32658474696268
 30
0.0
 40
0.05
100
AcDbArc
 50
275.000001000022
 51
343.7429719999945
  0
ARC
  5
1F8
330
2
100
AcDbEntity
  8
GAIKEI
  6
Continuous
 62
     1
100
AcDbCircle
 10
41.46623835865881
 20
12.41056879696271
 30
0.0
 40
0.35
100
AcDbArc
 50
343.7429719999945
 51
0.0
  0
ARC
  5
1F9
330
2
100
AcDbEntity
  8
GAIKEI
  6
Continuous
 62
     1
100
AcDbCircle
 10
41.46623835865881
 20
12.41056879696271
 30
0.0
 40
0.35
100
AcDbArc
 50
0.0
 51
16.25702800000551
  0
LINE
  5
1FA
330
2
100
AcDbEntity
  8
GAIKEI
  6
Continuous
 62
     1
100
AcDbLine
 10
41.68123835865881
 20
10.26056879696273
 30
0.0
 11
41.68123835865881
 21
10.76056879696273
 31
0.0
  0
LINE
  5
1FB
330
2
100
AcDbEntity
  8
GAIKEI
  6
Continuous
 62
     1
100
AcDbLine
 10
41.65623835865881
 20
10.26056879696273
 30
0.0
 11
41.68123835865881
 21
10.26056879696273
 31
0.0
  0
LINE
  5
1FC
330
2
100
AcDbEntity
  8
GAIKEI
  6
Continuous
 62
     1
100
AcDbLine
 10
41.68123835865881
 20
10.76056879696273
 30
0.0
 11
41.65623835865881
 21
10.76056879696273
 31
0.0
  0
LINE
  5
1FD
330
2
100
AcDbEntity
  8
GAIKEI
  6
Continuous
 62
     1
100
AcDbLine
 10
41.71623835865881
 20
10.37306879696268
 30
0.0
 11
41.75860080865878
 21
10.37677504696273
 31
0.0
  0
LINE
  5
1FE
330
2
100
AcDbEntity
  8
GAIKEI
  6
Continuous
 62
     1
100
AcDbLine
 10
41.75860080865878
 20
10.64436254696272
 30
0.0
 11
41.71623835865881
 21
10.64806879696266
 31
0.0
  0
LINE
  5
1FF
330
2
100
AcDbEntity
  8
GAIKEI
  6
Continuous
 62
     1
100
AcDbLine
 10
41.68123835865881
 20
10.37556879696274
 30
0.0
 11
41.71623835865881
 21
10.37556879696274
 31
0.0
  0
LINE
  5
200
330
2
100
AcDbEntity
  8
GAIKEI
  6
Continuous
 62
     1
100
AcDbLine
 10
41.71623835865881
 20
10.64556879696272
 30
0.0
 11
41.68123835865881
 21
10.64556879696272
 31
0.0
  0
ARC
  5
201
330
2
100
AcDbEntity
  8
GAIKEI
  6
Continuous
 62
     1
100
AcDbCircle
 10
41.7542430086588
 20
10.59455284696264
 30
0.0
 40
0.05
100
AcDbArc
 50
16.25702800000551
 51
84.99999899997797
  0
ARC
  5
202
330
2
100
AcDbEntity
  8
GAIKEI
  6
Continuous
 62
     1
100
AcDbCircle
 10
41.7542430086588
 20
10.4265847469627
 30
0.0
 40
0.05
100
AcDbArc
 50
275.000001000022
 51
343.7429719999945
  0
ARC
  5
203
330
2
100
AcDbEntity
  8
GAIKEI
  6
Continuous
 62
     1
100
AcDbCircle
 10
41.46623835865881
 20
10.51056879696273
 30
0.0
 40
0.35
100
AcDbArc
 50
343.7429719999945
 51
0.0
  0
ARC
  5
204
330
2
100
AcDbEntity
  8
GAIKEI
  6
Continuous
 62
     1
100
AcDbCircle
 10
41.46623835865881
 20
10.51056879696273
 30
0.0
 40
0.35
100
AcDbArc
 50
0.0
 51
16.25702800000551
  0
LINE
  5
205
330
2
100
AcDbEntity
  8
GAIKEI
  6
Continuous
 62
     1
100
AcDbLine
 10
39.6892604586588
 20
15.19390594696267
 30
0.0
 11
39.6892604586588
 21
15.92723164696269
 31
0.0
  0
LINE
  5
206
330
2
100
AcDbEntity
  8
GAIKEI
  6
Continuous
 62
     1
100
AcDbLine
 10
39.6892604586588
 20
28.62890594696267
 30
0.0
 11
39.6892604586588
 21
29.3622316469627
 31
0.0
  0
LINE
  5
207
330
2
100
AcDbEntity
  8
GAIKEI
  6
Continuous
 62
     1
100
AcDbLine
 10
41.18001175865879
 20
29.68683674696274
 30
0.0
 11
41.18001175865879
 21
12.65147864696269
 31
0.0
  0
LINE
  5
208
330
2
100
AcDbEntity
  8
GAIKEI
  6
Continuous
 62
     1
100
AcDbLine
 10
41.19725260865879
 20
12.11616159696268
 30
0.0
 11
41.26019420865879
 21
12.04115074696267
 31
0.0
  0
LINE
  5
209
330
2
100
AcDbEntity
  8
GAIKEI
  6
Continuous
 62
     1
100
AcDbLine
 10
41.26019420865879
 20
12.04115074696267
 30
0.0
 11
41.26019420865879
 21
9.857798596962709
 31
0.0
  0
LINE
  5
20A
330
2
100
AcDbEntity
  8
GAIKEI
  6
Continuous
 62
     1
100
AcDbLine
 10
41.26019420865879
 20
9.857798596962709
 30
0.0
 11
39.55373835865882
 21
9.236699426009522
 31
0.0
  0
LINE
  5
20B
330
2
100
AcDbEntity
  8
GAIKEI
  6
Continuous
 62
     7
100
AcDbLine
 10
39.7677022586588
 20
36.2108628469627
 30
0.0
 11
39.61426045865879
 21
36.2434778969627
 31
0.0
  0
LINE
  5
20C
330
2
100
AcDbEntity
  8
GAIKEI
  6
Continuous
 62
     7
100
AcDbLine
 10
39.55373835865882
 20
8.495321361837
 30
0.0
 11
41.4917434086588
 21
9.200697546962715
 31
0.0
  0
LINE
  5
20D
330
2
100
AcDbEntity
  8
GAIKEI
  6
Continuous
 62
     7
100
AcDbLine
 10
41.65623835865882
 20
9.435620696962701
 30
0.0
 11
41.65623835865881
 21
12.31992744696271
 31
0.0
  0
LINE
  5
20E
330
2
100
AcDbEntity
  8
GAIKEI
  6
Continuous
 62
     1
100
AcDbLine
 10
41.48873610865881
 20
30.50698749696266
 30
0.0
 11
41.34542680865879
 21
30.25937724696269
 31
0.0
  0
LINE
  5
20F
330
2
100
AcDbEntity
  8
GAIKEI
  6
Continuous
 62
     7
100
AcDbLine
 10
41.70630535865881
 20
13.22119844696272
 30
0.0
 11
41.6538053586588
 21
13.17714569696272
 31
0.0
  0
LINE
  5
210
330
2
100
AcDbEntity
  8
GAIKEI
  6
Continuous
 62
     7
100
AcDbLine
 10
41.6538053586588
 20
13.17714569696272
 30
0.0
 11
41.6538053586588
 21
12.31992744696271
 31
0.0
  0
LINE
  5
211
330
2
100
AcDbEntity
  8
GAIKEI
  6
Continuous
 62
     1
100
AcDbLine
 10
41.65623835865881
 20
12.13166714696274
 30
0.0
 11
41.65623835865881
 21
12.13214329696268
 31
0.0
  0
LINE
  5
212
330
2
100
AcDbEntity
  8
GAIKEI
  6
Continuous
 62
     7
100
AcDbLine
 10
39.81098985865879
 20
36.20166174696271
 30
0.0
 11
39.76726600865878
 21
36.21095554696274
 31
0.0
  0
LINE
  5
213
330
2
100
AcDbEntity
  8
GAIKEI
  6
Continuous
 62
     1
100
AcDbLine
 10
41.58956535865877
 20
32.0311559969627
 30
0.0
 11
41.58956535865877
 21
31.0944547469627
 31
0.0
  0
LINE
  5
214
330
2
100
AcDbEntity
  8
GAIKEI
  6
Continuous
 62
     7
100
AcDbLine
 10
41.16251175865878
 20
35.91438694696274
 30
0.0
 11
41.16626325865877
 21
35.91333729696271
 31
0.0
  0
LINE
  5
215
330
2
100
AcDbEntity
  8
GAIKEI
  6
Continuous
 62
     7
100
AcDbLine
 10
41.16251175865878
 20
35.91438694696274
 30
0.0
 11
39.81098985865879
 21
36.20166174696271
 31
0.0
  0
LINE
  5
216
330
2
100
AcDbEntity
  8
GAIKEI
  6
Continuous
 62
     1
100
AcDbLine
 10
41.6538053586588
 20
12.31992744696271
 30
0.0
 11
41.65623835865881
 21
12.31992744696271
 31
0.0
  0
LINE
  5
217
330
2
100
AcDbEntity
  8
GAIKEI
  6
Continuous
 62
     7
100
AcDbLine
 10
41.16689860865881
 20
35.91341319696267
 30
0.0
 11
41.16619310865881
 21
35.91336804696266
 31
0.0
  0
LINE
  5
218
330
2
100
AcDbEntity
  8
GAIKEI
  6
Continuous
 62
     7
100
AcDbLine
 10
41.44851705865881
 20
35.06129854696269
 30
0.0
 11
41.35810085865879
 21
35.70464329696267
 31
0.0
  0
LINE
  5
219
330
2
100
AcDbEntity
  8
GAIKEI
  6
Continuous
 62
     7
100
AcDbLine
 10
41.70624355865879
 20
33.22747944696266
 30
0.0
 11
41.44851705865881
 21
35.06129854696269
 31
0.0
  0
LINE
  5
21A
330
2
100
AcDbEntity
  8
GAIKEI
  6
Continuous
 62
     1
100
AcDbLine
 10
41.70873835865879
 20
33.20675784696272
 30
0.0
 11
41.70873835865879
 21
33.20972794696274
 31
0.0
  0
LINE
  5
21B
330
2
100
AcDbEntity
  8
GAIKEI
  6
Continuous
 62
     1
100
AcDbLine
 10
41.70873835865879
 20
33.20972794696274
 30
0.0
 11
41.70624355865879
 21
33.22747944696266
 31
0.0
  0
LINE
  5
21C
330
2
100
AcDbEntity
  8
GAIKEI
  6
Continuous
 62
     7
100
AcDbLine
 10
41.70873835865879
 20
13.20881179696266
 30
0.0
 11
41.70873835865879
 21
33.20675784696272
 31
0.0
  0
LINE
  5
21D
330
2
100
AcDbEntity
  8
GAIKEI
  6
Continuous
 62
     7
100
AcDbLine
 10
41.70873835865879
 20
13.17457369696274
 30
0.0
 11
41.70873835865879
 21
13.20881179696266
 31
0.0
  0
LINE
  5
21E
330
2
100
AcDbEntity
  8
GAIKEI
  6
Continuous
 62
     1
100
AcDbLine
 10
41.65623835865881
 20
9.710568796962661
 30
0.0
 11
41.65623835865881
 21
9.860568796962695
 31
0.0
  0
LINE
  5
21F
330
2
100
AcDbEntity
  8
GAIKEI
  6
Continuous
 62
     1
100
AcDbLine
 10
41.65623835865881
 20
9.710568796962661
 30
0.0
 11
41.65623835865881
 21
9.660568796962706
 31
0.0
  0
LINE
  5
220
330
2
100
AcDbEntity
  8
GAIKEI
  6
Continuous
 62
     1
100
AcDbLine
 10
39.72846585865878
 20
8.034431946962683
 30
0.0
 11
39.7581543586588
 21
8.035987846962711
 31
0.0
  0
LINE
  5
221
330
2
100
AcDbEntity
  8
GAIKEI
  6
Continuous
 62
     1
100
AcDbLine
 10
39.7581543586588
 20
8.035987846962711
 30
0.0
 11
40.9988315086588
 21
8.101008996962718
 31
0.0
  0
LINE
  5
222
330
2
100
AcDbEntity
  8
GAIKEI
  6
Continuous
 62
     1
100
AcDbLine
 10
41.70873835865879
 20
31.17772609696272
 30
0.0
 11
41.70873835865879
 21
31.64676029696273
 31
0.0
  0
LINE
  5
223
330
2
100
AcDbEntity
  8
GAIKEI
  6
Continuous
 62
     1
100
AcDbLine
 10
41.70873835865879
 20
33.20972369696267
 30
0.0
 11
41.70873835865879
 21
33.20972794696274
 31
0.0
  0
LINE
  5
224
330
2
100
AcDbEntity
  8
GAIKEI
  6
Continuous
 62
     1
100
AcDbLine
 10
41.70873835865879
 20
31.64676029696273
 30
0.0
 11
41.70873835865879
 21
33.20972369696267
 31
0.0
  0
LINE
  5
225
330
2
100
AcDbEntity
  8
GAIKEI
  6
Continuous
 62
     1
100
AcDbLine
 10
39.65315435865878
 20
8.030485046962667
 30
0.0
 11
39.72846585865878
 21
8.034431946962683
 31
0.0
  0
LINE
  5
226
330
2
100
AcDbEntity
  8
GAIKEI
  6
Continuous
 62
     1
100
AcDbLine
 10
41.54373835865882
 20
8.675220996962707
 30
0.0
 11
41.54373835865882
 21
9.060568796962627
 31
0.0
  0
LINE
  5
227
330
2
100
AcDbEntity
  8
GAIKEI
  6
Continuous
 62
     1
100
AcDbLine
 10
41.70873835865879
 20
33.20972369696267
 30
0.0
 11
41.70873835865879
 21
33.20972794696274
 31
0.0
  0
LINE
  5
228
330
2
100
AcDbEntity
  8
GAIKEI
  6
Continuous
 62
     1
100
AcDbLine
 10
41.70873835865879
 20
31.64676029696273
 30
0.0
 11
41.70873835865879
 21
33.20972369696267
 31
0.0
  0
LINE
  5
229
330
2
100
AcDbEntity
  8
GAIKEI
  6
Continuous
 62
     1
100
AcDbLine
 10
41.70873835865879
 20
13.34015589696264
 30
0.0
 11
41.70873835865879
 21
13.34476479696275
 31
0.0
  0
LINE
  5
22A
330
2
100
AcDbEntity
  8
GAIKEI
  6
Continuous
 62
     1
100
AcDbLine
 10
41.70873835865879
 20
13.18283554696268
 30
0.0
 11
41.70873835865879
 21
13.34015589696264
 31
0.0
  0
LINE
  5
22B
330
2
100
AcDbEntity
  8
GAIKEI
  6
Continuous
 62
     1
100
AcDbLine
 10
41.70873835865879
 20
13.34476479696275
 30
0.0
 11
41.70873835865879
 21
14.44152064696271
 31
0.0
  0
LINE
  5
22C
330
2
100
AcDbEntity
  8
GAIKEI
  6
Continuous
 62
     1
100
AcDbLine
 10
41.70873835865879
 20
30.75635169696273
 30
0.0
 11
41.70873835865879
 21
31.21559714696275
 31
0.0
  0
LINE
  5
22D
330
2
100
AcDbEntity
  8
GAIKEI
  6
Continuous
 62
     1
100
AcDbLine
 10
41.70873835865879
 20
30.7132307969627
 30
0.0
 11
41.70873835865879
 21
30.75635169696273
 31
0.0
  0
LINE
  5
22E
330
2
100
AcDbEntity
  8
GAIKEI
  6
Continuous
 62
     1
100
AcDbLine
 10
41.70873835865879
 20
13.18283554696268
 30
0.0
 11
41.70873835865879
 21
13.34015589696264
 31
0.0
  0
LINE
  5
22F
330
2
100
AcDbEntity
  8
GAIKEI
  6
Continuous
 62
     1
100
AcDbLine
 10
41.70873835865879
 20
13.34476479696275
 30
0.0
 11
41.70873835865879
 21
14.44152064696271
 31
0.0
  0
ARC
  5
230
330
2
100
AcDbEntity
  8
GAIKEI
  6
Continuous
 62
     7
100
AcDbCircle
 10
39.6662383586588
 20
36.48801479696272
 30
0.0
 40
0.25
100
AcDbArc
 50
243.2563160000013
 51
257.9999999999836
  0
ARC
  5
231
330
2
100
AcDbEntity
  8
GAIKEI
  6
Continuous
 62
     7
100
AcDbCircle
 10
41.40623835865881
 20
9.435620696962701
 30
0.0
 40
0.25
100
AcDbArc
 50
289.9999999999965
 51
0.0
  0
ARC
  5
232
330
2
100
AcDbEntity
  8
GAIKEI
  6
Continuous
 62
     7
100
AcDbCircle
 10
41.11053385865881
 20
35.66985004696267
 30
0.0
 40
0.25
100
AcDbArc
 50
7.999999999984294
 51
76.97098900001979
  0
ARC
  5
233
330
2
100
AcDbEntity
  8
GAIKEI
  6
Continuous
 62
     1
100
AcDbCircle
 10
41.55873835865878
 20
13.17457369696274
 30
0.0
 40
0.15
100
AcDbArc
 50
317.5189609999844
 51
0.0
  0
ARC
  5
234
330
2
100
AcDbEntity
  8
GAIKEI
  6
Continuous
 62
     1
100
AcDbCircle
 10
41.70623835865882
 20
13.03950464696271
 30
0.0
 40
0.05
100
AcDbArc
 50
137.5189609999843
 51
180.0
  0
ARC
  5
235
330
2
100
AcDbEntity
  8
GAIKEI
  6
Continuous
 62
     1
100
AcDbCircle
 10
41.70623835865882
 20
13.03948949696269
 30
0.0
 40
0.05
100
AcDbArc
 50
137.5188869999828
 51
180.0
  0
ARC
  5
236
330
2
100
AcDbEntity
  8
GAIKEI
  6
Continuous
 62
     1
100
AcDbCircle
 10
41.55873835865878
 20
13.17455894696275
 30
0.0
 40
0.15
100
AcDbArc
 50
317.5188869999828
 51
0.0
  0
ARC
  5
237
330
2
100
AcDbEntity
  8
GAIKEI
  6
Continuous
 62
     1
100
AcDbCircle
 10
39.6662383586588
 20
7.780827646962677
 30
0.0
 40
0.25
100
AcDbArc
 50
101.6320759999917
 51
116.7436839999987
  0
ARC
  5
238
330
2
100
AcDbEntity
  8
GAIKEI
  6
Continuous
 62
     1
100
AcDbCircle
 10
41.11053385865881
 20
35.66985004696267
 30
0.0
 40
0.25
100
AcDbArc
 50
7.999999999984294
 51
9.618225999996512
  0
ARC
  5
239
330
2
100
AcDbEntity
  8
GAIKEI
  6
Continuous
 62
     1
100
AcDbCircle
 10
39.6662383586588
 20
7.780827646962677
 30
0.0
 40
0.25
100
AcDbArc
 50
93.00000000000558
 51
101.6320759999917
  0
ARC
  5
23A
330
2
100
AcDbEntity
  8
GAIKEI
  6
Continuous
 62
     1
100
AcDbCircle
 10
40.9687383586588
 20
8.675220996962707
 30
0.0
 40
0.5750000000000001
100
AcDbArc
 50
273.0000000000056
 51
0.0
  0
ELLIPSE
  5
23B
330
2
100
AcDbEntity
  8
GAIKEI
  6
Continuous
 62
     1
100
AcDbEllipse
 10
40.9687383586588
 20
8.675220996962707
 30
0.0
 11
0.5749999999999993
 21
0.0000000000000171
 31
0.0
210
0.0
220
0.0
230
1.0
 40
0.3583520000000312
 41
-0.7964317564974064
 42
-0.000000000000083
  0
LINE
  5
23C
330
2
100
AcDbEntity
  8
GAIKEI
  6
Continuous
 62
     1
100
AcDbLine
 10
39.45373835865881
 20
37.16084289696266
 30
0.0
 11
37.4783047586588
 21
37.05796729696272
 31
0.0
  0
LINE
  5
23D
330
2
100
AcDbEntity
  8
GAIKEI
  6
Continuous
 62
     1
100
AcDbLine
 10
39.45373835865881
 20
37.16084289696266
 30
0.0
 11
39.45373835865881
 21
7.060294696962728
 31
0.0
  0
LINE
  5
23E
330
2
100
AcDbEntity
  8
GAIKEI
  6
Continuous
 62
     1
100
AcDbLine
 10
37.4783047586588
 20
7.163170296962675
 30
0.0
 11
39.45373835865881
 21
7.060294696962728
 31
0.0
  0
LINE
  5
23F
330
2
100
AcDbEntity
  8
GAIKEI
  6
Continuous
 62
     1
100
AcDbLine
 10
37.4783047586588
 20
37.05796729696272
 30
0.0
 11
37.47830475865881
 21
6.963444396962643
 31
0.0
  0
LINE
  5
240
330
2
100
AcDbEntity
  8
GAIKEI
  6
Continuous
 62
     7
100
AcDbLine
 10
37.4783047586588
 20
37.25769319696269
 30
0.0
 11
39.45373835865881
 21
37.3605687969627
 31
0.0
  0
LINE
  5
241
330
2
100
AcDbEntity
  8
GAIKEI
  6
Continuous
 62
     1
100
AcDbLine
 10
39.45373835865881
 20
37.3605687969627
 30
0.0
 11
39.45373835865881
 21
37.16084289696266
 31
0.0
  0
LINE
  5
242
330
2
100
AcDbEntity
  8
GAIKEI
  6
Continuous
 62
     7
100
AcDbLine
 10
39.45373835865881
 20
6.860568796962695
 30
0.0
 11
37.4783047586588
 21
6.9634443969627
 31
0.0
  0
LINE
  5
243
330
2
100
AcDbEntity
  8
GAIKEI
  6
Continuous
 62
     1
100
AcDbLine
 10
39.45373835865881
 20
7.060294696962728
 30
0.0
 11
39.45373835865881
 21
6.860568796962695
 31
0.0
  0
LINE
  5
244
330
2
100
AcDbEntity
  8
GAIKEI
  6
Continuous
 62
     7
100
AcDbLine
 10
39.45373835865881
 20
37.35056879696271
 30
0.0
 11
39.5309172586588
 21
37.34381649696269
 31
0.0
  0
LINE
  5
245
330
2
100
AcDbEntity
  8
GAIKEI
  6
Continuous
 62
     1
100
AcDbLine
 10
39.5309172586588
 20
37.14457759696268
 30
0.0
 11
39.45373835865881
 21
37.15132984696271
 31
0.0
  0
LINE
  5
246
330
2
100
AcDbEntity
  8
GAIKEI
  6
Continuous
 62
     7
100
AcDbLine
 10
39.5309172586588
 20
6.877321096962702
 30
0.0
 11
39.45373835865881
 21
6.870568796962686
 31
0.0
  0
LINE
  5
247
330
2
100
AcDbEntity
  8
GAIKEI
  6
Continuous
 62
     7
100
AcDbLine
 10
39.55373835865882
 20
37.14457759696268
 30
0.0
 11
39.55373835865882
 21
6.902225946962687
 31
0.0
  0
LINE
  5
248
330
2
100
AcDbEntity
  8
GAIKEI
  6
Continuous
 62
     1
100
AcDbLine
 10
39.55373835865882
 20
37.14457759696268
 30
0.0
 11
39.5309172586588
 21
37.14457759696268
 31
0.0
  0
LINE
  5
249
330
2
100
AcDbEntity
  8
GAIKEI
  6
Continuous
 62
     7
100
AcDbLine
 10
39.55373835865882
 20
37.3189116469627
 30
0.0
 11
39.55373835865882
 21
37.14457759696268
 31
0.0
  0
LINE
  5
24A
330
2
100
AcDbEntity
  8
GAIKEI
  6
Continuous
 62
     1
100
AcDbLine
 10
37.42034655865882
 20
6.995968946962648
 30
0.0
 11
37.42034655865882
 21
37.02742954696271
 31
0.0
  0
LINE
  5
24B
330
2
100
AcDbEntity
  8
GAIKEI
  6
Continuous
 62
     7
100
AcDbLine
 10
37.42034655865882
 20
6.995968946962648
 30
0.0
 11
37.2650327586588
 21
7.222797996962697
 31
0.0
  0
LINE
  5
24C
330
2
100
AcDbEntity
  8
GAIKEI
  6
Continuous
 62
     7
100
AcDbLine
 10
37.2650327586588
 20
36.99833959696269
 30
0.0
 11
37.42034655865882
 21
37.22516864696269
 31
0.0
  0
LINE
  5
24D
330
2
100
AcDbEntity
  8
GAIKEI
  6
Continuous
 62
     1
100
AcDbLine
 10
37.42034655865882
 20
37.02742954696271
 30
0.0
 11
37.2650327586588
 21
36.80060049696272
 31
0.0
  0
LINE
  5
24E
330
2
100
AcDbEntity
  8
GAIKEI
  6
Continuous
 62
     7
100
AcDbLine
 10
37.25628835865882
 20
7.251046446962732
 30
0.0
 11
37.25628835865882
 21
36.80060049696272
 31
0.0
  0
LINE
  5
24F
330
2
100
AcDbEntity
  8
GAIKEI
  6
Continuous
 62
     7
100
AcDbLine
 10
37.25628835865882
 20
36.80060049696272
 30
0.0
 11
37.2650327586588
 21
36.80060049696272
 31
0.0
  0
LINE
  5
250
330
2
100
AcDbEntity
  8
GAIKEI
  6
Continuous
 62
     7
100
AcDbLine
 10
37.25628835865882
 20
36.97009114696272
 30
0.0
 11
37.25628835865882
 21
36.80060049696272
 31
0.0
  0
ARC
  5
251
330
2
100
AcDbEntity
  8
GAIKEI
  6
Continuous
 62
     7
100
AcDbCircle
 10
39.52873835865882
 20
6.902225946962687
 30
0.0
 40
0.025
100
AcDbArc
 50
275.0000000000227
 51
0.0
  0
ARC
  5
252
330
2
100
AcDbEntity
  8
GAIKEI
  6
Continuous
 62
     7
100
AcDbCircle
 10
39.52873835865882
 20
37.3189116469627
 30
0.0
 40
0.025
100
AcDbArc
 50
0.0
 51
84.99999999997728
  0
ARC
  5
253
330
2
100
AcDbEntity
  8
GAIKEI
  6
Continuous
 62
     7
100
AcDbCircle
 10
37.48222995865881
 20
7.038341646962749
 30
0.0
 40
0.075
100
AcDbArc
 50
214.4001229999908
 51
266.9999999999944
  0
ARC
  5
254
330
2
100
AcDbEntity
  8
GAIKEI
  6
Continuous
 62
     7
100
AcDbCircle
 10
37.48222995865881
 20
37.1827959469627
 30
0.0
 40
0.075
100
AcDbArc
 50
93.00000000000558
 51
145.5998770000092
  0
ARC
  5
255
330
2
100
AcDbEntity
  8
GAIKEI
  6
Continuous
 62
     7
100
AcDbCircle
 10
37.30628835865882
 20
36.97009114696272
 30
0.0
 40
0.05
100
AcDbArc
 50
145.5998770000092
 51
180.0
  0
ARC
  5
256
330
2
100
AcDbEntity
  8
GAIKEI
  6
Continuous
 62
     7
100
AcDbCircle
 10
37.30628835865882
 20
7.251046446962732
 30
0.0
 40
0.05
100
AcDbArc
 50
180.0
 51
214.4001229999908
  0
LINE
  5
257
330
2
100
AcDbEntity
  8
GAIKEI
  6
Continuous
 62
     1
100
AcDbLine
 10
39.75069700865879
 20
36.75451974696267
 30
0.0
 11
39.55373835865882
 21
36.72683899696273
 31
0.0
  0
LINE
  5
258
330
2
100
AcDbEntity
  8
GAIKEI
  6
Continuous
 62
     1
100
AcDbLine
 10
39.6995702586588
 20
36.92722774696273
 30
0.0
 11
39.69373835865882
 21
36.8605687969627
 31
0.0
  0
LINE
  5
259
330
2
100
AcDbEntity
  8
GAIKEI
  6
Continuous
 62
     1
100
AcDbLine
 10
39.69373835865882
 20
36.8605687969627
 30
0.0
 11
39.6618769586588
 21
36.8605687969627
 31
0.0
  0
LINE
  5
25A
330
2
100
AcDbEntity
  8
GAIKEI
  6
Continuous
 62
     1
100
AcDbLine
 10
39.66623485865881
 20
36.92484974696271
 30
0.0
 11
39.6995148086588
 21
36.9265938469627
 31
0.0
  0
LINE
  5
25B
330
2
100
AcDbEntity
  8
GAIKEI
  6
Continuous
 62
     1
100
AcDbLine
 10
39.7039367086588
 20
36.97713629696273
 30
0.0
 11
39.74461095865883
 21
36.9764262969627
 31
0.0
  0
LINE
  5
25C
330
2
100
AcDbEntity
  8
GAIKEI
  6
Continuous
 62
     1
100
AcDbLine
 10
39.6995702586588
 20
36.92722774696273
 30
0.0
 11
39.7039367086588
 21
36.97713629696273
 31
0.0
  0
LINE
  5
25D
330
2
100
AcDbEntity
  8
GAIKEI
  6
Continuous
 62
     1
100
AcDbLine
 10
39.79373835865883
 20
36.92643394696268
 30
0.0
 11
39.79373835865883
 21
36.8040331469627
 31
0.0
  0
ARC
  5
25E
330
2
100
AcDbEntity
  8
GAIKEI
  6
Continuous
 62
     1
100
AcDbCircle
 10
39.74373835865882
 20
36.8040331469627
 30
0.0
 40
0.05
100
AcDbArc
 50
277.9999999999843
 51
0.0
  0
ARC
  5
25F
330
2
100
AcDbEntity
  8
GAIKEI
  6
Continuous
 62
     1
100
AcDbCircle
 10
39.74373835865882
 20
36.92643394696268
 30
0.0
 40
0.05
100
AcDbArc
 50
0.0
 51
89.0000000000243
  0
SPLINE
  5
260
330
2
100
AcDbEntity
  8
GAIKEI
  6
Continuous
 62
     1
100
AcDbSpline
210
0.0
220
0.0
230
1.0
 70
     8
 71
     3
 72
    23
 73
    19
 74
    17
 42
0.0000000001
 43
0.0000000001
 44
0.000001
 12
-0.0195855615079534
 22
0.9998081844936148
 32
0.0
 13
-0.1708806009777295
 23
0.9852917437030972
 33
0.0
 40
0.0
 40
0.0
 40
0.0
 40
0.0
 40
0.0246422057409193
 40
0.056169339313387
 40
0.0946352834719917
 40
0.1238383489245248
 40
0.1560774103075207
 40
0.1637317308166625
 40
0.1715387786615094
 40
0.1794984554017606
 40
0.1876106488051575
 40
0.1958752329952424
 40
0.2042920686457645
 40
0.2128610032233846
 40
0.2387981685051544
 40
0.2711882160498595
 40
0.3100387699381586
 40
0.3553446180979195
 40
0.3553446180979195
 40
0.3553446180979195
 40
0.3553446180979195
 10
39.61709588026098
 20
35.39928735120054
 30
0.0
 10
39.61693500311557
 20
35.40749984419512
 30
0.0
 10
39.61621633118702
 20
35.42621732912403
 30
0.0
 10
39.61327523085105
 20
35.45763611966942
 30
0.0
 10
39.60928572017889
 20
35.49046153758798
 30
0.0
 10
39.60465780874557
 20
35.52344228262689
 30
0.0
 10
39.6012108203191
 20
35.54621531781561
 30
0.0
 10
39.59875790859346
 20
35.56192511759775
 30
0.0
 10
39.59754106348756
 20
35.56963672141842
 30
0.0
 10
39.59628894652016
 20
35.57749726196261
 30
0.0
 10
39.59500237829196
 20
35.58550674246987
 30
0.0
 10
39.59368219113202
 20
35.59366515619905
 30
0.0
 10
39.59232946661402
 20
35.60197252809166
 30
0.0
 10
39.59001716995505
 20
35.61609208902991
 30
0.0
 10
39.58639139932073
 20
35.63809407331712
 30
0.0
 10
39.58102377614525
 20
35.67003892241729
 30
0.0
 10
39.57445189569231
 20
35.70832787203432
 30
0.0
 10
39.56968412569029
 20
35.73597187104025
 30
0.0
 10
39.56710349550318
 20
35.75085169708467
 30
0.0
 11
39.61709588026098
 21
35.39928735120054
 31
0.0
 11
39.61610576492058
 21
35.42390977963771
 31
0.0
 11
39.61336007948999
 21
35.45531705673511
 31
0.0
 11
39.60877872937226
 21
35.49350918249297
 31
0.0
 11
39.60474796009485
 21
35.5224327255894
 31
0.0
 11
39.59994333633932
 21
35.55431174876219
 31
0.0
 11
39.59876274703893
 21
35.56187447342495
 31
0.0
 11
39.59754613484494
 21
35.56958614148192
 31
0.0
 11
39.59629425010199
 21
35.57744675293293
 31
0.0
 11
39.59500790341622
 21
35.58545630777803
 31
0.0
 11
39.59368796619143
 21
35.59361480601729
 31
0.0
 11
39.59233537108313
 21
35.60192224765064
 31
0.0
 11
39.59095111236535
 21
35.61037863267802
 31
0.0
 11
39.58672820755052
 21
35.6359697155649
 31
0.0
 11
39.58136263806965
 21
35.66791225392831
 31
0.0
 11
39.57481014522537
 21
35.70620624776825
 31
0.0
 11
39.56710349550318
 21
35.75085169708467
 31
0.0
  0
SPLINE
  5
261
330
2
100
AcDbEntity
  8
GAIKEI
  6
Continuous
 62
     1
100
AcDbSpline
210
0.0
220
0.0
230
1.0
 70
     8
 71
     3
 72
    13
 73
     9
 74
     7
 42
0.0000000001
 43
0.0000000001
 44
0.000001
 12
0.1686465211669663
 22
0.9856765954907725
 32
0.0
 13
0.1366868105490227
 23
0.9906143123445854
 33
0.0
 40
0.0
 40
0.0
 40
0.0
 40
0.0
 40
0.0148768856752681
 40
0.0303404718420946
 40
0.0467491639371058
 40
0.063550307850407
 40
0.0820032027515075
 40
0.100784933155339
 40
0.100784933155339
 40
0.100784933155339
 40
0.100784933155339
 10
40.9112690990473
 20
30.52037774842887
 30
0.0
 10
40.91210541071895
 20
30.52526568110352
 30
0.0
 10
40.91383010072386
 20
30.53523112520139
 30
0.0
 10
40.91660641580735
 20
30.55056492108901
 30
0.0
 10
40.91945547705541
 20
30.56653731403685
 30
0.0
 10
40.92237023728313
 20
30.58350997914664
 30
0.0
 10
40.92521817522012
 20
30.6012958628225
 30
0.0
 10
40.92700166558
 20
30.61357913143178
 30
0.0
 10
40.92785740385517
 20
30.61978094841464
 30
0.0
 11
40.9112690990473
 21
30.52037774842887
 31
0.0
 11
40.91381622887772
 21
30.53503475176217
 31
0.0
 11
40.9165448633129
 21
30.55025585585355
 31
0.0
 11
40.91941633340375
 21
30.56641134805125
 31
0.0
 11
40.92224828415433
 21
30.582972102013
 31
0.0
 11
40.92515787235877
 21
30.60119417194869
 31
0.0
 11
40.92785740385517
 21
30.61978094841464
 31
0.0
  0
SPLINE
  5
262
330
2
100
AcDbEntity
  8
GAIKEI
  6
Continuous
 62
     1
100
AcDbSpline
210
0.0
220
0.0
230
1.0
 70
     8
 71
     3
 72
    13
 73
     9
 74
     7
 42
0.0000000001
 43
0.0000000001
 44
0.000001
 12
0.1358537149050929
 22
0.9907289074951259
 32
0.0
 13
0.1028701000007821
 23
0.9946947986824044
 33
0.0
 40
0.0
 40
0.0
 40
0.0
 40
0.0
 40
0.0167629848691176
 40
0.0334123275052038
 40
0.0503098774188006
 40
0.0668410117253174
 40
0.0842373612997498
 40
0.1010541529110057
 40
0.1010541529110057
 40
0.1010541529110057
 40
0.1010541529110057
 10
41.09334545273269
 20
31.82311547525228
 30
0.0
 10
41.09410455732181
 20
31.82865133314755
 30
0.0
 10
41.09554760075231
 20
31.83969525359771
 30
0.0
 10
41.09751013794318
 20
31.85635039637373
 30
0.0
 10
41.09927012502287
 20
31.87295031341785
 30
0.0
 10
41.10092919443011
 20
31.88981063028672
 30
0.0
 10
41.10251252434394
 20
31.9066511787421
 30
0.0
 10
41.10366625865975
 20
31.91799715076513
 30
0.0
 10
41.10424290700467
 20
31.92357300914722
 30
0.0
 11
41.09334545273269
 21
31.82311547525228
 31
0.0
 11
41.0955183530874
 21
31.83973709636751
 31
0.0
 11
41.09746952443219
 21
31.85627171709376
 31
0.0
 11
41.09926262929525
 21
31.87307386353314
 31
0.0
 11
41.100890346183
 21
31.88952467307354
 31
0.0
 11
41.10255335706256
 21
31.9068420109304
 31
0.0
 11
41.10424290700467
 21
31.92357300914722
 31
0.0
  0
SPLINE
  5
263
330
2
100
AcDbEntity
  8
GAIKEI
  6
Continuous
 62
     1
100
AcDbSpline
210
0.0
220
0.0
230
1.0
 70
     8
 71
     3
 72
    13
 73
     9
 74
     7
 42
0.0000000001
 43
0.0000000001
 44
0.000001
 12
-0.1367026333584174
 22
0.9906121289550588
 32
0.0
 13
-0.1693098136655528
 23
0.9855628782561444
 33
0.0
 40
0.0
 40
0.0
 40
0.0
 40
0.0
 40
0.0167469922486458
 40
0.0333773442702694
 40
0.050257116868093
 40
0.0667711030724892
 40
0.0840636332563483
 40
0.1007849533910367
 40
0.1007849533910367
 40
0.1007849533910367
 40
0.1007849533910367
 10
40.92785740385517
 20
35.19149702064385
 30
0.0
 10
40.92709428454142
 20
35.1970269451922
 30
0.0
 10
40.9255027132081
 20
35.20803867137784
 30
0.0
 10
40.92289312985921
 20
35.22458696328329
 30
0.0
 10
40.92010544986666
 20
35.24102726946501
 30
0.0
 10
40.91715735858649
 20
35.25766356657795
 30
0.0
 10
40.91415350413268
 20
35.27423619766557
 30
0.0
 10
40.91221279357941
 20
35.28540691649624
 30
0.0
 10
40.91126909904732
 20
35.29090022062963
 30
0.0
 11
40.92785740385517
 21
35.19149702064385
 31
0.0
 11
40.9254624980023
 21
35.20807195200291
 31
0.0
 11
40.92287567857306
 21
35.22449989004861
 31
0.0
 11
40.92006525070857
 21
35.24114405983289
 31
0.0
 11
40.91719324206962
 21
35.25740639445246
 31
0.0
 11
40.91414001591206
 21
35.27442790988653
 31
0.0
 11
40.91126909904732
 21
35.29090022062963
 31
0.0
  0
SPLINE
  5
264
330
2
100
AcDbEntity
  8
GAIKEI
  6
Continuous
 62
     1
100
AcDbSpline
210
0.0
220
0.0
230
1.0
 70
     8
 71
     3
 72
    11
 73
     7
 74
     5
 42
0.0000000001
 43
0.0000000001
 44
0.000001
 12
0.0263247353920106
 22
0.9996534441027755
 32
0.0
 13
0.1800564184768131
 23
0.9836562845655503
 33
0.0
 40
0.0
 40
0.0
 40
0.0
 40
0.0
 40
0.0222209517494258
 40
0.038846287432329
 40
0.0498820484480659
 40
0.0553514638909745
 40
0.0553514638909745
 40
0.0553514638909745
 40
0.0553514638909745
 10
39.61709588026098
 20
30.4119906178579
 30
0.0
 10
39.61729086715264
 20
30.41939503484042
 30
0.0
 10
39.61771492388877
 20
30.43234007916959
 30
0.0
 10
39.61853919859466
 20
30.44893954898026
 30
0.0
 10
39.61907877387637
 20
30.45998503977563
 30
0.0
 10
39.61995414103315
 20
30.46542259403418
 30
0.0
 10
39.62028240881841
 20
30.4672159356586
 30
0.0
 11
39.61709588026098
 21
30.4119906178579
 31
0.0
 11
39.61784828271627
 21
30.43419872265497
 31
0.0
 11
39.61863017162756
 21
30.45080564388741
 31
0.0
 11
39.61944154699495
 21
30.46181138155532
 31
0.0
 11
39.62028240881841
 21
30.4672159356586
 31
0.0
  0
SPLINE
  5
265
330
2
100
AcDbEntity
  8
GAIKEI
  6
Continuous
 62
     1
100
AcDbSpline
210
0.0
220
0.0
230
1.0
 70
     8
 71
     3
 72
    16
 73
    12
 74
    10
 42
0.0000000001
 43
0.0000000001
 44
0.000001
 12
-0.0430768721966507
 22
0.9990717607268027
 32
0.0
 13
-0.9995301167089067
 23
0.0306520112207888
 33
0.0
 40
0.0
 40
0.0
 40
0.0
 40
0.0
 40
0.0160287203943654
 40
0.0327204960098483
 40
0.0473482253724418
 40
0.059679252428638
 40
0.0695126747968567
 40
0.0767030109011095
 40
0.0811430012141379
 40
0.0828762629778286
 40
0.0829034368634922
 40
0.0829034368634922
 40
0.0829034368634922
 40
0.0829034368634922
 10
39.71196488664387
 20
30.84565877943146
 30
0.0
 10
39.71173473093057
 20
30.85099672673369
 30
0.0
 10
39.7112390859453
 20
30.86189070033817
 30
0.0
 10
39.71046093321742
 20
30.87766155038207
 30
0.0
 10
39.70963892435562
 20
30.89216626550399
 30
0.0
 10
39.70883795205507
 20
30.90446871569503
 30
0.0
 10
39.70800818267102
 20
30.91404879611241
 30
0.0
 10
39.70729638657861
 20
30.92156559054945
 30
0.0
 10
39.70645375684252
 20
30.9252234283598
 30
0.0
 10
39.70597694306454
 20
30.92805745290048
 30
0.0
 10
39.70538691563347
 20
30.92806989618959
 30
0.0
 10
39.70537786192777
 20
30.92807017383433
 30
0.0
 11
39.71196488664387
 21
30.84565877943146
 31
0.0
 11
39.71123835865898
 21
30.86167031101974
 31
0.0
 11
39.7104050253256
 21
30.87834126813141
 31
0.0
 11
39.7095716919923
 21
30.89294523635079
 31
0.0
 11
39.70873835865896
 21
30.90524806558301
 31
0.0
 11
39.7079050253256
 21
30.91504610124548
 31
0.0
 11
39.70707169199227
 21
30.92218795715508
 31
0.0
 11
39.70623835865897
 21
30.92654896013016
 31
0.0
 11
39.70540502532563
 21
30.92806898434623
 31
0.0
 11
39.70537786192777
 21
30.92807017383433
 31
0.0
  0
SPLINE
  5
266
330
2
100
AcDbEntity
  8
GAIKEI
  6
Continuous
 62
     1
100
AcDbSpline
210
0.0
220
0.0
230
1.0
 70
     8
 71
     3
 72
    20
 73
    16
 74
    14
 42
0.0000000001
 43
0.0000000001
 44
0.000001
 12
-0.0366600883891987
 22
-0.9993277930285419
 32
0.0
 13
-0.8962567756003743
 23
-0.4435355591048144
 33
0.0
 40
0.0
 40
0.0
 40
0.0
 40
0.0
 40
0.0225441489661653
 40
0.0447243509195595
 40
0.0661807098233607
 40
0.0865702989487714
 40
0.1055600249971998
 40
0.1228469656545381
 40
0.1381506161008299
 40
0.1512251988683065
 40
0.1618642916136108
 40
0.1698958897130215
 40
0.1752100305703945
 40
0.1777642420885892
 40
0.1780980751421306
 40
0.1780980751421306
 40
0.1780980751421306
 40
0.1780980751421306
 10
39.73623835865897
 20
30.75056879696268
 30
0.0
 10
39.73596286849438
 20
30.74305913208531
 30
0.0
 10
39.73541223656909
 20
30.72816119232732
 30
0.0
 10
39.73458633767987
 20
30.70611639514732
 30
0.0
 10
39.73376012644715
 20
30.68479041713386
 30
0.0
 10
39.73293538353036
 20
30.66452833489689
 30
0.0
 10
39.73211048561213
 20
30.64565851127924
 30
0.0
 10
39.73129119937654
 20
30.62848148663557
 30
0.0
 10
39.73046366574724
 20
30.61329154403722
 30
0.0
 10
39.72967418808493
 20
30.60028203943313
 30
0.0
 10
39.72880106286688
 20
30.58980983001777
 30
0.0
 10
39.72818020384011
 20
30.58165819290252
 30
0.0
 10
39.72709739095625
 20
30.57680128035599
 30
0.0
 10
39.72691131596548
 20
30.57359713209297
 30
0.0
 10
39.72605041409527
 20
30.57311891350201
 30
0.0
 10
39.72595068071655
 20
30.57306955789198
 30
0.0
 11
39.73623835865897
 21
30.75056879696268
 31
0.0
 11
39.73540502532561
 21
30.72804059135183
 31
0.0
 11
39.73457169199228
 21
30.70587605094102
 31
0.0
 11
39.73373835865897
 21
30.68443588233197
 31
0.0
 11
39.73290502532563
 21
30.66406333155049
 31
0.0
 11
39.73207169199227
 21
30.64509190148175
 31
0.0
 11
39.73123835865896
 21
30.62782506165599
 31
0.0
 11
39.73040502532564
 21
30.61254412169245
 31
0.0
 11
39.72957169199228
 21
30.59949613026061
 31
0.0
 11
39.72873835865895
 21
30.58888973615547
 31
0.0
 11
39.72790502532563
 21
30.58090150954291
 31
0.0
 11
39.72707169199231
 21
30.57565316968192
 31
0.0
 11
39.72623835865895
 21
30.57323904522133
 31
0.0
 11
39.72595068071655
 21
30.57306955789198
 31
0.0
  0
SPLINE
  5
267
330
2
100
AcDbEntity
  8
GAIKEI
  6
Continuous
 62
     1
100
AcDbSpline
210
0.0
220
0.0
230
1.0
 70
     8
 71
     3
 72
    18
 73
    14
 74
    12
 42
0.0000000001
 43
0.0000000001
 44
0.000001
 12
-0.5844656576229886
 22
-0.8114184463390806
 32
0.0
 13
-0.0371796361214176
 23
-0.9993085983107917
 33
0.0
 40
0.0
 40
0.0
 40
0.0
 40
0.0
 40
0.0015785755413751
 40
0.0058611200297043
 40
0.0128957152543348
 40
0.0225825394406143
 40
0.0347746564143209
 40
0.0492779510757191
 40
0.0658578569836326
 40
0.0842512277853489
 40
0.1041564934095454
 40
0.1252572874195086
 40
0.1472100295647203
 40
0.1472100295647203
 40
0.1472100295647203
 40
0.1472100295647203
 10
39.70537786192777
 20
30.92807017383433
 30
0.0
 10
39.70507032086381
 20
30.92764321206323
 30
0.0
 10
39.70402090857061
 20
30.92596088637424
 30
0.0
 10
39.70370873128707
 20
30.92154507909481
 30
0.0
 10
39.702709035265
 20
30.91468131306124
 30
0.0
 10
39.70200540122248
 20
30.90503462939484
 30
0.0
 10
39.70115730371754
 20
30.89294978498862
 30
0.0
 10
39.70035253207882
 20
30.87854223596782
 30
0.0
 10
39.69952707364496
 20
30.86207221290306
 30
0.0
 10
39.6987052547579
 20
30.84379728400256
 30
0.0
 10
39.69787980824717
 20
30.82401481578484
 30
0.0
 10
39.69705486478691
 20
30.80304471167341
 30
0.0
 10
39.69651042364726
 20
30.78870386982595
 30
0.0
 10
39.69623835865898
 20
30.78139134849858
 30
0.0
 11
39.70537786192777
 21
30.92807017383433
 31
0.0
 11
39.70457169199227
 21
30.92671288276028
 31
0.0
 11
39.70373835865894
 21
30.92251237436369
 31
0.0
 11
39.70290502532563
 21
30.91552734312484
 31
0.0
 11
39.7020716919923
 21
30.90587644484396
 31
0.0
 11
39.70123835865894
 21
30.89371284893588
 31
0.0
 11
39.70040502532561
 21
30.87923352046204
 31
0.0
 11
39.69957169199231
 21
30.86267457392137
 31
0.0
 11
39.69873835865897
 21
30.84430009313945
 31
0.0
 11
39.69790502532561
 21
30.82441228103102
 31
0.0
 11
39.69707169199228
 21
30.80332795083837
 31
0.0
 11
39.69623835865898
 21
30.78139134849858
 31
0.0
  0
SPLINE
  5
268
330
2
100
AcDbEntity
  8
GAIKEI
  6
Continuous
 62
     1
100
AcDbSpline
210
0.0
220
0.0
230
1.0
 70
     8
 71
     3
 72
    18
 73
    14
 74
    12
 42
0.0000000001
 43
0.0000000001
 44
0.000001
 12
-0.5846562919338174
 22
-0.8112810982034519
 32
0.0
 13
-0.0371796361214128
 23
-0.9993085983107919
 33
0.0
 40
0.0
 40
0.0
 40
0.0
 40
0.0
 40
0.0015787525645385
 40
0.0058612971317807
 40
0.0128958923591789
 40
0.0225827165461552
 40
0.0347748335200558
 40
0.0492781281816133
 40
0.0658580340895538
 40
0.0842514048912863
 40
0.1041566705154923
 40
0.1252574645254099
 40
0.1472102067833186
 40
0.1472102067833186
 40
0.1472102067833186
 40
0.1472102067833186
 10
39.66537820171863
 20
30.92807017791927
 30
0.0
 10
39.66507052584521
 20
30.92764324054781
 30
0.0
 10
39.66402073003754
 20
30.92596104196053
 30
0.0
 10
39.66370884431528
 20
30.92154502067024
 30
0.0
 10
39.66270898421857
 20
30.91468133965981
 30
0.0
 10
39.66200542109805
 20
30.90503461922651
 30
0.0
 10
39.66115729674439
 20
30.89294978873756
 30
0.0
 10
39.66035253445176
 20
30.87854223487136
 30
0.0
 10
39.65952707295003
 20
30.86207221339658
 30
0.0
 10
39.65870525502602
 20
30.84379728399716
 30
0.0
 10
39.65787980821867
 20
30.82401481593076
 30
0.0
 10
39.65705486486447
 20
30.80304471173576
 30
0.0
 10
39.65651042364863
 20
30.78870386986352
 30
0.0
 10
39.65623835865896
 20
30.78139134849858
 30
0.0
 11
39.66537820171863
 21
30.92807017791927
 31
0.0
 11
39.66457169199231
 21
30.92671288276028
 31
0.0
 11
39.66373835865895
 21
30.92251237436369
 31
0.0
 11
39.66290502532562
 21
30.91552734312484
 31
0.0
 11
39.66207169199229
 21
30.90587644484396
 31
0.0
 11
39.66123835865898
 21
30.89371284893588
 31
0.0
 11
39.66040502532562
 21
30.87923352046204
 31
0.0
 11
39.65957169199228
 21
30.86267457392137
 31
0.0
 11
39.65873835865897
 21
30.84430009313945
 31
0.0
 11
39.65790502532565
 21
30.82441228103102
 31
0.0
 11
39.65707169199229
 21
30.80332795083837
 31
0.0
 11
39.65623835865896
 21
30.78139134849858
 31
0.0
  0
SPLINE
  5
269
330
2
100
AcDbEntity
  8
GAIKEI
  6
Continuous
 62
     1
100
AcDbSpline
210
0.0
220
0.0
230
1.0
 70
     8
 71
     3
 72
    16
 73
    12
 74
    10
 42
0.0000000001
 43
0.0000000001
 44
0.000001
 12
-0.7246933390218108
 22
0.6890715234120614
 32
0.0
 13
-0.043558922455188
 23
0.9990508597036205
 33
0.0
 40
0.0
 40
0.0
 40
0.0
 40
0.0
 40
0.0008245869742485
 40
0.0042427686756079
 40
0.0104169723951864
 40
0.0192855983072384
 40
0.0307089239071242
 40
0.0445088940072205
 40
0.0604644486191224
 40
0.0783168924070715
 40
0.0828709020179214
 40
0.0828709020179214
 40
0.0828709020179214
 40
0.0828709020179214
 10
39.68595094079774
 20
30.57306955684357
 30
0.0
 10
39.68575174990184
 20
30.5732589566444
 30
0.0
 10
39.68477103108721
 20
30.57431585591621
 30
0.0
 10
39.68456046929187
 20
30.57802735772646
 30
0.0
 10
39.68350017309081
 20
30.58394636952096
 30
0.0
 10
39.68284235983638
 20
30.59282033143109
 30
0.0
 10
39.68197995061675
 20
30.60412180942729
 30
0.0
 10
39.68118290318141
 20
30.61783615321463
 30
0.0
 10
39.68035695723647
 20
30.6336802983459
 30
0.0
 10
39.67976410990547
 20
30.64645495588246
 30
0.0
 10
39.6794370649542
 20
30.65391654196338
 30
0.0
 10
39.67937094237037
 20
30.65543310436897
 30
0.0
 11
39.68595094079774
 21
30.57306955684357
 31
0.0
 11
39.68540502532561
 21
30.57368768836397
 31
0.0
 11
39.68457169199229
 21
30.57700247981586
 31
0.0
 11
39.68373835865896
 21
30.58312014946887
 31
0.0
 11
39.68290502532565
 21
30.59194951987576
 31
0.0
 11
39.68207169199228
 21
30.60334239970382
 31
0.0
 11
39.68123835865896
 21
30.61711717996866
 31
0.0
 11
39.68040502532563
 21
30.63305095398971
 31
0.0
 11
39.67957169199227
 21
30.65088393421092
 31
0.0
 11
39.67937094237037
 21
30.65543310436897
 31
0.0
  0
SPLINE
  5
26A
330
2
100
AcDbEntity
  8
GAIKEI
  6
Continuous
 62
     1
100
AcDbSpline
210
0.0
220
0.0
230
1.0
 70
     8
 71
     3
 72
    20
 73
    16
 74
    14
 42
0.0000000001
 43
0.0000000001
 44
0.000001
 12
-0.0366600883891941
 22
-0.9993277930285421
 32
0.0
 13
-0.8960473228605128
 23
-0.4439585512122816
 33
0.0
 40
0.0
 40
0.0
 40
0.0
 40
0.0
 40
0.022544148765907
 40
0.0447243507194604
 40
0.0661807096234183
 40
0.086570298749092
 40
0.1055600247977207
 40
0.1228469654554148
 40
0.1381506159022068
 40
0.1512251986703508
 40
0.161864291416828
 40
0.169895889518345
 40
0.175210030381485
 40
0.1777642418023527
 40
0.1780978513807107
 40
0.1780978513807107
 40
0.1780978513807107
 40
0.1780978513807107
 10
39.69623835865898
 20
30.75056879696268
 30
0.0
 10
39.69596286849684
 20
30.74305913215204
 30
0.0
 10
39.69541223676167
 20
30.72816119244931
 30
0.0
 10
39.6945863377906
 20
30.70611639535855
 30
0.0
 10
39.69376012661785
 20
30.684790417275
 30
0.0
 10
39.69293538355562
 20
30.66452833527626
 30
0.0
 10
39.69211048611214
 20
30.64565851086093
 30
0.0
 10
39.6912911983469
 20
30.62848148879544
 30
0.0
 10
39.69046366946671
 20
30.61329153819599
 30
0.0
 10
39.68967417783526
 20
30.60028205713246
 30
0.0
 10
39.68880109084621
 20
30.58980978330317
 30
0.0
 10
39.68818013815283
 20
30.58165830402248
 30
0.0
 10
39.6870975146628
 20
30.57680107239372
 30
0.0
 10
39.68691118499433
 20
30.57359744917972
 30
0.0
 10
39.68605058412093
 20
30.57311892645191
 30
0.0
 10
39.68595094079774
 20
30.57306955684357
 30
0.0
 11
39.69623835865898
 21
30.75056879696268
 31
0.0
 11
39.69540502532564
 21
30.72804059135183
 31
0.0
 11
39.69457169199228
 21
30.70587605094102
 31
0.0
 11
39.69373835865895
 21
30.68443588233197
 31
0.0
 11
39.69290502532564
 21
30.66406333155049
 31
0.0
 11
39.69207169199227
 21
30.64509190148175
 31
0.0
 11
39.69123835865895
 21
30.62782506165599
 31
0.0
 11
39.69040502532562
 21
30.61254412169245
 31
0.0
 11
39.68957169199232
 21
30.59949613026061
 31
0.0
 11
39.68873835865894
 21
30.58888973615547
 31
0.0
 11
39.68790502532562
 21
30.58090150954291
 31
0.0
 11
39.68707169199229
 21
30.57565316968192
 31
0.0
 11
39.68623835865898
 21
30.57323904522133
 31
0.0
 11
39.68595094079774
 21
30.57306955684357
 31
0.0
  0
SPLINE
  5
26B
330
2
100
AcDbEntity
  8
GAIKEI
  6
Continuous
 62
     1
100
AcDbSpline
210
0.0
220
0.0
230
1.0
 70
     8
 71
     3
 72
    20
 73
    16
 74
    14
 42
0.0000000001
 43
0.0000000001
 44
0.000001
 12
-0.03666008838921
 22
-0.9993277930285415
 32
0.0
 13
-0.89604732285992
 23
-0.443958551213478
 33
0.0
 40
0.0
 40
0.0
 40
0.0
 40
0.0
 40
0.0225441487658518
 40
0.0447243507194604
 40
0.0661807096234183
 40
0.0865702987491487
 40
0.1055600247977207
 40
0.1228469654554715
 40
0.1381506159022635
 40
0.1512251986702941
 40
0.161864291416828
 40
0.169895889518345
 40
0.175210030381485
 40
0.1777642418023481
 40
0.178097851380747
 40
0.178097851380747
 40
0.178097851380747
 40
0.178097851380747
 10
39.69623835865898
 20
34.37056879696269
 30
0.0
 10
39.69596286849684
 20
34.36305913215205
 30
0.0
 10
39.69541223676156
 20
34.3481611924492
 30
0.0
 10
39.69458633779061
 20
34.3261163953585
 30
0.0
 10
39.69376012661781
 20
34.30479041727483
 30
0.0
 10
39.69293538355565
 20
34.28452833527632
 30
0.0
 10
39.69211048611212
 20
34.26565851086082
 30
0.0
 10
39.6912911983469
 20
34.24848148879539
 30
0.0
 10
39.69046366946674
 20
34.23329153819594
 30
0.0
 10
39.68967417783523
 20
34.22028205713252
 30
0.0
 10
39.68880109084619
 20
34.20980978330306
 30
0.0
 10
39.68818013815283
 20
34.20165830402254
 30
0.0
 10
39.68709751466281
 20
34.19680107239356
 30
0.0
 10
39.68691118499433
 20
34.19359744917989
 30
0.0
 10
39.68605058412093
 20
34.19311892645186
 30
0.0
 10
39.68595094079774
 20
34.19306955684351
 30
0.0
 11
39.69623835865898
 21
34.37056879696269
 31
0.0
 11
39.6954050253256
 21
34.34804059135189
 31
0.0
 11
39.69457169199228
 21
34.32587605094102
 31
0.0
 11
39.69373835865895
 21
34.30443588233198
 31
0.0
 11
39.69290502532564
 21
34.28406333155044
 31
0.0
 11
39.69207169199227
 21
34.26509190148176
 31
0.0
 11
39.69123835865895
 21
34.24782506165593
 31
0.0
 11
39.69040502532562
 21
34.2325441216924
 31
0.0
 11
39.68957169199232
 21
34.21949613026067
 31
0.0
 11
39.68873835865894
 21
34.20888973615547
 31
0.0
 11
39.68790502532562
 21
34.20090150954292
 31
0.0
 11
39.68707169199229
 21
34.19565316968192
 31
0.0
 11
39.68623835865898
 21
34.19323904522133
 31
0.0
 11
39.68595094079774
 21
34.19306955684351
 31
0.0
  0
SPLINE
  5
26C
330
2
100
AcDbEntity
  8
GAIKEI
  6
Continuous
 62
     1
100
AcDbSpline
210
0.0
220
0.0
230
1.0
 70
     8
 71
     3
 72
    16
 73
    12
 74
    10
 42
0.0000000001
 43
0.0000000001
 44
0.000001
 12
-0.0430768721965857
 22
0.9990717607268052
 32
0.0
 13
-0.9995301167088943
 23
0.0306520112211923
 33
0.0
 40
0.0
 40
0.0
 40
0.0
 40
0.0
 40
0.0160287203943654
 40
0.032720496009905
 40
0.0473482253724418
 40
0.059679252428638
 40
0.0695126747968568
 40
0.0767030109011095
 40
0.0811430012141379
 40
0.0828762629777788
 40
0.0829034368634424
 40
0.0829034368634424
 40
0.0829034368634424
 40
0.0829034368634424
 10
39.71196488664387
 20
34.46565877943147
 30
0.0
 10
39.71173473093057
 20
34.47099672673369
 30
0.0
 10
39.71123908594532
 20
34.48189070033834
 30
0.0
 10
39.71046093321744
 20
34.49766155038208
 30
0.0
 10
39.70963892435566
 20
34.51216626550405
 30
0.0
 10
39.70883795205509
 20
34.52446871569504
 30
0.0
 10
39.70800818267107
 20
34.53404879611253
 30
0.0
 10
39.70729638657847
 20
34.54156559054894
 30
0.0
 10
39.70645375684274
 20
34.54522342836054
 30
0.0
 10
39.70597694306439
 20
34.54805745289986
 30
0.0
 10
39.70538691563347
 20
34.54806989618953
 30
0.0
 10
39.70537786192777
 20
34.54807017383428
 30
0.0
 11
39.71196488664387
 21
34.46565877943147
 31
0.0
 11
39.71123835865898
 21
34.48167031101974
 31
0.0
 11
39.7104050253256
 21
34.49834126813147
 31
0.0
 11
39.7095716919923
 21
34.51294523635079
 31
0.0
 11
39.70873835865896
 21
34.52524806558301
 31
0.0
 11
39.7079050253256
 21
34.53504610124549
 31
0.0
 11
39.70707169199227
 21
34.54218795715508
 31
0.0
 11
39.70623835865897
 21
34.54654896013017
 31
0.0
 11
39.70540502532563
 21
34.54806898434617
 31
0.0
 11
39.70537786192777
 21
34.54807017383428
 31
0.0
  0
SPLINE
  5
26D
330
2
100
AcDbEntity
  8
GAIKEI
  6
Continuous
 62
     1
100
AcDbSpline
210
0.0
220
0.0
230
1.0
 70
     8
 71
     3
 72
    20
 73
    16
 74
    14
 42
0.0000000001
 43
0.0000000001
 44
0.000001
 12
-0.0366600883891987
 22
-0.9993277930285419
 32
0.0
 13
-0.8962567755996664
 23
-0.4435355591062449
 33
0.0
 40
0.0
 40
0.0
 40
0.0
 40
0.0
 40
0.0225441489661085
 40
0.0447243509195595
 40
0.0661807098233607
 40
0.0865702989488282
 40
0.1055600249971998
 40
0.1228469656545949
 40
0.1381506161008867
 40
0.1512251988682498
 40
0.1618642916136108
 40
0.1698958897130215
 40
0.1752100305703945
 40
0.1777642420885892
 40
0.1780980751421593
 40
0.1780980751421593
 40
0.1780980751421593
 40
0.1780980751421593
 10
39.73623835865897
 20
34.37056879696269
 30
0.0
 10
39.73596286849438
 20
34.36305913208537
 30
0.0
 10
39.73541223656906
 20
34.34816119232727
 30
0.0
 10
39.73458633767992
 20
34.32611639514744
 30
0.0
 10
39.73376012644711
 20
34.3047904171338
 30
0.0
 10
39.73293538353039
 20
34.284528334897
 30
0.0
 10
39.73211048561211
 20
34.26565851127924
 30
0.0
 10
39.73129119937662
 20
34.24848148663557
 30
0.0
 10
39.73046366574719
 20
34.23329154403712
 30
0.0
 10
39.72967418808494
 20
34.22028203943308
 30
0.0
 10
39.72880106286686
 20
34.20980983001766
 30
0.0
 10
39.72818020384008
 20
34.20165819290287
 30
0.0
 10
39.72709739095634
 20
34.19680128035549
 30
0.0
 10
39.72691131596535
 20
34.19359713209337
 30
0.0
 10
39.72605041409528
 20
34.19311891350196
 30
0.0
 10
39.72595068071655
 20
34.19306955789193
 30
0.0
 11
39.73623835865897
 21
34.37056879696269
 31
0.0
 11
39.73540502532561
 21
34.34804059135189
 31
0.0
 11
39.73457169199228
 21
34.32587605094102
 31
0.0
 11
39.73373835865897
 21
34.30443588233198
 31
0.0
 11
39.73290502532563
 21
34.28406333155044
 31
0.0
 11
39.73207169199227
 21
34.26509190148176
 31
0.0
 11
39.73123835865896
 21
34.24782506165593
 31
0.0
 11
39.73040502532564
 21
34.2325441216924
 31
0.0
 11
39.72957169199228
 21
34.21949613026067
 31
0.0
 11
39.72873835865895
 21
34.20888973615547
 31
0.0
 11
39.72790502532563
 21
34.20090150954292
 31
0.0
 11
39.72707169199231
 21
34.19565316968192
 31
0.0
 11
39.72623835865895
 21
34.19323904522133
 31
0.0
 11
39.72595068071655
 21
34.19306955789193
 31
0.0
  0
SPLINE
  5
26E
330
2
100
AcDbEntity
  8
GAIKEI
  6
Continuous
 62
     1
100
AcDbSpline
210
0.0
220
0.0
230
1.0
 70
     8
 71
     3
 72
    18
 73
    14
 74
    12
 42
0.0000000001
 43
0.0000000001
 44
0.000001
 12
-0.5844656576224157
 22
-0.8114184463394934
 32
0.0
 13
-0.0371796361214128
 23
-0.9993085983107919
 33
0.0
 40
0.0
 40
0.0
 40
0.0
 40
0.0
 40
0.0015785755412774
 40
0.0058611200296623
 40
0.0128957152542928
 40
0.0225825394405157
 40
0.034774656414279
 40
0.049277951075734
 40
0.0658578569835907
 40
0.0842512277853638
 40
0.1041564934094467
 40
0.1252572874194667
 40
0.1472100295646784
 40
0.1472100295646784
 40
0.1472100295646784
 40
0.1472100295646784
 10
39.70537786192777
 20
34.54807017383428
 30
0.0
 10
39.70507032086383
 20
34.54764321206324
 30
0.0
 10
39.70402090857053
 20
34.54596088637425
 30
0.0
 10
39.70370873128711
 20
34.54154507909476
 30
0.0
 10
39.702709035265
 20
34.53468131306141
 30
0.0
 10
39.70200540122247
 20
34.52503462939478
 30
0.0
 10
39.70115730371757
 20
34.51294978498868
 30
0.0
 10
39.7003525320788
 20
34.49854223596787
 30
0.0
 10
39.69952707364499
 20
34.48207221290301
 30
0.0
 10
39.69870525475791
 20
34.46379728400257
 30
0.0
 10
39.69787980824717
 20
34.44401481578495
 30
0.0
 10
39.69705486478684
 20
34.4230447116733
 30
0.0
 10
39.69651042364726
 20
34.40870386982596
 30
0.0
 10
39.69623835865898
 20
34.40139134849858
 30
0.0
 11
39.70537786192777
 21
34.54807017383428
 31
0.0
 11
39.70457169199227
 21
34.54671288276035
 31
0.0
 11
39.70373835865894
 21
34.5425123743637
 31
0.0
 11
39.70290502532563
 21
34.53552734312484
 31
0.0
 11
39.7020716919923
 21
34.52587644484402
 31
0.0
 11
39.70123835865894
 21
34.51371284893588
 31
0.0
 11
39.70040502532561
 21
34.49923352046198
 31
0.0
 11
39.69957169199231
 21
34.48267457392137
 31
0.0
 11
39.69873835865897
 21
34.4643000931394
 31
0.0
 11
39.69790502532561
 21
34.44441228103108
 31
0.0
 11
39.69707169199228
 21
34.42332795083837
 31
0.0
 11
39.69623835865898
 21
34.40139134849858
 31
0.0
  0
SPLINE
  5
26F
330
2
100
AcDbEntity
  8
GAIKEI
  6
Continuous
 62
     1
100
AcDbSpline
210
0.0
220
0.0
230
1.0
 70
     8
 71
     3
 72
    18
 73
    14
 74
    12
 42
0.0000000001
 43
0.0000000001
 44
0.000001
 12
-0.5846562919338174
 22
-0.8112810982034519
 32
0.0
 13
-0.0371796361213846
 23
-0.9993085983107928
 33
0.0
 40
0.0
 40
0.0
 40
0.0
 40
0.0
 40
0.0015787525644896
 40
0.0058612971317876
 40
0.0128958923591858
 40
0.0225827165461054
 40
0.0347748335200628
 40
0.049278128181677
 40
0.0658580340895608
 40
0.0842514048913501
 40
0.1041566705154449
 40
0.125257464525417
 40
0.1472102067833257
 40
0.1472102067833257
 40
0.1472102067833257
 40
0.1472102067833257
 10
39.66537820171863
 20
34.54807017791927
 30
0.0
 10
39.66507052584521
 20
34.54764324054782
 30
0.0
 10
39.66402073003756
 20
34.54596104196077
 30
0.0
 10
39.66370884431526
 20
34.54154502067013
 30
0.0
 10
39.66270898421857
 20
34.53468133965993
 30
0.0
 10
39.66200542109803
 20
34.52503461922652
 30
0.0
 10
39.66115729674437
 20
34.51294978873756
 30
0.0
 10
39.66035253445176
 20
34.49854223487136
 30
0.0
 10
39.65952707295003
 20
34.48207221339647
 30
0.0
 10
39.65870525502607
 20
34.46379728399723
 30
0.0
 10
39.65787980821855
 20
34.44401481593076
 30
0.0
 10
39.65705486486449
 20
34.42304471173583
 30
0.0
 10
39.65651042364863
 20
34.40870386986353
 30
0.0
 10
39.65623835865896
 20
34.40139134849858
 30
0.0
 11
39.66537820171863
 21
34.54807017791927
 31
0.0
 11
39.66457169199231
 21
34.54671288276035
 31
0.0
 11
39.66373835865895
 21
34.5425123743637
 31
0.0
 11
39.66290502532562
 21
34.53552734312484
 31
0.0
 11
39.66207169199229
 21
34.52587644484402
 31
0.0
 11
39.66123835865898
 21
34.51371284893588
 31
0.0
 11
39.66040502532562
 21
34.49923352046198
 31
0.0
 11
39.65957169199228
 21
34.48267457392137
 31
0.0
 11
39.65873835865897
 21
34.4643000931394
 31
0.0
 11
39.65790502532559
 21
34.44441228103108
 31
0.0
 11
39.65707169199229
 21
34.42332795083837
 31
0.0
 11
39.65623835865896
 21
34.40139134849858
 31
0.0
  0
SPLINE
  5
270
330
2
100
AcDbEntity
  8
GAIKEI
  6
Continuous
 62
     1
100
AcDbSpline
210
0.0
220
0.0
230
1.0
 70
     8
 71
     3
 72
    16
 73
    12
 74
    10
 42
0.0000000001
 43
0.0000000001
 44
0.000001
 12
-0.7246933390181188
 22
0.6890715234159442
 32
0.0
 13
-0.0435589224551712
 23
0.999050859703621
 33
0.0
 40
0.0
 40
0.0
 40
0.0
 40
0.0
 40
0.0008245869742911
 40
0.0042427686756505
 40
0.0104169723952289
 40
0.0192855983072863
 40
0.030708923907168
 40
0.0445088940072642
 40
0.0604644486191661
 40
0.0783168924071152
 40
0.0828709020179652
 40
0.0828709020179652
 40
0.0828709020179652
 40
0.0828709020179652
 10
39.68595094079774
 20
34.19306955684351
 30
0.0
 10
39.68575174990184
 20
34.19325895664434
 30
0.0
 10
39.68477103108721
 20
34.19431585591622
 30
0.0
 10
39.68456046929187
 20
34.19802735772646
 30
0.0
 10
39.68350017309083
 20
34.20394636952091
 30
0.0
 10
39.68284235983627
 20
34.21282033143109
 30
0.0
 10
39.68197995061675
 20
34.22412180942718
 30
0.0
 10
39.68118290318145
 20
34.23783615321474
 30
0.0
 10
39.68035695723647
 20
34.25368029834596
 30
0.0
 10
39.67976410990547
 20
34.26645495588247
 30
0.0
 10
39.6794370649542
 20
34.27391654196339
 30
0.0
 10
39.67937094237037
 20
34.27543310436897
 30
0.0
 11
39.68595094079774
 21
34.19306955684351
 31
0.0
 11
39.68540502532561
 21
34.19368768836398
 31
0.0
 11
39.68457169199229
 21
34.19700247981587
 31
0.0
 11
39.68373835865896
 21
34.20312014946887
 31
0.0
 11
39.6829050253256
 21
34.21194951987576
 31
0.0
 11
39.68207169199228
 21
34.22334239970382
 31
0.0
 11
39.68123835865896
 21
34.23711717996866
 31
0.0
 11
39.68040502532563
 21
34.25305095398972
 31
0.0
 11
39.67957169199227
 21
34.27088393421093
 31
0.0
 11
39.67937094237037
 21
34.27543310436897
 31
0.0
  0
SPLINE
  5
271
330
2
100
AcDbEntity
  8
GAIKEI
  6
Continuous
 62
     1
100
AcDbSpline
210
0.0
220
0.0
230
1.0
 70
     8
 71
     3
 72
    11
 73
     7
 74
     5
 42
0.0000000001
 43
0.0000000001
 44
0.000001
 12
-0.5697183474044964
 22
0.8218400115780987
 32
0.0
 13
-0.725838196782078
 23
0.6878654752872409
 33
0.0
 40
0.0
 40
0.0
 40
0.0
 40
0.0
 40
0.0271269143005002
 40
0.0541651219876256
 40
0.0813877632111755
 40
0.092755766141198
 40
0.092755766141198
 40
0.092755766141198
 40
0.092755766141198
 10
39.61426043595452
 20
29.53384518822094
 30
0.0
 10
39.60910886902603
 20
29.54127651607519
 30
0.0
 10
39.59835736484477
 20
29.55579947213437
 30
0.0
 10
39.58084744078109
 20
29.57654221288084
 30
0.0
 10
39.5657671968709
 20
29.59240866297398
 30
0.0
 10
39.55653544857219
 20
29.60136807139674
 30
0.0
 10
39.55378500498961
 20
29.6039746236429
 30
0.0
 11
39.61426043595452
 21
29.53384518822094
 31
0.0
 11
39.59811415265887
 21
29.55564393302029
 31
0.0
 11
39.58069012472711
 21
29.57631964300737
 31
0.0
 11
39.56194179532281
 21
29.59605736355553
 31
0.0
 11
39.55378500498961
 21
29.6039746236429
 31
0.0
  0
SPLINE
  5
272
330
2
100
AcDbEntity
  8
GAIKEI
  6
Continuous
 62
     1
100
AcDbSpline
210
0.0
220
0.0
230
1.0
 70
     8
 71
     3
 72
    11
 73
     7
 74
     5
 42
0.0000000001
 43
0.0000000001
 44
0.000001
 12
0.7261327727615202
 22
0.6875545042552385
 32
0.0
 13
0.5694961259181754
 23
0.8219940161364862
 33
0.0
 40
0.0
 40
0.0
 40
0.0
 40
0.0
 40
0.0216057200347222
 40
0.0445668898279812
 40
0.0685149071729425
 40
0.0928153822368483
 40
0.0928153822368483
 40
0.0928153822368483
 40
0.0928153822368483
 10
39.55374354660677
 20
14.95212366464028
 30
0.0
 10
39.5589730870722
 20
14.95707536801615
 30
0.0
 10
39.56952763398826
 20
14.96753811612478
 30
0.0
 10
39.58497873050648
 20
14.98436841853203
 30
0.0
 10
39.60011412616196
 20
15.00266843908525
 30
0.0
 10
39.60964742715223
 20
15.01563412400725
 30
0.0
 10
39.61426043595452
 20
15.02229240570449
 30
0.0
 11
39.55374354660677
 21
14.95212366464028
 31
0.0
 11
39.56908725489254
 21
14.96733428153743
 31
0.0
 11
39.58461012119602
 21
14.98425254756159
 31
0.0
 11
39.5998618943107
 21
15.00271653465006
 31
0.0
 11
39.61426043595452
 21
15.02229240570449
 31
0.0
  0
SPLINE
  5
273
330
2
100
AcDbEntity
  8
GAIKEI
  6
Continuous
 62
     1
100
AcDbSpline
210
0.0
220
0.0
230
1.0
 70
     8
 71
     3
 72
    11
 73
     7
 74
     5
 42
0.0000000001
 43
0.0000000001
 44
0.000001
 12
0.7261327727614697
 22
0.6875545042552915
 32
0.0
 13
0.5694961259186093
 23
0.8219940161361854
 33
0.0
 40
0.0
 40
0.0
 40
0.0
 40
0.0
 40
0.0216057200346422
 40
0.0445668898279849
 40
0.0685149071729024
 40
0.092815382236854
 40
0.092815382236854
 40
0.092815382236854
 40
0.092815382236854
 10
39.55374354660677
 20
28.38712366464029
 30
0.0
 10
39.55897308707219
 20
28.39207536801609
 30
0.0
 10
39.56952763398835
 20
28.40253811612473
 30
0.0
 10
39.58497873050638
 20
28.41936841853192
 30
0.0
 10
39.60011412616204
 20
28.43766843908531
 30
0.0
 10
39.60964742715223
 20
28.45063412400719
 30
0.0
 10
39.61426043595452
 20
28.45729240570449
 30
0.0
 11
39.55374354660677
 21
28.38712366464029
 31
0.0
 11
39.56908725489254
 21
28.40233428153738
 31
0.0
 11
39.58461012119602
 21
28.4192525475616
 31
0.0
 11
39.5998618943107
 21
28.43771653465001
 31
0.0
 11
39.61426043595452
 21
28.45729240570449
 31
0.0
  0
SPLINE
  5
274
330
2
100
AcDbEntity
  8
GAIKEI
  6
Continuous
 62
     1
100
AcDbSpline
210
0.0
220
0.0
230
1.0
 70
     8
 71
     3
 72
    11
 73
     7
 74
     5
 42
0.0000000001
 43
0.0000000001
 44
0.000001
 12
-0.5697183474043875
 22
0.8218400115781744
 32
0.0
 13
-0.7258381967822672
 23
0.6878654752870411
 33
0.0
 40
0.0
 40
0.0
 40
0.0
 40
0.0
 40
0.0271269143005459
 40
0.0541651219876278
 40
0.0813877632111777
 40
0.0927557661412398
 40
0.0927557661412398
 40
0.0927557661412398
 40
0.0927557661412398
 10
39.61426043595452
 20
16.09884518822093
 30
0.0
 10
39.60910886902603
 20
16.10627651607524
 30
0.0
 10
39.59835736484482
 20
16.12079947213442
 30
0.0
 10
39.58084744078104
 20
16.14154221288078
 30
0.0
 10
39.56576719687087
 20
16.15740866297392
 30
0.0
 10
39.55653544857219
 20
16.16636807139679
 30
0.0
 10
39.55378500498961
 20
16.16897462364295
 30
0.0
 11
39.61426043595452
 21
16.09884518822093
 31
0.0
 11
39.59811415265887
 21
16.12064393302034
 31
0.0
 11
39.58069012472711
 21
16.14131964300736
 31
0.0
 11
39.56194179532281
 21
16.16105736355553
 31
0.0
 11
39.55378500498961
 21
16.16897462364295
 31
0.0
  0
SPLINE
  5
275
330
2
100
AcDbEntity
  8
GAIKEI
  6
Continuous
 62
     1
100
AcDbSpline
210
0.0
220
0.0
230
1.0
 70
     8
 71
     3
 72
    13
 73
     9
 74
     7
 42
0.0000000001
 43
0.0000000001
 44
0.000001
 12
-0.3556040416314752
 22
0.9346367024546811
 32
0.0
 13
-0.4792288571630963
 23
0.8776899808372844
 33
0.0
 40
0.0
 40
0.0
 40
0.0
 40
0.0
 40
0.0009841552556807
 40
0.0341752847052409
 40
0.072450229555922
 40
0.110709870812978
 40
0.1490911211199517
 40
0.1874325864602751
 40
0.1874325864602751
 40
0.1874325864602751
 40
0.1874325864602751
 10
39.68926043595434
 20
15.92723162608939
 30
0.0
 10
39.68914377942551
 20
15.92753823529699
 30
0.0
 10
39.68509245062164
 20
15.93818525193376
 30
0.0
 10
39.67644006375109
 20
15.96073227103363
 30
0.0
 10
39.66295703655584
 20
15.99473365274366
 30
0.0
 10
39.64807374417785
 20
16.03003268511327
 30
0.0
 10
39.63215929859817
 20
16.06491127756277
 30
0.0
 10
39.62038521482686
 20
16.08762788156099
 30
0.0
 10
39.61426043595452
 20
16.09884518822093
 30
0.0
 11
39.68926043595434
 21
15.92723162608939
 31
0.0
 11
39.68891037768387
 21
15.92815140129136
 31
0.0
 11
39.67699343875163
 21
15.95912877993379
 31
0.0
 11
39.66282785752378
 21
15.99468569440819
 31
0.0
 11
39.64791998568532
 21
16.02992115823832
 31
0.0
 11
39.63186572097285
 21
16.06478420686096
 31
0.0
 11
39.61426043595452
 21
16.09884518822093
 31
0.0
  0
SPLINE
  5
276
330
2
100
AcDbEntity
  8
GAIKEI
  6
Continuous
 62
     1
100
AcDbSpline
210
0.0
220
0.0
230
1.0
 70
     8
 71
     3
 72
    13
 73
     9
 74
     7
 42
0.0000000001
 43
0.0000000001
 44
0.000001
 12
-0.355604041378737
 22
0.9346367025508412
 32
0.0
 13
-0.479228857163119
 23
0.8776899808372721
 33
0.0
 40
0.0
 40
0.0
 40
0.0
 40
0.0
 40
0.000984155255696
 40
0.0341752847051429
 40
0.0724502295558293
 40
0.1107098708129955
 40
0.1490911211199593
 40
0.1874325864602826
 40
0.1874325864602826
 40
0.1874325864602826
 40
0.1874325864602826
 10
39.68926043595434
 20
29.3622316260894
 30
0.0
 10
39.68914377942558
 20
29.36253823529705
 30
0.0
 10
39.68509245062495
 20
29.37318525193484
 30
0.0
 10
39.67644006374948
 20
29.39573227103301
 30
0.0
 10
39.66295703655641
 20
29.42973365274389
 30
0.0
 10
39.64807374417788
 20
29.46503268511321
 30
0.0
 10
39.63215929859814
 20
29.49991127756277
 30
0.0
 10
39.62038521482686
 20
29.522627881561
 30
0.0
 10
39.61426043595452
 20
29.53384518822094
 30
0.0
 11
39.68926043595434
 21
29.3622316260894
 31
0.0
 11
39.68891037768413
 21
29.36315140129142
 31
0.0
 11
39.67699343875163
 21
29.3941287799338
 31
0.0
 11
39.66282785752378
 21
29.42968569440819
 31
0.0
 11
39.64791998568532
 21
29.46492115823833
 31
0.0
 11
39.63186572097285
 21
29.49978420686097
 31
0.0
 11
39.61426043595452
 21
29.53384518822094
 31
0.0
  0
SPLINE
  5
277
330
2
100
AcDbEntity
  8
GAIKEI
  6
Continuous
 62
     1
100
AcDbSpline
210
0.0
220
0.0
230
1.0
 70
     8
 71
     3
 72
    12
 73
     8
 74
     6
 42
0.0000000001
 43
0.0000000001
 44
0.000001
 12
0.4769591228668367
 22
0.8789254775657024
 32
0.0
 13
0.3555935532617211
 23
0.9346406929289479
 33
0.0
 40
0.0
 40
0.0
 40
0.0
 40
0.0
 40
0.0463485371772527
 40
0.0928814443548106
 40
0.1396449289866773
 40
0.1864441356849462
 40
0.1874282895021767
 40
0.1874282895021767
 40
0.1874282895021767
 40
0.1874282895021767
 10
39.61426043595452
 20
15.02229240570449
 30
0.0
 10
39.62162922183393
 20
15.03587137576215
 30
0.0
 10
39.63574889717548
 20
15.0634462421832
 30
0.0
 10
39.65457303175302
 20
15.10603551462674
 30
0.0
 10
39.67216306877327
 20
15.14929763725206
 30
0.0
 10
39.68347909698854
 20
15.17871293600774
 30
0.0
 10
39.68914378303673
 20
15.19359935776748
 30
0.0
 10
39.68926043595434
 20
15.19390596783603
 30
0.0
 11
39.61426043595452
 21
15.02229240570449
 31
0.0
 11
39.635323619752
 21
15.06357864526109
 31
0.0
 11
39.65432833095616
 21
15.10605434201528
 31
0.0
 11
39.67202147102067
 21
15.1493416975411
 31
0.0
 11
39.6889103776453
 21
15.19298619265049
 31
0.0
 11
39.68926043595434
 21
15.19390596783603
 31
0.0
  0
SPLINE
  5
278
330
2
100
AcDbEntity
  8
GAIKEI
  6
Continuous
 62
     1
100
AcDbSpline
210
0.0
220
0.0
230
1.0
 70
     8
 71
     3
 72
    12
 73
     8
 74
     6
 42
0.0000000001
 43
0.0000000001
 44
0.000001
 12
0.4769591228667053
 22
0.8789254775657735
 32
0.0
 13
0.3555935529301539
 23
0.9346406930550958
 33
0.0
 40
0.0
 40
0.0
 40
0.0
 40
0.0
 40
0.0463485371772527
 40
0.09288144435473
 40
0.1396449289868256
 40
0.186444135684968
 40
0.1874282895021885
 40
0.1874282895021885
 40
0.1874282895021885
 40
0.1874282895021885
 10
39.61426043595452
 20
28.45729240570449
 30
0.0
 10
39.62162922183393
 20
28.47087137576216
 30
0.0
 10
39.63574889717529
 20
28.4984462421832
 30
0.0
 10
39.65457303175367
 20
28.54103551462657
 30
0.0
 10
39.67216306877143
 20
28.58429763725292
 30
0.0
 10
39.68347909699387
 20
28.61371293600547
 30
0.0
 10
39.68914378303684
 20
28.62859935776743
 30
0.0
 10
39.68926043595434
 20
28.62890596783604
 30
0.0
 11
39.61426043595452
 21
28.45729240570449
 31
0.0
 11
39.635323619752
 21
28.49857864526109
 31
0.0
 11
39.65432833095616
 21
28.54105434201528
 31
0.0
 11
39.67202147102067
 21
28.58434169754116
 31
0.0
 11
39.68891037764561
 21
28.62798619265038
 31
0.0
 11
39.68926043595434
 21
28.62890596783604
 31
0.0
  0
SPLINE
  5
279
330
2
100
AcDbEntity
  8
GAIKEI
  6
Continuous
 62
     1
100
AcDbSpline
210
0.0
220
0.0
230
1.0
 70
     8
 71
     3
 72
    30
 73
    26
 74
    24
 42
0.0000000001
 43
0.0000000001
 44
0.000001
 12
-0.0200236380412519
 22
-0.9997995068610471
 32
0.0
 13
0.6382126117635996
 23
-0.7698601575519316
 33
0.0
 40
0.0
 40
0.0
 40
0.0
 40
0.0
 40
0.0166069238216534
 40
0.037301078554888
 40
0.0621612230433223
 40
0.0912321347745792
 40
0.1271247647505298
 40
0.1661149835441988
 40
0.1996843709300523
 40
0.2075830122509956
 40
0.2151115874076587
 40
0.2222706400799754
 40
0.2290608027015228
 40
0.2354828166742133
 40
0.2415375586177529
 40
0.269538212107097
 40
0.2966935088714161
 40
0.3230613834754922
 40
0.3487051081642353
 40
0.3736934566497212
 40
0.3981007431757856
 40
0.4408164956220493
 40
0.4807239607647317
 40
0.5184525715331189
 40
0.5547443344004014
 40
0.5547443344004014
 40
0.5547443344004014
 40
0.5547443344004014
 10
41.18001177777992
 20
12.65147866778181
 30
0.0
 10
41.17990093410273
 20
12.64594413636604
 30
0.0
 10
41.1792725117388
 20
12.63351197495518
 30
0.0
 10
41.17640614575478
 20
12.6129725207478
 30
0.0
 10
41.17191844274436
 20
12.58850291918122
 30
0.0
 10
41.16546083978554
 20
12.55925969462692
 30
0.0
 10
41.15707153531069
 20
12.52563850888339
 30
0.0
 10
41.14898898113736
 20
12.49040066272925
 30
0.0
 10
41.14346733477228
 20
12.46415304295328
 30
0.0
 10
41.14040569683502
 20
12.44811019346008
 30
0.0
 10
41.13905410620226
 20
12.44070366525534
 30
0.0
 10
41.13783132948227
 20
12.43364948446901
 30
0.0
 10
41.13673814197174
 20
12.42694754420478
 30
0.0
 10
41.13577179509043
 20
12.42059816269727
 30
0.0
 10
41.13392174146788
 20
12.40723294628691
 30
0.0
 10
41.13168772116395
 20
12.3869443753714
 30
0.0
 10
41.12989298105882
 20
12.35982019380196
 30
0.0
 10
41.12941252962231
 20
12.33342467945357
 30
0.0
 10
41.13023784126184
 20
12.30776027801289
 30
0.0
 10
41.13236785522263
 20
12.28282439569909
 30
0.0
 10
41.13670461538491
 20
12.25241597024035
 30
0.0
 10
41.14450587365491
 20
12.21752445493928
 30
0.0
 10
41.15782027949056
 20
12.17957383493808
 30
0.0
 10
41.17507305593345
 20
12.14559823345195
 30
0.0
 10
41.18953198740003
 20
12.12547481118207
 30
0.0
 10
41.19725260765505
 20
12.11616161708912
 30
0.0
 11
41.18001177777992
 21
12.65147866778181
 31
0.0
 11
41.17912403152533
 21
12.63489568618939
 31
0.0
 11
41.17646544294399
 21
12.61437304950982
 31
0.0
 11
41.17203601203587
 21
12.58991075774315
 31
0.0
 11
41.16583573880098
 21
12.56150881088928
 31
0.0
 11
41.1574268847971
 21
12.52661515760945
 31
0.0
 11
41.14870773327029
 21
12.48861242165151
 31
0.0
 11
41.14187167997452
 21
12.45574650340779
 31
0.0
 11
41.14039246597892
 21
12.44798761913063
 31
0.0
 11
41.13904242141981
 21
12.44058109026355
 31
0.0
 11
41.13782154629712
 21
12.43352691680661
 31
0.0
 11
41.13672984061096
 21
12.42682509875976
 31
0.0
 11
41.13576730436131
 21
12.420475636123
 31
0.0
 11
41.13493393754811
 21
12.41447852889638
 31
0.0
 11
41.13186199173376
 21
12.38664693744681
 31
0.0
 11
41.13009463332342
 21
12.35954925113901
 31
0.0
 11
41.12963186231715
 21
12.33318546997293
 31
0.0
 11
41.1304736787149
 21
12.30755559394868
 31
0.0
 11
41.13262008251672
 21
12.28265962306619
 31
0.0
 11
41.13607107372255
 21
12.25849755732554
 31
0.0
 11
41.14554348000697
 21
12.21684533347559
 31
0.0
 11
41.15889787109054
 21
12.17923860215291
 31
0.0
 11
41.17613424697324
 21
12.14567736335743
 31
0.0
 11
41.19725260765505
 21
12.11616161708912
 31
0.0
  0
SPLINE
  5
27A
330
2
100
AcDbEntity
  8
GAIKEI
  6
Continuous
 62
     1
100
AcDbSpline
210
0.0
220
0.0
230
1.0
 70
     8
 71
     3
 72
    27
 73
    23
 74
    21
 42
0.0000000001
 43
0.0000000001
 44
0.000001
 12
-0.3587289631765114
 22
-0.9334417662491352
 32
0.0
 13
-0.3043867708718783
 23
-0.952548525650106
 33
0.0
 40
0.0
 40
0.0
 40
0.0
 40
0.0
 40
0.0000527653160561
 40
0.0137452944832407
 40
0.02778487269604
 40
0.0420904152000339
 40
0.0621802894338721
 40
0.0825042457510262
 40
0.1029273041857615
 40
0.1204407067947538
 40
0.1390172120262769
 40
0.1586623151565334
 40
0.1727209773581225
 40
0.188139710500529
 40
0.2049363464391738
 40
0.2220007426194981
 40
0.2384281114963444
 40
0.2550330349711458
 40
0.2718074234065375
 40
0.3201416250121607
 40
0.3656184092027612
 40
0.4082186707019581
 40
0.4082186707019581
 40
0.4082186707019581
 40
0.4082186707019581
 10
41.25873410500068
 20
30.08584262884887
 30
0.0
 10
41.25872779551831
 20
30.08582621106558
 30
0.0
 10
41.2570845216918
 20
30.08154927064618
 30
0.0
 10
41.25380361389699
 20
30.07288803574056
 30
0.0
 10
41.24899584655774
 20
30.05972567524338
 30
0.0
 10
41.24366768326582
 20
30.04448460259289
 30
0.0
 10
41.23803862587219
 20
30.02713210161642
 30
0.0
 10
41.23242845870524
 20
30.0076403597842
 30
0.0
 10
41.22775450833238
 20
29.98878525975602
 30
0.0
 10
41.22395880313755
 20
29.97033001627347
 30
0.0
 10
41.22081329197953
 20
29.95201700832456
 30
0.0
 10
41.21836270926141
 20
29.93476099345486
 30
0.0
 10
41.21642451027241
 20
29.91850131978697
 30
0.0
 10
41.21480641995768
 20
29.90316141514706
 30
0.0
 10
41.2132384087561
 20
29.88680963689939
 30
0.0
 10
41.21176047231055
 20
29.8701120696017
 30
0.0
 10
41.21021898180003
 20
29.85348445271137
 30
0.0
 10
41.20862349374365
 20
29.83695893557291
 30
0.0
 10
41.20604386562642
 20
29.80984426813331
 30
0.0
 10
41.20132788964636
 20
29.77325856113072
 30
0.0
 10
41.19230009016418
 20
29.72865124386306
 30
0.0
 10
41.18433409645859
 20
29.70036301778561
 30
0.0
 10
41.18001177777992
 20
29.68683674569115
 30
0.0
 11
41.25873410500068
 21
30.08584262884887
 31
0.0
 11
41.25871517738675
 21
30.0857933747867
 31
0.0
 11
41.25386872399213
 21
30.0729870526518
 31
0.0
 11
41.2490556119476
 21
30.05979827378212
 31
0.0
 11
41.24434546599769
 21
30.04629037755171
 31
0.0
 11
41.23816812710439
 21
30.0271737866621
 31
0.0
 11
41.23255816872029
 21
30.00763940264926
 31
0.0
 11
41.22766368048961
 21
29.98781149577462
 31
0.0
 11
41.22412039162279
 21
29.97066026317379
 31
0.0
 11
41.22095894669087
 21
29.95235474048735
 31
0.0
 11
41.2181847920003
 21
29.93290649255238
 31
0.0
 11
41.2165072777274
 21
29.91894827167039
 31
0.0
 11
41.21487684681947
 21
29.90361598889655
 31
0.0
 11
41.21326617736849
 21
29.88689676766666
 31
0.0
 11
41.2117287530281
 21
29.86990178962969
 31
0.0
 11
41.21021313937791
 21
29.85354451480759
 31
0.0
 11
41.20863178192855
 21
29.83701510595637
 31
0.0
 11
41.20699135872665
 21
29.82032120537406
 31
0.0
 11
41.20062022207849
 21
29.77240957372777
 31
0.0
 11
41.1915409675934
 21
29.72784777994025
 31
0.0
 11
41.18001177777992
 21
29.68683674569115
 31
0.0
  0
SPLINE
  5
27B
330
2
100
AcDbEntity
  8
GAIKEI
  6
Continuous
 62
     1
100
AcDbSpline
210
0.0
220
0.0
230
1.0
 70
     8
 71
     3
 72
    23
 73
    19
 74
    17
 42
0.0000000001
 43
0.0000000001
 44
0.000001
 12
0.1037512493360999
 22
-0.9946032768200588
 32
0.0
 13
-0.9066396789115103
 23
-0.4219057864301387
 33
0.0
 40
0.0
 40
0.0
 40
0.0
 40
0.0
 40
0.0607026110801326
 40
0.1185986751946622
 40
0.1736064872697786
 40
0.225649077979165
 40
0.274657415256655
 40
0.3205734925395038
 40
0.3633544662868911
 40
0.4029783719658731
 40
0.4389238356324564
 40
0.4721139622826166
 40
0.502597461664104
 40
0.5304770080022355
 40
0.5559339520156136
 40
0.5792613998136735
 40
0.6009024388063763
 40
0.6214788907307539
 40
0.6214788907307539
 40
0.6214788907307539
 40
0.6214788907307539
 10
41.58956534306272
 20
31.09445476923724
 30
0.0
 10
41.59166466697523
 20
31.07432976393994
 30
0.0
 10
41.59527266743424
 20
31.03495735041509
 30
0.0
 10
41.59921477787674
 20
30.9772175518649
 30
0.0
 10
41.60152610688141
 20
30.92227709126575
 30
0.0
 10
41.6022403653397
 20
30.87025477635763
 30
0.0
 10
41.60136733522344
 20
30.82126445201647
 30
0.0
 10
41.59891628700491
 20
30.77541707487103
 30
0.0
 10
41.5948891929123
 20
30.73281974774017
 30
0.0
 10
41.58931010568295
 20
30.69374817069775
 30
0.0
 10
41.58217413075111
 20
30.65818219385306
 30
0.0
 10
41.57354187563295
 20
30.62608950435168
 30
0.0
 10
41.56337435034555
 20
30.59727758913755
 30
0.0
 10
41.55167711486692
 20
30.57185285266417
 30
0.0
 10
41.5384450639774
 20
30.54991320151885
 30
0.0
 10
41.52363220474247
 20
30.53159450904639
 30
0.0
 10
41.50723439458253
 20
30.51696723362284
 30
0.0
 10
41.49495458585429
 20
30.50988127369618
 30
0.0
 10
41.48873610993233
 20
30.50698749898584
 30
0.0
 11
41.58956534306272
 21
31.09445476923724
 31
0.0
 11
41.59511773084773
 21
31.0340074658983
 31
0.0
 11
41.59902162548698
 21
30.97624318130602
 31
0.0
 11
41.60130035491079
 21
30.92128259774722
 31
0.0
 11
41.60197178486962
 21
30.86924434854774
 31
0.0
 11
41.60104834332729
 21
30.82024472346825
 31
0.0
 11
41.59853705954143
 21
30.774397385589
 31
0.0
 11
41.59443961742067
 21
30.73181310025797
 31
0.0
 11
41.58875242271807
 21
30.69259947662931
 31
0.0
 11
41.58159965462755
 21
30.65737288495979
 31
0.0
 11
41.57288471200618
 21
30.62534738572612
 31
0.0
 11
41.56263106342417
 21
30.59664016521919
 31
0.0
 11
41.55085710933718
 21
30.57136882007262
 31
0.0
 11
41.53757594934356
 21
30.54965098996553
 31
0.0
 11
41.52279515907349
 21
30.53160397508447
 31
0.0
 11
41.50651657805593
 21
30.51734433915908
 31
0.0
 11
41.48873610993233
 21
30.50698749898584
 31
0.0
  0
SPLINE
  5
27C
330
2
100
AcDbEntity
  8
GAIKEI
  6
Continuous
 62
     1
100
AcDbSpline
210
0.0
220
0.0
230
1.0
 70
     8
 71
     3
 72
    13
 73
     9
 74
     7
 42
0.0000000001
 43
0.0000000001
 44
0.000001
 12
-0.9958439311814659
 22
-0.091076147969947
 32
0.0
 13
-0.9929680145434634
 23
-0.1183829468023682
 33
0.0
 40
0.0
 40
0.0
 40
0.0
 40
0.0
 40
0.2790849670557549
 40
0.4824077539591704
 40
0.6857426128006058
 40
0.8891214813044779
 40
1.092568902581033
 40
1.13206428138868
 40
1.13206428138868
 40
1.13206428138868
 40
1.13206428138868
 10
41.37081399127629
 20
8.527921240575665
 30
0.0
 10
41.27817230103414
 20
8.51944857932375
 30
0.0
 10
41.11807700450587
 20
8.504373792053229
 30
0.0
 10
40.89059772646871
 20
8.481954330844303
 30
0.0
 10
40.68832426857015
 20
8.461093398494483
 30
0.0
 10
40.48611805975347
 20
8.439199957805556
 30
0.0
 10
40.33830610913317
 20
8.422298301334933
 30
0.0
 10
40.25788858899892
 20
8.412762268917674
 30
0.0
 10
40.24481603970616
 20
8.411203742474924
 30
0.0
 11
41.37081399127629
 21
8.527921240575665
 31
0.0
 11
41.09295680014156
 21
8.501772055638355
 31
0.0
 11
40.89061722088891
 21
8.481800994087905
 31
0.0
 11
40.6883571099234
 21
8.460922604405141
 31
0.0
 11
40.4861633205931
 21
8.438999372954924
 31
0.0
 11
40.28403680333028
 21
8.41585384251789
 31
0.0
 11
40.24481603970616
 21
8.411203742474924
 31
0.0
  0
SPLINE
  5
27D
330
2
100
AcDbEntity
  8
GAIKEI
  6
Continuous
 62
     1
100
AcDbSpline
210
0.0
220
0.0
230
1.0
 70
     8
 71
     3
 72
    15
 73
    11
 74
     9
 42
0.0000000001
 43
0.0000000001
 44
0.000001
 12
0.1151974769613444
 22
0.9933426102316062
 32
0.0
 13
-0.8415501913672637
 23
0.5401789290686209
 33
0.0
 40
0.0
 40
0.0
 40
0.0
 40
0.0
 40
0.039408496347878
 40
0.0771399072617702
 40
0.1117967484186539
 40
0.1420880407746827
 40
0.1668916500996791
 40
0.1853241616436924
 40
0.1968791077613752
 40
0.2022733320265095
 40
0.2022733320265095
 40
0.2022733320265095
 40
0.2022733320265095
 10
37.47830476793146
 20
37.0579672792527
 30
0.0
 10
37.47981802104816
 20
37.07101599212854
 30
0.0
 10
37.48242927529327
 20
37.09660268554251
 30
0.0
 10
37.48518214356759
 20
37.13376109870609
 30
0.0
 10
37.48689214354222
 20
37.16797800041025
 30
0.0
 10
37.48739366147737
 20
37.19781089737222
 30
0.0
 10
37.48729828236835
 20
37.2225532090406
 30
0.0
 10
37.48518744510588
 20
37.24023534766729
 30
0.0
 10
37.48438248149032
 20
37.25291464567573
 30
0.0
 10
37.47981793808562
 20
37.25672190410808
 30
0.0
 10
37.47830476793142
 20
37.25769318620365
 30
0.0
 11
37.47830476793146
 21
37.0579672792527
 31
0.0
 11
37.48229943656611
 21
37.0971721713434
 31
0.0
 11
37.48510026161142
 21
37.13479947960883
 31
0.0
 11
37.48675936695659
 21
37.1694165761831
 31
0.0
 11
37.48730883547182
 21
37.19970286999552
 31
0.0
 11
37.48675948227474
 21
37.22450036910942
 31
0.0
 11
37.48510044258751
 21
37.24285801020761
 31
0.0
 11
37.4822995898468
 21
37.25406805861684
 31
0.0
 11
37.47830476793142
 21
37.25769318620365
 31
0.0
  0
SPLINE
  5
27E
330
2
100
AcDbEntity
  8
GAIKEI
  6
Continuous
 62
     1
100
AcDbSpline
210
0.0
220
0.0
230
1.0
 70
     8
 71
     3
 72
    11
 73
     7
 74
     5
 42
0.0000000001
 43
0.0000000001
 44
0.000001
 12
-0.9272724310398604
 22
-0.3743872842838379
 32
0.0
 13
-0.8850743362206914
 23
-0.465449695846396
 33
0.0
 40
0.0
 40
0.0
 40
0.0
 40
0.0
 40
0.0143995265550779
 40
0.0364303848129551
 40
0.0543525889738857
 40
0.0655662738736249
 40
0.0655662738736249
 40
0.0655662738736249
 40
0.0655662738736249
 10
37.47830476793146
 20
37.0579672792527
 30
0.0
 10
37.47385400659995
 20
37.05617027937206
 30
0.0
 10
37.4627162702935
 20
37.05130595607011
 30
0.0
 10
37.44677248613533
 20
37.04265454851191
 30
0.0
 10
37.43221635814854
 20
37.03376157859009
 30
0.0
 10
37.42365485814537
 20
37.02916936013691
 30
0.0
 10
37.42034654323897
 20
37.02742955806161
 30
0.0
 11
37.47830476793146
 21
37.0579672792527
 31
0.0
 11
37.46511931372811
 21
37.05217977257877
 31
0.0
 11
37.44567424012962
 21
37.04182361943583
 31
0.0
 11
37.43020494754123
 21
37.03277313648897
 31
0.0
 11
37.42034654323897
 21
37.02742955806161
 31
0.0
  0
SPLINE
  5
27F
330
2
100
AcDbEntity
  8
GAIKEI
  6
Continuous
 62
     1
100
AcDbSpline
210
0.0
220
0.0
230
1.0
 70
     8
 71
     3
 72
    19
 73
    15
 74
    13
 42
0.0000000001
 43
0.0000000001
 44
0.000001
 12
-0.4537847692220346
 22
-0.891111319208832
 32
0.0
 13
0.0558661521317871
 23
-0.9984382670180407
 33
0.0
 40
0.0
 40
0.0
 40
0.0
 40
0.0
 40
0.0058433329848587
 40
0.0115431011623097
 40
0.0191493870676902
 40
0.0323458963040323
 40
0.0491681393601961
 40
0.0697806678864628
 40
0.0924149932145815
 40
0.114987861298647
 40
0.1372182372399837
 40
0.153517971264821
 40
0.1694067174933836
 40
0.1997454480061217
 40
0.1997454480061217
 40
0.1997454480061217
 40
0.1997454480061217
 10
37.42034654323897
 20
37.22516862919758
 30
0.0
 10
37.41946267140229
 20
37.223432942476
 30
0.0
 10
37.41786947948153
 20
37.2199196024352
 30
0.0
 10
37.41592320651206
 20
37.21383337608143
 30
0.0
 10
37.41363055681339
 20
37.20529943775949
 30
0.0
 10
37.41125712887541
 20
37.19296901362316
 30
0.0
 10
37.40932393583799
 20
37.17618766956468
 30
0.0
 10
37.40859990725413
 20
37.15615518593882
 30
0.0
 10
37.4094712839346
 20
37.13421668571658
 30
0.0
 10
37.41151504605172
 20
37.11182553743163
 30
0.0
 10
37.41392642373262
 20
37.09160037404729
 30
0.0
 10
37.41615193662234
 20
37.07359804222216
 30
0.0
 10
37.41859492624551
 20
37.05289845297199
 30
0.0
 10
37.41978157386086
 20
37.03752667456712
 30
0.0
 10
37.42034654323897
 20
37.02742955806156
 30
0.0
 11
37.42034654323897
 21
37.22516862919758
 31
0.0
 11
37.41795807735193
 21
37.21983546853091
 31
0.0
 11
37.41615474807259
 21
37.21442857068593
 31
0.0
 11
37.41418012962235
 21
37.20708306466008
 31
0.0
 11
37.4116311099373
 21
37.19413505621492
 31
0.0
 11
37.40966697057825
 21
37.17742784018282
 31
0.0
 11
37.40887353044946
 21
37.15683055784052
 31
0.0
 11
37.40966627392804
 21
37.13421010648375
 31
0.0
 11
37.41163034310793
 21
37.11172285008866
 31
0.0
 11
37.41417961667338
 21
37.08963914496059
 31
0.0
 11
37.41615448736761
 21
37.07345952301836
 31
0.0
 11
37.41795802747565
 21
37.05767353988608
 31
0.0
 11
37.42034654323897
 21
37.02742955806156
 31
0.0
  0
TEXT
  5
280
330
2
100
AcDbEntity
  8
MOJI1
100
AcDbText
 10
-58.63424368953236
 20
-46.96897585315627
 30
0.0
 40
3.0
  1
質　量
100
AcDbText
  0
TEXT
  5
281
330
2
100
AcDbEntity
  8
MOJI1
100
AcDbText
 10
-19.63424368953235
 20
-46.96897585315627
 30
0.0
 40
3.0
  1
本体：約２５．５ ｋｇ、スタンド：９ ｋｇ
100
AcDbText
  0
LINE
  5
282
330
2
100
AcDbEntity
  8
WAKU
 62
     1
100
AcDbLine
 10
-61.13424368953236
 20
-42.96897585315628
 30
0.0
 11
63.86575631046742
 21
-42.96897585315628
 31
0.0
  0
TEXT
  5
284
330
2
100
AcDbEntity
  8
MOJI1
100
AcDbText
 10
-58.63424368953236
 20
-36.96897585315628
 30
0.0
 40
3.0
  1
入出力端子
100
AcDbText
  0
LINE
  5
285
330
2
100
AcDbEntity
  8
WAKU
 62
     1
100
AcDbLine
 10
-61.13424368953236
 20
-37.96897585315628
 30
0.0
 11
63.86575631046742
 21
-37.96897585315628
 31
0.0
  0
TEXT
  5
286
330
2
100
AcDbEntity
  8
MOJI1
100
AcDbText
 10
-19.63424368953235
 20
-41.96897585315627
 30
0.0
 40
3.0
  1
ＤＶＩ－Ｄ入力、ＰＣ入力、ＬＡＮ、ＲＳ２３２Ｃ、音声入力
 41
0.8
100
AcDbText
  0
LINE
  5
287
330
2
100
AcDbEntity
  8
WAKU
 62
     4
100
AcDbLine
 10
63.86575631046742
 20
-7.96897585315628
 30
0.0
 11
63.86575631046742
 21
-47.96897585315628
 31
0.0
  0
TEXT
  5
288
330
2
100
AcDbEntity
  8
MOJI1
100
AcDbText
 10
-58.63424368953236
 20
-26.96897585315628
 30
0.0
 40
3.0
  1
画素数
100
AcDbText
  0
TEXT
  5
289
330
2
100
AcDbEntity
  8
MOJI1
100
AcDbText
 10
-58.63424368953236
 20
-11.96897585315628
 30
0.0
 40
3.0
  1
電  源
100
AcDbText
  0
TEXT
  5
28A
330
2
100
AcDbEntity
  8
MOJI1
100
AcDbText
 10
-58.63424368953236
 20
-16.96897585315628
 30
0.0
 40
3.0
  1
消費電力
100
AcDbText
  0
TEXT
  5
28B
330
2
100
AcDbEntity
  8
MOJI1
100
AcDbText
 10
-58.63424368953236
 20
-31.96897585315628
 30
0.0
 40
3.0
  1
コントラスト
100
AcDbText
  0
TEXT
  5
28C
330
2
100
AcDbEntity
  8
MOJI1
100
AcDbText
 10
-58.63424368953236
 20
-21.96897585315628
 30
0.0
 40
3.0
  1
画面サイズ
100
AcDbText
  0
LINE
  5
28D
330
2
100
AcDbEntity
  8
WAKU
 62
     4
100
AcDbLine
 10
-61.13424368953258
 20
-7.96897585315628
 30
0.0
 11
-61.13424368953236
 21
-47.96897585315628
 31
0.0
  0
LINE
  5
28E
330
2
100
AcDbEntity
  8
WAKU
 62
     4
100
AcDbLine
 10
-21.13424368953258
 20
-7.96897585315628
 30
0.0
 11
-21.13424368953258
 21
-47.96897585315628
 31
0.0
  0
TEXT
  5
28F
330
2
100
AcDbEntity
  8
MOJI1
100
AcDbText
 10
-19.63424368953235
 20
-36.96897585315628
 30
0.0
 40
3.0
  1
ビデオ入力、ＲＧＢ／コンポーネントビデオ入力、ＨＤＭＩ入力
 41
0.7800000000000001
100
AcDbText
  0
TEXT
  5
290
330
2
100
AcDbEntity
  8
MOJI1
100
AcDbText
 10
-19.63424368953235
 20
-11.96897585315628
 30
0.0
 40
3.0
  1
ＡＣ１００Ｖ　５０Ｈｚ／６０Ｈｚ
100
AcDbText
  0
TEXT
  5
291
330
2
100
AcDbEntity
  8
MOJI1
100
AcDbText
 10
-19.63424368953235
 20
-26.96897585315628
 30
0.0
 40
3.0
  1
１９２０×１０８０画素
100
AcDbText
  0
LINE
  5
292
330
2
100
AcDbEntity
  8
WAKU
 62
     4
100
AcDbLine
 10
63.86575631046742
 20
-47.96897585315628
 30
0.0
 11
-61.13424368953236
 21
-47.96897585315628
 31
0.0
  0
LINE
  5
293
330
2
100
AcDbEntity
  8
WAKU
 62
     1
100
AcDbLine
 10
-61.13424368953236
 20
-32.96897585315628
 30
0.0
 11
63.86575631046742
 21
-32.96897585315628
 31
0.0
  0
LINE
  5
294
330
2
100
AcDbEntity
  8
WAKU
 62
     1
100
AcDbLine
 10
-61.13424368953236
 20
-22.96897585315628
 30
0.0
 11
63.86575631046742
 21
-22.96897585315628
 31
0.0
  0
LINE
  5
295
330
2
100
AcDbEntity
  8
WAKU
 62
     1
100
AcDbLine
 10
-61.13424368953236
 20
-12.96897585315628
 30
0.0
 11
63.86575631046742
 21
-12.96897585315628
 31
0.0
  0
LINE
  5
296
330
2
100
AcDbEntity
  8
WAKU
 62
     4
100
AcDbLine
 10
-61.13424368953236
 20
-7.96897585315628
 30
0.0
 11
63.86575631046742
 21
-7.96897585315628
 31
0.0
  0
LINE
  5
297
330
2
100
AcDbEntity
  8
WAKU
 62
     1
100
AcDbLine
 10
-61.13424368953236
 20
-27.96897585315628
 30
0.0
 11
63.86575631046742
 21
-27.96897585315628
 31
0.0
  0
LINE
  5
298
330
2
100
AcDbEntity
  8
WAKU
 62
     1
100
AcDbLine
 10
-61.13424368953236
 20
-17.96897585315628
 30
0.0
 11
63.86575631046742
 21
-17.96897585315628
 31
0.0
  0
TEXT
  5
299
330
2
100
AcDbEntity
  8
MOJI1
100
AcDbText
 10
-19.63424368953235
 20
-31.96897585315628
 30
0.0
 40
3.0
  1
５００００００：１
100
AcDbText
  0
TEXT
  5
29A
330
2
100
AcDbEntity
  8
MOJI1
100
AcDbText
 10
-19.63424368953235
 20
-21.96897585315628
 30
0.0
 40
3.0
  1
４２型（１０５７ｃｍ）１６：９
100
AcDbText
  0
TEXT
  5
29B
330
2
100
AcDbEntity
  8
MOJI1
100
AcDbText
 10
-19.63424368953235
 20
-16.96897585315628
 30
0.0
 40
3.0
  1
３７５Ｗ
100
AcDbText
  0
ENDSEC
  0
SECTION
  2
OBJECTS
  0
DICTIONARY
  5
7
330
0
100
AcDbDictionary
281
     1
  3
ACAD_COLOR
350
2D
  3
ACAD_GROUP
350
29
  3
ACAD_LAYOUT
350
B
  3
ACAD_MATERIAL
350
2C
  3
ACAD_MLINESTYLE
350
2A
  3
ACAD_PLOTSETTINGS
350
2B
  3
ACAD_PLOTSTYLENAME
350
6
  3
ACDBHEADERROUNDTRIPXREC
350
2E6
  3
AcDbVariableDictionary
350
2E1
  0
DICTIONARY
  5
11
330
10
100
AcDbDictionary
280
     1
281
     1
  3
ACAD_LAYERFILTERS
360
12
  3
ACAD_LAYERSTATES
360
13
  0
DICTIONARY
  5
2D
102
{ACAD_REACTORS
330
7
102
}
330
7
100
AcDbDictionary
281
     1
  0
DICTIONARY
  5
29
102
{ACAD_REACTORS
330
7
102
}
330
7
100
AcDbDictionary
281
     1
  0
DICTIONARY
  5
B
102
{ACAD_REACTORS
330
7
102
}
330
7
100
AcDbDictionary
281
     1
  3
Model
350
A
  3
レイアウト1
350
F
  0
DICTIONARY
  5
2C
102
{ACAD_REACTORS
330
7
102
}
330
7
100
AcDbDictionary
281
     1
  0
DICTIONARY
  5
2A
102
{ACAD_REACTORS
330
7
102
}
330
7
100
AcDbDictionary
281
     1
  3
Standard
350
2F
  0
DICTIONARY
  5
2B
102
{ACAD_REACTORS
330
7
102
}
330
7
100
AcDbDictionary
281
     1
  0
ACDBDICTIONARYWDFLT
  5
6
102
{ACAD_REACTORS
330
7
102
}
330
7
100
AcDbDictionary
281
     1
  3
Normal
350
5
100
AcDbDictionaryWithDefault
340
5
  0
DICTIONARY
  5
2E6
102
{ACAD_REACTORS
330
7
102
}
330
7
100
AcDbDictionary
281
     1
  3
COLORDICT
350
2E8
  3
MATERIALDICT
350
2E7
  0
DICTIONARY
  5
2E1
102
{ACAD_REACTORS
330
7
102
}
330
7
100
AcDbDictionary
281
     1
  3
DIMASSOC
350
2E3
  3
HIDETEXT
350
2E2
  3
PROJECTNAME
350
2E4
  0
DICTIONARY
  5
12
102
{ACAD_REACTORS
330
11
102
}
330
11
100
AcDbDictionary
281
     1
  0
DICTIONARY
  5
13
102
{ACAD_REACTORS
330
11
102
}
330
11
100
AcDbDictionary
281
     1
  0
LAYOUT
  5
A
102
{ACAD_XDICTIONARY
360
2E9
102
}
102
{ACAD_REACTORS
330
B
102
}
330
B
100
AcDbPlotSettings
  1

  2
10F06M_RICOH_SP-8100
  4
A4
  6

 40
5.873749732971191
 41
5.873747825622558
 42
5.873748779296875
 43
5.873748779296875
 44
209.9733276367187
 45
296.9259948730469
 46
5.429999999999999
 47
0.0
 48
0.0
 49
0.0
140
0.0
141
0.0
142
1.0
143
1.382388793903341
 70
 11956
 72
     1
 73
     0
 74
     1
  7
tmsacad.ctb
 75
     0
147
0.7233854935820042
148
0.0064050313486632
149
0.0060110292993159
100
AcDbLayout
  1
Model
 70
     1
 71
     0
 10
0.0
 20
0.0
 11
12.0
 21
9.0
 12
0.0
 22
0.0
 32
0.0
 14
0.0
 24
0.0
 34
0.0
 15
0.0
 25
0.0
 35
0.0
146
0.0
 13
0.0
 23
0.0
 33
0.0
 16
1.0
 26
0.0
 36
0.0
 17
0.0
 27
1.0
 37
0.0
 76
     0
330
2
  0
LAYOUT
  5
F
102
{ACAD_XDICTIONARY
360
2EB
102
}
102
{ACAD_REACTORS
330
B
102
}
330
B
100
AcDbPlotSettings
  1

  2
None
  4

  6

 40
0.0
 41
0.0
 42
0.0
 43
0.0
 44
0.0
 45
0.0
 46
0.0
 47
0.0
 48
0.0
 49
0.0
140
0.0
141
0.0
142
1.0
143
1.0
 70
   688
 72
     0
 73
     0
 74
     5
  7
tmsacad.ctb
 75
    16
147
1.0
148
0.0
149
0.0
100
AcDbLayout
  1
レイアウト1
 70
     1
 71
     1
 10
0.0
 20
0.0
 11
12.0
 21
9.0
 12
0.0
 22
0.0
 32
0.0
 14
0.0
 24
0.0
 34
0.0
 15
0.0
 25
0.0
 35
0.0
146
0.0
 13
0.0
 23
0.0
 33
0.0
 16
1.0
 26
0.0
 36
0.0
 17
0.0
 27
1.0
 37
0.0
 76
     0
330
C
  0
MLINESTYLE
  5
2F
102
{ACAD_REACTORS
330
2A
102
}
330
2A
100
AcDbMlineStyle
  2
STANDARD
 70
     0
  3

 62
   256
 51
90.0
 52
90.0
 71
     2
 49
0.5
 62
   256
  6
BYLAYER
 49
-0.5
 62
   256
  6
BYLAYER
  0
ACDBPLACEHOLDER
  5
5
102
{ACAD_REACTORS
330
6
102
}
330
6
  0
XRECORD
  5
2E8
102
{ACAD_REACTORS
330
2E6
102
}
330
2E6
100
AcDbXrecord
280
     1
340
2D
  0
XRECORD
  5
2E7
102
{ACAD_REACTORS
330
2E6
102
}
330
2E6
100
AcDbXrecord
280
     1
340
2C
  0
DICTIONARYVAR
  5
2E3
102
{ACAD_REACTORS
330
2E1
102
}
330
2E1
100
DictionaryVariables
280
     0
  1
1
  0
DICTIONARYVAR
  5
2E2
102
{ACAD_REACTORS
330
2E1
102
}
330
2E1
100
DictionaryVariables
280
     0
  1
1
  0
DICTIONARYVAR
  5
2E4
102
{ACAD_REACTORS
330
2E1
102
}
330
2E1
100
DictionaryVariables
280
     0
  1

  0
DICTIONARY
  5
2E9
330
A
100
AcDbDictionary
280
     1
281
     1
  3
ACAD_XREC_ROUNDTRIP
360
2EA
  0
DICTIONARY
  5
2EB
330
F
100
AcDbDictionary
280
     1
281
     1
  3
ACAD_XREC_ROUNDTRIP
360
2EC
  0
XRECORD
  5
2EA
102
{ACAD_REACTORS
330
2E9
102
}
330
2E9
100
AcDbXrecord
280
     1
102
SHADEPLOT
 70
     0
102
SHADEPLOTRESLEVEL
 70
     2
102
SHADEPLOTCUSTOMDPI
 70
   300
  0
XRECORD
  5
2EC
102
{ACAD_REACTORS
330
2EB
102
}
330
2EB
100
AcDbXrecord
280
     1
102
SHADEPLOT
 70
     0
102
SHADEPLOTRESLEVEL
 70
     2
102
SHADEPLOTCUSTOMDPI
 70
   300
  0
ENDSEC
  0
EOF
