  0
SECTION
  2
HEADER
  9
$ACADVER
  1
AC1015
  9
$ACADMAINTVER
 70
    20
  9
$DWGCODEPAGE
  3
ANSI_932
  9
$INSBASE
 10
0.0
 20
246.4992141396417
 30
0.0
  9
$EXTMIN
 10
-64.43999558731184
 20
-52.2402904547489
 30
-0.0015258207003583
  9
$EXTMAX
 10
60.6405133826529
 20
60.89079146087624
 30
0.0000000349246037
  9
$LIMMIN
 10
-1101.784450318844
 20
-1579.160531687244
  9
$LIMMAX
 10
-508.2420711400536
 20
-1161.440814074914
  9
$ORTHOMODE
 70
     1
  9
$REGENMODE
 70
     1
  9
$FILLMODE
 70
     1
  9
$QTEXTMODE
 70
     0
  9
$MIRRTEXT
 70
     1
  9
$LTSCALE
 40
1.0
  9
$ATTMODE
 70
     1
  9
$TEXTSIZE
 40
3.0
  9
$TRACEWID
 40
0.5
  9
$TEXTSTYLE
  7
STANDARD
  9
$CLAYER
  8
MOJI1
  9
$CELTYPE
  6
BYLAYER
  9
$CECOLOR
 62
   256
  9
$CELTSCALE
 40
1.0
  9
$DISPSILH
 70
     0
  9
$DIMSCALE
 40
1.0
  9
$DIMASZ
 40
2.0
  9
$DIMEXO
 40
2.0
  9
$DIMDLI
 40
8.0
  9
$DIMRND
 40
0.0
  9
$DIMDLE
 40
0.0
  9
$DIMEXE
 40
2.0
  9
$DIMTP
 40
0.0
  9
$DIMTM
 40
0.0
  9
$DIMTXT
 40
2.5
  9
$DIMCEN
 40
0.0
  9
$DIMTSZ
 40
0.0
  9
$DIMTOL
 70
     0
  9
$DIMLIM
 70
     0
  9
$DIMTIH
 70
     0
  9
$DIMTOH
 70
     0
  9
$DIMSE1
 70
     0
  9
$DIMSE2
 70
     0
  9
$DIMTAD
 70
     3
  9
$DIMZIN
 70
     0
  9
$DIMBLK
  1

  9
$DIMASO
 70
     1
  9
$DIMSHO
 70
     1
  9
$DIMPOST
  1

  9
$DIMAPOST
  1

  9
$DIMALT
 70
     0
  9
$DIMALTD
 70
     2
  9
$DIMALTF
 40
25.4
  9
$DIMLFAC
 40
1.0
  9
$DIMTOFL
 70
     1
  9
$DIMTVP
 40
0.0
  9
$DIMTIX
 70
     0
  9
$DIMSOXD
 70
     0
  9
$DIMSAH
 70
     1
  9
$DIMBLK1
  1
OPEN30
  9
$DIMBLK2
  1
OPEN30
  9
$DIMSTYLE
  2
STANDARD
  9
$DIMCLRD
 70
     0
  9
$DIMCLRE
 70
     0
  9
$DIMCLRT
 70
     0
  9
$DIMTFAC
 40
1.0
  9
$DIMGAP
 40
0.5
  9
$DIMJUST
 70
     0
  9
$DIMSD1
 70
     0
  9
$DIMSD2
 70
     0
  9
$DIMTOLJ
 70
     1
  9
$DIMTZIN
 70
     0
  9
$DIMALTZ
 70
     0
  9
$DIMALTTZ
 70
     0
  9
$DIMUPT
 70
     0
  9
$DIMDEC
 70
     4
  9
$DIMTDEC
 70
     4
  9
$DIMALTU
 70
     2
  9
$DIMALTTD
 70
     2
  9
$DIMTXSTY
  7
STANDARD
  9
$DIMAUNIT
 70
     0
  9
$DIMADEC
 70
     0
  9
$DIMALTRND
 40
0.0
  9
$DIMAZIN
 70
     0
  9
$DIMDSEP
 70
    46
  9
$DIMATFIT
 70
     3
  9
$DIMFRAC
 70
     0
  9
$DIMLDRBLK
  1
OPEN30
  9
$DIMLUNIT
 70
     2
  9
$DIMLWD
 70
    -2
  9
$DIMLWE
 70
    -2
  9
$DIMTMOVE
 70
     0
  9
$LUNITS
 70
     2
  9
$LUPREC
 70
     4
  9
$SKETCHINC
 40
0.1
  9
$FILLETRAD
 40
0.0
  9
$AUNITS
 70
     0
  9
$AUPREC
 70
     0
  9
$MENU
  1
ACAD
  9
$ELEVATION
 40
0.0
  9
$PELEVATION
 40
0.0
  9
$THICKNESS
 40
0.0
  9
$LIMCHECK
 70
     0
  9
$CHAMFERA
 40
0.0
  9
$CHAMFERB
 40
0.0
  9
$CHAMFERC
 40
0.0
  9
$CHAMFERD
 40
0.0
  9
$SKPOLY
 70
     0
  9
$TDCREATE
 40
2451815.565532581
  9
$TDUCREATE
 40
2451815.190532581
  9
$TDUPDATE
 40
2454643.711044063
  9
$TDUUPDATE
 40
2454643.336044063
  9
$TDINDWG
 40
0.9303050926
  9
$TDUSRTIMER
 40
0.9303050926
  9
$USRTIMER
 70
     1
  9
$ANGBASE
 50
0.0
  9
$ANGDIR
 70
     0
  9
$PDMODE
 70
     0
  9
$PDSIZE
 40
0.0
  9
$PLINEWID
 40
0.0
  9
$SPLFRAME
 70
     0
  9
$SPLINETYPE
 70
     6
  9
$SPLINESEGS
 70
     8
  9
$HANDSEED
  5
25B
  9
$SURFTAB1
 70
     6
  9
$SURFTAB2
 70
     6
  9
$SURFTYPE
 70
     6
  9
$SURFU
 70
     6
  9
$SURFV
 70
     6
  9
$UCSBASE
  2

  9
$UCSNAME
  2

  9
$UCSORG
 10
0.0
 20
0.0
 30
0.0
  9
$UCSXDIR
 10
1.0
 20
0.0
 30
0.0
  9
$UCSYDIR
 10
0.0
 20
1.0
 30
0.0
  9
$UCSORTHOREF
  2

  9
$UCSORTHOVIEW
 70
     0
  9
$UCSORGTOP
 10
0.0
 20
0.0
 30
0.0
  9
$UCSORGBOTTOM
 10
0.0
 20
0.0
 30
0.0
  9
$UCSORGLEFT
 10
0.0
 20
0.0
 30
0.0
  9
$UCSORGRIGHT
 10
0.0
 20
0.0
 30
0.0
  9
$UCSORGFRONT
 10
0.0
 20
0.0
 30
0.0
  9
$UCSORGBACK
 10
0.0
 20
0.0
 30
0.0
  9
$PUCSBASE
  2

  9
$PUCSNAME
  2

  9
$PUCSORG
 10
0.0
 20
0.0
 30
0.0
  9
$PUCSXDIR
 10
1.0
 20
0.0
 30
0.0
  9
$PUCSYDIR
 10
0.0
 20
1.0
 30
0.0
  9
$PUCSORTHOREF
  2

  9
$PUCSORTHOVIEW
 70
     0
  9
$PUCSORGTOP
 10
0.0
 20
0.0
 30
0.0
  9
$PUCSORGBOTTOM
 10
0.0
 20
0.0
 30
0.0
  9
$PUCSORGLEFT
 10
0.0
 20
0.0
 30
0.0
  9
$PUCSORGRIGHT
 10
0.0
 20
0.0
 30
0.0
  9
$PUCSORGFRONT
 10
0.0
 20
0.0
 30
0.0
  9
$PUCSORGBACK
 10
0.0
 20
0.0
 30
0.0
  9
$USERI1
 70
     0
  9
$USERI2
 70
     0
  9
$USERI3
 70
     0
  9
$USERI4
 70
     0
  9
$USERI5
 70
     0
  9
$USERR1
 40
0.0
  9
$USERR2
 40
0.0
  9
$USERR3
 40
0.0
  9
$USERR4
 40
0.0
  9
$USERR5
 40
0.0
  9
$WORLDVIEW
 70
     1
  9
$SHADEDGE
 70
     3
  9
$SHADEDIF
 70
    70
  9
$TILEMODE
 70
     1
  9
$MAXACTVP
 70
    48
  9
$PINSBASE
 10
0.0
 20
0.0
 30
0.0
  9
$PLIMCHECK
 70
     0
  9
$PEXTMIN
 10
1.000000000000000E+20
 20
1.000000000000000E+20
 30
1.000000000000000E+20
  9
$PEXTMAX
 10
-1.000000000000000E+20
 20
-1.000000000000000E+20
 30
-1.000000000000000E+20
  9
$PLIMMIN
 10
0.0
 20
0.0
  9
$PLIMMAX
 10
12.0
 20
9.0
  9
$UNITMODE
 70
     0
  9
$VISRETAIN
 70
     1
  9
$PLINEGEN
 70
     0
  9
$PSLTSCALE
 70
     1
  9
$TREEDEPTH
 70
  3020
  9
$CMLSTYLE
  2
STANDARD
  9
$CMLJUST
 70
     0
  9
$CMLSCALE
 40
1.0
  9
$PROXYGRAPHICS
 70
     1
  9
$MEASUREMENT
 70
     0
  9
$CELWEIGHT
370
    -1
  9
$ENDCAPS
280
     0
  9
$JOINSTYLE
280
     0
  9
$LWDISPLAY
290
     0
  9
$INSUNITS
 70
     0
  9
$HYPERLINKBASE
  1

  9
$STYLESHEET
  1

  9
$XEDIT
290
     1
  9
$CEPSNTYPE
380
     0
  9
$PSTYLEMODE
290
     1
  9
$FINGERPRINTGUID
  2
{1754B7AB-9B3C-11D4-AD9E-00104B1004F2}
  9
$VERSIONGUID
  2
{EBDAD326-9DD4-42B9-9B95-FD81C86259CF}
  9
$EXTNAMES
290
     1
  9
$PSVPSCALE
 40
0.0
  9
$OLESTARTUP
290
     0
  0
ENDSEC
  0
SECTION
  2
CLASSES
  0
CLASS
  1
ACDBDICTIONARYWDFLT
  2
AcDbDictionaryWithDefault
  3
ObjectDBX Classes
 90
        0
280
     0
281
     0
  0
CLASS
  1
ACDBPLACEHOLDER
  2
AcDbPlaceHolder
  3
ObjectDBX Classes
 90
        0
280
     0
281
     0
  0
CLASS
  1
LAYOUT
  2
AcDbLayout
  3
ObjectDBX Classes
 90
        0
280
     0
281
     0
  0
CLASS
  1
DICTIONARYVAR
  2
AcDbDictionaryVar
  3
ObjectDBX Classes
 90
        0
280
     0
281
     0
  0
CLASS
  1
SORTENTSTABLE
  2
AcDbSortentsTable
  3
ObjectDBX Classes
 90
    32768
280
     0
281
     0
  0
ENDSEC
  0
SECTION
  2
TABLES
  0
TABLE
  2
VPORT
  5
20
330
0
100
AcDbSymbolTable
 70
     3
  0
VPORT
  5
253
330
20
100
AcDbSymbolTableRecord
100
AcDbViewportTableRecord
  2
*Active
 70
     0
 10
0.0
 20
0.0
 11
1.0
 21
1.0
 12
-1.899741102329478
 22
4.325250503063671
 13
0.0
 23
0.0
 14
1.0
 24
1.0
 15
0.0
 25
0.0
 16
0.0
 26
0.0
 36
1.0
 17
0.0
 27
0.0
 37
0.0
 40
114.0253987687131
 41
1.439313984168865
 42
50.0
 43
0.0
 44
0.0
 50
0.0
 51
0.0
 71
     0
 72
 10000
 73
     1
 74
     0
 75
     0
 76
     1
 77
     0
 78
     0
281
     0
 65
     1
110
0.0
120
0.0
130
0.0
111
1.0
121
0.0
131
0.0
112
0.0
122
1.0
132
0.0
 79
     0
146
0.0
  0
ENDTAB
  0
TABLE
  2
LTYPE
  5
1B
330
0
100
AcDbSymbolTable
 70
     1
  0
LTYPE
  5
1C
330
1B
100
AcDbSymbolTableRecord
100
AcDbLinetypeTableRecord
  2
BYBLOCK
 70
     0
  3

 72
    65
 73
     0
 40
0.0
  0
LTYPE
  5
1D
330
1B
100
AcDbSymbolTableRecord
100
AcDbLinetypeTableRecord
  2
BYLAYER
 70
     0
  3

 72
    65
 73
     0
 40
0.0
  0
LTYPE
  5
A
330
1B
100
AcDbSymbolTableRecord
100
AcDbLinetypeTableRecord
  2
CONTINUOUS
 70
     0
  3
Solid line
 72
    65
 73
     0
 40
0.0
  0
ENDTAB
  0
TABLE
  2
LAYER
  5
14
102
{ACAD_XDICTIONARY
360
15
102
}
330
0
100
AcDbSymbolTable
 70
     7
  0
LAYER
  5
6
330
14
100
AcDbSymbolTableRecord
100
AcDbLayerTableRecord
  2
0
 70
     0
 62
     7
  6
CONTINUOUS
370
    -3
390
7
  0
LAYER
  5
1C0
330
14
100
AcDbSymbolTableRecord
100
AcDbLayerTableRecord
  2
DEFPOINTS
 70
     0
 62
     7
  6
CONTINUOUS
290
     0
370
    -3
390
7
  0
LAYER
  5
39
330
14
100
AcDbSymbolTableRecord
100
AcDbLayerTableRecord
  2
WAKU
 70
     0
 62
     4
  6
CONTINUOUS
370
    -3
390
7
  0
LAYER
  5
32
330
14
100
AcDbSymbolTableRecord
100
AcDbLayerTableRecord
  2
MOJI1
 70
     0
 62
     2
  6
CONTINUOUS
370
    -3
390
7
  0
LAYER
  5
54
330
14
100
AcDbSymbolTableRecord
100
AcDbLayerTableRecord
  2
GAIKEI
 70
     0
 62
     7
  6
CONTINUOUS
370
    -3
390
7
  0
LAYER
  5
210
330
14
100
AcDbSymbolTableRecord
100
AcDbLayerTableRecord
  2
TOUROKU
 70
     0
 62
     1
  6
CONTINUOUS
370
    -3
390
7
  0
LAYER
  5
1B6
330
14
100
AcDbSymbolTableRecord
100
AcDbLayerTableRecord
  2
SUNPO
 70
     0
 62
     3
  6
CONTINUOUS
370
    -3
390
7
  0
ENDTAB
  0
TABLE
  2
STYLE
  5
18
330
0
100
AcDbSymbolTable
 70
     1
  0
STYLE
  5
19
330
18
100
AcDbSymbolTableRecord
100
AcDbTextStyleTableRecord
  2
STANDARD
 70
     0
 40
0.0
 41
1.0
 50
0.0
 71
     0
 42
3.0
  3
MONOTXT.shx
  4
BIGFONT.shx
  0
ENDTAB
  0
TABLE
  2
VIEW
  5
1E
330
0
100
AcDbSymbolTable
 70
     0
  0
ENDTAB
  0
TABLE
  2
UCS
  5
1F
330
0
100
AcDbSymbolTable
 70
     0
  0
ENDTAB
  0
TABLE
  2
APPID
  5
22
330
0
100
AcDbSymbolTable
 70
     2
  0
APPID
  5
23
330
22
100
AcDbSymbolTableRecord
100
AcDbRegAppTableRecord
  2
ACAD
 70
     0
  0
APPID
  5
21B
330
22
100
AcDbSymbolTableRecord
100
AcDbRegAppTableRecord
  2
DCO15
 70
     0
  0
ENDTAB
  0
TABLE
  2
DIMSTYLE
  5
24
330
0
100
AcDbSymbolTable
 70
     1
100
AcDbDimStyleTable
 71
     1
340
25
  0
DIMSTYLE
105
25
102
{ACAD_REACTORS
330
200
330
1E5
330
1B5
102
}
330
24
100
AcDbSymbolTableRecord
100
AcDbDimStyleTableRecord
  2
STANDARD
 70
     0
 40
0.0
 41
2.0
 42
2.0
 43
8.0
 44
2.0
 73
     0
 74
     0
 77
     3
140
3.0
141
0.0
173
     1
279
     2
288
     1
340
19
341
26
343
26
344
26
  0
ENDTAB
  0
TABLE
  2
BLOCK_RECORD
  5
1
330
0
100
AcDbSymbolTable
 70
     7
  0
BLOCK_RECORD
  5
2
102
{ACAD_XDICTIONARY
360
3
102
}
330
1
100
AcDbSymbolTableRecord
100
AcDbBlockTableRecord
  2
*MODEL_SPACE
340
C
  0
BLOCK_RECORD
  5
E
102
{ACAD_XDICTIONARY
360
F
102
}
330
1
100
AcDbSymbolTableRecord
100
AcDbBlockTableRecord
  2
*PAPER_SPACE
340
13
  0
BLOCK_RECORD
  5
26
330
1
100
AcDbSymbolTableRecord
100
AcDbBlockTableRecord
  2
_OPEN30
340
0
102
{BLKREFS
331
1BC
331
1BD
331
1EB
331
1EC
331
208
331
209
331
22F
331
230
331
23B
331
23C
331
247
331
248
102
}
  0
BLOCK_RECORD
  5
201
330
1
100
AcDbSymbolTableRecord
100
AcDbBlockTableRecord
  2
*D1
340
0
  0
BLOCK_RECORD
  5
1E6
330
1
100
AcDbSymbolTableRecord
100
AcDbBlockTableRecord
  2
*D2
340
0
  0
BLOCK_RECORD
  5
1B7
330
1
100
AcDbSymbolTableRecord
100
AcDbBlockTableRecord
  2
*D3
340
0
  0
BLOCK_RECORD
  5
229
330
1
100
AcDbSymbolTableRecord
100
AcDbBlockTableRecord
  2
*D4
340
0
  0
BLOCK_RECORD
  5
237
330
1
100
AcDbSymbolTableRecord
100
AcDbBlockTableRecord
  2
*D5
340
0
  0
BLOCK_RECORD
  5
243
330
1
100
AcDbSymbolTableRecord
100
AcDbBlockTableRecord
  2
*D6
340
0
  0
ENDTAB
  0
ENDSEC
  0
SECTION
  2
BLOCKS
  0
BLOCK
  5
5
330
2
100
AcDbEntity
  8
0
100
AcDbBlockBegin
  2
*MODEL_SPACE
 70
     0
 10
0.0
 20
0.0
 30
0.0
  3
*MODEL_SPACE
  1

  0
ENDBLK
  5
B
330
2
100
AcDbEntity
  8
0
100
AcDbBlockEnd
  0
BLOCK
  5
11
330
E
100
AcDbEntity
 67
     1
  8
0
100
AcDbBlockBegin
  2
*PAPER_SPACE
 70
     0
 10
0.0
 20
0.0
 30
0.0
  3
*PAPER_SPACE
  1

  0
ENDBLK
  5
12
330
E
100
AcDbEntity
 67
     1
  8
0
100
AcDbBlockEnd
  0
BLOCK
  5
27
330
26
100
AcDbEntity
  8
0
100
AcDbBlockBegin
  2
_OPEN30
 70
     0
 10
0.0
 20
0.0
 30
0.0
  3
_OPEN30
  1

  0
LINE
  5
28
330
26
100
AcDbEntity
  8
0
  6
ByBlock
 62
     0
100
AcDbLine
 10
-1.0
 20
0.26794919
 30
0.0
 11
0.0
 21
0.0
 31
0.0
  0
LINE
  5
29
330
26
100
AcDbEntity
  8
0
  6
ByBlock
 62
     0
100
AcDbLine
 10
0.0
 20
0.0
 30
0.0
 11
-1.0
 21
-0.26794919
 31
0.0
  0
LINE
  5
2A
330
26
100
AcDbEntity
  8
0
  6
ByBlock
 62
     0
100
AcDbLine
 10
0.0
 20
0.0
 30
0.0
 11
-1.0
 21
0.0
 31
0.0
  0
ENDBLK
  5
2B
330
26
100
AcDbEntity
  8
0
100
AcDbBlockEnd
  0
BLOCK
  5
202
330
201
100
AcDbEntity
  8
0
100
AcDbBlockBegin
  2
*D1
 70
     1
 10
0.0
 20
0.0
 30
0.0
  3
*D1
  1

  0
LINE
  5
203
330
201
100
AcDbEntity
  8
SUNPO
 62
     0
370
    -2
100
AcDbLine
 10
99.28819302411255
 20
219.8541290073945
 30
0.0
 11
99.28819302411255
 21
227.8541290073945
 31
0.0
  0
LINE
  5
204
330
201
100
AcDbEntity
  8
SUNPO
 62
     0
370
    -2
100
AcDbLine
 10
103.7381930241125
 20
219.8541290073945
 30
0.0
 11
103.7381930241125
 21
227.8541290073945
 31
0.0
  0
LINE
  5
205
330
201
100
AcDbEntity
  8
SUNPO
 62
     0
370
    -2
100
AcDbLine
 10
97.28819302411256
 20
225.8541290073945
 30
0.0
 11
95.28819302411255
 21
225.8541290073945
 31
0.0
  0
LINE
  5
206
330
201
100
AcDbEntity
  8
SUNPO
 62
     0
370
    -2
100
AcDbLine
 10
105.7381930241125
 20
225.8541290073945
 30
0.0
 11
112.9048596907792
 21
225.8541290073945
 31
0.0
  0
LINE
  5
207
330
201
100
AcDbEntity
  8
SUNPO
 62
     0
370
    -2
100
AcDbLine
 10
99.28819302411255
 20
225.8541290073945
 30
0.0
 11
103.7381930241125
 21
225.8541290073945
 31
0.0
  0
INSERT
  5
208
330
201
100
AcDbEntity
  8
SUNPO
 62
     0
370
    -2
100
AcDbBlockReference
  2
_OPEN30
 10
99.28819302411255
 20
225.8541290073945
 30
0.0
 41
2.0
 42
2.0
 43
2.0
  0
INSERT
  5
209
330
201
100
AcDbEntity
  8
SUNPO
 62
     0
370
    -2
100
AcDbBlockReference
  2
_OPEN30
 10
103.7381930241125
 20
225.8541290073945
 30
0.0
 41
2.0
 42
2.0
 43
2.0
 50
180.0
  0
MTEXT
  5
20A
330
201
100
AcDbEntity
  8
SUNPO
 62
     0
100
AcDbMText
 10
110.3215263574458
 20
227.6041290073945
 30
0.0
 40
2.5
 41
0.0
 71
     5
 72
     1
  1
\A1;89
 73
     1
 44
1.0
1001
ACAD
1000
MTEXTBEGIN
1070
    73
1070
     1
1070
    44
1040
1.0
1070
    74
1070
     0
1000
MTEXTEND
  0
POINT
  5
20B
330
201
100
AcDbEntity
  8
DEFPOINTS
 62
     0
100
AcDbPoint
 10
99.28819302411255
 20
217.8541290073945
 30
0.0
  0
POINT
  5
20C
330
201
100
AcDbEntity
  8
DEFPOINTS
 62
     0
100
AcDbPoint
 10
103.7381930241125
 20
217.8541290073945
 30
0.0
  0
POINT
  5
20D
330
201
100
AcDbEntity
  8
DEFPOINTS
 62
     0
100
AcDbPoint
 10
103.7381930241125
 20
225.8541290073945
 30
0.0
  0
ENDBLK
  5
20E
330
201
100
AcDbEntity
  8
0
100
AcDbBlockEnd
  0
BLOCK
  5
1E7
330
1E6
100
AcDbEntity
  8
0
100
AcDbBlockBegin
  2
*D2
 70
     1
 10
0.0
 20
0.0
 30
0.0
  3
*D2
  1

  0
LINE
  5
1E8
330
1E6
100
AcDbEntity
  8
SUNPO
 62
     0
370
    -2
100
AcDbLine
 10
25.08041724462868
 20
219.8541290073945
 30
0.0
 11
25.08041724462868
 21
227.8541290073945
 31
0.0
  0
LINE
  5
1E9
330
1E6
100
AcDbEntity
  8
SUNPO
 62
     0
370
    -2
100
AcDbLine
 10
75.1804172446287
 20
219.8541290073945
 30
0.0
 11
75.1804172446287
 21
227.8541290073945
 31
0.0
  0
LINE
  5
1EA
330
1E6
100
AcDbEntity
  8
SUNPO
 62
     0
370
    -2
100
AcDbLine
 10
27.08041724462868
 20
225.8541290073945
 30
0.0
 11
73.1804172446287
 21
225.8541290073945
 31
0.0
  0
INSERT
  5
1EB
330
1E6
100
AcDbEntity
  8
SUNPO
 62
     0
370
    -2
100
AcDbBlockReference
  2
_OPEN30
 10
25.08041724462868
 20
225.8541290073945
 30
0.0
 41
2.0
 42
2.0
 43
2.0
 50
180.0
  0
INSERT
  5
1EC
330
1E6
100
AcDbEntity
  8
SUNPO
 62
     0
370
    -2
100
AcDbBlockReference
  2
_OPEN30
 10
75.1804172446287
 20
225.8541290073945
 30
0.0
 41
2.0
 42
2.0
 43
2.0
  0
MTEXT
  5
1ED
330
1E6
100
AcDbEntity
  8
SUNPO
 62
     0
100
AcDbMText
 10
50.13041724462869
 20
227.6041290073945
 30
0.0
 40
2.5
 41
0.0
 71
     5
 72
     1
  1
\A1;1020
 73
     1
 44
1.0
1001
ACAD
1000
MTEXTBEGIN
1070
    73
1070
     1
1070
    44
1040
1.0
1070
    74
1070
     0
1000
MTEXTEND
  0
POINT
  5
1EE
330
1E6
100
AcDbEntity
  8
DEFPOINTS
 62
     0
100
AcDbPoint
 10
25.08041724462868
 20
217.8541290073945
 30
0.0
  0
POINT
  5
1EF
330
1E6
100
AcDbEntity
  8
DEFPOINTS
 62
     0
100
AcDbPoint
 10
75.1804172446287
 20
217.8541290073945
 30
0.0
  0
POINT
  5
1F0
330
1E6
100
AcDbEntity
  8
DEFPOINTS
 62
     0
100
AcDbPoint
 10
75.1804172446287
 20
225.8541290073945
 30
0.0
  0
ENDBLK
  5
1F1
330
1E6
100
AcDbEntity
  8
0
100
AcDbBlockEnd
  0
BLOCK
  5
1B8
330
1B7
100
AcDbEntity
  8
0
100
AcDbBlockBegin
  2
*D3
 70
     1
 10
0.0
 20
0.0
 30
0.0
  3
*D3
  1

  0
LINE
  5
1B9
330
1B7
100
AcDbEntity
  8
SUNPO
 62
     0
370
    -2
100
AcDbLine
 10
77.19074664663873
 20
187.3544154517458
 30
0.0
 11
85.19074664663873
 21
187.3544154517458
 31
0.0
  0
LINE
  5
1BA
330
1B7
100
AcDbEntity
  8
SUNPO
 62
     0
370
    -2
100
AcDbLine
 10
77.19074664663873
 20
217.8544154517458
 30
0.0
 11
85.19074664663873
 21
217.8544154517458
 31
0.0
  0
LINE
  5
1BB
330
1B7
100
AcDbEntity
  8
SUNPO
 62
     0
370
    -2
100
AcDbLine
 10
83.19074664663872
 20
189.3544154517458
 30
0.0
 11
83.19074664663872
 21
215.8544154517458
 31
0.0
  0
INSERT
  5
1BC
330
1B7
100
AcDbEntity
  8
SUNPO
 62
     0
370
    -2
100
AcDbBlockReference
  2
_OPEN30
 10
83.19074664663872
 20
187.3544154517458
 30
0.0
 41
2.0
 42
2.0
 43
2.0
 50
270.0
  0
INSERT
  5
1BD
330
1B7
100
AcDbEntity
  8
SUNPO
 62
     0
370
    -2
100
AcDbBlockReference
  2
_OPEN30
 10
83.19074664663872
 20
217.8544154517458
 30
0.0
 41
2.0
 42
2.0
 43
2.0
 50
90.0
  0
MTEXT
  5
1BE
330
1B7
100
AcDbEntity
  8
SUNPO
 62
     0
100
AcDbMText
 10
81.4407466466387
 20
202.6044154517459
 30
0.0
 40
2.5
 41
0.0
 71
     5
 72
     1
  1
\A1;610
 11
0.0000000000000001
 21
1.0
 31
0.0
 73
     1
 44
1.0
1001
ACAD
1000
MTEXTBEGIN
1070
    73
1070
     1
1070
    44
1040
1.0
1070
    74
1070
     0
1000
MTEXTEND
  0
POINT
  5
1BF
330
1B7
100
AcDbEntity
  8
DEFPOINTS
 62
     0
100
AcDbPoint
 10
75.19074664663873
 20
187.3544154517458
 30
0.0
  0
POINT
  5
1C1
330
1B7
100
AcDbEntity
  8
DEFPOINTS
 62
     0
100
AcDbPoint
 10
75.19074664663873
 20
217.8544154517458
 30
0.0
  0
POINT
  5
1C2
330
1B7
100
AcDbEntity
  8
DEFPOINTS
 62
     0
100
AcDbPoint
 10
83.19074664663872
 20
217.8544154517458
 30
0.0
  0
ENDBLK
  5
1C3
330
1B7
100
AcDbEntity
  8
0
100
AcDbBlockEnd
  0
BLOCK
  5
235
330
229
100
AcDbEntity
  8
0
100
AcDbBlockBegin
  2
*D4
 70
     1
 10
0.0
 20
0.0
 30
0.0
  3
*D4
  1

  0
LINE
  5
22A
330
229
100
AcDbEntity
  8
SUNPO
 62
     0
370
    -2
100
AcDbLine
 10
32.86672410085401
 20
36.16134940133543
 30
0.0
 11
32.86672410085401
 21
44.16134940133543
 31
0.0
  0
LINE
  5
22B
330
229
100
AcDbEntity
  8
SUNPO
 62
     0
370
    -2
100
AcDbLine
 10
37.316724100854
 20
36.16134940133543
 30
0.0
 11
37.316724100854
 21
44.16134940133543
 31
0.0
  0
LINE
  5
22C
330
229
100
AcDbEntity
  8
SUNPO
 62
     0
370
    -2
100
AcDbLine
 10
30.86672410085402
 20
42.16134940133542
 30
0.0
 11
28.86672410085401
 21
42.16134940133542
 31
0.0
  0
LINE
  5
22D
330
229
100
AcDbEntity
  8
SUNPO
 62
     0
370
    -2
100
AcDbLine
 10
39.31672410085401
 20
42.16134940133542
 30
0.0
 11
46.48339076752066
 21
42.16134940133542
 31
0.0
  0
LINE
  5
22E
330
229
100
AcDbEntity
  8
SUNPO
 62
     0
370
    -2
100
AcDbLine
 10
32.86672410085401
 20
42.16134940133542
 30
0.0
 11
37.316724100854
 21
42.16134940133542
 31
0.0
  0
INSERT
  5
22F
330
229
100
AcDbEntity
  8
SUNPO
 62
     0
370
    -2
100
AcDbBlockReference
  2
_OPEN30
 10
32.86672410085401
 20
42.16134940133542
 30
0.0
 41
2.0
 42
2.0
 43
2.0
  0
INSERT
  5
230
330
229
100
AcDbEntity
  8
SUNPO
 62
     0
370
    -2
100
AcDbBlockReference
  2
_OPEN30
 10
37.316724100854
 20
42.16134940133542
 30
0.0
 41
2.0
 42
2.0
 43
2.0
 50
180.0
  0
MTEXT
  5
231
330
229
100
AcDbEntity
  8
SUNPO
 62
     0
100
AcDbMText
 10
43.90005743418734
 20
43.91134940133542
 30
0.0
 40
2.5
 41
0.0
 71
     5
 72
     1
  1
\A1;89
 73
     1
 44
1.0
1001
ACAD
1000
MTEXTBEGIN
1070
    73
1070
     1
1070
    44
1040
1.0
1070
    74
1070
     0
1000
MTEXTEND
  0
POINT
  5
232
330
229
100
AcDbEntity
  8
DEFPOINTS
 62
     0
100
AcDbPoint
 10
32.86672410085401
 20
34.16134940133543
 30
0.0
  0
POINT
  5
233
330
229
100
AcDbEntity
  8
DEFPOINTS
 62
     0
100
AcDbPoint
 10
37.316724100854
 20
34.16134940133543
 30
0.0
  0
POINT
  5
234
330
229
100
AcDbEntity
  8
DEFPOINTS
 62
     0
100
AcDbPoint
 10
37.316724100854
 20
42.16134940133542
 30
0.0
  0
ENDBLK
  5
236
330
229
100
AcDbEntity
  8
0
100
AcDbBlockEnd
  0
BLOCK
  5
241
330
237
100
AcDbEntity
  8
0
100
AcDbBlockBegin
  2
*D5
 70
     1
 10
0.0
 20
0.0
 30
0.0
  3
*D5
  1

  0
LINE
  5
238
330
237
100
AcDbEntity
  8
SUNPO
 62
     0
370
    -2
100
AcDbLine
 10
-41.34105167862986
 20
36.16134940133543
 30
0.0
 11
-41.34105167862986
 21
44.16134940133543
 31
0.0
  0
LINE
  5
239
330
237
100
AcDbEntity
  8
SUNPO
 62
     0
370
    -2
100
AcDbLine
 10
8.758948321370155
 20
36.16134940133543
 30
0.0
 11
8.758948321370155
 21
44.16134940133543
 31
0.0
  0
LINE
  5
23A
330
237
100
AcDbEntity
  8
SUNPO
 62
     0
370
    -2
100
AcDbLine
 10
-39.34105167862987
 20
42.16134940133542
 30
0.0
 11
6.758948321370155
 21
42.16134940133542
 31
0.0
  0
INSERT
  5
23B
330
237
100
AcDbEntity
  8
SUNPO
 62
     0
370
    -2
100
AcDbBlockReference
  2
_OPEN30
 10
-41.34105167862986
 20
42.16134940133542
 30
0.0
 41
2.0
 42
2.0
 43
2.0
 50
180.0
  0
INSERT
  5
23C
330
237
100
AcDbEntity
  8
SUNPO
 62
     0
370
    -2
100
AcDbBlockReference
  2
_OPEN30
 10
8.758948321370155
 20
42.16134940133542
 30
0.0
 41
2.0
 42
2.0
 43
2.0
  0
MTEXT
  5
23D
330
237
100
AcDbEntity
  8
SUNPO
 62
     0
100
AcDbMText
 10
-16.29105167862985
 20
43.91134940133542
 30
0.0
 40
2.5
 41
0.0
 71
     5
 72
     1
  1
\A1;1020
 73
     1
 44
1.0
1001
ACAD
1000
MTEXTBEGIN
1070
    73
1070
     1
1070
    44
1040
1.0
1070
    74
1070
     0
1000
MTEXTEND
  0
POINT
  5
23E
330
237
100
AcDbEntity
  8
DEFPOINTS
 62
     0
100
AcDbPoint
 10
-41.34105167862986
 20
34.16134940133543
 30
0.0
  0
POINT
  5
23F
330
237
100
AcDbEntity
  8
DEFPOINTS
 62
     0
100
AcDbPoint
 10
8.758948321370155
 20
34.16134940133543
 30
0.0
  0
POINT
  5
240
330
237
100
AcDbEntity
  8
DEFPOINTS
 62
     0
100
AcDbPoint
 10
8.758948321370155
 20
42.16134940133542
 30
0.0
  0
ENDBLK
  5
242
330
237
100
AcDbEntity
  8
0
100
AcDbBlockEnd
  0
BLOCK
  5
24D
330
243
100
AcDbEntity
  8
0
100
AcDbBlockBegin
  2
*D6
 70
     1
 10
0.0
 20
0.0
 30
0.0
  3
*D6
  1

  0
LINE
  5
244
330
243
100
AcDbEntity
  8
SUNPO
 62
     0
370
    -2
100
AcDbLine
 10
10.76927772338018
 20
3.661635845686759
 30
0.0
 11
18.76927772338017
 21
3.661635845686757
 31
0.0
  0
LINE
  5
245
330
243
100
AcDbEntity
  8
SUNPO
 62
     0
370
    -2
100
AcDbLine
 10
10.76927772338018
 20
34.16163584568676
 30
0.0
 11
18.76927772338018
 21
34.16163584568675
 31
0.0
  0
LINE
  5
246
330
243
100
AcDbEntity
  8
SUNPO
 62
     0
370
    -2
100
AcDbLine
 10
16.76927772338018
 20
5.661635845686758
 30
0.0
 11
16.76927772338018
 21
32.16163584568676
 31
0.0
  0
INSERT
  5
247
330
243
100
AcDbEntity
  8
SUNPO
 62
     0
370
    -2
100
AcDbBlockReference
  2
_OPEN30
 10
16.76927772338018
 20
3.661635845686757
 30
0.0
 41
2.0
 42
2.0
 43
2.0
 50
270.0
  0
INSERT
  5
248
330
243
100
AcDbEntity
  8
SUNPO
 62
     0
370
    -2
100
AcDbBlockReference
  2
_OPEN30
 10
16.76927772338018
 20
34.16163584568675
 30
0.0
 41
2.0
 42
2.0
 43
2.0
 50
90.0
  0
MTEXT
  5
249
330
243
100
AcDbEntity
  8
SUNPO
 62
     0
100
AcDbMText
 10
15.01927772338018
 20
18.91163584568676
 30
0.0
 40
2.5
 41
0.0
 71
     5
 72
     1
  1
\A1;610
 11
0.0000000000000001
 21
1.0
 31
0.0
 73
     1
 44
1.0
1001
ACAD
1000
MTEXTBEGIN
1070
    73
1070
     1
1070
    44
1040
1.0
1070
    74
1070
     0
1000
MTEXTEND
  0
POINT
  5
24A
330
243
100
AcDbEntity
  8
DEFPOINTS
 62
     0
100
AcDbPoint
 10
8.769277723380184
 20
3.66163584568676
 30
0.0
  0
POINT
  5
24B
330
243
100
AcDbEntity
  8
DEFPOINTS
 62
     0
100
AcDbPoint
 10
8.769277723380184
 20
34.16163584568676
 30
0.0
  0
POINT
  5
24C
330
243
100
AcDbEntity
  8
DEFPOINTS
 62
     0
100
AcDbPoint
 10
16.76927772338018
 20
34.16163584568675
 30
0.0
  0
ENDBLK
  5
24E
330
243
100
AcDbEntity
  8
0
100
AcDbBlockEnd
  0
ENDSEC
  0
SECTION
  2
ENTITIES
  0
TEXT
  5
34
330
2
100
AcDbEntity
  8
MOJI1
100
AcDbText
 10
-22.92146892325835
 20
-36.19356546641711
 30
0.0
 40
3.0
  1
３０７２階調（相当）
100
AcDbText
  0
TEXT
  5
35
330
2
100
AcDbEntity
  8
MOJI1
100
AcDbText
 10
-22.92146892325835
 20
-31.19356546641711
 30
0.0
 40
3.0
  1
４０００：１（ＭＡＸ　１００００：１）
100
AcDbText
  0
TEXT
  5
36
330
2
100
AcDbEntity
  8
MOJI1
100
AcDbText
 10
-61.92146892325834
 20
-36.19356546641711
 30
0.0
 40
3.0
  1
階調数
100
AcDbText
  0
TEXT
  5
37
330
2
100
AcDbEntity
  8
MOJI1
100
AcDbText
 10
-61.92146892325834
 20
-31.19356546641711
 30
0.0
 40
3.0
  1
コントラスト
100
AcDbText
  0
LINE
  5
38
330
2
100
AcDbEntity
  8
WAKU
 62
     1
100
AcDbLine
 10
-64.42146892325834
 20
-37.19356546641711
 30
0.0
 11
60.57853107674143
 21
-37.19356546641711
 31
0.0
  0
LINE
  5
3A
330
2
100
AcDbEntity
  8
WAKU
 62
     1
100
AcDbLine
 10
-64.42146892325834
 20
-32.19356546641711
 30
0.0
 11
60.57853107674143
 21
-32.19356546641711
 31
0.0
  0
TEXT
  5
3B
330
2
100
AcDbEntity
  8
MOJI1
100
AcDbText
 10
-61.92146892325834
 20
-11.19356546641711
 30
0.0
 40
3.0
  1
電  源
100
AcDbText
  0
TEXT
  5
3C
330
2
100
AcDbEntity
  8
MOJI1
100
AcDbText
 10
-61.92146892325834
 20
-16.19356546641711
 30
0.0
 40
3.0
  1
消費電力
100
AcDbText
  0
TEXT
  5
3D
330
2
100
AcDbEntity
  8
MOJI1
100
AcDbText
 10
-61.92146892325834
 20
-21.19356546641711
 30
0.0
 40
3.0
  1
画面サイズ
100
AcDbText
  0
TEXT
  5
3E
330
2
100
AcDbEntity
  8
MOJI1
100
AcDbText
 10
-22.92146892325835
 20
-16.19356546641711
 30
0.0
 40
3.0
  1
３６５Ｗ
100
AcDbText
  0
TEXT
  5
3F
330
2
100
AcDbEntity
  8
MOJI1
100
AcDbText
 10
-22.92146892325835
 20
-21.19356546641711
 30
0.0
 40
3.0
  1
４２Ｖ型（１６：９）
100
AcDbText
  0
TEXT
  5
40
330
2
100
AcDbEntity
  8
MOJI1
100
AcDbText
 10
-22.92146892325835
 20
-11.19356546641711
 30
0.0
 40
3.0
  1
ＡＣ１００Ｖ　５０Ｈｚ／６０Ｈｚ
100
AcDbText
  0
TEXT
  5
41
330
2
100
AcDbEntity
  8
MOJI1
100
AcDbText
 10
-61.92146892325834
 20
-46.19356546641711
 30
0.0
 40
3.0
  1
接続端子
100
AcDbText
  0
TEXT
  5
42
330
2
100
AcDbEntity
  8
MOJI1
100
AcDbText
 10
-61.92146892325834
 20
-41.19356546641711
 30
0.0
 40
3.0
  1
音声最大出力
100
AcDbText
  0
TEXT
  5
43
330
2
100
AcDbEntity
  8
MOJI1
100
AcDbText
 10
-22.92146892325835
 20
-41.19356546641711
 30
0.0
 40
3.0
  1
１６Ｗ（８Ｗ＋８Ｗ）
100
AcDbText
  0
TEXT
  5
44
330
2
100
AcDbEntity
  8
MOJI1
100
AcDbText
 10
-22.92146892325835
 20
-51.19356546641711
 30
0.0
 40
3.0
  1
シリアル
100
AcDbText
  0
TEXT
  5
45
330
2
100
AcDbEntity
  8
MOJI1
100
AcDbText
 10
-22.92146892325835
 20
-46.19356546641711
 30
0.0
 40
3.0
  1
ビデオ／Ｓビデオ／ＰＣ／外部スピーカ
100
AcDbText
  0
TEXT
  5
46
330
2
100
AcDbEntity
  8
MOJI1
100
AcDbText
 10
-22.92146892325835
 20
-26.19356546641711
 30
0.0
 40
3.0
  1
７８６４３２画素（水平１０２４×垂直７６８）
100
AcDbText
  0
LINE
  5
47
330
2
100
AcDbEntity
  8
WAKU
 62
     4
100
AcDbLine
 10
-24.42146892325857
 20
-7.193565466417112
 30
0.0
 11
-24.42146892325857
 21
-52.19356546641711
 31
0.0
  0
TEXT
  5
48
330
2
100
AcDbEntity
  8
MOJI1
100
AcDbText
 10
-61.92146892325834
 20
-26.19356546641711
 30
0.0
 40
3.0
  1
画素数
100
AcDbText
  0
LINE
  5
49
330
2
100
AcDbEntity
  8
WAKU
 62
     4
100
AcDbLine
 10
60.57853107674143
 20
-7.193565466417112
 30
0.0
 11
60.57853107674143
 21
-52.19356546641711
 31
0.0
  0
LINE
  5
4A
330
2
100
AcDbEntity
  8
WAKU
 62
     4
100
AcDbLine
 10
-64.42146892325857
 20
-7.193565466417112
 30
0.0
 11
-64.42146892325834
 21
-52.19356546641711
 31
0.0
  0
LINE
  5
4B
330
2
100
AcDbEntity
  8
WAKU
 62
     4
100
AcDbLine
 10
60.57853107674143
 20
-52.19356546641711
 30
0.0
 11
-64.42146892325834
 21
-52.19356546641711
 31
0.0
  0
LINE
  5
4C
330
2
100
AcDbEntity
  8
WAKU
 62
     1
100
AcDbLine
 10
-64.42146892325834
 20
-47.19356546641711
 30
0.0
 11
60.57853107674143
 21
-47.19356546641711
 31
0.0
  0
LINE
  5
4D
330
2
100
AcDbEntity
  8
WAKU
 62
     1
100
AcDbLine
 10
-64.42146892325834
 20
-42.19356546641711
 30
0.0
 11
60.57853107674143
 21
-42.19356546641711
 31
0.0
  0
LINE
  5
4E
330
2
100
AcDbEntity
  8
WAKU
 62
     1
100
AcDbLine
 10
-64.42146892325834
 20
-22.19356546641711
 30
0.0
 11
60.57853107674143
 21
-22.19356546641711
 31
0.0
  0
LINE
  5
4F
330
2
100
AcDbEntity
  8
WAKU
 62
     1
100
AcDbLine
 10
-64.42146892325834
 20
-12.19356546641711
 30
0.0
 11
60.57853107674143
 21
-12.19356546641711
 31
0.0
  0
LINE
  5
50
330
2
100
AcDbEntity
  8
WAKU
 62
     4
100
AcDbLine
 10
-64.42146892325834
 20
-7.193565466417112
 30
0.0
 11
60.57853107674143
 21
-7.193565466417112
 31
0.0
  0
LINE
  5
51
330
2
100
AcDbEntity
  8
WAKU
 62
     1
100
AcDbLine
 10
-64.42146892325834
 20
-27.19356546641711
 30
0.0
 11
60.57853107674143
 21
-27.19356546641711
 31
0.0
  0
LINE
  5
52
330
2
100
AcDbEntity
  8
WAKU
 62
     1
100
AcDbLine
 10
-64.42146892325834
 20
-17.19356546641711
 30
0.0
 11
60.57853107674143
 21
-17.19356546641711
 31
0.0
  0
POINT
  5
53
330
2
100
AcDbEntity
  8
GAIKEI
  6
Continuous
100
AcDbPoint
 10
35.06672410085403
 20
34.16164674568677
 30
0.0
  0
LINE
  5
55
330
2
100
AcDbEntity
  8
GAIKEI
  6
Continuous
 62
     1
100
AcDbLine
 10
36.94117240085407
 20
26.19660899568675
 30
0.0
 11
36.96015430085405
 21
26.19660899568675
 31
0.0
  0
LINE
  5
56
330
2
100
AcDbEntity
  8
GAIKEI
  6
Continuous
 62
     1
100
AcDbLine
 10
36.95606495085409
 20
26.79658464568672
 30
0.0
 11
36.92823290085406
 21
26.79658464568672
 31
0.0
  0
LINE
  5
57
330
2
100
AcDbEntity
  8
GAIKEI
  6
Continuous
 62
     1
100
AcDbLine
 10
36.94117240085407
 20
12.76161064568674
 30
0.0
 11
36.96015430085405
 21
12.76161064568674
 31
0.0
  0
LINE
  5
58
330
2
100
AcDbEntity
  8
GAIKEI
  6
Continuous
 62
     1
100
AcDbLine
 10
36.96192435085405
 20
13.36158624568674
 30
0.0
 11
36.93940235085407
 21
13.36158624568674
 31
0.0
  0
LINE
  5
59
330
2
100
AcDbEntity
  8
GAIKEI
  6
Continuous
100
AcDbLine
 10
37.25672415085407
 20
8.264356945686756
 30
0.0
 11
37.25672415085407
 21
8.624708545686758
 31
0.0
  0
LINE
  5
5A
330
2
100
AcDbEntity
  8
GAIKEI
  6
Continuous
100
AcDbLine
 10
37.25672415085407
 20
29.38162139568675
 30
0.0
 11
37.25672415085407
 21
8.625929245686734
 31
0.0
  0
LINE
  5
5B
330
2
100
AcDbEntity
  8
GAIKEI
  6
Continuous
 62
     1
100
AcDbLine
 10
36.87848925085408
 20
26.03663584568676
 30
0.0
 11
36.87073780085408
 21
26.03663584568676
 31
0.0
  0
LINE
  5
5C
330
2
100
AcDbEntity
  8
GAIKEI
  6
Continuous
 62
     1
100
AcDbLine
 10
36.87079885085407
 20
26.03663584568676
 30
0.0
 11
36.72712205085403
 21
26.03663584568676
 31
0.0
  0
LINE
  5
5D
330
2
100
AcDbEntity
  8
GAIKEI
  6
Continuous
 62
     1
100
AcDbLine
 10
36.69068410085404
 20
26.03663584568676
 30
0.0
 11
36.72712205085403
 21
26.03663584568676
 31
0.0
  0
LINE
  5
5E
330
2
100
AcDbEntity
  8
GAIKEI
  6
Continuous
 62
     1
100
AcDbLine
 10
36.72712205085403
 20
25.28663579568672
 30
0.0
 11
36.87079885085407
 21
25.28663579568672
 31
0.0
  0
LINE
  5
5F
330
2
100
AcDbEntity
  8
GAIKEI
  6
Continuous
 62
     1
100
AcDbLine
 10
36.87073780085408
 20
25.28663579568672
 30
0.0
 11
36.87848925085408
 21
25.28663579568672
 31
0.0
  0
LINE
  5
60
330
2
100
AcDbEntity
  8
GAIKEI
  6
Continuous
 62
     1
100
AcDbLine
 10
36.72712205085403
 20
25.28663579568672
 30
0.0
 11
36.69068410085404
 21
25.28663579568672
 31
0.0
  0
LINE
  5
61
330
2
100
AcDbEntity
  8
GAIKEI
  6
Continuous
 62
     1
100
AcDbLine
 10
36.87848925085408
 20
12.62660089568675
 30
0.0
 11
36.87073780085408
 21
12.62660089568675
 31
0.0
  0
LINE
  5
62
330
2
100
AcDbEntity
  8
GAIKEI
  6
Continuous
 62
     1
100
AcDbLine
 10
36.87079885085407
 20
12.62660089568675
 30
0.0
 11
36.72712205085403
 21
12.62660089568675
 31
0.0
  0
LINE
  5
63
330
2
100
AcDbEntity
  8
GAIKEI
  6
Continuous
 62
     1
100
AcDbLine
 10
36.69068410085404
 20
12.62660089568675
 30
0.0
 11
36.72712205085403
 21
12.62660089568675
 31
0.0
  0
LINE
  5
64
330
2
100
AcDbEntity
  8
GAIKEI
  6
Continuous
 62
     1
100
AcDbLine
 10
35.68671675085406
 20
32.02058394568672
 30
0.0
 11
35.68671675085406
 21
27.93354759568678
 31
0.0
  0
LINE
  5
65
330
2
100
AcDbEntity
  8
GAIKEI
  6
Continuous
 62
     1
100
AcDbLine
 10
35.68671675085406
 20
32.23811339568675
 30
0.0
 11
35.68671675085406
 21
32.02058394568672
 31
0.0
  0
LINE
  5
66
330
2
100
AcDbEntity
  8
GAIKEI
  6
Continuous
100
AcDbLine
 10
36.69063635085402
 20
32.72141179568672
 30
0.0
 11
36.06293590085406
 21
32.85483364568677
 31
0.0
  0
LINE
  5
67
330
2
100
AcDbEntity
  8
GAIKEI
  6
Continuous
100
AcDbLine
 10
36.06291575085405
 20
32.85486149568675
 30
0.0
 11
35.27085770085407
 21
33.02322044568672
 31
0.0
  0
LINE
  5
68
330
2
100
AcDbEntity
  8
GAIKEI
  6
Continuous
100
AcDbLine
 10
35.27081775085404
 20
33.02320349568674
 30
0.0
 11
35.18490745085407
 21
33.04146429568675
 31
0.0
  0
LINE
  5
69
330
2
100
AcDbEntity
  8
GAIKEI
  6
Continuous
 62
     1
100
AcDbLine
 10
37.09794080085405
 20
8.375464495686742
 30
0.0
 11
36.68964865085403
 21
8.185074745686733
 31
0.0
  0
LINE
  5
6A
330
2
100
AcDbEntity
  8
GAIKEI
  6
Continuous
 62
     1
100
AcDbLine
 10
36.72712205085403
 20
11.87660084568676
 30
0.0
 11
36.87079885085407
 21
11.87660084568676
 31
0.0
  0
LINE
  5
6B
330
2
100
AcDbEntity
  8
GAIKEI
  6
Continuous
 62
     1
100
AcDbLine
 10
36.87073780085408
 20
11.87660084568676
 30
0.0
 11
36.87848925085408
 21
11.87660084568676
 31
0.0
  0
LINE
  5
6C
330
2
100
AcDbEntity
  8
GAIKEI
  6
Continuous
 62
     1
100
AcDbLine
 10
36.72712205085403
 20
11.87660084568676
 30
0.0
 11
36.69068410085404
 21
11.87660084568676
 31
0.0
  0
LINE
  5
6D
330
2
100
AcDbEntity
  8
GAIKEI
  6
Continuous
100
AcDbLine
 10
36.91325985085408
 20
32.43795439568675
 30
0.0
 11
36.90584530085406
 21
32.49071164568676
 31
0.0
  0
LINE
  5
6E
330
2
100
AcDbEntity
  8
GAIKEI
  6
Continuous
 62
     1
100
AcDbLine
 10
36.94117240085407
 20
26.34663344568674
 30
0.0
 11
36.94117240085407
 21
26.19660899568675
 31
0.0
  0
LINE
  5
6F
330
2
100
AcDbEntity
  8
GAIKEI
  6
Continuous
 62
     1
100
AcDbLine
 10
36.93943535085404
 20
26.44658284568675
 30
0.0
 11
36.94119145085406
 21
26.34662269568674
 31
0.0
  0
LINE
  5
70
330
2
100
AcDbEntity
  8
GAIKEI
  6
Continuous
 62
     1
100
AcDbLine
 10
36.93940235085407
 20
26.68788099568673
 30
0.0
 11
36.93940235085407
 21
26.44660904568673
 31
0.0
  0
LINE
  5
71
330
2
100
AcDbEntity
  8
GAIKEI
  6
Continuous
 62
     1
100
AcDbLine
 10
36.96192435085405
 20
26.44660904568673
 30
0.0
 11
36.96192435085405
 21
26.71754409568672
 31
0.0
  0
LINE
  5
72
330
2
100
AcDbEntity
  8
GAIKEI
  6
Continuous
 62
     1
100
AcDbLine
 10
36.93940235085407
 20
26.44660904568673
 30
0.0
 11
36.96192435085405
 21
26.44660904568673
 31
0.0
  0
LINE
  5
73
330
2
100
AcDbEntity
  8
GAIKEI
  6
Continuous
 62
     1
100
AcDbLine
 10
36.96015390085407
 20
26.34662924568676
 30
0.0
 11
36.96190995085405
 21
26.44658939568677
 31
0.0
  0
LINE
  5
74
330
2
100
AcDbEntity
  8
GAIKEI
  6
Continuous
100
AcDbLine
 10
36.94117240085407
 20
26.34663344568674
 30
0.0
 11
36.96015430085405
 21
26.34663344568674
 31
0.0
  0
LINE
  5
75
330
2
100
AcDbEntity
  8
GAIKEI
  6
Continuous
 62
     1
100
AcDbLine
 10
36.96015430085405
 20
26.19660899568675
 30
0.0
 11
36.96015430085405
 21
26.34663344568674
 31
0.0
  0
LINE
  5
76
330
2
100
AcDbEntity
  8
GAIKEI
  6
Continuous
 62
     1
100
AcDbLine
 10
36.94117240085407
 20
12.91163509568673
 30
0.0
 11
36.94117240085407
 21
12.76161064568674
 31
0.0
  0
LINE
  5
77
330
2
100
AcDbEntity
  8
GAIKEI
  6
Continuous
 62
     1
100
AcDbLine
 10
36.93939665085404
 20
13.01158609568676
 30
0.0
 11
36.94115275085406
 21
12.91162589568677
 31
0.0
  0
LINE
  5
78
330
2
100
AcDbEntity
  8
GAIKEI
  6
Continuous
 62
     1
100
AcDbLine
 10
36.93940235085407
 20
13.36158624568674
 30
0.0
 11
36.93940235085407
 21
13.01161064568674
 31
0.0
  0
LINE
  5
79
330
2
100
AcDbEntity
  8
GAIKEI
  6
Continuous
 62
     1
100
AcDbLine
 10
36.96192435085405
 20
13.01161064568674
 30
0.0
 11
36.96192435085405
 21
13.36158624568674
 31
0.0
  0
LINE
  5
7A
330
2
100
AcDbEntity
  8
GAIKEI
  6
Continuous
 62
     1
100
AcDbLine
 10
36.93940235085407
 20
13.01161064568674
 30
0.0
 11
36.96192435085405
 21
13.01161064568674
 31
0.0
  0
LINE
  5
7B
330
2
100
AcDbEntity
  8
GAIKEI
  6
Continuous
 62
     1
100
AcDbLine
 10
36.96013155085407
 20
12.91163354568675
 30
0.0
 11
36.96188765085404
 21
13.01159369568677
 31
0.0
  0
LINE
  5
7C
330
2
100
AcDbEntity
  8
GAIKEI
  6
Continuous
 62
     1
100
AcDbLine
 10
36.94117240085407
 20
12.91163509568673
 30
0.0
 11
36.96015430085405
 21
12.91163509568673
 31
0.0
  0
LINE
  5
7D
330
2
100
AcDbEntity
  8
GAIKEI
  6
Continuous
 62
     1
100
AcDbLine
 10
36.96015430085405
 20
12.76161064568674
 30
0.0
 11
36.96015430085405
 21
12.91163509568673
 31
0.0
  0
LINE
  5
7E
330
2
100
AcDbEntity
  8
GAIKEI
  6
Continuous
 62
     1
100
AcDbLine
 10
36.93016365085404
 20
26.67569989568676
 30
0.0
 11
36.93940430085402
 21
26.68789509568677
 31
0.0
  0
LINE
  5
7F
330
2
100
AcDbEntity
  8
GAIKEI
  6
Continuous
 62
     1
100
AcDbLine
 10
36.96188970085407
 20
26.71756984568674
 30
0.0
 11
37.02384420085403
 21
26.79933344568673
 31
0.0
  0
LINE
  5
80
330
2
100
AcDbEntity
  8
GAIKEI
  6
Continuous
 62
     1
100
AcDbLine
 10
36.90583300085407
 20
8.713941945686769
 30
0.0
 11
36.90583300085407
 21
11.87892014568672
 31
0.0
  0
LINE
  5
81
330
2
100
AcDbEntity
  8
GAIKEI
  6
Continuous
 62
     1
100
AcDbLine
 10
36.90583300085407
 20
11.87892014568672
 30
0.0
 11
36.95319630085405
 21
11.87892014568672
 31
0.0
  0
LINE
  5
82
330
2
100
AcDbEntity
  8
GAIKEI
  6
Continuous
 62
     1
100
AcDbLine
 10
36.95319630085405
 20
12.62428154568675
 30
0.0
 11
36.90583300085407
 21
12.62428154568675
 31
0.0
  0
LINE
  5
83
330
2
100
AcDbEntity
  8
GAIKEI
  6
Continuous
 62
     1
100
AcDbLine
 10
36.90583300085407
 20
12.62428154568675
 30
0.0
 11
36.90583300085407
 21
25.28889409568677
 31
0.0
  0
LINE
  5
84
330
2
100
AcDbEntity
  8
GAIKEI
  6
Continuous
 62
     1
100
AcDbLine
 10
36.90583300085407
 20
25.28889409568677
 30
0.0
 11
36.95319630085405
 21
25.28889409568677
 31
0.0
  0
LINE
  5
85
330
2
100
AcDbEntity
  8
GAIKEI
  6
Continuous
 62
     1
100
AcDbLine
 10
36.95319630085405
 20
26.03431649568677
 30
0.0
 11
36.90583300085407
 21
26.03431649568677
 31
0.0
  0
LINE
  5
86
330
2
100
AcDbEntity
  8
GAIKEI
  6
Continuous
 62
     1
100
AcDbLine
 10
36.90583300085407
 20
26.03431649568677
 30
0.0
 11
36.90583300085407
 21
26.58656264568674
 31
0.0
  0
LINE
  5
87
330
2
100
AcDbEntity
  8
GAIKEI
  6
Continuous
 62
     1
100
AcDbLine
 10
36.06293745085404
 20
31.85224899568675
 30
0.0
 11
36.06293745085404
 21
28.07502709568672
 31
0.0
  0
LINE
  5
88
330
2
100
AcDbEntity
  8
GAIKEI
  6
Continuous
 62
     1
100
AcDbLine
 10
36.06293745085404
 20
28.07502709568672
 30
0.0
 11
35.68671675085406
 21
28.07502709568672
 31
0.0
  0
LINE
  5
89
330
2
100
AcDbEntity
  8
GAIKEI
  6
Continuous
 62
     1
100
AcDbLine
 10
35.93030805085405
 20
27.50178484568676
 30
0.0
 11
35.93030805085405
 21
27.67420919568673
 31
0.0
  0
LINE
  5
8A
330
2
100
AcDbEntity
  8
GAIKEI
  6
Continuous
 62
     1
100
AcDbLine
 10
35.93030205085407
 20
27.67420979568675
 30
0.0
 11
36.47092455085405
 21
27.39271909568675
 31
0.0
  0
LINE
  5
8B
330
2
100
AcDbEntity
  8
GAIKEI
  6
Continuous
 62
     1
100
AcDbLine
 10
36.06295905085406
 20
28.07502399568676
 30
0.0
 11
36.53122735085404
 21
27.83120659568675
 31
0.0
  0
LINE
  5
8C
330
2
100
AcDbEntity
  8
GAIKEI
  6
Continuous
 62
     1
100
AcDbLine
 10
36.50847065085404
 20
31.75750964568675
 30
0.0
 11
36.06291450085408
 21
31.85221549568672
 31
0.0
  0
LINE
  5
8D
330
2
100
AcDbEntity
  8
GAIKEI
  6
Continuous
100
AcDbLine
 10
36.71363330085407
 20
29.15755844568673
 30
0.0
 11
36.71363330085407
 21
30.26568384568674
 31
0.0
  0
LINE
  5
8E
330
2
100
AcDbEntity
  8
GAIKEI
  6
Continuous
 62
     1
100
AcDbLine
 10
36.98786425085407
 20
11.92658864568676
 30
0.0
 11
36.94227100085405
 21
11.92658864568676
 31
0.0
  0
LINE
  5
8F
330
2
100
AcDbEntity
  8
GAIKEI
  6
Continuous
 62
     1
100
AcDbLine
 10
36.72712205085403
 20
12.62660089568675
 30
0.0
 11
36.72712205085403
 21
11.87660084568676
 31
0.0
  0
LINE
  5
90
330
2
100
AcDbEntity
  8
GAIKEI
  6
Continuous
 62
     1
100
AcDbLine
 10
36.94227100085405
 20
11.92658864568676
 30
0.0
 11
36.94227100085405
 21
12.57661309568675
 31
0.0
  0
LINE
  5
91
330
2
100
AcDbEntity
  8
GAIKEI
  6
Continuous
 62
     1
100
AcDbLine
 10
36.94227100085405
 20
12.57661309568675
 30
0.0
 11
36.98786425085407
 21
12.57661309568675
 31
0.0
  0
LINE
  5
92
330
2
100
AcDbEntity
  8
GAIKEI
  6
Continuous
 62
     1
100
AcDbLine
 10
36.94227100085405
 20
25.98658704568675
 30
0.0
 11
36.98786425085407
 21
25.98658704568675
 31
0.0
  0
LINE
  5
93
330
2
100
AcDbEntity
  8
GAIKEI
  6
Continuous
 62
     1
100
AcDbLine
 10
36.98786425085407
 20
25.33662359568678
 30
0.0
 11
36.94227100085405
 21
25.33662359568678
 31
0.0
  0
LINE
  5
94
330
2
100
AcDbEntity
  8
GAIKEI
  6
Continuous
 62
     1
100
AcDbLine
 10
36.69068410085404
 20
26.58656264568674
 30
0.0
 11
36.69068410085404
 21
26.03663584568676
 31
0.0
  0
LINE
  5
95
330
2
100
AcDbEntity
  8
GAIKEI
  6
Continuous
 62
     1
100
AcDbLine
 10
36.69068410085404
 20
25.28663579568672
 30
0.0
 11
36.69068410085404
 21
12.62660089568675
 31
0.0
  0
LINE
  5
96
330
2
100
AcDbEntity
  8
GAIKEI
  6
Continuous
 62
     1
100
AcDbLine
 10
36.69068410085404
 20
11.87660084568676
 30
0.0
 11
36.69068410085404
 21
8.713941945686769
 31
0.0
  0
LINE
  5
97
330
2
100
AcDbEntity
  8
GAIKEI
  6
Continuous
 62
     1
100
AcDbLine
 10
36.72712205085403
 20
26.03663584568676
 30
0.0
 11
36.72712205085403
 21
25.28663579568672
 31
0.0
  0
LINE
  5
98
330
2
100
AcDbEntity
  8
GAIKEI
  6
Continuous
 62
     1
100
AcDbLine
 10
36.94227100085405
 20
25.33662359568678
 30
0.0
 11
36.94227100085405
 21
25.98658704568675
 31
0.0
  0
LINE
  5
99
330
2
100
AcDbEntity
  8
GAIKEI
  6
Continuous
 62
     1
100
AcDbLine
 10
36.69065245085406
 20
8.713925245686766
 30
0.0
 11
36.27389685085407
 21
8.519588945686734
 31
0.0
  0
LINE
  5
9A
330
2
100
AcDbEntity
  8
GAIKEI
  6
Continuous
 62
     1
100
AcDbLine
 10
36.41340765085406
 20
26.73091049568677
 30
0.0
 11
36.69068950085407
 21
26.58653569568674
 31
0.0
  0
LINE
  5
9B
330
2
100
AcDbEntity
  8
GAIKEI
  6
Continuous
 62
     1
100
AcDbLine
 10
35.68671675085406
 20
27.93354759568678
 30
0.0
 11
35.50672415085407
 21
27.93354759568678
 31
0.0
  0
LINE
  5
9C
330
2
100
AcDbEntity
  8
GAIKEI
  6
Continuous
 62
     1
100
AcDbLine
 10
36.41759390085403
 20
27.24807604568673
 30
0.0
 11
35.93027170085404
 21
27.50181444568676
 31
0.0
  0
LINE
  5
9D
330
2
100
AcDbEntity
  8
GAIKEI
  6
Continuous
 62
     1
100
AcDbLine
 10
37.12439995085404
 20
27.73622089568676
 30
0.0
 11
37.03044120085408
 21
27.73622089568676
 31
0.0
  0
LINE
  5
9E
330
2
100
AcDbEntity
  8
GAIKEI
  6
Continuous
 62
     1
100
AcDbLine
 10
37.09794240085407
 20
8.264352145686757
 30
0.0
 11
37.02500380085408
 21
8.261406595686764
 31
0.0
  0
LINE
  5
9F
330
2
100
AcDbEntity
  8
GAIKEI
  6
Continuous
 62
     1
100
AcDbLine
 10
37.09791065085406
 20
8.264356945686756
 30
0.0
 11
37.25672415085407
 21
8.264356945686756
 31
0.0
  0
ELLIPSE
  5
A0
330
2
100
AcDbEntity
  8
GAIKEI
  6
Continuous
 62
     1
100
AcDbEllipse
 10
36.98884085085408
 20
12.25160084568676
 30
0.0
 11
0.0
 21
-0.2050000104308134
 31
0.0
210
0.0
220
0.0
230
1.0
 40
0.140541
 41
0.0
 42
6.283185307179585
  0
ELLIPSE
  5
A1
330
2
100
AcDbEntity
  8
GAIKEI
  6
Continuous
 62
     1
100
AcDbEllipse
 10
36.98884085085408
 20
25.66163584568676
 30
0.0
 11
0.0
 21
-0.2050000104308134
 31
0.0
210
0.0
220
0.0
230
1.0
 40
0.140541
 41
0.0
 42
6.283185307179585
  0
SPLINE
  5
A2
330
2
100
AcDbEntity
  8
GAIKEI
  6
Continuous
 62
     1
100
AcDbSpline
210
0.0
220
0.0
230
1.0
 70
     8
 71
     3
 72
     9
 73
     5
 74
     3
 42
0.0000000001
 43
0.0000000001
 44
0.000001
 12
-0.0083024321297457
 22
0.9999655342164203
 32
0.0
 13
0.0082086445030465
 23
0.9999663085101532
 33
0.0
 40
0.0
 40
0.0
 40
0.0
 40
0.0
 40
0.0006085849801241
 40
0.0012207135976182
 40
0.0012207135976182
 40
0.0012207135976182
 40
0.0012207135976182
 10
37.25672415503633
 20
8.624708546282363
 30
0.0
 10
37.25672247079116
 20
8.624911400950622
 30
0.0
 10
37.256720795763
 20
8.625318307313477
 30
0.0
 10
37.25672248012092
 20
8.625725213482127
 30
0.0
 10
37.25672415503633
 20
8.625929249480122
 30
0.0
 11
37.25672415503633
 21
8.624708546282363
 31
0.0
 11
37.25672157920033
 21
8.625317126156346
 31
0.0
 11
37.25672415503633
 21
8.625929249480122
 31
0.0
  0
SPLINE
  5
A3
330
2
100
AcDbEntity
  8
GAIKEI
  6
Continuous
100
AcDbSpline
210
0.0
220
0.0
230
1.0
 70
     8
 71
     3
 72
     9
 73
     5
 74
     3
 42
0.0000000001
 43
0.0000000001
 44
0.000001
 12
-0.718003555664965
 22
0.6960394342653782
 32
0.0
 13
-0.9781988621469723
 23
0.2076703784711929
 33
0.0
 40
0.0
 40
0.0
 40
0.0
 40
0.0
 40
0.1541666528041841
 40
0.2933013943581429
 40
0.2933013943581429
 40
0.2933013943581429
 40
0.2933013943581429
 10
35.52723186445056
 20
32.88648977755344
 30
0.0
 10
35.49033446282443
 20
32.9222584674869
 30
0.0
 10
35.40928355873302
 20
32.97973441843672
 30
0.0
 10
35.31625134154544
 20
33.01357714755685
 30
0.0
 10
35.27088419292105
 20
33.02320853570251
 30
0.0
 11
35.52723186445056
 21
32.88648977755344
 31
0.0
 11
35.40181881168817
 21
32.97614987422327
 31
0.0
 11
35.27088419292105
 21
33.02320853570251
 31
0.0
  0
SPLINE
  5
A4
330
2
100
AcDbEntity
  8
GAIKEI
  6
Continuous
100
AcDbSpline
210
0.0
220
0.0
230
1.0
 70
     8
 71
     3
 72
     9
 73
     5
 74
     3
 42
0.0000000001
 43
0.0000000001
 44
0.000001
 12
0.9780744726698765
 22
-0.2082554342905433
 32
0.0
 13
0.9656791930172923
 23
-0.2597377449918886
 33
0.0
 40
0.0
 40
0.0
 40
0.0
 40
0.0
 40
0.007328499467005
 40
0.0148055604791991
 40
0.0148055604791991
 40
0.0148055604791991
 40
0.0148055604791991
 10
36.69068408223521
 20
32.72138967005645
 30
0.0
 10
36.69307335498576
 20
32.72088093677672
 30
0.0
 10
36.69789204402461
 20
32.71981343288724
 30
0.0
 10
36.7026815658873
 20
32.7186190594249
 30
0.0
 10
36.70508837996877
 20
32.71797170110273
 30
0.0
 11
36.69068408223521
 21
32.72138967005645
 31
0.0
 11
36.6978363339787
 21
32.71979357643431
 31
0.0
 11
36.70508837996877
 21
32.71797170110273
 31
0.0
  0
SPLINE
  5
A5
330
2
100
AcDbEntity
  8
GAIKEI
  6
Continuous
100
AcDbSpline
210
0.0
220
0.0
230
1.0
 70
     8
 71
     3
 72
     9
 73
     5
 74
     3
 42
0.0000000001
 43
0.0000000001
 44
0.000001
 12
0.9653983653387442
 22
-0.2607795931457843
 32
0.0
 13
0.7762688479035696
 23
-0.6304019953763352
 33
0.0
 40
0.0
 40
0.0
 40
0.0
 40
0.0
 40
0.0544112516253437
 40
0.11483546074419
 40
0.11483546074419
 40
0.11483546074419
 40
0.11483546074419
 10
36.70508837996877
 20
32.71797170110273
 30
0.0
 10
36.72259789109381
 20
32.71324191974893
 30
0.0
 10
36.75864595976434
 20
32.69957979880695
 30
0.0
 10
36.79113781260942
 20
32.67866692554401
 30
0.0
 10
36.80677295634215
 20
32.66596974487817
 30
0.0
 11
36.70508837996877
 21
32.71797170110273
 31
0.0
 11
36.75596023019844
 21
32.69866832223442
 31
0.0
 11
36.80677295634215
 21
32.66596974487817
 31
0.0
  0
SPLINE
  5
A6
330
2
100
AcDbEntity
  8
GAIKEI
  6
Continuous
100
AcDbSpline
210
0.0
220
0.0
230
1.0
 70
     8
 71
     3
 72
     9
 73
     5
 74
     3
 42
0.0000000001
 43
0.0000000001
 44
0.000001
 12
0.7367973998811618
 22
-0.6761135936574263
 32
0.0
 13
0.5761966598679106
 23
-0.8173110846899504
 33
0.0
 40
0.0
 40
0.0
 40
0.0
 40
0.0
 40
0.0301178273881451
 40
0.0584659077415252
 40
0.0584659077415252
 40
0.0584659077415252
 40
0.0584659077415252
 10
36.81940723443896
 20
32.65504445125822
 30
0.0
 10
36.82680414674218
 20
32.64825676042204
 30
0.0
 10
36.84046160140943
 20
32.63429174196654
 30
0.0
 10
36.8525367657504
 20
32.61894427322616
 30
0.0
 10
36.85798145548816
 20
32.61122120645865
 30
0.0
 11
36.81940723443896
 21
32.65504445125822
 31
0.0
 11
36.84045584113565
 21
32.63350287127906
 31
0.0
 11
36.85798145548816
 21
32.61122120645865
 31
0.0
  0
SPLINE
  5
A7
330
2
100
AcDbEntity
  8
GAIKEI
  6
Continuous
100
AcDbSpline
210
0.0
220
0.0
230
1.0
 70
     8
 71
     3
 72
     9
 73
     5
 74
     3
 42
0.0000000001
 43
0.0000000001
 44
0.000001
 12
0.5770979100858434
 22
-0.816674967275569
 32
0.0
 13
0.1391936939879922
 23
-0.9902651743618864
 33
0.0
 40
0.0
 40
0.0
 40
0.0
 40
0.0
 40
0.0725628913700709
 40
0.130586079143709
 40
0.130586079143709
 40
0.130586079143709
 40
0.130586079143709
 10
36.85798145548816
 20
32.61122120645865
 30
0.0
 10
36.87194008647464
 20
32.59146777414696
 30
0.0
 10
36.89232812145363
 20
32.55233745271553
 30
0.0
 10
36.90314086689261
 20
32.50982954639912
 30
0.0
 10
36.90583302084033
 20
32.49067676567989
 30
0.0
 11
36.85798145548816
 21
32.61122120645865
 31
0.0
 11
36.89164103754169
 21
32.54693688356895
 31
0.0
 11
36.90583302084033
 21
32.49067676567989
 31
0.0
  0
SPLINE
  5
A8
330
2
100
AcDbEntity
  8
GAIKEI
  6
Continuous
100
AcDbSpline
210
0.0
220
0.0
230
1.0
 70
     8
 71
     3
 72
     9
 73
     5
 74
     3
 42
0.0000000001
 43
0.0000000001
 44
0.000001
 12
0.6698986207304117
 22
-0.7424525829596745
 32
0.0
 13
0.9781475809466238
 23
-0.2079117839091086
 33
0.0
 40
0.0
 40
0.0
 40
0.0
 40
0.0
 40
0.0695597461715116
 40
0.1390132460895094
 40
0.1390132460895094
 40
0.1390132460895094
 40
0.1390132460895094
 10
35.06672412129822
 20
33.11132092259396
 30
0.0
 10
35.08225678063778
 20
33.09410598485562
 30
0.0
 10
35.11842554467281
 20
33.06396189928302
 30
0.0
 10
35.16230143015441
 20
33.04627144886459
 30
0.0
 10
35.18494668779877
 20
33.04145804850902
 30
0.0
 11
35.06672412129822
 21
33.11132092259396
 31
0.0
 11
35.1203819218396
 21
33.06705691149978
 31
0.0
 11
35.18494668779877
 21
33.04145804850902
 31
0.0
  0
SPLINE
  5
A9
330
2
100
AcDbEntity
  8
GAIKEI
  6
Continuous
100
AcDbSpline
210
0.0
220
0.0
230
1.0
 70
     8
 71
     3
 72
     9
 73
     5
 74
     3
 42
0.0000000001
 43
0.0000000001
 44
0.000001
 12
0.0000000268429086
 22
0.9999999999999998
 32
0.0
 13
0.5092546093492741
 23
0.8606159090189528
 33
0.0
 40
0.0
 40
0.0
 40
0.0
 40
0.0
 40
0.0196586702455652
 40
0.0401001248289777
 40
0.0401001248289777
 40
0.0401001248289777
 40
0.0401001248289777
 10
36.98169972458109
 20
8.273451201127045
 30
0.0
 10
36.981699724757
 20
8.280004091208894
 30
0.0
 10
36.98360316812101
 20
8.293404855196513
 30
0.0
 10
36.98878883891891
 20
8.30591720119736
 30
0.0
 10
36.99225880724171
 20
8.311781281536696
 30
0.0
 11
36.98169972458109
 21
8.273451201127045
 31
0.0
 11
36.98435582890997
 21
8.292929564341648
 31
0.0
 11
36.99225880724171
 21
8.311781281536696
 31
0.0
  0
SPLINE
  5
AA
330
2
100
AcDbEntity
  8
GAIKEI
  6
Continuous
100
AcDbSpline
210
0.0
220
0.0
230
1.0
 70
     8
 71
     3
 72
     9
 73
     5
 74
     3
 42
0.0000000001
 43
0.0000000001
 44
0.000001
 12
0.5699514274070384
 22
0.821678386229478
 32
0.0
 13
0.9063077132477697
 23
0.4226184199814281
 33
0.0
 40
0.0
 40
0.0
 40
0.0
 40
0.0
 40
0.0202085111664505
 40
0.0396555940045423
 40
0.0396555940045423
 40
0.0396555940045423
 40
0.0396555940045423
 10
36.99500538943667
 20
8.316053742728854
 30
0.0
 10
36.99884467936504
 20
8.321588708343313
 30
0.0
 10
37.00793433143686
 20
8.33142116344527
 30
0.0
 10
37.01915967437611
 20
8.338704804101496
 30
0.0
 10
37.02503468810156
 20
8.341444369242253
 30
0.0
 11
36.99500538943667
 21
8.316053742728854
 31
0.0
 11
37.00866406654725
 21
8.330947234437701
 31
0.0
 11
37.02503468810156
 21
8.341444369242253
 31
0.0
  0
SPLINE
  5
AB
330
2
100
AcDbEntity
  8
GAIKEI
  6
Continuous
 62
     1
100
AcDbSpline
210
0.0
220
0.0
230
1.0
 70
     8
 71
     3
 72
     9
 73
     5
 74
     3
 42
0.0000000001
 43
0.0000000001
 44
0.000001
 12
0.2038940726259019
 22
-0.9789929556171603
 32
0.0
 13
-0.0000213165802684
 23
-0.9999999997728018
 33
0.0
 40
0.0
 40
0.0
 40
0.0
 40
0.0
 40
0.0550352452617108
 40
0.1094195798242714
 40
0.1094195798242714
 40
0.1094195798242714
 40
0.1094195798242714
 10
36.92823292451922
 20
26.79658462941058
 30
0.0
 10
36.93197337795068
 20
26.77862492360328
 30
0.0
 10
36.93754483121697
 20
26.74250509524839
 30
0.0
 10
36.93940274520807
 20
26.70600912116683
 30
0.0
 10
36.93940235877872
 20
26.68788100965008
 30
0.0
 11
36.92823292451922
 21
26.79658462941058
 31
0.0
 11
36.93663762790553
 21
26.74219459991224
 31
0.0
 11
36.93940235877872
 21
26.68788100965008
 31
0.0
  0
SPLINE
  5
AC
330
2
100
AcDbEntity
  8
GAIKEI
  6
Continuous
 62
     1
100
AcDbSpline
210
0.0
220
0.0
230
1.0
 70
     8
 71
     3
 72
     9
 73
     5
 74
     3
 42
0.0000000001
 43
0.0000000001
 44
0.000001
 12
-0.0000780189020072
 22
0.9999999969565255
 32
0.0
 13
-0.1478803268001294
 23
0.9890052623446889
 33
0.0
 40
0.0
 40
0.0
 40
0.0
 40
0.0
 40
0.0389161001632739
 40
0.0793118631585714
 40
0.0793118631585714
 40
0.0793118631585714
 40
0.0793118631585714
 10
36.96192433277739
 20
26.71754409735564
 30
0.0
 10
36.96192332071358
 20
26.73051613070394
 30
0.0
 10
36.96096694270165
 20
26.75696167565701
 30
0.0
 10
36.95805620363918
 20
26.78326742201765
 30
0.0
 10
36.95606495742814
 20
26.79658462941058
 30
0.0
 11
36.96192433277739
 21
26.71754409735564
 31
0.0
 11
36.96051513594111
 21
26.75643416902426
 31
0.0
 11
36.95606495742814
 21
26.79658462941058
 31
0.0
  0
SPLINE
  5
AD
330
2
100
AcDbEntity
  8
GAIKEI
  6
Continuous
 62
     1
100
AcDbSpline
210
0.0
220
0.0
230
1.0
 70
     8
 71
     3
 72
     9
 73
     5
 74
     3
 42
0.0000000001
 43
0.0000000001
 44
0.000001
 12
0.1569133273070882
 22
-0.9876123772581115
 32
0.0
 13
-0.0000142460188216
 23
-0.9999999998985254
 33
0.0
 40
0.0
 40
0.0
 40
0.0
 40
0.0
 40
0.0141992118986953
 40
0.028249652218221
 40
0.028249652218221
 40
0.028249652218221
 40
0.028249652218221
 10
36.9303691551153
 20
26.79658462941058
 30
0.0
 10
36.93111183697669
 20
26.7919101902711
 30
0.0
 10
36.9322410241021
 20
26.78255109421903
 30
0.0
 10
36.9326275227521
 20
26.77313090080824
 30
0.0
 10
36.93262745603116
 20
26.76844742070222
 30
0.0
 11
36.9303691551153
 21
26.79658462941058
 31
0.0
 11
36.93206024529846
 21
26.78248679083902
 31
0.0
 11
36.93262745603116
 21
26.76844742070222
 31
0.0
  0
SPLINE
  5
AE
330
2
100
AcDbEntity
  8
GAIKEI
  6
Continuous
 62
     1
100
AcDbSpline
210
0.0
220
0.0
230
1.0
 70
     8
 71
     3
 72
     9
 73
     5
 74
     3
 42
0.0000000001
 43
0.0000000001
 44
0.000001
 12
0.0746285580971607
 22
0.9972114010160225
 32
0.0
 13
-0.0741686835241313
 23
0.9972457101358205
 33
0.0
 40
0.0
 40
0.0
 40
0.0
 40
0.0
 40
0.152168096325066
 40
0.3267803392072222
 40
0.3267803392072222
 40
0.3267803392072222
 40
0.3267803392072222
 10
36.97162892319957
 20
12.08851490508505
 30
0.0
 10
36.97541428507195
 20
12.13909615859381
 30
0.0
 10
36.97851291437286
 20
12.24805803296249
 30
0.0
 10
36.97600687842005
 20
12.35707027559513
 30
0.0
 10
36.97168995835947
 20
12.41511404564562
 30
0.0
 11
36.97162892319957
 21
12.08851490508505
 31
0.0
 11
36.97708378787766
 21
12.24058516264864
 31
0.0
 11
36.97168995835947
 21
12.41511404564562
 31
0.0
  0
SPLINE
  5
AF
330
2
100
AcDbEntity
  8
GAIKEI
  6
Continuous
 62
     1
100
AcDbSpline
210
0.0
220
0.0
230
1.0
 70
     8
 71
     3
 72
     9
 73
     5
 74
     3
 42
0.0000000001
 43
0.0000000001
 44
0.000001
 12
0.0746315686445355
 22
0.9972111757103688
 32
0.0
 13
-0.0741686800374705
 23
0.9972457103951359
 33
0.0
 40
0.0
 40
0.0
 40
0.0
 40
0.0
 40
0.1521671957966341
 40
0.3267803505474847
 40
0.3267803505474847
 40
0.3267803505474847
 40
0.3267803505474847
 10
36.97162892319957
 20
25.49848884891304
 30
0.0
 10
36.97541441537243
 20
25.54906979165469
 30
0.0
 10
36.97851317218839
 20
25.65803167845607
 30
0.0
 10
36.97600690076115
 20
25.767043916289
 30
0.0
 10
36.97168995835947
 20
25.82508798947362
 30
0.0
 11
36.97162892319957
 21
25.49848884891304
 31
0.0
 11
36.97708395551572
 21
25.65055819936839
 31
0.0
 11
36.97168995835947
 21
25.82508798947362
 31
0.0
  0
SPLINE
  5
B0
330
2
100
AcDbEntity
  8
GAIKEI
  6
Continuous
 62
     1
100
AcDbSpline
210
0.0
220
0.0
230
1.0
 70
     8
 71
     3
 72
     9
 73
     5
 74
     3
 42
0.0000000001
 43
0.0000000001
 44
0.000001
 12
0.0026893436512621
 22
0.9999963837088239
 32
0.0
 13
-0.4703074679310343
 23
0.8825026264030601
 33
0.0
 40
0.0
 40
0.0
 40
0.0
 40
0.0
 40
0.1085986655622514
 40
0.2479505753778843
 40
0.2479505753778843
 40
0.2479505753778843
 40
0.2479505753778843
 10
36.93018604963564
 20
26.67567397767249
 30
0.0
 10
36.93028340267956
 20
26.71187340195178
 30
0.0
 10
36.92164406734458
 20
26.79469772170316
 30
0.0
 10
36.89317037454413
 20
26.87366804227119
 30
0.0
 10
36.87132429325854
 20
26.91466085107339
 30
0.0
 11
36.93018604963564
 21
26.67567397767249
 31
0.0
 11
36.91891126177265
 21
26.78368486317356
 31
0.0
 11
36.87132429325854
 21
26.91466085107339
 31
0.0
  0
SPLINE
  5
B1
330
2
100
AcDbEntity
  8
GAIKEI
  6
Continuous
 62
     1
100
AcDbSpline
210
0.0
220
0.0
230
1.0
 70
     8
 71
     3
 72
     9
 73
     5
 74
     3
 42
0.0000000001
 43
0.0000000001
 44
0.000001
 12
0.5393179490749109
 22
-0.8421022205205444
 32
0.0
 13
0.0255566981077921
 23
-0.9996733742487229
 33
0.0
 40
0.0
 40
0.0
 40
0.0
 40
0.0
 40
0.1433454388235142
 40
0.2847972682298939
 40
0.2847972682298939
 40
0.2847972682298939
 40
0.2847972682298939
 10
36.93859171693336
 20
27.06834406156378
 30
0.0
 10
36.96436130629188
 20
27.02810689078552
 30
0.0
 10
37.00566776321565
 20
26.94135457820545
 30
0.0
 10
37.02267000616337
 20
26.84646642080432
 30
0.0
 10
37.02387502006369
 20
26.79933121160554
 30
0.0
 11
36.93859171693336
 21
27.06834406156378
 31
0.0
 11
36.9997851275493
 21
26.93871765287736
 31
0.0
 11
37.02387502006369
 21
26.79933121160554
 31
0.0
  0
SPLINE
  5
B2
330
2
100
AcDbEntity
  8
GAIKEI
  6
Continuous
 62
     1
100
AcDbSpline
210
0.0
220
0.0
230
1.0
 70
     8
 71
     3
 72
    11
 73
     7
 74
     5
 42
0.0000000001
 43
0.0000000001
 44
0.000001
 12
0.6038798991310501
 22
0.7970753210490668
 32
0.0
 13
0.0000274432937339
 23
0.9999999996234327
 33
0.0
 40
0.0
 40
0.0
 40
0.0
 40
0.0
 40
0.0851848422785512
 40
0.230771639627506
 40
0.5599477241683751
 40
0.9475902808053248
 40
0.9475902808053248
 40
0.9475902808053248
 40
0.9475902808053248
 10
37.02387502006369
 20
26.79933121160554
 30
0.0
 10
37.04102215805124
 20
26.82196412344143
 30
0.0
 10
37.06341894971209
 20
26.89816960661833
 30
0.0
 10
37.09735345682208
 20
27.08012331575532
 30
0.0
 10
37.11829454121853
 20
27.3685107776694
 30
0.0
 10
37.12439638233635
 20
27.607006730389
 30
0.0
 10
37.12439992839918
 20
27.73622091588601
 30
0.0
 11
37.02387502006369
 21
26.79933121160554
 31
0.0
 11
37.0564098913907
 21
26.87805840761212
 31
0.0
 11
37.08460500415223
 21
27.0208888419989
 31
0.0
 11
37.11449013928657
 21
27.34870548065714
 31
0.0
 11
37.12439992839918
 21
27.73622091588601
 31
0.0
  0
SPLINE
  5
B3
330
2
100
AcDbEntity
  8
GAIKEI
  6
Continuous
 62
     1
100
AcDbSpline
210
0.0
220
0.0
230
1.0
 70
     8
 71
     3
 72
     9
 73
     5
 74
     3
 42
0.0000000001
 43
0.0000000001
 44
0.000001
 12
-0.9087758162825881
 22
-0.4172846938720804
 32
0.0
 13
-0.9320637417466125
 23
0.3622943296841729
 33
0.0
 40
0.0
 40
0.0
 40
0.0
 40
0.0
 40
0.1726111474600614
 40
0.334572766055488
 40
0.334572766055488
 40
0.334572766055488
 40
0.334572766055488
 10
37.25672415503633
 20
8.625929249480122
 30
0.0
 10
37.20443587622549
 20
8.601919919537863
 30
0.0
 10
37.10358635344981
 20
8.551835636251439
 30
0.0
 10
36.98410664148483
 20
8.555283561972686
 30
0.0
 10
36.93378712406903
 20
8.574842820653884
 30
0.0
 11
37.25672415503633
 21
8.625929249480122
 31
0.0
 11
37.09541841984728
 21
8.564489584508919
 31
0.0
 11
36.93378712406903
 21
8.574842820653884
 31
0.0
  0
SPLINE
  5
B4
330
2
100
AcDbEntity
  8
GAIKEI
  6
Continuous
 62
     1
100
AcDbSpline
210
0.0
220
0.0
230
1.0
 70
     8
 71
     3
 72
     9
 73
     5
 74
     3
 42
0.0000000001
 43
0.0000000001
 44
0.000001
 12
-0.9318207203994109
 22
0.3629189234998955
 32
0.0
 13
0.0000044054683735
 23
0.9999999999902959
 33
0.0
 40
0.0
 40
0.0
 40
0.0
 40
0.0
 40
0.0512833858937479
 40
0.1432513595647635
 40
0.1432513595647635
 40
0.1432513595647635
 40
0.1432513595647635
 10
36.93378712406903
 20
8.574842820653884
 30
0.0
 10
36.91785815020636
 20
8.581046724387874
 30
0.0
 10
36.91406054768464
 20
8.642482687350394
 30
0.0
 10
36.90583288578634
 20
8.683285958815218
 30
0.0
 10
36.90583302084033
 20
8.713941950038588
 30
0.0
 11
36.93378712406903
 21
8.574842820653884
 31
0.0
 11
36.91457195847389
 21
8.622390836295949
 31
0.0
 11
36.90583302084033
 21
8.713941950038588
 31
0.0
  0
SPLINE
  5
B5
330
2
100
AcDbEntity
  8
GAIKEI
  6
Continuous
 62
     1
100
AcDbSpline
210
0.0
220
0.0
230
1.0
 70
     8
 71
     3
 72
     9
 73
     5
 74
     3
 42
0.0000000001
 43
0.0000000001
 44
0.000001
 12
0.9839337708855248
 22
0.1785338469618341
 32
0.0
 13
0.949971462887902
 23
0.3123367088553943
 33
0.0
 40
0.0
 40
0.0
 40
0.0
 40
0.0
 40
0.001176065526753
 40
0.0023716260303
 40
0.0023716260303
 40
0.0023716260303
 40
0.0023716260303
 10
36.9531963049134
 20
11.87892016602973
 30
0.0
 10
36.95358202844293
 20
11.87899015519733
 30
0.0
 10
36.9543631735086
 20
11.87910882883412
 30
0.0
 10
36.95513705820231
 20
11.87928397483119
 30
0.0
 10
36.95551564098915
 20
11.87940844730883
 30
0.0
 11
36.9531963049134
 21
11.87892016602973
 31
0.0
 11
36.95435435256636
 21
11.87912095133805
 31
0.0
 11
36.95551564098915
 21
11.87940844730883
 31
0.0
  0
SPLINE
  5
B6
330
2
100
AcDbEntity
  8
GAIKEI
  6
Continuous
 62
     1
100
AcDbSpline
210
0.0
220
0.0
230
1.0
 70
     8
 71
     3
 72
     9
 73
     5
 74
     3
 42
0.0000000001
 43
0.0000000001
 44
0.000001
 12
-0.8178480872751791
 22
0.5754341892348167
 32
0.0
 13
-0.9966781476583459
 23
0.081441205665979
 33
0.0
 40
0.0
 40
0.0
 40
0.0
 40
0.0
 40
0.0028650108098406
 40
0.0054580042542961
 40
0.0054580042542961
 40
0.0054580042542961
 40
0.0054580042542961
 10
36.95826222318411
 20
12.6223894486252
 30
0.0
 10
36.95748117531383
 20
12.62293899034938
 30
0.0
 10
36.95586098501018
 20
12.62382069937268
 30
0.0
 10
36.95405776488112
 20
12.62421114641091
 30
0.0
 10
36.9531963049134
 20
12.62428153858172
 30
0.0
 11
36.95826222318411
 21
12.6223894486252
 31
0.0
 11
36.95573036440649
 21
12.62373010907356
 31
0.0
 11
36.9531963049134
 21
12.62428153858172
 31
0.0
  0
SPLINE
  5
B7
330
2
100
AcDbEntity
  8
GAIKEI
  6
Continuous
 62
     1
100
AcDbSpline
210
0.0
220
0.0
230
1.0
 70
     8
 71
     3
 72
     9
 73
     5
 74
     3
 42
0.0000000001
 43
0.0000000001
 44
0.000001
 12
0.9841315496067643
 22
0.1774403930016749
 32
0.0
 13
0.9496494122794063
 23
0.3133145284811707
 33
0.0
 40
0.0
 40
0.0
 40
0.0
 40
0.0
 40
0.0011814182485585
 40
0.0023849585303693
 40
0.0023849585303693
 40
0.0023849585303693
 40
0.0023849585303693
 10
36.9531963049134
 20
25.28889410985772
 30
0.0
 10
36.95358386190397
 20
25.28896398696384
 30
0.0
 10
36.95436475467221
 20
25.28911368430531
 30
0.0
 10
36.95513466054872
 20
25.28931773074476
 30
0.0
 10
36.95551564098915
 20
25.28944342629671
 30
0.0
 11
36.9531963049134
 21
25.28889410985772
 31
0.0
 11
36.95435435256636
 21
25.28912474569342
 31
0.0
 11
36.95551564098915
 21
25.28944342629671
 31
0.0
  0
SPLINE
  5
B8
330
2
100
AcDbEntity
  8
GAIKEI
  6
Continuous
 62
     1
100
AcDbSpline
210
0.0
220
0.0
230
1.0
 70
     8
 71
     3
 72
     9
 73
     5
 74
     3
 42
0.0000000001
 43
0.0000000001
 44
0.000001
 12
-0.8178480872751791
 22
0.5754341892348167
 32
0.0
 13
-0.9966355735469214
 23
0.0819605608863135
 33
0.0
 40
0.0
 40
0.0
 40
0.0
 40
0.0
 40
0.002879662201498
 40
0.0054790397610588
 40
0.0054790397610588
 40
0.0054790397610588
 40
0.0054790397610588
 10
36.95826222318411
 20
26.03236339245319
 30
0.0
 10
36.95747718110961
 20
26.03291574448125
 30
0.0
 10
36.95586556945594
 20
26.03381942116022
 30
0.0
 10
36.95405984896172
 20
26.03424550208871
 30
0.0
 10
36.9531963049134
 20
26.03431651756961
 30
0.0
 11
36.95826222318411
 21
26.03236339245319
 31
0.0
 11
36.95573036440649
 21
26.03373423694427
 31
0.0
 11
36.9531963049134
 21
26.03431651756961
 31
0.0
  0
SPLINE
  5
B9
330
2
100
AcDbEntity
  8
GAIKEI
  6
Continuous
 62
     1
100
AcDbSpline
210
0.0
220
0.0
230
1.0
 70
     8
 71
     3
 72
     9
 73
     5
 74
     3
 42
0.0000000001
 43
0.0000000001
 44
0.000001
 12
-0.0000099100994793
 22
0.9999999999508951
 32
0.0
 13
0.6038096629412589
 23
0.7971285284938455
 33
0.0
 40
0.0
 40
0.0
 40
0.0
 40
0.0
 40
0.0497997533669562
 40
0.0930673019124994
 40
0.0930673019124994
 40
0.0930673019124994
 40
0.0930673019124994
 10
36.90583302084033
 20
26.58656264423604
 30
0.0
 10
36.90583285633349
 20
26.60316256202421
 30
0.0
 10
36.91212293748387
 20
26.63360256726909
 30
0.0
 10
36.92147759500111
 20
26.66417737857128
 30
0.0
 10
36.93018604963564
 20
26.67567397767249
 30
0.0
 11
36.90583302084033
 21
26.58656264423604
 31
0.0
 11
36.91344276517404
 21
26.6357772002574
 31
0.0
 11
36.93018604963564
 21
26.67567397767249
 31
0.0
  0
SPLINE
  5
BA
330
2
100
AcDbEntity
  8
GAIKEI
  6
Continuous
 62
     1
100
AcDbSpline
210
0.0
220
0.0
230
1.0
 70
     8
 71
     3
 72
     9
 73
     5
 74
     3
 42
0.0000000001
 43
0.0000000001
 44
0.000001
 12
0.0924292431579833
 22
0.9957192551162414
 32
0.0
 13
-0.0933330765008945
 23
0.9956349415477935
 33
0.0
 40
0.0
 40
0.0
 40
0.0
 40
0.0
 40
0.1806358391393012
 40
0.3607768975203727
 40
0.3607768975203727
 40
0.3607768975203727
 40
0.3607768975203727
 10
36.97736622822905
 20
12.07154713063619
 30
0.0
 10
36.982931572862
 20
12.13150132503455
 30
0.0
 10
36.98650876256277
 20
12.25186936990627
 30
0.0
 10
36.98284853097022
 20
12.37223587422406
 30
0.0
 10
36.97724415790927
 20
12.43202078493459
 30
0.0
 11
36.97736622822905
 21
12.07154713063619
 31
0.0
 11
36.98469834689414
 21
12.25203405888976
 31
0.0
 11
36.97724415790927
 21
12.43202078493459
 31
0.0
  0
SPLINE
  5
BB
330
2
100
AcDbEntity
  8
GAIKEI
  6
Continuous
 62
     1
100
AcDbSpline
210
0.0
220
0.0
230
1.0
 70
     8
 71
     3
 72
     9
 73
     5
 74
     3
 42
0.0000000001
 43
0.0000000001
 44
0.000001
 12
0.0924355776148119
 22
0.9957186670897639
 32
0.0
 13
-0.0933289346513915
 23
0.9956353298054645
 33
0.0
 40
0.0
 40
0.0
 40
0.0
 40
0.0
 40
0.1806356638307765
 40
0.3607769043862359
 40
0.3607769043862359
 40
0.3607769043862359
 40
0.3607769043862359
 10
36.97736622822905
 20
25.48152107446418
 30
0.0
 10
36.98293194887039
 20
25.54147517527034
 30
0.0
 10
36.98650886447238
 20
25.66184328322916
 30
0.0
 10
36.98284828793187
 20
25.78220973427858
 30
0.0
 10
36.97724415790927
 20
25.84199472876259
 30
0.0
 11
36.97736622822905
 21
25.48152107446418
 31
0.0
 11
36.98469843071322
 21
25.66200782390382
 31
0.0
 11
36.97724415790927
 21
25.84199472876259
 31
0.0
  0
SPLINE
  5
BC
330
2
100
AcDbEntity
  8
GAIKEI
  6
Continuous
 62
     1
100
AcDbSpline
210
0.0
220
0.0
230
1.0
 70
     8
 71
     3
 72
     9
 73
     5
 74
     3
 42
0.0000000001
 43
0.0000000001
 44
0.000001
 12
0.9057694603986139
 22
0.4237707925390843
 32
0.0
 13
0.4351244737735739
 23
0.9003703084416269
 33
0.0
 40
0.0
 40
0.0
 40
0.0
 40
0.0
 40
0.1117053163412887
 40
0.1869950235717865
 40
0.1869950235717865
 40
0.1869950235717865
 40
0.1869950235717865
 10
37.0979106690078
 20
8.375440953299857
 30
0.0
 10
37.1316370903765
 20
8.391220103445448
 30
0.0
 10
37.18408032615509
 20
8.428962191120689
 30
0.0
 10
37.21821613135388
 20
8.482117216302071
 30
0.0
 10
37.22913626276696
 20
8.504713421942597
 30
0.0
 11
37.0979106690078
 21
8.375440953299857
 31
0.0
 11
37.18776098087423
 21
8.441811710827266
 31
0.0
 11
37.22913626276696
 21
8.504713421942597
 31
0.0
  0
SPLINE
  5
BD
330
2
100
AcDbEntity
  8
GAIKEI
  6
Continuous
 62
     1
100
AcDbSpline
210
0.0
220
0.0
230
1.0
 70
     8
 71
     3
 72
     9
 73
     5
 74
     3
 42
0.0000000001
 43
0.0000000001
 44
0.000001
 12
0.4340195517902083
 22
0.900903451355264
 32
0.0
 13
-0.0007614355580964
 23
0.9999997101079035
 33
0.0
 40
0.0
 40
0.0
 40
0.0
 40
0.0
 40
0.0541594003094261
 40
0.1236629806979319
 40
0.1236629806979319
 40
0.1236629806979319
 40
0.1236629806979319
 10
37.22913626276696
 20
8.504713421942597
 30
0.0
 10
37.23697167564947
 20
8.520977552163287
 30
0.0
 10
37.24917480301764
 20
8.560569110473949
 30
0.0
 10
37.25674179586884
 20
8.601540692869036
 30
0.0
 10
37.25672415503633
 20
8.624708546282363
 30
0.0
 11
37.22913626276696
 21
8.504713421942597
 31
0.0
 11
37.24677040568812
 21
8.555921488954936
 31
0.0
 11
37.25672415503633
 21
8.624708546282363
 31
0.0
  0
SPLINE
  5
BE
330
2
100
AcDbEntity
  8
GAIKEI
  6
Continuous
 62
     1
100
AcDbSpline
210
0.0
220
0.0
230
1.0
 70
     8
 71
     3
 72
    11
 73
     7
 74
     5
 42
0.0000000001
 43
0.0000000001
 44
0.000001
 12
0.9063167999938059
 22
0.4225989328535836
 32
0.0
 13
-0.0483793023056808
 23
0.9988290359758348
 33
0.0
 40
0.0
 40
0.0
 40
0.0
 40
0.0
 40
0.1438909576343756
 40
0.3064814847693528
 40
0.397359929046656
 40
0.4865910886473047
 40
0.4865910886473047
 40
0.4865910886473047
 40
0.4865910886473047
 10
36.68964648451711
 20
8.185072289609252
 30
0.0
 10
36.73311674860753
 20
8.205341677990446
 30
0.0
 10
36.81996630132744
 20
8.262693458830511
 30
0.0
 10
36.89900816402468
 20
8.374137597172421
 30
0.0
 10
36.93109597526191
 20
8.484659720226403
 30
0.0
 10
36.93522610448416
 20
8.545133929612916
 30
0.0
 10
36.93378712406903
 20
8.574842820653884
 30
0.0
 11
36.68964648451711
 21
8.185072289609252
 31
0.0
 11
36.80896229654255
 21
8.265498585034322
 31
0.0
 11
36.90229298156683
 21
8.398634314057289
 31
0.0
 11
36.92800898204794
 21
8.485798331358637
 31
0.0
 11
36.93378712406903
 21
8.574842820653884
 31
0.0
  0
SPLINE
  5
BF
330
2
100
AcDbEntity
  8
GAIKEI
  6
Continuous
 62
     1
100
AcDbSpline
210
0.0
220
0.0
230
1.0
 70
     8
 71
     3
 72
    11
 73
     7
 74
     5
 42
0.0000000001
 43
0.0000000001
 44
0.000001
 12
-1.0
 22
0.0000000000000001
 32
0.0
 13
-0.9029836121814568
 23
-0.4296749889529624
 33
0.0
 40
0.0
 40
0.0
 40
0.0
 40
0.0
 40
0.0166322880969345
 40
0.0411462676209897
 40
0.0587158155562252
 40
0.0664051299443441
 40
0.0664051299443441
 40
0.0664051299443441
 40
0.0664051299443441
 10
37.15412405126463
 20
8.410536170235445
 30
0.0
 10
37.14857995523232
 20
8.410536170235445
 30
0.0
 10
37.13924799830113
 20
8.396988728086455
 30
0.0
 10
37.12235637013788
 20
8.388435902780486
 30
0.0
 10
37.10786904353556
 20
8.380053865484285
 30
0.0
 10
37.10022511063492
 20
8.376542255324778
 30
0.0
 10
37.0979106690078
 20
8.375440953299857
 30
0.0
 11
37.15412405126463
 21
8.410536170235445
 31
0.0
 11
37.14062653819113
 21
8.400817110784885
 31
0.0
 11
37.12031057268669
 21
8.387098668838461
 31
0.0
 11
37.10485234908802
 21
8.378748103866939
 31
0.0
 11
37.0979106690078
 21
8.375440953299857
 31
0.0
  0
SPLINE
  5
C0
330
2
100
AcDbEntity
  8
GAIKEI
  6
Continuous
 62
     1
100
AcDbSpline
210
0.0
220
0.0
230
1.0
 70
     8
 71
     3
 72
     9
 73
     5
 74
     3
 42
0.0000000001
 43
0.0000000001
 44
0.000001
 12
0.2300685421109333
 22
-0.9731744272898612
 32
0.0
 13
-0.7756951449428287
 23
-0.6311077896145191
 33
0.0
 40
0.0
 40
0.0
 40
0.0
 40
0.0
 40
0.0040610244780684
 40
0.0135011642753724
 40
0.0135011642753724
 40
0.0135011642753724
 40
0.0135011642753724
 10
37.16431692296592
 20
8.419386268419202
 30
0.0
 10
37.16462836095964
 20
8.418068906695651
 30
0.0
 10
37.15851393335983
 20
8.41586073691127
 30
0.0
 10
37.15656494146741
 20
8.412522085489143
 30
0.0
 10
37.15412405126463
 20
8.410536170235445
 30
0.0
 11
37.16431692296592
 21
8.419386268419202
 31
0.0
 11
37.16132594487627
 21
8.416638518352954
 31
0.0
 11
37.15412405126463
 21
8.410536170235445
 31
0.0
  0
SPLINE
  5
C1
330
2
100
AcDbEntity
  8
GAIKEI
  6
Continuous
 62
     1
100
AcDbSpline
210
0.0
220
0.0
230
1.0
 70
     8
 71
     3
 72
     9
 73
     5
 74
     3
 42
0.0000000001
 43
0.0000000001
 44
0.000001
 12
0.7514248269581099
 22
0.6598187095187395
 32
0.0
 13
0.5774930851933911
 23
0.8163955760253843
 33
0.0
 40
0.0
 40
0.0
 40
0.0
 40
0.0
 40
0.033307543357449
 40
0.0644839933969306
 40
0.0644839933969306
 40
0.0644839933969306
 40
0.0644839933969306
 10
37.16187551657041
 20
8.417189002663235
 30
0.0
 10
37.17021822157166
 20
8.424514649421695
 30
0.0
 10
37.18575130067491
 20
8.439441067583629
 30
0.0
 10
37.19933115563775
 20
8.456190251759949
 30
0.0
 10
37.20533255041065
 20
8.464674357056082
 30
0.0
 11
37.16187551657041
 21
8.417189002663235
 31
0.0
 11
37.18574396143746
 21
8.440419769062771
 31
0.0
 11
37.20533255041065
 21
8.464674357056082
 31
0.0
  0
SPLINE
  5
C2
330
2
100
AcDbEntity
  8
GAIKEI
  6
Continuous
 62
     1
100
AcDbSpline
210
0.0
220
0.0
230
1.0
 70
     8
 71
     3
 72
     9
 73
     5
 74
     3
 42
0.0000000001
 43
0.0000000001
 44
0.000001
 12
0.6530725087615257
 22
0.757295383783585
 32
0.0
 13
0.3984111868807301
 23
0.9172069156784024
 33
0.0
 40
0.0
 40
0.0
 40
0.0
 40
0.0
 40
0.002412877732886
 40
0.0048209191597743
 40
0.0048209191597743
 40
0.0048209191597743
 40
0.0048209191597743
 10
37.21235159379777
 20
8.474928263917263
 30
0.0
 10
37.21287685516922
 20
8.475537350973525
 30
0.0
 10
37.21385919363799
 20
8.476813724842742
 30
0.0
 10
37.21465630879196
 20
8.478220360386529
 30
0.0
 10
37.21497610567295
 20
8.478956584469869
 30
0.0
 11
37.21235159379777
 21
8.474928263917263
 31
0.0
 11
37.2138127803311
 21
8.476847638018
 31
0.0
 11
37.21497610567295
 21
8.478956584469869
 31
0.0
  0
SPLINE
  5
C3
330
2
100
AcDbEntity
  8
GAIKEI
  6
Continuous
 62
     1
100
AcDbSpline
210
0.0
220
0.0
230
1.0
 70
     8
 71
     3
 72
     9
 73
     5
 74
     3
 42
0.0000000001
 43
0.0000000001
 44
0.000001
 12
0.4947875962022489
 22
0.8690139438722489
 32
0.0
 13
0.4344739558854116
 23
0.9006843962550265
 33
0.0
 40
0.0
 40
0.0
 40
0.0
 40
0.0
 40
0.004846964501083
 40
0.009692359043344
 40
0.009692359043344
 40
0.009692359043344
 40
0.009692359043344
 10
37.22443655545558
 20
8.495497112799512
 30
0.0
 10
37.22523596142703
 20
8.496901139378479
 30
0.0
 10
37.22676232378426
 20
8.499750015550375
 30
0.0
 10
37.2281903895492
 20
8.502648346591087
 30
0.0
 10
37.22889212212741
 20
8.504103070343717
 30
0.0
 11
37.22443655545558
 21
8.495497112799512
 31
0.0
 11
37.2267381463428
 21
8.499763301533789
 31
0.0
 11
37.22889212212741
 21
8.504103070343717
 31
0.0
  0
SPLINE
  5
C4
330
2
100
AcDbEntity
  8
GAIKEI
  6
Continuous
 62
     1
100
AcDbSpline
210
0.0
220
0.0
230
1.0
 70
     8
 71
     3
 72
     9
 73
     5
 74
     3
 42
0.0000000001
 43
0.0000000001
 44
0.000001
 12
-0.6697753278810991
 22
-0.7425638088149505
 32
0.0
 13
0.1620782925170355
 23
-0.9867779016043895
 33
0.0
 40
0.0
 40
0.0
 40
0.0
 40
0.0
 40
0.0002864023018158
 40
0.0003617234365454
 40
0.0003617234365454
 40
0.0003617234365454
 40
0.0003617234365454
 10
37.18805960016235
 20
8.443128945615626
 30
0.0
 10
37.18799565843048
 20
8.443058054954263
 30
0.0
 10
37.18791112442082
 20
8.442970286136386
 30
0.0
 10
37.18787242537572
 20
8.44284854489328
 30
0.0
 10
37.18787649468268
 20
8.442823769816186
 30
0.0
 11
37.18805960016235
 21
8.443128945615626
 31
0.0
 11
37.18789150609237
 21
8.44289798573925
 31
0.0
 11
37.18787649468268
 21
8.442823769816186
 31
0.0
  0
SPLINE
  5
C5
330
2
100
AcDbEntity
  8
GAIKEI
  6
Continuous
 62
     1
100
AcDbSpline
210
0.0
220
0.0
230
1.0
 70
     8
 71
     3
 72
     9
 73
     5
 74
     3
 42
0.0000000001
 43
0.0000000001
 44
0.000001
 12
-0.5741370598084015
 22
-0.8187592054777548
 32
0.0
 13
-0.4232439726305973
 23
-0.9060157502118109
 33
0.0
 40
0.0
 40
0.0
 40
0.0
 40
0.0
 40
0.0001442083318744
 40
0.0007375073091639
 40
0.0007375073091639
 40
0.0007375073091639
 40
0.0007375073091639
 10
37.23102835272348
 20
8.508680707335315
 30
0.0
 10
37.23100075427427
 20
8.50864135003556
 30
0.0
 10
37.23091668788733
 20
8.508406815451394
 30
0.0
 10
37.23080688032941
 20
8.508188499982537
 30
0.0
 10
37.23072317692404
 20
8.508009320576547
 30
0.0
 11
37.23102835272348
 21
8.508680707335315
 31
0.0
 11
37.23096775921428
 21
8.508549748923485
 31
0.0
 11
37.23072317692404
 21
8.508009320576547
 31
0.0
  0
SPLINE
  5
C6
330
2
100
AcDbEntity
  8
GAIKEI
  6
Continuous
 62
     1
100
AcDbSpline
210
0.0
220
0.0
230
1.0
 70
     8
 71
     3
 72
     9
 73
     5
 74
     3
 42
0.0000000001
 43
0.0000000001
 44
0.000001
 12
0.4439066962705617
 22
0.8960730132116218
 32
0.0
 13
-0.452129027956589
 23
-0.8919525447460923
 33
0.0
 40
0.0
 40
0.0
 40
0.0
 40
0.0
 40
0.000438441535726
 40
0.0038762570634218
 40
0.0038762570634218
 40
0.0038762570634218
 40
0.0038762570634218
 10
37.22858694632797
 20
8.503553753904725
 30
0.0
 10
37.22865182203918
 20
8.503684712447409
 30
0.0
 10
37.22749586611671
 20
8.501211403799771
 30
0.0
 10
37.22739607391537
 20
8.501096872560538
 30
0.0
 10
37.2268779618511
 20
8.50007474979111
 30
0.0
 11
37.22858694632797
 21
8.503553753904725
 31
0.0
 11
37.22840340673557
 21
8.503154477033888
 31
0.0
 11
37.2268779618511
 21
8.50007474979111
 31
0.0
  0
SPLINE
  5
C7
330
2
100
AcDbEntity
  8
GAIKEI
  6
Continuous
 62
     1
100
AcDbSpline
210
0.0
220
0.0
230
1.0
 70
     8
 71
     3
 72
     9
 73
     5
 74
     3
 42
0.0000000001
 43
0.0000000001
 44
0.000001
 12
0.4618342237308737
 22
0.8869662619236999
 32
0.0
 13
0.4618342237308735
 23
0.8869662619236999
 33
0.0
 40
0.0
 40
0.0
 40
0.0
 40
0.0
 40
0.0013375615421767
 40
0.0026751230843535
 40
0.0026751230843535
 40
0.0026751230843535
 40
0.0026751230843535
 10
37.22449759061547
 20
8.495497112799512
 30
0.0
 10
37.22470350118098
 20
8.495892570119906
 30
0.0
 10
37.22510794221434
 20
8.496687298417299
 30
0.0
 10
37.22551238324772
 20
8.497482026714749
 30
0.0
 10
37.22571829381323
 20
8.497877484035143
 30
0.0
 11
37.22449759061547
 21
8.495497112799512
 31
0.0
 11
37.22510794221435
 21
8.496687298417327
 31
0.0
 11
37.22571829381323
 21
8.497877484035143
 31
0.0
  0
SPLINE
  5
C8
330
2
100
AcDbEntity
  8
GAIKEI
  6
Continuous
 62
     1
100
AcDbSpline
210
0.0
220
0.0
230
1.0
 70
     8
 71
     3
 72
    11
 73
     7
 74
     5
 42
0.0000000001
 43
0.0000000001
 44
0.000001
 12
-0.0015438828007261
 22
-0.9999988082122385
 32
0.0
 13
-0.441579470532206
 23
-0.8972221415037061
 33
0.0
 40
0.0
 40
0.0
 40
0.0
 40
0.0
 40
0.0182162166839685
 40
0.0591903801206935
 40
0.1030924941737376
 40
0.1266148240201264
 40
0.1266148240201264
 40
0.1266148240201264
 40
0.1266148240201264
 10
37.25672415503633
 20
8.624708546282363
 30
0.0
 10
37.25671478046844
 20
8.618636481290991
 30
0.0
 10
37.25718893214632
 20
8.598854629901467
 30
0.0
 10
37.25040525880086
 20
8.564994408037478
 30
0.0
 10
37.24205387657136
 20
8.52959417630447
 30
0.0
 10
37.23156099103528
 20
8.509612109732501
 30
0.0
 10
37.22809866504886
 20
8.502577191346517
 30
0.0
 11
37.25672415503633
 21
8.624708546282363
 31
0.0
 11
37.25659382194582
 21
8.606492762256266
 31
0.0
 11
37.25037649840797
 21
8.565992722470127
 31
0.0
 11
37.23823834883134
 21
8.523801905063805
 31
0.0
 11
37.22809866504886
 21
8.502577191346517
 31
0.0
  0
SPLINE
  5
C9
330
2
100
AcDbEntity
  8
GAIKEI
  6
Continuous
 62
     1
100
AcDbSpline
210
0.0
220
0.0
230
1.0
 70
     8
 71
     3
 72
     9
 73
     5
 74
     3
 42
0.0000000001
 43
0.0000000001
 44
0.000001
 12
0.4369039627369132
 22
0.8995081585759978
 32
0.0
 13
-0.2131732998587373
 23
-0.9770144032855078
 33
0.0
 40
0.0
 40
0.0
 40
0.0
 40
0.0
 40
0.0014852975999962
 40
0.0023748874171315
 40
0.0023748874171315
 40
0.0023748874171315
 40
0.0023748874171315
 10
37.22809866504886
 20
8.502577191346517
 30
0.0
 10
37.22831497585129
 20
8.503022537116208
 30
0.0
 10
37.22849968811124
 20
8.503270191970187
 30
0.0
 10
37.22919947503257
 20
8.505003135964045
 30
0.0
 10
37.22913626276696
 20
8.504713421942597
 30
0.0
 11
37.22809866504886
 21
8.502577191346517
 31
0.0
 11
37.22874716362267
 21
8.503912335469067
 31
0.0
 11
37.22913626276696
 21
8.504713421942597
 31
0.0
  0
SPLINE
  5
CA
330
2
100
AcDbEntity
  8
GAIKEI
  6
Continuous
 62
     1
100
AcDbSpline
210
0.0
220
0.0
230
1.0
 70
     8
 71
     3
 72
     9
 73
     5
 74
     3
 42
0.0000000001
 43
0.0000000001
 44
0.000001
 12
-0.9985505398405585
 22
-0.0538221086927053
 32
0.0
 13
0.0009939570685328
 23
0.999999506024551
 33
0.0
 40
0.0
 40
0.0
 40
0.0
 40
0.0
 40
0.0316465249667483
 40
0.0434022489457609
 40
0.0434022489457609
 40
0.0434022489457609
 40
0.0434022489457609
 10
37.02503468810156
 20
8.261427274629113
 30
0.0
 10
37.01450113657168
 20
8.260859513726956
 30
0.0
 10
37.0052507664344
 20
8.264090216948488
 30
0.0
 10
36.9816958296861
 20
8.257508701905123
 30
0.0
 10
36.98169972458109
 20
8.261427274629113
 30
0.0
 11
37.02503468810156
 21
8.261427274629113
 31
0.0
 11
36.99340712459676
 21
8.260354776643168
 31
0.0
 11
36.98169972458109
 21
8.261427274629113
 31
0.0
  0
SPLINE
  5
CB
330
2
100
AcDbEntity
  8
GAIKEI
  6
Continuous
 62
     1
100
AcDbSpline
210
0.0
220
0.0
230
1.0
 70
     8
 71
     3
 72
    13
 73
     9
 74
     7
 42
0.0000000001
 43
0.0000000001
 44
0.000001
 12
0.3596970176533543
 22
-0.933069159007671
 32
0.0
 13
0.8303267561068238
 23
-0.5572768415187546
 33
0.0
 40
0.0
 40
0.0
 40
0.0
 40
0.0
 40
0.044500980504356
 40
0.0892131878572739
 40
0.2326619285704078
 40
0.3562789295719961
 40
0.4044119270492259
 40
0.4898258576176091
 40
0.4898258576176091
 40
0.4898258576176091
 40
0.4898258576176091
 10
35.77685287124663
 20
32.23496578538675
 30
0.0
 10
35.78218849456999
 20
32.22112495456867
 30
0.0
 10
35.79315058383944
 20
32.19348534832196
 30
0.0
 10
35.82327629829041
 20
32.1219640064113
 30
0.0
 10
35.86917534823809
 20
32.02918228135195
 30
0.0
 10
35.93091895018894
 20
31.94089175666676
 30
0.0
 10
36.00241834024422
 20
31.89286895200254
 30
0.0
 10
36.03929697215562
 20
31.86811539506792
 30
0.0
 10
36.06293746278735
 20
31.85224899325163
 30
0.0
 11
35.77685287124663
 21
32.23496578538675
 31
0.0
 11
35.79327039093832
 21
32.19360389115588
 31
0.0
 11
35.81067914697033
 21
32.15241990958072
 31
0.0
 11
35.8758442065047
 21
32.02462671736384
 31
0.0
 11
35.9530131398291
 21
31.92805466183251
 31
0.0
 11
35.99201975857236
 21
31.89985409610489
 31
0.0
 11
36.06293746278735
 21
31.85224899325163
 31
0.0
  0
SPLINE
  5
CC
330
2
100
AcDbEntity
  8
GAIKEI
  6
Continuous
 62
     1
100
AcDbSpline
210
0.0
220
0.0
230
1.0
 70
     8
 71
     3
 72
    11
 73
     7
 74
     5
 42
0.0000000001
 43
0.0000000001
 44
0.000001
 12
-0.8942966538041694
 22
0.447474574690748
 32
0.0
 13
0.0000341928975867
 23
0.9999999994154229
 33
0.0
 40
0.0
 40
0.0
 40
0.0
 40
0.0
 40
0.1288141245564109
 40
0.2573806169544358
 40
0.3879065356551971
 40
0.519711554130656
 40
0.519711554130656
 40
0.519711554130656
 40
0.519711554130656
 10
35.93030806035077
 20
27.50178486675628
 30
0.0
 10
35.8919087134996
 20
27.52099854862297
 30
0.0
 10
35.82128876797603
 20
27.57286437616702
 30
0.0
 10
35.74434348455003
 20
27.67884350278186
 30
0.0
 10
35.69744562273705
 20
27.80181806568902
 30
0.0
 10
35.68671523497268
 20
27.88961258167103
 30
0.0
 10
35.68671673723784
 20
27.93354758780385
 30
0.0
 11
35.93030806035077
 21
27.50178486675628
 31
0.0
 11
35.82612079428455
 21
27.57753673469148
 31
0.0
 11
35.74973211644024
 21
27.68094916786345
 31
0.0
 11
35.70273357977297
 21
27.80272013074375
 31
0.0
 11
35.68671673723784
 21
27.93354758780385
 31
0.0
  0
SPLINE
  5
CD
330
2
100
AcDbEntity
  8
GAIKEI
  6
Continuous
 62
     1
100
AcDbSpline
210
0.0
220
0.0
230
1.0
 70
     8
 71
     3
 72
    11
 73
     7
 74
     5
 42
0.0000000001
 43
0.0000000001
 44
0.000001
 12
-0.0003823422944843
 22
-0.9999999269071825
 32
0.0
 13
0.8804453328006502
 23
-0.4741476731457747
 33
0.0
 40
0.0
 40
0.0
 40
0.0
 40
0.0
 40
0.1206607758104574
 40
0.2428295030391305
 40
0.3661144945035459
 40
0.4900228211764584
 40
0.4900228211764584
 40
0.4900228211764584
 40
0.4900228211764584
 10
35.68671673723784
 20
28.07502708842418
 30
0.0
 10
35.68670135933189
 20
28.03480683276049
 30
0.0
 10
35.69903451217246
 20
27.95349257852172
 30
0.0
 10
35.74928152485893
 20
27.84087008761659
 30
0.0
 10
35.82670099631642
 20
27.74350510942677
 30
0.0
 10
35.89394322437933
 20
27.69379280836495
 30
0.0
 10
35.93030806035077
 20
27.67420919343982
 30
0.0
 11
35.68671673723784
 21
28.07502708842418
 31
0.0
 11
35.70414162484335
 21
27.95563012001344
 31
0.0
 11
35.75352851265049
 21
27.8438887484196
 31
0.0
 11
35.83040734352952
 21
27.74751207308197
 31
0.0
 11
35.93030806035077
 21
27.67420919343982
 31
0.0
  0
SPLINE
  5
CE
330
2
100
AcDbEntity
  8
GAIKEI
  6
Continuous
 62
     1
100
AcDbSpline
210
0.0
220
0.0
230
1.0
 70
     8
 71
     3
 72
    13
 73
     9
 74
     7
 42
0.0000000001
 43
0.0000000001
 44
0.000001
 12
-0.1863999512363903
 22
0.9824739478373313
 32
0.0
 13
0.4459120888327767
 23
0.8950767615309816
 33
0.0
 40
0.0
 40
0.0
 40
0.0
 40
0.0
 40
0.0301827171174584
 40
0.0732653686858023
 40
0.1318623522491786
 40
0.2017746703932754
 40
0.2956142245785295
 40
0.4260883385556883
 40
0.4260883385556883
 40
0.4260883385556883
 40
0.4260883385556883
 10
35.93030806035077
 20
27.67420919343982
 30
0.0
 10
35.92843270801781
 20
27.68409377118743
 30
0.0
 10
35.92871151066632
 20
27.70886271218009
 30
0.0
 10
35.93641863523445
 20
27.7521142382646
 30
0.0
 10
35.94973241669574
 20
27.80780987116808
 30
0.0
 10
35.97293345025325
 20
27.87828972851821
 30
0.0
 10
36.0110705389683
 20
27.96872881534387
 30
0.0
 10
36.04354413455329
 20
28.03609897262342
 30
0.0
 10
36.06293746278735
 20
28.07502708842418
 30
0.0
 11
35.93030806035077
 21
27.67420919343982
 31
0.0
 11
35.9293428413022
 21
27.70437664450367
 31
0.0
 11
35.93586225990057
 21
27.74696310402629
 31
0.0
 11
35.94957032454116
 21
27.80393410517138
 31
0.0
 11
35.9711921123741
 21
27.87041892545358
 31
0.0
 11
36.00691777469192
 21
27.95719183112158
 31
0.0
 11
36.06293746278735
 21
28.07502708842418
 31
0.0
  0
SPLINE
  5
CF
330
2
100
AcDbEntity
  8
GAIKEI
  6
Continuous
100
AcDbSpline
210
0.0
220
0.0
230
1.0
 70
     8
 71
     3
 72
     9
 73
     5
 74
     3
 42
0.0000000001
 43
0.0000000001
 44
0.000001
 12
-0.228940221854976
 22
0.9734404834487799
 32
0.0
 13
-0.9781629580561469
 23
0.2078394271711907
 33
0.0
 40
0.0
 40
0.0
 40
0.0
 40
0.0
 40
0.0768003403862988
 40
0.1232767023991438
 40
0.1232767023991438
 40
0.1232767023991438
 40
0.1232767023991438
 10
36.12641518106605
 20
32.75383021748638
 30
0.0
 10
36.12055428541052
 20
32.77875040431127
 30
0.0
 10
36.10994383146703
 20
32.81831005429785
 30
0.0
 10
36.07809128136941
 20
32.85159265608567
 30
0.0
 10
36.06293746278735
 20
32.85481252957158
 30
0.0
 11
36.12641518106605
 21
32.75383021748638
 31
0.0
 11
36.09908957995467
 21
32.82560383734256
 31
0.0
 11
36.06293746278735
 21
32.85481252957158
 31
0.0
  0
SPLINE
  5
D0
330
2
100
AcDbEntity
  8
GAIKEI
  6
Continuous
100
AcDbSpline
210
0.0
220
0.0
230
1.0
 70
     8
 71
     3
 72
     9
 73
     5
 74
     3
 42
0.0000000001
 43
0.0000000001
 44
0.000001
 12
0.0079263994431562
 22
0.9999685856025015
 32
0.0
 13
-0.9712813647251412
 23
0.2379338364707028
 33
0.0
 40
0.0
 40
0.0
 40
0.0
 40
0.0
 40
0.0716707874566357
 40
0.0906323653615332
 40
0.0906323653615332
 40
0.0906323653615332
 40
0.0906323653615332
 10
36.69825877165962
 20
32.63129230521633
 30
0.0
 10
36.69844813542289
 20
32.65518181720367
 30
0.0
 10
36.69048338714278
 20
32.67704868362589
 30
0.0
 10
36.69682309132348
 20
32.7198858030643
 30
0.0
 10
36.69068408223521
 20
32.72138967005645
 30
0.0
 11
36.69825877165962
 21
32.63129230521633
 31
0.0
 11
36.69479580129516
 21
32.70287869385908
 31
0.0
 11
36.69068408223521
 21
32.72138967005645
 31
0.0
  0
SPLINE
  5
D1
330
2
100
AcDbEntity
  8
GAIKEI
  6
Continuous
100
AcDbSpline
210
0.0
220
0.0
230
1.0
 70
     8
 71
     3
 72
     9
 73
     5
 74
     3
 42
0.0000000001
 43
0.0000000001
 44
0.000001
 12
0.9476067522711588
 22
-0.3194392634760274
 32
0.0
 13
0.9781595216317647
 23
-0.207855599494258
 33
0.0
 40
0.0
 40
0.0
 40
0.0
 40
0.0
 40
0.0000303572917032
 40
0.0000610584876067
 40
0.0000610584876067
 40
0.0000610584876067
 40
0.0000610584876067
 10
35.2675882942871
 20
33.02387992246128
 30
0.0
 10
35.26759788321196
 20
33.02387669002431
 30
0.0
 10
35.26761891187313
 20
33.02387881765588
 30
0.0
 10
35.26763931922462
 20
33.02388204959977
 30
0.0
 10
35.26764932944698
 20
33.02387992246128
 30
0.0
 11
35.2675882942871
 21
33.02387992246128
 31
0.0
 11
35.26761887202329
 21
33.02387895730272
 31
0.0
 11
35.26764932944698
 21
33.02387992246128
 31
0.0
  0
SPLINE
  5
D2
330
2
100
AcDbEntity
  8
GAIKEI
  6
Continuous
 62
     1
100
AcDbSpline
210
0.0
220
0.0
230
1.0
 70
     8
 71
     3
 72
     9
 73
     5
 74
     3
 42
0.0000000001
 43
0.0000000001
 44
0.000001
 12
-0.3081913340163683
 22
-0.9513243934837429
 32
0.0
 13
-0.9999695877579064
 23
0.0077989460366634
 33
0.0
 40
0.0
 40
0.0
 40
0.0
 40
0.0
 40
0.0551239720166244
 40
0.0898779466552147
 40
0.0898779466552147
 40
0.0898779466552147
 40
0.0898779466552147
 10
36.94227101129346
 20
11.92658862590224
 30
0.0
 10
36.9366081011361
 20
11.90910836615387
 30
0.0
 10
36.91082503829581
 20
11.88820852773222
 30
0.0
 10
36.88238314496206
 20
11.87651048182974
 30
0.0
 10
36.87079883906463
 20
11.87660082995398
 30
0.0
 11
36.94227101129346
 21
11.92658862590224
 31
0.0
 11
36.90398082315736
 21
11.88693395635499
 31
0.0
 11
36.87079883906463
 21
11.87660082995398
 31
0.0
  0
SPLINE
  5
D3
330
2
100
AcDbEntity
  8
GAIKEI
  6
Continuous
 62
     1
100
AcDbSpline
210
0.0
220
0.0
230
1.0
 70
     8
 71
     3
 72
     9
 73
     5
 74
     3
 42
0.0000000001
 43
0.0000000001
 44
0.000001
 12
-0.0000357254400997
 22
-0.9999999993618464
 32
0.0
 13
-0.9530480675327188
 23
-0.302819056487782
 33
0.0
 40
0.0
 40
0.0
 40
0.0
 40
0.0
 40
0.0302406313354671
 40
0.0617993382075394
 40
0.0617993382075394
 40
0.0617993382075394
 40
0.0617993382075394
 10
36.98786427572978
 20
11.92658862590224
 30
0.0
 10
36.98786391560982
 20
11.91650841546351
 30
0.0
 10
36.98082533486235
 20
11.89566178201372
 30
0.0
 10
36.96322195977949
 20
11.88210569197605
 30
0.0
 10
36.9531963049134
 20
11.87892016602973
 30
0.0
 11
36.98786427572978
 21
11.92658862590224
 31
0.0
 11
36.97844664205567
 21
11.89785173482704
 31
0.0
 11
36.9531963049134
 21
11.87892016602973
 31
0.0
  0
SPLINE
  5
D4
330
2
100
AcDbEntity
  8
GAIKEI
  6
Continuous
 62
     1
100
AcDbSpline
210
0.0
220
0.0
230
1.0
 70
     8
 71
     3
 72
     9
 73
     5
 74
     3
 42
0.0000000001
 43
0.0000000001
 44
0.000001
 12
-0.9999999845428636
 22
0.0001758245511382
 32
0.0
 13
-0.9999999621242039
 23
0.0002752300687916
 33
0.0
 40
0.0
 40
0.0
 40
0.0
 40
0.0
 40
0.0112193708005764
 40
0.0274453357059688
 40
0.0274453357059688
 40
0.0274453357059688
 40
0.0274453357059688
 10
36.90583302084033
 20
11.87892016602973
 30
0.0
 10
36.90209323063128
 20
11.87892082357666
 30
0.0
 10
36.89303396472983
 20
11.87732313450243
 30
0.0
 10
36.88389792397413
 20
11.87659934132949
 30
0.0
 10
36.87848926921052
 20
11.87660082995398
 30
0.0
 11
36.90583302084033
 21
11.87892016602973
 31
0.0
 11
36.89467380481992
 21
11.87775962445641
 31
0.0
 11
36.87848926921052
 21
11.87660082995398
 31
0.0
  0
SPLINE
  5
D5
330
2
100
AcDbEntity
  8
GAIKEI
  6
Continuous
 62
     1
100
AcDbSpline
210
0.0
220
0.0
230
1.0
 70
     8
 71
     3
 72
    37
 73
    33
 74
    31
 42
0.0000000001
 43
0.0000000001
 44
0.000001
 12
0.9538209886631284
 22
-0.3003756341411404
 32
0.0
 13
-0.87625813006946
 23
-0.481841975638459
 33
0.0
 40
0.0
 40
0.0
 40
0.0
 40
0.0
 40
0.0216847417595601
 40
0.0388601863365841
 40
0.052920585115209
 40
0.0673680891045942
 40
0.0825131310597183
 40
0.0985990564044011
 40
0.1158114287099917
 40
0.134291814116293
 40
0.1541514322147147
 40
0.1754826448097951
 40
0.2115264968286237
 40
0.2507598691006398
 40
0.292455470510594
 40
0.3358798785307031
 40
0.3802966439638089
 40
0.424968298265674
 40
0.469157965993548
 40
0.5121310313402306
 40
0.5523087768958268
 40
0.5899220125419911
 40
0.624498214528995
 40
0.6555773488686354
 40
0.6739456141075088
 40
0.6910173742574618
 40
0.7070179464688655
 40
0.7222813582623205
 40
0.7373348788947593
 40
0.7529450153044153
 40
0.7700730053481279
 40
0.7897534112038584
 40
0.7897534112038584
 40
0.7897534112038584
 40
0.7897534112038584
 10
36.95551564098915
 20
12.62379325730262
 30
0.0
 10
36.96241009493049
 20
12.62162206795023
 30
0.0
 10
36.97424833520944
 20
12.61546203971724
 30
0.0
 10
36.98627313243165
 20
12.6023032373792
 30
0.0
 10
36.99443331925285
 20
12.58940795530714
 30
0.0
 10
37.00078594810522
 20
12.57628414159671
 30
0.0
 10
37.00598868400114
 20
12.56195203659089
 30
0.0
 10
37.01028455711213
 20
12.54637325284884
 30
0.0
 10
37.01386936649155
 20
12.52948265038958
 30
0.0
 10
37.01695076357267
 20
12.51121972276661
 30
0.0
 10
37.01970765028733
 20
12.49152009144035
 30
0.0
 10
37.02296307507737
 20
12.46598146018218
 30
0.0
 10
37.02637717643054
 20
12.43395539057644
 30
0.0
 10
37.02936245679698
 20
12.39507438513993
 30
0.0
 10
37.0316388101115
 20
12.35368312013523
 30
0.0
 10
37.03314230928056
 20
12.31052761917445
 30
0.0
 10
37.03386202134379
 20
12.26636009437456
 30
0.0
 10
37.03377150302623
 20
12.22193168206581
 30
0.0
 10
37.03285879135381
 20
12.17799343886736
 30
0.0
 10
37.03109083164745
 20
12.13558034565636
 30
0.0
 10
37.02856067401965
 20
12.09540167929387
 30
0.0
 10
37.02534436043718
 20
12.05808187640045
 30
0.0
 10
37.02151070001276
 20
12.02386469679499
 30
0.0
 10
37.0171863401871
 20
11.99618642222617
 30
0.0
 10
37.01341377302266
 20
11.97433761212426
 30
0.0
 10
37.01042097070564
 20
11.95745201342976
 30
0.0
 10
37.00673475988133
 20
11.94175225492256
 30
0.0
 10
37.00171796953221
 20
11.92711001966739
 30
0.0
 10
36.99464465771581
 20
11.91345286136822
 30
0.0
 10
36.9848284203153
 20
11.90078697450391
 30
0.0
 10
36.97168896142073
 20
11.88913519576272
 30
0.0
 10
36.96126401286721
 20
11.88256939585514
 30
0.0
 10
36.95551564098915
 20
11.87940844730883
 30
0.0
 11
36.95551564098915
 21
12.62379325730262
 31
0.0
 11
36.9746849652781
 21
12.61365562223011
 31
0.0
 11
36.98652150221224
 21
12.60121024814407
 31
0.0
 11
36.99413409146919
 21
12.58938903542781
 31
0.0
 11
37.00046075520223
 21
12.57640050584149
 31
0.0
 11
37.00569563277409
 21
12.56218900710962
 31
0.0
 11
37.01003286354737
 21
12.54669888695662
 31
0.0
 11
37.01366658688463
 21
12.529874493107
 31
0.0
 11
37.0167909421485
 21
12.51166017328523
 31
0.0
 11
37.01960006870164
 21
12.4920002752159
 31
0.0
 11
37.0222881059066
 21
12.47083914662335
 31
0.0
 11
37.02609414660938
 21
12.43499687142224
 31
0.0
 11
37.02916147848251
 21
12.39588365686046
 31
0.0
 11
37.0314694136537
 21
12.35425205370666
 31
0.0
 11
37.03299726425067
 21
12.31085461272954
 31
0.0
 11
37.03372434240114
 21
12.26644388469771
 31
0.0
 11
37.03362996023285
 21
12.22177242037981
 31
0.0
 11
37.03269342987349
 21
12.17759277054449
 31
0.0
 11
37.0308940634508
 21
12.13465748596036
 31
0.0
 11
37.02834675534436
 21
12.09456066133259
 31
0.0
 11
37.02508988133289
 21
12.05708877993925
 31
0.0
 11
37.02111876515701
 21
12.02274145939191
 31
0.0
 11
37.01642873055735
 21
11.99201831730215
 31
0.0
 11
37.01332539353425
 21
11.97391415691601
 31
0.0
 11
37.01019842956069
 21
11.95713127370345
 31
0.0
 11
37.00641525223003
 21
11.94158444716868
 31
0.0
 11
37.00134327513572
 21
11.92718845681594
 31
0.0
 11
36.99434991187107
 21
11.91385808214937
 31
0.0
 11
36.98480257602952
 21
11.90150810267323
 31
0.0
 11
36.97206868120443
 21
11.89005329789165
 31
0.0
 11
36.95551564098915
 21
11.87940844730883
 31
0.0
  0
SPLINE
  5
D6
330
2
100
AcDbEntity
  8
GAIKEI
  6
Continuous
 62
     1
100
AcDbSpline
210
0.0
220
0.0
230
1.0
 70
     8
 71
     3
 72
     9
 73
     5
 74
     3
 42
0.0000000001
 43
0.0000000001
 44
0.000001
 12
-0.0000357256246498
 22
0.9999999993618398
 32
0.0
 13
-0.9530465585211443
 23
0.3028238056874048
 33
0.0
 40
0.0
 40
0.0
 40
0.0
 40
0.0
 40
0.0302405539324835
 40
0.0617993085690924
 40
0.0617993085690924
 40
0.0617993085690924
 40
0.0617993085690924
 10
36.98786427572978
 20
12.57661307870921
 30
0.0
 10
36.98786391560889
 20
12.58669326334694
 30
0.0
 10
36.98082528182633
 20
12.60753986850807
 30
0.0
 10
36.96322195907928
 20
12.62109595785446
 30
0.0
 10
36.9531963049134
 20
12.62428153858172
 30
0.0
 11
36.98786427572978
 21
12.57661307870921
 31
0.0
 11
36.97844664019309
 21
12.60534988782803
 31
0.0
 11
36.9531963049134
 21
12.62428153858172
 31
0.0
  0
SPLINE
  5
D7
330
2
100
AcDbEntity
  8
GAIKEI
  6
Continuous
 62
     1
100
AcDbSpline
210
0.0
220
0.0
230
1.0
 70
     8
 71
     3
 72
    11
 73
     7
 74
     5
 42
0.0000000001
 43
0.0000000001
 44
0.000001
 12
0.9999999669927422
 22
-0.000256932899469
 32
0.0
 13
-0.9999999802176745
 23
-0.0001989086489841
 33
0.0
 40
0.0
 40
0.0
 40
0.0
 40
0.0
 40
0.1068294229709744
 40
0.3305449959016532
 40
0.5542598125367685
 40
0.6610881456445065
 40
0.6610881456445065
 40
0.6610881456445065
 40
0.6610881456445065
 10
36.98786427572978
 20
12.57661307870921
 30
0.0
 10
37.02347408221138
 20
12.57660392937808
 30
0.0
 10
37.01571314563559
 20
12.40706817907096
 30
0.0
 10
37.04303285777151
 20
12.25159939445518
 30
0.0
 10
37.01571845345303
 20
12.09613284814435
 30
0.0
 10
37.02347371939459
 20
11.92659570892871
 30
0.0
 10
36.98786427572978
 20
11.92658862590224
 30
0.0
 11
36.98786427572978
 21
12.57661307870921
 31
0.0
 11
37.02096930486644
 21
12.47504202525448
 31
0.0
 11
37.03200589689576
 21
12.25159957238469
 31
0.0
 11
37.02097167834214
 21
12.02815775947539
 31
0.0
 11
36.98786427572978
 21
11.92658862590224
 31
0.0
  0
SPLINE
  5
D8
330
2
100
AcDbEntity
  8
GAIKEI
  6
Continuous
 62
     1
100
AcDbSpline
210
0.0
220
0.0
230
1.0
 70
     8
 71
     3
 72
     9
 73
     5
 74
     3
 42
0.0000000001
 43
0.0000000001
 44
0.000001
 12
0.9999952281185336
 22
0.0030892944440435
 32
0.0
 13
0.3094499789294173
 23
-0.9509157221019027
 33
0.0
 40
0.0
 40
0.0
 40
0.0
 40
0.0
 40
0.0469640404398859
 40
0.0913762738214094
 40
0.0913762738214094
 40
0.0913762738214094
 40
0.0913762738214094
 10
36.87079883906463
 20
12.62660087465747
 30
0.0
 10
36.88645344450899
 20
12.62664923657388
 30
0.0
 10
36.91737357196463
 20
12.61634294011495
 30
0.0
 10
36.93768988973209
 20
12.5906905090346
 30
0.0
 10
36.94227101129346
 20
12.57661307870921
 30
0.0
 11
36.87079883906463
 21
12.62660087465747
 31
0.0
 11
36.91543574691858
 21
12.61200228959183
 31
0.0
 11
36.94227101129346
 21
12.57661307870921
 31
0.0
  0
SPLINE
  5
D9
330
2
100
AcDbEntity
  8
GAIKEI
  6
Continuous
 62
     1
100
AcDbSpline
210
0.0
220
0.0
230
1.0
 70
     8
 71
     3
 72
     9
 73
     5
 74
     3
 42
0.0000000001
 43
0.0000000001
 44
0.000001
 12
0.9999999662987059
 22
0.0002596200816618
 32
0.0
 13
0.9999999772895147
 23
0.0002131219603387
 33
0.0
 40
0.0
 40
0.0
 40
0.0
 40
0.0
 40
0.0162231051320963
 40
0.0274453233096733
 40
0.0274453233096733
 40
0.0274453233096733
 40
0.0274453233096733
 10
36.87848926921052
 20
12.62660087465747
 30
0.0
 10
36.88389697073898
 20
12.62660227860542
 30
0.0
 10
36.89303293804407
 20
12.62587788398426
 30
0.0
 10
36.90209228153276
 20
12.624280741348
 30
0.0
 10
36.90583302084033
 20
12.62428153858172
 30
0.0
 11
36.87848926921052
 21
12.62660087465747
 31
0.0
 11
36.8946709278479
 21
12.62544194335731
 31
0.0
 11
36.90583302084033
 21
12.62428153858172
 31
0.0
  0
SPLINE
  5
DA
330
2
100
AcDbEntity
  8
GAIKEI
  6
Continuous
 62
     1
100
AcDbSpline
210
0.0
220
0.0
230
1.0
 70
     8
 71
     3
 72
     9
 73
     5
 74
     3
 42
0.0000000001
 43
0.0000000001
 44
0.000001
 12
0.9530395279038478
 22
-0.3028459315440954
 32
0.0
 13
0.0000357266035025
 23
-0.999999999361805
 33
0.0
 40
0.0
 40
0.0
 40
0.0
 40
0.0
 40
0.0315772684264451
 40
0.0618464943306392
 40
0.0618464943306392
 40
0.0618464943306392
 40
0.0618464943306392
 10
36.9531963049134
 20
26.03431651756961
 30
0.0
 10
36.96322776657794
 20
26.03112883514552
 30
0.0
 10
36.98082687159582
 20
26.01753469719375
 30
0.0
 10
36.98786391525756
 20
25.99667676449883
 30
0.0
 10
36.98786427572978
 20
25.98658702253721
 30
0.0
 11
36.9531963049134
 21
26.03431651756961
 31
0.0
 11
36.97844663646723
 21
26.01535395994307
 31
0.0
 11
36.98786427572978
 21
25.98658702253721
 31
0.0
  0
SPLINE
  5
DB
330
2
100
AcDbEntity
  8
GAIKEI
  6
Continuous
 62
     1
100
AcDbSpline
210
0.0
220
0.0
230
1.0
 70
     8
 71
     3
 72
     9
 73
     5
 74
     3
 42
0.0000000001
 43
0.0000000001
 44
0.000001
 12
0.9999976346126128
 22
0.0021750331443408
 32
0.0
 13
0.3094592465044053
 23
-0.9509127061686186
 33
0.0
 40
0.0
 40
0.0
 40
0.0
 40
0.0
 40
0.0469741725792427
 40
0.0914080190009261
 40
0.0914080190009261
 40
0.0914080190009261
 40
0.0914080190009261
 10
36.87079883906463
 20
26.03663585364535
 30
0.0
 10
36.88645685955368
 20
26.03666991043946
 30
0.0
 10
36.91737892313846
 20
26.02633964531688
 30
0.0
 10
36.93768752308248
 20
26.00067125891931
 30
0.0
 10
36.94227101129346
 20
25.98658702253721
 30
0.0
 11
36.87079883906463
 21
26.03663585364535
 31
0.0
 11
36.91543516391059
 21
26.02200290819525
 31
0.0
 11
36.94227101129346
 21
25.98658702253721
 31
0.0
  0
SPLINE
  5
DC
330
2
100
AcDbEntity
  8
GAIKEI
  6
Continuous
 62
     1
100
AcDbSpline
210
0.0
220
0.0
230
1.0
 70
     8
 71
     3
 72
     9
 73
     5
 74
     3
 42
0.0000000001
 43
0.0000000001
 44
0.000001
 12
0.999999983294575
 22
0.0001827863508696
 32
0.0
 13
0.9999999218844049
 23
0.0003952609063509
 33
0.0
 40
0.0
 40
0.0
 40
0.0
 40
0.0
 40
0.016223153094515
 40
0.027445302120249
 40
0.027445302120249
 40
0.027445302120249
 40
0.027445302120249
 10
36.87848926921052
 20
26.03663585364535
 30
0.0
 10
36.88389698681836
 20
26.03663684210232
 30
0.0
 10
36.89303283330294
 20
26.03591213046679
 30
0.0
 10
36.90209230479063
 20
26.03431503901067
 30
0.0
 10
36.90583302084033
 20
26.03431651756961
 30
0.0
 11
36.87848926921052
 21
26.03663585364535
 31
0.0
 11
36.8946709278479
 21
26.03547625527659
 31
0.0
 11
36.90583302084033
 21
26.03431651756961
 31
0.0
  0
SPLINE
  5
DD
330
2
100
AcDbEntity
  8
GAIKEI
  6
Continuous
 62
     1
100
AcDbSpline
210
0.0
220
0.0
230
1.0
 70
     8
 71
     3
 72
     9
 73
     5
 74
     3
 42
0.0000000001
 43
0.0000000001
 44
0.000001
 12
-0.3081820727638414
 22
-0.9513273937120608
 32
0.0
 13
-0.9999636457021694
 23
-0.0085268560458341
 33
0.0
 40
0.0
 40
0.0
 40
0.0
 40
0.0
 40
0.0551480243978061
 40
0.089896751130033
 40
0.089896751130033
 40
0.089896751130033
 40
0.089896751130033
 10
36.94227101129346
 20
25.33662360489012
 30
0.0
 10
36.93660580047087
 20
25.31913566278388
 30
0.0
 10
36.91080070316122
 20
25.29812388925106
 30
0.0
 10
36.88238132688686
 20
25.28667353957886
 30
0.0
 10
36.87079883906463
 20
25.28657477378198
 30
0.0
 11
36.94227101129346
 21
25.33662360489012
 31
0.0
 11
36.90396057061545
 21
25.29695497369613
 31
0.0
 11
36.87079883906463
 21
25.28657477378198
 31
0.0
  0
SPLINE
  5
DE
330
2
100
AcDbEntity
  8
GAIKEI
  6
Continuous
 62
     1
100
AcDbSpline
210
0.0
220
0.0
230
1.0
 70
     8
 71
     3
 72
     9
 73
     5
 74
     3
 42
0.0000000001
 43
0.0000000001
 44
0.000001
 12
-0.000035724576246
 22
-0.9999999993618773
 32
0.0
 13
-0.9530550976430763
 23
-0.3027969300645998
 33
0.0
 40
0.0
 40
0.0
 40
0.0
 40
0.0
 40
0.030270041882824
 40
0.0618468000996723
 40
0.0618468000996723
 40
0.0618468000996723
 40
0.0618468000996723
 10
36.98786427572978
 20
25.33662360489012
 30
0.0
 10
36.98786391526831
 20
25.32653359093561
 30
0.0
 10
36.98082741490009
 20
25.3056753661773
 30
0.0
 10
36.96322776837528
 20
25.29208122500754
 30
0.0
 10
36.9531963049134
 20
25.28889410985772
 30
0.0
 11
36.98786427572978
 21
25.33662360489012
 31
0.0
 11
36.97844664578068
 21
25.30785580694214
 31
0.0
 11
36.9531963049134
 21
25.28889410985772
 31
0.0
  0
SPLINE
  5
DF
330
2
100
AcDbEntity
  8
GAIKEI
  6
Continuous
 62
     1
100
AcDbSpline
210
0.0
220
0.0
230
1.0
 70
     8
 71
     3
 72
     9
 73
     5
 74
     3
 42
0.0000000001
 43
0.0000000001
 44
0.000001
 12
-0.999999999979706
 22
-0.0000063708878533
 32
0.0
 13
-0.9999999547234207
 23
-0.0003009205153209
 33
0.0
 40
0.0
 40
0.0
 40
0.0
 40
0.0
 40
0.0112191479162658
 40
0.0274452669225762
 40
0.0274452669225762
 40
0.0274452669225762
 40
0.0274452669225762
 10
36.90583302084033
 20
25.28889410985772
 30
0.0
 10
36.90209330486832
 20
25.2888940860324
 30
0.0
 10
36.89303362414967
 20
25.28730094443389
 30
0.0
 10
36.88389797530107
 20
25.28657640137268
 30
0.0
 10
36.87848926921052
 20
25.28657477378198
 30
0.0
 11
36.90583302084033
 21
25.28889410985772
 31
0.0
 11
36.89467380342293
 21
25.28773573714557
 31
0.0
 11
36.87848926921052
 21
25.28657477378198
 31
0.0
  0
SPLINE
  5
E0
330
2
100
AcDbEntity
  8
GAIKEI
  6
Continuous
 62
     1
100
AcDbSpline
210
0.0
220
0.0
230
1.0
 70
     8
 71
     3
 72
    37
 73
    33
 74
    31
 42
0.0000000001
 43
0.0000000001
 44
0.000001
 12
0.9531453210649694
 22
-0.3025128045752052
 32
0.0
 13
-0.8762670848182505
 23
-0.481825690539769
 33
0.0
 40
0.0
 40
0.0
 40
0.0
 40
0.0
 40
0.0216846486234538
 40
0.0388575122373976
 40
0.052915702398774
 40
0.0673569896225651
 40
0.082492860104444
 40
0.0985679969785171
 40
0.1157694184982896
 40
0.1342401711596657
 40
0.1540929449803082
 40
0.175421554131022
 40
0.2114680121679831
 40
0.2507082762072761
 40
0.2924136372179696
 40
0.3358492439489696
 40
0.3802772139988289
 40
0.4249586442768863
 40
0.469155225746127
 40
0.5121309128067383
 40
0.5523086616664701
 40
0.5899218938620691
 40
0.6244980923253272
 40
0.6555772297283121
 40
0.673942938347889
 40
0.6910080117360936
 40
0.7069992320486394
 40
0.7222522098516374
 40
0.7372958871657324
 40
0.7528982819897129
 40
0.7700215413947762
 40
0.7897003315789589
 40
0.7897003315789589
 40
0.7897003315789589
 40
0.7897003315789589
 10
36.95551564098915
 20
26.03376720113061
 30
0.0
 10
36.96240518144728
 20
26.0315805731735
 30
0.0
 10
36.97424112701529
 20
26.02542927374424
 30
0.0
 10
36.98627447087658
 20
26.01227786160092
 30
0.0
 10
36.99443189147667
 20
25.99938529080737
 30
0.0
 10
37.00078559897307
 20
25.98626864887197
 30
0.0
 10
37.00598850767459
 20
25.97194583979797
 30
0.0
 10
37.01028464805501
 20
25.95637782519072
 30
0.0
 10
37.0138695616601
 20
25.93949791763328
 30
0.0
 10
37.01695102110951
 20
25.92124426701696
 30
0.0
 10
37.01970796534755
 20
25.9015510610727
 30
0.0
 10
37.02296340719847
 20
25.87601472821751
 30
0.0
 10
37.02637732406123
 20
25.84398632233203
 30
0.0
 10
37.02936253478225
 20
25.80509887409397
 30
0.0
 10
37.03163882874105
 20
25.7636983081849
 30
0.0
 10
37.03314230444663
 20
25.72053207984695
 30
0.0
 10
37.0338620145231
 20
25.67635382787055
 30
0.0
 10
37.03377151435095
 20
25.63191611810254
 30
0.0
 10
37.03285885790086
 20
25.58797143532502
 30
0.0
 10
37.03109091036379
 20
25.5455551577063
 30
0.0
 10
37.02856066383956
 20
25.50537562149813
 30
0.0
 10
37.02534437611035
 20
25.46805581622181
 30
0.0
 10
37.02151065133769
 20
25.43383864878933
 30
0.0
 10
37.01718660311893
 20
25.40616118562571
 30
0.0
 10
37.01341417975097
 20
25.38431547585304
 30
0.0
 10
37.01042128514386
 20
25.3674361823334
 30
0.0
 10
37.00673499507443
 20
25.35174548135706
 30
0.0
 10
37.0017179091966
 20
25.33711373391745
 30
0.0
 10
36.99464399866719
 20
25.32346735672954
 30
0.0
 10
36.98482713468697
 20
25.31081143895256
 30
0.0
 10
36.97168748224449
 20
25.29916721555594
 30
0.0
 10
36.96126359969163
 20
25.29260400851987
 30
0.0
 10
36.95551564098915
 20
25.28944342629671
 30
0.0
 11
36.95551564098915
 21
26.03376720113061
 31
0.0
 11
36.97468095500281
 21
26.02362218683965
 31
0.0
 11
36.98652150221224
 21
26.01118419197206
 31
0.0
 11
36.99413408914293
 21
25.9993656051721
 31
0.0
 11
37.00046075183477
 21
25.98638399061673
 31
0.0
 11
37.00569562934012
 21
25.97218226625574
 31
0.0
 11
37.01003286071151
 21
25.95670335003899
 31
0.0
 11
37.0136665850014
 21
25.93989015991639
 31
0.0
 11
37.01679094126226
 21
25.92168561383761
 31
0.0
 11
37.01960006854651
 21
25.90203262975263
 31
0.0
 11
37.0222881059066
 21
25.88087412561123
 31
0.0
 11
37.02609414657596
 21
25.84502922983802
 31
0.0
 11
37.02916147847978
 21
25.80590910244684
 31
0.0
 11
37.0314694137185
 21
25.76426772478885
 31
0.0
 11
37.03299726439255
 21
25.72085907821531
 31
0.0
 11
37.03372434260243
 21
25.67643714407728
 31
0.0
 11
37.03362996044845
 21
25.631755903726
 31
0.0
 11
37.03269343003112
 21
25.5875693385126
 31
0.0
 11
37.0308940634508
 21
25.54463142978836
 31
0.0
 11
37.02834675510812
 21
25.50453460170695
 31
0.0
 11
37.02508988130941
 21
25.46706272359467
 31
0.0
 11
37.02111876535807
 21
25.43271540641467
 31
0.0
 11
37.01642873055735
 21
25.40199226113015
 31
0.0
 11
37.01332539633964
 21
25.38389069411966
 31
0.0
 11
37.01019843101628
 21
25.36711461300894
 31
0.0
 11
37.00641524985738
 21
25.35157741237043
 31
0.0
 11
37.00134326813324
 21
25.33719248677659
 31
0.0
 11
36.99434990111413
 21
25.32387323079985
 31
0.0
 11
36.98480256407018
 21
25.31153303901266
 31
0.0
 11
36.97206867227183
 21
25.30008530598747
 31
0.0
 11
36.95551564098915
 21
25.28944342629671
 31
0.0
  0
SPLINE
  5
E1
330
2
100
AcDbEntity
  8
GAIKEI
  6
Continuous
 62
     1
100
AcDbSpline
210
0.0
220
0.0
230
1.0
 70
     8
 71
     3
 72
    11
 73
     7
 74
     5
 42
0.0000000001
 43
0.0000000001
 44
0.000001
 12
0.9999999136648373
 22
-0.0004155361809812
 32
0.0
 13
-0.9999999982988994
 23
-0.0000583283907888
 33
0.0
 40
0.0
 40
0.0
 40
0.0
 40
0.0
 40
0.1068249115462573
 40
0.3305210750164478
 40
0.5542130927240274
 40
0.6610280755900023
 40
0.6610280755900023
 40
0.6610280755900023
 40
0.6610280755900023
 10
36.98786427572978
 20
25.98658702253721
 30
0.0
 10
37.02347257650428
 20
25.98657222599863
 30
0.0
 10
37.01571284431269
 20
25.81706009462227
 30
0.0
 10
37.04303069419514
 20
25.66159480385881
 30
0.0
 10
37.01572492415497
 20
25.50615107746444
 30
0.0
 10
37.02346926995787
 20
25.33662568167213
 30
0.0
 10
36.98786427572978
 20
25.33662360489012
 30
0.0
 11
36.98786427572978
 21
25.98658702253721
 31
0.0
 11
37.02096835631428
 21
25.88502040505142
 31
0.0
 11
37.03200587454401
 21
25.66159743118993
 31
0.0
 11
37.02097259336663
 21
25.43817839859031
 31
0.0
 11
36.98786427572978
 21
25.33662360489012
 31
0.0
  0
SPLINE
  5
E2
330
2
100
AcDbEntity
  8
GAIKEI
  6
Continuous
 62
     1
100
AcDbSpline
210
0.0
220
0.0
230
1.0
 70
     8
 71
     3
 72
     9
 73
     5
 74
     3
 42
0.0000000001
 43
0.0000000001
 44
0.000001
 12
0.9038411592213025
 22
-0.4278681559750528
 32
0.0
 13
0.3435351878273928
 23
0.9391398057394852
 33
0.0
 40
0.0
 40
0.0
 40
0.0
 40
0.0
 40
0.1444206830774596
 40
0.2249124189691017
 40
0.2249124189691017
 40
0.2249124189691017
 40
0.2249124189691017
 10
36.69068408223521
 20
26.58656264423604
 30
0.0
 10
36.73419520143796
 20
26.56596497378505
 30
0.0
 10
36.80057736303334
 20
26.54681940273503
 30
0.0
 10
36.89661577297098
 20
26.56136497983306
 30
0.0
 10
36.90583302084033
 20
26.58656264423604
 30
0.0
 11
36.69068408223521
 21
26.58656264423604
 31
0.0
 11
36.83167267152138
 21
26.55526936008551
 31
0.0
 11
36.90583302084033
 21
26.58656264423604
 31
0.0
  0
SPLINE
  5
E3
330
2
100
AcDbEntity
  8
GAIKEI
  6
Continuous
 62
     1
100
AcDbSpline
210
0.0
220
0.0
230
1.0
 70
     8
 71
     3
 72
     9
 73
     5
 74
     3
 42
0.0000000001
 43
0.0000000001
 44
0.000001
 12
0.0579129316284592
 22
-0.9983216377251359
 32
0.0
 13
-0.0189869989958103
 23
-0.9998197306860539
 33
0.0
 40
0.0
 40
0.0
 40
0.0
 40
0.0
 40
0.1056034001939519
 40
0.2027679800166498
 40
0.2027679800166498
 40
0.2027679800166498
 40
0.2027679800166498
 10
36.68557017826541
 20
26.78923102553313
 30
0.0
 10
36.68760877909714
 20
26.75408897238947
 30
0.0
 10
36.69062936830569
 20
26.68655866669875
 30
0.0
 10
36.69129903682839
 20
26.61894499891289
 30
0.0
 10
36.69068408223521
 20
26.58656264423604
 30
0.0
 11
36.68557017826541
 21
26.78923102553313
 31
0.0
 11
36.69011641816061
 21
26.68372569169065
 31
0.0
 11
36.69068408223521
 21
26.58656264423604
 31
0.0
  0
SPLINE
  5
E4
330
2
100
AcDbEntity
  8
GAIKEI
  6
Continuous
 62
     1
100
AcDbSpline
210
0.0
220
0.0
230
1.0
 70
     8
 71
     3
 72
    11
 73
     7
 74
     5
 42
0.0000000001
 43
0.0000000001
 44
0.000001
 12
0.9206948447319934
 22
0.3902832341824725
 32
0.0
 13
0.3671367247417233
 23
-0.9301669878822405
 33
0.0
 40
0.0
 40
0.0
 40
0.0
 40
0.0
 40
0.0726826003240865
 40
0.1415657218736317
 40
0.200410030242144
 40
0.2281680664200414
 40
0.2281680664200414
 40
0.2281680664200414
 40
0.2281680664200414
 10
36.69068408223521
 20
8.713941950038588
 30
0.0
 10
36.71299024737525
 20
8.723397550146358
 30
0.0
 10
36.75843460259051
 20
8.737861030315059
 30
0.0
 10
36.82447727580078
 20
8.745687060181779
 30
0.0
 10
36.87820519516075
 20
8.74293864021709
 30
0.0
 10
36.90243602267779
 20
8.722548486338951
 30
0.0
 10
36.90583302084033
 20
8.713941950038588
 30
0.0
 11
36.69068408223521
 21
8.713941950038588
 31
0.0
 11
36.75997163048149
 21
8.735893253236213
 31
0.0
 11
36.82837940294249
 21
8.743971248703473
 31
0.0
 11
36.88631694798002
 21
8.733681764521008
 31
0.0
 11
36.90583302084033
 21
8.713941950038588
 31
0.0
  0
SPLINE
  5
E5
330
2
100
AcDbEntity
  8
GAIKEI
  6
Continuous
 62
     1
100
AcDbSpline
210
0.0
220
0.0
230
1.0
 70
     8
 71
     3
 72
     9
 73
     5
 74
     3
 42
0.0000000001
 43
0.0000000001
 44
0.000001
 12
0.6567232424679582
 22
-0.7541316747109695
 32
0.0
 13
0.7508528871760759
 23
-0.6604694859108565
 33
0.0
 40
0.0
 40
0.0
 40
0.0
 40
0.0
 40
0.0622959924961281
 40
0.1246752873558613
 40
0.1246752873558613
 40
0.1246752873558613
 40
0.1246752873558613
 10
35.5159630690305
 20
27.27059321023507
 30
0.0
 10
35.52960014442545
 20
27.25493341651875
 30
0.0
 10
35.55792609228613
 20
27.22447787551536
 30
0.0
 10
35.58821107880922
 20
27.19596742335389
 30
0.0
 10
35.60382363669103
 20
27.18223421641807
 30
0.0
 11
35.5159630690305
 21
27.27059321023507
 31
0.0
 11
35.55839530328754
 21
27.22498359735505
 31
0.0
 11
35.60382363669103
 21
27.18223421641807
 31
0.0
  0
SPLINE
  5
E6
330
2
100
AcDbEntity
  8
GAIKEI
  6
Continuous
100
AcDbSpline
210
0.0
220
0.0
230
1.0
 70
     8
 71
     3
 72
     9
 73
     5
 74
     3
 42
0.0000000001
 43
0.0000000001
 44
0.000001
 12
0.0554147012212912
 22
0.9984634249127783
 32
0.0
 13
0.9781883213327244
 23
-0.2077200231279278
 33
0.0
 40
0.0
 40
0.0
 40
0.0
 40
0.0
 40
0.0626277234781358
 40
0.0848015881153627
 40
0.0848015881153627
 40
0.0848015881153627
 40
0.0848015881153627
 10
35.17042695005947
 20
32.95868483841639
 30
0.0
 10
35.17158378225437
 20
32.97952866884254
 30
0.0
 10
35.17515778932093
 20
32.9973751632335
 30
0.0
 10
35.1777166159898
 20
33.04299336706745
 30
0.0
 10
35.18494668779877
 20
33.04145804850902
 30
0.0
 11
35.17042695005947
 21
32.95868483841639
 31
0.0
 11
35.17630942565862
 21
33.02103479700179
 31
0.0
 11
35.18494668779877
 21
33.04145804850902
 31
0.0
  0
SPLINE
  5
E7
330
2
100
AcDbEntity
  8
GAIKEI
  6
Continuous
100
AcDbSpline
210
0.0
220
0.0
230
1.0
 70
     8
 71
     3
 72
     9
 73
     5
 74
     3
 42
0.0000000001
 43
0.0000000001
 44
0.000001
 12
-0.1770699054458256
 22
0.9841982770689076
 32
0.0
 13
-0.9788794881764774
 23
0.2044381266480339
 33
0.0
 40
0.0
 40
0.0
 40
0.0
 40
0.0
 40
0.0810830638413725
 40
0.1015696684434659
 40
0.1015696684434659
 40
0.1015696684434659
 40
0.1015696684434659
 10
35.30691795954906
 20
32.92943676495429
 30
0.0
 10
35.30213216939984
 20
32.956037368865
 30
0.0
 10
35.29286587110958
 20
32.98432026741887
 30
0.0
 10
35.27756883193017
 20
33.02181245468043
 30
0.0
 10
35.27088419292105
 20
33.02320853570251
 30
0.0
 11
35.30691795954906
 21
32.92943676495429
 31
0.0
 11
35.28349386472112
 21
33.00706186981478
 31
0.0
 11
35.27088419292105
 21
33.02320853570251
 31
0.0
  0
SPLINE
  5
E8
330
2
100
AcDbEntity
  8
GAIKEI
  6
Continuous
 62
     1
100
AcDbSpline
210
0.0
220
0.0
230
1.0
 70
     8
 71
     3
 72
     9
 73
     5
 74
     3
 42
0.0000000001
 43
0.0000000001
 44
0.000001
 12
0.9987434150041043
 22
-0.0501157758189905
 32
0.0
 13
0.0001977800506801
 23
0.9999999804415256
 33
0.0
 40
0.0
 40
0.0
 40
0.0
 40
0.0
 40
0.1293505015534954
 40
0.1867588245599851
 40
0.1867588245599851
 40
0.1867588245599851
 40
0.1867588245599851
 10
35.50672412755674
 20
31.99005299242646
 30
0.0
 10
35.54978678144141
 20
31.98789215884716
 30
0.0
 10
35.59805774563056
 20
31.98611588370125
 30
0.0
 10
35.6867129524975
 20
32.00144785692814
 30
0.0
 10
35.68671673723784
 20
32.02058396422268
 30
0.0
 11
35.50672412755674
 21
31.99005299242646
 31
0.0
 11
35.63602398421242
 21
31.99363888470737
 31
0.0
 11
35.68671673723784
 21
32.02058396422268
 31
0.0
  0
SPLINE
  5
E9
330
2
100
AcDbEntity
  8
GAIKEI
  6
Continuous
 62
     1
100
AcDbSpline
210
0.0
220
0.0
230
1.0
 70
     8
 71
     3
 72
     9
 73
     5
 74
     3
 42
0.0000000001
 43
0.0000000001
 44
0.000001
 12
0.1860620377725842
 22
-0.9825379982982408
 32
0.0
 13
-0.3863119893201842
 23
-0.9223681731865436
 33
0.0
 40
0.0
 40
0.0
 40
0.0
 40
0.0
 40
0.1196974472846518
 40
0.3243034073796051
 40
0.3243034073796051
 40
0.3243034073796051
 40
0.3243034073796051
 10
35.93030806035077
 20
27.50178486675628
 30
0.0
 10
35.93773177733675
 20
27.4625824366708
 30
0.0
 10
35.90348060488508
 20
27.3537192654004
 30
0.0
 10
35.87040268234844
 20
27.25353063762415
 30
0.0
 10
35.84405543719143
 20
27.19062329574553
 30
0.0
 11
35.93030806035077
 21
27.50178486675628
 31
0.0
 11
35.91260702093226
 21
27.3834032052572
 31
0.0
 11
35.84405543719143
 21
27.19062329574553
 31
0.0
  0
SPLINE
  5
EA
330
2
100
AcDbEntity
  8
GAIKEI
  6
Continuous
100
AcDbSpline
210
0.0
220
0.0
230
1.0
 70
     8
 71
     3
 72
     9
 73
     5
 74
     3
 42
0.0000000001
 43
0.0000000001
 44
0.000001
 12
0.9654121897346721
 22
-0.2607284102504091
 32
0.0
 13
0.902243292601743
 23
-0.4312273657308469
 33
0.0
 40
0.0
 40
0.0
 40
0.0
 40
0.0
 40
0.024666201635876
 40
0.0503219312280087
 40
0.0503219312280087
 40
0.0503219312280087
 40
0.0503219312280087
 10
36.70508837996877
 20
32.71797170110273
 30
0.0
 10
36.71302606388001
 20
32.71582797458959
 30
0.0
 10
36.72902453217041
 20
32.71070088371045
 30
0.0
 10
36.74449162008853
 20
32.70414242777753
 30
0.0
 10
36.75220752340229
 20
32.70045461021488
 30
0.0
 11
36.70508837996877
 21
32.71797170110273
 31
0.0
 11
36.72858321731215
 21
32.71045810782033
 31
0.0
 11
36.75220752340229
 21
32.70045461021488
 31
0.0
  0
SPLINE
  5
EB
330
2
100
AcDbEntity
  8
GAIKEI
  6
Continuous
100
AcDbSpline
210
0.0
220
0.0
230
1.0
 70
     8
 71
     3
 72
     9
 73
     5
 74
     3
 42
0.0000000001
 43
0.0000000001
 44
0.000001
 12
0.7764249965061638
 22
-0.6302096673333438
 32
0.0
 13
0.737253800590099
 23
-0.675615891994449
 33
0.0
 40
0.0
 40
0.0
 40
0.0
 40
0.0
 40
0.0083503360267257
 40
0.016704782040935
 40
0.016704782040935
 40
0.016704782040935
 40
0.016704782040935
 10
36.80677295634215
 20
32.66596974487817
 30
0.0
 10
36.80893409288227
 20
32.664215590715
 30
0.0
 10
36.81319885793194
 20
32.66063377201732
 30
0.0
 10
36.81735411874702
 20
32.65692591675688
 30
0.0
 10
36.81940723443896
 20
32.65504445125822
 30
0.0
 11
36.80677295634215
 21
32.66596974487817
 31
0.0
 11
36.81317050601931
 21
32.66060300427569
 31
0.0
 11
36.81940723443896
 21
32.65504445125822
 31
0.0
  0
SPLINE
  5
EC
330
2
100
AcDbEntity
  8
GAIKEI
  6
Continuous
100
AcDbSpline
210
0.0
220
0.0
230
1.0
 70
     8
 71
     3
 72
     9
 73
     5
 74
     3
 42
0.0000000001
 43
0.0000000001
 44
0.000001
 12
0.5797443213398604
 22
-0.8147984547568709
 32
0.0
 13
0.1755249561896888
 23
-0.9844749817819687
 33
0.0
 40
0.0
 40
0.0
 40
0.0
 40
0.0
 40
0.0609983285825498
 40
0.121999125461876
 40
0.121999125461876
 40
0.121999125461876
 40
0.121999125461876
 10
36.85798145548816
 20
32.61122120645865
 30
0.0
 10
36.86976926702381
 20
32.59465409183472
 30
0.0
 10
36.88954183274419
 20
32.55867397708687
 30
0.0
 10
36.90104326357598
 20
32.51930064268959
 30
0.0
 10
36.90461231764257
 20
32.4992827232241
 30
0.0
 11
36.85798145548816
 21
32.61122120645865
 31
0.0
 11
36.88747442035154
 21
32.55782570845736
 31
0.0
 11
36.90461231764257
 21
32.4992827232241
 31
0.0
  0
SPLINE
  5
ED
330
2
100
AcDbEntity
  8
GAIKEI
  6
Continuous
 62
     1
100
AcDbSpline
210
0.0
220
0.0
230
1.0
 70
     8
 71
     3
 72
     9
 73
     5
 74
     3
 42
0.0000000001
 43
0.0000000001
 44
0.000001
 12
0.088371545246291
 22
0.9960875814860774
 32
0.0
 13
-0.9108295441416885
 23
-0.4127826807396892
 33
0.0
 40
0.0
 40
0.0
 40
0.0
 40
0.0
 40
0.0822732468033893
 40
0.1113654689795821
 40
0.1113654689795821
 40
0.1113654689795821
 40
0.1113654689795821
 10
37.0979106690078
 20
8.264356962303736
 30
0.0
 10
37.10033420699195
 20
8.29167408211353
 30
0.0
 10
37.09298962784611
 20
8.309708187934631
 30
0.0
 10
37.10680438932197
 20
8.37950491027928
 30
0.0
 10
37.09797170416769
 20
8.375501988459745
 30
0.0
 11
37.0979106690078
 21
8.264356962303736
 31
0.0
 11
37.1010301624464
 21
8.346570147925774
 31
0.0
 11
37.09797170416769
 21
8.375501988459745
 31
0.0
  0
SPLINE
  5
EE
330
2
100
AcDbEntity
  8
GAIKEI
  6
Continuous
 62
     1
100
AcDbSpline
210
0.0
220
0.0
230
1.0
 70
     8
 71
     3
 72
     9
 73
     5
 74
     3
 42
0.0000000001
 43
0.0000000001
 44
0.000001
 12
0.0144628323544703
 22
0.9998954077703759
 32
0.0
 13
0.9053598185504306
 23
0.4246452624889762
 33
0.0
 40
0.0
 40
0.0
 40
0.0
 40
0.0
 40
0.0588256727800132
 40
0.0800501390682005
 40
0.0800501390682005
 40
0.0800501390682005
 40
0.0800501390682005
 10
37.02503468810156
 20
8.261427274629113
 30
0.0
 10
37.02531828338275
 20
8.281033781319706
 30
0.0
 10
37.03125509361577
 20
8.302101961336092
 30
0.0
 10
37.01862942845238
 20
8.338440079556221
 30
0.0
 10
37.02503468810156
 20
8.341444369242253
 30
0.0
 11
37.02503468810156
 21
8.261427274629113
 31
0.0
 11
37.02402044993411
 21
8.320243612018259
 31
0.0
 11
37.02503468810156
 21
8.341444369242253
 31
0.0
  0
SPLINE
  5
EF
330
2
100
AcDbEntity
  8
GAIKEI
  6
Continuous
100
AcDbSpline
210
0.0
220
0.0
230
1.0
 70
     8
 71
     3
 72
     9
 73
     5
 74
     3
 42
0.0000000001
 43
0.0000000001
 44
0.000001
 12
-0.5706642736664941
 22
-0.8211834671744755
 32
0.0
 13
-0.5093037193375936
 23
-0.8605868471391447
 33
0.0
 40
0.0
 40
0.0
 40
0.0
 40
0.0
 40
0.0025620985913283
 40
0.0051314383267169
 40
0.0051314383267169
 40
0.0051314383267169
 40
0.0051314383267169
 10
36.99500538943667
 20
8.316114777888742
 30
0.0
 10
36.99451802339277
 20
8.315413460220582
 30
0.0
 10
36.99357995922533
 20
8.313982287027243
 30
0.0
 10
36.99269499866954
 20
8.312518328197398
 30
0.0
 10
36.99225880724171
 20
8.311781281536696
 30
0.0
 11
36.99500538943667
 21
8.316114777888742
 31
0.0
 11
36.9935946609157
 21
8.313975716188281
 31
0.0
 11
36.99225880724171
 21
8.311781281536696
 31
0.0
  0
SPLINE
  5
F0
330
2
100
AcDbEntity
  8
GAIKEI
  6
Continuous
 62
     1
100
AcDbSpline
210
0.0
220
0.0
230
1.0
 70
     8
 71
     3
 72
    13
 73
     9
 74
     7
 42
0.0000000001
 43
0.0000000001
 44
0.000001
 12
0.0171063064596899
 22
-0.9998536764343606
 32
0.0
 13
0.9062487129382523
 23
0.4227449234441036
 33
0.0
 40
0.0
 40
0.0
 40
0.0
 40
0.0
 40
0.149907194914418
 40
0.2861535616705371
 40
0.4073301870035893
 40
0.4849560908470951
 40
0.5237979657206448
 40
0.5360583401269654
 40
0.5360583401269654
 40
0.5360583401269654
 40
0.5360583401269654
 10
36.69068408223521
 20
8.713941950038588
 30
0.0
 10
36.69153886837411
 20
8.663980196718881
 30
0.0
 10
36.69276838735138
 20
8.56854137066918
 30
0.0
 10
36.69599709487199
 20
8.433046533535474
 30
0.0
 10
36.6858872876168
 20
8.320548073938851
 30
0.0
 10
36.68969857395425
 20
8.243412824142836
 30
0.0
 10
36.66770150276111
 20
8.198267607449594
 30
0.0
 10
36.68594283500849
 20
8.183344619262641
 30
0.0
 10
36.68964648451711
 20
8.185072289609252
 30
0.0
 11
36.69068408223521
 21
8.713941950038588
 31
0.0
 11
36.69311270634407
 21
8.564055243573932
 31
0.0
 11
36.69336962927028
 21
8.427809120483743
 31
0.0
 11
36.68798699120165
 21
8.306752113487675
 31
0.0
 11
36.68065035407656
 21
8.229473724981403
 31
0.0
 11
36.67874256836004
 21
8.190678826507678
 31
0.0
 11
36.68964648451711
 21
8.185072289609252
 31
0.0
  0
SPLINE
  5
F1
330
2
100
AcDbEntity
  8
GAIKEI
  6
Continuous
 62
     1
100
AcDbSpline
210
0.0
220
0.0
230
1.0
 70
     8
 71
     3
 72
    43
 73
    39
 74
    37
 42
0.0000000001
 43
0.0000000001
 44
0.000001
 12
0.2770611746011754
 22
0.9608522808052322
 32
0.0
 13
-0.2770611746011753
 23
0.9608522808052324
 33
0.0
 40
0.0
 40
0.0
 40
0.0
 40
0.0
 40
0.0034003813442543
 40
0.0069436756809735
 40
0.0127446235585457
 40
0.0194431400990621
 40
0.0270011267012133
 40
0.0353794718312999
 40
0.0445385162966132
 40
0.0544383046566992
 40
0.0650387330258231
 40
0.0762996430054639
 40
0.0881808860827535
 40
0.1006423712818261
 40
0.1136441032214994
 40
0.1271462148292068
 40
0.1411089973939795
 40
0.1554929297708067
 40
0.170258708060152
 40
0.1853672768149863
 40
0.2004758455698748
 40
0.2152416238591573
 40
0.2296255562360365
 40
0.2435883388007457
 40
0.2570904504084502
 40
0.2700921823481269
 40
0.2825536675472563
 40
0.2944349106245554
 40
0.3056958206041558
 40
0.3162962489732919
 40
0.3261960373334618
 40
0.3353550817987981
 40
0.3437334269288455
 40
0.351291413531072
 40
0.3579899300715435
 40
0.3637908779491281
 40
0.3673341722858473
 40
0.3707345536301017
 40
0.3707345536301017
 40
0.3707345536301017
 40
0.3707345536301017
 10
36.97620656019117
 20
12.06733570460392
 30
0.0
 10
36.97652059807429
 20
12.06842479266066
 30
0.0
 10
36.97713289462829
 20
12.07065713560587
 30
0.0
 10
36.97817408268909
 20
12.07477604319356
 30
0.0
 10
36.9793403539582
 20
12.07999590198261
 30
0.0
 10
36.98060714414641
 20
12.08656131381966
 30
0.0
 10
36.98187612801478
 20
12.09399926500856
 30
0.0
 10
36.98313009044821
 20
12.10227028913152
 30
0.0
 10
36.98435717782967
 20
12.11133366164233
 30
0.0
 10
36.9855440989446
 20
12.12114888181963
 30
0.0
 10
36.98667815935896
 20
12.13167528919433
 30
0.0
 10
36.9877465803082
 20
12.14287222125085
 30
0.0
 10
36.98873667142435
 20
12.15469898671063
 30
0.0
 10
36.98963575921664
 20
12.16711488513826
 30
0.0
 10
36.99043119538325
 20
12.18007920803703
 30
0.0
 10
36.99111034610962
 20
12.19355124281219
 30
0.0
 10
36.99166058963685
 20
12.20749027433209
 30
0.0
 10
36.99206931311837
 20
12.22185558676537
 30
0.0
 10
36.99232391111647
 20
12.23660646315503
 30
0.0
 10
36.99241119334923
 20
12.25160085230573
 30
0.0
 10
36.99232391111693
 20
12.2665952414564
 30
0.0
 10
36.99206931311922
 20
12.28134611784608
 30
0.0
 10
36.99166058963775
 20
12.29571143027942
 30
0.0
 10
36.99111034611082
 20
12.30965046179932
 30
0.0
 10
36.99043119538445
 20
12.32312249657448
 30
0.0
 10
36.98963575921778
 20
12.33608681947314
 30
0.0
 10
36.98873667142553
 20
12.34850271790091
 30
0.0
 10
36.98774658030922
 20
12.36032948336066
 30
0.0
 10
36.98667815935983
 20
12.37152641541723
 30
0.0
 10
36.98554409894536
 20
12.38205282279185
 30
0.0
 10
36.9843571778302
 20
12.39186804296915
 30
0.0
 10
36.98313009044854
 20
12.40093141547996
 30
0.0
 10
36.98187612801504
 20
12.40920243960292
 30
0.0
 10
36.98060714414649
 20
12.41664039079177
 30
0.0
 10
36.97934035395825
 20
12.42320580262893
 30
0.0
 10
36.97817408268905
 20
12.42842566141786
 30
0.0
 10
36.97713289462833
 20
12.43254456900556
 30
0.0
 10
36.97652059807429
 20
12.43477691195079
 30
0.0
 10
36.97620656019117
 20
12.43586600000753
 30
0.0
 11
36.97620656019117
 21
12.06733570460392
 31
0.0
 11
36.9771085274156
 21
12.07061426492089
 31
0.0
 11
36.97797657982793
 21
12.0740495721916
 31
0.0
 11
36.97924844625371
 21
12.07970935780133
 31
0.0
 11
36.98052955435751
 21
12.08628420966079
 31
0.0
 11
36.98180730669927
 21
12.09373338984198
 31
0.0
 11
36.98306910583884
 21
12.10201616041718
 31
0.0
 11
36.98430235433622
 21
12.11109178345845
 31
0.0
 11
36.98549445475132
 21
12.12091952103793
 31
0.0
 11
36.98663280964408
 21
12.13145863522777
 31
0.0
 11
36.9877048215744
 21
12.14266838810016
 31
0.0
 11
36.98869789310223
 21
12.15450804172718
 31
0.0
 11
36.98959942678758
 21
12.16693685818092
 31
0.0
 11
36.99039682519018
 21
12.17991409953362
 31
0.0
 11
36.99107749087014
 21
12.19339902785737
 31
0.0
 11
36.99162882638731
 21
12.20735090522436
 31
0.0
 11
36.99203823430165
 21
12.22172899370662
 31
0.0
 11
36.99229311717309
 21
12.2364925553764
 31
0.0
 11
36.99238087756149
 21
12.25160085230573
 31
0.0
 11
36.99229311717355
 21
12.26670914923511
 31
0.0
 11
36.99203823430244
 21
12.28147271090483
 31
0.0
 11
36.99162882638828
 21
12.29585079938715
 31
0.0
 11
36.99107749087128
 21
12.30980267675409
 31
0.0
 11
36.99039682519137
 21
12.32328760507783
 31
0.0
 11
36.98959942678872
 21
12.33626484643054
 31
0.0
 11
36.98869789310336
 21
12.34869366288433
 31
0.0
 11
36.98770482157542
 21
12.36053331651135
 31
0.0
 11
36.98663280964493
 21
12.37174306938368
 31
0.0
 11
36.98549445475206
 21
12.38228218357352
 31
0.0
 11
36.98430235433673
 21
12.39210992115306
 31
0.0
 11
36.98306910583918
 21
12.40118554419433
 31
0.0
 11
36.9818073066995
 21
12.40946831476947
 31
0.0
 11
36.98052955435762
 21
12.41691749495072
 31
0.0
 11
36.97924844625376
 21
12.42349234681012
 31
0.0
 11
36.97797657982793
 21
12.42915213241986
 31
0.0
 11
36.9771085274156
 21
12.43258743969056
 31
0.0
 11
36.97620656019117
 21
12.43586600000753
 31
0.0
  0
SPLINE
  5
F2
330
2
100
AcDbEntity
  8
GAIKEI
  6
Continuous
 62
     1
100
AcDbSpline
210
0.0
220
0.0
230
1.0
 70
     8
 71
     3
 72
    43
 73
    39
 74
    37
 42
0.0000000001
 43
0.0000000001
 44
0.000001
 12
0.2770611746011754
 22
0.9608522808052322
 32
0.0
 13
-0.2770611746011753
 23
0.9608522808052324
 33
0.0
 40
0.0
 40
0.0
 40
0.0
 40
0.0
 40
0.0034298107286559
 40
0.007002701373492
 40
0.0128036496248599
 40
0.0195021664477354
 40
0.0270601532254364
 40
0.0354384984690046
 40
0.0445975430124599
 40
0.0544973314294805
 40
0.0650977598421404
 40
0.0763586698565475
 40
0.0882399129626143
 40
0.100701398186457
 40
0.1137031301480625
 40
0.127205241775795
 40
0.1411680243593844
 40
0.1555519567544573
 40
0.1703177350618874
 40
0.1854263038353377
 40
0.2005341871667108
 40
0.2152980286113133
 40
0.2296789521908122
 40
0.2436378337148058
 40
0.257135331856917
 40
0.2701319177250316
 40
0.282587903971736
 40
0.294463474760757
 40
0.3057187183952008
 40
0.316313665276178
 40
0.3262083354256433
 40
0.3353628026941817
 40
0.343737288379242
 40
0.3512923084612022
 40
0.3579889238936639
 40
0.3637892033673731
 40
0.3673620940122092
 40
0.3707919047408652
 40
0.3707919047408652
 40
0.3707919047408652
 40
0.3707919047408652
 10
36.97620656019117
 20
25.47730964843192
 30
0.0
 10
36.97652331598755
 20
25.47840816225238
 30
0.0
 10
36.97713181576484
 20
25.48066200636635
 30
0.0
 10
36.97816902143344
 20
25.48480208338907
 30
0.0
 10
36.97934143857347
 20
25.49003062193646
 30
0.0
 10
36.98060679301892
 20
25.49659637563158
 30
0.0
 10
36.98187623833249
 20
25.50403421723613
 30
0.0
 10
36.98313005640326
 20
25.51230527583007
 30
0.0
 10
36.98435718805249
 20
25.52136863789491
 30
0.0
 10
36.98554409584898
 20
25.53118386130228
 30
0.0
 10
36.98667816023306
 20
25.54171026777908
 30
0.0
 10
36.98774658002689
 20
25.55290720014733
 30
0.0
 10
36.98873667148629
 20
25.56473396555589
 30
0.0
 10
36.98963575918559
 20
25.57714986403164
 30
0.0
 10
36.99043119538318
 20
25.59011418694576
 30
0.0
 10
36.99111034610444
 20
25.60358622174295
 30
0.0
 10
36.9916605896349
 20
25.61752525328155
 30
0.0
 10
36.99206931311998
 20
25.63189056573225
 30
0.0
 10
36.99232391110758
 20
25.64664144214479
 30
0.0
 10
36.99241119205388
 20
25.66163560281399
 30
0.0
 10
36.99232391870657
 20
25.67662911794363
 30
0.0
 10
36.99206932627469
 20
25.69137811725767
 30
0.0
 10
36.99166060668702
 20
25.70574047989035
 30
0.0
 10
36.9911103654684
 20
25.71967566762302
 30
0.0
 10
36.99043121555398
 20
25.73314314336978
 30
0.0
 10
36.98963577868326
 20
25.74610237074154
 30
0.0
 10
36.98873668880577
 20
25.758512815937
 30
0.0
 10
36.98774659357564
 20
25.77033394907733
 30
0.0
 10
36.98667816822343
 20
25.78152524891903
 30
0.0
 10
36.98554409623824
 20
25.79204620132057
 30
0.0
 10
36.98435717812194
 20
25.80185632770241
 30
0.0
 10
36.98313003321878
 20
25.81091512841908
 30
0.0
 10
36.98187619575089
 20
25.8191823392238
 30
0.0
 10
36.98060672866198
 20
25.82661722553544
 30
0.0
 10
36.97934132829728
 20
25.83318108943615
 30
0.0
 10
36.97816894923668
 20
25.83840875595999
 30
0.0
 10
36.97713181965065
 20
25.8425486219943
 30
0.0
 10
36.97652331598755
 20
25.84480246517495
 30
0.0
 10
36.97620656019117
 20
25.84590097899542
 30
0.0
 11
36.97620656019117
 21
25.47730964843192
 31
0.0
 11
36.9771085274156
 21
25.48061872632883
 31
0.0
 11
36.97797657982793
 21
25.48408455117948
 31
0.0
 11
36.97924844625371
 21
25.48974433678921
 31
0.0
 11
36.98052955435751
 21
25.49631918864861
 31
0.0
 11
36.98180730669927
 21
25.50376836882987
 31
0.0
 11
36.98306910583884
 21
25.51205113940506
 31
0.0
 11
36.98430235433622
 21
25.52112676244633
 31
0.0
 11
36.98549445475132
 21
25.53095450002582
 31
0.0
 11
36.98663280964408
 21
25.54149361421565
 31
0.0
 11
36.9877048215744
 21
25.55270336708804
 31
0.0
 11
36.98869789310223
 21
25.56454302071501
 31
0.0
 11
36.98959942678758
 21
25.5769718371688
 31
0.0
 11
36.99039682519018
 21
25.5899490785215
 31
0.0
 11
36.99107749087014
 21
25.60343400684525
 31
0.0
 11
36.99162882638731
 21
25.61738588421224
 31
0.0
 11
36.99203823430165
 21
25.6317639726945
 31
0.0
 11
36.99229311717309
 21
25.64652753436423
 31
0.0
 11
36.99238087756149
 21
25.66163583129361
 31
0.0
 11
36.99229311717355
 21
25.67674344276952
 31
0.0
 11
36.99203823430244
 21
25.69150506728818
 31
0.0
 11
36.99162882638828
 21
25.70588014573571
 31
0.0
 11
36.99107749087128
 21
25.71982811899824
 31
0.0
 11
36.99039682519137
 21
25.73330842796173
 31
0.0
 11
36.98959942678872
 21
25.74628051351232
 31
0.0
 11
36.98869789310336
 21
25.75870381653619
 31
0.0
 11
36.98770482157542
 21
25.77053777791923
 31
0.0
 11
36.98663280964493
 21
25.7817418385477
 31
0.0
 11
36.98549445475206
 21
25.79227543930756
 31
0.0
 11
36.98430235433673
 21
25.80209802108499
 31
0.0
 11
36.98306910583918
 21
25.811169024766
 31
0.0
 11
36.9818073066995
 21
25.81944789123673
 31
0.0
 11
36.98052955435762
 21
25.8268940613832
 31
0.0
 11
36.97924844625376
 21
25.83346697609159
 31
0.0
 11
36.97797657982793
 21
25.83912607624785
 31
0.0
 11
36.9771085274156
 21
25.8425919010985
 31
0.0
 11
36.97620656019117
 21
25.84590097899542
 31
0.0
  0
SPLINE
  5
F3
330
2
100
AcDbEntity
  8
GAIKEI
  6
Continuous
 62
     1
100
AcDbSpline
210
0.0
220
0.0
230
1.0
 70
     8
 71
     3
 72
     9
 73
     5
 74
     3
 42
0.0000000001
 43
0.0000000001
 44
0.000001
 12
-0.1261500648611508
 22
-0.9920111698642951
 32
0.0
 13
-0.1054054122280503
 23
-0.9944293333731838
 33
0.0
 40
0.0
 40
0.0
 40
0.0
 40
0.0
 40
0.0069139016789863
 40
0.014195297022069
 40
0.014195297022069
 40
0.014195297022069
 40
0.014195297022069
 10
36.96747853232719
 20
12.38917410269323
 30
0.0
 10
36.96718780261212
 20
12.38688788012894
 30
0.0
 10
36.96661263008284
 20
12.38219112269698
 30
0.0
 10
36.96608641583613
 20
12.37748859179811
 30
0.0
 10
36.96583058301022
 20
12.37507498075911
 30
0.0
 11
36.96747853232719
 21
12.38917410269323
 31
0.0
 11
36.96663902646688
 21
12.38231137016805
 31
0.0
 11
36.96583058301022
 21
12.37507498075911
 31
0.0
  0
SPLINE
  5
F4
330
2
100
AcDbEntity
  8
GAIKEI
  6
Continuous
 62
     1
100
AcDbSpline
210
0.0
220
0.0
230
1.0
 70
     8
 71
     3
 72
     9
 73
     5
 74
     3
 42
0.0000000001
 43
0.0000000001
 44
0.000001
 12
-0.0569605106606471
 22
-0.9983764321263189
 32
0.0
 13
-0.0342601710533544
 23
-0.9994129480246865
 33
0.0
 40
0.0
 40
0.0
 40
0.0
 40
0.0
 40
0.0140186829178258
 40
0.0285326849080198
 40
0.0285326849080198
 40
0.0285326849080198
 40
0.0285326849080198
 10
36.96210743825705
 20
12.32868825924424
 30
0.0
 10
36.96184126781112
 20
12.32402295169936
 30
0.0
 10
36.96136220873106
 20
12.31452385215746
 30
0.0
 10
36.96099145062969
 20
12.30502000008212
 30
0.0
 10
36.9608256998994
 20
12.30018483957656
 30
0.0
 11
36.96210743825705
 21
12.32868825924424
 31
0.0
 11
36.96139700637914
 21
12.31468753713392
 31
0.0
 11
36.9608256998994
 21
12.30018483957656
 31
0.0
  0
SPLINE
  5
F5
330
2
100
AcDbEntity
  8
GAIKEI
  6
Continuous
 62
     1
100
AcDbSpline
210
0.0
220
0.0
230
1.0
 70
     8
 71
     3
 72
     9
 73
     5
 74
     3
 42
0.0000000001
 43
0.0000000001
 44
0.000001
 12
-0.0091608177041735
 22
-0.9999580388291255
 32
0.0
 13
0.003597856109263
 23
-0.9999935276947631
 33
0.0
 40
0.0
 40
0.0
 40
0.0
 40
0.0
 40
0.0093018293768903
 40
0.0186159185134005
 40
0.0186159185134005
 40
0.0186159185134005
 40
0.0186159185134005
 10
36.96009327798075
 20
12.26496755232119
 30
0.0
 10
36.96006487385967
 20
12.26186707263412
 30
0.0
 10
36.96002318349906
 20
12.25566187342554
 30
0.0
 10
36.96002107257003
 20
12.24945650483965
 30
0.0
 10
36.96003224282086
 20
12.24635182855536
 30
0.0
 11
36.96009327798075
 21
12.26496755232119
 31
0.0
 11
36.96003317362695
 21
12.25566593216257
 31
0.0
 11
36.96003224282086
 21
12.24635182855536
 31
0.0
  0
SPLINE
  5
F6
330
2
100
AcDbEntity
  8
GAIKEI
  6
Continuous
 62
     1
100
AcDbSpline
210
0.0
220
0.0
230
1.0
 70
     8
 71
     3
 72
     9
 73
     5
 74
     3
 42
0.0000000001
 43
0.0000000001
 44
0.000001
 12
0.035394893594903
 22
-0.9993734044427066
 32
0.0
 13
0.0453961719075586
 23
-0.9989690623718731
 33
0.0
 40
0.0
 40
0.0
 40
0.0
 40
0.0
 40
0.0065206358170787
 40
0.012951148985336
 40
0.012951148985336
 40
0.012951148985336
 40
0.012951148985336
 10
36.96088673505929
 20
12.20149098603769
 30
0.0
 10
36.96096366746294
 20
12.19931880269914
 30
0.0
 10
36.96114050585232
 20
12.19500531620105
 30
0.0
 10
36.96133874460453
 20
12.19069282671154
 30
0.0
 10
36.96143605149828
 20
12.18855153214144
 30
0.0
 11
36.96088673505929
 21
12.20149098603769
 31
0.0
 11
36.96114698937029
 21
12.19497551275481
 31
0.0
 11
36.96143605149828
 21
12.18855153214144
 31
0.0
  0
SPLINE
  5
F7
330
2
100
AcDbEntity
  8
GAIKEI
  6
Continuous
 62
     1
100
AcDbSpline
210
0.0
220
0.0
230
1.0
 70
     8
 71
     3
 72
     9
 73
     5
 74
     3
 42
0.0000000001
 43
0.0000000001
 44
0.000001
 12
0.1008215918041188
 22
-0.9949045213617655
 32
0.0
 13
0.1320410088821702
 23
-0.9912442544465912
 33
0.0
 40
0.0
 40
0.0
 40
0.0
 40
0.0
 40
0.0110434410636127
 40
0.021259479364179
 40
0.021259479364179
 40
0.021259479364179
 40
0.021259479364179
 10
36.96546437205089
 20
12.13172779828574
 30
0.0
 10
36.96583551115323
 20
12.12806540847054
 30
0.0
 10
36.96658982478104
 20
12.12101894107439
 30
0.0
 10
36.96745613311174
 20
12.11398516272072
 30
0.0
 10
36.96790577844641
 20
12.11060963296449
 30
0.0
 11
36.96546437205089
 21
12.13172779828574
 31
0.0
 11
36.9666502695101
 21
12.12074835198012
 31
0.0
 11
36.96790577844641
 21
12.11060963296449
 31
0.0
  0
SPLINE
  5
F8
330
2
100
AcDbEntity
  8
GAIKEI
  6
Continuous
 62
     1
100
AcDbSpline
210
0.0
220
0.0
230
1.0
 70
     8
 71
     3
 72
     9
 73
     5
 74
     3
 42
0.0000000001
 43
0.0000000001
 44
0.000001
 12
0.1646380104571948
 22
-0.9863540568744555
 32
0.0
 13
0.2982273181557149
 23
-0.9544948751594478
 33
0.0
 40
0.0
 40
0.0
 40
0.0
 40
0.0
 40
0.0034886175919163
 40
0.0063125319358735
 40
0.0063125319358735
 40
0.0063125319358735
 40
0.0063125319358735
 10
36.97028614968204
 20
12.09480152655351
 30
0.0
 10
36.97047760270191
 20
12.09365452251529
 30
0.0
 10
36.97084908477531
 20
12.09158323948625
 30
0.0
 10
36.97134820039908
 20
12.08953544599455
 30
0.0
 10
36.97162892319957
 20
12.08863697540482
 30
0.0
 11
36.97028614968204
 21
12.09480152655351
 31
0.0
 11
36.97092807311813
 21
12.09137276636448
 31
0.0
 11
36.97162892319957
 21
12.08863697540482
 31
0.0
  0
SPLINE
  5
F9
330
2
100
AcDbEntity
  8
GAIKEI
  6
Continuous
 62
     1
100
AcDbSpline
210
0.0
220
0.0
230
1.0
 70
     8
 71
     3
 72
     9
 73
     5
 74
     3
 42
0.0000000001
 43
0.0000000001
 44
0.000001
 12
-0.1261518379468331
 22
-0.9920109443865204
 32
0.0
 13
-0.1054039013669571
 23
-0.9944294935170743
 33
0.0
 40
0.0
 40
0.0
 40
0.0
 40
0.0
 40
0.0069138441174286
 40
0.0141952970832104
 40
0.0141952970832104
 40
0.0141952970832104
 40
0.0141952970832104
 10
36.96747853232719
 20
25.79914804652123
 30
0.0
 10
36.96718780094629
 20
25.79686184351047
 30
0.0
 10
36.9666126245369
 20
25.79216508650342
 30
0.0
 10
36.96608641419363
 20
25.78746255511538
 30
0.0
 10
36.96583058301022
 20
25.7850489245871
 30
0.0
 11
36.96747853232719
 21
25.79914804652123
 31
0.0
 11
36.96663902157744
 21
25.79228537255295
 31
0.0
 11
36.96583058301022
 21
25.7850489245871
 31
0.0
  0
SPLINE
  5
FA
330
2
100
AcDbEntity
  8
GAIKEI
  6
Continuous
 62
     1
100
AcDbSpline
210
0.0
220
0.0
230
1.0
 70
     8
 71
     3
 72
     9
 73
     5
 74
     3
 42
0.0000000001
 43
0.0000000001
 44
0.000001
 12
-0.0569611709790511
 22
-0.9983763944528613
 32
0.0
 13
-0.0342607908576336
 23
-0.9994129267774203
 33
0.0
 40
0.0
 40
0.0
 40
0.0
 40
0.0
 40
0.0140491508217488
 40
0.0285936597046068
 40
0.0285936597046068
 40
0.0285936597046068
 40
0.0285936597046068
 10
36.96210743825705
 20
25.73872323823213
 30
0.0
 10
36.96184068622969
 20
25.73404779138463
 30
0.0
 10
36.96136195361579
 20
25.72452831582166
 30
0.0
 10
36.96099180202506
 20
25.71500410680162
 30
0.0
 10
36.9608256998994
 20
25.71015878340455
 30
0.0
 11
36.96210743825705
 21
25.73872323823213
 31
0.0
 11
36.96139700672839
 21
25.72469200226715
 31
0.0
 11
36.9608256998994
 21
25.71015878340455
 31
0.0
  0
SPLINE
  5
FB
330
2
100
AcDbEntity
  8
GAIKEI
  6
Continuous
 62
     1
100
AcDbSpline
210
0.0
220
0.0
230
1.0
 70
     8
 71
     3
 72
     9
 73
     5
 74
     3
 42
0.0000000001
 43
0.0000000001
 44
0.000001
 12
-0.0091614349012668
 22
-0.9999580331746678
 32
0.0
 13
0.0035961960669798
 23
-0.9999935336660172
 33
0.0
 40
0.0
 40
0.0
 40
0.0
 40
0.0
 40
0.0092713104755241
 40
0.0185548833565438
 40
0.0185548833565438
 40
0.0185548833565438
 40
0.0185548833565438
 10
36.96009327798075
 20
25.67494149614919
 30
0.0
 10
36.96006496514495
 20
25.67185118901984
 30
0.0
 10
36.96002331657559
 20
25.66566633542087
 30
0.0
 10
36.96002111430477
 20
25.65948131182668
 30
0.0
 10
36.96003224282086
 20
25.65638680754324
 30
0.0
 11
36.96009327798075
 21
25.67494149614919
 31
0.0
 11
36.96003317849457
 21
25.6656703954331
 31
0.0
 11
36.96003224282086
 21
25.65638680754324
 31
0.0
  0
SPLINE
  5
FC
330
2
100
AcDbEntity
  8
GAIKEI
  6
Continuous
 62
     1
100
AcDbSpline
210
0.0
220
0.0
230
1.0
 70
     8
 71
     3
 72
     9
 73
     5
 74
     3
 42
0.0000000001
 43
0.0000000001
 44
0.000001
 12
0.0354014571428636
 22
-0.9993731719593847
 32
0.0
 13
0.0453932351704914
 23
-0.9989691958217512
 33
0.0
 40
0.0
 40
0.0
 40
0.0
 40
0.0
 40
0.0065510483115725
 40
0.0130121296136598
 40
0.0130121296136598
 40
0.0130121296136598
 40
0.0130121296136598
 10
36.96088673505929
 20
25.61152596502558
 30
0.0
 10
36.9609640406113
 20
25.60934365104865
 30
0.0
 10
36.96114041431841
 20
25.60500980608643
 30
0.0
 10
36.96133828837061
 20
25.60067694970027
 30
0.0
 10
36.96143605149828
 20
25.59852547596944
 30
0.0
 11
36.96088673505929
 21
25.61152596502558
 31
0.0
 11
36.96114701698983
 21
25.60498005961159
 31
0.0
 11
36.96143605149828
 21
25.59852547596944
 31
0.0
  0
SPLINE
  5
FD
330
2
100
AcDbEntity
  8
GAIKEI
  6
Continuous
 62
     1
100
AcDbSpline
210
0.0
220
0.0
230
1.0
 70
     8
 71
     3
 72
     9
 73
     5
 74
     3
 42
0.0000000001
 43
0.0000000001
 44
0.000001
 12
0.1008208793748643
 22
-0.994904593557633
 32
0.0
 13
0.1320556432458019
 23
-0.9912423049320167
 33
0.0
 40
0.0
 40
0.0
 40
0.0
 40
0.0
 40
0.0110438235454782
 40
0.0212594800383576
 40
0.0212594800383576
 40
0.0212594800383576
 40
0.0212594800383576
 10
36.96546437205089
 20
25.54170174211373
 30
0.0
 10
36.96583552138474
 20
25.53803922518844
 30
0.0
 10
36.96658978254923
 20
25.53099275216209
 30
0.0
 10
36.9674561000833
 20
25.5239589737553
 30
0.0
 10
36.96790577844641
 20
25.52058357679249
 30
0.0
 11
36.96546437205089
 21
25.54170174211373
 31
0.0
 11
36.9666502406391
 21
25.53072190837793
 31
0.0
 11
36.96790577844641
 21
25.52058357679249
 31
0.0
  0
SPLINE
  5
FE
330
2
100
AcDbEntity
  8
GAIKEI
  6
Continuous
 62
     1
100
AcDbSpline
210
0.0
220
0.0
230
1.0
 70
     8
 71
     3
 72
     9
 73
     5
 74
     3
 42
0.0000000001
 43
0.0000000001
 44
0.000001
 12
0.1645792369075682
 22
-0.9863638653047477
 32
0.0
 13
0.2978225556979946
 23
-0.9546212470490665
 33
0.0
 40
0.0
 40
0.0
 40
0.0
 40
0.0
 40
0.0035192682478154
 40
0.0063721167681901
 40
0.0063721167681901
 40
0.0063721167681901
 40
0.0063721167681901
 10
36.97028614968204
 20
25.50483650554139
 30
0.0
 10
36.97047921584295
 20
25.50367941253075
 30
0.0
 10
36.97085052169589
 20
25.50158816582405
 30
0.0
 10
36.97134570898712
 20
25.49951871583687
 30
0.0
 10
36.97162892319957
 20
25.49861091923282
 30
0.0
 11
36.97028614968204
 21
25.50483650554139
 31
0.0
 11
36.97092804017259
 21
25.50137654231895
 31
0.0
 11
36.97162892319957
 21
25.49861091923282
 31
0.0
  0
ELLIPSE
  5
FF
330
2
100
AcDbEntity
  8
GAIKEI
  6
Continuous
 62
     1
100
AcDbEllipse
 10
35.18447415085407
 20
28.09162114568676
 30
0.0
 11
0.0
 21
-0.1249999999999998
 31
0.0
210
0.0
220
0.0
230
1.0
 40
0.0524
 41
0.0
 42
6.283185307179585
  0
ELLIPSE
  5
100
330
2
100
AcDbEntity
  8
GAIKEI
  6
Continuous
 62
     1
100
AcDbEllipse
 10
35.18447415085407
 20
27.55162114568674
 30
0.0
 11
0.0
 21
-0.1249999999999998
 31
0.0
210
0.0
220
0.0
230
1.0
 40
0.0524
 41
0.0
 42
6.283185307179585
  0
ARC
  5
101
330
2
100
AcDbEntity
  8
GAIKEI
  6
Continuous
100
AcDbCircle
 10
36.59342330085408
 20
27.12743079568673
 30
0.0
 40
0.35
100
AcDbArc
 50
282.0947569999954
 51
352.169542999997
  0
LINE
  5
102
330
2
100
AcDbEntity
  8
GAIKEI
  6
Continuous
100
AcDbLine
 10
36.66675850085406
 20
26.78519994568677
 30
0.0
 11
35.15672415085405
 21
26.46162114568677
 31
0.0
  0
LINE
  5
103
330
2
100
AcDbEntity
  8
GAIKEI
  6
Continuous
100
AcDbLine
 10
35.06672410085403
 20
26.46162114568677
 30
0.0
 11
35.15672415085405
 21
26.46162114568677
 31
0.0
  0
LINE
  5
104
330
2
100
AcDbEntity
  8
GAIKEI
  6
Continuous
100
AcDbLine
 10
36.95294665085405
 20
27.17272484568673
 30
0.0
 11
36.94015975085406
 21
27.07974604568676
 31
0.0
  0
LINE
  5
105
330
2
100
AcDbEntity
  8
GAIKEI
  6
Continuous
100
AcDbLine
 10
36.79148475085404
 20
29.34197644568673
 30
0.0
 11
36.50837530085406
 21
27.28336639568676
 31
0.0
  0
ARC
  5
106
330
2
100
AcDbEntity
  8
GAIKEI
  6
Continuous
100
AcDbCircle
 10
36.35977400085406
 20
27.30380274568677
 30
0.0
 40
0.15
100
AcDbArc
 50
272.0000000000037
 51
352.169542999997
  0
LINE
  5
107
330
2
100
AcDbEntity
  8
GAIKEI
  6
Continuous
100
AcDbLine
 10
37.12964535085408
 20
28.45757689568677
 30
0.0
 11
36.95294665085405
 21
27.17272484568673
 31
0.0
  0
LINE
  5
108
330
2
100
AcDbEntity
  8
GAIKEI
  6
Continuous
100
AcDbLine
 10
36.73996960085404
 20
29.34906104568677
 30
0.0
 11
36.46322205085406
 21
27.33671089568673
 31
0.0
  0
LINE
  5
109
330
2
100
AcDbEntity
  8
GAIKEI
  6
Continuous
100
AcDbLine
 10
37.24273745085404
 20
29.27991814568674
 30
0.0
 11
37.12964535085408
 21
28.45757689568677
 31
0.0
  0
ARC
  5
10A
330
2
100
AcDbEntity
  8
GAIKEI
  6
Continuous
100
AcDbCircle
 10
35.75672410085403
 20
29.48428144568675
 30
0.0
 40
1.5
100
AcDbArc
 50
352.169542999997
 51
0.0
  0
ARC
  5
10B
330
2
100
AcDbEntity
  8
GAIKEI
  6
Continuous
100
AcDbCircle
 10
35.75672410085403
 20
29.48428144568675
 30
0.0
 40
0.9925
100
AcDbArc
 50
352.169542999997
 51
0.0
  0
ARC
  5
10C
330
2
100
AcDbEntity
  8
GAIKEI
  6
Continuous
100
AcDbCircle
 10
35.75672410085403
 20
29.48428144568675
 30
0.0
 40
1.044499999999999
100
AcDbArc
 50
352.169542999997
 51
0.0
  0
LINE
  5
10D
330
2
100
AcDbEntity
  8
GAIKEI
  6
Continuous
100
AcDbLine
 10
35.31195905085409
 20
27.11704209568677
 30
0.0
 11
36.36501165085403
 21
27.15381549568673
 31
0.0
  0
ARC
  5
10E
330
2
100
AcDbEntity
  8
GAIKEI
  6
Continuous
100
AcDbCircle
 10
35.30672415085408
 20
27.26695069568677
 30
0.0
 40
0.15
100
AcDbArc
 50
180.0
 51
272.0000000000037
  0
LINE
  5
10F
330
2
100
AcDbEntity
  8
GAIKEI
  6
Continuous
100
AcDbLine
 10
35.25346910085406
 20
27.15824954568677
 30
0.0
 11
35.61121500085406
 21
27.17074234568674
 31
0.0
  0
ARC
  5
110
330
2
100
AcDbEntity
  8
GAIKEI
  6
Continuous
 62
     1
100
AcDbCircle
 10
35.65672415085405
 20
27.32242299568674
 30
0.0
 40
0.15
100
AcDbArc
 50
180.0
 51
252.2145029999985
  0
LINE
  5
111
330
2
100
AcDbEntity
  8
GAIKEI
  6
Continuous
100
AcDbLine
 10
35.61121500085406
 20
27.17074234568674
 30
0.0
 11
35.61090600085405
 21
27.17959194568675
 31
0.0
  0
LINE
  5
112
330
2
100
AcDbEntity
  8
GAIKEI
  6
Continuous
100
AcDbLine
 10
35.60340430085407
 20
27.18221959568678
 30
0.0
 11
36.31985565085407
 21
27.20723859568676
 31
0.0
  0
ARC
  5
113
330
2
100
AcDbEntity
  8
GAIKEI
  6
Continuous
100
AcDbCircle
 10
36.31462070085402
 20
27.35714724568675
 30
0.0
 40
0.15
100
AcDbArc
 50
272.0000000000037
 51
352.169542999997
  0
ARC
  5
114
330
2
100
AcDbEntity
  8
GAIKEI
  6
Continuous
100
AcDbCircle
 10
35.25172415085407
 20
27.20821909568673
 30
0.0
 40
0.05
100
AcDbArc
 50
180.0
 51
272.0000000000037
  0
LINE
  5
115
330
2
100
AcDbEntity
  8
GAIKEI
  6
Continuous
100
AcDbLine
 10
35.20172415085407
 20
27.20821909568673
 30
0.0
 11
35.20172415085407
 21
32.21502319568674
 31
0.0
  0
LINE
  5
116
330
2
100
AcDbEntity
  8
GAIKEI
  6
Continuous
 62
     1
100
AcDbLine
 10
35.50672415085407
 20
27.32242299568674
 30
0.0
 11
35.50672415085407
 21
32.10081934568677
 31
0.0
  0
ELLIPSE
  5
117
330
2
100
AcDbEntity
  8
GAIKEI
  6
Continuous
 62
     1
100
AcDbEllipse
 10
35.18447415085407
 20
31.33162114568677
 30
0.0
 11
0.0
 21
0.1249999999999998
 31
0.0
210
0.0
220
0.0
230
1.0
 40
0.0524
 41
0.0
 42
6.283185307179585
  0
ELLIPSE
  5
118
330
2
100
AcDbEntity
  8
GAIKEI
  6
Continuous
 62
     1
100
AcDbEllipse
 10
35.18447415085407
 20
31.87162114568673
 30
0.0
 11
0.0
 21
0.1249999999999998
 31
0.0
210
0.0
220
0.0
230
1.0
 40
0.0524
 41
0.0
 42
6.283185307179585
  0
ARC
  5
119
330
2
100
AcDbEntity
  8
GAIKEI
  6
Continuous
100
AcDbCircle
 10
36.59342330085408
 20
32.29581149568673
 30
0.0
 40
0.35
100
AcDbArc
 50
7.830457000002985
 51
77.90524300000466
  0
LINE
  5
11A
330
2
100
AcDbEntity
  8
GAIKEI
  6
Continuous
100
AcDbLine
 10
36.66675850085406
 20
32.63804234568676
 30
0.0
 11
35.15672415085405
 21
32.96162114568677
 31
0.0
  0
LINE
  5
11B
330
2
100
AcDbEntity
  8
GAIKEI
  6
Continuous
100
AcDbLine
 10
35.06672410085403
 20
32.96162114568677
 30
0.0
 11
35.15672415085405
 21
32.96162114568677
 31
0.0
  0
LINE
  5
11C
330
2
100
AcDbEntity
  8
GAIKEI
  6
Continuous
100
AcDbLine
 10
36.95294665085405
 20
32.25051749568673
 30
0.0
 11
36.94015975085406
 21
32.34349629568675
 31
0.0
  0
LINE
  5
11D
330
2
100
AcDbEntity
  8
GAIKEI
  6
Continuous
100
AcDbLine
 10
36.79148475085404
 20
30.08126584568675
 30
0.0
 11
36.50837530085406
 21
32.13987589568677
 31
0.0
  0
ARC
  5
11E
330
2
100
AcDbEntity
  8
GAIKEI
  6
Continuous
100
AcDbCircle
 10
36.35977400085406
 20
32.11943959568674
 30
0.0
 40
0.15
100
AcDbArc
 50
7.830457000002985
 51
87.99999999999633
  0
LINE
  5
11F
330
2
100
AcDbEntity
  8
GAIKEI
  6
Continuous
100
AcDbLine
 10
37.12964535085408
 20
30.96566539568676
 30
0.0
 11
36.95294665085405
 21
32.25051749568673
 31
0.0
  0
LINE
  5
120
330
2
100
AcDbEntity
  8
GAIKEI
  6
Continuous
100
AcDbLine
 10
36.73996960085404
 20
30.07418124568676
 30
0.0
 11
36.46322205085406
 21
32.08653139568673
 31
0.0
  0
LINE
  5
121
330
2
100
AcDbEntity
  8
GAIKEI
  6
Continuous
100
AcDbLine
 10
37.24273745085404
 20
30.14332419568678
 30
0.0
 11
37.12964535085408
 21
30.96566539568676
 31
0.0
  0
ARC
  5
122
330
2
100
AcDbEntity
  8
GAIKEI
  6
Continuous
100
AcDbCircle
 10
35.75672410085403
 20
29.93896089568676
 30
0.0
 40
1.5
100
AcDbArc
 50
0.0
 51
7.830457000002985
  0
LINE
  5
123
330
2
100
AcDbEntity
  8
GAIKEI
  6
Continuous
100
AcDbLine
 10
36.80122415085404
 20
29.48428144568675
 30
0.0
 11
36.80122415085404
 21
29.93896089568676
 31
0.0
  0
LINE
  5
124
330
2
100
AcDbEntity
  8
GAIKEI
  6
Continuous
100
AcDbLine
 10
36.74922415085408
 20
29.48428144568675
 30
0.0
 11
36.74922415085408
 21
29.93896089568676
 31
0.0
  0
ARC
  5
125
330
2
100
AcDbEntity
  8
GAIKEI
  6
Continuous
100
AcDbCircle
 10
35.75672410085403
 20
29.93896089568676
 30
0.0
 40
0.9925
100
AcDbArc
 50
0.0
 51
7.830457000002985
  0
ARC
  5
126
330
2
100
AcDbEntity
  8
GAIKEI
  6
Continuous
100
AcDbCircle
 10
35.75672410085403
 20
29.93896089568676
 30
0.0
 40
1.044499999999999
100
AcDbArc
 50
0.0
 51
7.830457000002985
  0
LINE
  5
127
330
2
100
AcDbEntity
  8
GAIKEI
  6
Continuous
100
AcDbLine
 10
37.25672410085403
 20
29.48428144568675
 30
0.0
 11
37.25672410085403
 21
29.93896089568676
 31
0.0
  0
LINE
  5
128
330
2
100
AcDbEntity
  8
GAIKEI
  6
Continuous
100
AcDbLine
 10
35.15672415085405
 20
27.26695069568677
 30
0.0
 11
35.15672415085405
 21
32.15629159568675
 31
0.0
  0
LINE
  5
129
330
2
100
AcDbEntity
  8
GAIKEI
  6
Continuous
100
AcDbLine
 10
35.31195905085409
 20
32.30620024568674
 30
0.0
 11
36.36501165085403
 21
32.26942684568673
 31
0.0
  0
ARC
  5
12A
330
2
100
AcDbEntity
  8
GAIKEI
  6
Continuous
100
AcDbCircle
 10
35.30672415085408
 20
32.15629159568675
 30
0.0
 40
0.15
100
AcDbArc
 50
87.99999999999633
 51
180.0
  0
LINE
  5
12B
330
2
100
AcDbEntity
  8
GAIKEI
  6
Continuous
100
AcDbLine
 10
35.25346910085406
 20
32.26499274568676
 30
0.0
 11
35.61121500085406
 21
32.25249999568672
 31
0.0
  0
ARC
  5
12C
330
2
100
AcDbEntity
  8
GAIKEI
  6
Continuous
 62
     1
100
AcDbCircle
 10
35.65672415085405
 20
32.10081934568677
 30
0.0
 40
0.15
100
AcDbArc
 50
107.7854970000014
 51
180.0
  0
LINE
  5
12D
330
2
100
AcDbEntity
  8
GAIKEI
  6
Continuous
100
AcDbLine
 10
35.61121500085406
 20
32.25249999568672
 30
0.0
 11
35.61090600085405
 21
32.24365034568677
 31
0.0
  0
LINE
  5
12E
330
2
100
AcDbEntity
  8
GAIKEI
  6
Continuous
100
AcDbLine
 10
35.60340430085407
 20
32.24102274568674
 30
0.0
 11
36.31985565085407
 21
32.21600369568677
 31
0.0
  0
ARC
  5
12F
330
2
100
AcDbEntity
  8
GAIKEI
  6
Continuous
100
AcDbCircle
 10
36.31462070085402
 20
32.06609509568676
 30
0.0
 40
0.15
100
AcDbArc
 50
7.830457000002985
 51
87.99999999999633
  0
ARC
  5
130
330
2
100
AcDbEntity
  8
GAIKEI
  6
Continuous
100
AcDbCircle
 10
35.25172415085407
 20
32.21502319568674
 30
0.0
 40
0.05
100
AcDbArc
 50
87.99999999999633
 51
180.0
  0
LINE
  5
131
330
2
100
AcDbEntity
  8
GAIKEI
  6
Continuous
100
AcDbLine
 10
35.06672410085403
 20
34.10895634568675
 30
0.0
 11
35.06672410085403
 21
33.95915169568673
 31
0.0
  0
LINE
  5
132
330
2
100
AcDbEntity
  8
GAIKEI
  6
Continuous
100
AcDbLine
 10
32.87443915085404
 20
33.78873494568677
 30
0.0
 11
33.01471605085405
 21
34.01227559568673
 31
0.0
  0
LINE
  5
133
330
2
100
AcDbEntity
  8
GAIKEI
  6
Continuous
100
AcDbLine
 10
33.01471625085404
 20
34.01226709568675
 30
0.0
 11
33.02108695085408
 21
34.02241924568676
 31
0.0
  0
LINE
  5
134
330
2
100
AcDbEntity
  8
GAIKEI
  6
Continuous
100
AcDbLine
 10
33.08053335085404
 20
34.05755489568674
 30
0.0
 11
35.01402490085403
 21
34.15888489568676
 31
0.0
  0
LINE
  5
135
330
2
100
AcDbEntity
  8
GAIKEI
  6
Continuous
100
AcDbLine
 10
32.86672410085405
 20
33.76225224568674
 30
0.0
 11
32.86672410085405
 21
33.68251594568676
 31
0.0
  0
ARC
  5
136
330
2
100
AcDbEntity
  8
GAIKEI
  6
Continuous
100
AcDbCircle
 10
35.01672410085408
 20
34.10895634568675
 30
0.0
 40
0.05
100
AcDbArc
 50
0.0000359999984121
 51
93.00000100000309
  0
ARC
  5
137
330
2
100
AcDbEntity
  8
GAIKEI
  6
Continuous
100
AcDbCircle
 10
33.08449755085408
 20
33.98265019568674
 30
0.0
 40
0.075
100
AcDbArc
 50
93.00000100000309
 51
147.8907859999987
  0
ARC
  5
138
330
2
100
AcDbEntity
  8
GAIKEI
  6
Continuous
100
AcDbCircle
 10
32.91672410085406
 20
33.76225224568674
 30
0.0
 40
0.05
100
AcDbArc
 50
147.8907859999987
 51
180.0
  0
LINE
  5
139
330
2
100
AcDbEntity
  8
GAIKEI
  6
Continuous
 62
     1
100
AcDbLine
 10
35.01401685085407
 20
33.95914789568673
 30
0.0
 11
33.08053750085404
 21
33.85781849568673
 31
0.0
  0
LINE
  5
13A
330
2
100
AcDbEntity
  8
GAIKEI
  6
Continuous
 62
     1
100
AcDbLine
 10
33.01466480085404
 20
33.90600084568672
 30
0.0
 11
32.87438785085405
 21
33.68246014568672
 31
0.0
  0
LINE
  5
13B
330
2
100
AcDbEntity
  8
GAIKEI
  6
Continuous
 62
     1
100
AcDbLine
 10
35.01418505085408
 20
33.95915169568673
 30
0.0
 11
35.06672410085403
 21
33.95915169568673
 31
0.0
  0
LINE
  5
13C
330
2
100
AcDbEntity
  8
GAIKEI
  6
Continuous
 62
     1
100
AcDbLine
 10
33.02102100085406
 20
33.85782109568675
 30
0.0
 11
33.08059130085408
 21
33.85782109568675
 31
0.0
  0
LINE
  5
13D
330
2
100
AcDbEntity
  8
GAIKEI
  6
Continuous
 62
     1
100
AcDbLine
 10
32.87434130085407
 20
33.68251594568676
 30
0.0
 11
32.86672410085405
 21
33.68251594568676
 31
0.0
  0
SPLINE
  5
13E
330
2
100
AcDbEntity
  8
GAIKEI
  6
Continuous
 62
     1
100
AcDbSpline
210
0.0
220
0.0
230
1.0
 70
     8
 71
     3
 72
     9
 73
     5
 74
     3
 42
0.0000000001
 43
0.0000000001
 44
0.000001
 12
0.1809456865258911
 22
-0.9834930902287387
 32
0.0
 13
0.0194233923575108
 23
-0.9998113481198972
 33
0.0
 40
0.0
 40
0.0
 40
0.0
 40
0.0
 40
0.0379349179422125
 40
0.0777433278263212
 40
0.0777433278263212
 40
0.0777433278263212
 40
0.0777433278263212
 10
33.07297412129825
 20
33.93514044761366
 30
0.0
 10
33.07526217455504
 20
33.92270420438882
 30
0.0
 10
33.0787908634497
 20
33.89699785889806
 30
0.0
 10
33.0803335706768
 20
33.87110028535829
 30
0.0
 10
33.08059130879823
 20
33.85783331870738
 30
0.0
 11
33.07297412129825
 21
33.93514044761366
 31
0.0
 11
33.07823199751559
 21
33.89757159232801
 31
0.0
 11
33.08059130879823
 21
33.85783331870738
 31
0.0
  0
SPLINE
  5
13F
330
2
100
AcDbEntity
  8
GAIKEI
  6
Continuous
 62
     1
100
AcDbSpline
210
0.0
220
0.0
230
1.0
 70
     8
 71
     3
 72
     9
 73
     5
 74
     3
 42
0.0000000001
 43
0.0000000001
 44
0.000001
 12
-0.3896843379679151
 22
-0.9209484875618764
 32
0.0
 13
0.1811790978866817
 23
-0.9834501179464915
 33
0.0
 40
0.0
 40
0.0
 40
0.0
 40
0.0
 40
0.0436293659992932
 40
0.107099369114553
 40
0.107099369114553
 40
0.107099369114553
 40
0.107099369114553
 10
33.07297412129825
 20
34.04143927573864
 30
0.0
 10
33.06730689442978
 20
34.02804580952852
 30
0.0
 10
33.06511678744384
 20
33.99118904999153
 30
0.0
 10
33.06914097532915
 20
33.95594697496358
 30
0.0
 10
33.07297412129825
 20
33.93514044761366
 30
0.0
 11
33.07297412129825
 21
34.04143927573864
 31
0.0
 11
33.06655465635245
 21
33.9982843863935
 31
0.0
 11
33.07297412129825
 21
33.93514044761366
 31
0.0
  0
SPLINE
  5
140
330
2
100
AcDbEntity
  8
GAIKEI
  6
Continuous
 62
     1
100
AcDbSpline
210
0.0
220
0.0
230
1.0
 70
     8
 71
     3
 72
     9
 73
     5
 74
     3
 42
0.0000000001
 43
0.0000000001
 44
0.000001
 12
-0.9989303325859211
 22
-0.0462405735234906
 32
0.0
 13
-0.3891051082920192
 23
-0.9211933644469308
 33
0.0
 40
0.0
 40
0.0
 40
0.0
 40
0.0
 40
0.0047938543373473
 40
0.0178404975019817
 40
0.0178404975019817
 40
0.0178404975019817
 40
0.0178404975019817
 10
33.08059130879823
 20
34.05755255698864
 30
0.0
 10
33.07899506662905
 20
34.05747866679732
 30
0.0
 10
33.07784745466398
 20
34.04925976497594
 30
0.0
 10
33.07466629313206
 20
34.04544543610916
 30
0.0
 10
33.07297412129825
 20
34.04143927573864
 30
0.0
 11
33.08059130879823
 21
34.05755255698864
 31
0.0
 11
33.07823199751559
 21
34.053378883228
 31
0.0
 11
33.07297412129825
 21
34.04143927573864
 31
0.0
  0
SPLINE
  5
141
330
2
100
AcDbEntity
  8
GAIKEI
  6
Continuous
 62
     1
100
AcDbSpline
210
0.0
220
0.0
230
1.0
 70
     8
 71
     3
 72
     9
 73
     5
 74
     3
 42
0.0000000001
 43
0.0000000001
 44
0.000001
 12
-0.013160041142413
 22
0.999913402909037
 32
0.0
 13
0.9982350858631345
 23
0.0593861377075533
 33
0.0
 40
0.0
 40
0.0
 40
0.0
 40
0.0
 40
0.1406210867696496
 40
0.1997324418876455
 40
0.1997324418876455
 40
0.1997324418876455
 40
0.1997324418876455
 10
35.01418505879823
 20
33.95916388511364
 30
0.0
 10
35.01356819903577
 20
34.00603352157785
 30
0.0
 10
35.0351946574777
 20
34.05057721920039
 30
0.0
 10
34.99451604924767
 20
34.15771299170319
 30
0.0
 10
35.01418505879823
 20
34.1588831233949
 30
0.0
 11
35.01418505879823
 21
33.95916388511364
 31
0.0
 11
35.01313747810903
 21
34.09978036763317
 31
0.0
 11
35.01418505879823
 21
34.1588831233949
 31
0.0
  0
SPLINE
  5
142
330
2
100
AcDbEntity
  8
GAIKEI
  6
Continuous
 62
     1
100
AcDbSpline
210
0.0
220
0.0
230
1.0
 70
     8
 71
     3
 72
    11
 73
     7
 74
     5
 42
0.0000000001
 43
0.0000000001
 44
0.000001
 12
-0.5290666453914411
 22
-0.8485802759516904
 32
0.0
 13
0.0727207652946618
 23
-0.9973523400959956
 33
0.0
 40
0.0
 40
0.0
 40
0.0
 40
0.0
 40
0.0042499997892494
 40
0.0119006040293125
 40
0.0517105994363002
 40
0.1067147985146881
 40
0.1067147985146881
 40
0.1067147985146881
 40
0.1067147985146881
 10
32.87434130879822
 20
33.78882697105115
 30
0.0
 10
32.87359179775442
 20
33.78762481571982
 30
0.0
 10
32.87253813645407
 20
33.78370477646266
 30
0.0
 10
32.8704171452017
 20
33.76666552149143
 30
0.0
 10
32.8716246117289
 20
33.73229444922581
 30
0.0
 10
32.87300799298109
 20
33.70080212478356
 30
0.0
 10
32.87434130879822
 20
33.68251593589491
 30
0.0
 11
32.87434130879822
 21
33.78882697105115
 31
0.0
 11
32.87291223230548
 21
33.78482428967658
 31
0.0
 11
32.87180224629825
 21
33.77725470542618
 31
0.0
 11
32.87149340883824
 21
33.73744597465123
 31
0.0
 11
32.87434130879822
 21
33.68251593589491
 31
0.0
  0
SPLINE
  5
143
330
2
100
AcDbEntity
  8
GAIKEI
  6
Continuous
 62
     1
100
AcDbSpline
210
0.0
220
0.0
230
1.0
 70
     8
 71
     3
 72
     9
 73
     5
 74
     3
 42
0.0000000001
 43
0.0000000001
 44
0.000001
 12
-0.3179591382001075
 22
0.9481044174747024
 32
0.0
 13
0.5314035119872484
 23
0.8471188272300517
 33
0.0
 40
0.0
 40
0.0
 40
0.0
 40
0.0
 40
0.0618382027209756
 40
0.1086021855636794
 40
0.1086021855636794
 40
0.1086021855636794
 40
0.1086021855636794
 10
33.01457568379826
 20
33.90606329917614
 30
0.0
 10
33.00802167658325
 20
33.92560632356563
 30
0.0
 10
33.00007444038765
 20
33.96121295475718
 30
0.0
 10
33.00629216889254
 20
33.99915724386707
 30
0.0
 10
33.01457568379826
 20
34.01236212730117
 30
0.0
 11
33.01457568379826
 21
33.90606329917614
 31
0.0
 11
33.00356434109395
 21
33.96691225647635
 31
0.0
 11
33.01457568379826
 21
34.01236212730117
 31
0.0
  0
SPLINE
  5
144
330
2
100
AcDbEntity
  8
GAIKEI
  6
Continuous
 62
     1
100
AcDbSpline
210
0.0
220
0.0
230
1.0
 70
     8
 71
     3
 72
     9
 73
     5
 74
     3
 42
0.0000000001
 43
0.0000000001
 44
0.000001
 12
0.0002033799686629
 22
0.999999979318294
 32
0.0
 13
-0.2676862784602433
 23
0.9635061267704037
 33
0.0
 40
0.0
 40
0.0
 40
0.0
 40
0.0
 40
0.0248819631699059
 40
0.0487674615858262
 40
0.0487674615858262
 40
0.0487674615858262
 40
0.0487674615858262
 10
33.02102099629824
 20
33.85783331870738
 30
0.0
 10
33.0210226831292
 20
33.86612730625916
 30
0.0
 10
33.0199134125349
 20
33.88239864582815
 30
0.0
 10
33.01670695719163
 20
33.89839202448792
 30
0.0
 10
33.01457568379826
 20
33.90606329917614
 30
0.0
 11
33.02102099629824
 21
33.85783331870738
 31
0.0
 11
33.01934385020039
 21
33.88265846438412
 31
0.0
 11
33.01457568379826
 21
33.90606329917614
 31
0.0
  0
SPLINE
  5
145
330
2
100
AcDbEntity
  8
GAIKEI
  6
Continuous
 62
     1
100
AcDbSpline
210
0.0
220
0.0
230
1.0
 70
     8
 71
     3
 72
     9
 73
     5
 74
     3
 42
0.0000000001
 43
0.0000000001
 44
0.000001
 12
0.7133538227200053
 22
0.7008040550758503
 32
0.0
 13
0.9673999115770403
 23
0.2532536496888728
 33
0.0
 40
0.0
 40
0.0
 40
0.0
 40
0.0
 40
0.0295629239674463
 40
0.065658552990337
 40
0.065658552990337
 40
0.065658552990337
 40
0.065658552990337
 10
33.01457568379826
 20
33.90606329917614
 30
0.0
 10
33.02160529207258
 20
33.9129692381749
 30
0.0
 10
33.04084639511365
 20
33.92427863635357
 30
0.0
 10
33.06133448518989
 20
33.93209333101771
 30
0.0
 10
33.07297412129825
 20
33.93514044761366
 30
0.0
 11
33.01457568379826
 21
33.90606329917614
 31
0.0
 11
33.03918554904644
 21
33.9224442749441
 31
0.0
 11
33.07297412129825
 21
33.93514044761366
 31
0.0
  0
SPLINE
  5
146
330
2
100
AcDbEntity
  8
GAIKEI
  6
Continuous
 62
     1
100
AcDbSpline
210
0.0
220
0.0
230
1.0
 70
     8
 71
     3
 72
     9
 73
     5
 74
     3
 42
0.0000000001
 43
0.0000000001
 44
0.000001
 12
0.5315847197080427
 22
0.8470051273592869
 32
0.0
 13
0.9993540111673826
 23
-0.035938285485854
 33
0.0
 40
0.0
 40
0.0
 40
0.0
 40
0.0
 40
0.0328737966681448
 40
0.0674428314280182
 40
0.0674428314280182
 40
0.0674428314280182
 40
0.0674428314280182
 10
33.01457568379826
 20
34.01236212730117
 30
0.0
 10
33.02040075312745
 20
34.02164355207907
 30
0.0
 10
33.03845911600779
 20
34.03709246551461
 30
0.0
 10
33.06145855344842
 20
34.0418533930187
 30
0.0
 10
33.07297412129825
 20
34.04143927573864
 30
0.0
 11
33.01457568379826
 21
34.01236212730117
 31
0.0
 11
33.0391796675581
 21
34.03416564123876
 31
0.0
 11
33.07297412129825
 21
34.04143927573864
 31
0.0
  0
POINT
  5
147
330
2
100
AcDbEntity
  8
GAIKEI
  6
Continuous
100
AcDbPoint
 10
35.06672410085403
 20
3.661635295686721
 30
0.0
  0
LINE
  5
148
330
2
100
AcDbEntity
  8
GAIKEI
  6
Continuous
100
AcDbLine
 10
35.21993970085404
 20
4.831531595686726
 30
0.0
 11
35.99609625085404
 21
4.872208245686749
 31
0.0
  0
LINE
  5
149
330
2
100
AcDbEntity
  8
GAIKEI
  6
Continuous
100
AcDbLine
 10
35.99609730085402
 20
4.872266095686768
 30
0.0
 11
36.35321230085404
 21
4.89098044568675
 31
0.0
  0
LINE
  5
14A
330
2
100
AcDbEntity
  8
GAIKEI
  6
Continuous
100
AcDbLine
 10
36.35327210085407
 20
4.890927045686737
 30
0.0
 11
36.72111445085406
 21
4.910204845686735
 31
0.0
  0
LINE
  5
14B
330
2
100
AcDbEntity
  8
GAIKEI
  6
Continuous
100
AcDbLine
 10
36.98169970085408
 20
5.422071645686742
 30
0.0
 11
36.98169970085408
 21
5.18482794568672
 31
0.0
  0
LINE
  5
14C
330
2
100
AcDbEntity
  8
GAIKEI
  6
Continuous
100
AcDbLine
 10
37.25672415085407
 20
8.106336945686734
 30
0.0
 11
37.25672415085407
 21
8.14314114568674
 31
0.0
  0
ARC
  5
14D
330
2
100
AcDbEntity
  8
GAIKEI
  6
Continuous
100
AcDbCircle
 10
36.70667530085407
 20
5.18482794568672
 30
0.0
 40
0.27499985
100
AcDbArc
 50
273.0000370000035
 51
0.0000359999984121
  0
ARC
  5
14E
330
2
100
AcDbEntity
  8
GAIKEI
  6
Continuous
 62
     1
100
AcDbCircle
 10
36.48169970085408
 20
7.839857445686732
 30
0.0
 40
0.225
100
AcDbArc
 50
115.0000400000023
 51
180.0
  0
ARC
  5
14F
330
2
100
AcDbEntity
  8
GAIKEI
  6
Continuous
 62
     1
100
AcDbCircle
 10
36.14808150085404
 20
7.03663474568674
 30
0.0
 40
0.28861095
100
AcDbArc
 50
295.2165659999993
 51
64.78345099999708
  0
LINE
  5
150
330
2
100
AcDbEntity
  8
GAIKEI
  6
Continuous
 62
     1
100
AcDbLine
 10
36.25672410085403
 20
7.839857445686732
 30
0.0
 11
36.25672410085403
 21
5.889723045686764
 31
0.0
  0
LINE
  5
151
330
2
100
AcDbEntity
  8
GAIKEI
  6
Continuous
 62
     1
100
AcDbLine
 10
36.25672410085403
 20
5.889723045686764
 30
0.0
 11
36.25672410085403
 21
5.146864095686737
 31
0.0
  0
LINE
  5
152
330
2
100
AcDbEntity
  8
GAIKEI
  6
Continuous
100
AcDbLine
 10
36.98171795085406
 20
7.821638695686772
 30
0.0
 11
36.99751800085406
 21
7.825872345686775
 31
0.0
  0
LINE
  5
153
330
2
100
AcDbEntity
  8
GAIKEI
  6
Continuous
100
AcDbLine
 10
36.99744795085408
 20
7.825863145686753
 30
0.0
 11
37.05286605085408
 21
7.84071239568675
 31
0.0
  0
LINE
  5
154
330
2
100
AcDbEntity
  8
GAIKEI
  6
Continuous
 62
     1
100
AcDbLine
 10
36.56586720085406
 20
5.422071645686742
 30
0.0
 11
36.56586720085406
 21
7.957777345686736
 31
0.0
  0
LINE
  5
155
330
2
100
AcDbEntity
  8
GAIKEI
  6
Continuous
 62
     1
100
AcDbLine
 10
36.03888960085405
 20
7.839857445686732
 30
0.0
 11
36.25672410085403
 21
7.839857445686732
 31
0.0
  0
LINE
  5
156
330
2
100
AcDbEntity
  8
GAIKEI
  6
Continuous
 62
     1
100
AcDbLine
 10
36.03888960085405
 20
7.839857445686732
 30
0.0
 11
36.03888960085405
 21
5.889723045686764
 31
0.0
  0
LINE
  5
157
330
2
100
AcDbEntity
  8
GAIKEI
  6
Continuous
 62
     1
100
AcDbLine
 10
36.03891190085406
 20
5.889698495686729
 30
0.0
 11
35.18492025085405
 21
5.844942695686768
 31
0.0
  0
LINE
  5
158
330
2
100
AcDbEntity
  8
GAIKEI
  6
Continuous
 62
     1
100
AcDbLine
 10
36.43495410085407
 20
5.415207545686769
 30
0.0
 11
36.56587795085406
 21
5.422068995686743
 31
0.0
  0
LINE
  5
159
330
2
100
AcDbEntity
  8
GAIKEI
  6
Continuous
 62
     1
100
AcDbLine
 10
36.43494675085404
 20
7.851576195686732
 30
0.0
 11
36.43494675085404
 21
7.064283645686771
 31
0.0
  0
LINE
  5
15A
330
2
100
AcDbEntity
  8
GAIKEI
  6
Continuous
 62
     1
100
AcDbLine
 10
36.43494675085404
 20
7.007642995686751
 30
0.0
 11
36.43494675085404
 21
5.41523569568676
 31
0.0
  0
LINE
  5
15B
330
2
100
AcDbEntity
  8
GAIKEI
  6
Continuous
 62
     1
100
AcDbLine
 10
35.18494670085406
 20
5.84498424568676
 30
0.0
 11
35.06672410085403
 21
5.84498424568676
 31
0.0
  0
SPLINE
  5
15C
330
2
100
AcDbEntity
  8
GAIKEI
  6
Continuous
100
AcDbSpline
210
0.0
220
0.0
230
1.0
 70
     8
 71
     3
 72
     9
 73
     5
 74
     3
 42
0.0000000001
 43
0.0000000001
 44
0.000001
 12
0.6846750867440869
 22
0.7288484242913455
 32
0.0
 13
0.9986280087922194
 23
0.0523650652218333
 33
0.0
 40
0.0
 40
0.0
 40
0.0
 40
0.0
 40
0.0886730334945974
 40
0.1722719318335395
 40
0.1722719318335395
 40
0.1722719318335395
 40
0.1722719318335395
 10
35.06672412129822
 20
4.759566108803312
 30
0.0
 10
35.08696152693147
 20
4.781109175716522
 30
0.0
 10
35.13507331822082
 20
4.815259176427474
 30
0.0
 10
35.1920917672861
 20
4.830097244136084
 30
0.0
 10
35.21991983441458
 20
4.831556464724087
 30
0.0
 11
35.06672412129822
 21
4.759566108803312
 31
0.0
 11
35.13884971166599
 21
4.811147573191135
 31
0.0
 11
35.21991983441458
 21
4.831556464724087
 31
0.0
  0
SPLINE
  5
15D
330
2
100
AcDbEntity
  8
GAIKEI
  6
Continuous
100
AcDbSpline
210
0.0
220
0.0
230
1.0
 70
     8
 71
     3
 72
    11
 73
     7
 74
     5
 42
0.0000000001
 43
0.0000000001
 44
0.000001
 12
0.6795671808267717
 22
0.7336132814658919
 32
0.0
 13
0.9986295107058264
 23
0.0523364151183627
 33
0.0
 40
0.0
 40
0.0
 40
0.0
 40
0.0
 40
0.0012914770038198
 40
0.0025846277514312
 40
0.0904969255271137
 40
0.172245767936448
 40
0.172245767936448
 40
0.172245767936448
 40
0.172245767936448
 10
35.06672412129822
 20
4.759908097776474
 30
0.0
 10
35.06701666976042
 20
4.76022391267071
 30
0.0
 10
35.06760411100387
 20
4.760854152994596
 30
0.0
 10
35.08830690695112
 20
4.782792370702253
 30
0.0
 10
35.13649286349391
 20
4.816213028168249
 30
0.0
 10
35.19270756558258
 20
4.83013031760683
 30
0.0
 10
35.21991983441458
 20
4.831556464724087
 30
0.0
 11
35.06672412129822
 21
4.759908097776474
 31
0.0
 11
35.06760453309758
 21
4.760852819666183
 31
0.0
 11
35.06849160273251
 21
4.761793276972127
 31
0.0
 11
35.14048426976515
 21
4.81225008137892
 31
0.0
 11
35.21991983441458
 21
4.831556464724087
 31
0.0
  0
SPLINE
  5
15E
330
2
100
AcDbEntity
  8
GAIKEI
  6
Continuous
 62
     1
100
AcDbSpline
210
0.0
220
0.0
230
1.0
 70
     8
 71
     3
 72
     9
 73
     5
 74
     3
 42
0.0000000001
 43
0.0000000001
 44
0.000001
 12
-0.4031347934464675
 22
-0.9151406112247856
 32
0.0
 13
-0.9986239382571366
 23
-0.0524426347527165
 33
0.0
 40
0.0
 40
0.0
 40
0.0
 40
0.0
 40
0.1580103630845658
 40
0.2974965161848905
 40
0.2974965161848905
 40
0.2974965161848905
 40
0.2974965161848905
 10
36.23298141823525
 20
5.035108722950496
 30
0.0
 10
36.21174825987376
 20
4.98690815619949
 30
0.0
 10
36.14000698381152
 20
4.909662988379665
 30
0.0
 10
36.04253536655714
 20
4.874644221669512
 30
0.0
 10
35.99610396271001
 20
4.872205881209481
 30
0.0
 11
36.23298141823525
 21
5.035108722950496
 31
0.0
 11
36.12828050951768
 21
4.916765999417066
 31
0.0
 11
35.99610396271001
 21
4.872205881209481
 31
0.0
  0
SPLINE
  5
15F
330
2
100
AcDbEntity
  8
GAIKEI
  6
Continuous
100
AcDbSpline
210
0.0
220
0.0
230
1.0
 70
     8
 71
     3
 72
     9
 73
     5
 74
     3
 42
0.0000000001
 43
0.0000000001
 44
0.000001
 12
0.9659554725890357
 22
0.2587083782471926
 32
0.0
 13
0.5147026122524477
 23
0.8573687776800053
 33
0.0
 40
0.0
 40
0.0
 40
0.0
 40
0.0
 40
0.0769747054409533
 40
0.2100305177808448
 40
0.2100305177808448
 40
0.2100305177808448
 40
0.2100305177808448
 10
37.05286672101048
 20
7.840711917521275
 30
0.0
 10
37.07765143366768
 20
7.847349917924844
 30
0.0
 10
37.14364624608708
 20
7.873366775112373
 30
0.0
 10
37.19465048916613
 20
7.926770431177175
 30
0.0
 10
37.21747854722835
 20
7.964796397573536
 30
0.0
 11
37.05286672101048
 21
7.840711917521275
 31
0.0
 11
37.12401154637334
 21
7.870097480396282
 31
0.0
 11
37.21747854722835
 21
7.964796397573536
 31
0.0
  0
SPLINE
  5
160
330
2
100
AcDbEntity
  8
GAIKEI
  6
Continuous
100
AcDbSpline
210
0.0
220
0.0
230
1.0
 70
     8
 71
     3
 72
     9
 73
     5
 74
     3
 42
0.0000000001
 43
0.0000000001
 44
0.000001
 12
0.5142335519141901
 22
0.8576501933106039
 32
0.0
 13
0.176385730569994
 23
0.9843211234405616
 33
0.0
 40
0.0
 40
0.0
 40
0.0
 40
0.0
 40
0.0506159141892354
 40
0.099760758700959
 40
0.099760758700959
 40
0.099760758700959
 40
0.099760758700959
 10
37.21747854722835
 20
7.964796397573536
 30
0.0
 10
37.22615468100733
 20
7.979266647103202
 30
0.0
 10
37.2406460887295
 20
8.009430842592422
 30
0.0
 10
37.24950117558329
 20
8.041689211722456
 30
0.0
 10
37.25239065868428
 20
8.057813981242816
 30
0.0
 11
37.21747854722835
 21
7.964796397573536
 31
0.0
 11
37.23940976651895
 21
8.010414375587174
 31
0.0
 11
37.25239065868428
 21
8.057813981242816
 31
0.0
  0
SPLINE
  5
161
330
2
100
AcDbEntity
  8
GAIKEI
  6
Continuous
100
AcDbSpline
210
0.0
220
0.0
230
1.0
 70
     8
 71
     3
 72
     9
 73
     5
 74
     3
 42
0.0000000001
 43
0.0000000001
 44
0.000001
 12
0.1851928867955859
 22
0.9827021902287169
 32
0.0
 13
0.0002185501612885
 23
0.9999999761179132
 33
0.0
 40
0.0
 40
0.0
 40
0.0
 40
0.0
 40
0.024591689365128
 40
0.0487685661491631
 40
0.0487685661491631
 40
0.0487685661491631
 40
0.0487685661491631
 10
37.25239065868428
 20
8.057813981242816
 30
0.0
 10
37.25390872733252
 20
8.065869416909663
 30
0.0
 10
37.25606533752064
 20
8.082013955771827
 30
0.0
 10
37.25672239374956
 20
8.098277974618213
 30
0.0
 10
37.25672415503633
 20
8.106336933353759
 30
0.0
 11
37.25239065868428
 21
8.057813981242816
 31
0.0
 11
37.25570222109215
 21
8.082182643219766
 31
0.0
 11
37.25672415503633
 21
8.106336933353759
 31
0.0
  0
SPLINE
  5
162
330
2
100
AcDbEntity
  8
GAIKEI
  6
Continuous
 62
     1
100
AcDbSpline
210
0.0
220
0.0
230
1.0
 70
     8
 71
     3
 72
     9
 73
     5
 74
     3
 42
0.0000000001
 43
0.0000000001
 44
0.000001
 12
0.872683160010713
 22
0.4882869056545714
 32
0.0
 13
0.9060488313008754
 23
0.4231731504931732
 33
0.0
 40
0.0
 40
0.0
 40
0.0
 40
0.0
 40
0.0008647289721345
 40
0.0017201373300832
 40
0.0017201373300832
 40
0.0017201373300832
 40
0.0017201373300832
 10
36.26954147900816
 20
6.774732850077725
 30
0.0
 10
36.26979302381214
 20
6.774873595355728
 30
0.0
 10
36.27029605769417
 20
6.775148892658137
 30
0.0
 10
36.27080901075769
 20
6.775405645206348
 30
0.0
 10
36.27106735800535
 20
6.775526307156269
 30
0.0
 11
36.26954147900816
 21
6.774732850077725
 31
0.0
 11
36.2703013467719
 21
6.775145385432097
 31
0.0
 11
36.27106735800535
 21
6.775526307156269
 31
0.0
  0
SPLINE
  5
163
330
2
100
AcDbEntity
  8
GAIKEI
  6
Continuous
 62
     1
100
AcDbSpline
210
0.0
220
0.0
230
1.0
 70
     8
 71
     3
 72
     9
 73
     5
 74
     3
 42
0.0000000001
 43
0.0000000001
 44
0.000001
 12
0.0000000448385034
 22
-0.9999999999999991
 32
0.0
 13
0.9081584222605471
 23
-0.4186266595395398
 33
0.0
 40
0.0
 40
0.0
 40
0.0
 40
0.0
 40
0.0139027966926695
 40
0.0278033723757892
 40
0.0278033723757892
 40
0.0278033723757892
 40
0.0278033723757892
 10
36.25672409543168
 20
7.320326144316368
 30
0.0
 10
36.25672409563947
 20
7.315691878752147
 30
0.0
 10
36.25961000819652
 20
7.30632264585293
 30
0.0
 10
36.26685938304506
 20
7.299682852345796
 30
0.0
 10
36.27106735800535
 20
7.297743135157816
 30
0.0
 11
36.25672409543168
 21
7.320326144316368
 31
0.0
 11
36.26070030491499
 21
7.307004138357513
 31
0.0
 11
36.27106735800535
 21
7.297743135157816
 31
0.0
  0
SPLINE
  5
164
330
2
100
AcDbEntity
  8
GAIKEI
  6
Continuous
 62
     1
100
AcDbSpline
210
0.0
220
0.0
230
1.0
 70
     8
 71
     3
 72
     9
 73
     5
 74
     3
 42
0.0000000001
 43
0.0000000001
 44
0.000001
 12
-0.9907447224773274
 22
-0.1357383324021754
 32
0.0
 13
-0.3611331329489518
 23
0.9325142681409625
 33
0.0
 40
0.0
 40
0.0
 40
0.0
 40
0.0
 40
0.0027039998097188
 40
0.0055898692069849
 40
0.0055898692069849
 40
0.0055898692069849
 40
0.0055898692069849
 10
36.26136276758316
 20
7.306593233341573
 30
0.0
 10
36.26046977640282
 20
7.306470887866566
 30
0.0
 10
36.25930965076412
 20
7.308820345957229
 30
0.0
 10
36.25878047426077
 20
7.310334867363422
 30
0.0
 10
36.25843307990854
 20
7.311231905493059
 30
0.0
 11
36.26136276758316
 21
7.306593233341573
 31
0.0
 11
36.25949502819188
 21
7.308549532405493
 31
0.0
 11
36.25843307990854
 21
7.311231905493059
 31
0.0
  0
SPLINE
  5
165
330
2
100
AcDbEntity
  8
GAIKEI
  6
Continuous
100
AcDbSpline
210
0.0
220
0.0
230
1.0
 70
     8
 71
     3
 72
     9
 73
     5
 74
     3
 42
0.0000000001
 43
0.0000000001
 44
0.000001
 12
-0.1740597242984542
 22
-0.9847350975654043
 32
0.0
 13
-0.5145281351077995
 23
-0.8574734970729359
 33
0.0
 40
0.0
 40
0.0
 40
0.0
 40
0.0
 40
0.0499205989764484
 40
0.099761247080127
 40
0.099761247080127
 40
0.099761247080127
 40
0.099761247080127
 10
37.25239065868428
 20
8.057813981242816
 30
0.0
 10
37.2494942701194
 20
8.041427792608288
 30
0.0
 10
37.24053473656859
 20
8.009184235952744
 30
0.0
 10
37.22602668580214
 20
7.979042075848809
 30
0.0
 10
37.21747854722835
 20
7.964796397573536
 30
0.0
 11
37.25239065868428
 21
8.057813981242816
 31
0.0
 11
37.23913721308858
 21
8.009684730872606
 31
0.0
 11
37.21747854722835
 21
7.964796397573536
 31
0.0
  0
SPLINE
  5
166
330
2
100
AcDbEntity
  8
GAIKEI
  6
Continuous
 62
     1
100
AcDbSpline
210
0.0
220
0.0
230
1.0
 70
     8
 71
     3
 72
    25
 73
    21
 74
    19
 42
0.0000000001
 43
0.0000000001
 44
0.000001
 12
0.9671989480162135
 22
0.254020068018907
 32
0.0
 13
-0.0735875879962012
 23
0.9972887580299406
 33
0.0
 40
0.0
 40
0.0
 40
0.0
 40
0.0
 40
0.0016149715310492
 40
0.0050156123112117
 40
0.0107650426525097
 40
0.0189186835237348
 40
0.0295122406667616
 40
0.0427380812251585
 40
0.0589352567371096
 40
0.0785667383592897
 40
0.1021905311045619
 40
0.1304316592073249
 40
0.156190865571848
 40
0.1822189237706387
 40
0.2081491574787377
 40
0.2335745890526208
 40
0.2580611698629668
 40
0.2811576054948967
 40
0.3024037986515715
 40
0.3213412923671082
 40
0.3213412923671082
 40
0.3213412923671082
 40
0.3213412923671082
 10
37.05286672101048
 20
7.840711917521275
 30
0.0
 10
37.05338738726577
 20
7.840848662580668
 30
0.0
 10
37.05497281606142
 20
7.841389679808344
 30
0.0
 10
37.05824253574744
 20
7.842883941655031
 30
0.0
 10
37.06317596292129
 20
7.845903460017126
 30
0.0
 10
37.06955575458824
 20
7.851038967059309
 30
0.0
 10
37.07687600277547
 20
7.858834197806487
 30
0.0
 10
37.08458115294005
 20
7.869775199068897
 30
0.0
 10
37.09211331603889
 20
7.884342579970763
 30
0.0
 10
37.09892327110684
 20
7.903005064119611
 30
0.0
 10
37.10447591283352
 20
7.926229773220427
 30
0.0
 10
37.10788237097992
 20
7.951919629759288
 30
0.0
 10
37.10935870792372
 20
7.978570476704419
 30
0.0
 10
37.10938685842169
 20
8.004486379526781
 30
0.0
 10
37.10832667728636
 20
8.030264764480222
 30
0.0
 10
37.10650175919054
 20
8.055482396572074
 30
0.0
 10
37.10422918288138
 20
8.079713211359717
 30
0.0
 10
37.10182585763343
 20
8.10253023962889
 30
0.0
 10
37.09960733954162
 20
8.123506267728089
 30
0.0
 10
37.09837519050288
 20
8.136845751570291
 30
0.0
 10
37.0979106690078
 20
8.14314113476621
 30
0.0
 11
37.05286672101048
 21
7.840711917521275
 31
0.0
 11
37.05440175258085
 21
7.841214137149449
 31
0.0
 11
37.05750539316196
 21
7.842604007477802
 31
0.0
 11
37.0624316432463
 21
7.845568451842893
 31
0.0
 11
37.06880845214843
 21
7.850649594423487
 31
0.0
 11
37.07610160948789
 21
7.858332888052416
 31
0.0
 11
37.08377690488433
 21
7.869103785562629
 31
0.0
 11
37.09130012795717
 21
7.883447739787186
 31
0.0
 11
37.09813706832605
 21
7.901850203558865
 31
0.0
 11
37.10375351561046
 21
7.92479662971067
 31
0.0
 11
37.10761525942999
 21
7.952772471075604
 31
0.0
 11
37.10912166891515
 21
7.978487587365691
 31
0.0
 11
37.10920318099127
 21
8.004515516781793
 31
0.0
 11
37.10818374675037
 21
8.030425705142533
 31
0.0
 11
37.10638731728429
 21
8.055787598266419
 31
0.0
 11
37.1041378436851
 21
8.080170641972188
 31
0.0
 11
37.10175927704464
 21
8.103144282078289
 31
0.0
 11
37.09957556845487
 21
8.124277964403461
 31
0.0
 11
37.0979106690078
 21
8.14314113476621
 31
0.0
  0
SPLINE
  5
167
330
2
100
AcDbEntity
  8
GAIKEI
  6
Continuous
 62
     1
100
AcDbSpline
210
0.0
220
0.0
230
1.0
 70
     8
 71
     3
 72
    11
 73
     7
 74
     5
 42
0.0000000001
 43
0.0000000001
 44
0.000001
 12
-0.2462178745595127
 22
-0.9692145057970376
 32
0.0
 13
0.0022214769121426
 23
0.9999975325171202
 33
0.0
 40
0.0
 40
0.0
 40
0.0
 40
0.0
 40
0.0213790245570735
 40
0.0356970595796055
 40
0.0574789945406887
 40
0.0752630840815481
 40
0.0752630840815481
 40
0.0752630840815481
 40
0.0752630840815481
 10
37.02503468810156
 20
7.988172863810632
 30
0.0
 10
37.02328005543936
 20
7.981265910237141
 30
0.0
 10
37.01916064530065
 20
7.969214488686816
 30
0.0
 10
36.99819830962636
 20
7.960509381865875
 30
0.0
 10
36.98554920506174
 20
7.978835122042767
 30
0.0
 10
36.98168655559965
 20
7.991094946774751
 30
0.0
 10
36.98169972458109
 20
7.997022961994389
 30
0.0
 11
37.02503468810156
 21
7.988172863810632
 31
0.0
 11
37.01515406501304
 21
7.96921321086296
 31
0.0
 11
37.00165822186446
 21
7.964430186614208
 31
0.0
 11
36.98625471174822
 21
7.979831214505054
 31
0.0
 11
36.98169972458109
 21
7.997022961994389
 31
0.0
  0
SPLINE
  5
168
330
2
100
AcDbEntity
  8
GAIKEI
  6
Continuous
 62
     1
100
AcDbSpline
210
0.0
220
0.0
230
1.0
 70
     8
 71
     3
 72
    11
 73
     7
 74
     5
 42
0.0000000001
 43
0.0000000001
 44
0.000001
 12
-0.0010703563239132
 22
0.9999994271685059
 32
0.0
 13
-0.001070356323913
 23
0.9999994271685059
 33
0.0
 40
0.0
 40
0.0
 40
0.0
 40
0.0
 40
0.0842517119636685
 40
0.2610778965508953
 40
0.4379040811380085
 40
0.5221557931017339
 40
0.5221557931017339
 40
0.5221557931017339
 40
0.5221557931017339
 10
36.27106735800535
 20
6.775587342316157
 30
0.0
 10
36.27103729822112
 20
6.803671230216707
 30
0.0
 10
36.27108809488584
 20
6.890697227054545
 30
0.0
 10
36.27106735800527
 20
7.036665238736929
 30
0.0
 10
36.27104662112518
 20
7.182633250419513
 30
0.0
 10
36.27109741778959
 20
7.269659247257266
 30
0.0
 10
36.27106735800535
 20
7.297743135157816
 30
0.0
 11
36.27106735800535
 21
6.775587342316157
 31
0.0
 11
36.27106450564352
 21
6.859839054757685
 31
0.0
 11
36.27106735800535
 21
7.036665238736986
 31
0.0
 11
36.2710702103673
 21
7.213491422716231
 31
0.0
 11
36.27106735800535
 21
7.297743135157816
 31
0.0
  0
SPLINE
  5
169
330
2
100
AcDbEntity
  8
GAIKEI
  6
Continuous
 62
     1
100
AcDbSpline
210
0.0
220
0.0
230
1.0
 70
     8
 71
     3
 72
    11
 73
     7
 74
     5
 42
0.0000000001
 43
0.0000000001
 44
0.000001
 12
0.9987564980174211
 22
0.049854364583028
 32
0.0
 13
0.0002726581662577
 23
-0.9999999628287616
 33
0.0
 40
0.0
 40
0.0
 40
0.0
 40
0.0
 40
0.1661273401196847
 40
0.2978564361165411
 40
0.3847037589630012
 40
0.4165648482961349
 40
0.4165648482961349
 40
0.4165648482961349
 40
0.4165648482961349
 10
36.56586718026429
 20
5.422071636640339
 30
0.0
 10
36.62117410041192
 20
5.424832360967513
 30
0.0
 10
36.71718339367777
 20
5.426835027013623
 30
0.0
 10
36.85612257022848
 20
5.435547159018881
 30
0.0
 10
36.91897740939747
 20
5.421644971136061
 30
0.0
 10
36.98169682885236
 20
5.43269199935662
 30
0.0
 10
36.98169972458109
 20
5.422071636640339
 30
0.0
 11
36.56586718026429
 21
5.422071636640339
 31
0.0
 11
36.73186774486354
 21
5.428540974295572
 31
0.0
 11
36.86358429837597
 21
5.430358023862538
 31
0.0
 11
36.95040042891176
 21
5.42803187981832
 31
0.0
 11
36.98169972458109
 21
5.422071636640339
 31
0.0
  0
SPLINE
  5
16A
330
2
100
AcDbEntity
  8
GAIKEI
  6
Continuous
 62
     1
100
AcDbSpline
210
0.0
220
0.0
230
1.0
 70
     8
 71
     3
 72
     9
 73
     5
 74
     3
 42
0.0000000001
 43
0.0000000001
 44
0.000001
 12
0.00441624400497
 22
0.999990248346897
 32
0.0
 13
-0.9988625858354367
 23
-0.0476815962206028
 33
0.0
 40
0.0
 40
0.0
 40
0.0
 40
0.0
 40
0.0619392336225032
 40
0.218028811458475
 40
0.218028811458475
 40
0.218028811458475
 40
0.218028811458475
 10
36.25672409543168
 20
5.889723031702033
 30
0.0
 10
36.2568152750214
 20
5.91036924157288
 30
0.0
 10
36.13758689124856
 20
5.873417664809579
 30
0.0
 10
36.09086028957121
 20
5.892203898443568
 30
0.0
 10
36.03888960979148
 20
5.889723031702033
 30
0.0
 11
36.25672409543168
 21
5.889723031702033
 31
0.0
 11
36.19492327162808
 21
5.893871980188464
 31
0.0
 11
36.03888960979148
 21
5.889723031702033
 31
0.0
  0
SPLINE
  5
16B
330
2
100
AcDbEntity
  8
GAIKEI
  6
Continuous
 62
     1
100
AcDbSpline
210
0.0
220
0.0
230
1.0
 70
     8
 71
     3
 72
    13
 73
     9
 74
     7
 42
0.0000000001
 43
0.0000000001
 44
0.000001
 12
0.0012464214186471
 22
-0.9999992232165219
 32
0.0
 13
-0.9985877679209654
 23
-0.0531269212229018
 33
0.0
 40
0.0
 40
0.0
 40
0.0
 40
0.0
 40
0.2417826895643926
 40
0.517833612567438
 40
0.7481207083284774
 40
0.9035648525459462
 40
0.99175185361774
 40
1.019903192777825
 40
1.019903192777825
 40
1.019903192777825
 40
1.019903192777825
 10
36.03888960979148
 20
5.889723031702033
 30
0.0
 10
36.03899006416579
 20
5.809128864451508
 30
0.0
 10
36.04026819830426
 20
5.636970582419877
 30
0.0
 10
36.04097240767729
 20
5.385465330073145
 30
0.0
 10
36.02795620561094
 20
5.170987063981698
 30
0.0
 10
36.02500119561727
 20
5.000438889793485
 30
0.0
 10
35.9964866760366
 20
4.932019184650357
 30
0.0
 10
36.0054744903553
 20
4.872704412535426
 30
0.0
 10
35.99610396271001
 20
4.872205881209481
 30
0.0
 11
36.03888960979148
 21
5.889723031702033
 31
0.0
 11
36.04001057365426
 21
5.647943689898283
 31
0.0
 11
36.03791304723328
 21
5.37190073521242
 31
0.0
 11
36.02833035057606
 21
5.14181310566829
 31
0.0
 11
36.0147941329839
 21
4.986959462722779
 31
0.0
 11
36.00236510138567
 21
4.899652742521368
 31
0.0
 11
35.99610396271001
 21
4.872205881209481
 31
0.0
  0
SPLINE
  5
16C
330
2
100
AcDbEntity
  8
GAIKEI
  6
Continuous
 62
     1
100
AcDbSpline
210
0.0
220
0.0
230
1.0
 70
     8
 71
     3
 72
     9
 73
     5
 74
     3
 42
0.0000000001
 43
0.0000000001
 44
0.000001
 12
-0.0001282874902118
 22
-0.9999999917711599
 32
0.0
 13
-0.4029774593087212
 23
-0.9152099034041798
 33
0.0
 40
0.0
 40
0.0
 40
0.0
 40
0.0
 40
0.0545541254554019
 40
0.1148452902883959
 40
0.1148452902883959
 40
0.1148452902883959
 40
0.1148452902883959
 10
36.25672409543168
 20
5.146864100705386
 30
0.0
 10
36.25672176256107
 20
5.128679392369889
 30
0.0
 10
36.25264324162738
 20
5.090341417591901
 30
0.0
 10
36.24108007837631
 20
5.053501746664807
 30
0.0
 10
36.23298141823525
 20
5.035108722950496
 30
0.0
 11
36.25672409543168
 21
5.146864100705386
 31
0.0
 11
36.25115710768572
 21
5.092594798559616
 31
0.0
 11
36.23298141823525
 21
5.035108722950496
 31
0.0
  0
SPLINE
  5
16D
330
2
100
AcDbEntity
  8
GAIKEI
  6
Continuous
 62
     1
100
AcDbSpline
210
0.0
220
0.0
230
1.0
 70
     8
 71
     3
 72
    15
 73
    11
 74
     9
 42
0.0000000001
 43
0.0000000001
 44
0.000001
 12
-0.0109598631659733
 22
-0.9999399388960235
 32
0.0
 13
0.9986391301959201
 23
0.0521525420429005
 33
0.0
 40
0.0
 40
0.0
 40
0.0
 40
0.0
 40
0.2060160328921885
 40
0.397184129703479
 40
0.569612666648464
 40
0.7194120619170567
 40
0.842702106983452
 40
0.9356304494506913
 40
0.9944510323551277
 40
1.016340558256388
 40
1.016340558256388
 40
1.016340558256388
 40
1.016340558256388
 10
35.18494668779877
 20
5.844984259504144
 30
0.0
 10
35.18419405195527
 20
5.776316373056886
 30
0.0
 10
35.18333925897085
 20
5.643947425022957
 30
0.0
 10
35.18387660040455
 20
5.453971192805596
 30
0.0
 10
35.18623641762342
 20
5.28317378508126
 30
0.0
 10
35.18983627013068
 20
5.133741322611911
 30
0.0
 10
35.19562027540684
 20
5.014530481780468
 30
0.0
 10
35.20026612143131
 20
4.916495380318195
 30
0.0
 10
35.2097292633766
 20
4.871274445530048
 30
0.0
 10
35.21263325537911
 20
4.83117593325079
 30
0.0
 10
35.21991983441458
 20
4.831556464724087
 30
0.0
 11
35.18494668779877
 21
5.844984259504144
 31
0.0
 11
35.18363873262174
 21
5.63897314318757
 31
0.0
 11
35.18426210349983
 21
5.447806065064469
 31
0.0
 11
35.18666250862029
 21
5.275394240605066
 31
0.0
 11
35.19068565617047
 21
5.125648885279701
 31
0.0
 11
35.19617725433764
 21
5.002481214558599
 31
0.0
 11
35.20298301130916
 21
4.909802443912099
 31
0.0
 11
35.21094863527233
 21
4.851523788810538
 31
0.0
 11
35.21991983441458
 21
4.831556464724087
 31
0.0
  0
SPLINE
  5
16E
330
2
100
AcDbEntity
  8
GAIKEI
  6
Continuous
 62
     1
100
AcDbSpline
210
0.0
220
0.0
230
1.0
 70
     8
 71
     3
 72
    13
 73
     9
 74
     7
 42
0.0000000001
 43
0.0000000001
 44
0.000001
 12
-0.9958442137968299
 22
-0.091073057746918
 32
0.0
 13
-0.0021490968022977
 23
0.9999976906888008
 33
0.0
 40
0.0
 40
0.0
 40
0.0
 40
0.0
 40
0.0186237222847362
 40
0.0751802964371998
 40
0.1192815630830728
 40
0.1723092376012769
 40
0.3776468578458432
 40
0.5372602936856561
 40
0.5372602936856561
 40
0.5372602936856561
 40
0.5372602936856561
 10
36.72107959185942
 20
4.910230785819692
 30
0.0
 10
36.71489748316722
 20
4.909665412707994
 30
0.0
 10
36.70335518839439
 20
4.941514401049062
 30
0.0
 10
36.68661730047748
 20
4.970376573138281
 30
0.0
 10
36.67162188038546
 20
5.021490037226357
 30
0.0
 10
36.6425367363951
 20
5.117037527951424
 30
0.0
 10
36.60673952705899
 20
5.25133035159763
 30
0.0
 10
36.56598152183915
 20
5.368867280892771
 30
0.0
 10
36.56586718026429
 20
5.422071636640339
 30
0.0
 11
36.72107959185942
 21
4.910230785819692
 31
0.0
 11
36.70924025024718
 21
4.924607530074922
 31
0.0
 11
36.68622851556339
 21
4.976270828818485
 31
0.0
 11
36.67252164637935
 21
5.018187894365382
 31
0.0
 11
36.65729784977648
 21
5.068983236688325
 31
0.0
 11
36.59981612098793
 21
5.266110925547593
 31
0.0
 11
36.56586718026429
 21
5.422071636640339
 31
0.0
  0
SPLINE
  5
16F
330
2
100
AcDbEntity
  8
GAIKEI
  6
Continuous
 62
     1
100
AcDbSpline
210
0.0
220
0.0
230
1.0
 70
     8
 71
     3
 72
    11
 73
     7
 74
     5
 42
0.0000000001
 43
0.0000000001
 44
0.000001
 12
0.050091494938014
 22
-0.9987446330944036
 32
0.0
 13
-0.9986242733284909
 23
-0.0524362538626057
 33
0.0
 40
0.0
 40
0.0
 40
0.0
 40
0.0
 40
0.1975606454140059
 40
0.3648945480850915
 40
0.4840003254776864
 40
0.5430360203227258
 40
0.5430360203227258
 40
0.5430360203227258
 40
0.5430360203227258
 10
36.43494676230458
 20
5.415235698732885
 30
0.0
 10
36.43824546499448
 20
5.349464820626906
 30
0.0
 10
36.43970373515827
 20
5.228914987793245
 30
0.0
 10
36.4244537764076
 20
5.063355592248001
 30
0.0
 10
36.40555751876542
 20
4.959995929457534
 30
0.0
 10
36.37287217583626
 20
4.89197554552237
 30
0.0
 10
36.35322068321457
 20
4.89094367529509
 30
0.0
 11
36.43494676230458
 21
5.415235698732885
 31
0.0
 11
36.43602632053094
 21
5.217678848666196
 31
0.0
 11
36.42066696191759
 21
5.051051377192663
 31
0.0
 11
36.3920159837252
 21
4.935443060629722
 31
0.0
 11
36.35322068321457
 21
4.89094367529509
 31
0.0
  0
SPLINE
  5
170
330
2
100
AcDbEntity
  8
GAIKEI
  6
Continuous
 62
     1
100
AcDbSpline
210
0.0
220
0.0
230
1.0
 70
     8
 71
     3
 72
     9
 73
     5
 74
     3
 42
0.0000000001
 43
0.0000000001
 44
0.000001
 12
-0.8242199307060358
 22
-0.5662698171604573
 32
0.0
 13
-0.7635969288552224
 23
-0.6456932168165257
 33
0.0
 40
0.0
 40
0.0
 40
0.0
 40
0.0
 40
0.0842429341241021
 40
0.1686312615918309
 40
0.1686312615918309
 40
0.1686312615918309
 40
0.1686312615918309
 10
36.56586718026429
 20
7.957777354186418
 30
0.0
 10
36.54272227848888
 20
7.941875943885236
 30
0.0
 10
36.49863105583464
 20
7.906838678890835
 30
0.0
 10
36.45642631819978
 20
7.869739166189475
 30
0.0
 10
36.43494676230458
 20
7.851576175981335
 30
0.0
 11
36.56586718026429
 21
7.957777354186418
 31
0.0
 11
36.49913915992542
 21
7.90635352020979
 31
0.0
 11
36.43494676230458
 21
7.851576175981335
 31
0.0
  0
SPLINE
  5
171
330
2
100
AcDbEntity
  8
GAIKEI
  6
Continuous
 62
     1
100
AcDbSpline
210
0.0
220
0.0
230
1.0
 70
     8
 71
     3
 72
     9
 73
     5
 74
     3
 42
0.0000000001
 43
0.0000000001
 44
0.000001
 12
-0.9089599495712976
 22
-0.4168834490302343
 32
0.0
 13
-0.0584370804213165
 23
-0.998291093635435
 33
0.0
 40
0.0
 40
0.0
 40
0.0
 40
0.0
 40
0.0693722202742831
 40
0.1993516640935904
 40
0.1993516640935904
 40
0.1993516640935904
 40
0.1993516640935904
 10
36.38910935722871
 20
8.044935562506452
 30
0.0
 10
36.36809050061466
 20
8.035295519021502
 30
0.0
 10
36.4471593418192
 20
7.95000190832124
 30
0.0
 10
36.4374786353751
 20
7.894828616354828
 30
0.0
 10
36.43494676230458
 20
7.851576175981335
 30
0.0
 11
36.38910935722871
 21
8.044935562506452
 31
0.0
 11
36.4123743712718
 21
7.979580099848476
 31
0.0
 11
36.43494676230458
 21
7.851576175981335
 31
0.0
  0
SPLINE
  5
172
330
2
100
AcDbEntity
  8
GAIKEI
  6
Continuous
 62
     1
100
AcDbSpline
210
0.0
220
0.0
230
1.0
 70
     8
 71
     3
 72
     9
 73
     5
 74
     3
 42
0.0000000001
 43
0.0000000001
 44
0.000001
 12
0.9978452281986012
 22
0.0656117410322368
 32
0.0
 13
-0.0584370804213165
 23
-0.998291093635435
 33
0.0
 40
0.0
 40
0.0
 40
0.0
 40
0.0
 40
0.1116304529379467
 40
0.1786075253372338
 40
0.1786075253372338
 40
0.1786075253372338
 40
0.1786075253372338
 10
36.25672409543168
 20
7.839857425282843
 30
0.0
 10
36.29385406702694
 20
7.842298848072658
 30
0.0
 10
36.33360931791699
 20
7.8264125147426
 30
0.0
 10
36.4362514104933
 20
7.873863714266008
 30
0.0
 10
36.43494676230458
 20
7.851576175981335
 30
0.0
 11
36.25672409543168
 21
7.839857425282843
 31
0.0
 11
36.36811326222724
 21
7.847181644469401
 31
0.0
 11
36.43494676230458
 21
7.851576175981335
 31
0.0
  0
SPLINE
  5
173
330
2
100
AcDbEntity
  8
GAIKEI
  6
Continuous
 62
     1
100
AcDbSpline
210
0.0
220
0.0
230
1.0
 70
     8
 71
     3
 72
     9
 73
     5
 74
     3
 42
0.0000000001
 43
0.0000000001
 44
0.000001
 12
-0.9850337644152421
 22
-0.1723614892078195
 32
0.0
 13
-0.2957883009680813
 23
-0.9552535166176651
 33
0.0
 40
0.0
 40
0.0
 40
0.0
 40
0.0
 40
0.1574377602857244
 40
0.3287481786948575
 40
0.3287481786948575
 40
0.3287481786948575
 40
0.3287481786948575
 10
36.43494676230458
 20
5.415235698732885
 30
0.0
 10
36.38325292574612
 20
5.406190296459413
 30
0.0
 10
36.30676581473337
 20
5.302153006467023
 30
0.0
 10
36.27404188075069
 20
5.202816202588991
 30
0.0
 10
36.2571513415509
 20
5.148267909382809
 30
0.0
 11
36.43494676230458
 21
5.415235698732885
 31
0.0
 11
36.32003026878945
 21
5.307620258685176
 31
0.0
 11
36.2571513415509
 21
5.148267909382809
 31
0.0
  0
SPLINE
  5
174
330
2
100
AcDbEntity
  8
GAIKEI
  6
Continuous
 62
     1
100
AcDbSpline
210
0.0
220
0.0
230
1.0
 70
     8
 71
     3
 72
     9
 73
     5
 74
     3
 42
0.0000000001
 43
0.0000000001
 44
0.000001
 12
0.38374378112655
 22
-0.92343960844589
 32
0.0
 13
-0.9665308733465561
 23
-0.2565503281384446
 33
0.0
 40
0.0
 40
0.0
 40
0.0
 40
0.0
 40
0.1059178649118701
 40
0.1755777114823478
 40
0.1755777114823478
 40
0.1755777114823478
 40
0.1755777114823478
 10
37.02503468810156
 20
7.988172863810632
 30
0.0
 10
37.03858312875826
 20
7.955569946576758
 30
0.0
 10
37.05023256676643
 20
7.897978563329758
 30
0.0
 10
37.01988959327984
 20
7.831837459167076
 30
0.0
 10
36.99744679583219
 20
7.825880373668496
 30
0.0
 11
37.02503468810156
 21
7.988172863810632
 31
0.0
 11
37.03735653912096
 21
7.882975170838335
 31
0.0
 11
36.99744679583219
 21
7.825880373668496
 31
0.0
  0
SPLINE
  5
175
330
2
100
AcDbEntity
  8
GAIKEI
  6
Continuous
 62
     1
100
AcDbSpline
210
0.0
220
0.0
230
1.0
 70
     8
 71
     3
 72
    11
 73
     7
 74
     5
 42
0.0000000001
 43
0.0000000001
 44
0.000001
 12
0.5343295847045641
 22
0.8452762240294282
 32
0.0
 13
0.4235545341722595
 23
0.9058706069754778
 33
0.0
 40
0.0
 40
0.0
 40
0.0
 40
0.0
 40
0.0051026150699491
 40
0.0102418296713272
 40
0.0907509768668993
 40
0.1712612797759565
 40
0.1712612797759565
 40
0.1712612797759565
 40
0.1712612797759565
 10
37.02503468810156
 20
7.988172863810632
 30
0.0
 10
37.02594351416531
 20
7.989610570210288
 30
0.0
 10
37.02757196302291
 20
7.992618886965345
 30
0.0
 10
37.04033428157504
 20
8.020041905870982
 30
0.0
 10
37.06384333480446
 20
8.070195492494946
 30
0.0
 10
37.0865438343929
 20
8.118830495778212
 30
0.0
 10
37.0979106690078
 20
8.14314113476621
 30
0.0
 11
37.02503468810156
 21
7.988172863810632
 31
0.0
 11
37.0275185873704
 21
7.992630134202897
 31
0.0
 11
37.02973439541293
 21
7.997267102633941
 31
0.0
 11
37.0638219382046
 21
8.070203786863487
 31
0.0
 11
37.0979106690078
 21
8.14314113476621
 31
0.0
  0
SPLINE
  5
176
330
2
100
AcDbEntity
  8
GAIKEI
  6
Continuous
 62
     1
100
AcDbSpline
210
0.0
220
0.0
230
1.0
 70
     8
 71
     3
 72
     9
 73
     5
 74
     3
 42
0.0000000001
 43
0.0000000001
 44
0.000001
 12
-0.3838936161508544
 22
0.9233773288740744
 32
0.0
 13
0.9065999430110528
 23
0.4219911649932446
 33
0.0
 40
0.0
 40
0.0
 40
0.0
 40
0.0
 40
0.1089050845403277
 40
0.1584584259989167
 40
0.1584584259989167
 40
0.1584584259989167
 40
0.1584584259989167
 10
36.56586718026429
 20
7.957777354186418
 30
0.0
 10
36.55193119135716
 20
7.991297516207623
 30
0.0
 10
36.54416436401387
 20
8.030025392266878
 30
0.0
 10
36.51469831160327
 20
8.103516966795666
 30
0.0
 10
36.52967333045072
 20
8.110487324226141
 30
0.0
 11
36.56586718026429
 21
7.957777354186418
 31
0.0
 11
36.53100636605885
 21
8.060951284946042
 31
0.0
 11
36.52967333045072
 21
8.110487324226141
 31
0.0
  0
SPLINE
  5
177
330
2
100
AcDbEntity
  8
GAIKEI
  6
Continuous
100
AcDbSpline
210
0.0
220
0.0
230
1.0
 70
     8
 71
     3
 72
     9
 73
     5
 74
     3
 42
0.0000000001
 43
0.0000000001
 44
0.000001
 12
-0.9564705885565077
 22
-0.2918287395483318
 32
0.0
 13
-0.9752593618868349
 23
-0.2210637397948462
 33
0.0
 40
0.0
 40
0.0
 40
0.0
 40
0.0
 40
0.0050183846228764
 40
0.009584011087046
 40
0.009584011087046
 40
0.009584011087046
 40
0.009584011087046
 10
37.06208303015356
 20
7.843336429396458
 30
0.0
 10
37.06048305105561
 20
7.842848259776758
 30
0.0
 10
37.0574300914527
 20
7.841909520203785
 30
0.0
 10
37.05435094432782
 20
7.841048349008161
 30
0.0
 10
37.05286672101048
 20
7.840711917521275
 30
0.0
 11
37.06208303015356
 21
7.843336429396458
 31
0.0
 11
37.05727854345835
 21
7.841887430500264
 31
0.0
 11
37.05286672101048
 21
7.840711917521275
 31
0.0
  0
SPLINE
  5
178
330
2
100
AcDbEntity
  8
GAIKEI
  6
Continuous
100
AcDbSpline
210
0.0
220
0.0
230
1.0
 70
     8
 71
     3
 72
     9
 73
     5
 74
     3
 42
0.0000000001
 43
0.0000000001
 44
0.000001
 12
-0.9421594453780514
 22
-0.3351650033713585
 32
0.0
 13
-0.8771292464302293
 23
-0.4802543961867901
 33
0.0
 40
0.0
 40
0.0
 40
0.0
 40
0.0
 40
0.0011591428797895
 40
0.0020078270964324
 40
0.0020078270964324
 40
0.0020078270964324
 40
0.0020078270964324
 10
37.07331349957295
 20
7.847059574149625
 30
0.0
 10
37.07294946710204
 20
7.846930072773886
 30
0.0
 10
37.07232289659719
 20
7.84670195650375
 30
0.0
 10
37.07166954486556
 20
7.846524048832861
 30
0.0
 10
37.07142140961642
 20
7.846388187390857
 30
0.0
 11
37.07331349957295
 21
7.847059574149625
 31
0.0
 11
37.07221751992401
 21
7.846682516410282
 31
0.0
 11
37.07142140961642
 21
7.846388187390857
 31
0.0
  0
SPLINE
  5
179
330
2
100
AcDbEntity
  8
GAIKEI
  6
Continuous
100
AcDbSpline
210
0.0
220
0.0
230
1.0
 70
     8
 71
     3
 72
     9
 73
     5
 74
     3
 42
0.0000000001
 43
0.0000000001
 44
0.000001
 12
-0.9512628121061844
 22
-0.3083813585543628
 32
0.0
 13
-0.9560356348868982
 23
-0.2932505154750895
 33
0.0
 40
0.0
 40
0.0
 40
0.0
 40
0.0
 40
0.0023156638362687
 40
0.0045951359214176
 40
0.0045951359214176
 40
0.0045951359214176
 40
0.0045951359214176
 10
37.0664775616655
 20
7.844679202913994
 30
0.0
 10
37.0657432933679
 20
7.844441167060722
 30
0.0
 10
37.06427799334057
 20
7.843994522097943
 30
0.0
 10
37.06280944900094
 20
7.843559248184448
 30
0.0
 10
37.06208303015356
 20
7.843336429396458
 30
0.0
 11
37.0664775616655
 21
7.844679202913994
 31
0.0
 11
37.06426566925481
 21
7.843993478792583
 31
0.0
 11
37.06208303015356
 21
7.843336429396458
 31
0.0
  0
SPLINE
  5
17A
330
2
100
AcDbEntity
  8
GAIKEI
  6
Continuous
100
AcDbSpline
210
0.0
220
0.0
230
1.0
 70
     8
 71
     3
 72
     9
 73
     5
 74
     3
 42
0.0000000001
 43
0.0000000001
 44
0.000001
 12
-0.0126254316132282
 22
-0.999920296061931
 32
0.0
 13
-0.1660238152324452
 23
-0.9861217433844885
 33
0.0
 40
0.0
 40
0.0
 40
0.0
 40
0.0
 40
0.013550965719834
 40
0.0299519371208413
 40
0.0299519371208413
 40
0.0299519371208413
 40
0.0299519371208413
 10
37.25666311987644
 20
8.102796894080256
 30
0.0
 10
37.25660609094611
 20
8.098280265528757
 30
0.0
 10
37.25630173977613
 20
8.088300007130527
 30
0.0
 10
37.25531246957576
 20
8.078341819065428
 30
0.0
 10
37.25440481896058
 20
8.072950700895034
 30
0.0
 11
37.25666311987644
 21
8.102796894080256
 31
0.0
 11
37.25618973901001
 21
8.089254814837659
 31
0.0
 11
37.25440481896058
 21
8.072950700895034
 31
0.0
  0
SPLINE
  5
17B
330
2
100
AcDbEntity
  8
GAIKEI
  6
Continuous
100
AcDbSpline
210
0.0
220
0.0
230
1.0
 70
     8
 71
     3
 72
     9
 73
     5
 74
     3
 42
0.0000000001
 43
0.0000000001
 44
0.000001
 12
-0.3157010400653189
 22
-0.9488587109268038
 32
0.0
 13
-0.5936093330953858
 23
-0.8047533533089822
 33
0.0
 40
0.0
 40
0.0
 40
0.0
 40
0.0
 40
0.0090766684078461
 40
0.0173040062121894
 40
0.0173040062121894
 40
0.0173040062121894
 40
0.0173040062121894
 10
37.23420218103766
 20
7.997938489392709
 30
0.0
 10
37.23324700981877
 20
7.995067664097717
 30
0.0
 10
37.23123526507335
 20
7.98966060755859
 30
0.0
 10
37.2285059033535
 20
7.984520481023679
 30
0.0
 10
37.2268779618511
 20
7.982313488461386
 30
0.0
 11
37.23420218103766
 21
7.997938489392709
 31
0.0
 11
37.23093852479318
 21
7.989469492736532
 31
0.0
 11
37.2268779618511
 21
7.982313488461386
 31
0.0
  0
LINE
  5
17C
330
2
100
AcDbEntity
  8
GAIKEI
  6
Continuous
100
AcDbLine
 10
33.08071700085404
 20
3.765717545686754
 30
0.0
 11
35.01419635085407
 21
3.66438819568674
 31
0.0
  0
LINE
  5
17D
330
2
100
AcDbEntity
  8
GAIKEI
  6
Continuous
100
AcDbLine
 10
35.06672410085403
 20
3.864119945686752
 30
0.0
 11
35.06672410085403
 21
3.714327445686762
 31
0.0
  0
LINE
  5
17E
330
2
100
AcDbEntity
  8
GAIKEI
  6
Continuous
100
AcDbLine
 10
32.86672410085405
 20
4.202474445686732
 30
0.0
 11
32.86672410085405
 21
4.140755695686777
 31
0.0
  0
LINE
  5
17F
330
2
100
AcDbEntity
  8
GAIKEI
  6
Continuous
100
AcDbLine
 10
32.86672410085405
 20
4.140755695686777
 30
0.0
 11
32.86672410085405
 21
4.061031545686773
 31
0.0
  0
LINE
  5
180
330
2
100
AcDbEntity
  8
GAIKEI
  6
Continuous
 62
     7
100
AcDbLine
 10
32.87428390085407
 20
4.034446995686721
 30
0.0
 11
33.01455800085407
 21
3.810910845686748
 31
0.0
  0
LINE
  5
181
330
2
100
AcDbEntity
  8
GAIKEI
  6
Continuous
100
AcDbLine
 10
33.01455740085405
 20
3.81090844568672
 30
0.0
 11
33.02092910085403
 21
3.800754745686731
 31
0.0
  0
ARC
  5
182
330
2
100
AcDbEntity
  8
GAIKEI
  6
Continuous
100
AcDbCircle
 10
35.01672410085408
 20
3.714327445686762
 30
0.0
 40
0.05
100
AcDbArc
 50
267.0000160000058
 51
0.0000359999984121
  0
ARC
  5
183
330
2
100
AcDbEntity
  8
GAIKEI
  6
Continuous
100
AcDbCircle
 10
33.08449755085408
 20
3.840621395686753
 30
0.0
 40
0.075
100
AcDbArc
 50
212.109228000002
 51
267.0000160000058
  0
ARC
  5
184
330
2
100
AcDbEntity
  8
GAIKEI
  6
Continuous
100
AcDbCircle
 10
32.91672410085406
 20
4.061031545686773
 30
0.0
 40
0.05
100
AcDbArc
 50
180.0000170000011
 51
212.109228000002
  0
LINE
  5
185
330
2
100
AcDbEntity
  8
GAIKEI
  6
Continuous
 62
     1
100
AcDbLine
 10
33.08062300085405
 20
3.965446845686756
 30
0.0
 11
35.01410235085407
 21
3.864117495686741
 31
0.0
  0
LINE
  5
186
330
2
100
AcDbEntity
  8
GAIKEI
  6
Continuous
 62
     1
100
AcDbLine
 10
32.87428145085406
 20
4.140758795686735
 30
0.0
 11
33.01456205085404
 21
3.917212345686778
 31
0.0
  0
LINE
  5
187
330
2
100
AcDbEntity
  8
GAIKEI
  6
Continuous
 62
     1
100
AcDbLine
 10
35.01418505085408
 20
3.864119945686752
 30
0.0
 11
35.06672410085403
 21
3.864119945686752
 31
0.0
  0
LINE
  5
188
330
2
100
AcDbEntity
  8
GAIKEI
  6
Continuous
 62
     1
100
AcDbLine
 10
33.02102100085406
 20
3.965450495686752
 30
0.0
 11
33.08059130085408
 21
3.965450495686752
 31
0.0
  0
LINE
  5
189
330
2
100
AcDbEntity
  8
GAIKEI
  6
Continuous
100
AcDbLine
 10
32.86672410085405
 20
4.410799645686722
 30
0.0
 11
32.86672410085405
 21
4.202474445686732
 31
0.0
  0
SPLINE
  5
18A
330
2
100
AcDbEntity
  8
GAIKEI
  6
Continuous
 62
     1
100
AcDbSpline
210
0.0
220
0.0
230
1.0
 70
     8
 71
     3
 72
     9
 73
     5
 74
     3
 42
0.0000000001
 43
0.0000000001
 44
0.000001
 12
0.2677112637034975
 22
0.9634991848913399
 32
0.0
 13
-0.0002033617628701
 23
0.9999999793219965
 33
0.0
 40
0.0
 40
0.0
 40
0.0
 40
0.0
 40
0.0238903823885112
 40
0.0487795518660797
 40
0.0487795518660797
 40
0.0487795518660797
 40
0.0487795518660797
 10
33.01457568379826
 20
3.917208318707423
 30
0.0
 10
33.01670759195146
 20
3.924881106693447
 30
0.0
 10
33.01991326716537
 20
3.94087882388473
 30
0.0
 10
33.0210226834667
 20
3.957154116553084
 30
0.0
 10
33.02102099629824
 20
3.965450506207389
 30
0.0
 11
33.01457568379826
 21
3.917208318707423
 31
0.0
 11
33.01934385020016
 21
3.94061813793786
 31
0.0
 11
33.02102099629824
 21
3.965450506207389
 31
0.0
  0
SPLINE
  5
18B
330
2
100
AcDbEntity
  8
GAIKEI
  6
Continuous
100
AcDbSpline
210
0.0
220
0.0
230
1.0
 70
     8
 71
     3
 72
     9
 73
     5
 74
     3
 42
0.0000000001
 43
0.0000000001
 44
0.000001
 12
0.3893005176609709
 22
-0.9211108005820472
 32
0.0
 13
0.9983154509840366
 23
-0.0580194823015479
 33
0.0
 40
0.0
 40
0.0
 40
0.0
 40
0.0
 40
0.013042424107353
 40
0.0178402923890598
 40
0.0178402923890598
 40
0.0178402923890598
 40
0.0178402923890598
 10
33.07297412129825
 20
3.781832342144923
 30
0.0
 10
33.07466659545042
 20
3.777827836241243
 30
0.0
 10
33.07784983083366
 20
3.773989417101461
 30
0.0
 10
33.07899471345243
 20
3.765811850839554
 30
0.0
 10
33.08059130879823
 20
3.765719060894923
 30
0.0
 11
33.07297412129825
 21
3.781832342144923
 31
0.0
 11
33.07823199751559
 21
3.769897339179863
 31
0.0
 11
33.08059130879823
 21
3.765719060894923
 31
0.0
  0
SPLINE
  5
18C
330
2
100
AcDbEntity
  8
GAIKEI
  6
Continuous
 62
     1
100
AcDbSpline
210
0.0
220
0.0
230
1.0
 70
     8
 71
     3
 72
     9
 73
     5
 74
     3
 42
0.0000000001
 43
0.0000000001
 44
0.000001
 12
-0.9984630479128487
 22
0.0554214935975616
 32
0.0
 13
0.0131614812355851
 23
0.9999133839546731
 33
0.0
 40
0.0
 40
0.0
 40
0.0
 40
0.0
 40
0.0591053775879449
 40
0.1997446953722636
 40
0.1997446953722636
 40
0.1997446953722636
 40
0.1997446953722636
 10
35.01418505879823
 20
3.664388494488662
 30
0.0
 10
34.99451354698007
 20
3.665480397257198
 30
0.0
 10
35.03519841815823
 20
3.772792206431546
 30
0.0
 10
35.0135680515509
 20
3.817244227746869
 30
0.0
 10
35.01418505879823
 20
3.864119939801128
 30
0.0
 11
35.01418505879823
 21
3.664388494488662
 31
0.0
 11
35.01313565159924
 21
3.723485240821617
 31
0.0
 11
35.01418505879823
 21
3.864119939801128
 31
0.0
  0
SPLINE
  5
18D
330
2
100
AcDbEntity
  8
GAIKEI
  6
Continuous
 62
     1
100
AcDbSpline
210
0.0
220
0.0
230
1.0
 70
     8
 71
     3
 72
     9
 73
     5
 74
     3
 42
0.0000000001
 43
0.0000000001
 44
0.000001
 12
-0.0194223067410764
 22
-0.9998113692096403
 32
0.0
 13
-0.180956661794664
 23
-0.983491070906153
 33
0.0
 40
0.0
 40
0.0
 40
0.0
 40
0.0
 40
0.0398095287014405
 40
0.0777433366760429
 40
0.0777433366760429
 40
0.0777433366760429
 40
0.0777433366760429
 10
33.08059130879823
 20
3.965450506207389
 30
0.0
 10
33.08033357783902
 20
3.952183166407877
 30
0.0
 10
33.07879096908346
 20
3.926285585258881
 30
0.0
 10
33.07526224638499
 20
3.900579231110668
 30
0.0
 10
33.07297412129825
 20
3.888143377301162
 30
0.0
 11
33.08059130879823
 21
3.965450506207389
 31
0.0
 11
33.07823199751559
 21
3.925711112019484
 31
0.0
 11
33.07297412129825
 21
3.888143377301162
 31
0.0
  0
SPLINE
  5
18E
330
2
100
AcDbEntity
  8
GAIKEI
  6
Continuous
 62
     1
100
AcDbSpline
210
0.0
220
0.0
230
1.0
 70
     8
 71
     3
 72
     9
 73
     5
 74
     3
 42
0.0000000001
 43
0.0000000001
 44
0.000001
 12
-0.1811677688426682
 22
-0.983452205006715
 32
0.0
 13
0.3894822046516699
 23
-0.9210339908275235
 33
0.0
 40
0.0
 40
0.0
 40
0.0
 40
0.0
 40
0.0634735287711599
 40
0.107111442533167
 40
0.107111442533167
 40
0.107111442533167
 40
0.107111442533167
 10
33.07297412129825
 20
3.888143377301162
 30
0.0
 10
33.06914100210223
 20
3.867335650024642
 30
0.0
 10
33.06511557622059
 20
3.832088814502299
 30
0.0
 10
33.06730872434544
 20
3.795229676099467
 30
0.0
 10
33.07297412129825
 20
3.781832342144923
 30
0.0
 11
33.07297412129825
 21
3.888143377301162
 31
0.0
 11
33.06655474166158
 21
3.824995886084479
 31
0.0
 11
33.07297412129825
 21
3.781832342144923
 31
0.0
  0
SPLINE
  5
18F
330
2
100
AcDbEntity
  8
GAIKEI
  6
Continuous
 62
     1
100
AcDbSpline
210
0.0
220
0.0
230
1.0
 70
     8
 71
     3
 72
     9
 73
     5
 74
     3
 42
0.0000000001
 43
0.0000000001
 44
0.000001
 12
-0.5314527441063981
 22
0.8470879415868104
 32
0.0
 13
0.3179393013820943
 23
0.9481110697785709
 33
0.0
 40
0.0
 40
0.0
 40
0.0
 40
0.0
 40
0.0467623854969524
 40
0.1086022182816875
 40
0.1086022182816875
 40
0.1086022182816875
 40
0.1086022182816875
 10
33.01457568379826
 20
3.810909490582389
 30
0.0
 10
33.00629168443382
 20
3.824113441540504
 30
0.0
 10
33.00007460175404
 20
3.862058394842563
 30
0.0
 10
33.00802191272054
 20
3.897664642035266
 30
0.0
 10
33.01457568379826
 20
3.917208318707423
 30
0.0
 11
33.01457568379826
 21
3.810909490582389
 31
0.0
 11
33.00356431054658
 21
3.856357710358565
 31
0.0
 11
33.01457568379826
 21
3.917208318707423
 31
0.0
  0
SPLINE
  5
190
330
2
100
AcDbEntity
  8
GAIKEI
  6
Continuous
 62
     1
100
AcDbSpline
210
0.0
220
0.0
230
1.0
 70
     8
 71
     3
 72
     9
 73
     5
 74
     3
 42
0.0000000001
 43
0.0000000001
 44
0.000001
 12
0.5315659660105952
 22
-0.847016896985664
 32
0.0
 13
0.9993596112734818
 23
0.0357822212182991
 33
0.0
 40
0.0
 40
0.0
 40
0.0
 40
0.0
 40
0.0328730912401016
 40
0.0674423361627848
 40
0.0674423361627848
 40
0.0674423361627848
 40
0.0674423361627848
 10
33.01457568379826
 20
3.810909490582389
 30
0.0
 10
33.02040042263185
 20
3.801628136003557
 30
0.0
 10
33.0384599543678
 20
3.786180150026211
 30
0.0
 10
33.06145841890893
 20
3.781420020688528
 30
0.0
 10
33.07297412129825
 20
3.781832342144923
 30
0.0
 11
33.01457568379826
 21
3.810909490582389
 31
0.0
 11
33.03917968730215
 21
3.78910706191499
 31
0.0
 11
33.07297412129825
 21
3.781832342144923
 31
0.0
  0
SPLINE
  5
191
330
2
100
AcDbEntity
  8
GAIKEI
  6
Continuous
 62
     1
100
AcDbSpline
210
0.0
220
0.0
230
1.0
 70
     8
 71
     3
 72
     9
 73
     5
 74
     3
 42
0.0000000001
 43
0.0000000001
 44
0.000001
 12
0.7133260416388183
 22
-0.7008323325303243
 32
0.0
 13
0.9674089049294847
 23
-0.253219293623403
 33
0.0
 40
0.0
 40
0.0
 40
0.0
 40
0.0
 40
0.029559923816923
 40
0.065653163115886
 40
0.065653163115886
 40
0.065653163115886
 40
0.065653163115886
 10
33.01457568379826
 20
3.917208318707423
 30
0.0
 10
33.02160430494742
 20
3.910302801921403
 30
0.0
 10
33.04084743175894
 20
3.898998581264237
 30
0.0
 10
33.0613351475964
 20
3.891189878821109
 30
0.0
 10
33.07297412129825
 20
3.888143377301162
 30
0.0
 11
33.01457568379826
 21
3.917208318707423
 31
0.0
 11
33.03918555277173
 21
3.90083276211925
 31
0.0
 11
33.07297412129825
 21
3.888143377301162
 31
0.0
  0
LINE
  5
192
330
2
100
AcDbEntity
  8
GAIKEI
  6
Continuous
100
AcDbLine
 10
36.98169970085408
 20
8.273451195686732
 30
0.0
 11
36.98169970085408
 21
5.422071645686742
 31
0.0
  0
LINE
  5
193
330
2
100
AcDbEntity
  8
GAIKEI
  6
Continuous
100
AcDbLine
 10
37.25672415085407
 20
8.14314114568674
 30
0.0
 11
37.25672415085407
 21
8.264356945686756
 31
0.0
  0
LINE
  5
194
330
2
100
AcDbEntity
  8
GAIKEI
  6
Continuous
 62
     1
100
AcDbLine
 10
36.68963735085404
 20
8.18506424568676
 30
0.0
 11
36.38661280085407
 21
8.04376154568672
 31
0.0
  0
LINE
  5
195
330
2
100
AcDbEntity
  8
GAIKEI
  6
Continuous
 62
     1
100
AcDbLine
 10
37.02503470085404
 20
8.261427295686758
 30
0.0
 11
37.02503470085404
 21
7.988233895686732
 31
0.0
  0
LINE
  5
196
330
2
100
AcDbEntity
  8
GAIKEI
  6
Continuous
 62
     1
100
AcDbLine
 10
37.09791065085406
 20
8.14314114568674
 30
0.0
 11
37.09791065085406
 21
8.264356945686756
 31
0.0
  0
SPLINE
  5
197
330
2
100
AcDbEntity
  8
GAIKEI
  6
Continuous
 62
     1
100
AcDbSpline
210
0.0
220
0.0
230
1.0
 70
     8
 71
     3
 72
    11
 73
     7
 74
     5
 42
0.0000000001
 43
0.0000000001
 44
0.000001
 12
0.0015222858712839
 22
0.9999988413221919
 32
0.0
 13
-0.4566484066018179
 23
-0.8896472518633556
 33
0.0
 40
0.0
 40
0.0
 40
0.0
 40
0.0
 40
0.0355010350953111
 40
0.0727369138243373
 40
0.1352504283146073
 40
0.2154916644102205
 40
0.2154916644102205
 40
0.2154916644102205
 40
0.2154916644102205
 10
37.25672415503633
 20
8.14314113476621
 30
0.0
 10
37.2567421692777
 20
8.154974799419903
 30
0.0
 10
37.2507545009246
 20
8.180450226057189
 30
0.0
 10
37.21168707573483
 20
8.208547947513267
 30
0.0
 10
37.1456800158154
 20
8.205946653718314
 30
0.0
 10
37.11012467987675
 20
8.166936599825731
 30
0.0
 10
37.0979106690078
 20
8.14314113476621
 30
0.0
 11
37.25672415503633
 21
8.14314113476621
 31
0.0
 11
37.24731865250308
 21
8.177374583970959
 31
0.0
 11
37.21790579334757
 21
8.20020900926147
 31
0.0
 11
37.15540156666478
 21
8.199118589359386
 31
0.0
 11
37.0979106690078
 21
8.14314113476621
 31
0.0
  0
SPLINE
  5
198
330
2
100
AcDbEntity
  8
GAIKEI
  6
Continuous
 62
     1
100
AcDbSpline
210
0.0
220
0.0
230
1.0
 70
     8
 71
     3
 72
    13
 73
     9
 74
     7
 42
0.0000000001
 43
0.0000000001
 44
0.000001
 12
0.753073790038753
 22
0.6579360658579742
 32
0.0
 13
-1.0
 23
0.0000000000000001
 33
0.0
 40
0.0
 40
0.0
 40
0.0
 40
0.0
 40
0.078305669011142
 40
0.1797051934013595
 40
0.3131113426639802
 40
0.4219399968709448
 40
0.49525448473264
 40
0.5221143207126092
 40
0.5221143207126092
 40
0.5221143207126092
 40
0.5221143207126092
 10
36.56586718026429
 20
7.957777354186418
 30
0.0
 10
36.58552382924554
 20
7.974950728787604
 30
0.0
 10
36.63284656563872
 20
8.011461056590633
 30
0.0
 10
36.71731642775831
 20
8.074720093733617
 30
0.0
 10
36.80290329834754
 20
8.142211642148254
 30
0.0
 10
36.90345987352456
 20
8.210591544064101
 30
0.0
 10
36.92656297156017
 20
8.241366251686855
 30
0.0
 10
36.99065300324108
 20
8.273451201127045
 30
0.0
 10
36.98169972458109
 20
8.273451201127045
 30
0.0
 11
36.56586718026429
 21
7.957777354186418
 31
0.0
 11
36.6269839780314
 21
8.006730018558869
 31
0.0
 11
36.70777392700384
 21
8.068006852944108
 31
0.0
 11
36.8141378585797
 21
8.148529626628203
 31
0.0
 11
36.90124270605557
 21
8.213770888618228
 31
0.0
 11
36.96009461339995
 21
8.257491219816927
 31
0.0
 11
36.98169972458109
 21
8.273451201127045
 31
0.0
  0
SPLINE
  5
199
330
2
100
AcDbEntity
  8
GAIKEI
  6
Continuous
 62
     1
100
AcDbSpline
210
0.0
220
0.0
230
1.0
 70
     8
 71
     3
 72
    11
 73
     7
 74
     5
 42
0.0000000001
 43
0.0000000001
 44
0.000001
 12
0.4074081346236131
 22
-0.9132461945403923
 32
0.0
 13
-0.9062446231407077
 23
-0.4227536907332174
 33
0.0
 40
0.0
 40
0.0
 40
0.0
 40
0.0
 40
0.1850918351636987
 40
0.3390809074840097
 40
0.4470239600373404
 40
0.499259403921827
 40
0.499259403921827
 40
0.499259403921827
 40
0.499259403921827
 10
36.2738749753602
 20
8.519544965795375
 30
0.0
 10
36.29901094845957
 20
8.463200161094135
 30
0.0
 10
36.3412781015312
 20
8.359614317553905
 30
0.0
 10
36.38568528970009
 20
8.212307316879474
 30
0.0
 10
36.40508914900238
 20
8.119395523685994
 30
0.0
 10
36.40238627905919
 20
8.051136803365011
 30
0.0
 10
36.3866069156733
 20
8.043775894468581
 30
0.0
 11
36.2738749753602
 21
8.519544965795375
 31
0.0
 11
36.34259686082547
 21
8.34768461293919
 31
0.0
 11
36.38685687335399
 21
8.20019333882692
 31
0.0
 11
36.40280892196396
 21
8.093435610367123
 31
0.0
 11
36.3866069156733
 21
8.043775894468581
 31
0.0
  0
SPLINE
  5
19A
330
2
100
AcDbEntity
  8
GAIKEI
  6
Continuous
 62
     1
100
AcDbSpline
210
0.0
220
0.0
230
1.0
 70
     8
 71
     3
 72
    17
 73
    13
 74
    11
 42
0.0000000001
 43
0.0000000001
 44
0.000001
 12
-0.906290852003762
 22
-0.4226545771363364
 32
0.0
 13
-0.0003835314305866
 23
-0.999999926451818
 33
0.0
 40
0.0
 40
0.0
 40
0.0
 40
0.0
 40
0.0845299821498808
 40
0.1692029274634168
 40
0.2946986072013547
 40
0.4143442631848488
 40
0.4839228813460362
 40
0.5519287181989924
 40
0.6202611840005189
 40
0.6900745335493872
 40
0.7419164228007201
 40
0.7965618430600723
 40
0.7965618430600723
 40
0.7965618430600723
 40
0.7965618430600723
 10
36.2738749753602
 20
8.519544965795375
 30
0.0
 10
36.24833872551271
 20
8.507635971175062
 30
0.0
 10
36.19849584228253
 20
8.481092796805739
 30
0.0
 10
36.11650253071656
 20
8.426253536223441
 30
0.0
 10
36.04557911888554
 20
8.338337036604571
 30
0.0
 10
36.01363734422253
 20
8.236486525930843
 30
0.0
 10
36.00517135543839
 20
8.150978352967143
 30
0.0
 10
36.00740086102147
 20
8.082210514041435
 30
0.0
 10
36.01578903370208
 20
8.013962705858773
 30
0.0
 10
36.0265171374937
 20
7.951545209447573
 30
0.0
 10
36.03623069358933
 20
7.893582876472834
 30
0.0
 10
36.03889659587022
 20
7.858072564029612
 30
0.0
 10
36.03888960979148
 20
7.839857425282843
 30
0.0
 11
36.2738749753602
 21
8.519544965795375
 31
0.0
 11
36.19922733382671
 21
8.47988187585463
 31
0.0
 11
36.13001510350424
 21
8.431105019117694
 31
0.0
 11
36.0516150365676
 21
8.33311196689749
 31
0.0
 11
36.01374312391764
 21
8.219618190105848
 31
0.0
 11
36.00665765445709
 21
8.150401220805292
 31
0.0
 11
36.00840930389043
 21
8.082417903855457
 31
0.0
 11
36.01626109108108
 21
8.014538021846476
 31
0.0
 11
36.02747603489243
 21
7.945631357368711
 31
0.0
 11
36.03531653023194
 21
7.894385815839655
 31
0.0
 11
36.03888960979148
 21
7.839857425282843
 31
0.0
  0
LINE
  5
19B
330
2
100
AcDbEntity
  8
GAIKEI
  6
Continuous
100
AcDbLine
 10
35.06672410085403
 20
33.95915169568673
 30
0.0
 11
35.06672410085403
 21
3.864119945686752
 31
0.0
  0
LINE
  5
19C
330
2
100
AcDbEntity
  8
GAIKEI
  6
Continuous
100
AcDbLine
 10
32.86672410085405
 20
33.68251594568676
 30
0.0
 11
32.86672410085405
 21
4.410799645686722
 31
0.0
  0
LINE
  5
19D
330
2
100
AcDbEntity
  8
GAIKEI
  6
Continuous
 62
     1
100
AcDbLine
 10
33.08059130085408
 20
33.85782109568675
 30
0.0
 11
33.08059130085408
 21
3.965450495686752
 31
0.0
  0
LINE
  5
19E
330
2
100
AcDbEntity
  8
GAIKEI
  6
Continuous
 62
     1
100
AcDbLine
 10
35.01418505085408
 20
3.864119945686752
 30
0.0
 11
35.01418505085408
 21
33.95915169568673
 31
0.0
  0
LINE
  5
19F
330
2
100
AcDbEntity
  8
GAIKEI
  6
Continuous
 62
     1
100
AcDbLine
 10
33.02102100085406
 20
3.965450495686752
 30
0.0
 11
33.02102100085406
 21
33.85782109568675
 31
0.0
  0
ARC
  5
1A0
330
2
100
AcDbEntity
  8
GAIKEI
  6
Continuous
100
AcDbCircle
 10
9.008948321370127
 20
33.96163584568672
 30
0.0
 40
0.2
100
AcDbArc
 50
0.0
 51
90.0
  0
ARC
  5
1A1
330
2
100
AcDbEntity
  8
GAIKEI
  6
Continuous
 62
     1
100
AcDbCircle
 10
7.708948321370115
 20
32.6616358456867
 30
0.0
 40
0.10628895
100
AcDbArc
 50
0.0
 51
90.0
  0
ARC
  5
1A2
330
2
100
AcDbEntity
  8
GAIKEI
  6
Continuous
 62
     1
100
AcDbCircle
 10
7.708948321370115
 20
32.6616358456867
 30
0.0
 40
0.18
100
AcDbArc
 50
0.0
 51
90.0
  0
ARC
  5
1A3
330
2
100
AcDbEntity
  8
GAIKEI
  6
Continuous
 62
     1
100
AcDbCircle
 10
7.708948321370115
 20
32.6616358456867
 30
0.0
 40
0.1
100
AcDbArc
 50
0.0
 51
90.0
  0
ARC
  5
1A4
330
2
100
AcDbEntity
  8
GAIKEI
  6
Continuous
100
AcDbCircle
 10
9.008948321370127
 20
33.96163584568672
 30
0.0
 40
0.2
100
AcDbArc
 50
0.0
 51
90.0
  0
ARC
  5
1A5
330
2
100
AcDbEntity
  8
GAIKEI
  6
Continuous
 62
     1
100
AcDbCircle
 10
8.623948321370136
 20
33.57663584568673
 30
0.0
 40
0.2
100
AcDbArc
 50
0.0
 51
90.0
  0
ARC
  5
1A6
330
2
100
AcDbEntity
  8
GAIKEI
  6
Continuous
 62
     1
100
AcDbCircle
 10
8.902822571370137
 20
33.85551009568672
 30
0.0
 40
0.2
100
AcDbArc
 50
0.0
 51
90.0
  0
ARC
  5
1A7
330
2
100
AcDbEntity
  8
GAIKEI
  6
Continuous
100
AcDbCircle
 10
9.008948321370127
 20
3.861635845686691
 30
0.0
 40
0.2
100
AcDbArc
 50
270.0
 51
0.0
  0
ARC
  5
1A8
330
2
100
AcDbEntity
  8
GAIKEI
  6
Continuous
 62
     1
100
AcDbCircle
 10
7.708948321370115
 20
5.161635845686703
 30
0.0
 40
0.10628895
100
AcDbArc
 50
270.0
 51
0.0
  0
ARC
  5
1A9
330
2
100
AcDbEntity
  8
GAIKEI
  6
Continuous
 62
     1
100
AcDbCircle
 10
7.708948321370115
 20
5.161635845686703
 30
0.0
 40
0.18
100
AcDbArc
 50
270.0
 51
0.0
  0
ARC
  5
1AA
330
2
100
AcDbEntity
  8
GAIKEI
  6
Continuous
 62
     1
100
AcDbCircle
 10
7.708948321370115
 20
5.161635845686703
 30
0.0
 40
0.1
100
AcDbArc
 50
270.0
 51
0.0
  0
ARC
  5
1AB
330
2
100
AcDbEntity
  8
GAIKEI
  6
Continuous
100
AcDbCircle
 10
9.008948321370127
 20
3.861635845686691
 30
0.0
 40
0.2
100
AcDbArc
 50
270.0
 51
0.0
  0
ARC
  5
1AC
330
2
100
AcDbEntity
  8
GAIKEI
  6
Continuous
 62
     1
100
AcDbCircle
 10
8.623948321370136
 20
4.246635845686682
 30
0.0
 40
0.2
100
AcDbArc
 50
270.0
 51
0.0
  0
ARC
  5
1AD
330
2
100
AcDbEntity
  8
GAIKEI
  6
Continuous
 62
     1
100
AcDbCircle
 10
8.902822571370137
 20
3.967761595686681
 30
0.0
 40
0.2
100
AcDbArc
 50
270.0
 51
0.0
  0
LINE
  5
1AE
330
2
100
AcDbEntity
  8
GAIKEI
  6
Continuous
 62
     1
100
AcDbLine
 10
6.708948321370115
 20
5.961635845686714
 30
0.0
 11
6.708948321370115
 21
31.86163584568669
 31
0.0
  0
LINE
  5
1AF
330
2
100
AcDbEntity
  8
GAIKEI
  6
Continuous
 62
     1
100
AcDbLine
 10
8.823948321370124
 20
33.57663584568673
 30
0.0
 11
8.823948321370124
 21
4.246635845686682
 31
0.0
  0
LINE
  5
1B0
330
2
100
AcDbEntity
  8
GAIKEI
  6
Continuous
100
AcDbLine
 10
9.208948321370115
 20
33.96163584568672
 30
0.0
 11
9.208948321370115
 21
3.861635845686691
 31
0.0
  0
LINE
  5
1B1
330
2
100
AcDbEntity
  8
GAIKEI
  6
Continuous
 62
     1
100
AcDbLine
 10
7.808948321370138
 20
32.6616358456867
 30
0.0
 11
7.808948321370138
 21
5.161635845686703
 31
0.0
  0
LINE
  5
1B2
330
2
100
AcDbEntity
  8
GAIKEI
  6
Continuous
 62
     1
100
AcDbLine
 10
7.888948321370122
 20
32.6616358456867
 30
0.0
 11
7.888948321370122
 21
5.161635845686703
 31
0.0
  0
LINE
  5
1B3
330
2
100
AcDbEntity
  8
GAIKEI
  6
Continuous
 62
     1
100
AcDbLine
 10
9.102822571370126
 20
33.85551009568672
 30
0.0
 11
9.102822571370126
 21
3.967761595686681
 31
0.0
  0
LINE
  5
1B4
330
2
100
AcDbEntity
  8
GAIKEI
  6
Continuous
 62
     1
100
AcDbLine
 10
7.815237271370136
 20
32.6616358456867
 30
0.0
 11
7.815237271370136
 21
5.161635845686703
 31
0.0
  0
DIMENSION
  5
1B5
330
2
100
AcDbEntity
  8
SUNPO
100
AcDbDimension
  2
*D6
 10
16.76927772338018
 20
34.16163584568675
 30
0.0
 11
15.01927772338018
 21
18.91163584568676
 31
0.0
 70
    33
  1
610
 71
     5
 42
30.5
  3
STANDARD
100
AcDbAlignedDimension
 13
8.769277723380184
 23
3.66163584568676
 33
0.0
 14
8.769277723380184
 24
34.16163584568676
 34
0.0
1001
ACAD
1000
DSTYLE
1002
{
1070
   287
1070
     3
1070
   287
1070
     3
1070
   287
1070
     3
1070
   287
1070
     3
1070
   287
1070
     3
1070
   287
1070
     3
1070
   287
1070
     3
1070
   287
1070
     3
1070
   287
1070
     3
1070
   287
1070
     3
1070
   287
1070
     3
1070
   287
1070
     3
1070
   287
1070
     3
1070
   287
1070
     3
1070
   287
1070
     3
1070
   287
1070
     3
1070
   287
1070
     3
1070
   287
1070
     3
1070
   287
1070
     3
1070
   287
1070
     3
1070
   287
1070
     3
1070
   287
1070
     3
1070
   287
1070
     3
1070
   287
1070
     3
1070
   287
1070
     3
1070
   287
1070
     3
1070
   287
1070
     3
1070
   287
1070
     3
1070
   287
1070
     3
1070
   287
1070
     3
1070
   287
1070
     3
1070
   287
1070
     3
1070
   287
1070
     3
1070
   287
1070
     3
1070
    40
1040
1.0
1070
   140
1040
2.5
1070
   147
1040
0.5
1070
   172
1070
     1
1070
   279
1070
     0
1002
}
  0
ARC
  5
1C4
330
2
100
AcDbEntity
  8
GAIKEI
  6
Continuous
100
AcDbCircle
 10
-41.59105167862984
 20
33.96163584568672
 30
0.0
 40
0.2
100
AcDbArc
 50
90.0
 51
180.0
  0
ARC
  5
1C5
330
2
100
AcDbEntity
  8
GAIKEI
  6
Continuous
 62
     1
100
AcDbCircle
 10
-40.29105167862988
 20
32.6616358456867
 30
0.0
 40
0.10628895
100
AcDbArc
 50
90.0
 51
180.0
  0
ARC
  5
1C6
330
2
100
AcDbEntity
  8
GAIKEI
  6
Continuous
 62
     1
100
AcDbCircle
 10
-40.29105167862988
 20
32.6616358456867
 30
0.0
 40
0.18
100
AcDbArc
 50
90.0
 51
180.0
  0
ARC
  5
1C7
330
2
100
AcDbEntity
  8
GAIKEI
  6
Continuous
 62
     1
100
AcDbCircle
 10
-40.29105167862988
 20
32.6616358456867
 30
0.0
 40
0.1
100
AcDbArc
 50
90.0
 51
180.0
  0
ARC
  5
1C8
330
2
100
AcDbEntity
  8
GAIKEI
  6
Continuous
100
AcDbCircle
 10
-41.59105167862984
 20
33.96163584568672
 30
0.0
 40
0.2
100
AcDbArc
 50
90.0
 51
180.0
  0
ARC
  5
1C9
330
2
100
AcDbEntity
  8
GAIKEI
  6
Continuous
 62
     1
100
AcDbCircle
 10
-41.20605167862985
 20
33.57663584568673
 30
0.0
 40
0.2
100
AcDbArc
 50
90.0
 51
180.0
  0
ARC
  5
1CA
330
2
100
AcDbEntity
  8
GAIKEI
  6
Continuous
 62
     1
100
AcDbCircle
 10
-41.4849259286299
 20
33.85551009568672
 30
0.0
 40
0.2
100
AcDbArc
 50
90.0
 51
180.0
  0
ARC
  5
1CB
330
2
100
AcDbEntity
  8
GAIKEI
  6
Continuous
100
AcDbCircle
 10
-41.59105167862984
 20
3.861635845686691
 30
0.0
 40
0.2
100
AcDbArc
 50
180.0
 51
270.0
  0
LINE
  5
1CC
330
2
100
AcDbEntity
  8
GAIKEI
  6
Continuous
 62
     1
100
AcDbLine
 10
-38.85105167862989
 20
4.18663584568668
 30
0.0
 11
-38.85105167862989
 21
4.486635845686691
 31
0.0
  0
LINE
  5
1CD
330
2
100
AcDbEntity
  8
GAIKEI
  6
Continuous
 62
     1
100
AcDbLine
 10
-38.87605167862986
 20
4.161635845686703
 30
0.0
 11
-39.17605167862987
 21
4.161635845686703
 31
0.0
  0
LINE
  5
1CE
330
2
100
AcDbEntity
  8
GAIKEI
  6
Continuous
 62
     1
100
AcDbLine
 10
-38.87605167862986
 20
4.511635845686726
 30
0.0
 11
-39.17605167862987
 21
4.511635845686726
 31
0.0
  0
LINE
  5
1CF
330
2
100
AcDbEntity
  8
GAIKEI
  6
Continuous
 62
     1
100
AcDbLine
 10
-39.20105167862985
 20
4.18663584568668
 30
0.0
 11
-39.20105167862985
 21
4.486635845686691
 31
0.0
  0
ARC
  5
1D0
330
2
100
AcDbEntity
  8
GAIKEI
  6
Continuous
 62
     1
100
AcDbCircle
 10
-39.17605167862987
 20
4.486635845686691
 30
0.0
 40
0.025
100
AcDbArc
 50
90.0
 51
180.0
  0
ARC
  5
1D1
330
2
100
AcDbEntity
  8
GAIKEI
  6
Continuous
 62
     1
100
AcDbCircle
 10
-38.87605167862986
 20
4.486635845686691
 30
0.0
 40
0.025
100
AcDbArc
 50
0.0
 51
90.0
  0
ARC
  5
1D2
330
2
100
AcDbEntity
  8
GAIKEI
  6
Continuous
 62
     1
100
AcDbCircle
 10
-39.17605167862987
 20
4.18663584568668
 30
0.0
 40
0.025
100
AcDbArc
 50
180.0
 51
270.0
  0
ARC
  5
1D3
330
2
100
AcDbEntity
  8
GAIKEI
  6
Continuous
 62
     1
100
AcDbCircle
 10
-38.87605167862986
 20
4.18663584568668
 30
0.0
 40
0.025
100
AcDbArc
 50
270.0
 51
0.0
  0
ARC
  5
1D4
330
2
100
AcDbEntity
  8
GAIKEI
  6
Continuous
 62
     1
100
AcDbCircle
 10
-41.20605167862985
 20
4.246635845686682
 30
0.0
 40
0.2
100
AcDbArc
 50
180.0
 51
270.0
  0
ARC
  5
1D5
330
2
100
AcDbEntity
  8
GAIKEI
  6
Continuous
100
AcDbCircle
 10
-41.59105167862984
 20
3.861635845686691
 30
0.0
 40
0.2
100
AcDbArc
 50
180.0
 51
270.0
  0
ARC
  5
1D6
330
2
100
AcDbEntity
  8
GAIKEI
  6
Continuous
 62
     1
100
AcDbCircle
 10
-40.29105167862988
 20
5.161635845686703
 30
0.0
 40
0.1
100
AcDbArc
 50
180.0
 51
270.0
  0
ARC
  5
1D7
330
2
100
AcDbEntity
  8
GAIKEI
  6
Continuous
 62
     1
100
AcDbCircle
 10
-40.29105167862988
 20
5.161635845686703
 30
0.0
 40
0.18
100
AcDbArc
 50
180.0
 51
270.0
  0
ARC
  5
1D8
330
2
100
AcDbEntity
  8
GAIKEI
  6
Continuous
 62
     1
100
AcDbCircle
 10
-41.4849259286299
 20
3.967761595686681
 30
0.0
 40
0.2
100
AcDbArc
 50
180.0
 51
270.0
  0
ARC
  5
1D9
330
2
100
AcDbEntity
  8
GAIKEI
  6
Continuous
 62
     1
100
AcDbCircle
 10
-40.29105167862988
 20
5.161635845686703
 30
0.0
 40
0.10628895
100
AcDbArc
 50
180.0
 51
270.0
  0
LINE
  5
1DA
330
2
100
AcDbEntity
  8
GAIKEI
  6
Continuous
 62
     1
100
AcDbLine
 10
-39.29105167862989
 20
5.961635845686714
 30
0.0
 11
-39.29105167862989
 21
31.86163584568669
 31
0.0
  0
LINE
  5
1DB
330
2
100
AcDbEntity
  8
GAIKEI
  6
Continuous
 62
     1
100
AcDbLine
 10
-41.68492592862984
 20
33.85551009568672
 30
0.0
 11
-41.68492592862984
 21
3.967761595686681
 31
0.0
  0
LINE
  5
1DC
330
2
100
AcDbEntity
  8
GAIKEI
  6
Continuous
100
AcDbLine
 10
-41.79105167862988
 20
3.861635845686691
 30
0.0
 11
-41.79105167862988
 21
33.96163584568672
 31
0.0
  0
LINE
  5
1DD
330
2
100
AcDbEntity
  8
GAIKEI
  6
Continuous
 62
     1
100
AcDbLine
 10
-41.40605167862989
 20
33.57663584568673
 30
0.0
 11
-41.40605167862989
 21
4.246635845686682
 31
0.0
  0
LINE
  5
1DE
330
2
100
AcDbEntity
  8
GAIKEI
  6
Continuous
 62
     1
100
AcDbLine
 10
-40.39105167862991
 20
32.6616358456867
 30
0.0
 11
-40.39105167862991
 21
5.161635845686703
 31
0.0
  0
LINE
  5
1DF
330
2
100
AcDbEntity
  8
GAIKEI
  6
Continuous
 62
     1
100
AcDbLine
 10
-40.47105167862983
 20
32.6616358456867
 30
0.0
 11
-40.47105167862983
 21
5.161635845686703
 31
0.0
  0
LINE
  5
1E0
330
2
100
AcDbEntity
  8
GAIKEI
  6
Continuous
 62
     1
100
AcDbLine
 10
-40.3973406286299
 20
32.6616358456867
 30
0.0
 11
-40.3973406286299
 21
5.161635845686703
 31
0.0
  0
LINE
  5
1E1
330
2
100
AcDbEntity
  8
GAIKEI
  6
Continuous
 62
     1
100
AcDbLine
 10
-16.29105167862988
 20
33.77663584568671
 30
0.0
 11
-41.20605167862985
 21
33.77663584568671
 31
0.0
  0
LINE
  5
1E2
330
2
100
AcDbEntity
  8
GAIKEI
  6
Continuous
 62
     1
100
AcDbLine
 10
-40.29105167862988
 20
32.76163584568673
 30
0.0
 11
-16.29105167862988
 21
32.76163584568673
 31
0.0
  0
LINE
  5
1E3
330
2
100
AcDbEntity
  8
GAIKEI
  6
Continuous
 62
     1
100
AcDbLine
 10
-40.29105167862988
 20
32.84163584568671
 30
0.0
 11
-16.29105167862988
 21
32.84163584568671
 31
0.0
  0
LINE
  5
1E4
330
2
100
AcDbEntity
  8
GAIKEI
  6
Continuous
 62
     1
100
AcDbLine
 10
-16.29105167862988
 20
32.76792479568673
 30
0.0
 11
-40.29105167862988
 21
32.76792479568673
 31
0.0
  0
DIMENSION
  5
1E5
330
2
100
AcDbEntity
  8
SUNPO
100
AcDbDimension
  2
*D5
 10
8.758948321370155
 20
42.16134940133542
 30
0.0
 11
-16.29105167862985
 21
43.91134940133542
 31
0.0
 70
    33
  1
1020
 71
     5
 42
50.10000000000002
  3
STANDARD
100
AcDbAlignedDimension
 13
-41.34105167862986
 23
34.16134940133543
 33
0.0
 14
8.758948321370155
 24
34.16134940133543
 34
0.0
1001
ACAD
1000
DSTYLE
1002
{
1070
   287
1070
     3
1070
   287
1070
     3
1070
   287
1070
     3
1070
   287
1070
     3
1070
   287
1070
     3
1070
   287
1070
     3
1070
   287
1070
     3
1070
   287
1070
     3
1070
   287
1070
     3
1070
   287
1070
     3
1070
   287
1070
     3
1070
   287
1070
     3
1070
   287
1070
     3
1070
   287
1070
     3
1070
   287
1070
     3
1070
   287
1070
     3
1070
   287
1070
     3
1070
   287
1070
     3
1070
   287
1070
     3
1070
   287
1070
     3
1070
   287
1070
     3
1070
   287
1070
     3
1070
   287
1070
     3
1070
   287
1070
     3
1070
   287
1070
     3
1070
   287
1070
     3
1070
   287
1070
     3
1070
   287
1070
     3
1070
   287
1070
     3
1070
   287
1070
     3
1070
   287
1070
     3
1070
   287
1070
     3
1070
   287
1070
     3
1070
   287
1070
     3
1070
    40
1040
1.0
1070
   140
1040
2.5
1070
   147
1040
0.5
1070
   172
1070
     1
1070
   279
1070
     0
1002
}
  0
LINE
  5
1F2
330
2
100
AcDbEntity
  8
GAIKEI
  6
Continuous
 62
     1
100
AcDbLine
 10
-39.29105167862989
 20
5.961635845686714
 30
0.0
 11
6.708948321370115
 21
5.961635845686714
 31
0.0
  0
LINE
  5
1F3
330
2
100
AcDbEntity
  8
GAIKEI
  6
Continuous
 62
     1
100
AcDbLine
 10
-39.29105167862989
 20
31.86163584568669
 30
0.0
 11
6.708948321370115
 21
31.86163584568669
 31
0.0
  0
LINE
  5
1F4
330
2
100
AcDbEntity
  8
GAIKEI
  6
Continuous
 62
     1
100
AcDbLine
 10
-40.29105167862988
 20
4.981635845686696
 30
0.0
 11
7.708948321370115
 21
4.981635845686696
 31
0.0
  0
LINE
  5
1F5
330
2
100
AcDbEntity
  8
GAIKEI
  6
Continuous
 62
     1
100
AcDbLine
 10
-41.4849259286299
 20
3.767761595686692
 30
0.0
 11
8.902822571370137
 21
3.767761595686692
 31
0.0
  0
LINE
  5
1F6
330
2
100
AcDbEntity
  8
GAIKEI
  6
Continuous
 62
     1
100
AcDbLine
 10
-40.29105167862988
 20
5.055346895686682
 30
0.0
 11
7.708948321370115
 21
5.055346895686682
 31
0.0
  0
LINE
  5
1F7
330
2
100
AcDbEntity
  8
GAIKEI
  6
Continuous
 62
     1
100
AcDbLine
 10
-41.20605167862985
 20
4.046635845686694
 30
0.0
 11
8.623948321370136
 21
4.046635845686694
 31
0.0
  0
LINE
  5
1F8
330
2
100
AcDbEntity
  8
GAIKEI
  6
Continuous
100
AcDbLine
 10
-41.59105167862984
 20
3.661635845686703
 30
0.0
 11
9.008948321370127
 21
3.661635845686703
 31
0.0
  0
LINE
  5
1F9
330
2
100
AcDbEntity
  8
GAIKEI
  6
Continuous
 62
     1
100
AcDbLine
 10
7.708948321370115
 20
5.06163584568668
 30
0.0
 11
-40.29105167862988
 21
5.06163584568668
 31
0.0
  0
LINE
  5
1FA
330
2
100
AcDbEntity
  8
GAIKEI
  6
Continuous
 62
     1
100
AcDbLine
 10
-16.29105167862988
 20
33.77663584568671
 30
0.0
 11
8.623948321370136
 21
33.77663584568671
 31
0.0
  0
LINE
  5
1FB
330
2
100
AcDbEntity
  8
GAIKEI
  6
Continuous
100
AcDbLine
 10
-41.59105167862984
 20
34.1616358456867
 30
0.0
 11
9.008948321370127
 21
34.1616358456867
 31
0.0
  0
LINE
  5
1FC
330
2
100
AcDbEntity
  8
GAIKEI
  6
Continuous
 62
     1
100
AcDbLine
 10
7.708948321370115
 20
32.76163584568673
 30
0.0
 11
-16.29105167862988
 21
32.76163584568673
 31
0.0
  0
LINE
  5
1FD
330
2
100
AcDbEntity
  8
GAIKEI
  6
Continuous
 62
     1
100
AcDbLine
 10
7.708948321370115
 20
32.84163584568671
 30
0.0
 11
-16.29105167862988
 21
32.84163584568671
 31
0.0
  0
LINE
  5
1FE
330
2
100
AcDbEntity
  8
GAIKEI
  6
Continuous
 62
     1
100
AcDbLine
 10
-16.29105167862988
 20
32.76792479568673
 30
0.0
 11
7.708948321370115
 21
32.76792479568673
 31
0.0
  0
LINE
  5
1FF
330
2
100
AcDbEntity
  8
GAIKEI
  6
Continuous
 62
     1
100
AcDbLine
 10
-41.4849259286299
 20
34.05551009568672
 30
0.0
 11
8.902822571370137
 21
34.05551009568672
 31
0.0
  0
DIMENSION
  5
200
330
2
100
AcDbEntity
  8
SUNPO
100
AcDbDimension
  2
*D4
 10
37.316724100854
 20
42.16134940133542
 30
0.0
 11
43.90005743418734
 21
43.91134940133542
 31
0.0
 70
    33
  1
89
 71
     5
 42
4.449999999999988
  3
STANDARD
100
AcDbAlignedDimension
 13
32.86672410085401
 23
34.16134940133543
 33
0.0
 14
37.316724100854
 24
34.16134940133543
 34
0.0
1001
ACAD
1000
DSTYLE
1002
{
1070
   287
1070
     3
1070
   287
1070
     3
1070
   287
1070
     3
1070
   287
1070
     3
1070
   287
1070
     3
1070
   287
1070
     3
1070
   287
1070
     3
1070
   287
1070
     3
1070
   287
1070
     3
1070
   287
1070
     3
1070
   287
1070
     3
1070
   287
1070
     3
1070
   287
1070
     3
1070
   287
1070
     3
1070
   287
1070
     3
1070
   287
1070
     3
1070
   287
1070
     3
1070
   287
1070
     3
1070
   287
1070
     3
1070
   287
1070
     3
1070
   287
1070
     3
1070
   287
1070
     3
1070
   287
1070
     3
1070
   287
1070
     3
1070
   287
1070
     3
1070
   287
1070
     3
1070
   287
1070
     3
1070
   287
1070
     3
1070
    40
1040
1.0
1070
   140
1040
2.5
1070
   147
1040
0.5
1070
   172
1070
     1
1070
   279
1070
     0
1002
}
  0
TEXT
  5
20F
330
2
100
AcDbEntity
  8
TOUROKU
100
AcDbText
 10
37.24514777633564
 20
50.80643453358266
 30
0.0
 40
2.0
  1
ＴＨ４２ＰＨ１０ＫＲ
 72
     2
 11
60.57848110966898
 21
50.80643453358266
 31
0.0
100
AcDbText
  0
TEXT
  5
211
330
2
100
AcDbEntity
  8
MOJI1
100
AcDbText
 10
-37.42146892325858
 20
56.80643453358289
 30
0.0
 40
4.0
  1
ハイビジョンプラズマディスプレイ
100
AcDbText
  0
ENDSEC
  0
SECTION
  2
OBJECTS
  0
DICTIONARY
  5
9
330
0
100
AcDbDictionary
281
     1
  3
ACAD_COLOR
350
31
  3
ACAD_GROUP
350
2D
  3
ACAD_LAYOUT
350
D
  3
ACAD_MATERIAL
350
30
  3
ACAD_MLINESTYLE
350
2E
  3
ACAD_PLOTSETTINGS
350
2F
  3
ACAD_PLOTSTYLENAME
350
8
  3
ACDBHEADERROUNDTRIPXREC
350
254
  3
AcDbVariableDictionary
350
24F
  3
ASE_INDEX_DICTIONARY
350
21A
  0
DICTIONARY
  5
15
330
14
100
AcDbDictionary
280
     1
281
     1
  3
ACAD_LAYERFILTERS
360
16
  3
ACAD_LAYERSTATES
360
17
  0
DICTIONARY
  5
3
330
2
100
AcDbDictionary
280
     1
281
     1
  3
ACAD_LAYOUTSELFREF
360
4
  0
DICTIONARY
  5
F
330
E
100
AcDbDictionary
280
     1
281
     1
  3
ACAD_LAYOUTSELFREF
360
10
  0
DICTIONARY
  5
31
102
{ACAD_REACTORS
330
9
102
}
330
9
100
AcDbDictionary
281
     1
  0
DICTIONARY
  5
2D
102
{ACAD_REACTORS
330
9
102
}
330
9
100
AcDbDictionary
281
     1
  0
DICTIONARY
  5
D
102
{ACAD_REACTORS
330
9
102
}
330
9
100
AcDbDictionary
281
     1
  3
Model
350
C
  3
ﾚｲｱｳﾄ1
350
13
  0
DICTIONARY
  5
30
102
{ACAD_REACTORS
330
9
102
}
330
9
100
AcDbDictionary
281
     1
  0
DICTIONARY
  5
2E
102
{ACAD_REACTORS
330
9
102
}
330
9
100
AcDbDictionary
281
     1
  3
STANDARD
350
33
  0
DICTIONARY
  5
2F
102
{ACAD_REACTORS
330
9
102
}
330
9
100
AcDbDictionary
281
     1
  0
ACDBDICTIONARYWDFLT
  5
8
102
{ACAD_REACTORS
330
9
102
}
330
9
100
AcDbDictionary
281
     1
  3
Normal
350
7
100
AcDbDictionaryWithDefault
340
7
  0
DICTIONARY
  5
254
102
{ACAD_REACTORS
330
9
102
}
330
9
100
AcDbDictionary
281
     1
  3
COLORDICT
350
256
  3
MATERIALDICT
350
255
  0
DICTIONARY
  5
24F
102
{ACAD_REACTORS
330
9
102
}
330
9
100
AcDbDictionary
281
     1
  3
DIMASSOC
350
251
  3
HIDETEXT
350
250
  3
PROJECTNAME
350
252
  0
DICTIONARY
  5
21A
102
{ACAD_REACTORS
330
9
102
}
330
9
100
AcDbDictionary
281
     1
  3
ASEBlockHierarchyIndexRecord
350
21C
1001
DCO15
1040
1627819130.207
  0
DICTIONARY
  5
16
102
{ACAD_REACTORS
330
15
102
}
330
15
100
AcDbDictionary
280
     1
281
     1
  0
DICTIONARY
  5
17
102
{ACAD_REACTORS
330
15
102
}
330
15
100
AcDbDictionary
281
     1
  0
XRECORD
  5
4
102
{ACAD_REACTORS
330
3
102
}
330
3
100
AcDbXrecord
280
     1
340
2
  0
XRECORD
  5
10
102
{ACAD_REACTORS
330
F
102
}
330
F
100
AcDbXrecord
280
     1
340
E
  0
LAYOUT
  5
C
102
{ACAD_XDICTIONARY
360
257
102
}
102
{ACAD_REACTORS
330
D
102
}
330
D
100
AcDbPlotSettings
  1

  2
Ａ４－縦3FRIM01.pc3
  4
A4
  6

 40
5.873749732971191
 41
5.873747825622558
 42
5.873748779296875
 43
5.873748779296875
 44
209.9733276367187
 45
296.9259948730469
 46
5.4
 47
0.0
 48
0.0
 49
0.0
140
0.0
141
0.0
142
1.0
143
1.38269031500965
 70
 11956
 72
     1
 73
     0
 74
     1
  7
tmsacad.ctb
 75
     0
147
0.7232277460430613
148
0.5727848832457312
149
0.0092863522804691
100
AcDbLayout
  1
Model
 70
     1
 71
     0
 10
0.0
 20
0.0
 11
12.0
 21
9.0
 12
0.0
 22
0.0
 32
0.0
 14
0.0
 24
0.0
 34
0.0
 15
0.0
 25
0.0
 35
0.0
146
0.0
 13
0.0
 23
0.0
 33
0.0
 16
1.0
 26
0.0
 36
0.0
 17
0.0
 27
1.0
 37
0.0
 76
     0
330
2
  0
LAYOUT
  5
13
102
{ACAD_XDICTIONARY
360
259
102
}
102
{ACAD_REACTORS
330
D
102
}
330
D
100
AcDbPlotSettings
  1

  2
C:\Program Files\ACAD2000\plotters\DWF ePlot.pc3
  4

  6

 40
0.0
 41
0.0
 42
0.0
 43
0.0
 44
0.0
 45
0.0
 46
0.0
 47
0.0
 48
0.0
 49
0.0
140
0.0
141
0.0
142
1.0
143
1.0
 70
   688
 72
     0
 73
     0
 74
     5
  7
tmsacad.ctb
 75
    16
147
1.0
148
0.0
149
0.0
100
AcDbLayout
  1
ﾚｲｱｳﾄ1
 70
     1
 71
     1
 10
0.0
 20
0.0
 11
12.0
 21
9.0
 12
0.0
 22
0.0
 32
0.0
 14
1.000000000000000E+20
 24
1.000000000000000E+20
 34
1.000000000000000E+20
 15
-1.000000000000000E+20
 25
-1.000000000000000E+20
 35
-1.000000000000000E+20
146
0.0
 13
0.0
 23
0.0
 33
0.0
 16
1.0
 26
0.0
 36
0.0
 17
0.0
 27
1.0
 37
0.0
 76
     0
330
E
  0
MLINESTYLE
  5
33
102
{ACAD_REACTORS
330
2E
102
}
330
2E
100
AcDbMlineStyle
  2
STANDARD
 70
     0
  3

 62
   256
 51
90.0
 52
90.0
 71
     2
 49
0.5
 62
   256
  6
BYLAYER
 49
-0.5
 62
   256
  6
BYLAYER
  0
ACDBPLACEHOLDER
  5
7
102
{ACAD_REACTORS
330
8
102
}
330
8
  0
XRECORD
  5
256
102
{ACAD_REACTORS
330
254
102
}
330
254
100
AcDbXrecord
280
     1
340
31
  0
XRECORD
  5
255
102
{ACAD_REACTORS
330
254
102
}
330
254
100
AcDbXrecord
280
     1
340
30
  0
DICTIONARYVAR
  5
251
102
{ACAD_REACTORS
330
24F
102
}
330
24F
100
DictionaryVariables
280
     0
  1
1
  0
DICTIONARYVAR
  5
250
102
{ACAD_REACTORS
330
24F
102
}
330
24F
100
DictionaryVariables
280
     0
  1
1
  0
DICTIONARYVAR
  5
252
102
{ACAD_REACTORS
330
24F
102
}
330
24F
100
DictionaryVariables
280
     0
  1

  0
XRECORD
  5
21C
102
{ACAD_REACTORS
330
21A
102
}
330
21A
100
AcDbXrecord
280
     1
330
208
330
209
330
1EB
330
1EC
330
1BC
330
1BD
330
22F
330
230
330
23B
330
23C
330
247
330
248
  0
DICTIONARY
  5
257
330
C
100
AcDbDictionary
280
     1
281
     1
  3
ACAD_XREC_ROUNDTRIP
360
258
  0
DICTIONARY
  5
259
330
13
100
AcDbDictionary
280
     1
281
     1
  3
ACAD_XREC_ROUNDTRIP
360
25A
  0
XRECORD
  5
258
102
{ACAD_REACTORS
330
257
102
}
330
257
100
AcDbXrecord
280
     1
102
SHADEPLOT
 70
     0
102
SHADEPLOTRESLEVEL
 70
     2
102
SHADEPLOTCUSTOMDPI
 70
   300
  0
XRECORD
  5
25A
102
{ACAD_REACTORS
330
259
102
}
330
259
100
AcDbXrecord
280
     1
102
SHADEPLOT
 70
     0
102
SHADEPLOTRESLEVEL
 70
     2
102
SHADEPLOTCUSTOMDPI
 70
   300
  0
ENDSEC
  0
EOF
