  0
SECTION
  2
HEADER
  9
$ACADVER
  1
AC1015
  9
$ACADMAINTVER
 70
    20
  9
$DWGCODEPAGE
  3
ANSI_932
  9
$INSBASE
 10
129.499999944041
 20
120.5008351249346
 30
0.0
  9
$EXTMIN
 10
-67.04772859235254
 20
-61.59704527863891
 30
-0.0015258207003583
  9
$EXTMAX
 10
57.98584040019875
 20
51.42755167515429
 30
0.0000000349246037
  9
$LIMMIN
 10
0.0
 20
0.0
  9
$LIMMAX
 10
420.0
 20
297.0
  9
$ORTHOMODE
 70
     1
  9
$REGENMODE
 70
     0
  9
$FILLMODE
 70
     1
  9
$QTEXTMODE
 70
     0
  9
$MIRRTEXT
 70
     0
  9
$LTSCALE
 40
1.0
  9
$ATTMODE
 70
     1
  9
$TEXTSIZE
 40
2.5
  9
$TRACEWID
 40
1.0
  9
$TEXTSTYLE
  7
Standard
  9
$CLAYER
  8
MOJI1
  9
$CELTYPE
  6
ByLayer
  9
$CECOLOR
 62
   256
  9
$CELTSCALE
 40
1.0
  9
$DISPSILH
 70
     0
  9
$DIMSCALE
 40
1.0
  9
$DIMASZ
 40
2.0
  9
$DIMEXO
 40
2.0
  9
$DIMDLI
 40
8.0
  9
$DIMRND
 40
0.0
  9
$DIMDLE
 40
0.0
  9
$DIMEXE
 40
2.0
  9
$DIMTP
 40
0.0
  9
$DIMTM
 40
0.0
  9
$DIMTXT
 40
2.5
  9
$DIMCEN
 40
0.0
  9
$DIMTSZ
 40
0.0
  9
$DIMTOL
 70
     0
  9
$DIMLIM
 70
     0
  9
$DIMTIH
 70
     0
  9
$DIMTOH
 70
     0
  9
$DIMSE1
 70
     0
  9
$DIMSE2
 70
     0
  9
$DIMTAD
 70
     3
  9
$DIMZIN
 70
     0
  9
$DIMBLK
  1

  9
$DIMASO
 70
     1
  9
$DIMSHO
 70
     1
  9
$DIMPOST
  1

  9
$DIMAPOST
  1

  9
$DIMALT
 70
     0
  9
$DIMALTD
 70
     2
  9
$DIMALTF
 40
25.4
  9
$DIMLFAC
 40
1.0
  9
$DIMTOFL
 70
     1
  9
$DIMTVP
 40
0.0
  9
$DIMTIX
 70
     0
  9
$DIMSOXD
 70
     0
  9
$DIMSAH
 70
     1
  9
$DIMBLK1
  1
OPEN30
  9
$DIMBLK2
  1
OPEN30
  9
$DIMSTYLE
  2
STANDARD
  9
$DIMCLRD
 70
     0
  9
$DIMCLRE
 70
     0
  9
$DIMCLRT
 70
     0
  9
$DIMTFAC
 40
1.0
  9
$DIMGAP
 40
0.5
  9
$DIMJUST
 70
     0
  9
$DIMSD1
 70
     0
  9
$DIMSD2
 70
     0
  9
$DIMTOLJ
 70
     1
  9
$DIMTZIN
 70
     0
  9
$DIMALTZ
 70
     0
  9
$DIMALTTZ
 70
     0
  9
$DIMUPT
 70
     0
  9
$DIMDEC
 70
     4
  9
$DIMTDEC
 70
     4
  9
$DIMALTU
 70
     2
  9
$DIMALTTD
 70
     2
  9
$DIMTXSTY
  7
Standard
  9
$DIMAUNIT
 70
     0
  9
$DIMADEC
 70
     0
  9
$DIMALTRND
 40
0.0
  9
$DIMAZIN
 70
     0
  9
$DIMDSEP
 70
    46
  9
$DIMATFIT
 70
     3
  9
$DIMFRAC
 70
     0
  9
$DIMLDRBLK
  1
OPEN30
  9
$DIMLUNIT
 70
     2
  9
$DIMLWD
 70
    -2
  9
$DIMLWE
 70
    -2
  9
$DIMTMOVE
 70
     0
  9
$LUNITS
 70
     2
  9
$LUPREC
 70
     4
  9
$SKETCHINC
 40
1.0
  9
$FILLETRAD
 40
0.0
  9
$AUNITS
 70
     0
  9
$AUPREC
 70
     0
  9
$MENU
  1
.
  9
$ELEVATION
 40
0.0
  9
$PELEVATION
 40
0.0
  9
$THICKNESS
 40
0.0
  9
$LIMCHECK
 70
     0
  9
$CHAMFERA
 40
0.0
  9
$CHAMFERB
 40
0.0
  9
$CHAMFERC
 40
0.0
  9
$CHAMFERD
 40
0.0
  9
$SKPOLY
 70
     0
  9
$TDCREATE
 40
2454349.434269746
  9
$TDUCREATE
 40
2454349.059269746
  9
$TDUPDATE
 40
2454643.683402257
  9
$TDUUPDATE
 40
2454643.308402257
  9
$TDINDWG
 40
0.4697457523
  9
$TDUSRTIMER
 40
0.4697457523
  9
$USRTIMER
 70
     1
  9
$ANGBASE
 50
0.0
  9
$ANGDIR
 70
     0
  9
$PDMODE
 70
     0
  9
$PDSIZE
 40
0.0
  9
$PLINEWID
 40
0.0
  9
$SPLFRAME
 70
     0
  9
$SPLINETYPE
 70
     6
  9
$SPLINESEGS
 70
     8
  9
$HANDSEED
  5
3BA
  9
$SURFTAB1
 70
     6
  9
$SURFTAB2
 70
     6
  9
$SURFTYPE
 70
     6
  9
$SURFU
 70
     6
  9
$SURFV
 70
     6
  9
$UCSBASE
  2

  9
$UCSNAME
  2

  9
$UCSORG
 10
0.0
 20
0.0
 30
0.0
  9
$UCSXDIR
 10
1.0
 20
0.0
 30
0.0
  9
$UCSYDIR
 10
0.0
 20
1.0
 30
0.0
  9
$UCSORTHOREF
  2

  9
$UCSORTHOVIEW
 70
     0
  9
$UCSORGTOP
 10
0.0
 20
0.0
 30
0.0
  9
$UCSORGBOTTOM
 10
0.0
 20
0.0
 30
0.0
  9
$UCSORGLEFT
 10
0.0
 20
0.0
 30
0.0
  9
$UCSORGRIGHT
 10
0.0
 20
0.0
 30
0.0
  9
$UCSORGFRONT
 10
0.0
 20
0.0
 30
0.0
  9
$UCSORGBACK
 10
0.0
 20
0.0
 30
0.0
  9
$PUCSBASE
  2

  9
$PUCSNAME
  2

  9
$PUCSORG
 10
0.0
 20
0.0
 30
0.0
  9
$PUCSXDIR
 10
1.0
 20
0.0
 30
0.0
  9
$PUCSYDIR
 10
0.0
 20
1.0
 30
0.0
  9
$PUCSORTHOREF
  2

  9
$PUCSORTHOVIEW
 70
     0
  9
$PUCSORGTOP
 10
0.0
 20
0.0
 30
0.0
  9
$PUCSORGBOTTOM
 10
0.0
 20
0.0
 30
0.0
  9
$PUCSORGLEFT
 10
0.0
 20
0.0
 30
0.0
  9
$PUCSORGRIGHT
 10
0.0
 20
0.0
 30
0.0
  9
$PUCSORGFRONT
 10
0.0
 20
0.0
 30
0.0
  9
$PUCSORGBACK
 10
0.0
 20
0.0
 30
0.0
  9
$USERI1
 70
     0
  9
$USERI2
 70
     0
  9
$USERI3
 70
     0
  9
$USERI4
 70
     0
  9
$USERI5
 70
     0
  9
$USERR1
 40
0.0
  9
$USERR2
 40
0.0
  9
$USERR3
 40
0.0
  9
$USERR4
 40
0.0
  9
$USERR5
 40
0.0
  9
$WORLDVIEW
 70
     1
  9
$SHADEDGE
 70
     3
  9
$SHADEDIF
 70
    70
  9
$TILEMODE
 70
     1
  9
$MAXACTVP
 70
    64
  9
$PINSBASE
 10
0.0
 20
0.0
 30
0.0
  9
$PLIMCHECK
 70
     0
  9
$PEXTMIN
 10
0.0
 20
0.0
 30
0.0
  9
$PEXTMAX
 10
0.0
 20
0.0
 30
0.0
  9
$PLIMMIN
 10
0.0
 20
0.0
  9
$PLIMMAX
 10
12.0
 20
9.0
  9
$UNITMODE
 70
     0
  9
$VISRETAIN
 70
     1
  9
$PLINEGEN
 70
     0
  9
$PSLTSCALE
 70
     1
  9
$TREEDEPTH
 70
  3020
  9
$CMLSTYLE
  2
Standard
  9
$CMLJUST
 70
     0
  9
$CMLSCALE
 40
20.0
  9
$PROXYGRAPHICS
 70
     1
  9
$MEASUREMENT
 70
     1
  9
$CELWEIGHT
370
    -1
  9
$ENDCAPS
280
     0
  9
$JOINSTYLE
280
     0
  9
$LWDISPLAY
290
     0
  9
$INSUNITS
 70
     4
  9
$HYPERLINKBASE
  1

  9
$STYLESHEET
  1

  9
$XEDIT
290
     1
  9
$CEPSNTYPE
380
     0
  9
$PSTYLEMODE
290
     1
  9
$FINGERPRINTGUID
  2
{FDEAD578-A652-11D2-9A35-0060089B3A3F}
  9
$VERSIONGUID
  2
{ABF77FA2-9D1D-437E-AB23-B9224916CF41}
  9
$EXTNAMES
290
     1
  9
$PSVPSCALE
 40
0.0
  9
$OLESTARTUP
290
     0
  0
ENDSEC
  0
SECTION
  2
CLASSES
  0
CLASS
  1
ACDBDICTIONARYWDFLT
  2
AcDbDictionaryWithDefault
  3
ObjectDBX Classes
 90
        0
280
     0
281
     0
  0
CLASS
  1
ACDBPLACEHOLDER
  2
AcDbPlaceHolder
  3
ObjectDBX Classes
 90
        0
280
     0
281
     0
  0
CLASS
  1
LAYOUT
  2
AcDbLayout
  3
ObjectDBX Classes
 90
        0
280
     0
281
     0
  0
CLASS
  1
DICTIONARYVAR
  2
AcDbDictionaryVar
  3
ObjectDBX Classes
 90
        0
280
     0
281
     0
  0
CLASS
  1
SORTENTSTABLE
  2
AcDbSortentsTable
  3
ObjectDBX Classes
 90
        0
280
     0
281
     0
  0
CLASS
  1
DIMASSOC
  2
AcDbDimAssoc
  3
"AcDbDimAssoc|Product Desc:     AcDim ARX App For Dimension|Company:          Autodesk, Inc.|WEB Address:      www.autodesk.com"
 90
    32768
280
     0
281
     0
  0
ENDSEC
  0
SECTION
  2
TABLES
  0
TABLE
  2
VPORT
  5
1D
330
0
100
AcDbSymbolTable
 70
     4
  0
VPORT
  5
3B2
330
1D
100
AcDbSymbolTableRecord
100
AcDbViewportTableRecord
  2
*Active
 70
     0
 10
0.0
 20
0.0
 11
1.0
 21
1.0
 12
-4.53094409607689
 22
-5.084746801742312
 13
0.0
 23
0.0
 14
10.0
 24
10.0
 15
10.0
 25
10.0
 16
0.0
 26
0.0
 36
1.0
 17
0.0
 27
0.0
 37
0.0
 40
113.9180720285267
 41
1.439313984168865
 42
50.0
 43
0.0
 44
0.0
 50
0.0
 51
0.0
 71
     0
 72
 10000
 73
     1
 74
     2
 75
     0
 76
     0
 77
     0
 78
     0
281
     0
 65
     1
110
0.0
120
0.0
130
0.0
111
1.0
121
0.0
131
0.0
112
0.0
122
1.0
132
0.0
 79
     0
146
0.0
  0
ENDTAB
  0
TABLE
  2
LTYPE
  5
18
330
0
100
AcDbSymbolTable
 70
     2
  0
LTYPE
  5
19
330
18
100
AcDbSymbolTableRecord
100
AcDbLinetypeTableRecord
  2
ByBlock
 70
     0
  3

 72
    65
 73
     0
 40
0.0
  0
LTYPE
  5
1A
330
18
100
AcDbSymbolTableRecord
100
AcDbLinetypeTableRecord
  2
ByLayer
 70
     0
  3

 72
    65
 73
     0
 40
0.0
  0
LTYPE
  5
A
330
18
100
AcDbSymbolTableRecord
100
AcDbLinetypeTableRecord
  2
Continuous
 70
     0
  3
Solid line
 72
    65
 73
     0
 40
0.0
  0
LTYPE
  5
48
330
18
100
AcDbSymbolTableRecord
100
AcDbLinetypeTableRecord
  2
S10
 70
     0
  3
- - - - - - - - - 1,-1,1,-1
 72
    65
 73
     4
 40
4.0
 49
1.0
 74
     0
 49
-1.0
 74
     0
 49
1.0
 74
     0
 49
-1.0
 74
     0
  0
ENDTAB
  0
TABLE
  2
LAYER
  5
12
102
{ACAD_XDICTIONARY
360
13
102
}
330
0
100
AcDbSymbolTable
 70
     8
  0
LAYER
  5
6
330
12
100
AcDbSymbolTableRecord
100
AcDbLayerTableRecord
  2
0
 70
     0
 62
     7
  6
Continuous
370
    -3
390
7
  0
LAYER
  5
33F
330
12
100
AcDbSymbolTableRecord
100
AcDbLayerTableRecord
  2
WAKU
 70
     0
 62
     4
  6
Continuous
370
    -3
390
7
  0
LAYER
  5
2F
330
12
100
AcDbSymbolTableRecord
100
AcDbLayerTableRecord
  2
MOJI1
 70
     0
 62
     2
  6
Continuous
370
    -3
390
7
  0
LAYER
  5
304
330
12
100
AcDbSymbolTableRecord
100
AcDbLayerTableRecord
  2
TOUROKU
 70
     0
 62
     1
  6
Continuous
370
    -3
390
7
  0
LAYER
  5
32
330
12
100
AcDbSymbolTableRecord
100
AcDbLayerTableRecord
  2
GAIKEI
 70
     0
 62
     7
  6
Continuous
370
    -3
390
7
  0
LAYER
  5
311
330
12
100
AcDbSymbolTableRecord
100
AcDbLayerTableRecord
  2
DEFPOINTS
 70
     0
 62
     7
  6
Continuous
290
     0
370
    -3
390
7
  0
LAYER
  5
307
330
12
100
AcDbSymbolTableRecord
100
AcDbLayerTableRecord
  2
SUNPO
 70
     0
 62
     3
  6
Continuous
370
    -3
390
7
  0
LAYER
  5
302
330
12
100
AcDbSymbolTableRecord
100
AcDbLayerTableRecord
  2
S1
 70
     0
 62
     1
  6
Continuous
370
    -3
390
7
  0
ENDTAB
  0
TABLE
  2
STYLE
  5
15
330
0
100
AcDbSymbolTable
 70
     1
  0
STYLE
  5
16
330
15
100
AcDbSymbolTableRecord
100
AcDbTextStyleTableRecord
  2
Standard
 70
     0
 40
0.0
 41
1.0
 50
0.0
 71
     0
 42
2.5
  3
MONOTXT.shx
  4
BIGFONT.shx
  0
ENDTAB
  0
TABLE
  2
VIEW
  5
1B
330
0
100
AcDbSymbolTable
 70
     0
  0
ENDTAB
  0
TABLE
  2
UCS
  5
1C
330
0
100
AcDbSymbolTable
 70
     0
  0
ENDTAB
  0
TABLE
  2
APPID
  5
1F
330
0
100
AcDbSymbolTable
 70
     2
  0
APPID
  5
20
330
1F
100
AcDbSymbolTableRecord
100
AcDbRegAppTableRecord
  2
ACAD
 70
     0
  0
APPID
  5
364
330
1F
100
AcDbSymbolTableRecord
100
AcDbRegAppTableRecord
  2
DCO15
 70
     0
  0
ENDTAB
  0
TABLE
  2
DIMSTYLE
  5
21
330
0
100
AcDbSymbolTable
 70
     1
100
AcDbDimStyleTable
 71
     1
340
22
  0
DIMSTYLE
105
22
102
{ACAD_REACTORS
330
306
330
315
330
322
330
32F
102
}
330
21
100
AcDbSymbolTableRecord
100
AcDbDimStyleTableRecord
  2
STANDARD
 70
     0
 40
0.0
 41
2.0
 42
2.0
 43
8.0
 44
2.0
 73
     0
 74
     0
 77
     3
140
3.0
141
0.0
173
     1
279
     2
288
     1
340
16
341
23
343
23
344
23
  0
ENDTAB
  0
TABLE
  2
BLOCK_RECORD
  5
1
330
0
100
AcDbSymbolTable
 70
     9
  0
BLOCK_RECORD
  5
2
102
{ACAD_XDICTIONARY
360
3
102
}
330
1
100
AcDbSymbolTableRecord
100
AcDbBlockTableRecord
  2
*Model_Space
340
C
  0
BLOCK_RECORD
  5
E
330
1
100
AcDbSymbolTableRecord
100
AcDbBlockTableRecord
  2
*Paper_Space
340
11
  0
BLOCK_RECORD
  5
23
330
1
100
AcDbSymbolTableRecord
100
AcDbBlockTableRecord
  2
_OPEN30
340
0
102
{BLKREFS
331
335
331
336
331
328
331
329
331
31B
331
31C
331
30D
331
30E
331
382
331
383
331
38E
331
38F
331
39A
331
39B
331
3A6
331
3A7
102
}
  0
BLOCK_RECORD
  5
308
330
1
100
AcDbSymbolTableRecord
100
AcDbBlockTableRecord
  2
*D1
340
0
  0
BLOCK_RECORD
  5
316
330
1
100
AcDbSymbolTableRecord
100
AcDbBlockTableRecord
  2
*D2
340
0
  0
BLOCK_RECORD
  5
323
330
1
100
AcDbSymbolTableRecord
100
AcDbBlockTableRecord
  2
*D3
340
0
  0
BLOCK_RECORD
  5
330
330
1
100
AcDbSymbolTableRecord
100
AcDbBlockTableRecord
  2
*D4
340
0
  0
BLOCK_RECORD
  5
37E
330
1
100
AcDbSymbolTableRecord
100
AcDbBlockTableRecord
  2
*D5
340
0
  0
BLOCK_RECORD
  5
38A
330
1
100
AcDbSymbolTableRecord
100
AcDbBlockTableRecord
  2
*D6
340
0
  0
BLOCK_RECORD
  5
396
330
1
100
AcDbSymbolTableRecord
100
AcDbBlockTableRecord
  2
*D7
340
0
  0
BLOCK_RECORD
  5
3A2
330
1
100
AcDbSymbolTableRecord
100
AcDbBlockTableRecord
  2
*D8
340
0
  0
ENDTAB
  0
ENDSEC
  0
SECTION
  2
BLOCKS
  0
BLOCK
  5
5
330
2
100
AcDbEntity
  8
0
100
AcDbBlockBegin
  2
*Model_Space
 70
     0
 10
0.0
 20
0.0
 30
0.0
  3
*Model_Space
  1

  0
ENDBLK
  5
B
330
2
100
AcDbEntity
  8
0
100
AcDbBlockEnd
  0
BLOCK
  5
F
330
E
100
AcDbEntity
 67
     1
  8
0
100
AcDbBlockBegin
  2
*Paper_Space
 70
     0
 10
0.0
 20
0.0
 30
0.0
  3
*Paper_Space
  1

  0
ENDBLK
  5
10
330
E
100
AcDbEntity
 67
     1
  8
0
100
AcDbBlockEnd
  0
BLOCK
  5
24
330
23
100
AcDbEntity
  8
0
100
AcDbBlockBegin
  2
_OPEN30
 70
     0
 10
0.0
 20
0.0
 30
0.0
  3
_OPEN30
  1

  0
LINE
  5
25
330
23
100
AcDbEntity
  8
0
  6
ByBlock
 62
     0
100
AcDbLine
 10
-1.0
 20
0.26794919
 30
0.0
 11
0.0
 21
0.0
 31
0.0
  0
LINE
  5
26
330
23
100
AcDbEntity
  8
0
  6
ByBlock
 62
     0
100
AcDbLine
 10
0.0
 20
0.0
 30
0.0
 11
-1.0
 21
-0.26794919
 31
0.0
  0
LINE
  5
27
330
23
100
AcDbEntity
  8
0
  6
ByBlock
 62
     0
100
AcDbLine
 10
0.0
 20
0.0
 30
0.0
 11
-1.0
 21
0.0
 31
0.0
  0
ENDBLK
  5
28
330
23
100
AcDbEntity
  8
0
100
AcDbBlockEnd
  0
BLOCK
  5
309
330
308
100
AcDbEntity
  8
0
100
AcDbBlockBegin
  2
*D1
 70
     1
 10
0.0
 20
0.0
 30
0.0
  3
*D1
  1

  0
LINE
  5
30A
330
308
100
AcDbEntity
  8
SUNPO
 62
     0
370
    -2
100
AcDbLine
 10
163.1121077977402
 20
90.07051432889239
 30
0.0
 11
163.1121077977402
 21
98.07051432889242
 31
0.0
  0
LINE
  5
30B
330
308
100
AcDbEntity
  8
SUNPO
 62
     0
370
    -2
100
AcDbLine
 10
203.4454389220037
 20
90.07051432889239
 30
0.0
 11
203.4454389220037
 21
98.07051432889242
 31
0.0
  0
LINE
  5
30C
330
308
100
AcDbEntity
  8
SUNPO
 62
     0
370
    -2
100
AcDbLine
 10
165.1121077977402
 20
96.07051432889242
 30
0.0
 11
201.4454389220037
 21
96.07051432889242
 31
0.0
  0
INSERT
  5
30D
330
308
100
AcDbEntity
  8
SUNPO
 62
     0
370
    -2
100
AcDbBlockReference
  2
_OPEN30
 10
163.1121077977402
 20
96.07051432889242
 30
0.0
 41
2.0
 42
2.0
 43
2.0
 50
180.0
  0
INSERT
  5
30E
330
308
100
AcDbEntity
  8
SUNPO
 62
     0
370
    -2
100
AcDbBlockReference
  2
_OPEN30
 10
203.4454389220037
 20
96.07051432889242
 30
0.0
 41
2.0
 42
2.0
 43
2.0
  0
MTEXT
  5
30F
330
308
100
AcDbEntity
  8
SUNPO
 62
     0
100
AcDbMText
 10
175.2790827276337
 20
97.82051432889241
 30
0.0
 40
2.5
 41
0.0
 71
     5
 72
     1
  1
\A1;1210
 73
     1
 44
1.0
1001
ACAD
1000
MTEXTBEGIN
1070
    73
1070
     1
1070
    44
1040
1.0
1070
    74
1070
     0
1000
MTEXTEND
  0
POINT
  5
310
330
308
100
AcDbEntity
  8
DEFPOINTS
 62
     0
100
AcDbPoint
 10
163.1121077977402
 20
88.0705143288924
 30
0.0
  0
POINT
  5
312
330
308
100
AcDbEntity
  8
DEFPOINTS
 62
     0
100
AcDbPoint
 10
203.4454389220037
 20
88.0705143288924
 30
0.0
  0
POINT
  5
313
330
308
100
AcDbEntity
  8
DEFPOINTS
 62
     0
100
AcDbPoint
 10
203.4454389220037
 20
96.07051432889242
 30
0.0
  0
ENDBLK
  5
314
330
308
100
AcDbEntity
  8
0
100
AcDbBlockEnd
  0
BLOCK
  5
317
330
316
100
AcDbEntity
  8
0
100
AcDbBlockBegin
  2
*D2
 70
     1
 10
0.0
 20
0.0
 30
0.0
  3
*D2
  1

  0
LINE
  5
318
330
316
100
AcDbEntity
  8
SUNPO
 62
     0
370
    -2
100
AcDbLine
 10
205.4051784238337
 20
63.93018266184892
 30
0.0
 11
213.4051784238337
 21
63.93018266184891
 31
0.0
  0
LINE
  5
319
330
316
100
AcDbEntity
  8
SUNPO
 62
     0
370
    -2
100
AcDbLine
 10
205.4051784238337
 20
88.06350800780821
 30
0.0
 11
213.4051784238337
 21
88.06350800780821
 31
0.0
  0
LINE
  5
31A
330
316
100
AcDbEntity
  8
SUNPO
 62
     0
370
    -2
100
AcDbLine
 10
211.4051784238337
 20
65.93018266184891
 30
0.0
 11
211.4051784238337
 21
86.06350800780822
 31
0.0
  0
INSERT
  5
31B
330
316
100
AcDbEntity
  8
SUNPO
 62
     0
370
    -2
100
AcDbBlockReference
  2
_OPEN30
 10
211.4051784238337
 20
63.93018266184891
 30
0.0
 41
2.0
 42
2.0
 43
2.0
 50
270.0
  0
INSERT
  5
31C
330
316
100
AcDbEntity
  8
SUNPO
 62
     0
370
    -2
100
AcDbBlockReference
  2
_OPEN30
 10
211.4051784238337
 20
88.06350800780821
 30
0.0
 41
2.0
 42
2.0
 43
2.0
 50
90.0
  0
MTEXT
  5
31D
330
316
100
AcDbEntity
  8
SUNPO
 62
     0
100
AcDbMText
 10
209.6551784238337
 20
75.99684533482859
 30
0.0
 40
2.5
 41
0.0
 71
     5
 72
     1
  1
\A1;724
 11
0.0000000000000001
 21
1.0
 31
0.0
 73
     1
 44
1.0
1001
ACAD
1000
MTEXTBEGIN
1070
    73
1070
     1
1070
    44
1040
1.0
1070
    74
1070
     0
1000
MTEXTEND
  0
POINT
  5
31E
330
316
100
AcDbEntity
  8
DEFPOINTS
 62
     0
100
AcDbPoint
 10
203.4051784238337
 20
63.93018266184892
 30
0.0
  0
POINT
  5
31F
330
316
100
AcDbEntity
  8
DEFPOINTS
 62
     0
100
AcDbPoint
 10
203.4051784238337
 20
88.06350800780821
 30
0.0
  0
POINT
  5
320
330
316
100
AcDbEntity
  8
DEFPOINTS
 62
     0
100
AcDbPoint
 10
211.4051784238337
 20
88.06350800780821
 30
0.0
  0
ENDBLK
  5
321
330
316
100
AcDbEntity
  8
0
100
AcDbBlockEnd
  0
BLOCK
  5
324
330
323
100
AcDbEntity
  8
0
100
AcDbBlockBegin
  2
*D3
 70
     1
 10
0.0
 20
0.0
 30
0.0
  3
*D3
  1

  0
LINE
  5
325
330
323
100
AcDbEntity
  8
SUNPO
 62
     0
370
    -2
100
AcDbLine
 10
161.158723851529
 20
63.93018266184892
 30
0.0
 11
153.1587238515289
 21
63.93018266184892
 31
0.0
  0
LINE
  5
326
330
323
100
AcDbEntity
  8
SUNPO
 62
     0
370
    -2
100
AcDbLine
 10
161.158723851529
 20
103.5960750360868
 30
0.0
 11
153.158723851529
 21
103.5960750360868
 31
0.0
  0
LINE
  5
327
330
323
100
AcDbEntity
  8
SUNPO
 62
     0
370
    -2
100
AcDbLine
 10
155.1587238515289
 20
65.93018266184893
 30
0.0
 11
155.1587238515289
 21
101.5960750360868
 31
0.0
  0
INSERT
  5
328
330
323
100
AcDbEntity
  8
SUNPO
 62
     0
370
    -2
100
AcDbBlockReference
  2
_OPEN30
 10
155.1587238515289
 20
63.93018266184892
 30
0.0
 41
2.0
 42
2.0
 43
2.0
 50
270.0
  0
INSERT
  5
329
330
323
100
AcDbEntity
  8
SUNPO
 62
     0
370
    -2
100
AcDbBlockReference
  2
_OPEN30
 10
155.1587238515289
 20
103.5960750360868
 30
0.0
 41
2.0
 42
2.0
 43
2.0
 50
90.0
  0
MTEXT
  5
32A
330
323
100
AcDbEntity
  8
SUNPO
 62
     0
100
AcDbMText
 10
153.4087238515289
 20
83.76312884896792
 30
0.0
 40
2.5
 41
0.0
 71
     5
 72
     1
  1
\A1;1130.3～1430.3
 11
0.0000000000000001
 21
1.0
 31
0.0
 73
     1
 44
1.0
1001
ACAD
1000
MTEXTBEGIN
1070
    73
1070
     1
1070
    44
1040
1.0
1070
    74
1070
     0
1000
MTEXTEND
  0
POINT
  5
32B
330
323
100
AcDbEntity
  8
DEFPOINTS
 62
     0
100
AcDbPoint
 10
163.158723851529
 20
63.93018266184892
 30
0.0
  0
POINT
  5
32C
330
323
100
AcDbEntity
  8
DEFPOINTS
 62
     0
100
AcDbPoint
 10
163.158723851529
 20
103.5960750360868
 30
0.0
  0
POINT
  5
32D
330
323
100
AcDbEntity
  8
DEFPOINTS
 62
     0
100
AcDbPoint
 10
155.1587238515289
 20
103.5960750360868
 30
0.0
  0
ENDBLK
  5
32E
330
323
100
AcDbEntity
  8
0
100
AcDbBlockEnd
  0
BLOCK
  5
331
330
330
100
AcDbEntity
  8
0
100
AcDbBlockBegin
  2
*D4
 70
     1
 10
0.0
 20
0.0
 30
0.0
  3
*D4
  1

  0
LINE
  5
332
330
330
100
AcDbEntity
  8
SUNPO
 62
     0
370
    -2
100
AcDbLine
 10
171.0454364135252
 20
61.93691736506394
 30
0.0
 11
171.0454364135252
 21
53.93691736506394
 31
0.0
  0
LINE
  5
333
330
330
100
AcDbEntity
  8
SUNPO
 62
     0
370
    -2
100
AcDbLine
 10
195.4121014210986
 20
61.93691736506394
 30
0.0
 11
195.4121014210986
 21
53.93691736506394
 31
0.0
  0
LINE
  5
334
330
330
100
AcDbEntity
  8
SUNPO
 62
     0
370
    -2
100
AcDbLine
 10
173.0454364135252
 20
55.93691736506395
 30
0.0
 11
193.4121014210986
 21
55.93691736506395
 31
0.0
  0
INSERT
  5
335
330
330
100
AcDbEntity
  8
SUNPO
 62
     0
370
    -2
100
AcDbBlockReference
  2
_OPEN30
 10
171.0454364135252
 20
55.93691736506395
 30
0.0
 41
2.0
 42
2.0
 43
2.0
 50
180.0
  0
INSERT
  5
336
330
330
100
AcDbEntity
  8
SUNPO
 62
     0
370
    -2
100
AcDbBlockReference
  2
_OPEN30
 10
195.4121014210986
 20
55.93691736506395
 30
0.0
 41
2.0
 42
2.0
 43
2.0
  0
MTEXT
  5
337
330
330
100
AcDbEntity
  8
SUNPO
 62
     0
100
AcDbMText
 10
183.2287689173119
 20
57.68691736506394
 30
0.0
 40
2.5
 41
0.0
 71
     5
 72
     1
  1
\A1;731
 73
     1
 44
1.0
1001
ACAD
1000
MTEXTBEGIN
1070
    73
1070
     1
1070
    44
1040
1.0
1070
    74
1070
     0
1000
MTEXTEND
  0
POINT
  5
338
330
330
100
AcDbEntity
  8
DEFPOINTS
 62
     0
100
AcDbPoint
 10
171.0454364135252
 20
63.93691736506394
 30
0.0
  0
POINT
  5
339
330
330
100
AcDbEntity
  8
DEFPOINTS
 62
     0
100
AcDbPoint
 10
195.4121014210986
 20
63.93691736506394
 30
0.0
  0
POINT
  5
33A
330
330
100
AcDbEntity
  8
DEFPOINTS
 62
     0
100
AcDbPoint
 10
195.4121014210986
 20
55.93691736506395
 30
0.0
  0
ENDBLK
  5
33B
330
330
100
AcDbEntity
  8
0
100
AcDbBlockEnd
  0
BLOCK
  5
388
330
37E
100
AcDbEntity
  8
0
100
AcDbBlockBegin
  2
*D5
 70
     1
 10
0.0
 20
0.0
 30
0.0
  3
*D5
  1

  0
LINE
  5
37F
330
37E
100
AcDbEntity
  8
SUNPO
 62
     0
370
    -2
100
AcDbLine
 10
-27.49984506519837
 20
-5.144929105258199
 30
0.0
 11
-27.49984506519837
 21
-13.1449291052582
 31
0.0
  0
LINE
  5
380
330
37E
100
AcDbEntity
  8
SUNPO
 62
     0
370
    -2
100
AcDbLine
 10
-3.133180057624997
 20
-5.144929105258199
 30
0.0
 11
-3.133180057624997
 21
-13.1449291052582
 31
0.0
  0
LINE
  5
381
330
37E
100
AcDbEntity
  8
SUNPO
 62
     0
370
    -2
100
AcDbLine
 10
-25.49984506519837
 20
-11.1449291052582
 30
0.0
 11
-5.133180057624997
 21
-11.1449291052582
 31
0.0
  0
INSERT
  5
382
330
37E
100
AcDbEntity
  8
SUNPO
 62
     0
370
    -2
100
AcDbBlockReference
  2
_OPEN30
 10
-27.49984506519837
 20
-11.1449291052582
 30
0.0
 41
2.0
 42
2.0
 43
2.0
 50
180.0
  0
INSERT
  5
383
330
37E
100
AcDbEntity
  8
SUNPO
 62
     0
370
    -2
100
AcDbBlockReference
  2
_OPEN30
 10
-3.133180057624997
 20
-11.1449291052582
 30
0.0
 41
2.0
 42
2.0
 43
2.0
  0
MTEXT
  5
384
330
37E
100
AcDbEntity
  8
SUNPO
 62
     0
100
AcDbMText
 10
-15.31651256141168
 20
-9.394929105258199
 30
0.0
 40
2.5
 41
0.0
 71
     5
 72
     1
  1
\A1;731
 73
     1
 44
1.0
1001
ACAD
1000
MTEXTBEGIN
1070
    73
1070
     1
1070
    44
1040
1.0
1070
    74
1070
     0
1000
MTEXTEND
  0
POINT
  5
385
330
37E
100
AcDbEntity
  8
DEFPOINTS
 62
     0
100
AcDbPoint
 10
-27.49984506519837
 20
-3.144929105258199
 30
0.0
  0
POINT
  5
386
330
37E
100
AcDbEntity
  8
DEFPOINTS
 62
     0
100
AcDbPoint
 10
-3.133180057624997
 20
-3.144929105258199
 30
0.0
  0
POINT
  5
387
330
37E
100
AcDbEntity
  8
DEFPOINTS
 62
     0
100
AcDbPoint
 10
-3.133180057624997
 20
-11.1449291052582
 30
0.0
  0
ENDBLK
  5
389
330
37E
100
AcDbEntity
  8
0
100
AcDbBlockEnd
  0
BLOCK
  5
394
330
38A
100
AcDbEntity
  8
0
100
AcDbBlockBegin
  2
*D6
 70
     1
 10
0.0
 20
0.0
 30
0.0
  3
*D6
  1

  0
LINE
  5
38B
330
38A
100
AcDbEntity
  8
SUNPO
 62
     0
370
    -2
100
AcDbLine
 10
-37.38655762719464
 20
-3.15166380847323
 30
0.0
 11
-45.38655762719463
 21
-3.151663808473228
 31
0.0
  0
LINE
  5
38C
330
38A
100
AcDbEntity
  8
SUNPO
 62
     0
370
    -2
100
AcDbLine
 10
-37.38655762719464
 20
36.51422856576471
 30
0.0
 11
-45.38655762719463
 21
36.51422856576471
 31
0.0
  0
LINE
  5
38D
330
38A
100
AcDbEntity
  8
SUNPO
 62
     0
370
    -2
100
AcDbLine
 10
-43.38655762719464
 20
-1.151663808473228
 30
0.0
 11
-43.38655762719463
 21
34.51422856576471
 31
0.0
  0
INSERT
  5
38E
330
38A
100
AcDbEntity
  8
SUNPO
 62
     0
370
    -2
100
AcDbBlockReference
  2
_OPEN30
 10
-43.38655762719464
 20
-3.151663808473228
 30
0.0
 41
2.0
 42
2.0
 43
2.0
 50
270.0
  0
INSERT
  5
38F
330
38A
100
AcDbEntity
  8
SUNPO
 62
     0
370
    -2
100
AcDbBlockReference
  2
_OPEN30
 10
-43.38655762719463
 20
36.51422856576471
 30
0.0
 41
2.0
 42
2.0
 43
2.0
 50
90.0
  0
MTEXT
  5
390
330
38A
100
AcDbEntity
  8
SUNPO
 62
     0
100
AcDbMText
 10
-45.13655762719464
 20
16.68128237864573
 30
0.0
 40
2.5
 41
0.0
 71
     5
 72
     1
  1
\A1;1130.3～1430.3
 11
0.0000000000000001
 21
1.0
 31
0.0
 73
     1
 44
1.0
1001
ACAD
1000
MTEXTBEGIN
1070
    73
1070
     1
1070
    44
1040
1.0
1070
    74
1070
     0
1000
MTEXTEND
  0
POINT
  5
391
330
38A
100
AcDbEntity
  8
DEFPOINTS
 62
     0
100
AcDbPoint
 10
-35.38655762719463
 20
-3.15166380847323
 30
0.0
  0
POINT
  5
392
330
38A
100
AcDbEntity
  8
DEFPOINTS
 62
     0
100
AcDbPoint
 10
-35.38655762719463
 20
36.51422856576471
 30
0.0
  0
POINT
  5
393
330
38A
100
AcDbEntity
  8
DEFPOINTS
 62
     0
100
AcDbPoint
 10
-43.38655762719463
 20
36.51422856576471
 30
0.0
  0
ENDBLK
  5
395
330
38A
100
AcDbEntity
  8
0
100
AcDbBlockEnd
  0
BLOCK
  5
3A0
330
396
100
AcDbEntity
  8
0
100
AcDbBlockBegin
  2
*D7
 70
     1
 10
0.0
 20
0.0
 30
0.0
  3
*D7
  1

  0
LINE
  5
397
330
396
100
AcDbEntity
  8
SUNPO
 62
     0
370
    -2
100
AcDbLine
 10
6.859896945110108
 20
-3.151663808473231
 30
0.0
 11
14.8598969451101
 21
-3.151663808473233
 31
0.0
  0
LINE
  5
398
330
396
100
AcDbEntity
  8
SUNPO
 62
     0
370
    -2
100
AcDbLine
 10
6.859896945110108
 20
20.98166153748606
 30
0.0
 11
14.85989694511011
 21
20.98166153748606
 31
0.0
  0
LINE
  5
399
330
396
100
AcDbEntity
  8
SUNPO
 62
     0
370
    -2
100
AcDbLine
 10
12.8598969451101
 20
-1.151663808473233
 30
0.0
 11
12.8598969451101
 21
18.98166153748606
 31
0.0
  0
INSERT
  5
39A
330
396
100
AcDbEntity
  8
SUNPO
 62
     0
370
    -2
100
AcDbBlockReference
  2
_OPEN30
 10
12.8598969451101
 20
-3.151663808473232
 30
0.0
 41
2.0
 42
2.0
 43
2.0
 50
270.0
  0
INSERT
  5
39B
330
396
100
AcDbEntity
  8
SUNPO
 62
     0
370
    -2
100
AcDbBlockReference
  2
_OPEN30
 10
12.85989694511011
 20
20.98166153748606
 30
0.0
 41
2.0
 42
2.0
 43
2.0
 50
90.0
  0
MTEXT
  5
39C
330
396
100
AcDbEntity
  8
SUNPO
 62
     0
100
AcDbMText
 10
11.1098969451101
 20
8.914998864506415
 30
0.0
 40
2.5
 41
0.0
 71
     5
 72
     1
  1
\A1;724
 11
0.0000000000000001
 21
1.0
 31
0.0
 73
     1
 44
1.0
1001
ACAD
1000
MTEXTBEGIN
1070
    73
1070
     1
1070
    44
1040
1.0
1070
    74
1070
     0
1000
MTEXTEND
  0
POINT
  5
39D
330
396
100
AcDbEntity
  8
DEFPOINTS
 62
     0
100
AcDbPoint
 10
4.859896945110108
 20
-3.15166380847323
 30
0.0
  0
POINT
  5
39E
330
396
100
AcDbEntity
  8
DEFPOINTS
 62
     0
100
AcDbPoint
 10
4.859896945110108
 20
20.98166153748606
 30
0.0
  0
POINT
  5
39F
330
396
100
AcDbEntity
  8
DEFPOINTS
 62
     0
100
AcDbPoint
 10
12.85989694511011
 20
20.98166153748606
 30
0.0
  0
ENDBLK
  5
3A1
330
396
100
AcDbEntity
  8
0
100
AcDbBlockEnd
  0
BLOCK
  5
3AC
330
3A2
100
AcDbEntity
  8
0
100
AcDbBlockBegin
  2
*D8
 70
     1
 10
0.0
 20
0.0
 30
0.0
  3
*D8
  1

  0
LINE
  5
3A3
330
3A2
100
AcDbEntity
  8
SUNPO
 62
     0
370
    -2
100
AcDbLine
 10
-35.43317368098338
 20
22.98866785857025
 30
0.0
 11
-35.43317368098338
 21
30.98866785857027
 31
0.0
  0
LINE
  5
3A4
330
3A2
100
AcDbEntity
  8
SUNPO
 62
     0
370
    -2
100
AcDbLine
 10
4.900157443280136
 20
22.98866785857025
 30
0.0
 11
4.900157443280137
 21
30.98866785857027
 31
0.0
  0
LINE
  5
3A5
330
3A2
100
AcDbEntity
  8
SUNPO
 62
     0
370
    -2
100
AcDbLine
 10
-33.43317368098337
 20
28.98866785857027
 30
0.0
 11
2.900157443280137
 21
28.98866785857027
 31
0.0
  0
INSERT
  5
3A6
330
3A2
100
AcDbEntity
  8
SUNPO
 62
     0
370
    -2
100
AcDbBlockReference
  2
_OPEN30
 10
-35.43317368098338
 20
28.98866785857027
 30
0.0
 41
2.0
 42
2.0
 43
2.0
 50
180.0
  0
INSERT
  5
3A7
330
3A2
100
AcDbEntity
  8
SUNPO
 62
     0
370
    -2
100
AcDbBlockReference
  2
_OPEN30
 10
4.900157443280137
 20
28.98866785857027
 30
0.0
 41
2.0
 42
2.0
 43
2.0
  0
MTEXT
  5
3A8
330
3A2
100
AcDbEntity
  8
SUNPO
 62
     0
100
AcDbMText
 10
-23.26619875108992
 20
30.73866785857027
 30
0.0
 40
2.5
 41
0.0
 71
     5
 72
     1
  1
\A1;1210
 73
     1
 44
1.0
1001
ACAD
1000
MTEXTBEGIN
1070
    73
1070
     1
1070
    44
1040
1.0
1070
    74
1070
     0
1000
MTEXTEND
  0
POINT
  5
3A9
330
3A2
100
AcDbEntity
  8
DEFPOINTS
 62
     0
100
AcDbPoint
 10
-35.43317368098338
 20
20.98866785857025
 30
0.0
  0
POINT
  5
3AA
330
3A2
100
AcDbEntity
  8
DEFPOINTS
 62
     0
100
AcDbPoint
 10
4.900157443280136
 20
20.98866785857025
 30
0.0
  0
POINT
  5
3AB
330
3A2
100
AcDbEntity
  8
DEFPOINTS
 62
     0
100
AcDbPoint
 10
4.900157443280137
 20
28.98866785857027
 30
0.0
  0
ENDBLK
  5
3AD
330
3A2
100
AcDbEntity
  8
0
100
AcDbBlockEnd
  0
ENDSEC
  0
SECTION
  2
ENTITIES
  0
LINE
  5
31
330
2
100
AcDbEntity
  8
GAIKEI
  6
Continuous
 62
     7
100
AcDbLine
 10
-21.15036419341163
 20
36.51422856576471
 30
0.0
 11
-9.482660929411622
 21
36.51422856576471
 31
0.0
  0
LINE
  5
33
330
2
100
AcDbEntity
  8
GAIKEI
  6
Continuous
 62
     7
100
AcDbLine
 10
-21.15036419341163
 20
36.51422856576471
 30
0.0
 11
-21.15036419341163
 21
36.40755242163664
 31
0.0
  0
LINE
  5
34
330
2
100
AcDbEntity
  8
GAIKEI
  6
Continuous
 62
     7
100
AcDbLine
 10
-9.482660929411622
 20
36.51422856576471
 30
0.0
 11
-9.482660929411622
 21
36.40755242163664
 31
0.0
  0
LINE
  5
35
330
2
100
AcDbEntity
  8
GAIKEI
  6
Continuous
 62
     7
100
AcDbLine
 10
-21.15036419341163
 20
36.40755242163664
 30
0.0
 11
-9.482660929411622
 21
36.40755242163664
 31
0.0
  0
LINE
  5
36
330
2
100
AcDbEntity
  8
GAIKEI
  6
Continuous
 62
     7
100
AcDbLine
 10
-17.40690394536
 20
34.98075899392467
 30
0.0
 11
-13.22612151082614
 21
34.98075899392467
 31
0.0
  0
LINE
  5
37
330
2
100
AcDbEntity
  8
GAIKEI
  6
Continuous
 62
     7
100
AcDbLine
 10
-17.89401455521039
 20
35.19224144939187
 30
0.0
 11
-18.86379571377478
 21
36.22990730572394
 31
0.0
  0
ARC
  5
38
330
2
100
AcDbEntity
  8
GAIKEI
  6
Continuous
 62
     7
100
AcDbCircle
 10
-17.40690394536
 20
35.6474848947247
 30
0.0
 40
0.6667259008
100
AcDbArc
 50
223.0632000000199
 51
270.0
  0
LINE
  5
39
330
2
100
AcDbEntity
  8
GAIKEI
  6
Continuous
 62
     7
100
AcDbLine
 10
-12.73901090097581
 20
35.19224144939187
 30
0.0
 11
-11.76922940904848
 21
36.22990730572394
 31
0.0
  0
ARC
  5
3A
330
2
100
AcDbEntity
  8
GAIKEI
  6
Continuous
 62
     7
100
AcDbCircle
 10
-13.22612151082614
 20
35.6474848947247
 30
0.0
 40
0.6667259008
100
AcDbArc
 50
270.0
 51
316.9367999999801
  0
ARC
  5
3B
330
2
100
AcDbEntity
  8
GAIKEI
  6
Continuous
 62
     7
100
AcDbCircle
 10
-19.27296873272524
 20
35.84750266496468
 30
0.0
 40
0.560049756672
100
AcDbArc
 50
43.06320000001989
 51
90.0
  0
ARC
  5
3C
330
2
100
AcDbEntity
  8
GAIKEI
  6
Continuous
 62
     7
100
AcDbCircle
 10
-11.36005672346101
 20
35.84750266496468
 30
0.0
 40
0.560049756672
100
AcDbArc
 50
90.0
 51
136.9367999999801
  0
LINE
  5
3D
330
2
100
AcDbEntity
  8
GAIKEI
  6
Continuous
 62
     7
100
AcDbLine
 10
-13.93305631725161
 20
34.98075899392467
 30
0.0
 11
-13.93305631725161
 21
34.94413507346781
 31
0.0
  0
LINE
  5
3E
330
2
100
AcDbEntity
  8
GAIKEI
  6
Continuous
 62
     7
100
AcDbLine
 10
-16.69996880557164
 20
34.98075899392467
 30
0.0
 11
-16.69996880557164
 21
34.94413507346781
 31
0.0
  0
LINE
  5
3F
330
2
100
AcDbEntity
  8
GAIKEI
  6
Continuous
 62
     1
100
AcDbLine
 10
-15.31651256141163
 20
34.40320368200128
 30
0.0
 11
-15.14983108621169
 21
34.30697013229457
 31
0.0
  0
LINE
  5
40
330
2
100
AcDbEntity
  8
GAIKEI
  6
Continuous
 62
     1
100
AcDbLine
 10
-15.48319403661162
 20
34.30697013229457
 30
0.0
 11
-15.31651256141163
 21
34.40320368200128
 31
0.0
  0
LINE
  5
41
330
2
100
AcDbEntity
  8
GAIKEI
  6
Continuous
 62
     1
100
AcDbLine
 10
-15.48319403661162
 20
34.30697013229457
 30
0.0
 11
-15.48319403661162
 21
34.11450269951814
 31
0.0
  0
LINE
  5
42
330
2
100
AcDbEntity
  8
GAIKEI
  6
Continuous
 62
     1
100
AcDbLine
 10
-15.48319403661162
 20
34.11450269951814
 30
0.0
 11
-15.31651256141163
 21
34.01826914981143
 31
0.0
  0
LINE
  5
43
330
2
100
AcDbEntity
  8
GAIKEI
  6
Continuous
 62
     1
100
AcDbLine
 10
-15.31651256141163
 20
34.01826914981143
 30
0.0
 11
-15.14983108621169
 21
34.11450269951814
 31
0.0
  0
LINE
  5
44
330
2
100
AcDbEntity
  8
GAIKEI
  6
Continuous
 62
     1
100
AcDbLine
 10
-15.14983108621169
 20
34.30697013229457
 30
0.0
 11
-15.14983108621169
 21
34.11450269951814
 31
0.0
  0
CIRCLE
  5
45
330
2
100
AcDbEntity
  8
GAIKEI
  6
Continuous
 62
     1
100
AcDbCircle
 10
-15.31651256141163
 20
34.21073658258786
 30
0.0
 40
0.3333629504
  0
LINE
  5
46
330
2
100
AcDbEntity
  8
GAIKEI
  6
Continuous
 62
     7
100
AcDbLine
 10
-16.80164450544362
 20
34.94413507346781
 30
0.0
 11
-13.83138061737964
 21
34.94413507346781
 31
0.0
  0
LINE
  5
47
330
2
100
AcDbEntity
  8
GAIKEI
  6
S10
 62
     1
100
AcDbLine
 10
-16.80164450544362
 20
15.32572544242782
 30
0.0
 11
-13.83138061737964
 21
15.32572544242782
 31
0.0
  0
LINE
  5
49
330
2
100
AcDbEntity
  8
GAIKEI
  6
S10
 62
     1
100
AcDbLine
 10
-12.64960895821167
 20
13.22553885490782
 30
0.0
 11
-17.98341616461164
 21
13.22553885490782
 31
0.0
  0
LINE
  5
4A
330
2
100
AcDbEntity
  8
GAIKEI
  6
S10
 62
     1
100
AcDbLine
 10
-15.61653921677162
 20
12.55881295410785
 30
0.0
 11
-15.61653921677162
 21
12.74686632805799
 31
0.0
  0
LINE
  5
4B
330
2
100
AcDbEntity
  8
GAIKEI
  6
S10
 62
     1
100
AcDbLine
 10
-15.01648590605168
 20
12.55881295410785
 30
0.0
 11
-15.01648590605168
 21
12.74686632805799
 31
0.0
  0
LINE
  5
4C
330
2
100
AcDbEntity
  8
GAIKEI
  6
S10
 62
     1
100
AcDbLine
 10
-12.64960895821167
 20
14.84568279385183
 30
0.0
 11
-17.98341616461164
 21
14.84568279385183
 31
0.0
  0
LINE
  5
4D
330
2
100
AcDbEntity
  8
GAIKEI
  6
S10
 62
     1
100
AcDbLine
 10
-17.98341616461164
 20
14.84568279385183
 30
0.0
 11
-17.98341616461164
 21
13.22553885490782
 31
0.0
  0
LINE
  5
4E
330
2
100
AcDbEntity
  8
GAIKEI
  6
S10
 62
     1
100
AcDbLine
 10
-12.64960895821167
 20
14.84568279385183
 30
0.0
 11
-12.64960895821167
 21
13.22553885490782
 31
0.0
  0
LINE
  5
4F
330
2
100
AcDbEntity
  8
GAIKEI
  6
S10
 62
     1
100
AcDbLine
 10
-15.14983108621169
 20
15.04570056409181
 30
0.0
 11
-15.14983108621169
 21
14.84568279385183
 31
0.0
  0
LINE
  5
50
330
2
100
AcDbEntity
  8
GAIKEI
  6
S10
 62
     1
100
AcDbLine
 10
-15.48319403661162
 20
15.04570056409181
 30
0.0
 11
-15.48319403661162
 21
14.84568279385183
 31
0.0
  0
LINE
  5
51
330
2
100
AcDbEntity
  8
GAIKEI
  6
S10
 62
     1
100
AcDbLine
 10
-15.21650367629166
 20
15.11237315417185
 30
0.0
 11
-15.41652144653159
 21
15.11237315417185
 31
0.0
  0
ARC
  5
52
330
2
100
AcDbEntity
  8
GAIKEI
  6
S10
 62
     1
100
AcDbCircle
 10
-15.21650367629166
 20
15.04570056409181
 30
0.0
 40
0.06667259008
100
AcDbArc
 50
0.0
 51
90.0
  0
ARC
  5
53
330
2
100
AcDbEntity
  8
GAIKEI
  6
S10
 62
     1
100
AcDbCircle
 10
-15.41652144653159
 20
15.04570056409181
 30
0.0
 40
0.06667259008
100
AcDbArc
 50
90.0
 51
180.0
  0
LINE
  5
54
330
2
100
AcDbEntity
  8
GAIKEI
  6
S10
 62
     1
100
AcDbLine
 10
-3.133180057624997
 20
14.74734072348383
 30
0.0
 11
-3.316529680344956
 21
14.74734072348383
 31
0.0
  0
LINE
  5
55
330
2
100
AcDbEntity
  8
GAIKEI
  6
S10
 62
     1
100
AcDbLine
 10
-3.133180057624997
 20
13.32388092527583
 30
0.0
 11
-3.316529680344956
 21
13.32388092527583
 31
0.0
  0
LINE
  5
56
330
2
100
AcDbEntity
  8
GAIKEI
  6
S10
 62
     1
100
AcDbLine
 10
-3.133180057624997
 20
13.32388092527583
 30
0.0
 11
-3.133180057624997
 21
14.74734072348383
 31
0.0
  0
LINE
  5
57
330
2
100
AcDbEntity
  8
GAIKEI
  6
S10
 62
     1
100
AcDbLine
 10
-27.49984506519826
 20
13.32388092527583
 30
0.0
 11
-27.49984506519826
 21
14.74734072348383
 31
0.0
  0
LINE
  5
58
330
2
100
AcDbEntity
  8
GAIKEI
  6
S10
 62
     1
100
AcDbLine
 10
-3.133180057624997
 20
2.244563268731837
 30
0.0
 11
-3.133180057624997
 21
3.091305162747858
 31
0.0
  0
LINE
  5
59
330
2
100
AcDbEntity
  8
GAIKEI
  6
S10
 62
     1
100
AcDbLine
 10
-3.133180057624997
 20
3.091305162747858
 30
0.0
 11
-3.316529680344956
 21
3.091305162747858
 31
0.0
  0
LINE
  5
5A
330
2
100
AcDbEntity
  8
GAIKEI
  6
S10
 62
     1
100
AcDbLine
 10
-15.73988350841961
 20
7.24305768483498
 30
0.0
 11
-15.73988350841961
 21
3.091305162747858
 31
0.0
  0
LINE
  5
5B
330
2
100
AcDbEntity
  8
GAIKEI
  6
S10
 62
     1
100
AcDbLine
 10
-14.89314161440364
 20
7.24305768483498
 30
0.0
 11
-14.89314161440364
 21
3.091305162747858
 31
0.0
  0
ARC
  5
5C
330
2
100
AcDbEntity
  8
GAIKEI
  6
S10
 62
     1
100
AcDbCircle
 10
-15.31651256141163
 20
3.091305162747858
 30
0.0
 40
0.4233709470079999
100
AcDbArc
 50
180.0
 51
0.0
  0
LINE
  5
5D
330
2
100
AcDbEntity
  8
GAIKEI
  6
S10
 62
     1
100
AcDbLine
 10
-3.133180057624997
 20
2.244563268731837
 30
0.0
 11
-3.316529680344956
 21
2.244563268731837
 31
0.0
  0
LINE
  5
5E
330
2
100
AcDbEntity
  8
GAIKEI
  6
S10
 62
     1
100
AcDbLine
 10
-27.49984506519826
 20
2.244563268731837
 30
0.0
 11
-27.49984506519826
 21
3.091305162747858
 31
0.0
  0
LINE
  5
5F
330
2
100
AcDbEntity
  8
GAIKEI
  6
S10
 62
     1
100
AcDbLine
 10
-27.49984506519826
 20
3.091305162747858
 30
0.0
 11
-27.3164954424783
 21
3.091305162747858
 31
0.0
  0
LINE
  5
60
330
2
100
AcDbEntity
  8
GAIKEI
  6
S10
 62
     1
100
AcDbLine
 10
-15.31651256141163
 20
13.08464300392131
 30
0.0
 11
-15.14983108621169
 21
12.98840945421455
 31
0.0
  0
LINE
  5
61
330
2
100
AcDbEntity
  8
GAIKEI
  6
S10
 62
     1
100
AcDbLine
 10
-15.48319403661162
 20
12.98840945421455
 30
0.0
 11
-15.31651256141163
 21
13.08464300392131
 31
0.0
  0
LINE
  5
62
330
2
100
AcDbEntity
  8
GAIKEI
  6
S10
 62
     1
100
AcDbLine
 10
-15.48319403661162
 20
12.98840945421455
 30
0.0
 11
-15.48319403661162
 21
12.79594202143818
 31
0.0
  0
LINE
  5
63
330
2
100
AcDbEntity
  8
GAIKEI
  6
S10
 62
     1
100
AcDbLine
 10
-15.48319403661162
 20
12.79594202143818
 30
0.0
 11
-15.31651256141163
 21
12.69970847173147
 31
0.0
  0
LINE
  5
64
330
2
100
AcDbEntity
  8
GAIKEI
  6
S10
 62
     1
100
AcDbLine
 10
-15.31651256141163
 20
12.69970847173147
 30
0.0
 11
-15.14983108621169
 21
12.79594202143818
 31
0.0
  0
LINE
  5
65
330
2
100
AcDbEntity
  8
GAIKEI
  6
S10
 62
     1
100
AcDbLine
 10
-15.14983108621169
 20
12.98840945421455
 30
0.0
 11
-15.14983108621169
 21
12.79594202143818
 31
0.0
  0
CIRCLE
  5
66
330
2
100
AcDbEntity
  8
GAIKEI
  6
S10
 62
     1
100
AcDbCircle
 10
-15.31651256141163
 20
12.89217590450784
 30
0.0
 40
0.3333629504
  0
LINE
  5
67
330
2
100
AcDbEntity
  8
GAIKEI
  6
S10
 62
     1
100
AcDbLine
 10
-15.01648590605168
 20
13.03748514759474
 30
0.0
 11
-15.01648590605168
 21
13.22553885490782
 31
0.0
  0
LINE
  5
68
330
2
100
AcDbEntity
  8
GAIKEI
  6
S10
 62
     1
100
AcDbLine
 10
-15.61653921677162
 20
13.03748514759474
 30
0.0
 11
-15.61653921677162
 21
13.22553885490782
 31
0.0
  0
LINE
  5
69
330
2
100
AcDbEntity
  8
GAIKEI
  6
S10
 62
     1
100
AcDbLine
 10
-17.98341616461164
 20
14.74734072348383
 30
0.0
 11
-25.31631774007832
 21
14.74734072348383
 31
0.0
  0
LINE
  5
6A
330
2
100
AcDbEntity
  8
GAIKEI
  6
S10
 62
     1
100
AcDbLine
 10
-17.98341616461164
 20
13.32388092527583
 30
0.0
 11
-25.31631774007832
 21
13.32388092527583
 31
0.0
  0
LINE
  5
6B
330
2
100
AcDbEntity
  8
GAIKEI
  6
S10
 62
     1
100
AcDbLine
 10
-5.316707382744937
 20
14.74734072348383
 30
0.0
 11
-12.64960895821167
 21
14.74734072348383
 31
0.0
  0
LINE
  5
6C
330
2
100
AcDbEntity
  8
GAIKEI
  6
S10
 62
     1
100
AcDbLine
 10
-5.316707382744937
 20
13.32388092527583
 30
0.0
 11
-12.64960895821167
 21
13.32388092527583
 31
0.0
  0
LINE
  5
6D
330
2
100
AcDbEntity
  8
GAIKEI
  6
S10
 62
     1
100
AcDbLine
 10
-27.3164954424783
 20
14.74734072348383
 30
0.0
 11
-27.49984506519826
 21
14.74734072348383
 31
0.0
  0
LINE
  5
6E
330
2
100
AcDbEntity
  8
GAIKEI
  6
S10
 62
     1
100
AcDbLine
 10
-27.3164954424783
 20
13.32388092527583
 30
0.0
 11
-27.49984506519826
 21
13.32388092527583
 31
0.0
  0
LINE
  5
6F
330
2
100
AcDbEntity
  8
GAIKEI
  6
S10
 62
     1
100
AcDbLine
 10
-25.31631774007832
 20
3.091305162747858
 30
0.0
 11
-15.73988350841961
 21
3.091305162747858
 31
0.0
  0
LINE
  5
70
330
2
100
AcDbEntity
  8
GAIKEI
  6
S10
 62
     1
100
AcDbLine
 10
-27.3164954424783
 20
2.244563268731837
 30
0.0
 11
-27.49984506519826
 21
2.244563268731837
 31
0.0
  0
LINE
  5
71
330
2
100
AcDbEntity
  8
GAIKEI
  6
S10
 62
     1
100
AcDbLine
 10
-5.316707382744937
 20
3.091305162747858
 30
0.0
 11
-14.89314161440364
 21
3.091305162747858
 31
0.0
  0
LINE
  5
72
330
2
100
AcDbEntity
  8
GAIKEI
  6
S10
 62
     1
100
AcDbLine
 10
-5.316707382744937
 20
2.244563268731837
 30
0.0
 11
-25.31631774007832
 21
2.244563268731837
 31
0.0
  0
LINE
  5
73
330
2
100
AcDbEntity
  8
GAIKEI
  6
S10
 62
     1
100
AcDbLine
 10
-15.79322158048359
 20
12.54214480658783
 30
0.0
 11
-15.79322158048359
 21
7.24305768483498
 31
0.0
  0
LINE
  5
74
330
2
100
AcDbEntity
  8
GAIKEI
  6
S10
 62
     1
100
AcDbLine
 10
-14.83980354233966
 20
12.54214480658783
 30
0.0
 11
-14.83980354233966
 21
7.24305768483498
 31
0.0
  0
LINE
  5
75
330
2
100
AcDbEntity
  8
GAIKEI
  6
S10
 62
     1
100
AcDbLine
 10
-14.83980354233966
 20
7.24305768483498
 30
0.0
 11
-15.16649923373165
 21
7.24305768483498
 31
0.0
  0
LINE
  5
76
330
2
100
AcDbEntity
  8
GAIKEI
  6
S10
 62
     1
100
AcDbLine
 10
-15.26650811885162
 20
8.909872436834916
 30
0.0
 11
-15.36651700397164
 21
8.909872436834916
 31
0.0
  0
LINE
  5
77
330
2
100
AcDbEntity
  8
GAIKEI
  6
S10
 62
     1
100
AcDbLine
 10
-15.26650811885162
 20
8.909872436834916
 30
0.0
 11
-15.26650811885162
 21
7.343066569954942
 31
0.0
  0
LINE
  5
78
330
2
100
AcDbEntity
  8
GAIKEI
  6
S10
 62
     1
100
AcDbLine
 10
-15.36651700397164
 20
8.909872436834916
 30
0.0
 11
-15.36651700397164
 21
7.343066569954942
 31
0.0
  0
LINE
  5
79
330
2
100
AcDbEntity
  8
GAIKEI
  6
S10
 62
     1
100
AcDbLine
 10
-15.46652588909165
 20
7.24305768483498
 30
0.0
 11
-15.79322158048359
 21
7.24305768483498
 31
0.0
  0
ARC
  5
7A
330
2
100
AcDbEntity
  8
GAIKEI
  6
S10
 62
     1
100
AcDbCircle
 10
-15.16649923373165
 20
7.343066569954942
 30
0.0
 40
0.10000888512
100
AcDbArc
 50
180.0
 51
270.0
  0
ARC
  5
7B
330
2
100
AcDbEntity
  8
GAIKEI
  6
S10
 62
     1
100
AcDbCircle
 10
-15.46652588909165
 20
7.343066569954942
 30
0.0
 40
0.10000888512
100
AcDbArc
 50
270.0
 51
0.0
  0
LINE
  5
7C
330
2
100
AcDbEntity
  8
GAIKEI
  6
S10
 62
     1
100
AcDbLine
 10
-26.08305252599831
 20
14.74734072348383
 30
0.0
 11
-26.5497606565583
 21
14.74734072348383
 31
0.0
  0
LINE
  5
7D
330
2
100
AcDbEntity
  8
GAIKEI
  6
S10
 62
     1
100
AcDbLine
 10
-4.549972596824943
 20
14.74734072348383
 30
0.0
 11
-4.083264466264949
 21
14.74734072348383
 31
0.0
  0
LINE
  5
7E
330
2
100
AcDbEntity
  8
GAIKEI
  6
Continuous
 62
     7
100
AcDbLine
 10
35.37657426964961
 20
36.51422856576471
 30
0.0
 11
37.25396973033594
 21
36.51422856576471
 31
0.0
  0
LINE
  5
7F
330
2
100
AcDbEntity
  8
GAIKEI
  6
Continuous
 62
     7
100
AcDbLine
 10
25.58626646633593
 20
36.51422856576471
 30
0.0
 11
25.58626646633593
 21
36.40755242163664
 31
0.0
  0
LINE
  5
80
330
2
100
AcDbEntity
  8
GAIKEI
  6
Continuous
 62
     7
100
AcDbLine
 10
37.25396973033594
 20
36.51422856576471
 30
0.0
 11
37.25396973033594
 21
35.44746712448466
 31
0.0
  0
LINE
  5
81
330
2
100
AcDbEntity
  8
GAIKEI
  6
Continuous
 62
     7
100
AcDbLine
 10
25.58626646633593
 20
36.40755242163664
 30
0.0
 11
37.25396973033594
 21
36.40755242163664
 31
0.0
  0
LINE
  5
82
330
2
100
AcDbEntity
  8
GAIKEI
  6
Continuous
 62
     7
100
AcDbLine
 10
34.52561233404447
 20
35.44746712448466
 30
0.0
 11
37.25396973033594
 21
35.44746712448466
 31
0.0
  0
LINE
  5
83
330
2
100
AcDbEntity
  8
GAIKEI
  6
Continuous
 62
     7
100
AcDbLine
 10
29.32972704775045
 20
34.98075899392467
 30
0.0
 11
33.51050948228431
 21
34.98075899392467
 31
0.0
  0
LINE
  5
84
330
2
100
AcDbEntity
  8
GAIKEI
  6
Continuous
 62
     7
100
AcDbLine
 10
25.58626646633593
 20
36.51422856576471
 30
0.0
 11
35.35546772780799
 21
36.51422856576471
 31
0.0
  0
LINE
  5
85
330
2
100
AcDbEntity
  8
GAIKEI
  6
Continuous
 62
     7
100
AcDbLine
 10
28.84261643790012
 20
35.19224144939187
 30
0.0
 11
27.87283494597273
 21
36.22990730572394
 31
0.0
  0
ARC
  5
86
330
2
100
AcDbEntity
  8
GAIKEI
  6
Continuous
 62
     7
100
AcDbCircle
 10
29.32972704775045
 20
35.6474848947247
 30
0.0
 40
0.6667259008
100
AcDbArc
 50
223.0632000000199
 51
270.0
  0
LINE
  5
87
330
2
100
AcDbEntity
  8
GAIKEI
  6
Continuous
 62
     7
100
AcDbLine
 10
33.99762009213464
 20
35.19224144939187
 30
0.0
 11
34.96740125069914
 21
36.22990730572394
 31
0.0
  0
ARC
  5
88
330
2
100
AcDbEntity
  8
GAIKEI
  6
Continuous
 62
     7
100
AcDbCircle
 10
33.51050948228431
 20
35.6474848947247
 30
0.0
 40
0.6667259008
100
AcDbArc
 50
270.0
 51
316.9367999999801
  0
ARC
  5
89
330
2
100
AcDbEntity
  8
GAIKEI
  6
Continuous
 62
     7
100
AcDbCircle
 10
27.46366226038527
 20
35.84750266496468
 30
0.0
 40
0.560049756672
100
AcDbArc
 50
43.06320000001989
 51
90.0
  0
ARC
  5
8A
330
2
100
AcDbEntity
  8
GAIKEI
  6
Continuous
 62
     7
100
AcDbCircle
 10
35.37657426964961
 20
35.84750266496468
 30
0.0
 40
0.560049756672
100
AcDbArc
 50
90.0
 51
136.9367999999801
  0
ARC
  5
8B
330
2
100
AcDbEntity
  8
GAIKEI
  6
Continuous
 62
     7
100
AcDbCircle
 10
34.52561233404447
 20
34.78074122368469
 30
0.0
 40
0.6667259008
100
AcDbArc
 50
90.0
 51
136.9367999999801
  0
LINE
  5
8C
330
2
100
AcDbEntity
  8
GAIKEI
  6
Continuous
 62
     7
100
AcDbLine
 10
32.80357434249595
 20
34.98075899392467
 30
0.0
 11
32.80357434249595
 21
34.94413507346781
 31
0.0
  0
LINE
  5
8D
330
2
100
AcDbEntity
  8
GAIKEI
  6
Continuous
 62
     7
100
AcDbLine
 10
30.03666185417592
 20
34.98075899392467
 30
0.0
 11
30.03666185417592
 21
34.94413507346781
 31
0.0
  0
LINE
  5
8E
330
2
100
AcDbEntity
  8
GAIKEI
  6
Continuous
 62
     1
100
AcDbLine
 10
31.42011809833594
 20
33.06975188040127
 30
0.0
 11
31.58679957353593
 21
32.97351833069456
 31
0.0
  0
LINE
  5
8F
330
2
100
AcDbEntity
  8
GAIKEI
  6
Continuous
 62
     1
100
AcDbLine
 10
31.25343662313594
 20
32.97351833069456
 30
0.0
 11
31.42011809833594
 21
33.06975188040127
 31
0.0
  0
LINE
  5
90
330
2
100
AcDbEntity
  8
GAIKEI
  6
Continuous
 62
     1
100
AcDbLine
 10
31.25343662313594
 20
32.97351833069456
 30
0.0
 11
31.25343662313594
 21
32.78105089791814
 31
0.0
  0
LINE
  5
91
330
2
100
AcDbEntity
  8
GAIKEI
  6
Continuous
 62
     1
100
AcDbLine
 10
31.25343662313594
 20
32.78105089791814
 30
0.0
 11
31.42011809833594
 21
32.68481734821143
 31
0.0
  0
LINE
  5
92
330
2
100
AcDbEntity
  8
GAIKEI
  6
Continuous
 62
     1
100
AcDbLine
 10
31.42011809833594
 20
32.68481734821143
 30
0.0
 11
31.58679957353593
 21
32.78105089791814
 31
0.0
  0
LINE
  5
93
330
2
100
AcDbEntity
  8
GAIKEI
  6
Continuous
 62
     1
100
AcDbLine
 10
31.58679957353593
 20
32.97351833069456
 30
0.0
 11
31.58679957353593
 21
32.78105089791814
 31
0.0
  0
CIRCLE
  5
94
330
2
100
AcDbEntity
  8
GAIKEI
  6
Continuous
 62
     1
100
AcDbCircle
 10
31.42011809833594
 20
32.87728478098785
 30
0.0
 40
0.3333629504
  0
LINE
  5
95
330
2
100
AcDbEntity
  8
GAIKEI
  6
Continuous
 62
     7
100
AcDbLine
 10
31.86966337075751
 20
13.22553885490782
 30
0.0
 11
31.86966337075751
 21
12.55881295410785
 31
0.0
  0
CIRCLE
  5
96
330
2
100
AcDbEntity
  8
GAIKEI
  6
Continuous
 62
     1
100
AcDbCircle
 10
29.08657744553591
 20
14.04894534239582
 30
0.0
 40
0.7117298991040001
  0
CIRCLE
  5
97
330
2
100
AcDbEntity
  8
GAIKEI
  6
Continuous
 62
     1
100
AcDbCircle
 10
29.08657744553591
 20
14.04894534239582
 30
0.0
 40
0.635056420512
  0
LINE
  5
98
330
2
100
AcDbEntity
  8
GAIKEI
  6
Continuous
 62
     1
100
AcDbLine
 10
32.08418876323595
 20
7.98895061909593
 30
0.0
 11
32.02829846442376
 21
7.745065284849829
 31
0.0
  0
LINE
  5
99
330
2
100
AcDbEntity
  8
GAIKEI
  6
Continuous
 62
     1
100
AcDbLine
 10
31.66176723391072
 20
8.085755552899627
 30
0.0
 11
31.60587693509842
 21
7.841870218653525
 31
0.0
  0
LINE
  5
9A
330
2
100
AcDbEntity
  8
GAIKEI
  6
Continuous
 62
     1
100
AcDbLine
 10
31.66176723391072
 20
8.085755552899627
 30
0.0
 11
31.90092314797948
 21
8.159295753120829
 31
0.0
  0
LINE
  5
9B
330
2
100
AcDbEntity
  8
GAIKEI
  6
Continuous
 62
     1
100
AcDbLine
 10
31.789142550355
 20
7.671525417991631
 30
0.0
 11
32.02829846442376
 21
7.745065284849829
 31
0.0
  0
LINE
  5
9C
330
2
100
AcDbEntity
  8
GAIKEI
  6
Continuous
 62
     1
100
AcDbLine
 10
31.90092314797948
 20
8.159295753120829
 30
0.0
 11
32.08418876323595
 21
7.98895061909593
 31
0.0
  0
LINE
  5
9D
330
2
100
AcDbEntity
  8
GAIKEI
  6
Continuous
 62
     1
100
AcDbLine
 10
31.60587693509842
 20
7.841870218653525
 30
0.0
 11
31.789142550355
 21
7.671525417991631
 31
0.0
  0
CIRCLE
  5
9E
330
2
100
AcDbEntity
  8
GAIKEI
  6
Continuous
 62
     1
100
AcDbCircle
 10
31.84503284916718
 20
7.915410418874785
 30
0.0
 40
0.3000266553599999
  0
CIRCLE
  5
9F
330
2
100
AcDbEntity
  8
GAIKEI
  6
Continuous
 62
     1
100
AcDbCircle
 10
31.42011809833594
 20
32.87728478098785
 30
0.0
 40
0.0833407376
  0
LINE
  5
A0
330
2
100
AcDbEntity
  8
GAIKEI
  6
Continuous
 62
     1
100
AcDbLine
 10
31.64596749687655
 20
15.95087331596511
 30
0.0
 11
31.64596749687655
 21
15.7006660867276
 31
0.0
  0
LINE
  5
A1
330
2
100
AcDbEntity
  8
GAIKEI
  6
Continuous
 62
     1
100
AcDbLine
 10
31.21259566135655
 20
15.95087331596511
 30
0.0
 11
31.21259566135655
 21
15.7006660867276
 31
0.0
  0
LINE
  5
A2
330
2
100
AcDbEntity
  8
GAIKEI
  6
Continuous
 62
     1
100
AcDbLine
 10
31.21259566135655
 20
15.95087331596511
 30
0.0
 11
31.42928157911649
 21
16.07597709726531
 31
0.0
  0
LINE
  5
A3
330
2
100
AcDbEntity
  8
GAIKEI
  6
Continuous
 62
     1
100
AcDbLine
 10
31.42928157911649
 20
15.57556230542741
 30
0.0
 11
31.64596749687655
 21
15.7006660867276
 31
0.0
  0
LINE
  5
A4
330
2
100
AcDbEntity
  8
GAIKEI
  6
Continuous
 62
     1
100
AcDbLine
 10
31.42928157911649
 20
16.07597709726531
 30
0.0
 11
31.64596749687655
 21
15.95087331596511
 31
0.0
  0
LINE
  5
A5
330
2
100
AcDbEntity
  8
GAIKEI
  6
Continuous
 62
     1
100
AcDbLine
 10
31.21259566135655
 20
15.7006660867276
 30
0.0
 11
31.42928157911649
 21
15.57556230542741
 31
0.0
  0
CIRCLE
  5
A6
330
2
100
AcDbEntity
  8
GAIKEI
  6
Continuous
 62
     1
100
AcDbCircle
 10
31.42928157911649
 20
15.8257698680278
 30
0.0
 40
0.3000266553599999
  0
CIRCLE
  5
A7
330
2
100
AcDbEntity
  8
GAIKEI
  6
Continuous
 62
     1
100
AcDbCircle
 10
31.42011809833594
 20
19.15939937202785
 30
0.0
 40
0.15834740144
  0
POINT
  5
A8
330
2
100
AcDbEntity
  8
GAIKEI
  6
Continuous
 62
     7
100
AcDbPoint
 10
29.08657744553591
 20
14.04894534239582
 30
0.0
  0
LINE
  5
A9
330
2
100
AcDbEntity
  8
GAIKEI
  6
Continuous
 62
     7
100
AcDbLine
 10
-16.80164450544322
 20
34.94413507346906
 30
0.0
 11
-16.80164450544322
 21
21.06777625187362
 31
0.0
  0
LINE
  5
AA
330
2
100
AcDbEntity
  8
GAIKEI
  6
Continuous
 62
     7
100
AcDbLine
 10
-13.83138061737918
 20
34.94413507346906
 30
0.0
 11
-13.83138061737918
 21
21.06777625187362
 31
0.0
  0
LINE
  5
AB
330
2
100
AcDbEntity
  8
GAIKEI
  6
S10
 62
     1
100
AcDbLine
 10
-16.80164450544322
 20
15.32572544242873
 30
0.0
 11
-13.83138061737918
 21
15.32572544242873
 31
0.0
  0
LINE
  5
AC
330
2
100
AcDbEntity
  8
GAIKEI
  6
Continuous
 62
     7
100
AcDbLine
 10
-16.80164450544322
 20
34.94413507346906
 30
0.0
 11
-13.83138061737918
 21
34.94413507346906
 31
0.0
  0
LINE
  5
AD
330
2
100
AcDbEntity
  8
GAIKEI
  6
S10
 62
     1
100
AcDbLine
 10
-13.83138061737918
 20
21.06777625187362
 30
0.0
 11
-13.83138061737918
 21
15.32572544242873
 31
0.0
  0
LINE
  5
AE
330
2
100
AcDbEntity
  8
GAIKEI
  6
S10
 62
     1
100
AcDbLine
 10
-16.80164450544322
 20
21.06777625187362
 30
0.0
 11
-16.80164450544322
 21
15.32572544242873
 31
0.0
  0
LINE
  5
AF
330
2
100
AcDbEntity
  8
GAIKEI
  6
S10
 62
     1
100
AcDbLine
 10
-14.83980354233921
 20
7.926451733155772
 30
0.0
 11
-14.68979021465918
 21
7.926451733155772
 31
0.0
  0
LINE
  5
B0
330
2
100
AcDbEntity
  8
GAIKEI
  6
S10
 62
     1
100
AcDbLine
 10
-14.83980354233921
 20
7.493079897635766
 30
0.0
 11
-14.68979021465918
 21
7.493079897635766
 31
0.0
  0
LINE
  5
B1
330
2
100
AcDbEntity
  8
GAIKEI
  6
S10
 62
     1
100
AcDbLine
 10
-14.68979021465918
 20
7.926451733155772
 30
0.0
 11
-14.68979021465918
 21
7.493079897635766
 31
0.0
  0
LINE
  5
B2
330
2
100
AcDbEntity
  8
GAIKEI
  6
S10
 62
     1
100
AcDbLine
 10
-16.01547432615194
 20
7.901449511875739
 30
0.0
 11
-15.84655965254723
 21
7.901449511875739
 31
0.0
  0
LINE
  5
B3
330
2
100
AcDbEntity
  8
GAIKEI
  6
S10
 62
     1
100
AcDbLine
 10
-16.01547432615194
 20
7.518082118915799
 30
0.0
 11
-15.84655965254723
 21
7.518082118915799
 31
0.0
  0
LINE
  5
B4
330
2
100
AcDbEntity
  8
GAIKEI
  6
S10
 62
     1
100
AcDbLine
 10
-16.02990927526724
 20
7.566003043035777
 30
0.0
 11
-16.02990927526724
 21
7.853528587755818
 31
0.0
  0
LINE
  5
B5
330
2
100
AcDbEntity
  8
GAIKEI
  6
S10
 62
     1
100
AcDbLine
 10
-15.89656409510723
 20
7.518082118915799
 30
0.0
 11
-15.89656409510723
 21
7.901449511875739
 31
0.0
  0
LINE
  5
B6
330
2
100
AcDbEntity
  8
GAIKEI
  6
S10
 62
     1
100
AcDbLine
 10
-16.01547432615194
 20
7.805607663635782
 30
0.0
 11
-15.89656409510723
 21
7.805607663635782
 31
0.0
  0
LINE
  5
B7
330
2
100
AcDbEntity
  8
GAIKEI
  6
S10
 62
     1
100
AcDbLine
 10
-16.01547432615194
 20
7.613923967155756
 30
0.0
 11
-15.89656409510723
 21
7.613923967155756
 31
0.0
  0
LINE
  5
B8
330
2
100
AcDbEntity
  8
GAIKEI
  6
S10
 62
     1
100
AcDbLine
 10
-15.84655965254723
 20
7.918117659395761
 30
0.0
 11
-15.79322158048325
 21
7.918117659395761
 31
0.0
  0
LINE
  5
B9
330
2
100
AcDbEntity
  8
GAIKEI
  6
S10
 62
     1
100
AcDbLine
 10
-15.84655965254723
 20
7.501413971395777
 30
0.0
 11
-15.79322158048325
 21
7.501413971395777
 31
0.0
  0
LINE
  5
BA
330
2
100
AcDbEntity
  8
GAIKEI
  6
S10
 62
     1
100
AcDbLine
 10
-15.79322158048325
 20
7.918117659395761
 30
0.0
 11
-15.79322158048325
 21
7.501413971395777
 31
0.0
  0
LINE
  5
BB
330
2
100
AcDbEntity
  8
GAIKEI
  6
S10
 62
     1
100
AcDbLine
 10
-15.84655965254723
 20
7.918117659395761
 30
0.0
 11
-15.84655965254723
 21
7.501413971395777
 31
0.0
  0
LINE
  5
BC
330
2
100
AcDbEntity
  8
GAIKEI
  6
S10
 62
     1
100
AcDbLine
 10
-14.57978044102719
 20
7.593088782755785
 30
0.0
 11
-14.83980354233921
 21
7.593088782755785
 31
0.0
  0
LINE
  5
BD
330
2
100
AcDbEntity
  8
GAIKEI
  6
S10
 62
     1
100
AcDbLine
 10
-14.83980354233921
 20
7.826442848035753
 30
0.0
 11
-14.57978044102719
 21
7.826442848035753
 31
0.0
  0
LINE
  5
BE
330
2
100
AcDbEntity
  8
GAIKEI
  6
S10
 62
     1
100
AcDbLine
 10
-14.57978044102719
 20
7.593088782755785
 30
0.0
 11
-14.56311229350717
 21
7.60975693027575
 31
0.0
  0
LINE
  5
BF
330
2
100
AcDbEntity
  8
GAIKEI
  6
S10
 62
     1
100
AcDbLine
 10
-14.56311229350717
 20
7.809774700515788
 30
0.0
 11
-14.57978044102719
 21
7.826442848035753
 31
0.0
  0
ARC
  5
C0
330
2
100
AcDbEntity
  8
GAIKEI
  6
S10
 62
     1
100
AcDbCircle
 10
-15.94314890052203
 20
7.853528587755818
 30
0.0
 40
0.0867607081081548
100
AcDbArc
 50
146.4726420000017
 51
213.5273579999982
  0
ARC
  5
C1
330
2
100
AcDbEntity
  8
GAIKEI
  6
S10
 62
     1
100
AcDbCircle
 10
-15.94314890052203
 20
7.566003043035777
 30
0.0
 40
0.0867607081081548
100
AcDbArc
 50
146.4726420000017
 51
213.5273579999982
  0
ARC
  5
C2
330
2
100
AcDbEntity
  8
GAIKEI
  6
S10
 62
     1
100
AcDbCircle
 10
-15.70451936655195
 20
7.709765815395769
 30
0.0
 40
0.3253899087152878
100
AcDbArc
 50
162.8697630000002
 51
197.1302369999997
  0
LINE
  5
C3
330
2
100
AcDbEntity
  8
GAIKEI
  6
S10
 62
     1
100
AcDbLine
 10
-14.56311229350717
 20
7.60975693027575
 30
0.0
 11
-14.56311229350717
 21
7.809774700515788
 31
0.0
  0
LINE
  5
C4
330
2
100
AcDbEntity
  8
GAIKEI
  6
S10
 62
     1
100
AcDbLine
 10
-15.84655965254723
 20
7.518082118915799
 30
0.0
 11
-15.84655965254723
 21
7.901449511875739
 31
0.0
  0
LINE
  5
C5
330
2
100
AcDbEntity
  8
GAIKEI
  6
S10
 62
     1
100
AcDbLine
 10
-14.64645303110723
 20
7.593088782755785
 30
0.0
 11
-14.64645303110723
 21
7.826442848035753
 31
0.0
  0
LINE
  5
C6
330
2
100
AcDbEntity
  8
GAIKEI
  6
S10
 62
     1
100
AcDbLine
 10
-5.150025907544375
 20
6.434935555260608
 30
0.0
 11
-5.150025907544375
 21
12.96884938310074
 31
0.0
  0
LINE
  5
C7
330
2
100
AcDbEntity
  8
GAIKEI
  6
S10
 62
     1
100
AcDbLine
 10
-3.483211155544381
 20
6.434935555260608
 30
0.0
 11
-3.483211155544381
 21
12.96884938310074
 31
0.0
  0
LINE
  5
C8
330
2
100
AcDbEntity
  8
GAIKEI
  6
S10
 62
     1
100
AcDbLine
 10
-5.0833533174644
 20
13.03552197318072
 30
0.0
 11
-3.549883745624356
 21
13.03552197318072
 31
0.0
  0
LINE
  5
C9
330
2
100
AcDbEntity
  8
GAIKEI
  6
S10
 62
     1
100
AcDbLine
 10
-5.0833533174644
 20
6.368262965180633
 30
0.0
 11
-3.549883745624356
 21
6.368262965180633
 31
0.0
  0
ARC
  5
CA
330
2
100
AcDbEntity
  8
GAIKEI
  6
S10
 62
     1
100
AcDbCircle
 10
-5.0833533174644
 20
6.434935555260608
 30
0.0
 40
0.0666725900800009
100
AcDbArc
 50
180.0
 51
270.0
  0
ARC
  5
CB
330
2
100
AcDbEntity
  8
GAIKEI
  6
S10
 62
     1
100
AcDbCircle
 10
-3.549883745624356
 20
6.434935555260608
 30
0.0
 40
0.0666725900800009
100
AcDbArc
 50
270.0
 51
0.0
  0
ARC
  5
CC
330
2
100
AcDbEntity
  8
GAIKEI
  6
S10
 62
     1
100
AcDbCircle
 10
-5.0833533174644
 20
12.96884938310074
 30
0.0
 40
0.0666725900800009
100
AcDbArc
 50
90.0
 51
180.0
  0
ARC
  5
CD
330
2
100
AcDbEntity
  8
GAIKEI
  6
S10
 62
     1
100
AcDbCircle
 10
-3.549883745624356
 20
12.96884938310074
 30
0.0
 40
0.0666725900800009
100
AcDbArc
 50
0.0
 51
90.0
  0
LINE
  5
CE
330
2
100
AcDbEntity
  8
GAIKEI
  6
Continuous
 62
     1
100
AcDbLine
 10
32.72523404915273
 20
15.26738692610877
 30
0.0
 11
32.78024893685734
 21
15.26450366995073
 31
0.0
  0
LINE
  5
CF
330
2
100
AcDbEntity
  8
GAIKEI
  6
Continuous
 62
     1
100
AcDbLine
 10
32.72523404915273
 20
14.91735582818876
 30
0.0
 11
32.78024893685734
 21
14.9202387509838
 31
0.0
  0
LINE
  5
D0
330
2
100
AcDbEntity
  8
GAIKEI
  6
Continuous
 62
     1
100
AcDbLine
 10
32.72523404915273
 20
15.28405507362879
 30
0.0
 11
32.72523404915273
 21
14.90068768066874
 31
0.0
  0
ARC
  5
D1
330
2
100
AcDbEntity
  8
GAIKEI
  6
Continuous
 62
     1
100
AcDbCircle
 10
32.7769339756785
 20
15.20125138374186
 30
0.0
 40
0.0633389605760009
100
AcDbArc
 50
15.65991700000055
 51
87.00000000000093
  0
ARC
  5
D2
330
2
100
AcDbEntity
  8
GAIKEI
  6
Continuous
 62
     1
100
AcDbCircle
 10
32.7769339756785
 20
14.98349103719272
 30
0.0
 40
0.0633389605760009
100
AcDbArc
 50
272.9999999999991
 51
344.3400829999994
  0
ARC
  5
D3
330
2
100
AcDbEntity
  8
GAIKEI
  6
Continuous
 62
     1
100
AcDbCircle
 10
32.38853746924872
 20
15.09237137714876
 30
0.0
 40
0.4667081305600066
100
AcDbArc
 50
344.3400829999994
 51
15.65991700000055
  0
LINE
  5
D4
330
2
100
AcDbEntity
  8
GAIKEI
  6
Continuous
 62
     1
100
AcDbLine
 10
32.72523404915273
 20
14.90068768066874
 30
0.0
 11
32.69189775411269
 21
14.90068768066874
 31
0.0
  0
LINE
  5
D5
330
2
100
AcDbEntity
  8
GAIKEI
  6
Continuous
 62
     1
100
AcDbLine
 10
32.72523404915273
 20
15.28405507362879
 30
0.0
 11
32.69189775411269
 21
15.28405507362879
 31
0.0
  0
CIRCLE
  5
D6
330
2
100
AcDbEntity
  8
GAIKEI
  6
Continuous
 62
     1
100
AcDbCircle
 10
34.3870483568968
 20
14.03561082438074
 30
0.0
 40
0.2333540652800033
  0
LINE
  5
D7
330
2
100
AcDbEntity
  8
GAIKEI
  6
Continuous
 62
     1
100
AcDbLine
 10
34.57951545631022
 20
14.03561082438074
 30
0.0
 11
34.48328190660345
 21
14.20229229958079
 31
0.0
  0
LINE
  5
D8
330
2
100
AcDbEntity
  8
GAIKEI
  6
Continuous
 62
     1
100
AcDbLine
 10
34.48328190660345
 20
14.20229229958079
 30
0.0
 11
34.29081480719003
 21
14.20229229958079
 31
0.0
  0
LINE
  5
D9
330
2
100
AcDbEntity
  8
GAIKEI
  6
Continuous
 62
     1
100
AcDbLine
 10
34.29081480719003
 20
14.20229229958079
 30
0.0
 11
34.19458125748338
 21
14.03561082438074
 31
0.0
  0
LINE
  5
DA
330
2
100
AcDbEntity
  8
GAIKEI
  6
Continuous
 62
     1
100
AcDbLine
 10
34.19458125748338
 20
14.03561082438074
 30
0.0
 11
34.29081480719003
 21
13.86892934918074
 31
0.0
  0
LINE
  5
DB
330
2
100
AcDbEntity
  8
GAIKEI
  6
Continuous
 62
     1
100
AcDbLine
 10
34.29081480719003
 20
13.86892934918074
 30
0.0
 11
34.48328190660345
 21
13.86892934918074
 31
0.0
  0
LINE
  5
DC
330
2
100
AcDbEntity
  8
GAIKEI
  6
Continuous
 62
     1
100
AcDbLine
 10
34.48328190660345
 20
13.86892934918074
 30
0.0
 11
34.57951545631022
 21
14.03561082438074
 31
0.0
  0
CIRCLE
  5
DD
330
2
100
AcDbEntity
  8
GAIKEI
  6
Continuous
 62
     1
100
AcDbCircle
 10
34.3870483568968
 20
14.03561082438074
 30
0.0
 40
0.0800071080960011
  0
LINE
  5
DE
330
2
100
AcDbEntity
  8
GAIKEI
  6
S10
 62
     1
100
AcDbLine
 10
-13.71637039949121
 20
13.19886981887674
 30
0.0
 11
-13.7913770633312
 21
13.19886981887674
 31
0.0
  0
LINE
  5
DF
330
2
100
AcDbEntity
  8
GAIKEI
  6
S10
 62
     1
100
AcDbLine
 10
-13.79971113709121
 20
13.15553263532473
 30
0.0
 11
-13.79971113709121
 21
13.11219545177272
 31
0.0
  0
LINE
  5
E0
330
2
100
AcDbEntity
  8
GAIKEI
  6
S10
 62
     1
100
AcDbLine
 10
-13.49968448173121
 20
13.15553263532473
 30
0.0
 11
-13.49968448173121
 21
13.11219545177272
 31
0.0
  0
LINE
  5
E1
330
2
100
AcDbEntity
  8
GAIKEI
  6
S10
 62
     1
100
AcDbLine
 10
-13.49968448173121
 20
13.15553263532473
 30
0.0
 11
-13.79971113709121
 21
13.15553263532473
 31
0.0
  0
LINE
  5
E2
330
2
100
AcDbEntity
  8
GAIKEI
  6
S10
 62
     1
100
AcDbLine
 10
-13.56635707181118
 20
13.04552286169274
 30
0.0
 11
-13.73303854701118
 21
13.04552286169274
 31
0.0
  0
ARC
  5
E3
330
2
100
AcDbEntity
  8
GAIKEI
  6
S10
 62
     1
100
AcDbCircle
 10
-13.73303854701118
 20
13.11219545177272
 30
0.0
 40
0.0666725900800009
100
AcDbArc
 50
180.0
 51
270.0
  0
ARC
  5
E4
330
2
100
AcDbEntity
  8
GAIKEI
  6
S10
 62
     1
100
AcDbCircle
 10
-13.56635707181118
 20
13.11219545177272
 30
0.0
 40
0.0666725900800009
100
AcDbArc
 50
270.0
 51
0.0
  0
LINE
  5
E5
330
2
100
AcDbEntity
  8
GAIKEI
  6
S10
 62
     1
100
AcDbLine
 10
-13.4496800391712
 20
13.22553885490873
 30
0.0
 11
-13.84971557965122
 21
13.22553885490873
 31
0.0
  0
LINE
  5
E6
330
2
100
AcDbEntity
  8
GAIKEI
  6
S10
 62
     1
100
AcDbLine
 10
-13.4496800391712
 20
13.19886981887674
 30
0.0
 11
-13.84971557965122
 21
13.19886981887674
 31
0.0
  0
LINE
  5
E7
330
2
100
AcDbEntity
  8
GAIKEI
  6
S10
 62
     1
100
AcDbLine
 10
-13.4496800391712
 20
13.19886981887674
 30
0.0
 11
-13.4496800391712
 21
13.22553885490873
 31
0.0
  0
LINE
  5
E8
330
2
100
AcDbEntity
  8
GAIKEI
  6
S10
 62
     1
100
AcDbLine
 10
-13.84971557965122
 20
13.19886981887674
 30
0.0
 11
-13.84971557965122
 21
13.22553885490873
 31
0.0
  0
LINE
  5
E9
330
2
100
AcDbEntity
  8
GAIKEI
  6
S10
 62
     1
100
AcDbLine
 10
-13.7913770633312
 20
13.19886981887674
 30
0.0
 11
-13.50801855549122
 21
13.19886981887674
 31
0.0
  0
LINE
  5
EA
330
2
100
AcDbEntity
  8
GAIKEI
  6
S10
 62
     1
100
AcDbLine
 10
-13.50801855549122
 20
13.19886981887674
 30
0.0
 11
-13.50801855549122
 21
13.15553263532473
 31
0.0
  0
LINE
  5
EB
330
2
100
AcDbEntity
  8
GAIKEI
  6
S10
 62
     1
100
AcDbLine
 10
-13.7913770633312
 20
13.19886981887674
 30
0.0
 11
-13.7913770633312
 21
13.15553263532473
 31
0.0
  0
LINE
  5
EC
330
2
100
AcDbEntity
  8
GAIKEI
  6
S10
 62
     1
100
AcDbLine
 10
-17.04999990349125
 20
13.19886981887674
 30
0.0
 11
-17.12500656733124
 21
13.19886981887674
 31
0.0
  0
LINE
  5
ED
330
2
100
AcDbEntity
  8
GAIKEI
  6
S10
 62
     1
100
AcDbLine
 10
-17.13334064109125
 20
13.15553263532473
 30
0.0
 11
-17.13334064109125
 21
13.11219545177272
 31
0.0
  0
LINE
  5
EE
330
2
100
AcDbEntity
  8
GAIKEI
  6
S10
 62
     1
100
AcDbLine
 10
-16.83331398573125
 20
13.15553263532473
 30
0.0
 11
-16.83331398573125
 21
13.11219545177272
 31
0.0
  0
LINE
  5
EF
330
2
100
AcDbEntity
  8
GAIKEI
  6
S10
 62
     1
100
AcDbLine
 10
-16.83331398573125
 20
13.15553263532473
 30
0.0
 11
-17.13334064109125
 21
13.15553263532473
 31
0.0
  0
LINE
  5
F0
330
2
100
AcDbEntity
  8
GAIKEI
  6
S10
 62
     1
100
AcDbLine
 10
-16.89998657581122
 20
13.04552286169274
 30
0.0
 11
-17.06666805101128
 21
13.04552286169274
 31
0.0
  0
ARC
  5
F1
330
2
100
AcDbEntity
  8
GAIKEI
  6
S10
 62
     1
100
AcDbCircle
 10
-17.06666805101128
 20
13.11219545177272
 30
0.0
 40
0.0666725900800009
100
AcDbArc
 50
180.0
 51
270.0
  0
ARC
  5
F2
330
2
100
AcDbEntity
  8
GAIKEI
  6
S10
 62
     1
100
AcDbCircle
 10
-16.89998657581122
 20
13.11219545177272
 30
0.0
 40
0.0666725900800009
100
AcDbArc
 50
270.0
 51
0.0
  0
LINE
  5
F3
330
2
100
AcDbEntity
  8
GAIKEI
  6
S10
 62
     1
100
AcDbLine
 10
-16.78330954317124
 20
13.22553885490873
 30
0.0
 11
-17.18334508365126
 21
13.22553885490873
 31
0.0
  0
LINE
  5
F4
330
2
100
AcDbEntity
  8
GAIKEI
  6
S10
 62
     1
100
AcDbLine
 10
-16.78330954317124
 20
13.19886981887674
 30
0.0
 11
-17.18334508365126
 21
13.19886981887674
 31
0.0
  0
LINE
  5
F5
330
2
100
AcDbEntity
  8
GAIKEI
  6
S10
 62
     1
100
AcDbLine
 10
-16.78330954317124
 20
13.19886981887674
 30
0.0
 11
-16.78330954317124
 21
13.22553885490873
 31
0.0
  0
LINE
  5
F6
330
2
100
AcDbEntity
  8
GAIKEI
  6
S10
 62
     1
100
AcDbLine
 10
-17.18334508365126
 20
13.19886981887674
 30
0.0
 11
-17.18334508365126
 21
13.22553885490873
 31
0.0
  0
LINE
  5
F7
330
2
100
AcDbEntity
  8
GAIKEI
  6
S10
 62
     1
100
AcDbLine
 10
-16.8416480594912
 20
13.19886981887674
 30
0.0
 11
-16.8416480594912
 21
13.15553263532473
 31
0.0
  0
LINE
  5
F8
330
2
100
AcDbEntity
  8
GAIKEI
  6
S10
 62
     1
100
AcDbLine
 10
-17.12500656733124
 20
13.19886981887674
 30
0.0
 11
-17.12500656733124
 21
13.15553263532473
 31
0.0
  0
POINT
  5
F9
330
2
100
AcDbEntity
  8
GAIKEI
  6
Continuous
 62
     1
100
AcDbPoint
 10
29.65329446121677
 20
2.632931105948614
 30
0.0
  0
CIRCLE
  5
FA
330
2
100
AcDbEntity
  8
GAIKEI
  6
Continuous
 62
     1
100
AcDbCircle
 10
29.65329446121677
 20
2.632931105948614
 30
0.0
 40
0.356698356928005
  0
CIRCLE
  5
FB
330
2
100
AcDbEntity
  8
GAIKEI
  6
Continuous
 62
     1
100
AcDbCircle
 10
29.65329446121677
 20
2.632931105948614
 30
0.0
 40
0.4233709470080061
  0
LINE
  5
FC
330
2
100
AcDbEntity
  8
GAIKEI
  6
Continuous
 62
     7
100
AcDbLine
 10
31.27353240851267
 20
7.639969947833492
 30
0.0
 11
29.6319434349798
 21
3.685706329101321
 31
0.0
  0
LINE
  5
FD
330
2
100
AcDbEntity
  8
GAIKEI
  6
Continuous
 62
     7
100
AcDbLine
 10
32.05556255332294
 20
7.315315104423802
 30
0.0
 11
30.3267049558981
 21
3.150838451882805
 31
0.0
  0
CIRCLE
  5
FE
330
2
100
AcDbEntity
  8
GAIKEI
  6
Continuous
 62
     1
100
AcDbCircle
 10
31.54498552530515
 20
7.189641272478411
 30
0.0
 40
0.1166770326400016
  0
CIRCLE
  5
FF
330
2
100
AcDbEntity
  8
GAIKEI
  6
Continuous
 62
     1
100
AcDbCircle
 10
31.35325982509335
 20
6.727812575423399
 30
0.0
 40
0.1166770326400016
  0
CIRCLE
  5
100
330
2
100
AcDbEntity
  8
GAIKEI
  6
Continuous
 62
     1
100
AcDbCircle
 10
31.16153445824455
 20
6.265983878368444
 30
0.0
 40
0.1166770326400016
  0
CIRCLE
  5
101
330
2
100
AcDbEntity
  8
GAIKEI
  6
Continuous
 62
     1
100
AcDbCircle
 10
30.96980909139575
 20
5.804154847950485
 30
0.0
 40
0.1166770326400016
  0
CIRCLE
  5
102
330
2
100
AcDbEntity
  8
GAIKEI
  6
Continuous
 62
     1
100
AcDbCircle
 10
30.77808372454695
 20
5.342326150895473
 30
0.0
 40
0.1166770326400016
  0
LINE
  5
103
330
2
100
AcDbEntity
  8
GAIKEI
  6
Continuous
 62
     7
100
AcDbLine
 10
33.5698864241956
 20
13.31054640726074
 30
0.0
 11
31.22427069860624
 21
7.660420764751677
 31
0.0
  0
LINE
  5
104
330
2
100
AcDbEntity
  8
GAIKEI
  6
Continuous
 62
     7
100
AcDbLine
 10
34.96792396380624
 20
14.19150700804647
 30
0.0
 11
32.10482426322949
 21
7.294864287505617
 31
0.0
  0
LINE
  5
105
330
2
100
AcDbEntity
  8
GAIKEI
  6
Continuous
 62
     7
100
AcDbLine
 10
32.10482426322949
 20
7.294864287505617
 30
0.0
 11
31.22427069860624
 21
7.660420764751677
 31
0.0
  0
LINE
  5
106
330
2
100
AcDbEntity
  8
GAIKEI
  6
Continuous
 62
     7
100
AcDbLine
 10
34.96792396380624
 20
14.19150700804647
 30
0.0
 11
34.57055799383295
 21
14.35647099732603
 31
0.0
  0
LINE
  5
107
330
2
100
AcDbEntity
  8
GAIKEI
  6
Continuous
 62
     7
100
AcDbLine
 10
30.38669295209672
 20
2.909449672772325
 30
0.0
 11
30.38669295209672
 21
2.426418425345957
 31
0.0
  0
LINE
  5
108
330
2
100
AcDbEntity
  8
GAIKEI
  6
Continuous
 62
     7
100
AcDbLine
 10
29.3387795186693
 20
3.822061752246668
 30
0.0
 11
30.00114603216707
 21
3.513984048271595
 31
0.0
  0
LINE
  5
109
330
2
100
AcDbEntity
  8
GAIKEI
  6
Continuous
 62
     7
100
AcDbLine
 10
29.08694381141913
 20
1.396673606078365
 30
0.0
 11
30.00114603216707
 21
1.82188404984663
 31
0.0
  0
ARC
  5
10A
330
2
100
AcDbEntity
  8
GAIKEI
  6
Continuous
 62
     7
100
AcDbCircle
 10
29.61995816617673
 20
4.426596127745995
 30
0.0
 40
0.6667259008000094
100
AcDbArc
 50
180.0
 51
245.0560949999998
  0
ARC
  5
10B
330
2
100
AcDbEntity
  8
GAIKEI
  6
Continuous
 62
     7
100
AcDbCircle
 10
29.71996705129675
 20
2.909449672772325
 30
0.0
 40
0.6667259008000094
100
AcDbArc
 50
0.0
 51
65.05609499999984
  0
ARC
  5
10C
330
2
100
AcDbEntity
  8
GAIKEI
  6
Continuous
 62
     7
100
AcDbCircle
 10
29.71996705129675
 20
2.426418425345957
 30
0.0
 40
0.6667259008000094
100
AcDbArc
 50
294.9439050000002
 51
0.0
  0
ARC
  5
10D
330
2
100
AcDbEntity
  8
GAIKEI
  6
Continuous
 62
     7
100
AcDbCircle
 10
28.80576516391182
 20
2.001208314940583
 30
0.0
 40
0.6667259008000094
100
AcDbArc
 50
270.0
 51
294.9439050000002
  0
LINE
  5
10E
330
2
100
AcDbEntity
  8
GAIKEI
  6
Continuous
 62
     7
100
AcDbLine
 10
30.38669295209672
 20
14.35453982575433
 30
0.0
 11
30.38669295209672
 21
13.71668182300721
 31
0.0
  0
LINE
  5
10F
330
2
100
AcDbEntity
  8
GAIKEI
  6
Continuous
 62
     7
100
AcDbLine
 10
29.1251262036692
 20
15.58249925506322
 30
0.0
 11
30.10145527730538
 21
14.90133940523679
 31
0.0
  0
LINE
  5
110
330
2
100
AcDbEntity
  8
GAIKEI
  6
Continuous
 62
     7
100
AcDbLine
 10
29.2384699401681
 20
12.56779875243677
 30
0.0
 11
30.10145527730538
 21
13.16988191016173
 31
0.0
  0
ARC
  5
111
330
2
100
AcDbEntity
  8
GAIKEI
  6
Continuous
 62
     7
100
AcDbCircle
 10
28.74363797766057
 20
15.03569967558076
 30
0.0
 40
0.6667259008000094
100
AcDbArc
 50
55.09750399999939
 51
90.0
  0
ARC
  5
112
330
2
100
AcDbEntity
  8
GAIKEI
  6
Continuous
 62
     7
100
AcDbCircle
 10
29.71996705129675
 20
14.35453982575433
 30
0.0
 40
0.6667259008000094
100
AcDbArc
 50
0.0
 51
55.09750399999939
  0
ARC
  5
113
330
2
100
AcDbEntity
  8
GAIKEI
  6
Continuous
 62
     7
100
AcDbCircle
 10
29.71996705129675
 20
13.71668182300721
 30
0.0
 40
0.6667259008000094
100
AcDbArc
 50
304.9024960000006
 51
0.0
  0
LINE
  5
114
330
2
100
AcDbEntity
  8
GAIKEI
  6
Continuous
 62
     7
100
AcDbLine
 10
27.95314341417668
 20
1.334482414140552
 30
0.0
 11
28.80576516391182
 21
1.334482414140552
 31
0.0
  0
LINE
  5
115
330
2
100
AcDbEntity
  8
GAIKEI
  6
Continuous
 62
     7
100
AcDbLine
 10
27.95314341417668
 20
15.70242557638079
 30
0.0
 11
28.74363797766057
 21
15.70242557638079
 31
0.0
  0
LINE
  5
116
330
2
100
AcDbEntity
  8
GAIKEI
  6
Continuous
 62
     7
100
AcDbLine
 10
28.95323226537676
 20
12.0209991729543
 30
0.0
 11
28.95323226537676
 21
4.426596127745995
 31
0.0
  0
ARC
  5
117
330
2
100
AcDbEntity
  8
GAIKEI
  6
Continuous
 62
     7
100
AcDbCircle
 10
29.61995816617673
 20
12.0209991729543
 30
0.0
 40
0.6667259008000094
100
AcDbArc
 50
124.9024960000006
 51
180.0
  0
CIRCLE
  5
118
330
2
100
AcDbEntity
  8
GAIKEI
  6
Continuous
 62
     1
100
AcDbCircle
 10
28.95323226537676
 20
3.668023066940634
 30
0.0
 40
0.1083429588800015
  0
LINE
  5
119
330
2
100
AcDbEntity
  8
GAIKEI
  6
Continuous
 62
     7
100
AcDbLine
 10
27.95314341417668
 20
15.70242557638079
 30
0.0
 11
27.95314341417668
 21
1.334482414140552
 31
0.0
  0
CIRCLE
  5
11A
330
2
100
AcDbEntity
  8
GAIKEI
  6
Continuous
 62
     1
100
AcDbCircle
 10
28.61986931497677
 20
15.20238115078075
 30
0.0
 40
0.1083429588800015
  0
CIRCLE
  5
11B
330
2
100
AcDbEntity
  8
GAIKEI
  6
Continuous
 62
     1
100
AcDbCircle
 10
28.18649747945665
 20
4.151399345020649
 30
0.0
 40
0.0833407376000012
  0
LINE
  5
11C
330
2
100
AcDbEntity
  8
GAIKEI
  6
Continuous
 62
     7
100
AcDbLine
 10
33.11353488041573
 20
14.84568279385274
 30
0.0
 11
33.11353488041573
 21
14.76900931526074
 31
0.0
  0
LINE
  5
11D
330
2
100
AcDbEntity
  8
GAIKEI
  6
Continuous
 62
     7
100
AcDbLine
 10
30.212407801361
 20
14.76900931526074
 30
0.0
 11
33.11353488041573
 21
14.76900931526074
 31
0.0
  0
LINE
  5
11E
330
2
100
AcDbEntity
  8
GAIKEI
  6
Continuous
 62
     7
100
AcDbLine
 10
30.14833844256077
 20
14.84568279385274
 30
0.0
 11
33.11353488041573
 21
14.84568279385274
 31
0.0
  0
LINE
  5
11F
330
2
100
AcDbEntity
  8
GAIKEI
  6
Continuous
 62
     7
100
AcDbLine
 10
33.11353488041573
 20
13.22553885490873
 30
0.0
 11
33.11353488041573
 21
13.30221233350073
 31
0.0
  0
LINE
  5
120
330
2
100
AcDbEntity
  8
GAIKEI
  6
Continuous
 62
     7
100
AcDbLine
 10
30.26817208897808
 20
13.30221233350073
 30
0.0
 11
33.11353488041573
 21
13.30221233350073
 31
0.0
  0
LINE
  5
121
330
2
100
AcDbEntity
  8
GAIKEI
  6
Continuous
 62
     7
100
AcDbLine
 10
30.20623858660087
 20
13.22553885490873
 30
0.0
 11
33.11353488041573
 21
13.22553885490873
 31
0.0
  0
LINE
  5
122
330
2
100
AcDbEntity
  8
GAIKEI
  6
Continuous
 62
     7
100
AcDbLine
 10
30.12000259177671
 20
14.85291743660235
 30
0.0
 11
30.12000259177671
 21
15.11237315417275
 31
0.0
  0
LINE
  5
123
330
2
100
AcDbEntity
  8
GAIKEI
  6
Continuous
 62
     7
100
AcDbLine
 10
30.04332911318466
 20
14.90688956499798
 30
0.0
 11
30.04332911318466
 21
15.11237315417275
 31
0.0
  0
LINE
  5
124
330
2
100
AcDbEntity
  8
GAIKEI
  6
Continuous
 62
     7
100
AcDbLine
 10
30.04332911318466
 20
15.11237315417275
 30
0.0
 11
30.12000259177671
 21
15.11237315417275
 31
0.0
  0
LINE
  5
125
330
2
100
AcDbEntity
  8
GAIKEI
  6
Continuous
 62
     7
100
AcDbLine
 10
30.2198874658792
 20
14.76067524150073
 30
0.0
 11
33.86353784649225
 21
14.76067524150073
 31
0.0
  0
LINE
  5
126
330
2
100
AcDbEntity
  8
GAIKEI
  6
Continuous
 62
     7
100
AcDbLine
 10
30.27384825993454
 20
13.31054640726074
 30
0.0
 11
33.86353784649225
 21
13.31054640726074
 31
0.0
  0
ARC
  5
127
330
2
100
AcDbEntity
  8
GAIKEI
  6
Continuous
 62
     7
100
AcDbCircle
 10
34.18703058665676
 20
14.03561082438074
 30
0.0
 40
0.5000444256000071
100
AcDbArc
 50
304.8222900000003
 51
55.1777099999996
  0
LINE
  5
128
330
2
100
AcDbEntity
  8
GAIKEI
  6
Continuous
 62
     7
100
AcDbLine
 10
34.14907988165737
 20
14.67113061939381
 30
0.0
 11
34.47257262182188
 21
14.44611062787385
 31
0.0
  0
LINE
  5
129
330
2
100
AcDbEntity
  8
GAIKEI
  6
Continuous
 62
     7
100
AcDbLine
 10
34.14907988165737
 20
13.40009069600472
 30
0.0
 11
34.47257262182188
 21
13.62511068752474
 31
0.0
  0
ARC
  5
12A
330
2
100
AcDbEntity
  8
GAIKEI
  6
Continuous
 62
     7
100
AcDbCircle
 10
33.86353784649225
 20
13.81059083286072
 30
0.0
 40
0.5000444256000071
100
AcDbArc
 50
270.0
 51
304.8222900000003
  0
ARC
  5
12B
330
2
100
AcDbEntity
  8
GAIKEI
  6
Continuous
 62
     7
100
AcDbCircle
 10
33.86353784649225
 20
14.26063081590075
 30
0.0
 40
0.5000444256000071
100
AcDbArc
 50
55.1777099999996
 51
90.0
  0
LINE
  5
12C
330
2
100
AcDbEntity
  8
GAIKEI
  6
Continuous
 62
     7
100
AcDbLine
 10
32.85179462654628
 20
14.64792222414991
 30
0.0
 11
32.85179462654628
 21
13.42346077227955
 31
0.0
  0
LWPOLYLINE
  5
12D
330
2
100
AcDbEntity
  8
GAIKEI
  6
Continuous
 62
     1
100
AcDbPolyline
 90
       72
 70
     1
 43
0.0
 10
32.51053197431065
 20
14.16895600454077
 10
32.50165151867487
 20
14.16844829276732
 10
32.49283840235512
 20
14.16693015789119
 10
32.48416029803036
 20
14.16441226752681
 10
32.47568254483872
 20
14.16091429008827
 10
32.46747014855567
 20
14.15646256124864
 10
32.45958544805274
 20
14.15109108402885
 10
32.45208878202414
 20
14.14484052870884
 10
32.44503648880846
 20
14.13775889955349
 10
32.43848290656661
 20
14.12989986799781
 10
32.432477706378
 20
14.12132343937287
 10
32.42706622560422
 20
14.11209428609103
 10
32.42229013461383
 20
14.10228341446077
 10
32.41818576996843
 20
14.09196483105702
 10
32.41478413442269
 20
14.08121754289911
 10
32.41211089692342
 20
14.07012289054683
 10
32.41018705933664
 20
14.0587658815526
 10
32.40902695626914
 20
14.04723252355762
 10
32.40863925515782
 20
14.03561082438077
 10
32.40902695626914
 20
14.02398879184096
 10
32.41018705933664
 20
14.01245543384598
 10
32.41211089692342
 20
14.00109842485176
 10
32.41478413442269
 20
13.99000410586245
 10
32.41818576996843
 20
13.97925648434156
 10
32.42229013461383
 20
13.96893823430076
 10
32.42706622560422
 20
13.95912702930755
 10
32.432477706378
 20
13.94989820938869
 10
32.43848290656661
 20
13.94132144740078
 10
32.44503648880846
 20
13.9334624158451
 10
32.45208878202414
 20
13.92638078668975
 10
32.45958544805274
 20
13.92013023136977
 10
32.46747014855567
 20
13.91475875414997
 10
32.47568254483872
 20
13.91030735867326
 10
32.48416029803036
 20
13.90680904787177
 10
32.49283840235512
 20
13.9042911575074
 10
32.50165151867487
 20
13.90277302263126
 10
32.51053197431065
 20
13.90226564422076
 10
32.51941242994633
 20
13.90277302263126
 10
32.52822554626596
 20
13.9042911575074
 10
32.53690398395383
 20
13.90680904787177
 10
32.54538140378247
 20
13.91030735867326
 10
32.55359380006553
 20
13.91475875414997
 10
32.56147850056846
 20
13.92013023136977
 10
32.56897549995995
 20
13.92638078668975
 10
32.57602745981273
 20
13.9334624158451
 10
32.5825810420547
 20
13.94132144740078
 10
32.58858657560609
 20
13.94989820938869
 10
32.59399772301697
 20
13.95912702930755
 10
32.59877381400736
 20
13.96893823430076
 10
32.60287851201565
 20
13.97925648434156
 10
32.60628014756151
 20
13.99000410586245
 10
32.60895305169788
 20
14.00109842485176
 10
32.61087688928455
 20
14.01245543384598
 10
32.61203732571494
 20
14.02398879184096
 10
32.61242502682626
 20
14.03561082438077
 10
32.61203732571494
 20
14.04723252355762
 10
32.61087688928455
 20
14.0587658815526
 10
32.60895305169788
 20
14.07012289054683
 10
32.60628014756151
 20
14.08121754289911
 10
32.60287851201565
 20
14.09196483105702
 10
32.59877381400736
 20
14.10228341446077
 10
32.59399772301697
 20
14.11209428609103
 10
32.58858657560609
 20
14.12132343937287
 10
32.5825810420547
 20
14.12989986799781
 10
32.57602745981273
 20
14.13775889955349
 10
32.56897549995995
 20
14.14484052870884
 10
32.56147850056846
 20
14.15109108402885
 10
32.55359380006553
 20
14.15646256124864
 10
32.54538140378247
 20
14.16091429008827
 10
32.53690398395383
 20
14.16441226752681
 10
32.52822554626596
 20
14.16693015789119
 10
32.51941242994633
 20
14.16844829276732
  0
LINE
  5
12E
330
2
100
AcDbEntity
  8
GAIKEI
  6
Continuous
 62
     7
100
AcDbLine
 10
30.14833844256077
 20
12.54214480658873
 30
0.0
 11
32.69189775411269
 21
12.54214480658873
 31
0.0
  0
LINE
  5
12F
330
2
100
AcDbEntity
  8
GAIKEI
  6
Continuous
 62
     7
100
AcDbLine
 10
32.87024693257672
 20
13.20887070738877
 30
0.0
 11
32.87024693257672
 21
12.57548110162872
 31
0.0
  0
LINE
  5
130
330
2
100
AcDbEntity
  8
GAIKEI
  6
Continuous
 62
     7
100
AcDbLine
 10
29.96998926409674
 20
13.04315831828558
 30
0.0
 11
29.96998926409674
 21
12.57548110162872
 31
0.0
  0
LINE
  5
131
330
2
100
AcDbEntity
  8
GAIKEI
  6
Continuous
 62
     7
100
AcDbLine
 10
29.96998926409674
 20
12.57548110162872
 30
0.0
 11
29.98665741161676
 21
12.5588129541087
 31
0.0
  0
LINE
  5
132
330
2
100
AcDbEntity
  8
GAIKEI
  6
Continuous
 62
     7
100
AcDbLine
 10
32.87024693257672
 20
12.57548110162872
 30
0.0
 11
32.8535787850567
 21
12.5588129541087
 31
0.0
  0
LINE
  5
133
330
2
100
AcDbEntity
  8
GAIKEI
  6
Continuous
 62
     7
100
AcDbLine
 10
29.98665741161676
 20
12.5588129541087
 30
0.0
 11
32.8535787850567
 21
12.5588129541087
 31
0.0
  0
LINE
  5
134
330
2
100
AcDbEntity
  8
GAIKEI
  6
Continuous
 62
     7
100
AcDbLine
 10
32.69189775411269
 20
15.32572544242873
 30
0.0
 11
32.69189775411269
 21
14.84568279385274
 31
0.0
  0
LINE
  5
135
330
2
100
AcDbEntity
  8
GAIKEI
  6
Continuous
 62
     7
100
AcDbLine
 10
30.14833844256077
 20
15.32572544242873
 30
0.0
 11
30.14833844256077
 21
14.84568279385274
 31
0.0
  0
LINE
  5
136
330
2
100
AcDbEntity
  8
GAIKEI
  6
Continuous
 62
     1
100
AcDbLine
 10
32.69189775411269
 20
12.54214480658873
 30
0.0
 11
32.69189775411269
 21
12.5588129541087
 31
0.0
  0
LINE
  5
137
330
2
100
AcDbEntity
  8
GAIKEI
  6
Continuous
 62
     7
100
AcDbLine
 10
30.14833844256077
 20
12.54214480658873
 30
0.0
 11
30.14833844256077
 21
12.5588129541087
 31
0.0
  0
LINE
  5
138
330
2
100
AcDbEntity
  8
GAIKEI
  6
Continuous
 62
     7
100
AcDbLine
 10
32.87024693257672
 20
13.20887070738877
 30
0.0
 11
32.8535787850567
 21
13.22553885490873
 31
0.0
  0
LINE
  5
139
330
2
100
AcDbEntity
  8
GAIKEI
  6
S10
 62
     1
100
AcDbLine
 10
-16.58829221718724
 20
12.54214480658873
 30
0.0
 11
-14.04473290563521
 21
12.54214480658873
 31
0.0
  0
LINE
  5
13A
330
2
100
AcDbEntity
  8
GAIKEI
  6
S10
 62
     1
100
AcDbLine
 10
-13.86638372717118
 20
13.20887070738877
 30
0.0
 11
-13.86638372717118
 21
12.57548110162872
 31
0.0
  0
LINE
  5
13B
330
2
100
AcDbEntity
  8
GAIKEI
  6
S10
 62
     1
100
AcDbLine
 10
-16.76664139565122
 20
13.20887070738877
 30
0.0
 11
-16.76664139565122
 21
12.57548110162872
 31
0.0
  0
LINE
  5
13C
330
2
100
AcDbEntity
  8
GAIKEI
  6
S10
 62
     1
100
AcDbLine
 10
-16.76664139565122
 20
13.20887070738877
 30
0.0
 11
-16.74997324813125
 21
13.22553885490873
 31
0.0
  0
LINE
  5
13D
330
2
100
AcDbEntity
  8
GAIKEI
  6
S10
 62
     1
100
AcDbLine
 10
-16.76664139565122
 20
12.57548110162872
 30
0.0
 11
-16.74997324813125
 21
12.5588129541087
 31
0.0
  0
LINE
  5
13E
330
2
100
AcDbEntity
  8
GAIKEI
  6
S10
 62
     1
100
AcDbLine
 10
-13.86638372717118
 20
12.57548110162872
 30
0.0
 11
-13.8830518746912
 21
12.5588129541087
 31
0.0
  0
LINE
  5
13F
330
2
100
AcDbEntity
  8
GAIKEI
  6
S10
 62
     1
100
AcDbLine
 10
-16.74997324813125
 20
12.5588129541087
 30
0.0
 11
-13.8830518746912
 21
12.5588129541087
 31
0.0
  0
LINE
  5
140
330
2
100
AcDbEntity
  8
GAIKEI
  6
S10
 62
     1
100
AcDbLine
 10
-14.04473290563521
 20
15.32572544242873
 30
0.0
 11
-14.04473290563521
 21
14.84568279385274
 31
0.0
  0
LINE
  5
141
330
2
100
AcDbEntity
  8
GAIKEI
  6
S10
 62
     1
100
AcDbLine
 10
-16.58829221718724
 20
15.32572544242873
 30
0.0
 11
-16.58829221718724
 21
14.84568279385274
 31
0.0
  0
LINE
  5
142
330
2
100
AcDbEntity
  8
GAIKEI
  6
S10
 62
     1
100
AcDbLine
 10
-14.04473290563521
 20
12.54214480658873
 30
0.0
 11
-14.04473290563521
 21
12.5588129541087
 31
0.0
  0
LINE
  5
143
330
2
100
AcDbEntity
  8
GAIKEI
  6
S10
 62
     1
100
AcDbLine
 10
-16.58829221718724
 20
12.54214480658873
 30
0.0
 11
-16.58829221718724
 21
12.5588129541087
 31
0.0
  0
LINE
  5
144
330
2
100
AcDbEntity
  8
GAIKEI
  6
S10
 62
     1
100
AcDbLine
 10
-13.86638372717118
 20
13.20887070738877
 30
0.0
 11
-13.8830518746912
 21
13.22553885490873
 31
0.0
  0
LINE
  5
145
330
2
100
AcDbEntity
  8
GAIKEI
  6
Continuous
 62
     1
100
AcDbLine
 10
32.90525004236872
 20
34.54409953298904
 30
0.0
 11
32.9256561886516
 21
34.54409953298904
 31
0.0
  0
LINE
  5
146
330
2
100
AcDbEntity
  8
GAIKEI
  6
Continuous
 62
     1
100
AcDbLine
 10
32.90525004236872
 20
33.87737363218901
 30
0.0
 11
32.9256561886516
 21
33.87737363218901
 31
0.0
  0
ARC
  5
147
330
2
100
AcDbEntity
  8
GAIKEI
  6
Continuous
 62
     1
100
AcDbCircle
 10
32.90525004236872
 20
34.21073658258905
 30
0.0
 40
0.2297270763796512
100
AcDbArc
 50
331.3713620000004
 51
28.62863799999958
  0
LINE
  5
148
330
2
100
AcDbEntity
  8
GAIKEI
  6
Continuous
 62
     1
100
AcDbLine
 10
33.01343832083978
 20
34.49200790499657
 30
0.0
 11
33.10689162354015
 21
34.32080569482622
 31
0.0
  0
LINE
  5
149
330
2
100
AcDbEntity
  8
GAIKEI
  6
Continuous
 62
     1
100
AcDbLine
 10
33.01343832083978
 20
33.92946492681853
 30
0.0
 11
33.10689162354015
 21
34.10066713698893
 31
0.0
  0
ARC
  5
14A
330
2
100
AcDbEntity
  8
GAIKEI
  6
Continuous
 62
     1
100
AcDbCircle
 10
32.9256561886516
 20
34.44409064786902
 30
0.0
 40
0.1000088851200014
100
AcDbArc
 50
28.62863799999958
 51
90.0
  0
ARC
  5
14B
330
2
100
AcDbEntity
  8
GAIKEI
  6
Continuous
 62
     1
100
AcDbCircle
 10
32.9256561886516
 20
33.97738251730903
 30
0.0
 40
0.1000088851200014
100
AcDbArc
 50
270.0
 51
331.3713620000004
  0
LINE
  5
14C
330
2
100
AcDbEntity
  8
GAIKEI
  6
Continuous
 62
     1
100
AcDbLine
 10
29.93498615430474
 20
34.54409953298904
 30
0.0
 11
29.91458034138486
 21
34.54409953298904
 31
0.0
  0
LINE
  5
14D
330
2
100
AcDbEntity
  8
GAIKEI
  6
Continuous
 62
     1
100
AcDbLine
 10
29.93498615430474
 20
33.87737363218901
 30
0.0
 11
29.91458034138486
 21
33.87737363218901
 31
0.0
  0
ARC
  5
14E
330
2
100
AcDbEntity
  8
GAIKEI
  6
Continuous
 62
     1
100
AcDbCircle
 10
29.93498615430474
 20
34.21073658258905
 30
0.0
 40
0.2297270763796512
100
AcDbArc
 50
151.3713620000004
 51
208.6286379999996
  0
LINE
  5
14F
330
2
100
AcDbEntity
  8
GAIKEI
  6
Continuous
 62
     1
100
AcDbLine
 10
29.82679820919668
 20
34.49200790499657
 30
0.0
 11
29.73334457313331
 21
34.32080569482622
 31
0.0
  0
LINE
  5
150
330
2
100
AcDbEntity
  8
GAIKEI
  6
Continuous
 62
     1
100
AcDbLine
 10
29.82679820919668
 20
33.92946492681853
 30
0.0
 11
29.73334457313331
 21
34.10066713698893
 31
0.0
  0
ARC
  5
151
330
2
100
AcDbEntity
  8
GAIKEI
  6
Continuous
 62
     1
100
AcDbCircle
 10
29.91458034138486
 20
34.44409064786902
 30
0.0
 40
0.1000088851200014
100
AcDbArc
 50
90.0
 51
151.3713620000004
  0
ARC
  5
152
330
2
100
AcDbEntity
  8
GAIKEI
  6
Continuous
 62
     1
100
AcDbCircle
 10
29.91458034138486
 20
33.97738251730903
 30
0.0
 40
0.1000088851200014
100
AcDbArc
 50
208.6286379999996
 51
270.0
  0
LINE
  5
153
330
2
100
AcDbEntity
  8
GAIKEI
  6
Continuous
 62
     7
100
AcDbLine
 10
29.93498615430474
 20
34.94413507346906
 30
0.0
 11
29.93498615430474
 21
15.32572544242873
 31
0.0
  0
LINE
  5
154
330
2
100
AcDbEntity
  8
GAIKEI
  6
Continuous
 62
     7
100
AcDbLine
 10
32.90525004236872
 20
34.94413507346906
 30
0.0
 11
32.90525004236872
 21
15.32572544242873
 31
0.0
  0
LINE
  5
155
330
2
100
AcDbEntity
  8
GAIKEI
  6
Continuous
 62
     7
100
AcDbLine
 10
29.93498615430474
 20
15.32572544242873
 30
0.0
 11
32.90525004236872
 21
15.32572544242873
 31
0.0
  0
LINE
  5
156
330
2
100
AcDbEntity
  8
GAIKEI
  6
Continuous
 62
     7
100
AcDbLine
 10
29.93498615430474
 20
34.94413507346906
 30
0.0
 11
32.90525004236872
 21
34.94413507346906
 31
0.0
  0
LINE
  5
157
330
2
100
AcDbEntity
  8
GAIKEI
  6
Continuous
 62
     1
100
AcDbLine
 10
-13.83138061737918
 20
33.21064773138903
 30
0.0
 11
-13.8109748044593
 21
33.21064773138903
 31
0.0
  0
LINE
  5
158
330
2
100
AcDbEntity
  8
GAIKEI
  6
Continuous
 62
     1
100
AcDbLine
 10
-13.83138061737918
 20
32.543921830589
 30
0.0
 11
-13.8109748044593
 21
32.543921830589
 31
0.0
  0
ARC
  5
159
330
2
100
AcDbEntity
  8
GAIKEI
  6
Continuous
 62
     1
100
AcDbCircle
 10
-13.83138061737918
 20
32.87728478098904
 30
0.0
 40
0.2297270763796512
100
AcDbArc
 50
331.3713620000004
 51
28.62863799999958
  0
LINE
  5
15A
330
2
100
AcDbEntity
  8
GAIKEI
  6
Continuous
 62
     1
100
AcDbLine
 10
-13.72319267227112
 20
33.15855610339657
 30
0.0
 11
-13.62973903620781
 21
32.98735389322621
 31
0.0
  0
LINE
  5
15B
330
2
100
AcDbEntity
  8
GAIKEI
  6
Continuous
 62
     1
100
AcDbLine
 10
-13.72319267227112
 20
32.59601312521852
 30
0.0
 11
-13.62973903620781
 21
32.76721533538887
 31
0.0
  0
ARC
  5
15C
330
2
100
AcDbEntity
  8
GAIKEI
  6
Continuous
 62
     1
100
AcDbCircle
 10
-13.8109748044593
 20
33.11063884626901
 30
0.0
 40
0.1000088851200014
100
AcDbArc
 50
28.62863799999958
 51
90.0
  0
ARC
  5
15D
330
2
100
AcDbEntity
  8
GAIKEI
  6
Continuous
 62
     1
100
AcDbCircle
 10
-13.8109748044593
 20
32.64393071570902
 30
0.0
 40
0.1000088851200014
100
AcDbArc
 50
270.0
 51
331.3713620000004
  0
LINE
  5
15E
330
2
100
AcDbEntity
  8
GAIKEI
  6
Continuous
 62
     1
100
AcDbLine
 10
-16.80164450544322
 20
33.21064773138903
 30
0.0
 11
-16.8220506517261
 21
33.21064773138903
 31
0.0
  0
LINE
  5
15F
330
2
100
AcDbEntity
  8
GAIKEI
  6
Continuous
 62
     1
100
AcDbLine
 10
-16.80164450544322
 20
32.543921830589
 30
0.0
 11
-16.8220506517261
 21
32.543921830589
 31
0.0
  0
ARC
  5
160
330
2
100
AcDbEntity
  8
GAIKEI
  6
Continuous
 62
     1
100
AcDbCircle
 10
-16.80164450544322
 20
32.87728478098904
 30
0.0
 40
0.2297270763796512
100
AcDbArc
 50
151.3713620000004
 51
208.6286379999996
  0
LINE
  5
161
330
2
100
AcDbEntity
  8
GAIKEI
  6
Continuous
 62
     1
100
AcDbLine
 10
-16.90983278391422
 20
33.15855610339657
 30
0.0
 11
-17.00328608661465
 21
32.98735389322621
 31
0.0
  0
LINE
  5
162
330
2
100
AcDbEntity
  8
GAIKEI
  6
Continuous
 62
     1
100
AcDbLine
 10
-16.90983278391422
 20
32.59601312521852
 30
0.0
 11
-17.00328608661465
 21
32.76721533538887
 31
0.0
  0
ARC
  5
163
330
2
100
AcDbEntity
  8
GAIKEI
  6
Continuous
 62
     1
100
AcDbCircle
 10
-16.8220506517261
 20
33.11063884626901
 30
0.0
 40
0.1000088851200014
100
AcDbArc
 50
90.0
 51
151.3713620000004
  0
ARC
  5
164
330
2
100
AcDbEntity
  8
GAIKEI
  6
Continuous
 62
     1
100
AcDbCircle
 10
-16.8220506517261
 20
32.64393071570902
 30
0.0
 40
0.1000088851200014
100
AcDbArc
 50
208.6286379999996
 51
270.0
  0
LINE
  5
165
330
2
100
AcDbEntity
  8
GAIKEI
  6
S10
 62
     1
100
AcDbLine
 10
-3.316529680344387
 20
15.70242557638079
 30
0.0
 11
-3.316529680344387
 21
1.334482414140552
 31
0.0
  0
LINE
  5
166
330
2
100
AcDbEntity
  8
GAIKEI
  6
S10
 62
     1
100
AcDbLine
 10
-5.316707382744368
 20
1.334482414140552
 30
0.0
 11
-3.316529680344387
 21
1.334482414140552
 31
0.0
  0
LINE
  5
167
330
2
100
AcDbEntity
  8
GAIKEI
  6
S10
 62
     1
100
AcDbLine
 10
-5.316707382744368
 20
1.334482414140552
 30
0.0
 11
-5.316707382744368
 21
15.70242557638079
 31
0.0
  0
LINE
  5
168
330
2
100
AcDbEntity
  8
GAIKEI
  6
S10
 62
     1
100
AcDbLine
 10
-3.566551893144378
 20
15.70242557638079
 30
0.0
 11
-3.316529680344387
 21
15.70242557638079
 31
0.0
  0
LINE
  5
169
330
2
100
AcDbEntity
  8
GAIKEI
  6
S10
 62
     1
100
AcDbLine
 10
-5.066685169944378
 20
15.70242557638079
 30
0.0
 11
-5.316707382744368
 21
15.70242557638079
 31
0.0
  0
LINE
  5
16A
330
2
100
AcDbEntity
  8
GAIKEI
  6
S10
 62
     1
100
AcDbLine
 10
-4.549972596824375
 20
14.33563747974074
 30
0.0
 11
-4.549972596824375
 21
14.9136931694527
 31
0.0
  0
LINE
  5
16B
330
2
100
AcDbEntity
  8
GAIKEI
  6
S10
 62
     1
100
AcDbLine
 10
-4.083264466264381
 20
14.33563747974074
 30
0.0
 11
-4.083264466264381
 21
14.9136931694527
 31
0.0
  0
LINE
  5
16C
330
2
100
AcDbEntity
  8
GAIKEI
  6
S10
 62
     1
100
AcDbLine
 10
-4.299950384024384
 20
14.11895156198079
 30
0.0
 11
-4.333286679064372
 21
14.11895156198079
 31
0.0
  0
ARC
  5
16D
330
2
100
AcDbEntity
  8
GAIKEI
  6
S10
 62
     1
100
AcDbCircle
 10
-4.333286679064372
 20
14.33563747974074
 30
0.0
 40
0.2166859177600031
100
AcDbArc
 50
180.0
 51
270.0
  0
ARC
  5
16E
330
2
100
AcDbEntity
  8
GAIKEI
  6
S10
 62
     1
100
AcDbCircle
 10
-4.299950384024384
 20
14.33563747974074
 30
0.0
 40
0.2166859177600031
100
AcDbArc
 50
270.0
 51
0.0
  0
LINE
  5
16F
330
2
100
AcDbEntity
  8
GAIKEI
  6
S10
 62
     1
100
AcDbLine
 10
-4.966676284824416
 20
15.60241669126077
 30
0.0
 11
-4.966676284824416
 21
15.4967383024433
 31
0.0
  0
LINE
  5
170
330
2
100
AcDbEntity
  8
GAIKEI
  6
S10
 62
     1
100
AcDbLine
 10
-3.666560778264397
 20
15.60241669126077
 30
0.0
 11
-3.666560778264397
 21
15.4967383024433
 31
0.0
  0
LINE
  5
171
330
2
100
AcDbEntity
  8
GAIKEI
  6
S10
 62
     1
100
AcDbLine
 10
-4.549972596824375
 20
3.668023066940577
 30
0.0
 11
-4.549972596824375
 21
3.806716388913855
 31
0.0
  0
LINE
  5
172
330
2
100
AcDbEntity
  8
GAIKEI
  6
S10
 62
     1
100
AcDbLine
 10
-4.083264466264381
 20
3.668023066940577
 30
0.0
 11
-4.083264466264381
 21
3.806716388913855
 31
0.0
  0
LINE
  5
173
330
2
100
AcDbEntity
  8
GAIKEI
  6
S10
 62
     1
100
AcDbLine
 10
-4.299950384024384
 20
3.451337149180631
 30
0.0
 11
-4.333286679064372
 21
3.451337149180631
 31
0.0
  0
ARC
  5
174
330
2
100
AcDbEntity
  8
GAIKEI
  6
S10
 62
     1
100
AcDbCircle
 10
-4.299950384024384
 20
3.668023066940577
 30
0.0
 40
0.2166859177600031
100
AcDbArc
 50
270.0
 51
0.0
  0
ARC
  5
175
330
2
100
AcDbEntity
  8
GAIKEI
  6
S10
 62
     1
100
AcDbCircle
 10
-4.333286679064372
 20
3.668023066940577
 30
0.0
 40
0.2166859177600031
100
AcDbArc
 50
180.0
 51
270.0
  0
ARC
  5
176
330
2
100
AcDbEntity
  8
GAIKEI
  6
S10
 62
     1
100
AcDbCircle
 10
-4.866495384422023
 20
4.634775623100608
 30
0.0
 40
0.0668446053624074
100
AcDbArc
 50
86.66036600000108
 51
269.8524600000009
  0
ARC
  5
177
330
2
100
AcDbEntity
  8
GAIKEI
  6
S10
 62
     1
100
AcDbCircle
 10
-4.316618531544406
 20
4.634775623100608
 30
0.0
 40
0.5500488681600077
100
AcDbArc
 50
6.931044999999364
 51
173.0264240000002
  0
ARC
  5
178
330
2
100
AcDbEntity
  8
GAIKEI
  6
S10
 62
     1
100
AcDbCircle
 10
-4.316618531544406
 20
4.40142155782064
 30
0.0
 40
0.5500488681600077
100
AcDbArc
 50
180.0
 51
236.0727679999981
  0
ARC
  5
179
330
2
100
AcDbEntity
  8
GAIKEI
  6
S10
 62
     1
100
AcDbCircle
 10
-4.316618531544406
 20
4.40142155782064
 30
0.0
 40
0.5500488681600077
100
AcDbArc
 50
303.9272320000018
 51
0.0
  0
ARC
  5
17A
330
2
100
AcDbEntity
  8
GAIKEI
  6
S10
 62
     1
100
AcDbCircle
 10
-3.766742012029737
 20
4.634775623100608
 30
0.0
 40
0.0668446053624074
100
AcDbArc
 50
270.1475399999991
 51
93.33963399999893
  0
LINE
  5
17B
330
2
100
AcDbEntity
  8
GAIKEI
  6
S10
 62
     1
100
AcDbLine
 10
-4.866667399704397
 20
4.40142155782064
 30
0.0
 11
-4.866667399704397
 21
4.568044027778398
 31
0.0
  0
LINE
  5
17C
330
2
100
AcDbEntity
  8
GAIKEI
  6
S10
 62
     1
100
AcDbLine
 10
-3.766569663384359
 20
4.40142155782064
 30
0.0
 11
-3.766569663384359
 21
4.567931017738203
 31
0.0
  0
ARC
  5
17D
330
2
100
AcDbEntity
  8
GAIKEI
  6
S10
 62
     1
100
AcDbCircle
 10
-4.716654072024368
 20
3.806716388913855
 30
0.0
 40
0.1666814752000023
100
AcDbArc
 50
0.0
 51
56.07276799999818
  0
ARC
  5
17E
330
2
100
AcDbEntity
  8
GAIKEI
  6
S10
 62
     1
100
AcDbCircle
 10
-3.916582991064387
 20
3.806716388913855
 30
0.0
 40
0.1666814752000023
100
AcDbArc
 50
123.9272320000018
 51
180.0
  0
LINE
  5
17F
330
2
100
AcDbEntity
  8
GAIKEI
  6
S10
 62
     1
100
AcDbLine
 10
-4.90720300102123
 20
15.36910929679379
 30
0.0
 11
-4.668919164430747
 21
15.16895084738877
 31
0.0
  0
LINE
  5
180
330
2
100
AcDbEntity
  8
GAIKEI
  6
S10
 62
     1
100
AcDbLine
 10
-3.964317898658066
 20
15.16895084738877
 30
0.0
 11
-3.726034062067526
 21
15.36910929679379
 31
0.0
  0
ARC
  5
181
330
2
100
AcDbEntity
  8
GAIKEI
  6
S10
 62
     1
100
AcDbCircle
 10
-4.883335547224419
 20
14.9136931694527
 30
0.0
 40
0.3333629504000047
100
AcDbArc
 50
0.0
 51
49.96974100000018
  0
ARC
  5
182
330
2
100
AcDbEntity
  8
GAIKEI
  6
S10
 62
     1
100
AcDbCircle
 10
-3.749901515864394
 20
14.9136931694527
 30
0.0
 40
0.3333629504000047
100
AcDbArc
 50
130.0302589999998
 51
180.0
  0
ARC
  5
183
330
2
100
AcDbEntity
  8
GAIKEI
  6
S10
 62
     1
100
AcDbCircle
 10
-4.799994809624365
 20
15.4967383024433
 30
0.0
 40
0.1666814752000023
100
AcDbArc
 50
180.0
 51
229.9697410000002
  0
ARC
  5
184
330
2
100
AcDbEntity
  8
GAIKEI
  6
S10
 62
     1
100
AcDbCircle
 10
-3.833242253464391
 20
15.4967383024433
 30
0.0
 40
0.1666814752000023
100
AcDbArc
 50
310.0302589999998
 51
0.0
  0
ARC
  5
185
330
2
100
AcDbEntity
  8
GAIKEI
  6
S10
 62
     1
100
AcDbCircle
 10
-5.066685169944378
 20
15.60241669126077
 30
0.0
 40
0.1000088851200014
100
AcDbArc
 50
0.0
 51
90.0
  0
ARC
  5
186
330
2
100
AcDbEntity
  8
GAIKEI
  6
S10
 62
     1
100
AcDbCircle
 10
-3.566551893144378
 20
15.60241669126077
 30
0.0
 40
0.1000088851200014
100
AcDbArc
 50
90.0
 51
180.0
  0
LINE
  5
187
330
2
100
AcDbEntity
  8
GAIKEI
  6
S10
 62
     1
100
AcDbLine
 10
-27.31649544247807
 20
15.70242557638079
 30
0.0
 11
-27.31649544247807
 21
1.334482414140552
 31
0.0
  0
LINE
  5
188
330
2
100
AcDbEntity
  8
GAIKEI
  6
S10
 62
     1
100
AcDbLine
 10
-25.31631774007804
 20
1.334482414140552
 30
0.0
 11
-27.31649544247807
 21
1.334482414140552
 31
0.0
  0
LINE
  5
189
330
2
100
AcDbEntity
  8
GAIKEI
  6
S10
 62
     1
100
AcDbLine
 10
-25.31631774007804
 20
1.334482414140552
 30
0.0
 11
-25.31631774007804
 21
15.70242557638079
 31
0.0
  0
LINE
  5
18A
330
2
100
AcDbEntity
  8
GAIKEI
  6
S10
 62
     1
100
AcDbLine
 10
-27.06647322967808
 20
15.70242557638079
 30
0.0
 11
-27.31649544247807
 21
15.70242557638079
 31
0.0
  0
LINE
  5
18B
330
2
100
AcDbEntity
  8
GAIKEI
  6
S10
 62
     1
100
AcDbLine
 10
-25.56633995287802
 20
15.70242557638079
 30
0.0
 11
-25.31631774007804
 21
15.70242557638079
 31
0.0
  0
LINE
  5
18C
330
2
100
AcDbEntity
  8
GAIKEI
  6
S10
 62
     1
100
AcDbLine
 10
-26.08305252599803
 20
14.33563747974074
 30
0.0
 11
-26.08305252599803
 21
14.9136931694527
 31
0.0
  0
LINE
  5
18D
330
2
100
AcDbEntity
  8
GAIKEI
  6
S10
 62
     1
100
AcDbLine
 10
-26.54976065655802
 20
14.33563747974074
 30
0.0
 11
-26.54976065655802
 21
14.9136931694527
 31
0.0
  0
LINE
  5
18E
330
2
100
AcDbEntity
  8
GAIKEI
  6
S10
 62
     1
100
AcDbLine
 10
-26.33307473879808
 20
14.11895156198079
 30
0.0
 11
-26.29973844375803
 21
14.11895156198079
 31
0.0
  0
ARC
  5
18F
330
2
100
AcDbEntity
  8
GAIKEI
  6
S10
 62
     1
100
AcDbCircle
 10
-26.29973844375803
 20
14.33563747974074
 30
0.0
 40
0.2166859177600031
100
AcDbArc
 50
270.0
 51
0.0
  0
ARC
  5
190
330
2
100
AcDbEntity
  8
GAIKEI
  6
S10
 62
     1
100
AcDbCircle
 10
-26.33307473879808
 20
14.33563747974074
 30
0.0
 40
0.2166859177600031
100
AcDbArc
 50
180.0
 51
270.0
  0
LINE
  5
191
330
2
100
AcDbEntity
  8
GAIKEI
  6
S10
 62
     1
100
AcDbLine
 10
-25.66634883799804
 20
15.60241669126077
 30
0.0
 11
-25.66634883799804
 21
15.4967383024433
 31
0.0
  0
LINE
  5
192
330
2
100
AcDbEntity
  8
GAIKEI
  6
S10
 62
     1
100
AcDbLine
 10
-26.96646434455806
 20
15.60241669126077
 30
0.0
 11
-26.96646434455806
 21
15.4967383024433
 31
0.0
  0
LINE
  5
193
330
2
100
AcDbEntity
  8
GAIKEI
  6
S10
 62
     1
100
AcDbLine
 10
-26.08305252599803
 20
3.668023066940577
 30
0.0
 11
-26.08305252599803
 21
3.806716388913855
 31
0.0
  0
LINE
  5
194
330
2
100
AcDbEntity
  8
GAIKEI
  6
S10
 62
     1
100
AcDbLine
 10
-26.54976065655802
 20
3.668023066940577
 30
0.0
 11
-26.54976065655802
 21
3.806716388913855
 31
0.0
  0
LINE
  5
195
330
2
100
AcDbEntity
  8
GAIKEI
  6
S10
 62
     1
100
AcDbLine
 10
-26.33307473879808
 20
3.451337149180631
 30
0.0
 11
-26.29973844375803
 21
3.451337149180631
 31
0.0
  0
ARC
  5
196
330
2
100
AcDbEntity
  8
GAIKEI
  6
S10
 62
     1
100
AcDbCircle
 10
-26.33307473879808
 20
3.668023066940577
 30
0.0
 40
0.2166859177600031
100
AcDbArc
 50
180.0
 51
270.0
  0
ARC
  5
197
330
2
100
AcDbEntity
  8
GAIKEI
  6
S10
 62
     1
100
AcDbCircle
 10
-26.29973844375803
 20
3.668023066940577
 30
0.0
 40
0.2166859177600031
100
AcDbArc
 50
270.0
 51
0.0
  0
ARC
  5
198
330
2
100
AcDbEntity
  8
GAIKEI
  6
S10
 62
     1
100
AcDbCircle
 10
-25.76653007176338
 20
4.634775623100608
 30
0.0
 40
0.0668446053624074
100
AcDbArc
 50
270.1475399999991
 51
93.33963399999893
  0
ARC
  5
199
330
2
100
AcDbEntity
  8
GAIKEI
  6
S10
 62
     1
100
AcDbCircle
 10
-26.31640659127806
 20
4.634775623100608
 30
0.0
 40
0.5500488681600077
100
AcDbArc
 50
6.973575999999821
 51
173.0689550000006
  0
ARC
  5
19A
330
2
100
AcDbEntity
  8
GAIKEI
  6
S10
 62
     1
100
AcDbCircle
 10
-26.31640659127806
 20
4.40142155782064
 30
0.0
 40
0.5500488681600077
100
AcDbArc
 50
303.9272320000018
 51
0.0
  0
ARC
  5
19B
330
2
100
AcDbEntity
  8
GAIKEI
  6
S10
 62
     1
100
AcDbCircle
 10
-26.31640659127806
 20
4.40142155782064
 30
0.0
 40
0.5500488681600077
100
AcDbArc
 50
180.0
 51
236.0727679999981
  0
ARC
  5
19C
330
2
100
AcDbEntity
  8
GAIKEI
  6
S10
 62
     1
100
AcDbCircle
 10
-26.86628344415567
 20
4.634775623100608
 30
0.0
 40
0.0668446053624074
100
AcDbArc
 50
86.66036600000108
 51
269.8524600000009
  0
LINE
  5
19D
330
2
100
AcDbEntity
  8
GAIKEI
  6
S10
 62
     1
100
AcDbLine
 10
-25.76635772311806
 20
4.40142155782064
 30
0.0
 11
-25.76635772311806
 21
4.568044027778398
 31
0.0
  0
LINE
  5
19E
330
2
100
AcDbEntity
  8
GAIKEI
  6
S10
 62
     1
100
AcDbLine
 10
-26.86645545943804
 20
4.40142155782064
 30
0.0
 11
-26.86645545943804
 21
4.567931017738203
 31
0.0
  0
ARC
  5
19F
330
2
100
AcDbEntity
  8
GAIKEI
  6
S10
 62
     1
100
AcDbCircle
 10
-25.91637105079803
 20
3.806716388913855
 30
0.0
 40
0.1666814752000023
100
AcDbArc
 50
123.9272320000018
 51
180.0
  0
ARC
  5
1A0
330
2
100
AcDbEntity
  8
GAIKEI
  6
S10
 62
     1
100
AcDbCircle
 10
-26.71644213175807
 20
3.806716388913855
 30
0.0
 40
0.1666814752000023
100
AcDbArc
 50
0.0
 51
56.07276799999818
  0
LINE
  5
1A1
330
2
100
AcDbEntity
  8
GAIKEI
  6
S10
 62
     1
100
AcDbLine
 10
-25.72582212180118
 20
15.36910929679379
 30
0.0
 11
-25.96410595839171
 21
15.16895084738877
 31
0.0
  0
LINE
  5
1A2
330
2
100
AcDbEntity
  8
GAIKEI
  6
S10
 62
     1
100
AcDbLine
 10
-26.66870722416439
 20
15.16895084738877
 30
0.0
 11
-26.90699106075488
 21
15.36910929679379
 31
0.0
  0
ARC
  5
1A3
330
2
100
AcDbEntity
  8
GAIKEI
  6
S10
 62
     1
100
AcDbCircle
 10
-25.74968957559804
 20
14.9136931694527
 30
0.0
 40
0.3333629504000047
100
AcDbArc
 50
130.0302589999998
 51
180.0
  0
ARC
  5
1A4
330
2
100
AcDbEntity
  8
GAIKEI
  6
S10
 62
     1
100
AcDbCircle
 10
-26.88312360695807
 20
14.9136931694527
 30
0.0
 40
0.3333629504000047
100
AcDbArc
 50
0.0
 51
49.96974100000018
  0
ARC
  5
1A5
330
2
100
AcDbEntity
  8
GAIKEI
  6
S10
 62
     1
100
AcDbCircle
 10
-25.83303031319804
 20
15.4967383024433
 30
0.0
 40
0.1666814752000023
100
AcDbArc
 50
310.0302589999998
 51
0.0
  0
ARC
  5
1A6
330
2
100
AcDbEntity
  8
GAIKEI
  6
S10
 62
     1
100
AcDbCircle
 10
-26.79978286935807
 20
15.4967383024433
 30
0.0
 40
0.1666814752000023
100
AcDbArc
 50
180.0
 51
229.9697410000002
  0
ARC
  5
1A7
330
2
100
AcDbEntity
  8
GAIKEI
  6
S10
 62
     1
100
AcDbCircle
 10
-25.56633995287802
 20
15.60241669126077
 30
0.0
 40
0.1000088851200014
100
AcDbArc
 50
90.0
 51
180.0
  0
ARC
  5
1A8
330
2
100
AcDbEntity
  8
GAIKEI
  6
S10
 62
     1
100
AcDbCircle
 10
-27.06647322967808
 20
15.60241669126077
 30
0.0
 40
0.1000088851200014
100
AcDbArc
 50
0.0
 51
90.0
  0
LINE
  5
1A9
330
2
100
AcDbEntity
  8
GAIKEI
  6
S10
 62
     1
100
AcDbLine
 10
-13.79971113709121
 20
13.22553885490873
 30
0.0
 11
-13.49968448173121
 21
13.22553885490873
 31
0.0
  0
LINE
  5
1AA
330
2
100
AcDbEntity
  8
GAIKEI
  6
S10
 62
     1
100
AcDbLine
 10
-17.13334064109125
 20
13.22553885490873
 30
0.0
 11
-16.83331398573125
 21
13.22553885490873
 31
0.0
  0
LINE
  5
1AB
330
2
100
AcDbEntity
  8
GAIKEI
  6
S10
 62
     1
100
AcDbLine
 10
-17.05833397725126
 20
16.07597709726622
 30
0.0
 11
-16.8416480594912
 21
16.07597709726622
 31
0.0
  0
LINE
  5
1AC
330
2
100
AcDbEntity
  8
GAIKEI
  6
S10
 62
     1
100
AcDbLine
 10
-16.8416480594912
 20
15.95911504818878
 30
0.0
 11
-17.05833397725126
 21
15.95911504818878
 31
0.0
  0
LINE
  5
1AD
330
2
100
AcDbEntity
  8
GAIKEI
  6
S10
 62
     1
100
AcDbLine
 10
-17.05833397725126
 20
15.69242468786876
 30
0.0
 11
-16.8416480594912
 21
15.69242468786876
 31
0.0
  0
LINE
  5
1AE
330
2
100
AcDbEntity
  8
GAIKEI
  6
S10
 62
     1
100
AcDbLine
 10
-17.05833397725126
 20
15.57556230542832
 30
0.0
 11
-16.8416480594912
 21
15.57556230542832
 31
0.0
  0
LINE
  5
1AF
330
2
100
AcDbEntity
  8
GAIKEI
  6
S10
 62
     1
100
AcDbLine
 10
-16.8416480594912
 20
16.12579652338877
 30
0.0
 11
-16.8416480594912
 21
15.52574321266877
 31
0.0
  0
LINE
  5
1B0
330
2
100
AcDbEntity
  8
GAIKEI
  6
S10
 62
     1
100
AcDbLine
 10
-16.80164450544322
 20
16.12579652338877
 30
0.0
 11
-16.8416480594912
 21
16.12579652338877
 31
0.0
  0
LINE
  5
1B1
330
2
100
AcDbEntity
  8
GAIKEI
  6
S10
 62
     1
100
AcDbLine
 10
-16.8416480594912
 20
15.52574321266877
 30
0.0
 11
-16.80164450544322
 21
15.52574321266877
 31
0.0
  0
LINE
  5
1B2
330
2
100
AcDbEntity
  8
GAIKEI
  6
S10
 62
     1
100
AcDbLine
 10
-17.05833397725126
 20
16.07597709726622
 30
0.0
 11
-17.05833397725126
 21
15.57556230542832
 31
0.0
  0
LINE
  5
1B3
330
2
100
AcDbEntity
  8
GAIKEI
  6
S10
 62
     1
100
AcDbLine
 10
-13.57469114557119
 20
16.07597709726622
 30
0.0
 11
-13.7913770633312
 21
16.07597709726622
 31
0.0
  0
LINE
  5
1B4
330
2
100
AcDbEntity
  8
GAIKEI
  6
S10
 62
     1
100
AcDbLine
 10
-13.7913770633312
 20
15.95911504818878
 30
0.0
 11
-13.57469114557119
 21
15.95911504818878
 31
0.0
  0
LINE
  5
1B5
330
2
100
AcDbEntity
  8
GAIKEI
  6
S10
 62
     1
100
AcDbLine
 10
-13.57469114557119
 20
15.69242468786876
 30
0.0
 11
-13.7913770633312
 21
15.69242468786876
 31
0.0
  0
LINE
  5
1B6
330
2
100
AcDbEntity
  8
GAIKEI
  6
S10
 62
     1
100
AcDbLine
 10
-13.57469114557119
 20
15.57556230542832
 30
0.0
 11
-13.7913770633312
 21
15.57556230542832
 31
0.0
  0
LINE
  5
1B7
330
2
100
AcDbEntity
  8
GAIKEI
  6
S10
 62
     1
100
AcDbLine
 10
-13.7913770633312
 20
16.12579652338877
 30
0.0
 11
-13.7913770633312
 21
15.52574321266877
 31
0.0
  0
LINE
  5
1B8
330
2
100
AcDbEntity
  8
GAIKEI
  6
S10
 62
     1
100
AcDbLine
 10
-13.83138061737918
 20
16.12579652338877
 30
0.0
 11
-13.7913770633312
 21
16.12579652338877
 31
0.0
  0
LINE
  5
1B9
330
2
100
AcDbEntity
  8
GAIKEI
  6
S10
 62
     1
100
AcDbLine
 10
-13.7913770633312
 20
15.52574321266877
 30
0.0
 11
-13.83138061737918
 21
15.52574321266877
 31
0.0
  0
LINE
  5
1BA
330
2
100
AcDbEntity
  8
GAIKEI
  6
S10
 62
     1
100
AcDbLine
 10
-13.57469114557119
 20
16.07597709726622
 30
0.0
 11
-13.57469114557119
 21
15.57556230542832
 31
0.0
  0
LINE
  5
1BB
330
2
100
AcDbEntity
  8
GAIKEI
  6
S10
 62
     1
100
AcDbLine
 10
-16.80164450544322
 20
16.12579652338877
 30
0.0
 11
-16.80164450544322
 21
15.52574321266877
 31
0.0
  0
LINE
  5
1BC
330
2
100
AcDbEntity
  8
GAIKEI
  6
S10
 62
     1
100
AcDbLine
 10
-13.83138061737918
 20
16.12579652338877
 30
0.0
 11
-13.83138061737918
 21
15.52574321266877
 31
0.0
  0
ELLIPSE
  5
1BD
330
2
100
AcDbEntity
  8
GAIKEI
  6
Continuous
 62
     1
100
AcDbEllipse
 10
-35.3785299707007
 20
20.87695580174898
 30
0.0
 11
-0.0052978427251001
 21
0.2879170138793281
 31
0.0
210
0.0
220
0.0
230
1.0
 40
0.0404429999982056
 41
4.285401047309302
 42
4.371811220306485
  0
ELLIPSE
  5
1BE
330
2
100
AcDbEntity
  8
GAIKEI
  6
Continuous
 62
     1
100
AcDbEllipse
 10
-35.3785299707007
 20
-3.047210039567062
 30
0.0
 11
0.0052978427251001
 21
0.2879170138793289
 31
0.0
210
0.0
220
0.0
230
1.0
 40
0.0404429999982055
 41
-1.230218566716693
 42
-1.143808393719511
  0
ELLIPSE
  5
1BF
330
2
100
AcDbEntity
  8
GAIKEI
  6
Continuous
 62
     1
100
AcDbEllipse
 10
-35.3285940675633
 20
20.92689170488637
 30
0.0
 11
-0.2879170138797297
 21
0.0052978427250935
 31
0.0
210
0.0
220
0.0
230
1.0
 40
0.0404429999981596
 41
1.911374086872534
 42
1.997784259869754
  0
ELLIPSE
  5
1C0
330
2
100
AcDbEntity
  8
GAIKEI
  6
Continuous
 62
     1
100
AcDbEllipse
 10
-35.3285940675633
 20
-3.097145942704457
 30
0.0
 11
0.2879170138799391
 21
0.0052978427250901
 31
0.0
210
0.0
220
0.0
230
1.0
 40
0.0404429999981356
 41
1.143808393720369
 42
1.23021856671755
  0
ELLIPSE
  5
1C1
330
2
100
AcDbEntity
  8
GAIKEI
  6
Continuous
 62
     1
100
AcDbEllipse
 10
4.84551373299746
 20
-3.047210039567062
 30
0.0
 11
-0.0052978427254085
 21
0.2879170138543368
 31
0.0
210
0.0
220
0.0
230
1.0
 40
0.0404430000012197
 41
1.14380839367993
 42
1.230218566685839
  0
ELLIPSE
  5
1C2
330
2
100
AcDbEntity
  8
GAIKEI
  6
Continuous
 62
     1
100
AcDbEllipse
 10
4.84551373299746
 20
20.87695580174898
 30
0.0
 11
0.0052978427250493
 21
0.2879170138793219
 31
0.0
210
0.0
220
0.0
230
1.0
 40
0.0404429999982778
 41
1.911374086873103
 42
1.997784259870286
  0
ELLIPSE
  5
1C3
330
2
100
AcDbEntity
  8
GAIKEI
  6
Continuous
 62
     1
100
AcDbEllipse
 10
4.795577829860121
 20
20.92689170488637
 30
0.0
 11
0.2879170138798924
 21
0.005297842725091
 31
0.0
210
0.0
220
0.0
230
1.0
 40
0.0404429999981408
 41
4.285401047310096
 42
4.371811220307267
  0
ELLIPSE
  5
1C4
330
2
100
AcDbEntity
  8
GAIKEI
  6
Continuous
 62
     1
100
AcDbEllipse
 10
4.795577829860121
 20
-3.097145942704457
 30
0.0
 11
-0.2879170138799422
 21
0.0052978427250903
 31
0.0
210
0.0
220
0.0
230
1.0
 40
0.0404429999981349
 41
-1.230218566717536
 42
-1.143808393720374
  0
ELLIPSE
  5
1C5
330
2
100
AcDbEntity
  8
GAIKEI
  6
Continuous
 62
     1
100
AcDbEllipse
 10
-33.65495764283662
 20
19.2283215983023
 30
0.0
 11
-0.0427537848529118
 21
0.0546568828203793
 31
0.0
210
0.0
220
0.0
230
1.0
 40
0.960211999995565
 41
-0.6513938851084821
 42
-0.3742724761095297
  0
ELLIPSE
  5
1C6
330
2
100
AcDbEntity
  8
GAIKEI
  6
Continuous
 62
     1
100
AcDbEllipse
 10
3.121941405133384
 20
19.2283215983023
 30
0.0
 11
0.0427537848527262
 21
0.0546568828205145
 31
0.0
210
0.0
220
0.0
230
1.0
 40
0.9602119999955242
 41
0.3742724761062375
 42
0.6513938851051569
  0
ELLIPSE
  5
1C7
330
2
100
AcDbEntity
  8
GAIKEI
  6
Continuous
 62
     1
100
AcDbEllipse
 10
-33.65495764283662
 20
-1.398575836120386
 30
0.0
 11
0.0427537848582486
 21
0.0546568828163674
 31
0.0
210
0.0
220
0.0
230
1.0
 40
0.9602120000005857
 41
3.515865129796059
 42
3.792986538793065
  0
ELLIPSE
  5
1C8
330
2
100
AcDbEntity
  8
GAIKEI
  6
Continuous
 62
     1
100
AcDbEllipse
 10
3.121941405133384
 20
-1.398575836120386
 30
0.0
 11
-0.042753784866503
 21
0.0546568828102033
 31
0.0
210
0.0
220
0.0
230
0.9999999999999998
 40
0.9602120000078178
 41
2.490198768239826
 42
2.767320177232909
  0
ELLIPSE
  5
1C9
330
2
100
AcDbEntity
  8
GAIKEI
  6
Continuous
 62
     1
100
AcDbEllipse
 10
-33.65495034218799
 20
19.2283142976537
 30
0.0
 11
-0.05471957312403
 21
0.042691791412705
 31
0.0
210
0.0
220
0.0
230
1.0
 40
0.9600420000005415
 41
0.3752614365549947
 42
0.6500607537665788
  0
ELLIPSE
  5
1CA
330
2
100
AcDbEntity
  8
GAIKEI
  6
Continuous
 62
     1
100
AcDbEllipse
 10
-33.65495034218799
 20
-1.398568535471781
 30
0.0
 11
0.054719573126713
 21
0.0426917914091056
 31
0.0
210
0.0
220
0.0
230
1.0
 40
0.9600419999976159
 41
2.491531899886615
 42
2.766331217099247
  0
ELLIPSE
  5
1CB
330
2
100
AcDbEntity
  8
GAIKEI
  6
Continuous
 62
     1
100
AcDbEllipse
 10
3.121934104484807
 20
19.2283142976537
 30
0.0
 11
0.0547195731240741
 21
0.0426917914126376
 31
0.0
210
0.0
220
0.0
230
1.0
 40
0.9600420000007662
 41
-0.6500607537652972
 42
-0.3752614365537126
  0
ELLIPSE
  5
1CC
330
2
100
AcDbEntity
  8
GAIKEI
  6
Continuous
 62
     1
100
AcDbEllipse
 10
3.121934104484807
 20
-1.398568535471781
 30
0.0
 11
-0.0547195731247495
 21
0.0426917914117292
 31
0.0
210
0.0
220
0.0
230
1.0
 40
0.9600419999999962
 41
3.516854090128136
 42
3.791653407339537
  0
ELLIPSE
  5
1CD
330
2
100
AcDbEntity
  8
GAIKEI
  6
Continuous
 62
     1
100
AcDbEllipse
 10
3.121941405133384
 20
-1.396749873895856
 30
0.0
 11
-0.0607808270033003
 21
0.0822184915853297
 31
0.0
210
0.0
220
0.0
230
1.0
 40
0.9776259999984945
 41
2.515781018572056
 42
2.792902427569963
  0
ELLIPSE
  5
1CE
330
2
100
AcDbEntity
  8
GAIKEI
  6
Continuous
 62
     1
100
AcDbEllipse
 10
-33.65495764283662
 20
-1.396749873895856
 30
0.0
 11
0.0607808269967871
 21
0.0822184915900438
 31
0.0
210
0.0
220
0.0
230
1.0
 40
0.977625999995409
 41
3.490282879530687
 42
3.767404288529979
  0
ELLIPSE
  5
1CF
330
2
100
AcDbEntity
  8
GAIKEI
  6
Continuous
 62
     1
100
AcDbEllipse
 10
-33.65495764283662
 20
19.2264956360778
 30
0.0
 11
-0.0607808270158121
 21
0.082218491576272
 31
0.0
210
0.0
220
0.0
230
0.9999999999999998
 40
0.9776260000034472
 41
-0.625811635167389
 42
-0.3486902261722637
  0
ELLIPSE
  5
1D0
330
2
100
AcDbEntity
  8
GAIKEI
  6
Continuous
 62
     1
100
AcDbEllipse
 10
3.121941405133384
 20
19.2264956360778
 30
0.0
 11
0.0607808270141988
 21
0.0822184915774339
 31
0.0
210
0.0
220
0.0
230
1.0
 40
0.9776260000029461
 41
0.3486902261527096
 42
0.6258116351479744
  0
ELLIPSE
  5
1D1
330
2
100
AcDbEntity
  8
GAIKEI
  6
Continuous
 62
     1
100
AcDbEllipse
 10
-33.65309777760001
 20
-1.398568535471781
 30
0.0
 11
0.0823124171870749
 21
0.0606728015078452
 31
0.0
210
0.0
220
0.0
230
1.0
 40
0.9775040000002562
 41
2.517225752813203
 42
2.792025070024934
  0
ELLIPSE
  5
1D2
330
2
100
AcDbEntity
  8
GAIKEI
  6
Continuous
 62
     1
100
AcDbEllipse
 10
-33.65309777760001
 20
19.2283142976537
 30
0.0
 11
-0.0823124171911972
 21
0.0606728015020962
 31
0.0
210
0.0
220
0.0
230
1.0
 40
0.9775039999983139
 41
0.3495675834948664
 42
0.6243669007078401
  0
ELLIPSE
  5
1D3
330
2
100
AcDbEntity
  8
GAIKEI
  6
Continuous
 62
     1
100
AcDbEllipse
 10
3.12008153989683
 20
19.2283142976537
 30
0.0
 11
0.0823124171885619
 21
0.0606728015057627
 31
0.0
210
0.0
220
0.0
230
1.0
 40
0.9775039999996579
 41
-0.6243669007516715
 42
-0.349567583539371
  0
ELLIPSE
  5
1D4
330
2
100
AcDbEntity
  8
GAIKEI
  6
Continuous
 62
     1
100
AcDbEllipse
 10
3.12008153989683
 20
-1.398568535471781
 30
0.0
 11
-0.0823124171856116
 21
0.0606728015098772
 31
0.0
210
0.0
220
0.0
230
1.0
 40
0.9775040000007887
 41
3.491160237179388
 42
3.765959554391168
  0
ELLIPSE
  5
1D5
330
2
100
AcDbEntity
  8
GAIKEI
  6
Continuous
 62
     1
100
AcDbEllipse
 10
-35.3285940675633
 20
20.87695580174898
 30
0.0
 11
0.3230407423546598
 21
0.0305357091463026
 31
0.0
210
0.0
220
0.0
230
1.0
 40
0.0083089999813824
 41
1.192616585226102
 42
1.279026757979404
  0
ELLIPSE
  5
1D6
330
2
100
AcDbEntity
  8
GAIKEI
  6
Continuous
 62
     1
100
AcDbEllipse
 10
-35.3285940675633
 20
20.87695580174898
 30
0.0
 11
0.0305357090498701
 21
0.3230407412646187
 31
0.0
210
0.0
220
0.0
230
1.0
 40
0.0083090000057821
 41
1.862565896623444
 42
1.948976069703653
  0
ELLIPSE
  5
1D7
330
2
100
AcDbEntity
  8
GAIKEI
  6
Continuous
 62
     1
100
AcDbEllipse
 10
-35.3285940675633
 20
-3.047210039567062
 30
0.0
 11
-0.030535709049866
 21
0.3230407412645781
 31
0.0
210
0.0
220
0.0
230
1.0
 40
0.0083090000057778
 41
1.192616583886016
 42
1.279026756966244
  0
ELLIPSE
  5
1D8
330
2
100
AcDbEntity
  8
GAIKEI
  6
Continuous
 62
     1
100
AcDbEllipse
 10
-35.3285940675633
 20
-3.047210039567062
 30
0.0
 11
-0.3230407423546608
 21
0.0305357091463026
 31
0.0
210
0.0
220
0.0
230
1.0
 40
0.0083089999813824
 41
1.862565895610391
 42
1.948976068363679
  0
ELLIPSE
  5
1D9
330
2
100
AcDbEntity
  8
GAIKEI
  6
Continuous
 62
     1
100
AcDbEllipse
 10
4.795577829860121
 20
20.87695580174898
 30
0.0
 11
-0.030535709066745
 21
0.3230407414557805
 31
0.0
210
0.0
220
0.0
230
1.0
 40
0.0083090000015409
 41
4.33420923771091
 42
4.420619410733783
  0
ELLIPSE
  5
1DA
330
2
100
AcDbEntity
  8
GAIKEI
  6
Continuous
 62
     1
100
AcDbEllipse
 10
4.795577829860121
 20
20.87695580174898
 30
0.0
 11
-0.3230407423314021
 21
0.0305357091442352
 31
0.0
210
0.0
220
0.0
230
1.0
 40
0.0083089999819134
 41
-1.279026757957789
 42
-1.192616585197497
  0
ELLIPSE
  5
1DB
330
2
100
AcDbEntity
  8
GAIKEI
  6
Continuous
 62
     1
100
AcDbEllipse
 10
4.795577829860121
 20
-3.047210039567062
 30
0.0
 11
0.3230407423313618
 21
0.0305357091442317
 31
0.0
210
0.0
220
0.0
230
1.0
 40
0.0083089999819143
 41
4.334209238787228
 42
4.420619411547537
  0
ELLIPSE
  5
1DC
330
2
100
AcDbEntity
  8
GAIKEI
  6
Continuous
 62
     1
100
AcDbEllipse
 10
4.795577829860121
 20
-3.047210039567062
 30
0.0
 11
0.0305357090723699
 21
0.3230407415195018
 31
0.0
210
0.0
220
0.0
230
1.0
 40
0.0083090000001242
 41
-1.279026757203155
 42
-1.192616584199406
  0
ELLIPSE
  5
1DD
330
2
100
AcDbEntity
  8
GAIKEI
  6
Continuous
 62
     1
100
AcDbEllipse
 10
4.227750282183365
 20
-2.47938249189039
 30
0.0
 11
-0.3876090726745644
 21
0.3876090726745644
 31
0.0
210
0.0
220
0.0
230
1.0
 40
0.4561099999999687
 41
2.756538952252958
 42
3.526646354926537
  0
ELLIPSE
  5
1DE
330
2
100
AcDbEntity
  8
GAIKEI
  6
Continuous
 62
     1
100
AcDbEllipse
 10
-34.7607665198866
 20
-2.47938249189039
 30
0.0
 11
0.3876090726745644
 21
0.3876090726745644
 31
0.0
210
0.0
220
0.0
230
1.0
 40
0.4561099999999612
 41
2.756538952253047
 42
3.526646354926617
  0
ELLIPSE
  5
1DF
330
2
100
AcDbEntity
  8
GAIKEI
  6
Continuous
 62
     1
100
AcDbEllipse
 10
4.227750282183365
 20
20.30912825407231
 30
0.0
 11
0.3876090726745562
 21
0.3876090726745562
 31
0.0
210
0.0
220
0.0
230
1.0
 40
0.4561100000000421
 41
5.898131605842833
 42
6.668239008516371
  0
ELLIPSE
  5
1E0
330
2
100
AcDbEntity
  8
GAIKEI
  6
Continuous
 62
     1
100
AcDbEllipse
 10
-34.7607665198866
 20
20.30912825407231
 30
0.0
 11
-0.3876090726745502
 21
0.3876090726745502
 31
0.0
210
0.0
220
0.0
230
1.0
 40
0.4561100000000735
 41
-0.3850537013367683
 42
0.3850537013367188
  0
ARC
  5
1E1
330
2
100
AcDbEntity
  8
GAIKEI
  6
Continuous
 62
     1
100
AcDbCircle
 10
-35.29995462314037
 20
20.84831635732604
 30
0.0
 40
0.133345180160005
100
AcDbArc
 50
179.9215319999867
 51
180.0
  0
ARC
  5
1E2
330
2
100
AcDbEntity
  8
GAIKEI
  6
Continuous
 62
     1
100
AcDbCircle
 10
-35.29995462314037
 20
-3.018570595144183
 30
0.0
 40
0.133345180160005
100
AcDbArc
 50
180.0
 51
180.0784680000133
  0
ARC
  5
1E3
330
2
100
AcDbEntity
  8
GAIKEI
  6
Continuous
 62
     1
100
AcDbCircle
 10
4.766938385437128
 20
-3.018570595144183
 30
0.0
 40
0.133345180160005
100
AcDbArc
 50
359.9215319999867
 51
0.0
  0
ARC
  5
1E4
330
2
100
AcDbEntity
  8
GAIKEI
  6
Continuous
 62
     1
100
AcDbCircle
 10
4.766938385437128
 20
20.84831635732604
 30
0.0
 40
0.133345180160005
100
AcDbArc
 50
0.0
 51
0.0784680000133402
  0
ARC
  5
1E5
330
2
100
AcDbEntity
  8
GAIKEI
  6
Continuous
 62
     1
100
AcDbCircle
 10
4.766938385437128
 20
20.84831635732604
 30
0.0
 40
0.133345180160005
100
AcDbArc
 50
89.92153200000187
 51
90.0
  0
ARC
  5
1E6
330
2
100
AcDbEntity
  8
GAIKEI
  6
Continuous
 62
     1
100
AcDbCircle
 10
-35.29995462314037
 20
20.84831635732604
 30
0.0
 40
0.133345180160005
100
AcDbArc
 50
90.0
 51
90.07846799999812
  0
ARC
  5
1E7
330
2
100
AcDbEntity
  8
GAIKEI
  6
Continuous
 62
     1
100
AcDbCircle
 10
-35.29995462314037
 20
-3.018570595144183
 30
0.0
 40
0.133345180160005
100
AcDbArc
 50
269.9215320000019
 51
270.0
  0
ARC
  5
1E8
330
2
100
AcDbEntity
  8
GAIKEI
  6
Continuous
 62
     1
100
AcDbCircle
 10
4.766938385437128
 20
-3.018570595144183
 30
0.0
 40
0.133345180160005
100
AcDbArc
 50
270.0
 51
270.0784679999981
  0
ARC
  5
1E9
330
2
100
AcDbEntity
  8
GAIKEI
  6
Continuous
 62
     7
100
AcDbCircle
 10
-35.29995462314037
 20
-3.018570595144183
 30
0.0
 40
0.133345180160005
100
AcDbArc
 50
180.0784680000133
 51
269.9215320000019
  0
ARC
  5
1EA
330
2
100
AcDbEntity
  8
GAIKEI
  6
Continuous
 62
     7
100
AcDbCircle
 10
4.766938385437128
 20
-3.018570595144183
 30
0.0
 40
0.133345180160005
100
AcDbArc
 50
270.0784679999981
 51
359.9215319999867
  0
ARC
  5
1EB
330
2
100
AcDbEntity
  8
GAIKEI
  6
Continuous
 62
     7
100
AcDbCircle
 10
-35.29995462314037
 20
20.84831635732604
 30
0.0
 40
0.133345180160005
100
AcDbArc
 50
90.07846799999812
 51
179.9215319999867
  0
ARC
  5
1EC
330
2
100
AcDbEntity
  8
GAIKEI
  6
Continuous
 62
     7
100
AcDbCircle
 10
4.766938385437128
 20
20.84831635732604
 30
0.0
 40
0.133345180160005
100
AcDbArc
 50
0.0784680000133402
 51
89.92153200000187
  0
ARC
  5
1ED
330
2
100
AcDbEntity
  8
GAIKEI
  6
Continuous
 62
     1
100
AcDbCircle
 10
-33.6577791268399
 20
19.23113871525095
 30
0.0
 40
0.0655246547603001
100
AcDbArc
 50
105.7493539999932
 51
164.3805440000055
  0
ARC
  5
1EE
330
2
100
AcDbEntity
  8
GAIKEI
  6
Continuous
 62
     1
100
AcDbCircle
 10
3.124762889136661
 20
19.23113871525095
 30
0.0
 40
0.0655246547603001
100
AcDbArc
 50
15.61945599999452
 51
74.25064600000678
  0
ARC
  5
1EF
330
2
100
AcDbEntity
  8
GAIKEI
  6
Continuous
 62
     1
100
AcDbCircle
 10
-34.2598622178923
 20
-1.981811819400149
 30
0.0
 40
0.0666725900800025
100
AcDbArc
 50
180.0
 51
270.0
  0
ARC
  5
1F0
330
2
100
AcDbEntity
  8
GAIKEI
  6
Continuous
 62
     1
100
AcDbCircle
 10
3.726845980189125
 20
-1.981811819400149
 30
0.0
 40
0.0666725900800025
100
AcDbArc
 50
270.0
 51
0.0
  0
ARC
  5
1F1
330
2
100
AcDbEntity
  8
GAIKEI
  6
Continuous
 62
     1
100
AcDbCircle
 10
-34.2598622178923
 20
19.81155758158201
 30
0.0
 40
0.0666725900800025
100
AcDbArc
 50
90.0
 51
180.0
  0
ARC
  5
1F2
330
2
100
AcDbEntity
  8
GAIKEI
  6
Continuous
 62
     1
100
AcDbCircle
 10
3.726845980189125
 20
19.81155758158201
 30
0.0
 40
0.0666725900800025
100
AcDbArc
 50
0.0
 51
90.0
  0
ARC
  5
1F3
330
2
100
AcDbEntity
  8
GAIKEI
  6
Continuous
 62
     1
100
AcDbCircle
 10
-33.69147838746034
 20
-2.603533721896155
 30
0.0
 40
0.0166681475200006
100
AcDbArc
 50
90.0
 51
180.0
  0
ARC
  5
1F4
330
2
100
AcDbEntity
  8
GAIKEI
  6
Continuous
 62
     1
100
AcDbCircle
 10
-33.4914606172203
 20
-2.603533721896155
 30
0.0
 40
0.0166681475200006
100
AcDbArc
 50
0.0
 51
90.0
  0
ARC
  5
1F5
330
2
100
AcDbEntity
  8
GAIKEI
  6
Continuous
 62
     1
100
AcDbCircle
 10
-33.69147838746034
 20
-2.803551492136193
 30
0.0
 40
0.0166681475200006
100
AcDbArc
 50
180.0
 51
270.0
  0
ARC
  5
1F6
330
2
100
AcDbEntity
  8
GAIKEI
  6
Continuous
 62
     1
100
AcDbCircle
 10
-33.4914606172203
 20
-2.803551492136193
 30
0.0
 40
0.0166681475200006
100
AcDbArc
 50
270.0
 51
0.0
  0
ARC
  5
1F7
330
2
100
AcDbEntity
  8
GAIKEI
  6
Continuous
 62
     1
100
AcDbCircle
 10
3.726845980189125
 20
19.81155758158201
 30
0.0
 40
0.1346545964928812
100
AcDbArc
 50
0.0
 51
90.0
  0
ARC
  5
1F8
330
2
100
AcDbEntity
  8
GAIKEI
  6
Continuous
 62
     1
100
AcDbCircle
 10
3.726845980189125
 20
-1.981811819400149
 30
0.0
 40
0.1346545964928812
100
AcDbArc
 50
270.0
 51
0.0
  0
ARC
  5
1F9
330
2
100
AcDbEntity
  8
GAIKEI
  6
Continuous
 62
     1
100
AcDbCircle
 10
-34.2598622178923
 20
19.81155758158201
 30
0.0
 40
0.1346545964928812
100
AcDbArc
 50
90.0
 51
180.0
  0
ARC
  5
1FA
330
2
100
AcDbEntity
  8
GAIKEI
  6
Continuous
 62
     1
100
AcDbCircle
 10
-34.2598622178923
 20
-1.981811819400149
 30
0.0
 40
0.1346545964928812
100
AcDbArc
 50
180.0
 51
270.0
  0
LINE
  5
1FB
330
2
100
AcDbEntity
  8
GAIKEI
  6
Continuous
 62
     7
100
AcDbLine
 10
-35.43329980330037
 20
20.84831635732604
 30
0.0
 11
-35.43329980330037
 21
-3.018570595144183
 31
0.0
  0
LINE
  5
1FC
330
2
100
AcDbEntity
  8
GAIKEI
  6
Continuous
 62
     7
100
AcDbLine
 10
4.900283565597135
 20
20.84831635732604
 30
0.0
 11
4.900283565597135
 21
-3.018570595144183
 31
0.0
  0
LINE
  5
1FD
330
2
100
AcDbEntity
  8
GAIKEI
  6
Continuous
 62
     7
100
AcDbLine
 10
-35.29995462314037
 20
20.98166153748605
 30
0.0
 11
4.766938385437128
 21
20.98166153748605
 31
0.0
  0
LINE
  5
1FE
330
2
100
AcDbEntity
  8
GAIKEI
  6
Continuous
 62
     7
100
AcDbLine
 10
-35.29995462314037
 20
-3.151915775304189
 30
0.0
 11
4.766938385437128
 21
-3.151915775304189
 31
0.0
  0
LINE
  5
1FF
330
2
100
AcDbEntity
  8
GAIKEI
  6
Continuous
 62
     1
100
AcDbLine
 10
-35.36578503839877
 20
-2.951238546475678
 30
0.0
 11
-35.4332996699552
 21
-3.018753211368391
 31
0.0
  0
LINE
  5
200
330
2
100
AcDbEntity
  8
GAIKEI
  6
Continuous
 62
     1
100
AcDbLine
 10
-35.30013723936458
 20
-3.151915641959021
 30
0.0
 11
-35.23262257447192
 21
-3.084401010402586
 31
0.0
  0
LINE
  5
201
330
2
100
AcDbEntity
  8
GAIKEI
  6
Continuous
 62
     1
100
AcDbLine
 10
-35.23262257447192
 20
20.91414677258445
 30
0.0
 11
-35.30013723936458
 21
20.98166140414088
 31
0.0
  0
LINE
  5
202
330
2
100
AcDbEntity
  8
GAIKEI
  6
Continuous
 62
     1
100
AcDbLine
 10
-35.4332996699552
 20
20.84849897355025
 30
0.0
 11
-35.36578503839877
 21
20.78098430865759
 31
0.0
  0
LINE
  5
203
330
2
100
AcDbEntity
  8
GAIKEI
  6
Continuous
 62
     1
100
AcDbLine
 10
4.699606336768681
 20
20.91414677258445
 30
0.0
 11
4.767121001661394
 21
20.98166140414088
 31
0.0
  0
LINE
  5
204
330
2
100
AcDbEntity
  8
GAIKEI
  6
Continuous
 62
     1
100
AcDbLine
 10
4.900283432251967
 20
20.84849897355025
 30
0.0
 11
4.832768800695532
 21
20.78098430865759
 31
0.0
  0
LINE
  5
205
330
2
100
AcDbEntity
  8
GAIKEI
  6
Continuous
 62
     1
100
AcDbLine
 10
-35.36573730082427
 20
20.75791542580839
 30
0.0
 11
-35.36573730082427
 21
-2.928169663626533
 31
0.0
  0
LINE
  5
206
330
2
100
AcDbEntity
  8
GAIKEI
  6
Continuous
 62
     1
100
AcDbLine
 10
4.832721063121027
 20
20.75791542580839
 30
0.0
 11
4.832721063121027
 21
-2.928169663626533
 31
0.0
  0
LINE
  5
207
330
2
100
AcDbEntity
  8
GAIKEI
  6
Continuous
 62
     1
100
AcDbLine
 10
4.676537453919479
 20
20.91409903500994
 30
0.0
 11
-35.20955369162272
 21
20.91409903500994
 31
0.0
  0
LINE
  5
208
330
2
100
AcDbEntity
  8
GAIKEI
  6
Continuous
 62
     1
100
AcDbLine
 10
-35.20955369162272
 20
-3.084353272828082
 30
0.0
 11
4.676537453919479
 21
-3.084353272828082
 31
0.0
  0
LINE
  5
209
330
2
100
AcDbEntity
  8
GAIKEI
  6
Continuous
 62
     1
100
AcDbLine
 10
3.124121165457154
 20
19.2966769712196
 30
0.0
 11
-33.65713740316039
 21
19.2966769712196
 31
0.0
  0
LINE
  5
20A
330
2
100
AcDbEntity
  8
GAIKEI
  6
Continuous
 62
     1
100
AcDbLine
 10
-33.65713740316039
 20
-1.466931209037738
 30
0.0
 11
3.124121165457154
 21
-1.466931209037738
 31
0.0
  0
LINE
  5
20B
330
2
100
AcDbEntity
  8
GAIKEI
  6
Continuous
 62
     1
100
AcDbLine
 10
-33.72331578266642
 20
19.23050412553857
 30
0.0
 11
-33.72331578266642
 21
-1.400758363356658
 31
0.0
  0
LINE
  5
20C
330
2
100
AcDbEntity
  8
GAIKEI
  6
Continuous
 62
     1
100
AcDbLine
 10
3.190299544963181
 20
19.23050412553857
 30
0.0
 11
3.190299544963181
 21
-1.400758363356658
 31
0.0
  0
LINE
  5
20D
330
2
100
AcDbEntity
  8
GAIKEI
  6
Continuous
 62
     1
100
AcDbLine
 10
3.124121165457154
 20
-1.498193086446292
 30
0.0
 11
-33.65713740316039
 21
-1.498193086446292
 31
0.0
  0
LINE
  5
20E
330
2
100
AcDbEntity
  8
GAIKEI
  6
Continuous
 62
     1
100
AcDbLine
 10
-33.65713740316039
 20
19.32793884862815
 30
0.0
 11
3.124121165457154
 21
19.32793884862815
 31
0.0
  0
LINE
  5
20F
330
2
100
AcDbEntity
  8
GAIKEI
  6
Continuous
 62
     1
100
AcDbLine
 10
-34.2598622178923
 20
19.87823017166204
 30
0.0
 11
3.726845980189125
 21
19.87823017166204
 31
0.0
  0
LINE
  5
210
330
2
100
AcDbEntity
  8
GAIKEI
  6
Continuous
 62
     1
100
AcDbLine
 10
3.726845980189125
 20
-2.048484409480124
 30
0.0
 11
-34.2598622178923
 21
-2.048484409480124
 31
0.0
  0
LINE
  5
211
330
2
100
AcDbEntity
  8
GAIKEI
  6
Continuous
 62
     1
100
AcDbLine
 10
-34.32653480797234
 20
-1.981811819400149
 30
0.0
 11
-34.32653480797234
 21
19.81155758158201
 31
0.0
  0
LINE
  5
212
330
2
100
AcDbEntity
  8
GAIKEI
  6
Continuous
 62
     1
100
AcDbLine
 10
-33.75455102437525
 20
-1.400758363356658
 30
0.0
 11
-33.75455102437525
 21
19.23050412553857
 31
0.0
  0
LINE
  5
213
330
2
100
AcDbEntity
  8
GAIKEI
  6
Continuous
 62
     1
100
AcDbLine
 10
3.7935185702691
 20
-1.981811819400149
 30
0.0
 11
3.7935185702691
 21
19.81155758158201
 31
0.0
  0
LINE
  5
214
330
2
100
AcDbEntity
  8
GAIKEI
  6
Continuous
 62
     1
100
AcDbLine
 10
3.221534786672009
 20
-1.400758363356658
 30
0.0
 11
3.221534786672009
 21
19.23050412553857
 31
0.0
  0
LINE
  5
215
330
2
100
AcDbEntity
  8
GAIKEI
  6
Continuous
 62
     1
100
AcDbLine
 10
-34.32087047140061
 20
-2.006479710977146
 30
0.0
 11
-33.7507444528535
 21
-1.42801475157097
 31
0.0
  0
LINE
  5
216
330
2
100
AcDbEntity
  8
GAIKEI
  6
Continuous
 62
     1
100
AcDbLine
 10
-33.68461791128624
 20
-1.494322709255811
 30
0.0
 11
-34.23079101451248
 21
-2.048484409480124
 31
0.0
  0
LINE
  5
217
330
2
100
AcDbEntity
  8
GAIKEI
  6
Continuous
 62
     1
100
AcDbLine
 10
3.787854233697373
 20
-2.006479710977146
 30
0.0
 11
3.217728215150259
 21
-1.42801475157097
 31
0.0
  0
LINE
  5
218
330
2
100
AcDbEntity
  8
GAIKEI
  6
Continuous
 62
     1
100
AcDbLine
 10
3.151601673583058
 20
-1.494322709255811
 30
0.0
 11
3.697774776809296
 21
-2.048484409480124
 31
0.0
  0
LINE
  5
219
330
2
100
AcDbEntity
  8
GAIKEI
  6
Continuous
 62
     1
100
AcDbLine
 10
-33.7507444528535
 20
19.25776051375288
 30
0.0
 11
-34.32087047140061
 21
19.83622547315906
 31
0.0
  0
LINE
  5
21A
330
2
100
AcDbEntity
  8
GAIKEI
  6
Continuous
 62
     1
100
AcDbLine
 10
-34.22997366249428
 20
19.87740086465032
 30
0.0
 11
-33.68461791128624
 21
19.32406847143773
 31
0.0
  0
LINE
  5
21B
330
2
100
AcDbEntity
  8
GAIKEI
  6
Continuous
 62
     1
100
AcDbLine
 10
3.697774776809296
 20
19.87823017166204
 30
0.0
 11
3.151601673583058
 21
19.32406847143773
 31
0.0
  0
LINE
  5
21C
330
2
100
AcDbEntity
  8
GAIKEI
  6
Continuous
 62
     1
100
AcDbLine
 10
3.217728215150259
 20
19.25776051375288
 30
0.0
 11
3.787854233697373
 21
19.83622547315906
 31
0.0
  0
LINE
  5
21D
330
2
100
AcDbEntity
  8
GAIKEI
  6
Continuous
 62
     1
100
AcDbLine
 10
-35.34236329086662
 20
-2.928169663626533
 30
0.0
 11
-35.34236329086662
 21
20.75791542580839
 31
0.0
  0
LINE
  5
21E
330
2
100
AcDbEntity
  8
GAIKEI
  6
Continuous
 62
     1
100
AcDbLine
 10
-35.20955369162272
 20
20.89072502505229
 30
0.0
 11
4.676537453919479
 21
20.89072502505229
 31
0.0
  0
LINE
  5
21F
330
2
100
AcDbEntity
  8
GAIKEI
  6
Continuous
 62
     1
100
AcDbLine
 10
4.809347053163378
 20
-2.928169663626533
 30
0.0
 11
4.809347053163378
 21
20.75791542580839
 31
0.0
  0
LINE
  5
220
330
2
100
AcDbEntity
  8
GAIKEI
  6
Continuous
 62
     1
100
AcDbLine
 10
4.676537453919479
 20
-3.060979262870432
 30
0.0
 11
-35.20955369162272
 21
-3.060979262870432
 31
0.0
  0
LINE
  5
221
330
2
100
AcDbEntity
  8
GAIKEI
  6
Continuous
 62
     1
100
AcDbLine
 10
-35.34236329086662
 20
20.75791542580839
 30
0.0
 11
-35.18639900115017
 21
20.60195113609194
 31
0.0
  0
LINE
  5
222
330
2
100
AcDbEntity
  8
GAIKEI
  6
Continuous
 62
     1
100
AcDbLine
 10
-35.05358940190627
 20
20.73476073533584
 30
0.0
 11
-35.20955369162272
 21
20.89072502505229
 31
0.0
  0
LINE
  5
223
330
2
100
AcDbEntity
  8
GAIKEI
  6
Continuous
 62
     1
100
AcDbLine
 10
-35.20955369162272
 20
-3.060979262870432
 30
0.0
 11
-35.05358940190627
 21
-2.905014973153924
 31
0.0
  0
LINE
  5
224
330
2
100
AcDbEntity
  8
GAIKEI
  6
Continuous
 62
     1
100
AcDbLine
 10
-35.18639900115017
 20
-2.772205373910082
 30
0.0
 11
-35.34236329086662
 21
-2.928169663626533
 31
0.0
  0
LINE
  5
225
330
2
100
AcDbEntity
  8
GAIKEI
  6
Continuous
 62
     1
100
AcDbLine
 10
4.809347053163378
 20
20.75791542580839
 30
0.0
 11
4.653382763446927
 21
20.60195113609194
 31
0.0
  0
LINE
  5
226
330
2
100
AcDbEntity
  8
GAIKEI
  6
Continuous
 62
     1
100
AcDbLine
 10
4.520573164203028
 20
20.73476073533584
 30
0.0
 11
4.676537453919479
 21
20.89072502505229
 31
0.0
  0
LINE
  5
227
330
2
100
AcDbEntity
  8
GAIKEI
  6
Continuous
 62
     1
100
AcDbLine
 10
4.676537453919479
 20
-3.060979262870432
 30
0.0
 11
4.520573164203028
 21
-2.905014973153924
 31
0.0
  0
LINE
  5
228
330
2
100
AcDbEntity
  8
GAIKEI
  6
Continuous
 62
     1
100
AcDbLine
 10
4.653382763446927
 20
-2.772205373910082
 30
0.0
 11
4.809347053163378
 21
-2.928169663626533
 31
0.0
  0
LINE
  5
229
330
2
100
AcDbEntity
  8
GAIKEI
  6
Continuous
 62
     1
100
AcDbLine
 10
-34.69823449766835
 20
-2.740212531560132
 30
0.0
 11
-34.77157434675632
 21
-2.740212531560132
 31
0.0
  0
LINE
  5
22A
330
2
100
AcDbEntity
  8
GAIKEI
  6
Continuous
 62
     1
100
AcDbLine
 10
-33.47479246970028
 20
-2.603533721896155
 30
0.0
 11
-33.47479246970028
 21
-2.803551492136193
 31
0.0
  0
LINE
  5
22B
330
2
100
AcDbEntity
  8
GAIKEI
  6
Continuous
 62
     1
100
AcDbLine
 10
-34.77157434675632
 20
-2.740212531560132
 30
0.0
 11
-34.77157434675632
 21
-2.66687268247216
 31
0.0
  0
LINE
  5
22C
330
2
100
AcDbEntity
  8
GAIKEI
  6
Continuous
 62
     1
100
AcDbLine
 10
-34.77157434675632
 20
-2.66687268247216
 30
0.0
 11
-34.69823449766835
 21
-2.66687268247216
 31
0.0
  0
LINE
  5
22D
330
2
100
AcDbEntity
  8
GAIKEI
  6
Continuous
 62
     1
100
AcDbLine
 10
-34.69823449766835
 20
-2.66687268247216
 30
0.0
 11
-34.69823449766835
 21
-2.740212531560132
 31
0.0
  0
LINE
  5
22E
330
2
100
AcDbEntity
  8
GAIKEI
  6
Continuous
 62
     1
100
AcDbLine
 10
-33.4914606172203
 20
-2.820219639656158
 30
0.0
 11
-33.69147838746034
 21
-2.820219639656158
 31
0.0
  0
LINE
  5
22F
330
2
100
AcDbEntity
  8
GAIKEI
  6
Continuous
 62
     1
100
AcDbLine
 10
-33.7081465349803
 20
-2.803551492136193
 30
0.0
 11
-33.7081465349803
 21
-2.603533721896155
 31
0.0
  0
LINE
  5
230
330
2
100
AcDbEntity
  8
GAIKEI
  6
Continuous
 62
     1
100
AcDbLine
 10
-33.69147838746034
 20
-2.586865574376133
 30
0.0
 11
-33.4914606172203
 21
-2.586865574376133
 31
0.0
  0
LINE
  5
231
330
2
100
AcDbEntity
  8
GAIKEI
  6
Continuous
 62
     1
100
AcDbLine
 10
3.726845980189125
 20
19.94621217807491
 30
0.0
 11
-34.2598622178923
 21
19.94621217807491
 31
0.0
  0
LINE
  5
232
330
2
100
AcDbEntity
  8
GAIKEI
  6
Continuous
 62
     1
100
AcDbLine
 10
-34.2598622178923
 20
-2.116466415893
 30
0.0
 11
3.726845980189125
 21
-2.116466415893
 31
0.0
  0
LINE
  5
233
330
2
100
AcDbEntity
  8
GAIKEI
  6
Continuous
 62
     1
100
AcDbLine
 10
3.861500576681976
 20
19.81155758158201
 30
0.0
 11
3.861500576681976
 21
-1.981811819400149
 31
0.0
  0
LINE
  5
234
330
2
100
AcDbEntity
  8
GAIKEI
  6
Continuous
 62
     1
100
AcDbLine
 10
-34.39451681438522
 20
19.81155758158201
 30
0.0
 11
-34.39451681438522
 21
-1.981811819400149
 31
0.0
  0
LINE
  5
235
330
2
100
AcDbEntity
  8
GAIKEI
  6
Continuous
 62
     1
100
AcDbLine
 10
-35.18639900115017
 20
20.60195113609194
 30
0.0
 11
-35.18639900115017
 21
-2.772205373910082
 31
0.0
  0
LINE
  5
236
330
2
100
AcDbEntity
  8
GAIKEI
  6
Continuous
 62
     1
100
AcDbLine
 10
4.520573164203028
 20
20.73476073533584
 30
0.0
 11
-35.05358940190627
 21
20.73476073533584
 31
0.0
  0
LINE
  5
237
330
2
100
AcDbEntity
  8
GAIKEI
  6
Continuous
 62
     1
100
AcDbLine
 10
4.653382763446927
 20
20.60195113609194
 30
0.0
 11
4.653382763446927
 21
-2.772205373910082
 31
0.0
  0
LINE
  5
238
330
2
100
AcDbEntity
  8
GAIKEI
  6
Continuous
 62
     1
100
AcDbLine
 10
-35.05358940190627
 20
-2.905014973153924
 30
0.0
 11
4.520573164203028
 21
-2.905014973153924
 31
0.0
  0
SPLINE
  5
239
330
2
100
AcDbEntity
  8
GAIKEI
  6
Continuous
 62
     1
100
AcDbSpline
210
0.0
220
0.0
230
1.0
 70
     8
 71
     3
 72
    21
 73
    17
 74
    15
 42
0.0000000001
 43
0.0000000001
 44
0.000001
 12
-0.0001490760298766
 22
-0.9999999888881687
 32
0.0
 13
0.9999997489039975
 23
0.0007086550233522
 33
0.0
 40
0.0
 40
0.0
 40
0.0
 40
0.0
 40
0.0146800531684174
 40
0.0294098671609988
 40
0.0440944857460805
 40
0.0587961819046473
 40
0.0735433082183485
 40
0.0882452749644568
 40
0.1031289863564644
 40
0.118059688522961
 40
0.1329432357531999
 40
0.1478756372181092
 40
0.1628556352591396
 40
0.1777879301772668
 40
0.1934470599829982
 40
0.2091023769872298
 40
0.2091023769872298
 40
0.2091023769872298
 40
0.2091023769872298
 10
-35.36578502532137
 20
-2.951238562100229
 30
0.0
 10
-35.36578575480272
 20
-2.956131913101998
 30
0.0
 10
-35.36525216518027
 20
-2.965944155703013
 30
0.0
 10
-35.36283364893439
 20
-2.98047038194386
 30
0.0
 10
-35.35884342986
 20
-2.994656155393855
 30
0.0
 10
-35.35326939153794
 20
-3.008303712823632
 30
0.0
 10
-35.34623671579536
 20
-3.021264301881373
 30
0.0
 10
-35.33779627412102
 20
-3.033431698878985
 30
0.0
 10
-35.32798829852016
 20
-3.044609138310278
 30
0.0
 10
-35.31696419837113
 20
-3.054676157589796
 30
0.0
 10
-35.30488222219353
 20
-3.063476768750504
 30
0.0
 10
-35.29185709938355
 20
-3.070843630575666
 30
0.0
 10
-35.27808258176126
 20
-3.076727416123475
 30
0.0
 10
-35.26350451317652
 20
-3.081112308991421
 30
0.0
 10
-35.24828965332139
 20
-3.08380135054903
 30
0.0
 10
-35.23784102778748
 20
-3.084404695398177
 30
0.0
 10
-35.23262259009641
 20
-3.084400997325161
 30
0.0
 11
-35.36578502532137
 21
-2.951238562100229
 31
0.0
 11
-35.36498489912185
 21
-2.965897359808991
 31
0.0
 11
-35.3625693650763
 21
-2.980427773822952
 31
0.0
 11
-35.35858266835646
 21
-2.994560882426583
 31
0.0
 11
-35.35303377094511
 21
-3.00817522576662
 31
0.0
 11
-35.34600059149529
 21
-3.021137199813097
 31
0.0
 11
-35.33761290658447
 21
-3.033211767582145
 31
0.0
 11
-35.32780385847178
 21
-3.044405877671209
 31
0.0
 11
-35.31677850102153
 21
-3.054474046009289
 31
0.0
 11
-35.30474187707114
 21
-3.063228491939241
 31
0.0
 11
-35.29174939239374
 21
-3.070588691962797
 31
0.0
 11
-35.27797304560255
 21
-3.076471991781488
 31
0.0
 11
-35.26367133906945
 21
-3.080765632739314
 31
0.0
 11
-35.24825241113615
 21
-3.08349792161249
 31
0.0
 11
-35.23262259009641
 21
-3.084400997325161
 31
0.0
  0
SPLINE
  5
23A
330
2
100
AcDbEntity
  8
GAIKEI
  6
Continuous
 62
     1
100
AcDbSpline
210
0.0
220
0.0
230
1.0
 70
     8
 71
     3
 72
    21
 73
    17
 74
    15
 42
0.0000000001
 43
0.0000000001
 44
0.000001
 12
0.0001490760298765
 22
-0.9999999888881687
 32
0.0
 13
-0.9999997489039975
 23
0.000708655023352
 33
0.0
 40
0.0
 40
0.0
 40
0.0
 40
0.0
 40
0.0146800531684205
 40
0.0294098671610019
 40
0.0440944857460682
 40
0.0587961819046349
 40
0.0735433082183362
 40
0.0882452749644445
 40
0.103128986356452
 40
0.1180596885229907
 40
0.1329432357531836
 40
0.1478756372180929
 40
0.1628556352591233
 40
0.1777879301772505
 40
0.1934470599829819
 40
0.2091023769872135
 40
0.2091023769872135
 40
0.2091023769872135
 40
0.2091023769872135
 10
4.832768787618192
 20
-2.951238562100229
 30
0.0
 10
4.832769517099535
 20
-2.956131913101998
 30
0.0
 10
4.832235927477029
 20
-2.965944155703027
 30
0.0
 10
4.829817411231147
 20
-2.980470381943817
 30
0.0
 10
4.82582719215685
 20
-2.994656155393897
 30
0.0
 10
4.820253153834727
 20
-3.00830371282359
 30
0.0
 10
4.813220478092205
 20
-3.021264301881402
 30
0.0
 10
4.804780036417753
 20
-3.033431698878956
 30
0.0
 10
4.794972060817087
 20
-3.044609138310349
 30
0.0
 10
4.783947960667774
 20
-3.054676157589739
 30
0.0
 10
4.771865984490432
 20
-3.063476768750547
 30
0.0
 10
4.758840861680312
 20
-3.07084363057568
 30
0.0
 10
4.745066344058159
 20
-3.076727416123446
 30
0.0
 10
4.730488275473334
 20
-3.081112308991436
 30
0.0
 10
4.71527341561827
 20
-3.08380135054903
 30
0.0
 10
4.704824790084302
 20
-3.084404695398177
 30
0.0
 10
4.699606352393232
 20
-3.084400997325161
 30
0.0
 11
4.832768787618192
 21
-2.951238562100229
 31
0.0
 11
4.831968661418613
 21
-2.965897359808991
 31
0.0
 11
4.82955312737306
 21
-2.980427773822952
 31
0.0
 11
4.825566430653282
 21
-2.994560882426583
 31
0.0
 11
4.820017533241923
 21
-3.00817522576662
 31
0.0
 11
4.812984353792103
 21
-3.021137199813097
 31
0.0
 11
4.804596668881288
 21
-3.033211767582145
 31
0.0
 11
4.794787620768602
 21
-3.044405877671209
 31
0.0
 11
4.783762263318294
 21
-3.054474046009289
 31
0.0
 11
4.771725639367957
 21
-3.063228491939241
 31
0.0
 11
4.75873315469056
 21
-3.070588691962797
 31
0.0
 11
4.74495680789937
 21
-3.076471991781488
 31
0.0
 11
4.730655101366266
 21
-3.080765632739314
 31
0.0
 11
4.71523617343297
 21
-3.08349792161249
 31
0.0
 11
4.699606352393232
 21
-3.084400997325161
 31
0.0
  0
SPLINE
  5
23B
330
2
100
AcDbEntity
  8
GAIKEI
  6
Continuous
 62
     1
100
AcDbSpline
210
0.0
220
0.0
230
1.0
 70
     8
 71
     3
 72
    21
 73
    17
 74
    15
 42
0.0000000001
 43
0.0000000001
 44
0.000001
 12
-0.9999999888881687
 22
0.0001490760296198
 32
0.0
 13
0.0007086550231108
 23
-0.9999997489039976
 33
0.0
 40
0.0
 40
0.0
 40
0.0
 40
0.0
 40
0.0146800531684757
 40
0.0294098671610548
 40
0.0440944857461211
 40
0.0587961819046961
 40
0.0735433082183599
 40
0.0882452749644987
 40
0.1031289863564929
 40
0.1180596885229991
 40
0.1329432357531952
 40
0.1478756372181115
 40
0.1628556352591792
 40
0.1777879301772928
 40
0.1934470599830118
 40
0.2091023769872316
 40
0.2091023769872316
 40
0.2091023769872316
 40
0.2091023769872316
 10
-35.23262259009641
 20
20.91414675950708
 30
0.0
 10
-35.2375159410982
 20
20.91414748898842
 30
0.0
 10
-35.24732818369927
 20
20.91361389936597
 30
0.0
 10
-35.26185440994004
 20
20.91119538312003
 30
0.0
 10
-35.27604018339014
 20
20.90720516404585
 30
0.0
 10
-35.28968774081983
 20
20.90163112572357
 30
0.0
 10
-35.3026483298776
 20
20.89459844998103
 30
0.0
 10
-35.31481572687517
 20
20.88615800830677
 30
0.0
 10
-35.32599316630649
 20
20.8763500327059
 30
0.0
 10
-35.33606018558601
 20
20.86532593255674
 30
0.0
 10
-35.34486079674673
 20
20.8532439563793
 30
0.0
 10
-35.35222765857191
 20
20.84021883356928
 30
0.0
 10
-35.35811144411969
 20
20.82644431594701
 30
0.0
 10
-35.36249633698765
 20
20.81186624736223
 30
0.0
 10
-35.36518537854516
 20
20.79665138750711
 30
0.0
 10
-35.36578872339439
 20
20.78620276197323
 30
0.0
 10
-35.36578502532137
 20
20.78098432428214
 30
0.0
 11
-35.23262259009641
 21
20.91414675950708
 31
0.0
 11
-35.24728138780523
 21
20.91334663330753
 31
0.0
 11
-35.26181180181919
 21
20.91093109926197
 31
0.0
 11
-35.27594491042282
 21
20.90694440254219
 31
0.0
 11
-35.28955925376283
 21
20.90139550513081
 31
0.0
 11
-35.30252122780928
 21
20.89436232568096
 31
0.0
 11
-35.31459579557838
 21
20.88597464077017
 31
0.0
 11
-35.32578990566742
 21
20.87616559265746
 31
0.0
 11
-35.3358580740055
 21
20.86514023520721
 31
0.0
 11
-35.34461251993543
 21
20.85310361125687
 31
0.0
 11
-35.35197271995901
 21
20.84011112657947
 31
0.0
 11
-35.35785601977773
 21
20.82633477978825
 31
0.0
 11
-35.36214966073556
 21
20.81203307325518
 31
0.0
 11
-35.36488194960867
 21
20.79661414532188
 31
0.0
 11
-35.36578502532137
 21
20.78098432428214
 31
0.0
  0
SPLINE
  5
23C
330
2
100
AcDbEntity
  8
GAIKEI
  6
Continuous
 62
     1
100
AcDbSpline
210
0.0
220
0.0
230
1.0
 70
     8
 71
     3
 72
    21
 73
    17
 74
    15
 42
0.0000000001
 43
0.0000000001
 44
0.000001
 12
0.9999999888881687
 22
0.00014907602962
 32
0.0
 13
-0.0007086550231109
 23
-0.9999997489039976
 33
0.0
 40
0.0
 40
0.0
 40
0.0
 40
0.0
 40
0.0146800531684757
 40
0.0294098671610548
 40
0.0440944857460664
 40
0.0587961819046414
 40
0.0735433082183551
 40
0.0882452749644473
 40
0.1031289863564415
 40
0.1180596885229477
 40
0.1329432357531772
 40
0.1478756372180655
 40
0.1628556352591332
 40
0.1777879301772468
 40
0.1934470599829757
 40
0.2091023769871955
 40
0.2091023769871955
 40
0.2091023769871955
 40
0.2091023769871955
 10
4.699606352393232
 20
20.91414675950708
 30
0.0
 10
4.704499703395015
 20
20.91414748898842
 30
0.0
 10
4.71431194599603
 20
20.91361389936594
 30
0.0
 10
4.728838172236919
 20
20.91119538312005
 30
0.0
 10
4.743023945686843
 20
20.90720516404582
 30
0.0
 10
4.756671503116592
 20
20.90163112572353
 30
0.0
 10
4.769632092174418
 20
20.8945984499811
 30
0.0
 10
4.781799489171902
 20
20.8861580083067
 30
0.0
 10
4.792976928603366
 20
20.87635003270593
 30
0.0
 10
4.803043947882713
 20
20.86532593255672
 30
0.0
 10
4.811844559043606
 20
20.85324395637934
 30
0.0
 10
4.819211420868612
 20
20.84021883356923
 30
0.0
 10
4.82509520641642
 20
20.82644431594701
 30
0.0
 10
4.829480099284523
 20
20.81186624736222
 30
0.0
 10
4.832169140841926
 20
20.79665138750713
 30
0.0
 10
4.832772485691208
 20
20.78620276197323
 30
0.0
 10
4.832768787618192
 20
20.78098432428214
 30
0.0
 11
4.699606352393232
 21
20.91414675950708
 31
0.0
 11
4.71426515010205
 21
20.91334663330753
 31
0.0
 11
4.728795564116012
 21
20.91093109926197
 31
0.0
 11
4.742928672719585
 21
20.90694440254219
 31
0.0
 11
4.756543016059595
 21
20.90139550513081
 31
0.0
 11
4.769504990106099
 21
20.89436232568096
 31
0.0
 11
4.781579557875147
 21
20.88597464077017
 31
0.0
 11
4.792773667964183
 21
20.87616559265746
 31
0.0
 11
4.802841836302263
 21
20.86514023520721
 31
0.0
 11
4.811596282232244
 21
20.85310361125687
 31
0.0
 11
4.818956482255771
 21
20.84011112657947
 31
0.0
 11
4.824839782074491
 21
20.82633477978825
 31
0.0
 11
4.829133423032317
 21
20.81203307325518
 31
0.0
 11
4.831865711905493
 21
20.79661414532188
 31
0.0
 11
4.832768787618192
 21
20.78098432428214
 31
0.0
  0
SPLINE
  5
23D
330
2
100
AcDbEntity
  8
GAIKEI
  6
Continuous
 62
     1
100
AcDbSpline
210
0.0
220
0.0
230
1.0
 70
     8
 71
     3
 72
    14
 73
    10
 74
     8
 42
0.0000000001
 43
0.0000000001
 44
0.000001
 12
0.2697836156325394
 22
-0.9629209732559752
 32
0.0
 13
0.9616843088117285
 23
-0.2741592423853476
 33
0.0
 40
0.0
 40
0.0
 40
0.0
 40
0.0
 40
0.0000378405968412
 40
0.0111891984537567
 40
0.0223415869632639
 40
0.0334914632169847
 40
0.0446413298613517
 40
0.0558040986430091
 40
0.0669660519622346
 40
0.0669660519622346
 40
0.0669660519622346
 40
0.0669660519622346
 10
-33.72088405143461
 20
-1.419035269185997
 30
0.0
 10
-33.72088064851027
 20
-1.41904741502077
 30
0.0
 10
-33.71987327429545
 20
-1.422638518061276
 30
0.0
 10
-33.71723292492257
 20
-1.429646258385844
 30
0.0
 10
-33.71160114851887
 20
-1.439330878658651
 30
0.0
 10
-33.70437460105788
 20
-1.447894887002689
 30
0.0
 10
-33.69582216754321
 20
-1.45513938530631
 30
0.0
 10
-33.68614343110249
 20
-1.460797791405127
 30
0.0
 10
-33.67914256602936
 20
-1.463437658475612
 30
0.0
 10
-33.67556447424175
 20
-1.464457709364126
 30
0.0
 11
-33.72088405143461
 21
-1.419035269185997
 31
0.0
 11
-33.72087383201927
 21
-1.419071704069324
 31
0.0
 11
-33.71695399349358
 21
-1.4295119503671
 31
0.0
 11
-33.71133550700597
 21
-1.439145585451541
 31
0.0
 11
-33.70415475344089
 21
-1.447675349040878
 31
0.0
 11
-33.69563917182273
 21
-1.454872908166095
 31
0.0
 11
-33.68600736146988
 21
-1.460515200190002
 31
0.0
 11
-33.67556447424175
 21
-1.464457709364126
 31
0.0
  0
SPLINE
  5
23E
330
2
100
AcDbEntity
  8
GAIKEI
  6
Continuous
 62
     1
100
AcDbSpline
210
0.0
220
0.0
230
1.0
 70
     8
 71
     3
 72
    14
 73
    10
 74
     8
 42
0.0000000001
 43
0.0000000001
 44
0.000001
 12
-0.2697836156325397
 22
-0.962920973255975
 32
0.0
 13
-0.9616843088117285
 23
-0.2741592423853476
 33
0.0
 40
0.0
 40
0.0
 40
0.0
 40
0.0
 40
0.0000378405968686
 40
0.0111891984537575
 40
0.0223415869632647
 40
0.0334914632170221
 40
0.0446413298613456
 40
0.055804098643003
 40
0.0669660519622285
 40
0.0669660519622285
 40
0.0669660519622285
 40
0.0669660519622285
 10
3.187867813731429
 20
-1.419035269185997
 30
0.0
 10
3.187864410807094
 20
-1.419047415020784
 30
0.0
 10
3.186857036586275
 20
-1.42263851806021
 30
0.0
 10
3.184216687222118
 20
-1.429646258386355
 30
0.0
 10
3.178584910815004
 20
-1.439330878658537
 30
0.0
 10
3.171358363354841
 20
-1.447894887002689
 30
0.0
 10
3.162805929840033
 20
-1.45513938530631
 30
0.0
 10
3.153127193399285
 20
-1.460797791405141
 30
0.0
 10
3.146126328326175
 20
-1.463437658475612
 30
0.0
 10
3.142548236538573
 20
-1.464457709364126
 30
0.0
 11
3.187867813731429
 21
-1.419035269185997
 31
0.0
 11
3.187857594316028
 21
-1.419071704069324
 31
0.0
 11
3.183937755790395
 21
-1.4295119503671
 31
0.0
 11
3.178319269302789
 21
-1.439145585451541
 31
0.0
 11
3.171138515737652
 21
-1.447675349040878
 31
0.0
 11
3.162622934119553
 21
-1.454872908166095
 31
0.0
 11
3.152991123766696
 21
-1.460515200190002
 31
0.0
 11
3.142548236538573
 21
-1.464457709364126
 31
0.0
  0
SPLINE
  5
23F
330
2
100
AcDbEntity
  8
GAIKEI
  6
Continuous
 62
     1
100
AcDbSpline
210
0.0
220
0.0
230
1.0
 70
     8
 71
     3
 72
    19
 73
    15
 74
    13
 42
0.0000000001
 43
0.0000000001
 44
0.000001
 12
-0.9639938394678313
 22
0.2659245710122878
 32
0.0
 13
-0.26346002757732
 23
0.9646703135625962
 33
0.0
 40
0.0
 40
0.0
 40
0.0
 40
0.0
 40
0.0080455644807581
 40
0.0160915728628373
 40
0.0243810347115529
 40
0.0326706179664451
 40
0.0406926484299212
 40
0.04871473539639
 40
0.0569835490403167
 40
0.0652522942794892
 40
0.073306220283737
 40
0.0813600285367534
 40
0.0896585537562679
 40
0.0979566571399819
 40
0.0979566571399819
 40
0.0979566571399819
 40
0.0979566571399819
 10
-33.68461790168197
 20
-1.494322716926774
 30
0.0
 10
-33.68720319321346
 20
-1.493609545832413
 30
0.0
 10
-33.69231624825431
 20
-1.491964129330582
 30
0.0
 10
-33.6998256584067
 20
-1.488832561654476
 30
0.0
 10
-33.70710919500567
 20
-1.485024341616323
 30
0.0
 10
-33.71402629733044
 20
-1.48060017269276
 30
0.0
 10
-33.72046084433362
 20
-1.47564557719177
 30
0.0
 10
-33.72644715855239
 20
-1.47016806031641
 30
0.0
 10
-33.73198959701162
 20
-1.464128614448796
 30
0.0
 10
-33.73698978887726
 20
-1.457619735614287
 30
0.0
 10
-33.74136529011528
 20
-1.45076128416349
 30
0.0
 10
-33.7451490956642
 20
-1.443548147848787
 30
0.0
 10
-33.74832535234293
 20
-1.435959229583943
 30
0.0
 10
-33.75001572713884
 20
-1.430683073937345
 30
0.0
 10
-33.75074446665428
 20
-1.428014762606295
 30
0.0
 11
-33.68461790168197
 21
-1.494322716926774
 31
0.0
 11
-33.69227756348619
 21
-1.491859575880738
 31
0.0
 11
-33.69970287949184
 21
-1.488760736361143
 31
0.0
 11
-33.70704928336636
 21
-1.484920709705164
 31
0.0
 11
-33.71403167732126
 21
-1.480452636138863
 31
0.0
 11
-33.72038848287741
 21
-1.475559342415152
 31
0.0
 11
-33.72630595283351
 21
-1.470142907889169
 31
0.0
 11
-33.73189796402789
 21
-1.464051680330555
 31
0.0
 11
-33.73693437444712
 21
-1.457493702352138
 31
0.0
 11
-33.74126755174188
 21
-1.450704771076686
 31
0.0
 11
-33.74500806156812
 21
-1.443572264561737
 31
0.0
 11
-33.74821412339566
 21
-1.435918079031267
 31
0.0
 11
-33.75074446665428
 21
-1.428014762606295
 31
0.0
  0
SPLINE
  5
240
330
2
100
AcDbEntity
  8
GAIKEI
  6
Continuous
 62
     1
100
AcDbSpline
210
0.0
220
0.0
230
1.0
 70
     8
 71
     3
 72
    19
 73
    15
 74
    13
 42
0.0000000001
 43
0.0000000001
 44
0.000001
 12
0.9639938394678312
 22
0.2659245710122878
 32
0.0
 13
0.26346002757732
 23
0.9646703135625962
 33
0.0
 40
0.0
 40
0.0
 40
0.0
 40
0.0
 40
0.0080455644807581
 40
0.0160915728627848
 40
0.0243810347115005
 40
0.0326706179664405
 40
0.0406926484298716
 40
0.0487147353963403
 40
0.0569835490402671
 40
0.0652522942794742
 40
0.0733062202836914
 40
0.0813600285367342
 40
0.0896585537562706
 40
0.0979566571399674
 40
0.0979566571399674
 40
0.0979566571399674
 40
0.0979566571399674
 10
3.151601663978794
 20
-1.494322716926774
 30
0.0
 10
3.154186955510283
 20
-1.493609545832413
 30
0.0
 10
3.159300010551135
 20
-1.491964129330611
 30
0.0
 10
3.166809420703458
 20
-1.488832561654476
 30
0.0
 10
3.174092957302462
 20
-1.485024341616295
 30
0.0
 10
3.181010059627283
 20
-1.480600172692788
 30
0.0
 10
3.187444606630322
 20
-1.475645577191727
 30
0.0
 10
3.193430920849209
 20
-1.470168060316439
 30
0.0
 10
3.198973359308382
 20
-1.464128614448782
 30
0.0
 10
3.203973551174044
 20
-1.457619735614301
 30
0.0
 10
3.208349052412074
 20
-1.45076128416349
 30
0.0
 10
3.212132857961023
 20
-1.443548147848787
 30
0.0
 10
3.215309114639779
 20
-1.435959229583986
 30
0.0
 10
3.216999489435664
 20
-1.430683073937331
 30
0.0
 10
3.217728228951102
 20
-1.428014762606295
 30
0.0
 11
3.151601663978794
 21
-1.494322716926774
 31
0.0
 11
3.159261325783006
 21
-1.491859575880738
 31
0.0
 11
3.166686641788601
 21
-1.488760736361143
 31
0.0
 11
3.174033045663122
 21
-1.484920709705164
 31
0.0
 11
3.181015439618079
 21
-1.480452636138863
 31
0.0
 11
3.187372245174174
 21
-1.475559342415152
 31
0.0
 11
3.193289715130276
 21
-1.470142907889169
 31
0.0
 11
3.198881726324657
 21
-1.464051680330555
 31
0.0
 11
3.203918136743936
 21
-1.457493702352138
 31
0.0
 11
3.208251314038648
 21
-1.450704771076686
 31
0.0
 11
3.211991823864934
 21
-1.443572264561737
 31
0.0
 11
3.215197885692532
 21
-1.435918079031267
 31
0.0
 11
3.217728228951102
 21
-1.428014762606295
 31
0.0
  0
SPLINE
  5
241
330
2
100
AcDbEntity
  8
GAIKEI
  6
Continuous
 62
     1
100
AcDbSpline
210
0.0
220
0.0
230
1.0
 70
     8
 71
     3
 72
    19
 73
    15
 74
    13
 42
0.0000000001
 43
0.0000000001
 44
0.000001
 12
0.2634414923284027
 22
0.9646753755122935
 32
0.0
 13
0.9639886149825482
 23
0.2659435093850355
 33
0.0
 40
0.0
 40
0.0
 40
0.0
 40
0.0
 40
0.0080469836170657
 40
0.0160943919464651
 40
0.0243850109521406
 40
0.0326757504936013
 40
0.0406967337973738
 40
0.0487177849602453
 40
0.0569854589412216
 40
0.0652530764933947
 40
0.0733066642993709
 40
0.0813601339663856
 40
0.0896586163757191
 40
0.0979566568646854
 40
0.0979566568646854
 40
0.0979566568646854
 40
0.0979566568646854
 10
-33.75074446665428
 20
19.25776052478829
 30
0.0
 10
-33.75003783019668
 20
19.2603481004358
 30
0.0
 10
-33.74840542739943
 20
19.26546630252289
 30
0.0
 10
-33.74529331534143
 20
19.2729852207238
 30
0.0
 10
-33.74150419899744
 20
19.28028010019324
 30
0.0
 10
-33.73709870193804
 20
19.28720960416993
 30
0.0
 10
-33.73216206257394
 20
19.29365753809884
 30
0.0
 10
-33.72670195101623
 20
19.29965827243644
 30
0.0
 10
-33.72067883017502
 20
19.30521681985348
 30
0.0
 10
-33.71418462750976
 20
19.31023463974117
 30
0.0
 10
-33.70733883068425
 20
19.31462881275658
 30
0.0
 10
-33.70013627012151
 20
19.31843221805013
 30
0.0
 10
-33.69255601626992
 20
19.32162875545467
 30
0.0
 10
-33.68728430720131
 20
19.32333287577246
 30
0.0
 10
-33.68461790168197
 20
19.32406847910869
 30
0.0
 11
-33.75074446665428
 21
19.25776052478829
 31
0.0
 11
-33.7483008263564
 21
19.2654279156352
 31
0.0
 11
-33.745221165825
 21
19.27286272171656
 31
0.0
 11
-33.74140042937364
 21
19.28022048031983
 31
0.0
 11
-33.73695079369168
 21
19.28721600892169
 31
0.0
 11
-33.73207566967688
 21
19.29358544108294
 31
0.0
 11
-33.72667640633574
 21
19.29951718209713
 31
0.0
 11
-33.7206016549161
 21
19.30512540742535
 31
0.0
 11
-33.71405864783838
 21
19.31017940742123
 31
0.0
 11
-33.70728202838768
 21
19.31453118809008
 31
0.0
 11
-33.70016006642317
 21
19.31829101105458
 31
0.0
 11
-33.69251453275984
 21
19.32151754122756
 31
0.0
 11
-33.68461790168197
 21
19.32406847910869
 31
0.0
  0
SPLINE
  5
242
330
2
100
AcDbEntity
  8
GAIKEI
  6
Continuous
 62
     1
100
AcDbSpline
210
0.0
220
0.0
230
1.0
 70
     8
 71
     3
 72
    19
 73
    15
 74
    13
 42
0.0000000001
 43
0.0000000001
 44
0.000001
 12
-0.2634414923284028
 22
0.9646753755122933
 32
0.0
 13
-0.9639886149825482
 23
0.2659435093850356
 33
0.0
 40
0.0
 40
0.0
 40
0.0
 40
0.0
 40
0.0080469836170484
 40
0.0160943919464478
 40
0.0243850109521233
 40
0.032675750493584
 40
0.0406967337973566
 40
0.0487177849602281
 40
0.0569854589412043
 40
0.0652530764933774
 40
0.0733066642993536
 40
0.0813601339663683
 40
0.0896586163757019
 40
0.0979566568646681
 40
0.0979566568646681
 40
0.0979566568646681
 40
0.0979566568646681
 10
3.217728228951045
 20
19.25776052478829
 30
0.0
 10
3.217021592493438
 20
19.2603481004358
 30
0.0
 10
3.21538918969631
 20
19.26546630252292
 30
0.0
 10
3.212277077638191
 20
19.2729852207238
 30
0.0
 10
3.208487961294252
 20
19.28028010019325
 30
0.0
 10
3.204082464234915
 20
19.28720960416996
 30
0.0
 10
3.19914582487064
 20
19.29365753809881
 30
0.0
 10
3.193685713312987
 20
19.29965827243646
 30
0.0
 10
3.187662592471838
 20
19.30521681985347
 30
0.0
 10
3.181168389806686
 20
19.31023463974117
 30
0.0
 10
3.174322592981013
 20
19.31462881275661
 30
0.0
 10
3.167120032418267
 20
19.31843221805013
 30
0.0
 10
3.159539778566795
 20
19.32162875545467
 30
0.0
 10
3.154268069498129
 20
19.32333287577246
 30
0.0
 10
3.151601663978794
 20
19.32406847910869
 30
0.0
 11
3.217728228951045
 21
19.25776052478829
 31
0.0
 11
3.215284588653219
 21
19.2654279156352
 31
0.0
 11
3.212204928121821
 21
19.27286272171656
 31
0.0
 11
3.208384191670461
 21
19.28022048031983
 31
0.0
 11
3.203934555988496
 21
19.28721600892169
 31
0.0
 11
3.199059431973694
 21
19.29358544108294
 31
0.0
 11
3.193660168632561
 21
19.29951718209713
 31
0.0
 11
3.187585417212915
 21
19.30512540742535
 31
0.0
 11
3.181042410135205
 21
19.31017940742123
 31
0.0
 11
3.174265790684501
 21
19.31453118809008
 31
0.0
 11
3.167143828719986
 21
19.31829101105458
 31
0.0
 11
3.159498295056664
 21
19.32151754122756
 31
0.0
 11
3.151601663978794
 21
19.32406847910869
 31
0.0
  0
SPLINE
  5
243
330
2
100
AcDbEntity
  8
GAIKEI
  6
Continuous
 62
     1
100
AcDbSpline
210
0.0
220
0.0
230
1.0
 70
     8
 71
     3
 72
    19
 73
    15
 74
    13
 42
0.0000000001
 43
0.0000000001
 44
0.000001
 12
0.0944471245025448
 22
0.9955298793472755
 32
0.0
 13
0.9955257326591484
 23
0.0944908229060694
 33
0.0
 40
0.0
 40
0.0
 40
0.0
 40
0.0
 40
0.0114746607580177
 40
0.0229538204373724
 40
0.0343591230295864
 40
0.0457936629856653
 40
0.0572035280088703
 40
0.0746287115525523
 40
0.0920556101582164
 40
0.1090656328910511
 40
0.1260693628544404
 40
0.1369222365398771
 40
0.1478018299471676
 40
0.1586464376140127
 40
0.1586464376140127
 40
0.1586464376140127
 40
0.1586464376140127
 10
-35.33994836581712
 20
20.78427694748336
 30
0.0
 10
-35.33958711624604
 20
20.78808473669669
 30
0.0
 10
-35.3384498602608
 20
20.79566988345489
 30
0.0
 10
-35.33549086291828
 20
20.80675661089441
 30
0.0
 10
-35.3313979241577
 20
20.81745998271235
 30
0.0
 10
-35.32627793864989
 20
20.8276844134283
 30
0.0
 10
-35.31914378584537
 20
20.83907661914103
 30
0.0
 10
-35.30943151182535
 20
20.85112379432148
 30
0.0
 10
-35.29678803897534
 20
20.86299506670892
 30
0.0
 10
-35.28272782274758
 20
20.87290315540102
 30
0.0
 10
-35.26937127501077
 20
20.87975538965145
 30
0.0
 10
-35.25722688471092
 20
20.88419604630828
 30
0.0
 10
-35.24669403853204
 20
20.88691305630664
 30
0.0
 10
-35.23951390862862
 20
20.88796852803534
 30
0.0
 10
-35.23591521329763
 20
20.88831010000285
 30
0.0
 11
-35.33994836581712
 21
20.78427694748336
 31
0.0
 11
-35.33824062395325
 21
20.79562470740029
 31
0.0
 11
-35.33529374605502
 21
20.80671929143912
 31
0.0
 11
-35.33122920944277
 21
20.81737581446785
 31
0.0
 11
-35.32611585284087
 21
20.82760333546054
 31
0.0
 11
-35.32006157210094
 21
20.83727436654891
 31
0.0
 11
-35.30913754726032
 21
20.85084963182445
 31
0.0
 11
-35.29642687378123
 21
20.86277072594044
 31
0.0
 11
-35.28251983441033
 21
20.87256503803965
 31
0.0
 11
-35.26737699307955
 21
20.88029947565093
 31
0.0
 11
-35.25718311634762
 21
20.88402375233071
 31
0.0
 11
-35.2466444887229
 21
20.88672658572523
 31
0.0
 11
-35.23591521329763
 21
20.88831010000285
 31
0.0
  0
SPLINE
  5
244
330
2
100
AcDbEntity
  8
GAIKEI
  6
Continuous
 62
     1
100
AcDbSpline
210
0.0
220
0.0
230
1.0
 70
     8
 71
     3
 72
    19
 73
    15
 74
    13
 42
0.0000000001
 43
0.0000000001
 44
0.000001
 12
-0.995529879347374
 22
0.0944471245015059
 32
0.0
 13
-0.0944908229060039
 23
0.9955257326591544
 33
0.0
 40
0.0
 40
0.0
 40
0.0
 40
0.0
 40
0.011474660758024
 40
0.0229538204374025
 40
0.0343591230296083
 40
0.0457936629856873
 40
0.0572035280088863
 40
0.0746287115525994
 40
0.0920556101582446
 40
0.1090656328910806
 40
0.1260693628544956
 40
0.1369222365398643
 40
0.1478018299471823
 40
0.1586464376139972
 40
0.1586464376139972
 40
0.1586464376139972
 40
0.1586464376139972
 10
-35.23591521329763
 20
-3.058564337820939
 30
0.0
 10
-35.23972300251097
 20
-3.058203088249868
 30
0.0
 10
-35.24730814926915
 20
-3.057065832264527
 30
0.0
 10
-35.25839487670874
 20
-3.054106834922066
 30
0.0
 10
-35.26909824852658
 20
-3.050013896161459
 30
0.0
 10
-35.2793226792426
 20
-3.044893910653811
 30
0.0
 10
-35.29071488495527
 20
-3.037759757849045
 30
0.0
 10
-35.30276206013582
 20
-3.028047483829212
 30
0.0
 10
-35.31463333252313
 20
-3.015404010979011
 30
0.0
 10
-35.32454142121532
 20
-3.001343794751392
 30
0.0
 10
-35.33139365546578
 20
-2.987987247014544
 30
0.0
 10
-35.33583431212259
 20
-2.975842856714677
 30
0.0
 10
-35.33855132212091
 20
-2.965310010535901
 30
0.0
 10
-35.33960679384961
 20
-2.958129880632412
 30
0.0
 10
-35.33994836581712
 20
-2.954531185301448
 30
0.0
 11
-35.23591521329763
 21
-3.058564337820939
 31
0.0
 11
-35.24726297321456
 21
-3.056856595957043
 31
0.0
 11
-35.25835755725342
 21
-3.053909718058804
 31
0.0
 11
-35.26901408028215
 21
-3.049845181446528
 31
0.0
 11
-35.27924160127486
 21
-3.044731824844689
 31
0.0
 11
-35.28891263236318
 21
-3.0386775441047
 31
0.0
 11
-35.30248789763874
 21
-3.027753519264081
 31
0.0
 11
-35.3144089917547
 21
-3.015042845784989
 31
0.0
 11
-35.32420330385395
 21
-3.001135806414083
 31
0.0
 11
-35.33193774146525
 21
-2.985992965083312
 31
0.0
 11
-35.335662018145
 21
-2.975799088351436
 31
0.0
 11
-35.3383648515395
 21
-2.965260460726682
 31
0.0
 11
-35.33994836581712
 21
-2.954531185301448
 31
0.0
  0
SPLINE
  5
245
330
2
100
AcDbEntity
  8
GAIKEI
  6
Continuous
 62
     1
100
AcDbSpline
210
0.0
220
0.0
230
1.0
 70
     8
 71
     3
 72
    19
 73
    15
 74
    13
 42
0.0000000001
 43
0.0000000001
 44
0.000001
 12
-0.0944471245025449
 22
0.9955298793472755
 32
0.0
 13
-0.9955257326591484
 23
0.0944908229060694
 33
0.0
 40
0.0
 40
0.0
 40
0.0
 40
0.0
 40
0.0114746607580262
 40
0.0229538204373808
 40
0.0343591230295949
 40
0.0457936629856738
 40
0.057203528008909
 40
0.074628711552591
 40
0.092055610158255
 40
0.1090656328910897
 40
0.1260693628544791
 40
0.1369222365398624
 40
0.1478018299471529
 40
0.158646437613998
 40
0.158646437613998
 40
0.158646437613998
 40
0.158646437613998
 10
4.806932128113999
 20
20.78427694748336
 30
0.0
 10
4.806570878542913
 20
20.78808473669669
 30
0.0
 10
4.805433622557615
 20
20.79566988345489
 30
0.0
 10
4.80247462521504
 20
20.80675661089443
 30
0.0
 10
4.798381686454547
 20
20.81745998271231
 30
0.0
 10
4.793261700946771
 20
20.8276844134283
 30
0.0
 10
4.786127548142104
 20
20.83907661914103
 30
0.0
 10
4.776415274122115
 20
20.85112379432147
 30
0.0
 10
4.763771801272099
 20
20.86299506670892
 30
0.0
 10
4.749711585044394
 20
20.87290315540101
 30
0.0
 10
4.736355037307419
 20
20.87975538965142
 30
0.0
 10
4.724210647007765
 20
20.88419604630832
 30
0.0
 10
4.713677800828889
 20
20.88691305630662
 30
0.0
 10
4.706497670925443
 20
20.88796852803534
 30
0.0
 10
4.70289897559445
 20
20.88831010000285
 30
0.0
 11
4.806932128113999
 21
20.78427694748336
 31
0.0
 11
4.805224386250074
 21
20.79562470740029
 31
0.0
 11
4.802277508351835
 21
20.80671929143912
 31
0.0
 11
4.798212971739587
 21
20.81737581446785
 31
0.0
 11
4.793099615137691
 21
20.82760333546054
 31
0.0
 11
4.787045334397703
 21
20.83727436654891
 31
0.0
 11
4.776121309557083
 21
20.85084963182445
 31
0.0
 11
4.763410636077992
 21
20.86277072594044
 31
0.0
 11
4.749503596707086
 21
20.87256503803965
 31
0.0
 11
4.734360755376314
 21
20.88029947565093
 31
0.0
 11
4.724166878644439
 21
20.88402375233071
 31
0.0
 11
4.713628251019713
 21
20.88672658572523
 31
0.0
 11
4.70289897559445
 21
20.88831010000285
 31
0.0
  0
SPLINE
  5
246
330
2
100
AcDbEntity
  8
GAIKEI
  6
Continuous
 62
     1
100
AcDbSpline
210
0.0
220
0.0
230
1.0
 70
     8
 71
     3
 72
    19
 73
    15
 74
    13
 42
0.0000000001
 43
0.0000000001
 44
0.000001
 12
0.995529879347374
 22
0.0944471245015057
 32
0.0
 13
0.0944908229060041
 23
0.9955257326591546
 33
0.0
 40
0.0
 40
0.0
 40
0.0
 40
0.0
 40
0.011474660758024
 40
0.0229538204374025
 40
0.0343591230296083
 40
0.0457936629856364
 40
0.0572035280088836
 40
0.0746287115525967
 40
0.092055610158242
 40
0.109065632891078
 40
0.126069362854467
 40
0.136922236539865
 40
0.1478018299471759
 40
0.1586464376139991
 40
0.1586464376139991
 40
0.1586464376139991
 40
0.1586464376139991
 10
4.70289897559445
 20
-3.058564337820939
 30
0.0
 10
4.70670676480779
 20
-3.058203088249868
 30
0.0
 10
4.714291911565908
 20
-3.057065832264527
 30
0.0
 10
4.725378639005555
 20
-3.054106834922066
 30
0.0
 10
4.736082010823366
 20
-3.050013896161502
 30
0.0
 10
4.746306441539388
 20
-3.044893910653797
 30
0.0
 10
4.757698647252141
 20
-3.037759757849073
 30
0.0
 10
4.769745822432639
 20
-3.028047483829183
 30
0.0
 10
4.781617094819921
 20
-3.015404010979025
 30
0.0
 10
4.791525183512135
 20
-3.001343794751434
 30
0.0
 10
4.798377417762537
 20
-2.987987247014487
 30
0.0
 10
4.802818074419434
 20
-2.975842856714734
 30
0.0
 10
4.805535084417726
 20
-2.965310010535858
 30
0.0
 10
4.806590556146488
 20
-2.958129880632426
 30
0.0
 10
4.806932128113999
 20
-2.954531185301448
 30
0.0
 11
4.70289897559445
 21
-3.058564337820939
 31
0.0
 11
4.71424673551138
 21
-3.056856595957043
 31
0.0
 11
4.725341319550238
 21
-3.053909718058804
 31
0.0
 11
4.735997842578967
 21
-3.049845181446528
 31
0.0
 11
4.746225363571625
 21
-3.044731824844689
 31
0.0
 11
4.755896394659998
 21
-3.0386775441047
 31
0.0
 11
4.769471659935561
 21
-3.027753519264081
 31
0.0
 11
4.781392754051523
 21
-3.015042845784989
 31
0.0
 11
4.791187066150769
 21
-3.001135806414083
 31
0.0
 11
4.798921503762016
 21
-2.985992965083312
 31
0.0
 11
4.802645780441821
 21
-2.975799088351436
 31
0.0
 11
4.805348613836315
 21
-2.965260460726682
 31
0.0
 11
4.806932128113999
 21
-2.954531185301448
 31
0.0
  0
LINE
  5
247
330
2
100
AcDbEntity
  8
GAIKEI
  6
Continuous
 62
     1
100
AcDbLine
 10
26.27299421083251
 20
20.47537789215079
 30
0.0
 11
26.4414765793631
 21
20.4829770993785
 31
0.0
  0
LINE
  5
248
330
2
100
AcDbEntity
  8
GAIKEI
  6
Continuous
 62
     1
100
AcDbLine
 10
26.42265850750346
 20
20.61786635005217
 30
0.0
 11
26.27299421083251
 21
20.62269071199773
 31
0.0
  0
LINE
  5
249
330
2
100
AcDbEntity
  8
GAIKEI
  6
Continuous
 62
     1
100
AcDbLine
 10
27.35529119900855
 20
-0.9415959698515621
 30
0.0
 11
27.32642113409657
 21
-0.9582641173715273
 31
0.0
  0
LINE
  5
24A
330
2
100
AcDbEntity
  8
GAIKEI
  6
Continuous
 62
     1
100
AcDbLine
 10
27.42643001921647
 20
-0.9415959698515621
 30
0.0
 11
27.35529119900855
 21
-0.9415959698515621
 31
0.0
  0
LINE
  5
24B
330
2
100
AcDbEntity
  8
GAIKEI
  6
Continuous
 62
     1
100
AcDbLine
 10
27.32642113409657
 20
-1.056606187739589
 30
0.0
 11
27.42643001921647
 21
-1.045355188163568
 31
0.0
  0
LINE
  5
24C
330
2
100
AcDbEntity
  8
GAIKEI
  6
Continuous
 62
     1
100
AcDbLine
 10
27.45976631425651
 20
-1.041604854971524
 30
0.0
 11
27.42643001921647
 21
-1.045355188163568
 31
0.0
  0
LINE
  5
24D
330
2
100
AcDbEntity
  8
GAIKEI
  6
Continuous
 62
     1
100
AcDbLine
 10
27.45976631425651
 20
-0.9415959698515621
 30
0.0
 11
27.45976631425651
 21
-1.041604854971524
 31
0.0
  0
LINE
  5
24E
330
2
100
AcDbEntity
  8
GAIKEI
  6
Continuous
 62
     1
100
AcDbLine
 10
27.42643001921647
 20
-0.9415959698515621
 30
0.0
 11
27.45976631425651
 21
-0.9415959698515621
 31
0.0
  0
LINE
  5
24F
330
2
100
AcDbEntity
  8
GAIKEI
  6
Continuous
 62
     1
100
AcDbLine
 10
27.35975742913649
 20
-0.6582374620115275
 30
0.0
 11
27.32642113409657
 21
-0.6249011669715401
 31
0.0
  0
LINE
  5
250
330
2
100
AcDbEntity
  8
GAIKEI
  6
Continuous
 62
     1
100
AcDbLine
 10
27.32642113409657
 20
-0.9582641173715273
 30
0.0
 11
27.35975742913649
 21
-0.92492782233154
 31
0.0
  0
LINE
  5
251
330
2
100
AcDbEntity
  8
GAIKEI
  6
Continuous
 62
     1
100
AcDbLine
 10
27.35975742913649
 20
-0.92492782233154
 30
0.0
 11
27.35975742913649
 21
-0.6582374620115275
 31
0.0
  0
LINE
  5
252
330
2
100
AcDbEntity
  8
GAIKEI
  6
Continuous
 62
     1
100
AcDbLine
 10
27.05973077377644
 20
-0.608233019451518
 30
0.0
 11
27.32642113409657
 21
-0.608233019451518
 31
0.0
  0
LINE
  5
253
330
2
100
AcDbEntity
  8
GAIKEI
  6
Continuous
 62
     1
100
AcDbLine
 10
27.32642113409657
 20
-1.074941150011568
 30
0.0
 11
27.06720317098234
 21
-1.074941150011568
 31
0.0
  0
LINE
  5
254
330
2
100
AcDbEntity
  8
GAIKEI
  6
Continuous
 62
     1
100
AcDbLine
 10
27.32642113409657
 20
-0.608233019451518
 30
0.0
 11
27.32642113409657
 21
-1.074941150011568
 31
0.0
  0
LINE
  5
255
330
2
100
AcDbEntity
  8
GAIKEI
  6
Continuous
 62
     1
100
AcDbLine
 10
24.76947758826578
 20
-2.738536816017358
 30
0.0
 11
24.76999400081218
 21
-2.738582020033447
 31
0.0
  0
ELLIPSE
  5
256
330
2
100
AcDbEntity
  8
GAIKEI
  6
Continuous
 62
     7
100
AcDbEllipse
 10
25.16233445763556
 20
20.87695580174901
 30
0.0
 11
-0.2869767173597468
 21
0.0122233693731572
 31
0.0
210
0.0
220
0.0
230
1.0
 40
0.0979550000005576
 41
-0.0556951287901055
 42
0.0307150442121456
  0
ELLIPSE
  5
257
330
2
100
AcDbEntity
  8
GAIKEI
  6
Continuous
 62
     1
100
AcDbEllipse
 10
25.16233445763556
 20
-3.047210039567062
 30
0.0
 11
-0.2001980877510127
 21
0.2902428013319058
 31
0.0
210
0.0
220
0.0
230
1.0
 40
0.7084260000000244
 41
0.7388798675130728
 42
0.8252900405155028
  0
ELLIPSE
  5
258
330
2
100
AcDbEntity
  8
GAIKEI
  6
Continuous
 62
     1
100
AcDbEllipse
 10
25.16233445763556
 20
20.87695580174901
 30
0.0
 11
0.2001980877512309
 21
0.2902428013316132
 31
0.0
210
0.0
220
0.0
230
1.0
 40
0.7084260000000006
 41
2.316302613075226
 42
2.402712786077776
  0
ELLIPSE
  5
259
330
2
100
AcDbEntity
  8
GAIKEI
  6
Continuous
 62
     7
100
AcDbEllipse
 10
24.91914645200905
 20
20.86421083611077
 30
0.0
 11
-0.0026170303216906
 21
0.049935913209143
 31
0.0
210
0.0
220
0.0
230
1.0
 40
0.9969939999998402
 41
-0.0000000000786828
 42
1.015719002433118
  0
ELLIPSE
  5
25A
330
2
100
AcDbEntity
  8
GAIKEI
  6
Continuous
 62
     1
100
AcDbEllipse
 10
26.20814658288816
 20
20.84831635732607
 30
0.0
 11
-0.0034917656106537
 21
0.1333451488971089
 31
0.0
210
0.0
220
0.0
230
1.0
 40
0.0261499999999963
 41
0.0006847638988461
 42
1.568742034989258
  0
ELLIPSE
  5
25B
330
2
100
AcDbEntity
  8
GAIKEI
  6
Continuous
 62
     1
100
AcDbEllipse
 10
25.15971742512966
 20
20.87695580174901
 30
0.0
 11
0.1794014869528182
 21
0.2652613547454717
 31
0.0
210
0.0
220
0.0
230
1.0
 40
0.6240159999999813
 41
2.309985920125742
 42
2.396396093127902
  0
ELLIPSE
  5
25C
330
2
100
AcDbEntity
  8
GAIKEI
  6
Continuous
 62
     1
100
AcDbEllipse
 10
25.15971742512966
 20
-3.047210039567062
 30
0.0
 11
-0.1794014869538512
 21
0.2652613547436747
 31
0.0
210
0.0
220
0.0
230
1.0
 40
0.6240159999999943
 41
0.7451965604551792
 42
0.8316067334577596
  0
ELLIPSE
  5
25D
330
2
100
AcDbEntity
  8
GAIKEI
  6
Continuous
 62
     1
100
AcDbEllipse
 10
23.66027718841406
 20
20.84759969065942
 30
0.0
 11
2.544377609282683
 21
0.0
 31
0.0
210
0.0
220
0.0
230
1.0
 40
0.052408
 41
0.0
 42
0.0013695278703807
  0
ARC
  5
25E
330
2
100
AcDbEntity
  8
GAIKEI
  6
Continuous
 62
     7
100
AcDbCircle
 10
24.80633056240572
 20
20.71705276210094
 30
0.0
 40
0.0333362950400013
100
AcDbArc
 50
147.9140249999921
 51
180.0
  0
ARC
  5
25F
330
2
100
AcDbEntity
  8
GAIKEI
  6
Continuous
 62
     7
100
AcDbCircle
 10
24.80633056240572
 20
-2.887306999919019
 30
0.0
 40
0.0333362950400013
100
AcDbArc
 50
180.0
 51
212.0859750000079
  0
ARC
  5
260
330
2
100
AcDbEntity
  8
GAIKEI
  6
Continuous
 62
     7
100
AcDbCircle
 10
24.91823573776492
 20
20.86416313187255
 30
0.0
 40
0.0500044425600019
100
AcDbArc
 50
92.99999999999908
 51
147.9140249999921
  0
ARC
  5
261
330
2
100
AcDbEntity
  8
GAIKEI
  6
Continuous
 62
     7
100
AcDbCircle
 10
24.91823573776492
 20
-3.034417369690686
 30
0.0
 40
0.0500044425600019
100
AcDbArc
 50
212.0859750000079
 51
267.0000000000009
  0
ARC
  5
262
330
2
100
AcDbEntity
  8
GAIKEI
  6
Continuous
 62
     7
100
AcDbCircle
 10
26.23965791579247
 20
-3.118579480264202
 30
0.0
 40
0.0333362950400013
100
AcDbArc
 50
270.0
 51
0.0
  0
ARC
  5
263
330
2
100
AcDbEntity
  8
GAIKEI
  6
Continuous
 62
     7
100
AcDbCircle
 10
26.23965791579247
 20
20.94832524244606
 30
0.0
 40
0.0333362950400013
100
AcDbArc
 50
0.0
 51
90.0
  0
LINE
  5
264
330
2
100
AcDbEntity
  8
GAIKEI
  6
Continuous
 62
     7
100
AcDbLine
 10
24.77299426736579
 20
20.71705276210094
 30
0.0
 11
24.77299426736579
 21
-2.887306999919019
 31
0.0
  0
LINE
  5
265
330
2
100
AcDbEntity
  8
GAIKEI
  6
Continuous
 62
     7
100
AcDbLine
 10
24.91652941950326
 20
20.91414677258445
 30
0.0
 11
24.91561870525902
 21
20.91409903500994
 31
0.0
  0
LINE
  5
266
330
2
100
AcDbEntity
  8
GAIKEI
  6
Continuous
 62
     7
100
AcDbLine
 10
24.91561870525902
 20
-3.084353272828082
 30
0.0
 11
24.91652941950326
 21
-3.084401010402586
 31
0.0
  0
LINE
  5
267
330
2
100
AcDbEntity
  8
GAIKEI
  6
Continuous
 62
     7
100
AcDbLine
 10
24.87586937379706
 20
-3.060979262870432
 30
0.0
 11
24.77808631976052
 21
-2.905014973153924
 31
0.0
  0
LINE
  5
268
330
2
100
AcDbEntity
  8
GAIKEI
  6
Continuous
 62
     1
100
AcDbLine
 10
24.77299426736579
 20
-2.764083533753023
 30
0.0
 11
24.87586937379706
 21
-2.928169663626533
 31
0.0
  0
LINE
  5
269
330
2
100
AcDbEntity
  8
GAIKEI
  6
Continuous
 62
     1
100
AcDbLine
 10
24.87586937379706
 20
20.75791542580839
 30
0.0
 11
24.77299426736579
 21
20.59382929593494
 31
0.0
  0
LINE
  5
26A
330
2
100
AcDbEntity
  8
GAIKEI
  6
Continuous
 62
     7
100
AcDbLine
 10
24.77808631976052
 20
20.73476073533584
 30
0.0
 11
24.87586937379706
 21
20.89072502505229
 31
0.0
  0
LINE
  5
26B
330
2
100
AcDbEntity
  8
GAIKEI
  6
Continuous
 62
     1
100
AcDbLine
 10
24.87586937379706
 20
-2.928169663626533
 30
0.0
 11
24.87586937379706
 21
20.75791542580839
 31
0.0
  0
LINE
  5
26C
330
2
100
AcDbEntity
  8
GAIKEI
  6
Continuous
 62
     7
100
AcDbLine
 10
24.91652941950326
 20
20.91414677258445
 30
0.0
 11
26.20465240578733
 21
20.98166140414088
 31
0.0
  0
LINE
  5
26D
330
2
100
AcDbEntity
  8
GAIKEI
  6
Continuous
 62
     7
100
AcDbLine
 10
26.20465240578733
 20
-3.151915641959021
 30
0.0
 11
24.91652941950326
 21
-3.084401010402586
 31
0.0
  0
LINE
  5
26E
330
2
100
AcDbEntity
  8
GAIKEI
  6
Continuous
 62
     7
100
AcDbLine
 10
26.23965791579247
 20
-3.151915775304132
 30
0.0
 11
26.20465480600046
 21
-3.151915775304132
 31
0.0
  0
LINE
  5
26F
330
2
100
AcDbEntity
  8
GAIKEI
  6
Continuous
 62
     7
100
AcDbLine
 10
26.27299421083251
 20
-3.018570595144183
 30
0.0
 11
26.27299421083251
 21
-3.118579480264202
 31
0.0
  0
LINE
  5
270
330
2
100
AcDbEntity
  8
GAIKEI
  6
Continuous
 62
     7
100
AcDbLine
 10
26.20465480600046
 20
20.98166153748605
 30
0.0
 11
26.23965791579247
 21
20.98166153748605
 31
0.0
  0
LINE
  5
271
330
2
100
AcDbEntity
  8
GAIKEI
  6
Continuous
 62
     7
100
AcDbLine
 10
26.20465480600046
 20
20.98166153748605
 30
0.0
 11
26.20465240578733
 21
20.98166140414088
 31
0.0
  0
LINE
  5
272
330
2
100
AcDbEntity
  8
GAIKEI
  6
Continuous
 62
     1
100
AcDbLine
 10
26.27299421083251
 20
-3.018570595144183
 30
0.0
 11
26.23965791579247
 21
-3.018570595144183
 31
0.0
  0
LINE
  5
273
330
2
100
AcDbEntity
  8
GAIKEI
  6
Continuous
 62
     7
100
AcDbLine
 10
26.27299421083251
 20
-3.018570595144183
 30
0.0
 11
26.27299421083251
 21
20.94832524244606
 31
0.0
  0
LINE
  5
274
330
2
100
AcDbEntity
  8
GAIKEI
  6
Continuous
 62
     1
100
AcDbLine
 10
26.20465480600046
 20
-3.018570595144183
 30
0.0
 11
26.23965791579247
 21
-3.018570595144183
 31
0.0
  0
LINE
  5
275
330
2
100
AcDbEntity
  8
GAIKEI
  6
Continuous
 62
     1
100
AcDbLine
 10
26.20465240578733
 20
20.84849897355025
 30
0.0
 11
24.91652941950326
 21
20.78098430865759
 31
0.0
  0
LINE
  5
276
330
2
100
AcDbEntity
  8
GAIKEI
  6
Continuous
 62
     1
100
AcDbLine
 10
24.91561870525902
 20
20.75791542580839
 30
0.0
 11
24.91561870525902
 21
-2.928169663626533
 31
0.0
  0
LINE
  5
277
330
2
100
AcDbEntity
  8
GAIKEI
  6
Continuous
 62
     1
100
AcDbLine
 10
24.87536664310756
 20
-2.949081296391113
 30
0.0
 11
26.20465240578733
 21
-3.018753211368391
 31
0.0
  0
LINE
  5
278
330
2
100
AcDbEntity
  8
GAIKEI
  6
Continuous
 62
     1
100
AcDbLine
 10
26.20465480600046
 20
20.84831635732604
 30
0.0
 11
26.20465480600046
 21
-3.151915775304132
 31
0.0
  0
ARC
  5
279
330
2
100
AcDbEntity
  8
GAIKEI
  6
Continuous
 62
     1
100
AcDbCircle
 10
26.04797421931244
 20
-1.498435541320077
 30
0.0
 40
0.3000266553600113
100
AcDbArc
 50
0.0
 51
16.60155000000206
  0
ARC
  5
27A
330
2
100
AcDbEntity
  8
GAIKEI
  6
Continuous
 62
     1
100
AcDbCircle
 10
26.04797421931244
 20
-1.498435541320077
 30
0.0
 40
0.3000266553600113
100
AcDbArc
 50
343.3984499999979
 51
0.0
  0
ARC
  5
27B
330
2
100
AcDbEntity
  8
GAIKEI
  6
Continuous
 62
     1
100
AcDbCircle
 10
26.29396354048367
 20
-1.571775390408106
 30
0.0
 40
0.0433371835520016
100
AcDbArc
 50
270.0
 51
343.3984499999979
  0
ARC
  5
27C
330
2
100
AcDbEntity
  8
GAIKEI
  6
Continuous
 62
     1
100
AcDbCircle
 10
26.29396354048367
 20
-1.425095692232105
 30
0.0
 40
0.0433371835520016
100
AcDbArc
 50
16.60155000000206
 51
90.0
  0
LINE
  5
27D
330
2
100
AcDbEntity
  8
GAIKEI
  6
Continuous
 62
     1
100
AcDbLine
 10
26.27299421083251
 20
-1.615112573960118
 30
0.0
 11
26.29396354048367
 21
-1.615112573960118
 31
0.0
  0
LINE
  5
27E
330
2
100
AcDbEntity
  8
GAIKEI
  6
Continuous
 62
     1
100
AcDbLine
 10
26.29396354048367
 20
-1.381758508680093
 30
0.0
 11
26.27299421083251
 21
-1.381758508680093
 31
0.0
  0
ELLIPSE
  5
27F
330
2
100
AcDbEntity
  8
GAIKEI
  6
Continuous
 62
     1
100
AcDbEllipse
 10
26.96034417727606
 20
-2.008039116186523
 30
0.0
 11
-0.0174468687851453
 21
0.3329060880623922
 31
0.0
210
0.0
220
0.0
230
1.0
 40
0.765609999999989
 41
3.141592653589826
 42
4.672286563984031
  0
ELLIPSE
  5
280
330
2
100
AcDbEntity
  8
GAIKEI
  6
Continuous
 62
     1
100
AcDbEllipse
 10
27.52810571908856
 20
2.708604892728089
 30
0.0
 11
0.0
 21
0.2166859177600031
 31
0.0
210
0.0
220
0.0
230
1.0
 40
0.1391730000000056
 41
3.141592653589793
 42
6.283185307179586
  0
ELLIPSE
  5
281
330
2
100
AcDbEntity
  8
GAIKEI
  6
Continuous
 62
     1
100
AcDbEllipse
 10
27.52810571908856
 20
15.06113553838185
 30
0.0
 11
0.0
 21
0.2166859177600031
 31
0.0
210
0.0
220
0.0
230
1.0
 40
0.1391730000000056
 41
3.141592653589793
 42
6.283185307179586
  0
ELLIPSE
  5
282
330
2
100
AcDbEntity
  8
GAIKEI
  6
Continuous
 62
     7
100
AcDbEllipse
 10
26.96453058254349
 20
0.0871293285007653
 30
0.0
 11
-0.2142815740456751
 21
0.2553708356956748
 31
0.0
210
0.0
220
0.0
230
1.0
 40
0.160711
 41
3.141592653589792
 42
3.14434683352869
  0
ARC
  5
283
330
2
100
AcDbEntity
  8
GAIKEI
  6
Continuous
 62
     1
100
AcDbCircle
 10
27.90813948254458
 20
0.2254329128528525
 30
0.0
 40
0.1666814752000063
100
AcDbArc
 50
131.5352399999968
 51
178.4006089999968
  0
ARC
  5
284
330
2
100
AcDbEntity
  8
GAIKEI
  6
Continuous
 62
     1
100
AcDbCircle
 10
27.90813948254458
 20
0.2254329128528525
 30
0.0
 40
0.1666814752000063
100
AcDbArc
 50
178.4006089999968
 51
179.1867999999953
  0
ARC
  5
285
330
2
100
AcDbEntity
  8
GAIKEI
  6
Continuous
 62
     7
100
AcDbCircle
 10
27.75979296961657
 20
0.536129816192954
 30
0.0
 40
0.1666814752000063
100
AcDbArc
 50
309.9999999999992
 51
0.0
  0
ARC
  5
286
330
2
100
AcDbEntity
  8
GAIKEI
  6
Continuous
 62
     1
100
AcDbCircle
 10
27.40809505694449
 20
-1.984573498090128
 30
0.0
 40
0.3333629504000126
100
AcDbArc
 50
272.9999999999991
 51
0.0
  0
ARC
  5
287
330
2
100
AcDbEntity
  8
GAIKEI
  6
Continuous
 62
     1
100
AcDbCircle
 10
27.90813948254458
 20
0.2254329128528525
 30
0.0
 40
0.1666814752000063
100
AcDbArc
 50
179.1867999999953
 51
180.0
  0
ARC
  5
288
330
2
100
AcDbEntity
  8
GAIKEI
  6
Continuous
 62
     7
100
AcDbCircle
 10
27.31428372243545
 20
19.80036888754142
 30
0.0
 40
0.1666814752000063
100
AcDbArc
 50
7.999999999998456
 51
78.00000000000034
  0
ARC
  5
289
330
2
100
AcDbEntity
  8
GAIKEI
  6
Continuous
 62
     1
100
AcDbCircle
 10
26.41006672214099
 20
-2.37468015645544
 30
0.0
 40
0.1666814752000063
100
AcDbArc
 50
285.0000000000013
 51
314.999999999992
  0
ARC
  5
28A
330
2
100
AcDbEntity
  8
GAIKEI
  6
Continuous
 62
     1
100
AcDbCircle
 10
26.7356476478268
 20
-2.52054561562511
 30
0.0
 40
0.1666814752000063
100
AcDbArc
 50
133.2988929999931
 51
134.999999999992
  0
ARC
  5
28B
330
2
100
AcDbEntity
  8
GAIKEI
  6
Continuous
 62
     1
100
AcDbCircle
 10
26.3480008746725
 20
-2.736433362472951
 30
0.0
 40
0.1666814752000063
100
AcDbArc
 50
105.0000000000013
 51
116.743683999998
  0
ARC
  5
28C
330
2
100
AcDbEntity
  8
GAIKEI
  6
Continuous
 62
     1
100
AcDbCircle
 10
26.94972100014457
 20
-0.8750468240721147
 30
0.0
 40
0.2300204357760087
100
AcDbArc
 50
298.5718781421436
 51
0.0
  0
ARC
  5
28D
330
2
100
AcDbEntity
  8
GAIKEI
  6
Continuous
 62
     1
100
AcDbCircle
 10
26.94972100014457
 20
-0.8750468240721147
 30
0.0
 40
0.2300204357760087
100
AcDbArc
 50
0.0
 51
61.42812185785644
  0
ARC
  5
28E
330
2
100
AcDbEntity
  8
GAIKEI
  6
Continuous
 62
     7
100
AcDbCircle
 10
26.82637670849658
 20
-2.11520620393162
 30
0.0
 40
0.2333540652800088
100
AcDbArc
 50
272.9999999999991
 51
0.0
  0
ARC
  5
28F
330
2
100
AcDbEntity
  8
GAIKEI
  6
Continuous
 62
     7
100
AcDbCircle
 10
27.39309372417654
 20
-0.4243290141450303
 30
0.0
 40
0.3333629504000126
100
AcDbArc
 50
130.5742470000073
 51
180.0
  0
LINE
  5
290
330
2
100
AcDbEntity
  8
GAIKEI
  6
Continuous
 62
     1
100
AcDbLine
 10
27.92647444481656
 20
15.58916044986074
 30
0.0
 11
27.92647444481656
 21
14.96648246242296
 31
0.0
  0
LINE
  5
291
330
2
100
AcDbEntity
  8
GAIKEI
  6
Continuous
 62
     7
100
AcDbLine
 10
27.52300513260229
 20
19.51289468071582
 30
0.0
 11
27.92647444481656
 21
16.64206135972534
 31
0.0
  0
LINE
  5
292
330
2
100
AcDbEntity
  8
GAIKEI
  6
Continuous
 62
     7
100
AcDbLine
 10
27.52300513260229
 20
19.51289468071582
 30
0.0
 11
27.92647444481656
 21
16.64206135972534
 31
0.0
  0
LINE
  5
293
330
2
100
AcDbEntity
  8
GAIKEI
  6
Continuous
 62
     7
100
AcDbLine
 10
27.52300513260229
 20
19.51289468071582
 30
0.0
 11
27.92647444481656
 21
16.64206135972534
 31
0.0
  0
LINE
  5
294
330
2
100
AcDbEntity
  8
GAIKEI
  6
Continuous
 62
     7
100
AcDbLine
 10
27.92647444481656
 20
16.64206135972534
 30
0.0
 11
27.92647444481656
 21
0.536129816192954
 31
0.0
  0
LINE
  5
295
330
2
100
AcDbEntity
  8
GAIKEI
  6
Continuous
 62
     1
100
AcDbLine
 10
27.74145800734459
 20
-1.984573498090128
 30
0.0
 11
27.74145800734459
 21
0.2254329128528525
 31
0.0
  0
LINE
  5
296
330
2
100
AcDbEntity
  8
GAIKEI
  6
Continuous
 62
     1
100
AcDbLine
 10
26.85051888937755
 20
-2.347615282386414
 30
0.0
 11
27.42554192572971
 21
-2.317479573671391
 31
0.0
  0
LINE
  5
297
330
2
100
AcDbEntity
  8
GAIKEI
  6
Continuous
 62
     1
100
AcDbLine
 10
27.21571499859738
 20
-0.608233019451518
 30
0.0
 11
27.21571499859738
 21
-0.4693322790504908
 31
0.0
  0
LINE
  5
298
330
2
100
AcDbEntity
  8
GAIKEI
  6
Continuous
 62
     1
100
AcDbLine
 10
27.21571499859738
 20
-2.008039116186523
 30
0.0
 11
27.21571499859738
 21
-1.074941150011568
 31
0.0
  0
LINE
  5
299
330
2
100
AcDbEntity
  8
GAIKEI
  6
Continuous
 62
     1
100
AcDbLine
 10
27.21571499859738
 20
-0.4693322790504908
 30
0.0
 11
27.58547378252365
 21
-0.1590678474659626
 31
0.0
  0
LINE
  5
29A
330
2
100
AcDbEntity
  8
GAIKEI
  6
Continuous
 62
     7
100
AcDbLine
 10
27.17881215336002
 20
-0.1689581928235952
 30
0.0
 11
27.1710863669756
 21
-0.1761378640226781
 31
0.0
  0
LINE
  5
29B
330
2
100
AcDbEntity
  8
GAIKEI
  6
Continuous
 62
     7
100
AcDbLine
 10
27.92647444481656
 20
16.64206135972534
 30
0.0
 11
27.69197131078283
 21
18.31063780157308
 31
0.0
  0
LINE
  5
29C
330
2
100
AcDbEntity
  8
GAIKEI
  6
Continuous
 62
     7
100
AcDbLine
 10
27.69197131078283
 20
18.31063780157308
 30
0.0
 11
27.47934306497678
 21
19.82356646531764
 31
0.0
  0
LINE
  5
29D
330
2
100
AcDbEntity
  8
GAIKEI
  6
Continuous
 62
     1
100
AcDbLine
 10
26.5279282933526
 20
-2.492541761003394
 30
0.0
 11
26.61778604327878
 21
-2.402684011077099
 31
0.0
  0
LINE
  5
29E
330
2
100
AcDbEntity
  8
GAIKEI
  6
Continuous
 62
     1
100
AcDbLine
 10
26.30486054194262
 20
-2.575431425195233
 30
0.0
 11
26.45320705487075
 21
-2.535682093733157
 31
0.0
  0
LINE
  5
29F
330
2
100
AcDbEntity
  8
GAIKEI
  6
Continuous
 62
     7
100
AcDbLine
 10
27.34893874977229
 20
19.96340797259506
 30
0.0
 11
26.27299421083251
 21
20.1921070258806
 31
0.0
  0
LINE
  5
2A0
330
2
100
AcDbEntity
  8
GAIKEI
  6
Continuous
 62
     7
100
AcDbLine
 10
27.4428117079533
 20
0.0525637545852646
 30
0.0
 11
27.86693375502478
 21
0.4084444055322365
 31
0.0
  0
LINE
  5
2A1
330
2
100
AcDbEntity
  8
GAIKEI
  6
Continuous
 62
     1
100
AcDbLine
 10
27.5046865384511
 20
2.491918974968029
 30
0.0
 11
27.52810571908856
 21
2.491918974968029
 31
0.0
  0
LINE
  5
2A2
330
2
100
AcDbEntity
  8
GAIKEI
  6
Continuous
 62
     1
100
AcDbLine
 10
27.52810571908856
 20
2.925290810488036
 30
0.0
 11
27.5046865384511
 21
2.925290810488036
 31
0.0
  0
LINE
  5
2A3
330
2
100
AcDbEntity
  8
GAIKEI
  6
Continuous
 62
     1
100
AcDbLine
 10
27.52810571908856
 20
15.27782145614185
 30
0.0
 11
27.5046865384511
 21
15.27782145614185
 31
0.0
  0
LINE
  5
2A4
330
2
100
AcDbEntity
  8
GAIKEI
  6
Continuous
 62
     1
100
AcDbLine
 10
27.5046865384511
 20
14.84444962062184
 30
0.0
 11
27.52810571908856
 21
14.84444962062184
 31
0.0
  0
LINE
  5
2A5
330
2
100
AcDbEntity
  8
GAIKEI
  6
Continuous
 62
     7
100
AcDbLine
 10
27.05973077377644
 20
-2.11520620393162
 30
0.0
 11
27.05973077377644
 21
-1.935195811213134
 31
0.0
  0
LINE
  5
2A6
330
2
100
AcDbEntity
  8
GAIKEI
  6
Continuous
 62
     1
100
AcDbLine
 10
27.37428221956691
 20
2.491918974968029
 30
0.0
 11
27.5046865384511
 21
2.491918974968029
 31
0.0
  0
LINE
  5
2A7
330
2
100
AcDbEntity
  8
GAIKEI
  6
Continuous
 62
     1
100
AcDbLine
 10
27.5046865384511
 20
2.925290810488036
 30
0.0
 11
27.37428221956691
 21
2.925290810488036
 31
0.0
  0
LINE
  5
2A8
330
2
100
AcDbEntity
  8
GAIKEI
  6
Continuous
 62
     1
100
AcDbLine
 10
27.5046865384511
 20
15.27782145614185
 30
0.0
 11
27.37428221956691
 21
15.27782145614185
 31
0.0
  0
LINE
  5
2A9
330
2
100
AcDbEntity
  8
GAIKEI
  6
Continuous
 62
     1
100
AcDbLine
 10
27.37428221956691
 20
14.84444962062184
 30
0.0
 11
27.5046865384511
 21
14.84444962062184
 31
0.0
  0
LINE
  5
2AA
330
2
100
AcDbEntity
  8
GAIKEI
  6
Continuous
 62
     1
100
AcDbLine
 10
27.47934305351873
 20
2.925290810488036
 30
0.0
 11
27.47934305351873
 21
14.84444962062184
 31
0.0
  0
LINE
  5
2AB
330
2
100
AcDbEntity
  8
GAIKEI
  6
Continuous
 62
     1
100
AcDbLine
 10
27.47934305351873
 20
15.27782145614185
 30
0.0
 11
27.47934305351873
 21
16.36883512308128
 31
0.0
  0
LINE
  5
2AC
330
2
100
AcDbEntity
  8
GAIKEI
  6
Continuous
 62
     1
100
AcDbLine
 10
27.47934305351873
 20
0.0832171929754395
 30
0.0
 11
27.47934305351873
 21
2.491918974968029
 31
0.0
  0
LINE
  5
2AD
330
2
100
AcDbEntity
  8
GAIKEI
  6
Continuous
 62
     7
100
AcDbLine
 10
27.17881215336002
 20
-0.1689581928235952
 30
0.0
 11
27.4428117079533
 21
0.0525637545852646
 31
0.0
  0
LINE
  5
2AE
330
2
100
AcDbEntity
  8
GAIKEI
  6
Continuous
 62
     7
100
AcDbLine
 10
27.05973077377644
 20
-1.935195811213134
 30
0.0
 11
27.05973077377644
 21
-0.4243290141450303
 31
0.0
  0
LINE
  5
2AF
330
2
100
AcDbEntity
  8
GAIKEI
  6
Continuous
 62
     7
100
AcDbLine
 10
27.17626142674499
 20
-0.1710485785404217
 30
0.0
 11
27.17873647997021
 21
-0.1688909868528299
 31
0.0
  0
LINE
  5
2B0
330
2
100
AcDbEntity
  8
GAIKEI
  6
Continuous
 62
     7
100
AcDbLine
 10
26.27299421083251
 20
-2.37788205812285
 30
0.0
 11
26.83869567571026
 21
-2.348234877767026
 31
0.0
  0
LINE
  5
2B1
330
2
100
AcDbEntity
  8
GAIKEI
  6
Continuous
 62
     1
100
AcDbLine
 10
27.34893873463466
 20
2.491918974968029
 30
0.0
 11
27.34893873463466
 21
0.3508113852241763
 31
0.0
  0
LINE
  5
2B2
330
2
100
AcDbEntity
  8
GAIKEI
  6
Continuous
 62
     1
100
AcDbLine
 10
27.34893873463466
 20
2.491918974968029
 30
0.0
 11
27.37428221956691
 21
2.491918974968029
 31
0.0
  0
LINE
  5
2B3
330
2
100
AcDbEntity
  8
GAIKEI
  6
Continuous
 62
     1
100
AcDbLine
 10
27.37428221956691
 20
2.925290810488036
 30
0.0
 11
27.37428221956691
 21
2.491918974968029
 31
0.0
  0
LINE
  5
2B4
330
2
100
AcDbEntity
  8
GAIKEI
  6
Continuous
 62
     1
100
AcDbLine
 10
27.37428221956691
 20
2.925290810488036
 30
0.0
 11
27.34893873463466
 21
2.925290810488036
 31
0.0
  0
LINE
  5
2B5
330
2
100
AcDbEntity
  8
GAIKEI
  6
Continuous
 62
     1
100
AcDbLine
 10
27.34893873463466
 20
14.84444962062184
 30
0.0
 11
27.34893873463466
 21
2.925290810488036
 31
0.0
  0
LINE
  5
2B6
330
2
100
AcDbEntity
  8
GAIKEI
  6
Continuous
 62
     1
100
AcDbLine
 10
27.34893873463466
 20
14.84444962062184
 30
0.0
 11
27.37428221956691
 21
14.84444962062184
 31
0.0
  0
LINE
  5
2B7
330
2
100
AcDbEntity
  8
GAIKEI
  6
Continuous
 62
     1
100
AcDbLine
 10
27.37428221956691
 20
15.27782145614185
 30
0.0
 11
27.37428221956691
 21
14.84444962062184
 31
0.0
  0
LINE
  5
2B8
330
2
100
AcDbEntity
  8
GAIKEI
  6
Continuous
 62
     1
100
AcDbLine
 10
27.37428221956691
 20
15.27782145614185
 30
0.0
 11
27.34893873463466
 21
15.27782145614185
 31
0.0
  0
LINE
  5
2B9
330
2
100
AcDbEntity
  8
GAIKEI
  6
Continuous
 62
     1
100
AcDbLine
 10
27.34893873463466
 20
16.10128815971734
 30
0.0
 11
27.34893873463466
 21
15.27782145614185
 31
0.0
  0
LINE
  5
2BA
330
2
100
AcDbEntity
  8
GAIKEI
  6
Continuous
 62
     1
100
AcDbLine
 10
26.27299421083251
 20
15.60118351802987
 30
0.0
 11
26.36335030503324
 21
15.60118351802987
 31
0.0
  0
LINE
  5
2BB
330
2
100
AcDbEntity
  8
GAIKEI
  6
Continuous
 62
     1
100
AcDbLine
 10
26.36335030503324
 20
14.73443984698986
 30
0.0
 11
26.27299421083251
 21
14.73443984698986
 31
0.0
  0
LINE
  5
2BC
330
2
100
AcDbEntity
  8
GAIKEI
  6
Continuous
 62
     1
100
AcDbLine
 10
26.36335030503324
 20
14.73443984698986
 30
0.0
 11
26.36335030503324
 21
15.60118351802987
 31
0.0
  0
LINE
  5
2BD
330
2
100
AcDbEntity
  8
GAIKEI
  6
Continuous
 62
     1
100
AcDbLine
 10
26.36335030503324
 20
2.365241053816021
 30
0.0
 11
26.27299421083251
 21
2.365241053816021
 31
0.0
  0
LINE
  5
2BE
330
2
100
AcDbEntity
  8
GAIKEI
  6
Continuous
 62
     1
100
AcDbLine
 10
26.27299421083251
 20
3.23198472485609
 30
0.0
 11
26.36335030503324
 21
3.23198472485609
 31
0.0
  0
LINE
  5
2BF
330
2
100
AcDbEntity
  8
GAIKEI
  6
Continuous
 62
     1
100
AcDbLine
 10
26.36335030503324
 20
2.365241053816021
 30
0.0
 11
26.36335030503324
 21
3.23198472485609
 31
0.0
  0
ELLIPSE
  5
2C0
330
2
100
AcDbEntity
  8
GAIKEI
  6
Continuous
 62
     1
100
AcDbEllipse
 10
26.35618283491818
 20
16.34492132748914
 30
0.0
 11
-0.023564856710522
 21
0.023564856710522
 31
0.0
210
0.0
220
0.0
230
1.0
 40
0.9990757796463732
 41
0.7858604317907339
 42
0.8903589325719298
  0
LINE
  5
2C1
330
2
100
AcDbEntity
  8
GAIKEI
  6
Continuous
 62
     1
100
AcDbLine
 10
26.32223728575013
 20
16.34361777834419
 30
0.0
 11
26.32285160699507
 21
16.34492132748914
 31
0.0
  0
LINE
  5
2C2
330
2
100
AcDbEntity
  8
GAIKEI
  6
Continuous
 62
     1
100
AcDbLine
 10
26.3152362970925
 20
16.38255020389624
 30
0.0
 11
26.31628875726312
 21
16.37291884821479
 31
0.0
  0
LINE
  5
2C3
330
2
100
AcDbEntity
  8
GAIKEI
  6
Continuous
 62
     1
100
AcDbLine
 10
27.36948079299236
 20
18.21261982666544
 30
0.0
 11
27.36823914934723
 21
18.23076217182472
 31
0.0
  0
LINE
  5
2C4
330
2
100
AcDbEntity
  8
GAIKEI
  6
Continuous
 62
     1
100
AcDbLine
 10
27.28396119514855
 20
19.96962555819698
 30
0.0
 11
27.28406660451344
 21
19.9701175019029
 31
0.0
  0
LINE
  5
2C5
330
2
100
AcDbEntity
  8
GAIKEI
  6
Continuous
 62
     1
100
AcDbLine
 10
27.28391082400662
 20
19.96939053731694
 30
0.0
 11
27.28396119514855
 21
19.96962555819698
 31
0.0
  0
LINE
  5
2C6
330
2
100
AcDbEntity
  8
GAIKEI
  6
Continuous
 62
     1
100
AcDbLine
 10
27.36823914934723
 20
17.81536853354714
 30
0.0
 11
27.36948079299236
 21
17.83351087870642
 31
0.0
  0
LINE
  5
2C7
330
2
100
AcDbEntity
  8
GAIKEI
  6
Continuous
 62
     1
100
AcDbLine
 10
27.28396119514855
 20
16.07650514717488
 30
0.0
 11
27.28406660451344
 21
16.07601320346896
 31
0.0
  0
LINE
  5
2C8
330
2
100
AcDbEntity
  8
GAIKEI
  6
Continuous
 62
     1
100
AcDbLine
 10
27.28391082400662
 20
16.07674016805492
 30
0.0
 11
27.28396119514855
 21
16.07650514717488
 31
0.0
  0
LINE
  5
2C9
330
2
100
AcDbEntity
  8
GAIKEI
  6
Continuous
 62
     1
100
AcDbLine
 10
27.46553472674134
 20
16.27212155971705
 30
0.0
 11
27.46603313768856
 21
16.27205302029449
 31
0.0
  0
LINE
  5
2CA
330
2
100
AcDbEntity
  8
GAIKEI
  6
Continuous
 62
     1
100
AcDbLine
 10
27.46529663892216
 20
16.27215429595878
 30
0.0
 11
27.46553472674134
 21
16.27212155971705
 31
0.0
  0
LINE
  5
2CB
330
2
100
AcDbEntity
  8
GAIKEI
  6
Continuous
 62
     1
100
AcDbLine
 10
26.27375381165121
 20
20.1184269448708
 30
0.0
 11
26.27299421083251
 21
20.1184269448708
 31
0.0
  0
LINE
  5
2CC
330
2
100
AcDbEntity
  8
GAIKEI
  6
Continuous
 62
     1
100
AcDbLine
 10
26.27299421083251
 20
15.92770376050106
 30
0.0
 11
26.27375381165121
 21
15.92770376050106
 31
0.0
  0
LINE
  5
2CD
330
2
100
AcDbEntity
  8
GAIKEI
  6
Continuous
 62
     1
100
AcDbLine
 10
26.27375381165121
 20
15.92770376050106
 30
0.0
 11
27.27009676338651
 21
16.14120582873067
 31
0.0
  0
LINE
  5
2CE
330
2
100
AcDbEntity
  8
GAIKEI
  6
Continuous
 62
     1
100
AcDbLine
 10
26.27299421083251
 20
15.85935484539254
 30
0.0
 11
27.28406660451344
 21
16.07601320346896
 31
0.0
  0
LINE
  5
2CF
330
2
100
AcDbEntity
  8
GAIKEI
  6
Continuous
 62
     1
100
AcDbLine
 10
27.36948079299236
 20
17.83351087870642
 30
0.0
 11
27.36948079299236
 21
18.21261982666544
 31
0.0
  0
LINE
  5
2D0
330
2
100
AcDbEntity
  8
GAIKEI
  6
Continuous
 62
     1
100
AcDbLine
 10
27.18286304658807
 20
19.57871106139396
 30
0.0
 11
27.17832771032045
 21
19.61168959131561
 31
0.0
  0
LINE
  5
2D1
330
2
100
AcDbEntity
  8
GAIKEI
  6
Continuous
 62
     1
100
AcDbLine
 10
27.28972504056094
 20
18.81581811679587
 30
0.0
 11
27.19392289584835
 21
19.51243637333158
 31
0.0
  0
LINE
  5
2D2
330
2
100
AcDbEntity
  8
GAIKEI
  6
Continuous
 62
     1
100
AcDbLine
 10
27.36823914934723
 20
18.23076217182472
 30
0.0
 11
27.2969906527286
 21
18.74884049961622
 31
0.0
  0
LINE
  5
2D3
330
2
100
AcDbEntity
  8
GAIKEI
  6
Continuous
 62
     1
100
AcDbLine
 10
27.27009676338651
 20
19.90492487664119
 30
0.0
 11
26.27375381165121
 21
20.1184269448708
 31
0.0
  0
LINE
  5
2D4
330
2
100
AcDbEntity
  8
GAIKEI
  6
Continuous
 62
     1
100
AcDbLine
 10
27.17832771032045
 20
16.43444111405625
 30
0.0
 11
27.18286304658807
 21
16.4674196439779
 31
0.0
  0
LINE
  5
2D5
330
2
100
AcDbEntity
  8
GAIKEI
  6
Continuous
 62
     1
100
AcDbLine
 10
27.3068474284371
 20
17.36896324009166
 30
0.0
 11
27.36823914934723
 21
17.81536853354714
 31
0.0
  0
LINE
  5
2D6
330
2
100
AcDbEntity
  8
GAIKEI
  6
Continuous
 62
     1
100
AcDbLine
 10
27.19392289584835
 20
16.53369433204034
 30
0.0
 11
27.29958181626944
 21
17.30198562291207
 31
0.0
  0
LINE
  5
2D7
330
2
100
AcDbEntity
  8
GAIKEI
  6
Continuous
 62
     1
100
AcDbLine
 10
27.60995509085728
 20
17.87166670192926
 30
0.0
 11
27.60995509085728
 21
18.17446400344261
 31
0.0
  0
LINE
  5
2D8
330
2
100
AcDbEntity
  8
GAIKEI
  6
Continuous
 62
     1
100
AcDbLine
 10
27.60127268615042
 20
18.30132494085444
 30
0.0
 11
27.39998223617476
 21
19.76499407805977
 31
0.0
  0
LINE
  5
2D9
330
2
100
AcDbEntity
  8
GAIKEI
  6
Continuous
 62
     1
100
AcDbLine
 10
27.39998223617476
 20
16.28113662731215
 30
0.0
 11
27.60127268615042
 21
17.74480576451748
 31
0.0
  0
LINE
  5
2DA
330
2
100
AcDbEntity
  8
GAIKEI
  6
Continuous
 62
     1
100
AcDbLine
 10
27.46603313768856
 20
16.27205302029449
 30
0.0
 11
27.71947510158986
 21
18.11493816799958
 31
0.0
  0
LINE
  5
2DB
330
2
100
AcDbEntity
  8
GAIKEI
  6
Continuous
 62
     1
100
AcDbLine
 10
26.3152362970925
 20
19.66358050147562
 30
0.0
 11
26.27299421083251
 21
19.66358050147562
 31
0.0
  0
LINE
  5
2DC
330
2
100
AcDbEntity
  8
GAIKEI
  6
Continuous
 62
     1
100
AcDbLine
 10
26.27299421083251
 20
16.38255020389624
 30
0.0
 11
26.3152362970925
 21
16.38255020389624
 31
0.0
  0
LINE
  5
2DD
330
2
100
AcDbEntity
  8
GAIKEI
  6
Continuous
 62
     1
100
AcDbLine
 10
26.3152362970925
 20
19.66358050147562
 30
0.0
 11
26.3152362970925
 21
16.38255020389624
 31
0.0
  0
LINE
  5
2DE
330
2
100
AcDbEntity
  8
GAIKEI
  6
Continuous
 62
     1
100
AcDbLine
 10
27.05105423625764
 20
19.7266285695411
 30
0.0
 11
26.3871866227305
 21
19.74981132917412
 31
0.0
  0
LINE
  5
2DF
330
2
100
AcDbEntity
  8
GAIKEI
  6
Continuous
 62
     1
100
AcDbLine
 10
26.3871866227305
 20
16.29631937619774
 30
0.0
 11
27.05105423625764
 21
16.31950213583076
 31
0.0
  0
SPLINE
  5
2E0
330
2
100
AcDbEntity
  8
GAIKEI
  6
Continuous
 62
     1
100
AcDbSpline
210
0.0
220
0.0
230
1.0
 70
     8
 71
     3
 72
    19
 73
    15
 74
    13
 42
0.0000000001
 43
0.0000000001
 44
0.000001
 12
0.0213842593146391
 22
0.9997713305819308
 32
0.0
 13
-0.1213258174957188
 23
0.9926127371785009
 33
0.0
 40
0.0
 40
0.0
 40
0.0
 40
0.0
 40
0.0113484976343809
 40
0.0224435594540862
 40
0.0331022403675696
 40
0.0433328148777524
 40
0.0530063883185427
 40
0.0665828207561417
 40
0.0785040285380697
 40
0.0883020525193526
 40
0.0960449799608846
 40
0.0997746755134374
 40
0.1024788578004925
 40
0.1040675002433318
 40
0.1040675002433318
 40
0.1040675002433318
 40
0.1040675002433318
 10
24.87545631634623
 20
20.78427694748336
 30
0.0
 10
24.87553720941833
 20
20.78805891501004
 30
0.0
 10
24.87562741620116
 20
20.79554035086967
 30
0.0
 10
24.87549962599957
 20
20.80657424085007
 30
0.0
 10
24.87527727439064
 20
20.81723336402398
 30
0.0
 10
24.87501865522822
 20
20.82741770071018
 30
0.0
 10
24.87474972815127
 20
20.83857469555649
 30
0.0
 10
24.87458413517226
 20
20.85029756401238
 30
0.0
 10
24.87461365344922
 20
20.86206387020232
 30
0.0
 10
24.87487793887155
 20
20.87188142276813
 30
0.0
 10
24.87523170454384
 20
20.87896483417495
 30
0.0
 10
24.8754735272089
 20
20.88368107316234
 30
0.0
 10
24.87564894706506
 20
20.88635577649167
 30
0.0
 10
24.87552056412727
 20
20.88778446442832
 30
0.0
 10
24.87545631634623
 20
20.88831010000285
 30
0.0
 11
24.87545631634623
 21
20.78427694748336
 31
0.0
 11
24.87558221871655
 21
20.79562470740029
 31
0.0
 11
24.87547944801292
 21
20.80671929143912
 31
0.0
 11
24.87526508657811
 21
20.81737581446785
 31
0.0
 11
24.8750152012949
 21
20.82760333546056
 31
0.0
 11
24.87479345695238
 21
20.83727436654891
 31
0.0
 11
24.87461542325082
 21
20.85084963182445
 31
0.0
 11
24.874667652879
 21
20.86277072594044
 31
0.0
 11
24.8749373044916
 21
20.87256503803962
 31
0.0
 11
24.8752996780413
 21
20.88029947565093
 31
0.0
 11
24.87550041737063
 21
20.88402375233071
 31
0.0
 11
24.87558415338231
 21
20.88672658572523
 31
0.0
 11
24.87545631634623
 21
20.88831010000285
 31
0.0
  0
SPLINE
  5
2E1
330
2
100
AcDbEntity
  8
GAIKEI
  6
Continuous
 62
     1
100
AcDbSpline
210
0.0
220
0.0
230
1.0
 70
     8
 71
     3
 72
    25
 73
    21
 74
    19
 42
0.0000000001
 43
0.0000000001
 44
0.000001
 12
0.5909511587252206
 22
-0.8067073372675617
 32
0.0
 13
-0.0272811889574892
 23
-0.999627799097777
 33
0.0
 40
0.0
 40
0.0
 40
0.0
 40
0.0
 40
0.0004955099168521
 40
0.0018178620006386
 40
0.0040907347726741
 40
0.0072755829691188
 40
0.0112339836523182
 40
0.0160079251331269
 40
0.021734556038635
 40
0.0282471715098833
 40
0.0353831516206345
 40
0.043187061559707
 40
0.051858698181799
 40
0.061118524313296
 40
0.0706522526824149
 40
0.0806167164363583
 40
0.0912501549405934
 40
0.1021898340907479
 40
0.1174982836900397
 40
0.1332424412970269
 40
0.1332424412970269
 40
0.1332424412970269
 40
0.1332424412970269
 10
24.91652943227496
 20
20.9141467595071
 30
0.0
 10
24.91662703966148
 20
20.91401351567856
 30
0.0
 10
24.91695302579319
 20
20.91348574916606
 30
0.0
 10
24.91686956232042
 20
20.91206115668315
 30
0.0
 10
24.91698818869025
 20
20.90983686361045
 30
0.0
 10
24.91691142407774
 20
20.90668243846285
 30
0.0
 10
24.9168629276196
 20
20.90271655058792
 30
0.0
 10
24.91677818609952
 20
20.89789541017501
 30
0.0
 10
24.91670586280719
 20
20.8922255570082
 30
0.0
 10
24.91664762865887
 20
20.88576714078769
 30
0.0
 10
24.91661898887907
 20
20.87861641266815
 30
0.0
 10
24.91662023374795
 20
20.87074585964723
 30
0.0
 10
24.91665523163249
 20
20.86216746402988
 30
0.0
 10
24.91671616276639
 20
20.85301259568358
 30
0.0
 10
24.91679438074081
 20
20.84342690805255
 30
0.0
 10
24.91687353075304
 20
20.8333833449224
 30
0.0
 10
24.91693733977078
 20
20.82287098836875
 30
0.0
 10
24.91696010591272
 20
20.810577135254
 30
0.0
 10
24.91688766722339
 20
20.79657954229454
 30
0.0
 10
24.91667260538785
 20
20.78623042348792
 30
0.0
 10
24.91652943227496
 20
20.78098432428214
 30
0.0
 11
24.91652943227496
 21
20.9141467595071
 31
0.0
 11
24.9167769452589
 21
20.91371742128405
 31
0.0
 11
24.91690646140114
 21
20.91240161815699
 31
0.0
 11
24.91694701423694
 21
20.91012914150633
 31
0.0
 11
24.91692258212777
 21
20.90694440254219
 31
0.0
 11
24.91686208316583
 21
20.90298647246829
 31
0.0
 11
24.91678631303978
 21
20.89821313731341
 31
0.0
 11
24.91671158944064
 21
20.89248699718053
 31
0.0
 11
24.91665374136778
 21
20.88597464077017
 31
0.0
 11
24.91662365795241
 21
20.87883872550504
 31
0.0
 11
24.91662406687351
 21
20.87103481661137
 31
0.0
 11
24.91665707891184
 21
20.86236324360959
 31
0.0
 11
24.91671688910503
 21
20.85310361125687
 31
0.0
 11
24.91679182172061
 21
20.84357017783856
 31
0.0
 11
24.91686791037682
 21
20.83360600496854
 31
0.0
 11
24.91692839714801
 21
20.82297273871529
 31
0.0
 11
24.91694577567159
 21
20.81203307325518
 31
0.0
 11
24.91684821713216
 21
20.7967249322071
 31
0.0
 11
24.91652943227496
 21
20.78098432428214
 31
0.0
  0
SPLINE
  5
2E2
330
2
100
AcDbEntity
  8
GAIKEI
  6
Continuous
 62
     1
100
AcDbSpline
210
0.0
220
0.0
230
1.0
 70
     8
 71
     3
 72
    25
 73
    21
 74
    19
 42
0.0000000001
 43
0.0000000001
 44
0.000001
 12
0.0281905901065335
 22
-0.9996025663379647
 32
0.0
 13
-0.4008655609207863
 23
-0.916136890463245
 33
0.0
 40
0.0
 40
0.0
 40
0.0
 40
0.0
 40
0.010864225067663
 40
0.0216568857620739
 40
0.0326063958987592
 40
0.0433262346926796
 40
0.0534690969873187
 40
0.0632547433492312
 40
0.0728733530304748
 40
0.0819780700940567
 40
0.0903746034312847
 40
0.0981541992728614
 40
0.1054556263380679
 40
0.1119952017292006
 40
0.1175898577971888
 40
0.122375384286381
 40
0.1264164536402361
 40
0.1295339844560033
 40
0.1322586066750003
 40
0.1332252651171048
 40
0.1332252651171048
 40
0.1332252651171048
 40
0.1332252651171048
 10
24.91652943227496
 20
-2.951238562100229
 30
0.0
 10
24.91663152191353
 20
-2.95485853118653
 30
0.0
 10
24.91679885555104
 20
-2.96207574226986
 30
0.0
 10
24.91692226980664
 20
-2.972944020680955
 30
0.0
 10
24.91695889447547
 20
-2.983764708481629
 30
0.0
 10
24.9169306308163
 20
-2.994368783733932
 30
0.0
 10
24.91686692976165
 20
-3.004584710249304
 30
0.0
 10
24.91678764355396
 20
-3.014433431573138
 30
0.0
 10
24.91671171427402
 20
-3.023936119534596
 30
0.0
 10
24.9166516957292
 20
-3.03297587873007
 30
0.0
 10
24.91662026600869
 20
-3.04140279138646
 30
0.0
 10
24.91661876442782
 20
-3.049228637738394
 30
0.0
 10
24.91665139582258
 20
-3.056435553045233
 30
0.0
 10
24.9167085510199
 20
-3.062913566934156
 30
0.0
 10
24.91678970045104
 20
-3.068553870660849
 30
0.0
 10
24.91685513533997
 20
-3.073357680937164
 30
0.0
 10
24.91695709337654
 20
-3.077346026929973
 30
0.0
 10
24.9168872084428
 20
-3.080620086341212
 30
0.0
 10
24.91709411845412
 20
-3.082939600087996
 30
0.0
 10
24.91665859896782
 20
-3.084105800172068
 30
0.0
 10
24.91652943227496
 20
-3.084400997325161
 30
0.0
 11
24.91652943227496
 21
-2.951238562100229
 31
0.0
 11
24.9167769452589
 21
-2.962099752077961
 31
0.0
 11
24.91690646140114
 21
-2.972891637103714
 31
0.0
 11
24.91694701423694
 21
-2.983841071967844
 31
0.0
 11
24.91692258212777
 21
-2.994560882426583
 31
0.0
 11
24.91686208316583
 21
-3.004703563724916
 31
0.0
 11
24.91678631303978
 21
-3.014488916162747
 31
0.0
 11
24.91671158944064
 21
-3.024107234964361
 31
0.0
 11
24.91665374136778
 21
-3.033211767582145
 31
0.0
 11
24.91662365795241
 21
-3.041608246240457
 31
0.0
 11
24.91662406687351
 21
-3.049387841082506
 31
0.0
 11
24.91665707891184
 21
-3.056689192109473
 31
0.0
 11
24.91671688910503
 21
-3.063228491939241
 31
0.0
 11
24.91679182172061
 21
-3.068822643098741
 31
0.0
 11
24.91686791037682
 21
-3.073607559741844
 31
0.0
 11
24.91692839714801
 21
-3.077648167622726
 31
0.0
 11
24.91694577567159
 21
-3.080765632739314
 31
0.0
 11
24.91684821713216
 21
-3.083488362238085
 31
0.0
 11
24.91652943227496
 21
-3.084400997325161
 31
0.0
  0
SPLINE
  5
2E3
330
2
100
AcDbEntity
  8
GAIKEI
  6
Continuous
 62
     1
100
AcDbSpline
210
0.0
220
0.0
230
1.0
 70
     8
 71
     3
 72
    41
 73
    37
 74
    35
 42
0.0000000001
 43
0.0000000001
 44
0.000001
 12
-0.4353819225186907
 22
-0.9002458450578536
 32
0.0
 13
-0.5598877767279204
 23
-0.8285684506850756
 33
0.0
 40
0.0
 40
0.0
 40
0.0
 40
0.0
 40
0.0014188981556563
 40
0.0056448915115503
 40
0.0126413138108127
 40
0.0164792481112087
 40
0.0208170576424739
 40
0.0256522187933258
 40
0.0309822866874792
 40
0.0368048965486287
 40
0.0431177647878565
 40
0.0499186898280262
 40
0.0729057058812548
 40
0.1010164645422988
 40
0.1080304895441009
 40
0.1153021852383576
 40
0.1228314347323211
 40
0.130618117654028
 40
0.1386621104766037
 40
0.1469632867771648
 40
0.1555215174959575
 40
0.1642630739514207
 40
0.1739105775431217
 40
0.1844685114552681
 40
0.1959416628115395
 40
0.208335158823971
 40
0.2238438276835944
 40
0.2405950042822371
 40
0.2556503340562613
 40
0.267142807119864
 40
0.2750469816947932
 40
0.281913838821041
 40
0.2964544164855383
 40
0.3382914855718755
 40
0.3781195110425871
 40
0.4161359202117493
 40
0.4161359202117493
 40
0.4161359202117493
 40
0.4161359202117493
 10
27.74145800734368
 20
0.2254329047251531
 30
0.0
 10
27.74125208647473
 20
0.2250071190020861
 30
0.0
 10
27.74043530588696
 20
0.2233119839006008
 30
0.0
 10
27.73866787014876
 20
0.2194865569682918
 30
0.0
 10
27.73661575292982
 20
0.2149049151563247
 30
0.0
 10
27.73459358962043
 20
0.210269357434413
 30
0.0
 10
27.73288378063972
 20
0.2062836232168479
 30
0.0
 10
27.73100561198873
 20
0.2018289968927576
 30
0.0
 10
27.72896578451199
 20
0.1969055142812408
 30
0.0
 10
27.72677081317116
 20
0.1915132514680238
 30
0.0
 10
27.72442838458989
 20
0.1856518106063021
 30
0.0
 10
27.72002627817119
 20
0.1744521877595559
 30
0.0
 10
27.71328633184931
 20
0.1563657584711819
 30
0.0
 10
27.70686762223931
 20
0.1380886717228833
 30
0.0
 10
27.70229338636795
 20
0.1247172752840413
 30
0.0
 10
27.69996166223385
 20
0.1178295849310444
 30
0.0
 10
27.69756876214319
 20
0.1106907356402047
 30
0.0
 10
27.69511535172219
 20
0.1033006927991096
 30
0.0
 10
27.69260200650143
 20
0.0956594627804179
 30
0.0
 10
27.69002928749649
 20
0.0877670560097102
 30
0.0
 10
27.68740547892364
 20
0.0796467690177281
 30
0.0
 10
27.68466436958778
 20
0.0710927970319801
 30
0.0
 10
27.68172424763225
 20
0.0619026483772984
 30
0.0
 10
27.67849758747352
 20
0.0518481777390179
 30
0.0
 10
27.67496912320431
 20
0.0409292597497881
 30
0.0
 10
27.67089471848675
 20
0.0284525736871615
 30
0.0
 10
27.66622078749652
 20
0.0143208542427118
 30
0.0
 10
27.66111047217638
 20
-0.0006003431301735
 30
0.0
 10
27.65630293569567
 20
-0.0142093627359827
 30
0.0
 10
27.65238179028967
 20
-0.0250032713294957
 30
0.0
 10
27.64934459166378
 20
-0.0332141527769494
 30
0.0
 10
27.64585000539975
 20
-0.0423386037449518
 30
0.0
 10
27.63800714774021
 20
-0.0619078138029181
 30
0.0
 10
27.62494118295422
 20
-0.0912173722714442
 30
0.0
 10
27.60636064789321
 20
-0.1265563707423354
 30
0.0
 10
27.59256875220487
 20
-0.1485681009671964
 30
0.0
 10
27.58547377793525
 20
-0.159067833382494
 30
0.0
 11
27.74145800734368
 21
0.2254329047251531
 31
0.0
 11
27.7408441129603
 21
0.2241536743597976
 31
0.0
 11
27.73906177391052
 21
0.2203219370653358
 31
0.0
 11
27.73619974059398
 21
0.213937692841796
 31
0.0
 11
27.73466448532304
 21
0.2104202085024269
 31
0.0
 11
27.73295397030108
 21
0.2064338963597265
 31
0.0
 11
27.73107502056291
 21
0.2019787564137516
 31
0.0
 11
27.72903441088033
 21
0.1970547886644738
 31
0.0
 11
27.72683886071718
 21
0.191661993111893
 31
0.0
 11
27.72449502947757
 21
0.1858003697560093
 31
0.0
 11
27.72200951204059
 21
0.1794699185968227
 31
0.0
 11
27.7139453075979
 21
0.1579439101390108
 31
0.0
 11
27.70459601597941
 21
0.1314335240182061
 31
0.0
 11
27.70232562624097
 21
0.1247971463639317
 31
0.0
 11
27.69999356029314
 21
0.1179095776654151
 31
0.0
 11
27.69760039824792
 21
0.1107708179226563
 31
0.0
 11
27.69514672389221
 21
0.1033808671356837
 31
0.0
 11
27.69263312455746
 21
0.0957397253044405
 31
0.0
 11
27.69006019098879
 21
0.0878473924289551
 31
0.0
 11
27.68742851721663
 21
0.0797038685092559
 31
0.0
 11
27.68475815465672
 21
0.0713802042693033
 31
0.0
 11
27.68181639489649
 21
0.0621921838256299
 31
0.0
 11
27.67858855319446
 21
0.0521398071782358
 31
0.0
 11
27.67505905445489
 21
0.0412230743270925
 31
0.0
 11
27.67121146849297
 21
0.029441985272257
 31
0.0
 11
27.66632696100055
 21
0.0147226255863302
 31
0.0
 11
27.66090159305804
 21
-0.001125607849815
 31
0.0
 11
27.65588455098237
 21
-0.0153203958709298
 31
0.0
 11
27.65196191050904
 21
-0.0261227118592444
 31
0.0
 11
27.64921047288363
 21
-0.0335325558147019
 31
0.0
 11
27.64675531607509
 21
-0.0399455152126791
 31
0.0
 11
27.64134885695796
 21
-0.0534436198203707
 31
0.0
 11
27.62425271751681
 21
-0.0916282252958922
 31
0.0
 11
27.60563366264523
 21
-0.1268362964833045
 31
0.0
 11
27.58547377793525
 21
-0.159067833382494
 31
0.0
  0
SPLINE
  5
2E4
330
2
100
AcDbEntity
  8
GAIKEI
  6
Continuous
 62
     1
100
AcDbSpline
210
0.0
220
0.0
230
1.0
 70
     8
 71
     3
 72
    41
 73
    37
 74
    35
 42
0.0000000001
 43
0.0000000001
 44
0.000001
 12
0.0064747712617763
 22
0.9999790384488605
 32
0.0
 13
0.7486451432179164
 23
0.6629709266146034
 33
0.0
 40
0.0
 40
0.0
 40
0.0
 40
0.0
 40
0.0048797220293208
 40
0.0095408573170917
 40
0.0141412567217175
 40
0.0164487246822598
 40
0.0187692787785237
 40
0.0223290693966926
 40
0.0263636850181152
 40
0.0309350675743365
 40
0.0370166492812699
 40
0.0438225559119459
 40
0.0592497184656907
 40
0.0737747348064654
 40
0.0806057129627987
 40
0.0867323678927879
 40
0.0921021930536486
 40
0.0967157812166317
 40
0.1005724437415734
 40
0.1036696750114772
 40
0.1061043465926186
 40
0.1085083068790904
 40
0.1109974520350085
 40
0.11357494380286
 40
0.1162400271326709
 40
0.1176035175536622
 40
0.1189706962059774
 40
0.120334125454963
 40
0.1216923397903635
 40
0.1243862356734585
 40
0.1270369830950318
 40
0.1296268378283624
 40
0.1321361840472567
 40
0.1345438299926676
 40
0.1368271714864046
 40
0.138962175195813
 40
0.138962175195813
 40
0.138962175195813
 40
0.138962175195813
 10
27.741472585662
 20
0.2276373680159054
 30
0.0
 10
27.74148311735664
 20
0.2292639079301608
 30
0.0
 10
27.74153656811313
 20
0.2324438281744108
 30
0.0
 10
27.74166566974571
 20
0.2371561701238392
 30
0.0
 10
27.74190669989091
 20
0.2410060904345244
 30
0.0
 10
27.74219182302997
 20
0.244069163864026
 30
0.0
 10
27.74250178776294
 20
0.2467810120054708
 30
0.0
 10
27.74296672078953
 20
0.2500535446642687
 30
0.0
 10
27.74362302021382
 20
0.2540556706416481
 30
0.0
 10
27.74454093363838
 20
0.2588653288318738
 30
0.0
 10
27.74581285111151
 20
0.2645456712004233
 30
0.0
 10
27.74822859299476
 20
0.2736716111658808
 30
0.0
 10
27.75214887550163
 20
0.2853001532389925
 30
0.0
 10
27.75709504560317
 20
0.2965370188471752
 30
0.0
 10
27.76131417529845
 20
0.3046708112626675
 30
0.0
 10
27.76432967386512
 20
0.3099854122480821
 30
0.0
 10
27.76713485120268
 20
0.3145655192057433
 30
0.0
 10
27.76965701761156
 20
0.3184290155611507
 30
0.0
 10
27.77184104026628
 20
0.3216070436957494
 30
0.0
 10
27.77366253408061
 20
0.3241519680695291
 30
0.0
 10
27.77522530493863
 20
0.3262863890949177
 30
0.0
 10
27.77670573531748
 20
0.3282294195070108
 30
0.0
 10
27.77825177264634
 20
0.3301817423596702
 30
0.0
 10
27.77988949683822
 20
0.3321719168050663
 30
0.0
 10
27.78132011822009
 20
0.3338460763768012
 30
0.0
 10
27.78250691260212
 20
0.3351975559645837
 30
0.0
 10
27.78341691916799
 20
0.336214585232824
 30
0.0
 10
27.78433497740574
 20
0.3372219716675602
 30
0.0
 10
27.78556262861642
 20
0.3385454579957354
 30
0.0
 10
27.78710291228563
 20
0.3401641170536891
 30
0.0
 10
27.78895633225949
 20
0.3420510454847516
 30
0.0
 10
27.79079351605026
 20
0.3438672865093366
 30
0.0
 10
27.79259689338102
 20
0.345602105184085
 30
0.0
 10
27.79434739246653
 20
0.347244236296504
 30
0.0
 10
27.79602564948095
 20
0.3487807167906283
 30
0.0
 10
27.79712193158801
 20
0.3497642588116463
 30
0.0
 10
27.79765471830728
 20
0.3502360739408346
 30
0.0
 11
27.741472585662
 21
0.2276373680159054
 31
0.0
 11
27.74154559897568
 21
0.2325166112121337
 31
0.0
 11
27.74169268599644
 21
0.2371754351522384
 31
0.0
 11
27.74198430535478
 21
0.241766608405328
 31
0.0
 11
27.7421984356688
 21
0.2440641346111363
 31
0.0
 11
27.74246215959818
 21
0.2463696713926424
 31
0.0
 11
27.74295524232844
 21
0.249895177345536
 31
0.0
 11
27.74360925861606
 21
0.2538764690203834
 31
0.0
 11
27.74446590184482
 21
0.2583669139070821
 31
0.0
 11
27.74579490700626
 21
0.2643015636671748
 31
0.0
 11
27.74753656201961
 21
0.2708809091406863
 31
0.0
 11
27.75246524512068
 21
0.2854997015779474
 31
0.0
 11
27.75831702209064
 21
0.2987938815990958
 31
0.0
 11
27.76146114728454
 21
0.3048582967954019
 31
0.0
 11
27.76448470611956
 21
0.3101869245021476
 31
0.0
 11
27.76728916088405
 21
0.3147662531622473
 31
0.0
 11
27.76981068051816
 21
0.3186298351002961
 31
0.0
 11
27.77199477736611
 21
0.3218084585179497
 31
0.0
 11
27.77379535276623
 21
0.3243285399942408
 31
0.0
 11
27.77523683131699
 21
0.3262906265468075
 31
0.0
 11
27.77669356413651
 21
0.3282029499455632
 31
0.0
 11
27.7782386766437
 21
0.3301544894555661
 31
0.0
 11
27.77987619177736
 21
0.3321449794955242
 31
0.0
 11
27.78160721078553
 21
0.334171377893739
 31
0.0
 11
27.78250693005055
 21
0.3351958894992606
 31
0.0
 11
27.78341854703922
 21
0.3362147833523181
 31
0.0
 11
27.78433687803795
 21
0.3372225631333094
 31
0.0
 11
27.78526051199162
 21
0.3382183838118635
 31
0.0
 11
27.78711724277446
 21
0.3401702223744678
 31
0.0
 11
27.78897447314205
 21
0.3420615713631321
 31
0.0
 11
27.79081604834346
 21
0.3438825563642354
 31
0.0
 11
27.7926242935846
 21
0.3456224122184039
 31
0.0
 11
27.79438029005689
 21
0.34726960908867
 31
0.0
 11
27.79606406714516
 21
0.3488118669432083
 31
0.0
 11
27.79765471830728
 21
0.3502360739408346
 31
0.0
  0
SPLINE
  5
2E5
330
2
100
AcDbEntity
  8
GAIKEI
  6
Continuous
 62
     1
100
AcDbSpline
210
0.0
220
0.0
230
1.0
 70
     8
 71
     3
 72
    28
 73
    24
 74
    22
 42
0.0000000001
 43
0.0000000001
 44
0.000001
 12
0.7217480328339719
 22
0.6921558907502644
 32
0.0
 13
0.9952109123015889
 23
0.097750908107491
 33
0.0
 40
0.0
 40
0.0
 40
0.0
 40
0.0
 40
0.0085574556743667
 40
0.0157612278670515
 40
0.0214927938015812
 40
0.0271056635000049
 40
0.0329787390916391
 40
0.0433389756415667
 40
0.0541633007319122
 40
0.0646559634914531
 40
0.0722886488915142
 40
0.0796562109045854
 40
0.0829521424257561
 40
0.0858598682483157
 40
0.0883836539144243
 40
0.0905234199420534
 40
0.0914476423482447
 40
0.0930940134125172
 40
0.0950313810153715
 40
0.0987440020350464
 40
0.1025235815010075
 40
0.1066919450467986
 40
0.1110672556985543
 40
0.1110672556985543
 40
0.1110672556985543
 40
0.1110672556985543
 10
26.62046073750048
 20
-2.400068687642402
 30
0.0
 10
26.62251951310017
 20
-2.39809432319079
 30
0.0
 10
26.62640384675587
 20
-2.394553475646461
 30
0.0
 10
26.63189837580177
 20
-2.389952496215315
 30
0.0
 10
26.6368134560102
 20
-2.386199146217947
 30
0.0
 10
26.64149434347744
 20
-2.382876550834509
 30
0.0
 10
26.64757473484369
 20
-2.378867029266913
 30
0.0
 10
26.65534330418231
 20
-2.374272356636467
 30
0.0
 10
26.66476181595931
 20
-2.36948399555689
 30
0.0
 10
26.6736134641244
 20
-2.365626545859612
 30
0.0
 10
26.68156554787936
 20
-2.362625508497998
 30
0.0
 10
26.68734961814568
 20
-2.360685422706723
 30
0.0
 10
26.69168839482632
 20
-2.35940346229475
 30
0.0
 10
26.69449910648257
 20
-2.35865186761606
 30
0.0
 10
26.69695247998263
 20
-2.358059017991081
 30
0.0
 10
26.69877274889839
 20
-2.357663424143254
 30
0.0
 10
26.70031257307647
 20
-2.35735628506319
 30
0.0
 10
26.70179116526086
 20
-2.357088077327631
 30
0.0
 10
26.7041874603323
 20
-2.356672154940341
 30
0.0
 10
26.70729120451785
 20
-2.356174740955736
 30
0.0
 10
26.7111382280647
 20
-2.355618714068953
 30
0.0
 10
26.71521310043423
 20
-2.355098377294197
 30
0.0
 10
26.71804459371154
 20
-2.354791113134027
 30
0.0
 10
26.71949604601332
 20
-2.354648549604206
 30
0.0
 11
26.62046073750048
 21
-2.400068687642402
 31
0.0
 11
26.62677969440097
 21
-2.394297673220989
 31
0.0
 11
26.63231172456403
 21
-2.389683470473357
 31
0.0
 11
26.63686437202443
 21
-2.386201395748315
 31
0.0
 11
26.64144091439107
 21
-2.382951752641957
 31
0.0
 11
26.64634414103318
 21
-2.379718803980154
 31
0.0
 11
26.65526153699693
 21
-2.374444694607575
 31
0.0
 11
26.66490655946745
 21
-2.369531348106022
 31
0.0
 11
26.67452522671431
 21
-2.365338792444504
 31
0.0
 11
26.68166435993658
 21
-2.362638693495199
 31
0.0
 11
26.68865475511325
 21
-2.360311626078072
 31
0.0
 11
26.69181640718944
 21
-2.359380424508856
 31
0.0
 11
26.69462563345132
 21
-2.358629992044313
 31
0.0
 11
26.6970790665431
 21
-2.358038220889
 31
0.0
 11
26.69917023455946
 21
-2.357584742754738
 31
0.0
 11
26.70007667184518
 21
-2.357404288534496
 31
0.0
 11
26.70169585449753
 21
-2.357106293612048
 31
0.0
 11
26.70360472514062
 21
-2.35677519437695
 31
0.0
 11
26.70727040291808
 21
-2.356186608392249
 31
0.0
 11
26.71101114074986
 21
-2.355646080940118
 31
0.0
 11
26.71514603748892
 21
-2.355118858596881
 31
0.0
 11
26.71949604601332
 21
-2.354648549604206
 31
0.0
  0
SPLINE
  5
2E6
330
2
100
AcDbEntity
  8
GAIKEI
  6
Continuous
 62
     1
100
AcDbSpline
210
0.0
220
0.0
230
1.0
 70
     8
 71
     3
 72
    29
 73
    25
 74
    23
 42
0.0000000001
 43
0.0000000001
 44
0.000001
 12
-0.7526510322232209
 22
0.6584196410294276
 32
0.0
 13
-0.2875771477137425
 23
0.9577574766676731
 33
0.0
 40
0.0
 40
0.0
 40
0.0
 40
0.0
 40
0.0006178609696637
 40
0.0025238280918891
 40
0.0057516774460242
 40
0.0103542765095684
 40
0.0162722171497611
 40
0.0234867232100623
 40
0.0319681323428701
 40
0.0417098918669643
 40
0.052699151323445
 40
0.0647415419929893
 40
0.0778782946105552
 40
0.0920789904186642
 40
0.1103097290039182
 40
0.1297009403755243
 40
0.150208603398182
 40
0.1717154207142983
 40
0.1940021147980646
 40
0.2166743733353034
 40
0.2399436692024397
 40
0.2637847006266139
 40
0.2881156005156544
 40
0.3127859900064698
 40
0.3127859900064698
 40
0.3127859900064698
 40
0.3127859900064698
 10
27.4428116948385
 20
0.0525637424072159
 30
0.0
 10
27.44265668360629
 20
0.0526993463398355
 30
0.0
 10
27.44204809152055
 20
0.0532958282597349
 30
0.0
 10
27.44144815452688
 20
0.0551795705959819
 30
0.0
 10
27.44016673084213
 20
0.0581285436607146
 30
0.0
 10
27.43864508103428
 20
0.0624689524826323
 30
0.0
 10
27.43667824428172
 20
0.0680370306293128
 30
0.0
 10
27.43436924291325
 20
0.0748642660795298
 30
0.0
 10
27.43169159280524
 20
0.0829087487047673
 30
0.0
 10
27.42866271038295
 20
0.0921634970108585
 30
0.0
 10
27.42530129792025
 20
0.1025578877677304
 30
0.0
 10
27.42162564060925
 20
0.1140400889041473
 30
0.0
 10
27.41765367306613
 20
0.1265513436038503
 30
0.0
 10
27.41308731261708
 20
0.1410381117765809
 30
0.0
 10
27.4079265338693
 20
0.1575234155818066
 30
0.0
 10
27.40217114154877
 20
0.1760254703018234
 30
0.0
 10
27.39612232365101
 20
0.1955798615914261
 30
0.0
 10
27.38981715936046
 20
0.2160652157924687
 30
0.0
 10
27.38332674904012
 20
0.2372484689512362
 30
0.0
 10
27.37668950670346
 20
0.2590011671532579
 30
0.0
 10
27.369924872757
 20
0.2812566748855829
 30
0.0
 10
27.3630226586206
 20
0.3040482071201893
 30
0.0
 10
27.35600695629049
 20
0.3272933373375224
 30
0.0
 10
27.35130362746409
 20
0.3429352876228364
 30
0.0
 10
27.34893874738316
 20
0.3508113709518739
 30
0.0
 11
27.4428116948385
 21
0.0525637424072159
 31
0.0
 11
27.44238008354159
 21
0.0530059180704541
 31
0.0
 11
27.44156750540981
 21
0.0547298210777854
 31
0.0
 11
27.44037632352729
 21
0.0577298101759993
 31
0.0
 11
27.43879102702556
 21
0.0620507634204159
 31
0.0
 11
27.43683371185876
 21
0.0676356402316003
 31
0.0
 11
27.43451060261032
 21
0.0744658809430519
 31
0.0
 11
27.43183131628075
 21
0.0825129713920205
 31
0.0
 11
27.42879800762887
 21
0.091770447566347
 31
0.0
 11
27.42541506332475
 21
0.1022260425244781
 31
0.0
 11
27.42174208024096
 21
0.1136946226246493
 31
0.0
 11
27.41776594011822
 21
0.1262151875081372
 31
0.0
 11
27.41349587015463
 21
0.1397586816567582
 31
0.0
 11
27.40804801627553
 21
0.1571564021882068
 31
0.0
 11
27.40228725968336
 21
0.1756721449331735
 31
0.0
 11
27.39622607215256
 21
0.1952636282854314
 31
0.0
 11
27.38989875436607
 21
0.2158186329254477
 31
0.0
 11
27.38336932362063
 21
0.2371273927556672
 31
0.0
 11
27.37675223652309
 21
0.2588125362119626
 31
0.0
 11
27.3699848614142
 21
0.2810760208323302
 31
0.0
 11
27.36307436252423
 21
0.3038935528852562
 31
0.0
 11
27.35604447003743
 21
0.3271867554499579
 31
0.0
 11
27.34893874738316
 21
0.3508113709518739
 31
0.0
  0
SPLINE
  5
2E7
330
2
100
AcDbEntity
  8
GAIKEI
  6
Continuous
 62
     1
100
AcDbSpline
210
0.0
220
0.0
230
1.0
 70
     8
 71
     3
 72
    11
 73
     7
 74
     5
 42
0.0000000001
 43
0.0000000001
 44
0.000001
 12
0.1117045080192779
 22
-0.9937414668253364
 32
0.0
 13
0.1717596663978053
 23
-0.98513888208664
 33
0.0
 40
0.0
 40
0.0
 40
0.0
 40
0.0
 40
0.0001599086223848
 40
0.0092970523466174
 40
0.017285657148034
 40
0.022356277475746
 40
0.022356277475746
 40
0.022356277475746
 40
0.022356277475746
 10
26.3162887624635
 20
16.37291884041315
 30
0.0
 10
26.31629471663484
 20
16.37286587113682
 30
0.0
 10
26.31664090728591
 20
16.36978625028433
 30
0.0
 10
26.31730883037815
 20
16.36406327563949
 30
0.0
 10
26.31826729048203
 20
16.35672579081976
 30
0.0
 10
26.31897177846119
 20
16.35242954572581
 30
0.0
 10
26.31926208781317
 20
16.35076445731209
 30
0.0
 11
26.3162887624635
 21
16.37291884041315
 31
0.0
 11
26.31630663939984
 21
16.37275993501407
 31
0.0
 11
26.31737630439011
 21
16.3636857896868
 31
0.0
 11
26.31844489811044
 21
16.35576890279503
 31
0.0
 11
26.31926208781317
 21
16.35076445731209
 31
0.0
  0
SPLINE
  5
2E8
330
2
100
AcDbEntity
  8
GAIKEI
  6
Continuous
 62
     1
100
AcDbSpline
210
0.0
220
0.0
230
1.0
 70
     8
 71
     3
 72
    15
 73
    11
 74
     9
 42
0.0000000001
 43
0.0000000001
 44
0.000001
 12
0.9994496190759601
 22
0.0331731657958403
 32
0.0
 13
0.134530790036436
 23
0.9909094138881577
 33
0.0
 40
0.0
 40
0.0
 40
0.0
 40
0.0
 40
0.0233153785981862
 40
0.0466018528889248
 40
0.0698679735041487
 40
0.0931236945379421
 40
0.1163794155718304
 40
0.1396455361868992
 40
0.1629320104776101
 40
0.186247389075707
 40
0.186247389075707
 40
0.186247389075707
 40
0.186247389075707
 10
27.05105422944212
 20
16.3195021281478
 30
0.0
 10
27.05882174486163
 20
16.31975994312108
 30
0.0
 10
27.0743388004756
 20
16.32161032285232
 30
0.0
 10
27.09673119406924
 20
16.32842007825121
 30
0.0
 10
27.11757903709702
 20
16.33902582309449
 30
0.0
 10
27.13623919522703
 20
16.35311096655073
 30
0.0
 10
27.15214706896308
 20
16.37024375152036
 30
0.0
 10
27.1648157798291
 20
16.3899063593735
 30
0.0
 10
27.17386504187195
 20
16.41149114373464
 30
0.0
 10
27.17728215164644
 20
16.42673995617581
 30
0.0
 10
27.17832769708071
 20
16.43444109888955
 30
0.0
 11
27.05105422944212
 21
16.3195021281478
 31
0.0
 11
27.07420350619509
 21
16.32228443591336
 31
0.0
 11
27.09648380071588
 21
16.32905565192081
 31
0.0
 11
27.11721951428081
 21
16.33960761967114
 31
0.0
 11
27.13578121975706
 21
16.353618088946
 31
0.0
 11
27.15160480428563
 21
16.37066051636003
 31
0.0
 11
27.164208625568
 21
16.3902170377666
 31
0.0
 11
27.17320815998903
 21
16.41169421799017
 31
0.0
 11
27.17832769708071
 21
16.43444109888955
 31
0.0
  0
SPLINE
  5
2E9
330
2
100
AcDbEntity
  8
GAIKEI
  6
Continuous
 62
     1
100
AcDbSpline
210
0.0
220
0.0
230
1.0
 70
     8
 71
     3
 72
    13
 73
     9
 74
     7
 42
0.0000000001
 43
0.0000000001
 44
0.000001
 12
-0.999877353382941
 22
0.0156613598364006
 32
0.0
 13
-0.948811078883282
 23
-0.3158441650376698
 33
0.0
 40
0.0
 40
0.0
 40
0.0
 40
0.0
 40
0.0035193495400316
 40
0.0069366593676421
 40
0.01026865764363
 40
0.0135328649839161
 40
0.019931675503119
 40
0.0230409896073199
 40
0.0230409896073199
 40
0.0230409896073199
 40
0.0230409896073199
 10
26.38718662290216
 20
19.74981134488513
 30
0.0
 10
26.38601365026759
 20
19.74982971748497
 30
0.0
 10
26.38370077881592
 20
19.74982051396685
 30
0.0
 10
26.38028005136693
 20
19.7496776010619
 30
0.0
 10
26.3769529444711
 20
19.74939456033451
 30
0.0
 10
26.37265790846695
 20
19.74882373138654
 30
0.0
 10
26.36848321664064
 20
19.74793899019606
 30
0.0
 10
26.36544856550842
 20
19.74701953893894
 30
0.0
 10
26.36446518161847
 20
19.74669218603324
 30
0.0
 11
26.38718662290216
 21
19.74981134488513
 31
0.0
 11
26.38366822703756
 21
19.74979752469733
 31
0.0
 11
26.38025399373873
 21
19.74965207856056
 31
0.0
 11
26.37693405702385
 21
19.74936700344261
 31
0.0
 11
26.37369855091061
 21
19.74893429631129
 31
0.0
 11
26.36744136656114
 21
19.7475939738793
 31
0.0
 11
26.36446518161847
 21
19.74669218603324
 31
0.0
  0
SPLINE
  5
2EA
330
2
100
AcDbEntity
  8
GAIKEI
  6
Continuous
 62
     1
100
AcDbSpline
210
0.0
220
0.0
230
1.0
 70
     8
 71
     3
 72
    27
 73
    23
 74
    21
 42
0.0000000001
 43
0.0000000001
 44
0.000001
 12
0.076512265488583
 22
0.9970686401797044
 32
0.0
 13
0.955265790099601
 23
0.2957486606316002
 33
0.0
 40
0.0
 40
0.0
 40
0.0
 40
0.0
 40
0.0049081096672613
 40
0.0071949186294767
 40
0.0093538447207483
 40
0.0140218595452991
 40
0.0168863887855826
 40
0.0201057702735905
 40
0.0249374265708934
 40
0.0303592006904365
 40
0.0363136033730536
 40
0.0449355480795086
 40
0.0526210573926957
 40
0.0587210726899663
 40
0.0641083993651399
 40
0.0689597463310444
 40
0.0735065916914063
 40
0.0777817551463568
 40
0.0817588340345018
 40
0.0856007268680652
 40
0.0893264960170702
 40
0.0929602759868054
 40
0.0929602759868054
 40
0.0929602759868054
 40
0.0929602759868054
 10
26.31581260814016
 20
19.67375065529779
 30
0.0
 10
26.31593778500346
 20
19.67538189604173
 30
0.0
 10
26.31610851951317
 20
19.67777472158666
 30
0.0
 10
26.31622146737163
 20
19.68089082372604
 30
0.0
 10
26.31646812966352
 20
19.68392049311242
 30
0.0
 10
26.31703659578341
 20
19.6871068127412
 30
0.0
 10
26.31783595613544
 20
19.69060050209025
 30
0.0
 10
26.31880450685475
 20
19.69410926029188
 30
0.0
 10
26.32022432628577
 20
19.69837261735156
 30
0.0
 10
26.32225122422031
 20
19.70338525691156
 30
0.0
 10
26.32517626305116
 20
19.70937989629056
 30
0.0
 10
26.3288496041167
 20
19.71583519439458
 30
0.0
 10
26.33299336830873
 20
19.72205694479476
 30
0.0
 10
26.33689281859839
 20
19.72712610477291
 30
0.0
 10
26.34048802446822
 20
19.73122164702984
 30
0.0
 10
26.34396363900254
 20
19.73472097132338
 30
0.0
 10
26.3474016188714
 20
19.7377194791533
 30
0.0
 10
26.3508052173699
 20
19.74029639065038
 30
0.0
 10
26.35418520969392
 20
19.74250370242043
 30
0.0
 10
26.35762828017681
 20
19.74424197768741
 30
0.0
 10
26.36111571925622
 20
19.7455833060021
 30
0.0
 10
26.36343763978164
 20
19.74637704828713
 30
0.0
 10
26.36459471501292
 20
19.74673527680682
 30
0.0
 11
26.31581260814016
 21
19.67375065529779
 31
0.0
 11
26.31613070195738
 21
19.67864833028577
 31
0.0
 11
26.31623964493269
 21
19.68093255115235
 31
0.0
 11
26.31642079138442
 21
19.68308385471994
 31
0.0
 11
26.31718677772858
 21
19.68768851258392
 31
0.0
 11
26.3178279996439
 21
19.69048027466223
 31
0.0
 11
26.31868194156437
 21
19.69358423119587
 31
0.0
 11
26.32020608647838
 21
19.69816901695932
 31
0.0
 11
26.32223879524076
 21
19.70319516759281
 31
0.0
 11
26.32483135275129
 21
19.70855551733609
 31
0.0
 11
26.32909484586867
 21
19.71604963548236
 31
0.0
 11
26.33336559823454
 21
19.72243931620124
 31
0.0
 11
26.33709164295976
 21
19.72726907212092
 31
0.0
 11
26.34064839547637
 21
19.73131534648618
 31
0.0
 11
26.34407591470745
 21
19.73474856609914
 31
0.0
 11
26.34750339243851
 21
19.73773609793932
 31
0.0
 11
26.35091366618122
 21
19.74031415029498
 31
0.0
 11
26.35425996079448
 21
19.7424639202045
 31
0.0
 11
26.35768762393332
 21
19.74419988530064
 31
0.0
 11
26.36115136248611
 21
19.74557242733186
 31
0.0
 11
26.36459471501292
 21
19.74673527680682
 31
0.0
  0
SPLINE
  5
2EB
330
2
100
AcDbEntity
  8
GAIKEI
  6
Continuous
 62
     1
100
AcDbSpline
210
0.0
220
0.0
230
1.0
 70
     8
 71
     3
 72
     9
 73
     5
 74
     3
 42
0.0000000001
 43
0.0000000001
 44
0.000001
 12
-0.1110702931717985
 22
-0.9938125527355401
 32
0.0
 13
-0.0037416002969241
 23
-0.9999930001891105
 33
0.0
 40
0.0
 40
0.0
 40
0.0
 40
0.0
 40
0.0014819459234957
 40
0.0103546008421555
 40
0.0103546008421555
 40
0.0103546008421555
 40
0.0103546008421555
 10
26.31583090816889
 20
19.67391617384274
 30
0.0
 10
26.31577604144616
 20
19.67342524835565
 30
0.0
 10
26.31541922378676
 20
19.66999230717408
 30
0.0
 10
26.31524737747111
 20
19.66653803073866
 30
0.0
 10
26.31523631149503
 20
19.66358049980141
 30
0.0
 11
26.31583090816889
 21
19.67391617384274
 31
0.0
 11
26.31567766800549
 21
19.6724423314451
 31
0.0
 11
26.31523631149503
 21
19.66358049980141
 31
0.0
  0
SPLINE
  5
2EC
330
2
100
AcDbEntity
  8
GAIKEI
  6
Continuous
 62
     1
100
AcDbSpline
210
0.0
220
0.0
230
1.0
 70
     8
 71
     3
 72
     9
 73
     5
 74
     3
 42
0.0000000001
 43
0.0000000001
 44
0.000001
 12
0.0037801567420873
 22
-0.9999928551819785
 32
0.0
 13
0.1113488517851972
 23
-0.993781380991875
 33
0.0
 40
0.0
 40
0.0
 40
0.0
 40
0.0
 40
0.0089265387507856
 40
0.0103706013120687
 40
0.0103706013120687
 40
0.0103706013120687
 40
0.0103706013120687
 10
26.31523631149503
 20
16.38255020557054
 30
0.0
 10
26.31524755940024
 20
16.37957471391311
 30
0.0
 10
26.31542087895269
 20
16.37611505449436
 30
0.0
 10
26.31577987082028
 20
16.37267698212429
 30
0.0
 10
26.31583346905632
 20
16.37219862129549
 30
0.0
 11
26.31523631149503
 21
16.38255020557054
 31
0.0
 11
26.31568346870677
 21
16.37363471736447
 31
0.0
 11
26.31583346905632
 21
16.37219862129549
 31
0.0
  0
SPLINE
  5
2ED
330
2
100
AcDbEntity
  8
GAIKEI
  6
Continuous
 62
     1
100
AcDbSpline
210
0.0
220
0.0
230
1.0
 70
     8
 71
     3
 72
    27
 73
    23
 74
    21
 42
0.0000000001
 43
0.0000000001
 44
0.000001
 12
-0.9535249561077124
 22
0.3013140522441413
 32
0.0
 13
-0.0768695003212578
 23
0.9970411626008027
 33
0.0
 40
0.0
 40
0.0
 40
0.0
 40
0.0
 40
0.0058739979649625
 40
0.0124236204271418
 40
0.0197818398251864
 40
0.0278973743688295
 40
0.0358503791856791
 40
0.0433983327957256
 40
0.04649081885945
 40
0.0498285563935895
 40
0.0535042922793893
 40
0.0575234463292547
 40
0.0618893905707253
 40
0.0664803658393364
 40
0.0707679492523576
 40
0.074210319982708
 40
0.077351514681027
 40
0.0801844570514998
 40
0.0827251027316541
 40
0.0852229030852769
 40
0.0877452409019757
 40
0.0928258952681011
 40
0.0928258952681011
 40
0.0928258952681011
 40
0.0928258952681011
 10
26.36459567738666
 20
16.29939702960445
 30
0.0
 10
26.36272867616941
 20
16.29998700231435
 30
0.0
 10
26.35884536658833
 20
16.3014487718336
 30
0.0
 10
26.35294563588451
 20
16.30443205803843
 30
0.0
 10
26.34691855706146
 20
16.30867141462853
 30
0.0
 10
26.3412021946927
 20
16.31402238791118
 30
0.0
 10
26.33607600025121
 20
16.32001423137167
 30
0.0
 10
26.33251562355989
 20
16.32509827972399
 30
0.0
 10
26.33006777078015
 20
16.32906316222252
 30
0.0
 10
26.32835730345525
 20
16.33196558460418
 30
0.0
 10
26.3265650256667
 20
16.33517720449282
 30
0.0
 10
26.32468994794058
 20
16.33873395666644
 30
0.0
 10
26.32276805445787
 20
16.34260903558248
 30
0.0
 10
26.32089784903502
 20
16.34660982657954
 30
0.0
 10
26.31939277116112
 20
16.35043439959855
 30
0.0
 10
26.31826728221452
 20
16.35388077951413
 30
0.0
 10
26.31746422192117
 20
16.35691699022106
 30
0.0
 10
26.31689473995749
 20
16.35969891833157
 30
0.0
 10
26.31650752816279
 20
16.36229550141297
 30
0.0
 10
26.31628947591912
 20
16.36480757378176
 30
0.0
 10
26.31613046444116
 20
16.36817086469713
 30
0.0
 10
26.31594277721666
 20
16.37069858701198
 30
0.0
 10
26.31581259476252
 20
16.37238712752398
 30
0.0
 11
26.36459567738666
 21
16.29939702960445
 31
0.0
 11
26.35909542399691
 21
16.30146168783111
 31
0.0
 11
26.35326171570284
 21
16.30443918291513
 31
0.0
 11
26.34722900630959
 21
16.30865213762803
 31
0.0
 11
26.34127273372701
 21
16.31416418202138
 31
0.0
 11
26.33609236162158
 21
16.32019845338618
 31
0.0
 11
26.33175016238943
 21
16.32637224370387
 31
0.0
 11
26.33011955899258
 21
16.3289998718466
 31
0.0
 11
26.32842545045776
 21
16.33187570190486
 31
0.0
 11
26.32663320026427
 21
16.33508489774255
 31
0.0
 11
26.32475807761523
 21
16.3386398759049
 31
0.0
 11
26.32281588322053
 21
16.34255013397748
 31
0.0
 11
26.32089959963116
 21
16.34672204847942
 31
0.0
 11
26.31933292860572
 21
16.35071293239105
 31
0.0
 11
26.31826798019574
 21
16.35398626286965
 31
0.0
 11
26.31746733575551
 21
16.35702360353568
 31
0.0
 11
26.31690061387781
 21
16.35979922284576
 31
0.0
 11
26.31653049619536
 21
16.36231273496202
 31
0.0
 11
26.31630546225551
 21
16.36480036948245
 31
0.0
 11
26.31616225663788
 21
16.3673186499567
 31
0.0
 11
26.31581259476252
 21
16.37238712752398
 31
0.0
  0
SPLINE
  5
2EE
330
2
100
AcDbEntity
  8
GAIKEI
  6
Continuous
 62
     1
100
AcDbSpline
210
0.0
220
0.0
230
1.0
 70
     8
 71
     3
 72
    13
 73
     9
 74
     7
 42
0.0000000001
 43
0.0000000001
 44
0.000001
 12
0.9487139982427798
 22
-0.3161356505334367
 32
0.0
 13
0.9998801064241472
 23
0.0154845980650528
 33
0.0
 40
0.0
 40
0.0
 40
0.0
 40
0.0
 40
0.00322816300206
 40
0.0096478713637194
 40
0.012915651990451
 40
0.0162409066154062
 40
0.0196368648975807
 40
0.0231158048285517
 40
0.0231158048285517
 40
0.0231158048285517
 40
0.0231158048285517
 10
26.36439330802443
 20
16.29946432627449
 30
0.0
 10
26.36541417583399
 20
16.29912414713759
 30
0.0
 10
26.36849403458308
 20
16.29819266847202
 30
0.0
 10
26.37271682680989
 20
16.29730462461296
 30
0.0
 10
26.37701799997524
 20
16.29673545099089
 30
0.0
 10
26.38033696355845
 20
16.29645340291554
 30
0.0
 10
26.3837348370858
 20
16.29631065113034
 30
0.0
 10
26.38602711529268
 20
16.29630140382461
 30
0.0
 10
26.38718662290216
 20
16.29631936048679
 30
0.0
 11
26.36439330802443
 21
16.29946432627449
 31
0.0
 11
26.36748378375
 21
16.29852984923579
 31
0.0
 11
26.37376324130298
 21
16.29719356835241
 31
0.0
 11
26.37700256354765
 21
16.29676243072296
 31
0.0
 11
26.38031580574307
 21
16.29647844290204
 31
0.0
 11
26.38370861111821
 21
16.29633346583989
 31
0.0
 11
26.38718662290216
 21
16.29631936048679
 31
0.0
  0
SPLINE
  5
2EF
330
2
100
AcDbEntity
  8
GAIKEI
  6
Continuous
 62
     1
100
AcDbSpline
210
0.0
220
0.0
230
1.0
 70
     8
 71
     3
 72
    15
 73
    11
 74
     9
 42
0.0000000001
 43
0.0000000001
 44
0.000001
 12
-0.1345307900367005
 22
0.990909413888122
 32
0.0
 13
-0.9994496190759493
 23
0.0331731657961701
 33
0.0
 40
0.0
 40
0.0
 40
0.0
 40
0.0
 40
0.0233153785982079
 40
0.0466018528890413
 40
0.0698679735041718
 40
0.0931236945380393
 40
0.1163794155718155
 40
0.1396455361868994
 40
0.1629320104776214
 40
0.1862473890756914
 40
0.1862473890756914
 40
0.1862473890756914
 40
0.1862473890756914
 10
27.17832769708071
 20
19.6116896064824
 30
0.0
 10
27.17728215164644
 20
19.61939074919617
 30
0.0
 10
27.17386504187201
 20
19.63463956163744
 30
0.0
 10
27.16481577982904
 20
19.65622434599865
 30
0.0
 10
27.1521470689629
 20
19.67588695385176
 30
0.0
 10
27.13623919522687
 20
19.69301973882138
 30
0.0
 10
27.11757903709679
 20
19.70710488227759
 30
0.0
 10
27.0967311940691
 20
19.71771062712082
 30
0.0
 10
27.07433880047555
 20
19.72452038251963
 30
0.0
 10
27.0588217448616
 20
19.72637076225083
 30
0.0
 10
27.05105422944212
 20
19.72662857722412
 30
0.0
 11
27.17832769708071
 21
19.6116896064824
 31
0.0
 11
27.17320815998903
 21
19.63443648738189
 31
0.0
 11
27.16420862556788
 21
19.65591366760554
 31
0.0
 11
27.1516048042854
 21
19.67547018901212
 31
0.0
 11
27.13578121975684
 21
19.69251261642611
 31
0.0
 11
27.11721951428058
 21
19.70652308570095
 31
0.0
 11
27.09648380071576
 21
19.7170750534512
 31
0.0
 11
27.07420350619498
 21
19.72384626945859
 31
0.0
 11
27.05105422944212
 21
19.72662857722412
 31
0.0
  0
SPLINE
  5
2F0
330
2
100
AcDbEntity
  8
GAIKEI
  6
Continuous
 62
     1
100
AcDbSpline
210
0.0
220
0.0
230
1.0
 70
     8
 71
     3
 72
    21
 73
    17
 74
    15
 42
0.0000000001
 43
0.0000000001
 44
0.000001
 12
0.9780044826297624
 22
0.2085838727133314
 32
0.0
 13
0.1354487900196674
 23
0.9907843485250502
 33
0.0
 40
0.0
 40
0.0
 40
0.0
 40
0.0
 40
0.0199215087763172
 40
0.0395198938739145
 40
0.0588087415335798
 40
0.0777961773045899
 40
0.09648728297425
 40
0.1148865293641465
 40
0.1329997522067968
 40
0.1508345262551653
 40
0.1741839345165943
 40
0.1970597141137942
 40
0.2194690949709219
 40
0.2414165726700129
 40
0.2629089085026734
 40
0.2839580335681928
 40
0.2839580335681928
 40
0.2839580335681928
 40
0.2839580335681928
 10
27.28391093640539
 20
16.07673969119185
 30
0.0
 10
27.2904053780334
 20
16.0781247930088
 30
0.0
 10
27.30317779910158
 20
16.08142897097042
 30
0.0
 10
27.32168372171984
 20
16.08796218610747
 30
0.0
 10
27.33929687940849
 20
16.09588654344581
 30
0.0
 10
27.35593824356929
 20
16.10507557510007
 30
0.0
 10
27.37154051054108
 20
16.11540646838088
 30
0.0
 10
27.3860431810426
 20
16.12676340804455
 30
0.0
 10
27.39939513062254
 20
16.13903532067053
 30
0.0
 10
27.41285928022376
 20
16.15353245126108
 30
0.0
 10
27.42593995431918
 20
16.17045901818035
 30
0.0
 10
27.43807891221303
 20
16.18989380948432
 30
0.0
 10
27.44807555291021
 20
16.20998979916766
 30
0.0
 10
27.45596281610463
 20
16.23050820761411
 30
0.0
 10
27.46178691226246
 20
16.25123127834025
 30
0.0
 10
27.46434674858739
 20
16.26520252248187
 30
0.0
 10
27.46529710809443
 20
16.27215423703688
 30
0.0
 11
27.28391093640539
 21
16.07673969119185
 31
0.0
 11
27.30319747551846
 21
16.08173128234418
 31
0.0
 11
27.32167963185236
 21
16.08825099307461
 31
0.0
 11
27.33927061041141
 21
16.09616409367624
 31
0.0
 11
27.35589255869843
 21
16.10534198445606
 31
0.0
 11
27.37147630804998
 21
16.11566208231568
 31
0.0
 11
27.38596110772517
 21
16.12700770627657
 31
0.0
 11
27.39929435203919
 21
16.13926796135251
 31
0.0
 11
27.41143124447024
 21
16.15233606925568
 31
0.0
 11
27.42571506686215
 21
16.17080680452295
 31
0.0
 11
27.43783655867185
 21
16.19020709453394
 31
0.0
 11
27.44781769374345
 21
16.21027093231532
 31
0.0
 11
27.45569135110827
 21
16.23075745066069
 31
0.0
 11
27.46150045108038
 21
16.25144984021011
 31
0.0
 11
27.46529710809443
 21
16.27215423703688
 31
0.0
  0
SPLINE
  5
2F1
330
2
100
AcDbEntity
  8
GAIKEI
  6
Continuous
 62
     1
100
AcDbSpline
210
0.0
220
0.0
230
1.0
 70
     8
 71
     3
 72
    15
 73
    11
 74
     9
 42
0.0000000001
 43
0.0000000001
 44
0.000001
 12
0.9785263958185266
 22
0.2061215483310866
 32
0.0
 13
0.1327585762537782
 23
0.9911484048471601
 33
0.0
 40
0.0
 40
0.0
 40
0.0
 40
0.0
 40
0.0257301444279207
 40
0.0508393460168279
 40
0.0759402904367234
 40
0.1016467932428527
 40
0.1273459535904965
 40
0.152444255600099
 40
0.1775562343419104
 40
0.2032949066242973
 40
0.2032949066242973
 40
0.2032949066242973
 40
0.2032949066242973
 10
27.27009676228522
 20
16.14120583708592
 30
0.0
 10
27.27848930411554
 20
16.142973682822
 30
0.0
 10
27.29482960826863
 20
16.14775023560287
 30
0.0
 10
27.31786037147708
 20
16.15848756881708
 30
0.0
 10
27.33888582778778
 20
16.17276574097232
 30
0.0
 10
27.35758247795474
 20
16.19024310765539
 30
0.0
 10
27.37362489429273
 20
16.21018367118776
 30
0.0
 10
27.38629940962756
 20
16.23221049705287
 30
0.0
 10
27.39529442168237
 20
16.25597901764378
 30
0.0
 10
27.39884323093352
 20
16.2726330206362
 30
0.0
 10
27.39998224076249
 20
16.28113663529473
 30
0.0
 11
27.27009676228522
 21
16.14120583708592
 31
0.0
 11
27.29479369289743
 21
16.14842558614629
 31
0.0
 11
27.31753306248845
 21
16.15907421320196
 31
0.0
 11
27.33831487105851
 21
16.17315171825294
 31
0.0
 11
27.35713911860751
 21
16.19065810129922
 31
0.0
 11
27.37319615039394
 21
16.21072349544568
 31
0.0
 11
27.38568901468193
 21
16.23249171582708
 31
0.0
 11
27.39461771147137
 21
16.25596276244343
 31
0.0
 11
27.39998224076249
 21
16.28113663529473
 31
0.0
  0
SPLINE
  5
2F2
330
2
100
AcDbEntity
  8
GAIKEI
  6
Continuous
 62
     1
100
AcDbSpline
210
0.0
220
0.0
230
1.0
 70
     8
 71
     3
 72
     9
 73
     5
 74
     3
 42
0.0000000001
 43
0.0000000001
 44
0.000001
 12
0.1362218791743881
 22
0.990678353268203
 32
0.0
 13
0.0000205302016735
 23
0.9999999997892555
 33
0.0
 40
0.0
 40
0.0
 40
0.0
 40
0.0
 40
0.0636160010089675
 40
0.1272320020215961
 40
0.1272320020215961
 40
0.1272320020215961
 40
0.1272320020215961
 10
27.60127269107056
 20
17.74480576682052
 30
0.0
 10
27.60416132147156
 20
17.76581343186087
 30
0.0
 10
27.60850767565819
 20
17.80803817529386
 30
0.0
 10
27.60995464150469
 20
17.85046135342251
 30
0.0
 10
27.60995507685448
 20
17.87166668708892
 30
0.0
 11
27.60127269107056
 21
17.74480576682052
 31
0.0
 11
27.60778382623926
 21
17.8080877156861
 31
0.0
 11
27.60995507685448
 21
17.87166668708892
 31
0.0
  0
SPLINE
  5
2F3
330
2
100
AcDbEntity
  8
GAIKEI
  6
Continuous
 62
     1
100
AcDbSpline
210
0.0
220
0.0
230
1.0
 70
     8
 71
     3
 72
     9
 73
     5
 74
     3
 42
0.0000000001
 43
0.0000000001
 44
0.000001
 12
-0.0000205301984769
 22
0.9999999997892555
 32
0.0
 13
-0.1362218791775721
 23
0.9906783532677653
 33
0.0
 40
0.0
 40
0.0
 40
0.0
 40
0.0
 40
0.0636160010141199
 40
0.1272320020216031
 40
0.1272320020216031
 40
0.1272320020216031
 40
0.1272320020216031
 10
27.60995507685448
 20
18.17446401828303
 30
0.0
 10
27.60995464150477
 20
18.19566935194993
 30
0.0
 10
27.6085076756583
 20
18.2380925300786
 30
0.0
 10
27.60416132147156
 20
18.28031727351157
 30
0.0
 10
27.60127269107056
 20
18.30132493855143
 30
0.0
 11
27.60995507685448
 21
18.17446401828303
 31
0.0
 11
27.60778382623926
 21
18.23804298968736
 31
0.0
 11
27.60127269107056
 21
18.30132493855143
 31
0.0
  0
SPLINE
  5
2F4
330
2
100
AcDbEntity
  8
GAIKEI
  6
Continuous
 62
     1
100
AcDbSpline
210
0.0
220
0.0
230
1.0
 70
     8
 71
     3
 72
    15
 73
    11
 74
     9
 42
0.0000000001
 43
0.0000000001
 44
0.000001
 12
-0.1327902774087838
 22
0.9911441581453722
 32
0.0
 13
-0.9785329879817499
 23
0.2060902506949535
 33
0.0
 40
0.0
 40
0.0
 40
0.0
 40
0.0
 40
0.025730144427463
 40
0.0508393460162906
 40
0.0759402904363185
 40
0.1016467932429489
 40
0.1273459535906099
 40
0.1524442556002811
 40
0.1775562343420647
 40
0.203294906624346
 40
0.203294906624346
 40
0.203294906624346
 40
0.203294906624346
 10
27.39998224076249
 20
19.76499407007722
 30
0.0
 10
27.39884333642371
 20
19.77349483085639
 30
0.0
 10
27.39529502892782
 20
19.79014507140094
 30
0.0
 10
27.38629992746081
 20
19.8139104775223
 30
0.0
 10
27.37362467994362
 20
19.83593941561629
 30
0.0
 10
27.35758593044522
 20
19.85588387821083
 30
0.0
 10
27.33889344120314
 20
19.87336461165917
 30
0.0
 10
27.31787003683047
 20
19.88764189659879
 30
0.0
 10
27.29483616112614
 20
19.89837937223242
 30
0.0
 10
27.27849214225023
 20
19.90315670514494
 30
0.0
 10
27.27009676228522
 20
19.904924868286
 30
0.0
 11
27.39998224076249
 21
19.76499407007722
 31
0.0
 11
27.39461887741266
 21
19.79015947275058
 31
0.0
 11
27.3856905692702
 21
19.8136276959743
 31
0.0
 11
27.37319731633522
 21
19.83539873974834
 31
0.0
 11
27.35713911860751
 21
19.8554726040727
 31
0.0
 11
27.33832323109141
 21
19.87297719458564
 31
0.0
 11
27.3175442091989
 21
19.88705410212549
 31
0.0
 11
27.29480205293021
 21
19.89770332669229
 31
0.0
 11
27.27009676228522
 21
19.904924868286
 31
0.0
  0
SPLINE
  5
2F5
330
2
100
AcDbEntity
  8
GAIKEI
  6
Continuous
 62
     1
100
AcDbSpline
210
0.0
220
0.0
230
1.0
 70
     8
 71
     3
 72
    15
 73
    11
 74
     9
 42
0.0000000001
 43
0.0000000001
 44
0.000001
 12
-0.1364008987339492
 22
0.9906537209462097
 32
0.0
 13
-0.1677708966327061
 23
0.9858260121558256
 33
0.0
 40
0.0
 40
0.0
 40
0.0
 40
0.0
 40
0.0088099548289516
 40
0.0175208478464038
 40
0.026135368592666
 40
0.0346546660583871
 40
0.0430781984095334
 40
0.0513553481857589
 40
0.0593952990170786
 40
0.0671960523423748
 40
0.0671960523423748
 40
0.0671960523423748
 40
0.0671960523423748
 10
27.19392291065628
 20
19.51243636407386
 30
0.0
 10
27.19352234873745
 20
19.51534556891809
 30
0.0
 10
27.19269461325689
 20
19.52112702729236
 30
0.0
 10
27.19137159577437
 20
19.52973790744598
 30
0.0
 10
27.18998295259507
 20
19.53824026905913
 30
0.0
 10
27.18854429162326
 20
19.54663709585537
 30
0.0
 10
27.18707754897685
 20
19.55491483911383
 30
0.0
 10
27.18561720459826
 20
19.56303138087361
 30
0.0
 10
27.18419563508334
 20
19.5709440107103
 30
0.0
 10
27.18329930465043
 20
19.57614765694595
 30
0.0
 10
27.18286305819049
 20
19.57871105212678
 30
0.0
 11
27.19392291065628
 21
19.51243636407386
 31
0.0
 11
27.19267594400196
 21
19.52115769017871
 31
0.0
 11
27.19135408087641
 21
19.52976770649633
 31
0.0
 11
27.18996772100786
 21
19.53826994054663
 31
0.0
 11
27.18853188337437
 21
19.54666736804313
 31
0.0
 11
27.18706632532553
 21
19.55496242761654
 31
0.0
 11
27.18560453279929
 21
19.56310947393894
 31
0.0
 11
27.18419213232392
 21
19.57102442442124
 31
0.0
 11
27.18286305819049
 21
19.57871105212678
 31
0.0
  0
SPLINE
  5
2F6
330
2
100
AcDbEntity
  8
GAIKEI
  6
Continuous
 62
     1
100
AcDbSpline
210
0.0
220
0.0
230
1.0
 70
     8
 71
     3
 72
    13
 73
     9
 74
     7
 42
0.0000000001
 43
0.0000000001
 44
0.000001
 12
-0.1032078770309288
 22
0.9946598082353428
 32
0.0
 13
-0.135947176317206
 23
0.9907160871063812
 33
0.0
 40
0.0
 40
0.0
 40
0.0
 40
0.0
 40
0.0106674821795359
 40
0.0213526033888019
 40
0.0323808699812687
 40
0.0439032233371616
 40
0.0555872268423073
 40
0.0673754141472348
 40
0.0673754141472348
 40
0.0673754141472348
 40
0.0673754141472348
 10
27.2969906413432
 20
18.7488404832028
 30
0.0
 10
27.29662365194688
 20
18.75237732179582
 30
0.0
 10
27.29590153442689
 20
18.75945819680064
 30
0.0
 10
27.29488900661806
 20
18.77020425720107
 30
0.0
 10
27.29381398246372
 20
18.78123059054788
 30
0.0
 10
27.29262209570922
 20
18.79257989991151
 30
0.0
 10
27.2912707347453
 20
18.80416651273261
 30
0.0
 10
27.29025921658658
 20
18.81192520738072
 30
0.0
 10
27.28972502632724
 20
18.815818122981
 30
0.0
 11
27.2969906413432
 21
18.7488404832028
 31
0.0
 11
27.29591669868558
 21
18.75945347597769
 31
0.0
 11
27.29489507678068
 21
18.77008989118803
 31
0.0
 11
27.29381764164055
 21
18.78106540517535
 31
0.0
 11
27.29260697548523
 21
18.79252398165488
 31
0.0
 11
27.29124971141414
 21
18.80412888947413
 31
0.0
 11
27.28972502632724
 21
18.815818122981
 31
0.0
  0
SPLINE
  5
2F7
330
2
100
AcDbEntity
  8
GAIKEI
  6
Continuous
 62
     1
100
AcDbSpline
210
0.0
220
0.0
230
1.0
 70
     8
 71
     3
 72
    14
 73
    10
 74
     8
 42
0.0000000001
 43
0.0000000001
 44
0.000001
 12
0.1677588837034731
 22
0.9858280564776825
 32
0.0
 13
0.1366130456583842
 23
0.9906244877631182
 33
0.0
 40
0.0
 40
0.0
 40
0.0
 40
0.0
 40
0.00778055378193
 40
0.0157593947442899
 40
0.0239337084991822
 40
0.0323033226631421
 40
0.0438356785406939
 40
0.0554749749921555
 40
0.0671959577983803
 40
0.0671959577983803
 40
0.0671959577983803
 40
0.0671959577983803
 10
27.18286305819049
 20
16.46741965324517
 30
0.0
 10
27.18329814386283
 20
16.4699764159829
 30
0.0
 10
27.18418983640905
 20
16.47515335864301
 30
0.0
 10
27.18560032455548
 20
16.48300561389585
 30
0.0
 10
27.18704786148888
 20
16.49105067439899
 30
0.0
 10
27.18868173160718
 20
16.50026572998203
 30
0.0
 10
27.19044857643979
 20
16.51063012825472
 30
0.0
 10
27.19227325032574
 20
16.5221172930139
 30
0.0
 10
27.19338916426986
 20
16.5298239771019
 30
0.0
 10
27.19392291065628
 20
16.53369434129806
 30
0.0
 11
27.18286305819049
 21
16.46741965324517
 31
0.0
 11
27.18418862235149
 21
16.47508639363562
 31
0.0
 11
27.18559015846336
 21
16.4829412038826
 31
0.0
 11
27.18703394207876
 21
16.49098700321519
 31
0.0
 11
27.18849099481952
 21
16.49922881234767
 31
0.0
 11
27.19042219606092
 21
16.51059831961123
 31
0.0
 11
27.19224372036194
 21
16.52209420411293
 31
0.0
 11
27.19392291065628
 21
16.53369434129806
 31
0.0
  0
SPLINE
  5
2F8
330
2
100
AcDbEntity
  8
GAIKEI
  6
Continuous
 62
     1
100
AcDbSpline
210
0.0
220
0.0
230
1.0
 70
     8
 71
     3
 72
    14
 73
    10
 74
     8
 42
0.0000000001
 43
0.0000000001
 44
0.000001
 12
0.1359523053525381
 22
0.9907153832808543
 32
0.0
 13
0.1044770653903519
 23
0.9945272961600501
 33
0.0
 40
0.0
 40
0.0
 40
0.0
 40
0.0
 40
0.0117441122318229
 40
0.0233143127744299
 40
0.0347515885516759
 40
0.0432002755691809
 40
0.0514996482291372
 40
0.0595581322122601
 40
0.0673754410105542
 40
0.0673754410105542
 40
0.0673754410105542
 40
0.0673754410105542
 10
27.29958182869166
 20
17.30198561672693
 30
0.0
 10
27.30011404173573
 20
17.30586397427728
 30
0.0
 10
27.30111896295202
 20
17.31357045492817
 30
0.0
 10
27.30246211302205
 20
17.32507648062641
 30
0.0
 10
27.30355966384525
 20
17.33550443706011
 30
0.0
 10
27.30447901441869
 20
17.3448544827678
 30
0.0
 10
27.30526528178217
 20
17.35308585729406
 30
0.0
 10
27.3060329209921
 20
17.36110762929878
 30
0.0
 10
27.3065752005468
 20
17.36637174751099
 30
0.0
 10
27.30684744370762
 20
17.36896325650514
 30
0.0
 11
27.29958182869166
 21
17.30198561672693
 31
0.0
 11
27.30110111240981
 21
17.31363110285244
 31
0.0
 11
27.3024463788513
 21
17.32512283332431
 31
0.0
 11
27.30364998322694
 21
17.33649660214766
 31
0.0
 11
27.30448095253962
 21
17.34490432384786
 31
0.0
 11
27.30527415569838
 21
17.35316570431814
 31
0.0
 11
27.30605141325237
 21
17.36118664054174
 31
0.0
 11
27.30684744370762
 21
17.36896325650514
 31
0.0
  0
ARC
  5
2F9
330
2
100
AcDbEntity
  8
GAIKEI
 62
     1
100
AcDbCircle
 10
26.39967010471242
 20
20.57384882761448
 30
0.0
 40
0.1000109124005768
100
AcDbArc
 50
294.6822153763274
 51
359.9992555506058
  0
LINE
  5
2FA
330
2
100
AcDbEntity
  8
GAIKEI
 62
     1
100
AcDbLine
 10
26.49968101710442
 20
20.57384753927545
 30
0.0
 11
26.49968101710442
 21
20.6225352315177
 31
0.0
  0
ARC
  5
2FB
330
2
100
AcDbEntity
  8
GAIKEI
 62
     1
100
AcDbCircle
 10
26.42333599778704
 20
20.62752470746142
 30
0.0
 40
0.0096820896984856
100
AcDbArc
 50
265.9875314113319
 51
357.4403055779336
  0
LINE
  5
2FC
330
2
100
AcDbEntity
  8
GAIKEI
 62
     1
100
AcDbLine
 10
26.43300842702456
 20
20.62709230304967
 30
0.0
 11
26.43300842702456
 21
20.64669974503965
 31
0.0
  0
ARC
  5
2FD
330
2
100
AcDbEntity
  8
GAIKEI
 62
     1
100
AcDbCircle
 10
26.44300931553653
 20
20.6466997450396
 30
0.0
 40
0.0100008885120045
100
AcDbArc
 50
88.00000000002242
 51
179.9999999998913
  0
LINE
  5
2FE
330
2
100
AcDbEntity
  8
GAIKEI
 62
     1
100
AcDbLine
 10
26.44335834654555
 20
20.65669453300961
 30
0.0
 11
26.46750814198333
 21
20.65585121898743
 31
0.0
  0
ARC
  5
2FF
330
2
100
AcDbEntity
  8
GAIKEI
 62
     1
100
AcDbCircle
 10
26.46634471282709
 20
20.62253522778548
 30
0.0
 40
0.03333630427746
100
AcDbArc
 50
0.000006414618277
 51
88.00001314450822
  0
LINE
  5
300
330
2
100
AcDbEntity
  8
GAIKEI
 62
     1
100
AcDbLine
 10
24.87545630568445
 20
-2.95453116867128
 30
0.0
 11
24.87545630568445
 21
-3.06032041788535
 31
0.0
  0
ELLIPSE
  5
301
330
2
100
AcDbEntity
  8
S1
100
AcDbEllipse
 10
32.38953505787709
 20
12.88401034571927
 30
0.0
 11
-0.0010561492818511
 21
-0.3251459740627804
 31
0.0
210
0.0
220
0.0
230
1.0
 40
0.7373811941899307
 41
0.0
 42
6.283185307179586
  0
TEXT
  5
303
330
2
100
AcDbEntity
  8
TOUROKU
100
AcDbText
 10
13.15466849824517
 20
41.41898865461254
 30
0.0
 40
2.0
  1
ＴＨ４２ＰＨ１１Ｋ＋ＴＹＣＥ４２ＰＳ７
 72
     2
 11
57.95466849824515
 21
41.41898865461254
 31
0.0
100
AcDbText
  0
TEXT
  5
305
330
2
100
AcDbEntity
  8
MOJI1
100
AcDbText
 10
-40.04528153468243
 20
47.41898865461277
 30
0.0
 40
4.0
  1
ハイビジョンプラズマディスプレイ天吊り金具付
 41
0.9200000000000001
100
AcDbText
  0
DIMENSION
  5
306
330
2
100
AcDbEntity
  8
SUNPO
100
AcDbDimension
  2
*D8
 10
4.900157443280137
 20
28.98866785857027
 30
0.0
 11
-23.26619875108992
 21
28.98866785857027
 31
0.0
 70
   161
  1
1210
 71
     5
 42
40.3333311242635
  3
STANDARD
100
AcDbAlignedDimension
 13
-35.43317368098338
 23
20.98866785857025
 33
0.0
 14
4.900157443280136
 24
20.98866785857025
 34
0.0
1001
ACAD
1000
DSTYLE
1002
{
1070
    40
1040
1.0
1070
   140
1040
2.5
1070
   147
1040
0.5
1070
   172
1070
     1
1070
   279
1070
     0
1070
   288
1070
     0
1002
}
  0
DIMENSION
  5
315
330
2
100
AcDbEntity
  8
SUNPO
100
AcDbDimension
  2
*D7
 10
12.85989694511011
 20
20.98166153748606
 30
0.0
 11
11.1098969451101
 21
8.914998864506415
 31
0.0
 70
    33
  1
724
 71
     5
 42
24.13332534595929
  3
STANDARD
100
AcDbAlignedDimension
 13
4.859896945110108
 23
-3.15166380847323
 33
0.0
 14
4.859896945110108
 24
20.98166153748606
 34
0.0
1001
ACAD
1000
DSTYLE
1002
{
1070
    40
1040
1.0
1070
   140
1040
2.5
1070
   147
1040
0.5
1070
   172
1070
     1
1070
   279
1070
     0
1070
   288
1070
     0
1002
}
  0
DIMENSION
  5
322
330
2
100
AcDbEntity
  8
SUNPO
100
AcDbDimension
  2
*D6
 10
-43.38655762719463
 20
36.51422856576471
 30
0.0
 11
-45.13655762719464
 21
16.68128237864573
 31
0.0
 70
    33
  1
1130.3～1430.3
 71
     5
 42
39.66589237423794
  3
STANDARD
100
AcDbAlignedDimension
 13
-35.38655762719463
 23
-3.15166380847323
 33
0.0
 14
-35.38655762719463
 24
36.51422856576471
 34
0.0
1001
ACAD
1000
DSTYLE
1002
{
1070
    40
1040
1.0
1070
   140
1040
2.5
1070
   147
1040
0.5
1070
   172
1070
     1
1070
   279
1070
     0
1070
   288
1070
     0
1002
}
  0
DIMENSION
  5
32F
330
2
100
AcDbEntity
  8
SUNPO
100
AcDbDimension
  2
*D5
 10
-3.133180057624997
 20
-11.1449291052582
 30
0.0
 11
-15.31651256141168
 21
-9.394929105258199
 31
0.0
 70
    33
  1
731
 71
     5
 42
24.36666500757338
  3
STANDARD
100
AcDbAlignedDimension
 13
-27.49984506519837
 23
-3.144929105258199
 33
0.0
 14
-3.133180057624997
 24
-3.144929105258199
 34
0.0
1001
ACAD
1000
DSTYLE
1002
{
1070
    40
1040
1.0
1070
   140
1040
2.5
1070
   147
1040
0.5
1070
   172
1070
     1
1070
   279
1070
     0
1070
   288
1070
     0
1002
}
  0
TEXT
  5
33C
330
2
100
AcDbEntity
  8
MOJI1
100
AcDbText
 10
-64.54528153468223
 20
-45.58101134538742
 30
0.0
 40
3.0
  1
階調数
100
AcDbText
  0
TEXT
  5
33D
330
2
100
AcDbEntity
  8
MOJI1
100
AcDbText
 10
-64.54528153468223
 20
-40.58101134538742
 30
0.0
 40
3.0
  1
コントラスト
100
AcDbText
  0
LINE
  5
33E
330
2
100
AcDbEntity
  8
WAKU
 62
     1
100
AcDbLine
 10
-67.04528153468223
 20
-46.58101134538742
 30
0.0
 11
57.95471846531757
 21
-46.58101134538742
 31
0.0
  0
LINE
  5
340
330
2
100
AcDbEntity
  8
WAKU
 62
     1
100
AcDbLine
 10
-67.04528153468223
 20
-41.58101134538742
 30
0.0
 11
57.95471846531757
 21
-41.58101134538742
 31
0.0
  0
TEXT
  5
341
330
2
100
AcDbEntity
  8
MOJI1
100
AcDbText
 10
-64.54528153468223
 20
-20.58101134538742
 30
0.0
 40
3.0
  1
電  源
100
AcDbText
  0
TEXT
  5
342
330
2
100
AcDbEntity
  8
MOJI1
100
AcDbText
 10
-64.54528153468223
 20
-25.58101134538742
 30
0.0
 40
3.0
  1
消費電力
100
AcDbText
  0
TEXT
  5
343
330
2
100
AcDbEntity
  8
MOJI1
100
AcDbText
 10
-64.54528153468223
 20
-30.58101134538742
 30
0.0
 40
3.0
  1
画面サイズ
100
AcDbText
  0
TEXT
  5
344
330
2
100
AcDbEntity
  8
MOJI1
100
AcDbText
 10
-25.54528153468223
 20
-25.58101134538742
 30
0.0
 40
3.0
  1
３５５Ｗ
100
AcDbText
  0
TEXT
  5
345
330
2
100
AcDbEntity
  8
MOJI1
100
AcDbText
 10
-25.54528153468223
 20
-30.58101134538742
 30
0.0
 40
3.0
  1
４２Ｖ型（１６：９）
100
AcDbText
  0
TEXT
  5
346
330
2
100
AcDbEntity
  8
MOJI1
100
AcDbText
 10
-25.54528153468223
 20
-20.58101134538742
 30
0.0
 40
3.0
  1
ＡＣ１００Ｖ　５０Ｈｚ／６０Ｈｚ
100
AcDbText
  0
TEXT
  5
347
330
2
100
AcDbEntity
  8
MOJI1
100
AcDbText
 10
-64.54528153468223
 20
-55.58101134538742
 30
0.0
 40
3.0
  1
接続端子
100
AcDbText
  0
TEXT
  5
348
330
2
100
AcDbEntity
  8
MOJI1
100
AcDbText
 10
-64.54528153468223
 20
-50.58101134538742
 30
0.0
 40
3.0
  1
音声最大出力
100
AcDbText
  0
TEXT
  5
349
330
2
100
AcDbEntity
  8
MOJI1
100
AcDbText
 10
-25.54528153468223
 20
-50.58101134538742
 30
0.0
 40
3.0
  1
１６Ｗ（８Ｗ＋８Ｗ）
100
AcDbText
  0
TEXT
  5
34A
330
2
100
AcDbEntity
  8
MOJI1
100
AcDbText
 10
-25.54528153468223
 20
-60.58101134538742
 30
0.0
 40
3.0
  1
シリアル
100
AcDbText
  0
TEXT
  5
34B
330
2
100
AcDbEntity
  8
MOJI1
100
AcDbText
 10
-25.54528153468223
 20
-55.58101134538742
 30
0.0
 40
3.0
  1
ビデオ／Ｓビデオ／ＰＣ／外部スピーカ
100
AcDbText
  0
TEXT
  5
34C
330
2
100
AcDbEntity
  8
MOJI1
100
AcDbText
 10
-25.54528153468223
 20
-35.58101134538742
 30
0.0
 40
3.0
  1
７８６４３２画素（水平１０２４×垂直７６８）
100
AcDbText
  0
LINE
  5
34D
330
2
100
AcDbEntity
  8
WAKU
 62
     4
100
AcDbLine
 10
-27.04528153468246
 20
-16.58101134538742
 30
0.0
 11
-27.04528153468246
 21
-61.58101134538743
 31
0.0
  0
TEXT
  5
34E
330
2
100
AcDbEntity
  8
MOJI1
100
AcDbText
 10
-64.54528153468223
 20
-35.58101134538742
 30
0.0
 40
3.0
  1
画素数
100
AcDbText
  0
LINE
  5
34F
330
2
100
AcDbEntity
  8
WAKU
 62
     4
100
AcDbLine
 10
57.95471846531757
 20
-16.58101134538742
 30
0.0
 11
57.95471846531757
 21
-61.58101134538743
 31
0.0
  0
LINE
  5
350
330
2
100
AcDbEntity
  8
WAKU
 62
     4
100
AcDbLine
 10
-67.04528153468245
 20
-16.58101134538742
 30
0.0
 11
-67.04528153468223
 21
-61.58101134538743
 31
0.0
  0
LINE
  5
351
330
2
100
AcDbEntity
  8
WAKU
 62
     4
100
AcDbLine
 10
57.95471846531757
 20
-61.58101134538743
 30
0.0
 11
-67.04528153468223
 21
-61.58101134538743
 31
0.0
  0
LINE
  5
352
330
2
100
AcDbEntity
  8
WAKU
 62
     1
100
AcDbLine
 10
-67.04528153468223
 20
-56.58101134538743
 30
0.0
 11
57.95471846531757
 21
-56.58101134538743
 31
0.0
  0
LINE
  5
353
330
2
100
AcDbEntity
  8
WAKU
 62
     1
100
AcDbLine
 10
-67.04528153468223
 20
-51.58101134538743
 30
0.0
 11
57.95471846531757
 21
-51.58101134538743
 31
0.0
  0
LINE
  5
354
330
2
100
AcDbEntity
  8
WAKU
 62
     1
100
AcDbLine
 10
-67.04528153468223
 20
-31.58101134538743
 30
0.0
 11
57.95471846531757
 21
-31.58101134538743
 31
0.0
  0
LINE
  5
355
330
2
100
AcDbEntity
  8
WAKU
 62
     1
100
AcDbLine
 10
-67.04528153468223
 20
-21.58101134538743
 30
0.0
 11
57.95471846531757
 21
-21.58101134538743
 31
0.0
  0
LINE
  5
356
330
2
100
AcDbEntity
  8
WAKU
 62
     4
100
AcDbLine
 10
-67.04528153468223
 20
-16.58101134538742
 30
0.0
 11
57.95471846531757
 21
-16.58101134538742
 31
0.0
  0
LINE
  5
357
330
2
100
AcDbEntity
  8
WAKU
 62
     1
100
AcDbLine
 10
-67.04528153468223
 20
-36.58101134538743
 30
0.0
 11
57.95471846531757
 21
-36.58101134538743
 31
0.0
  0
LINE
  5
358
330
2
100
AcDbEntity
  8
WAKU
 62
     1
100
AcDbLine
 10
-67.04528153468223
 20
-26.58101134538743
 30
0.0
 11
57.95471846531757
 21
-26.58101134538743
 31
0.0
  0
TEXT
  5
359
330
2
100
AcDbEntity
  8
MOJI1
100
AcDbText
 10
-25.54528153468223
 20
-45.58101134538742
 30
0.0
 40
3.0
  1
４０９６階調（相当）
100
AcDbText
  0
TEXT
  5
35A
330
2
100
AcDbEntity
  8
MOJI1
100
AcDbText
 10
-25.54528153468223
 20
-40.58101134538742
 30
0.0
 40
3.0
  1
１５０００：１
100
AcDbText
  0
ENDSEC
  0
SECTION
  2
OBJECTS
  0
DICTIONARY
  5
9
330
0
100
AcDbDictionary
281
     1
  3
ACAD_COLOR
350
2E
  3
ACAD_GROUP
350
2A
  3
ACAD_LAYOUT
350
D
  3
ACAD_MATERIAL
350
2D
  3
ACAD_MLINESTYLE
350
2B
  3
ACAD_PLOTSETTINGS
350
2C
  3
ACAD_PLOTSTYLENAME
350
8
  3
ACDBHEADERROUNDTRIPXREC
350
3B3
  3
AcDbVariableDictionary
350
3AE
  3
ASE_INDEX_DICTIONARY
350
363
  0
DICTIONARY
  5
13
330
12
100
AcDbDictionary
280
     1
281
     1
  3
ACAD_LAYERSTATES
360
14
  0
DICTIONARY
  5
3
330
2
100
AcDbDictionary
280
     1
281
     1
  3
ACAD_SORTENTS
360
4
  0
DICTIONARY
  5
2E
102
{ACAD_REACTORS
330
9
102
}
330
9
100
AcDbDictionary
281
     1
  0
DICTIONARY
  5
2A
102
{ACAD_REACTORS
330
9
102
}
330
9
100
AcDbDictionary
281
     1
  0
DICTIONARY
  5
D
102
{ACAD_REACTORS
330
9
102
}
330
9
100
AcDbDictionary
281
     1
  3
Model
350
C
  3
レイアウト1
350
11
  0
DICTIONARY
  5
2D
102
{ACAD_REACTORS
330
9
102
}
330
9
100
AcDbDictionary
281
     1
  0
DICTIONARY
  5
2B
102
{ACAD_REACTORS
330
9
102
}
330
9
100
AcDbDictionary
281
     1
  3
Standard
350
30
  0
DICTIONARY
  5
2C
102
{ACAD_REACTORS
330
9
102
}
330
9
100
AcDbDictionary
281
     1
  0
ACDBDICTIONARYWDFLT
  5
8
102
{ACAD_REACTORS
330
9
102
}
330
9
100
AcDbDictionary
281
     1
  3
Normal
350
7
100
AcDbDictionaryWithDefault
340
7
  0
DICTIONARY
  5
3B3
102
{ACAD_REACTORS
330
9
102
}
330
9
100
AcDbDictionary
281
     1
  3
COLORDICT
350
3B5
  3
MATERIALDICT
350
3B4
  0
DICTIONARY
  5
3AE
102
{ACAD_REACTORS
330
9
102
}
330
9
100
AcDbDictionary
281
     1
  3
DIMASSOC
350
3B0
  3
HIDETEXT
350
3AF
  3
PROJECTNAME
350
3B1
  0
DICTIONARY
  5
363
102
{ACAD_REACTORS
330
9
102
}
330
9
100
AcDbDictionary
281
     1
  3
ASEBlockHierarchyIndexRecord
350
365
1001
DCO15
1040
1627816741.954999
  0
DICTIONARY
  5
14
102
{ACAD_REACTORS
330
13
102
}
330
13
100
AcDbDictionary
281
     1
  0
SORTENTSTABLE
  5
4
102
{ACAD_REACTORS
330
3
102
}
330
3
100
AcDbSortentsTable
330
2
  0
LAYOUT
  5
C
102
{ACAD_XDICTIONARY
360
3B6
102
}
102
{ACAD_REACTORS
330
D
102
}
330
D
100
AcDbPlotSettings
  1

  2
Ａ４－縦3FRIM01.pc3
  4
A4
  6

 40
5.873749732971191
 41
5.873747825622558
 42
5.873748779296875
 43
5.873748779296875
 44
209.9733276367187
 45
296.9259948730469
 46
5.429999999999999
 47
0.0
 48
0.0
 49
0.0
140
0.0
141
0.0
142
1.0
143
1.382400741325372
 70
 11956
 72
     1
 73
     0
 74
     1
  7
tmsacad.ctb
 75
     0
147
0.7233792417105138
148
0.009170693714168
149
0.0078838135646038
100
AcDbLayout
  1
Model
 70
     1
 71
     0
 10
0.0
 20
0.0
 11
12.0
 21
9.0
 12
0.0
 22
0.0
 32
0.0
 14
0.0
 24
0.0
 34
0.0
 15
0.0
 25
0.0
 35
0.0
146
0.0
 13
0.0
 23
0.0
 33
0.0
 16
1.0
 26
0.0
 36
0.0
 17
0.0
 27
1.0
 37
0.0
 76
     0
330
2
  0
LAYOUT
  5
11
102
{ACAD_XDICTIONARY
360
3B8
102
}
102
{ACAD_REACTORS
330
D
102
}
330
D
100
AcDbPlotSettings
  1

  2
None
  4

  6

 40
0.0
 41
0.0
 42
0.0
 43
0.0
 44
0.0
 45
0.0
 46
0.0
 47
0.0
 48
0.0
 49
0.0
140
0.0
141
0.0
142
1.0
143
1.0
 70
   688
 72
     0
 73
     0
 74
     5
  7
tmsacad.ctb
 75
    16
147
1.0
148
0.0
149
0.0
100
AcDbLayout
  1
レイアウト1
 70
     1
 71
     1
 10
0.0
 20
0.0
 11
12.0
 21
9.0
 12
0.0
 22
0.0
 32
0.0
 14
0.0
 24
0.0
 34
0.0
 15
0.0
 25
0.0
 35
0.0
146
0.0
 13
0.0
 23
0.0
 33
0.0
 16
1.0
 26
0.0
 36
0.0
 17
0.0
 27
1.0
 37
0.0
 76
     0
330
E
  0
MLINESTYLE
  5
30
102
{ACAD_REACTORS
330
2B
102
}
330
2B
100
AcDbMlineStyle
  2
STANDARD
 70
     0
  3

 62
   256
 51
90.0
 52
90.0
 71
     2
 49
0.5
 62
   256
  6
BYLAYER
 49
-0.5
 62
   256
  6
BYLAYER
  0
ACDBPLACEHOLDER
  5
7
102
{ACAD_REACTORS
330
8
102
}
330
8
  0
XRECORD
  5
3B5
102
{ACAD_REACTORS
330
3B3
102
}
330
3B3
100
AcDbXrecord
280
     1
340
2E
  0
XRECORD
  5
3B4
102
{ACAD_REACTORS
330
3B3
102
}
330
3B3
100
AcDbXrecord
280
     1
340
2D
  0
DICTIONARYVAR
  5
3B0
102
{ACAD_REACTORS
330
3AE
102
}
330
3AE
100
DictionaryVariables
280
     0
  1
1
  0
DICTIONARYVAR
  5
3AF
102
{ACAD_REACTORS
330
3AE
102
}
330
3AE
100
DictionaryVariables
280
     0
  1
1
  0
DICTIONARYVAR
  5
3B1
102
{ACAD_REACTORS
330
3AE
102
}
330
3AE
100
DictionaryVariables
280
     0
  1

  0
XRECORD
  5
365
102
{ACAD_REACTORS
330
363
102
}
330
363
100
AcDbXrecord
280
     1
330
30D
330
30E
330
31B
330
31C
330
328
330
329
330
335
330
336
330
382
330
383
330
38E
330
38F
330
39A
330
39B
330
3A6
330
3A7
  0
DICTIONARY
  5
3B6
330
C
100
AcDbDictionary
280
     1
281
     1
  3
ACAD_XREC_ROUNDTRIP
360
3B7
  0
DICTIONARY
  5
3B8
330
11
100
AcDbDictionary
280
     1
281
     1
  3
ACAD_XREC_ROUNDTRIP
360
3B9
  0
XRECORD
  5
3B7
102
{ACAD_REACTORS
330
3B6
102
}
330
3B6
100
AcDbXrecord
280
     1
102
SHADEPLOT
 70
     0
102
SHADEPLOTRESLEVEL
 70
     2
102
SHADEPLOTCUSTOMDPI
 70
   300
  0
XRECORD
  5
3B9
102
{ACAD_REACTORS
330
3B8
102
}
330
3B8
100
AcDbXrecord
280
     1
102
SHADEPLOT
 70
     0
102
SHADEPLOTRESLEVEL
 70
     2
102
SHADEPLOTCUSTOMDPI
 70
   300
  0
ENDSEC
  0
EOF
