  0
SECTION
  2
HEADER
  9
$ACADVER
  1
AC1015
  9
$ACADMAINTVER
 70
    20
  9
$DWGCODEPAGE
  3
ANSI_932
  9
$INSBASE
 10
129.499999944041
 20
246.5008351249345
 30
0.0
  9
$EXTMIN
 10
-62.785948802235
 20
-55.50169309869136
 30
-0.0015258207003583
  9
$EXTMAX
 10
62.21557673324787
 20
57.50024455331765
 30
0.0000000349246037
  9
$LIMMIN
 10
0.0
 20
0.0
  9
$LIMMAX
 10
420.0
 20
297.0
  9
$ORTHOMODE
 70
     1
  9
$REGENMODE
 70
     0
  9
$FILLMODE
 70
     1
  9
$QTEXTMODE
 70
     0
  9
$MIRRTEXT
 70
     0
  9
$LTSCALE
 40
1.0
  9
$ATTMODE
 70
     1
  9
$TEXTSIZE
 40
2.5
  9
$TRACEWID
 40
1.0
  9
$TEXTSTYLE
  7
Standard
  9
$CLAYER
  8
SUNPO
  9
$CELTYPE
  6
ByLayer
  9
$CECOLOR
 62
   256
  9
$CELTSCALE
 40
1.0
  9
$DISPSILH
 70
     0
  9
$DIMSCALE
 40
1.0
  9
$DIMASZ
 40
2.0
  9
$DIMEXO
 40
2.0
  9
$DIMDLI
 40
8.0
  9
$DIMRND
 40
0.0
  9
$DIMDLE
 40
0.0
  9
$DIMEXE
 40
2.0
  9
$DIMTP
 40
0.0
  9
$DIMTM
 40
0.0
  9
$DIMTXT
 40
2.5
  9
$DIMCEN
 40
0.0
  9
$DIMTSZ
 40
0.0
  9
$DIMTOL
 70
     0
  9
$DIMLIM
 70
     0
  9
$DIMTIH
 70
     0
  9
$DIMTOH
 70
     0
  9
$DIMSE1
 70
     0
  9
$DIMSE2
 70
     0
  9
$DIMTAD
 70
     3
  9
$DIMZIN
 70
     0
  9
$DIMBLK
  1

  9
$DIMASO
 70
     1
  9
$DIMSHO
 70
     1
  9
$DIMPOST
  1

  9
$DIMAPOST
  1

  9
$DIMALT
 70
     0
  9
$DIMALTD
 70
     2
  9
$DIMALTF
 40
25.4
  9
$DIMLFAC
 40
1.0
  9
$DIMTOFL
 70
     1
  9
$DIMTVP
 40
0.0
  9
$DIMTIX
 70
     0
  9
$DIMSOXD
 70
     0
  9
$DIMSAH
 70
     1
  9
$DIMBLK1
  1
OPEN30
  9
$DIMBLK2
  1
OPEN30
  9
$DIMSTYLE
  2
STANDARD
  9
$DIMCLRD
 70
     0
  9
$DIMCLRE
 70
     0
  9
$DIMCLRT
 70
     0
  9
$DIMTFAC
 40
1.0
  9
$DIMGAP
 40
0.5
  9
$DIMJUST
 70
     0
  9
$DIMSD1
 70
     0
  9
$DIMSD2
 70
     0
  9
$DIMTOLJ
 70
     1
  9
$DIMTZIN
 70
     0
  9
$DIMALTZ
 70
     0
  9
$DIMALTTZ
 70
     0
  9
$DIMUPT
 70
     0
  9
$DIMDEC
 70
     4
  9
$DIMTDEC
 70
     4
  9
$DIMALTU
 70
     2
  9
$DIMALTTD
 70
     2
  9
$DIMTXSTY
  7
Standard
  9
$DIMAUNIT
 70
     0
  9
$DIMADEC
 70
     0
  9
$DIMALTRND
 40
0.0
  9
$DIMAZIN
 70
     0
  9
$DIMDSEP
 70
    46
  9
$DIMATFIT
 70
     3
  9
$DIMFRAC
 70
     0
  9
$DIMLDRBLK
  1
OPEN30
  9
$DIMLUNIT
 70
     2
  9
$DIMLWD
 70
    -2
  9
$DIMLWE
 70
    -2
  9
$DIMTMOVE
 70
     0
  9
$LUNITS
 70
     2
  9
$LUPREC
 70
     4
  9
$SKETCHINC
 40
1.0
  9
$FILLETRAD
 40
0.0
  9
$AUNITS
 70
     0
  9
$AUPREC
 70
     0
  9
$MENU
  1
.
  9
$ELEVATION
 40
0.0
  9
$PELEVATION
 40
0.0
  9
$THICKNESS
 40
0.0
  9
$LIMCHECK
 70
     0
  9
$CHAMFERA
 40
0.0
  9
$CHAMFERB
 40
0.0
  9
$CHAMFERC
 40
0.0
  9
$CHAMFERD
 40
0.0
  9
$SKPOLY
 70
     0
  9
$TDCREATE
 40
2454349.434269746
  9
$TDUCREATE
 40
2454349.059269746
  9
$TDUPDATE
 40
2454643.683165961
  9
$TDUUPDATE
 40
2454643.308165961
  9
$TDINDWG
 40
0.4641407176
  9
$TDUSRTIMER
 40
0.4641407176
  9
$USRTIMER
 70
     1
  9
$ANGBASE
 50
0.0
  9
$ANGDIR
 70
     0
  9
$PDMODE
 70
     0
  9
$PDSIZE
 40
0.0
  9
$PLINEWID
 40
0.0
  9
$SPLFRAME
 70
     0
  9
$SPLINETYPE
 70
     6
  9
$SPLINESEGS
 70
     8
  9
$HANDSEED
  5
22A
  9
$SURFTAB1
 70
     6
  9
$SURFTAB2
 70
     6
  9
$SURFTYPE
 70
     6
  9
$SURFU
 70
     6
  9
$SURFV
 70
     6
  9
$UCSBASE
  2

  9
$UCSNAME
  2

  9
$UCSORG
 10
0.0
 20
0.0
 30
0.0
  9
$UCSXDIR
 10
1.0
 20
0.0
 30
0.0
  9
$UCSYDIR
 10
0.0
 20
1.0
 30
0.0
  9
$UCSORTHOREF
  2

  9
$UCSORTHOVIEW
 70
     0
  9
$UCSORGTOP
 10
0.0
 20
0.0
 30
0.0
  9
$UCSORGBOTTOM
 10
0.0
 20
0.0
 30
0.0
  9
$UCSORGLEFT
 10
0.0
 20
0.0
 30
0.0
  9
$UCSORGRIGHT
 10
0.0
 20
0.0
 30
0.0
  9
$UCSORGFRONT
 10
0.0
 20
0.0
 30
0.0
  9
$UCSORGBACK
 10
0.0
 20
0.0
 30
0.0
  9
$PUCSBASE
  2

  9
$PUCSNAME
  2

  9
$PUCSORG
 10
0.0
 20
0.0
 30
0.0
  9
$PUCSXDIR
 10
1.0
 20
0.0
 30
0.0
  9
$PUCSYDIR
 10
0.0
 20
1.0
 30
0.0
  9
$PUCSORTHOREF
  2

  9
$PUCSORTHOVIEW
 70
     0
  9
$PUCSORGTOP
 10
0.0
 20
0.0
 30
0.0
  9
$PUCSORGBOTTOM
 10
0.0
 20
0.0
 30
0.0
  9
$PUCSORGLEFT
 10
0.0
 20
0.0
 30
0.0
  9
$PUCSORGRIGHT
 10
0.0
 20
0.0
 30
0.0
  9
$PUCSORGFRONT
 10
0.0
 20
0.0
 30
0.0
  9
$PUCSORGBACK
 10
0.0
 20
0.0
 30
0.0
  9
$USERI1
 70
     0
  9
$USERI2
 70
     0
  9
$USERI3
 70
     0
  9
$USERI4
 70
     0
  9
$USERI5
 70
     0
  9
$USERR1
 40
0.0
  9
$USERR2
 40
0.0
  9
$USERR3
 40
0.0
  9
$USERR4
 40
0.0
  9
$USERR5
 40
0.0
  9
$WORLDVIEW
 70
     1
  9
$SHADEDGE
 70
     3
  9
$SHADEDIF
 70
    70
  9
$TILEMODE
 70
     1
  9
$MAXACTVP
 70
    64
  9
$PINSBASE
 10
0.0
 20
0.0
 30
0.0
  9
$PLIMCHECK
 70
     0
  9
$PEXTMIN
 10
0.0
 20
0.0
 30
0.0
  9
$PEXTMAX
 10
0.0
 20
0.0
 30
0.0
  9
$PLIMMIN
 10
0.0
 20
0.0
  9
$PLIMMAX
 10
12.0
 20
9.0
  9
$UNITMODE
 70
     0
  9
$VISRETAIN
 70
     1
  9
$PLINEGEN
 70
     0
  9
$PSLTSCALE
 70
     1
  9
$TREEDEPTH
 70
  3020
  9
$CMLSTYLE
  2
Standard
  9
$CMLJUST
 70
     0
  9
$CMLSCALE
 40
20.0
  9
$PROXYGRAPHICS
 70
     1
  9
$MEASUREMENT
 70
     1
  9
$CELWEIGHT
370
    -1
  9
$ENDCAPS
280
     0
  9
$JOINSTYLE
280
     0
  9
$LWDISPLAY
290
     0
  9
$INSUNITS
 70
     4
  9
$HYPERLINKBASE
  1

  9
$STYLESHEET
  1

  9
$XEDIT
290
     1
  9
$CEPSNTYPE
380
     0
  9
$PSTYLEMODE
290
     1
  9
$FINGERPRINTGUID
  2
{FDEAD578-A652-11D2-9A35-0060089B3A3F}
  9
$VERSIONGUID
  2
{10F5C4D8-C1DB-431C-80A4-4CF292A38C7C}
  9
$EXTNAMES
290
     1
  9
$PSVPSCALE
 40
0.0
  9
$OLESTARTUP
290
     0
  0
ENDSEC
  0
SECTION
  2
CLASSES
  0
CLASS
  1
ACDBDICTIONARYWDFLT
  2
AcDbDictionaryWithDefault
  3
ObjectDBX Classes
 90
        0
280
     0
281
     0
  0
CLASS
  1
ACDBPLACEHOLDER
  2
AcDbPlaceHolder
  3
ObjectDBX Classes
 90
        0
280
     0
281
     0
  0
CLASS
  1
LAYOUT
  2
AcDbLayout
  3
ObjectDBX Classes
 90
        0
280
     0
281
     0
  0
CLASS
  1
DICTIONARYVAR
  2
AcDbDictionaryVar
  3
ObjectDBX Classes
 90
        0
280
     0
281
     0
  0
CLASS
  1
SORTENTSTABLE
  2
AcDbSortentsTable
  3
ObjectDBX Classes
 90
        0
280
     0
281
     0
  0
CLASS
  1
DIMASSOC
  2
AcDbDimAssoc
  3
"AcDbDimAssoc|Product Desc:     AcDim ARX App For Dimension|Company:          Autodesk, Inc.|WEB Address:      www.autodesk.com"
 90
    32768
280
     0
281
     0
  0
ENDSEC
  0
SECTION
  2
TABLES
  0
TABLE
  2
VPORT
  5
1D
330
0
100
AcDbSymbolTable
 70
     3
  0
VPORT
  5
222
330
1D
100
AcDbSymbolTableRecord
100
AcDbViewportTableRecord
  2
*Active
 70
     0
 10
0.0
 20
0.0
 11
1.0
 21
1.0
 12
-0.2851860344935701
 22
0.9992757273131473
 13
0.0
 23
0.0
 14
10.0
 24
10.0
 15
10.0
 25
10.0
 16
0.0
 26
0.0
 36
1.0
 17
0.0
 27
0.0
 37
0.0
 40
113.8952336018272
 41
1.439313984168865
 42
50.0
 43
0.0
 44
0.0
 50
0.0
 51
0.0
 71
     0
 72
 10000
 73
     1
 74
     2
 75
     0
 76
     0
 77
     0
 78
     0
281
     0
 65
     1
110
0.0
120
0.0
130
0.0
111
1.0
121
0.0
131
0.0
112
0.0
122
1.0
132
0.0
 79
     0
146
0.0
  0
ENDTAB
  0
TABLE
  2
LTYPE
  5
18
330
0
100
AcDbSymbolTable
 70
     1
  0
LTYPE
  5
19
330
18
100
AcDbSymbolTableRecord
100
AcDbLinetypeTableRecord
  2
ByBlock
 70
     0
  3

 72
    65
 73
     0
 40
0.0
  0
LTYPE
  5
1A
330
18
100
AcDbSymbolTableRecord
100
AcDbLinetypeTableRecord
  2
ByLayer
 70
     0
  3

 72
    65
 73
     0
 40
0.0
  0
LTYPE
  5
A
330
18
100
AcDbSymbolTableRecord
100
AcDbLinetypeTableRecord
  2
Continuous
 70
     0
  3
Solid line
 72
    65
 73
     0
 40
0.0
  0
ENDTAB
  0
TABLE
  2
LAYER
  5
12
102
{ACAD_XDICTIONARY
360
13
102
}
330
0
100
AcDbSymbolTable
 70
     7
  0
LAYER
  5
6
330
12
100
AcDbSymbolTableRecord
100
AcDbLayerTableRecord
  2
0
 70
     0
 62
     7
  6
Continuous
370
    -3
390
7
  0
LAYER
  5
38
330
12
100
AcDbSymbolTableRecord
100
AcDbLayerTableRecord
  2
WAKU
 70
     0
 62
     4
  6
Continuous
370
    -3
390
7
  0
LAYER
  5
34
330
12
100
AcDbSymbolTableRecord
100
AcDbLayerTableRecord
  2
MOJI1
 70
     0
 62
     2
  6
Continuous
370
    -3
390
7
  0
LAYER
  5
32
330
12
100
AcDbSymbolTableRecord
100
AcDbLayerTableRecord
  2
TOUROKU
 70
     0
 62
     1
  6
Continuous
370
    -3
390
7
  0
LAYER
  5
53
330
12
100
AcDbSymbolTableRecord
100
AcDbLayerTableRecord
  2
GAIKEI
 70
     0
 62
     7
  6
Continuous
370
    -3
390
7
  0
LAYER
  5
C2
330
12
100
AcDbSymbolTableRecord
100
AcDbLayerTableRecord
  2
DEFPOINTS
 70
     0
 62
     7
  6
Continuous
290
     0
370
    -3
390
7
  0
LAYER
  5
2F
330
12
100
AcDbSymbolTableRecord
100
AcDbLayerTableRecord
  2
SUNPO
 70
     0
 62
     3
  6
Continuous
370
    -3
390
7
  0
ENDTAB
  0
TABLE
  2
STYLE
  5
15
330
0
100
AcDbSymbolTable
 70
     1
  0
STYLE
  5
16
330
15
100
AcDbSymbolTableRecord
100
AcDbTextStyleTableRecord
  2
Standard
 70
     0
 40
0.0
 41
1.0
 50
0.0
 71
     0
 42
2.5
  3
MONOTXT.shx
  4
BIGFONT.shx
  0
ENDTAB
  0
TABLE
  2
VIEW
  5
1B
330
0
100
AcDbSymbolTable
 70
     0
  0
ENDTAB
  0
TABLE
  2
UCS
  5
1C
330
0
100
AcDbSymbolTable
 70
     0
  0
ENDTAB
  0
TABLE
  2
APPID
  5
1F
330
0
100
AcDbSymbolTable
 70
     2
  0
APPID
  5
20
330
1F
100
AcDbSymbolTableRecord
100
AcDbRegAppTableRecord
  2
ACAD
 70
     0
  0
APPID
  5
1DE
330
1F
100
AcDbSymbolTableRecord
100
AcDbRegAppTableRecord
  2
DCO15
 70
     0
  0
ENDTAB
  0
TABLE
  2
DIMSTYLE
  5
21
330
0
100
AcDbSymbolTable
 70
     1
100
AcDbDimStyleTable
 71
     1
340
22
  0
DIMSTYLE
105
22
102
{ACAD_REACTORS
330
B6
330
147
330
154
330
1C6
102
}
330
21
100
AcDbSymbolTableRecord
100
AcDbDimStyleTableRecord
  2
STANDARD
 70
     0
 40
0.0
 41
2.0
 42
2.0
 43
8.0
 44
2.0
 73
     0
 74
     0
 77
     3
140
3.0
141
0.0
173
     1
279
     2
288
     1
340
16
341
23
343
23
344
23
  0
ENDTAB
  0
TABLE
  2
BLOCK_RECORD
  5
1
330
0
100
AcDbSymbolTable
 70
     9
  0
BLOCK_RECORD
  5
2
102
{ACAD_XDICTIONARY
360
3
102
}
330
1
100
AcDbSymbolTableRecord
100
AcDbBlockTableRecord
  2
*Model_Space
340
C
  0
BLOCK_RECORD
  5
E
330
1
100
AcDbSymbolTableRecord
100
AcDbBlockTableRecord
  2
*Paper_Space
340
11
  0
BLOCK_RECORD
  5
23
330
1
100
AcDbSymbolTableRecord
100
AcDbBlockTableRecord
  2
_OPEN30
340
0
102
{BLKREFS
331
1CC
331
1CD
331
15A
331
15B
331
14D
331
14E
331
BE
331
BF
331
1F0
331
1F1
331
1FC
331
1FD
331
208
331
209
331
216
331
217
102
}
  0
BLOCK_RECORD
  5
B7
330
1
100
AcDbSymbolTableRecord
100
AcDbBlockTableRecord
  2
*D1
340
0
  0
BLOCK_RECORD
  5
148
330
1
100
AcDbSymbolTableRecord
100
AcDbBlockTableRecord
  2
*D2
340
0
  0
BLOCK_RECORD
  5
155
330
1
100
AcDbSymbolTableRecord
100
AcDbBlockTableRecord
  2
*D3
340
0
  0
BLOCK_RECORD
  5
1C7
330
1
100
AcDbSymbolTableRecord
100
AcDbBlockTableRecord
  2
*D4
340
0
  0
BLOCK_RECORD
  5
1EC
330
1
100
AcDbSymbolTableRecord
100
AcDbBlockTableRecord
  2
*D5
340
0
  0
BLOCK_RECORD
  5
1F8
330
1
100
AcDbSymbolTableRecord
100
AcDbBlockTableRecord
  2
*D6
340
0
  0
BLOCK_RECORD
  5
204
330
1
100
AcDbSymbolTableRecord
100
AcDbBlockTableRecord
  2
*D7
340
0
  0
BLOCK_RECORD
  5
210
330
1
100
AcDbSymbolTableRecord
100
AcDbBlockTableRecord
  2
*D8
340
0
  0
ENDTAB
  0
ENDSEC
  0
SECTION
  2
BLOCKS
  0
BLOCK
  5
5
330
2
100
AcDbEntity
  8
0
100
AcDbBlockBegin
  2
*Model_Space
 70
     0
 10
0.0
 20
0.0
 30
0.0
  3
*Model_Space
  1

  0
ENDBLK
  5
B
330
2
100
AcDbEntity
  8
0
100
AcDbBlockEnd
  0
BLOCK
  5
F
330
E
100
AcDbEntity
 67
     1
  8
0
100
AcDbBlockBegin
  2
*Paper_Space
 70
     0
 10
0.0
 20
0.0
 30
0.0
  3
*Paper_Space
  1

  0
ENDBLK
  5
10
330
E
100
AcDbEntity
 67
     1
  8
0
100
AcDbBlockEnd
  0
BLOCK
  5
24
330
23
100
AcDbEntity
  8
0
100
AcDbBlockBegin
  2
_OPEN30
 70
     0
 10
0.0
 20
0.0
 30
0.0
  3
_OPEN30
  1

  0
LINE
  5
25
330
23
100
AcDbEntity
  8
0
  6
ByBlock
 62
     0
100
AcDbLine
 10
-1.0
 20
0.26794919
 30
0.0
 11
0.0
 21
0.0
 31
0.0
  0
LINE
  5
26
330
23
100
AcDbEntity
  8
0
  6
ByBlock
 62
     0
100
AcDbLine
 10
0.0
 20
0.0
 30
0.0
 11
-1.0
 21
-0.26794919
 31
0.0
  0
LINE
  5
27
330
23
100
AcDbEntity
  8
0
  6
ByBlock
 62
     0
100
AcDbLine
 10
0.0
 20
0.0
 30
0.0
 11
-1.0
 21
0.0
 31
0.0
  0
ENDBLK
  5
28
330
23
100
AcDbEntity
  8
0
100
AcDbBlockEnd
  0
BLOCK
  5
B8
330
B7
100
AcDbEntity
  8
0
100
AcDbBlockBegin
  2
*D1
 70
     1
 10
0.0
 20
0.0
 30
0.0
  3
*D1
  1

  0
LINE
  5
B9
330
B7
100
AcDbEntity
  8
SUNPO
 62
     0
370
    -2
100
AcDbLine
 10
231.9163645955756
 20
216.0293375253577
 30
0.0
 11
231.9163645955756
 21
224.0293375253577
 31
0.0
  0
LINE
  5
BA
330
B7
100
AcDbEntity
  8
SUNPO
 62
     0
370
    -2
100
AcDbLine
 10
236.3663848617518
 20
216.0293375253577
 30
0.0
 11
236.3663848617518
 21
224.0293375253577
 31
0.0
  0
LINE
  5
BB
330
B7
100
AcDbEntity
  8
SUNPO
 62
     0
370
    -2
100
AcDbLine
 10
229.9163645955756
 20
222.0293375253577
 30
0.0
 11
227.9163645955756
 21
222.0293375253577
 31
0.0
  0
LINE
  5
BC
330
B7
100
AcDbEntity
  8
SUNPO
 62
     0
370
    -2
100
AcDbLine
 10
238.3663848617518
 20
222.0293375253577
 30
0.0
 11
245.5330515284185
 21
222.0293375253577
 31
0.0
  0
LINE
  5
BD
330
B7
100
AcDbEntity
  8
SUNPO
 62
     0
370
    -2
100
AcDbLine
 10
231.9163645955756
 20
222.0293375253577
 30
0.0
 11
236.3663848617518
 21
222.0293375253577
 31
0.0
  0
INSERT
  5
BE
330
B7
100
AcDbEntity
  8
SUNPO
 62
     0
370
    -2
100
AcDbBlockReference
  2
_OPEN30
 10
231.9163645955756
 20
222.0293375253577
 30
0.0
 41
2.0
 42
2.0
 43
2.0
  0
INSERT
  5
BF
330
B7
100
AcDbEntity
  8
SUNPO
 62
     0
370
    -2
100
AcDbBlockReference
  2
_OPEN30
 10
236.3663848617518
 20
222.0293375253577
 30
0.0
 41
2.0
 42
2.0
 43
2.0
 50
180.0
  0
MTEXT
  5
C0
330
B7
100
AcDbEntity
  8
SUNPO
 62
     0
100
AcDbMText
 10
242.9497181950852
 20
223.7793375253577
 30
0.0
 40
2.5
 41
0.0
 71
     5
 72
     1
  1
\A1;95
 73
     1
 44
1.0
1001
ACAD
1000
MTEXTBEGIN
1070
    73
1070
     1
1070
    44
1040
1.0
1070
    74
1070
     0
1000
MTEXTEND
  0
POINT
  5
C1
330
B7
100
AcDbEntity
  8
DEFPOINTS
 62
     0
100
AcDbPoint
 10
231.9163645955756
 20
214.0293375253577
 30
0.0
  0
POINT
  5
C3
330
B7
100
AcDbEntity
  8
DEFPOINTS
 62
     0
100
AcDbPoint
 10
236.3663848617518
 20
214.0293375253577
 30
0.0
  0
POINT
  5
C4
330
B7
100
AcDbEntity
  8
DEFPOINTS
 62
     0
100
AcDbPoint
 10
236.3663848617518
 20
222.0293375253577
 30
0.0
  0
ENDBLK
  5
C5
330
B7
100
AcDbEntity
  8
0
100
AcDbBlockEnd
  0
BLOCK
  5
149
330
148
100
AcDbEntity
  8
0
100
AcDbBlockBegin
  2
*D2
 70
     1
 10
0.0
 20
0.0
 30
0.0
  3
*D2
  1

  0
LINE
  5
14A
330
148
100
AcDbEntity
  8
SUNPO
 62
     0
370
    -2
100
AcDbLine
 10
212.4699263677334
 20
183.5094277676692
 30
0.0
 11
220.4699263677333
 21
183.5094277676692
 31
0.0
  0
LINE
  5
14B
330
148
100
AcDbEntity
  8
SUNPO
 62
     0
370
    -2
100
AcDbLine
 10
212.4699263677334
 20
214.0094277676692
 30
0.0
 11
220.4699263677333
 21
214.0094277676692
 31
0.0
  0
LINE
  5
14C
330
148
100
AcDbEntity
  8
SUNPO
 62
     0
370
    -2
100
AcDbLine
 10
218.4699263677333
 20
185.5094277676692
 30
0.0
 11
218.4699263677334
 21
212.0094277676692
 31
0.0
  0
INSERT
  5
14D
330
148
100
AcDbEntity
  8
SUNPO
 62
     0
370
    -2
100
AcDbBlockReference
  2
_OPEN30
 10
218.4699263677333
 20
183.5094277676692
 30
0.0
 41
2.0
 42
2.0
 43
2.0
 50
270.0
  0
INSERT
  5
14E
330
148
100
AcDbEntity
  8
SUNPO
 62
     0
370
    -2
100
AcDbBlockReference
  2
_OPEN30
 10
218.4699263677334
 20
214.0094277676692
 30
0.0
 41
2.0
 42
2.0
 43
2.0
 50
90.0
  0
MTEXT
  5
14F
330
148
100
AcDbEntity
  8
SUNPO
 62
     0
100
AcDbMText
 10
216.7199263677333
 20
198.7594277676692
 30
0.0
 40
2.5
 41
0.0
 71
     5
 72
     1
  1
\A1;610
 11
0.0000000000000001
 21
1.0
 31
0.0
 73
     1
 44
1.0
1001
ACAD
1000
MTEXTBEGIN
1070
    73
1070
     1
1070
    44
1040
1.0
1070
    74
1070
     0
1000
MTEXTEND
  0
POINT
  5
150
330
148
100
AcDbEntity
  8
DEFPOINTS
 62
     0
100
AcDbPoint
 10
210.4699263677334
 20
183.5094277676692
 30
0.0
  0
POINT
  5
151
330
148
100
AcDbEntity
  8
DEFPOINTS
 62
     0
100
AcDbPoint
 10
210.4699263677334
 20
214.0094277676692
 30
0.0
  0
POINT
  5
152
330
148
100
AcDbEntity
  8
DEFPOINTS
 62
     0
100
AcDbPoint
 10
218.4699263677334
 20
214.0094277676692
 30
0.0
  0
ENDBLK
  5
153
330
148
100
AcDbEntity
  8
0
100
AcDbBlockEnd
  0
BLOCK
  5
156
330
155
100
AcDbEntity
  8
0
100
AcDbBlockBegin
  2
*D3
 70
     1
 10
0.0
 20
0.0
 30
0.0
  3
*D3
  1

  0
LINE
  5
157
330
155
100
AcDbEntity
  8
SUNPO
 62
     0
370
    -2
100
AcDbLine
 10
155.1423753807107
 20
216.0091413233179
 30
0.0
 11
155.1423753807107
 21
224.0293375253577
 31
0.0
  0
LINE
  5
158
330
155
100
AcDbEntity
  8
SUNPO
 62
     0
370
    -2
100
AcDbLine
 10
205.2423753807107
 20
216.0091413233179
 30
0.0
 11
205.2423753807107
 21
224.0293375253577
 31
0.0
  0
LINE
  5
159
330
155
100
AcDbEntity
  8
SUNPO
 62
     0
370
    -2
100
AcDbLine
 10
157.1423753807107
 20
222.0293375253577
 30
0.0
 11
203.2423753807108
 21
222.0293375253577
 31
0.0
  0
INSERT
  5
15A
330
155
100
AcDbEntity
  8
SUNPO
 62
     0
370
    -2
100
AcDbBlockReference
  2
_OPEN30
 10
155.1423753807107
 20
222.0293375253577
 30
0.0
 41
2.0
 42
2.0
 43
2.0
 50
180.0
  0
INSERT
  5
15B
330
155
100
AcDbEntity
  8
SUNPO
 62
     0
370
    -2
100
AcDbBlockReference
  2
_OPEN30
 10
205.2423753807107
 20
222.0293375253577
 30
0.0
 41
2.0
 42
2.0
 43
2.0
  0
MTEXT
  5
15C
330
155
100
AcDbEntity
  8
SUNPO
 62
     0
100
AcDbMText
 10
180.1923753807107
 20
223.7793375253577
 30
0.0
 40
2.5
 41
0.0
 71
     5
 72
     1
  1
\A1;1020
 73
     1
 44
1.0
1001
ACAD
1000
MTEXTBEGIN
1070
    73
1070
     1
1070
    44
1040
1.0
1070
    74
1070
     0
1000
MTEXTEND
  0
POINT
  5
15D
330
155
100
AcDbEntity
  8
DEFPOINTS
 62
     0
100
AcDbPoint
 10
155.1423753807107
 20
214.0091413233179
 30
0.0
  0
POINT
  5
15E
330
155
100
AcDbEntity
  8
DEFPOINTS
 62
     0
100
AcDbPoint
 10
205.2423753807107
 20
214.0091413233179
 30
0.0
  0
POINT
  5
15F
330
155
100
AcDbEntity
  8
DEFPOINTS
 62
     0
100
AcDbPoint
 10
205.2423753807107
 20
222.0293375253577
 30
0.0
  0
ENDBLK
  5
160
330
155
100
AcDbEntity
  8
0
100
AcDbBlockEnd
  0
BLOCK
  5
1C8
330
1C7
100
AcDbEntity
  8
0
100
AcDbBlockBegin
  2
*D4
 70
     1
 10
0.0
 20
0.0
 30
0.0
  3
*D4
  1

  0
LINE
  5
1C9
330
1C7
100
AcDbEntity
  8
SUNPO
 62
     0
370
    -2
100
AcDbLine
 10
149.8911595309508
 20
215.9981751120032
 30
0.0
 11
149.8911595309508
 21
230.0293375253577
 31
0.0
  0
LINE
  5
1CA
330
1C7
100
AcDbEntity
  8
SUNPO
 62
     0
370
    -2
100
AcDbLine
 10
210.4935912304707
 20
215.9855138543056
 30
0.0
 11
210.4935912304707
 21
230.0293375253577
 31
0.0
  0
LINE
  5
1CB
330
1C7
100
AcDbEntity
  8
SUNPO
 62
     0
370
    -2
100
AcDbLine
 10
151.8911595309508
 20
228.0293375253577
 30
0.0
 11
208.4935912304707
 21
228.0293375253577
 31
0.0
  0
INSERT
  5
1CC
330
1C7
100
AcDbEntity
  8
SUNPO
 62
     0
370
    -2
100
AcDbBlockReference
  2
_OPEN30
 10
149.8911595309508
 20
228.0293375253577
 30
0.0
 41
2.0
 42
2.0
 43
2.0
 50
180.0
  0
INSERT
  5
1CD
330
1C7
100
AcDbEntity
  8
SUNPO
 62
     0
370
    -2
100
AcDbBlockReference
  2
_OPEN30
 10
210.4935912304707
 20
228.0293375253577
 30
0.0
 41
2.0
 42
2.0
 43
2.0
  0
MTEXT
  5
1CE
330
1C7
100
AcDbEntity
  8
SUNPO
 62
     0
100
AcDbMText
 10
180.1923753807107
 20
229.7793375253577
 30
0.0
 40
2.5
 41
0.0
 71
     5
 72
     1
  1
\A1;1230
 73
     1
 44
1.0
1001
ACAD
1000
MTEXTBEGIN
1070
    73
1070
     1
1070
    44
1040
1.0
1070
    74
1070
     0
1000
MTEXTEND
  0
POINT
  5
1CF
330
1C7
100
AcDbEntity
  8
DEFPOINTS
 62
     0
100
AcDbPoint
 10
149.8911595309508
 20
213.9981751120032
 30
0.0
  0
POINT
  5
1D0
330
1C7
100
AcDbEntity
  8
DEFPOINTS
 62
     0
100
AcDbPoint
 10
210.4935912304707
 20
213.9855138543056
 30
0.0
  0
POINT
  5
1D1
330
1C7
100
AcDbEntity
  8
DEFPOINTS
 62
     0
100
AcDbPoint
 10
210.4935912304707
 20
228.0293375253577
 30
0.0
  0
ENDBLK
  5
1D2
330
1C7
100
AcDbEntity
  8
0
100
AcDbBlockEnd
  0
BLOCK
  5
1F6
330
1EC
100
AcDbEntity
  8
0
100
AcDbBlockBegin
  2
*D5
 70
     1
 10
0.0
 20
0.0
 30
0.0
  3
*D5
  1

  0
LINE
  5
1ED
330
1EC
100
AcDbEntity
  8
SUNPO
 62
     0
370
    -2
100
AcDbLine
 10
-44.39439165657029
 20
28.99672532145146
 30
0.0
 11
-44.39439165657029
 21
43.02788773480597
 31
0.0
  0
LINE
  5
1EE
330
1EC
100
AcDbEntity
  8
SUNPO
 62
     0
370
    -2
100
AcDbLine
 10
16.2080400429495
 20
28.98406406375389
 30
0.0
 11
16.2080400429495
 21
43.02788773480597
 31
0.0
  0
LINE
  5
1EF
330
1EC
100
AcDbEntity
  8
SUNPO
 62
     0
370
    -2
100
AcDbLine
 10
-42.39439165657029
 20
41.02788773480597
 30
0.0
 11
14.2080400429495
 21
41.02788773480597
 31
0.0
  0
INSERT
  5
1F0
330
1EC
100
AcDbEntity
  8
SUNPO
 62
     0
370
    -2
100
AcDbBlockReference
  2
_OPEN30
 10
-44.39439165657029
 20
41.02788773480597
 30
0.0
 41
2.0
 42
2.0
 43
2.0
 50
180.0
  0
INSERT
  5
1F1
330
1EC
100
AcDbEntity
  8
SUNPO
 62
     0
370
    -2
100
AcDbBlockReference
  2
_OPEN30
 10
16.2080400429495
 20
41.02788773480597
 30
0.0
 41
2.0
 42
2.0
 43
2.0
  0
MTEXT
  5
1F2
330
1EC
100
AcDbEntity
  8
SUNPO
 62
     0
100
AcDbMText
 10
-14.09317580681039
 20
42.77788773480597
 30
0.0
 40
2.5
 41
0.0
 71
     5
 72
     1
  1
\A1;1230
 73
     1
 44
1.0
1001
ACAD
1000
MTEXTBEGIN
1070
    73
1070
     1
1070
    44
1040
1.0
1070
    74
1070
     0
1000
MTEXTEND
  0
POINT
  5
1F3
330
1EC
100
AcDbEntity
  8
DEFPOINTS
 62
     0
100
AcDbPoint
 10
-44.39439165657029
 20
26.99672532145147
 30
0.0
  0
POINT
  5
1F4
330
1EC
100
AcDbEntity
  8
DEFPOINTS
 62
     0
100
AcDbPoint
 10
16.2080400429495
 20
26.98406406375389
 30
0.0
  0
POINT
  5
1F5
330
1EC
100
AcDbEntity
  8
DEFPOINTS
 62
     0
100
AcDbPoint
 10
16.2080400429495
 20
41.02788773480597
 30
0.0
  0
ENDBLK
  5
1F7
330
1EC
100
AcDbEntity
  8
0
100
AcDbBlockEnd
  0
BLOCK
  5
202
330
1F8
100
AcDbEntity
  8
0
100
AcDbBlockBegin
  2
*D6
 70
     1
 10
0.0
 20
0.0
 30
0.0
  3
*D6
  1

  0
LINE
  5
1F9
330
1F8
100
AcDbEntity
  8
SUNPO
 62
     0
370
    -2
100
AcDbLine
 10
-39.14317580681041
 20
29.0076915327661
 30
0.0
 11
-39.14317580681041
 21
37.02788773480597
 31
0.0
  0
LINE
  5
1FA
330
1F8
100
AcDbEntity
  8
SUNPO
 62
     0
370
    -2
100
AcDbLine
 10
10.95682419318962
 20
29.0076915327661
 30
0.0
 11
10.95682419318962
 21
37.02788773480597
 31
0.0
  0
LINE
  5
1FB
330
1F8
100
AcDbEntity
  8
SUNPO
 62
     0
370
    -2
100
AcDbLine
 10
-37.1431758068104
 20
35.02788773480598
 30
0.0
 11
8.956824193189618
 21
35.02788773480598
 31
0.0
  0
INSERT
  5
1FC
330
1F8
100
AcDbEntity
  8
SUNPO
 62
     0
370
    -2
100
AcDbBlockReference
  2
_OPEN30
 10
-39.14317580681041
 20
35.02788773480598
 30
0.0
 41
2.0
 42
2.0
 43
2.0
 50
180.0
  0
INSERT
  5
1FD
330
1F8
100
AcDbEntity
  8
SUNPO
 62
     0
370
    -2
100
AcDbBlockReference
  2
_OPEN30
 10
10.95682419318962
 20
35.02788773480598
 30
0.0
 41
2.0
 42
2.0
 43
2.0
  0
MTEXT
  5
1FE
330
1F8
100
AcDbEntity
  8
SUNPO
 62
     0
100
AcDbMText
 10
-14.09317580681039
 20
36.77788773480597
 30
0.0
 40
2.5
 41
0.0
 71
     5
 72
     1
  1
\A1;1020
 73
     1
 44
1.0
1001
ACAD
1000
MTEXTBEGIN
1070
    73
1070
     1
1070
    44
1040
1.0
1070
    74
1070
     0
1000
MTEXTEND
  0
POINT
  5
1FF
330
1F8
100
AcDbEntity
  8
DEFPOINTS
 62
     0
100
AcDbPoint
 10
-39.14317580681041
 20
27.0076915327661
 30
0.0
  0
POINT
  5
200
330
1F8
100
AcDbEntity
  8
DEFPOINTS
 62
     0
100
AcDbPoint
 10
10.95682419318962
 20
27.0076915327661
 30
0.0
  0
POINT
  5
201
330
1F8
100
AcDbEntity
  8
DEFPOINTS
 62
     0
100
AcDbPoint
 10
10.95682419318962
 20
35.02788773480598
 30
0.0
  0
ENDBLK
  5
203
330
1F8
100
AcDbEntity
  8
0
100
AcDbBlockEnd
  0
BLOCK
  5
20E
330
204
100
AcDbEntity
  8
0
100
AcDbBlockBegin
  2
*D7
 70
     1
 10
0.0
 20
0.0
 30
0.0
  3
*D7
  1

  0
LINE
  5
205
330
204
100
AcDbEntity
  8
SUNPO
 62
     0
370
    -2
100
AcDbLine
 10
18.18437518021221
 20
-3.492022022882566
 30
0.0
 11
26.18437518021221
 21
-3.492022022882568
 31
0.0
  0
LINE
  5
206
330
204
100
AcDbEntity
  8
SUNPO
 62
     0
370
    -2
100
AcDbLine
 10
18.18437518021221
 20
27.00797797711743
 30
0.0
 11
26.18437518021222
 21
27.00797797711743
 31
0.0
  0
LINE
  5
207
330
204
100
AcDbEntity
  8
SUNPO
 62
     0
370
    -2
100
AcDbLine
 10
24.18437518021221
 20
-1.492022022882567
 30
0.0
 11
24.18437518021221
 21
25.00797797711743
 31
0.0
  0
INSERT
  5
208
330
204
100
AcDbEntity
  8
SUNPO
 62
     0
370
    -2
100
AcDbBlockReference
  2
_OPEN30
 10
24.18437518021221
 20
-3.492022022882567
 30
0.0
 41
2.0
 42
2.0
 43
2.0
 50
270.0
  0
INSERT
  5
209
330
204
100
AcDbEntity
  8
SUNPO
 62
     0
370
    -2
100
AcDbBlockReference
  2
_OPEN30
 10
24.18437518021221
 20
27.00797797711743
 30
0.0
 41
2.0
 42
2.0
 43
2.0
 50
90.0
  0
MTEXT
  5
20A
330
204
100
AcDbEntity
  8
SUNPO
 62
     0
100
AcDbMText
 10
22.43437518021221
 20
11.75797797711743
 30
0.0
 40
2.5
 41
0.0
 71
     5
 72
     1
  1
\A1;610
 11
0.0000000000000001
 21
1.0
 31
0.0
 73
     1
 44
1.0
1001
ACAD
1000
MTEXTBEGIN
1070
    73
1070
     1
1070
    44
1040
1.0
1070
    74
1070
     0
1000
MTEXTEND
  0
POINT
  5
20B
330
204
100
AcDbEntity
  8
DEFPOINTS
 62
     0
100
AcDbPoint
 10
16.18437518021221
 20
-3.492022022882565
 30
0.0
  0
POINT
  5
20C
330
204
100
AcDbEntity
  8
DEFPOINTS
 62
     0
100
AcDbPoint
 10
16.18437518021221
 20
27.00797797711743
 30
0.0
  0
POINT
  5
20D
330
204
100
AcDbEntity
  8
DEFPOINTS
 62
     0
100
AcDbPoint
 10
24.18437518021221
 20
27.00797797711743
 30
0.0
  0
ENDBLK
  5
20F
330
204
100
AcDbEntity
  8
0
100
AcDbBlockEnd
  0
BLOCK
  5
21C
330
210
100
AcDbEntity
  8
0
100
AcDbBlockBegin
  2
*D8
 70
     1
 10
0.0
 20
0.0
 30
0.0
  3
*D8
  1

  0
LINE
  5
211
330
210
100
AcDbEntity
  8
SUNPO
 62
     0
370
    -2
100
AcDbLine
 10
37.63081340805451
 20
29.02788773480597
 30
0.0
 11
37.63081340805451
 21
37.02788773480597
 31
0.0
  0
LINE
  5
212
330
210
100
AcDbEntity
  8
SUNPO
 62
     0
370
    -2
100
AcDbLine
 10
42.08083367423069
 20
29.02788773480597
 30
0.0
 11
42.08083367423069
 21
37.02788773480597
 31
0.0
  0
LINE
  5
213
330
210
100
AcDbEntity
  8
SUNPO
 62
     0
370
    -2
100
AcDbLine
 10
35.63081340805451
 20
35.02788773480598
 30
0.0
 11
33.63081340805451
 21
35.02788773480598
 31
0.0
  0
LINE
  5
214
330
210
100
AcDbEntity
  8
SUNPO
 62
     0
370
    -2
100
AcDbLine
 10
44.08083367423069
 20
35.02788773480598
 30
0.0
 11
51.24750034089736
 21
35.02788773480598
 31
0.0
  0
LINE
  5
215
330
210
100
AcDbEntity
  8
SUNPO
 62
     0
370
    -2
100
AcDbLine
 10
37.63081340805451
 20
35.02788773480598
 30
0.0
 11
42.08083367423069
 21
35.02788773480598
 31
0.0
  0
INSERT
  5
216
330
210
100
AcDbEntity
  8
SUNPO
 62
     0
370
    -2
100
AcDbBlockReference
  2
_OPEN30
 10
37.63081340805451
 20
35.02788773480598
 30
0.0
 41
2.0
 42
2.0
 43
2.0
  0
INSERT
  5
217
330
210
100
AcDbEntity
  8
SUNPO
 62
     0
370
    -2
100
AcDbBlockReference
  2
_OPEN30
 10
42.08083367423069
 20
35.02788773480598
 30
0.0
 41
2.0
 42
2.0
 43
2.0
 50
180.0
  0
MTEXT
  5
218
330
210
100
AcDbEntity
  8
SUNPO
 62
     0
100
AcDbMText
 10
48.66416700756403
 20
36.77788773480597
 30
0.0
 40
2.5
 41
0.0
 71
     5
 72
     1
  1
\A1;95
 73
     1
 44
1.0
1001
ACAD
1000
MTEXTBEGIN
1070
    73
1070
     1
1070
    44
1040
1.0
1070
    74
1070
     0
1000
MTEXTEND
  0
POINT
  5
219
330
210
100
AcDbEntity
  8
DEFPOINTS
 62
     0
100
AcDbPoint
 10
37.63081340805451
 20
27.02788773480597
 30
0.0
  0
POINT
  5
21A
330
210
100
AcDbEntity
  8
DEFPOINTS
 62
     0
100
AcDbPoint
 10
42.08083367423069
 20
27.02788773480597
 30
0.0
  0
POINT
  5
21B
330
210
100
AcDbEntity
  8
DEFPOINTS
 62
     0
100
AcDbPoint
 10
42.08083367423069
 20
35.02788773480598
 30
0.0
  0
ENDBLK
  5
21D
330
210
100
AcDbEntity
  8
0
100
AcDbBlockEnd
  0
ENDSEC
  0
SECTION
  2
ENTITIES
  0
TEXT
  5
31
330
2
100
AcDbEntity
  8
TOUROKU
100
AcDbText
 10
17.41439878944756
 20
47.49938533438302
 30
0.0
 40
2.0
  1
ＴＨ４２ＰＨ１１Ｋ＋ＴＹＳＰ４２Ｐ８Ｋ
 72
     2
 11
62.21439878944756
 21
47.49938533438302
 31
0.0
100
AcDbText
  0
TEXT
  5
33
330
2
100
AcDbEntity
  8
MOJI1
100
AcDbText
 10
-35.78555124348009
 20
53.49938533438325
 30
0.0
 40
4.0
  1
ハイビジョンプラズマディスプレイ（ＳＰ付）
100
AcDbText
  0
TEXT
  5
35
330
2
100
AcDbEntity
  8
MOJI1
100
AcDbText
 10
-60.28555124347986
 20
-39.50061466561692
 30
0.0
 40
3.0
  1
階調数
100
AcDbText
  0
TEXT
  5
36
330
2
100
AcDbEntity
  8
MOJI1
100
AcDbText
 10
-60.28555124347986
 20
-34.50061466561692
 30
0.0
 40
3.0
  1
コントラスト
100
AcDbText
  0
LINE
  5
37
330
2
100
AcDbEntity
  8
WAKU
 62
     1
100
AcDbLine
 10
-62.78555124347986
 20
-40.50061466561692
 30
0.0
 11
62.21444875651991
 21
-40.50061466561692
 31
0.0
  0
LINE
  5
39
330
2
100
AcDbEntity
  8
WAKU
 62
     1
100
AcDbLine
 10
-62.78555124347986
 20
-35.50061466561692
 30
0.0
 11
62.21444875651991
 21
-35.50061466561692
 31
0.0
  0
TEXT
  5
3A
330
2
100
AcDbEntity
  8
MOJI1
100
AcDbText
 10
-60.28555124347986
 20
-14.50061466561692
 30
0.0
 40
3.0
  1
電  源
100
AcDbText
  0
TEXT
  5
3B
330
2
100
AcDbEntity
  8
MOJI1
100
AcDbText
 10
-60.28555124347986
 20
-19.50061466561692
 30
0.0
 40
3.0
  1
消費電力
100
AcDbText
  0
TEXT
  5
3C
330
2
100
AcDbEntity
  8
MOJI1
100
AcDbText
 10
-60.28555124347986
 20
-24.50061466561692
 30
0.0
 40
3.0
  1
画面サイズ
100
AcDbText
  0
TEXT
  5
3D
330
2
100
AcDbEntity
  8
MOJI1
100
AcDbText
 10
-21.28555124347986
 20
-19.50061466561692
 30
0.0
 40
3.0
  1
３５５Ｗ
100
AcDbText
  0
TEXT
  5
3E
330
2
100
AcDbEntity
  8
MOJI1
100
AcDbText
 10
-21.28555124347986
 20
-24.50061466561692
 30
0.0
 40
3.0
  1
４２Ｖ型（１６：９）
100
AcDbText
  0
TEXT
  5
3F
330
2
100
AcDbEntity
  8
MOJI1
100
AcDbText
 10
-21.28555124347986
 20
-14.50061466561692
 30
0.0
 40
3.0
  1
ＡＣ１００Ｖ　５０Ｈｚ／６０Ｈｚ
100
AcDbText
  0
TEXT
  5
40
330
2
100
AcDbEntity
  8
MOJI1
100
AcDbText
 10
-60.28555124347986
 20
-49.50061466561692
 30
0.0
 40
3.0
  1
接続端子
100
AcDbText
  0
TEXT
  5
41
330
2
100
AcDbEntity
  8
MOJI1
100
AcDbText
 10
-60.28555124347986
 20
-44.50061466561692
 30
0.0
 40
3.0
  1
音声最大出力
100
AcDbText
  0
TEXT
  5
42
330
2
100
AcDbEntity
  8
MOJI1
100
AcDbText
 10
-21.28555124347986
 20
-44.50061466561692
 30
0.0
 40
3.0
  1
１６Ｗ（８Ｗ＋８Ｗ）
100
AcDbText
  0
TEXT
  5
43
330
2
100
AcDbEntity
  8
MOJI1
100
AcDbText
 10
-21.28555124347986
 20
-54.50061466561692
 30
0.0
 40
3.0
  1
シリアル
100
AcDbText
  0
TEXT
  5
44
330
2
100
AcDbEntity
  8
MOJI1
100
AcDbText
 10
-21.28555124347986
 20
-49.50061466561692
 30
0.0
 40
3.0
  1
ビデオ／Ｓビデオ／ＰＣ／外部スピーカ
100
AcDbText
  0
TEXT
  5
45
330
2
100
AcDbEntity
  8
MOJI1
100
AcDbText
 10
-21.28555124347986
 20
-29.50061466561692
 30
0.0
 40
3.0
  1
７８６４３２画素（水平１０２４×垂直７６８）
100
AcDbText
  0
LINE
  5
46
330
2
100
AcDbEntity
  8
WAKU
 62
     4
100
AcDbLine
 10
-22.78555124348009
 20
-10.50061466561692
 30
0.0
 11
-22.78555124348009
 21
-55.50061466561692
 31
0.0
  0
TEXT
  5
47
330
2
100
AcDbEntity
  8
MOJI1
100
AcDbText
 10
-60.28555124347986
 20
-29.50061466561692
 30
0.0
 40
3.0
  1
画素数
100
AcDbText
  0
LINE
  5
48
330
2
100
AcDbEntity
  8
WAKU
 62
     4
100
AcDbLine
 10
62.21444875651991
 20
-10.50061466561692
 30
0.0
 11
62.21444875651991
 21
-55.50061466561692
 31
0.0
  0
LINE
  5
49
330
2
100
AcDbEntity
  8
WAKU
 62
     4
100
AcDbLine
 10
-62.78555124348009
 20
-10.50061466561692
 30
0.0
 11
-62.78555124347986
 21
-55.50061466561692
 31
0.0
  0
LINE
  5
4A
330
2
100
AcDbEntity
  8
WAKU
 62
     4
100
AcDbLine
 10
62.21444875651991
 20
-55.50061466561692
 30
0.0
 11
-62.78555124347986
 21
-55.50061466561692
 31
0.0
  0
LINE
  5
4B
330
2
100
AcDbEntity
  8
WAKU
 62
     1
100
AcDbLine
 10
-62.78555124347986
 20
-50.50061466561692
 30
0.0
 11
62.21444875651991
 21
-50.50061466561692
 31
0.0
  0
LINE
  5
4C
330
2
100
AcDbEntity
  8
WAKU
 62
     1
100
AcDbLine
 10
-62.78555124347986
 20
-45.50061466561692
 30
0.0
 11
62.21444875651991
 21
-45.50061466561692
 31
0.0
  0
LINE
  5
4D
330
2
100
AcDbEntity
  8
WAKU
 62
     1
100
AcDbLine
 10
-62.78555124347986
 20
-25.50061466561692
 30
0.0
 11
62.21444875651991
 21
-25.50061466561692
 31
0.0
  0
LINE
  5
4E
330
2
100
AcDbEntity
  8
WAKU
 62
     1
100
AcDbLine
 10
-62.78555124347986
 20
-15.50061466561692
 30
0.0
 11
62.21444875651991
 21
-15.50061466561692
 31
0.0
  0
LINE
  5
4F
330
2
100
AcDbEntity
  8
WAKU
 62
     4
100
AcDbLine
 10
-62.78555124347986
 20
-10.50061466561692
 30
0.0
 11
62.21444875651991
 21
-10.50061466561692
 31
0.0
  0
LINE
  5
50
330
2
100
AcDbEntity
  8
WAKU
 62
     1
100
AcDbLine
 10
-62.78555124347986
 20
-30.50061466561692
 30
0.0
 11
62.21444875651991
 21
-30.50061466561692
 31
0.0
  0
LINE
  5
51
330
2
100
AcDbEntity
  8
WAKU
 62
     1
100
AcDbLine
 10
-62.78555124347986
 20
-20.50061466561692
 30
0.0
 11
62.21444875651991
 21
-20.50061466561692
 31
0.0
  0
LINE
  5
52
330
2
100
AcDbEntity
  8
GAIKEI
  6
Continuous
 62
     1
100
AcDbLine
 10
38.82156863574073
 20
27.00548610934073
 30
0.0
 11
38.82156863574073
 21
-3.497491442406783
 31
0.0
  0
LINE
  5
54
330
2
100
AcDbEntity
  8
GAIKEI
  6
Continuous
 62
     1
100
AcDbLine
 10
37.84473687503743
 20
26.91458348599878
 30
0.0
 11
37.84473687503743
 21
-3.164734998188606
 31
0.0
  0
LINE
  5
55
330
2
100
AcDbEntity
  8
GAIKEI
  6
Continuous
 62
     1
100
AcDbLine
 10
38.76718164557729
 20
-3.493317528525608
 30
0.0
 11
38.76718164557729
 21
27.00130001958496
 31
0.0
  0
LINE
  5
56
330
2
100
AcDbEntity
  8
GAIKEI
  6
Continuous
 62
     1
100
AcDbLine
 10
38.82156863574073
 20
26.81091346257472
 30
0.0
 11
38.84176129086871
 21
26.81091346257472
 31
0.0
  0
LINE
  5
57
330
2
100
AcDbEntity
  8
GAIKEI
  6
Continuous
 62
     1
100
AcDbLine
 10
39.64635013140457
 20
26.81091346257472
 30
0.0
 11
38.84176129086871
 21
26.81091346257472
 31
0.0
  0
LINE
  5
58
330
2
100
AcDbEntity
  8
GAIKEI
  6
Continuous
 62
     1
100
AcDbLine
 10
41.12119317558113
 20
0.2556419238063654
 30
0.0
 11
41.12119317558113
 21
23.25235240684936
 31
0.0
  0
LINE
  5
59
330
2
100
AcDbEntity
  8
GAIKEI
  6
Continuous
 62
     1
100
AcDbLine
 10
39.64635013140457
 20
26.03237613909062
 30
0.0
 11
39.64635013140457
 21
26.81091346257472
 31
0.0
  0
LINE
  5
5A
330
2
100
AcDbEntity
  8
GAIKEI
  6
Continuous
 62
     1
100
AcDbLine
 10
38.76718164557729
 20
26.80131759682934
 30
0.0
 11
38.82156863574073
 21
26.80131759682934
 31
0.0
  0
LINE
  5
5B
330
2
100
AcDbEntity
  8
GAIKEI
  6
Continuous
 62
     1
100
AcDbLine
 10
39.64635013140457
 20
26.81091346257472
 30
0.0
 11
39.85081191141456
 21
26.81091346257472
 31
0.0
  0
LINE
  5
5C
330
2
100
AcDbEntity
  8
GAIKEI
  6
Continuous
 62
     1
100
AcDbLine
 10
37.78507857595969
 20
26.67274766383184
 30
0.0
 11
37.63081340805451
 21
26.42588551298536
 31
0.0
  0
LINE
  5
5D
330
2
100
AcDbEntity
  8
GAIKEI
  6
Continuous
 62
     1
100
AcDbLine
 10
37.78512441342849
 20
-3.164795837010842
 30
0.0
 11
37.78512441342849
 21
26.87951966268708
 31
0.0
  0
LINE
  5
5E
330
2
100
AcDbEntity
  8
GAIKEI
  6
Continuous
 62
     7
100
AcDbLine
 10
37.63081340805451
 20
-3.09603796696382
 30
0.0
 11
37.63081340805451
 21
26.61150588855856
 31
0.0
  0
SPLINE
  5
5F
330
2
100
AcDbEntity
  8
GAIKEI
  6
Continuous
 62
     1
100
AcDbSpline
210
0.0
220
0.0
230
1.0
 70
     8
 71
     3
 72
    29
 73
    25
 74
    23
 42
0.0000000001
 43
0.0000000001
 44
0.000001
 12
0.9994197136940536
 22
-0.0340622353890022
 32
0.0
 13
0.134655474864125
 23
-0.9908924780666756
 33
0.0
 40
0.0
 40
0.0
 40
0.0
 40
0.0
 40
0.0157297675428604
 40
0.0326080213542532
 40
0.0384881347488146
 40
0.0444935701093095
 40
0.0506236493246416
 40
0.0568776582557085
 40
0.0632548468085395
 40
0.0697544290724211
 40
0.0779700002760195
 40
0.0890978607077297
 40
0.1031238352094614
 40
0.1200291605845662
 40
0.139790238996224
 40
0.1563907244475616
 40
0.1716727383748546
 40
0.1856479354758815
 40
0.1983270083907893
 40
0.2097195472407203
 40
0.2284440493018476
 40
0.2463225676619436
 40
0.2633752199074963
 40
0.2796189477884853
 40
0.2796189477884853
 40
0.2796189477884853
 40
0.2796189477884853
 10
40.73328185069658
 20
25.09503376175371
 30
0.0
 10
40.73852206395463
 20
25.09485516473882
 30
0.0
 10
40.74937509220331
 20
25.09408667376525
 30
0.0
 10
40.76208123333782
 20
25.09221117062029
 30
0.0
 10
40.77147928035688
 20
25.09030820099963
 30
0.0
 10
40.77733045898514
 20
25.08895302459953
 30
0.0
 10
40.78326127383784
 20
25.08740042427417
 30
0.0
 10
40.78926340845598
 20
25.08564113199696
 30
0.0
 10
40.79532793189662
 20
25.08366649024885
 30
0.0
 10
40.80194469732933
 20
25.08128635823457
 30
0.0
 10
40.80994884082295
 20
25.07809633864724
 30
0.0
 10
40.82008604184307
 20
25.07350508455471
 30
0.0
 10
40.83249003144831
 20
25.06694742797268
 30
0.0
 10
40.84680390781358
 20
25.05793186021842
 30
0.0
 10
40.86093778003305
 20
25.04713577991009
 30
0.0
 10
40.87362561478295
 20
25.03547223492063
 30
0.0
 10
40.88401035699289
 20
25.02423387265662
 30
0.0
 10
40.8927062880978
 20
25.01327381973954
 30
0.0
 10
40.89988782164062
 20
25.00280915596579
 30
0.0
 10
40.90720270893479
 20
24.99055323430918
 30
0.0
 10
40.91428898812131
 20
24.97617781804649
 30
0.0
 10
40.92060687495839
 20
24.95941699975049
 30
0.0
 10
40.92511636586436
 20
24.94294190757774
 30
0.0
 10
40.92708697837176
 20
24.93200297504666
 30
0.0
 10
40.92781608066888
 20
24.92663771245566
 30
0.0
 11
40.73328185069658
 21
25.09503376175371
 31
0.0
 11
40.74897262753114
 21
25.09392377297525
 31
0.0
 11
40.76566979577376
 21
25.09145802933722
 31
0.0
 11
40.77143295099688
 21
25.09029108363268
 31
0.0
 11
40.77728350762908
 21
25.08893599899398
 31
0.0
 11
40.78321373732546
 21
25.0873834918699
 31
0.0
 11
40.78921525693192
 21
25.08562439117816
 31
0.0
 11
40.79527901007111
 21
25.08364967897592
 31
0.0
 11
40.80139525047752
 21
25.08145053371595
 31
0.0
 11
40.80902644244531
 21
25.07840740294046
 31
0.0
 11
40.81916228724526
 21
25.07381456161307
 31
0.0
 11
40.83156137344985
 21
25.06725780368242
 31
0.0
 11
40.84586517902119
 21
25.0582471502371
 31
0.0
 11
40.86156566016677
 21
25.04624730947558
 31
0.0
 11
40.87378377075822
 21
25.0350092197092
 31
0.0
 11
40.88415429397071
 21
25.02378456583006
 31
0.0
 11
40.89283916968589
 21
25.01283561009484
 31
0.0
 11
40.90001204315018
 21
25.00238050360201
 31
0.0
 11
40.90584965665146
 21
24.99259722281067
 31
0.0
 11
40.91412804182789
 21
24.97580209453361
 31
0.0
 11
40.92043352618396
 21
24.95907238675466
 31
0.0
 11
40.92493549691158
 21
24.9426247183294
 31
0.0
 11
40.92781608066888
 21
24.92663771245566
 31
0.0
  0
SPLINE
  5
60
330
2
100
AcDbEntity
  8
GAIKEI
  6
Continuous
 62
     1
100
AcDbSpline
210
0.0
220
0.0
230
1.0
 70
     8
 71
     3
 72
    15
 73
    11
 74
     9
 42
0.0000000001
 43
0.0000000001
 44
0.000001
 12
-0.1345307900367005
 22
0.9909094138881219
 32
0.0
 13
-0.9994496190759493
 23
0.0331731657961701
 33
0.0
 40
0.0
 40
0.0
 40
0.0
 40
0.0
 40
0.034973366666854
 40
0.0699031370103182
 40
0.1048023818227469
 40
0.1396860286107809
 40
0.1745696753988964
 40
0.2094689202110947
 40
0.2443986905542659
 40
0.2793720572208914
 40
0.2793720572208914
 40
0.2793720572208914
 40
0.2793720572208914
 10
40.95881870514086
 20
24.96096733535876
 30
0.0
 10
40.95725037359153
 20
24.97251914811395
 30
0.0
 10
40.95212530530557
 20
24.99539262458109
 30
0.0
 10
40.93855110807675
 20
25.02776987441161
 30
0.0
 10
40.91954807025473
 20
25.05726385293499
 30
0.0
 10
40.89568619641764
 20
25.0829630684577
 30
0.0
 10
40.86769591492782
 20
25.10409084268071
 30
0.0
 10
40.83642408688035
 20
25.11999942483527
 30
0.0
 10
40.80283539268236
 20
25.1302143530798
 30
0.0
 10
40.77955961337269
 20
25.1329893031965
 30
0.0
 10
40.76790824070843
 20
25.13337602896013
 30
0.0
 11
40.95881870514086
 21
24.96096733535876
 31
0.0
 11
40.95113938892518
 21
24.99508770370801
 31
0.0
 11
40.93764006869855
 21
25.02730351842001
 31
0.0
 11
40.91873431073247
 21
25.05663834093798
 31
0.0
 11
40.89499890124483
 21
25.08220201727227
 31
0.0
 11
40.86715630467779
 21
25.10321775013313
 31
0.0
 11
40.83605269148608
 21
25.11904572356116
 31
0.0
 11
40.80263220366918
 21
25.12920256156315
 31
0.0
 11
40.76790824070843
 21
25.13337602896013
 31
0.0
  0
SPLINE
  5
61
330
2
100
AcDbEntity
  8
GAIKEI
  6
Continuous
 62
     1
100
AcDbSpline
210
0.0
220
0.0
230
1.0
 70
     8
 71
     3
 72
    15
 73
    11
 74
     9
 42
0.0000000001
 43
0.0000000001
 44
0.000001
 12
-0.1364008987339492
 22
0.9906537209462097
 32
0.0
 13
-0.1677708966327061
 23
0.9858260121558256
 33
0.0
 40
0.0
 40
0.0
 40
0.0
 40
0.0
 40
0.0132149830834819
 40
0.0262813419269599
 40
0.0392031411315476
 40
0.0519821046088374
 40
0.0646174198414203
 40
0.0770331613891403
 40
0.0890931200094218
 40
0.10079423183742
 40
0.10079423183742
 40
0.10079423183742
 40
0.10079423183742
 10
40.9822115577274
 20
24.81208726666739
 30
0.0
 10
40.98161071253762
 20
24.81645109072201
 30
0.0
 10
40.98036982671561
 20
24.82512340455364
 30
0.0
 10
40.97838500909517
 20
24.83803971278977
 30
0.0
 10
40.97630211856352
 20
24.85079328429114
 30
0.0
 10
40.97414409799893
 20
24.86338853766099
 30
0.0
 10
40.97194400941868
 20
24.87580517398712
 30
0.0
 10
40.96975340388939
 20
24.88797999361003
 30
0.0
 10
40.96762134781963
 20
24.89984900039465
 30
0.0
 10
40.9662761248509
 20
24.9076543488809
 30
0.0
 10
40.96562175617657
 20
24.91149943568462
 30
0.0
 11
40.9822115577274
 21
24.81208726666739
 31
0.0
 11
40.98034110516926
 21
24.82516927384484
 31
0.0
 11
40.97835830774977
 21
24.83808431611135
 31
0.0
 11
40.97627876508238
 21
24.85083768475431
 31
0.0
 11
40.97412500566536
 21
24.86343384334998
 31
0.0
 11
40.97192666556395
 21
24.87587644984945
 31
0.0
 11
40.96973397375427
 21
24.88809703616653
 31
0.0
 11
40.96761537012276
 21
24.89996947824398
 31
0.0
 11
40.96562175617657
 21
24.91149943568462
 31
0.0
  0
LINE
  5
62
330
2
100
AcDbEntity
  8
GAIKEI
  6
Continuous
 62
     1
100
AcDbLine
 10
40.39814770728106
 20
25.10663420822834
 30
0.0
 11
40.73327817763419
 21
25.09493114551833
 31
0.0
  0
LINE
  5
63
330
2
100
AcDbEntity
  8
GAIKEI
  6
Continuous
 62
     1
100
AcDbLine
 10
40.92781614564467
 20
24.92663762863299
 30
0.0
 11
40.92761237726051
 21
24.9266097094474
 31
0.0
  0
LINE
  5
64
330
2
100
AcDbEntity
  8
GAIKEI
  6
Continuous
 62
     1
100
AcDbLine
 10
40.92761237726051
 20
24.9266097094474
 30
0.0
 11
41.02544742157397
 21
24.21521058255257
 31
0.0
  0
LINE
  5
65
330
2
100
AcDbEntity
  8
GAIKEI
  6
Continuous
 62
     1
100
AcDbLine
 10
40.92781614564467
 20
24.92663762863299
 30
0.0
 11
40.92761237726051
 21
24.9266097094474
 31
0.0
  0
LINE
  5
66
330
2
100
AcDbEntity
  8
GAIKEI
  6
Continuous
 62
     1
100
AcDbLine
 10
40.92781614564467
 20
24.92663762863299
 30
0.0
 11
41.0257051455917
 21
24.21484434409734
 31
0.0
  0
LINE
  5
67
330
2
100
AcDbEntity
  8
GAIKEI
  6
Continuous
 62
     1
100
AcDbLine
 10
40.96562163981457
 20
24.91149959620299
 30
0.0
 11
40.95881852603315
 21
24.96096739255359
 31
0.0
  0
LINE
  5
68
330
2
100
AcDbEntity
  8
GAIKEI
  6
Continuous
 62
     1
100
AcDbLine
 10
41.07373298951825
 20
24.1465944249743
 30
0.0
 11
40.9822114698934
 21
24.81208729382621
 31
0.0
  0
LINE
  5
69
330
2
100
AcDbEntity
  8
GAIKEI
  6
Continuous
 62
     1
100
AcDbLine
 10
40.7679083853277
 20
25.13337586402622
 30
0.0
 11
40.36953995977694
 21
25.14728721893675
 31
0.0
  0
LINE
  5
6A
330
2
100
AcDbEntity
  8
GAIKEI
 62
     1
100
AcDbLine
 10
38.76716940488064
 20
26.80131775766762
 30
0.0
 11
37.78512441342855
 21
26.70266846169864
 31
0.0
  0
LINE
  5
6B
330
2
100
AcDbEntity
  8
GAIKEI
 62
     7
100
AcDbLine
 10
38.81030333210527
 20
27.00545449270737
 30
0.0
 11
37.96113819917787
 21
26.92068389141088
 31
0.0
  0
LINE
  5
6C
330
2
100
AcDbEntity
  8
GAIKEI
 62
     7
100
AcDbLine
 10
37.96113819917787
 20
26.9206838914107
 30
0.0
 11
37.84611658284894
 21
26.91465573893794
 31
0.0
  0
ARC
  5
6D
330
2
100
AcDbEntity
  8
GAIKEI
 62
     7
100
AcDbCircle
 10
37.84871347683566
 20
26.83964164668998
 30
0.0
 40
0.075059029397968
100
AcDbArc
 50
91.98271636162415
 51
147.9042790606873
  0
LINE
  5
6E
330
2
100
AcDbEntity
  8
GAIKEI
 62
     7
100
AcDbLine
 10
37.78512649694983
 20
26.87952298590449
 30
0.0
 11
37.63845159717698
 21
26.64557646242815
 31
0.0
  0
ARC
  5
6F
330
2
100
AcDbEntity
  8
GAIKEI
 62
     7
100
AcDbCircle
 10
37.69387310791211
 20
26.61526018560699
 30
0.0
 40
0.0631713581653474
100
AcDbArc
 50
151.3207753347369
 51
183.4071168973713
  0
ARC
  5
70
330
2
100
AcDbEntity
  8
GAIKEI
 62
     7
100
AcDbCircle
 10
39.80475017406286
 20
26.9621301969442
 30
0.0
 40
0.0463029825448208
100
AcDbArc
 50
354.1487151821881
 51
95.32435032164224
  0
LINE
  5
71
330
2
100
AcDbEntity
  8
GAIKEI
 62
     7
100
AcDbLine
 10
38.81030333210527
 20
27.00545449270737
 30
0.0
 11
39.80045354642607
 21
27.00823339838939
 31
0.0
  0
LINE
  5
72
330
2
100
AcDbEntity
  8
GAIKEI
  6
Continuous
 62
     1
100
AcDbLine
 10
39.85081191141456
 20
26.2597027996901
 30
0.0
 11
40.1035354642106
 21
26.27110161053167
 31
0.0
  0
LINE
  5
73
330
2
100
AcDbEntity
  8
GAIKEI
  6
Continuous
 62
     1
100
AcDbLine
 10
40.07530835642092
 20
26.47343548654215
 30
0.0
 11
39.85081191141456
 21
26.48067202946049
 31
0.0
  0
ARC
  5
74
330
2
100
AcDbEntity
  8
GAIKEI
 62
     1
100
AcDbCircle
 10
40.04082575223435
 20
26.40740920288568
 30
0.0
 40
0.1500163686008653
100
AcDbArc
 50
294.6822153763272
 51
359.9992555506058
  0
LINE
  5
75
330
2
100
AcDbEntity
  8
GAIKEI
 62
     1
100
AcDbLine
 10
40.19084212082259
 20
26.40740727037712
 30
0.0
 11
40.19084212082259
 21
26.48043880874047
 31
0.0
  0
ARC
  5
76
330
2
100
AcDbEntity
  8
GAIKEI
 62
     1
100
AcDbCircle
 10
40.07632459184629
 20
26.48792302265611
 30
0.0
 40
0.0145231345477284
100
AcDbArc
 50
265.9875314113319
 51
357.4403055779336
  0
LINE
  5
77
330
2
100
AcDbEntity
  8
GAIKEI
 62
     1
100
AcDbLine
 10
40.09083323570251
 20
26.48727441603842
 30
0.0
 11
40.09083323570258
 21
26.51668557902338
 31
0.0
  0
ARC
  5
78
330
2
100
AcDbEntity
  8
GAIKEI
 62
     1
100
AcDbCircle
 10
40.10583456847053
 20
26.51668557902338
 30
0.0
 40
0.0150013327680068
100
AcDbArc
 50
88.00000000002242
 51
179.9999999998913
  0
LINE
  5
79
330
2
100
AcDbEntity
  8
GAIKEI
 62
     1
100
AcDbLine
 10
40.10635811498417
 20
26.53167776097837
 30
0.0
 11
40.14258280814078
 21
26.53041278994511
 31
0.0
  0
ARC
  5
7A
330
2
100
AcDbEntity
  8
GAIKEI
 62
     1
100
AcDbCircle
 10
40.14083766440637
 20
26.48043880314219
 30
0.0
 40
0.05000445641619
100
AcDbArc
 50
0.000006414618277
 51
88.00001314450822
  0
LINE
  5
7B
330
2
100
AcDbEntity
  8
GAIKEI
 62
     1
100
AcDbLine
 10
39.85081191141456
 20
26.02598719173943
 30
0.0
 11
39.06116565597881
 21
26.05598684154581
 31
0.0
  0
LINE
  5
7C
330
2
100
AcDbEntity
  8
GAIKEI
 62
     1
100
AcDbLine
 10
38.9776498203438
 20
26.05908770724545
 30
0.0
 11
38.82156863574073
 21
26.06476356162921
 31
0.0
  0
ELLIPSE
  5
7D
330
2
100
AcDbEntity
  8
GAIKEI
 62
     1
100
AcDbEllipse
 10
39.0224465532342
 20
26.2628497806279
 30
0.0
 11
0.007264347832067
 21
0.2549335227837224
 31
0.0
210
0.0
220
0.0
230
1.0
 40
0.2552453852602103
 41
0.0
 42
6.283185307179586
  0
ARC
  5
7E
330
2
100
AcDbEntity
  8
GAIKEI
 62
     1
100
AcDbCircle
 10
39.33876624099111
 20
26.05973352315789
 30
0.0
 40
0.4559027607804774
100
AcDbArc
 50
179.6480118625683
 51
227.0790051900859
  0
LINE
  5
7F
330
2
100
AcDbEntity
  8
GAIKEI
 62
     1
100
AcDbLine
 10
39.02830136281557
 20
25.7258789339927
 30
0.0
 11
39.95580203472537
 21
25.73530361241842
 31
0.0
  0
ARC
  5
80
330
2
100
AcDbEntity
  8
GAIKEI
 62
     1
100
AcDbCircle
 10
40.10434475644456
 20
26.02992266051945
 30
0.0
 40
0.4580011966388159
100
AcDbArc
 50
179.6930692744334
 51
220.5186299773994
  0
ARC
  5
81
330
2
100
AcDbEntity
  8
GAIKEI
 62
     7
100
AcDbCircle
 10
40.30241990134209
 20
26.02478911707237
 30
0.0
 40
0.4516095791159937
100
AcDbArc
 50
179.847999897133
 51
219.8105702442834
  0
LINE
  5
82
330
2
100
AcDbEntity
  8
GAIKEI
 62
     1
100
AcDbLine
 10
39.02830136281563
 20
25.7258789339927
 30
0.0
 11
41.33494522735031
 21
23.59465638025085
 31
0.0
  0
LINE
  5
83
330
2
100
AcDbEntity
  8
GAIKEI
 62
     7
100
AcDbLine
 10
39.9555090395412
 20
25.73564544013323
 30
0.0
 11
41.52265439567713
 21
23.50865511398195
 31
0.0
  0
ARC
  5
84
330
2
100
AcDbEntity
  8
GAIKEI
 62
     1
100
AcDbCircle
 10
41.0443309880195
 20
25.15705307868268
 30
0.0
 40
0.2492818962188115
100
AcDbArc
 50
7.809250808790755
 51
77.9264409824329
  0
LINE
  5
85
330
2
100
AcDbEntity
  8
GAIKEI
 62
     7
100
AcDbLine
 10
39.85081191141456
 20
26.95740975774146
 30
0.0
 11
39.85081191141456
 21
26.02598719173943
 31
0.0
  0
LINE
  5
86
330
2
100
AcDbEntity
  8
GAIKEI
 62
     7
100
AcDbLine
 10
41.21473578172344
 20
25.48854540765672
 30
0.0
 11
39.89352261247268
 21
25.83314520064556
 31
0.0
  0
LINE
  5
87
330
2
100
AcDbEntity
  8
GAIKEI
 62
     1
100
AcDbLine
 10
41.0964726119422
 20
25.40082082642044
 30
0.0
 11
39.9821362595838
 21
25.70389275310288
 31
0.0
  0
LINE
  5
88
330
2
100
AcDbEntity
  8
GAIKEI
 62
     1
100
AcDbLine
 10
41.2913010228234
 20
25.1909243894255
 30
0.0
 11
41.52265439567713
 21
23.50865511398195
 31
0.0
  0
ARC
  5
89
330
2
100
AcDbEntity
  8
GAIKEI
 62
     7
100
AcDbCircle
 10
41.16275377614039
 20
25.24398696339699
 30
0.0
 40
0.2500219221651978
100
AcDbArc
 50
7.999954115666665
 51
78.00011128326018
  0
LINE
  5
8A
330
2
100
AcDbEntity
  8
GAIKEI
 62
     7
100
AcDbLine
 10
41.41034253001203
 20
25.27878309133553
 30
0.0
 11
41.69975495714004
 21
23.21950444328445
 31
0.0
  0
ARC
  5
8B
330
2
100
AcDbEntity
  8
GAIKEI
 62
     1
100
AcDbCircle
 10
41.28709170992124
 20
23.56734715967196
 30
0.0
 40
0.0550976647323773
100
AcDbArc
 50
318.1467719571987
 51
29.71269670511066
  0
ARC
  5
8C
330
2
100
AcDbEntity
  8
GAIKEI
 62
     1
100
AcDbCircle
 10
41.22350511306291
 20
23.30335202240769
 30
0.0
 40
0.3069120172292935
100
AcDbArc
 50
326.1444489288912
 51
33.8555510711098
  0
ARC
  5
8D
330
2
100
AcDbEntity
  8
GAIKEI
 62
     1
100
AcDbCircle
 10
40.67206439596856
 20
22.65880617693495
 30
0.0
 40
1.146833292008832
100
AcDbArc
 50
29.34811999867838
 51
54.68931910532243
  0
ARC
  5
8E
330
2
100
AcDbEntity
  8
GAIKEI
 62
     1
100
AcDbCircle
 10
40.99977150489678
 20
22.90793432140424
 30
0.0
 40
0.7412429602107574
100
AcDbArc
 50
0.1436196268530148
 51
24.97346866073834
  0
ARC
  5
8F
330
2
100
AcDbEntity
  8
GAIKEI
 62
     7
100
AcDbCircle
 10
40.95352208597421
 20
22.9618974563399
 30
0.0
 40
0.7892119627439312
100
AcDbArc
 50
356.2144820540977
 51
43.85131920853822
  0
LINE
  5
90
330
2
100
AcDbEntity
  8
GAIKEI
 62
     1
100
AcDbLine
 10
41.32813156177792
 20
23.53058463502327
 30
0.0
 11
41.12119303233021
 21
23.25235254815459
 31
0.0
  0
ARC
  5
91
330
2
100
AcDbEntity
  8
GAIKEI
 62
     1
100
AcDbCircle
 10
74.73517749924344
 20
122.7297495714515
 30
0.0
 40
105.0031070433414
100
AcDbArc
 50
251.3295934179258
 51
251.5351965038723
  0
ARC
  5
92
330
2
100
AcDbEntity
  8
GAIKEI
 62
     1
100
AcDbCircle
 10
41.31986950303894
 20
22.5781686338301
 30
0.0
 40
0.5764246802246466
100
AcDbArc
 50
55.92859297969448
 51
74.03878313188521
  0
ARC
  5
93
330
2
100
AcDbEntity
  8
GAIKEI
 62
     1
100
AcDbCircle
 10
41.53585666851768
 20
22.87763778106324
 30
0.0
 40
0.2076598915007556
100
AcDbArc
 50
8.907655288637208
 51
59.00386356228975
  0
LINE
  5
94
330
2
100
AcDbEntity
  8
GAIKEI
 62
     7
100
AcDbLine
 10
41.74101213641222
 20
22.90979234527219
 30
0.0
 11
42.08104019027859
 21
20.506518842601
 31
0.0
  0
LINE
  5
95
330
2
100
AcDbEntity
  8
GAIKEI
 62
     1
100
AcDbLine
 10
41.74101201271207
 20
22.90979233418704
 30
0.0
 11
41.74101201271207
 21
0.5864572786489362
 31
0.0
  0
LINE
  5
96
330
2
100
AcDbEntity
  8
GAIKEI
 62
     7
100
AcDbLine
 10
42.08104034355153
 20
20.5065190389297
 30
0.0
 11
42.08104034355153
 21
2.039119945487186
 31
0.0
  0
LINE
  5
97
330
2
100
AcDbEntity
  8
GAIKEI
 62
     7
100
AcDbLine
 10
41.74101201271207
 20
1.63721907060767
 30
0.0
 11
41.99172921591684
 21
1.847595967616769
 31
0.0
  0
LINE
  5
98
330
2
100
AcDbEntity
  8
GAIKEI
 62
     1
100
AcDbLine
 10
41.74101201271207
 20
1.755848106730923
 30
0.0
 11
42.07860705409268
 21
2.039124080742737
 31
0.0
  0
ARC
  5
99
330
2
100
AcDbEntity
  8
GAIKEI
 62
     7
100
AcDbCircle
 10
41.84943196251071
 20
2.030537468518843
 30
0.0
 40
0.2317673425641828
100
AcDbArc
 50
307.876821725711
 51
2.123203603632351
  0
ARC
  5
9A
330
2
100
AcDbEntity
  8
GAIKEI
 62
     7
100
AcDbCircle
 10
42.05124666795223
 20
1.574109616045859
 30
0.0
 40
0.2477336629285835
100
AcDbArc
 50
131.2789217303631
 51
180.2385269562979
  0
ARC
  5
9B
330
2
100
AcDbEntity
  8
GAIKEI
 62
     7
100
AcDbCircle
 10
40.92225075863382
 20
0.5481112923630463
 30
0.0
 40
0.8196587130288321
100
AcDbArc
 50
312.468195291033
 51
2.681439676979894
  0
ARC
  5
9C
330
2
100
AcDbEntity
  8
GAIKEI
 62
     1
100
AcDbCircle
 10
40.97942002608408
 20
0.6043955805382666
 30
0.0
 40
0.7618032139408431
100
AcDbArc
 50
304.1043947865991
 51
358.6507224250838
  0
ARC
  5
9D
330
2
100
AcDbEntity
  8
GAIKEI
 62
     1
100
AcDbCircle
 10
41.39851082211442
 20
0.7440895640504266
 30
0.0
 40
0.3770344851093629
100
AcDbArc
 50
282.2297006437138
 51
335.2862852160576
  0
ARC
  5
9E
330
2
100
AcDbEntity
  8
GAIKEI
 62
     1
100
AcDbCircle
 10
72.33186534449846
 20
-92.07641386107818
 30
0.0
 40
97.46442747867723
100
AcDbArc
 50
108.4551067593467
 51
108.6766106751911
  0
LINE
  5
9F
330
2
100
AcDbEntity
  8
GAIKEI
 62
     7
100
AcDbLine
 10
41.803537201592
 20
1.576384857801855
 30
0.0
 11
41.80351515178642
 21
-1.741935798973202
 31
0.0
  0
ARC
  5
A0
330
2
100
AcDbEntity
  8
GAIKEI
 62
     7
100
AcDbCircle
 10
41.30347003738643
 20
-1.741935798973145
 30
0.0
 40
0.5000451144000238
100
AcDbArc
 50
272.9999999999991
 51
359.9999999999968
  0
LINE
  5
A1
330
2
100
AcDbEntity
  8
GAIKEI
 62
     7
100
AcDbLine
 10
41.32964037661316
 20
-2.241295618922777
 30
0.0
 11
39.90081642285452
 21
-2.331899638701173
 31
0.0
  0
LINE
  5
A2
330
2
100
AcDbEntity
  8
GAIKEI
 62
     7
100
AcDbLine
 10
39.95580203472537
 20
-2.227308966597178
 30
0.0
 11
41.47566861962866
 21
-0.0565117943413611
 31
0.0
  0
LINE
  5
A3
330
2
100
AcDbEntity
  8
GAIKEI
 62
     1
100
AcDbLine
 10
39.02830136281563
 20
-2.217896496304121
 30
0.0
 11
41.40656499877104
 21
-0.026390682056956
 31
0.0
  0
ARC
  5
A4
330
2
100
AcDbEntity
  8
GAIKEI
 62
     1
100
AcDbCircle
 10
40.15466295815872
 20
-3.039778507847131
 30
0.0
 40
1.496728948923669
100
AcDbArc
 50
134.0418697611573
 51
152.9577913790034
  0
LINE
  5
A5
330
2
100
AcDbEntity
  8
GAIKEI
 62
     1
100
AcDbLine
 10
39.11219649862835
 20
-1.966042695443491
 30
0.0
 11
41.10889949783336
 21
0.2452187587505818
 31
0.0
  0
ARC
  5
A6
330
2
100
AcDbEntity
  8
GAIKEI
 62
     1
100
AcDbCircle
 10
40.30030129172792
 20
-2.516851933702582
 30
0.0
 40
0.4500165195584107
100
AcDbArc
 50
139.9537923843616
 51
176.759513041101
  0
ARC
  5
A7
330
2
100
AcDbEntity
  8
GAIKEI
 62
     7
100
AcDbCircle
 10
39.85081191141461
 20
-3.442947182008708
 30
0.0
 40
0.0500045114399512
100
AcDbArc
 50
269.9999999999349
 51
356.7637596474813
  0
LINE
  5
A8
330
2
100
AcDbEntity
  8
GAIKEI
 62
     7
100
AcDbLine
 10
38.76954550337809
 20
-3.493563773210951
 30
0.0
 11
39.86151688261737
 21
-3.49179239421926
 31
0.0
  0
LINE
  5
A9
330
2
100
AcDbEntity
  8
GAIKEI
 62
     7
100
AcDbLine
 10
39.90059718282839
 20
-3.447624565316004
 30
0.0
 11
39.90081642285452
 21
-2.319146639782331
 31
0.0
  0
LINE
  5
AA
330
2
100
AcDbEntity
  8
GAIKEI
 62
     1
100
AcDbLine
 10
39.85086619020649
 20
-2.493955148600264
 30
0.0
 11
39.85081191141456
 21
-3.486289882175043
 31
0.0
  0
LINE
  5
AB
330
2
100
AcDbEntity
  8
GAIKEI
 62
     1
100
AcDbLine
 10
39.85081191141456
 20
-3.302930799638318
 30
0.0
 11
38.84176129086871
 21
-3.302930799638318
 31
0.0
  0
LINE
  5
AC
330
2
100
AcDbEntity
  8
GAIKEI
 62
     1
100
AcDbLine
 10
39.95580203472537
 20
-2.227308966597178
 30
0.0
 11
38.90460594567287
 21
-2.216641209408408
 31
0.0
  0
LINE
  5
AD
330
2
100
AcDbEntity
  8
GAIKEI
 62
     1
100
AcDbLine
 10
39.64635028765974
 20
-2.524393875262319
 30
0.0
 11
39.64635013140457
 21
-3.302930799638318
 31
0.0
  0
ARC
  5
AE
330
2
100
AcDbEntity
  8
GAIKEI
 62
     1
100
AcDbCircle
 10
40.10434367189816
 20
-2.521939588705549
 30
0.0
 40
0.4579999601841901
100
AcDbArc
 50
139.4813421796183
 51
180.3070326346156
  0
ELLIPSE
  5
AF
330
2
100
AcDbEntity
  8
GAIKEI
 62
     1
100
AcDbEllipse
 10
39.01868672169348
 20
-2.776770018230592
 30
0.0
 11
0.0042325277078703
 21
-0.2321029173034646
 31
0.0
210
0.0
220
0.0
230
1.0
 40
0.310649656473011
 41
0.0
 42
6.283185307179586
  0
LINE
  5
B0
330
2
100
AcDbEntity
  8
GAIKEI
 62
     7
100
AcDbLine
 10
37.84440707964916
 20
-3.400754679393287
 30
0.0
 11
38.76954550337809
 21
-3.493563773210951
 31
0.0
  0
LINE
  5
B1
330
2
100
AcDbEntity
  8
GAIKEI
 62
     7
100
AcDbLine
 10
37.6384682653474
 20
-3.130107290720673
 30
0.0
 11
37.78633410590106
 21
-3.365741466458075
 31
0.0
  0
ARC
  5
B2
330
2
100
AcDbEntity
  8
GAIKEI
 62
     7
100
AcDbCircle
 10
37.85003594281324
 20
-3.325752065162532
 30
0.0
 40
0.0752135376242624
100
AcDbArc
 50
212.1189170118209
 51
265.7080609928854
  0
ARC
  5
B3
330
2
100
AcDbEntity
  8
GAIKEI
 62
     1
100
AcDbCircle
 10
37.68536399603352
 20
-3.10167590876324
 30
0.0
 40
0.0548411618822489
100
AcDbArc
 50
174.0992861487774
 51
211.2270935956984
  0
LINE
  5
B4
330
2
100
AcDbEntity
  8
GAIKEI
 62
     1
100
AcDbLine
 10
37.80506761344191
 20
-3.196731171580381
 30
0.0
 11
38.76716940488064
 21
-3.293323111846405
 31
0.0
  0
LINE
  5
B5
330
2
100
AcDbEntity
  8
GAIKEI
 62
     1
100
AcDbLine
 10
37.80506761344191
 20
-3.196731171580381
 30
0.0
 11
37.63846909875605
 21
-2.930132165499657
 31
0.0
  0
DIMENSION
  5
B6
330
2
100
AcDbEntity
  8
SUNPO
100
AcDbDimension
  2
*D8
 10
42.08083367423069
 20
35.02788773480598
 30
0.0
 11
48.66416700756403
 21
36.77788773480597
 31
0.0
 70
    33
  1
95
 71
     5
 42
4.450020266176181
  3
STANDARD
100
AcDbAlignedDimension
 13
37.63081340805451
 23
27.02788773480597
 33
0.0
 14
42.08083367423069
 24
27.02788773480597
 34
0.0
1001
ACAD
1000
DSTYLE
1002
{
1070
    40
1040
1.0
1070
   140
1040
2.5
1070
   147
1040
0.5
1070
   172
1070
     1
1070
   279
1070
     0
1070
   288
1070
     0
1002
}
  0
LINE
  5
C6
330
2
100
AcDbEntity
  8
GAIKEI
  6
Continuous
 62
     1
100
AcDbLine
 10
-39.06089128585131
 20
-3.213188254524453
 30
0.0
 11
-39.61289318329125
 21
-3.213188254524453
 31
0.0
  0
LINE
  5
C7
330
2
100
AcDbEntity
  8
GAIKEI
  6
Continuous
 62
     7
100
AcDbLine
 10
-39.06089034324998
 20
26.74537876594036
 30
0.0
 11
-39.61289318329125
 21
26.74537876594025
 31
0.0
  0
LINE
  5
C8
330
2
100
AcDbEntity
  8
GAIKEI
  6
Continuous
100
AcDbLine
 10
-39.65005105315476
 20
-3.183180547209332
 30
0.0
 11
-39.04202123657171
 21
-3.183180547209332
 31
0.0
  0
LINE
  5
C9
330
2
100
AcDbEntity
  8
GAIKEI
  6
Continuous
 62
     1
100
AcDbLine
 10
-39.04202123657171
 20
26.28756162804279
 30
0.0
 11
-39.6501648793016
 21
26.28756162804279
 31
0.0
  0
LINE
  5
CA
330
2
100
AcDbEntity
  8
GAIKEI
  6
Continuous
 62
     1
100
AcDbLine
 10
-39.6501648793016
 20
-3.191739011667948
 30
0.0
 11
-39.65004272179306
 21
26.71668971373061
 31
0.0
  0
LINE
  5
CB
330
2
100
AcDbEntity
  8
GAIKEI
  6
Continuous
 62
     1
100
AcDbLine
 10
-39.68520220705909
 20
-3.149205398615691
 30
0.0
 11
-39.68520220705909
 21
26.68140841115934
 31
0.0
  0
LINE
  5
CC
330
2
100
AcDbEntity
  8
GAIKEI
  6
Continuous
 62
     1
100
AcDbLine
 10
-44.31204797746926
 20
-3.150035473505596
 30
0.0
 11
-44.31204797746926
 21
26.6822384860493
 31
0.0
  0
LINE
  5
CD
330
2
100
AcDbEntity
  8
GAIKEI
  6
Continuous
 62
     1
100
AcDbLine
 10
-44.34721943386131
 20
26.71852093363202
 30
0.0
 11
-44.34721943386125
 21
-3.186330303059321
 31
0.0
  0
LINE
  5
CE
330
2
100
AcDbEntity
  8
GAIKEI
  6
Continuous
 62
     1
100
AcDbLine
 10
-44.07833522508394
 20
-2.915383053009492
 30
0.0
 11
-44.07833522508394
 21
26.44758564884887
 31
0.0
  0
LINE
  5
CF
330
2
100
AcDbEntity
  8
GAIKEI
  6
Continuous
100
AcDbLine
 10
-44.39439165657029
 20
-3.278587071515573
 30
0.0
 11
-44.39439165657029
 21
26.81079008405919
 31
0.0
  0
LINE
  5
D0
330
2
100
AcDbEntity
  8
GAIKEI
  6
Continuous
 62
     1
100
AcDbLine
 10
-39.9189145427402
 20
-2.915358467457991
 30
0.0
 11
-39.9189145427402
 21
26.44754939557811
 31
0.0
  0
LINE
  5
D1
330
2
100
AcDbEntity
  8
GAIKEI
  6
Continuous
 62
     1
100
AcDbLine
 10
-39.64276671183404
 20
-2.755371116627031
 30
0.0
 11
-39.04202123657171
 21
-2.755371116627031
 31
0.0
  0
LINE
  5
D2
330
2
100
AcDbEntity
  8
GAIKEI
  6
Continuous
 62
     1
100
AcDbLine
 10
-39.61289318329125
 20
-3.213188254524453
 30
0.0
 11
-39.61289318329125
 21
-3.183180547209332
 31
0.0
  0
LINE
  5
D3
330
2
100
AcDbEntity
  8
GAIKEI
 62
     7
100
AcDbLine
 10
-39.72483889469163
 20
27.01621862061569
 30
0.0
 11
-44.1920296512867
 21
27.01462919168307
 31
0.0
  0
LINE
  5
D4
330
2
100
AcDbEntity
  8
GAIKEI
 62
     1
100
AcDbLine
 10
-39.84977998050153
 20
26.91643918057179
 30
0.0
 11
-44.11444696813203
 21
26.91797740528893
 31
0.0
  0
LINE
  5
D5
330
2
100
AcDbEntity
  8
GAIKEI
 62
     1
100
AcDbLine
 10
-40.11892050407652
 20
26.64755494021023
 30
0.0
 11
-43.87835384929894
 21
26.64755494021023
 31
0.0
  0
ARC
  5
D6
330
2
100
AcDbEntity
  8
GAIKEI
 62
     1
100
AcDbCircle
 10
-43.85029629068685
 20
26.41951430989053
 30
0.0
 40
0.2297602134223355
100
AcDbArc
 50
97.01427902932422
 51
172.9822586112945
  0
LINE
  5
D7
330
2
100
AcDbEntity
  8
GAIKEI
 62
     1
100
AcDbLine
 10
-44.11455684132625
 20
26.88320864342825
 30
0.0
 11
-43.87834634862224
 21
26.64757160838064
 31
0.0
  0
LINE
  5
D8
330
2
100
AcDbEntity
  8
GAIKEI
 62
     1
100
AcDbLine
 10
-44.31197588763189
 20
26.68222515151285
 30
0.0
 11
-44.07833689190096
 21
26.44760648406196
 31
0.0
  0
ARC
  5
D9
330
2
100
AcDbEntity
  8
GAIKEI
 62
     1
100
AcDbCircle
 10
-44.12483269586346
 20
26.69585160145539
 30
0.0
 40
0.1876386270555872
100
AcDbArc
 50
86.86067950641856
 51
184.1645260141716
  0
ARC
  5
DA
330
2
100
AcDbEntity
  8
GAIKEI
 62
     1
100
AcDbCircle
 10
-44.14512345610932
 20
26.71822299087251
 30
0.0
 40
0.2020961973750216
100
AcDbArc
 50
81.26923823096262
 51
179.9155309745605
  0
ARC
  5
DB
330
2
100
AcDbEntity
  8
GAIKEI
 62
     7
100
AcDbCircle
 10
-44.19078584205073
 20
26.81102703642682
 30
0.0
 40
0.2036059544473368
100
AcDbArc
 50
90.35001659551728
 51
180.0667031928842
  0
LINE
  5
DC
330
2
100
AcDbEntity
  8
GAIKEI
 62
     1
100
AcDbLine
 10
-39.8850859001999
 20
26.88127975846555
 30
0.0
 11
-44.11455684132625
 21
26.88320864342825
 31
0.0
  0
ARC
  5
DD
330
2
100
AcDbEntity
  8
GAIKEI
 62
     1
100
AcDbCircle
 10
-39.87287428395609
 20
26.69360304008888
 30
0.0
 40
0.1880654729935096
100
AcDbArc
 50
356.3131059995685
 51
93.69047934133041
  0
ARC
  5
DE
330
2
100
AcDbEntity
  8
GAIKEI
 62
     1
100
AcDbCircle
 10
-39.84905391460904
 20
26.71742794300769
 30
0.0
 40
0.1990125620368673
100
AcDbArc
 50
359.7874630703798
 51
90.2090350636767
  0
ARC
  5
DF
330
2
100
AcDbEntity
  8
GAIKEI
 62
     7
100
AcDbCircle
 10
-39.75013037849612
 20
26.81650350032408
 30
0.0
 40
0.2013101796385793
100
AcDbArc
 50
0.399556746876074
 51
82.78260690453066
  0
LINE
  5
E0
330
2
100
AcDbEntity
  8
GAIKEI
 62
     7
100
AcDbLine
 10
-39.54882509377819
 20
26.81790734174558
 30
0.0
 11
-39.54882490300878
 21
26.74537876594025
 31
0.0
  0
LINE
  5
E1
330
2
100
AcDbEntity
  8
GAIKEI
 62
     1
100
AcDbLine
 10
-39.54876406418657
 20
26.81790739285418
 30
0.0
 11
-39.650042721793
 21
26.71668971373061
 31
0.0
  0
LINE
  5
E2
330
2
100
AcDbEntity
  8
GAIKEI
 62
     1
100
AcDbLine
 10
-39.74852572808856
 20
27.01765680858671
 30
0.0
 11
-39.84977998050153
 21
26.91643918057179
 31
0.0
  0
LINE
  5
E3
330
2
100
AcDbEntity
  8
GAIKEI
 62
     1
100
AcDbLine
 10
-39.88497939775561
 20
26.88127852690639
 30
0.0
 11
-40.11892133748506
 21
26.64756619122528
 31
0.0
  0
LINE
  5
E4
330
2
100
AcDbEntity
  8
GAIKEI
 62
     1
100
AcDbLine
 10
-39.68519804001653
 20
26.68150967029499
 30
0.0
 11
-39.91891037569758
 21
26.44756731386133
 31
0.0
  0
ARC
  5
E5
330
2
100
AcDbEntity
  8
GAIKEI
 62
     1
100
AcDbCircle
 10
-40.1394687336375
 20
26.42699426897696
 30
0.0
 40
0.2215157769392105
100
AcDbArc
 50
5.328964981966914
 51
84.67748141098214
  0
LINE
  5
E6
330
2
100
AcDbEntity
  8
GAIKEI
 62
     1
100
AcDbLine
 10
-40.11892050407652
 20
-3.115364428794435
 30
0.0
 11
-43.87835384929894
 21
-3.115364428794435
 31
0.0
  0
LINE
  5
E7
330
2
100
AcDbEntity
  8
GAIKEI
 62
     1
100
AcDbLine
 10
-39.8850859001999
 20
-3.349089127892824
 30
0.0
 11
-44.11455684132625
 21
-3.351018012855575
 31
0.0
  0
LINE
  5
E8
330
2
100
AcDbEntity
  8
GAIKEI
 62
     1
100
AcDbLine
 10
-39.8850859001999
 20
-3.384114260539632
 30
0.0
 11
-44.14762867274498
 21
-3.386018729237065
 31
0.0
  0
LINE
  5
E9
330
2
100
AcDbEntity
  8
GAIKEI
100
AcDbLine
 10
-39.74852572808856
 20
-3.485453969881291
 30
0.0
 11
-44.1920296512867
 21
-3.482426352977739
 31
0.0
  0
ARC
  5
EA
330
2
100
AcDbEntity
  8
GAIKEI
100
AcDbCircle
 10
-44.19080686504787
 20
-3.278845068368894
 30
0.0
 40
0.2035849568341477
100
AcDbArc
 50
179.9274162080465
 51
269.6558640035523
  0
ARC
  5
EB
330
2
100
AcDbEntity
  8
GAIKEI
 62
     1
100
AcDbCircle
 10
-44.14870433134274
 20
-3.187503076744263
 30
0.0
 40
0.1985185667036251
100
AcDbArc
 50
179.6615159254602
 51
270.3104545859287
  0
ARC
  5
EC
330
2
100
AcDbEntity
  8
GAIKEI
 62
     1
100
AcDbCircle
 10
-44.12483726552443
 20
-3.163607868514219
 30
0.0
 40
0.1876653470639542
100
AcDbArc
 50
175.8526305486513
 51
273.1070202196256
  0
ARC
  5
ED
330
2
100
AcDbEntity
  8
GAIKEI
 62
     1
100
AcDbCircle
 10
-43.8502858804602
 20
-2.887315084170779
 30
0.0
 40
0.229770133955667
100
AcDbArc
 50
187.0165901477166
 51
262.9834098522727
  0
LINE
  5
EE
330
2
100
AcDbEntity
  8
GAIKEI
 62
     1
100
AcDbLine
 10
-43.87835384929894
 20
-3.115355678004874
 30
0.0
 11
-44.11466558616632
 21
-3.350997354419035
 31
0.0
  0
LINE
  5
EF
330
2
100
AcDbEntity
  8
GAIKEI
 62
     1
100
AcDbLine
 10
-44.07833564178815
 20
-2.915399304475698
 30
0.0
 11
-44.31197505422341
 21
-3.150017555222348
 31
0.0
  0
ARC
  5
F0
330
2
100
AcDbEntity
  8
GAIKEI
100
AcDbCircle
 10
-39.74997251614656
 20
-3.284368183493398
 30
0.0
 40
0.2011519427009429
100
AcDbArc
 50
270.4086267862511
 51
359.6158847768068
  0
ARC
  5
F1
330
2
100
AcDbEntity
  8
GAIKEI
 62
     1
100
AcDbCircle
 10
-39.85312576610823
 20
-3.183559641375666
 30
0.0
 40
0.2030852171852302
100
AcDbArc
 50
260.9455502991961
 51
359.7349573645155
  0
ARC
  5
F2
330
2
100
AcDbEntity
  8
GAIKEI
 62
     1
100
AcDbCircle
 10
-39.8728826640895
 20
-3.161414132936073
 30
0.0
 40
0.1880713234482933
100
AcDbArc
 50
266.2796801161962
 51
3.696555424063713
  0
LINE
  5
F3
330
2
100
AcDbEntity
  8
GAIKEI
 62
     1
100
AcDbLine
 10
-39.88498439820683
 20
-3.349074680954146
 30
0.0
 11
-40.11892633793621
 21
-3.115362345273098
 31
0.0
  0
LINE
  5
F4
330
2
100
AcDbEntity
  8
GAIKEI
 62
     1
100
AcDbLine
 10
-39.91891495944447
 20
-2.915346383034403
 30
0.0
 11
-39.6852026237633
 21
-3.149288739468119
 31
0.0
  0
ARC
  5
F5
330
2
100
AcDbEntity
  8
GAIKEI
 62
     1
100
AcDbCircle
 10
-40.13955582035925
 20
-2.894639520500987
 30
0.0
 40
0.2216847782785941
100
AcDbArc
 50
275.3395407269482
 51
354.6372035467181
  0
LINE
  5
F6
330
2
100
AcDbEntity
  8
GAIKEI
100
AcDbLine
 10
-39.5487523964672
 20
-3.285713964508573
 30
0.0
 11
-39.54882490300878
 21
-3.213188254524453
 31
0.0
  0
ELLIPSE
  5
F7
330
2
100
AcDbEntity
  8
GAIKEI
  6
Continuous
 62
     1
100
AcDbEllipse
 10
-39.06102105791087
 20
26.85860922337088
 30
0.0
 11
-0.0079467640876592
 21
0.4318755208183608
 31
0.0
210
0.0
220
0.0
230
1.0
 40
0.0404429999982552
 41
4.285401047308635
 42
4.371811220305964
  0
ELLIPSE
  5
F8
330
2
100
AcDbEntity
  8
GAIKEI
  6
Continuous
 62
     1
100
AcDbEllipse
 10
-39.06102105791081
 20
-3.327651519664186
 30
0.0
 11
0.007946764087659
 21
0.4318755208183799
 31
0.0
210
0.0
220
0.0
230
1.0
 40
0.0404429999982537
 41
-1.230218566716188
 42
-1.143808393718863
  0
ELLIPSE
  5
F9
330
2
100
AcDbEntity
  8
GAIKEI
  6
Continuous
 62
     1
100
AcDbEllipse
 10
-38.9861172032048
 20
26.933513078077
 30
0.0
 11
-0.4318755208192349
 21
0.0079467640870345
 31
0.0
210
0.0
220
0.0
230
1.0
 40
0.0404429999987592
 41
1.911374086872785
 42
1.997784259870051
  0
ELLIPSE
  5
FA
330
2
100
AcDbEntity
  8
GAIKEI
  6
Continuous
 62
     1
100
AcDbEllipse
 10
-38.9861172032048
 20
-3.402555374370365
 30
0.0
 11
0.4318755208195003
 21
0.0079467640870295
 31
0.0
210
0.0
220
0.0
230
1.0
 40
0.0404429999987397
 41
1.14380839372002
 42
1.230218566717296
  0
ELLIPSE
  5
FB
330
2
100
AcDbEntity
  8
GAIKEI
  6
Continuous
 62
     1
100
AcDbEllipse
 10
-36.57158725154915
 20
24.77039305699924
 30
0.0
 11
-0.0641306772673077
 21
0.0819853242396075
 31
0.0
210
0.0
220
0.0
230
1.0
 40
0.9602119999885655
 41
-0.6513938849655593
 42
-0.3742724759626874
  0
ELLIPSE
  5
FC
330
2
100
AcDbEntity
  8
GAIKEI
  6
Continuous
 62
     1
100
AcDbEllipse
 10
-36.57158725154909
 20
-1.106988963506637
 30
0.0
 11
0.0641306772804553
 21
0.0819853242296695
 31
0.0
210
0.0
220
0.0
230
1.0
 40
0.960211999997915
 41
3.515865129711884
 42
3.792986538710805
  0
ELLIPSE
  5
FD
330
2
100
AcDbEntity
  8
GAIKEI
  6
Continuous
 62
     1
100
AcDbEllipse
 10
-36.57157630057623
 20
24.77038210602638
 30
0.0
 11
-0.0820793596799872
 21
0.0640376871272272
 31
0.0
210
0.0
220
0.0
230
1.0
 40
0.960042000004322
 41
0.3752614366540838
 42
0.6500607538632135
  0
ELLIPSE
  5
FE
330
2
100
AcDbEntity
  8
GAIKEI
  6
Continuous
 62
     1
100
AcDbEllipse
 10
-36.57157630057617
 20
-1.106978012533659
 30
0.0
 11
0.0820793596877476
 21
0.0640376871167844
 31
0.0
210
0.0
220
0.0
230
1.0
 40
0.9600419999991443
 41
2.491531899849828
 42
2.766331217060938
  0
ELLIPSE
  5
FF
330
2
100
AcDbEntity
  8
GAIKEI
  6
Continuous
 62
     1
100
AcDbEllipse
 10
-36.57158725154909
 20
-1.104250020169843
 30
0.0
 11
0.0911712404724387
 21
0.1233277374014959
 31
0.0
210
0.0
220
0.0
230
1.0
 40
0.9776259999899165
 41
3.490282879346349
 42
3.767404288348283
  0
ELLIPSE
  5
100
330
2
100
AcDbEntity
  8
GAIKEI
  6
Continuous
 62
     1
100
AcDbEllipse
 10
-36.57158725154915
 20
24.76765411366244
 30
0.0
 11
-0.0911712405137963
 21
0.1233277373716018
 31
0.0
210
0.0
220
0.0
230
1.0
 40
0.9776260000001293
 41
-0.6258116350885031
 42
-0.3486902260919513
  0
ELLIPSE
  5
101
330
2
100
AcDbEntity
  8
GAIKEI
  6
Continuous
 62
     1
100
AcDbEllipse
 10
-36.56879745369418
 20
-1.106978012533659
 30
0.0
 11
0.1234686257683748
 21
0.0910092022787943
 31
0.0
210
0.0
220
0.0
230
1.0
 40
0.9775040000039993
 41
2.51722575267712
 42
2.792025069887031
  0
ELLIPSE
  5
102
330
2
100
AcDbEntity
  8
GAIKEI
  6
Continuous
 62
     1
100
AcDbEllipse
 10
-36.56879745369423
 20
24.77038210602638
 30
0.0
 11
-0.1234686257922888
 21
0.0910092022455151
 31
0.0
210
0.0
220
0.0
230
1.0
 40
0.9775039999962212
 41
0.3495675834329772
 42
0.6243669006472979
  0
ELLIPSE
  5
103
330
2
100
AcDbEntity
  8
GAIKEI
  6
Continuous
 62
     1
100
AcDbEllipse
 10
-38.13437588168972
 20
-2.475910198149222
 30
0.0
 11
0.5814136090118486
 21
0.5814136090118486
 31
0.0
210
0.0
220
0.0
230
1.0
 40
0.4561099999999815
 41
2.756538952252924
 42
3.526646354926543
  0
ELLIPSE
  5
104
330
2
100
AcDbEntity
  8
GAIKEI
  6
Continuous
 62
     1
100
AcDbEllipse
 10
-38.13437588168972
 20
26.0068679018558
 30
0.0
 11
-0.581413609011845
 21
0.581413609011845
 31
0.0
210
0.0
220
0.0
230
1.0
 40
0.4561099999999933
 41
-0.3850537013368589
 42
0.3850537013368587
  0
ARC
  5
105
330
2
100
AcDbEntity
  8
GAIKEI
  6
Continuous
 62
     1
100
AcDbCircle
 10
-38.94315803657037
 20
26.8156500567365
 30
0.0
 40
0.2000177702400075
100
AcDbArc
 50
179.9215319999855
 51
180.0
  0
ARC
  5
106
330
2
100
AcDbEntity
  8
GAIKEI
  6
Continuous
 62
     1
100
AcDbCircle
 10
-38.94315803657037
 20
-3.284692353029868
 30
0.0
 40
0.2000177702400075
100
AcDbArc
 50
180.0
 51
180.0784680000144
  0
ARC
  5
107
330
2
100
AcDbEntity
  8
GAIKEI
  6
Continuous
 62
     1
100
AcDbCircle
 10
-38.94315803657037
 20
26.8156500567365
 30
0.0
 40
0.2000177702400075
100
AcDbArc
 50
90.0
 51
90.07846799999812
  0
ARC
  5
108
330
2
100
AcDbEntity
  8
GAIKEI
  6
Continuous
 62
     1
100
AcDbCircle
 10
-38.94315803657037
 20
-3.284692353029868
 30
0.0
 40
0.2000177702400075
100
AcDbArc
 50
269.9215320000019
 51
270.0
  0
ARC
  5
109
330
2
100
AcDbEntity
  8
GAIKEI
  6
Continuous
 62
     7
100
AcDbCircle
 10
-38.94315803657037
 20
-3.284692353029868
 30
0.0
 40
0.2000177702400075
100
AcDbArc
 50
180.0784680000144
 51
269.9215320000019
  0
ARC
  5
10A
330
2
100
AcDbEntity
  8
GAIKEI
  6
Continuous
 62
     7
100
AcDbCircle
 10
-38.94315803657037
 20
26.8156500567365
 30
0.0
 40
0.2000177702400075
100
AcDbArc
 50
90.07846799999812
 51
179.9215319999855
  0
ARC
  5
10B
330
2
100
AcDbEntity
  8
GAIKEI
  6
Continuous
 62
     1
100
AcDbCircle
 10
-36.57581947755409
 20
24.77461873242225
 30
0.0
 40
0.0982869821404501
100
AcDbArc
 50
105.7493539999931
 51
164.380544000005
  0
ARC
  5
10C
330
2
100
AcDbEntity
  8
GAIKEI
  6
Continuous
 62
     1
100
AcDbCircle
 10
-37.51030627617365
 20
-1.892004078143258
 30
0.0
 40
0.1000088851200038
100
AcDbArc
 50
180.0
 51
270.0
  0
ARC
  5
10D
330
2
100
AcDbEntity
  8
GAIKEI
  6
Continuous
 62
     1
100
AcDbCircle
 10
-37.51030627617371
 20
25.40796003237813
 30
0.0
 40
0.1000088851200038
100
AcDbArc
 50
90.0
 51
180.0
  0
ARC
  5
10E
330
2
100
AcDbEntity
  8
GAIKEI
  6
Continuous
 62
     1
100
AcDbCircle
 10
-36.62636836848458
 20
-2.662137043157827
 30
0.0
 40
0.025002221280001
100
AcDbArc
 50
90.0
 51
180.0
  0
ARC
  5
10F
330
2
100
AcDbEntity
  8
GAIKEI
  6
Continuous
 62
     1
100
AcDbCircle
 10
-36.32634171312458
 20
-2.662137043157827
 30
0.0
 40
0.025002221280001
100
AcDbArc
 50
0.0
 51
90.0
  0
ARC
  5
110
330
2
100
AcDbEntity
  8
GAIKEI
  6
Continuous
 62
     1
100
AcDbCircle
 10
-36.62636836848458
 20
-2.962163698517883
 30
0.0
 40
0.025002221280001
100
AcDbArc
 50
180.0
 51
270.0
  0
ARC
  5
111
330
2
100
AcDbEntity
  8
GAIKEI
  6
Continuous
 62
     1
100
AcDbCircle
 10
-36.32634171312458
 20
-2.962163698517883
 30
0.0
 40
0.025002221280001
100
AcDbArc
 50
270.0
 51
0.0
  0
ARC
  5
112
330
2
100
AcDbEntity
  8
GAIKEI
  6
Continuous
 62
     1
100
AcDbCircle
 10
-37.51030627617371
 20
25.40796003237813
 30
0.0
 40
0.2019818947393219
100
AcDbArc
 50
90.0
 51
180.0
  0
ARC
  5
113
330
2
100
AcDbEntity
  8
GAIKEI
  6
Continuous
 62
     1
100
AcDbCircle
 10
-37.51030627617365
 20
-1.892004078143258
 30
0.0
 40
0.2019818947393219
100
AcDbArc
 50
180.0
 51
270.0
  0
LINE
  5
114
330
2
100
AcDbEntity
  8
GAIKEI
  6
Continuous
 62
     7
100
AcDbLine
 10
-39.14317580681041
 20
26.8156500567365
 30
0.0
 11
-39.14317580681041
 21
-3.284692353029868
 31
0.0
  0
LINE
  5
115
330
2
100
AcDbEntity
  8
GAIKEI
  6
Continuous
 62
     7
100
AcDbLine
 10
-38.94315803657037
 20
27.01566782697649
 30
0.0
 11
10.75699560642505
 21
27.01566782697649
 31
0.0
  0
LINE
  5
116
330
2
100
AcDbEntity
  8
GAIKEI
  6
Continuous
 62
     7
100
AcDbLine
 10
-38.94315803657037
 20
-3.484710123269906
 30
0.0
 11
10.75699560642511
 21
-3.484710123269906
 31
0.0
  0
LINE
  5
117
330
2
100
AcDbEntity
  8
GAIKEI
  6
Continuous
 62
     1
100
AcDbLine
 10
-39.04190365945794
 20
-3.183694280027111
 30
0.0
 11
-39.14317560679263
 21
-3.284966277366208
 31
0.0
  0
LINE
  5
118
330
2
100
AcDbEntity
  8
GAIKEI
  6
Continuous
 62
     1
100
AcDbLine
 10
-38.94343196090677
 20
-3.484709923252125
 30
0.0
 11
-38.84215996356761
 21
-3.383437975917502
 31
0.0
  0
LINE
  5
119
330
2
100
AcDbEntity
  8
GAIKEI
  6
Continuous
 62
     1
100
AcDbLine
 10
-38.84215996356761
 20
26.91439567962414
 30
0.0
 11
-38.94343196090677
 21
27.01566762695876
 31
0.0
  0
LINE
  5
11A
330
2
100
AcDbEntity
  8
GAIKEI
  6
Continuous
 62
     1
100
AcDbLine
 10
-39.14317560679263
 20
26.81592398107284
 30
0.0
 11
-39.04190365945794
 21
26.71465198373375
 31
0.0
  0
LINE
  5
11B
330
2
100
AcDbEntity
  8
GAIKEI
  6
Continuous
 62
     1
100
AcDbLine
 10
-39.0418320530963
 20
26.68004865946
 30
0.0
 11
-39.0418320530963
 21
-3.149090955753422
 31
0.0
  0
LINE
  5
11C
330
2
100
AcDbEntity
  8
GAIKEI
  6
Continuous
 62
     1
100
AcDbLine
 10
10.62139420914866
 20
26.91432407326238
 30
0.0
 11
-38.80755663929392
 21
26.91432407326238
 31
0.0
  0
LINE
  5
11D
330
2
100
AcDbEntity
  8
GAIKEI
  6
Continuous
 62
     1
100
AcDbLine
 10
-38.80755663929392
 20
-3.383366369555744
 30
0.0
 11
10.62139420914866
 21
-3.383366369555744
 31
0.0
  0
LINE
  5
11E
330
2
100
AcDbEntity
  8
GAIKEI
  6
Continuous
 62
     1
100
AcDbLine
 10
8.420056623930577
 20
24.87292611637526
 30
0.0
 11
-36.5748568920348
 21
24.87292611637526
 31
0.0
  0
LINE
  5
11F
330
2
100
AcDbEntity
  8
GAIKEI
  6
Continuous
 62
     1
100
AcDbLine
 10
-36.57485689203475
 20
-1.209522022882651
 30
0.0
 11
8.420056623930577
 21
-1.209522022882595
 31
0.0
  0
LINE
  5
120
330
2
100
AcDbEntity
  8
GAIKEI
  6
Continuous
 62
     1
100
AcDbLine
 10
-36.67412446129385
 20
24.77366684785369
 30
0.0
 11
-36.67412446129379
 21
-1.110262754360974
 31
0.0
  0
LINE
  5
121
330
2
100
AcDbEntity
  8
GAIKEI
  6
Continuous
 62
     1
100
AcDbLine
 10
8.420056623930577
 20
-1.256414838995453
 30
0.0
 11
-36.57485689203475
 21
-1.256414838995453
 31
0.0
  0
LINE
  5
122
330
2
100
AcDbEntity
  8
GAIKEI
  6
Continuous
 62
     1
100
AcDbLine
 10
-36.5748568920348
 20
24.91981893248806
 30
0.0
 11
8.420056623930577
 21
24.91981893248806
 31
0.0
  0
LINE
  5
123
330
2
100
AcDbEntity
  8
GAIKEI
  6
Continuous
 62
     1
100
AcDbLine
 10
-37.51030627617371
 20
25.50796891749809
 30
0.0
 11
9.355506008069596
 21
25.50796891749809
 31
0.0
  0
LINE
  5
124
330
2
100
AcDbEntity
  8
GAIKEI
  6
Continuous
 62
     1
100
AcDbLine
 10
9.355506008069596
 20
-1.992012963263221
 30
0.0
 11
-37.51030627617365
 21
-1.992012963263221
 31
0.0
  0
LINE
  5
125
330
2
100
AcDbEntity
  8
GAIKEI
  6
Continuous
 62
     1
100
AcDbLine
 10
-37.61031516129367
 20
-1.892004078143258
 30
0.0
 11
-37.61031516129373
 21
25.40796003237813
 31
0.0
  0
LINE
  5
126
330
2
100
AcDbEntity
  8
GAIKEI
  6
Continuous
 62
     1
100
AcDbLine
 10
-36.72097732385703
 20
-1.110262754360974
 30
0.0
 11
-36.72097732385708
 21
24.77366684785369
 31
0.0
  0
LINE
  5
127
330
2
100
AcDbEntity
  8
GAIKEI
  6
Continuous
 62
     1
100
AcDbLine
 10
-37.60181865643608
 20
-1.929005915508867
 30
0.0
 11
-36.7152674665744
 21
-1.15114733668247
 31
0.0
  0
LINE
  5
128
330
2
100
AcDbEntity
  8
GAIKEI
  6
Continuous
 62
     1
100
AcDbLine
 10
-36.61607765422349
 20
-1.250609273209818
 30
0.0
 11
-37.466699471104
 21
-1.992012963263221
 31
0.0
  0
LINE
  5
129
330
2
100
AcDbEntity
  8
GAIKEI
  6
Continuous
 62
     1
100
AcDbLine
 10
-36.71526746657446
 20
24.81455143017519
 30
0.0
 11
-37.60181865643614
 21
25.44496186974374
 31
0.0
  0
LINE
  5
12A
330
2
100
AcDbEntity
  8
GAIKEI
  6
Continuous
 62
     1
100
AcDbLine
 10
-37.46547344307658
 20
25.50672495698063
 30
0.0
 11
-36.61607765422355
 21
24.91401336670242
 31
0.0
  0
LINE
  5
12B
330
2
100
AcDbEntity
  8
GAIKEI
  6
Continuous
 62
     1
100
AcDbLine
 10
-39.00677103815974
 20
-3.149090955753422
 30
0.0
 11
-39.00677103815974
 21
26.68004865946
 31
0.0
  0
LINE
  5
12C
330
2
100
AcDbEntity
  8
GAIKEI
  6
Continuous
 62
     1
100
AcDbLine
 10
-38.80755663929392
 20
26.87926305832588
 30
0.0
 11
10.62139420914866
 21
26.87926305832588
 31
0.0
  0
LINE
  5
12D
330
2
100
AcDbEntity
  8
GAIKEI
  6
Continuous
 62
     1
100
AcDbLine
 10
10.62139420914866
 20
-3.348305354619242
 30
0.0
 11
-38.80755663929392
 21
-3.348305354619242
 31
0.0
  0
LINE
  5
12E
330
2
100
AcDbEntity
  8
GAIKEI
  6
Continuous
 62
     1
100
AcDbLine
 10
-39.00677103815974
 20
26.68004865946
 30
0.0
 11
-38.77282460358498
 21
26.44610222488535
 31
0.0
  0
LINE
  5
12F
330
2
100
AcDbEntity
  8
GAIKEI
  6
Continuous
 62
     1
100
AcDbLine
 10
-38.57361020471922
 20
26.64531662375123
 30
0.0
 11
-38.80755663929392
 21
26.87926305832588
 31
0.0
  0
LINE
  5
130
330
2
100
AcDbEntity
  8
GAIKEI
  6
Continuous
 62
     1
100
AcDbLine
 10
-38.80755663929392
 20
-3.348305354619242
 30
0.0
 11
-38.57361020471922
 21
-3.11435892004448
 31
0.0
  0
LINE
  5
131
330
2
100
AcDbEntity
  8
GAIKEI
  6
Continuous
 62
     1
100
AcDbLine
 10
-38.77282460358492
 20
-2.915144521178717
 30
0.0
 11
-39.00677103815974
 21
-3.149090955753422
 31
0.0
  0
LINE
  5
132
330
2
100
AcDbEntity
  8
GAIKEI
  6
Continuous
 62
     1
100
AcDbLine
 10
-38.04057784836232
 20
-2.867155257653791
 30
0.0
 11
-38.15058762199431
 21
-2.867155257653791
 31
0.0
  0
LINE
  5
133
330
2
100
AcDbEntity
  8
GAIKEI
  6
Continuous
 62
     1
100
AcDbLine
 10
-36.30133949184466
 20
-2.662137043157827
 30
0.0
 11
-36.30133949184466
 21
-2.962163698517883
 31
0.0
  0
LINE
  5
134
330
2
100
AcDbEntity
  8
GAIKEI
  6
Continuous
 62
     1
100
AcDbLine
 10
-38.15058762199431
 20
-2.867155257653791
 30
0.0
 11
-38.15058762199431
 21
-2.757145484021862
 31
0.0
  0
LINE
  5
135
330
2
100
AcDbEntity
  8
GAIKEI
  6
Continuous
 62
     1
100
AcDbLine
 10
-38.15058762199431
 20
-2.757145484021862
 30
0.0
 11
-38.04057784836232
 21
-2.757145484021862
 31
0.0
  0
LINE
  5
136
330
2
100
AcDbEntity
  8
GAIKEI
  6
Continuous
 62
     1
100
AcDbLine
 10
-38.04057784836232
 20
-2.757145484021862
 30
0.0
 11
-38.04057784836232
 21
-2.867155257653791
 31
0.0
  0
LINE
  5
137
330
2
100
AcDbEntity
  8
GAIKEI
  6
Continuous
 62
     1
100
AcDbLine
 10
-36.32634171312458
 20
-2.98716591979786
 30
0.0
 11
-36.62636836848458
 21
-2.98716591979786
 31
0.0
  0
LINE
  5
138
330
2
100
AcDbEntity
  8
GAIKEI
  6
Continuous
 62
     1
100
AcDbLine
 10
-36.65137058976461
 20
-2.962163698517883
 30
0.0
 11
-36.65137058976461
 21
-2.662137043157827
 31
0.0
  0
LINE
  5
139
330
2
100
AcDbEntity
  8
GAIKEI
  6
Continuous
 62
     1
100
AcDbLine
 10
-36.62636836848458
 20
-2.637134821877793
 30
0.0
 11
-36.32634171312458
 21
-2.637134821877793
 31
0.0
  0
LINE
  5
13A
330
2
100
AcDbEntity
  8
GAIKEI
  6
Continuous
 62
     1
100
AcDbLine
 10
9.355506008069596
 20
25.60994192711752
 30
0.0
 11
-37.51030627617371
 21
25.60994192711752
 31
0.0
  0
LINE
  5
13B
330
2
100
AcDbEntity
  8
GAIKEI
  6
Continuous
 62
     1
100
AcDbLine
 10
-37.51030627617365
 20
-2.093985972882535
 30
0.0
 11
9.355506008069596
 21
-2.093985972882535
 31
0.0
  0
LINE
  5
13C
330
2
100
AcDbEntity
  8
GAIKEI
  6
Continuous
 62
     1
100
AcDbLine
 10
-37.71228817091304
 20
25.40796003237813
 30
0.0
 11
-37.71228817091298
 21
-1.892004078143258
 31
0.0
  0
LINE
  5
13D
330
2
100
AcDbEntity
  8
GAIKEI
  6
Continuous
 62
     1
100
AcDbLine
 10
-38.77282460358498
 20
26.44610222488535
 30
0.0
 11
-38.77282460358492
 21
-2.915144521178717
 31
0.0
  0
LINE
  5
13E
330
2
100
AcDbEntity
  8
GAIKEI
  6
Continuous
 62
     1
100
AcDbLine
 10
10.3874477745739
 20
26.64531662375123
 30
0.0
 11
-38.57361020471922
 21
26.64531662375123
 31
0.0
  0
LINE
  5
13F
330
2
100
AcDbEntity
  8
GAIKEI
  6
Continuous
 62
     1
100
AcDbLine
 10
-38.57361020471922
 20
-3.11435892004448
 30
0.0
 11
10.38744777457395
 21
-3.11435892004448
 31
0.0
  0
SPLINE
  5
140
330
2
100
AcDbEntity
  8
GAIKEI
  6
Continuous
 62
     1
100
AcDbSpline
210
0.0
220
0.0
230
1.0
 70
     8
 71
     3
 72
    21
 73
    17
 74
    15
 42
0.0000000001
 43
0.0000000001
 44
0.000001
 12
-0.0001490760298766
 22
-0.9999999888881687
 32
0.0
 13
0.9999997489039975
 23
0.0007086550233522
 33
0.0
 40
0.0
 40
0.0
 40
0.0
 40
0.0
 40
0.0220203622856797
 40
0.0441150886358827
 40
0.0661420247968157
 40
0.088194581569368
 40
0.1103152820563032
 40
0.132368242697415
 40
0.1546938208840715
 40
0.1770898850745099
 40
0.1994152170311339
 40
0.2218138290891929
 40
0.2442838362701901
 40
0.2666822908844075
 40
0.2901709918964455
 40
0.3136542532514597
 40
0.3136542532514597
 40
0.3136542532514597
 40
0.3136542532514597
 10
-39.04190363984185
 20
-3.183694303463937
 30
0.0
 10
-39.04190473407792
 20
-3.191034424144277
 30
0.0
 10
-39.04110495178477
 20
-3.205752917516974
 30
0.0
 10
-39.03747691712709
 20
-3.227542340959701
 30
0.0
 10
-39.03149164728418
 20
-3.248821012139273
 30
0.0
 10
-39.02313056415852
 20
-3.269292355402484
 30
0.0
 10
-39.01258154784926
 20
-3.288733248120792
 30
0.0
 10
-38.99992087664279
 20
-3.306984351606274
 30
0.0
 10
-38.98520890605102
 20
-3.323750518659721
 30
0.0
 10
-38.96867274786314
 20
-3.338851055031796
 30
0.0
 10
-38.95054977601026
 20
-3.352051980409157
 30
0.0
 10
-38.93101208363987
 20
-3.363102276002337
 30
0.0
 10
-38.91035029939823
 20
-3.371927977002258
 30
0.0
 10
-38.88848318578855
 20
-3.378505264788998
 30
0.0
 10
-38.8656608097545
 20
-3.3825390843663
 30
0.0
 10
-38.84998773882387
 20
-3.383443503478446
 30
0.0
 10
-38.84215998700438
 20
-3.383437956301406
 30
0.0
 11
-39.04190363984185
 21
-3.183694303463937
 31
0.0
 11
-39.04070345054254
 21
-3.20568250002708
 31
0.0
 11
-39.03708014947426
 21
-3.227478121048022
 31
0.0
 11
-39.03110010439457
 21
-3.248677783953496
 31
0.0
 11
-39.02277675827747
 21
-3.269099298963567
 31
0.0
 11
-39.01222698910272
 21
-3.288542260033239
 31
0.0
 11
-38.99964546173647
 21
-3.306654111686896
 31
0.0
 11
-38.98493188956752
 21
-3.32344527682045
 31
0.0
 11
-38.96839385339206
 21
-3.33854752932757
 31
0.0
 11
-38.95033891746664
 21
-3.351679198222484
 31
0.0
 11
-38.93085019045043
 21
-3.362719498257831
 31
0.0
 11
-38.91018567026367
 21
-3.371544447985911
 31
0.0
 11
-38.88873311046405
 21
-3.377984909422536
 31
0.0
 11
-38.8656047185641
 21
-3.3820833427323
 31
0.0
 11
-38.84215998700438
 21
-3.383437956301406
 31
0.0
  0
SPLINE
  5
141
330
2
100
AcDbEntity
  8
GAIKEI
  6
Continuous
 62
     1
100
AcDbSpline
210
0.0
220
0.0
230
1.0
 70
     8
 71
     3
 72
    21
 73
    17
 74
    15
 42
0.0000000001
 43
0.0000000001
 44
0.000001
 12
-0.9999999888881687
 22
0.0001490760296198
 32
0.0
 13
0.0007086550231108
 23
-0.9999997489039975
 33
0.0
 40
0.0
 40
0.0
 40
0.0
 40
0.0
 40
0.0220203622857365
 40
0.0441150886359581
 40
0.0661420247968602
 40
0.0881945815694028
 40
0.1103152820562837
 40
0.1323682426973955
 40
0.154693820884127
 40
0.1770898850744814
 40
0.1994152170312308
 40
0.2218138290891629
 40
0.2442838362702646
 40
0.2666822908844058
 40
0.2901709918964438
 40
0.3136542532513347
 40
0.3136542532513347
 40
0.3136542532513347
 40
0.3136542532513347
 10
-38.84215998700444
 20
26.91439566000804
 30
0.0
 10
-38.84950010768477
 20
26.91439675424411
 30
0.0
 10
-38.86421860105756
 20
26.913596971951
 30
0.0
 10
-38.8860080245002
 20
26.90996893729315
 30
0.0
 10
-38.90728669567989
 20
26.90398366745041
 30
0.0
 10
-38.9277580389429
 20
26.89562258432449
 30
0.0
 10
-38.94719893166132
 20
26.88507356801549
 30
0.0
 10
-38.96545003514683
 20
26.87241289680901
 30
0.0
 10
-38.98221620220017
 20
26.85770092621715
 30
0.0
 10
-38.99731673857235
 20
26.84116476802925
 30
0.0
 10
-39.01051766394963
 20
26.82304179617637
 30
0.0
 10
-39.02156795954295
 20
26.80350410380601
 30
0.0
 10
-39.03039366054264
 20
26.78284231956434
 30
0.0
 10
-39.03697094832973
 20
26.76097520595482
 30
0.0
 10
-39.04100476790691
 20
26.73815282992066
 30
0.0
 10
-39.04190918701889
 20
26.72247975899012
 30
0.0
 10
-39.04190363984185
 20
26.71465200717069
 30
0.0
 11
-38.84215998700444
 21
26.91439566000804
 31
0.0
 11
-38.86414818356764
 21
26.91319547070873
 31
0.0
 11
-38.88594380458858
 21
26.90957216964034
 31
0.0
 11
-38.90714346749405
 21
26.90359212456076
 31
0.0
 11
-38.92756498250406
 21
26.89526877844355
 31
0.0
 11
-38.94700794357374
 21
26.88471900926891
 31
0.0
 11
-38.9651197952274
 21
26.87213748190266
 31
0.0
 11
-38.98191096036095
 21
26.8574239097336
 31
0.0
 11
-38.99701321286807
 21
26.84088587355825
 31
0.0
 11
-39.01014488176304
 21
26.82283093763272
 31
0.0
 11
-39.02118518179833
 21
26.80334221061662
 31
0.0
 11
-39.03001013152641
 21
26.78267769042975
 31
0.0
 11
-39.03645059296315
 21
26.76122513063024
 31
0.0
 11
-39.04054902627292
 21
26.73809673873029
 31
0.0
 11
-39.04190363984185
 21
26.71465200717069
 31
0.0
  0
SPLINE
  5
142
330
2
100
AcDbEntity
  8
GAIKEI
  6
Continuous
 62
     1
100
AcDbSpline
210
0.0
220
0.0
230
1.0
 70
     8
 71
     3
 72
    14
 73
    10
 74
     8
 42
0.0000000001
 43
0.0000000001
 44
0.000001
 12
0.2697836156325394
 22
-0.9629209732559752
 32
0.0
 13
0.9616843088117285
 23
-0.2741592423853476
 33
0.0
 40
0.0
 40
0.0
 40
0.0
 40
0.0
 40
0.0000567608952277
 40
0.0167840465309815
 40
0.0335125966987406
 40
0.0502374188860442
 40
0.0669622291995438
 40
0.0837063784098749
 40
0.1004494891285248
 40
0.1004494891285248
 40
0.1004494891285248
 40
0.1004494891285248
 10
-36.67047686444613
 20
-1.137678113105039
 30
0.0
 10
-36.67047176005963
 20
-1.137696331857199
 30
0.0
 10
-36.66896067580899
 20
-1.143083066089644
 30
0.0
 10
-36.66500072150532
 20
-1.153594968558735
 30
0.0
 10
-36.65655279897209
 20
-1.168121880719297
 30
0.0
 10
-36.64571304412476
 20
-1.180967926911819
 30
0.0
 10
-36.63288435013337
 20
-1.191834605209294
 30
0.0
 10
-36.61836629044117
 20
-1.200322500167288
 30
0.0
 10
-36.60786469427637
 20
-1.2042816805222
 30
0.0
 10
-36.60249749865676
 20
-1.205811773372147
 30
0.0
 11
-36.67047686444613
 21
-1.137678113105039
 31
0.0
 11
-36.67046153532306
 21
-1.137732765429973
 31
0.0
 11
-36.66458177753458
 21
-1.153393134876637
 31
0.0
 11
-36.65615404780311
 21
-1.167843587503398
 31
0.0
 11
-36.64538291745549
 21
-1.180638232887304
 31
0.0
 11
-36.63260954502835
 21
-1.1914345715752
 31
0.0
 11
-36.618161829499
 21
-1.199898009611047
 31
0.0
 11
-36.60249749865676
 21
-1.205811773372147
 31
0.0
  0
SPLINE
  5
143
330
2
100
AcDbEntity
  8
GAIKEI
  6
Continuous
 62
     1
100
AcDbSpline
210
0.0
220
0.0
230
1.0
 70
     8
 71
     3
 72
    19
 73
    15
 74
    13
 42
0.0000000001
 43
0.0000000001
 44
0.000001
 12
-0.9639938394678312
 22
0.2659245710122878
 32
0.0
 13
-0.26346002757732
 23
0.9646703135625962
 33
0.0
 40
0.0
 40
0.0
 40
0.0
 40
0.0
 40
0.0120685447877937
 40
0.0241375534231712
 40
0.036571754546122
 40
0.049006138964378
 40
0.0610391948685909
 40
0.0730723357382113
 40
0.085475567187896
 40
0.0978786958477284
 40
0.1099595938326071
 40
0.1220403135244401
 40
0.1344880973698777
 40
0.1469354490877652
 40
0.1469354490877652
 40
0.1469354490877652
 40
0.1469354490877652
 10
-36.61607763981721
 20
-1.250609284716233
 30
0.0
 10
-36.61995564075946
 20
-1.249539510517763
 30
0.0
 10
-36.62762549103593
 20
-1.24707200639321
 30
0.0
 10
-36.6388895871616
 20
-1.242374374407575
 30
0.0
 10
-36.64981491741219
 20
-1.236662109887618
 30
0.0
 10
-36.66019057191747
 20
-1.230025831386342
 30
0.0
 10
-36.66984240135861
 20
-1.222593936020047
 30
0.0
 10
-36.67882187945191
 20
-1.214377651916692
 30
0.0
 10
-36.68713554600959
 20
-1.205318476179797
 30
0.0
 10
-36.69463583611406
 20
-1.195555148850502
 30
0.0
 10
-36.70119911147674
 20
-1.185267470424065
 30
0.0
 10
-36.70687475827342
 20
-1.174447742480424
 30
0.0
 10
-36.71163942101796
 20
-1.163064383829862
 30
0.0
 10
-36.7141743607333
 20
-1.155149883463735
 30
0.0
 10
-36.71526748727558
 20
-1.151147353235501
 30
0.0
 11
-36.61607763981721
 21
-1.250609284716233
 31
0.0
 11
-36.62756713252344
 21
-1.246914573147137
 31
0.0
 11
-36.63870510653192
 21
-1.24226631386773
 31
0.0
 11
-36.6497247123437
 21
-1.236506273883833
 31
0.0
 11
-36.66019830327605
 21
-1.229804163534367
 31
0.0
 11
-36.66973351161028
 21
-1.222464222948815
 31
0.0
 11
-36.67860971654443
 21
-1.214339571159825
 31
0.0
 11
-36.686997733336
 21
-1.205202729821849
 31
0.0
 11
-36.69455234896492
 21
-1.195365762854294
 31
0.0
 11
-36.70105211490699
 21
-1.185182365941045
 31
0.0
 11
-36.70666287964633
 21
-1.174483606168678
 31
0.0
 11
-36.71147197238776
 21
-1.163002327872959
 31
0.0
 11
-36.71526748727558
 21
-1.151147353235501
 31
0.0
  0
SPLINE
  5
144
330
2
100
AcDbEntity
  8
GAIKEI
  6
Continuous
 62
     1
100
AcDbSpline
210
0.0
220
0.0
230
1.0
 70
     8
 71
     3
 72
    19
 73
    15
 74
    13
 42
0.0000000001
 43
0.0000000001
 44
0.000001
 12
0.2634414923284027
 22
0.9646753755122933
 32
0.0
 13
0.9639886149825482
 23
0.2659435093850355
 33
0.0
 40
0.0
 40
0.0
 40
0.0
 40
0.0
 40
0.0120706715938937
 40
0.0241417800381252
 40
0.0365777168450859
 40
0.0490138356852724
 40
0.0610453208347819
 40
0.0730769079994254
 40
0.0854784299499572
 40
0.097879867091073
 40
0.1099602577905364
 40
0.1220404696565281
 40
0.1344881894039987
 40
0.1469354486715594
 40
0.1469354486715594
 40
0.1469354486715594
 40
0.1469354486715594
 10
-36.71526748727564
 20
24.81455144672827
 30
0.0
 10
-36.71420751536294
 20
24.81843287327911
 30
0.0
 10
-36.71175953381254
 20
24.8261104422266
 30
0.0
 10
-36.70709108501274
 20
24.83738880037254
 30
0.0
 10
-36.70140747630907
 20
24.84833114477704
 30
0.0
 10
-36.69479920561898
 20
24.85872540181501
 30
0.0
 10
-36.68739424453409
 20
24.86839731167766
 30
0.0
 10
-36.67920406846204
 20
24.87739841999906
 30
0.0
 10
-36.67016938031921
 20
24.88573625004628
 30
0.0
 10
-36.66042806728021
 20
24.89326298226331
 30
0.0
 10
-36.65015937084152
 20
24.8998542653074
 30
0.0
 10
-36.639355506378
 20
24.90555931198435
 30
0.0
 10
-36.62798514429198
 20
24.91035439558601
 30
0.0
 10
-36.62007731189115
 20
24.91290995560496
 30
0.0
 10
-36.61607763981726
 20
24.91401337820889
 30
0.0
 11
-36.71526748727564
 21
24.81455144672827
 31
0.0
 11
-36.71160202682893
 21
24.82605253299863
 31
0.0
 11
-36.70698253603177
 21
24.83720474212066
 31
0.0
 11
-36.70125143135476
 21
24.84824138002557
 31
0.0
 11
-36.69457697783173
 21
24.85873467292828
 31
0.0
 11
-36.68726429180953
 21
24.86828882117027
 31
0.0
 11
-36.67916539679783
 21
24.87718643269153
 31
0.0
 11
-36.67005326966836
 21
24.88559877068383
 31
0.0
 11
-36.66023875905182
 21
24.89317977067759
 31
0.0
 11
-36.65007382987574
 21
24.89970744168096
 31
0.0
 11
-36.63939088692894
 21
24.90534717612764
 31
0.0
 11
-36.62792258643401
 21
24.91018697138713
 31
0.0
 11
-36.61607763981726
 21
24.91401337820889
 31
0.0
  0
SPLINE
  5
145
330
2
100
AcDbEntity
  8
GAIKEI
  6
Continuous
 62
     1
100
AcDbSpline
210
0.0
220
0.0
230
1.0
 70
     8
 71
     3
 72
    19
 73
    15
 74
    13
 42
0.0000000001
 43
0.0000000001
 44
0.000001
 12
0.0944471245025448
 22
0.9955298793472755
 32
0.0
 13
0.9955257326591484
 23
0.0944908229060694
 33
0.0
 40
0.0
 40
0.0
 40
0.0
 40
0.0
 40
0.0172124311712086
 40
0.0344312311769037
 40
0.0515392072852389
 40
0.0686910149758002
 40
0.0858057717066255
 40
0.1119433335992045
 40
0.1380833502633723
 40
0.1635982876566693
 40
0.1891038875427847
 40
0.205383209413032
 40
0.2217026553121974
 40
0.2379700129382734
 40
0.2379700129382734
 40
0.2379700129382734
 40
0.2379700129382734
 10
-39.00314865058556
 20
26.71959094197246
 30
0.0
 10
-39.00260676237562
 20
26.72530277181483
 30
0.0
 10
-39.00090124073009
 20
26.73668071981723
 30
0.0
 10
-38.99646238787395
 20
26.75331091517108
 30
0.0
 10
-38.99032297286655
 20
26.76936598491205
 30
0.0
 10
-38.98264299022577
 20
26.78470262420922
 30
0.0
 10
-38.97194187254223
 20
26.80179089530071
 30
0.0
 10
-38.95737372030138
 20
26.81986162240495
 30
0.0
 10
-38.93840857854966
 20
26.83766830908488
 30
0.0
 10
-38.91731828757708
 20
26.85253022466992
 30
0.0
 10
-38.89728351681498
 20
26.86280862645421
 30
0.0
 10
-38.87906690201447
 20
26.86946956489521
 30
0.0
 10
-38.86326753328427
 20
26.87354543975451
 30
0.0
 10
-38.8524971128461
 20
26.87512829874888
 30
0.0
 10
-38.84709892180638
 20
26.87564067075175
 30
0.0
 11
-39.00314865058556
 21
26.71959094197246
 31
0.0
 11
-39.00058703778979
 21
26.73661258184791
 31
0.0
 11
-38.99616672094237
 21
26.75325445790611
 31
0.0
 11
-38.99006991602397
 21
26.7692392424492
 31
0.0
 11
-38.98239988112118
 21
26.78458052393819
 31
0.0
 11
-38.97331846001123
 21
26.79908707057075
 31
0.0
 11
-38.9569324227503
 21
26.81944996848404
 31
0.0
 11
-38.93786641253166
 21
26.83733160965812
 31
0.0
 11
-38.9170058534753
 21
26.85202307780685
 31
0.0
 11
-38.89429159147915
 21
26.86362473422378
 31
0.0
 11
-38.87900077638131
 21
26.86921114924349
 31
0.0
 11
-38.86319283494425
 21
26.87326539933531
 31
0.0
 11
-38.84709892180638
 21
26.87564067075175
 31
0.0
  0
SPLINE
  5
146
330
2
100
AcDbEntity
  8
GAIKEI
  6
Continuous
 62
     1
100
AcDbSpline
210
0.0
220
0.0
230
1.0
 70
     8
 71
     3
 72
    19
 73
    15
 74
    13
 42
0.0000000001
 43
0.0000000001
 44
0.000001
 12
-0.995529879347374
 22
0.0944471245015059
 32
0.0
 13
-0.0944908229060039
 23
0.9955257326591544
 33
0.0
 40
0.0
 40
0.0
 40
0.0
 40
0.0
 40
0.0172124311711047
 40
0.034431231176895
 40
0.0515392072852099
 40
0.0686910149757967
 40
0.085805771706622
 40
0.1119433335992367
 40
0.138083350263166
 40
0.1635982876565939
 40
0.1891038875427092
 40
0.2053832094130002
 40
0.2217026553121162
 40
0.237970012938265
 40
0.237970012938265
 40
0.237970012938265
 40
0.237970012938265
 10
-38.84709892180638
 20
-3.344682967045002
 30
0.0
 10
-38.85281075164872
 20
-3.344141078835065
 30
0.0
 10
-38.86418869965104
 20
-3.342435557189389
 30
0.0
 10
-38.88081889500495
 20
-3.33799670433342
 30
0.0
 10
-38.89687396474599
 20
-3.33185728932608
 30
0.0
 10
-38.91221060404314
 20
-3.324177306685129
 30
0.0
 10
-38.92929887513466
 20
-3.313476189001789
 30
0.0
 10
-38.94736960223887
 20
-3.298908036760792
 30
0.0
 10
-38.96517628891852
 20
-3.279942895009071
 30
0.0
 10
-38.9800382045039
 20
-3.258852604036633
 30
0.0
 10
-38.99031660628811
 20
-3.238817833274481
 30
0.0
 10
-38.99697754472919
 20
-3.220601218473888
 30
0.0
 10
-39.00105341958812
 20
-3.204801849743716
 30
0.0
 10
-39.00263627858269
 20
-3.19403142930551
 30
0.0
 10
-39.00314865058556
 20
-3.188633238265765
 30
0.0
 11
-38.84709892180638
 21
-3.344682967045002
 31
0.0
 11
-38.86412056168172
 21
-3.342121354249172
 31
0.0
 11
-38.88076243774003
 21
-3.337701037401814
 31
0.0
 11
-38.89674722228313
 21
-3.331604232483471
 31
0.0
 11
-38.91208850377211
 21
-3.323934197580626
 31
0.0
 11
-38.92659505040467
 21
-3.314852776470672
 31
0.0
 11
-38.94695794831796
 21
-3.298466739209686
 31
0.0
 11
-38.96483958949182
 21
-3.279400728991163
 31
0.0
 11
-38.97953105764077
 21
-3.258540169934803
 31
0.0
 11
-38.9911327140577
 21
-3.235825907938647
 31
0.0
 11
-38.99671912907741
 21
-3.220535092840748
 31
0.0
 11
-39.00077337916901
 21
-3.204727151403687
 31
0.0
 11
-39.00314865058556
 21
-3.188633238265765
 31
0.0
  0
DIMENSION
  5
147
330
2
100
AcDbEntity
  8
SUNPO
100
AcDbDimension
  2
*D7
 10
24.18437518021221
 20
27.00797797711743
 30
0.0
 11
22.43437518021221
 21
11.75797797711743
 31
0.0
 70
    33
  1
610
 71
     5
 42
30.5
  3
STANDARD
100
AcDbAlignedDimension
 13
16.18437518021221
 23
-3.492022022882565
 33
0.0
 14
16.18437518021221
 24
27.00797797711743
 34
0.0
1001
ACAD
1000
DSTYLE
1002
{
1070
   287
1070
     3
1070
   287
1070
     3
1070
   287
1070
     3
1070
   287
1070
     3
1070
   287
1070
     3
1070
   287
1070
     3
1070
   287
1070
     3
1070
   287
1070
     3
1070
   287
1070
     3
1070
   287
1070
     3
1070
   287
1070
     3
1070
   287
1070
     3
1070
   287
1070
     3
1070
   287
1070
     3
1070
   287
1070
     3
1070
   287
1070
     3
1070
   287
1070
     3
1070
   287
1070
     3
1070
   287
1070
     3
1070
   287
1070
     3
1070
   287
1070
     3
1070
   287
1070
     3
1070
   287
1070
     3
1070
   287
1070
     3
1070
   287
1070
     3
1070
   287
1070
     3
1070
   287
1070
     3
1070
   287
1070
     3
1070
   287
1070
     3
1070
   287
1070
     3
1070
   287
1070
     3
1070
   287
1070
     3
1070
   287
1070
     3
1070
   287
1070
     3
1070
    40
1040
1.0
1070
   140
1040
2.5
1070
   147
1040
0.5
1070
   172
1070
     1
1070
   279
1070
     0
1002
}
  0
DIMENSION
  5
154
330
2
100
AcDbEntity
  8
SUNPO
100
AcDbDimension
  2
*D6
 10
10.95682419318962
 20
35.02788773480598
 30
0.0
 11
-14.09317580681039
 21
36.77788773480597
 31
0.0
 70
    33
  1
1020
 71
     5
 42
50.10000000000002
  3
STANDARD
100
AcDbAlignedDimension
 13
-39.14317580681041
 23
27.0076915327661
 33
0.0
 14
10.95682419318962
 24
27.0076915327661
 34
0.0
1001
ACAD
1000
DSTYLE
1002
{
1070
   287
1070
     3
1070
   287
1070
     3
1070
   287
1070
     3
1070
   287
1070
     3
1070
   287
1070
     3
1070
   287
1070
     3
1070
   287
1070
     3
1070
   287
1070
     3
1070
   287
1070
     3
1070
   287
1070
     3
1070
   287
1070
     3
1070
   287
1070
     3
1070
   287
1070
     3
1070
   287
1070
     3
1070
   287
1070
     3
1070
   287
1070
     3
1070
   287
1070
     3
1070
   287
1070
     3
1070
   287
1070
     3
1070
   287
1070
     3
1070
   287
1070
     3
1070
   287
1070
     3
1070
   287
1070
     3
1070
   287
1070
     3
1070
   287
1070
     3
1070
   287
1070
     3
1070
   287
1070
     3
1070
   287
1070
     3
1070
   287
1070
     3
1070
   287
1070
     3
1070
   287
1070
     3
1070
   287
1070
     3
1070
   287
1070
     3
1070
   287
1070
     3
1070
    40
1040
1.0
1070
   140
1040
2.5
1070
   147
1040
0.5
1070
   172
1070
     1
1070
   279
1070
     0
1002
}
  0
LINE
  5
161
330
2
100
AcDbEntity
  8
GAIKEI
  6
Continuous
 62
     1
100
AcDbLine
 10
10.87453967223052
 20
-3.213188254524453
 30
0.0
 11
11.42654156967046
 21
-3.213188254524453
 31
0.0
  0
LINE
  5
162
330
2
100
AcDbEntity
  8
GAIKEI
  6
Continuous
 62
     7
100
AcDbLine
 10
10.87453872962919
 20
26.74537876594036
 30
0.0
 11
11.42654156967046
 21
26.74537876594025
 31
0.0
  0
LINE
  5
163
330
2
100
AcDbEntity
  8
GAIKEI
  6
Continuous
100
AcDbLine
 10
11.46369943953397
 20
-3.183180547209332
 30
0.0
 11
10.85566962295092
 21
-3.183180547209332
 31
0.0
  0
LINE
  5
164
330
2
100
AcDbEntity
  8
GAIKEI
  6
Continuous
 62
     1
100
AcDbLine
 10
10.85566962295092
 20
26.28756162804279
 30
0.0
 11
11.46381326568081
 21
26.28756162804279
 31
0.0
  0
LINE
  5
165
330
2
100
AcDbEntity
  8
GAIKEI
  6
Continuous
 62
     1
100
AcDbLine
 10
11.46381326568081
 20
-3.191739011667948
 30
0.0
 11
11.46369110817227
 21
26.71668971373061
 31
0.0
  0
LINE
  5
166
330
2
100
AcDbEntity
  8
GAIKEI
  6
Continuous
 62
     1
100
AcDbLine
 10
11.4988505934383
 20
-3.149205398615691
 30
0.0
 11
11.4988505934383
 21
26.68140841115934
 31
0.0
  0
LINE
  5
167
330
2
100
AcDbEntity
  8
GAIKEI
  6
Continuous
 62
     1
100
AcDbLine
 10
16.12569636384847
 20
-3.150035473505596
 30
0.0
 11
16.12569636384847
 21
26.6822384860493
 31
0.0
  0
LINE
  5
168
330
2
100
AcDbEntity
  8
GAIKEI
  6
Continuous
 62
     1
100
AcDbLine
 10
16.16086782024052
 20
26.71852093363202
 30
0.0
 11
16.16086782024047
 21
-3.186330303059321
 31
0.0
  0
LINE
  5
169
330
2
100
AcDbEntity
  8
GAIKEI
  6
Continuous
 62
     1
100
AcDbLine
 10
15.89198361146316
 20
-2.915383053009492
 30
0.0
 11
15.89198361146316
 21
26.44758564884887
 31
0.0
  0
LINE
  5
16A
330
2
100
AcDbEntity
  8
GAIKEI
  6
Continuous
100
AcDbLine
 10
16.2080400429495
 20
-3.278587071515573
 30
0.0
 11
16.2080400429495
 21
26.81079008405919
 31
0.0
  0
LINE
  5
16B
330
2
100
AcDbEntity
  8
GAIKEI
  6
Continuous
 62
     1
100
AcDbLine
 10
11.73256292911941
 20
-2.915358467457991
 30
0.0
 11
11.73256292911941
 21
26.44754939557811
 31
0.0
  0
LINE
  5
16C
330
2
100
AcDbEntity
  8
GAIKEI
  6
Continuous
 62
     1
100
AcDbLine
 10
11.45641509821325
 20
-2.755371116627031
 30
0.0
 11
10.85566962295092
 21
-2.755371116627031
 31
0.0
  0
LINE
  5
16D
330
2
100
AcDbEntity
  8
GAIKEI
  6
Continuous
 62
     1
100
AcDbLine
 10
11.42654156967046
 20
-3.213188254524453
 30
0.0
 11
11.42654156967046
 21
-3.183180547209332
 31
0.0
  0
LINE
  5
16E
330
2
100
AcDbEntity
  8
GAIKEI
 62
     7
100
AcDbLine
 10
11.53848728107084
 20
27.01621862061569
 30
0.0
 11
16.00567803766591
 21
27.01462919168307
 31
0.0
  0
LINE
  5
16F
330
2
100
AcDbEntity
  8
GAIKEI
 62
     1
100
AcDbLine
 10
11.66342836688073
 20
26.91643918057179
 30
0.0
 11
15.92809535451124
 21
26.91797740528893
 31
0.0
  0
LINE
  5
170
330
2
100
AcDbEntity
  8
GAIKEI
 62
     1
100
AcDbLine
 10
11.93256889045574
 20
26.64755494021023
 30
0.0
 11
15.69200223567816
 21
26.64755494021023
 31
0.0
  0
ARC
  5
171
330
2
100
AcDbEntity
  8
GAIKEI
 62
     1
100
AcDbCircle
 10
15.66394467706607
 20
26.41951430989053
 30
0.0
 40
0.2297602134223355
100
AcDbArc
 50
7.017741388705529
 51
82.98572097067578
  0
LINE
  5
172
330
2
100
AcDbEntity
  8
GAIKEI
 62
     1
100
AcDbLine
 10
15.92820522770546
 20
26.88320864342825
 30
0.0
 11
15.69199473500146
 21
26.64757160838064
 31
0.0
  0
LINE
  5
173
330
2
100
AcDbEntity
  8
GAIKEI
 62
     1
100
AcDbLine
 10
16.1256242740111
 20
26.68222515151285
 30
0.0
 11
15.89198527828017
 21
26.44760648406196
 31
0.0
  0
ARC
  5
174
330
2
100
AcDbEntity
  8
GAIKEI
 62
     1
100
AcDbCircle
 10
15.93848108224267
 20
26.69585160145539
 30
0.0
 40
0.1876386270555872
100
AcDbArc
 50
355.8354739858283
 51
93.13932049358143
  0
ARC
  5
175
330
2
100
AcDbEntity
  8
GAIKEI
 62
     1
100
AcDbCircle
 10
15.95877184248854
 20
26.71822299087251
 30
0.0
 40
0.2020961973750216
100
AcDbArc
 50
0.0844690254395004
 51
98.73076176903737
  0
ARC
  5
176
330
2
100
AcDbEntity
  8
GAIKEI
 62
     7
100
AcDbCircle
 10
16.00443422842994
 20
26.81102703642682
 30
0.0
 40
0.2036059544473368
100
AcDbArc
 50
359.9332968071157
 51
89.64998340448273
  0
LINE
  5
177
330
2
100
AcDbEntity
  8
GAIKEI
 62
     1
100
AcDbLine
 10
11.69873428657911
 20
26.88127975846555
 30
0.0
 11
15.92820522770546
 21
26.88320864342825
 31
0.0
  0
ARC
  5
178
330
2
100
AcDbEntity
  8
GAIKEI
 62
     1
100
AcDbCircle
 10
11.68652267033531
 20
26.69360304008888
 30
0.0
 40
0.1880654729935096
100
AcDbArc
 50
86.30952065866958
 51
183.6868940004315
  0
ARC
  5
179
330
2
100
AcDbEntity
  8
GAIKEI
 62
     1
100
AcDbCircle
 10
11.66270230098826
 20
26.71742794300769
 30
0.0
 40
0.1990125620368673
100
AcDbArc
 50
89.79096493632331
 51
180.2125369296202
  0
ARC
  5
17A
330
2
100
AcDbEntity
  8
GAIKEI
 62
     7
100
AcDbCircle
 10
11.56377876487534
 20
26.81650350032408
 30
0.0
 40
0.2013101796385793
100
AcDbArc
 50
97.21739309546933
 51
179.6004432531239
  0
LINE
  5
17B
330
2
100
AcDbEntity
  8
GAIKEI
 62
     7
100
AcDbLine
 10
11.3624734801574
 20
26.81790734174558
 30
0.0
 11
11.36247328938799
 21
26.74537876594025
 31
0.0
  0
LINE
  5
17C
330
2
100
AcDbEntity
  8
GAIKEI
 62
     1
100
AcDbLine
 10
11.36241245056578
 20
26.81790739285418
 30
0.0
 11
11.46369110817221
 21
26.71668971373061
 31
0.0
  0
LINE
  5
17D
330
2
100
AcDbEntity
  8
GAIKEI
 62
     1
100
AcDbLine
 10
11.56217411446778
 20
27.01765680858671
 30
0.0
 11
11.66342836688073
 21
26.91643918057179
 31
0.0
  0
LINE
  5
17E
330
2
100
AcDbEntity
  8
GAIKEI
 62
     1
100
AcDbLine
 10
11.69862778413483
 20
26.88127852690639
 30
0.0
 11
11.93256972386427
 21
26.64756619122528
 31
0.0
  0
LINE
  5
17F
330
2
100
AcDbEntity
  8
GAIKEI
 62
     1
100
AcDbLine
 10
11.49884642639574
 20
26.68150967029499
 30
0.0
 11
11.73255876207679
 21
26.44756731386133
 31
0.0
  0
ARC
  5
180
330
2
100
AcDbEntity
  8
GAIKEI
 62
     1
100
AcDbCircle
 10
11.95311712001671
 20
26.42699426897696
 30
0.0
 40
0.2215157769392105
100
AcDbArc
 50
95.32251858901785
 51
174.671035018033
  0
LINE
  5
181
330
2
100
AcDbEntity
  8
GAIKEI
 62
     1
100
AcDbLine
 10
11.93256889045574
 20
-3.115364428794435
 30
0.0
 11
15.69200223567816
 21
-3.115364428794435
 31
0.0
  0
LINE
  5
182
330
2
100
AcDbEntity
  8
GAIKEI
 62
     1
100
AcDbLine
 10
11.69873428657911
 20
-3.349089127892824
 30
0.0
 11
15.92820522770546
 21
-3.351018012855575
 31
0.0
  0
LINE
  5
183
330
2
100
AcDbEntity
  8
GAIKEI
 62
     1
100
AcDbLine
 10
11.69873428657911
 20
-3.384114260539632
 30
0.0
 11
15.9612770591242
 21
-3.386018729237065
 31
0.0
  0
LINE
  5
184
330
2
100
AcDbEntity
  8
GAIKEI
100
AcDbLine
 10
11.56217411446778
 20
-3.485453969881291
 30
0.0
 11
16.00567803766591
 21
-3.482426352977739
 31
0.0
  0
ARC
  5
185
330
2
100
AcDbEntity
  8
GAIKEI
100
AcDbCircle
 10
16.00445525142709
 20
-3.278845068368894
 30
0.0
 40
0.2035849568341477
100
AcDbArc
 50
270.3441359964477
 51
0.0725837919535119
  0
ARC
  5
186
330
2
100
AcDbEntity
  8
GAIKEI
 62
     1
100
AcDbCircle
 10
15.96235271772195
 20
-3.187503076744263
 30
0.0
 40
0.1985185667036251
100
AcDbArc
 50
269.6895454140713
 51
0.338484074539713
  0
ARC
  5
187
330
2
100
AcDbEntity
  8
GAIKEI
 62
     1
100
AcDbCircle
 10
15.93848565190365
 20
-3.163607868514219
 30
0.0
 40
0.1876653470639542
100
AcDbArc
 50
266.8929797803743
 51
4.1473694513487
  0
ARC
  5
188
330
2
100
AcDbEntity
  8
GAIKEI
 62
     1
100
AcDbCircle
 10
15.66393426683942
 20
-2.887315084170779
 30
0.0
 40
0.229770133955667
100
AcDbArc
 50
277.0165901477274
 51
352.9834098522834
  0
LINE
  5
189
330
2
100
AcDbEntity
  8
GAIKEI
 62
     1
100
AcDbLine
 10
15.69200223567816
 20
-3.115355678004874
 30
0.0
 11
15.92831397254554
 21
-3.350997354419035
 31
0.0
  0
LINE
  5
18A
330
2
100
AcDbEntity
  8
GAIKEI
 62
     1
100
AcDbLine
 10
15.89198402816737
 20
-2.915399304475698
 30
0.0
 11
16.12562344060262
 21
-3.150017555222348
 31
0.0
  0
ARC
  5
18B
330
2
100
AcDbEntity
  8
GAIKEI
100
AcDbCircle
 10
11.56362090252577
 20
-3.284368183493398
 30
0.0
 40
0.2011519427009429
100
AcDbArc
 50
180.3841152231933
 51
269.5913732137488
  0
ARC
  5
18C
330
2
100
AcDbEntity
  8
GAIKEI
 62
     1
100
AcDbCircle
 10
11.66677415248745
 20
-3.183559641375666
 30
0.0
 40
0.2030852171852302
100
AcDbArc
 50
180.2650426354844
 51
279.0544497008039
  0
ARC
  5
18D
330
2
100
AcDbEntity
  8
GAIKEI
 62
     1
100
AcDbCircle
 10
11.68653105046871
 20
-3.161414132936073
 30
0.0
 40
0.1880713234482933
100
AcDbArc
 50
176.3034445759363
 51
273.7203198838038
  0
LINE
  5
18E
330
2
100
AcDbEntity
  8
GAIKEI
 62
     1
100
AcDbLine
 10
11.69863278458604
 20
-3.349074680954146
 30
0.0
 11
11.93257472431543
 21
-3.115362345273098
 31
0.0
  0
LINE
  5
18F
330
2
100
AcDbEntity
  8
GAIKEI
 62
     1
100
AcDbLine
 10
11.73256334582368
 20
-2.915346383034403
 30
0.0
 11
11.49885101014251
 21
-3.149288739468119
 31
0.0
  0
ARC
  5
190
330
2
100
AcDbEntity
  8
GAIKEI
 62
     1
100
AcDbCircle
 10
11.95320420673846
 20
-2.894639520500987
 30
0.0
 40
0.2216847782785941
100
AcDbArc
 50
185.3627964532819
 51
264.6604592730518
  0
LINE
  5
191
330
2
100
AcDbEntity
  8
GAIKEI
100
AcDbLine
 10
11.3624007828464
 20
-3.285713964508573
 30
0.0
 11
11.36247328938799
 21
-3.213188254524453
 31
0.0
  0
ELLIPSE
  5
192
330
2
100
AcDbEntity
  8
GAIKEI
  6
Continuous
 62
     1
100
AcDbEllipse
 10
10.87466944429007
 20
26.85860922337088
 30
0.0
 11
0.0079467640876592
 21
0.4318755208183608
 31
0.0
210
0.0
220
0.0
230
-1.0
 40
0.0404429999982552
 41
4.285401047308635
 42
4.371811220305964
  0
ELLIPSE
  5
193
330
2
100
AcDbEntity
  8
GAIKEI
  6
Continuous
 62
     1
100
AcDbEllipse
 10
10.87466944429002
 20
-3.327651519664186
 30
0.0
 11
-0.007946764087659
 21
0.4318755208183799
 31
0.0
210
0.0
220
0.0
230
-1.0
 40
0.0404429999982537
 41
-1.230218566716188
 42
-1.143808393718863
  0
ELLIPSE
  5
194
330
2
100
AcDbEntity
  8
GAIKEI
  6
Continuous
 62
     1
100
AcDbEllipse
 10
10.79976558958401
 20
26.933513078077
 30
0.0
 11
0.4318755208192349
 21
0.0079467640870345
 31
0.0
210
0.0
220
0.0
230
-1.0
 40
0.0404429999987592
 41
1.911374086872785
 42
1.997784259870051
  0
ELLIPSE
  5
195
330
2
100
AcDbEntity
  8
GAIKEI
  6
Continuous
 62
     1
100
AcDbEllipse
 10
10.79976558958401
 20
-3.402555374370365
 30
0.0
 11
-0.4318755208195003
 21
0.0079467640870295
 31
0.0
210
0.0
220
0.0
230
-1.0
 40
0.0404429999987397
 41
1.14380839372002
 42
1.230218566717296
  0
ELLIPSE
  5
196
330
2
100
AcDbEntity
  8
GAIKEI
  6
Continuous
 62
     1
100
AcDbEllipse
 10
8.38523563792836
 20
24.77039305699924
 30
0.0
 11
0.0641306772673077
 21
0.0819853242396075
 31
0.0
210
0.0
220
0.0
230
-1.0
 40
0.9602119999885655
 41
-0.6513938849655593
 42
-0.3742724759626874
  0
ELLIPSE
  5
197
330
2
100
AcDbEntity
  8
GAIKEI
  6
Continuous
 62
     1
100
AcDbEllipse
 10
8.385235637928303
 20
-1.106988963506637
 30
0.0
 11
-0.0641306772804553
 21
0.0819853242296695
 31
0.0
210
0.0
220
0.0
230
-1.0
 40
0.960211999997915
 41
3.515865129711884
 42
3.792986538710805
  0
ELLIPSE
  5
198
330
2
100
AcDbEntity
  8
GAIKEI
  6
Continuous
 62
     1
100
AcDbEllipse
 10
8.385224686955439
 20
24.77038210602638
 30
0.0
 11
0.0820793596799872
 21
0.0640376871272272
 31
0.0
210
0.0
220
0.0
230
-1.0
 40
0.960042000004322
 41
0.3752614366540838
 42
0.6500607538632135
  0
ELLIPSE
  5
199
330
2
100
AcDbEntity
  8
GAIKEI
  6
Continuous
 62
     1
100
AcDbEllipse
 10
8.385224686955382
 20
-1.106978012533659
 30
0.0
 11
-0.0820793596877476
 21
0.0640376871167843
 31
0.0
210
0.0
220
0.0
230
-1.0
 40
0.9600419999991441
 41
2.491531899849828
 42
2.766331217060938
  0
ELLIPSE
  5
19A
330
2
100
AcDbEntity
  8
GAIKEI
  6
Continuous
 62
     1
100
AcDbEllipse
 10
8.385235637928303
 20
-1.104250020169843
 30
0.0
 11
-0.0911712404724387
 21
0.1233277374014959
 31
0.0
210
0.0
220
0.0
230
-1.0
 40
0.9776259999899165
 41
3.490282879346349
 42
3.767404288348283
  0
ELLIPSE
  5
19B
330
2
100
AcDbEntity
  8
GAIKEI
  6
Continuous
 62
     1
100
AcDbEllipse
 10
8.38523563792836
 20
24.76765411366244
 30
0.0
 11
0.0911712405137963
 21
0.1233277373716018
 31
0.0
210
0.0
220
0.0
230
-1.0
 40
0.9776260000001293
 41
-0.6258116350885031
 42
-0.3486902260919513
  0
ELLIPSE
  5
19C
330
2
100
AcDbEntity
  8
GAIKEI
  6
Continuous
 62
     1
100
AcDbEllipse
 10
8.382445840073387
 20
-1.106978012533659
 30
0.0
 11
-0.1234686257683748
 21
0.0910092022787943
 31
0.0
210
0.0
220
0.0
230
-1.0
 40
0.9775040000039993
 41
2.51722575267712
 42
2.792025069887031
  0
ELLIPSE
  5
19D
330
2
100
AcDbEntity
  8
GAIKEI
  6
Continuous
 62
     1
100
AcDbEllipse
 10
8.382445840073444
 20
24.77038210602638
 30
0.0
 11
0.1234686257922888
 21
0.0910092022455151
 31
0.0
210
0.0
220
0.0
230
-1.0
 40
0.9775039999962212
 41
0.3495675834329772
 42
0.6243669006472979
  0
ELLIPSE
  5
19E
330
2
100
AcDbEntity
  8
GAIKEI
  6
Continuous
 62
     1
100
AcDbEllipse
 10
9.948024268068934
 20
-2.475910198149222
 30
0.0
 11
-0.5814136090118486
 21
0.5814136090118486
 31
0.0
210
0.0
220
0.0
230
-1.0
 40
0.4561099999999815
 41
2.756538952252924
 42
3.526646354926543
  0
ELLIPSE
  5
19F
330
2
100
AcDbEntity
  8
GAIKEI
  6
Continuous
 62
     1
100
AcDbEllipse
 10
9.948024268068934
 20
26.0068679018558
 30
0.0
 11
0.581413609011845
 21
0.581413609011845
 31
0.0
210
0.0
220
0.0
230
-1.0
 40
0.4561099999999933
 41
-0.3850537013368589
 42
0.3850537013368587
  0
ARC
  5
1A0
330
2
100
AcDbEntity
  8
GAIKEI
  6
Continuous
 62
     1
100
AcDbCircle
 10
10.75680642294958
 20
26.8156500567365
 30
0.0
 40
0.2000177702400075
100
AcDbArc
 50
0.0
 51
0.0784680000144216
  0
ARC
  5
1A1
330
2
100
AcDbEntity
  8
GAIKEI
  6
Continuous
 62
     1
100
AcDbCircle
 10
10.75680642294958
 20
-3.284692353029868
 30
0.0
 40
0.2000177702400075
100
AcDbArc
 50
359.9215319999856
 51
0.0
  0
ARC
  5
1A2
330
2
100
AcDbEntity
  8
GAIKEI
  6
Continuous
 62
     1
100
AcDbCircle
 10
10.75680642294958
 20
26.8156500567365
 30
0.0
 40
0.2000177702400075
100
AcDbArc
 50
89.92153200000187
 51
90.0
  0
ARC
  5
1A3
330
2
100
AcDbEntity
  8
GAIKEI
  6
Continuous
 62
     1
100
AcDbCircle
 10
10.75680642294958
 20
-3.284692353029868
 30
0.0
 40
0.2000177702400075
100
AcDbArc
 50
270.0
 51
270.0784679999981
  0
ARC
  5
1A4
330
2
100
AcDbEntity
  8
GAIKEI
  6
Continuous
 62
     7
100
AcDbCircle
 10
10.75680642294958
 20
-3.284692353029868
 30
0.0
 40
0.2000177702400075
100
AcDbArc
 50
270.0784679999981
 51
359.9215319999856
  0
ARC
  5
1A5
330
2
100
AcDbEntity
  8
GAIKEI
  6
Continuous
 62
     7
100
AcDbCircle
 10
10.75680642294958
 20
26.8156500567365
 30
0.0
 40
0.2000177702400075
100
AcDbArc
 50
0.0784680000144216
 51
89.92153200000187
  0
ARC
  5
1A6
330
2
100
AcDbEntity
  8
GAIKEI
  6
Continuous
 62
     1
100
AcDbCircle
 10
8.389467863933305
 20
24.77461873242225
 30
0.0
 40
0.0982869821404501
100
AcDbArc
 50
15.61945599999503
 51
74.25064600000684
  0
ARC
  5
1A7
330
2
100
AcDbEntity
  8
GAIKEI
  6
Continuous
 62
     1
100
AcDbCircle
 10
9.323954662552864
 20
-1.892004078143258
 30
0.0
 40
0.1000088851200038
100
AcDbArc
 50
270.0
 51
0.0
  0
ARC
  5
1A8
330
2
100
AcDbEntity
  8
GAIKEI
  6
Continuous
 62
     1
100
AcDbCircle
 10
9.323954662552921
 20
25.40796003237813
 30
0.0
 40
0.1000088851200038
100
AcDbArc
 50
0.0
 51
90.0
  0
ARC
  5
1A9
330
2
100
AcDbEntity
  8
GAIKEI
  6
Continuous
 62
     1
100
AcDbCircle
 10
9.323954662552921
 20
25.40796003237813
 30
0.0
 40
0.2019818947393219
100
AcDbArc
 50
0.0
 51
90.0
  0
ARC
  5
1AA
330
2
100
AcDbEntity
  8
GAIKEI
  6
Continuous
 62
     1
100
AcDbCircle
 10
9.323954662552864
 20
-1.892004078143258
 30
0.0
 40
0.2019818947393219
100
AcDbArc
 50
270.0
 51
0.0
  0
LINE
  5
1AB
330
2
100
AcDbEntity
  8
GAIKEI
  6
Continuous
 62
     7
100
AcDbLine
 10
10.95682419318962
 20
26.8156500567365
 30
0.0
 11
10.95682419318962
 21
-3.284692353029868
 31
0.0
  0
LINE
  5
1AC
330
2
100
AcDbEntity
  8
GAIKEI
  6
Continuous
 62
     1
100
AcDbLine
 10
10.85555204583716
 20
-3.183694280027111
 30
0.0
 11
10.95682399317184
 21
-3.284966277366208
 31
0.0
  0
LINE
  5
1AD
330
2
100
AcDbEntity
  8
GAIKEI
  6
Continuous
 62
     1
100
AcDbLine
 10
10.75708034728598
 20
-3.484709923252125
 30
0.0
 11
10.65580834994682
 21
-3.383437975917502
 31
0.0
  0
LINE
  5
1AE
330
2
100
AcDbEntity
  8
GAIKEI
  6
Continuous
 62
     1
100
AcDbLine
 10
10.65580834994682
 20
26.91439567962414
 30
0.0
 11
10.75708034728598
 21
27.01566762695876
 31
0.0
  0
LINE
  5
1AF
330
2
100
AcDbEntity
  8
GAIKEI
  6
Continuous
 62
     1
100
AcDbLine
 10
10.95682399317184
 20
26.81592398107284
 30
0.0
 11
10.85555204583716
 21
26.71465198373375
 31
0.0
  0
LINE
  5
1B0
330
2
100
AcDbEntity
  8
GAIKEI
  6
Continuous
 62
     1
100
AcDbLine
 10
10.85548043947551
 20
26.68004865946
 30
0.0
 11
10.85548043947551
 21
-3.149090955753422
 31
0.0
  0
LINE
  5
1B1
330
2
100
AcDbEntity
  8
GAIKEI
  6
Continuous
 62
     1
100
AcDbLine
 10
8.487772847673056
 20
24.77366684785369
 30
0.0
 11
8.487772847672999
 21
-1.110262754360974
 31
0.0
  0
LINE
  5
1B2
330
2
100
AcDbEntity
  8
GAIKEI
  6
Continuous
 62
     1
100
AcDbLine
 10
9.423963547672883
 20
-1.892004078143258
 30
0.0
 11
9.42396354767294
 21
25.40796003237813
 31
0.0
  0
LINE
  5
1B3
330
2
100
AcDbEntity
  8
GAIKEI
  6
Continuous
 62
     1
100
AcDbLine
 10
8.534625710236241
 20
-1.110262754360974
 30
0.0
 11
8.534625710236298
 21
24.77366684785369
 31
0.0
  0
LINE
  5
1B4
330
2
100
AcDbEntity
  8
GAIKEI
  6
Continuous
 62
     1
100
AcDbLine
 10
9.415467042815294
 20
-1.929005915508867
 30
0.0
 11
8.528915852953616
 21
-1.15114733668247
 31
0.0
  0
LINE
  5
1B5
330
2
100
AcDbEntity
  8
GAIKEI
  6
Continuous
 62
     1
100
AcDbLine
 10
8.429726040602702
 20
-1.250609273209818
 30
0.0
 11
9.280347857483207
 21
-1.992012963263221
 31
0.0
  0
LINE
  5
1B6
330
2
100
AcDbEntity
  8
GAIKEI
  6
Continuous
 62
     1
100
AcDbLine
 10
8.528915852953673
 20
24.81455143017519
 30
0.0
 11
9.41546704281535
 21
25.44496186974374
 31
0.0
  0
LINE
  5
1B7
330
2
100
AcDbEntity
  8
GAIKEI
  6
Continuous
 62
     1
100
AcDbLine
 10
9.279121829455789
 20
25.50672495698063
 30
0.0
 11
8.429726040602758
 21
24.91401336670242
 31
0.0
  0
LINE
  5
1B8
330
2
100
AcDbEntity
  8
GAIKEI
  6
Continuous
 62
     1
100
AcDbLine
 10
10.82041942453895
 20
-3.149090955753422
 30
0.0
 11
10.82041942453895
 21
26.68004865946
 31
0.0
  0
LINE
  5
1B9
330
2
100
AcDbEntity
  8
GAIKEI
  6
Continuous
 62
     1
100
AcDbLine
 10
10.82041942453895
 20
26.68004865946
 30
0.0
 11
10.58647298996419
 21
26.44610222488535
 31
0.0
  0
LINE
  5
1BA
330
2
100
AcDbEntity
  8
GAIKEI
  6
Continuous
 62
     1
100
AcDbLine
 10
10.38725859109843
 20
26.64531662375123
 30
0.0
 11
10.62120502567313
 21
26.87926305832588
 31
0.0
  0
LINE
  5
1BB
330
2
100
AcDbEntity
  8
GAIKEI
  6
Continuous
 62
     1
100
AcDbLine
 10
10.62120502567313
 20
-3.348305354619242
 30
0.0
 11
10.38725859109843
 21
-3.11435892004448
 31
0.0
  0
LINE
  5
1BC
330
2
100
AcDbEntity
  8
GAIKEI
  6
Continuous
 62
     1
100
AcDbLine
 10
10.58647298996413
 20
-2.915144521178717
 30
0.0
 11
10.82041942453895
 21
-3.149090955753422
 31
0.0
  0
LINE
  5
1BD
330
2
100
AcDbEntity
  8
GAIKEI
  6
Continuous
 62
     1
100
AcDbLine
 10
9.525936557292254
 20
25.40796003237813
 30
0.0
 11
9.525936557292197
 21
-1.892004078143258
 31
0.0
  0
LINE
  5
1BE
330
2
100
AcDbEntity
  8
GAIKEI
  6
Continuous
 62
     1
100
AcDbLine
 10
10.58647298996419
 20
26.44610222488535
 30
0.0
 11
10.58647298996413
 21
-2.915144521178717
 31
0.0
  0
SPLINE
  5
1BF
330
2
100
AcDbEntity
  8
GAIKEI
  6
Continuous
 62
     1
100
AcDbSpline
210
0.0
220
0.0
230
1.0
 70
     8
 71
     3
 72
    21
 73
    17
 74
    15
 42
0.0000000001
 43
0.0000000001
 44
0.000001
 12
0.0001490760298766
 22
-0.9999999888881687
 32
0.0
 13
-0.9999997489039975
 23
0.0007086550233522
 33
0.0
 40
0.0
 40
0.0
 40
0.0
 40
0.0
 40
0.0220203622856797
 40
0.0441150886358827
 40
0.0661420247968157
 40
0.088194581569368
 40
0.1103152820563032
 40
0.132368242697415
 40
0.1546938208840715
 40
0.1770898850745099
 40
0.1994152170311339
 40
0.2218138290891929
 40
0.2442838362701901
 40
0.2666822908844075
 40
0.2901709918964455
 40
0.3136542532514597
 40
0.3136542532514597
 40
0.3136542532514597
 40
0.3136542532514597
 10
10.85555202622106
 20
-3.183694303463937
 30
0.0
 10
10.85555312045713
 20
-3.191034424144277
 30
0.0
 10
10.85475333816401
 20
-3.205752917516974
 30
0.0
 10
10.85112530350631
 20
-3.227542340959701
 30
0.0
 10
10.84514003366345
 20
-3.248821012139273
 30
0.0
 10
10.83677895053762
 20
-3.269292355402484
 30
0.0
 10
10.82622993422856
 20
-3.288733248120792
 30
0.0
 10
10.81356926302209
 20
-3.306984351606274
 30
0.0
 10
10.7988572924302
 20
-3.323750518659721
 30
0.0
 10
10.78232113424241
 20
-3.338851055031796
 30
0.0
 10
10.76419816238936
 20
-3.352051980409157
 30
0.0
 10
10.7446604700192
 20
-3.363102276002337
 30
0.0
 10
10.72399868577739
 20
-3.371927977002258
 30
0.0
 10
10.7021315721679
 20
-3.378505264788998
 30
0.0
 10
10.6793091961336
 20
-3.3825390843663
 30
0.0
 10
10.66363612520308
 20
-3.383443503478446
 30
0.0
 10
10.65580837338359
 20
-3.383437956301406
 30
0.0
 11
10.85555202622106
 21
-3.183694303463937
 31
0.0
 11
10.85435183692175
 21
-3.20568250002708
 31
0.0
 11
10.85072853585347
 21
-3.227478121048022
 31
0.0
 11
10.84474849077378
 21
-3.248677783953496
 31
0.0
 11
10.83642514465668
 21
-3.269099298963567
 31
0.0
 11
10.82587537548193
 21
-3.288542260033239
 31
0.0
 11
10.81329384811567
 21
-3.306654111686896
 31
0.0
 11
10.79858027594673
 21
-3.32344527682045
 31
0.0
 11
10.78204223977127
 21
-3.33854752932757
 31
0.0
 11
10.76398730384585
 21
-3.351679198222484
 31
0.0
 11
10.74449857682964
 21
-3.362719498257831
 31
0.0
 11
10.72383405664288
 21
-3.371544447985911
 31
0.0
 11
10.70238149684326
 21
-3.377984909422536
 31
0.0
 11
10.67925310494331
 21
-3.3820833427323
 31
0.0
 11
10.65580837338359
 21
-3.383437956301406
 31
0.0
  0
SPLINE
  5
1C0
330
2
100
AcDbEntity
  8
GAIKEI
  6
Continuous
 62
     1
100
AcDbSpline
210
0.0
220
0.0
230
1.0
 70
     8
 71
     3
 72
    21
 73
    17
 74
    15
 42
0.0000000001
 43
0.0000000001
 44
0.000001
 12
0.9999999888881687
 22
0.0001490760296198
 32
0.0
 13
-0.0007086550231108
 23
-0.9999997489039975
 33
0.0
 40
0.0
 40
0.0
 40
0.0
 40
0.0
 40
0.0220203622857365
 40
0.0441150886359581
 40
0.0661420247968602
 40
0.0881945815694028
 40
0.1103152820562837
 40
0.1323682426973955
 40
0.154693820884127
 40
0.1770898850744814
 40
0.1994152170312308
 40
0.2218138290891629
 40
0.2442838362702646
 40
0.2666822908844058
 40
0.2901709918964438
 40
0.3136542532513347
 40
0.3136542532513347
 40
0.3136542532513347
 40
0.3136542532513347
 10
10.65580837338365
 20
26.91439566000804
 30
0.0
 10
10.66314849406399
 20
26.91439675424411
 30
0.0
 10
10.6778669874368
 20
26.913596971951
 30
0.0
 10
10.69965641087938
 20
26.90996893729315
 30
0.0
 10
10.7209350820591
 20
26.90398366745041
 30
0.0
 10
10.74140642532205
 20
26.89562258432449
 30
0.0
 10
10.76084731804053
 20
26.88507356801549
 30
0.0
 10
10.7790984215261
 20
26.87241289680901
 30
0.0
 10
10.79586458857946
 20
26.85770092621715
 30
0.0
 10
10.81096512495151
 20
26.84116476802925
 30
0.0
 10
10.82416605032887
 20
26.82304179617637
 30
0.0
 10
10.83521634592205
 20
26.80350410380601
 30
0.0
 10
10.84404204692188
 20
26.78284231956434
 30
0.0
 10
10.85061933470893
 20
26.76097520595482
 30
0.0
 10
10.85465315428615
 20
26.73815282992066
 30
0.0
 10
10.8555575733981
 20
26.72247975899012
 30
0.0
 10
10.85555202622106
 20
26.71465200717069
 30
0.0
 11
10.65580837338365
 21
26.91439566000804
 31
0.0
 11
10.67779656994685
 21
26.91319547070873
 31
0.0
 11
10.69959219096779
 21
26.90957216964034
 31
0.0
 11
10.72079185387326
 21
26.90359212456076
 31
0.0
 11
10.74121336888328
 21
26.89526877844355
 31
0.0
 11
10.76065632995295
 21
26.88471900926891
 31
0.0
 11
10.77876818160661
 21
26.87213748190266
 31
0.0
 11
10.79555934674016
 21
26.8574239097336
 31
0.0
 11
10.81066159924728
 21
26.84088587355825
 31
0.0
 11
10.82379326814225
 21
26.82283093763272
 31
0.0
 11
10.83483356817754
 21
26.80334221061662
 31
0.0
 11
10.84365851790562
 21
26.78267769042975
 31
0.0
 11
10.85009897934236
 21
26.76122513063024
 31
0.0
 11
10.85419741265212
 21
26.73809673873029
 31
0.0
 11
10.85555202622106
 21
26.71465200717069
 31
0.0
  0
SPLINE
  5
1C1
330
2
100
AcDbEntity
  8
GAIKEI
  6
Continuous
 62
     1
100
AcDbSpline
210
0.0
220
0.0
230
1.0
 70
     8
 71
     3
 72
    14
 73
    10
 74
     8
 42
0.0000000001
 43
0.0000000001
 44
0.000001
 12
-0.2697836156325394
 22
-0.962920973255975
 32
0.0
 13
-0.9616843088117285
 23
-0.2741592423853476
 33
0.0
 40
0.0
 40
0.0
 40
0.0
 40
0.0
 40
0.0000567608952277
 40
0.0167840465309815
 40
0.0335125966987406
 40
0.0502374188860442
 40
0.0669622291995438
 40
0.0837063784098749
 40
0.1004494891285248
 40
0.1004494891285248
 40
0.1004494891285248
 40
0.1004494891285248
 10
8.484125250825343
 20
-1.137678113105039
 30
0.0
 10
8.48412014643884
 20
-1.137696331857199
 30
0.0
 10
8.482609062188885
 20
-1.143083066089644
 30
0.0
 10
8.478649107884223
 20
-1.153594968558735
 30
0.0
 10
8.470201185351299
 20
-1.168121880719297
 30
0.0
 10
8.459361430503975
 20
-1.180967926911819
 30
0.0
 10
8.446532736512693
 20
-1.191834605209294
 30
0.0
 10
8.43201467682033
 20
-1.200322500167288
 30
0.0
 10
8.421513080655586
 20
-1.2042816805222
 30
0.0
 10
8.416145885035973
 20
-1.205811773372147
 30
0.0
 11
8.484125250825343
 21
-1.137678113105039
 31
0.0
 11
8.48410992170227
 21
-1.137732765429973
 31
0.0
 11
8.478230163913792
 21
-1.153393134876637
 31
0.0
 11
8.469802434182327
 21
-1.167843587503398
 31
0.0
 11
8.459031303834706
 21
-1.180638232887304
 31
0.0
 11
8.446257931407558
 21
-1.1914345715752
 31
0.0
 11
8.431810215878215
 21
-1.199898009611047
 31
0.0
 11
8.416145885035973
 21
-1.205811773372147
 31
0.0
  0
SPLINE
  5
1C2
330
2
100
AcDbEntity
  8
GAIKEI
  6
Continuous
 62
     1
100
AcDbSpline
210
0.0
220
0.0
230
1.0
 70
     8
 71
     3
 72
    19
 73
    15
 74
    13
 42
0.0000000001
 43
0.0000000001
 44
0.000001
 12
0.9639938394678312
 22
0.2659245710122878
 32
0.0
 13
0.26346002757732
 23
0.9646703135625962
 33
0.0
 40
0.0
 40
0.0
 40
0.0
 40
0.0
 40
0.0120685447877937
 40
0.0241375534231712
 40
0.036571754546122
 40
0.049006138964378
 40
0.0610391948685909
 40
0.0730723357382113
 40
0.085475567187896
 40
0.0978786958477284
 40
0.1099595938326071
 40
0.1220403135244401
 40
0.1344880973698777
 40
0.1469354490877652
 40
0.1469354490877652
 40
0.1469354490877652
 40
0.1469354490877652
 10
8.429726026196419
 20
-1.250609284716233
 30
0.0
 10
8.43360402713867
 20
-1.249539510517763
 30
0.0
 10
8.441273877415085
 20
-1.24707200639321
 30
0.0
 10
8.452537973540898
 20
-1.242374374407575
 30
0.0
 10
8.463463303791456
 20
-1.236662109887618
 30
0.0
 10
8.473838958296568
 20
-1.230025831386342
 30
0.0
 10
8.483490787737821
 20
-1.222593936020047
 30
0.0
 10
8.492470265831116
 20
-1.214377651916692
 30
0.0
 10
8.500783932388742
 20
-1.205318476179797
 30
0.0
 10
8.50828422249333
 20
-1.195555148850502
 30
0.0
 10
8.514847497855981
 20
-1.185267470424065
 30
0.0
 10
8.520523144652571
 20
-1.174447742480424
 30
0.0
 10
8.525287807397205
 20
-1.163064383829862
 30
0.0
 10
8.527822747112509
 20
-1.155149883463735
 30
0.0
 10
8.528915873654796
 20
-1.151147353235501
 30
0.0
 11
8.429726026196419
 21
-1.250609284716233
 31
0.0
 11
8.441215518902652
 21
-1.246914573147137
 31
0.0
 11
8.452353492911129
 21
-1.24226631386773
 31
0.0
 11
8.463373098722911
 21
-1.236506273883833
 31
0.0
 11
8.47384668965526
 21
-1.229804163534367
 31
0.0
 11
8.483381897989488
 21
-1.222464222948815
 31
0.0
 11
8.492258102923642
 21
-1.214339571159825
 31
0.0
 11
8.500646119715213
 21
-1.205202729821849
 31
0.0
 11
8.508200735344132
 21
-1.195365762854294
 31
0.0
 11
8.514700501286199
 21
-1.185182365941045
 31
0.0
 11
8.520311266025544
 21
-1.174483606168678
 31
0.0
 11
8.525120358766969
 21
-1.163002327872959
 31
0.0
 11
8.528915873654796
 21
-1.151147353235501
 31
0.0
  0
SPLINE
  5
1C3
330
2
100
AcDbEntity
  8
GAIKEI
  6
Continuous
 62
     1
100
AcDbSpline
210
0.0
220
0.0
230
1.0
 70
     8
 71
     3
 72
    19
 73
    15
 74
    13
 42
0.0000000001
 43
0.0000000001
 44
0.000001
 12
-0.2634414923284027
 22
0.9646753755122933
 32
0.0
 13
-0.9639886149825482
 23
0.2659435093850355
 33
0.0
 40
0.0
 40
0.0
 40
0.0
 40
0.0
 40
0.0120706715938937
 40
0.0241417800381252
 40
0.0365777168450859
 40
0.0490138356852724
 40
0.0610453208347819
 40
0.0730769079994254
 40
0.0854784299499572
 40
0.097879867091073
 40
0.1099602577905364
 40
0.1220404696565281
 40
0.1344881894039987
 40
0.1469354486715594
 40
0.1469354486715594
 40
0.1469354486715594
 40
0.1469354486715594
 10
8.528915873654852
 20
24.81455144672827
 30
0.0
 10
8.527855901742157
 20
24.81843287327911
 30
0.0
 10
8.525407920191753
 20
24.8261104422266
 30
0.0
 10
8.520739471391948
 20
24.83738880037254
 30
0.0
 10
8.515055862688285
 20
24.84833114477704
 30
0.0
 10
8.508447591998162
 20
24.85872540181501
 30
0.0
 10
8.501042630913246
 20
24.86839731167766
 30
0.0
 10
8.492852454841283
 20
24.87739841999906
 30
0.0
 10
8.483817766698479
 20
24.88573625004628
 30
0.0
 10
8.474076453659364
 20
24.89326298226331
 30
0.0
 10
8.463807757220763
 20
24.8998542653074
 30
0.0
 10
8.45300389275718
 20
24.90555931198435
 30
0.0
 10
8.44163353067114
 20
24.91035439558601
 30
0.0
 10
8.433725698270365
 20
24.91290995560496
 30
0.0
 10
8.429726026196476
 20
24.91401337820889
 30
0.0
 11
8.528915873654852
 21
24.81455144672827
 31
0.0
 11
8.525250413208141
 21
24.82605253299863
 31
0.0
 11
8.520630922410987
 21
24.83720474212066
 31
0.0
 11
8.514899817733976
 21
24.84824138002557
 31
0.0
 11
8.508225364210943
 21
24.85873467292828
 31
0.0
 11
8.50091267818874
 21
24.86828882117027
 31
0.0
 11
8.492813783177041
 21
24.87718643269153
 31
0.0
 11
8.483701656047571
 21
24.88559877068383
 31
0.0
 11
8.473887145431035
 21
24.89317977067759
 31
0.0
 11
8.46372221625495
 21
24.89970744168096
 31
0.0
 11
8.453039273308149
 21
24.90534717612764
 31
0.0
 11
8.441570972813224
 21
24.91018697138713
 31
0.0
 11
8.429726026196476
 21
24.91401337820889
 31
0.0
  0
SPLINE
  5
1C4
330
2
100
AcDbEntity
  8
GAIKEI
  6
Continuous
 62
     1
100
AcDbSpline
210
0.0
220
0.0
230
1.0
 70
     8
 71
     3
 72
    19
 73
    15
 74
    13
 42
0.0000000001
 43
0.0000000001
 44
0.000001
 12
-0.0944471245025448
 22
0.9955298793472755
 32
0.0
 13
-0.9955257326591484
 23
0.0944908229060694
 33
0.0
 40
0.0
 40
0.0
 40
0.0
 40
0.0
 40
0.0172124311712086
 40
0.0344312311769037
 40
0.0515392072852389
 40
0.0686910149758002
 40
0.0858057717066255
 40
0.1119433335992045
 40
0.1380833502633723
 40
0.1635982876566693
 40
0.1891038875427847
 40
0.205383209413032
 40
0.2217026553121974
 40
0.2379700129382734
 40
0.2379700129382734
 40
0.2379700129382734
 40
0.2379700129382734
 10
10.81679703696477
 20
26.71959094197246
 30
0.0
 10
10.81625514875483
 20
26.72530277181483
 30
0.0
 10
10.8145496271093
 20
26.73668071981723
 30
0.0
 10
10.81011077425316
 20
26.75331091517108
 30
0.0
 10
10.80397135924582
 20
26.76936598491205
 30
0.0
 10
10.79629137660492
 20
26.78470262420922
 30
0.0
 10
10.78559025892156
 20
26.80179089530071
 30
0.0
 10
10.77102210668045
 20
26.81986162240495
 30
0.0
 10
10.75205696492901
 20
26.83766830908488
 30
0.0
 10
10.73096667395623
 20
26.85253022466992
 30
0.0
 10
10.71093190319422
 20
26.86280862645421
 30
0.0
 10
10.69271528839354
 20
26.86946956489521
 30
0.0
 10
10.67691591966354
 20
26.87354543975451
 30
0.0
 10
10.66614549922531
 20
26.87512829874888
 30
0.0
 10
10.66074730818559
 20
26.87564067075175
 30
0.0
 11
10.81679703696477
 21
26.71959094197246
 31
0.0
 11
10.814235424169
 21
26.73661258184791
 31
0.0
 11
10.80981510732158
 21
26.75325445790611
 31
0.0
 11
10.80371830240318
 21
26.7692392424492
 31
0.0
 11
10.79604826750039
 21
26.78458052393819
 31
0.0
 11
10.78696684639044
 21
26.79908707057075
 31
0.0
 11
10.77058080912951
 21
26.81944996848404
 31
0.0
 11
10.75151479891087
 21
26.83733160965812
 31
0.0
 11
10.73065423985451
 21
26.85202307780685
 31
0.0
 11
10.70793997785836
 21
26.86362473422378
 31
0.0
 11
10.69264916276051
 21
26.86921114924349
 31
0.0
 11
10.67684122132345
 21
26.87326539933531
 31
0.0
 11
10.66074730818559
 21
26.87564067075175
 31
0.0
  0
SPLINE
  5
1C5
330
2
100
AcDbEntity
  8
GAIKEI
  6
Continuous
 62
     1
100
AcDbSpline
210
0.0
220
0.0
230
1.0
 70
     8
 71
     3
 72
    19
 73
    15
 74
    13
 42
0.0000000001
 43
0.0000000001
 44
0.000001
 12
0.995529879347374
 22
0.0944471245015059
 32
0.0
 13
0.0944908229060039
 23
0.9955257326591544
 33
0.0
 40
0.0
 40
0.0
 40
0.0
 40
0.0
 40
0.0172124311711047
 40
0.034431231176895
 40
0.0515392072852099
 40
0.0686910149757967
 40
0.085805771706622
 40
0.1119433335992367
 40
0.138083350263166
 40
0.1635982876565939
 40
0.1891038875427092
 40
0.2053832094130002
 40
0.2217026553121162
 40
0.237970012938265
 40
0.237970012938265
 40
0.237970012938265
 40
0.237970012938265
 10
10.66074730818559
 20
-3.344682967045002
 30
0.0
 10
10.66645913802793
 20
-3.344141078835065
 30
0.0
 10
10.67783708603031
 20
-3.342435557189389
 30
0.0
 10
10.69446728138416
 20
-3.33799670433342
 30
0.0
 10
10.71052235112523
 20
-3.33185728932608
 30
0.0
 10
10.72585899042238
 20
-3.324177306685129
 30
0.0
 10
10.74294726151379
 20
-3.313476189001789
 30
0.0
 10
10.76101798861805
 20
-3.298908036760792
 30
0.0
 10
10.77882467529775
 20
-3.279942895009071
 30
0.0
 10
10.79368659088311
 20
-3.258852604036633
 30
0.0
 10
10.80396499266732
 20
-3.238817833274481
 30
0.0
 10
10.81062593110846
 20
-3.220601218473888
 30
0.0
 10
10.81470180596724
 20
-3.204801849743716
 30
0.0
 10
10.8162846649619
 20
-3.19403142930551
 30
0.0
 10
10.81679703696477
 20
-3.188633238265765
 30
0.0
 11
10.66074730818559
 21
-3.344682967045002
 31
0.0
 11
10.67776894806093
 21
-3.342121354249172
 31
0.0
 11
10.69441082411924
 21
-3.337701037401814
 31
0.0
 11
10.71039560866234
 21
-3.331604232483471
 31
0.0
 11
10.72573689015132
 21
-3.323934197580626
 31
0.0
 11
10.74024343678388
 21
-3.314852776470672
 31
0.0
 11
10.76060633469717
 21
-3.298466739209686
 31
0.0
 11
10.77848797587103
 21
-3.279400728991163
 31
0.0
 11
10.79317944401998
 21
-3.258540169934803
 31
0.0
 11
10.80478110043691
 21
-3.235825907938647
 31
0.0
 11
10.81036751545662
 21
-3.220535092840748
 31
0.0
 11
10.81442176554822
 21
-3.204727151403687
 31
0.0
 11
10.81679703696477
 21
-3.188633238265765
 31
0.0
  0
DIMENSION
  5
1C6
330
2
100
AcDbEntity
  8
SUNPO
100
AcDbDimension
  2
*D5
 10
16.2080400429495
 20
41.02788773480597
 30
0.0
 11
-14.09317580681039
 21
42.77788773480597
 31
0.0
 70
    32
  1
1230
 71
     5
 42
60.6024316995198
  3
STANDARD
100
AcDbAlignedDimension
 13
-44.39439165657029
 23
26.99672532145147
 33
0.0
 14
16.2080400429495
 24
26.98406406375389
 34
0.0
100
AcDbRotatedDimension
1001
ACAD
1000
DSTYLE
1002
{
1070
    40
1040
1.0
1070
   140
1040
2.5
1070
   147
1040
0.5
1070
   172
1070
     1
1070
   279
1070
     0
1070
   288
1070
     0
1002
}
  0
TEXT
  5
1D3
330
2
100
AcDbEntity
  8
MOJI1
100
AcDbText
 10
-21.28555124347986
 20
-39.50061466561692
 30
0.0
 40
3.0
  1
４０９６階調（相当）
100
AcDbText
  0
TEXT
  5
1D4
330
2
100
AcDbEntity
  8
MOJI1
100
AcDbText
 10
-21.28555124347986
 20
-34.50061466561692
 30
0.0
 40
3.0
  1
１５０００：１
100
AcDbText
  0
ENDSEC
  0
SECTION
  2
OBJECTS
  0
DICTIONARY
  5
9
330
0
100
AcDbDictionary
281
     1
  3
ACAD_COLOR
350
2E
  3
ACAD_GROUP
350
2A
  3
ACAD_LAYOUT
350
D
  3
ACAD_MATERIAL
350
2D
  3
ACAD_MLINESTYLE
350
2B
  3
ACAD_PLOTSETTINGS
350
2C
  3
ACAD_PLOTSTYLENAME
350
8
  3
ACDBHEADERROUNDTRIPXREC
350
223
  3
AcDbVariableDictionary
350
21E
  3
ASE_INDEX_DICTIONARY
350
1DD
  0
DICTIONARY
  5
13
330
12
100
AcDbDictionary
280
     1
281
     1
  3
ACAD_LAYERSTATES
360
14
  0
DICTIONARY
  5
3
330
2
100
AcDbDictionary
280
     1
281
     1
  3
ACAD_SORTENTS
360
4
  0
DICTIONARY
  5
2E
102
{ACAD_REACTORS
330
9
102
}
330
9
100
AcDbDictionary
281
     1
  0
DICTIONARY
  5
2A
102
{ACAD_REACTORS
330
9
102
}
330
9
100
AcDbDictionary
281
     1
  0
DICTIONARY
  5
D
102
{ACAD_REACTORS
330
9
102
}
330
9
100
AcDbDictionary
281
     1
  3
Model
350
C
  3
レイアウト1
350
11
  0
DICTIONARY
  5
2D
102
{ACAD_REACTORS
330
9
102
}
330
9
100
AcDbDictionary
281
     1
  0
DICTIONARY
  5
2B
102
{ACAD_REACTORS
330
9
102
}
330
9
100
AcDbDictionary
281
     1
  3
Standard
350
30
  0
DICTIONARY
  5
2C
102
{ACAD_REACTORS
330
9
102
}
330
9
100
AcDbDictionary
281
     1
  0
ACDBDICTIONARYWDFLT
  5
8
102
{ACAD_REACTORS
330
9
102
}
330
9
100
AcDbDictionary
281
     1
  3
Normal
350
7
100
AcDbDictionaryWithDefault
340
7
  0
DICTIONARY
  5
223
102
{ACAD_REACTORS
330
9
102
}
330
9
100
AcDbDictionary
281
     1
  3
COLORDICT
350
225
  3
MATERIALDICT
350
224
  0
DICTIONARY
  5
21E
102
{ACAD_REACTORS
330
9
102
}
330
9
100
AcDbDictionary
281
     1
  3
DIMASSOC
350
220
  3
HIDETEXT
350
21F
  3
PROJECTNAME
350
221
  0
DICTIONARY
  5
1DD
102
{ACAD_REACTORS
330
9
102
}
330
9
100
AcDbDictionary
281
     1
  3
ASEBlockHierarchyIndexRecord
350
1DF
1001
DCO15
1040
1627816721.539
  0
DICTIONARY
  5
14
102
{ACAD_REACTORS
330
13
102
}
330
13
100
AcDbDictionary
281
     1
  0
SORTENTSTABLE
  5
4
102
{ACAD_REACTORS
330
3
102
}
330
3
100
AcDbSortentsTable
330
2
  0
LAYOUT
  5
C
102
{ACAD_XDICTIONARY
360
226
102
}
102
{ACAD_REACTORS
330
D
102
}
330
D
100
AcDbPlotSettings
  1

  2
Ａ４－縦3FRIM01.pc3
  4
A4
  6

 40
5.873749732971191
 41
5.873747825622558
 42
5.873748779296875
 43
5.873748779296875
 44
209.9733276367187
 45
296.9259948730469
 46
5.419999999999999
 47
0.0
 48
0.0
 49
0.0
140
0.0
141
0.0
142
1.0
143
1.38245207335299
 70
 11956
 72
     1
 73
     0
 74
     1
  7
tmsacad.ctb
 75
     0
147
0.7233523818114045
148
0.0320386232301644
149
0.0300716685512725
100
AcDbLayout
  1
Model
 70
     1
 71
     0
 10
0.0
 20
0.0
 11
12.0
 21
9.0
 12
0.0
 22
0.0
 32
0.0
 14
0.0
 24
0.0
 34
0.0
 15
0.0
 25
0.0
 35
0.0
146
0.0
 13
0.0
 23
0.0
 33
0.0
 16
1.0
 26
0.0
 36
0.0
 17
0.0
 27
1.0
 37
0.0
 76
     0
330
2
  0
LAYOUT
  5
11
102
{ACAD_XDICTIONARY
360
228
102
}
102
{ACAD_REACTORS
330
D
102
}
330
D
100
AcDbPlotSettings
  1

  2
None
  4

  6

 40
0.0
 41
0.0
 42
0.0
 43
0.0
 44
0.0
 45
0.0
 46
0.0
 47
0.0
 48
0.0
 49
0.0
140
0.0
141
0.0
142
1.0
143
1.0
 70
   688
 72
     0
 73
     0
 74
     5
  7
tmsacad.ctb
 75
    16
147
1.0
148
0.0
149
0.0
100
AcDbLayout
  1
レイアウト1
 70
     1
 71
     1
 10
0.0
 20
0.0
 11
12.0
 21
9.0
 12
0.0
 22
0.0
 32
0.0
 14
0.0
 24
0.0
 34
0.0
 15
0.0
 25
0.0
 35
0.0
146
0.0
 13
0.0
 23
0.0
 33
0.0
 16
1.0
 26
0.0
 36
0.0
 17
0.0
 27
1.0
 37
0.0
 76
     0
330
E
  0
MLINESTYLE
  5
30
102
{ACAD_REACTORS
330
2B
102
}
330
2B
100
AcDbMlineStyle
  2
STANDARD
 70
     0
  3

 62
   256
 51
90.0
 52
90.0
 71
     2
 49
0.5
 62
   256
  6
BYLAYER
 49
-0.5
 62
   256
  6
BYLAYER
  0
ACDBPLACEHOLDER
  5
7
102
{ACAD_REACTORS
330
8
102
}
330
8
  0
XRECORD
  5
225
102
{ACAD_REACTORS
330
223
102
}
330
223
100
AcDbXrecord
280
     1
340
2E
  0
XRECORD
  5
224
102
{ACAD_REACTORS
330
223
102
}
330
223
100
AcDbXrecord
280
     1
340
2D
  0
DICTIONARYVAR
  5
220
102
{ACAD_REACTORS
330
21E
102
}
330
21E
100
DictionaryVariables
280
     0
  1
1
  0
DICTIONARYVAR
  5
21F
102
{ACAD_REACTORS
330
21E
102
}
330
21E
100
DictionaryVariables
280
     0
  1
1
  0
DICTIONARYVAR
  5
221
102
{ACAD_REACTORS
330
21E
102
}
330
21E
100
DictionaryVariables
280
     0
  1

  0
XRECORD
  5
1DF
102
{ACAD_REACTORS
330
1DD
102
}
330
1DD
100
AcDbXrecord
280
     1
330
BE
330
BF
330
14D
330
14E
330
15A
330
15B
330
1CC
330
1CD
330
1F0
330
1F1
330
1FC
330
1FD
330
208
330
209
330
216
330
217
  0
DICTIONARY
  5
226
330
C
100
AcDbDictionary
280
     1
281
     1
  3
ACAD_XREC_ROUNDTRIP
360
227
  0
DICTIONARY
  5
228
330
11
100
AcDbDictionary
280
     1
281
     1
  3
ACAD_XREC_ROUNDTRIP
360
229
  0
XRECORD
  5
227
102
{ACAD_REACTORS
330
226
102
}
330
226
100
AcDbXrecord
280
     1
102
SHADEPLOT
 70
     0
102
SHADEPLOTRESLEVEL
 70
     2
102
SHADEPLOTCUSTOMDPI
 70
   300
  0
XRECORD
  5
229
102
{ACAD_REACTORS
330
228
102
}
330
228
100
AcDbXrecord
280
     1
102
SHADEPLOT
 70
     0
102
SHADEPLOTRESLEVEL
 70
     2
102
SHADEPLOTCUSTOMDPI
 70
   300
  0
ENDSEC
  0
EOF
