  0
SECTION
  2
HEADER
  9
$ACADVER
  1
AC1015
  9
$ACADMAINTVER
 70
    20
  9
$DWGCODEPAGE
  3
ANSI_932
  9
$INSBASE
 10
129.499999944041
 20
120.5008351249346
 30
0.0
  9
$EXTMIN
 10
-60.41473297916207
 20
-57.49571165570023
 30
-0.0015258207003583
  9
$EXTMAX
 10
64.61883601338934
 20
55.52888529809298
 30
0.0000000349246037
  9
$LIMMIN
 10
0.0
 20
0.0
  9
$LIMMAX
 10
420.0
 20
297.0
  9
$ORTHOMODE
 70
     1
  9
$REGENMODE
 70
     0
  9
$FILLMODE
 70
     1
  9
$QTEXTMODE
 70
     0
  9
$MIRRTEXT
 70
     0
  9
$LTSCALE
 40
1.0
  9
$ATTMODE
 70
     1
  9
$TEXTSIZE
 40
2.5
  9
$TRACEWID
 40
1.0
  9
$TEXTSTYLE
  7
Standard
  9
$CLAYER
  8
SUNPO
  9
$CELTYPE
  6
ByLayer
  9
$CECOLOR
 62
   256
  9
$CELTSCALE
 40
1.0
  9
$DISPSILH
 70
     0
  9
$DIMSCALE
 40
1.0
  9
$DIMASZ
 40
2.0
  9
$DIMEXO
 40
2.0
  9
$DIMDLI
 40
8.0
  9
$DIMRND
 40
0.0
  9
$DIMDLE
 40
0.0
  9
$DIMEXE
 40
2.0
  9
$DIMTP
 40
0.0
  9
$DIMTM
 40
0.0
  9
$DIMTXT
 40
2.5
  9
$DIMCEN
 40
0.0
  9
$DIMTSZ
 40
0.0
  9
$DIMTOL
 70
     0
  9
$DIMLIM
 70
     0
  9
$DIMTIH
 70
     0
  9
$DIMTOH
 70
     0
  9
$DIMSE1
 70
     0
  9
$DIMSE2
 70
     0
  9
$DIMTAD
 70
     3
  9
$DIMZIN
 70
     0
  9
$DIMBLK
  1

  9
$DIMASO
 70
     1
  9
$DIMSHO
 70
     1
  9
$DIMPOST
  1

  9
$DIMAPOST
  1

  9
$DIMALT
 70
     0
  9
$DIMALTD
 70
     2
  9
$DIMALTF
 40
25.4
  9
$DIMLFAC
 40
1.0
  9
$DIMTOFL
 70
     1
  9
$DIMTVP
 40
0.0
  9
$DIMTIX
 70
     0
  9
$DIMSOXD
 70
     0
  9
$DIMSAH
 70
     1
  9
$DIMBLK1
  1
OPEN30
  9
$DIMBLK2
  1
OPEN30
  9
$DIMSTYLE
  2
STANDARD
  9
$DIMCLRD
 70
     0
  9
$DIMCLRE
 70
     0
  9
$DIMCLRT
 70
     0
  9
$DIMTFAC
 40
1.0
  9
$DIMGAP
 40
0.5
  9
$DIMJUST
 70
     0
  9
$DIMSD1
 70
     0
  9
$DIMSD2
 70
     0
  9
$DIMTOLJ
 70
     1
  9
$DIMTZIN
 70
     0
  9
$DIMALTZ
 70
     0
  9
$DIMALTTZ
 70
     0
  9
$DIMUPT
 70
     0
  9
$DIMDEC
 70
     4
  9
$DIMTDEC
 70
     4
  9
$DIMALTU
 70
     2
  9
$DIMALTTD
 70
     2
  9
$DIMTXSTY
  7
Standard
  9
$DIMAUNIT
 70
     0
  9
$DIMADEC
 70
     0
  9
$DIMALTRND
 40
0.0
  9
$DIMAZIN
 70
     0
  9
$DIMDSEP
 70
    46
  9
$DIMATFIT
 70
     3
  9
$DIMFRAC
 70
     0
  9
$DIMLDRBLK
  1
OPEN30
  9
$DIMLUNIT
 70
     2
  9
$DIMLWD
 70
    -2
  9
$DIMLWE
 70
    -2
  9
$DIMTMOVE
 70
     0
  9
$LUNITS
 70
     2
  9
$LUPREC
 70
     4
  9
$SKETCHINC
 40
1.0
  9
$FILLETRAD
 40
0.0
  9
$AUNITS
 70
     0
  9
$AUPREC
 70
     0
  9
$MENU
  1
.
  9
$ELEVATION
 40
0.0
  9
$PELEVATION
 40
0.0
  9
$THICKNESS
 40
0.0
  9
$LIMCHECK
 70
     0
  9
$CHAMFERA
 40
0.0
  9
$CHAMFERB
 40
0.0
  9
$CHAMFERC
 40
0.0
  9
$CHAMFERD
 40
0.0
  9
$SKPOLY
 70
     0
  9
$TDCREATE
 40
2454349.434269746
  9
$TDUCREATE
 40
2454349.059269746
  9
$TDUPDATE
 40
2454643.682979201
  9
$TDUUPDATE
 40
2454643.307979202
  9
$TDINDWG
 40
0.4644592245
  9
$TDUSRTIMER
 40
0.4644592245
  9
$USRTIMER
 70
     1
  9
$ANGBASE
 50
0.0
  9
$ANGDIR
 70
     0
  9
$PDMODE
 70
     0
  9
$PDSIZE
 40
0.0
  9
$PLINEWID
 40
0.0
  9
$SPLFRAME
 70
     0
  9
$SPLINETYPE
 70
     6
  9
$SPLINESEGS
 70
     8
  9
$HANDSEED
  5
2A0
  9
$SURFTAB1
 70
     6
  9
$SURFTAB2
 70
     6
  9
$SURFTYPE
 70
     6
  9
$SURFU
 70
     6
  9
$SURFV
 70
     6
  9
$UCSBASE
  2

  9
$UCSNAME
  2

  9
$UCSORG
 10
0.0
 20
0.0
 30
0.0
  9
$UCSXDIR
 10
1.0
 20
0.0
 30
0.0
  9
$UCSYDIR
 10
0.0
 20
1.0
 30
0.0
  9
$UCSORTHOREF
  2

  9
$UCSORTHOVIEW
 70
     0
  9
$UCSORGTOP
 10
0.0
 20
0.0
 30
0.0
  9
$UCSORGBOTTOM
 10
0.0
 20
0.0
 30
0.0
  9
$UCSORGLEFT
 10
0.0
 20
0.0
 30
0.0
  9
$UCSORGRIGHT
 10
0.0
 20
0.0
 30
0.0
  9
$UCSORGFRONT
 10
0.0
 20
0.0
 30
0.0
  9
$UCSORGBACK
 10
0.0
 20
0.0
 30
0.0
  9
$PUCSBASE
  2

  9
$PUCSNAME
  2

  9
$PUCSORG
 10
0.0
 20
0.0
 30
0.0
  9
$PUCSXDIR
 10
1.0
 20
0.0
 30
0.0
  9
$PUCSYDIR
 10
0.0
 20
1.0
 30
0.0
  9
$PUCSORTHOREF
  2

  9
$PUCSORTHOVIEW
 70
     0
  9
$PUCSORGTOP
 10
0.0
 20
0.0
 30
0.0
  9
$PUCSORGBOTTOM
 10
0.0
 20
0.0
 30
0.0
  9
$PUCSORGLEFT
 10
0.0
 20
0.0
 30
0.0
  9
$PUCSORGRIGHT
 10
0.0
 20
0.0
 30
0.0
  9
$PUCSORGFRONT
 10
0.0
 20
0.0
 30
0.0
  9
$PUCSORGBACK
 10
0.0
 20
0.0
 30
0.0
  9
$USERI1
 70
     0
  9
$USERI2
 70
     0
  9
$USERI3
 70
     0
  9
$USERI4
 70
     0
  9
$USERI5
 70
     0
  9
$USERR1
 40
0.0
  9
$USERR2
 40
0.0
  9
$USERR3
 40
0.0
  9
$USERR4
 40
0.0
  9
$USERR5
 40
0.0
  9
$WORLDVIEW
 70
     1
  9
$SHADEDGE
 70
     3
  9
$SHADEDIF
 70
    70
  9
$TILEMODE
 70
     1
  9
$MAXACTVP
 70
    64
  9
$PINSBASE
 10
0.0
 20
0.0
 30
0.0
  9
$PLIMCHECK
 70
     0
  9
$PEXTMIN
 10
0.0
 20
0.0
 30
0.0
  9
$PEXTMAX
 10
0.0
 20
0.0
 30
0.0
  9
$PLIMMIN
 10
0.0
 20
0.0
  9
$PLIMMAX
 10
12.0
 20
9.0
  9
$UNITMODE
 70
     0
  9
$VISRETAIN
 70
     1
  9
$PLINEGEN
 70
     0
  9
$PSLTSCALE
 70
     1
  9
$TREEDEPTH
 70
  3020
  9
$CMLSTYLE
  2
Standard
  9
$CMLJUST
 70
     0
  9
$CMLSCALE
 40
20.0
  9
$PROXYGRAPHICS
 70
     1
  9
$MEASUREMENT
 70
     1
  9
$CELWEIGHT
370
    -1
  9
$ENDCAPS
280
     0
  9
$JOINSTYLE
280
     0
  9
$LWDISPLAY
290
     0
  9
$INSUNITS
 70
     4
  9
$HYPERLINKBASE
  1

  9
$STYLESHEET
  1

  9
$XEDIT
290
     1
  9
$CEPSNTYPE
380
     0
  9
$PSTYLEMODE
290
     1
  9
$FINGERPRINTGUID
  2
{FDEAD578-A652-11D2-9A35-0060089B3A3F}
  9
$VERSIONGUID
  2
{D028DCC3-7A58-4A25-BF41-F51BAB324C0F}
  9
$EXTNAMES
290
     1
  9
$PSVPSCALE
 40
0.0
  9
$OLESTARTUP
290
     0
  0
ENDSEC
  0
SECTION
  2
CLASSES
  0
CLASS
  1
ACDBDICTIONARYWDFLT
  2
AcDbDictionaryWithDefault
  3
ObjectDBX Classes
 90
        0
280
     0
281
     0
  0
CLASS
  1
ACDBPLACEHOLDER
  2
AcDbPlaceHolder
  3
ObjectDBX Classes
 90
        0
280
     0
281
     0
  0
CLASS
  1
LAYOUT
  2
AcDbLayout
  3
ObjectDBX Classes
 90
        0
280
     0
281
     0
  0
CLASS
  1
DICTIONARYVAR
  2
AcDbDictionaryVar
  3
ObjectDBX Classes
 90
        0
280
     0
281
     0
  0
CLASS
  1
SORTENTSTABLE
  2
AcDbSortentsTable
  3
ObjectDBX Classes
 90
        0
280
     0
281
     0
  0
CLASS
  1
DIMASSOC
  2
AcDbDimAssoc
  3
"AcDbDimAssoc|Product Desc:     AcDim ARX App For Dimension|Company:          Autodesk, Inc.|WEB Address:      www.autodesk.com"
 90
    32768
280
     0
281
     0
  0
ENDSEC
  0
SECTION
  2
TABLES
  0
TABLE
  2
VPORT
  5
1D
330
0
100
AcDbSymbolTable
 70
     3
  0
VPORT
  5
298
330
1D
100
AcDbSymbolTableRecord
100
AcDbViewportTableRecord
  2
*Active
 70
     0
 10
0.0
 20
0.0
 11
1.0
 21
1.0
 12
2.102051517113643
 22
-0.9834131788036302
 13
0.0
 23
0.0
 14
10.0
 24
10.0
 15
10.0
 25
10.0
 16
0.0
 26
0.0
 36
1.0
 17
0.0
 27
0.0
 37
0.0
 40
113.9180720285267
 41
1.439313984168865
 42
50.0
 43
0.0
 44
0.0
 50
0.0
 51
0.0
 71
     0
 72
 10000
 73
     1
 74
     2
 75
     0
 76
     0
 77
     0
 78
     0
281
     0
 65
     1
110
0.0
120
0.0
130
0.0
111
1.0
121
0.0
131
0.0
112
0.0
122
1.0
132
0.0
 79
     0
146
0.0
  0
ENDTAB
  0
TABLE
  2
LTYPE
  5
18
330
0
100
AcDbSymbolTable
 70
     1
  0
LTYPE
  5
19
330
18
100
AcDbSymbolTableRecord
100
AcDbLinetypeTableRecord
  2
ByBlock
 70
     0
  3

 72
    65
 73
     0
 40
0.0
  0
LTYPE
  5
1A
330
18
100
AcDbSymbolTableRecord
100
AcDbLinetypeTableRecord
  2
ByLayer
 70
     0
  3

 72
    65
 73
     0
 40
0.0
  0
LTYPE
  5
A
330
18
100
AcDbSymbolTableRecord
100
AcDbLinetypeTableRecord
  2
Continuous
 70
     0
  3
Solid line
 72
    65
 73
     0
 40
0.0
  0
ENDTAB
  0
TABLE
  2
LAYER
  5
12
102
{ACAD_XDICTIONARY
360
13
102
}
330
0
100
AcDbSymbolTable
 70
     7
  0
LAYER
  5
6
330
12
100
AcDbSymbolTableRecord
100
AcDbLayerTableRecord
  2
0
 70
     0
 62
     7
  6
Continuous
370
    -3
390
7
  0
LAYER
  5
38
330
12
100
AcDbSymbolTableRecord
100
AcDbLayerTableRecord
  2
WAKU
 70
     0
 62
     4
  6
Continuous
370
    -3
390
7
  0
LAYER
  5
34
330
12
100
AcDbSymbolTableRecord
100
AcDbLayerTableRecord
  2
MOJI1
 70
     0
 62
     2
  6
Continuous
370
    -3
390
7
  0
LAYER
  5
32
330
12
100
AcDbSymbolTableRecord
100
AcDbLayerTableRecord
  2
TOUROKU
 70
     0
 62
     1
  6
Continuous
370
    -3
390
7
  0
LAYER
  5
53
330
12
100
AcDbSymbolTableRecord
100
AcDbLayerTableRecord
  2
GAIKEI
 70
     0
 62
     7
  6
Continuous
370
    -3
390
7
  0
LAYER
  5
193
330
12
100
AcDbSymbolTableRecord
100
AcDbLayerTableRecord
  2
DEFPOINTS
 70
     0
 62
     7
  6
Continuous
290
     0
370
    -3
390
7
  0
LAYER
  5
2F
330
12
100
AcDbSymbolTableRecord
100
AcDbLayerTableRecord
  2
SUNPO
 70
     0
 62
     3
  6
Continuous
370
    -3
390
7
  0
ENDTAB
  0
TABLE
  2
STYLE
  5
15
330
0
100
AcDbSymbolTable
 70
     1
  0
STYLE
  5
16
330
15
100
AcDbSymbolTableRecord
100
AcDbTextStyleTableRecord
  2
Standard
 70
     0
 40
0.0
 41
1.0
 50
0.0
 71
     0
 42
2.5
  3
MONOTXT.shx
  4
BIGFONT.shx
  0
ENDTAB
  0
TABLE
  2
VIEW
  5
1B
330
0
100
AcDbSymbolTable
 70
     0
  0
ENDTAB
  0
TABLE
  2
UCS
  5
1C
330
0
100
AcDbSymbolTable
 70
     0
  0
ENDTAB
  0
TABLE
  2
APPID
  5
1F
330
0
100
AcDbSymbolTable
 70
     2
  0
APPID
  5
20
330
1F
100
AcDbSymbolTableRecord
100
AcDbRegAppTableRecord
  2
ACAD
 70
     0
  0
APPID
  5
23C
330
1F
100
AcDbSymbolTableRecord
100
AcDbRegAppTableRecord
  2
DCO15
 70
     0
  0
ENDTAB
  0
TABLE
  2
DIMSTYLE
  5
21
330
0
100
AcDbSymbolTable
 70
     1
100
AcDbDimStyleTable
 71
     1
340
22
  0
DIMSTYLE
105
22
102
{ACAD_REACTORS
330
187
330
19B
330
1A8
330
1DC
330
1E9
330
224
102
}
330
21
100
AcDbSymbolTableRecord
100
AcDbDimStyleTableRecord
  2
STANDARD
 70
     0
 40
0.0
 41
2.0
 42
2.0
 43
8.0
 44
2.0
 73
     0
 74
     0
 77
     3
140
3.0
141
0.0
173
     1
279
     2
288
     1
340
16
341
23
343
23
344
23
  0
ENDTAB
  0
TABLE
  2
BLOCK_RECORD
  5
1
330
0
100
AcDbSymbolTable
 70
    13
  0
BLOCK_RECORD
  5
2
102
{ACAD_XDICTIONARY
360
3
102
}
330
1
100
AcDbSymbolTableRecord
100
AcDbBlockTableRecord
  2
*Model_Space
340
C
  0
BLOCK_RECORD
  5
E
330
1
100
AcDbSymbolTableRecord
100
AcDbBlockTableRecord
  2
*Paper_Space
340
11
  0
BLOCK_RECORD
  5
23
330
1
100
AcDbSymbolTableRecord
100
AcDbBlockTableRecord
  2
_OPEN30
340
0
102
{BLKREFS
331
22A
331
22B
331
1EF
331
1F0
331
1E2
331
1E3
331
1AE
331
1AF
331
1A1
331
1A2
331
18F
331
190
331
24E
331
24F
331
25A
331
25B
331
266
331
267
331
272
331
273
331
27E
331
27F
331
28C
331
28D
102
}
  0
BLOCK_RECORD
  5
188
330
1
100
AcDbSymbolTableRecord
100
AcDbBlockTableRecord
  2
*D1
340
0
  0
BLOCK_RECORD
  5
19C
330
1
100
AcDbSymbolTableRecord
100
AcDbBlockTableRecord
  2
*D2
340
0
  0
BLOCK_RECORD
  5
1A9
330
1
100
AcDbSymbolTableRecord
100
AcDbBlockTableRecord
  2
*D3
340
0
  0
BLOCK_RECORD
  5
1DD
330
1
100
AcDbSymbolTableRecord
100
AcDbBlockTableRecord
  2
*D4
340
0
  0
BLOCK_RECORD
  5
1EA
330
1
100
AcDbSymbolTableRecord
100
AcDbBlockTableRecord
  2
*D5
340
0
  0
BLOCK_RECORD
  5
225
330
1
100
AcDbSymbolTableRecord
100
AcDbBlockTableRecord
  2
*D6
340
0
  0
BLOCK_RECORD
  5
24A
330
1
100
AcDbSymbolTableRecord
100
AcDbBlockTableRecord
  2
*D7
340
0
  0
BLOCK_RECORD
  5
256
330
1
100
AcDbSymbolTableRecord
100
AcDbBlockTableRecord
  2
*D8
340
0
  0
BLOCK_RECORD
  5
262
330
1
100
AcDbSymbolTableRecord
100
AcDbBlockTableRecord
  2
*D9
340
0
  0
BLOCK_RECORD
  5
26E
330
1
100
AcDbSymbolTableRecord
100
AcDbBlockTableRecord
  2
*D10
340
0
  0
BLOCK_RECORD
  5
27A
330
1
100
AcDbSymbolTableRecord
100
AcDbBlockTableRecord
  2
*D11
340
0
  0
BLOCK_RECORD
  5
286
330
1
100
AcDbSymbolTableRecord
100
AcDbBlockTableRecord
  2
*D12
340
0
  0
ENDTAB
  0
ENDSEC
  0
SECTION
  2
BLOCKS
  0
BLOCK
  5
5
330
2
100
AcDbEntity
  8
0
100
AcDbBlockBegin
  2
*Model_Space
 70
     0
 10
0.0
 20
0.0
 30
0.0
  3
*Model_Space
  1

  0
ENDBLK
  5
B
330
2
100
AcDbEntity
  8
0
100
AcDbBlockEnd
  0
BLOCK
  5
F
330
E
100
AcDbEntity
 67
     1
  8
0
100
AcDbBlockBegin
  2
*Paper_Space
 70
     0
 10
0.0
 20
0.0
 30
0.0
  3
*Paper_Space
  1

  0
ENDBLK
  5
10
330
E
100
AcDbEntity
 67
     1
  8
0
100
AcDbBlockEnd
  0
BLOCK
  5
24
330
23
100
AcDbEntity
  8
0
100
AcDbBlockBegin
  2
_OPEN30
 70
     0
 10
0.0
 20
0.0
 30
0.0
  3
_OPEN30
  1

  0
LINE
  5
25
330
23
100
AcDbEntity
  8
0
  6
ByBlock
 62
     0
100
AcDbLine
 10
-1.0
 20
0.26794919
 30
0.0
 11
0.0
 21
0.0
 31
0.0
  0
LINE
  5
26
330
23
100
AcDbEntity
  8
0
  6
ByBlock
 62
     0
100
AcDbLine
 10
0.0
 20
0.0
 30
0.0
 11
-1.0
 21
-0.26794919
 31
0.0
  0
LINE
  5
27
330
23
100
AcDbEntity
  8
0
  6
ByBlock
 62
     0
100
AcDbLine
 10
0.0
 20
0.0
 30
0.0
 11
-1.0
 21
0.0
 31
0.0
  0
ENDBLK
  5
28
330
23
100
AcDbEntity
  8
0
100
AcDbBlockEnd
  0
BLOCK
  5
189
330
188
100
AcDbEntity
  8
0
100
AcDbBlockBegin
  2
*D1
 70
     1
 10
0.0
 20
0.0
 30
0.0
  3
*D1
  1

  0
LINE
  5
18A
330
188
100
AcDbEntity
  8
SUNPO
 62
     0
370
    -2
100
AcDbLine
 10
228.6253660840471
 20
97.88739951827444
 30
0.0
 11
228.6253660840471
 21
105.8808670137153
 31
0.0
  0
LINE
  5
18B
330
188
100
AcDbEntity
  8
SUNPO
 62
     0
370
    -2
100
AcDbLine
 10
233.0753660840471
 20
97.88739951827444
 30
0.0
 11
233.0753660840471
 21
105.8808670137153
 31
0.0
  0
LINE
  5
18C
330
188
100
AcDbEntity
  8
SUNPO
 62
     0
370
    -2
100
AcDbLine
 10
226.6253660840471
 20
103.8808670137153
 30
0.0
 11
224.6253660840471
 21
103.8808670137153
 31
0.0
  0
LINE
  5
18D
330
188
100
AcDbEntity
  8
SUNPO
 62
     0
370
    -2
100
AcDbLine
 10
235.0753660840471
 20
103.8808670137153
 30
0.0
 11
242.2420327507137
 21
103.8808670137153
 31
0.0
  0
LINE
  5
18E
330
188
100
AcDbEntity
  8
SUNPO
 62
     0
370
    -2
100
AcDbLine
 10
228.6253660840471
 20
103.8808670137153
 30
0.0
 11
233.0753660840471
 21
103.8808670137153
 31
0.0
  0
INSERT
  5
18F
330
188
100
AcDbEntity
  8
SUNPO
 62
     0
370
    -2
100
AcDbBlockReference
  2
_OPEN30
 10
228.6253660840471
 20
103.8808670137153
 30
0.0
 41
2.0
 42
2.0
 43
2.0
  0
INSERT
  5
190
330
188
100
AcDbEntity
  8
SUNPO
 62
     0
370
    -2
100
AcDbBlockReference
  2
_OPEN30
 10
233.0753660840471
 20
103.8808670137153
 30
0.0
 41
2.0
 42
2.0
 43
2.0
 50
180.0
  0
MTEXT
  5
191
330
188
100
AcDbEntity
  8
SUNPO
 62
     0
100
AcDbMText
 10
239.6586994173804
 20
105.6308670137154
 30
0.0
 40
2.5
 41
0.0
 71
     5
 72
     1
  1
\A1;89
 73
     1
 44
1.0
1001
ACAD
1000
MTEXTBEGIN
1070
    73
1070
     1
1070
    44
1040
1.0
1070
    74
1070
     0
1000
MTEXTEND
  0
POINT
  5
192
330
188
100
AcDbEntity
  8
DEFPOINTS
 62
     0
100
AcDbPoint
 10
228.6253660840471
 20
95.88739951827443
 30
0.0
  0
POINT
  5
194
330
188
100
AcDbEntity
  8
DEFPOINTS
 62
     0
100
AcDbPoint
 10
233.0753660840471
 20
95.88739951827443
 30
0.0
  0
POINT
  5
195
330
188
100
AcDbEntity
  8
DEFPOINTS
 62
     0
100
AcDbPoint
 10
233.0753660840471
 20
103.8808670137153
 30
0.0
  0
ENDBLK
  5
196
330
188
100
AcDbEntity
  8
0
100
AcDbBlockEnd
  0
BLOCK
  5
19D
330
19C
100
AcDbEntity
  8
0
100
AcDbBlockBegin
  2
*D2
 70
     1
 10
0.0
 20
0.0
 30
0.0
  3
*D2
  1

  0
LINE
  5
19E
330
19C
100
AcDbEntity
  8
SUNPO
 62
     0
370
    -2
100
AcDbLine
 10
198.7484939208746
 20
65.3811534580667
 30
0.0
 11
206.7484939208746
 21
65.3811534580667
 31
0.0
  0
LINE
  5
19F
330
19C
100
AcDbEntity
  8
SUNPO
 62
     0
370
    -2
100
AcDbLine
 10
198.7484939208746
 20
95.8811534580667
 30
0.0
 11
206.7484939208746
 21
95.8811534580667
 31
0.0
  0
LINE
  5
1A0
330
19C
100
AcDbEntity
  8
SUNPO
 62
     0
370
    -2
100
AcDbLine
 10
204.7484939208746
 20
67.3811534580667
 30
0.0
 11
204.7484939208746
 21
93.88115345806671
 31
0.0
  0
INSERT
  5
1A1
330
19C
100
AcDbEntity
  8
SUNPO
 62
     0
370
    -2
100
AcDbBlockReference
  2
_OPEN30
 10
204.7484939208746
 20
65.3811534580667
 30
0.0
 41
2.0
 42
2.0
 43
2.0
 50
270.0
  0
INSERT
  5
1A2
330
19C
100
AcDbEntity
  8
SUNPO
 62
     0
370
    -2
100
AcDbBlockReference
  2
_OPEN30
 10
204.7484939208746
 20
95.8811534580667
 30
0.0
 41
2.0
 42
2.0
 43
2.0
 50
90.0
  0
MTEXT
  5
1A3
330
19C
100
AcDbEntity
  8
SUNPO
 62
     0
100
AcDbMText
 10
202.9984939208746
 20
80.63115345806673
 30
0.0
 40
2.5
 41
0.0
 71
     5
 72
     1
  1
\A1;610
 11
0.0000000000000001
 21
1.0
 31
0.0
 73
     1
 44
1.0
1001
ACAD
1000
MTEXTBEGIN
1070
    73
1070
     1
1070
    44
1040
1.0
1070
    74
1070
     0
1000
MTEXTEND
  0
POINT
  5
1A4
330
19C
100
AcDbEntity
  8
DEFPOINTS
 62
     0
100
AcDbPoint
 10
196.7484939208746
 20
65.3811534580667
 30
0.0
  0
POINT
  5
1A5
330
19C
100
AcDbEntity
  8
DEFPOINTS
 62
     0
100
AcDbPoint
 10
196.7484939208746
 20
95.8811534580667
 30
0.0
  0
POINT
  5
1A6
330
19C
100
AcDbEntity
  8
DEFPOINTS
 62
     0
100
AcDbPoint
 10
204.7484939208746
 20
95.8811534580667
 30
0.0
  0
ENDBLK
  5
1A7
330
19C
100
AcDbEntity
  8
0
100
AcDbBlockEnd
  0
BLOCK
  5
1AA
330
1A9
100
AcDbEntity
  8
0
100
AcDbBlockBegin
  2
*D3
 70
     1
 10
0.0
 20
0.0
 30
0.0
  3
*D3
  1

  0
LINE
  5
1AB
330
1A9
100
AcDbEntity
  8
SUNPO
 62
     0
370
    -2
100
AcDbLine
 10
146.6381645188645
 20
97.88086701371538
 30
0.0
 11
146.6381645188645
 21
105.8808670137153
 31
0.0
  0
LINE
  5
1AC
330
1A9
100
AcDbEntity
  8
SUNPO
 62
     0
370
    -2
100
AcDbLine
 10
196.7381645188645
 20
97.88086701371538
 30
0.0
 11
196.7381645188645
 21
105.8808670137153
 31
0.0
  0
LINE
  5
1AD
330
1A9
100
AcDbEntity
  8
SUNPO
 62
     0
370
    -2
100
AcDbLine
 10
148.6381645188645
 20
103.8808670137153
 30
0.0
 11
194.7381645188645
 21
103.8808670137153
 31
0.0
  0
INSERT
  5
1AE
330
1A9
100
AcDbEntity
  8
SUNPO
 62
     0
370
    -2
100
AcDbBlockReference
  2
_OPEN30
 10
146.6381645188645
 20
103.8808670137153
 30
0.0
 41
2.0
 42
2.0
 43
2.0
 50
180.0
  0
INSERT
  5
1AF
330
1A9
100
AcDbEntity
  8
SUNPO
 62
     0
370
    -2
100
AcDbBlockReference
  2
_OPEN30
 10
196.7381645188645
 20
103.8808670137153
 30
0.0
 41
2.0
 42
2.0
 43
2.0
  0
MTEXT
  5
1B0
330
1A9
100
AcDbEntity
  8
SUNPO
 62
     0
100
AcDbMText
 10
171.6881645188645
 20
105.6308670137154
 30
0.0
 40
2.5
 41
0.0
 71
     5
 72
     1
  1
\A1;1020
 73
     1
 44
1.0
1001
ACAD
1000
MTEXTBEGIN
1070
    73
1070
     1
1070
    44
1040
1.0
1070
    74
1070
     0
1000
MTEXTEND
  0
POINT
  5
1B1
330
1A9
100
AcDbEntity
  8
DEFPOINTS
 62
     0
100
AcDbPoint
 10
146.6381645188645
 20
95.88086701371537
 30
0.0
  0
POINT
  5
1B2
330
1A9
100
AcDbEntity
  8
DEFPOINTS
 62
     0
100
AcDbPoint
 10
196.7381645188645
 20
95.88086701371537
 30
0.0
  0
POINT
  5
1B3
330
1A9
100
AcDbEntity
  8
DEFPOINTS
 62
     0
100
AcDbPoint
 10
196.7381645188645
 20
103.8808670137153
 30
0.0
  0
ENDBLK
  5
1B4
330
1A9
100
AcDbEntity
  8
0
100
AcDbBlockEnd
  0
BLOCK
  5
1DE
330
1DD
100
AcDbEntity
  8
0
100
AcDbBlockBegin
  2
*D4
 70
     1
 10
0.0
 20
0.0
 30
0.0
  3
*D4
  1

  0
LINE
  5
1DF
330
1DD
100
AcDbEntity
  8
SUNPO
 62
     0
370
    -2
100
AcDbLine
 10
206.7484939208746
 20
95.88115345806668
 30
0.0
 11
213.7484939208746
 21
95.88115345806668
 31
0.0
  0
LINE
  5
1E0
330
1DD
100
AcDbEntity
  8
SUNPO
 62
     0
370
    -2
100
AcDbLine
 10
188.1997989113284
 20
62.41407548794487
 30
0.0
 11
213.7484939208746
 21
62.41407548794486
 31
0.0
  0
LINE
  5
1E1
330
1DD
100
AcDbEntity
  8
SUNPO
 62
     0
370
    -2
100
AcDbLine
 10
211.7484939208746
 20
93.88115345806669
 30
0.0
 11
211.7484939208746
 21
64.41407548794487
 31
0.0
  0
INSERT
  5
1E2
330
1DD
100
AcDbEntity
  8
SUNPO
 62
     0
370
    -2
100
AcDbBlockReference
  2
_OPEN30
 10
211.7484939208746
 20
95.88115345806668
 30
0.0
 41
2.0
 42
2.0
 43
2.0
 50
90.0
  0
INSERT
  5
1E3
330
1DD
100
AcDbEntity
  8
SUNPO
 62
     0
370
    -2
100
AcDbBlockReference
  2
_OPEN30
 10
211.7484939208746
 20
62.41407548794486
 30
0.0
 41
2.0
 42
2.0
 43
2.0
 50
270.0
  0
MTEXT
  5
1E4
330
1DD
100
AcDbEntity
  8
SUNPO
 62
     0
100
AcDbMText
 10
209.9984939208746
 20
79.14761447300581
 30
0.0
 40
2.5
 41
0.0
 71
     5
 72
     1
  1
\A1;669
 11
0.0000000000000001
 21
1.0
 31
0.0
 73
     1
 44
1.0
1001
ACAD
1000
MTEXTBEGIN
1070
    73
1070
     1
1070
    44
1040
1.0
1070
    74
1070
     0
1000
MTEXTEND
  0
POINT
  5
1E5
330
1DD
100
AcDbEntity
  8
DEFPOINTS
 62
     0
100
AcDbPoint
 10
204.7484939208746
 20
95.88115345806668
 30
0.0
  0
POINT
  5
1E6
330
1DD
100
AcDbEntity
  8
DEFPOINTS
 62
     0
100
AcDbPoint
 10
186.1997989113284
 20
62.41407548794487
 30
0.0
  0
POINT
  5
1E7
330
1DD
100
AcDbEntity
  8
DEFPOINTS
 62
     0
100
AcDbPoint
 10
211.7484939208746
 20
62.41407548794486
 30
0.0
  0
ENDBLK
  5
1E8
330
1DD
100
AcDbEntity
  8
0
100
AcDbBlockEnd
  0
BLOCK
  5
1EB
330
1EA
100
AcDbEntity
  8
0
100
AcDbBlockBegin
  2
*D5
 70
     1
 10
0.0
 20
0.0
 30
0.0
  3
*D5
  1

  0
LINE
  5
1EC
330
1EA
100
AcDbEntity
  8
SUNPO
 62
     0
370
    -2
100
AcDbLine
 10
157.2307526633629
 20
60.39483244833033
 30
0.0
 11
157.2307526633629
 21
53.39483244833033
 31
0.0
  0
LINE
  5
1ED
330
1EA
100
AcDbEntity
  8
SUNPO
 62
     0
370
    -2
100
AcDbLine
 10
186.1456205484795
 20
60.39483244833033
 30
0.0
 11
186.1456205484795
 21
53.39483244833033
 31
0.0
  0
LINE
  5
1EE
330
1EA
100
AcDbEntity
  8
SUNPO
 62
     0
370
    -2
100
AcDbLine
 10
159.2307526633629
 20
55.39483244833033
 30
0.0
 11
184.1456205484795
 21
55.39483244833033
 31
0.0
  0
INSERT
  5
1EF
330
1EA
100
AcDbEntity
  8
SUNPO
 62
     0
370
    -2
100
AcDbBlockReference
  2
_OPEN30
 10
157.2307526633629
 20
55.39483244833033
 30
0.0
 41
2.0
 42
2.0
 43
2.0
 50
180.0
  0
INSERT
  5
1F0
330
1EA
100
AcDbEntity
  8
SUNPO
 62
     0
370
    -2
100
AcDbBlockReference
  2
_OPEN30
 10
186.1456205484795
 20
55.39483244833033
 30
0.0
 41
2.0
 42
2.0
 43
2.0
  0
MTEXT
  5
1F1
330
1EA
100
AcDbEntity
  8
SUNPO
 62
     0
100
AcDbMText
 10
171.6881866059212
 20
57.14483244833033
 30
0.0
 40
2.5
 41
0.0
 71
     5
 72
     1
  1
\A1;578
 73
     1
 44
1.0
1001
ACAD
1000
MTEXTBEGIN
1070
    73
1070
     1
1070
    44
1040
1.0
1070
    74
1070
     0
1000
MTEXTEND
  0
POINT
  5
1F2
330
1EA
100
AcDbEntity
  8
DEFPOINTS
 62
     0
100
AcDbPoint
 10
157.2307526633629
 20
62.39483244833033
 30
0.0
  0
POINT
  5
1F3
330
1EA
100
AcDbEntity
  8
DEFPOINTS
 62
     0
100
AcDbPoint
 10
186.1456205484795
 20
62.39483244833033
 30
0.0
  0
POINT
  5
1F4
330
1EA
100
AcDbEntity
  8
DEFPOINTS
 62
     0
100
AcDbPoint
 10
186.1456205484795
 20
55.39483244833033
 30
0.0
  0
ENDBLK
  5
1F5
330
1EA
100
AcDbEntity
  8
0
100
AcDbBlockEnd
  0
BLOCK
  5
226
330
225
100
AcDbEntity
  8
0
100
AcDbBlockBegin
  2
*D6
 70
     1
 10
0.0
 20
0.0
 30
0.0
  3
*D6
  1

  0
LINE
  5
227
330
225
100
AcDbEntity
  8
SUNPO
 62
     0
370
    -2
100
AcDbLine
 10
222.2641509210199
 20
60.39483244833033
 30
0.0
 11
222.2641509210199
 21
53.39483244833034
 31
0.0
  0
LINE
  5
228
330
225
100
AcDbEntity
  8
SUNPO
 62
     0
370
    -2
100
AcDbLine
 10
238.6103690209305
 20
60.39483244833033
 30
0.0
 11
238.6103690209305
 21
53.39483244833034
 31
0.0
  0
LINE
  5
229
330
225
100
AcDbEntity
  8
SUNPO
 62
     0
370
    -2
100
AcDbLine
 10
224.2641509210199
 20
55.39483244833034
 30
0.0
 11
236.6103690209305
 21
55.39483244833034
 31
0.0
  0
INSERT
  5
22A
330
225
100
AcDbEntity
  8
SUNPO
 62
     0
370
    -2
100
AcDbBlockReference
  2
_OPEN30
 10
222.2641509210199
 20
55.39483244833034
 30
0.0
 41
2.0
 42
2.0
 43
2.0
 50
180.0
  0
INSERT
  5
22B
330
225
100
AcDbEntity
  8
SUNPO
 62
     0
370
    -2
100
AcDbBlockReference
  2
_OPEN30
 10
238.6103690209305
 20
55.39483244833034
 30
0.0
 41
2.0
 42
2.0
 43
2.0
  0
MTEXT
  5
22C
330
225
100
AcDbEntity
  8
SUNPO
 62
     0
100
AcDbMText
 10
230.4372599709752
 20
57.14483244833034
 30
0.0
 40
2.5
 41
0.0
 71
     5
 72
     1
  1
\A1;327
 73
     1
 44
1.0
1001
ACAD
1000
MTEXTBEGIN
1070
    73
1070
     1
1070
    44
1040
1.0
1070
    74
1070
     0
1000
MTEXTEND
  0
POINT
  5
22D
330
225
100
AcDbEntity
  8
DEFPOINTS
 62
     0
100
AcDbPoint
 10
222.2641509210199
 20
62.39483244833033
 30
0.0
  0
POINT
  5
22E
330
225
100
AcDbEntity
  8
DEFPOINTS
 62
     0
100
AcDbPoint
 10
238.6103690209305
 20
62.39483244833033
 30
0.0
  0
POINT
  5
22F
330
225
100
AcDbEntity
  8
DEFPOINTS
 62
     0
100
AcDbPoint
 10
238.6103690209305
 20
55.39483244833034
 30
0.0
  0
ENDBLK
  5
230
330
225
100
AcDbEntity
  8
0
100
AcDbBlockEnd
  0
BLOCK
  5
254
330
24A
100
AcDbEntity
  8
0
100
AcDbBlockBegin
  2
*D7
 70
     1
 10
0.0
 20
0.0
 30
0.0
  3
*D7
  1

  0
LINE
  5
24B
330
24A
100
AcDbEntity
  8
SUNPO
 62
     0
370
    -2
100
AcDbLine
 10
30.35697130800475
 20
-2.587720345694407
 30
0.0
 11
30.35697130800475
 21
-9.5877203456944
 31
0.0
  0
LINE
  5
24C
330
24A
100
AcDbEntity
  8
SUNPO
 62
     0
370
    -2
100
AcDbLine
 10
46.70318940791531
 20
-2.587720345694407
 30
0.0
 11
46.70318940791531
 21
-9.5877203456944
 31
0.0
  0
LINE
  5
24D
330
24A
100
AcDbEntity
  8
SUNPO
 62
     0
370
    -2
100
AcDbLine
 10
32.35697130800474
 20
-7.5877203456944
 30
0.0
 11
44.70318940791531
 21
-7.5877203456944
 31
0.0
  0
INSERT
  5
24E
330
24A
100
AcDbEntity
  8
SUNPO
 62
     0
370
    -2
100
AcDbBlockReference
  2
_OPEN30
 10
30.35697130800475
 20
-7.5877203456944
 30
0.0
 41
2.0
 42
2.0
 43
2.0
 50
180.0
  0
INSERT
  5
24F
330
24A
100
AcDbEntity
  8
SUNPO
 62
     0
370
    -2
100
AcDbBlockReference
  2
_OPEN30
 10
46.70318940791531
 20
-7.5877203456944
 30
0.0
 41
2.0
 42
2.0
 43
2.0
  0
MTEXT
  5
250
330
24A
100
AcDbEntity
  8
SUNPO
 62
     0
100
AcDbMText
 10
38.53008035796003
 20
-5.8377203456944
 30
0.0
 40
2.5
 41
0.0
 71
     5
 72
     1
  1
\A1;327
 73
     1
 44
1.0
1001
ACAD
1000
MTEXTBEGIN
1070
    73
1070
     1
1070
    44
1040
1.0
1070
    74
1070
     0
1000
MTEXTEND
  0
POINT
  5
251
330
24A
100
AcDbEntity
  8
DEFPOINTS
 62
     0
100
AcDbPoint
 10
30.35697130800475
 20
-0.5877203456944074
 30
0.0
  0
POINT
  5
252
330
24A
100
AcDbEntity
  8
DEFPOINTS
 62
     0
100
AcDbPoint
 10
46.70318940791531
 20
-0.5877203456944074
 30
0.0
  0
POINT
  5
253
330
24A
100
AcDbEntity
  8
DEFPOINTS
 62
     0
100
AcDbPoint
 10
46.70318940791531
 20
-7.5877203456944
 30
0.0
  0
ENDBLK
  5
255
330
24A
100
AcDbEntity
  8
0
100
AcDbBlockEnd
  0
BLOCK
  5
260
330
256
100
AcDbEntity
  8
0
100
AcDbBlockBegin
  2
*D8
 70
     1
 10
0.0
 20
0.0
 30
0.0
  3
*D8
  1

  0
LINE
  5
257
330
256
100
AcDbEntity
  8
SUNPO
 62
     0
370
    -2
100
AcDbLine
 10
-34.67642694965218
 20
-2.587720345694407
 30
0.0
 11
-34.67642694965218
 21
-9.587720345694407
 31
0.0
  0
LINE
  5
258
330
256
100
AcDbEntity
  8
SUNPO
 62
     0
370
    -2
100
AcDbLine
 10
-5.761559064535617
 20
-2.587720345694407
 30
0.0
 11
-5.761559064535618
 21
-9.587720345694407
 31
0.0
  0
LINE
  5
259
330
256
100
AcDbEntity
  8
SUNPO
 62
     0
370
    -2
100
AcDbLine
 10
-32.67642694965218
 20
-7.587720345694407
 30
0.0
 11
-7.761559064535617
 21
-7.587720345694407
 31
0.0
  0
INSERT
  5
25A
330
256
100
AcDbEntity
  8
SUNPO
 62
     0
370
    -2
100
AcDbBlockReference
  2
_OPEN30
 10
-34.67642694965218
 20
-7.587720345694407
 30
0.0
 41
2.0
 42
2.0
 43
2.0
 50
180.0
  0
INSERT
  5
25B
330
256
100
AcDbEntity
  8
SUNPO
 62
     0
370
    -2
100
AcDbBlockReference
  2
_OPEN30
 10
-5.761559064535617
 20
-7.587720345694407
 30
0.0
 41
2.0
 42
2.0
 43
2.0
  0
MTEXT
  5
25C
330
256
100
AcDbEntity
  8
SUNPO
 62
     0
100
AcDbMText
 10
-20.2189930070939
 20
-5.837720345694407
 30
0.0
 40
2.5
 41
0.0
 71
     5
 72
     1
  1
\A1;578
 73
     1
 44
1.0
1001
ACAD
1000
MTEXTBEGIN
1070
    73
1070
     1
1070
    44
1040
1.0
1070
    74
1070
     0
1000
MTEXTEND
  0
POINT
  5
25D
330
256
100
AcDbEntity
  8
DEFPOINTS
 62
     0
100
AcDbPoint
 10
-34.67642694965218
 20
-0.5877203456944074
 30
0.0
  0
POINT
  5
25E
330
256
100
AcDbEntity
  8
DEFPOINTS
 62
     0
100
AcDbPoint
 10
-5.761559064535617
 20
-0.5877203456944074
 30
0.0
  0
POINT
  5
25F
330
256
100
AcDbEntity
  8
DEFPOINTS
 62
     0
100
AcDbPoint
 10
-5.761559064535617
 20
-7.587720345694407
 30
0.0
  0
ENDBLK
  5
261
330
256
100
AcDbEntity
  8
0
100
AcDbBlockEnd
  0
BLOCK
  5
26C
330
262
100
AcDbEntity
  8
0
100
AcDbBlockBegin
  2
*D9
 70
     1
 10
0.0
 20
0.0
 30
0.0
  3
*D9
  1

  0
LINE
  5
263
330
262
100
AcDbEntity
  8
SUNPO
 62
     0
370
    -2
100
AcDbLine
 10
14.84131430785942
 20
32.89860066404195
 30
0.0
 11
21.84131430785943
 21
32.89860066404195
 31
0.0
  0
LINE
  5
264
330
262
100
AcDbEntity
  8
SUNPO
 62
     0
370
    -2
100
AcDbLine
 10
-3.707380701686702
 20
-0.568477306079871
 30
0.0
 11
21.84131430785942
 21
-0.5684773060798783
 31
0.0
  0
LINE
  5
265
330
262
100
AcDbEntity
  8
SUNPO
 62
     0
370
    -2
100
AcDbLine
 10
19.84131430785943
 20
30.89860066404195
 30
0.0
 11
19.84131430785942
 21
1.431522693920122
 31
0.0
  0
INSERT
  5
266
330
262
100
AcDbEntity
  8
SUNPO
 62
     0
370
    -2
100
AcDbBlockReference
  2
_OPEN30
 10
19.84131430785943
 20
32.89860066404195
 30
0.0
 41
2.0
 42
2.0
 43
2.0
 50
90.0
  0
INSERT
  5
267
330
262
100
AcDbEntity
  8
SUNPO
 62
     0
370
    -2
100
AcDbBlockReference
  2
_OPEN30
 10
19.84131430785942
 20
-0.5684773060798777
 30
0.0
 41
2.0
 42
2.0
 43
2.0
 50
270.0
  0
MTEXT
  5
268
330
262
100
AcDbEntity
  8
SUNPO
 62
     0
100
AcDbMText
 10
18.09131430785942
 20
16.16506167898104
 30
0.0
 40
2.5
 41
0.0
 71
     5
 72
     1
  1
\A1;669
 11
0.0000000000000001
 21
1.0
 31
0.0
 73
     1
 44
1.0
1001
ACAD
1000
MTEXTBEGIN
1070
    73
1070
     1
1070
    44
1040
1.0
1070
    74
1070
     0
1000
MTEXTEND
  0
POINT
  5
269
330
262
100
AcDbEntity
  8
DEFPOINTS
 62
     0
100
AcDbPoint
 10
12.84131430785942
 20
32.89860066404195
 30
0.0
  0
POINT
  5
26A
330
262
100
AcDbEntity
  8
DEFPOINTS
 62
     0
100
AcDbPoint
 10
-5.707380701686702
 20
-0.5684773060798705
 30
0.0
  0
POINT
  5
26B
330
262
100
AcDbEntity
  8
DEFPOINTS
 62
     0
100
AcDbPoint
 10
19.84131430785942
 20
-0.5684773060798777
 30
0.0
  0
ENDBLK
  5
26D
330
262
100
AcDbEntity
  8
0
100
AcDbBlockEnd
  0
BLOCK
  5
278
330
26E
100
AcDbEntity
  8
0
100
AcDbBlockBegin
  2
*D10
 70
     1
 10
0.0
 20
0.0
 30
0.0
  3
*D10
  1

  0
LINE
  5
26F
330
26E
100
AcDbEntity
  8
SUNPO
 62
     0
370
    -2
100
AcDbLine
 10
-45.26901509415063
 20
34.89831421969063
 30
0.0
 11
-45.26901509415063
 21
42.89831421969063
 31
0.0
  0
LINE
  5
270
330
26E
100
AcDbEntity
  8
SUNPO
 62
     0
370
    -2
100
AcDbLine
 10
4.83098490584939
 20
34.89831421969063
 30
0.0
 11
4.830984905849391
 21
42.89831421969063
 31
0.0
  0
LINE
  5
271
330
26E
100
AcDbEntity
  8
SUNPO
 62
     0
370
    -2
100
AcDbLine
 10
-43.26901509415063
 20
40.89831421969063
 30
0.0
 11
2.830984905849391
 21
40.89831421969063
 31
0.0
  0
INSERT
  5
272
330
26E
100
AcDbEntity
  8
SUNPO
 62
     0
370
    -2
100
AcDbBlockReference
  2
_OPEN30
 10
-45.26901509415063
 20
40.89831421969063
 30
0.0
 41
2.0
 42
2.0
 43
2.0
 50
180.0
  0
INSERT
  5
273
330
26E
100
AcDbEntity
  8
SUNPO
 62
     0
370
    -2
100
AcDbBlockReference
  2
_OPEN30
 10
4.830984905849391
 20
40.89831421969063
 30
0.0
 41
2.0
 42
2.0
 43
2.0
  0
MTEXT
  5
274
330
26E
100
AcDbEntity
  8
SUNPO
 62
     0
100
AcDbMText
 10
-20.21901509415062
 20
42.64831421969063
 30
0.0
 40
2.5
 41
0.0
 71
     5
 72
     1
  1
\A1;1020
 73
     1
 44
1.0
1001
ACAD
1000
MTEXTBEGIN
1070
    73
1070
     1
1070
    44
1040
1.0
1070
    74
1070
     0
1000
MTEXTEND
  0
POINT
  5
275
330
26E
100
AcDbEntity
  8
DEFPOINTS
 62
     0
100
AcDbPoint
 10
-45.26901509415063
 20
32.89831421969064
 30
0.0
  0
POINT
  5
276
330
26E
100
AcDbEntity
  8
DEFPOINTS
 62
     0
100
AcDbPoint
 10
4.83098490584939
 20
32.89831421969064
 30
0.0
  0
POINT
  5
277
330
26E
100
AcDbEntity
  8
DEFPOINTS
 62
     0
100
AcDbPoint
 10
4.830984905849391
 20
40.89831421969063
 30
0.0
  0
ENDBLK
  5
279
330
26E
100
AcDbEntity
  8
0
100
AcDbBlockEnd
  0
BLOCK
  5
284
330
27A
100
AcDbEntity
  8
0
100
AcDbBlockBegin
  2
*D11
 70
     1
 10
0.0
 20
0.0
 30
0.0
  3
*D11
  1

  0
LINE
  5
27B
330
27A
100
AcDbEntity
  8
SUNPO
 62
     0
370
    -2
100
AcDbLine
 10
6.84131430785942
 20
2.398600664041964
 30
0.0
 11
14.84131430785941
 21
2.398600664041961
 31
0.0
  0
LINE
  5
27C
330
27A
100
AcDbEntity
  8
SUNPO
 62
     0
370
    -2
100
AcDbLine
 10
6.84131430785942
 20
32.89860066404197
 30
0.0
 11
14.84131430785942
 21
32.89860066404197
 31
0.0
  0
LINE
  5
27D
330
27A
100
AcDbEntity
  8
SUNPO
 62
     0
370
    -2
100
AcDbLine
 10
12.84131430785941
 20
4.398600664041961
 30
0.0
 11
12.84131430785942
 21
30.89860066404196
 31
0.0
  0
INSERT
  5
27E
330
27A
100
AcDbEntity
  8
SUNPO
 62
     0
370
    -2
100
AcDbBlockReference
  2
_OPEN30
 10
12.84131430785941
 20
2.398600664041962
 30
0.0
 41
2.0
 42
2.0
 43
2.0
 50
270.0
  0
INSERT
  5
27F
330
27A
100
AcDbEntity
  8
SUNPO
 62
     0
370
    -2
100
AcDbBlockReference
  2
_OPEN30
 10
12.84131430785942
 20
32.89860066404197
 30
0.0
 41
2.0
 42
2.0
 43
2.0
 50
90.0
  0
MTEXT
  5
280
330
27A
100
AcDbEntity
  8
SUNPO
 62
     0
100
AcDbMText
 10
11.09131430785941
 20
17.64860066404196
 30
0.0
 40
2.5
 41
0.0
 71
     5
 72
     1
  1
\A1;610
 11
0.0000000000000001
 21
1.0
 31
0.0
 73
     1
 44
1.0
1001
ACAD
1000
MTEXTBEGIN
1070
    73
1070
     1
1070
    44
1040
1.0
1070
    74
1070
     0
1000
MTEXTEND
  0
POINT
  5
281
330
27A
100
AcDbEntity
  8
DEFPOINTS
 62
     0
100
AcDbPoint
 10
4.84131430785942
 20
2.398600664041964
 30
0.0
  0
POINT
  5
282
330
27A
100
AcDbEntity
  8
DEFPOINTS
 62
     0
100
AcDbPoint
 10
4.84131430785942
 20
32.89860066404197
 30
0.0
  0
POINT
  5
283
330
27A
100
AcDbEntity
  8
DEFPOINTS
 62
     0
100
AcDbPoint
 10
12.84131430785942
 20
32.89860066404197
 30
0.0
  0
ENDBLK
  5
285
330
27A
100
AcDbEntity
  8
0
100
AcDbBlockEnd
  0
BLOCK
  5
292
330
286
100
AcDbEntity
  8
0
100
AcDbBlockBegin
  2
*D12
 70
     1
 10
0.0
 20
0.0
 30
0.0
  3
*D12
  1

  0
LINE
  5
287
330
286
100
AcDbEntity
  8
SUNPO
 62
     0
370
    -2
100
AcDbLine
 10
36.71818647103191
 20
34.90484672424969
 30
0.0
 11
36.71818647103191
 21
42.89831421969063
 31
0.0
  0
LINE
  5
288
330
286
100
AcDbEntity
  8
SUNPO
 62
     0
370
    -2
100
AcDbLine
 10
41.1681864710319
 20
34.90484672424969
 30
0.0
 11
41.1681864710319
 21
42.89831421969063
 31
0.0
  0
LINE
  5
289
330
286
100
AcDbEntity
  8
SUNPO
 62
     0
370
    -2
100
AcDbLine
 10
34.71818647103191
 20
40.89831421969063
 30
0.0
 11
32.71818647103192
 21
40.89831421969063
 31
0.0
  0
LINE
  5
28A
330
286
100
AcDbEntity
  8
SUNPO
 62
     0
370
    -2
100
AcDbLine
 10
43.1681864710319
 20
40.89831421969063
 30
0.0
 11
50.33485313769856
 21
40.89831421969063
 31
0.0
  0
LINE
  5
28B
330
286
100
AcDbEntity
  8
SUNPO
 62
     0
370
    -2
100
AcDbLine
 10
36.71818647103191
 20
40.89831421969063
 30
0.0
 11
41.1681864710319
 21
40.89831421969063
 31
0.0
  0
INSERT
  5
28C
330
286
100
AcDbEntity
  8
SUNPO
 62
     0
370
    -2
100
AcDbBlockReference
  2
_OPEN30
 10
36.71818647103191
 20
40.89831421969063
 30
0.0
 41
2.0
 42
2.0
 43
2.0
  0
INSERT
  5
28D
330
286
100
AcDbEntity
  8
SUNPO
 62
     0
370
    -2
100
AcDbBlockReference
  2
_OPEN30
 10
41.1681864710319
 20
40.89831421969063
 30
0.0
 41
2.0
 42
2.0
 43
2.0
 50
180.0
  0
MTEXT
  5
28E
330
286
100
AcDbEntity
  8
SUNPO
 62
     0
100
AcDbMText
 10
47.75151980436524
 20
42.64831421969063
 30
0.0
 40
2.5
 41
0.0
 71
     5
 72
     1
  1
\A1;89
 73
     1
 44
1.0
1001
ACAD
1000
MTEXTBEGIN
1070
    73
1070
     1
1070
    44
1040
1.0
1070
    74
1070
     0
1000
MTEXTEND
  0
POINT
  5
28F
330
286
100
AcDbEntity
  8
DEFPOINTS
 62
     0
100
AcDbPoint
 10
36.71818647103191
 20
32.9048467242497
 30
0.0
  0
POINT
  5
290
330
286
100
AcDbEntity
  8
DEFPOINTS
 62
     0
100
AcDbPoint
 10
41.1681864710319
 20
32.9048467242497
 30
0.0
  0
POINT
  5
291
330
286
100
AcDbEntity
  8
DEFPOINTS
 62
     0
100
AcDbPoint
 10
41.1681864710319
 20
40.89831421969063
 30
0.0
  0
ENDBLK
  5
293
330
286
100
AcDbEntity
  8
0
100
AcDbBlockEnd
  0
ENDSEC
  0
SECTION
  2
ENTITIES
  0
TEXT
  5
31
330
2
100
AcDbEntity
  8
TOUROKU
100
AcDbText
 10
24.59277036395366
 20
45.51828233091007
 30
0.0
 40
2.0
  1
ＴＨ４２ＰＨ１１Ｋ＋ＴＹＳＴ０８Ｋ
 72
     2
 11
64.59277036395366
 21
45.51828233091007
 31
0.0
100
AcDbText
  0
TEXT
  5
33
330
2
100
AcDbEntity
  8
MOJI1
100
AcDbText
 10
-33.4071796689741
 20
51.51828233091009
 30
0.0
 40
4.0
  1
ハイビジョンプラズマディスプレイ据置きスタンド付
 41
0.85
100
AcDbText
  0
TEXT
  5
35
330
2
100
AcDbEntity
  8
MOJI1
100
AcDbText
 10
-57.90717966897386
 20
-41.48171766909013
 30
0.0
 40
3.0
  1
階調数
100
AcDbText
  0
TEXT
  5
36
330
2
100
AcDbEntity
  8
MOJI1
100
AcDbText
 10
-57.90717966897386
 20
-36.48171766909013
 30
0.0
 40
3.0
  1
コントラスト
100
AcDbText
  0
LINE
  5
37
330
2
100
AcDbEntity
  8
WAKU
 62
     1
100
AcDbLine
 10
-60.40717966897386
 20
-42.48171766909012
 30
0.0
 11
64.5928203310259
 21
-42.48171766909012
 31
0.0
  0
LINE
  5
39
330
2
100
AcDbEntity
  8
WAKU
 62
     1
100
AcDbLine
 10
-60.40717966897386
 20
-37.48171766909013
 30
0.0
 11
64.5928203310259
 21
-37.48171766909013
 31
0.0
  0
TEXT
  5
3A
330
2
100
AcDbEntity
  8
MOJI1
100
AcDbText
 10
-57.90717966897386
 20
-16.48171766909013
 30
0.0
 40
3.0
  1
電  源
100
AcDbText
  0
TEXT
  5
3B
330
2
100
AcDbEntity
  8
MOJI1
100
AcDbText
 10
-57.90717966897386
 20
-21.48171766909013
 30
0.0
 40
3.0
  1
消費電力
100
AcDbText
  0
TEXT
  5
3C
330
2
100
AcDbEntity
  8
MOJI1
100
AcDbText
 10
-57.90717966897386
 20
-26.48171766909013
 30
0.0
 40
3.0
  1
画面サイズ
100
AcDbText
  0
TEXT
  5
3D
330
2
100
AcDbEntity
  8
MOJI1
100
AcDbText
 10
-18.90717966897387
 20
-21.48171766909013
 30
0.0
 40
3.0
  1
３５５Ｗ
100
AcDbText
  0
TEXT
  5
3E
330
2
100
AcDbEntity
  8
MOJI1
100
AcDbText
 10
-18.90717966897387
 20
-26.48171766909013
 30
0.0
 40
3.0
  1
４２Ｖ型（１６：９）
100
AcDbText
  0
TEXT
  5
3F
330
2
100
AcDbEntity
  8
MOJI1
100
AcDbText
 10
-18.90717966897387
 20
-16.48171766909013
 30
0.0
 40
3.0
  1
ＡＣ１００Ｖ　５０Ｈｚ／６０Ｈｚ
100
AcDbText
  0
TEXT
  5
40
330
2
100
AcDbEntity
  8
MOJI1
100
AcDbText
 10
-57.90717966897386
 20
-51.48171766909013
 30
0.0
 40
3.0
  1
接続端子
100
AcDbText
  0
TEXT
  5
41
330
2
100
AcDbEntity
  8
MOJI1
100
AcDbText
 10
-57.90717966897386
 20
-46.48171766909013
 30
0.0
 40
3.0
  1
音声最大出力
100
AcDbText
  0
TEXT
  5
42
330
2
100
AcDbEntity
  8
MOJI1
100
AcDbText
 10
-18.90717966897387
 20
-46.48171766909013
 30
0.0
 40
3.0
  1
１６Ｗ（８Ｗ＋８Ｗ）
100
AcDbText
  0
TEXT
  5
43
330
2
100
AcDbEntity
  8
MOJI1
100
AcDbText
 10
-18.90717966897387
 20
-56.48171766909013
 30
0.0
 40
3.0
  1
シリアル
100
AcDbText
  0
TEXT
  5
44
330
2
100
AcDbEntity
  8
MOJI1
100
AcDbText
 10
-18.90717966897387
 20
-51.48171766909013
 30
0.0
 40
3.0
  1
ビデオ／Ｓビデオ／ＰＣ／外部スピーカ
100
AcDbText
  0
TEXT
  5
45
330
2
100
AcDbEntity
  8
MOJI1
100
AcDbText
 10
-18.90717966897387
 20
-31.48171766909013
 30
0.0
 40
3.0
  1
７８６４３２画素（水平１０２４×垂直７６８）
100
AcDbText
  0
LINE
  5
46
330
2
100
AcDbEntity
  8
WAKU
 62
     4
100
AcDbLine
 10
-20.4071796689741
 20
-12.48171766909013
 30
0.0
 11
-20.4071796689741
 21
-57.48171766909013
 31
0.0
  0
TEXT
  5
47
330
2
100
AcDbEntity
  8
MOJI1
100
AcDbText
 10
-57.90717966897386
 20
-31.48171766909013
 30
0.0
 40
3.0
  1
画素数
100
AcDbText
  0
LINE
  5
48
330
2
100
AcDbEntity
  8
WAKU
 62
     4
100
AcDbLine
 10
64.5928203310259
 20
-12.48171766909013
 30
0.0
 11
64.5928203310259
 21
-57.48171766909013
 31
0.0
  0
LINE
  5
49
330
2
100
AcDbEntity
  8
WAKU
 62
     4
100
AcDbLine
 10
-60.4071796689741
 20
-12.48171766909013
 30
0.0
 11
-60.40717966897386
 21
-57.48171766909013
 31
0.0
  0
LINE
  5
4A
330
2
100
AcDbEntity
  8
WAKU
 62
     4
100
AcDbLine
 10
64.5928203310259
 20
-57.48171766909013
 30
0.0
 11
-60.40717966897386
 21
-57.48171766909013
 31
0.0
  0
LINE
  5
4B
330
2
100
AcDbEntity
  8
WAKU
 62
     1
100
AcDbLine
 10
-60.40717966897386
 20
-52.48171766909013
 30
0.0
 11
64.5928203310259
 21
-52.48171766909013
 31
0.0
  0
LINE
  5
4C
330
2
100
AcDbEntity
  8
WAKU
 62
     1
100
AcDbLine
 10
-60.40717966897386
 20
-47.48171766909012
 30
0.0
 11
64.5928203310259
 21
-47.48171766909012
 31
0.0
  0
LINE
  5
4D
330
2
100
AcDbEntity
  8
WAKU
 62
     1
100
AcDbLine
 10
-60.40717966897386
 20
-27.48171766909013
 30
0.0
 11
64.5928203310259
 21
-27.48171766909013
 31
0.0
  0
LINE
  5
4E
330
2
100
AcDbEntity
  8
WAKU
 62
     1
100
AcDbLine
 10
-60.40717966897386
 20
-17.48171766909013
 30
0.0
 11
64.5928203310259
 21
-17.48171766909013
 31
0.0
  0
LINE
  5
4F
330
2
100
AcDbEntity
  8
WAKU
 62
     4
100
AcDbLine
 10
-60.40717966897386
 20
-12.48171766909013
 30
0.0
 11
64.5928203310259
 21
-12.48171766909013
 31
0.0
  0
LINE
  5
50
330
2
100
AcDbEntity
  8
WAKU
 62
     1
100
AcDbLine
 10
-60.40717966897386
 20
-32.48171766909013
 30
0.0
 11
64.5928203310259
 21
-32.48171766909013
 31
0.0
  0
LINE
  5
51
330
2
100
AcDbEntity
  8
WAKU
 62
     1
100
AcDbLine
 10
-60.40717966897386
 20
-22.48171766909013
 30
0.0
 11
64.5928203310259
 21
-22.48171766909013
 31
0.0
  0
ELLIPSE
  5
52
330
2
100
AcDbEntity
  8
GAIKEI
  6
Continuous
 62
     1
100
AcDbEllipse
 10
-45.18686034525109
 20
32.74923191029541
 30
0.0
 11
-0.0079467640876592
 21
0.4318755208183608
 31
0.0
210
0.0
220
0.0
230
1.0
 40
0.0404429999982552
 41
4.285401047308635
 42
4.371811220305964
  0
ELLIPSE
  5
54
330
2
100
AcDbEntity
  8
GAIKEI
  6
Continuous
 62
     1
100
AcDbEllipse
 10
-45.18686034525103
 20
2.562971167260343
 30
0.0
 11
0.007946764087659
 21
0.4318755208183799
 31
0.0
210
0.0
220
0.0
230
1.0
 40
0.0404429999982537
 41
-1.230218566716188
 42
-1.143808393718863
  0
ELLIPSE
  5
55
330
2
100
AcDbEntity
  8
GAIKEI
  6
Continuous
 62
     1
100
AcDbEllipse
 10
-45.11195649054502
 20
32.82413576500153
 30
0.0
 11
-0.4318755208192348
 21
0.0079467640870345
 31
0.0
210
0.0
220
0.0
230
1.0
 40
0.0404429999987592
 41
1.911374086872785
 42
1.997784259870051
  0
ELLIPSE
  5
56
330
2
100
AcDbEntity
  8
GAIKEI
  6
Continuous
 62
     1
100
AcDbEllipse
 10
-45.11195649054502
 20
2.488067312554164
 30
0.0
 11
0.4318755208195003
 21
0.0079467640870295
 31
0.0
210
0.0
220
0.0
230
1.0
 40
0.0404429999987397
 41
1.14380839372002
 42
1.230218566717296
  0
ELLIPSE
  5
57
330
2
100
AcDbEntity
  8
GAIKEI
  6
Continuous
 62
     1
100
AcDbEllipse
 10
4.74901934042532
 20
2.562971167260343
 30
0.0
 11
-0.007946764091891
 21
0.4318755205240271
 31
0.0
210
0.0
220
0.0
230
1.0
 40
0.0404430000213599
 41
1.143808393408041
 42
1.23021856647389
  0
ELLIPSE
  5
58
330
2
100
AcDbEntity
  8
GAIKEI
  6
Continuous
 62
     1
100
AcDbEllipse
 10
4.74901934042532
 20
32.74923191029541
 30
0.0
 11
0.0079467640876545
 21
0.4318755208186895
 31
0.0
210
0.0
220
0.0
230
1.0
 40
0.0404429999982294
 41
1.911374086873349
 42
1.997784259870601
  0
ELLIPSE
  5
59
330
2
100
AcDbEntity
  8
GAIKEI
  6
Continuous
 62
     1
100
AcDbEllipse
 10
4.674115485719198
 20
32.82413576500153
 30
0.0
 11
0.4318755208195939
 21
0.007946764087639
 31
0.0
210
0.0
220
0.0
230
1.0
 40
0.040442999998161
 41
4.285401047309866
 42
4.37181122030712
  0
ELLIPSE
  5
5A
330
2
100
AcDbEntity
  8
GAIKEI
  6
Continuous
 62
     1
100
AcDbEllipse
 10
4.674115485719198
 20
2.488067312554164
 30
0.0
 11
-0.4318755208195887
 21
0.0079467640876391
 31
0.0
210
0.0
220
0.0
230
1.0
 40
0.0404429999981614
 41
-1.230218566717322
 42
-1.143808393720068
  0
ELLIPSE
  5
5B
330
2
100
AcDbEntity
  8
GAIKEI
  6
Continuous
 62
     1
100
AcDbEllipse
 10
-42.69742653888937
 20
30.66101574392377
 30
0.0
 11
-0.0641306772673077
 21
0.0819853242396075
 31
0.0
210
0.0
220
0.0
230
1.0
 40
0.9602119999885655
 41
-0.6513938849655593
 42
-0.3742724759626874
  0
ELLIPSE
  5
5C
330
2
100
AcDbEntity
  8
GAIKEI
  6
Continuous
 62
     1
100
AcDbEllipse
 10
2.290947696104694
 20
30.66101574392377
 30
0.0
 11
0.0641306772729958
 21
0.0819853242353328
 31
0.0
210
0.0
220
0.0
230
1.0
 40
0.9602119999921054
 41
0.3742724760321388
 42
0.6513938850329191
  0
ELLIPSE
  5
5D
330
2
100
AcDbEntity
  8
GAIKEI
  6
Continuous
 62
     1
100
AcDbEllipse
 10
-42.69742653888932
 20
4.783633723417892
 30
0.0
 11
0.0641306772804553
 21
0.0819853242296695
 31
0.0
210
0.0
220
0.0
230
1.0
 40
0.960211999997915
 41
3.515865129711884
 42
3.792986538710805
  0
ELLIPSE
  5
5E
330
2
100
AcDbEntity
  8
GAIKEI
  6
Continuous
 62
     1
100
AcDbEllipse
 10
2.290947696104694
 20
4.783633723417892
 30
0.0
 11
-0.0641306772997718
 21
0.081985324215292
 31
0.0
210
0.0
220
0.0
230
1.0
 40
0.9602120000078306
 41
2.490198768239517
 42
2.767320177232699
  0
ELLIPSE
  5
5F
330
2
100
AcDbEntity
  8
GAIKEI
  6
Continuous
 62
     1
100
AcDbEllipse
 10
-42.69741558791645
 20
30.66100479295091
 30
0.0
 11
-0.0820793596799872
 21
0.0640376871272272
 31
0.0
210
0.0
220
0.0
230
1.0
 40
0.960042000004322
 41
0.3752614366540838
 42
0.6500607538632135
  0
ELLIPSE
  5
60
330
2
100
AcDbEntity
  8
GAIKEI
  6
Continuous
 62
     1
100
AcDbEllipse
 10
-42.69741558791639
 20
4.78364467439087
 30
0.0
 11
0.0820793596877476
 21
0.0640376871167844
 31
0.0
210
0.0
220
0.0
230
1.0
 40
0.9600419999991443
 41
2.491531899849828
 42
2.766331217060938
  0
ELLIPSE
  5
61
330
2
100
AcDbEntity
  8
GAIKEI
  6
Continuous
 62
     1
100
AcDbEllipse
 10
2.29093674513183
 20
30.66100479295091
 30
0.0
 11
0.0820793596853468
 21
0.0640376871199563
 31
0.0
210
0.0
220
0.0
230
1.0
 40
0.9600420000016073
 41
-0.6500607537771041
 42
-0.3752614365658411
  0
ELLIPSE
  5
62
330
2
100
AcDbEntity
  8
GAIKEI
  6
Continuous
 62
     1
100
AcDbEllipse
 10
2.29093674513183
 20
4.78364467439087
 30
0.0
 11
-0.0820793596818472
 21
0.064037687124634
 31
0.0
210
0.0
220
0.0
230
1.0
 40
0.9600420000044229
 41
3.516854090213623
 42
3.791653407422807
  0
ELLIPSE
  5
63
330
2
100
AcDbEntity
  8
GAIKEI
  6
Continuous
 62
     1
100
AcDbEllipse
 10
2.290947696104694
 20
4.786372666754687
 30
0.0
 11
-0.0911712405080007
 21
0.1233277373757855
 31
0.0
210
0.0
220
0.0
230
1.0
 40
0.977625999999314
 41
2.515781018547835
 42
2.792902427545178
  0
ELLIPSE
  5
64
330
2
100
AcDbEntity
  8
GAIKEI
  6
Continuous
 62
     1
100
AcDbEllipse
 10
-42.69742653888932
 20
4.786372666754687
 30
0.0
 11
0.0911712404724387
 21
0.1233277374014959
 31
0.0
210
0.0
220
0.0
230
1.0
 40
0.9776259999899165
 41
3.490282879346349
 42
3.767404288348283
  0
ELLIPSE
  5
65
330
2
100
AcDbEntity
  8
GAIKEI
  6
Continuous
 62
     1
100
AcDbEllipse
 10
-42.69742653888937
 20
30.65827680058698
 30
0.0
 11
-0.0911712405137963
 21
0.1233277373716018
 31
0.0
210
0.0
220
0.0
230
1.0
 40
0.9776260000001293
 41
-0.6258116350885031
 42
-0.3486902260919513
  0
ELLIPSE
  5
66
330
2
100
AcDbEntity
  8
GAIKEI
  6
Continuous
 62
     1
100
AcDbEllipse
 10
2.290947696104694
 20
30.65827680058698
 30
0.0
 11
0.0911712405204928
 21
0.1233277373667308
 31
0.0
210
0.0
220
0.0
230
1.0
 40
0.9776260000027797
 41
0.3486902261462024
 42
0.6258116351416079
  0
ELLIPSE
  5
67
330
2
100
AcDbEntity
  8
GAIKEI
  6
Continuous
 62
     1
100
AcDbEllipse
 10
-42.6946367410344
 20
4.78364467439087
 30
0.0
 11
0.1234686257683748
 21
0.0910092022787943
 31
0.0
210
0.0
220
0.0
230
1.0
 40
0.9775040000039993
 41
2.51722575267712
 42
2.792025069887031
  0
ELLIPSE
  5
68
330
2
100
AcDbEntity
  8
GAIKEI
  6
Continuous
 62
     1
100
AcDbEllipse
 10
-42.69463674103445
 20
30.66100479295091
 30
0.0
 11
-0.1234686257922888
 21
0.0910092022455151
 31
0.0
210
0.0
220
0.0
230
1.0
 40
0.9775039999962212
 41
0.3495675834329772
 42
0.6243669006472979
  0
ELLIPSE
  5
69
330
2
100
AcDbEntity
  8
GAIKEI
  6
Continuous
 62
     1
100
AcDbEllipse
 10
2.288157898249778
 20
30.66100479295091
 30
0.0
 11
0.1234686257867853
 21
0.0910092022531102
 31
0.0
210
0.0
220
0.0
230
1.0
 40
0.977503999999106
 41
-0.624366900707318
 42
-0.3495675834944374
  0
ELLIPSE
  5
6A
330
2
100
AcDbEntity
  8
GAIKEI
  6
Continuous
 62
     1
100
AcDbEllipse
 10
2.288157898249778
 20
4.78364467439087
 30
0.0
 11
-0.1234686257771081
 21
0.0910092022665973
 31
0.0
210
0.0
220
0.0
230
1.0
 40
0.977504000001821
 41
3.491160237193698
 42
3.76595955440519
  0
ELLIPSE
  5
6B
330
2
100
AcDbEntity
  8
GAIKEI
  6
Continuous
 62
     1
100
AcDbEllipse
 10
4.674115485719198
 20
32.74923191029541
 30
0.0
 11
-0.0458035635644591
 21
0.4845611117803465
 31
0.0
210
0.0
220
0.0
230
1.0
 40
0.0083090000075435
 41
4.334209237380324
 42
4.420619410483875
  0
ELLIPSE
  5
6C
330
2
100
AcDbEntity
  8
GAIKEI
  6
Continuous
 62
     1
100
AcDbEllipse
 10
4.674115485719198
 20
32.74923191029541
 30
0.0
 11
-0.4845611135830396
 21
0.0458035637240449
 31
0.0
210
0.0
220
0.0
230
1.0
 40
0.0083089999805696
 41
-1.279026758011011
 42
-1.192616585267888
  0
ELLIPSE
  5
6D
330
2
100
AcDbEntity
  8
GAIKEI
  6
Continuous
 62
     1
100
AcDbEllipse
 10
4.674115485719198
 20
2.562971167260343
 30
0.0
 11
0.4845611134166674
 21
0.0458035637092121
 31
0.0
210
0.0
220
0.0
230
1.0
 40
0.0083089999831293
 41
4.334209238721307
 42
4.420619411497712
  0
ELLIPSE
  5
6E
330
2
100
AcDbEntity
  8
GAIKEI
  6
Continuous
 62
     1
100
AcDbEllipse
 10
4.674115485719198
 20
2.562971167260343
 30
0.0
 11
0.0458035635727632
 21
0.4845611118773601
 31
0.0
210
0.0
220
0.0
230
1.0
 40
0.0083090000063217
 41
-1.279026756954143
 42
-1.192616583870014
  0
ELLIPSE
  5
6F
330
2
100
AcDbEntity
  8
GAIKEI
  6
Continuous
 62
     1
100
AcDbEllipse
 10
3.82237416420412
 20
3.414712488775307
 30
0.0
 11
-0.5814136090118265
 21
0.5814136090118265
 31
0.0
210
0.0
220
0.0
230
1.0
 40
0.4561100000001053
 41
2.756538952253019
 42
3.526646354926448
  0
ELLIPSE
  5
70
330
2
100
AcDbEntity
  8
GAIKEI
  6
Continuous
 62
     1
100
AcDbEllipse
 10
-44.26021516902994
 20
3.414712488775307
 30
0.0
 11
0.5814136090118486
 21
0.5814136090118486
 31
0.0
210
0.0
220
0.0
230
1.0
 40
0.4561099999999815
 41
2.756538952252924
 42
3.526646354926543
  0
ELLIPSE
  5
71
330
2
100
AcDbEntity
  8
GAIKEI
  6
Continuous
 62
     1
100
AcDbEllipse
 10
3.82237416420412
 20
31.89749058878033
 30
0.0
 11
0.581413609011829
 21
0.581413609011829
 31
0.0
210
0.0
220
0.0
230
1.0
 40
0.4561099999999685
 41
5.898131605842851
 42
6.668239008516433
  0
ELLIPSE
  5
72
330
2
100
AcDbEntity
  8
GAIKEI
  6
Continuous
 62
     1
100
AcDbEllipse
 10
-44.26021516902994
 20
31.89749058878033
 30
0.0
 11
-0.581413609011845
 21
0.581413609011845
 31
0.0
210
0.0
220
0.0
230
1.0
 40
0.4561099999999933
 41
-0.3850537013368589
 42
0.3850537013368587
  0
ARC
  5
73
330
2
100
AcDbEntity
  8
GAIKEI
  6
Continuous
 62
     1
100
AcDbCircle
 10
-45.06899732391059
 20
32.70627274366103
 30
0.0
 40
0.2000177702400075
100
AcDbArc
 50
179.9215319999855
 51
180.0
  0
ARC
  5
74
330
2
100
AcDbEntity
  8
GAIKEI
  6
Continuous
 62
     1
100
AcDbCircle
 10
-45.06899732391059
 20
2.605930333894661
 30
0.0
 40
0.2000177702400075
100
AcDbArc
 50
180.0
 51
180.0784680000144
  0
ARC
  5
75
330
2
100
AcDbEntity
  8
GAIKEI
  6
Continuous
 62
     1
100
AcDbCircle
 10
4.63115631908488
 20
2.605930333894661
 30
0.0
 40
0.2000177702400075
100
AcDbArc
 50
359.9215319999856
 51
0.0
  0
ARC
  5
76
330
2
100
AcDbEntity
  8
GAIKEI
  6
Continuous
 62
     1
100
AcDbCircle
 10
4.631156319084823
 20
32.70627274366103
 30
0.0
 40
0.2000177702400075
100
AcDbArc
 50
0.0
 51
0.0784680000144216
  0
ARC
  5
77
330
2
100
AcDbEntity
  8
GAIKEI
  6
Continuous
 62
     1
100
AcDbCircle
 10
4.631156319084823
 20
32.70627274366103
 30
0.0
 40
0.2000177702400075
100
AcDbArc
 50
89.92153200000187
 51
90.0
  0
ARC
  5
78
330
2
100
AcDbEntity
  8
GAIKEI
  6
Continuous
 62
     1
100
AcDbCircle
 10
-45.06899732391059
 20
32.70627274366103
 30
0.0
 40
0.2000177702400075
100
AcDbArc
 50
90.0
 51
90.07846799999812
  0
ARC
  5
79
330
2
100
AcDbEntity
  8
GAIKEI
  6
Continuous
 62
     1
100
AcDbCircle
 10
-45.06899732391059
 20
2.605930333894661
 30
0.0
 40
0.2000177702400075
100
AcDbArc
 50
269.9215320000019
 51
270.0
  0
ARC
  5
7A
330
2
100
AcDbEntity
  8
GAIKEI
  6
Continuous
 62
     1
100
AcDbCircle
 10
4.63115631908488
 20
2.605930333894661
 30
0.0
 40
0.2000177702400075
100
AcDbArc
 50
270.0
 51
270.0784679999981
  0
ARC
  5
7B
330
2
100
AcDbEntity
  8
GAIKEI
  6
Continuous
 62
     7
100
AcDbCircle
 10
-45.06899732391059
 20
2.605930333894661
 30
0.0
 40
0.2000177702400075
100
AcDbArc
 50
180.0784680000144
 51
269.9215320000019
  0
ARC
  5
7C
330
2
100
AcDbEntity
  8
GAIKEI
  6
Continuous
 62
     7
100
AcDbCircle
 10
4.63115631908488
 20
2.605930333894661
 30
0.0
 40
0.2000177702400075
100
AcDbArc
 50
270.0784679999981
 51
359.9215319999856
  0
ARC
  5
7D
330
2
100
AcDbEntity
  8
GAIKEI
  6
Continuous
 62
     7
100
AcDbCircle
 10
-45.06899732391059
 20
32.70627274366103
 30
0.0
 40
0.2000177702400075
100
AcDbArc
 50
90.07846799999812
 51
179.9215319999855
  0
ARC
  5
7E
330
2
100
AcDbEntity
  8
GAIKEI
  6
Continuous
 62
     7
100
AcDbCircle
 10
4.631156319084823
 20
32.70627274366103
 30
0.0
 40
0.2000177702400075
100
AcDbArc
 50
0.0784680000144216
 51
89.92153200000187
  0
ARC
  5
7F
330
2
100
AcDbEntity
  8
GAIKEI
  6
Continuous
 62
     1
100
AcDbCircle
 10
-42.70165876489431
 20
30.66524141934678
 30
0.0
 40
0.0982869821404501
100
AcDbArc
 50
105.7493539999931
 51
164.380544000005
  0
ARC
  5
80
330
2
100
AcDbEntity
  8
GAIKEI
  6
Continuous
 62
     1
100
AcDbCircle
 10
2.295179922109696
 20
30.66524141934678
 30
0.0
 40
0.0982869821404501
100
AcDbArc
 50
15.61945599999503
 51
74.25064600000684
  0
ARC
  5
81
330
2
100
AcDbEntity
  8
GAIKEI
  6
Continuous
 62
     1
100
AcDbCircle
 10
-43.63614556351388
 20
3.998618608781271
 30
0.0
 40
0.1000088851200038
100
AcDbArc
 50
180.0
 51
270.0
  0
ARC
  5
82
330
2
100
AcDbEntity
  8
GAIKEI
  6
Continuous
 62
     1
100
AcDbCircle
 10
3.229666720729369
 20
3.998618608781271
 30
0.0
 40
0.1000088851200038
100
AcDbArc
 50
270.0
 51
0.0
  0
ARC
  5
83
330
2
100
AcDbEntity
  8
GAIKEI
  6
Continuous
 62
     1
100
AcDbCircle
 10
-43.63614556351393
 20
31.29858271930266
 30
0.0
 40
0.1000088851200038
100
AcDbArc
 50
90.0
 51
180.0
  0
ARC
  5
84
330
2
100
AcDbEntity
  8
GAIKEI
  6
Continuous
 62
     1
100
AcDbCircle
 10
3.229666720729369
 20
31.29858271930266
 30
0.0
 40
0.1000088851200038
100
AcDbArc
 50
0.0
 51
90.0
  0
ARC
  5
85
330
2
100
AcDbEntity
  8
GAIKEI
  6
Continuous
 62
     1
100
AcDbCircle
 10
-42.7522076558248
 20
3.228485643766703
 30
0.0
 40
0.025002221280001
100
AcDbArc
 50
90.0
 51
180.0
  0
ARC
  5
86
330
2
100
AcDbEntity
  8
GAIKEI
  6
Continuous
 62
     1
100
AcDbCircle
 10
-42.4521810004648
 20
3.228485643766703
 30
0.0
 40
0.025002221280001
100
AcDbArc
 50
0.0
 51
90.0
  0
ARC
  5
87
330
2
100
AcDbEntity
  8
GAIKEI
  6
Continuous
 62
     1
100
AcDbCircle
 10
-42.7522076558248
 20
2.928458988406646
 30
0.0
 40
0.025002221280001
100
AcDbArc
 50
180.0
 51
270.0
  0
ARC
  5
88
330
2
100
AcDbEntity
  8
GAIKEI
  6
Continuous
 62
     1
100
AcDbCircle
 10
-42.4521810004648
 20
2.928458988406646
 30
0.0
 40
0.025002221280001
100
AcDbArc
 50
270.0
 51
0.0
  0
ARC
  5
89
330
2
100
AcDbEntity
  8
GAIKEI
  6
Continuous
 62
     1
100
AcDbCircle
 10
3.229666720729369
 20
31.29858271930266
 30
0.0
 40
0.2019818947393219
100
AcDbArc
 50
0.0
 51
90.0
  0
ARC
  5
8A
330
2
100
AcDbEntity
  8
GAIKEI
  6
Continuous
 62
     1
100
AcDbCircle
 10
3.229666720729369
 20
3.998618608781271
 30
0.0
 40
0.2019818947393219
100
AcDbArc
 50
270.0
 51
0.0
  0
ARC
  5
8B
330
2
100
AcDbEntity
  8
GAIKEI
  6
Continuous
 62
     1
100
AcDbCircle
 10
-43.63614556351393
 20
31.29858271930266
 30
0.0
 40
0.2019818947393219
100
AcDbArc
 50
90.0
 51
180.0
  0
ARC
  5
8C
330
2
100
AcDbEntity
  8
GAIKEI
  6
Continuous
 62
     1
100
AcDbCircle
 10
-43.63614556351388
 20
3.998618608781271
 30
0.0
 40
0.2019818947393219
100
AcDbArc
 50
180.0
 51
270.0
  0
LINE
  5
8D
330
2
100
AcDbEntity
  8
GAIKEI
  6
Continuous
 62
     7
100
AcDbLine
 10
-45.26901509415063
 20
32.70627274366103
 30
0.0
 11
-45.26901509415063
 21
2.605930333894661
 31
0.0
  0
LINE
  5
8E
330
2
100
AcDbEntity
  8
GAIKEI
  6
Continuous
 62
     7
100
AcDbLine
 10
4.831174089324804
 20
32.70627274366103
 30
0.0
 11
4.831174089324804
 21
2.605930333894661
 31
0.0
  0
LINE
  5
8F
330
2
100
AcDbEntity
  8
GAIKEI
  6
Continuous
 62
     7
100
AcDbLine
 10
-45.06899732391059
 20
32.90629051390101
 30
0.0
 11
4.631156319084823
 21
32.90629051390101
 31
0.0
  0
LINE
  5
90
330
2
100
AcDbEntity
  8
GAIKEI
  6
Continuous
 62
     7
100
AcDbLine
 10
-45.06899732391059
 20
2.405912563654624
 30
0.0
 11
4.63115631908488
 21
2.405912563654624
 31
0.0
  0
LINE
  5
91
330
2
100
AcDbEntity
  8
GAIKEI
  6
Continuous
 62
     1
100
AcDbLine
 10
-45.16774294679817
 20
2.706928406897418
 30
0.0
 11
-45.26901489413285
 21
2.605656409558321
 31
0.0
  0
LINE
  5
92
330
2
100
AcDbEntity
  8
GAIKEI
  6
Continuous
 62
     1
100
AcDbLine
 10
-45.06927124824699
 20
2.405912763672404
 30
0.0
 11
-44.96799925090783
 21
2.507184711007027
 31
0.0
  0
LINE
  5
93
330
2
100
AcDbEntity
  8
GAIKEI
  6
Continuous
 62
     1
100
AcDbLine
 10
-44.96799925090783
 20
32.80501836654867
 30
0.0
 11
-45.06927124824699
 21
32.90629031388329
 31
0.0
  0
LINE
  5
94
330
2
100
AcDbEntity
  8
GAIKEI
  6
Continuous
 62
     1
100
AcDbLine
 10
-45.26901489413285
 20
32.70654666799738
 30
0.0
 11
-45.16774294679817
 21
32.60527467065827
 31
0.0
  0
LINE
  5
95
330
2
100
AcDbEntity
  8
GAIKEI
  6
Continuous
 62
     1
100
AcDbLine
 10
4.530158246082066
 20
32.80501836654867
 30
0.0
 11
4.63143024342122
 21
32.90629031388329
 31
0.0
  0
LINE
  5
96
330
2
100
AcDbEntity
  8
GAIKEI
  6
Continuous
 62
     1
100
AcDbLine
 10
4.831173889307081
 20
32.70654666799738
 30
0.0
 11
4.729901941972514
 21
32.60527467065827
 31
0.0
  0
LINE
  5
97
330
2
100
AcDbEntity
  8
GAIKEI
  6
Continuous
 62
     1
100
AcDbLine
 10
-45.16767134043653
 20
32.57067134638453
 30
0.0
 11
-45.16767134043653
 21
2.741531731171107
 31
0.0
  0
LINE
  5
98
330
2
100
AcDbEntity
  8
GAIKEI
  6
Continuous
 62
     1
100
AcDbLine
 10
4.729830335610756
 20
32.57067134638453
 30
0.0
 11
4.729830335610813
 21
2.741531731171107
 31
0.0
  0
LINE
  5
99
330
2
100
AcDbEntity
  8
GAIKEI
  6
Continuous
 62
     1
100
AcDbLine
 10
4.495554921808434
 20
32.80494676018691
 30
0.0
 11
-44.93339592663414
 21
32.80494676018691
 31
0.0
  0
LINE
  5
9A
330
2
100
AcDbEntity
  8
GAIKEI
  6
Continuous
 62
     1
100
AcDbLine
 10
-44.93339592663414
 20
2.507256317368785
 30
0.0
 11
4.495554921808434
 21
2.507256317368785
 31
0.0
  0
LINE
  5
9B
330
2
100
AcDbEntity
  8
GAIKEI
  6
Continuous
 62
     1
100
AcDbLine
 10
2.294217336590349
 20
30.76354880329978
 30
0.0
 11
-42.70069617937503
 21
30.76354880329978
 31
0.0
  0
LINE
  5
9C
330
2
100
AcDbEntity
  8
GAIKEI
  6
Continuous
 62
     1
100
AcDbLine
 10
-42.70069617937497
 20
4.681100664041878
 30
0.0
 11
2.294217336590349
 21
4.681100664041935
 31
0.0
  0
LINE
  5
9D
330
2
100
AcDbEntity
  8
GAIKEI
  6
Continuous
 62
     1
100
AcDbLine
 10
-42.79996374863407
 20
30.66428953477822
 30
0.0
 11
-42.79996374863401
 21
4.780359932563555
 31
0.0
  0
LINE
  5
9E
330
2
100
AcDbEntity
  8
GAIKEI
  6
Continuous
 62
     1
100
AcDbLine
 10
2.39348490584939
 20
30.66428953477822
 30
0.0
 11
2.39348490584939
 21
4.780359932563555
 31
0.0
  0
LINE
  5
9F
330
2
100
AcDbEntity
  8
GAIKEI
  6
Continuous
 62
     1
100
AcDbLine
 10
2.294217336590349
 20
4.634207847929076
 30
0.0
 11
-42.70069617937497
 21
4.634207847929076
 31
0.0
  0
LINE
  5
A0
330
2
100
AcDbEntity
  8
GAIKEI
  6
Continuous
 62
     1
100
AcDbLine
 10
-42.70069617937503
 20
30.81044161941259
 30
0.0
 11
2.294217336590349
 21
30.81044161941259
 31
0.0
  0
LINE
  5
A1
330
2
100
AcDbEntity
  8
GAIKEI
  6
Continuous
 62
     1
100
AcDbLine
 10
-43.63614556351393
 20
31.39859160442262
 30
0.0
 11
3.229666720729369
 21
31.39859160442262
 31
0.0
  0
LINE
  5
A2
330
2
100
AcDbEntity
  8
GAIKEI
  6
Continuous
 62
     1
100
AcDbLine
 10
3.229666720729369
 20
3.898609723661309
 30
0.0
 11
-43.63614556351388
 21
3.898609723661309
 31
0.0
  0
LINE
  5
A3
330
2
100
AcDbEntity
  8
GAIKEI
  6
Continuous
 62
     1
100
AcDbLine
 10
-43.73615444863389
 20
3.998618608781271
 30
0.0
 11
-43.73615444863395
 21
31.29858271930266
 31
0.0
  0
LINE
  5
A4
330
2
100
AcDbEntity
  8
GAIKEI
  6
Continuous
 62
     1
100
AcDbLine
 10
-42.84681661119726
 20
4.780359932563555
 30
0.0
 11
-42.84681661119731
 21
30.66428953477822
 31
0.0
  0
LINE
  5
A5
330
2
100
AcDbEntity
  8
GAIKEI
  6
Continuous
 62
     1
100
AcDbLine
 10
3.329675605849388
 20
3.998618608781271
 30
0.0
 11
3.329675605849388
 21
31.29858271930266
 31
0.0
  0
LINE
  5
A6
330
2
100
AcDbEntity
  8
GAIKEI
  6
Continuous
 62
     1
100
AcDbLine
 10
2.440337768412632
 20
4.780359932563555
 30
0.0
 11
2.440337768412632
 21
30.66428953477822
 31
0.0
  0
LINE
  5
A7
330
2
100
AcDbEntity
  8
GAIKEI
  6
Continuous
 62
     1
100
AcDbLine
 10
-43.7276579437763
 20
3.961616771415663
 30
0.0
 11
-42.84110675391462
 21
4.739475350242059
 31
0.0
  0
LINE
  5
A8
330
2
100
AcDbEntity
  8
GAIKEI
  6
Continuous
 62
     1
100
AcDbLine
 10
-42.74191694156371
 20
4.640013413714711
 30
0.0
 11
-43.59253875844422
 21
3.898609723661309
 31
0.0
  0
LINE
  5
A9
330
2
100
AcDbEntity
  8
GAIKEI
  6
Continuous
 62
     1
100
AcDbLine
 10
3.321179100991798
 20
3.961616771415663
 30
0.0
 11
2.434627911130064
 21
4.739475350242059
 31
0.0
  0
LINE
  5
AA
330
2
100
AcDbEntity
  8
GAIKEI
  6
Continuous
 62
     1
100
AcDbLine
 10
2.335438098779263
 20
4.640013413714711
 30
0.0
 11
3.186059915659711
 21
3.898609723661309
 31
0.0
  0
LINE
  5
AB
330
2
100
AcDbEntity
  8
GAIKEI
  6
Continuous
 62
     1
100
AcDbLine
 10
-42.84110675391469
 20
30.70517411709972
 30
0.0
 11
-43.72765794377636
 21
31.33558455666827
 31
0.0
  0
LINE
  5
AC
330
2
100
AcDbEntity
  8
GAIKEI
  6
Continuous
 62
     1
100
AcDbLine
 10
-43.5913127304168
 20
31.39734764390516
 30
0.0
 11
-42.74191694156377
 21
30.80463605362695
 31
0.0
  0
LINE
  5
AD
330
2
100
AcDbEntity
  8
GAIKEI
  6
Continuous
 62
     1
100
AcDbLine
 10
3.186059915659598
 20
31.39859160442274
 30
0.0
 11
2.33543809877915
 21
30.80463605362695
 31
0.0
  0
LINE
  5
AE
330
2
100
AcDbEntity
  8
GAIKEI
  6
Continuous
 62
     1
100
AcDbLine
 10
2.43462791112995
 20
30.70517411709972
 30
0.0
 11
3.321179100991798
 21
31.33558455666827
 31
0.0
  0
LINE
  5
AF
330
2
100
AcDbEntity
  8
GAIKEI
  6
Continuous
 62
     1
100
AcDbLine
 10
-45.13261032549997
 20
2.741531731171107
 30
0.0
 11
-45.13261032549997
 21
32.57067134638453
 31
0.0
  0
LINE
  5
B0
330
2
100
AcDbEntity
  8
GAIKEI
  6
Continuous
 62
     1
100
AcDbLine
 10
-44.93339592663414
 20
32.76988574525041
 30
0.0
 11
4.495554921808434
 21
32.76988574525041
 31
0.0
  0
LINE
  5
B1
330
2
100
AcDbEntity
  8
GAIKEI
  6
Continuous
 62
     1
100
AcDbLine
 10
4.694769320674254
 20
2.741531731171107
 30
0.0
 11
4.694769320674197
 21
32.57067134638453
 31
0.0
  0
LINE
  5
B2
330
2
100
AcDbEntity
  8
GAIKEI
  6
Continuous
 62
     1
100
AcDbLine
 10
4.495554921808434
 20
2.542317332305287
 30
0.0
 11
-44.93339592663414
 21
2.542317332305287
 31
0.0
  0
LINE
  5
B3
330
2
100
AcDbEntity
  8
GAIKEI
  6
Continuous
 62
     1
100
AcDbLine
 10
-45.13261032549997
 20
32.57067134638453
 30
0.0
 11
-44.89866389092521
 21
32.33672491180988
 31
0.0
  0
LINE
  5
B4
330
2
100
AcDbEntity
  8
GAIKEI
  6
Continuous
 62
     1
100
AcDbLine
 10
-44.69944949205944
 20
32.53593931067576
 30
0.0
 11
-44.93339592663414
 21
32.76988574525041
 31
0.0
  0
LINE
  5
B5
330
2
100
AcDbEntity
  8
GAIKEI
  6
Continuous
 62
     1
100
AcDbLine
 10
-44.93339592663414
 20
2.542317332305287
 30
0.0
 11
-44.69944949205944
 21
2.776263766880049
 31
0.0
  0
LINE
  5
B6
330
2
100
AcDbEntity
  8
GAIKEI
  6
Continuous
 62
     1
100
AcDbLine
 10
-44.89866389092514
 20
2.975478165745812
 30
0.0
 11
-45.13261032549997
 21
2.741531731171107
 31
0.0
  0
LINE
  5
B7
330
2
100
AcDbEntity
  8
GAIKEI
  6
Continuous
 62
     1
100
AcDbLine
 10
4.694769320674197
 20
32.57067134638453
 30
0.0
 11
4.460822886099549
 21
32.33672491180988
 31
0.0
  0
LINE
  5
B8
330
2
100
AcDbEntity
  8
GAIKEI
  6
Continuous
 62
     1
100
AcDbLine
 10
4.261608487233672
 20
32.53593931067576
 30
0.0
 11
4.495554921808434
 21
32.76988574525041
 31
0.0
  0
LINE
  5
B9
330
2
100
AcDbEntity
  8
GAIKEI
  6
Continuous
 62
     1
100
AcDbLine
 10
4.495554921808434
 20
2.542317332305287
 30
0.0
 11
4.261608487233729
 21
2.776263766880049
 31
0.0
  0
LINE
  5
BA
330
2
100
AcDbEntity
  8
GAIKEI
  6
Continuous
 62
     1
100
AcDbLine
 10
4.460822886099549
 20
2.975478165745812
 30
0.0
 11
4.694769320674254
 21
2.741531731171107
 31
0.0
  0
LINE
  5
BB
330
2
100
AcDbEntity
  8
GAIKEI
  6
Continuous
 62
     1
100
AcDbLine
 10
-44.16641713570254
 20
3.023467429270738
 30
0.0
 11
-44.27642690933453
 21
3.023467429270738
 31
0.0
  0
LINE
  5
BC
330
2
100
AcDbEntity
  8
GAIKEI
  6
Continuous
 62
     1
100
AcDbLine
 10
-42.42717877918488
 20
3.228485643766703
 30
0.0
 11
-42.42717877918488
 21
2.928458988406646
 31
0.0
  0
LINE
  5
BD
330
2
100
AcDbEntity
  8
GAIKEI
  6
Continuous
 62
     1
100
AcDbLine
 10
-44.27642690933453
 20
3.023467429270738
 30
0.0
 11
-44.27642690933453
 21
3.133477202902668
 31
0.0
  0
LINE
  5
BE
330
2
100
AcDbEntity
  8
GAIKEI
  6
Continuous
 62
     1
100
AcDbLine
 10
-44.27642690933453
 20
3.133477202902668
 30
0.0
 11
-44.16641713570254
 21
3.133477202902668
 31
0.0
  0
LINE
  5
BF
330
2
100
AcDbEntity
  8
GAIKEI
  6
Continuous
 62
     1
100
AcDbLine
 10
-44.16641713570254
 20
3.133477202902668
 30
0.0
 11
-44.16641713570254
 21
3.023467429270738
 31
0.0
  0
LINE
  5
C0
330
2
100
AcDbEntity
  8
GAIKEI
  6
Continuous
 62
     1
100
AcDbLine
 10
-42.4521810004648
 20
2.90345676712667
 30
0.0
 11
-42.7522076558248
 21
2.90345676712667
 31
0.0
  0
LINE
  5
C1
330
2
100
AcDbEntity
  8
GAIKEI
  6
Continuous
 62
     1
100
AcDbLine
 10
-42.77720987710483
 20
2.928458988406646
 30
0.0
 11
-42.77720987710483
 21
3.228485643766703
 31
0.0
  0
LINE
  5
C2
330
2
100
AcDbEntity
  8
GAIKEI
  6
Continuous
 62
     1
100
AcDbLine
 10
-42.7522076558248
 20
3.253487865046736
 30
0.0
 11
-42.4521810004648
 21
3.253487865046736
 31
0.0
  0
LINE
  5
C3
330
2
100
AcDbEntity
  8
GAIKEI
  6
Continuous
 62
     1
100
AcDbLine
 10
3.229666720729369
 20
31.50056461404205
 30
0.0
 11
-43.63614556351393
 21
31.50056461404205
 31
0.0
  0
LINE
  5
C4
330
2
100
AcDbEntity
  8
GAIKEI
  6
Continuous
 62
     1
100
AcDbLine
 10
-43.63614556351388
 20
3.796636714041994
 30
0.0
 11
3.229666720729369
 21
3.796636714041994
 31
0.0
  0
LINE
  5
C5
330
2
100
AcDbEntity
  8
GAIKEI
  6
Continuous
 62
     1
100
AcDbLine
 10
3.431648615468702
 20
31.29858271930266
 30
0.0
 11
3.431648615468702
 21
3.998618608781271
 31
0.0
  0
LINE
  5
C6
330
2
100
AcDbEntity
  8
GAIKEI
  6
Continuous
 62
     1
100
AcDbLine
 10
-43.83812745825326
 20
31.29858271930266
 30
0.0
 11
-43.83812745825321
 21
3.998618608781271
 31
0.0
  0
LINE
  5
C7
330
2
100
AcDbEntity
  8
GAIKEI
  6
Continuous
 62
     1
100
AcDbLine
 10
-44.89866389092521
 20
32.33672491180988
 30
0.0
 11
-44.89866389092514
 21
2.975478165745812
 31
0.0
  0
LINE
  5
C8
330
2
100
AcDbEntity
  8
GAIKEI
  6
Continuous
 62
     1
100
AcDbLine
 10
4.261608487233672
 20
32.53593931067576
 30
0.0
 11
-44.69944949205944
 21
32.53593931067576
 31
0.0
  0
LINE
  5
C9
330
2
100
AcDbEntity
  8
GAIKEI
  6
Continuous
 62
     1
100
AcDbLine
 10
4.460822886099549
 20
32.33672491180988
 30
0.0
 11
4.460822886099549
 21
2.975478165745812
 31
0.0
  0
LINE
  5
CA
330
2
100
AcDbEntity
  8
GAIKEI
  6
Continuous
 62
     1
100
AcDbLine
 10
-44.69944949205944
 20
2.776263766880049
 30
0.0
 11
4.261608487233729
 21
2.776263766880049
 31
0.0
  0
SPLINE
  5
CB
330
2
100
AcDbEntity
  8
GAIKEI
  6
Continuous
 62
     1
100
AcDbSpline
210
0.0
220
0.0
230
1.0
 70
     8
 71
     3
 72
    21
 73
    17
 74
    15
 42
0.0000000001
 43
0.0000000001
 44
0.000001
 12
-0.0001490760298766
 22
-0.9999999888881687
 32
0.0
 13
0.9999997489039975
 23
0.0007086550233522
 33
0.0
 40
0.0
 40
0.0
 40
0.0
 40
0.0
 40
0.0220203622856797
 40
0.0441150886358827
 40
0.0661420247968157
 40
0.0881945815693549
 40
0.1103152820563025
 40
0.1323682426974143
 40
0.1546938208840815
 40
0.1770898850745103
 40
0.1994152170311259
 40
0.221813829089192
 40
0.2442838362701891
 40
0.2666822908844066
 40
0.290170991896447
 40
0.3136542532514603
 40
0.3136542532514603
 40
0.3136542532514603
 40
0.3136542532514603
 10
-45.16774292718207
 20
2.706928383460592
 30
0.0
 10
-45.16774402141814
 20
2.699588262780267
 30
0.0
 10
-45.16694423912497
 20
2.684869769407526
 30
0.0
 10
-45.16331620446734
 20
2.663080345964814
 30
0.0
 10
-45.15733093462438
 20
2.64180167478527
 30
0.0
 10
-45.14896985149872
 20
2.621330331522102
 30
0.0
 10
-45.13842083518952
 20
2.601889438803738
 30
0.0
 10
-45.12576016398305
 20
2.583638335318227
 30
0.0
 10
-45.11104819339126
 20
2.566872168264737
 30
0.0
 10
-45.09451203520336
 20
2.55177163189279
 30
0.0
 10
-45.07638906335043
 20
2.5385707065154
 30
0.0
 10
-45.05685137098021
 20
2.52752041092215
 30
0.0
 10
-45.03618958673837
 20
2.518694709922328
 30
0.0
 10
-45.01432247312886
 20
2.51211742213546
 30
0.0
 10
-44.99150009709469
 20
2.50808360255823
 30
0.0
 10
-44.97582702616409
 20
2.507179183446083
 30
0.0
 10
-44.9679992743446
 20
2.507184730623123
 30
0.0
 11
-45.16774292718207
 21
2.706928383460592
 31
0.0
 11
-45.16654273788276
 21
2.684940186897449
 31
0.0
 11
-45.16291943681449
 21
2.663144565876507
 31
0.0
 11
-45.1569393917348
 21
2.641944902971033
 31
0.0
 11
-45.1486160456177
 21
2.621523387960962
 31
0.0
 11
-45.13806627644294
 21
2.602080426891291
 31
0.0
 11
-45.12548474907669
 21
2.583968575237634
 31
0.0
 11
-45.11077117690774
 21
2.567177410104079
 31
0.0
 11
-45.09423314073228
 21
2.552075157596959
 31
0.0
 11
-45.07617820480686
 21
2.538943488702045
 31
0.0
 11
-45.05668947779065
 21
2.527903188666698
 31
0.0
 11
-45.03602495760389
 21
2.519078238938618
 31
0.0
 11
-45.01457239780427
 21
2.512637777501993
 31
0.0
 11
-44.99144400590433
 21
2.508539344192229
 31
0.0
 11
-44.9679992743446
 21
2.507184730623123
 31
0.0
  0
SPLINE
  5
CC
330
2
100
AcDbEntity
  8
GAIKEI
  6
Continuous
 62
     1
100
AcDbSpline
210
0.0
220
0.0
230
1.0
 70
     8
 71
     3
 72
    21
 73
    17
 74
    15
 42
0.0000000001
 43
0.0000000001
 44
0.000001
 12
0.0001490760298765
 22
-0.9999999888881687
 32
0.0
 13
-0.9999997489039975
 23
0.000708655023352
 33
0.0
 40
0.0
 40
0.0
 40
0.0
 40
0.0
 40
0.0220203622856797
 40
0.0441150886358827
 40
0.0661420247968157
 40
0.0881945815693549
 40
0.1103152820563025
 40
0.1323682426974143
 40
0.1546938208841564
 40
0.1770898850745013
 40
0.1994152170312089
 40
0.221813829089176
 40
0.2442838362702777
 40
0.2666822908843863
 40
0.2901709918964266
 40
0.3136542532513265
 40
0.3136542532513265
 40
0.3136542532513265
 40
0.3136542532513265
 10
4.729901922356361
 20
2.706928383460592
 30
0.0
 10
4.72990301659243
 20
2.699588262780267
 30
0.0
 10
4.729103234299287
 20
2.684869769407526
 30
0.0
 10
4.725475199641579
 20
2.663080345964814
 30
0.0
 10
4.719489929798726
 20
2.64180167478527
 30
0.0
 10
4.711128846673005
 20
2.621330331522102
 30
0.0
 10
4.700579830363807
 20
2.601889438803738
 30
0.0
 10
4.687919159157274
 20
2.583638335318141
 30
0.0
 10
4.673207188565413
 20
2.566872168264836
 30
0.0
 10
4.656671030377651
 20
2.551771631892677
 30
0.0
 10
4.638548058524634
 20
2.538570706515486
 30
0.0
 10
4.619010366154384
 20
2.527520410922107
 30
0.0
 10
4.598348581912688
 20
2.518694709922357
 30
0.0
 10
4.576481468303086
 20
2.51211742213546
 30
0.0
 10
4.553659092268986
 20
2.508083602558244
 30
0.0
 10
4.537986021338468
 20
2.507179183446083
 30
0.0
 10
4.530158269519006
 20
2.507184730623123
 30
0.0
 11
4.729901922356361
 21
2.706928383460592
 31
0.0
 11
4.72870173305705
 21
2.684940186897449
 31
0.0
 11
4.725078431988777
 21
2.663144565876507
 31
0.0
 11
4.719098386909081
 21
2.641944902971033
 31
0.0
 11
4.710775040791986
 21
2.621523387960962
 31
0.0
 11
4.700225271617227
 21
2.602080426891291
 31
0.0
 11
4.687643744250976
 21
2.583968575237634
 31
0.0
 11
4.672930172081919
 21
2.567177410104079
 31
0.0
 11
4.656392135906571
 21
2.552075157596959
 31
0.0
 11
4.638337199981037
 21
2.538943488702045
 31
0.0
 11
4.618848472964941
 21
2.527903188666698
 31
0.0
 11
4.598183952778072
 21
2.519078238938618
 31
0.0
 11
4.576731392978558
 21
2.512637777501993
 31
0.0
 11
4.553603001078613
 21
2.508539344192229
 31
0.0
 11
4.530158269519006
 21
2.507184730623123
 31
0.0
  0
SPLINE
  5
CD
330
2
100
AcDbEntity
  8
GAIKEI
  6
Continuous
 62
     1
100
AcDbSpline
210
0.0
220
0.0
230
1.0
 70
     8
 71
     3
 72
    21
 73
    17
 74
    15
 42
0.0000000001
 43
0.0000000001
 44
0.000001
 12
-0.9999999888881687
 22
0.0001490760296198
 32
0.0
 13
0.0007086550231108
 23
-0.9999997489039975
 33
0.0
 40
0.0
 40
0.0
 40
0.0
 40
0.0
 40
0.0220203622857365
 40
0.0441150886359557
 40
0.0661420247968579
 40
0.0881945815694112
 40
0.1103152820562786
 40
0.1323682426973904
 40
0.1546938208841218
 40
0.1770898850744763
 40
0.1994152170312371
 40
0.2218138290891692
 40
0.2442838362702709
 40
0.2666822908844258
 40
0.2901709918964637
 40
0.3136542532513404
 40
0.3136542532513404
 40
0.3136542532513404
 40
0.3136542532513404
 10
-44.96799927434466
 20
32.80501834693257
 30
0.0
 10
-44.975339395025
 20
32.80501944116863
 30
0.0
 10
-44.99005788839781
 20
32.80421965887555
 30
0.0
 10
-45.01184731184042
 20
32.80059162421762
 30
0.0
 10
-45.03312598302009
 20
32.79460635437505
 30
0.0
 10
-45.05359732628313
 20
32.78624527124899
 30
0.0
 10
-45.07303821900157
 20
32.77569625494006
 30
0.0
 10
-45.09128932248706
 20
32.76303558373355
 30
0.0
 10
-45.10805548954039
 20
32.74832361314166
 30
0.0
 10
-45.1231560259126
 20
32.73178745495383
 30
0.0
 10
-45.13635695128985
 20
32.71366448310087
 30
0.0
 10
-45.14740724688317
 20
32.69412679073058
 30
0.0
 10
-45.15623294788286
 20
32.67346500648883
 30
0.0
 10
-45.16281023566995
 20
32.65159789287928
 30
0.0
 10
-45.16684405524713
 20
32.62877551684522
 30
0.0
 10
-45.16774847435911
 20
32.61310244591467
 30
0.0
 10
-45.16774292718207
 20
32.60527469409522
 30
0.0
 11
-44.96799927434466
 21
32.80501834693257
 31
0.0
 11
-44.98998747090786
 21
32.80381815763326
 31
0.0
 11
-45.0117830919288
 21
32.80019485656487
 31
0.0
 11
-45.03298275483428
 21
32.79421481148529
 31
0.0
 11
-45.05340426984429
 21
32.78589146536808
 31
0.0
 11
-45.07284723091396
 21
32.77534169619344
 31
0.0
 11
-45.09095908256762
 21
32.76276016882718
 31
0.0
 11
-45.10775024770118
 21
32.74804659665813
 31
0.0
 11
-45.1228525002083
 21
32.73150856048278
 31
0.0
 11
-45.13598416910326
 21
32.71345362455725
 31
0.0
 11
-45.14702446913855
 21
32.69396489754115
 31
0.0
 11
-45.15584941886664
 21
32.67330037735428
 31
0.0
 11
-45.16228988030337
 21
32.65184781755477
 31
0.0
 11
-45.16638831361314
 21
32.62871942565482
 31
0.0
 11
-45.16774292718207
 21
32.60527469409522
 31
0.0
  0
SPLINE
  5
CE
330
2
100
AcDbEntity
  8
GAIKEI
  6
Continuous
 62
     1
100
AcDbSpline
210
0.0
220
0.0
230
1.0
 70
     8
 71
     3
 72
    21
 73
    17
 74
    15
 42
0.0000000001
 43
0.0000000001
 44
0.000001
 12
0.9999999888881687
 22
0.00014907602962
 32
0.0
 13
-0.0007086550231109
 23
-0.9999997489039975
 33
0.0
 40
0.0
 40
0.0
 40
0.0
 40
0.0
 40
0.0220203622856797
 40
0.044115088635899
 40
0.0661420247966917
 40
0.0881945815692977
 40
0.110315282056265
 40
0.1323682426972834
 40
0.1546938208840148
 40
0.177089885074331
 40
0.1994152170311587
 40
0.2218138290890628
 40
0.2442838362701868
 40
0.2666822908843253
 40
0.2901709918963632
 40
0.3136542532512432
 40
0.3136542532512432
 40
0.3136542532512432
 40
0.3136542532512432
 10
4.530158269519006
 20
32.80501834693257
 30
0.0
 10
4.537498390199345
 20
32.80501944116863
 30
0.0
 10
4.552216883572071
 20
32.80421965887558
 30
0.0
 10
4.574006307014656
 20
32.8005916242176
 30
0.0
 10
4.595284978194371
 20
32.79460635437505
 30
0.0
 10
4.615756321457354
 20
32.78624527124896
 30
0.0
 10
4.635197214175889
 20
32.77569625494014
 30
0.0
 10
4.653448317661258
 20
32.7630355837335
 30
0.0
 10
4.670214484714705
 20
32.74832361314168
 30
0.0
 10
4.685315021086722
 20
32.73178745495379
 30
0.0
 10
4.698515946464169
 20
32.71366448310094
 30
0.0
 10
4.709566242057348
 20
32.69412679073056
 30
0.0
 10
4.718391943057213
 20
32.67346500648887
 30
0.0
 10
4.724969230844124
 20
32.6515978928793
 30
0.0
 10
4.729003050421397
 20
32.62877551684521
 30
0.0
 10
4.729907469533401
 20
32.61310244591467
 30
0.0
 10
4.729901922356361
 20
32.60527469409522
 30
0.0
 11
4.530158269519006
 21
32.80501834693257
 31
0.0
 11
4.552146466082149
 21
32.80381815763326
 31
0.0
 11
4.573942087103091
 21
32.80019485656487
 31
0.0
 11
4.595141750008451
 21
32.79421481148529
 31
0.0
 11
4.615563265018522
 21
32.78589146536808
 31
0.0
 11
4.635006226088307
 21
32.77534169619344
 31
0.0
 11
4.653118077741851
 21
32.76276016882718
 31
0.0
 11
4.669909242875405
 21
32.74804659665813
 31
0.0
 11
4.685011495382468
 21
32.73150856048278
 31
0.0
 11
4.698143164277553
 21
32.71345362455725
 31
0.0
 11
4.709183464312786
 21
32.69396489754115
 31
0.0
 11
4.718008414040923
 21
32.67330037735428
 31
0.0
 11
4.724448875477605
 21
32.65184781755477
 31
0.0
 11
4.728547308787369
 21
32.62871942565482
 31
0.0
 11
4.729901922356361
 21
32.60527469409522
 31
0.0
  0
SPLINE
  5
CF
330
2
100
AcDbEntity
  8
GAIKEI
  6
Continuous
 62
     1
100
AcDbSpline
210
0.0
220
0.0
230
1.0
 70
     8
 71
     3
 72
    14
 73
    10
 74
     8
 42
0.0000000001
 43
0.0000000001
 44
0.000001
 12
0.2697836156325394
 22
-0.9629209732559752
 32
0.0
 13
0.9616843088117285
 23
-0.2741592423853476
 33
0.0
 40
0.0
 40
0.0
 40
0.0
 40
0.0
 40
0.0000567608952277
 40
0.0167840465309815
 40
0.0335125966987406
 40
0.0502374188860442
 40
0.0669622291995347
 40
0.0837063784098657
 40
0.1004494891285206
 40
0.1004494891285206
 40
0.1004494891285206
 40
0.1004494891285206
 10
-42.79631615178636
 20
4.75294457381949
 30
0.0
 10
-42.79631104739985
 20
4.75292635506733
 30
0.0
 10
-42.79479996315254
 20
4.74753962083605
 30
0.0
 10
-42.79084000884398
 20
4.737027718365254
 30
0.0
 10
-42.78239208631271
 20
4.722500806205388
 30
0.0
 10
-42.77155233146487
 20
4.709654760012611
 30
0.0
 10
-42.75872363747365
 20
4.698788081715235
 30
0.0
 10
-42.74420557778137
 20
4.690300186757269
 30
0.0
 10
-42.73370398161659
 20
4.686341006402315
 30
0.0
 10
-42.72833678599698
 20
4.684810913552382
 30
0.0
 11
-42.79631615178636
 21
4.75294457381949
 31
0.0
 11
-42.79630082266328
 21
4.752889921494556
 31
0.0
 11
-42.7904210648748
 21
4.737229552047892
 31
0.0
 11
-42.78199333514334
 21
4.722779099421131
 31
0.0
 11
-42.77122220479571
 21
4.709984454037225
 31
0.0
 11
-42.75844883236857
 21
4.699188115349329
 31
0.0
 11
-42.74400111683923
 21
4.690724677313482
 31
0.0
 11
-42.72833678599698
 21
4.684810913552382
 31
0.0
  0
SPLINE
  5
D0
330
2
100
AcDbEntity
  8
GAIKEI
  6
Continuous
 62
     1
100
AcDbSpline
210
0.0
220
0.0
230
1.0
 70
     8
 71
     3
 72
    14
 73
    10
 74
     8
 42
0.0000000001
 43
0.0000000001
 44
0.000001
 12
-0.2697836156325396
 22
-0.962920973255975
 32
0.0
 13
-0.9616843088117285
 23
-0.2741592423853476
 33
0.0
 40
0.0
 40
0.0
 40
0.0
 40
0.0
 40
0.0000567608952824
 40
0.0167840465310362
 40
0.0335125966988035
 40
0.0502374188861505
 40
0.0669622291995976
 40
0.083706378409949
 40
0.1004494891285176
 40
0.1004494891285176
 40
0.1004494891285176
 40
0.1004494891285176
 10
2.389837309001791
 20
4.752944573819547
 30
0.0
 10
2.38983220461526
 20
4.752926355067373
 30
0.0
 10
2.388321120370704
 20
4.747539620833009
 30
0.0
 10
2.384361166058226
 20
4.737027718366647
 30
0.0
 10
2.375913243528287
 20
4.72250080620509
 30
0.0
 10
2.365073488680167
 20
4.709654760012753
 30
0.0
 10
2.352244794689056
 20
4.69878808171515
 30
0.0
 10
2.337726734996692
 20
4.690300186757426
 30
0.0
 10
2.327225138832005
 20
4.686341006402301
 30
0.0
 10
2.321857943212421
 20
4.684810913552382
 30
0.0
 11
2.389837309001791
 21
4.752944573819547
 31
0.0
 11
2.389821979878661
 21
4.752889921494556
 31
0.0
 11
2.38394222209024
 21
4.737229552047892
 31
0.0
 11
2.375514492358661
 21
4.722779099421188
 31
0.0
 11
2.36474336201104
 21
4.709984454037225
 31
0.0
 11
2.351969989583949
 21
4.699188115349329
 31
0.0
 11
2.337522274054549
 21
4.690724677313539
 31
0.0
 11
2.321857943212421
 21
4.684810913552382
 31
0.0
  0
SPLINE
  5
D1
330
2
100
AcDbEntity
  8
GAIKEI
  6
Continuous
 62
     1
100
AcDbSpline
210
0.0
220
0.0
230
1.0
 70
     8
 71
     3
 72
    19
 73
    15
 74
    13
 42
0.0000000001
 43
0.0000000001
 44
0.000001
 12
-0.9639938394678312
 22
0.2659245710122878
 32
0.0
 13
-0.26346002757732
 23
0.9646703135625962
 33
0.0
 40
0.0
 40
0.0
 40
0.0
 40
0.0
 40
0.012068544787798
 40
0.0241375534231756
 40
0.0365717545461132
 40
0.0490061389643768
 40
0.0610391948685898
 40
0.0730723357382101
 40
0.0854755671878948
 40
0.0978786958477273
 40
0.1099595938326059
 40
0.1220403135244389
 40
0.1344880973698634
 40
0.1469354490877644
 40
0.1469354490877644
 40
0.1469354490877644
 40
0.1469354490877644
 10
-42.74191692715743
 20
4.640013402208296
 30
0.0
 10
-42.74579492809968
 20
4.64108317640678
 30
0.0
 10
-42.75346477837615
 20
4.643550680531376
 30
0.0
 10
-42.76472887450182
 20
4.64824831251694
 30
0.0
 10
-42.77565420475244
 20
4.653960577036897
 30
0.0
 10
-42.78602985925767
 20
4.660596855538202
 30
0.0
 10
-42.79568168869886
 20
4.668028750904483
 30
0.0
 10
-42.80466116679207
 20
4.676245035007838
 30
0.0
 10
-42.81297483334981
 20
4.685304210744703
 30
0.0
 10
-42.82047512345428
 20
4.695067538074027
 30
0.0
 10
-42.82703839881697
 20
4.70535521650045
 30
0.0
 10
-42.83271404561361
 20
4.716174944444105
 30
0.0
 10
-42.83747870835822
 20
4.727558303094653
 30
0.0
 10
-42.84001364807352
 20
4.73547280346078
 30
0.0
 10
-42.84110677461581
 20
4.739475333689028
 30
0.0
 11
-42.74191692715743
 21
4.640013402208296
 31
0.0
 11
-42.75340641986367
 21
4.643708113777393
 31
0.0
 11
-42.76454439387214
 21
4.648356373056799
 31
0.0
 11
-42.77556399968392
 21
4.654116413040696
 31
0.0
 11
-42.78603759061627
 21
4.660818523390162
 31
0.0
 11
-42.7955727989505
 21
4.668158463975714
 31
0.0
 11
-42.80444900388466
 21
4.676283115764704
 31
0.0
 11
-42.81283702067622
 21
4.685419957102681
 31
0.0
 11
-42.82039163630514
 21
4.695256924070235
 31
0.0
 11
-42.82689140224721
 21
4.705440320983484
 31
0.0
 11
-42.83250216698656
 21
4.716139080755851
 31
0.0
 11
-42.83731125972798
 21
4.72762035905157
 31
0.0
 11
-42.84110677461581
 21
4.739475333689028
 31
0.0
  0
SPLINE
  5
D2
330
2
100
AcDbEntity
  8
GAIKEI
  6
Continuous
 62
     1
100
AcDbSpline
210
0.0
220
0.0
230
1.0
 70
     8
 71
     3
 72
    19
 73
    15
 74
    13
 42
0.0000000001
 43
0.0000000001
 44
0.000001
 12
0.9639938394678312
 22
0.2659245710122878
 32
0.0
 13
0.26346002757732
 23
0.9646703135625962
 33
0.0
 40
0.0
 40
0.0
 40
0.0
 40
0.0
 40
0.0120685447879062
 40
0.0241375534232313
 40
0.0365717545461449
 40
0.0490061389644258
 40
0.0610391948686734
 40
0.0730723357382554
 40
0.0854755671879785
 40
0.0978786958477868
 40
0.1099595938326787
 40
0.1220403135244589
 40
0.1344880973698834
 40
0.1469354490878018
 40
0.1469354490878018
 40
0.1469354490878018
 40
0.1469354490878018
 10
2.335438084372754
 20
4.640013402208296
 30
0.0
 10
2.339316085315061
 20
4.64108317640678
 30
0.0
 10
2.346985935591533
 20
4.643550680531362
 30
0.0
 10
2.358250031717176
 20
4.648248312516898
 30
0.0
 10
2.369175361967819
 20
4.653960577037025
 30
0.0
 10
2.379551016473072
 20
4.660596855538173
 30
0.0
 10
2.389202845914184
 20
4.668028750904554
 30
0.0
 10
2.398182324007478
 20
4.676245035007838
 30
0.0
 10
2.406495990565247
 20
4.685304210744646
 30
0.0
 10
2.41399628066955
 20
4.695067538074127
 30
0.0
 10
2.420559556032486
 20
4.705355216500393
 30
0.0
 10
2.426235202828877
 20
4.716174944444134
 30
0.0
 10
2.430999865573539
 20
4.727558303094667
 30
0.0
 10
2.4335348052889
 20
4.73547280346078
 30
0.0
 10
2.434627931831187
 20
4.739475333689028
 30
0.0
 11
2.335438084372754
 21
4.640013402208296
 31
0.0
 11
2.3469275770791
 21
4.643708113777393
 31
0.0
 11
2.35806555108752
 21
4.648356373056799
 31
0.0
 11
2.369085156899245
 21
4.654116413040753
 31
0.0
 11
2.379558747831651
 21
4.660818523390162
 31
0.0
 11
2.389093956165879
 21
4.668158463975771
 31
0.0
 11
2.397970161100033
 21
4.676283115764704
 31
0.0
 11
2.406358177891661
 21
4.685419957102681
 31
0.0
 11
2.413912793520466
 21
4.695256924070292
 31
0.0
 11
2.420412559462647
 21
4.705440320983484
 31
0.0
 11
2.426023324201878
 21
4.716139080755851
 31
0.0
 11
2.430832416943303
 21
4.72762035905157
 31
0.0
 11
2.434627931831187
 21
4.739475333689028
 31
0.0
  0
SPLINE
  5
D3
330
2
100
AcDbEntity
  8
GAIKEI
  6
Continuous
 62
     1
100
AcDbSpline
210
0.0
220
0.0
230
1.0
 70
     8
 71
     3
 72
    19
 73
    15
 74
    13
 42
0.0000000001
 43
0.0000000001
 44
0.000001
 12
0.2634414923284027
 22
0.9646753755122933
 32
0.0
 13
0.9639886149825482
 23
0.2659435093850355
 33
0.0
 40
0.0
 40
0.0
 40
0.0
 40
0.0
 40
0.0120706715938937
 40
0.0241417800381252
 40
0.0365777168450859
 40
0.0490138356852604
 40
0.0610453208347925
 40
0.0730769079994255
 40
0.0854784299499669
 40
0.097879867091074
 40
0.1099602577905297
 40
0.1220404696565214
 40
0.134488189403992
 40
0.1469354486715571
 40
0.1469354486715571
 40
0.1469354486715571
 40
0.1469354486715571
 10
-42.84110677461586
 20
30.7051741336528
 30
0.0
 10
-42.84004680270316
 20
30.70905556020365
 30
0.0
 10
-42.83759882115276
 20
30.71673312915114
 30
0.0
 10
-42.83293037235296
 20
30.72801148729709
 30
0.0
 10
-42.8272467636493
 20
30.73895383170154
 30
0.0
 10
-42.82063849295917
 20
30.74934808873954
 30
0.0
 10
-42.81323353187434
 20
30.75901999860223
 30
0.0
 10
-42.80504335580224
 20
30.76802110692351
 30
0.0
 10
-42.79600866765946
 20
30.77635893697087
 30
0.0
 10
-42.7862673546204
 20
30.78388566918781
 30
0.0
 10
-42.77599865818177
 20
30.7904769522319
 30
0.0
 10
-42.76519479371822
 20
30.79618199890885
 30
0.0
 10
-42.75382443163221
 20
30.80097708251057
 30
0.0
 10
-42.74591659923138
 20
30.80353264252948
 30
0.0
 10
-42.74191692715748
 20
30.80463606513343
 30
0.0
 11
-42.84110677461586
 21
30.7051741336528
 31
0.0
 11
-42.83744131416916
 21
30.71667521992316
 31
0.0
 11
-42.832821823372
 21
30.72782742904519
 31
0.0
 11
-42.82709071869499
 21
30.7388640669501
 31
0.0
 11
-42.82041626517195
 21
30.74935735985281
 31
0.0
 11
-42.81310357914975
 21
30.7589115080948
 31
0.0
 11
-42.80500468413805
 21
30.76780911961606
 31
0.0
 11
-42.79589255700858
 21
30.77622145760836
 31
0.0
 11
-42.78607804639205
 21
30.78380245760212
 31
0.0
 11
-42.77591311721596
 21
30.79033012860549
 31
0.0
 11
-42.76523017426916
 21
30.79596986305217
 31
0.0
 11
-42.75376187377424
 21
30.80080965831167
 31
0.0
 11
-42.74191692715748
 21
30.80463606513343
 31
0.0
  0
SPLINE
  5
D4
330
2
100
AcDbEntity
  8
GAIKEI
  6
Continuous
 62
     1
100
AcDbSpline
210
0.0
220
0.0
230
1.0
 70
     8
 71
     3
 72
    19
 73
    15
 74
    13
 42
0.0000000001
 43
0.0000000001
 44
0.000001
 12
-0.2634414923284028
 22
0.9646753755122933
 32
0.0
 13
-0.9639886149825482
 23
0.2659435093850356
 33
0.0
 40
0.0
 40
0.0
 40
0.0
 40
0.0
 40
0.0120706715939109
 40
0.0241417800380989
 40
0.0365777168451121
 40
0.0490138356852255
 40
0.0610453208347922
 40
0.0730769079994251
 40
0.0854784299499666
 40
0.0978798670911187
 40
0.1099602577904787
 40
0.1220404696563699
 40
0.13448818940405
 40
0.146935448671615
 40
0.146935448671615
 40
0.146935448671615
 40
0.146935448671615
 10
2.434627931831187
 20
30.7051741336528
 30
0.0
 10
2.433567959918491
 20
30.70905556020365
 30
0.0
 10
2.431119978367917
 20
30.71673312915109
 30
0.0
 10
2.426451529568453
 20
30.72801148729717
 30
0.0
 10
2.420767920864534
 20
30.73895383170148
 30
0.0
 10
2.414159650174553
 20
30.74934808873957
 30
0.0
 10
2.406754689089666
 20
30.75901999860224
 30
0.0
 10
2.398564513017618
 20
30.76802110692351
 30
0.0
 10
2.389529824874813
 20
30.7763589369709
 30
0.0
 10
2.379788511835727
 20
30.78388566918774
 30
0.0
 10
2.369519815397097
 20
30.79047695223193
 30
0.0
 10
2.358715950933628
 20
30.79618199890894
 30
0.0
 10
2.347345588847474
 20
30.80097708251053
 30
0.0
 10
2.339437756446642
 20
30.80353264252948
 30
0.0
 10
2.335438084372754
 20
30.80463606513343
 30
0.0
 11
2.434627931831187
 21
30.7051741336528
 31
0.0
 11
2.430962471384418
 21
30.71667521992316
 31
0.0
 11
2.426342980587378
 21
30.72782742904519
 31
0.0
 11
2.420611875910253
 21
30.7388640669501
 31
0.0
 11
2.413937422387334
 21
30.74935735985281
 31
0.0
 11
2.406624736365074
 21
30.7589115080948
 31
0.0
 11
2.398525841353375
 21
30.76780911961606
 31
0.0
 11
2.389413714223906
 21
30.77622145760836
 31
0.0
 11
2.379599203607313
 21
30.78380245760212
 31
0.0
 11
2.369434274431341
 21
30.79033012860549
 31
0.0
 11
2.358751331484654
 21
30.79596986305217
 31
0.0
 11
2.347283030989501
 21
30.80080965831167
 31
0.0
 11
2.335438084372754
 21
30.80463606513343
 31
0.0
  0
SPLINE
  5
D5
330
2
100
AcDbEntity
  8
GAIKEI
  6
Continuous
 62
     1
100
AcDbSpline
210
0.0
220
0.0
230
1.0
 70
     8
 71
     3
 72
    19
 73
    15
 74
    13
 42
0.0000000001
 43
0.0000000001
 44
0.000001
 12
0.0944471245025448
 22
0.9955298793472755
 32
0.0
 13
0.9955257326591484
 23
0.0944908229060694
 33
0.0
 40
0.0
 40
0.0
 40
0.0
 40
0.0
 40
0.0172124311712227
 40
0.034431231176904
 40
0.0515392072852525
 40
0.0686910149758138
 40
0.0858057717066271
 40
0.1119433335992061
 40
0.1380833502633836
 40
0.1635982876566724
 40
0.1891038875427877
 40
0.2053832094130302
 40
0.2217026553121956
 40
0.2379700129382737
 40
0.2379700129382737
 40
0.2379700129382737
 40
0.2379700129382737
 10
-45.12898793792579
 20
32.61021362889699
 30
0.0
 10
-45.12844604971585
 20
32.61592545873937
 30
0.0
 10
-45.12674052807028
 20
32.62730340674176
 30
0.0
 10
-45.12230167521415
 20
32.6439336020956
 30
0.0
 10
-45.11616226020684
 20
32.65998867183657
 30
0.0
 10
-45.10848227756596
 20
32.67532531113378
 30
0.0
 10
-45.09778115988257
 20
32.69241358222521
 30
0.0
 10
-45.08321300764149
 20
32.71048430932953
 30
0.0
 10
-45.06424786588996
 20
32.72829099600938
 30
0.0
 10
-45.04315757491733
 20
32.74315291159442
 30
0.0
 10
-45.0231228041552
 20
32.75343131337876
 30
0.0
 10
-45.00490618935467
 20
32.76009225181976
 30
0.0
 10
-44.98910682062453
 20
32.764168126679
 30
0.0
 10
-44.97833640018632
 20
32.76575098567342
 30
0.0
 10
-44.9729382091466
 20
32.76626335767628
 30
0.0
 11
-45.12898793792579
 21
32.61021362889699
 31
0.0
 11
-45.12642632513001
 21
32.62723526877244
 31
0.0
 11
-45.1220060082826
 21
32.64387714483064
 31
0.0
 11
-45.11590920336419
 21
32.65986192937373
 31
0.0
 11
-45.10823916846141
 21
32.67520321086272
 31
0.0
 11
-45.09915774735145
 21
32.68970975749528
 31
0.0
 11
-45.08277171009052
 21
32.71007265540857
 31
0.0
 11
-45.06370569987189
 21
32.72795429658265
 31
0.0
 11
-45.04284514081553
 21
32.74264576473138
 31
0.0
 11
-45.02013087881937
 21
32.75424742114831
 31
0.0
 11
-45.00484006372153
 21
32.75983383616801
 31
0.0
 11
-44.98903212228447
 21
32.76388808625984
 31
0.0
 11
-44.9729382091466
 21
32.76626335767628
 31
0.0
  0
SPLINE
  5
D6
330
2
100
AcDbEntity
  8
GAIKEI
  6
Continuous
 62
     1
100
AcDbSpline
210
0.0
220
0.0
230
1.0
 70
     8
 71
     3
 72
    19
 73
    15
 74
    13
 42
0.0000000001
 43
0.0000000001
 44
0.000001
 12
-0.995529879347374
 22
0.0944471245015059
 32
0.0
 13
-0.0944908229060039
 23
0.9955257326591544
 33
0.0
 40
0.0
 40
0.0
 40
0.0
 40
0.0
 40
0.0172124311711068
 40
0.0344312311768935
 40
0.0515392072852033
 40
0.0686910149757901
 40
0.0858057717066154
 40
0.111943333599239
 40
0.1380833502631786
 40
0.1635982876565833
 40
0.1891038875427113
 40
0.2053832094130023
 40
0.2217026553121183
 40
0.2379700129382671
 40
0.2379700129382671
 40
0.2379700129382671
 40
0.2379700129382671
 10
-44.9729382091466
 20
2.545939719879527
 30
0.0
 10
-44.97865003898894
 20
2.54648160808945
 30
0.0
 10
-44.99002798699132
 20
2.548187129735154
 30
0.0
 10
-45.00665818234515
 20
2.552625982591138
 30
0.0
 10
-45.02271325208624
 20
2.558765397598392
 30
0.0
 10
-45.03804989138333
 20
2.566445380239372
 30
0.0
 10
-45.05513816247492
 20
2.577146497922768
 30
0.0
 10
-45.07320888957903
 20
2.591714650163766
 30
0.0
 10
-45.09101557625877
 20
2.610679791915472
 30
0.0
 10
-45.10587749184412
 20
2.631770082887868
 30
0.0
 10
-45.11615589362835
 20
2.651804853650048
 30
0.0
 10
-45.12281683206942
 20
2.670021468450642
 30
0.0
 10
-45.12689270692831
 20
2.685820837180827
 30
0.0
 10
-45.12847556592291
 20
2.696591257619033
 30
0.0
 10
-45.12898793792579
 20
2.701989448658764
 30
0.0
 11
-44.9729382091466
 21
2.545939719879527
 31
0.0
 11
-44.98995984902194
 21
2.548501332675357
 31
0.0
 11
-45.00660172508026
 21
2.552921649522716
 31
0.0
 11
-45.02258650962335
 21
2.559018454441059
 31
0.0
 11
-45.03792779111233
 21
2.566688489343903
 31
0.0
 11
-45.0524343377449
 21
2.575769910453857
 31
0.0
 11
-45.07279723565818
 21
2.592155947714843
 31
0.0
 11
-45.09067887683204
 21
2.611221957933366
 31
0.0
 11
-45.10537034498099
 21
2.632082516989726
 31
0.0
 11
-45.11697200139792
 21
2.654796778985883
 31
0.0
 11
-45.12255841641763
 21
2.670087594083781
 31
0.0
 11
-45.12661266650923
 21
2.685895535520842
 31
0.0
 11
-45.12898793792579
 21
2.701989448658764
 31
0.0
  0
SPLINE
  5
D7
330
2
100
AcDbEntity
  8
GAIKEI
  6
Continuous
 62
     1
100
AcDbSpline
210
0.0
220
0.0
230
1.0
 70
     8
 71
     3
 72
    19
 73
    15
 74
    13
 42
0.0000000001
 43
0.0000000001
 44
0.000001
 12
-0.0944471245025449
 22
0.9955298793472755
 32
0.0
 13
-0.9955257326591484
 23
0.0944908229060694
 33
0.0
 40
0.0
 40
0.0
 40
0.0
 40
0.0
 40
0.0172124311712171
 40
0.0344312311769268
 40
0.0515392072852549
 40
0.0686910149757909
 40
0.0858057717066041
 40
0.1119433335992188
 40
0.1380833502633548
 40
0.1635982876567366
 40
0.1891038875427507
 40
0.2053832094129932
 40
0.2217026553121586
 40
0.2379700129383491
 40
0.2379700129383491
 40
0.2379700129383491
 40
0.2379700129383491
 10
4.691146933100071
 20
32.61021362889699
 30
0.0
 10
4.690605044890133
 20
32.61592545873937
 30
0.0
 10
4.688899523244458
 20
32.62730340674171
 30
0.0
 10
4.684460670388347
 20
32.64393360209559
 30
0.0
 10
4.678321255381035
 20
32.65998867183657
 30
0.0
 10
4.670641272740283
 20
32.6753253111338
 30
0.0
 10
4.65994015505683
 20
32.69241358222526
 30
0.0
 10
4.645372002815719
 20
32.71048430932945
 30
0.0
 10
4.626406861064253
 20
32.72829099600944
 30
0.0
 10
4.605316570091474
 20
32.74315291159438
 30
0.0
 10
4.585281799329436
 20
32.75343131337874
 30
0.0
 10
4.567065184528985
 20
32.7600922518198
 30
0.0
 10
4.551265815798785
 20
32.76416812667901
 30
0.0
 10
4.540495395360522
 20
32.76575098567341
 30
0.0
 10
4.535097204320777
 20
32.76626335767628
 30
0.0
 11
4.691146933100071
 21
32.61021362889699
 31
0.0
 11
4.688585320304241
 21
32.62723526877244
 31
0.0
 11
4.684165003456769
 21
32.64387714483064
 31
0.0
 11
4.678068198538426
 21
32.65986192937373
 31
0.0
 11
4.670398163635695
 21
32.67520321086272
 31
0.0
 11
4.661316742525741
 21
32.68970975749528
 31
0.0
 11
4.644930705264755
 21
32.71007265540857
 31
0.0
 11
4.625864695046175
 21
32.72795429658265
 31
0.0
 11
4.605004135989702
 21
32.74264576473138
 31
0.0
 11
4.582289873993659
 21
32.75424742114831
 31
0.0
 11
4.566999058895817
 21
32.75983383616801
 31
0.0
 11
4.551191117458756
 21
32.76388808625984
 31
0.0
 11
4.535097204320777
 21
32.76626335767628
 31
0.0
  0
SPLINE
  5
D8
330
2
100
AcDbEntity
  8
GAIKEI
  6
Continuous
 62
     1
100
AcDbSpline
210
0.0
220
0.0
230
1.0
 70
     8
 71
     3
 72
    19
 73
    15
 74
    13
 42
0.0000000001
 43
0.0000000001
 44
0.000001
 12
0.995529879347374
 22
0.0944471245015057
 32
0.0
 13
0.0944908229060041
 23
0.9955257326591546
 33
0.0
 40
0.0
 40
0.0
 40
0.0
 40
0.0
 40
0.0172124311712192
 40
0.034431231176896
 40
0.0515392072853121
 40
0.0686910149757972
 40
0.0858057717067189
 40
0.1119433335992539
 40
0.1380833502633491
 40
0.1635982876566228
 40
0.1891038875428026
 40
0.2053832094130935
 40
0.2217026553122377
 40
0.23797001293837
 40
0.23797001293837
 40
0.23797001293837
 40
0.23797001293837
 10
4.535097204320777
 20
2.545939719879527
 30
0.0
 10
4.540809034163174
 20
2.546481608089464
 30
0.0
 10
4.552186982165551
 20
2.54818712973514
 30
0.0
 10
4.568817177519434
 20
2.552625982591166
 30
0.0
 10
4.584872247260449
 20
2.558765397598335
 30
0.0
 10
4.600208886557595
 20
2.566445380239443
 30
0.0
 10
4.617297157649147
 20
2.577146497922669
 30
0.0
 10
4.635367884753293
 20
2.591714650163908
 30
0.0
 10
4.653174571433169
 20
2.610679791915302
 30
0.0
 10
4.668036487018298
 20
2.63177008288801
 30
0.0
 10
4.678314888802617
 20
2.651804853649991
 30
0.0
 10
4.684975827243675
 20
2.670021468450642
 30
0.0
 10
4.689051702102801
 20
2.685820837180827
 30
0.0
 10
4.690634561097198
 20
2.696591257619033
 30
0.0
 10
4.691146933100071
 20
2.701989448658764
 30
0.0
 11
4.535097204320777
 21
2.545939719879527
 31
0.0
 11
4.552118844196229
 21
2.548501332675357
 31
0.0
 11
4.568760720254431
 21
2.552921649522716
 31
0.0
 11
4.584745504797638
 21
2.559018454441059
 31
0.0
 11
4.60008678628651
 21
2.566688489343903
 31
0.0
 11
4.614593332919184
 21
2.575769910453857
 31
0.0
 11
4.634956230832358
 21
2.592155947714843
 31
0.0
 11
4.652837872006443
 21
2.611221957933366
 31
0.0
 11
4.667529340155169
 21
2.632082516989726
 31
0.0
 11
4.679130996572212
 21
2.654796778985883
 31
0.0
 11
4.684717411591918
 21
2.670087594083781
 31
0.0
 11
4.688771661683631
 21
2.685895535520842
 31
0.0
 11
4.691146933100071
 21
2.701989448658764
 31
0.0
  0
LINE
  5
D9
330
2
100
AcDbEntity
  8
GAIKEI
  6
Continuous
 62
     1
100
AcDbLine
 10
38.96818638623205
 20
32.13666178913388
 30
0.0
 11
39.22090993902805
 21
32.14806059997545
 31
0.0
  0
LINE
  5
DA
330
2
100
AcDbEntity
  8
GAIKEI
  6
Continuous
 62
     1
100
AcDbLine
 10
39.19268283123847
 20
32.35039447598592
 30
0.0
 11
38.96818638623205
 21
32.35763101890427
 31
0.0
  0
LINE
  5
DB
330
2
100
AcDbEntity
  8
GAIKEI
  6
Continuous
 62
     1
100
AcDbLine
 10
40.59163186849611
 20
5.707376951361538
 30
0.0
 11
40.54832677112813
 21
5.682374730081505
 31
0.0
  0
LINE
  5
DC
330
2
100
AcDbEntity
  8
GAIKEI
  6
Continuous
 62
     1
100
AcDbLine
 10
40.6983400988081
 20
5.707376951361538
 30
0.0
 11
40.59163186849611
 21
5.707376951361538
 31
0.0
  0
LINE
  5
DD
330
2
100
AcDbEntity
  8
GAIKEI
  6
Continuous
 62
     1
100
AcDbLine
 10
40.54832677112813
 20
5.534861624529526
 30
0.0
 11
40.6983400988081
 21
5.551738123893528
 31
0.0
  0
LINE
  5
DE
330
2
100
AcDbEntity
  8
GAIKEI
  6
Continuous
 62
     1
100
AcDbLine
 10
40.74834454136805
 20
5.55736362368151
 30
0.0
 11
40.6983400988081
 21
5.551738123893528
 31
0.0
  0
LINE
  5
DF
330
2
100
AcDbEntity
  8
GAIKEI
  6
Continuous
 62
     1
100
AcDbLine
 10
40.74834454136805
 20
5.707376951361538
 30
0.0
 11
40.74834454136805
 21
5.55736362368151
 31
0.0
  0
LINE
  5
E0
330
2
100
AcDbEntity
  8
GAIKEI
  6
Continuous
 62
     1
100
AcDbLine
 10
40.6983400988081
 20
5.707376951361538
 30
0.0
 11
40.74834454136805
 21
5.707376951361538
 31
0.0
  0
LINE
  5
E1
330
2
100
AcDbEntity
  8
GAIKEI
  6
Continuous
 62
     1
100
AcDbLine
 10
40.59833121368803
 20
6.13241471312159
 30
0.0
 11
40.54832677112813
 21
6.1824191556816
 31
0.0
  0
LINE
  5
E2
330
2
100
AcDbEntity
  8
GAIKEI
  6
Continuous
 62
     1
100
AcDbLine
 10
40.54832677112813
 20
5.682374730081505
 30
0.0
 11
40.59833121368803
 21
5.732379172641572
 31
0.0
  0
LINE
  5
E3
330
2
100
AcDbEntity
  8
GAIKEI
  6
Continuous
 62
     1
100
AcDbLine
 10
40.59833121368803
 20
5.732379172641572
 30
0.0
 11
40.59833121368803
 21
6.13241471312159
 31
0.0
  0
LINE
  5
E4
330
2
100
AcDbEntity
  8
GAIKEI
  6
Continuous
 62
     1
100
AcDbLine
 10
40.14829123064811
 20
6.207421376961519
 30
0.0
 11
40.54832677112813
 21
6.207421376961519
 31
0.0
  0
LINE
  5
E5
330
2
100
AcDbEntity
  8
GAIKEI
  6
Continuous
 62
     1
100
AcDbLine
 10
40.54832677112813
 20
5.507359181121557
 30
0.0
 11
40.15949982645679
 21
5.507359181121557
 31
0.0
  0
LINE
  5
E6
330
2
100
AcDbEntity
  8
GAIKEI
  6
Continuous
 62
     1
100
AcDbLine
 10
40.54832677112813
 20
6.207421376961519
 30
0.0
 11
40.54832677112813
 21
5.507359181121557
 31
0.0
  0
LINE
  5
E7
330
2
100
AcDbEntity
  8
GAIKEI
  6
Continuous
 62
     1
100
AcDbLine
 10
36.71291145238183
 20
3.011965682112872
 30
0.0
 11
36.71368607120155
 21
3.01189787608871
 31
0.0
  0
ELLIPSE
  5
E8
330
2
100
AcDbEntity
  8
GAIKEI
  6
Continuous
 62
     7
100
AcDbEllipse
 10
37.3021967564365
 20
32.73902865353114
 30
0.0
 11
-0.4304650760396076
 21
0.0183350540597169
 31
0.0
210
0.0
220
0.0
230
1.0
 40
0.0979550000027946
 41
-0.0556951287892611
 42
0.0307150442110096
  0
ELLIPSE
  5
E9
330
2
100
AcDbEntity
  8
GAIKEI
  6
Continuous
 62
     1
100
AcDbEllipse
 10
37.3021967564365
 20
2.548955846788317
 30
0.0
 11
-0.3002971316235787
 21
0.4353642020019295
 31
0.0
210
0.0
220
0.0
230
1.0
 40
0.7084259999999128
 41
0.7388798675229174
 42
0.8252900405248016
  0
ELLIPSE
  5
EA
330
2
100
AcDbEntity
  8
GAIKEI
  6
Continuous
 62
     1
100
AcDbEllipse
 10
37.3021967564365
 20
32.73902865353114
 30
0.0
 11
0.3002971316397903
 21
0.4353642019797884
 31
0.0
210
0.0
220
0.0
230
1.0
 40
0.7084259999997621
 41
2.316302613115392
 42
2.402712786120312
  0
ELLIPSE
  5
EB
330
2
100
AcDbEntity
  8
GAIKEI
  6
Continuous
 62
     7
100
AcDbEllipse
 10
36.93741474799685
 20
32.7199112050738
 30
0.0
 11
-0.0039255454801028
 21
0.0749038698138415
 31
0.0
210
0.0
220
0.0
230
1.0
 40
0.9969940000001736
 41
-0.0000000000462679
 42
1.015719002465488
  0
ELLIPSE
  5
EC
330
2
100
AcDbEntity
  8
GAIKEI
  6
Continuous
 62
     1
100
AcDbEllipse
 10
38.87091494431547
 20
32.6960694868967
 30
0.0
 11
-0.0052376484159654
 21
0.2000177233456646
 31
0.0
210
0.0
220
0.0
230
1.0
 40
0.0261499999999963
 41
0.000684763903771
 42
1.568742034989261
  0
ELLIPSE
  5
ED
330
2
100
AcDbEntity
  8
GAIKEI
  6
Continuous
 62
     1
100
AcDbEllipse
 10
37.29827120767777
 20
32.73902865353114
 30
0.0
 11
0.2691022304283923
 21
0.3978920321198732
 31
0.0
210
0.0
220
0.0
230
1.0
 40
0.6240159999996433
 41
2.309985920121875
 42
2.396396093123733
  0
ELLIPSE
  5
EE
330
2
100
AcDbEntity
  8
GAIKEI
  6
Continuous
 62
     1
100
AcDbEllipse
 10
37.29827120767777
 20
2.548955846788317
 30
0.0
 11
-0.2691022304227062
 21
0.397892032129457
 31
0.0
210
0.0
220
0.0
230
1.0
 40
0.6240160000001015
 41
0.7451965604898776
 42
0.8316067334899205
  0
ARC
  5
EF
330
2
100
AcDbEntity
  8
GAIKEI
  6
Continuous
 62
     7
100
AcDbCircle
 10
36.76819091359198
 20
32.49917409405907
 30
0.0
 40
0.0500044425600019
100
AcDbArc
 50
147.9140249999909
 51
180.0
  0
ARC
  5
F0
330
2
100
AcDbEntity
  8
GAIKEI
  6
Continuous
 62
     7
100
AcDbCircle
 10
36.76819091359198
 20
2.788810406260267
 30
0.0
 40
0.0500044425600019
100
AcDbArc
 50
180.0
 51
212.085975000009
  0
ARC
  5
F1
330
2
100
AcDbEntity
  8
GAIKEI
  6
Continuous
 62
     7
100
AcDbCircle
 10
36.93604867663055
 20
32.71983964871651
 30
0.0
 40
0.0750066638400028
100
AcDbArc
 50
92.99999999999908
 51
147.9140249999909
  0
ARC
  5
F2
330
2
100
AcDbEntity
  8
GAIKEI
  6
Continuous
 62
     7
100
AcDbCircle
 10
36.93604867663055
 20
2.56814485160288
 30
0.0
 40
0.0750066638400028
100
AcDbArc
 50
212.085975000009
 51
267.0000000000009
  0
ARC
  5
F3
330
2
100
AcDbEntity
  8
GAIKEI
  6
Continuous
 62
     7
100
AcDbCircle
 10
38.91818194367198
 20
2.441901685742607
 30
0.0
 40
0.0500044425600019
100
AcDbArc
 50
270.0
 51
0.0
  0
ARC
  5
F4
330
2
100
AcDbEntity
  8
GAIKEI
  6
Continuous
 62
     7
100
AcDbCircle
 10
38.91818194367198
 20
32.84608281457679
 30
0.0
 40
0.0500044425600019
100
AcDbArc
 50
0.0
 51
90.0
  0
LINE
  5
F5
330
2
100
AcDbEntity
  8
GAIKEI
  6
Continuous
 62
     7
100
AcDbLine
 10
36.71818647103197
 20
32.49917409405907
 30
0.0
 11
36.71818647103197
 21
2.788810406260267
 31
0.0
  0
LINE
  5
F6
330
2
100
AcDbEntity
  8
GAIKEI
  6
Continuous
 62
     7
100
AcDbLine
 10
36.93348919923818
 20
32.79481510978434
 30
0.0
 11
36.93212312787182
 21
32.79474350342258
 31
0.0
  0
LINE
  5
F7
330
2
100
AcDbEntity
  8
GAIKEI
  6
Continuous
 62
     7
100
AcDbLine
 10
36.93212312787182
 20
2.493240996896759
 30
0.0
 11
36.93348919923818
 21
2.493169390535001
 31
0.0
  0
LINE
  5
F8
330
2
100
AcDbEntity
  8
GAIKEI
  6
Continuous
 62
     7
100
AcDbLine
 10
36.87249913067876
 20
2.528302011833261
 30
0.0
 11
36.72582454962407
 21
2.762248446408023
 31
0.0
  0
LINE
  5
F9
330
2
100
AcDbEntity
  8
GAIKEI
  6
Continuous
 62
     1
100
AcDbLine
 10
36.71818647103197
 20
2.973645605509375
 30
0.0
 11
36.87249913067876
 21
2.727516410699081
 31
0.0
  0
LINE
  5
FA
330
2
100
AcDbEntity
  8
GAIKEI
  6
Continuous
 62
     1
100
AcDbLine
 10
36.87249913067876
 20
32.56046808962026
 30
0.0
 11
36.71818647103197
 21
32.31433889481002
 31
0.0
  0
LINE
  5
FB
330
2
100
AcDbEntity
  8
GAIKEI
  6
Continuous
 62
     7
100
AcDbLine
 10
36.72582454962407
 20
32.52573605391143
 30
0.0
 11
36.87249913067876
 21
32.75968248848608
 31
0.0
  0
LINE
  5
FC
330
2
100
AcDbEntity
  8
GAIKEI
  6
Continuous
 62
     1
100
AcDbLine
 10
36.87249913067876
 20
2.727516410699081
 30
0.0
 11
36.87249913067876
 21
32.56046808962026
 31
0.0
  0
LINE
  5
FD
330
2
100
AcDbEntity
  8
GAIKEI
  6
Continuous
 62
     7
100
AcDbLine
 10
36.93348919923818
 20
32.79481510978434
 30
0.0
 11
38.86567367866411
 21
32.89608705711896
 31
0.0
  0
LINE
  5
FE
330
2
100
AcDbEntity
  8
GAIKEI
  6
Continuous
 62
     7
100
AcDbLine
 10
38.86567367866411
 20
2.391897443200377
 30
0.0
 11
36.93348919923818
 21
2.493169390535001
 31
0.0
  0
LINE
  5
FF
330
2
100
AcDbEntity
  8
GAIKEI
  6
Continuous
 62
     7
100
AcDbLine
 10
38.91818194367198
 20
2.391897243182597
 30
0.0
 11
38.86567727898398
 21
2.391897243182597
 31
0.0
  0
LINE
  5
100
330
2
100
AcDbEntity
  8
GAIKEI
  6
Continuous
 62
     7
100
AcDbLine
 10
38.96818638623205
 20
2.591915013422635
 30
0.0
 11
38.96818638623205
 21
2.441901685742607
 31
0.0
  0
LINE
  5
101
330
2
100
AcDbEntity
  8
GAIKEI
  6
Continuous
 62
     7
100
AcDbLine
 10
38.86567727898398
 20
32.89608725713674
 30
0.0
 11
38.91818194367198
 21
32.89608725713674
 31
0.0
  0
LINE
  5
102
330
2
100
AcDbEntity
  8
GAIKEI
  6
Continuous
 62
     7
100
AcDbLine
 10
38.86567727898398
 20
32.89608725713674
 30
0.0
 11
38.86567367866411
 21
32.89608705711896
 31
0.0
  0
LINE
  5
103
330
2
100
AcDbEntity
  8
GAIKEI
  6
Continuous
 62
     1
100
AcDbLine
 10
38.96818638623205
 20
2.591915013422635
 30
0.0
 11
38.91818194367198
 21
2.591915013422635
 31
0.0
  0
LINE
  5
104
330
2
100
AcDbEntity
  8
GAIKEI
  6
Continuous
 62
     7
100
AcDbLine
 10
38.96818638623205
 20
2.591915013422635
 30
0.0
 11
38.96818638623205
 21
32.84608281457679
 31
0.0
  0
LINE
  5
105
330
2
100
AcDbEntity
  8
GAIKEI
  6
Continuous
 62
     1
100
AcDbLine
 10
38.86567727898398
 20
2.591915013422635
 30
0.0
 11
38.91818194367198
 21
2.591915013422635
 31
0.0
  0
LINE
  5
106
330
2
100
AcDbEntity
  8
GAIKEI
  6
Continuous
 62
     1
100
AcDbLine
 10
38.86567367866411
 20
32.69634341123305
 30
0.0
 11
36.93348919923818
 21
32.59507141389395
 31
0.0
  0
LINE
  5
107
330
2
100
AcDbEntity
  8
GAIKEI
  6
Continuous
 62
     1
100
AcDbLine
 10
36.93212312787182
 20
32.56046808962026
 30
0.0
 11
36.93212312787182
 21
2.727516410699081
 31
0.0
  0
LINE
  5
108
330
2
100
AcDbEntity
  8
GAIKEI
  6
Continuous
 62
     1
100
AcDbLine
 10
36.87174503464451
 20
2.696148961552125
 30
0.0
 11
38.86567367866411
 21
2.591641089086294
 31
0.0
  0
LINE
  5
109
330
2
100
AcDbEntity
  8
GAIKEI
  6
Continuous
 62
     1
100
AcDbLine
 10
38.86567727898398
 20
32.6960694868967
 30
0.0
 11
38.86567727898398
 21
2.391897243182597
 31
0.0
  0
ARC
  5
10A
330
2
100
AcDbEntity
  8
GAIKEI
  6
Continuous
 62
     1
100
AcDbCircle
 10
38.63065639895206
 20
4.87211759415868
 30
0.0
 40
0.450039983040017
100
AcDbArc
 50
0.0
 51
16.60155000000189
  0
ARC
  5
10B
330
2
100
AcDbEntity
  8
GAIKEI
  6
Continuous
 62
     1
100
AcDbCircle
 10
38.63065639895206
 20
4.87211759415868
 30
0.0
 40
0.450039983040017
100
AcDbArc
 50
343.3984499999981
 51
0.0
  0
ARC
  5
10C
330
2
100
AcDbEntity
  8
GAIKEI
  6
Continuous
 62
     1
100
AcDbCircle
 10
38.99964038070891
 20
4.76210782052675
 30
0.0
 40
0.0650057753280025
100
AcDbArc
 50
270.0
 51
343.3984499999981
  0
ARC
  5
10D
330
2
100
AcDbEntity
  8
GAIKEI
  6
Continuous
 62
     1
100
AcDbCircle
 10
38.99964038070891
 20
4.982127367790724
 30
0.0
 40
0.0650057753280025
100
AcDbArc
 50
16.60155000000189
 51
90.0
  0
LINE
  5
10E
330
2
100
AcDbEntity
  8
GAIKEI
  6
Continuous
 62
     1
100
AcDbLine
 10
38.96818638623205
 20
4.697102045198732
 30
0.0
 11
38.99964038070891
 21
4.697102045198732
 31
0.0
  0
LINE
  5
10F
330
2
100
AcDbEntity
  8
GAIKEI
  6
Continuous
 62
     1
100
AcDbLine
 10
38.99964038070891
 20
5.047133143118742
 30
0.0
 11
38.96818638623205
 21
5.047133143118742
 31
0.0
  0
ELLIPSE
  5
110
330
2
100
AcDbEntity
  8
GAIKEI
  6
Continuous
 62
     1
100
AcDbEllipse
 10
39.99921133589737
 20
4.107712231859125
 30
0.0
 11
-0.0261703031777274
 21
0.4993591320935867
 31
0.0
210
0.0
220
0.0
230
1.0
 40
0.7656099999999868
 41
3.14159265358974
 42
4.672286563984016
  0
ELLIPSE
  5
111
330
2
100
AcDbEntity
  8
GAIKEI
  6
Continuous
 62
     1
100
AcDbEllipse
 10
40.85085364861612
 20
10.94103090196267
 30
0.0
 11
0.0
 21
0.3250288766400047
 31
0.0
210
0.0
220
0.0
230
1.0
 40
0.1391730000000111
 41
3.141592653589793
 42
6.283185307179586
  0
ELLIPSE
  5
112
330
2
100
AcDbEntity
  8
GAIKEI
  6
Continuous
 62
     1
100
AcDbEllipse
 10
40.85085364861607
 20
24.01529825848047
 30
0.0
 11
0.0
 21
0.3250288766400047
 31
0.0
210
0.0
220
0.0
230
1.0
 40
0.1391730000000111
 41
3.141592653589793
 42
6.283185307179586
  0
ELLIPSE
  5
113
330
2
100
AcDbEntity
  8
GAIKEI
  6
Continuous
 62
     7
100
AcDbEllipse
 10
40.00549094379846
 20
4.414486209892515
 30
0.0
 11
-0.3214223610685126
 21
0.3830562535435122
 31
0.0
210
0.0
220
0.0
230
1.0
 40
0.160711
 41
3.141592653589792
 42
3.14434683352869
  0
ARC
  5
114
330
2
100
AcDbEntity
  8
GAIKEI
  6
Continuous
 62
     1
100
AcDbCircle
 10
40.33332193204268
 20
4.13985407533471
 30
0.0
 40
0.5148736118819045
100
AcDbArc
 50
274.664976570409
 51
0.3401424516866655
  0
ARC
  5
115
330
2
100
AcDbEntity
  8
GAIKEI
  6
Continuous
 62
     7
100
AcDbCircle
 10
40.53012065363645
 20
31.12414828221984
 30
0.0
 40
0.2500222128000095
100
AcDbArc
 50
7.9999999999978
 51
78.00000000000038
  0
ARC
  5
116
330
2
100
AcDbEntity
  8
GAIKEI
  6
Continuous
 62
     1
100
AcDbCircle
 10
39.17379515319465
 20
3.557750671455721
 30
0.0
 40
0.2500222128000095
100
AcDbArc
 50
285.0000000000045
 51
314.9999999999956
  0
ARC
  5
117
330
2
100
AcDbEntity
  8
GAIKEI
  6
Continuous
 62
     1
100
AcDbCircle
 10
39.66216654172348
 20
3.338952482701245
 30
0.0
 40
0.2500222128000095
100
AcDbArc
 50
133.2988929999926
 51
134.9999999999956
  0
ARC
  5
118
330
2
100
AcDbEntity
  8
GAIKEI
  6
Continuous
 62
     1
100
AcDbCircle
 10
39.08069638199203
 20
3.015120862429455
 30
0.0
 40
0.2500222128000095
100
AcDbArc
 50
105.0000000000045
 51
116.743683999998
  0
ARC
  5
119
330
2
100
AcDbEntity
  8
GAIKEI
  6
Continuous
 62
     1
100
AcDbCircle
 10
39.98327657020002
 20
5.807200670030738
 30
0.0
 40
0.345030653664013
100
AcDbArc
 50
298.5718781421402
 51
0.0
  0
ARC
  5
11A
330
2
100
AcDbEntity
  8
GAIKEI
  6
Continuous
 62
     1
100
AcDbCircle
 10
39.98327657020002
 20
5.807200670030738
 30
0.0
 40
0.345030653664013
100
AcDbArc
 50
0.0
 51
61.42812185785624
  0
ARC
  5
11B
330
2
100
AcDbEntity
  8
GAIKEI
  6
Continuous
 62
     7
100
AcDbCircle
 10
39.79826013272805
 20
3.946961600241479
 30
0.0
 40
0.3500310979200132
100
AcDbArc
 50
272.9999999999991
 51
0.0
  0
ARC
  5
11C
330
2
100
AcDbEntity
  8
GAIKEI
  6
Continuous
 62
     7
100
AcDbCircle
 10
40.64833565624809
 20
6.483277384921336
 30
0.0
 40
0.500044425600019
100
AcDbArc
 50
130.5742470000077
 51
180.0
  0
LINE
  5
11D
330
2
100
AcDbEntity
  8
GAIKEI
  6
Continuous
 62
     1
100
AcDbLine
 10
40.8481864710319
 20
4.142910659003689
 30
0.0
 11
40.8481864710319
 21
7.303733769530822
 31
0.0
  0
LINE
  5
11E
330
2
100
AcDbEntity
  8
GAIKEI
  6
Continuous
 62
     1
100
AcDbLine
 10
39.83447340404945
 20
3.598347982559289
 30
0.0
 11
40.37519622944688
 21
3.626686091698502
 31
0.0
  0
LINE
  5
11F
330
2
100
AcDbEntity
  8
GAIKEI
  6
Continuous
 62
     1
100
AcDbLine
 10
40.38226756787946
 20
6.207421376961519
 30
0.0
 11
40.38226756787946
 21
6.41577248756306
 31
0.0
  0
LINE
  5
120
330
2
100
AcDbEntity
  8
GAIKEI
  6
Continuous
 62
     1
100
AcDbLine
 10
40.38226756787946
 20
4.107712231859011
 30
0.0
 11
40.38226756787946
 21
5.507359181121557
 31
0.0
  0
LINE
  5
121
330
2
100
AcDbEntity
  8
GAIKEI
  6
Continuous
 62
     1
100
AcDbLine
 10
40.38226756787946
 20
6.41577248756306
 30
0.0
 11
40.93690574376876
 21
6.881169134939966
 31
0.0
  0
LINE
  5
122
330
2
100
AcDbEntity
  8
GAIKEI
  6
Continuous
 62
     7
100
AcDbLine
 10
40.32691330002331
 20
6.866333616903489
 30
0.0
 11
40.31532462044668
 21
6.855564110104864
 31
0.0
  0
LINE
  5
123
330
2
100
AcDbEntity
  8
GAIKEI
  6
Continuous
 62
     7
100
AcDbLine
 10
41.12318647103182
 20
28.70074932860234
 30
0.0
 11
40.77770966744833
 21
31.15894464888402
 31
0.0
  0
LINE
  5
124
330
2
100
AcDbEntity
  8
GAIKEI
  6
Continuous
 62
     1
100
AcDbLine
 10
39.35058751001219
 20
3.380958264633818
 30
0.0
 11
39.48537413490157
 21
3.515744889523148
 31
0.0
  0
LINE
  5
125
330
2
100
AcDbEntity
  8
GAIKEI
  6
Continuous
 62
     1
100
AcDbLine
 10
39.01598588289738
 20
3.256623768346059
 30
0.0
 11
39.23850565228929
 21
3.316247765539173
 31
0.0
  0
LINE
  5
126
330
2
100
AcDbEntity
  8
GAIKEI
  6
Continuous
 62
     7
100
AcDbLine
 10
40.5821031946416
 20
31.36870690980027
 30
0.0
 11
38.96818638623205
 21
31.7117554897286
 31
0.0
  0
LINE
  5
127
330
2
100
AcDbEntity
  8
GAIKEI
  6
Continuous
 62
     7
100
AcDbLine
 10
40.72291263191312
 20
7.198616538016779
 30
0.0
 11
41.12318647103188
 21
7.534486166596934
 31
0.0
  0
LINE
  5
128
330
2
100
AcDbEntity
  8
GAIKEI
  6
Continuous
 62
     1
100
AcDbLine
 10
40.81572487765998
 20
10.61600202532258
 30
0.0
 11
40.85085364861612
 21
10.61600202532258
 31
0.0
  0
LINE
  5
129
330
2
100
AcDbEntity
  8
GAIKEI
  6
Continuous
 62
     1
100
AcDbLine
 10
40.85085364861612
 20
11.26605977860259
 30
0.0
 11
40.81572487765998
 21
11.26605977860259
 31
0.0
  0
LINE
  5
12A
330
2
100
AcDbEntity
  8
GAIKEI
  6
Continuous
 62
     1
100
AcDbLine
 10
40.85085364861612
 20
24.34032713512045
 30
0.0
 11
40.81572487765993
 21
24.34032713512045
 31
0.0
  0
LINE
  5
12B
330
2
100
AcDbEntity
  8
GAIKEI
  6
Continuous
 62
     1
100
AcDbLine
 10
40.81572487765993
 20
23.69026938184044
 30
0.0
 11
40.85085364861612
 21
23.69026938184044
 31
0.0
  0
LINE
  5
12C
330
2
100
AcDbEntity
  8
GAIKEI
  6
Continuous
 62
     7
100
AcDbLine
 10
40.14829123064811
 20
3.946961600241479
 30
0.0
 11
40.14829123064811
 21
4.216977189319095
 31
0.0
  0
LINE
  5
12D
330
2
100
AcDbEntity
  8
GAIKEI
  6
Continuous
 62
     1
100
AcDbLine
 10
40.62011839933364
 20
10.61600202532258
 30
0.0
 11
40.81572487765998
 21
10.61600202532258
 31
0.0
  0
LINE
  5
12E
330
2
100
AcDbEntity
  8
GAIKEI
  6
Continuous
 62
     1
100
AcDbLine
 10
40.81572487765998
 20
11.26605977860259
 30
0.0
 11
40.62011839933364
 21
11.26605977860259
 31
0.0
  0
LINE
  5
12F
330
2
100
AcDbEntity
  8
GAIKEI
  6
Continuous
 62
     1
100
AcDbLine
 10
40.81572487765993
 20
24.34032713512045
 30
0.0
 11
40.62011839933364
 21
24.34032713512045
 31
0.0
  0
LINE
  5
130
330
2
100
AcDbEntity
  8
GAIKEI
  6
Continuous
 62
     1
100
AcDbLine
 10
40.62011839933364
 20
23.69026938184044
 30
0.0
 11
40.81572487765993
 21
23.69026938184044
 31
0.0
  0
LINE
  5
131
330
2
100
AcDbEntity
  8
GAIKEI
  6
Continuous
 62
     1
100
AcDbLine
 10
40.77770965026155
 20
11.26605977860259
 30
0.0
 11
40.77770965026149
 21
23.69026938184044
 31
0.0
  0
LINE
  5
132
330
2
100
AcDbEntity
  8
GAIKEI
  6
Continuous
 62
     1
100
AcDbLine
 10
40.77770965026149
 20
24.34032713512045
 30
0.0
 11
40.77770965026149
 21
25.97684763552957
 31
0.0
  0
LINE
  5
133
330
2
100
AcDbEntity
  8
GAIKEI
  6
Continuous
 62
     1
100
AcDbLine
 10
40.77770965026149
 20
7.244596695602069
 30
0.0
 11
40.77770965026155
 21
10.61600202532258
 31
0.0
  0
LINE
  5
134
330
2
100
AcDbEntity
  8
GAIKEI
  6
Continuous
 62
     7
100
AcDbLine
 10
40.32691330002331
 20
6.866333616903489
 30
0.0
 11
40.72291263191312
 21
7.198616538016779
 31
0.0
  0
LINE
  5
135
330
2
100
AcDbEntity
  8
GAIKEI
  6
Continuous
 62
     7
100
AcDbLine
 10
40.14829123064811
 20
4.216977189319095
 30
0.0
 11
40.14829123064811
 21
6.483277384921336
 31
0.0
  0
LINE
  5
136
330
2
100
AcDbEntity
  8
GAIKEI
  6
Continuous
 62
     7
100
AcDbLine
 10
40.32308721010076
 20
6.863198038328278
 30
0.0
 11
40.3267997899386
 21
6.866434425859665
 31
0.0
  0
LINE
  5
137
330
2
100
AcDbEntity
  8
GAIKEI
  6
Continuous
 62
     7
100
AcDbLine
 10
38.96818638623205
 20
3.552947818954635
 30
0.0
 11
39.81673858354867
 21
3.59741858948837
 31
0.0
  0
LINE
  5
138
330
2
100
AcDbEntity
  8
GAIKEI
  6
Continuous
 62
     1
100
AcDbLine
 10
40.58210317193521
 20
10.61600202532258
 30
0.0
 11
40.58210317193515
 21
7.645987983975146
 31
0.0
  0
LINE
  5
139
330
2
100
AcDbEntity
  8
GAIKEI
  6
Continuous
 62
     1
100
AcDbLine
 10
40.58210317193521
 20
10.61600202532258
 30
0.0
 11
40.62011839933364
 21
10.61600202532258
 31
0.0
  0
LINE
  5
13A
330
2
100
AcDbEntity
  8
GAIKEI
  6
Continuous
 62
     1
100
AcDbLine
 10
40.62011839933364
 20
11.26605977860259
 30
0.0
 11
40.62011839933364
 21
10.61600202532258
 31
0.0
  0
LINE
  5
13B
330
2
100
AcDbEntity
  8
GAIKEI
  6
Continuous
 62
     1
100
AcDbLine
 10
40.62011839933364
 20
11.26605977860259
 30
0.0
 11
40.58210317193521
 21
11.26605977860259
 31
0.0
  0
LINE
  5
13C
330
2
100
AcDbEntity
  8
GAIKEI
  6
Continuous
 62
     1
100
AcDbLine
 10
40.58210317193515
 20
23.69026938184044
 30
0.0
 11
40.58210317193521
 21
11.26605977860259
 31
0.0
  0
LINE
  5
13D
330
2
100
AcDbEntity
  8
GAIKEI
  6
Continuous
 62
     1
100
AcDbLine
 10
40.58210317193515
 20
23.69026938184044
 30
0.0
 11
40.62011839933364
 21
23.69026938184044
 31
0.0
  0
LINE
  5
13E
330
2
100
AcDbEntity
  8
GAIKEI
  6
Continuous
 62
     1
100
AcDbLine
 10
40.62011839933364
 20
24.34032713512045
 30
0.0
 11
40.62011839933364
 21
23.69026938184044
 31
0.0
  0
LINE
  5
13F
330
2
100
AcDbEntity
  8
GAIKEI
  6
Continuous
 62
     1
100
AcDbLine
 10
40.62011839933364
 20
24.34032713512045
 30
0.0
 11
40.58210317193515
 21
24.34032713512045
 31
0.0
  0
LINE
  5
140
330
2
100
AcDbEntity
  8
GAIKEI
  6
Continuous
 62
     1
100
AcDbLine
 10
40.58210317193515
 20
25.57552719048369
 30
0.0
 11
40.58210317193515
 21
24.34032713512045
 31
0.0
  0
LINE
  5
141
330
2
100
AcDbEntity
  8
GAIKEI
  6
Continuous
 62
     1
100
AcDbLine
 10
38.96818638623205
 20
24.82537022795248
 30
0.0
 11
39.10372052753326
 21
24.82537022795248
 31
0.0
  0
LINE
  5
142
330
2
100
AcDbEntity
  8
GAIKEI
  6
Continuous
 62
     1
100
AcDbLine
 10
39.10372052753326
 20
23.52525472139234
 30
0.0
 11
38.96818638623205
 21
23.52525472139234
 31
0.0
  0
LINE
  5
143
330
2
100
AcDbEntity
  8
GAIKEI
  6
Continuous
 62
     1
100
AcDbLine
 10
39.10372052753326
 20
23.52525472139234
 30
0.0
 11
39.10372052753326
 21
24.82537022795248
 31
0.0
  0
LINE
  5
144
330
2
100
AcDbEntity
  8
GAIKEI
  6
Continuous
 62
     1
100
AcDbLine
 10
39.10372052753326
 20
10.42598514359457
 30
0.0
 11
38.96818638623211
 21
10.42598514359457
 31
0.0
  0
LINE
  5
145
330
2
100
AcDbEntity
  8
GAIKEI
  6
Continuous
 62
     1
100
AcDbLine
 10
38.96818638623211
 20
11.72610065015465
 30
0.0
 11
39.10372052753326
 21
11.72610065015465
 31
0.0
  0
LINE
  5
146
330
2
100
AcDbEntity
  8
GAIKEI
  6
Continuous
 62
     1
100
AcDbLine
 10
39.10372052753326
 20
10.42598514359457
 30
0.0
 11
39.10372052753326
 21
11.72610065015465
 31
0.0
  0
ELLIPSE
  5
147
330
2
100
AcDbEntity
  8
GAIKEI
  6
Continuous
 62
     1
100
AcDbEllipse
 10
39.09296932236066
 20
25.94097694214139
 30
0.0
 11
-0.0353472850665863
 21
0.0353472850665863
 31
0.0
210
0.0
220
0.0
230
1.0
 40
0.9990757796394584
 41
0.785860431794156
 42
0.8903589325753582
  0
LINE
  5
148
330
2
100
AcDbEntity
  8
GAIKEI
  6
Continuous
 62
     1
100
AcDbLine
 10
39.04205099860837
 20
25.93902161842397
 30
0.0
 11
39.0429724804759
 21
25.94097694214139
 31
0.0
  0
LINE
  5
149
330
2
100
AcDbEntity
  8
GAIKEI
  6
Continuous
 62
     1
100
AcDbLine
 10
39.03154951562192
 20
25.99742025675204
 30
0.0
 11
39.03312820587797
 21
25.98297322322981
 31
0.0
  0
LINE
  5
14A
330
2
100
AcDbEntity
  8
GAIKEI
  6
Continuous
 62
     1
100
AcDbLine
 10
40.61291625947172
 20
28.74252469090584
 30
0.0
 11
40.61105379400413
 21
28.76973820864476
 31
0.0
  0
LINE
  5
14B
330
2
100
AcDbEntity
  8
GAIKEI
  6
Continuous
 62
     1
100
AcDbLine
 10
40.484636862706
 20
31.37803328820314
 30
0.0
 11
40.48479497675344
 21
31.37877120376203
 31
0.0
  0
LINE
  5
14C
330
2
100
AcDbEntity
  8
GAIKEI
  6
Continuous
 62
     1
100
AcDbLine
 10
40.48456130599333
 20
31.37768075688308
 30
0.0
 11
40.484636862706
 21
31.37803328820314
 31
0.0
  0
LINE
  5
14D
330
2
100
AcDbEntity
  8
GAIKEI
  6
Continuous
 62
     1
100
AcDbLine
 10
40.61105379400413
 20
28.14664775122839
 30
0.0
 11
40.61291625947172
 21
28.1738612689673
 31
0.0
  0
LINE
  5
14E
330
2
100
AcDbEntity
  8
GAIKEI
  6
Continuous
 62
     1
100
AcDbLine
 10
40.484636862706
 20
25.53835267167
 30
0.0
 11
40.48479497675344
 21
25.53761475611111
 31
0.0
  0
LINE
  5
14F
330
2
100
AcDbEntity
  8
GAIKEI
  6
Continuous
 62
     1
100
AcDbLine
 10
40.48456130599333
 20
25.53870520299006
 30
0.0
 11
40.484636862706
 21
25.53835267167
 31
0.0
  0
LINE
  5
150
330
2
100
AcDbEntity
  8
GAIKEI
  6
Continuous
 62
     1
100
AcDbLine
 10
40.7569971600953
 20
25.83177729048327
 30
0.0
 11
40.757744776516
 21
25.8316744813493
 31
0.0
  0
LINE
  5
151
330
2
100
AcDbEntity
  8
GAIKEI
  6
Continuous
 62
     1
100
AcDbLine
 10
40.75664002836652
 20
25.83182639484585
 30
0.0
 11
40.7569971600953
 21
25.83177729048327
 31
0.0
  0
LINE
  5
152
330
2
100
AcDbEntity
  8
GAIKEI
  6
Continuous
 62
     1
100
AcDbLine
 10
38.96932578746021
 20
31.60123536821391
 30
0.0
 11
38.96818638623205
 21
31.60123536821391
 31
0.0
  0
LINE
  5
153
330
2
100
AcDbEntity
  8
GAIKEI
  6
Continuous
 62
     1
100
AcDbLine
 10
38.96818638623205
 20
25.31515059165929
 30
0.0
 11
38.96932578746021
 21
25.31515059165929
 31
0.0
  0
LINE
  5
154
330
2
100
AcDbEntity
  8
GAIKEI
  6
Continuous
 62
     1
100
AcDbLine
 10
38.96932578746021
 20
25.31515059165929
 30
0.0
 11
40.4638402150631
 21
25.63540369400369
 31
0.0
  0
LINE
  5
155
330
2
100
AcDbEntity
  8
GAIKEI
  6
Continuous
 62
     1
100
AcDbLine
 10
38.96818638623205
 20
25.21262721899649
 30
0.0
 11
40.48479497675344
 21
25.53761475611111
 31
0.0
  0
LINE
  5
156
330
2
100
AcDbEntity
  8
GAIKEI
  6
Continuous
 62
     1
100
AcDbLine
 10
40.61291625947172
 20
28.1738612689673
 30
0.0
 11
40.61291625947172
 21
28.74252469090584
 31
0.0
  0
LINE
  5
157
330
2
100
AcDbEntity
  8
GAIKEI
  6
Continuous
 62
     1
100
AcDbLine
 10
40.33298963986538
 20
30.79166154299861
 30
0.0
 11
40.32618663546395
 21
30.84112933788106
 31
0.0
  0
LINE
  5
158
330
2
100
AcDbEntity
  8
GAIKEI
  6
Continuous
 62
     1
100
AcDbLine
 10
40.49328263082469
 20
29.64732212610136
 30
0.0
 11
40.34957941375568
 21
30.69224951090507
 31
0.0
  0
LINE
  5
159
330
2
100
AcDbEntity
  8
GAIKEI
  6
Continuous
 62
     1
100
AcDbLine
 10
40.61105379400413
 20
28.76973820864476
 30
0.0
 11
40.50418104907618
 21
29.54685570033201
 31
0.0
  0
LINE
  5
15A
330
2
100
AcDbEntity
  8
GAIKEI
  6
Continuous
 62
     1
100
AcDbLine
 10
40.4638402150631
 20
31.28098226586946
 30
0.0
 11
38.96932578746021
 21
31.60123536821391
 31
0.0
  0
LINE
  5
15B
330
2
100
AcDbEntity
  8
GAIKEI
  6
Continuous
 62
     1
100
AcDbLine
 10
40.32618663546395
 20
26.07525662199203
 30
0.0
 11
40.33298963986538
 21
26.12472441687453
 31
0.0
  0
LINE
  5
15C
330
2
100
AcDbEntity
  8
GAIKEI
  6
Continuous
 62
     1
100
AcDbLine
 10
40.51896621263904
 20
27.47703981104519
 30
0.0
 11
40.61105379400413
 21
28.14664775122839
 31
0.0
  0
LINE
  5
15D
330
2
100
AcDbEntity
  8
GAIKEI
  6
Continuous
 62
     1
100
AcDbLine
 10
40.34957941375568
 20
26.22413644896813
 30
0.0
 11
40.50806779438744
 21
27.37657338527572
 31
0.0
  0
LINE
  5
15E
330
2
100
AcDbEntity
  8
GAIKEI
  6
Continuous
 62
     1
100
AcDbLine
 10
40.97362770626932
 20
28.23109500380155
 30
0.0
 11
40.97362770626932
 21
28.68529095607158
 31
0.0
  0
LINE
  5
15F
330
2
100
AcDbEntity
  8
GAIKEI
  6
Continuous
 62
     1
100
AcDbLine
 10
40.96060409920892
 20
28.87558236218922
 30
0.0
 11
40.65866842424532
 21
31.07108606799727
 31
0.0
  0
LINE
  5
160
330
2
100
AcDbEntity
  8
GAIKEI
  6
Continuous
 62
     1
100
AcDbLine
 10
40.65866842424532
 20
25.84529989187593
 30
0.0
 11
40.96060409920892
 21
28.04080359768386
 31
0.0
  0
LINE
  5
161
330
2
100
AcDbEntity
  8
GAIKEI
  6
Continuous
 62
     1
100
AcDbLine
 10
40.757744776516
 20
25.8316744813493
 30
0.0
 11
41.13790772236813
 21
28.59600220290701
 31
0.0
  0
LINE
  5
162
330
2
100
AcDbEntity
  8
GAIKEI
  6
Continuous
 62
     1
100
AcDbLine
 10
39.03154951562192
 20
30.91896570312111
 30
0.0
 11
38.96818638623205
 21
30.91896570312111
 31
0.0
  0
LINE
  5
163
330
2
100
AcDbEntity
  8
GAIKEI
  6
Continuous
 62
     1
100
AcDbLine
 10
38.96818638623205
 20
25.99742025675204
 30
0.0
 11
39.03154951562192
 21
25.99742025675204
 31
0.0
  0
LINE
  5
164
330
2
100
AcDbEntity
  8
GAIKEI
  6
Continuous
 62
     1
100
AcDbLine
 10
39.03154951562192
 20
30.91896570312111
 30
0.0
 11
39.03154951562192
 21
25.99742025675204
 31
0.0
  0
LINE
  5
165
330
2
100
AcDbEntity
  8
GAIKEI
  6
Continuous
 62
     1
100
AcDbLine
 10
40.13527642436963
 20
31.01353780521936
 30
0.0
 11
39.13947500407914
 21
31.04831194466886
 31
0.0
  0
LINE
  5
166
330
2
100
AcDbEntity
  8
GAIKEI
  6
Continuous
 62
     1
100
AcDbLine
 10
39.13947500407914
 20
25.86807401520429
 30
0.0
 11
40.13527642436963
 21
25.90284815465384
 31
0.0
  0
SPLINE
  5
167
330
2
100
AcDbEntity
  8
GAIKEI
  6
Continuous
 62
     1
100
AcDbSpline
210
0.0
220
0.0
230
1.0
 70
     8
 71
     3
 72
    19
 73
    15
 74
    13
 42
0.0000000001
 43
0.0000000001
 44
0.000001
 12
0.0213842593146391
 22
0.9997713305819308
 32
0.0
 13
-0.1213258174957188
 23
0.9926127371785009
 33
0.0
 40
0.0
 40
0.0
 40
0.0
 40
0.0
 40
0.0170227267862881
 40
0.0336653186151554
 40
0.0496533389315694
 40
0.0649992000493143
 40
0.0795095599456123
 40
0.0998742087045732
 40
0.1177560207523961
 40
0.1324530564066689
 40
0.1440674448046816
 40
0.1496619817088309
 40
0.1537182290903432
 40
0.1561012044465209
 40
0.1561012044465209
 40
0.1561012044465209
 40
0.1561012044465209
 10
36.87187954450269
 20
32.60001037213271
 30
0.0
 10
36.87200088397063
 20
32.60568331686914
 30
0.0
 10
36.87213546757892
 20
32.6169054719153
 30
0.0
 10
36.87194406688144
 20
32.63345629650479
 30
0.0
 10
36.87161046721405
 20
32.6494449811956
 30
0.0
 10
36.87122255695937
 20
32.66472148540024
 30
0.0
 10
36.87081915987764
 20
32.68145697732682
 30
0.0
 10
36.87057077988948
 20
32.69904128069649
 30
0.0
 10
36.87061503112185
 20
32.71669073793575
 30
0.0
 10
36.87101153138119
 20
32.7314170717757
 30
0.0
 10
36.87154200691831
 20
32.74204217158022
 30
0.0
 10
36.8719050396848
 20
32.74911654276002
 30
0.0
 10
36.87216759550927
 20
32.75312854372098
 30
0.0
 10
36.87197591664708
 20
32.75527164368164
 30
0.0
 10
36.87187954450269
 20
32.75606010091195
 30
0.0
 11
36.87187954450269
 21
32.60001037213271
 31
0.0
 11
36.87206839805799
 21
32.61703201200811
 31
0.0
 11
36.87191424200273
 21
32.63367388806631
 31
0.0
 11
36.87159269985057
 21
32.6496586726094
 31
0.0
 11
36.87121787192575
 21
32.66499995409845
 31
0.0
 11
36.87088525541185
 21
32.67950650073095
 31
0.0
 11
36.8706182048594
 21
32.6998693986443
 31
0.0
 11
36.87069654930179
 21
32.71775103981833
 31
0.0
 11
36.87110102672057
 21
32.73244250796711
 31
0.0
 11
36.87164458704524
 21
32.74404416438398
 31
0.0
 11
36.87194569603923
 21
32.74963057940369
 31
0.0
 11
36.87207130005663
 21
32.75368482949551
 31
0.0
 11
36.87187954450269
 21
32.75606010091195
 31
0.0
  0
SPLINE
  5
168
330
2
100
AcDbEntity
  8
GAIKEI
  6
Continuous
 62
     1
100
AcDbSpline
210
0.0
220
0.0
230
1.0
 70
     8
 71
     3
 72
    25
 73
    21
 74
    19
 42
0.0000000001
 43
0.0000000001
 44
0.000001
 12
0.5909511587252205
 22
-0.8067073372675615
 32
0.0
 13
-0.0272811889574892
 23
-0.999627799097777
 33
0.0
 40
0.0
 40
0.0
 40
0.0
 40
0.0
 40
0.00074329678242
 40
0.002726729855163
 40
0.0061360218566346
 40
0.0109132863929237
 40
0.0168508832889063
 40
0.0240117930148058
 40
0.0326017377538677
 40
0.0423706598912385
 40
0.0530746293406332
 40
0.0647804937318657
 40
0.0777879482733593
 40
0.0916776871623178
 40
0.105978279480656
 40
0.1209249749249388
 40
0.136875132574022
 40
0.1532846513560191
 40
0.1762473269125282
 40
0.1998634023454742
 40
0.1998634023454742
 40
0.1998634023454742
 40
0.1998634023454742
 10
36.93348921839584
 20
32.79481509016824
 30
0.0
 10
36.9336356357608
 20
32.79461521584553
 30
0.0
 10
36.93412363313868
 20
32.79382301889716
 30
0.0
 10
36.93399928100902
 20
32.79168667663475
 30
0.0
 10
36.93417672631617
 20
32.78834997863704
 30
0.0
 10
36.93406179242342
 20
32.78361848193763
 30
0.0
 10
36.93398896543409
 20
32.77766960543376
 30
0.0
 10
36.93386188124811
 20
32.77043791518128
 30
0.0
 10
36.93375338584659
 20
32.76193313106684
 30
0.0
 10
36.93366603756371
 20
32.75224550986374
 30
0.0
 10
36.93362307666558
 20
32.74151941783578
 30
0.0
 10
36.93362494412841
 20
32.72971358903581
 30
0.0
 10
36.93367744070093
 20
32.71684599595723
 30
0.0
 10
36.93376883750528
 20
32.70311369376283
 30
0.0
 10
36.93388616371382
 20
32.6887351625678
 30
0.0
 10
36.93400489136684
 20
32.67366981799519
 30
0.0
 10
36.93410059395345
 20
32.65790128346492
 30
0.0
 10
36.93413479122614
 20
32.63946050244708
 30
0.0
 10
36.93402587877819
 20
32.61846417144415
 30
0.0
 10
36.93370397660127
 20
32.60294053250034
 30
0.0
 10
36.93348921839584
 20
32.59507143733089
 30
0.0
 11
36.93348921839584
 21
32.79481509016824
 31
0.0
 11
36.9338604878717
 21
32.79417108283366
 31
0.0
 11
36.93405476208511
 21
32.79219737814316
 31
0.0
 11
36.93411559133847
 21
32.78878866316717
 31
0.0
 11
36.93407894317488
 21
32.78401155472096
 31
0.0
 11
36.93398819473202
 21
32.77807465961007
 31
0.0
 11
36.9338745395429
 21
32.77091465687778
 31
0.0
 11
36.93376245414402
 21
32.76232544667846
 31
0.0
 11
36.93367568203496
 21
32.75255691206292
 31
0.0
 11
36.93363055691202
 21
32.74185303916522
 31
0.0
 11
36.93363117029355
 21
32.73014717582475
 31
0.0
 11
36.93368068835105
 21
32.71713981632206
 31
0.0
 11
36.93377040364089
 21
32.70325036779297
 31
0.0
 11
36.93388280256409
 21
32.68895021766542
 31
0.0
 11
36.93399693554852
 21
32.67400395836046
 31
0.0
 11
36.93408766570519
 21
32.65805405898061
 31
0.0
 11
36.93411373349068
 21
32.64164456079044
 31
0.0
 11
36.93396739568152
 21
32.61868234921832
 31
0.0
 11
36.93348921839584
 21
32.59507143733089
 31
0.0
  0
SPLINE
  5
169
330
2
100
AcDbEntity
  8
GAIKEI
  6
Continuous
 62
     1
100
AcDbSpline
210
0.0
220
0.0
230
1.0
 70
     8
 71
     3
 72
    25
 73
    21
 74
    19
 42
0.0000000001
 43
0.0000000001
 44
0.000001
 12
0.0281905901065335
 22
-0.9996025663379647
 32
0.0
 13
-0.4008655609207862
 23
-0.9161368904632448
 33
0.0
 40
0.0
 40
0.0
 40
0.0
 40
0.0
 40
0.0162962299869759
 40
0.0324852217692413
 40
0.0489094868862326
 40
0.0649892448307298
 40
0.0802035379895589
 40
0.0948820072443144
 40
0.1093099214539834
 40
0.122966996713856
 40
0.1355617963262415
 40
0.1472311895942588
 40
0.1581833294875879
 40
0.1679926915507551
 40
0.1763846741143669
 40
0.1835629613920768
 40
0.1896245610412924
 40
0.1943008486346089
 40
0.1983877092312508
 40
0.1998377220781285
 40
0.1998377220781285
 40
0.1998377220781285
 40
0.1998377220781285
 10
36.93348921839584
 20
2.692913062988566
 30
0.0
 10
36.93364235184245
 20
2.687483145216361
 30
0.0
 10
36.93389263837713
 20
2.676657347903386
 30
0.0
 10
36.93407804495959
 20
2.660354972472788
 30
0.0
 10
36.93413290484634
 20
2.644123938872013
 30
0.0
 10
36.93409052953729
 20
2.628217826659664
 30
0.0
 10
36.93399497297287
 20
2.61289393704385
 30
0.0
 10
36.93387604499623
 20
2.598120855380031
 30
0.0
 10
36.93376215079553
 20
2.58386682374649
 30
0.0
 10
36.93367212316849
 20
2.570307185285571
 30
0.0
 10
36.93362497849554
 20
2.557666816761951
 30
0.0
 10
36.93362272672306
 20
2.545928047584652
 30
0.0
 10
36.93367167227581
 20
2.535117675967114
 30
0.0
 10
36.93375741054178
 20
2.525400654323149
 30
0.0
 10
36.93387911915741
 20
2.516940206103399
 30
0.0
 10
36.93397731863166
 20
2.509734476686062
 30
0.0
 10
36.93413012349839
 20
2.503752010709177
 30
0.0
 10
36.93402565781355
 20
2.498840820677287
 30
0.0
 10
36.93433514137556
 20
2.495361886744291
 30
0.0
 10
36.93368297180024
 20
2.493612213571324
 30
0.0
 10
36.93348921839584
 20
2.493169410151097
 30
0.0
 11
36.93348921839584
 21
2.692913062988566
 31
0.0
 11
36.9338604878717
 21
2.676621278021968
 31
0.0
 11
36.93405476208511
 21
2.660433450483367
 31
0.0
 11
36.93411559133858
 21
2.644009298187143
 31
0.0
 11
36.93407894317488
 21
2.62792958249895
 31
0.0
 11
36.93398819473214
 21
2.612715560551521
 31
0.0
 11
36.93387453954301
 21
2.598037531894817
 31
0.0
 11
36.93376245414413
 21
2.583610053692325
 31
0.0
 11
36.93367568203496
 21
2.569953254765607
 31
0.0
 11
36.93363055691202
 21
2.557358536778224
 31
0.0
 11
36.93363117029355
 21
2.545689144515108
 31
0.0
 11
36.93368068835105
 21
2.534737117974657
 31
0.0
 11
36.93377040364089
 21
2.524928168230019
 31
0.0
 11
36.93388280256409
 21
2.516536941490755
 31
0.0
 11
36.93399693554852
 21
2.509359566526143
 31
0.0
 11
36.93408766570519
 21
2.503298654704735
 31
0.0
 11
36.93411373349068
 21
2.498622457029853
 31
0.0
 11
36.93396739568152
 21
2.494538362781781
 31
0.0
 11
36.93348921839584
 21
2.493169410151097
 31
0.0
  0
SPLINE
  5
16A
330
2
100
AcDbEntity
  8
GAIKEI
  6
Continuous
 62
     1
100
AcDbSpline
210
0.0
220
0.0
230
1.0
 70
     8
 71
     3
 72
    30
 73
    26
 74
     0
 42
0.0000000001
 43
0.0000000001
 40
0.256854181831742
 40
0.256854181831742
 40
0.256854181831742
 40
0.256854181831742
 40
0.3030489831524179
 40
0.3240910055785475
 40
0.345906034337955
 40
0.3684937187094058
 40
0.3918536980679295
 40
0.4159856031357031
 40
0.4408890570347025
 40
0.466563676236536
 40
0.4927882784883748
 40
0.5217307213297099
 40
0.5534044539066166
 40
0.5878238395940912
 40
0.6250042657959281
 40
0.6715302177737608
 40
0.7217836999859159
 40
0.7669496736025986
 40
0.8014271103592763
 40
0.8251396620111714
 40
0.8457402503410477
 40
0.8893619991088861
 40
1.01487324770404
 40
1.134357471453109
 40
1.248407897277932
 40
1.248407897277932
 40
1.248407897277932
 40
1.248407897277932
 10
41.12318647103188
 20
7.534486166596934
 30
0.0
 10
41.1206222423528
 20
7.527226506152942
 30
0.0
 10
41.11694011610956
 20
7.516642353937015
 30
0.0
 10
41.11213612671446
 20
7.502599353903406
 30
0.0
 10
41.10863854641564
 20
7.492267847172172
 30
0.0
 10
41.1050492017735
 20
7.481559605117411
 30
0.0
 10
41.1013690908826
 20
7.274721827257337
 30
0.0
 10
41.09759907665448
 20
7.263260019260485
 30
0.0
 10
41.09374000027361
 20
7.251421447215818
 30
0.0
 10
41.08980428799282
 20
7.239241054211447
 30
0.0
 10
41.08569262361408
 20
7.226410132756484
 30
0.0
 10
41.08128243894447
 20
7.21262494606384
 30
0.0
 10
41.07644244531622
 20
7.19754327716032
 30
0.0
 10
41.07114974379811
 20
7.181164936749723
 30
0.0
 10
41.06503812957458
 20
7.162449942399405
 30
0.0
 10
41.05802722904956
 20
7.141252393363288
 30
0.0
 10
41.0503617475627
 20
7.118870620998052
 30
0.0
 10
41.04315043979426
 20
7.098457100779228
 30
0.0
 10
41.037268724682
 20
7.082266231573612
 30
0.0
 10
41.03271293489615
 20
7.069949895241336
 30
0.0
 10
41.02747105811618
 20
7.056263207111157
 30
0.0
 10
41.01570678199817
 20
7.0269093722722
 30
0.0
 10
40.99610770962846
 20
6.982945073770224
 30
0.0
 10
40.96823730185929
 20
6.92993606380736
 30
0.0
 10
40.94754831011113
 20
6.896918920169355
 30
0.0
 10
40.93690573688616
 20
6.881169156065084
 30
0.0
  0
SPLINE
  5
16B
330
2
100
AcDbEntity
  8
GAIKEI
  6
Continuous
 62
     1
100
AcDbSpline
210
0.0
220
0.0
230
1.0
 70
     8
 71
     3
 72
    28
 73
    24
 74
    22
 42
0.0000000001
 43
0.0000000001
 44
0.000001
 12
0.7217480328339719
 22
0.6921558907502644
 32
0.0
 13
0.9952109123015889
 23
0.097750908107491
 33
0.0
 40
0.0
 40
0.0
 40
0.0
 40
0.0
 40
0.012836293808838
 40
0.023641948312269
 40
0.0322393231767318
 40
0.0406586550764641
 40
0.0494682927973164
 40
0.0650086881395664
 40
0.0812452085397115
 40
0.096984210084372
 40
0.108433233961928
 40
0.119484573502548
 40
0.1244284719691708
 40
0.1287900634212241
 40
0.1325757451840371
 40
0.1357853974312525
 40
0.1371717324530676
 40
0.1396412914417338
 40
0.1425473455052814
 40
0.1481162818960545
 40
0.1537856556268956
 40
0.1600382057310398
 40
0.1666011957495928
 40
0.1666011957495928
 40
0.1666011957495928
 40
0.1666011957495928
 10
39.48938617623412
 20
3.519667874675235
 30
0.0
 10
39.49247436616926
 20
3.522629446800294
 30
0.0
 10
39.49830043550429
 20
3.527941242905171
 30
0.0
 10
39.50654241439747
 20
3.53484257483673
 30
0.0
 10
39.51391502087185
 20
3.540472638733561
 30
0.0
 10
39.52093638338144
 20
3.545456534709529
 30
0.0
 10
39.53005699679545
 20
3.551470831909441
 30
0.0
 10
39.54170988383803
 20
3.558362849662373
 30
0.0
 10
39.55583767874117
 20
3.565545396550135
 30
0.0
 10
39.56911516211545
 20
3.571331575403434
 30
0.0
 10
39.58104328726802
 20
3.57583313243056
 30
0.0
 10
39.58971939050446
 20
3.578743260768135
 30
0.0
 10
39.59622755570825
 20
3.580666201271981
 30
0.0
 10
39.60044362553859
 20
3.58179359376713
 30
0.0
 10
39.60412368879128
 20
3.582682868811147
 30
0.0
 10
39.60685409473808
 20
3.583276260127803
 30
0.0
 10
39.60916383330312
 20
3.583736969148702
 30
0.0
 10
39.61138172366015
 20
3.584139281483913
 30
0.0
 10
39.61497616973336
 20
3.584763163657171
 30
0.0
 10
39.61963178833165
 20
3.585509300433372
 30
0.0
 10
39.62540233537661
 20
3.586343276337203
 30
0.0
 10
39.63151462549152
 20
3.587124054965372
 30
0.0
 10
39.63576195257534
 20
3.587584235654489
 30
0.0
 10
39.63793913900327
 20
3.587798081732557
 30
0.0
 11
39.48938617623412
 21
3.519667874675235
 31
0.0
 11
39.49886461158462
 21
3.528324396307425
 31
0.0
 11
39.50716265682923
 21
3.535245700428902
 31
0.0
 11
39.51399162802
 21
3.540468812516394
 31
0.0
 11
39.52085644156978
 21
3.545343277175959
 31
0.0
 11
39.52821128153301
 21
3.550192700168679
 31
0.0
 11
39.5415873754788
 21
3.558103864227575
 31
0.0
 11
39.55605490918424
 21
3.565473883979791
 31
0.0
 11
39.57048291005481
 21
3.571762717472154
 31
0.0
 11
39.58119160988815
 21
3.575812865896068
 31
0.0
 11
39.59167720265316
 21
3.579303467021759
 31
0.0
 11
39.59641968076744
 21
3.58070026937554
 31
0.0
 11
39.60063352016027
 21
3.581825918072411
 31
0.0
 11
39.60431366979788
 21
3.582713574805381
 31
0.0
 11
39.60745042182248
 21
3.583393792006802
 31
0.0
 11
39.60881007775095
 21
3.58366447333708
 31
0.0
 11
39.61123885172947
 21
3.584111465720752
 31
0.0
 11
39.61410215769422
 21
3.584608114573484
 31
0.0
 11
39.6196006743603
 21
3.585490993550536
 31
0.0
 11
39.62521178110808
 21
3.586301784728732
 31
0.0
 11
39.63141412621656
 21
3.587092618243616
 31
0.0
 11
39.63793913900327
 21
3.587798081732557
 31
0.0
  0
SPLINE
  5
16C
330
2
100
AcDbEntity
  8
GAIKEI
  6
Continuous
 62
     1
100
AcDbSpline
210
0.0
220
0.0
230
1.0
 70
     8
 71
     3
 72
    29
 73
    25
 74
    23
 42
0.0000000001
 43
0.0000000001
 44
0.000001
 12
-0.7526510322232211
 22
0.6584196410294274
 32
0.0
 13
-0.2875771477137425
 23
0.9577574766676731
 33
0.0
 40
0.0
 40
0.0
 40
0.0
 40
0.0
 40
0.0009268136212599
 40
0.0037856874541863
 40
0.0086274488929487
 40
0.0155313411765235
 40
0.0244082483448111
 40
0.0352300049078359
 40
0.0479521168105317
 40
0.0625647547588302
 40
0.0790486429128373
 40
0.0971122281118385
 40
0.1168173563900713
 40
0.1381183995708196
 40
0.1654645069305454
 40
0.1945513235683362
 40
0.2253128177557726
 40
0.2575730434400069
 40
0.291003084320827
 40
0.325011471919379
 40
0.3599154155390475
 40
0.3956769625130879
 40
0.432173312189253
 40
0.469178750843411
 40
0.469178750843411
 40
0.469178750843411
 40
0.469178750843411
 10
40.72291261224108
 20
7.198616519749691
 30
0.0
 10
40.72268008983153
 20
7.198819930513622
 30
0.0
 10
40.72176809413946
 20
7.199715503015013
 30
0.0
 10
40.72086735824018
 20
7.202540256566663
 30
0.0
 10
40.71894572675006
 20
7.206964176043157
 30
0.0
 10
40.71666303563517
 20
7.213474562773271
 30
0.0
 10
40.71371286906554
 20
7.221826762403054
 30
0.0
 10
40.71024933743546
 20
7.232067582213289
 30
0.0
 10
40.70623287396284
 20
7.244134315118131
 30
0.0
 10
40.70168954761316
 20
7.258016432877525
 30
0.0
 10
40.69664743064237
 20
7.273608019214165
 30
0.0
 10
40.69113394480143
 20
7.290831319854419
 30
0.0
 10
40.68517599397134
 20
7.309598201435449
 30
0.0
 10
40.67832645359135
 20
7.331328353170974
 30
0.0
 10
40.67058528576843
 20
7.356056308467131
 30
0.0
 10
40.66195219750989
 20
7.383809390165623
 30
0.0
 10
40.65287897094157
 20
7.4131409768177
 30
0.0
 10
40.64342122436949
 20
7.44386900777188
 30
0.0
 10
40.63368561022355
 20
7.475643887653518
 30
0.0
 10
40.62372974224291
 20
7.508272933390401
 30
0.0
 10
40.61358280922249
 20
7.541656200180426
 30
0.0
 10
40.60322941930119
 20
7.575843477692245
 30
0.0
 10
40.59270614429704
 20
7.610711205986362
 30
0.0
 10
40.58565049722398
 20
7.634173884050596
 30
0.0
 10
40.58210319105796
 20
7.645987962566721
 30
0.0
 11
40.72291261224108
 21
7.198616519749691
 31
0.0
 11
40.72226519529556
 21
7.199279783244548
 31
0.0
 11
40.72104632809805
 21
7.201865637755588
 31
0.0
 11
40.71925955527399
 21
7.206365621402881
 31
0.0
 11
40.71688161052157
 21
7.212847051269534
 31
0.0
 11
40.71394563777142
 21
7.221224366486296
 31
0.0
 11
40.71046097389865
 21
7.231469727553474
 31
0.0
 11
40.70644204440429
 21
7.243540363226941
 31
0.0
 11
40.70189208142653
 21
7.257426577488388
 31
0.0
 11
40.69681766497047
 21
7.273109969925656
 31
0.0
 11
40.69130819034467
 21
7.290312840075841
 31
0.0
 11
40.68534398016061
 21
7.309093687401116
 31
0.0
 11
40.67893887521518
 21
7.329408928624047
 31
0.0
 11
40.67076709439652
 21
7.35550550942122
 31
0.0
 11
40.66212595950832
 21
7.38327912353867
 31
0.0
 11
40.65303417821212
 21
7.412666348567029
 31
0.0
 11
40.64354320153234
 21
7.443498855527082
 31
0.0
 11
40.63374905541422
 21
7.475461995272382
 31
0.0
 11
40.62382342476792
 21
7.507989710456854
 31
0.0
 11
40.61367236210458
 21
7.541384937387363
 31
0.0
 11
40.60330661376963
 21
7.575611235466794
 31
0.0
 11
40.59276177503943
 21
7.610551039313804
 31
0.0
 11
40.58210319105796
 21
7.645987962566721
 31
0.0
  0
SPLINE
  5
16D
330
2
100
AcDbEntity
  8
GAIKEI
  6
Continuous
 62
     1
100
AcDbSpline
210
0.0
220
0.0
230
1.0
 70
     8
 71
     3
 72
    11
 73
     7
 74
     5
 42
0.0000000001
 43
0.0000000001
 44
0.000001
 12
0.1117045080192779
 22
-0.9937414668253364
 32
0.0
 13
0.1717596663978053
 23
-0.9851388820866398
 33
0.0
 40
0.0
 40
0.0
 40
0.0
 40
0.0
 40
0.000239862933574
 40
0.013945493340621
 40
0.0259284375106719
 40
0.0335344213696634
 40
0.0335344213696634
 40
0.0335344213696634
 40
0.0335344213696634
 10
39.03312821367843
 20
25.9829732115274
 30
0.0
 10
39.03313714493541
 20
25.98289375761292
 30
0.0
 10
39.03365642159938
 20
25.97827435375636
 30
0.0
 10
39.03465962028099
 20
25.96969007757336
 30
0.0
 10
39.03609486727521
 20
25.95868350821155
 30
0.0
 10
39.03715273461969
 20
25.95223928702119
 30
0.0
 10
39.0375882017031
 20
25.94974163687584
 30
0.0
 11
39.03312821367843
 21
25.9829732115274
 31
0.0
 11
39.03315502908299
 21
25.98273485342878
 31
0.0
 11
39.03475952656845
 21
25.96912363543783
 31
0.0
 11
39.0363624171489
 21
25.95724830510022
 31
0.0
 11
39.0375882017031
 21
25.94974163687584
 31
0.0
  0
SPLINE
  5
16E
330
2
100
AcDbEntity
  8
GAIKEI
  6
Continuous
 62
     1
100
AcDbSpline
210
0.0
220
0.0
230
1.0
 70
     8
 71
     3
 72
    15
 73
    11
 74
     9
 42
0.0000000001
 43
0.0000000001
 44
0.000001
 12
0.9994496190759601
 22
0.0331731657958403
 32
0.0
 13
0.134530790036436
 23
0.9909094138881577
 33
0.0
 40
0.0
 40
0.0
 40
0.0
 40
0.0
 40
0.0349733184911132
 40
0.069903040719561
 40
0.1048022374589206
 40
0.1396858361956329
 40
0.1745694349323074
 40
0.2094686316716449
 40
0.2443983539000268
 40
0.2793716723909934
 40
0.2793716723909934
 40
0.2793716723909934
 40
0.2793716723909934
 10
40.13527641414646
 20
25.90284814312941
 30
0.0
 10
40.14692777076104
 20
25.90323486836032
 30
0.0
 10
40.17020351800852
 20
25.90600981465661
 30
0.0
 10
40.20379216593897
 20
25.9162247288292
 30
0.0
 10
40.23506395091021
 20
25.93213328907057
 30
0.0
 10
40.26305419384397
 20
25.95326103419058
 30
0.0
 10
40.28691603481189
 20
25.97896021431319
 30
0.0
 10
40.30591904645777
 20
26.00845415220931
 30
0.0
 10
40.31949322498758
 20
26.04083135744062
 30
0.0
 10
40.32461828621541
 20
26.06370480239939
 30
0.0
 10
40.32618661560434
 20
26.07525659924192
 30
0.0
 11
40.13527641414646
 21
25.90284814312941
 31
0.0
 11
40.17000032927592
 21
25.9070216047777
 31
0.0
 11
40.20342077105715
 21
25.91717842878882
 31
0.0
 11
40.23452434140438
 21
25.93300638041438
 31
0.0
 11
40.26236689961888
 21
25.95402208432665
 31
0.0
 11
40.28610227641161
 21
25.97958572544764
 31
0.0
 11
40.30500800833533
 21
26.00892050755749
 31
0.0
 11
40.31850730996689
 21
26.04113627789286
 31
0.0
 11
40.32618661560434
 21
26.07525659924192
 31
0.0
  0
SPLINE
  5
16F
330
2
100
AcDbEntity
  8
GAIKEI
  6
Continuous
 62
     1
100
AcDbSpline
210
0.0
220
0.0
230
1.0
 70
     8
 71
     3
 72
    13
 73
     9
 74
     7
 42
0.0000000001
 43
0.0000000001
 44
0.000001
 12
-0.999877353382941
 22
0.0156613598364006
 32
0.0
 13
-0.9488110788832816
 23
-0.3158441650376698
 33
0.0
 40
0.0
 40
0.0
 40
0.0
 40
0.0
 40
0.0052785610370456
 40
0.0104045357744981
 40
0.0154026108476657
 40
0.020298974373816
 40
0.0298973481511517
 40
0.0345615655985488
 40
0.0345615655985488
 40
0.0345615655985488
 40
0.0345615655985488
 10
39.13947500433653
 20
31.04831196823534
 30
0.0
 10
39.13771569979008
 20
31.04833952471661
 30
0.0
 10
39.13424655098157
 20
31.04832528364871
 30
0.0
 10
39.12911555778618
 20
31.04811172991141
 30
0.0
 10
39.12412483849698
 20
31.04768714718626
 30
0.0
 10
39.11768220670541
 20
31.04683090667673
 30
0.0
 10
39.1114198455511
 20
31.04550434967138
 30
0.0
 10
39.10686799614047
 20
31.0441242852459
 30
0.0
 10
39.10539284241099
 20
31.04363322995749
 30
0.0
 11
39.13947500433653
 21
31.04831196823534
 31
0.0
 11
39.13419741053952
 21
31.04829123795366
 31
0.0
 11
39.12907606059139
 21
31.04807306874846
 31
0.0
 11
39.12409615551894
 21
31.04764545607157
 31
0.0
 11
39.11924289634919
 21
31.04699639537461
 31
0.0
 11
39.10985711982494
 21
31.0449859117266
 31
0.0
 11
39.10539284241099
 21
31.04363322995749
 31
0.0
  0
SPLINE
  5
170
330
2
100
AcDbEntity
  8
GAIKEI
  6
Continuous
 62
     1
100
AcDbSpline
210
0.0
220
0.0
230
1.0
 70
     8
 71
     3
 72
    27
 73
    23
 74
    21
 42
0.0000000001
 43
0.0000000001
 44
0.000001
 12
0.076512265488583
 22
0.9970686401797044
 32
0.0
 13
0.9552657900996008
 23
0.2957486606316
 33
0.0
 40
0.0
 40
0.0
 40
0.0
 40
0.0
 40
0.0073621065757002
 40
0.0107923242071507
 40
0.0140307086205358
 40
0.021032690514438
 40
0.0253294471323578
 40
0.0301584685617448
 40
0.0374058689576656
 40
0.0455384591465212
 40
0.0544700544554323
 40
0.067403007753835
 40
0.078931281223718
 40
0.0880812945348177
 40
0.0961622630153977
 40
0.1034392482982982
 40
0.1102594694563119
 40
0.1166721736016206
 40
0.1226379202587728
 40
0.1284009097425276
 40
0.1339895635089663
 40
0.1394405456631945
 40
0.1394405456631945
 40
0.1394405456631945
 40
0.1394405456631945
 10
39.03241398219348
 20
30.93422093385437
 30
0.0
 10
39.0326017460111
 20
30.93666777571846
 30
0.0
 10
39.03285724728429
 20
30.94025703519131
 30
0.0
 10
39.03302678830758
 20
30.94493116108798
 30
0.0
 10
39.03339675319092
 20
30.94947565340145
 30
0.0
 10
39.03424946662079
 20
30.95425510421217
 30
0.0
 10
39.0354485134992
 20
30.95949559256041
 30
0.0
 10
39.03690135756693
 20
30.96475866577816
 30
0.0
 10
39.03903113595828
 20
30.97115361356703
 30
0.0
 10
39.04207160597798
 20
30.9786724656565
 30
0.0
 10
39.04645935167591
 20
30.9876643157813
 30
0.0
 10
39.05196943546969
 20
30.99734723152086
 30
0.0
 10
39.05818509695223
 20
31.00667986071221
 30
0.0
 10
39.06403425506977
 20
31.01428360434767
 30
0.0
 10
39.06942702771548
 20
31.02042691948412
 30
0.0
 10
39.07464038359126
 20
31.02567592128871
 30
0.0
 10
39.07979726894564
 20
31.0301737177461
 30
0.0
 10
39.08490255666203
 20
31.03403923685809
 30
0.0
 10
39.08997235967314
 20
31.03735064689415
 30
0.0
 10
39.09513703217351
 20
31.0399581395527
 30
0.0
 10
39.10036826801661
 20
31.04197038725877
 30
0.0
 10
39.10385143024448
 20
31.04316049256082
 30
0.0
 10
39.1055871425026
 20
31.0436978661179
 30
0.0
 11
39.03241398219348
 21
30.93422093385437
 31
0.0
 11
39.03289112291941
 21
30.94156744633631
 31
0.0
 11
39.03305453738222
 21
30.94499377763623
 31
0.0
 11
39.03332625705991
 21
30.94822073298758
 31
0.0
 11
39.0344752365761
 21
30.95512771978355
 31
0.0
 11
39.03543706944902
 21
30.95931536290095
 31
0.0
 11
39.03671798232972
 21
30.96397129770139
 31
0.0
 11
39.03900419970091
 21
30.97084847634665
 31
0.0
 11
39.04205326284444
 21
30.97838770229691
 31
0.0
 11
39.04594209911011
 21
30.98642822691181
 31
0.0
 11
39.05233733878629
 21
30.99766940413122
 31
0.0
 11
39.05874346733503
 21
31.00725392520946
 31
0.0
 11
39.06433253442287
 21
31.01449855908896
 31
0.0
 11
39.06966766319795
 21
31.02056797063688
 31
0.0
 11
39.07480894204434
 21
31.02571780005638
 31
0.0
 11
39.07995015864106
 21
31.03019909781665
 31
0.0
 11
39.085065569255
 21
31.03406617635005
 31
0.0
 11
39.09008501117501
 21
31.03729083121442
 31
0.0
 11
39.09522650588315
 21
31.03989477885864
 31
0.0
 11
39.10042211371251
 21
31.04195359190538
 31
0.0
 11
39.1055871425026
 21
31.0436978661179
 31
0.0
  0
SPLINE
  5
171
330
2
100
AcDbEntity
  8
GAIKEI
  6
Continuous
 62
     1
100
AcDbSpline
210
0.0
220
0.0
230
1.0
 70
     8
 71
     3
 72
     9
 73
     5
 74
     3
 42
0.0000000001
 43
0.0000000001
 44
0.000001
 12
-0.1110702931717985
 22
-0.9938125527355401
 32
0.0
 13
-0.0037416002969241
 23
-0.9999930001891105
 33
0.0
 40
0.0
 40
0.0
 40
0.0
 40
0.0
 40
0.0022229188851841
 40
0.0155319012632177
 40
0.0155319012632177
 40
0.0155319012632177
 40
0.0155319012632177
 10
39.03244143223663
 20
30.93446921167174
 30
0.0
 10
39.03235913215252
 20
30.93373282344114
 30
0.0
 10
39.03182390566366
 20
30.92858341166888
 30
0.0
 10
39.03156613618998
 20
30.92340199701565
 30
0.0
 10
39.03154953722583
 20
30.91896570060976
 30
0.0
 11
39.03244143223663
 21
30.93446921167174
 31
0.0
 11
39.03221157199141
 21
30.93225844807534
 31
0.0
 11
39.03154953722583
 21
30.91896570060976
 31
0.0
  0
SPLINE
  5
172
330
2
100
AcDbEntity
  8
GAIKEI
  6
Continuous
 62
     1
100
AcDbSpline
210
0.0
220
0.0
230
1.0
 70
     8
 71
     3
 72
     9
 73
     5
 74
     3
 42
0.0000000001
 43
0.0000000001
 44
0.000001
 12
0.0037801567420873
 22
-0.9999928551819785
 32
0.0
 13
0.1113488517851972
 23
-0.9937813809918749
 33
0.0
 40
0.0
 40
0.0
 40
0.0
 40
0.0
 40
0.0133898081262012
 40
0.0155559019681257
 40
0.0155559019681257
 40
0.0155559019681257
 40
0.0155559019681257
 10
39.03154953722583
 20
25.99742025926344
 30
0.0
 10
39.03156640908364
 20
25.99295702177729
 30
0.0
 10
39.0318263884123
 20
25.98776753264919
 30
0.0
 10
39.03236487621359
 20
25.98261042409403
 30
0.0
 10
39.03244527356765
 20
25.98189288285084
 30
0.0
 11
39.03154953722583
 21
25.99742025926344
 31
0.0
 11
39.03222027304355
 21
25.98404702695433
 31
0.0
 11
39.03244527356765
 21
25.98189288285084
 31
0.0
  0
SPLINE
  5
173
330
2
100
AcDbEntity
  8
GAIKEI
  6
Continuous
 62
     1
100
AcDbSpline
210
0.0
220
0.0
230
1.0
 70
     8
 71
     3
 72
    27
 73
    23
 74
    21
 42
0.0000000001
 43
0.0000000001
 44
0.000001
 12
-0.9535249561077124
 22
0.3013140522441414
 32
0.0
 13
-0.0768695003212578
 23
0.9970411626008027
 33
0.0
 40
0.0
 40
0.0
 40
0.0
 40
0.0
 40
0.008811496941082
 40
0.0186359334979069
 40
0.0296732346399734
 40
0.0418464722408069
 40
0.0537759291834432
 40
0.0650978191022599
 40
0.0697365342153624
 40
0.0747431338058617
 40
0.080256742013074
 40
0.0862854951947182
 40
0.0928344555395389
 40
0.0997209162279362
 40
0.1061521887748469
 40
0.1113156643485788
 40
0.1160274059133947
 40
0.1202767906794398
 40
0.1240877444184306
 40
0.1278344408627511
 40
0.1316179531714048
 40
0.1392388697100999
 40
0.1392388697100999
 40
0.1392388697100999
 40
0.1392388697100999
 10
39.10558858606305
 20
25.87269049531438
 30
0.0
 10
39.10278792531838
 20
25.8735755045976
 30
0.0
 10
39.09696279526741
 20
25.87576819616385
 30
0.0
 10
39.08811308243168
 20
25.88024326383609
 30
0.0
 10
39.07907264260794
 20
25.88660250350861
 30
0.0
 10
39.07049823385211
 20
25.89462902650917
 30
0.0
 10
39.06280903332257
 20
25.9036168014797
 30
0.0
 10
39.05746852719076
 20
25.91124287204585
 30
0.0
 10
39.05379678465397
 20
25.91719019436863
 30
0.0
 10
39.05123109369532
 20
25.92154382742905
 30
0.0
 10
39.04854267015463
 20
25.92636126079407
 30
0.0
 10
39.04573001477255
 20
25.93169639500063
 30
0.0
 10
39.04284708814257
 20
25.93750899293335
 30
0.0
 10
39.04004153416003
 20
25.94351004131738
 30
0.0
 10
39.03778377059325
 20
25.94924677979705
 30
0.0
 10
39.03609550474067
 20
25.95441625827886
 30
0.0
 10
39.03489090506793
 20
25.9589705172295
 30
0.0
 10
39.03403668235185
 20
25.96314337728486
 30
0.0
 10
39.0334558567919
 20
25.96703823530099
 30
0.0
 10
39.0331288045418
 20
25.97080634125186
 30
0.0
 10
39.03289015861214
 20
25.97585124747864
 30
0.0
 10
39.03260923414251
 20
25.97964285303168
 30
0.0
 10
39.03241396212706
 20
25.98217564219363
 30
0.0
 11
39.10558858606305
 21
25.87269049531438
 31
0.0
 11
39.09733820597864
 21
25.87578748265429
 31
0.0
 11
39.0885876435375
 21
25.88025372528028
 31
0.0
 11
39.07953857944756
 21
25.88657315734975
 31
0.0
 11
39.0706041705738
 21
25.89484122393975
 31
0.0
 11
39.06283361241572
 21
25.90389263098695
 31
0.0
 11
39.05632031356743
 21
25.91315331646348
 31
0.0
 11
39.05387440847221
 21
25.91709475867754
 31
0.0
 11
39.05133324566987
 21
25.92140850376495
 31
0.0
 11
39.04864487037969
 21
25.92622229752141
 31
0.0
 11
39.04583218640608
 21
25.931554764765
 31
0.0
 11
39.04291889481397
 21
25.93742015187388
 31
0.0
 11
39.04004446943009
 21
25.94367802362683
 31
0.0
 11
39.03769446289198
 21
25.94966434949424
 31
0.0
 11
39.03609704027667
 21
25.95457434521211
 31
0.0
 11
39.03489607361644
 21
25.95913035621118
 31
0.0
 11
39.0340459908
 21
25.96329378517623
 31
0.0
 11
39.03349081427632
 21
25.96706405335061
 31
0.0
 11
39.03315326336644
 21
25.97079550513126
 31
0.0
 11
39.03293845494022
 21
25.97457292584272
 31
0.0
 11
39.03241396212706
 21
25.98217564219363
 31
0.0
  0
SPLINE
  5
174
330
2
100
AcDbEntity
  8
GAIKEI
  6
Continuous
 62
     1
100
AcDbSpline
210
0.0
220
0.0
230
1.0
 70
     8
 71
     3
 72
    13
 73
     9
 74
     7
 42
0.0000000001
 43
0.0000000001
 44
0.000001
 12
0.9487139982427796
 22
-0.3161356505334367
 32
0.0
 13
0.9998801064241472
 23
0.0154845980650528
 33
0.0
 40
0.0
 40
0.0
 40
0.0
 40
0.0
 40
0.0048424962272411
 40
0.0144722370538221
 40
0.0193739613949116
 40
0.0243619113375843
 40
0.0294558203124856
 40
0.0346737804275776
 40
0.0346737804275776
 40
0.0346737804275776
 40
0.0346737804275776
 10
39.10528503201999
 20
25.87279144031936
 30
0.0
 10
39.10681641333906
 20
25.8722811450877
 30
0.0
 10
39.11143608782416
 20
25.8708830519914
 30
0.0
 10
39.11777060868184
 20
25.86955155021474
 30
0.0
 10
39.12422245263895
 20
25.8686978062228
 30
0.0
 10
39.12920094320555
 20
25.86827474097697
 30
0.0
 10
39.13429764187424
 20
25.86806139766127
 30
0.0
 10
39.13773589283147
 20
25.86804705896616
 30
0.0
 10
39.13947500433653
 20
25.86807399163786
 30
0.0
 11
39.10528503201999
 21
25.87279144031936
 31
0.0
 11
39.10992074560829
 21
25.87138972476135
 31
0.0
 11
39.1193399319377
 21
25.86938530343628
 31
0.0
 11
39.12419891530465
 21
25.8687385969921
 31
0.0
 11
39.12916877859777
 21
25.86831261526072
 31
0.0
 11
39.1342579866606
 21
25.86809514966751
 31
0.0
 11
39.13947500433653
 21
25.86807399163786
 31
0.0
  0
SPLINE
  5
175
330
2
100
AcDbEntity
  8
GAIKEI
  6
Continuous
 62
     1
100
AcDbSpline
210
0.0
220
0.0
230
1.0
 70
     8
 71
     3
 72
    15
 73
    11
 74
     9
 42
0.0000000001
 43
0.0000000001
 44
0.000001
 12
-0.1345307900367005
 22
0.9909094138881219
 32
0.0
 13
-0.9994496190759491
 23
0.0331731657961701
 33
0.0
 40
0.0
 40
0.0
 40
0.0
 40
0.0
 40
0.034973318491158
 40
0.0699030407196886
 40
0.1048022374590262
 40
0.1396858361957364
 40
0.1745694349324829
 40
0.2094686316718664
 40
0.2443983539000802
 40
0.2793716723909676
 40
0.2793716723909676
 40
0.2793716723909676
 40
0.2793716723909676
 10
40.32618661560434
 20
30.84112936063127
 30
0.0
 10
40.32461828621541
 20
30.85268115747387
 30
0.0
 10
40.31949322498741
 20
30.87555460243276
 30
0.0
 10
40.30591904645752
 20
30.90793180766411
 30
0.0
 10
40.2869160348117
 20
30.93742574556035
 30
0.0
 10
40.26305419384363
 20
30.96312492568277
 30
0.0
 10
40.23506395090987
 20
30.984252670803
 30
0.0
 10
40.20379216593863
 20
31.00016123104402
 30
0.0
 10
40.17020351800829
 20
31.01037614521663
 30
0.0
 10
40.14692777076098
 20
31.01315109151294
 30
0.0
 10
40.13527641414646
 20
31.01353781674385
 30
0.0
 11
40.32618661560434
 21
30.84112936063127
 31
0.0
 11
40.31850730996677
 21
30.87524968198051
 31
0.0
 11
40.3050080083351
 21
30.90746545231599
 31
0.0
 11
40.28610227641138
 21
30.93680023442585
 31
0.0
 11
40.26236689961854
 21
30.96236387554677
 31
0.0
 11
40.23452434140404
 21
30.9833795794591
 31
0.0
 11
40.20342077105669
 21
30.99920753108449
 31
0.0
 11
40.17000032927569
 21
31.00936435509556
 31
0.0
 11
40.13527641414646
 21
31.01353781674385
 31
0.0
  0
SPLINE
  5
176
330
2
100
AcDbEntity
  8
GAIKEI
  6
Continuous
 62
     1
100
AcDbSpline
210
0.0
220
0.0
230
1.0
 70
     8
 71
     3
 72
    21
 73
    17
 74
    15
 42
0.0000000001
 43
0.0000000001
 44
0.000001
 12
0.9780044826297622
 22
0.2085838727133314
 32
0.0
 13
0.1354487900196674
 23
0.9907843485250502
 33
0.0
 40
0.0
 40
0.0
 40
0.0
 40
0.0
 40
0.0298825149088525
 40
0.0592800929675749
 40
0.0882133650241669
 40
0.1166945203511631
 40
0.1447311819658486
 40
0.1723300561294052
 40
0.1994998961448558
 40
0.2262520633387445
 40
0.2612761840532039
 40
0.2955898591758268
 40
0.329203933735144
 40
0.3621251518427471
 40
0.3943636570830479
 40
0.4259375939275642
 40
0.4259375939275642
 40
0.4259375939275642
 40
0.4259375939275642
 10
40.48456147459137
 20
25.53870448769544
 30
0.0
 10
40.49430321910242
 20
25.54078215792414
 30
0.0
 10
40.5134620904707
 20
25.54573783488937
 30
0.0
 10
40.54122099209905
 20
25.55553792482399
 30
0.0
 10
40.56764074553734
 20
25.5674243988212
 30
0.0
 10
40.59260278886234
 20
25.5812079639945
 30
0.0
 10
40.61600619265203
 20
25.59670430194098
 30
0.0
 10
40.63776020120807
 20
25.6137397158531
 30
0.0
 10
40.65778812948647
 20
25.63214758849506
 30
0.0
 10
40.67798435814035
 20
25.65389328945125
 30
0.0
 10
40.69760537537272
 20
25.67928314442729
 30
0.0
 10
40.71581381074588
 20
25.70843533672702
 30
0.0
 10
40.73080879377911
 20
25.7385793204178
 30
0.0
 10
40.7426396189723
 20
25.76935694785343
 30
0.0
 10
40.75137604264006
 20
25.80044158797456
 30
0.0
 10
40.75521518161096
 20
25.82139865231396
 30
0.0
 10
40.75664073212488
 20
25.83182630646291
 30
0.0
 11
40.48456147459137
 21
25.53870448769544
 31
0.0
 11
40.51349128326092
 21
25.54619187442393
 31
0.0
 11
40.54121451776177
 21
25.5559714405195
 31
0.0
 11
40.56760098560028
 21
25.56784109142194
 31
0.0
 11
40.59253390803087
 21
25.58160792759179
 31
0.0
 11
40.61590953205825
 21
25.59708807438119
 31
0.0
 11
40.63763673157109
 21
25.61410651032253
 31
0.0
 11
40.65763659804201
 21
25.63249689293645
 31
0.0
 11
40.67584193668858
 21
25.65209905479111
 31
0.0
 11
40.69726767027646
 21
25.6798051576921
 31
0.0
 11
40.71544990799111
 21
25.7089055927085
 31
0.0
 11
40.73042161059845
 21
25.73900134938066
 31
0.0
 11
40.74223209664569
 21
25.7697311268987
 31
0.0
 11
40.75094574660375
 21
25.80076971122287
 31
0.0
 11
40.75664073212488
 21
25.83182630646291
 31
0.0
  0
SPLINE
  5
177
330
2
100
AcDbEntity
  8
GAIKEI
  6
Continuous
 62
     1
100
AcDbSpline
210
0.0
220
0.0
230
1.0
 70
     8
 71
     3
 72
    15
 73
    11
 74
     9
 42
0.0000000001
 43
0.0000000001
 44
0.000001
 12
0.9785263958185264
 22
0.2061215483310866
 32
0.0
 13
0.1327585762537782
 23
0.9911484048471599
 33
0.0
 40
0.0
 40
0.0
 40
0.0
 40
0.0
 40
0.0385954384161456
 40
0.0762592426229605
 40
0.1139106822114043
 40
0.1524704505865578
 40
0.1910192054029256
 40
0.2286666814559406
 40
0.2663346513536777
 40
0.3049428812072321
 40
0.3049428812072321
 40
0.3049428812072321
 40
0.3049428812072321
 10
40.46384021341111
 20
25.63540370653647
 30
0.0
 10
40.47642909849392
 20
25.63805549037808
 30
0.0
 10
40.50093981028317
 20
25.64521971311841
 30
0.0
 10
40.53548595909987
 20
25.66132599074561
 30
0.0
 10
40.56702417079873
 20
25.6827431966764
 30
0.0
 10
40.59506914895786
 20
25.7089592765544
 30
0.0
 10
40.61913280302718
 20
25.73887012699834
 30
0.0
 10
40.63814452189117
 20
25.77191038910914
 30
0.0
 10
40.65163731668323
 20
25.80756319455848
 30
0.0
 10
40.65695990658454
 20
25.83254440870532
 30
0.0
 10
40.65866843112689
 20
25.84529990384976
 30
0.0
 11
40.46384021341111
 21
25.63540370653647
 31
0.0
 11
40.50088560932931
 21
25.64623333012708
 31
0.0
 11
40.5349946637159
 21
25.66220627071061
 31
0.0
 11
40.566167376571
 21
25.68332252828708
 31
0.0
 11
40.5944037478946
 21
25.70958210285642
 31
0.0
 11
40.61848929557413
 21
25.73968019407619
 31
0.0
 11
40.63722859200606
 21
25.77233252464828
 31
0.0
 11
40.6506216371904
 21
25.80753909457281
 31
0.0
 11
40.65866843112689
 21
25.84529990384976
 31
0.0
  0
SPLINE
  5
178
330
2
100
AcDbEntity
  8
GAIKEI
  6
Continuous
 62
     1
100
AcDbSpline
210
0.0
220
0.0
230
1.0
 70
     8
 71
     3
 72
     9
 73
     5
 74
     3
 42
0.0000000001
 43
0.0000000001
 44
0.000001
 12
0.1362218791743881
 22
0.990678353268203
 32
0.0
 13
0.0000205302016735
 23
0.9999999997892553
 33
0.0
 40
0.0
 40
0.0
 40
0.0
 40
0.0
 40
0.0954240186017739
 40
0.1908480372091474
 40
0.1908480372091474
 40
0.1908480372091474
 40
0.1908480372091474
 10
40.96060410658902
 20
28.04080360113841
 30
0.0
 10
40.96493705296646
 20
28.07231510434196
 30
0.0
 10
40.97145758074899
 20
28.13565214559452
 30
0.0
 10
40.97362703224021
 20
28.19928697534529
 30
0.0
 10
40.973627685265
 20
28.23109498154105
 30
0.0
 11
40.96060410658902
 21
28.04080360113841
 31
0.0
 11
40.97037080934216
 21
28.13572652443673
 31
0.0
 11
40.973627685265
 21
28.23109498154105
 31
0.0
  0
SPLINE
  5
179
330
2
100
AcDbEntity
  8
GAIKEI
  6
Continuous
 62
     1
100
AcDbSpline
210
0.0
220
0.0
230
1.0
 70
     8
 71
     3
 72
     9
 73
     5
 74
     3
 42
0.0000000001
 43
0.0000000001
 44
0.000001
 12
-0.0000205301984769
 22
0.9999999997892555
 32
0.0
 13
-0.1362218791775721
 23
0.9906783532677652
 33
0.0
 40
0.0
 40
0.0
 40
0.0
 40
0.0
 40
0.0954240186094613
 40
0.1908480372090441
 40
0.1908480372090441
 40
0.1908480372090441
 40
0.1908480372090441
 10
40.973627685265
 20
28.68529097833221
 30
0.0
 10
40.97362703224033
 20
28.71709898452866
 30
0.0
 10
40.97145758074907
 20
28.78073381427943
 30
0.0
 10
40.96493705296646
 20
28.84407085553192
 30
0.0
 10
40.96060410658902
 20
28.87558235873473
 30
0.0
 11
40.973627685265
 21
28.68529097833221
 31
0.0
 11
40.97037080934216
 21
28.78065943543862
 31
0.0
 11
40.96060410658902
 21
28.87558235873473
 31
0.0
  0
SPLINE
  5
17A
330
2
100
AcDbEntity
  8
GAIKEI
  6
Continuous
 62
     1
100
AcDbSpline
210
0.0
220
0.0
230
1.0
 70
     8
 71
     3
 72
    15
 73
    11
 74
     9
 42
0.0000000001
 43
0.0000000001
 44
0.000001
 12
-0.1327902774087838
 22
0.9911441581453722
 32
0.0
 13
-0.9785329879817497
 23
0.2060902506949535
 33
0.0
 40
0.0
 40
0.0
 40
0.0
 40
0.0
 40
0.0385954384155961
 40
0.0762592426221577
 40
0.1139106822108919
 40
0.1524704505867178
 40
0.191019205403185
 40
0.2286666814562473
 40
0.2663346513539392
 40
0.3049428812073558
 40
0.3049428812073558
 40
0.3049428812073558
 40
0.3049428812073558
 10
40.65866843112689
 20
31.07108605602344
 30
0.0
 10
40.65696006480226
 20
31.08383727046233
 30
0.0
 10
40.65163822731366
 20
31.1088128410388
 30
0.0
 10
40.63814529837398
 20
31.14446097487063
 30
0.0
 10
40.61913248128019
 20
31.17750440527996
 30
0.0
 10
40.59507432747835
 20
31.20742110429221
 30
0.0
 10
40.56703559068208
 20
31.23364223432759
 30
0.0
 10
40.53550045684909
 20
31.25505810948276
 30
0.0
 10
40.50094963937289
 20
31.27116460070282
 30
0.0
 10
40.47643335558416
 20
31.27832999341355
 30
0.0
 10
40.46384021341111
 20
31.28098225333668
 30
0.0
 11
40.65866843112689
 21
31.07108605602344
 31
0.0
 11
40.65062338610232
 21
31.10883416003356
 31
0.0
 11
40.63723092388864
 21
31.14403649486906
 31
0.0
 11
40.61849104448606
 21
31.17669306053017
 31
0.0
 11
40.5944037478946
 21
31.20680385701672
 31
0.0
 11
40.56617991662029
 21
31.23306074278605
 31
0.0
 11
40.53501138378169
 21
31.2541761040959
 31
0.0
 11
40.5008981493786
 21
31.27014994094611
 31
0.0
 11
40.46384021341111
 21
31.28098225333668
 31
0.0
  0
SPLINE
  5
17B
330
2
100
AcDbEntity
  8
GAIKEI
  6
Continuous
 62
     1
100
AcDbSpline
210
0.0
220
0.0
230
1.0
 70
     8
 71
     3
 72
    15
 73
    11
 74
     9
 42
0.0000000001
 43
0.0000000001
 44
0.000001
 12
-0.1364008987339492
 22
0.9906537209462097
 32
0.0
 13
-0.1677708966327061
 23
0.9858260121558256
 33
0.0
 40
0.0
 40
0.0
 40
0.0
 40
0.0
 40
0.0132149648800479
 40
0.0262813057249088
 40
0.0392030871300204
 40
0.0519820330046315
 40
0.0646173308324788
 40
0.0770330552777364
 40
0.0890929972857513
 40
0.1007940929957573
 40
0.1007940929957573
 40
0.1007940929957573
 40
0.1007940929957573
 10
40.34957943596771
 20
30.69224949701845
 30
0.0
 10
40.3489785916056
 20
30.69661331506198
 30
0.0
 10
40.34773770749109
 20
30.70528561694735
 30
0.0
 10
40.34575289260527
 20
30.71820190739163
 30
0.0
 10
40.34367000494262
 20
30.73095546132532
 30
0.0
 10
40.34151198735094
 20
30.7435506973456
 30
0.0
 10
40.3393119018009
 20
30.755967316568
 30
0.0
 10
40.33712129928929
 20
30.7681421194205
 30
0.0
 10
40.33498924615594
 20
30.78001110985572
 30
0.0
 10
40.33364402504202
 20
30.78781644759061
 30
0.0
 10
40.33298965726908
 20
30.79166152909784
 30
0.0
 11
40.34957943596771
 21
30.69224949701845
 31
0.0
 11
40.34770898598617
 21
30.70533148617574
 31
0.0
 11
40.34572619129789
 21
30.71824651065208
 31
0.0
 11
40.34364665149507
 21
30.73099986172759
 31
0.0
 11
40.34149289504489
 21
30.74359600297237
 31
0.0
 11
40.33929455797147
 21
30.75603859233252
 31
0.0
 11
40.33710186918222
 21
30.76825916181599
 31
0.0
 11
40.33498326846916
 21
30.78013158753953
 31
0.0
 11
40.33298965726908
 21
30.79166152909784
 31
0.0
  0
SPLINE
  5
17C
330
2
100
AcDbEntity
  8
GAIKEI
  6
Continuous
 62
     1
100
AcDbSpline
210
0.0
220
0.0
230
1.0
 70
     8
 71
     3
 72
    13
 73
     9
 74
     7
 42
0.0000000001
 43
0.0000000001
 44
0.000001
 12
-0.1032078770309288
 22
0.9946598082353427
 32
0.0
 13
-0.135947176317206
 23
0.9907160871063812
 33
0.0
 40
0.0
 40
0.0
 40
0.0
 40
0.0
 40
0.01600107777398
 40
0.0320288818262354
 40
0.0485712842024411
 40
0.0658548155515402
 40
0.083380823234411
 40
0.1010631356637668
 40
0.1010631356637668
 40
0.1010631356637668
 40
0.1010631356637668
 10
40.50418103199786
 20
29.54685567571187
 30
0.0
 10
40.50363055290875
 20
29.55216088536194
 30
0.0
 10
40.50254806764735
 20
29.56278226012685
 30
0.0
 10
40.50102902571157
 20
29.57890131809558
 30
0.0
 10
40.49941657332903
 20
29.59544086944359
 30
0.0
 10
40.49762864835173
 20
29.61246482376885
 30
0.0
 10
40.49560189880733
 20
29.6298447927324
 30
0.0
 10
40.49408389628931
 20
29.6414827515855
 30
0.0
 10
40.49328260947413
 20
29.64732213537917
 30
0.0
 11
40.50418103199786
 21
29.54685567571187
 31
0.0
 11
40.50257011801159
 21
29.56277516487421
 31
0.0
 11
40.50103768515419
 21
29.57872978768973
 31
0.0
 11
40.49942153244422
 21
29.5951930586707
 31
0.0
 11
40.49760553321107
 21
29.61238092338999
 31
0.0
 11
40.49556963710438
 21
29.62978828511882
 31
0.0
 11
40.49328260947413
 21
29.64732213537917
 31
0.0
  0
SPLINE
  5
17D
330
2
100
AcDbEntity
  8
GAIKEI
  6
Continuous
 62
     1
100
AcDbSpline
210
0.0
220
0.0
230
1.0
 70
     8
 71
     3
 72
    14
 73
    10
 74
     8
 42
0.0000000001
 43
0.0000000001
 44
0.000001
 12
0.1677588837034731
 22
0.9858280564776825
 32
0.0
 13
0.1366130456583842
 23
0.9906244877631182
 33
0.0
 40
0.0
 40
0.0
 40
0.0
 40
0.0
 40
0.0116707988865292
 40
0.023639074253943
 40
0.035900544662005
 40
0.0484549652869966
 40
0.0657534991372788
 40
0.0832124457340305
 40
0.1007939503193694
 40
0.1007939503193694
 40
0.1007939503193694
 40
0.1007939503193694
 10
40.33298965726908
 20
26.12472443077536
 30
0.0
 10
40.33364228400012
 20
26.12855956443664
 30
0.0
 10
40.33498054714067
 20
26.13632484722646
 30
0.0
 10
40.33709598123121
 20
26.14810327551834
 30
0.0
 10
40.33926736673601
 20
26.16017085676734
 30
0.0
 10
40.34171816110185
 20
26.17399344212534
 30
0.0
 10
40.34436836512049
 20
26.18954004888943
 30
0.0
 10
40.34710566377777
 20
26.20677076530501
 30
0.0
 10
40.34877881500483
 20
26.2183309065301
 30
0.0
 10
40.34957943596771
 20
26.22413646285475
 30
0.0
 11
40.33298965726908
 21
26.12472443077536
 31
0.0
 11
40.3349780035104
 21
26.13622454136106
 31
0.0
 11
40.33708030767843
 21
26.14800675673149
 31
0.0
 11
40.33924598310136
 21
26.16007545573046
 31
0.0
 11
40.34143156221261
 21
26.17243816942914
 31
0.0
 11
40.34432836407461
 21
26.18949243032455
 31
0.0
 11
40.34706065052614
 21
26.20673625707707
 31
0.0
 11
40.34957943596771
 21
26.22413646285475
 31
0.0
  0
SPLINE
  5
17E
330
2
100
AcDbEntity
  8
GAIKEI
  6
Continuous
 62
     1
100
AcDbSpline
210
0.0
220
0.0
230
1.0
 70
     8
 71
     3
 72
    14
 73
    10
 74
     8
 42
0.0000000001
 43
0.0000000001
 44
0.000001
 12
0.1359523053525381
 22
0.9907153832808543
 32
0.0
 13
0.1044770653903519
 23
0.9945272961600503
 33
0.0
 40
0.0
 40
0.0
 40
0.0
 40
0.0
 40
0.0176161980931361
 40
0.0349715004290102
 40
0.0521274141722116
 40
0.0648004441618354
 40
0.0772495029101824
 40
0.0893372407698941
 40
0.1010631752749938
 40
0.1010631752749938
 40
0.1010631752749938
 40
0.1010631752749938
 10
40.50806781302071
 20
27.37657337599808
 30
0.0
 10
40.50886613393481
 20
27.38239092214667
 30
0.0
 10
40.51037423792502
 20
27.39395055945499
 30
0.0
 10
40.51238868030464
 20
27.41120964547726
 30
0.0
 10
40.51403506918854
 20
27.42685157206569
 30
0.0
 10
40.51541410602413
 20
27.44087663966038
 30
0.0
 10
40.51659342620141
 20
27.45322371336715
 30
0.0
 10
40.51774518686284
 20
27.46525633475079
 30
0.0
 10
40.51855787180264
 20
27.47315258168594
 30
0.0
 10
40.51896623554466
 20
27.47703983566538
 30
0.0
 11
40.50806781302071
 21
27.37657337599808
 31
0.0
 11
40.51034673859795
 21
27.39404160518632
 31
0.0
 11
40.51236463826024
 21
27.41127920089406
 31
0.0
 11
40.51417004482357
 21
27.42833985412915
 31
0.0
 11
40.51541649879266
 21
27.44095143667937
 31
0.0
 11
40.5166063035308
 21
27.45334350738489
 31
0.0
 11
40.51777218986183
 21
27.46537491172029
 31
0.0
 11
40.51896623554466
 21
27.47703983566538
 31
0.0
  0
ARC
  5
17F
330
2
100
AcDbEntity
  8
GAIKEI
 62
     1
100
AcDbCircle
 10
39.1582002270518
 20
32.2843681923294
 30
0.0
 40
0.1500163686008653
100
AcDbArc
 50
294.6822153763272
 51
359.9992555506062
  0
LINE
  5
180
330
2
100
AcDbEntity
  8
GAIKEI
 62
     1
100
AcDbLine
 10
39.30821659564003
 20
32.28436625982084
 30
0.0
 11
39.30821659564003
 21
32.35739779818425
 31
0.0
  0
ARC
  5
181
330
2
100
AcDbEntity
  8
GAIKEI
 62
     1
100
AcDbCircle
 10
39.19369906666373
 20
32.36488201209977
 30
0.0
 40
0.0145231345477284
100
AcDbArc
 50
265.9875314113319
 51
357.4403055779344
  0
LINE
  5
182
330
2
100
AcDbEntity
  8
GAIKEI
 62
     1
100
AcDbLine
 10
39.20820771051996
 20
32.3642334054822
 30
0.0
 11
39.20820771052002
 21
32.39364456846704
 31
0.0
  0
ARC
  5
183
330
2
100
AcDbEntity
  8
GAIKEI
 62
     1
100
AcDbCircle
 10
39.22320904328808
 20
32.39364456846704
 30
0.0
 40
0.0150013327680068
100
AcDbArc
 50
88.00000000002242
 51
179.9999999998925
  0
LINE
  5
184
330
2
100
AcDbEntity
  8
GAIKEI
 62
     1
100
AcDbLine
 10
39.22373258980162
 20
32.40863675042209
 30
0.0
 11
39.25995728295828
 21
32.40737177938882
 31
0.0
  0
ARC
  5
185
330
2
100
AcDbEntity
  8
GAIKEI
 62
     1
100
AcDbCircle
 10
39.25821213922393
 20
32.35739779258586
 30
0.0
 40
0.05000445641619
100
AcDbArc
 50
0.0000064146167758
 51
88.00001314450822
  0
LINE
  5
186
330
2
100
AcDbEntity
  8
GAIKEI
 62
     1
100
AcDbLine
 10
36.87187952850996
 20
2.68797415313196
 30
0.0
 11
36.87187952850996
 21
2.529290279310885
 31
0.0
  0
DIMENSION
  5
187
330
2
100
AcDbEntity
  8
SUNPO
100
AcDbDimension
  2
*D12
 10
41.1681864710319
 20
40.89831421969063
 30
0.0
 11
47.75151980436524
 21
42.64831421969063
 31
0.0
 70
    33
  1
89
 71
     5
 42
4.449999999999988
  3
STANDARD
100
AcDbAlignedDimension
 13
36.71818647103191
 23
32.9048467242497
 33
0.0
 14
41.1681864710319
 24
32.9048467242497
 34
0.0
1001
ACAD
1000
DSTYLE
1002
{
1070
    40
1040
1.0
1070
   140
1040
2.5
1070
   147
1040
0.5
1070
   172
1070
     1
1070
   279
1070
     0
1070
   288
1070
     0
1002
}
  0
LINE
  5
197
330
2
100
AcDbEntity
  8
GAIKEI
  6
Continuous
 62
     1
100
AcDbLine
 10
41.12318647103182
 20
24.80733562569878
 30
0.0
 11
41.12318647103182
 21
23.87331864454211
 31
0.0
  0
LINE
  5
198
330
2
100
AcDbEntity
  8
GAIKEI
  6
Continuous
 62
     7
100
AcDbLine
 10
41.12318647103182
 20
28.70074932860234
 30
0.0
 11
41.12318647103182
 21
7.923965630428313
 31
0.0
  0
ARC
  5
199
330
2
100
AcDbEntity
  8
GAIKEI
  6
Continuous
 62
     7
100
AcDbCircle
 10
40.87316425823184
 20
7.649719179718374
 30
0.0
 40
0.2500222128000095
100
AcDbArc
 50
0.0
 51
0.0
  0
LINE
  5
19A
330
2
100
AcDbEntity
  8
GAIKEI
  6
Continuous
 62
     7
100
AcDbLine
 10
41.12318647103188
 20
7.534486166596934
 30
0.0
 11
41.12318647103182
 21
8.031495072511347
 31
0.0
  0
DIMENSION
  5
19B
330
2
100
AcDbEntity
  8
SUNPO
100
AcDbDimension
  2
*D11
 10
12.84131430785942
 20
32.89860066404197
 30
0.0
 11
11.09131430785941
 21
17.64860066404196
 31
0.0
 70
    33
  1
610
 71
     5
 42
30.5
  3
STANDARD
100
AcDbAlignedDimension
 13
4.84131430785942
 23
2.398600664041964
 33
0.0
 14
4.84131430785942
 24
32.89860066404197
 34
0.0
1001
ACAD
1000
DSTYLE
1002
{
1070
   287
1070
     3
1070
   287
1070
     3
1070
   287
1070
     3
1070
   287
1070
     3
1070
   287
1070
     3
1070
   287
1070
     3
1070
   287
1070
     3
1070
   287
1070
     3
1070
   287
1070
     3
1070
   287
1070
     3
1070
   287
1070
     3
1070
   287
1070
     3
1070
   287
1070
     3
1070
   287
1070
     3
1070
   287
1070
     3
1070
   287
1070
     3
1070
   287
1070
     3
1070
   287
1070
     3
1070
   287
1070
     3
1070
   287
1070
     3
1070
   287
1070
     3
1070
   287
1070
     3
1070
   287
1070
     3
1070
   287
1070
     3
1070
   287
1070
     3
1070
   287
1070
     3
1070
   287
1070
     3
1070
   287
1070
     3
1070
   287
1070
     3
1070
   287
1070
     3
1070
   287
1070
     3
1070
   287
1070
     3
1070
   287
1070
     3
1070
   287
1070
     3
1070
    40
1040
1.0
1070
   140
1040
2.5
1070
   147
1040
0.5
1070
   172
1070
     1
1070
   279
1070
     0
1002
}
  0
DIMENSION
  5
1A8
330
2
100
AcDbEntity
  8
SUNPO
100
AcDbDimension
  2
*D10
 10
4.830984905849391
 20
40.89831421969063
 30
0.0
 11
-20.21901509415062
 21
42.64831421969063
 31
0.0
 70
    33
  1
1020
 71
     5
 42
50.10000000000002
  3
STANDARD
100
AcDbAlignedDimension
 13
-45.26901509415063
 23
32.89831421969064
 33
0.0
 14
4.83098490584939
 24
32.89831421969064
 34
0.0
1001
ACAD
1000
DSTYLE
1002
{
1070
   287
1070
     3
1070
   287
1070
     3
1070
   287
1070
     3
1070
   287
1070
     3
1070
   287
1070
     3
1070
   287
1070
     3
1070
   287
1070
     3
1070
   287
1070
     3
1070
   287
1070
     3
1070
   287
1070
     3
1070
   287
1070
     3
1070
   287
1070
     3
1070
   287
1070
     3
1070
   287
1070
     3
1070
   287
1070
     3
1070
   287
1070
     3
1070
   287
1070
     3
1070
   287
1070
     3
1070
   287
1070
     3
1070
   287
1070
     3
1070
   287
1070
     3
1070
   287
1070
     3
1070
   287
1070
     3
1070
   287
1070
     3
1070
   287
1070
     3
1070
   287
1070
     3
1070
   287
1070
     3
1070
   287
1070
     3
1070
   287
1070
     3
1070
   287
1070
     3
1070
   287
1070
     3
1070
   287
1070
     3
1070
   287
1070
     3
1070
   287
1070
     3
1070
    40
1040
1.0
1070
   140
1040
2.5
1070
   147
1040
0.5
1070
   172
1070
     1
1070
   279
1070
     0
1002
}
  0
LINE
  5
1B5
330
2
100
AcDbEntity
  8
GAIKEI
100
AcDbLine
 10
-12.73151039814161
 20
0.8929432942504718
 30
0.0
 11
-12.80888904596099
 21
2.369398167649549
 31
0.0
  0
ARC
  5
1B6
330
2
100
AcDbEntity
  8
GAIKEI
100
AcDbCircle
 10
-12.98618218118861
 20
0.9048819806010754
 30
0.0
 40
0.2543156729427776
100
AcDbArc
 50
316.0567044890226
 51
357.31048390303
  0
LINE
  5
1B7
330
2
100
AcDbEntity
  8
GAIKEI
 62
     1
100
AcDbLine
 10
-27.59810272715345
 20
2.191767212089374
 30
0.0
 11
-12.83988350896857
 21
2.19176714166123
 31
0.0
  0
LINE
  5
1B8
330
2
100
AcDbEntity
  8
GAIKEI
 62
     1
100
AcDbLine
 10
-27.59810272715345
 20
2.191767212089374
 30
0.0
 11
-20.21897094308179
 21
1.812668068108322
 31
0.0
  0
LINE
  5
1B9
330
2
100
AcDbEntity
  8
GAIKEI
 62
     1
100
AcDbLine
 10
-20.21897094308179
 20
1.812668068108322
 30
0.0
 11
-12.83988350896857
 21
2.19176714166123
 31
0.0
  0
LINE
  5
1BA
330
2
100
AcDbEntity
  8
GAIKEI
  6
Continuous
100
AcDbLine
 10
-12.73214664262735
 20
0.8929485547627535
 30
0.0
 11
-9.891316237284684
 21
0.8713359281529875
 31
0.0
  0
LINE
  5
1BB
330
2
100
AcDbEntity
  8
GAIKEI
  6
Continuous
100
AcDbLine
 10
-9.891316237284684
 20
0.8713359281529875
 30
0.0
 11
-9.318349878100548
 21
0.8481096094612041
 31
0.0
  0
LINE
  5
1BC
330
2
100
AcDbEntity
  8
GAIKEI
 62
     1
100
AcDbLine
 10
-12.80306804605112
 20
0.7284006075976209
 30
0.0
 11
-11.07628435901506
 21
0.7192481910185933
 31
0.0
  0
LINE
  5
1BD
330
2
100
AcDbEntity
  8
GAIKEI
 62
     1
100
AcDbLine
 10
-9.22558720801453
 20
0.8328325323191876
 30
0.0
 11
-12.68891711485156
 21
0.6412915436800546
 31
0.0
  0
ARC
  5
1BE
330
2
100
AcDbEntity
  8
GAIKEI
100
AcDbCircle
 10
-12.83116116818417
 20
-20.77100658204245
 30
0.0
 40
21.90264888230355
100
AcDbArc
 50
71.36122384959633
 51
80.77087569906387
  0
ARC
  5
1BF
330
2
100
AcDbEntity
  8
GAIKEI
100
AcDbCircle
 10
-5.85637523921315
 20
-0.089496889441719
 30
0.0
 40
0.0766870727508342
100
AcDbArc
 50
3.827867468270713
 51
70.73427782708421
  0
LINE
  5
1C0
330
2
100
AcDbEntity
  8
GAIKEI
100
AcDbLine
 10
-5.779853215046045
 20
-0.0843952985485856
 30
0.0
 11
-5.761559064535617
 21
-0.4334692922345056
 31
0.0
  0
ARC
  5
1C1
330
2
100
AcDbEntity
  8
GAIKEI
 62
     1
100
AcDbCircle
 10
-19.64704070070365
 20
137.2171075653268
 30
0.0
 40
136.6595514024471
100
AcDbArc
 50
269.760186349897
 51
272.8892609470638
  0
ARC
  5
1C2
330
2
100
AcDbEntity
  8
GAIKEI
 62
     1
100
AcDbCircle
 10
-20.3133492504735
 20
166.9248152366376
 30
0.0
 40
166.4582296467708
100
AcDbArc
 50
270.0324765715022
 51
272.6252873085557
  0
LINE
  5
1C3
330
2
100
AcDbEntity
  8
GAIKEI
 62
     1
100
AcDbLine
 10
-5.83788211057913
 20
-0.0148191966931819
 30
0.0
 11
-34.60014916732223
 21
-0.0148191966931819
 31
0.0
  0
LINE
  5
1C4
330
2
100
AcDbEntity
  8
GAIKEI
100
AcDbLine
 10
-5.761559064535617
 20
-0.4334692922345056
 30
0.0
 11
-34.67641778215853
 21
-0.4334692922345056
 31
0.0
  0
LINE
  5
1C5
330
2
100
AcDbEntity
  8
GAIKEI
 62
     1
100
AcDbLine
 10
-5.808950423548594
 20
-0.4334684588259848
 30
0.0
 11
-5.809818001822122
 21
-0.4834742203787528
 31
0.0
  0
LINE
  5
1C6
330
2
100
AcDbEntity
  8
GAIKEI
 62
     1
100
AcDbLine
 10
-5.809818001822122
 20
-0.4834742203787528
 30
0.0
 11
-34.62815884487191
 21
-0.4834742203787528
 31
0.0
  0
LINE
  5
1C7
330
2
100
AcDbEntity
  8
GAIKEI
 62
     1
100
AcDbLine
 10
-5.987709051269916
 20
-0.4834742203787528
 30
0.0
 11
-5.987709051269916
 21
-0.5684773060798847
 31
0.0
  0
LINE
  5
1C8
330
2
100
AcDbEntity
  8
GAIKEI
 62
     1
100
AcDbLine
 10
-5.987709051269916
 20
-0.5684773060798847
 30
0.0
 11
-8.987979737669888
 21
-0.5684773060798847
 31
0.0
  0
LINE
  5
1C9
330
2
100
AcDbEntity
  8
GAIKEI
 62
     1
100
AcDbLine
 10
-8.987979737669888
 20
-0.5684773060798847
 30
0.0
 11
-8.987979737669888
 21
-0.4834742203787528
 31
0.0
  0
LINE
  5
1CA
330
2
100
AcDbEntity
  8
GAIKEI
100
AcDbLine
 10
-27.70646644855242
 20
0.8929432942504718
 30
0.0
 11
-27.62908780073315
 21
2.369398167649549
 31
0.0
  0
ARC
  5
1CB
330
2
100
AcDbEntity
  8
GAIKEI
100
AcDbCircle
 10
-27.45179466550553
 20
0.9048819806010754
 30
0.0
 40
0.2543156729427776
100
AcDbArc
 50
182.68951609697
 51
223.9432955109773
  0
LINE
  5
1CC
330
2
100
AcDbEntity
  8
GAIKEI
  6
Continuous
100
AcDbLine
 10
-27.70583020406673
 20
0.8929485547627535
 30
0.0
 11
-30.5466606094094
 21
0.8713359281529875
 31
0.0
  0
LINE
  5
1CD
330
2
100
AcDbEntity
  8
GAIKEI
  6
Continuous
100
AcDbLine
 10
-30.5466606094094
 20
0.8713359281529875
 30
0.0
 11
-31.11962696859348
 21
0.8481096094612041
 31
0.0
  0
LINE
  5
1CE
330
2
100
AcDbEntity
  8
GAIKEI
 62
     1
100
AcDbLine
 10
-27.63490880064296
 20
0.7284006075976209
 30
0.0
 11
-29.36169248767908
 21
0.7192481910185933
 31
0.0
  0
LINE
  5
1CF
330
2
100
AcDbEntity
  8
GAIKEI
 62
     1
100
AcDbLine
 10
-31.21238963867956
 20
0.8328325323191876
 30
0.0
 11
-27.74905973184252
 21
0.6412915436800546
 31
0.0
  0
ARC
  5
1D0
330
2
100
AcDbEntity
  8
GAIKEI
100
AcDbCircle
 10
-27.60681567850998
 20
-20.77100658204245
 30
0.0
 40
21.90264888230355
100
AcDbArc
 50
99.22912430093612
 51
108.6387761504036
  0
ARC
  5
1D1
330
2
100
AcDbEntity
  8
GAIKEI
100
AcDbCircle
 10
-34.58160160748093
 20
-0.089496889441719
 30
0.0
 40
0.0766870727508342
100
AcDbArc
 50
109.2657221729158
 51
176.1721325317292
  0
LINE
  5
1D2
330
2
100
AcDbEntity
  8
GAIKEI
100
AcDbLine
 10
-34.6581236316481
 20
-0.0843952985485856
 30
0.0
 11
-34.67641778215853
 21
-0.4334692922345056
 31
0.0
  0
ARC
  5
1D3
330
2
100
AcDbEntity
  8
GAIKEI
 62
     1
100
AcDbCircle
 10
-20.79093614599049
 20
137.2171075653268
 30
0.0
 40
136.6595514024471
100
AcDbArc
 50
267.1107390529363
 51
270.239813650103
  0
ARC
  5
1D4
330
2
100
AcDbEntity
  8
GAIKEI
 62
     1
100
AcDbCircle
 10
-20.12462759622065
 20
166.9248152366376
 30
0.0
 40
166.4582296467708
100
AcDbArc
 50
267.3747126914443
 51
269.9675234284979
  0
LINE
  5
1D5
330
2
100
AcDbEntity
  8
GAIKEI
 62
     1
100
AcDbLine
 10
-34.62902642314543
 20
-0.4334684588259848
 30
0.0
 11
-34.62815884487191
 21
-0.4834742203787528
 31
0.0
  0
LINE
  5
1D6
330
2
100
AcDbEntity
  8
GAIKEI
 62
     1
100
AcDbLine
 10
-34.45026779542422
 20
-0.4834742203787528
 30
0.0
 11
-34.45026779542422
 21
-0.5684773060798847
 31
0.0
  0
LINE
  5
1D7
330
2
100
AcDbEntity
  8
GAIKEI
 62
     1
100
AcDbLine
 10
-34.45026779542422
 20
-0.5684773060798847
 30
0.0
 11
-31.4499971090242
 21
-0.5684773060798847
 31
0.0
  0
LINE
  5
1D8
330
2
100
AcDbEntity
  8
GAIKEI
 62
     1
100
AcDbLine
 10
-31.4499971090242
 20
-0.5684773060798847
 30
0.0
 11
-31.4499971090242
 21
-0.4834742203787528
 31
0.0
  0
LINE
  5
1D9
330
2
100
AcDbEntity
  8
GAIKEI
 62
     1
100
AcDbLine
 10
-14.96851930589389
 20
-0.4834742203787528
 30
0.0
 11
-14.96851930589389
 21
-0.5684773060798847
 31
0.0
  0
LINE
  5
1DA
330
2
100
AcDbEntity
  8
GAIKEI
 62
     1
100
AcDbLine
 10
-14.96851930589389
 20
-0.5684773060798847
 30
0.0
 11
-25.46946670829402
 21
-0.5684773060798847
 31
0.0
  0
LINE
  5
1DB
330
2
100
AcDbEntity
  8
GAIKEI
 62
     1
100
AcDbLine
 10
-25.46946670829402
 20
-0.5684773060798847
 30
0.0
 11
-25.46946670829402
 21
-0.4834742203787528
 31
0.0
  0
DIMENSION
  5
1DC
330
2
100
AcDbEntity
  8
SUNPO
100
AcDbDimension
  2
*D9
 10
19.84131430785942
 20
-0.5684773060798777
 30
0.0
 11
18.09131430785942
 21
16.16506167898104
 31
0.0
 70
    32
  1
669
 71
     5
 42
33.46707797012182
  3
STANDARD
100
AcDbAlignedDimension
 13
12.84131430785942
 23
32.89860066404195
 33
0.0
 14
-5.707380701686702
 24
-0.5684773060798705
 34
0.0
 50
90.0
100
AcDbRotatedDimension
1001
ACAD
1000
DSTYLE
1002
{
1070
    40
1040
1.0
1070
   140
1040
2.5
1070
   147
1040
0.5
1070
   172
1070
     1
1070
   279
1070
     0
1070
   288
1070
     0
1002
}
  0
DIMENSION
  5
1E9
330
2
100
AcDbEntity
  8
SUNPO
100
AcDbDimension
  2
*D8
 10
-5.761559064535617
 20
-7.587720345694407
 30
0.0
 11
-20.2189930070939
 21
-5.837720345694407
 31
0.0
 70
    33
  1
578
 71
     5
 42
28.91486788511656
  3
STANDARD
100
AcDbAlignedDimension
 13
-34.67642694965218
 23
-0.5877203456944074
 33
0.0
 14
-5.761559064535617
 24
-0.5877203456944074
 34
0.0
1001
ACAD
1000
DSTYLE
1002
{
1070
    40
1040
1.0
1070
   140
1040
2.5
1070
   147
1040
0.5
1070
   172
1070
     1
1070
   279
1070
     0
1070
   288
1070
     0
1002
}
  0
LINE
  5
1F6
330
2
100
AcDbEntity
  8
GAIKEI
  6
Continuous
 62
     7
100
AcDbLine
 10
44.38820596524908
 20
2.713712565254922
 30
0.0
 11
44.38820596524908
 21
2.413685496614931
 31
0.0
  0
LINE
  5
1F7
330
2
100
AcDbEntity
  8
GAIKEI
  6
Continuous
 62
     7
100
AcDbLine
 10
39.88779993564913
 20
2.713712565254922
 30
0.0
 11
39.88779993564913
 21
2.413685496614931
 31
0.0
  0
LINE
  5
1F8
330
2
100
AcDbEntity
  8
GAIKEI
  6
Continuous
 62
     1
100
AcDbLine
 10
39.88779993564913
 20
2.713712565254922
 30
0.0
 11
44.38820596524908
 21
2.713712565254922
 31
0.0
  0
LINE
  5
1F9
330
2
100
AcDbEntity
  8
GAIKEI
  6
Continuous
 62
     7
100
AcDbLine
 10
39.88779993564913
 20
3.013739633894942
 30
0.0
 11
44.38820596524908
 21
3.013739633894942
 31
0.0
  0
LINE
  5
1FA
330
2
100
AcDbEntity
  8
GAIKEI
  6
Continuous
 62
     7
100
AcDbLine
 10
44.38820596524908
 20
3.013739633894942
 30
0.0
 11
44.38820596524908
 21
2.713712565254922
 31
0.0
  0
LINE
  5
1FB
330
2
100
AcDbEntity
  8
GAIKEI
  6
Continuous
 62
     7
100
AcDbLine
 10
39.88779993564913
 20
3.013739633894942
 30
0.0
 11
39.88779993564913
 21
2.713712565254922
 31
0.0
  0
ARC
  5
1FC
330
2
100
AcDbEntity
  8
GAIKEI
  6
Continuous
 62
     7
100
AcDbCircle
 10
39.68429824225882
 20
2.845946578828147
 30
0.0
 40
0.05000451144
100
AcDbArc
 50
179.0000000000015
 51
270.0
  0
LINE
  5
1FD
330
2
100
AcDbEntity
  8
GAIKEI
  6
Continuous
 62
     7
100
AcDbLine
 10
39.63777737844902
 20
3.045964624588151
 30
0.0
 11
39.647492821517
 21
3.602564177729192
 31
0.0
  0
LINE
  5
1FE
330
2
100
AcDbEntity
  8
GAIKEI
  6
Continuous
 62
     7
100
AcDbLine
 10
39.68429824225882
 20
2.795942067388153
 30
0.0
 11
39.88779993564913
 21
2.795942067388153
 31
0.0
  0
ARC
  5
1FF
330
2
100
AcDbEntity
  8
GAIKEI
  6
Continuous
 62
     7
100
AcDbCircle
 10
40.8376139618303
 20
3.696023273308156
 30
0.0
 40
0.2500225572
100
AcDbArc
 50
190.1327320881875
 51
270.0
  0
LINE
  5
200
330
2
100
AcDbEntity
  8
GAIKEI
  6
Continuous
 62
     7
100
AcDbLine
 10
39.6343012314955
 20
2.846819574257068
 30
0.0
 11
39.63777737844902
 21
3.045964624588151
 31
0.0
  0
LINE
  5
201
330
2
100
AcDbEntity
  8
GAIKEI
  6
Continuous
 62
     7
100
AcDbLine
 10
41.88815499233482
 20
3.035963722300152
 30
0.0
 11
41.88099767993072
 21
3.446000716108159
 31
0.0
  0
LINE
  5
202
330
2
100
AcDbEntity
  8
GAIKEI
  6
Continuous
 62
     7
100
AcDbLine
 10
39.64476009176747
 20
3.446000716108159
 30
0.0
 11
41.88099767993072
 21
3.446000716108159
 31
0.0
  0
LINE
  5
203
330
2
100
AcDbEntity
  8
GAIKEI
 62
     1
100
AcDbLine
 10
33.60473557343863
 20
-0.4865782504263905
 30
0.0
 11
33.60473557343863
 21
-0.5715813361274798
 31
0.0
  0
LINE
  5
204
330
2
100
AcDbEntity
  8
GAIKEI
 62
     1
100
AcDbLine
 10
33.60473557343863
 20
-0.5715813361274798
 30
0.0
 11
30.55702060658433
 21
-0.5715813361274798
 31
0.0
  0
LINE
  5
205
330
2
100
AcDbEntity
  8
GAIKEI
 62
     1
100
AcDbLine
 10
30.55702060658433
 20
-0.5715813361274798
 30
0.0
 11
30.55702060658433
 21
-0.4865782504263905
 31
0.0
  0
LINE
  5
206
330
2
100
AcDbEntity
  8
GAIKEI
100
AcDbLine
 10
30.35697172470901
 20
-0.4365737389863967
 30
0.0
 11
46.70318940791531
 21
-0.4365737389863967
 31
0.0
  0
LINE
  5
207
330
2
100
AcDbEntity
  8
GAIKEI
 62
     1
100
AcDbLine
 10
30.40522774506565
 20
-0.4865782504263905
 30
0.0
 11
46.65492797767472
 21
-0.4865782504263905
 31
0.0
  0
LINE
  5
208
330
2
100
AcDbEntity
  8
GAIKEI
 62
     1
100
AcDbLine
 10
30.40522774506565
 20
-0.4865782504263905
 30
0.0
 11
30.40435474963675
 21
-0.4365745723949033
 31
0.0
  0
LINE
  5
209
330
2
100
AcDbEntity
  8
GAIKEI
100
AcDbLine
 10
30.35697172470901
 20
-0.4365737389863967
 30
0.0
 11
30.37514364798921
 21
-0.0898256126721151
 31
0.0
  0
ARC
  5
20A
330
2
100
AcDbEntity
  8
GAIKEI
100
AcDbCircle
 10
30.45005463286452
 20
-0.0937535483340924
 30
0.0
 40
0.0750137523647868
100
AcDbArc
 50
106.0450984138907
 51
176.9985900851084
  0
ARC
  5
20B
330
2
100
AcDbEntity
  8
GAIKEI
100
AcDbCircle
 10
34.57649667522299
 20
-14.44827580422271
 30
0.0
 40
15.01087104638736
100
AcDbArc
 50
96.58699258193669
 51
106.038196862209
  0
LINE
  5
20C
330
2
100
AcDbEntity
  8
GAIKEI
100
AcDbLine
 10
32.85457519291901
 20
0.4635059799924477
 30
0.0
 11
42.77875069303206
 21
0.8898374693071673
 31
0.0
  0
LINE
  5
20D
330
2
100
AcDbEntity
  8
GAIKEI
 62
     1
100
AcDbLine
 10
44.88565209516695
 20
-0.4865782504263905
 30
0.0
 11
44.88565209516695
 21
-0.5715813361274798
 31
0.0
  0
LINE
  5
20E
330
2
100
AcDbEntity
  8
GAIKEI
 62
     1
100
AcDbLine
 10
46.50845975594438
 20
-0.5715813361274798
 30
0.0
 11
41.83793712831277
 21
-0.5715813361274798
 31
0.0
  0
LINE
  5
20F
330
2
100
AcDbEntity
  8
GAIKEI
 62
     1
100
AcDbLine
 10
41.83793712831277
 20
-0.5715813361274798
 30
0.0
 11
41.83793712831277
 21
-0.4865782504263905
 31
0.0
  0
LINE
  5
210
330
2
100
AcDbEntity
  8
GAIKEI
100
AcDbLine
 10
46.70318940791531
 20
-0.4365737389863967
 30
0.0
 11
46.6847060736701
 21
-0.0838890028702508
 31
0.0
  0
ARC
  5
211
330
2
100
AcDbEntity
  8
GAIKEI
100
AcDbCircle
 10
46.60979767916592
 20
-0.0878125444279476
 30
0.0
 40
0.0750110774855606
100
AcDbArc
 50
2.998290564266559
 51
67.68849986971344
  0
LINE
  5
212
330
2
100
AcDbEntity
  8
GAIKEI
 62
     1
100
AcDbLine
 10
46.50845975594438
 20
-0.4865782504263905
 30
0.0
 11
46.50845975594438
 21
-0.5715813361274798
 31
0.0
  0
LINE
  5
213
330
2
100
AcDbEntity
  8
GAIKEI
 62
     1
100
AcDbLine
 10
46.65492797767472
 20
-0.4865782504263905
 30
0.0
 11
46.65580054912794
 21
-0.4365741556906642
 31
0.0
  0
ARC
  5
214
330
2
100
AcDbEntity
  8
GAIKEI
100
AcDbCircle
 10
40.94870595187233
 20
-13.88443569650729
 30
0.0
 40
14.98791727173363
100
AcDbArc
 50
67.69038278575724
 51
71.91495060504654
  0
ARC
  5
215
330
2
100
AcDbEntity
  8
GAIKEI
100
AcDbCircle
 10
38.08530477499102
 20
-27.26967226613869
 30
0.0
 40
28.54796705767762
100
AcDbArc
 50
77.04151910734037
 51
80.53729314661032
  0
ARC
  5
216
330
2
100
AcDbEntity
  8
GAIKEI
100
AcDbCircle
 10
45.11255052239704
 20
3.577049092580068
 30
0.0
 40
3.089768614986323
100
AcDbArc
 50
258.3200110016844
 51
271.1072643177896
  0
ARC
  5
217
330
2
100
AcDbEntity
  8
GAIKEI
100
AcDbCircle
 10
45.06063186402485
 20
-0.6958362667424467
 30
0.0
 40
1.188945384238282
100
AcDbArc
 50
62.94724415665918
 51
84.61276257708192
  0
LINE
  5
218
330
2
100
AcDbEntity
  8
GAIKEI
100
AcDbLine
 10
38.57754589033169
 20
0.7093608979922977
 30
0.0
 11
38.63520891908712
 21
1.80956601902622
 31
0.0
  0
ARC
  5
219
330
2
100
AcDbEntity
  8
GAIKEI
100
AcDbCircle
 10
39.03090894749204
 20
1.792628384862609
 30
0.0
 40
0.396066257374069
100
AcDbArc
 50
90.69906002077289
 51
177.5496258904873
  0
LINE
  5
21A
330
2
100
AcDbEntity
  8
GAIKEI
 62
     7
100
AcDbLine
 10
39.02607677375045
 20
2.188665195134916
 30
0.0
 11
42.66275737747287
 21
2.188665195134916
 31
0.0
  0
LINE
  5
21B
330
2
100
AcDbEntity
  8
GAIKEI
 62
     7
100
AcDbLine
 10
39.71442012654171
 20
2.413685496614931
 30
0.0
 11
45.44645560789638
 21
2.413685496614931
 31
0.0
  0
LINE
  5
21C
330
2
100
AcDbEntity
  8
GAIKEI
 62
     7
100
AcDbLine
 10
45.49638136223092
 20
2.366300388165882
 30
0.0
 11
45.60136791752052
 21
0.3630338188015116
 31
0.0
  0
ARC
  5
21D
330
2
100
AcDbEntity
  8
GAIKEI
 62
     7
100
AcDbCircle
 10
39.71459082585534
 20
2.363493218138103
 30
0.0
 40
0.0501925368555389
100
AcDbArc
 50
90.1949378391694
 51
176.8019857905066
  0
LINE
  5
21E
330
2
100
AcDbEntity
  8
GAIKEI
 62
     7
100
AcDbLine
 10
39.66447658498225
 20
2.366293493439854
 30
0.0
 11
39.65516353037248
 21
2.188661861500833
 31
0.0
  0
LINE
  5
21F
330
2
100
AcDbEntity
  8
GAIKEI
 62
     1
100
AcDbLine
 10
42.98900181146092
 20
2.366297887940277
 30
0.0
 11
43.05193332251668
 21
0.8459536381460566
 31
0.0
  0
LINE
  5
220
330
2
100
AcDbEntity
  8
GAIKEI
 62
     1
100
AcDbLine
 10
42.66876375270533
 20
2.366293304193391
 30
0.0
 11
42.62551193383103
 21
0.8832545034547365
 31
0.0
  0
ARC
  5
221
330
2
100
AcDbEntity
  8
GAIKEI
 62
     1
100
AcDbCircle
 10
42.71007135939129
 20
2.37293077018819
 30
0.0
 40
0.0418374507040371
100
AcDbArc
 50
103.0635590081793
 51
189.1282203946025
  0
ARC
  5
222
330
2
100
AcDbEntity
  8
GAIKEI
 62
     1
100
AcDbCircle
 10
42.94371277358613
 20
2.36870543587068
 30
0.0
 40
0.0453588822826283
100
AcDbArc
 50
356.9518797041111
 51
82.58954369112784
  0
ARC
  5
223
330
2
100
AcDbEntity
  8
GAIKEI
 62
     7
100
AcDbCircle
 10
45.44645560789638
 20
2.363680985174909
 30
0.0
 40
0.0500045114399966
100
AcDbArc
 50
2.999964999996151
 51
89.99996400000483
  0
DIMENSION
  5
224
330
2
100
AcDbEntity
  8
SUNPO
100
AcDbDimension
  2
*D7
 10
46.70318940791531
 20
-7.5877203456944
 30
0.0
 11
38.53008035796003
 21
-5.8377203456944
 31
0.0
 70
    33
  1
327
 71
     5
 42
16.34621809991057
  3
STANDARD
100
AcDbAlignedDimension
 13
30.35697130800475
 23
-0.5877203456944074
 33
0.0
 14
46.70318940791531
 24
-0.5877203456944074
 34
0.0
1001
ACAD
1000
DSTYLE
1002
{
1070
    40
1040
1.0
1070
   140
1040
2.5
1070
   147
1040
0.5
1070
   172
1070
     1
1070
   279
1070
     0
1070
   288
1070
     0
1002
}
  0
TEXT
  5
231
330
2
100
AcDbEntity
  8
MOJI1
100
AcDbText
 10
-18.90717966897387
 20
-41.48171766909013
 30
0.0
 40
3.0
  1
４０９６階調（相当）
100
AcDbText
  0
TEXT
  5
232
330
2
100
AcDbEntity
  8
MOJI1
100
AcDbText
 10
-18.90717966897387
 20
-36.48171766909013
 30
0.0
 40
3.0
  1
１５０００：１
100
AcDbText
  0
ENDSEC
  0
SECTION
  2
OBJECTS
  0
DICTIONARY
  5
9
330
0
100
AcDbDictionary
281
     1
  3
ACAD_COLOR
350
2E
  3
ACAD_GROUP
350
2A
  3
ACAD_LAYOUT
350
D
  3
ACAD_MATERIAL
350
2D
  3
ACAD_MLINESTYLE
350
2B
  3
ACAD_PLOTSETTINGS
350
2C
  3
ACAD_PLOTSTYLENAME
350
8
  3
ACDBHEADERROUNDTRIPXREC
350
299
  3
AcDbVariableDictionary
350
294
  3
ASE_INDEX_DICTIONARY
350
23B
  0
DICTIONARY
  5
13
330
12
100
AcDbDictionary
280
     1
281
     1
  3
ACAD_LAYERSTATES
360
14
  0
DICTIONARY
  5
3
330
2
100
AcDbDictionary
280
     1
281
     1
  3
ACAD_SORTENTS
360
4
  0
DICTIONARY
  5
2E
102
{ACAD_REACTORS
330
9
102
}
330
9
100
AcDbDictionary
281
     1
  0
DICTIONARY
  5
2A
102
{ACAD_REACTORS
330
9
102
}
330
9
100
AcDbDictionary
281
     1
  0
DICTIONARY
  5
D
102
{ACAD_REACTORS
330
9
102
}
330
9
100
AcDbDictionary
281
     1
  3
Model
350
C
  3
レイアウト1
350
11
  0
DICTIONARY
  5
2D
102
{ACAD_REACTORS
330
9
102
}
330
9
100
AcDbDictionary
281
     1
  0
DICTIONARY
  5
2B
102
{ACAD_REACTORS
330
9
102
}
330
9
100
AcDbDictionary
281
     1
  3
Standard
350
30
  0
DICTIONARY
  5
2C
102
{ACAD_REACTORS
330
9
102
}
330
9
100
AcDbDictionary
281
     1
  0
ACDBDICTIONARYWDFLT
  5
8
102
{ACAD_REACTORS
330
9
102
}
330
9
100
AcDbDictionary
281
     1
  3
Normal
350
7
100
AcDbDictionaryWithDefault
340
7
  0
DICTIONARY
  5
299
102
{ACAD_REACTORS
330
9
102
}
330
9
100
AcDbDictionary
281
     1
  3
COLORDICT
350
29B
  3
MATERIALDICT
350
29A
  0
DICTIONARY
  5
294
102
{ACAD_REACTORS
330
9
102
}
330
9
100
AcDbDictionary
281
     1
  3
DIMASSOC
350
296
  3
HIDETEXT
350
295
  3
PROJECTNAME
350
297
  0
DICTIONARY
  5
23B
102
{ACAD_REACTORS
330
9
102
}
330
9
100
AcDbDictionary
281
     1
  3
ASEBlockHierarchyIndexRecord
350
23D
1001
DCO15
1040
1627816705.403
  0
DICTIONARY
  5
14
102
{ACAD_REACTORS
330
13
102
}
330
13
100
AcDbDictionary
281
     1
  0
SORTENTSTABLE
  5
4
102
{ACAD_REACTORS
330
3
102
}
330
3
100
AcDbSortentsTable
330
2
  0
LAYOUT
  5
C
102
{ACAD_XDICTIONARY
360
29C
102
}
102
{ACAD_REACTORS
330
D
102
}
330
D
100
AcDbPlotSettings
  1

  2
Ａ４－縦3FRIM01.pc3
  4
A4
  6

 40
5.873749732971191
 41
5.873747825622558
 42
5.873748779296875
 43
5.873748779296875
 44
209.9733276367187
 45
296.9259948730469
 46
5.419999999999999
 47
0.0
 48
0.0
 49
0.0
140
0.0
141
0.0
142
1.0
143
1.38245207335299
 70
 11956
 72
     1
 73
     0
 74
     1
  7
tmsacad.ctb
 75
     0
147
0.7233523818114045
148
0.0320386232301644
149
0.0300716685512725
100
AcDbLayout
  1
Model
 70
     1
 71
     0
 10
0.0
 20
0.0
 11
12.0
 21
9.0
 12
0.0
 22
0.0
 32
0.0
 14
0.0
 24
0.0
 34
0.0
 15
0.0
 25
0.0
 35
0.0
146
0.0
 13
0.0
 23
0.0
 33
0.0
 16
1.0
 26
0.0
 36
0.0
 17
0.0
 27
1.0
 37
0.0
 76
     0
330
2
  0
LAYOUT
  5
11
102
{ACAD_XDICTIONARY
360
29E
102
}
102
{ACAD_REACTORS
330
D
102
}
330
D
100
AcDbPlotSettings
  1

  2
None
  4

  6

 40
0.0
 41
0.0
 42
0.0
 43
0.0
 44
0.0
 45
0.0
 46
0.0
 47
0.0
 48
0.0
 49
0.0
140
0.0
141
0.0
142
1.0
143
1.0
 70
   688
 72
     0
 73
     0
 74
     5
  7
tmsacad.ctb
 75
    16
147
1.0
148
0.0
149
0.0
100
AcDbLayout
  1
レイアウト1
 70
     1
 71
     1
 10
0.0
 20
0.0
 11
12.0
 21
9.0
 12
0.0
 22
0.0
 32
0.0
 14
0.0
 24
0.0
 34
0.0
 15
0.0
 25
0.0
 35
0.0
146
0.0
 13
0.0
 23
0.0
 33
0.0
 16
1.0
 26
0.0
 36
0.0
 17
0.0
 27
1.0
 37
0.0
 76
     0
330
E
  0
MLINESTYLE
  5
30
102
{ACAD_REACTORS
330
2B
102
}
330
2B
100
AcDbMlineStyle
  2
STANDARD
 70
     0
  3

 62
   256
 51
90.0
 52
90.0
 71
     2
 49
0.5
 62
   256
  6
BYLAYER
 49
-0.5
 62
   256
  6
BYLAYER
  0
ACDBPLACEHOLDER
  5
7
102
{ACAD_REACTORS
330
8
102
}
330
8
  0
XRECORD
  5
29B
102
{ACAD_REACTORS
330
299
102
}
330
299
100
AcDbXrecord
280
     1
340
2E
  0
XRECORD
  5
29A
102
{ACAD_REACTORS
330
299
102
}
330
299
100
AcDbXrecord
280
     1
340
2D
  0
DICTIONARYVAR
  5
296
102
{ACAD_REACTORS
330
294
102
}
330
294
100
DictionaryVariables
280
     0
  1
1
  0
DICTIONARYVAR
  5
295
102
{ACAD_REACTORS
330
294
102
}
330
294
100
DictionaryVariables
280
     0
  1
1
  0
DICTIONARYVAR
  5
297
102
{ACAD_REACTORS
330
294
102
}
330
294
100
DictionaryVariables
280
     0
  1

  0
XRECORD
  5
23D
102
{ACAD_REACTORS
330
23B
102
}
330
23B
100
AcDbXrecord
280
     1
330
18F
330
190
330
1A1
330
1A2
330
1AE
330
1AF
330
1E2
330
1E3
330
1EF
330
1F0
330
22A
330
22B
330
24E
330
24F
330
25A
330
25B
330
266
330
267
330
272
330
273
330
27E
330
27F
330
28C
330
28D
  0
DICTIONARY
  5
29C
330
C
100
AcDbDictionary
280
     1
281
     1
  3
ACAD_XREC_ROUNDTRIP
360
29D
  0
DICTIONARY
  5
29E
330
11
100
AcDbDictionary
280
     1
281
     1
  3
ACAD_XREC_ROUNDTRIP
360
29F
  0
XRECORD
  5
29D
102
{ACAD_REACTORS
330
29C
102
}
330
29C
100
AcDbXrecord
280
     1
102
SHADEPLOT
 70
     0
102
SHADEPLOTRESLEVEL
 70
     2
102
SHADEPLOTCUSTOMDPI
 70
   300
  0
XRECORD
  5
29F
102
{ACAD_REACTORS
330
29E
102
}
330
29E
100
AcDbXrecord
280
     1
102
SHADEPLOT
 70
     0
102
SHADEPLOTRESLEVEL
 70
     2
102
SHADEPLOTCUSTOMDPI
 70
   300
  0
ENDSEC
  0
EOF
