  0
SECTION
  2
HEADER
  9
$ACADVER
  1
AC1015
  9
$ACADMAINTVER
 70
    20
  9
$DWGCODEPAGE
  3
ANSI_932
  9
$INSBASE
 10
0.4999999440410648
 20
120.5008351249346
 30
0.0
  9
$EXTMIN
 10
-67.43225007717524
 20
-56.18147215221711
 30
-0.0015258207003583
  9
$EXTMAX
 10
57.60131891537617
 20
56.8204654997919
 30
0.0000000349246037
  9
$LIMMIN
 10
0.0
 20
0.0
  9
$LIMMAX
 10
420.0
 20
297.0
  9
$ORTHOMODE
 70
     1
  9
$REGENMODE
 70
     0
  9
$FILLMODE
 70
     1
  9
$QTEXTMODE
 70
     0
  9
$MIRRTEXT
 70
     0
  9
$LTSCALE
 40
1.0
  9
$ATTMODE
 70
     1
  9
$TEXTSIZE
 40
2.5
  9
$TRACEWID
 40
1.0
  9
$TEXTSTYLE
  7
Standard
  9
$CLAYER
  8
MOJI1
  9
$CELTYPE
  6
ByLayer
  9
$CECOLOR
 62
   256
  9
$CELTSCALE
 40
1.0
  9
$DISPSILH
 70
     0
  9
$DIMSCALE
 40
1.0
  9
$DIMASZ
 40
2.0
  9
$DIMEXO
 40
2.0
  9
$DIMDLI
 40
8.0
  9
$DIMRND
 40
0.0
  9
$DIMDLE
 40
0.0
  9
$DIMEXE
 40
2.0
  9
$DIMTP
 40
0.0
  9
$DIMTM
 40
0.0
  9
$DIMTXT
 40
2.5
  9
$DIMCEN
 40
0.0
  9
$DIMTSZ
 40
0.0
  9
$DIMTOL
 70
     0
  9
$DIMLIM
 70
     0
  9
$DIMTIH
 70
     0
  9
$DIMTOH
 70
     0
  9
$DIMSE1
 70
     0
  9
$DIMSE2
 70
     0
  9
$DIMTAD
 70
     3
  9
$DIMZIN
 70
     0
  9
$DIMBLK
  1

  9
$DIMASO
 70
     1
  9
$DIMSHO
 70
     1
  9
$DIMPOST
  1

  9
$DIMAPOST
  1

  9
$DIMALT
 70
     0
  9
$DIMALTD
 70
     2
  9
$DIMALTF
 40
25.4
  9
$DIMLFAC
 40
1.0
  9
$DIMTOFL
 70
     1
  9
$DIMTVP
 40
0.0
  9
$DIMTIX
 70
     0
  9
$DIMSOXD
 70
     0
  9
$DIMSAH
 70
     1
  9
$DIMBLK1
  1
OPEN30
  9
$DIMBLK2
  1
OPEN30
  9
$DIMSTYLE
  2
STANDARD
  9
$DIMCLRD
 70
     0
  9
$DIMCLRE
 70
     0
  9
$DIMCLRT
 70
     0
  9
$DIMTFAC
 40
1.0
  9
$DIMGAP
 40
0.5
  9
$DIMJUST
 70
     0
  9
$DIMSD1
 70
     0
  9
$DIMSD2
 70
     0
  9
$DIMTOLJ
 70
     1
  9
$DIMTZIN
 70
     0
  9
$DIMALTZ
 70
     0
  9
$DIMALTTZ
 70
     0
  9
$DIMUPT
 70
     0
  9
$DIMDEC
 70
     4
  9
$DIMTDEC
 70
     4
  9
$DIMALTU
 70
     2
  9
$DIMALTTD
 70
     2
  9
$DIMTXSTY
  7
Standard
  9
$DIMAUNIT
 70
     0
  9
$DIMADEC
 70
     0
  9
$DIMALTRND
 40
0.0
  9
$DIMAZIN
 70
     0
  9
$DIMDSEP
 70
    46
  9
$DIMATFIT
 70
     3
  9
$DIMFRAC
 70
     0
  9
$DIMLDRBLK
  1
OPEN30
  9
$DIMLUNIT
 70
     2
  9
$DIMLWD
 70
    -2
  9
$DIMLWE
 70
    -2
  9
$DIMTMOVE
 70
     0
  9
$LUNITS
 70
     2
  9
$LUPREC
 70
     4
  9
$SKETCHINC
 40
1.0
  9
$FILLETRAD
 40
0.0
  9
$AUNITS
 70
     0
  9
$AUPREC
 70
     0
  9
$MENU
  1
.
  9
$ELEVATION
 40
0.0
  9
$PELEVATION
 40
0.0
  9
$THICKNESS
 40
0.0
  9
$LIMCHECK
 70
     0
  9
$CHAMFERA
 40
0.0
  9
$CHAMFERB
 40
0.0
  9
$CHAMFERC
 40
0.0
  9
$CHAMFERD
 40
0.0
  9
$SKPOLY
 70
     0
  9
$TDCREATE
 40
2454349.434269746
  9
$TDUCREATE
 40
2454349.059269746
  9
$TDUPDATE
 40
2454643.682100162
  9
$TDUUPDATE
 40
2454643.307100162
  9
$TDINDWG
 40
0.4667078009
  9
$TDUSRTIMER
 40
0.4667078009
  9
$USRTIMER
 70
     1
  9
$ANGBASE
 50
0.0
  9
$ANGDIR
 70
     0
  9
$PDMODE
 70
     0
  9
$PDSIZE
 40
0.0
  9
$PLINEWID
 40
0.0
  9
$SPLFRAME
 70
     0
  9
$SPLINETYPE
 70
     6
  9
$SPLINESEGS
 70
     8
  9
$HANDSEED
  5
3AE
  9
$SURFTAB1
 70
     6
  9
$SURFTAB2
 70
     6
  9
$SURFTYPE
 70
     6
  9
$SURFU
 70
     6
  9
$SURFV
 70
     6
  9
$UCSBASE
  2

  9
$UCSNAME
  2

  9
$UCSORG
 10
0.0
 20
0.0
 30
0.0
  9
$UCSXDIR
 10
1.0
 20
0.0
 30
0.0
  9
$UCSYDIR
 10
0.0
 20
1.0
 30
0.0
  9
$UCSORTHOREF
  2

  9
$UCSORTHOVIEW
 70
     0
  9
$UCSORGTOP
 10
0.0
 20
0.0
 30
0.0
  9
$UCSORGBOTTOM
 10
0.0
 20
0.0
 30
0.0
  9
$UCSORGLEFT
 10
0.0
 20
0.0
 30
0.0
  9
$UCSORGRIGHT
 10
0.0
 20
0.0
 30
0.0
  9
$UCSORGFRONT
 10
0.0
 20
0.0
 30
0.0
  9
$UCSORGBACK
 10
0.0
 20
0.0
 30
0.0
  9
$PUCSBASE
  2

  9
$PUCSNAME
  2

  9
$PUCSORG
 10
0.0
 20
0.0
 30
0.0
  9
$PUCSXDIR
 10
1.0
 20
0.0
 30
0.0
  9
$PUCSYDIR
 10
0.0
 20
1.0
 30
0.0
  9
$PUCSORTHOREF
  2

  9
$PUCSORTHOVIEW
 70
     0
  9
$PUCSORGTOP
 10
0.0
 20
0.0
 30
0.0
  9
$PUCSORGBOTTOM
 10
0.0
 20
0.0
 30
0.0
  9
$PUCSORGLEFT
 10
0.0
 20
0.0
 30
0.0
  9
$PUCSORGRIGHT
 10
0.0
 20
0.0
 30
0.0
  9
$PUCSORGFRONT
 10
0.0
 20
0.0
 30
0.0
  9
$PUCSORGBACK
 10
0.0
 20
0.0
 30
0.0
  9
$USERI1
 70
     0
  9
$USERI2
 70
     0
  9
$USERI3
 70
     0
  9
$USERI4
 70
     0
  9
$USERI5
 70
     0
  9
$USERR1
 40
0.0
  9
$USERR2
 40
0.0
  9
$USERR3
 40
0.0
  9
$USERR4
 40
0.0
  9
$USERR5
 40
0.0
  9
$WORLDVIEW
 70
     1
  9
$SHADEDGE
 70
     3
  9
$SHADEDIF
 70
    70
  9
$TILEMODE
 70
     1
  9
$MAXACTVP
 70
    64
  9
$PINSBASE
 10
0.0
 20
0.0
 30
0.0
  9
$PLIMCHECK
 70
     0
  9
$PEXTMIN
 10
0.0
 20
0.0
 30
0.0
  9
$PEXTMAX
 10
0.0
 20
0.0
 30
0.0
  9
$PLIMMIN
 10
0.0
 20
0.0
  9
$PLIMMAX
 10
12.0
 20
9.0
  9
$UNITMODE
 70
     0
  9
$VISRETAIN
 70
     1
  9
$PLINEGEN
 70
     0
  9
$PSLTSCALE
 70
     1
  9
$TREEDEPTH
 70
  3020
  9
$CMLSTYLE
  2
Standard
  9
$CMLJUST
 70
     0
  9
$CMLSCALE
 40
20.0
  9
$PROXYGRAPHICS
 70
     1
  9
$MEASUREMENT
 70
     1
  9
$CELWEIGHT
370
    -1
  9
$ENDCAPS
280
     0
  9
$JOINSTYLE
280
     0
  9
$LWDISPLAY
290
     0
  9
$INSUNITS
 70
     4
  9
$HYPERLINKBASE
  1

  9
$STYLESHEET
  1

  9
$XEDIT
290
     1
  9
$CEPSNTYPE
380
     0
  9
$PSTYLEMODE
290
     1
  9
$FINGERPRINTGUID
  2
{FDEAD578-A652-11D2-9A35-0060089B3A3F}
  9
$VERSIONGUID
  2
{9935184C-0E09-4EC7-B6E7-352A9F0090FC}
  9
$EXTNAMES
290
     1
  9
$PSVPSCALE
 40
0.0
  9
$OLESTARTUP
290
     0
  0
ENDSEC
  0
SECTION
  2
CLASSES
  0
CLASS
  1
ACDBDICTIONARYWDFLT
  2
AcDbDictionaryWithDefault
  3
ObjectDBX Classes
 90
        0
280
     0
281
     0
  0
CLASS
  1
ACDBPLACEHOLDER
  2
AcDbPlaceHolder
  3
ObjectDBX Classes
 90
        0
280
     0
281
     0
  0
CLASS
  1
LAYOUT
  2
AcDbLayout
  3
ObjectDBX Classes
 90
        0
280
     0
281
     0
  0
CLASS
  1
DICTIONARYVAR
  2
AcDbDictionaryVar
  3
ObjectDBX Classes
 90
        0
280
     0
281
     0
  0
CLASS
  1
SORTENTSTABLE
  2
AcDbSortentsTable
  3
ObjectDBX Classes
 90
        0
280
     0
281
     0
  0
CLASS
  1
DIMASSOC
  2
AcDbDimAssoc
  3
"AcDbDimAssoc|Product Desc:     AcDim ARX App For Dimension|Company:          Autodesk, Inc.|WEB Address:      www.autodesk.com"
 90
    32768
280
     0
281
     0
  0
ENDSEC
  0
SECTION
  2
TABLES
  0
TABLE
  2
VPORT
  5
1D
330
0
100
AcDbSymbolTable
 70
     3
  0
VPORT
  5
3A6
330
1D
100
AcDbSymbolTableRecord
100
AcDbViewportTableRecord
  2
*Active
 70
     0
 10
0.0
 20
0.0
 11
1.0
 21
1.0
 12
-4.915465580899532
 22
0.3194966737873983
 13
0.0
 23
0.0
 14
10.0
 24
10.0
 15
10.0
 25
10.0
 16
0.0
 26
0.0
 36
1.0
 17
0.0
 27
0.0
 37
0.0
 40
113.8952336018272
 41
1.439313984168865
 42
50.0
 43
0.0
 44
0.0
 50
0.0
 51
0.0
 71
     0
 72
 10000
 73
     1
 74
     2
 75
     0
 76
     0
 77
     0
 78
     0
281
     0
 65
     1
110
0.0
120
0.0
130
0.0
111
1.0
121
0.0
131
0.0
112
0.0
122
1.0
132
0.0
 79
     0
146
0.0
  0
ENDTAB
  0
TABLE
  2
LTYPE
  5
18
330
0
100
AcDbSymbolTable
 70
     2
  0
LTYPE
  5
19
330
18
100
AcDbSymbolTableRecord
100
AcDbLinetypeTableRecord
  2
ByBlock
 70
     0
  3

 72
    65
 73
     0
 40
0.0
  0
LTYPE
  5
1A
330
18
100
AcDbSymbolTableRecord
100
AcDbLinetypeTableRecord
  2
ByLayer
 70
     0
  3

 72
    65
 73
     0
 40
0.0
  0
LTYPE
  5
A
330
18
100
AcDbSymbolTableRecord
100
AcDbLinetypeTableRecord
  2
Continuous
 70
     0
  3
Solid line
 72
    65
 73
     0
 40
0.0
  0
LTYPE
  5
48
330
18
100
AcDbSymbolTableRecord
100
AcDbLinetypeTableRecord
  2
S10
 70
     0
  3
- - - - - - - - - 1,-1,1,-1
 72
    65
 73
     4
 40
4.0
 49
1.0
 74
     0
 49
-1.0
 74
     0
 49
1.0
 74
     0
 49
-1.0
 74
     0
  0
ENDTAB
  0
TABLE
  2
LAYER
  5
12
102
{ACAD_XDICTIONARY
360
13
102
}
330
0
100
AcDbSymbolTable
 70
     8
  0
LAYER
  5
6
330
12
100
AcDbSymbolTableRecord
100
AcDbLayerTableRecord
  2
0
 70
     0
 62
     7
  6
Continuous
370
    -3
390
7
  0
LAYER
  5
33F
330
12
100
AcDbSymbolTableRecord
100
AcDbLayerTableRecord
  2
WAKU
 70
     0
 62
     4
  6
Continuous
370
    -3
390
7
  0
LAYER
  5
2F
330
12
100
AcDbSymbolTableRecord
100
AcDbLayerTableRecord
  2
MOJI1
 70
     0
 62
     2
  6
Continuous
370
    -3
390
7
  0
LAYER
  5
304
330
12
100
AcDbSymbolTableRecord
100
AcDbLayerTableRecord
  2
TOUROKU
 70
     0
 62
     1
  6
Continuous
370
    -3
390
7
  0
LAYER
  5
32
330
12
100
AcDbSymbolTableRecord
100
AcDbLayerTableRecord
  2
GAIKEI
 70
     0
 62
     7
  6
Continuous
370
    -3
390
7
  0
LAYER
  5
311
330
12
100
AcDbSymbolTableRecord
100
AcDbLayerTableRecord
  2
DEFPOINTS
 70
     0
 62
     7
  6
Continuous
290
     0
370
    -3
390
7
  0
LAYER
  5
307
330
12
100
AcDbSymbolTableRecord
100
AcDbLayerTableRecord
  2
SUNPO
 70
     0
 62
     3
  6
Continuous
370
    -3
390
7
  0
LAYER
  5
302
330
12
100
AcDbSymbolTableRecord
100
AcDbLayerTableRecord
  2
S1
 70
     0
 62
     1
  6
Continuous
370
    -3
390
7
  0
ENDTAB
  0
TABLE
  2
STYLE
  5
15
330
0
100
AcDbSymbolTable
 70
     1
  0
STYLE
  5
16
330
15
100
AcDbSymbolTableRecord
100
AcDbTextStyleTableRecord
  2
Standard
 70
     0
 40
0.0
 41
1.0
 50
0.0
 71
     0
 42
2.5
  3
MONOTXT.shx
  4
BIGFONT.shx
  0
ENDTAB
  0
TABLE
  2
VIEW
  5
1B
330
0
100
AcDbSymbolTable
 70
     0
  0
ENDTAB
  0
TABLE
  2
UCS
  5
1C
330
0
100
AcDbSymbolTable
 70
     0
  0
ENDTAB
  0
TABLE
  2
APPID
  5
1F
330
0
100
AcDbSymbolTable
 70
     2
  0
APPID
  5
20
330
1F
100
AcDbSymbolTableRecord
100
AcDbRegAppTableRecord
  2
ACAD
 70
     0
  0
APPID
  5
364
330
1F
100
AcDbSymbolTableRecord
100
AcDbRegAppTableRecord
  2
DCO15
 70
     0
  0
ENDTAB
  0
TABLE
  2
DIMSTYLE
  5
21
330
0
100
AcDbSymbolTable
 70
     1
100
AcDbDimStyleTable
 71
     1
340
22
  0
DIMSTYLE
105
22
102
{ACAD_REACTORS
330
306
330
315
330
322
330
32F
102
}
330
21
100
AcDbSymbolTableRecord
100
AcDbDimStyleTableRecord
  2
STANDARD
 70
     0
 40
0.0
 41
2.0
 42
2.0
 43
8.0
 44
2.0
 73
     0
 74
     0
 77
     3
140
3.0
141
0.0
173
     1
279
     2
288
     1
340
16
341
23
343
23
344
23
  0
ENDTAB
  0
TABLE
  2
BLOCK_RECORD
  5
1
330
0
100
AcDbSymbolTable
 70
     9
  0
BLOCK_RECORD
  5
2
102
{ACAD_XDICTIONARY
360
3
102
}
330
1
100
AcDbSymbolTableRecord
100
AcDbBlockTableRecord
  2
*Model_Space
340
C
  0
BLOCK_RECORD
  5
E
330
1
100
AcDbSymbolTableRecord
100
AcDbBlockTableRecord
  2
*Paper_Space
340
11
  0
BLOCK_RECORD
  5
23
330
1
100
AcDbSymbolTableRecord
100
AcDbBlockTableRecord
  2
_OPEN30
340
0
102
{BLKREFS
331
335
331
336
331
328
331
329
331
31B
331
31C
331
30D
331
30E
331
376
331
377
331
382
331
383
331
38E
331
38F
331
39A
331
39B
102
}
  0
BLOCK_RECORD
  5
308
330
1
100
AcDbSymbolTableRecord
100
AcDbBlockTableRecord
  2
*D1
340
0
  0
BLOCK_RECORD
  5
316
330
1
100
AcDbSymbolTableRecord
100
AcDbBlockTableRecord
  2
*D2
340
0
  0
BLOCK_RECORD
  5
323
330
1
100
AcDbSymbolTableRecord
100
AcDbBlockTableRecord
  2
*D3
340
0
  0
BLOCK_RECORD
  5
330
330
1
100
AcDbSymbolTableRecord
100
AcDbBlockTableRecord
  2
*D4
340
0
  0
BLOCK_RECORD
  5
372
330
1
100
AcDbSymbolTableRecord
100
AcDbBlockTableRecord
  2
*D5
340
0
  0
BLOCK_RECORD
  5
37E
330
1
100
AcDbSymbolTableRecord
100
AcDbBlockTableRecord
  2
*D6
340
0
  0
BLOCK_RECORD
  5
38A
330
1
100
AcDbSymbolTableRecord
100
AcDbBlockTableRecord
  2
*D7
340
0
  0
BLOCK_RECORD
  5
396
330
1
100
AcDbSymbolTableRecord
100
AcDbBlockTableRecord
  2
*D8
340
0
  0
ENDTAB
  0
ENDSEC
  0
SECTION
  2
BLOCKS
  0
BLOCK
  5
5
330
2
100
AcDbEntity
  8
0
100
AcDbBlockBegin
  2
*Model_Space
 70
     0
 10
0.0
 20
0.0
 30
0.0
  3
*Model_Space
  1

  0
ENDBLK
  5
B
330
2
100
AcDbEntity
  8
0
100
AcDbBlockEnd
  0
BLOCK
  5
F
330
E
100
AcDbEntity
 67
     1
  8
0
100
AcDbBlockBegin
  2
*Paper_Space
 70
     0
 10
0.0
 20
0.0
 30
0.0
  3
*Paper_Space
  1

  0
ENDBLK
  5
10
330
E
100
AcDbEntity
 67
     1
  8
0
100
AcDbBlockEnd
  0
BLOCK
  5
24
330
23
100
AcDbEntity
  8
0
100
AcDbBlockBegin
  2
_OPEN30
 70
     0
 10
0.0
 20
0.0
 30
0.0
  3
_OPEN30
  1

  0
LINE
  5
25
330
23
100
AcDbEntity
  8
0
  6
ByBlock
 62
     0
100
AcDbLine
 10
-1.0
 20
0.26794919
 30
0.0
 11
0.0
 21
0.0
 31
0.0
  0
LINE
  5
26
330
23
100
AcDbEntity
  8
0
  6
ByBlock
 62
     0
100
AcDbLine
 10
0.0
 20
0.0
 30
0.0
 11
-1.0
 21
-0.26794919
 31
0.0
  0
LINE
  5
27
330
23
100
AcDbEntity
  8
0
  6
ByBlock
 62
     0
100
AcDbLine
 10
0.0
 20
0.0
 30
0.0
 11
-1.0
 21
0.0
 31
0.0
  0
ENDBLK
  5
28
330
23
100
AcDbEntity
  8
0
100
AcDbBlockEnd
  0
BLOCK
  5
309
330
308
100
AcDbEntity
  8
0
100
AcDbBlockBegin
  2
*D1
 70
     1
 10
0.0
 20
0.0
 30
0.0
  3
*D1
  1

  0
LINE
  5
30A
330
308
100
AcDbEntity
  8
SUNPO
 62
     0
370
    -2
100
AcDbLine
 10
34.11210779774024
 20
90.07051432889239
 30
0.0
 11
34.11210779774024
 21
98.07051432889242
 31
0.0
  0
LINE
  5
30B
330
308
100
AcDbEntity
  8
SUNPO
 62
     0
370
    -2
100
AcDbLine
 10
74.44543892200375
 20
90.07051432889239
 30
0.0
 11
74.44543892200375
 21
98.07051432889242
 31
0.0
  0
LINE
  5
30C
330
308
100
AcDbEntity
  8
SUNPO
 62
     0
370
    -2
100
AcDbLine
 10
36.11210779774024
 20
96.07051432889242
 30
0.0
 11
72.44543892200375
 21
96.07051432889242
 31
0.0
  0
INSERT
  5
30D
330
308
100
AcDbEntity
  8
SUNPO
 62
     0
370
    -2
100
AcDbBlockReference
  2
_OPEN30
 10
34.11210779774024
 20
96.07051432889242
 30
0.0
 41
2.0
 42
2.0
 43
2.0
 50
180.0
  0
INSERT
  5
30E
330
308
100
AcDbEntity
  8
SUNPO
 62
     0
370
    -2
100
AcDbBlockReference
  2
_OPEN30
 10
74.44543892200375
 20
96.07051432889242
 30
0.0
 41
2.0
 42
2.0
 43
2.0
  0
MTEXT
  5
30F
330
308
100
AcDbEntity
  8
SUNPO
 62
     0
100
AcDbMText
 10
46.27908272763369
 20
97.82051432889241
 30
0.0
 40
2.5
 41
0.0
 71
     5
 72
     1
  1
\A1;1210
 73
     1
 44
1.0
1001
ACAD
1000
MTEXTBEGIN
1070
    73
1070
     1
1070
    44
1040
1.0
1070
    74
1070
     0
1000
MTEXTEND
  0
POINT
  5
310
330
308
100
AcDbEntity
  8
DEFPOINTS
 62
     0
100
AcDbPoint
 10
34.11210779774024
 20
88.0705143288924
 30
0.0
  0
POINT
  5
312
330
308
100
AcDbEntity
  8
DEFPOINTS
 62
     0
100
AcDbPoint
 10
74.44543892200375
 20
88.0705143288924
 30
0.0
  0
POINT
  5
313
330
308
100
AcDbEntity
  8
DEFPOINTS
 62
     0
100
AcDbPoint
 10
74.44543892200375
 20
96.07051432889242
 30
0.0
  0
ENDBLK
  5
314
330
308
100
AcDbEntity
  8
0
100
AcDbBlockEnd
  0
BLOCK
  5
317
330
316
100
AcDbEntity
  8
0
100
AcDbBlockBegin
  2
*D2
 70
     1
 10
0.0
 20
0.0
 30
0.0
  3
*D2
  1

  0
LINE
  5
318
330
316
100
AcDbEntity
  8
SUNPO
 62
     0
370
    -2
100
AcDbLine
 10
76.40517842383371
 20
63.93018266184892
 30
0.0
 11
84.40517842383371
 21
63.93018266184891
 31
0.0
  0
LINE
  5
319
330
316
100
AcDbEntity
  8
SUNPO
 62
     0
370
    -2
100
AcDbLine
 10
76.40517842383371
 20
88.06350800780821
 30
0.0
 11
84.40517842383371
 21
88.06350800780821
 31
0.0
  0
LINE
  5
31A
330
316
100
AcDbEntity
  8
SUNPO
 62
     0
370
    -2
100
AcDbLine
 10
82.40517842383372
 20
65.93018266184891
 30
0.0
 11
82.40517842383372
 21
86.06350800780822
 31
0.0
  0
INSERT
  5
31B
330
316
100
AcDbEntity
  8
SUNPO
 62
     0
370
    -2
100
AcDbBlockReference
  2
_OPEN30
 10
82.40517842383372
 20
63.93018266184891
 30
0.0
 41
2.0
 42
2.0
 43
2.0
 50
270.0
  0
INSERT
  5
31C
330
316
100
AcDbEntity
  8
SUNPO
 62
     0
370
    -2
100
AcDbBlockReference
  2
_OPEN30
 10
82.40517842383372
 20
88.06350800780821
 30
0.0
 41
2.0
 42
2.0
 43
2.0
 50
90.0
  0
MTEXT
  5
31D
330
316
100
AcDbEntity
  8
SUNPO
 62
     0
100
AcDbMText
 10
80.65517842383369
 20
75.99684533482857
 30
0.0
 40
2.5
 41
0.0
 71
     5
 72
     1
  1
\A1;724
 11
0.0000000000000001
 21
1.0
 31
0.0
 73
     1
 44
1.0
1001
ACAD
1000
MTEXTBEGIN
1070
    73
1070
     1
1070
    44
1040
1.0
1070
    74
1070
     0
1000
MTEXTEND
  0
POINT
  5
31E
330
316
100
AcDbEntity
  8
DEFPOINTS
 62
     0
100
AcDbPoint
 10
74.40517842383371
 20
63.93018266184892
 30
0.0
  0
POINT
  5
31F
330
316
100
AcDbEntity
  8
DEFPOINTS
 62
     0
100
AcDbPoint
 10
74.40517842383371
 20
88.06350800780821
 30
0.0
  0
POINT
  5
320
330
316
100
AcDbEntity
  8
DEFPOINTS
 62
     0
100
AcDbPoint
 10
82.40517842383372
 20
88.06350800780821
 30
0.0
  0
ENDBLK
  5
321
330
316
100
AcDbEntity
  8
0
100
AcDbBlockEnd
  0
BLOCK
  5
324
330
323
100
AcDbEntity
  8
0
100
AcDbBlockBegin
  2
*D3
 70
     1
 10
0.0
 20
0.0
 30
0.0
  3
*D3
  1

  0
LINE
  5
325
330
323
100
AcDbEntity
  8
SUNPO
 62
     0
370
    -2
100
AcDbLine
 10
32.15872385152898
 20
63.93018266184892
 30
0.0
 11
24.15872385152897
 21
63.93018266184892
 31
0.0
  0
LINE
  5
326
330
323
100
AcDbEntity
  8
SUNPO
 62
     0
370
    -2
100
AcDbLine
 10
32.15872385152898
 20
103.5960750360868
 30
0.0
 11
24.15872385152898
 21
103.5960750360868
 31
0.0
  0
LINE
  5
327
330
323
100
AcDbEntity
  8
SUNPO
 62
     0
370
    -2
100
AcDbLine
 10
26.15872385152897
 20
65.93018266184893
 30
0.0
 11
26.15872385152897
 21
101.5960750360868
 31
0.0
  0
INSERT
  5
328
330
323
100
AcDbEntity
  8
SUNPO
 62
     0
370
    -2
100
AcDbBlockReference
  2
_OPEN30
 10
26.15872385152897
 20
63.93018266184892
 30
0.0
 41
2.0
 42
2.0
 43
2.0
 50
270.0
  0
INSERT
  5
329
330
323
100
AcDbEntity
  8
SUNPO
 62
     0
370
    -2
100
AcDbBlockReference
  2
_OPEN30
 10
26.15872385152897
 20
103.5960750360868
 30
0.0
 41
2.0
 42
2.0
 43
2.0
 50
90.0
  0
MTEXT
  5
32A
330
323
100
AcDbEntity
  8
SUNPO
 62
     0
100
AcDbMText
 10
24.40872385152896
 20
83.7631288489679
 30
0.0
 40
2.5
 41
0.0
 71
     5
 72
     1
  1
\A1;1130.3～1430.3
 11
0.0000000000000001
 21
1.0
 31
0.0
 73
     1
 44
1.0
1001
ACAD
1000
MTEXTBEGIN
1070
    73
1070
     1
1070
    44
1040
1.0
1070
    74
1070
     0
1000
MTEXTEND
  0
POINT
  5
32B
330
323
100
AcDbEntity
  8
DEFPOINTS
 62
     0
100
AcDbPoint
 10
34.15872385152898
 20
63.93018266184892
 30
0.0
  0
POINT
  5
32C
330
323
100
AcDbEntity
  8
DEFPOINTS
 62
     0
100
AcDbPoint
 10
34.15872385152898
 20
103.5960750360868
 30
0.0
  0
POINT
  5
32D
330
323
100
AcDbEntity
  8
DEFPOINTS
 62
     0
100
AcDbPoint
 10
26.15872385152897
 20
103.5960750360868
 30
0.0
  0
ENDBLK
  5
32E
330
323
100
AcDbEntity
  8
0
100
AcDbBlockEnd
  0
BLOCK
  5
331
330
330
100
AcDbEntity
  8
0
100
AcDbBlockBegin
  2
*D4
 70
     1
 10
0.0
 20
0.0
 30
0.0
  3
*D4
  1

  0
LINE
  5
332
330
330
100
AcDbEntity
  8
SUNPO
 62
     0
370
    -2
100
AcDbLine
 10
42.04543641352524
 20
61.93691736506394
 30
0.0
 11
42.04543641352524
 21
53.93691736506394
 31
0.0
  0
LINE
  5
333
330
330
100
AcDbEntity
  8
SUNPO
 62
     0
370
    -2
100
AcDbLine
 10
66.41210142109861
 20
61.93691736506394
 30
0.0
 11
66.41210142109861
 21
53.93691736506394
 31
0.0
  0
LINE
  5
334
330
330
100
AcDbEntity
  8
SUNPO
 62
     0
370
    -2
100
AcDbLine
 10
44.04543641352524
 20
55.93691736506395
 30
0.0
 11
64.41210142109861
 21
55.93691736506395
 31
0.0
  0
INSERT
  5
335
330
330
100
AcDbEntity
  8
SUNPO
 62
     0
370
    -2
100
AcDbBlockReference
  2
_OPEN30
 10
42.04543641352524
 20
55.93691736506395
 30
0.0
 41
2.0
 42
2.0
 43
2.0
 50
180.0
  0
INSERT
  5
336
330
330
100
AcDbEntity
  8
SUNPO
 62
     0
370
    -2
100
AcDbBlockReference
  2
_OPEN30
 10
66.41210142109861
 20
55.93691736506395
 30
0.0
 41
2.0
 42
2.0
 43
2.0
  0
MTEXT
  5
337
330
330
100
AcDbEntity
  8
SUNPO
 62
     0
100
AcDbMText
 10
54.22876891731192
 20
57.68691736506394
 30
0.0
 40
2.5
 41
0.0
 71
     5
 72
     1
  1
\A1;731
 73
     1
 44
1.0
1001
ACAD
1000
MTEXTBEGIN
1070
    73
1070
     1
1070
    44
1040
1.0
1070
    74
1070
     0
1000
MTEXTEND
  0
POINT
  5
338
330
330
100
AcDbEntity
  8
DEFPOINTS
 62
     0
100
AcDbPoint
 10
42.04543641352524
 20
63.93691736506394
 30
0.0
  0
POINT
  5
339
330
330
100
AcDbEntity
  8
DEFPOINTS
 62
     0
100
AcDbPoint
 10
66.41210142109861
 20
63.93691736506394
 30
0.0
  0
POINT
  5
33A
330
330
100
AcDbEntity
  8
DEFPOINTS
 62
     0
100
AcDbPoint
 10
66.41210142109861
 20
55.93691736506395
 30
0.0
  0
ENDBLK
  5
33B
330
330
100
AcDbEntity
  8
0
100
AcDbBlockEnd
  0
BLOCK
  5
37C
330
372
100
AcDbEntity
  8
0
100
AcDbBlockBegin
  2
*D5
 70
     1
 10
0.0
 20
0.0
 30
0.0
  3
*D5
  1

  0
LINE
  5
373
330
372
100
AcDbEntity
  8
SUNPO
 62
     0
370
    -2
100
AcDbLine
 10
-27.87613301028176
 20
0.2561473908157836
 30
0.0
 11
-27.87613301028176
 21
-7.743852609184216
 31
0.0
  0
LINE
  5
374
330
372
100
AcDbEntity
  8
SUNPO
 62
     0
370
    -2
100
AcDbLine
 10
-3.509468002708388
 20
0.2561473908157836
 30
0.0
 11
-3.509468002708388
 21
-7.743852609184216
 31
0.0
  0
LINE
  5
375
330
372
100
AcDbEntity
  8
SUNPO
 62
     0
370
    -2
100
AcDbLine
 10
-25.87613301028176
 20
-5.743852609184216
 30
0.0
 11
-5.509468002708388
 21
-5.743852609184216
 31
0.0
  0
INSERT
  5
376
330
372
100
AcDbEntity
  8
SUNPO
 62
     0
370
    -2
100
AcDbBlockReference
  2
_OPEN30
 10
-27.87613301028176
 20
-5.743852609184216
 30
0.0
 41
2.0
 42
2.0
 43
2.0
 50
180.0
  0
INSERT
  5
377
330
372
100
AcDbEntity
  8
SUNPO
 62
     0
370
    -2
100
AcDbBlockReference
  2
_OPEN30
 10
-3.509468002708388
 20
-5.743852609184216
 30
0.0
 41
2.0
 42
2.0
 43
2.0
  0
MTEXT
  5
378
330
372
100
AcDbEntity
  8
SUNPO
 62
     0
100
AcDbMText
 10
-15.69280050649507
 20
-3.993852609184216
 30
0.0
 40
2.5
 41
0.0
 71
     5
 72
     1
  1
\A1;731
 73
     1
 44
1.0
1001
ACAD
1000
MTEXTBEGIN
1070
    73
1070
     1
1070
    44
1040
1.0
1070
    74
1070
     0
1000
MTEXTEND
  0
POINT
  5
379
330
372
100
AcDbEntity
  8
DEFPOINTS
 62
     0
100
AcDbPoint
 10
-27.87613301028176
 20
2.256147390815783
 30
0.0
  0
POINT
  5
37A
330
372
100
AcDbEntity
  8
DEFPOINTS
 62
     0
100
AcDbPoint
 10
-3.509468002708388
 20
2.256147390815783
 30
0.0
  0
POINT
  5
37B
330
372
100
AcDbEntity
  8
DEFPOINTS
 62
     0
100
AcDbPoint
 10
-3.509468002708388
 20
-5.743852609184216
 30
0.0
  0
ENDBLK
  5
37D
330
372
100
AcDbEntity
  8
0
100
AcDbBlockEnd
  0
BLOCK
  5
388
330
37E
100
AcDbEntity
  8
0
100
AcDbBlockBegin
  2
*D6
 70
     1
 10
0.0
 20
0.0
 30
0.0
  3
*D6
  1

  0
LINE
  5
37F
330
37E
100
AcDbEntity
  8
SUNPO
 62
     0
370
    -2
100
AcDbLine
 10
-37.76284557227802
 20
2.249412687600753
 30
0.0
 11
-45.76284557227803
 21
2.249412687600755
 31
0.0
  0
LINE
  5
380
330
37E
100
AcDbEntity
  8
SUNPO
 62
     0
370
    -2
100
AcDbLine
 10
-37.76284557227802
 20
41.91530506183869
 30
0.0
 11
-45.76284557227802
 21
41.91530506183869
 31
0.0
  0
LINE
  5
381
330
37E
100
AcDbEntity
  8
SUNPO
 62
     0
370
    -2
100
AcDbLine
 10
-43.76284557227803
 20
4.249412687600755
 30
0.0
 11
-43.76284557227802
 21
39.91530506183869
 31
0.0
  0
INSERT
  5
382
330
37E
100
AcDbEntity
  8
SUNPO
 62
     0
370
    -2
100
AcDbBlockReference
  2
_OPEN30
 10
-43.76284557227803
 20
2.249412687600754
 30
0.0
 41
2.0
 42
2.0
 43
2.0
 50
270.0
  0
INSERT
  5
383
330
37E
100
AcDbEntity
  8
SUNPO
 62
     0
370
    -2
100
AcDbBlockReference
  2
_OPEN30
 10
-43.76284557227802
 20
41.91530506183869
 30
0.0
 41
2.0
 42
2.0
 43
2.0
 50
90.0
  0
MTEXT
  5
384
330
37E
100
AcDbEntity
  8
SUNPO
 62
     0
100
AcDbMText
 10
-45.51284557227803
 20
22.08235887471972
 30
0.0
 40
2.5
 41
0.0
 71
     5
 72
     1
  1
\A1;1130.3～1430.3
 11
0.0000000000000001
 21
1.0
 31
0.0
 73
     1
 44
1.0
1001
ACAD
1000
MTEXTBEGIN
1070
    73
1070
     1
1070
    44
1040
1.0
1070
    74
1070
     0
1000
MTEXTEND
  0
POINT
  5
385
330
37E
100
AcDbEntity
  8
DEFPOINTS
 62
     0
100
AcDbPoint
 10
-35.76284557227803
 20
2.249412687600752
 30
0.0
  0
POINT
  5
386
330
37E
100
AcDbEntity
  8
DEFPOINTS
 62
     0
100
AcDbPoint
 10
-35.76284557227803
 20
41.91530506183869
 30
0.0
  0
POINT
  5
387
330
37E
100
AcDbEntity
  8
DEFPOINTS
 62
     0
100
AcDbPoint
 10
-43.76284557227802
 20
41.91530506183869
 30
0.0
  0
ENDBLK
  5
389
330
37E
100
AcDbEntity
  8
0
100
AcDbBlockEnd
  0
BLOCK
  5
394
330
38A
100
AcDbEntity
  8
0
100
AcDbBlockBegin
  2
*D7
 70
     1
 10
0.0
 20
0.0
 30
0.0
  3
*D7
  1

  0
LINE
  5
38B
330
38A
100
AcDbEntity
  8
SUNPO
 62
     0
370
    -2
100
AcDbLine
 10
6.483609000026717
 20
2.249412687600752
 30
0.0
 11
14.48360900002671
 21
2.24941268760075
 31
0.0
  0
LINE
  5
38C
330
38A
100
AcDbEntity
  8
SUNPO
 62
     0
370
    -2
100
AcDbLine
 10
6.483609000026717
 20
26.38273803356005
 30
0.0
 11
14.48360900002671
 21
26.38273803356004
 31
0.0
  0
LINE
  5
38D
330
38A
100
AcDbEntity
  8
SUNPO
 62
     0
370
    -2
100
AcDbLine
 10
12.48360900002671
 20
4.24941268760075
 30
0.0
 11
12.48360900002672
 21
24.38273803356004
 31
0.0
  0
INSERT
  5
38E
330
38A
100
AcDbEntity
  8
SUNPO
 62
     0
370
    -2
100
AcDbBlockReference
  2
_OPEN30
 10
12.48360900002671
 20
2.24941268760075
 30
0.0
 41
2.0
 42
2.0
 43
2.0
 50
270.0
  0
INSERT
  5
38F
330
38A
100
AcDbEntity
  8
SUNPO
 62
     0
370
    -2
100
AcDbBlockReference
  2
_OPEN30
 10
12.48360900002672
 20
26.38273803356004
 30
0.0
 41
2.0
 42
2.0
 43
2.0
 50
90.0
  0
MTEXT
  5
390
330
38A
100
AcDbEntity
  8
SUNPO
 62
     0
100
AcDbMText
 10
10.73360900002671
 20
14.3160753605804
 30
0.0
 40
2.5
 41
0.0
 71
     5
 72
     1
  1
\A1;724
 11
0.0000000000000001
 21
1.0
 31
0.0
 73
     1
 44
1.0
1001
ACAD
1000
MTEXTBEGIN
1070
    73
1070
     1
1070
    44
1040
1.0
1070
    74
1070
     0
1000
MTEXTEND
  0
POINT
  5
391
330
38A
100
AcDbEntity
  8
DEFPOINTS
 62
     0
100
AcDbPoint
 10
4.483609000026717
 20
2.249412687600752
 30
0.0
  0
POINT
  5
392
330
38A
100
AcDbEntity
  8
DEFPOINTS
 62
     0
100
AcDbPoint
 10
4.483609000026717
 20
26.38273803356005
 30
0.0
  0
POINT
  5
393
330
38A
100
AcDbEntity
  8
DEFPOINTS
 62
     0
100
AcDbPoint
 10
12.48360900002672
 20
26.38273803356004
 30
0.0
  0
ENDBLK
  5
395
330
38A
100
AcDbEntity
  8
0
100
AcDbBlockEnd
  0
BLOCK
  5
3A0
330
396
100
AcDbEntity
  8
0
100
AcDbBlockBegin
  2
*D8
 70
     1
 10
0.0
 20
0.0
 30
0.0
  3
*D8
  1

  0
LINE
  5
397
330
396
100
AcDbEntity
  8
SUNPO
 62
     0
370
    -2
100
AcDbLine
 10
-35.80946162606676
 20
28.38974435464424
 30
0.0
 11
-35.80946162606676
 21
36.38974435464425
 31
0.0
  0
LINE
  5
398
330
396
100
AcDbEntity
  8
SUNPO
 62
     0
370
    -2
100
AcDbLine
 10
4.523869498196745
 20
28.38974435464424
 30
0.0
 11
4.523869498196746
 21
36.38974435464425
 31
0.0
  0
LINE
  5
399
330
396
100
AcDbEntity
  8
SUNPO
 62
     0
370
    -2
100
AcDbLine
 10
-33.80946162606676
 20
34.38974435464425
 30
0.0
 11
2.523869498196746
 21
34.38974435464425
 31
0.0
  0
INSERT
  5
39A
330
396
100
AcDbEntity
  8
SUNPO
 62
     0
370
    -2
100
AcDbBlockReference
  2
_OPEN30
 10
-35.80946162606676
 20
34.38974435464425
 30
0.0
 41
2.0
 42
2.0
 43
2.0
 50
180.0
  0
INSERT
  5
39B
330
396
100
AcDbEntity
  8
SUNPO
 62
     0
370
    -2
100
AcDbBlockReference
  2
_OPEN30
 10
4.523869498196746
 20
34.38974435464425
 30
0.0
 41
2.0
 42
2.0
 43
2.0
  0
MTEXT
  5
39C
330
396
100
AcDbEntity
  8
SUNPO
 62
     0
100
AcDbMText
 10
-23.64248669617331
 20
36.13974435464425
 30
0.0
 40
2.5
 41
0.0
 71
     5
 72
     1
  1
\A1;1210
 73
     1
 44
1.0
1001
ACAD
1000
MTEXTBEGIN
1070
    73
1070
     1
1070
    44
1040
1.0
1070
    74
1070
     0
1000
MTEXTEND
  0
POINT
  5
39D
330
396
100
AcDbEntity
  8
DEFPOINTS
 62
     0
100
AcDbPoint
 10
-35.80946162606676
 20
26.38974435464424
 30
0.0
  0
POINT
  5
39E
330
396
100
AcDbEntity
  8
DEFPOINTS
 62
     0
100
AcDbPoint
 10
4.523869498196745
 20
26.38974435464424
 30
0.0
  0
POINT
  5
39F
330
396
100
AcDbEntity
  8
DEFPOINTS
 62
     0
100
AcDbPoint
 10
4.523869498196746
 20
34.38974435464425
 30
0.0
  0
ENDBLK
  5
3A1
330
396
100
AcDbEntity
  8
0
100
AcDbBlockEnd
  0
ENDSEC
  0
SECTION
  2
ENTITIES
  0
LINE
  5
31
330
2
100
AcDbEntity
  8
GAIKEI
  6
Continuous
 62
     7
100
AcDbLine
 10
-21.52665213849502
 20
41.91530506183869
 30
0.0
 11
-9.858948874495013
 21
41.91530506183869
 31
0.0
  0
LINE
  5
33
330
2
100
AcDbEntity
  8
GAIKEI
  6
Continuous
 62
     7
100
AcDbLine
 10
-21.52665213849502
 20
41.91530506183869
 30
0.0
 11
-21.52665213849502
 21
41.80862891771062
 31
0.0
  0
LINE
  5
34
330
2
100
AcDbEntity
  8
GAIKEI
  6
Continuous
 62
     7
100
AcDbLine
 10
-9.858948874495013
 20
41.91530506183869
 30
0.0
 11
-9.858948874495013
 21
41.80862891771062
 31
0.0
  0
LINE
  5
35
330
2
100
AcDbEntity
  8
GAIKEI
  6
Continuous
 62
     7
100
AcDbLine
 10
-21.52665213849502
 20
41.80862891771062
 30
0.0
 11
-9.858948874495013
 21
41.80862891771062
 31
0.0
  0
LINE
  5
36
330
2
100
AcDbEntity
  8
GAIKEI
  6
Continuous
 62
     7
100
AcDbLine
 10
-17.78319189044339
 20
40.38183548999865
 30
0.0
 11
-13.60240945590954
 21
40.38183548999865
 31
0.0
  0
LINE
  5
37
330
2
100
AcDbEntity
  8
GAIKEI
  6
Continuous
 62
     7
100
AcDbLine
 10
-18.27030250029378
 20
40.59331794546586
 30
0.0
 11
-19.24008365885817
 21
41.63098380179792
 31
0.0
  0
ARC
  5
38
330
2
100
AcDbEntity
  8
GAIKEI
  6
Continuous
 62
     7
100
AcDbCircle
 10
-17.78319189044339
 20
41.04856139079868
 30
0.0
 40
0.6667259008
100
AcDbArc
 50
223.0632000000197
 51
270.0
  0
LINE
  5
39
330
2
100
AcDbEntity
  8
GAIKEI
  6
Continuous
 62
     7
100
AcDbLine
 10
-13.1152988460592
 20
40.59331794546586
 30
0.0
 11
-12.14551735413187
 21
41.63098380179792
 31
0.0
  0
ARC
  5
3A
330
2
100
AcDbEntity
  8
GAIKEI
  6
Continuous
 62
     7
100
AcDbCircle
 10
-13.60240945590954
 20
41.04856139079868
 30
0.0
 40
0.6667259008
100
AcDbArc
 50
270.0
 51
316.9367999999803
  0
ARC
  5
3B
330
2
100
AcDbEntity
  8
GAIKEI
  6
Continuous
 62
     7
100
AcDbCircle
 10
-19.64925667780864
 20
41.24857916103866
 30
0.0
 40
0.560049756672
100
AcDbArc
 50
43.06320000001973
 51
90.0
  0
ARC
  5
3C
330
2
100
AcDbEntity
  8
GAIKEI
  6
Continuous
 62
     7
100
AcDbCircle
 10
-11.7363446685444
 20
41.24857916103866
 30
0.0
 40
0.560049756672
100
AcDbArc
 50
90.0
 51
136.9367999999802
  0
LINE
  5
3D
330
2
100
AcDbEntity
  8
GAIKEI
  6
Continuous
 62
     7
100
AcDbLine
 10
-14.309344262335
 20
40.38183548999865
 30
0.0
 11
-14.309344262335
 21
40.34521156954179
 31
0.0
  0
LINE
  5
3E
330
2
100
AcDbEntity
  8
GAIKEI
  6
Continuous
 62
     7
100
AcDbLine
 10
-17.07625675065503
 20
40.38183548999865
 30
0.0
 11
-17.07625675065503
 21
40.34521156954179
 31
0.0
  0
LINE
  5
3F
330
2
100
AcDbEntity
  8
GAIKEI
  6
Continuous
 62
     1
100
AcDbLine
 10
-15.69280050649502
 20
39.80428017807526
 30
0.0
 11
-15.52611903129508
 21
39.70804662836855
 31
0.0
  0
LINE
  5
40
330
2
100
AcDbEntity
  8
GAIKEI
  6
Continuous
 62
     1
100
AcDbLine
 10
-15.85948198169501
 20
39.70804662836855
 30
0.0
 11
-15.69280050649502
 21
39.80428017807526
 31
0.0
  0
LINE
  5
41
330
2
100
AcDbEntity
  8
GAIKEI
  6
Continuous
 62
     1
100
AcDbLine
 10
-15.85948198169501
 20
39.70804662836855
 30
0.0
 11
-15.85948198169501
 21
39.51557919559212
 31
0.0
  0
LINE
  5
42
330
2
100
AcDbEntity
  8
GAIKEI
  6
Continuous
 62
     1
100
AcDbLine
 10
-15.85948198169501
 20
39.51557919559212
 30
0.0
 11
-15.69280050649502
 21
39.41934564588541
 31
0.0
  0
LINE
  5
43
330
2
100
AcDbEntity
  8
GAIKEI
  6
Continuous
 62
     1
100
AcDbLine
 10
-15.69280050649502
 20
39.41934564588541
 30
0.0
 11
-15.52611903129508
 21
39.51557919559212
 31
0.0
  0
LINE
  5
44
330
2
100
AcDbEntity
  8
GAIKEI
  6
Continuous
 62
     1
100
AcDbLine
 10
-15.52611903129508
 20
39.70804662836855
 30
0.0
 11
-15.52611903129508
 21
39.51557919559212
 31
0.0
  0
CIRCLE
  5
45
330
2
100
AcDbEntity
  8
GAIKEI
  6
Continuous
 62
     1
100
AcDbCircle
 10
-15.69280050649502
 20
39.61181307866184
 30
0.0
 40
0.3333629504
  0
LINE
  5
46
330
2
100
AcDbEntity
  8
GAIKEI
  6
Continuous
 62
     7
100
AcDbLine
 10
-17.17793245052701
 20
40.34521156954179
 30
0.0
 11
-14.20766856246302
 21
40.34521156954179
 31
0.0
  0
LINE
  5
47
330
2
100
AcDbEntity
  8
GAIKEI
  6
S10
 62
     1
100
AcDbLine
 10
-17.17793245052701
 20
20.72680193850181
 30
0.0
 11
-14.20766856246302
 21
20.72680193850181
 31
0.0
  0
LINE
  5
49
330
2
100
AcDbEntity
  8
GAIKEI
  6
S10
 62
     1
100
AcDbLine
 10
-13.02589690329506
 20
18.62661535098181
 30
0.0
 11
-18.35970410969503
 21
18.62661535098181
 31
0.0
  0
LINE
  5
4A
330
2
100
AcDbEntity
  8
GAIKEI
  6
S10
 62
     1
100
AcDbLine
 10
-15.99282716185502
 20
17.95988945018183
 30
0.0
 11
-15.99282716185502
 21
18.14794282413197
 31
0.0
  0
LINE
  5
4B
330
2
100
AcDbEntity
  8
GAIKEI
  6
S10
 62
     1
100
AcDbLine
 10
-15.39277385113507
 20
17.95988945018183
 30
0.0
 11
-15.39277385113507
 21
18.14794282413197
 31
0.0
  0
LINE
  5
4C
330
2
100
AcDbEntity
  8
GAIKEI
  6
S10
 62
     1
100
AcDbLine
 10
-13.02589690329506
 20
20.24675928992582
 30
0.0
 11
-18.35970410969503
 21
20.24675928992582
 31
0.0
  0
LINE
  5
4D
330
2
100
AcDbEntity
  8
GAIKEI
  6
S10
 62
     1
100
AcDbLine
 10
-18.35970410969503
 20
20.24675928992582
 30
0.0
 11
-18.35970410969503
 21
18.62661535098181
 31
0.0
  0
LINE
  5
4E
330
2
100
AcDbEntity
  8
GAIKEI
  6
S10
 62
     1
100
AcDbLine
 10
-13.02589690329506
 20
20.24675928992582
 30
0.0
 11
-13.02589690329506
 21
18.62661535098181
 31
0.0
  0
LINE
  5
4F
330
2
100
AcDbEntity
  8
GAIKEI
  6
S10
 62
     1
100
AcDbLine
 10
-15.52611903129508
 20
20.4467770601658
 30
0.0
 11
-15.52611903129508
 21
20.24675928992582
 31
0.0
  0
LINE
  5
50
330
2
100
AcDbEntity
  8
GAIKEI
  6
S10
 62
     1
100
AcDbLine
 10
-15.85948198169501
 20
20.4467770601658
 30
0.0
 11
-15.85948198169501
 21
20.24675928992582
 31
0.0
  0
LINE
  5
51
330
2
100
AcDbEntity
  8
GAIKEI
  6
S10
 62
     1
100
AcDbLine
 10
-15.59279162137505
 20
20.51344965024583
 30
0.0
 11
-15.79280939161498
 21
20.51344965024583
 31
0.0
  0
ARC
  5
52
330
2
100
AcDbEntity
  8
GAIKEI
  6
S10
 62
     1
100
AcDbCircle
 10
-15.59279162137505
 20
20.4467770601658
 30
0.0
 40
0.06667259008
100
AcDbArc
 50
0.0
 51
90.0
  0
ARC
  5
53
330
2
100
AcDbEntity
  8
GAIKEI
  6
S10
 62
     1
100
AcDbCircle
 10
-15.79280939161498
 20
20.4467770601658
 30
0.0
 40
0.06667259008
100
AcDbArc
 50
90.0
 51
180.0
  0
LINE
  5
54
330
2
100
AcDbEntity
  8
GAIKEI
  6
S10
 62
     1
100
AcDbLine
 10
-3.509468002708388
 20
20.14841721955781
 30
0.0
 11
-3.692817625428347
 21
20.14841721955781
 31
0.0
  0
LINE
  5
55
330
2
100
AcDbEntity
  8
GAIKEI
  6
S10
 62
     1
100
AcDbLine
 10
-3.509468002708388
 20
18.72495742134981
 30
0.0
 11
-3.692817625428347
 21
18.72495742134981
 31
0.0
  0
LINE
  5
56
330
2
100
AcDbEntity
  8
GAIKEI
  6
S10
 62
     1
100
AcDbLine
 10
-3.509468002708388
 20
18.72495742134981
 30
0.0
 11
-3.509468002708388
 21
20.14841721955781
 31
0.0
  0
LINE
  5
57
330
2
100
AcDbEntity
  8
GAIKEI
  6
S10
 62
     1
100
AcDbLine
 10
-27.87613301028165
 20
18.72495742134981
 30
0.0
 11
-27.87613301028165
 21
20.14841721955781
 31
0.0
  0
LINE
  5
58
330
2
100
AcDbEntity
  8
GAIKEI
  6
S10
 62
     1
100
AcDbLine
 10
-3.509468002708388
 20
7.645639764805821
 30
0.0
 11
-3.509468002708388
 21
8.492381658821841
 31
0.0
  0
LINE
  5
59
330
2
100
AcDbEntity
  8
GAIKEI
  6
S10
 62
     1
100
AcDbLine
 10
-3.509468002708388
 20
8.492381658821841
 30
0.0
 11
-3.692817625428347
 21
8.492381658821841
 31
0.0
  0
LINE
  5
5A
330
2
100
AcDbEntity
  8
GAIKEI
  6
S10
 62
     1
100
AcDbLine
 10
-16.116171453503
 20
12.64413418090896
 30
0.0
 11
-16.116171453503
 21
8.492381658821841
 31
0.0
  0
LINE
  5
5B
330
2
100
AcDbEntity
  8
GAIKEI
  6
S10
 62
     1
100
AcDbLine
 10
-15.26942955948704
 20
12.64413418090896
 30
0.0
 11
-15.26942955948704
 21
8.492381658821841
 31
0.0
  0
ARC
  5
5C
330
2
100
AcDbEntity
  8
GAIKEI
  6
S10
 62
     1
100
AcDbCircle
 10
-15.69280050649502
 20
8.492381658821841
 30
0.0
 40
0.4233709470079999
100
AcDbArc
 50
180.0
 51
0.0
  0
LINE
  5
5D
330
2
100
AcDbEntity
  8
GAIKEI
  6
S10
 62
     1
100
AcDbLine
 10
-3.509468002708388
 20
7.645639764805821
 30
0.0
 11
-3.692817625428347
 21
7.645639764805821
 31
0.0
  0
LINE
  5
5E
330
2
100
AcDbEntity
  8
GAIKEI
  6
S10
 62
     1
100
AcDbLine
 10
-27.87613301028165
 20
7.645639764805821
 30
0.0
 11
-27.87613301028165
 21
8.492381658821841
 31
0.0
  0
LINE
  5
5F
330
2
100
AcDbEntity
  8
GAIKEI
  6
S10
 62
     1
100
AcDbLine
 10
-27.87613301028165
 20
8.492381658821841
 30
0.0
 11
-27.69278338756169
 21
8.492381658821841
 31
0.0
  0
LINE
  5
60
330
2
100
AcDbEntity
  8
GAIKEI
  6
S10
 62
     1
100
AcDbLine
 10
-15.69280050649502
 20
18.4857194999953
 30
0.0
 11
-15.52611903129508
 21
18.38948595028853
 31
0.0
  0
LINE
  5
61
330
2
100
AcDbEntity
  8
GAIKEI
  6
S10
 62
     1
100
AcDbLine
 10
-15.85948198169501
 20
18.38948595028853
 30
0.0
 11
-15.69280050649502
 21
18.4857194999953
 31
0.0
  0
LINE
  5
62
330
2
100
AcDbEntity
  8
GAIKEI
  6
S10
 62
     1
100
AcDbLine
 10
-15.85948198169501
 20
18.38948595028853
 30
0.0
 11
-15.85948198169501
 21
18.19701851751216
 31
0.0
  0
LINE
  5
63
330
2
100
AcDbEntity
  8
GAIKEI
  6
S10
 62
     1
100
AcDbLine
 10
-15.85948198169501
 20
18.19701851751216
 30
0.0
 11
-15.69280050649502
 21
18.10078496780545
 31
0.0
  0
LINE
  5
64
330
2
100
AcDbEntity
  8
GAIKEI
  6
S10
 62
     1
100
AcDbLine
 10
-15.69280050649502
 20
18.10078496780545
 30
0.0
 11
-15.52611903129508
 21
18.19701851751216
 31
0.0
  0
LINE
  5
65
330
2
100
AcDbEntity
  8
GAIKEI
  6
S10
 62
     1
100
AcDbLine
 10
-15.52611903129508
 20
18.38948595028853
 30
0.0
 11
-15.52611903129508
 21
18.19701851751216
 31
0.0
  0
CIRCLE
  5
66
330
2
100
AcDbEntity
  8
GAIKEI
  6
S10
 62
     1
100
AcDbCircle
 10
-15.69280050649502
 20
18.29325240058182
 30
0.0
 40
0.3333629504
  0
LINE
  5
67
330
2
100
AcDbEntity
  8
GAIKEI
  6
S10
 62
     1
100
AcDbLine
 10
-15.39277385113507
 20
18.43856164366872
 30
0.0
 11
-15.39277385113507
 21
18.62661535098181
 31
0.0
  0
LINE
  5
68
330
2
100
AcDbEntity
  8
GAIKEI
  6
S10
 62
     1
100
AcDbLine
 10
-15.99282716185502
 20
18.43856164366872
 30
0.0
 11
-15.99282716185502
 21
18.62661535098181
 31
0.0
  0
LINE
  5
69
330
2
100
AcDbEntity
  8
GAIKEI
  6
S10
 62
     1
100
AcDbLine
 10
-18.35970410969503
 20
20.14841721955781
 30
0.0
 11
-25.69260568516171
 21
20.14841721955781
 31
0.0
  0
LINE
  5
6A
330
2
100
AcDbEntity
  8
GAIKEI
  6
S10
 62
     1
100
AcDbLine
 10
-18.35970410969503
 20
18.72495742134981
 30
0.0
 11
-25.69260568516171
 21
18.72495742134981
 31
0.0
  0
LINE
  5
6B
330
2
100
AcDbEntity
  8
GAIKEI
  6
S10
 62
     1
100
AcDbLine
 10
-5.692995327828327
 20
20.14841721955781
 30
0.0
 11
-13.02589690329506
 21
20.14841721955781
 31
0.0
  0
LINE
  5
6C
330
2
100
AcDbEntity
  8
GAIKEI
  6
S10
 62
     1
100
AcDbLine
 10
-5.692995327828327
 20
18.72495742134981
 30
0.0
 11
-13.02589690329506
 21
18.72495742134981
 31
0.0
  0
LINE
  5
6D
330
2
100
AcDbEntity
  8
GAIKEI
  6
S10
 62
     1
100
AcDbLine
 10
-27.69278338756169
 20
20.14841721955781
 30
0.0
 11
-27.87613301028165
 21
20.14841721955781
 31
0.0
  0
LINE
  5
6E
330
2
100
AcDbEntity
  8
GAIKEI
  6
S10
 62
     1
100
AcDbLine
 10
-27.69278338756169
 20
18.72495742134981
 30
0.0
 11
-27.87613301028165
 21
18.72495742134981
 31
0.0
  0
LINE
  5
6F
330
2
100
AcDbEntity
  8
GAIKEI
  6
S10
 62
     1
100
AcDbLine
 10
-25.69260568516171
 20
8.492381658821841
 30
0.0
 11
-16.116171453503
 21
8.492381658821841
 31
0.0
  0
LINE
  5
70
330
2
100
AcDbEntity
  8
GAIKEI
  6
S10
 62
     1
100
AcDbLine
 10
-27.69278338756169
 20
7.645639764805821
 30
0.0
 11
-27.87613301028165
 21
7.645639764805821
 31
0.0
  0
LINE
  5
71
330
2
100
AcDbEntity
  8
GAIKEI
  6
S10
 62
     1
100
AcDbLine
 10
-5.692995327828327
 20
8.492381658821841
 30
0.0
 11
-15.26942955948704
 21
8.492381658821841
 31
0.0
  0
LINE
  5
72
330
2
100
AcDbEntity
  8
GAIKEI
  6
S10
 62
     1
100
AcDbLine
 10
-5.692995327828327
 20
7.645639764805821
 30
0.0
 11
-25.69260568516171
 21
7.645639764805821
 31
0.0
  0
LINE
  5
73
330
2
100
AcDbEntity
  8
GAIKEI
  6
S10
 62
     1
100
AcDbLine
 10
-16.16950952556698
 20
17.94322130266181
 30
0.0
 11
-16.16950952556698
 21
12.64413418090896
 31
0.0
  0
LINE
  5
74
330
2
100
AcDbEntity
  8
GAIKEI
  6
S10
 62
     1
100
AcDbLine
 10
-15.21609148742306
 20
17.94322130266181
 30
0.0
 11
-15.21609148742306
 21
12.64413418090896
 31
0.0
  0
LINE
  5
75
330
2
100
AcDbEntity
  8
GAIKEI
  6
S10
 62
     1
100
AcDbLine
 10
-15.21609148742306
 20
12.64413418090896
 30
0.0
 11
-15.54278717881504
 21
12.64413418090896
 31
0.0
  0
LINE
  5
76
330
2
100
AcDbEntity
  8
GAIKEI
  6
S10
 62
     1
100
AcDbLine
 10
-15.64279606393501
 20
14.3109489329089
 30
0.0
 11
-15.74280494905503
 21
14.3109489329089
 31
0.0
  0
LINE
  5
77
330
2
100
AcDbEntity
  8
GAIKEI
  6
S10
 62
     1
100
AcDbLine
 10
-15.64279606393501
 20
14.3109489329089
 30
0.0
 11
-15.64279606393501
 21
12.74414306602892
 31
0.0
  0
LINE
  5
78
330
2
100
AcDbEntity
  8
GAIKEI
  6
S10
 62
     1
100
AcDbLine
 10
-15.74280494905503
 20
14.3109489329089
 30
0.0
 11
-15.74280494905503
 21
12.74414306602892
 31
0.0
  0
LINE
  5
79
330
2
100
AcDbEntity
  8
GAIKEI
  6
S10
 62
     1
100
AcDbLine
 10
-15.84281383417504
 20
12.64413418090896
 30
0.0
 11
-16.16950952556698
 21
12.64413418090896
 31
0.0
  0
ARC
  5
7A
330
2
100
AcDbEntity
  8
GAIKEI
  6
S10
 62
     1
100
AcDbCircle
 10
-15.54278717881504
 20
12.74414306602892
 30
0.0
 40
0.10000888512
100
AcDbArc
 50
180.0
 51
270.0
  0
ARC
  5
7B
330
2
100
AcDbEntity
  8
GAIKEI
  6
S10
 62
     1
100
AcDbCircle
 10
-15.84281383417504
 20
12.74414306602892
 30
0.0
 40
0.10000888512
100
AcDbArc
 50
270.0
 51
0.0
  0
LINE
  5
7C
330
2
100
AcDbEntity
  8
GAIKEI
  6
S10
 62
     1
100
AcDbLine
 10
-26.4593404710817
 20
20.14841721955781
 30
0.0
 11
-26.9260486016417
 21
20.14841721955781
 31
0.0
  0
LINE
  5
7D
330
2
100
AcDbEntity
  8
GAIKEI
  6
S10
 62
     1
100
AcDbLine
 10
-4.926260541908334
 20
20.14841721955781
 30
0.0
 11
-4.45955241134834
 21
20.14841721955781
 31
0.0
  0
LINE
  5
7E
330
2
100
AcDbEntity
  8
GAIKEI
  6
Continuous
 62
     7
100
AcDbLine
 10
35.00028632456622
 20
41.91530506183869
 30
0.0
 11
36.87768178525255
 21
41.91530506183869
 31
0.0
  0
LINE
  5
7F
330
2
100
AcDbEntity
  8
GAIKEI
  6
Continuous
 62
     7
100
AcDbLine
 10
25.20997852125254
 20
41.91530506183869
 30
0.0
 11
25.20997852125254
 21
41.80862891771062
 31
0.0
  0
LINE
  5
80
330
2
100
AcDbEntity
  8
GAIKEI
  6
Continuous
 62
     7
100
AcDbLine
 10
36.87768178525255
 20
41.91530506183869
 30
0.0
 11
36.87768178525255
 21
40.84854362055864
 31
0.0
  0
LINE
  5
81
330
2
100
AcDbEntity
  8
GAIKEI
  6
Continuous
 62
     7
100
AcDbLine
 10
25.20997852125254
 20
41.80862891771062
 30
0.0
 11
36.87768178525255
 21
41.80862891771062
 31
0.0
  0
LINE
  5
82
330
2
100
AcDbEntity
  8
GAIKEI
  6
Continuous
 62
     7
100
AcDbLine
 10
34.14932438896108
 20
40.84854362055864
 30
0.0
 11
36.87768178525255
 21
40.84854362055864
 31
0.0
  0
LINE
  5
83
330
2
100
AcDbEntity
  8
GAIKEI
  6
Continuous
 62
     7
100
AcDbLine
 10
28.95343910266706
 20
40.38183548999865
 30
0.0
 11
33.13422153720092
 21
40.38183548999865
 31
0.0
  0
LINE
  5
84
330
2
100
AcDbEntity
  8
GAIKEI
  6
Continuous
 62
     7
100
AcDbLine
 10
25.20997852125254
 20
41.91530506183869
 30
0.0
 11
34.9791797827246
 21
41.91530506183869
 31
0.0
  0
LINE
  5
85
330
2
100
AcDbEntity
  8
GAIKEI
  6
Continuous
 62
     7
100
AcDbLine
 10
28.46632849281673
 20
40.59331794546586
 30
0.0
 11
27.49654700088934
 21
41.63098380179792
 31
0.0
  0
ARC
  5
86
330
2
100
AcDbEntity
  8
GAIKEI
  6
Continuous
 62
     7
100
AcDbCircle
 10
28.95343910266706
 20
41.04856139079868
 30
0.0
 40
0.6667259008
100
AcDbArc
 50
223.0632000000197
 51
270.0
  0
LINE
  5
87
330
2
100
AcDbEntity
  8
GAIKEI
  6
Continuous
 62
     7
100
AcDbLine
 10
33.62133214705125
 20
40.59331794546586
 30
0.0
 11
34.59111330561575
 21
41.63098380179792
 31
0.0
  0
ARC
  5
88
330
2
100
AcDbEntity
  8
GAIKEI
  6
Continuous
 62
     7
100
AcDbCircle
 10
33.13422153720092
 20
41.04856139079868
 30
0.0
 40
0.6667259008
100
AcDbArc
 50
270.0
 51
316.9367999999803
  0
ARC
  5
89
330
2
100
AcDbEntity
  8
GAIKEI
  6
Continuous
 62
     7
100
AcDbCircle
 10
27.08737431530187
 20
41.24857916103866
 30
0.0
 40
0.560049756672
100
AcDbArc
 50
43.06320000001973
 51
90.0
  0
ARC
  5
8A
330
2
100
AcDbEntity
  8
GAIKEI
  6
Continuous
 62
     7
100
AcDbCircle
 10
35.00028632456622
 20
41.24857916103866
 30
0.0
 40
0.560049756672
100
AcDbArc
 50
90.0
 51
136.9367999999802
  0
ARC
  5
8B
330
2
100
AcDbEntity
  8
GAIKEI
  6
Continuous
 62
     7
100
AcDbCircle
 10
34.14932438896108
 20
40.18181771975867
 30
0.0
 40
0.6667259008
100
AcDbArc
 50
90.0
 51
136.9367999999802
  0
LINE
  5
8C
330
2
100
AcDbEntity
  8
GAIKEI
  6
Continuous
 62
     7
100
AcDbLine
 10
32.42728639741256
 20
40.38183548999865
 30
0.0
 11
32.42728639741256
 21
40.34521156954179
 31
0.0
  0
LINE
  5
8D
330
2
100
AcDbEntity
  8
GAIKEI
  6
Continuous
 62
     7
100
AcDbLine
 10
29.66037390909253
 20
40.38183548999865
 30
0.0
 11
29.66037390909253
 21
40.34521156954179
 31
0.0
  0
LINE
  5
8E
330
2
100
AcDbEntity
  8
GAIKEI
  6
Continuous
 62
     1
100
AcDbLine
 10
31.04383015325254
 20
38.47082837647525
 30
0.0
 11
31.21051162845254
 21
38.37459482676854
 31
0.0
  0
LINE
  5
8F
330
2
100
AcDbEntity
  8
GAIKEI
  6
Continuous
 62
     1
100
AcDbLine
 10
30.87714867805255
 20
38.37459482676854
 30
0.0
 11
31.04383015325254
 21
38.47082837647525
 31
0.0
  0
LINE
  5
90
330
2
100
AcDbEntity
  8
GAIKEI
  6
Continuous
 62
     1
100
AcDbLine
 10
30.87714867805255
 20
38.37459482676854
 30
0.0
 11
30.87714867805255
 21
38.18212739399212
 31
0.0
  0
LINE
  5
91
330
2
100
AcDbEntity
  8
GAIKEI
  6
Continuous
 62
     1
100
AcDbLine
 10
30.87714867805255
 20
38.18212739399212
 30
0.0
 11
31.04383015325254
 21
38.08589384428541
 31
0.0
  0
LINE
  5
92
330
2
100
AcDbEntity
  8
GAIKEI
  6
Continuous
 62
     1
100
AcDbLine
 10
31.04383015325254
 20
38.08589384428541
 30
0.0
 11
31.21051162845254
 21
38.18212739399212
 31
0.0
  0
LINE
  5
93
330
2
100
AcDbEntity
  8
GAIKEI
  6
Continuous
 62
     1
100
AcDbLine
 10
31.21051162845254
 20
38.37459482676854
 30
0.0
 11
31.21051162845254
 21
38.18212739399212
 31
0.0
  0
CIRCLE
  5
94
330
2
100
AcDbEntity
  8
GAIKEI
  6
Continuous
 62
     1
100
AcDbCircle
 10
31.04383015325254
 20
38.27836127706183
 30
0.0
 40
0.3333629504
  0
LINE
  5
95
330
2
100
AcDbEntity
  8
GAIKEI
  6
Continuous
 62
     7
100
AcDbLine
 10
31.49337542567412
 20
18.62661535098181
 30
0.0
 11
31.49337542567412
 21
17.95988945018183
 31
0.0
  0
CIRCLE
  5
96
330
2
100
AcDbEntity
  8
GAIKEI
  6
Continuous
 62
     1
100
AcDbCircle
 10
28.71028950045252
 20
19.45002183846981
 30
0.0
 40
0.7117298991040001
  0
CIRCLE
  5
97
330
2
100
AcDbEntity
  8
GAIKEI
  6
Continuous
 62
     1
100
AcDbCircle
 10
28.71028950045252
 20
19.45002183846981
 30
0.0
 40
0.635056420512
  0
LINE
  5
98
330
2
100
AcDbEntity
  8
GAIKEI
  6
Continuous
 62
     1
100
AcDbLine
 10
31.70790081815255
 20
13.39002711516991
 30
0.0
 11
31.65201051934037
 21
13.14614178092381
 31
0.0
  0
LINE
  5
99
330
2
100
AcDbEntity
  8
GAIKEI
  6
Continuous
 62
     1
100
AcDbLine
 10
31.28547928882734
 20
13.48683204897361
 30
0.0
 11
31.22958899001503
 21
13.24294671472751
 31
0.0
  0
LINE
  5
9A
330
2
100
AcDbEntity
  8
GAIKEI
  6
Continuous
 62
     1
100
AcDbLine
 10
31.28547928882734
 20
13.48683204897361
 30
0.0
 11
31.5246352028961
 21
13.56037224919481
 31
0.0
  0
LINE
  5
9B
330
2
100
AcDbEntity
  8
GAIKEI
  6
Continuous
 62
     1
100
AcDbLine
 10
31.41285460527161
 20
13.07260191406561
 30
0.0
 11
31.65201051934037
 21
13.14614178092381
 31
0.0
  0
LINE
  5
9C
330
2
100
AcDbEntity
  8
GAIKEI
  6
Continuous
 62
     1
100
AcDbLine
 10
31.5246352028961
 20
13.56037224919481
 30
0.0
 11
31.70790081815255
 21
13.39002711516991
 31
0.0
  0
LINE
  5
9D
330
2
100
AcDbEntity
  8
GAIKEI
  6
Continuous
 62
     1
100
AcDbLine
 10
31.22958899001503
 20
13.24294671472751
 30
0.0
 11
31.41285460527161
 21
13.07260191406561
 31
0.0
  0
CIRCLE
  5
9E
330
2
100
AcDbEntity
  8
GAIKEI
  6
Continuous
 62
     1
100
AcDbCircle
 10
31.46874490408379
 20
13.31648691494877
 30
0.0
 40
0.3000266553599999
  0
CIRCLE
  5
9F
330
2
100
AcDbEntity
  8
GAIKEI
  6
Continuous
 62
     1
100
AcDbCircle
 10
31.04383015325254
 20
38.27836127706183
 30
0.0
 40
0.0833407376
  0
LINE
  5
A0
330
2
100
AcDbEntity
  8
GAIKEI
  6
Continuous
 62
     1
100
AcDbLine
 10
31.26967955179316
 20
21.35194981203909
 30
0.0
 11
31.26967955179316
 21
21.10174258280159
 31
0.0
  0
LINE
  5
A1
330
2
100
AcDbEntity
  8
GAIKEI
  6
Continuous
 62
     1
100
AcDbLine
 10
30.83630771627316
 20
21.35194981203909
 30
0.0
 11
30.83630771627316
 21
21.10174258280159
 31
0.0
  0
LINE
  5
A2
330
2
100
AcDbEntity
  8
GAIKEI
  6
Continuous
 62
     1
100
AcDbLine
 10
30.83630771627316
 20
21.35194981203909
 30
0.0
 11
31.0529936340331
 21
21.47705359333929
 31
0.0
  0
LINE
  5
A3
330
2
100
AcDbEntity
  8
GAIKEI
  6
Continuous
 62
     1
100
AcDbLine
 10
31.0529936340331
 20
20.9766388015014
 30
0.0
 11
31.26967955179316
 21
21.10174258280159
 31
0.0
  0
LINE
  5
A4
330
2
100
AcDbEntity
  8
GAIKEI
  6
Continuous
 62
     1
100
AcDbLine
 10
31.0529936340331
 20
21.47705359333929
 30
0.0
 11
31.26967955179316
 21
21.35194981203909
 31
0.0
  0
LINE
  5
A5
330
2
100
AcDbEntity
  8
GAIKEI
  6
Continuous
 62
     1
100
AcDbLine
 10
30.83630771627316
 20
21.10174258280159
 30
0.0
 11
31.0529936340331
 21
20.9766388015014
 31
0.0
  0
CIRCLE
  5
A6
330
2
100
AcDbEntity
  8
GAIKEI
  6
Continuous
 62
     1
100
AcDbCircle
 10
31.0529936340331
 20
21.22684636410179
 30
0.0
 40
0.3000266553599999
  0
CIRCLE
  5
A7
330
2
100
AcDbEntity
  8
GAIKEI
  6
Continuous
 62
     1
100
AcDbCircle
 10
31.04383015325254
 20
24.56047586810183
 30
0.0
 40
0.15834740144
  0
POINT
  5
A8
330
2
100
AcDbEntity
  8
GAIKEI
  6
Continuous
 62
     7
100
AcDbPoint
 10
28.71028950045252
 20
19.45002183846981
 30
0.0
  0
LINE
  5
A9
330
2
100
AcDbEntity
  8
GAIKEI
  6
Continuous
 62
     7
100
AcDbLine
 10
-17.17793245052661
 20
40.34521156954304
 30
0.0
 11
-17.17793245052661
 21
26.46885274794761
 31
0.0
  0
LINE
  5
AA
330
2
100
AcDbEntity
  8
GAIKEI
  6
Continuous
 62
     7
100
AcDbLine
 10
-14.20766856246257
 20
40.34521156954304
 30
0.0
 11
-14.20766856246257
 21
26.46885274794761
 31
0.0
  0
LINE
  5
AB
330
2
100
AcDbEntity
  8
GAIKEI
  6
S10
 62
     1
100
AcDbLine
 10
-17.17793245052661
 20
20.72680193850272
 30
0.0
 11
-14.20766856246257
 21
20.72680193850272
 31
0.0
  0
LINE
  5
AC
330
2
100
AcDbEntity
  8
GAIKEI
  6
Continuous
 62
     7
100
AcDbLine
 10
-17.17793245052661
 20
40.34521156954304
 30
0.0
 11
-14.20766856246257
 21
40.34521156954304
 31
0.0
  0
LINE
  5
AD
330
2
100
AcDbEntity
  8
GAIKEI
  6
S10
 62
     1
100
AcDbLine
 10
-14.20766856246257
 20
26.46885274794761
 30
0.0
 11
-14.20766856246257
 21
20.72680193850272
 31
0.0
  0
LINE
  5
AE
330
2
100
AcDbEntity
  8
GAIKEI
  6
S10
 62
     1
100
AcDbLine
 10
-17.17793245052661
 20
26.46885274794761
 30
0.0
 11
-17.17793245052661
 21
20.72680193850272
 31
0.0
  0
LINE
  5
AF
330
2
100
AcDbEntity
  8
GAIKEI
  6
S10
 62
     1
100
AcDbLine
 10
-15.2160914874226
 20
13.32752822922975
 30
0.0
 11
-15.06607815974257
 21
13.32752822922975
 31
0.0
  0
LINE
  5
B0
330
2
100
AcDbEntity
  8
GAIKEI
  6
S10
 62
     1
100
AcDbLine
 10
-15.2160914874226
 20
12.89415639370975
 30
0.0
 11
-15.06607815974257
 21
12.89415639370975
 31
0.0
  0
LINE
  5
B1
330
2
100
AcDbEntity
  8
GAIKEI
  6
S10
 62
     1
100
AcDbLine
 10
-15.06607815974257
 20
13.32752822922975
 30
0.0
 11
-15.06607815974257
 21
12.89415639370975
 31
0.0
  0
LINE
  5
B2
330
2
100
AcDbEntity
  8
GAIKEI
  6
S10
 62
     1
100
AcDbLine
 10
-16.39176227123533
 20
13.30252600794972
 30
0.0
 11
-16.22284759763062
 21
13.30252600794972
 31
0.0
  0
LINE
  5
B3
330
2
100
AcDbEntity
  8
GAIKEI
  6
S10
 62
     1
100
AcDbLine
 10
-16.39176227123533
 20
12.91915861498978
 30
0.0
 11
-16.22284759763062
 21
12.91915861498978
 31
0.0
  0
LINE
  5
B4
330
2
100
AcDbEntity
  8
GAIKEI
  6
S10
 62
     1
100
AcDbLine
 10
-16.40619722035063
 20
12.96707953910976
 30
0.0
 11
-16.40619722035063
 21
13.2546050838298
 31
0.0
  0
LINE
  5
B5
330
2
100
AcDbEntity
  8
GAIKEI
  6
S10
 62
     1
100
AcDbLine
 10
-16.27285204019063
 20
12.91915861498978
 30
0.0
 11
-16.27285204019063
 21
13.30252600794972
 31
0.0
  0
LINE
  5
B6
330
2
100
AcDbEntity
  8
GAIKEI
  6
S10
 62
     1
100
AcDbLine
 10
-16.39176227123533
 20
13.20668415970976
 30
0.0
 11
-16.27285204019063
 21
13.20668415970976
 31
0.0
  0
LINE
  5
B7
330
2
100
AcDbEntity
  8
GAIKEI
  6
S10
 62
     1
100
AcDbLine
 10
-16.39176227123533
 20
13.01500046322974
 30
0.0
 11
-16.27285204019063
 21
13.01500046322974
 31
0.0
  0
LINE
  5
B8
330
2
100
AcDbEntity
  8
GAIKEI
  6
S10
 62
     1
100
AcDbLine
 10
-16.22284759763062
 20
13.31919415546974
 30
0.0
 11
-16.16950952556664
 21
13.31919415546974
 31
0.0
  0
LINE
  5
B9
330
2
100
AcDbEntity
  8
GAIKEI
  6
S10
 62
     1
100
AcDbLine
 10
-16.22284759763062
 20
12.90249046746976
 30
0.0
 11
-16.16950952556664
 21
12.90249046746976
 31
0.0
  0
LINE
  5
BA
330
2
100
AcDbEntity
  8
GAIKEI
  6
S10
 62
     1
100
AcDbLine
 10
-16.16950952556664
 20
13.31919415546974
 30
0.0
 11
-16.16950952556664
 21
12.90249046746976
 31
0.0
  0
LINE
  5
BB
330
2
100
AcDbEntity
  8
GAIKEI
  6
S10
 62
     1
100
AcDbLine
 10
-16.22284759763062
 20
13.31919415546974
 30
0.0
 11
-16.22284759763062
 21
12.90249046746976
 31
0.0
  0
LINE
  5
BC
330
2
100
AcDbEntity
  8
GAIKEI
  6
S10
 62
     1
100
AcDbLine
 10
-14.95606838611059
 20
12.99416527882977
 30
0.0
 11
-15.2160914874226
 21
12.99416527882977
 31
0.0
  0
LINE
  5
BD
330
2
100
AcDbEntity
  8
GAIKEI
  6
S10
 62
     1
100
AcDbLine
 10
-15.2160914874226
 20
13.22751934410973
 30
0.0
 11
-14.95606838611059
 21
13.22751934410973
 31
0.0
  0
LINE
  5
BE
330
2
100
AcDbEntity
  8
GAIKEI
  6
S10
 62
     1
100
AcDbLine
 10
-14.95606838611059
 20
12.99416527882977
 30
0.0
 11
-14.93940023859056
 21
13.01083342634973
 31
0.0
  0
LINE
  5
BF
330
2
100
AcDbEntity
  8
GAIKEI
  6
S10
 62
     1
100
AcDbLine
 10
-14.93940023859056
 20
13.21085119658977
 30
0.0
 11
-14.95606838611059
 21
13.22751934410973
 31
0.0
  0
ARC
  5
C0
330
2
100
AcDbEntity
  8
GAIKEI
  6
S10
 62
     1
100
AcDbCircle
 10
-16.31943684560542
 20
13.2546050838298
 30
0.0
 40
0.0867607081081548
100
AcDbArc
 50
146.4726420000022
 51
213.5273579999978
  0
ARC
  5
C1
330
2
100
AcDbEntity
  8
GAIKEI
  6
S10
 62
     1
100
AcDbCircle
 10
-16.31943684560542
 20
12.96707953910976
 30
0.0
 40
0.0867607081081548
100
AcDbArc
 50
146.4726420000022
 51
213.5273579999978
  0
ARC
  5
C2
330
2
100
AcDbEntity
  8
GAIKEI
  6
S10
 62
     1
100
AcDbCircle
 10
-16.08080731163534
 20
13.11084231146975
 30
0.0
 40
0.3253899087152878
100
AcDbArc
 50
162.8697629999999
 51
197.130237
  0
LINE
  5
C3
330
2
100
AcDbEntity
  8
GAIKEI
  6
S10
 62
     1
100
AcDbLine
 10
-14.93940023859056
 20
13.01083342634973
 30
0.0
 11
-14.93940023859056
 21
13.21085119658977
 31
0.0
  0
LINE
  5
C4
330
2
100
AcDbEntity
  8
GAIKEI
  6
S10
 62
     1
100
AcDbLine
 10
-16.22284759763062
 20
12.91915861498978
 30
0.0
 11
-16.22284759763062
 21
13.30252600794972
 31
0.0
  0
LINE
  5
C5
330
2
100
AcDbEntity
  8
GAIKEI
  6
S10
 62
     1
100
AcDbLine
 10
-15.02274097619062
 20
12.99416527882977
 30
0.0
 11
-15.02274097619062
 21
13.22751934410973
 31
0.0
  0
LINE
  5
C6
330
2
100
AcDbEntity
  8
GAIKEI
  6
S10
 62
     1
100
AcDbLine
 10
-5.526313852627765
 20
11.83601205133459
 30
0.0
 11
-5.526313852627765
 21
18.36992587917473
 31
0.0
  0
LINE
  5
C7
330
2
100
AcDbEntity
  8
GAIKEI
  6
S10
 62
     1
100
AcDbLine
 10
-3.859499100627772
 20
11.83601205133459
 30
0.0
 11
-3.859499100627772
 21
18.36992587917473
 31
0.0
  0
LINE
  5
C8
330
2
100
AcDbEntity
  8
GAIKEI
  6
S10
 62
     1
100
AcDbLine
 10
-5.459641262547791
 20
18.4365984692547
 30
0.0
 11
-3.926171690707747
 21
18.4365984692547
 31
0.0
  0
LINE
  5
C9
330
2
100
AcDbEntity
  8
GAIKEI
  6
S10
 62
     1
100
AcDbLine
 10
-5.459641262547791
 20
11.76933946125461
 30
0.0
 11
-3.926171690707747
 21
11.76933946125461
 31
0.0
  0
ARC
  5
CA
330
2
100
AcDbEntity
  8
GAIKEI
  6
S10
 62
     1
100
AcDbCircle
 10
-5.459641262547791
 20
11.83601205133459
 30
0.0
 40
0.0666725900800009
100
AcDbArc
 50
180.0
 51
270.0
  0
ARC
  5
CB
330
2
100
AcDbEntity
  8
GAIKEI
  6
S10
 62
     1
100
AcDbCircle
 10
-3.926171690707747
 20
11.83601205133459
 30
0.0
 40
0.0666725900800009
100
AcDbArc
 50
270.0
 51
0.0
  0
ARC
  5
CC
330
2
100
AcDbEntity
  8
GAIKEI
  6
S10
 62
     1
100
AcDbCircle
 10
-5.459641262547791
 20
18.36992587917473
 30
0.0
 40
0.0666725900800009
100
AcDbArc
 50
90.0
 51
180.0
  0
ARC
  5
CD
330
2
100
AcDbEntity
  8
GAIKEI
  6
S10
 62
     1
100
AcDbCircle
 10
-3.926171690707747
 20
18.36992587917473
 30
0.0
 40
0.0666725900800009
100
AcDbArc
 50
0.0
 51
90.0
  0
LINE
  5
CE
330
2
100
AcDbEntity
  8
GAIKEI
  6
Continuous
 62
     1
100
AcDbLine
 10
32.34894610406934
 20
20.66846342218275
 30
0.0
 11
32.40396099177394
 21
20.66558016602471
 31
0.0
  0
LINE
  5
CF
330
2
100
AcDbEntity
  8
GAIKEI
  6
Continuous
 62
     1
100
AcDbLine
 10
32.34894610406934
 20
20.31843232426274
 30
0.0
 11
32.40396099177394
 21
20.32131524705778
 31
0.0
  0
LINE
  5
D0
330
2
100
AcDbEntity
  8
GAIKEI
  6
Continuous
 62
     1
100
AcDbLine
 10
32.34894610406934
 20
20.68513156970277
 30
0.0
 11
32.34894610406934
 21
20.30176417674272
 31
0.0
  0
ARC
  5
D1
330
2
100
AcDbEntity
  8
GAIKEI
  6
Continuous
 62
     1
100
AcDbCircle
 10
32.40064603059511
 20
20.60232787981584
 30
0.0
 40
0.0633389605760009
100
AcDbArc
 50
15.65991700000027
 51
87.00000000000093
  0
ARC
  5
D2
330
2
100
AcDbEntity
  8
GAIKEI
  6
Continuous
 62
     1
100
AcDbCircle
 10
32.40064603059511
 20
20.3845675332667
 30
0.0
 40
0.0633389605760009
100
AcDbArc
 50
272.9999999999991
 51
344.3400829999997
  0
ARC
  5
D3
330
2
100
AcDbEntity
  8
GAIKEI
  6
Continuous
 62
     1
100
AcDbCircle
 10
32.01224952416533
 20
20.49344787322275
 30
0.0
 40
0.4667081305600066
100
AcDbArc
 50
344.3400829999997
 51
15.65991700000027
  0
LINE
  5
D4
330
2
100
AcDbEntity
  8
GAIKEI
  6
Continuous
 62
     1
100
AcDbLine
 10
32.34894610406934
 20
20.30176417674272
 30
0.0
 11
32.3156098090293
 21
20.30176417674272
 31
0.0
  0
LINE
  5
D5
330
2
100
AcDbEntity
  8
GAIKEI
  6
Continuous
 62
     1
100
AcDbLine
 10
32.34894610406934
 20
20.68513156970277
 30
0.0
 11
32.3156098090293
 21
20.68513156970277
 31
0.0
  0
CIRCLE
  5
D6
330
2
100
AcDbEntity
  8
GAIKEI
  6
Continuous
 62
     1
100
AcDbCircle
 10
34.01076041181341
 20
19.43668732045472
 30
0.0
 40
0.2333540652800033
  0
LINE
  5
D7
330
2
100
AcDbEntity
  8
GAIKEI
  6
Continuous
 62
     1
100
AcDbLine
 10
34.20322751122683
 20
19.43668732045472
 30
0.0
 11
34.10699396152006
 21
19.60336879565477
 31
0.0
  0
LINE
  5
D8
330
2
100
AcDbEntity
  8
GAIKEI
  6
Continuous
 62
     1
100
AcDbLine
 10
34.10699396152006
 20
19.60336879565477
 30
0.0
 11
33.91452686210664
 21
19.60336879565477
 31
0.0
  0
LINE
  5
D9
330
2
100
AcDbEntity
  8
GAIKEI
  6
Continuous
 62
     1
100
AcDbLine
 10
33.91452686210664
 20
19.60336879565477
 30
0.0
 11
33.81829331239999
 21
19.43668732045472
 31
0.0
  0
LINE
  5
DA
330
2
100
AcDbEntity
  8
GAIKEI
  6
Continuous
 62
     1
100
AcDbLine
 10
33.81829331239999
 20
19.43668732045472
 30
0.0
 11
33.91452686210664
 21
19.27000584525473
 31
0.0
  0
LINE
  5
DB
330
2
100
AcDbEntity
  8
GAIKEI
  6
Continuous
 62
     1
100
AcDbLine
 10
33.91452686210664
 20
19.27000584525473
 30
0.0
 11
34.10699396152006
 21
19.27000584525473
 31
0.0
  0
LINE
  5
DC
330
2
100
AcDbEntity
  8
GAIKEI
  6
Continuous
 62
     1
100
AcDbLine
 10
34.10699396152006
 20
19.27000584525473
 30
0.0
 11
34.20322751122683
 21
19.43668732045472
 31
0.0
  0
CIRCLE
  5
DD
330
2
100
AcDbEntity
  8
GAIKEI
  6
Continuous
 62
     1
100
AcDbCircle
 10
34.01076041181341
 20
19.43668732045472
 30
0.0
 40
0.0800071080960011
  0
LINE
  5
DE
330
2
100
AcDbEntity
  8
GAIKEI
  6
S10
 62
     1
100
AcDbLine
 10
-14.0926583445746
 20
18.59994631495073
 30
0.0
 11
-14.16766500841459
 21
18.59994631495073
 31
0.0
  0
LINE
  5
DF
330
2
100
AcDbEntity
  8
GAIKEI
  6
S10
 62
     1
100
AcDbLine
 10
-14.1759990821746
 20
18.55660913139871
 30
0.0
 11
-14.1759990821746
 21
18.5132719478467
 31
0.0
  0
LINE
  5
E0
330
2
100
AcDbEntity
  8
GAIKEI
  6
S10
 62
     1
100
AcDbLine
 10
-13.8759724268146
 20
18.55660913139871
 30
0.0
 11
-13.8759724268146
 21
18.5132719478467
 31
0.0
  0
LINE
  5
E1
330
2
100
AcDbEntity
  8
GAIKEI
  6
S10
 62
     1
100
AcDbLine
 10
-13.8759724268146
 20
18.55660913139871
 30
0.0
 11
-14.1759990821746
 21
18.55660913139871
 31
0.0
  0
LINE
  5
E2
330
2
100
AcDbEntity
  8
GAIKEI
  6
S10
 62
     1
100
AcDbLine
 10
-13.94264501689457
 20
18.44659935776673
 30
0.0
 11
-14.10932649209456
 21
18.44659935776673
 31
0.0
  0
ARC
  5
E3
330
2
100
AcDbEntity
  8
GAIKEI
  6
S10
 62
     1
100
AcDbCircle
 10
-14.10932649209456
 20
18.5132719478467
 30
0.0
 40
0.0666725900800009
100
AcDbArc
 50
180.0
 51
270.0
  0
ARC
  5
E4
330
2
100
AcDbEntity
  8
GAIKEI
  6
S10
 62
     1
100
AcDbCircle
 10
-13.94264501689457
 20
18.5132719478467
 30
0.0
 40
0.0666725900800009
100
AcDbArc
 50
270.0
 51
0.0
  0
LINE
  5
E5
330
2
100
AcDbEntity
  8
GAIKEI
  6
S10
 62
     1
100
AcDbLine
 10
-13.82596798425459
 20
18.62661535098272
 30
0.0
 11
-14.22600352473461
 21
18.62661535098272
 31
0.0
  0
LINE
  5
E6
330
2
100
AcDbEntity
  8
GAIKEI
  6
S10
 62
     1
100
AcDbLine
 10
-13.82596798425459
 20
18.59994631495073
 30
0.0
 11
-14.22600352473461
 21
18.59994631495073
 31
0.0
  0
LINE
  5
E7
330
2
100
AcDbEntity
  8
GAIKEI
  6
S10
 62
     1
100
AcDbLine
 10
-13.82596798425459
 20
18.59994631495073
 30
0.0
 11
-13.82596798425459
 21
18.62661535098272
 31
0.0
  0
LINE
  5
E8
330
2
100
AcDbEntity
  8
GAIKEI
  6
S10
 62
     1
100
AcDbLine
 10
-14.22600352473461
 20
18.59994631495073
 30
0.0
 11
-14.22600352473461
 21
18.62661535098272
 31
0.0
  0
LINE
  5
E9
330
2
100
AcDbEntity
  8
GAIKEI
  6
S10
 62
     1
100
AcDbLine
 10
-14.16766500841459
 20
18.59994631495073
 30
0.0
 11
-13.88430650057461
 21
18.59994631495073
 31
0.0
  0
LINE
  5
EA
330
2
100
AcDbEntity
  8
GAIKEI
  6
S10
 62
     1
100
AcDbLine
 10
-13.88430650057461
 20
18.59994631495073
 30
0.0
 11
-13.88430650057461
 21
18.55660913139871
 31
0.0
  0
LINE
  5
EB
330
2
100
AcDbEntity
  8
GAIKEI
  6
S10
 62
     1
100
AcDbLine
 10
-14.16766500841459
 20
18.59994631495073
 30
0.0
 11
-14.16766500841459
 21
18.55660913139871
 31
0.0
  0
LINE
  5
EC
330
2
100
AcDbEntity
  8
GAIKEI
  6
S10
 62
     1
100
AcDbLine
 10
-17.42628784857464
 20
18.59994631495073
 30
0.0
 11
-17.50129451241463
 21
18.59994631495073
 31
0.0
  0
LINE
  5
ED
330
2
100
AcDbEntity
  8
GAIKEI
  6
S10
 62
     1
100
AcDbLine
 10
-17.50962858617464
 20
18.55660913139871
 30
0.0
 11
-17.50962858617464
 21
18.5132719478467
 31
0.0
  0
LINE
  5
EE
330
2
100
AcDbEntity
  8
GAIKEI
  6
S10
 62
     1
100
AcDbLine
 10
-17.20960193081464
 20
18.55660913139871
 30
0.0
 11
-17.20960193081464
 21
18.5132719478467
 31
0.0
  0
LINE
  5
EF
330
2
100
AcDbEntity
  8
GAIKEI
  6
S10
 62
     1
100
AcDbLine
 10
-17.20960193081464
 20
18.55660913139871
 30
0.0
 11
-17.50962858617464
 21
18.55660913139871
 31
0.0
  0
LINE
  5
F0
330
2
100
AcDbEntity
  8
GAIKEI
  6
S10
 62
     1
100
AcDbLine
 10
-17.27627452089462
 20
18.44659935776673
 30
0.0
 11
-17.44295599609467
 21
18.44659935776673
 31
0.0
  0
ARC
  5
F1
330
2
100
AcDbEntity
  8
GAIKEI
  6
S10
 62
     1
100
AcDbCircle
 10
-17.44295599609467
 20
18.5132719478467
 30
0.0
 40
0.0666725900800009
100
AcDbArc
 50
180.0
 51
270.0
  0
ARC
  5
F2
330
2
100
AcDbEntity
  8
GAIKEI
  6
S10
 62
     1
100
AcDbCircle
 10
-17.27627452089462
 20
18.5132719478467
 30
0.0
 40
0.0666725900800009
100
AcDbArc
 50
270.0
 51
0.0
  0
LINE
  5
F3
330
2
100
AcDbEntity
  8
GAIKEI
  6
S10
 62
     1
100
AcDbLine
 10
-17.15959748825463
 20
18.62661535098272
 30
0.0
 11
-17.55963302873465
 21
18.62661535098272
 31
0.0
  0
LINE
  5
F4
330
2
100
AcDbEntity
  8
GAIKEI
  6
S10
 62
     1
100
AcDbLine
 10
-17.15959748825463
 20
18.59994631495073
 30
0.0
 11
-17.55963302873465
 21
18.59994631495073
 31
0.0
  0
LINE
  5
F5
330
2
100
AcDbEntity
  8
GAIKEI
  6
S10
 62
     1
100
AcDbLine
 10
-17.15959748825463
 20
18.59994631495073
 30
0.0
 11
-17.15959748825463
 21
18.62661535098272
 31
0.0
  0
LINE
  5
F6
330
2
100
AcDbEntity
  8
GAIKEI
  6
S10
 62
     1
100
AcDbLine
 10
-17.55963302873465
 20
18.59994631495073
 30
0.0
 11
-17.55963302873465
 21
18.62661535098272
 31
0.0
  0
LINE
  5
F7
330
2
100
AcDbEntity
  8
GAIKEI
  6
S10
 62
     1
100
AcDbLine
 10
-17.21793600457459
 20
18.59994631495073
 30
0.0
 11
-17.21793600457459
 21
18.55660913139871
 31
0.0
  0
LINE
  5
F8
330
2
100
AcDbEntity
  8
GAIKEI
  6
S10
 62
     1
100
AcDbLine
 10
-17.50129451241463
 20
18.59994631495073
 30
0.0
 11
-17.50129451241463
 21
18.55660913139871
 31
0.0
  0
POINT
  5
F9
330
2
100
AcDbEntity
  8
GAIKEI
  6
Continuous
 62
     1
100
AcDbPoint
 10
29.27700651613339
 20
8.034007602022597
 30
0.0
  0
CIRCLE
  5
FA
330
2
100
AcDbEntity
  8
GAIKEI
  6
Continuous
 62
     1
100
AcDbCircle
 10
29.27700651613339
 20
8.034007602022597
 30
0.0
 40
0.356698356928005
  0
CIRCLE
  5
FB
330
2
100
AcDbEntity
  8
GAIKEI
  6
Continuous
 62
     1
100
AcDbCircle
 10
29.27700651613339
 20
8.034007602022597
 30
0.0
 40
0.4233709470080061
  0
LINE
  5
FC
330
2
100
AcDbEntity
  8
GAIKEI
  6
Continuous
 62
     7
100
AcDbLine
 10
30.89724446342927
 20
13.04104644390747
 30
0.0
 11
29.25565548989641
 21
9.086782825175305
 31
0.0
  0
LINE
  5
FD
330
2
100
AcDbEntity
  8
GAIKEI
  6
Continuous
 62
     7
100
AcDbLine
 10
31.67927460823956
 20
12.71639160049778
 30
0.0
 11
29.95041701081471
 21
8.551914947956788
 31
0.0
  0
CIRCLE
  5
FE
330
2
100
AcDbEntity
  8
GAIKEI
  6
Continuous
 62
     1
100
AcDbCircle
 10
31.16869758022176
 20
12.59071776855239
 30
0.0
 40
0.1166770326400016
  0
CIRCLE
  5
FF
330
2
100
AcDbEntity
  8
GAIKEI
  6
Continuous
 62
     1
100
AcDbCircle
 10
30.97697188000996
 20
12.12888907149738
 30
0.0
 40
0.1166770326400016
  0
CIRCLE
  5
100
330
2
100
AcDbEntity
  8
GAIKEI
  6
Continuous
 62
     1
100
AcDbCircle
 10
30.78524651316115
 20
11.66706037444243
 30
0.0
 40
0.1166770326400016
  0
CIRCLE
  5
101
330
2
100
AcDbEntity
  8
GAIKEI
  6
Continuous
 62
     1
100
AcDbCircle
 10
30.59352114631236
 20
11.20523134402447
 30
0.0
 40
0.1166770326400016
  0
CIRCLE
  5
102
330
2
100
AcDbEntity
  8
GAIKEI
  6
Continuous
 62
     1
100
AcDbCircle
 10
30.40179577946356
 20
10.74340264696945
 30
0.0
 40
0.1166770326400016
  0
LINE
  5
103
330
2
100
AcDbEntity
  8
GAIKEI
  6
Continuous
 62
     7
100
AcDbLine
 10
33.19359847911221
 20
18.71162290333472
 30
0.0
 11
30.84798275352284
 21
13.06149726082566
 31
0.0
  0
LINE
  5
104
330
2
100
AcDbEntity
  8
GAIKEI
  6
Continuous
 62
     7
100
AcDbLine
 10
34.59163601872285
 20
19.59258350412045
 30
0.0
 11
31.7285363181461
 21
12.6959407835796
 31
0.0
  0
LINE
  5
105
330
2
100
AcDbEntity
  8
GAIKEI
  6
Continuous
 62
     7
100
AcDbLine
 10
31.7285363181461
 20
12.6959407835796
 30
0.0
 11
30.84798275352284
 21
13.06149726082566
 31
0.0
  0
LINE
  5
106
330
2
100
AcDbEntity
  8
GAIKEI
  6
Continuous
 62
     7
100
AcDbLine
 10
34.59163601872285
 20
19.59258350412045
 30
0.0
 11
34.19427004874956
 21
19.75754749340001
 31
0.0
  0
LINE
  5
107
330
2
100
AcDbEntity
  8
GAIKEI
  6
Continuous
 62
     7
100
AcDbLine
 10
30.01040500701333
 20
8.310526168846308
 30
0.0
 11
30.01040500701333
 21
7.82749492141994
 31
0.0
  0
LINE
  5
108
330
2
100
AcDbEntity
  8
GAIKEI
  6
Continuous
 62
     7
100
AcDbLine
 10
28.96249157358591
 20
9.223138248320651
 30
0.0
 11
29.62485808708368
 21
8.915060544345578
 31
0.0
  0
LINE
  5
109
330
2
100
AcDbEntity
  8
GAIKEI
  6
Continuous
 62
     7
100
AcDbLine
 10
28.71065586633574
 20
6.797750102152349
 30
0.0
 11
29.62485808708368
 21
7.222960545920614
 31
0.0
  0
ARC
  5
10A
330
2
100
AcDbEntity
  8
GAIKEI
  6
Continuous
 62
     7
100
AcDbCircle
 10
29.24367022109334
 20
9.827672623819978
 30
0.0
 40
0.6667259008000094
100
AcDbArc
 50
180.0
 51
245.0560949999998
  0
ARC
  5
10B
330
2
100
AcDbEntity
  8
GAIKEI
  6
Continuous
 62
     7
100
AcDbCircle
 10
29.34367910621336
 20
8.310526168846308
 30
0.0
 40
0.6667259008000094
100
AcDbArc
 50
0.0
 51
65.05609499999973
  0
ARC
  5
10C
330
2
100
AcDbEntity
  8
GAIKEI
  6
Continuous
 62
     7
100
AcDbCircle
 10
29.34367910621336
 20
7.82749492141994
 30
0.0
 40
0.6667259008000094
100
AcDbArc
 50
294.9439050000002
 51
0.0
  0
ARC
  5
10D
330
2
100
AcDbEntity
  8
GAIKEI
  6
Continuous
 62
     7
100
AcDbCircle
 10
28.42947721882842
 20
7.402284811014567
 30
0.0
 40
0.6667259008000094
100
AcDbArc
 50
270.0
 51
294.9439050000002
  0
LINE
  5
10E
330
2
100
AcDbEntity
  8
GAIKEI
  6
Continuous
 62
     7
100
AcDbLine
 10
30.01040500701333
 20
19.75561632182831
 30
0.0
 11
30.01040500701333
 21
19.11775831908119
 31
0.0
  0
LINE
  5
10F
330
2
100
AcDbEntity
  8
GAIKEI
  6
Continuous
 62
     7
100
AcDbLine
 10
28.74883825858581
 20
20.98357575113721
 30
0.0
 11
29.72516733222199
 21
20.30241590131078
 31
0.0
  0
LINE
  5
110
330
2
100
AcDbEntity
  8
GAIKEI
  6
Continuous
 62
     7
100
AcDbLine
 10
28.86218199508471
 20
17.96887524851075
 30
0.0
 11
29.72516733222199
 21
18.57095840623571
 31
0.0
  0
ARC
  5
111
330
2
100
AcDbEntity
  8
GAIKEI
  6
Continuous
 62
     7
100
AcDbCircle
 10
28.36735003257718
 20
20.43677617165474
 30
0.0
 40
0.6667259008000094
100
AcDbArc
 50
55.09750399999898
 51
90.0
  0
ARC
  5
112
330
2
100
AcDbEntity
  8
GAIKEI
  6
Continuous
 62
     7
100
AcDbCircle
 10
29.34367910621336
 20
19.75561632182831
 30
0.0
 40
0.6667259008000094
100
AcDbArc
 50
0.0
 51
55.09750399999898
  0
ARC
  5
113
330
2
100
AcDbEntity
  8
GAIKEI
  6
Continuous
 62
     7
100
AcDbCircle
 10
29.34367910621336
 20
19.11775831908119
 30
0.0
 40
0.6667259008000094
100
AcDbArc
 50
304.902496000001
 51
0.0
  0
LINE
  5
114
330
2
100
AcDbEntity
  8
GAIKEI
  6
Continuous
 62
     7
100
AcDbLine
 10
27.57685546909329
 20
6.735558910214535
 30
0.0
 11
28.42947721882842
 21
6.735558910214535
 31
0.0
  0
LINE
  5
115
330
2
100
AcDbEntity
  8
GAIKEI
  6
Continuous
 62
     7
100
AcDbLine
 10
27.57685546909329
 20
21.10350207245478
 30
0.0
 11
28.36735003257718
 21
21.10350207245478
 31
0.0
  0
LINE
  5
116
330
2
100
AcDbEntity
  8
GAIKEI
  6
Continuous
 62
     7
100
AcDbLine
 10
28.57694432029337
 20
17.42207566902829
 30
0.0
 11
28.57694432029337
 21
9.827672623819978
 31
0.0
  0
ARC
  5
117
330
2
100
AcDbEntity
  8
GAIKEI
  6
Continuous
 62
     7
100
AcDbCircle
 10
29.24367022109334
 20
17.42207566902829
 30
0.0
 40
0.6667259008000094
100
AcDbArc
 50
124.902496000001
 51
180.0
  0
CIRCLE
  5
118
330
2
100
AcDbEntity
  8
GAIKEI
  6
Continuous
 62
     1
100
AcDbCircle
 10
28.57694432029337
 20
9.069099563014617
 30
0.0
 40
0.1083429588800015
  0
LINE
  5
119
330
2
100
AcDbEntity
  8
GAIKEI
  6
Continuous
 62
     7
100
AcDbLine
 10
27.57685546909329
 20
21.10350207245478
 30
0.0
 11
27.57685546909329
 21
6.735558910214535
 31
0.0
  0
CIRCLE
  5
11A
330
2
100
AcDbEntity
  8
GAIKEI
  6
Continuous
 62
     1
100
AcDbCircle
 10
28.24358136989338
 20
20.60345764685473
 30
0.0
 40
0.1083429588800015
  0
CIRCLE
  5
11B
330
2
100
AcDbEntity
  8
GAIKEI
  6
Continuous
 62
     1
100
AcDbCircle
 10
27.81020953437326
 20
9.552475841094633
 30
0.0
 40
0.0833407376000012
  0
LINE
  5
11C
330
2
100
AcDbEntity
  8
GAIKEI
  6
Continuous
 62
     7
100
AcDbLine
 10
32.73724693533234
 20
20.24675928992673
 30
0.0
 11
32.73724693533234
 21
20.17008581133473
 31
0.0
  0
LINE
  5
11D
330
2
100
AcDbEntity
  8
GAIKEI
  6
Continuous
 62
     7
100
AcDbLine
 10
29.8361198562776
 20
20.17008581133473
 30
0.0
 11
32.73724693533234
 21
20.17008581133473
 31
0.0
  0
LINE
  5
11E
330
2
100
AcDbEntity
  8
GAIKEI
  6
Continuous
 62
     7
100
AcDbLine
 10
29.77205049747738
 20
20.24675928992673
 30
0.0
 11
32.73724693533234
 21
20.24675928992673
 31
0.0
  0
LINE
  5
11F
330
2
100
AcDbEntity
  8
GAIKEI
  6
Continuous
 62
     7
100
AcDbLine
 10
32.73724693533234
 20
18.62661535098272
 30
0.0
 11
32.73724693533234
 21
18.70328882957472
 31
0.0
  0
LINE
  5
120
330
2
100
AcDbEntity
  8
GAIKEI
  6
Continuous
 62
     7
100
AcDbLine
 10
29.89188414389469
 20
18.70328882957472
 30
0.0
 11
32.73724693533234
 21
18.70328882957472
 31
0.0
  0
LINE
  5
121
330
2
100
AcDbEntity
  8
GAIKEI
  6
Continuous
 62
     7
100
AcDbLine
 10
29.82995064151749
 20
18.62661535098272
 30
0.0
 11
32.73724693533234
 21
18.62661535098272
 31
0.0
  0
LINE
  5
122
330
2
100
AcDbEntity
  8
GAIKEI
  6
Continuous
 62
     7
100
AcDbLine
 10
29.74371464669332
 20
20.25399393267634
 30
0.0
 11
29.74371464669332
 21
20.51344965024674
 31
0.0
  0
LINE
  5
123
330
2
100
AcDbEntity
  8
GAIKEI
  6
Continuous
 62
     7
100
AcDbLine
 10
29.66704116810126
 20
20.30796606107196
 30
0.0
 11
29.66704116810126
 21
20.51344965024674
 31
0.0
  0
LINE
  5
124
330
2
100
AcDbEntity
  8
GAIKEI
  6
Continuous
 62
     7
100
AcDbLine
 10
29.66704116810126
 20
20.51344965024674
 30
0.0
 11
29.74371464669332
 21
20.51344965024674
 31
0.0
  0
LINE
  5
125
330
2
100
AcDbEntity
  8
GAIKEI
  6
Continuous
 62
     7
100
AcDbLine
 10
29.84359952079581
 20
20.16175173757472
 30
0.0
 11
33.48724990140886
 21
20.16175173757472
 31
0.0
  0
LINE
  5
126
330
2
100
AcDbEntity
  8
GAIKEI
  6
Continuous
 62
     7
100
AcDbLine
 10
29.89756031485115
 20
18.71162290333472
 30
0.0
 11
33.48724990140886
 21
18.71162290333472
 31
0.0
  0
ARC
  5
127
330
2
100
AcDbEntity
  8
GAIKEI
  6
Continuous
 62
     7
100
AcDbCircle
 10
33.81074264157337
 20
19.43668732045472
 30
0.0
 40
0.5000444256000071
100
AcDbArc
 50
304.8222900000002
 51
55.17770999999974
  0
LINE
  5
128
330
2
100
AcDbEntity
  8
GAIKEI
  6
Continuous
 62
     7
100
AcDbLine
 10
33.77279193657398
 20
20.07220711546779
 30
0.0
 11
34.09628467673849
 21
19.84718712394783
 31
0.0
  0
LINE
  5
129
330
2
100
AcDbEntity
  8
GAIKEI
  6
Continuous
 62
     7
100
AcDbLine
 10
33.77279193657398
 20
18.80116719207871
 30
0.0
 11
34.09628467673849
 21
19.02618718359872
 31
0.0
  0
ARC
  5
12A
330
2
100
AcDbEntity
  8
GAIKEI
  6
Continuous
 62
     7
100
AcDbCircle
 10
33.48724990140886
 20
19.21166732893471
 30
0.0
 40
0.5000444256000071
100
AcDbArc
 50
270.0
 51
304.8222900000002
  0
ARC
  5
12B
330
2
100
AcDbEntity
  8
GAIKEI
  6
Continuous
 62
     7
100
AcDbCircle
 10
33.48724990140886
 20
19.66170731197474
 30
0.0
 40
0.5000444256000071
100
AcDbArc
 50
55.17770999999974
 51
90.0
  0
LINE
  5
12C
330
2
100
AcDbEntity
  8
GAIKEI
  6
Continuous
 62
     7
100
AcDbLine
 10
32.47550668146289
 20
20.04899872022389
 30
0.0
 11
32.47550668146289
 21
18.82453726835354
 31
0.0
  0
LWPOLYLINE
  5
12D
330
2
100
AcDbEntity
  8
GAIKEI
  6
Continuous
 62
     1
100
AcDbPolyline
 90
       72
 70
     1
 43
0.0
 10
32.13424402922726
 20
19.57003250061475
 10
32.12536357359147
 20
19.5695247888413
 10
32.11655045727173
 20
19.56800665396517
 10
32.10787235294697
 20
19.5654887636008
 10
32.09939459975533
 20
19.56199078616225
 10
32.09118220347227
 20
19.55753905732263
 10
32.08329750296935
 20
19.55216758010283
 10
32.07580083694074
 20
19.54591702478282
 10
32.06874854372506
 20
19.53883539562747
 10
32.06219496148321
 20
19.53097636407179
 10
32.05618976129461
 20
19.52239993544685
 10
32.05077828052083
 20
19.51317078216502
 10
32.04600218953044
 20
19.50335991053475
 10
32.04189782488504
 20
19.49304132713101
 10
32.0384961893393
 20
19.48229403897309
 10
32.03582295184003
 20
19.47119938662081
 10
32.03389911425325
 20
19.45984237762658
 10
32.03273901118576
 20
19.44830901963161
 10
32.03235131007443
 20
19.43668732045475
 10
32.03273901118576
 20
19.42506528791495
 10
32.03389911425325
 20
19.41353192991997
 10
32.03582295184003
 20
19.40217492092574
 10
32.0384961893393
 20
19.39108060193644
 10
32.04189782488504
 20
19.38033298041554
 10
32.04600218953044
 20
19.37001473037475
 10
32.05077828052083
 20
19.36020352538153
 10
32.05618976129461
 20
19.35097470546267
 10
32.06219496148321
 20
19.34239794347476
 10
32.06874854372506
 20
19.33453891191908
 10
32.07580083694074
 20
19.32745728276373
 10
32.08329750296935
 20
19.32120672744375
 10
32.09118220347227
 20
19.31583525022395
 10
32.09939459975533
 20
19.31138385474725
 10
32.10787235294697
 20
19.30788554394576
 10
32.11655045727173
 20
19.30536765358138
 10
32.12536357359147
 20
19.30384951870525
 10
32.13424402922726
 20
19.30334214029474
 10
32.14312448486294
 20
19.30384951870525
 10
32.15193760118257
 20
19.30536765358138
 10
32.16061603887045
 20
19.30788554394576
 10
32.16909345869908
 20
19.31138385474725
 10
32.17730585498214
 20
19.31583525022395
 10
32.18519055548507
 20
19.32120672744375
 10
32.19268755487656
 20
19.32745728276373
 10
32.19973951472935
 20
19.33453891191908
 10
32.20629309697131
 20
19.34239794347476
 10
32.2122986305227
 20
19.35097470546267
 10
32.21770977793358
 20
19.36020352538153
 10
32.22248586892397
 20
19.37001473037475
 10
32.22659056693226
 20
19.38033298041554
 10
32.22999220247812
 20
19.39108060193644
 10
32.23266510661449
 20
19.40217492092574
 10
32.23458894420117
 20
19.41353192991997
 10
32.23574938063155
 20
19.42506528791495
 10
32.23613708174287
 20
19.43668732045475
 10
32.23574938063155
 20
19.44830901963161
 10
32.23458894420117
 20
19.45984237762658
 10
32.23266510661449
 20
19.47119938662081
 10
32.22999220247812
 20
19.48229403897309
 10
32.22659056693226
 20
19.49304132713101
 10
32.22248586892397
 20
19.50335991053475
 10
32.21770977793358
 20
19.51317078216502
 10
32.2122986305227
 20
19.52239993544685
 10
32.20629309697131
 20
19.53097636407179
 10
32.19973951472935
 20
19.53883539562747
 10
32.19268755487656
 20
19.54591702478282
 10
32.18519055548507
 20
19.55216758010283
 10
32.17730585498214
 20
19.55753905732263
 10
32.16909345869908
 20
19.56199078616225
 10
32.16061603887045
 20
19.5654887636008
 10
32.15193760118257
 20
19.56800665396517
 10
32.14312448486294
 20
19.5695247888413
  0
LINE
  5
12E
330
2
100
AcDbEntity
  8
GAIKEI
  6
Continuous
 62
     7
100
AcDbLine
 10
29.77205049747738
 20
17.94322130266272
 30
0.0
 11
32.3156098090293
 21
17.94322130266272
 31
0.0
  0
LINE
  5
12F
330
2
100
AcDbEntity
  8
GAIKEI
  6
Continuous
 62
     7
100
AcDbLine
 10
32.49395898749333
 20
18.60994720346275
 30
0.0
 11
32.49395898749333
 21
17.97655759770271
 31
0.0
  0
LINE
  5
130
330
2
100
AcDbEntity
  8
GAIKEI
  6
Continuous
 62
     7
100
AcDbLine
 10
29.59370131901335
 20
18.44423481435956
 30
0.0
 11
29.59370131901335
 21
17.97655759770271
 31
0.0
  0
LINE
  5
131
330
2
100
AcDbEntity
  8
GAIKEI
  6
Continuous
 62
     7
100
AcDbLine
 10
29.59370131901335
 20
17.97655759770271
 30
0.0
 11
29.61036946653337
 21
17.95988945018268
 31
0.0
  0
LINE
  5
132
330
2
100
AcDbEntity
  8
GAIKEI
  6
Continuous
 62
     7
100
AcDbLine
 10
32.49395898749333
 20
17.97655759770271
 30
0.0
 11
32.47729083997331
 21
17.95988945018268
 31
0.0
  0
LINE
  5
133
330
2
100
AcDbEntity
  8
GAIKEI
  6
Continuous
 62
     7
100
AcDbLine
 10
29.61036946653337
 20
17.95988945018268
 30
0.0
 11
32.47729083997331
 21
17.95988945018268
 31
0.0
  0
LINE
  5
134
330
2
100
AcDbEntity
  8
GAIKEI
  6
Continuous
 62
     7
100
AcDbLine
 10
32.3156098090293
 20
20.72680193850272
 30
0.0
 11
32.3156098090293
 21
20.24675928992673
 31
0.0
  0
LINE
  5
135
330
2
100
AcDbEntity
  8
GAIKEI
  6
Continuous
 62
     7
100
AcDbLine
 10
29.77205049747738
 20
20.72680193850272
 30
0.0
 11
29.77205049747738
 21
20.24675928992673
 31
0.0
  0
LINE
  5
136
330
2
100
AcDbEntity
  8
GAIKEI
  6
Continuous
 62
     1
100
AcDbLine
 10
32.3156098090293
 20
17.94322130266272
 30
0.0
 11
32.3156098090293
 21
17.95988945018268
 31
0.0
  0
LINE
  5
137
330
2
100
AcDbEntity
  8
GAIKEI
  6
Continuous
 62
     7
100
AcDbLine
 10
29.77205049747738
 20
17.94322130266272
 30
0.0
 11
29.77205049747738
 21
17.95988945018268
 31
0.0
  0
LINE
  5
138
330
2
100
AcDbEntity
  8
GAIKEI
  6
Continuous
 62
     7
100
AcDbLine
 10
32.49395898749333
 20
18.60994720346275
 30
0.0
 11
32.47729083997331
 21
18.62661535098272
 31
0.0
  0
LINE
  5
139
330
2
100
AcDbEntity
  8
GAIKEI
  6
S10
 62
     1
100
AcDbLine
 10
-16.96458016227063
 20
17.94322130266272
 30
0.0
 11
-14.4210208507186
 21
17.94322130266272
 31
0.0
  0
LINE
  5
13A
330
2
100
AcDbEntity
  8
GAIKEI
  6
S10
 62
     1
100
AcDbLine
 10
-14.24267167225457
 20
18.60994720346275
 30
0.0
 11
-14.24267167225457
 21
17.97655759770271
 31
0.0
  0
LINE
  5
13B
330
2
100
AcDbEntity
  8
GAIKEI
  6
S10
 62
     1
100
AcDbLine
 10
-17.14292934073461
 20
18.60994720346275
 30
0.0
 11
-17.14292934073461
 21
17.97655759770271
 31
0.0
  0
LINE
  5
13C
330
2
100
AcDbEntity
  8
GAIKEI
  6
S10
 62
     1
100
AcDbLine
 10
-17.14292934073461
 20
18.60994720346275
 30
0.0
 11
-17.12626119321464
 21
18.62661535098272
 31
0.0
  0
LINE
  5
13D
330
2
100
AcDbEntity
  8
GAIKEI
  6
S10
 62
     1
100
AcDbLine
 10
-17.14292934073461
 20
17.97655759770271
 30
0.0
 11
-17.12626119321464
 21
17.95988945018268
 31
0.0
  0
LINE
  5
13E
330
2
100
AcDbEntity
  8
GAIKEI
  6
S10
 62
     1
100
AcDbLine
 10
-14.24267167225457
 20
17.97655759770271
 30
0.0
 11
-14.25933981977459
 21
17.95988945018268
 31
0.0
  0
LINE
  5
13F
330
2
100
AcDbEntity
  8
GAIKEI
  6
S10
 62
     1
100
AcDbLine
 10
-17.12626119321464
 20
17.95988945018268
 30
0.0
 11
-14.25933981977459
 21
17.95988945018268
 31
0.0
  0
LINE
  5
140
330
2
100
AcDbEntity
  8
GAIKEI
  6
S10
 62
     1
100
AcDbLine
 10
-14.4210208507186
 20
20.72680193850272
 30
0.0
 11
-14.4210208507186
 21
20.24675928992673
 31
0.0
  0
LINE
  5
141
330
2
100
AcDbEntity
  8
GAIKEI
  6
S10
 62
     1
100
AcDbLine
 10
-16.96458016227063
 20
20.72680193850272
 30
0.0
 11
-16.96458016227063
 21
20.24675928992673
 31
0.0
  0
LINE
  5
142
330
2
100
AcDbEntity
  8
GAIKEI
  6
S10
 62
     1
100
AcDbLine
 10
-14.4210208507186
 20
17.94322130266272
 30
0.0
 11
-14.4210208507186
 21
17.95988945018268
 31
0.0
  0
LINE
  5
143
330
2
100
AcDbEntity
  8
GAIKEI
  6
S10
 62
     1
100
AcDbLine
 10
-16.96458016227063
 20
17.94322130266272
 30
0.0
 11
-16.96458016227063
 21
17.95988945018268
 31
0.0
  0
LINE
  5
144
330
2
100
AcDbEntity
  8
GAIKEI
  6
S10
 62
     1
100
AcDbLine
 10
-14.24267167225457
 20
18.60994720346275
 30
0.0
 11
-14.25933981977459
 21
18.62661535098272
 31
0.0
  0
LINE
  5
145
330
2
100
AcDbEntity
  8
GAIKEI
  6
Continuous
 62
     1
100
AcDbLine
 10
32.52896209728533
 20
39.94517602906302
 30
0.0
 11
32.54936824356821
 21
39.94517602906302
 31
0.0
  0
LINE
  5
146
330
2
100
AcDbEntity
  8
GAIKEI
  6
Continuous
 62
     1
100
AcDbLine
 10
32.52896209728533
 20
39.27845012826299
 30
0.0
 11
32.54936824356821
 21
39.27845012826299
 31
0.0
  0
ARC
  5
147
330
2
100
AcDbEntity
  8
GAIKEI
  6
Continuous
 62
     1
100
AcDbCircle
 10
32.52896209728533
 20
39.61181307866303
 30
0.0
 40
0.2297270763796512
100
AcDbArc
 50
331.3713619999999
 51
28.62863800000007
  0
LINE
  5
148
330
2
100
AcDbEntity
  8
GAIKEI
  6
Continuous
 62
     1
100
AcDbLine
 10
32.63715037575639
 20
39.89308440107055
 30
0.0
 11
32.73060367845676
 21
39.7218821909002
 31
0.0
  0
LINE
  5
149
330
2
100
AcDbEntity
  8
GAIKEI
  6
Continuous
 62
     1
100
AcDbLine
 10
32.63715037575639
 20
39.33054142289251
 30
0.0
 11
32.73060367845676
 21
39.50174363306292
 31
0.0
  0
ARC
  5
14A
330
2
100
AcDbEntity
  8
GAIKEI
  6
Continuous
 62
     1
100
AcDbCircle
 10
32.54936824356821
 20
39.845167143943
 30
0.0
 40
0.1000088851200014
100
AcDbArc
 50
28.62863800000007
 51
90.0
  0
ARC
  5
14B
330
2
100
AcDbEntity
  8
GAIKEI
  6
Continuous
 62
     1
100
AcDbCircle
 10
32.54936824356821
 20
39.37845901338301
 30
0.0
 40
0.1000088851200014
100
AcDbArc
 50
270.0
 51
331.3713619999999
  0
LINE
  5
14C
330
2
100
AcDbEntity
  8
GAIKEI
  6
Continuous
 62
     1
100
AcDbLine
 10
29.55869820922135
 20
39.94517602906302
 30
0.0
 11
29.53829239630147
 21
39.94517602906302
 31
0.0
  0
LINE
  5
14D
330
2
100
AcDbEntity
  8
GAIKEI
  6
Continuous
 62
     1
100
AcDbLine
 10
29.55869820922135
 20
39.27845012826299
 30
0.0
 11
29.53829239630147
 21
39.27845012826299
 31
0.0
  0
ARC
  5
14E
330
2
100
AcDbEntity
  8
GAIKEI
  6
Continuous
 62
     1
100
AcDbCircle
 10
29.55869820922135
 20
39.61181307866303
 30
0.0
 40
0.2297270763796512
100
AcDbArc
 50
151.3713619999999
 51
208.6286380000001
  0
LINE
  5
14F
330
2
100
AcDbEntity
  8
GAIKEI
  6
Continuous
 62
     1
100
AcDbLine
 10
29.45051026411329
 20
39.89308440107055
 30
0.0
 11
29.35705662804992
 21
39.7218821909002
 31
0.0
  0
LINE
  5
150
330
2
100
AcDbEntity
  8
GAIKEI
  6
Continuous
 62
     1
100
AcDbLine
 10
29.45051026411329
 20
39.33054142289251
 30
0.0
 11
29.35705662804992
 21
39.50174363306292
 31
0.0
  0
ARC
  5
151
330
2
100
AcDbEntity
  8
GAIKEI
  6
Continuous
 62
     1
100
AcDbCircle
 10
29.53829239630147
 20
39.845167143943
 30
0.0
 40
0.1000088851200014
100
AcDbArc
 50
90.0
 51
151.3713619999999
  0
ARC
  5
152
330
2
100
AcDbEntity
  8
GAIKEI
  6
Continuous
 62
     1
100
AcDbCircle
 10
29.53829239630147
 20
39.37845901338301
 30
0.0
 40
0.1000088851200014
100
AcDbArc
 50
208.6286380000001
 51
270.0
  0
LINE
  5
153
330
2
100
AcDbEntity
  8
GAIKEI
  6
Continuous
 62
     7
100
AcDbLine
 10
29.55869820922135
 20
40.34521156954304
 30
0.0
 11
29.55869820922135
 21
20.72680193850272
 31
0.0
  0
LINE
  5
154
330
2
100
AcDbEntity
  8
GAIKEI
  6
Continuous
 62
     7
100
AcDbLine
 10
32.52896209728533
 20
40.34521156954304
 30
0.0
 11
32.52896209728533
 21
20.72680193850272
 31
0.0
  0
LINE
  5
155
330
2
100
AcDbEntity
  8
GAIKEI
  6
Continuous
 62
     7
100
AcDbLine
 10
29.55869820922135
 20
20.72680193850272
 30
0.0
 11
32.52896209728533
 21
20.72680193850272
 31
0.0
  0
LINE
  5
156
330
2
100
AcDbEntity
  8
GAIKEI
  6
Continuous
 62
     7
100
AcDbLine
 10
29.55869820922135
 20
40.34521156954304
 30
0.0
 11
32.52896209728533
 21
40.34521156954304
 31
0.0
  0
LINE
  5
157
330
2
100
AcDbEntity
  8
GAIKEI
  6
Continuous
 62
     1
100
AcDbLine
 10
-14.20766856246257
 20
38.61172422746302
 30
0.0
 11
-14.18726274954269
 21
38.61172422746302
 31
0.0
  0
LINE
  5
158
330
2
100
AcDbEntity
  8
GAIKEI
  6
Continuous
 62
     1
100
AcDbLine
 10
-14.20766856246257
 20
37.94499832666299
 30
0.0
 11
-14.18726274954269
 21
37.94499832666299
 31
0.0
  0
ARC
  5
159
330
2
100
AcDbEntity
  8
GAIKEI
  6
Continuous
 62
     1
100
AcDbCircle
 10
-14.20766856246257
 20
38.27836127706303
 30
0.0
 40
0.2297270763796512
100
AcDbArc
 50
331.3713619999999
 51
28.62863800000007
  0
LINE
  5
15A
330
2
100
AcDbEntity
  8
GAIKEI
  6
Continuous
 62
     1
100
AcDbLine
 10
-14.09948061735451
 20
38.55963259947055
 30
0.0
 11
-14.0060269812912
 21
38.3884303893002
 31
0.0
  0
LINE
  5
15B
330
2
100
AcDbEntity
  8
GAIKEI
  6
Continuous
 62
     1
100
AcDbLine
 10
-14.09948061735451
 20
37.9970896212925
 30
0.0
 11
-14.0060269812912
 21
38.16829183146285
 31
0.0
  0
ARC
  5
15C
330
2
100
AcDbEntity
  8
GAIKEI
  6
Continuous
 62
     1
100
AcDbCircle
 10
-14.18726274954269
 20
38.511715342343
 30
0.0
 40
0.1000088851200014
100
AcDbArc
 50
28.62863800000007
 51
90.0
  0
ARC
  5
15D
330
2
100
AcDbEntity
  8
GAIKEI
  6
Continuous
 62
     1
100
AcDbCircle
 10
-14.18726274954269
 20
38.045007211783
 30
0.0
 40
0.1000088851200014
100
AcDbArc
 50
270.0
 51
331.3713619999999
  0
LINE
  5
15E
330
2
100
AcDbEntity
  8
GAIKEI
  6
Continuous
 62
     1
100
AcDbLine
 10
-17.17793245052661
 20
38.61172422746302
 30
0.0
 11
-17.19833859680949
 21
38.61172422746302
 31
0.0
  0
LINE
  5
15F
330
2
100
AcDbEntity
  8
GAIKEI
  6
Continuous
 62
     1
100
AcDbLine
 10
-17.17793245052661
 20
37.94499832666299
 30
0.0
 11
-17.19833859680949
 21
37.94499832666299
 31
0.0
  0
ARC
  5
160
330
2
100
AcDbEntity
  8
GAIKEI
  6
Continuous
 62
     1
100
AcDbCircle
 10
-17.17793245052661
 20
38.27836127706303
 30
0.0
 40
0.2297270763796512
100
AcDbArc
 50
151.3713619999999
 51
208.6286380000001
  0
LINE
  5
161
330
2
100
AcDbEntity
  8
GAIKEI
  6
Continuous
 62
     1
100
AcDbLine
 10
-17.28612072899761
 20
38.55963259947055
 30
0.0
 11
-17.37957403169804
 21
38.3884303893002
 31
0.0
  0
LINE
  5
162
330
2
100
AcDbEntity
  8
GAIKEI
  6
Continuous
 62
     1
100
AcDbLine
 10
-17.28612072899761
 20
37.9970896212925
 30
0.0
 11
-17.37957403169804
 21
38.16829183146285
 31
0.0
  0
ARC
  5
163
330
2
100
AcDbEntity
  8
GAIKEI
  6
Continuous
 62
     1
100
AcDbCircle
 10
-17.19833859680949
 20
38.511715342343
 30
0.0
 40
0.1000088851200014
100
AcDbArc
 50
90.0
 51
151.3713619999999
  0
ARC
  5
164
330
2
100
AcDbEntity
  8
GAIKEI
  6
Continuous
 62
     1
100
AcDbCircle
 10
-17.19833859680949
 20
38.045007211783
 30
0.0
 40
0.1000088851200014
100
AcDbArc
 50
208.6286380000001
 51
270.0
  0
LINE
  5
165
330
2
100
AcDbEntity
  8
GAIKEI
  6
S10
 62
     1
100
AcDbLine
 10
-3.692817625427778
 20
21.10350207245478
 30
0.0
 11
-3.692817625427778
 21
6.735558910214535
 31
0.0
  0
LINE
  5
166
330
2
100
AcDbEntity
  8
GAIKEI
  6
S10
 62
     1
100
AcDbLine
 10
-5.692995327827759
 20
6.735558910214535
 30
0.0
 11
-3.692817625427778
 21
6.735558910214535
 31
0.0
  0
LINE
  5
167
330
2
100
AcDbEntity
  8
GAIKEI
  6
S10
 62
     1
100
AcDbLine
 10
-5.692995327827759
 20
6.735558910214535
 30
0.0
 11
-5.692995327827759
 21
21.10350207245478
 31
0.0
  0
LINE
  5
168
330
2
100
AcDbEntity
  8
GAIKEI
  6
S10
 62
     1
100
AcDbLine
 10
-3.942839838227769
 20
21.10350207245478
 30
0.0
 11
-3.692817625427778
 21
21.10350207245478
 31
0.0
  0
LINE
  5
169
330
2
100
AcDbEntity
  8
GAIKEI
  6
S10
 62
     1
100
AcDbLine
 10
-5.442973115027768
 20
21.10350207245478
 30
0.0
 11
-5.692995327827759
 21
21.10350207245478
 31
0.0
  0
LINE
  5
16A
330
2
100
AcDbEntity
  8
GAIKEI
  6
S10
 62
     1
100
AcDbLine
 10
-4.926260541907765
 20
19.73671397581472
 30
0.0
 11
-4.926260541907765
 21
20.31476966552668
 31
0.0
  0
LINE
  5
16B
330
2
100
AcDbEntity
  8
GAIKEI
  6
S10
 62
     1
100
AcDbLine
 10
-4.459552411347772
 20
19.73671397581472
 30
0.0
 11
-4.459552411347772
 21
20.31476966552668
 31
0.0
  0
LINE
  5
16C
330
2
100
AcDbEntity
  8
GAIKEI
  6
S10
 62
     1
100
AcDbLine
 10
-4.676238329107775
 20
19.52002805805477
 30
0.0
 11
-4.709574624147762
 21
19.52002805805477
 31
0.0
  0
ARC
  5
16D
330
2
100
AcDbEntity
  8
GAIKEI
  6
S10
 62
     1
100
AcDbCircle
 10
-4.709574624147762
 20
19.73671397581472
 30
0.0
 40
0.2166859177600031
100
AcDbArc
 50
180.0
 51
270.0
  0
ARC
  5
16E
330
2
100
AcDbEntity
  8
GAIKEI
  6
S10
 62
     1
100
AcDbCircle
 10
-4.676238329107775
 20
19.73671397581472
 30
0.0
 40
0.2166859177600031
100
AcDbArc
 50
270.0
 51
0.0
  0
LINE
  5
16F
330
2
100
AcDbEntity
  8
GAIKEI
  6
S10
 62
     1
100
AcDbLine
 10
-5.342964229907806
 20
21.00349318733476
 30
0.0
 11
-5.342964229907806
 21
20.89781479851729
 31
0.0
  0
LINE
  5
170
330
2
100
AcDbEntity
  8
GAIKEI
  6
S10
 62
     1
100
AcDbLine
 10
-4.042848723347788
 20
21.00349318733476
 30
0.0
 11
-4.042848723347788
 21
20.89781479851729
 31
0.0
  0
LINE
  5
171
330
2
100
AcDbEntity
  8
GAIKEI
  6
S10
 62
     1
100
AcDbLine
 10
-4.926260541907765
 20
9.06909956301456
 30
0.0
 11
-4.926260541907765
 21
9.207792884987838
 31
0.0
  0
LINE
  5
172
330
2
100
AcDbEntity
  8
GAIKEI
  6
S10
 62
     1
100
AcDbLine
 10
-4.459552411347772
 20
9.06909956301456
 30
0.0
 11
-4.459552411347772
 21
9.207792884987838
 31
0.0
  0
LINE
  5
173
330
2
100
AcDbEntity
  8
GAIKEI
  6
S10
 62
     1
100
AcDbLine
 10
-4.676238329107775
 20
8.852413645254614
 30
0.0
 11
-4.709574624147762
 21
8.852413645254614
 31
0.0
  0
ARC
  5
174
330
2
100
AcDbEntity
  8
GAIKEI
  6
S10
 62
     1
100
AcDbCircle
 10
-4.676238329107775
 20
9.06909956301456
 30
0.0
 40
0.2166859177600031
100
AcDbArc
 50
270.0
 51
0.0
  0
ARC
  5
175
330
2
100
AcDbEntity
  8
GAIKEI
  6
S10
 62
     1
100
AcDbCircle
 10
-4.709574624147762
 20
9.06909956301456
 30
0.0
 40
0.2166859177600031
100
AcDbArc
 50
180.0
 51
270.0
  0
ARC
  5
176
330
2
100
AcDbEntity
  8
GAIKEI
  6
S10
 62
     1
100
AcDbCircle
 10
-5.242783329505414
 20
10.03585211917459
 30
0.0
 40
0.0668446053624074
100
AcDbArc
 50
86.66036600000108
 51
269.8524600000009
  0
ARC
  5
177
330
2
100
AcDbEntity
  8
GAIKEI
  6
S10
 62
     1
100
AcDbCircle
 10
-4.692906476627797
 20
10.03585211917459
 30
0.0
 40
0.5500488681600077
100
AcDbArc
 50
6.931044999999277
 51
173.026424
  0
ARC
  5
178
330
2
100
AcDbEntity
  8
GAIKEI
  6
S10
 62
     1
100
AcDbCircle
 10
-4.692906476627797
 20
9.802498053894623
 30
0.0
 40
0.5500488681600077
100
AcDbArc
 50
180.0
 51
236.0727679999977
  0
ARC
  5
179
330
2
100
AcDbEntity
  8
GAIKEI
  6
S10
 62
     1
100
AcDbCircle
 10
-4.692906476627797
 20
9.802498053894623
 30
0.0
 40
0.5500488681600077
100
AcDbArc
 50
303.9272320000022
 51
0.0
  0
ARC
  5
17A
330
2
100
AcDbEntity
  8
GAIKEI
  6
S10
 62
     1
100
AcDbCircle
 10
-4.143029957113128
 20
10.03585211917459
 30
0.0
 40
0.0668446053624074
100
AcDbArc
 50
270.1475399999991
 51
93.33963399999893
  0
LINE
  5
17B
330
2
100
AcDbEntity
  8
GAIKEI
  6
S10
 62
     1
100
AcDbLine
 10
-5.242955344787787
 20
9.802498053894623
 30
0.0
 11
-5.242955344787787
 21
9.969120523852382
 31
0.0
  0
LINE
  5
17C
330
2
100
AcDbEntity
  8
GAIKEI
  6
S10
 62
     1
100
AcDbLine
 10
-4.14285760846775
 20
9.802498053894623
 30
0.0
 11
-4.14285760846775
 21
9.969007513812186
 31
0.0
  0
ARC
  5
17D
330
2
100
AcDbEntity
  8
GAIKEI
  6
S10
 62
     1
100
AcDbCircle
 10
-5.092942017107759
 20
9.207792884987838
 30
0.0
 40
0.1666814752000023
100
AcDbArc
 50
0.0
 51
56.07276799999778
  0
ARC
  5
17E
330
2
100
AcDbEntity
  8
GAIKEI
  6
S10
 62
     1
100
AcDbCircle
 10
-4.292870936147778
 20
9.207792884987838
 30
0.0
 40
0.1666814752000023
100
AcDbArc
 50
123.9272320000022
 51
180.0
  0
LINE
  5
17F
330
2
100
AcDbEntity
  8
GAIKEI
  6
S10
 62
     1
100
AcDbLine
 10
-5.28349094610462
 20
20.77018579286778
 30
0.0
 11
-5.045207109514137
 21
20.57002734346276
 31
0.0
  0
LINE
  5
180
330
2
100
AcDbEntity
  8
GAIKEI
  6
S10
 62
     1
100
AcDbLine
 10
-4.340605843741457
 20
20.57002734346276
 30
0.0
 11
-4.102322007150917
 21
20.77018579286778
 31
0.0
  0
ARC
  5
181
330
2
100
AcDbEntity
  8
GAIKEI
  6
S10
 62
     1
100
AcDbCircle
 10
-5.25962349230781
 20
20.31476966552668
 30
0.0
 40
0.3333629504000047
100
AcDbArc
 50
0.0
 51
49.96974100000052
  0
ARC
  5
182
330
2
100
AcDbEntity
  8
GAIKEI
  6
S10
 62
     1
100
AcDbCircle
 10
-4.126189460947784
 20
20.31476966552668
 30
0.0
 40
0.3333629504000047
100
AcDbArc
 50
130.0302589999995
 51
180.0
  0
ARC
  5
183
330
2
100
AcDbEntity
  8
GAIKEI
  6
S10
 62
     1
100
AcDbCircle
 10
-5.176282754707756
 20
20.89781479851729
 30
0.0
 40
0.1666814752000023
100
AcDbArc
 50
180.0
 51
229.9697410000005
  0
ARC
  5
184
330
2
100
AcDbEntity
  8
GAIKEI
  6
S10
 62
     1
100
AcDbCircle
 10
-4.209530198547781
 20
20.89781479851729
 30
0.0
 40
0.1666814752000023
100
AcDbArc
 50
310.0302589999995
 51
0.0
  0
ARC
  5
185
330
2
100
AcDbEntity
  8
GAIKEI
  6
S10
 62
     1
100
AcDbCircle
 10
-5.442973115027768
 20
21.00349318733476
 30
0.0
 40
0.1000088851200014
100
AcDbArc
 50
0.0
 51
90.0
  0
ARC
  5
186
330
2
100
AcDbEntity
  8
GAIKEI
  6
S10
 62
     1
100
AcDbCircle
 10
-3.942839838227769
 20
21.00349318733476
 30
0.0
 40
0.1000088851200014
100
AcDbArc
 50
90.0
 51
180.0
  0
LINE
  5
187
330
2
100
AcDbEntity
  8
GAIKEI
  6
S10
 62
     1
100
AcDbLine
 10
-27.69278338756147
 20
21.10350207245478
 30
0.0
 11
-27.69278338756147
 21
6.735558910214535
 31
0.0
  0
LINE
  5
188
330
2
100
AcDbEntity
  8
GAIKEI
  6
S10
 62
     1
100
AcDbLine
 10
-25.69260568516142
 20
6.735558910214535
 30
0.0
 11
-27.69278338756147
 21
6.735558910214535
 31
0.0
  0
LINE
  5
189
330
2
100
AcDbEntity
  8
GAIKEI
  6
S10
 62
     1
100
AcDbLine
 10
-25.69260568516142
 20
6.735558910214535
 30
0.0
 11
-25.69260568516142
 21
21.10350207245478
 31
0.0
  0
LINE
  5
18A
330
2
100
AcDbEntity
  8
GAIKEI
  6
S10
 62
     1
100
AcDbLine
 10
-27.44276117476147
 20
21.10350207245478
 30
0.0
 11
-27.69278338756147
 21
21.10350207245478
 31
0.0
  0
LINE
  5
18B
330
2
100
AcDbEntity
  8
GAIKEI
  6
S10
 62
     1
100
AcDbLine
 10
-25.94262789796142
 20
21.10350207245478
 30
0.0
 11
-25.69260568516142
 21
21.10350207245478
 31
0.0
  0
LINE
  5
18C
330
2
100
AcDbEntity
  8
GAIKEI
  6
S10
 62
     1
100
AcDbLine
 10
-26.45934047108142
 20
19.73671397581472
 30
0.0
 11
-26.45934047108142
 21
20.31476966552668
 31
0.0
  0
LINE
  5
18D
330
2
100
AcDbEntity
  8
GAIKEI
  6
S10
 62
     1
100
AcDbLine
 10
-26.92604860164141
 20
19.73671397581472
 30
0.0
 11
-26.92604860164141
 21
20.31476966552668
 31
0.0
  0
LINE
  5
18E
330
2
100
AcDbEntity
  8
GAIKEI
  6
S10
 62
     1
100
AcDbLine
 10
-26.70936268388147
 20
19.52002805805477
 30
0.0
 11
-26.67602638884142
 21
19.52002805805477
 31
0.0
  0
ARC
  5
18F
330
2
100
AcDbEntity
  8
GAIKEI
  6
S10
 62
     1
100
AcDbCircle
 10
-26.67602638884142
 20
19.73671397581472
 30
0.0
 40
0.2166859177600031
100
AcDbArc
 50
270.0
 51
0.0
  0
ARC
  5
190
330
2
100
AcDbEntity
  8
GAIKEI
  6
S10
 62
     1
100
AcDbCircle
 10
-26.70936268388147
 20
19.73671397581472
 30
0.0
 40
0.2166859177600031
100
AcDbArc
 50
180.0
 51
270.0
  0
LINE
  5
191
330
2
100
AcDbEntity
  8
GAIKEI
  6
S10
 62
     1
100
AcDbLine
 10
-26.04263678308143
 20
21.00349318733476
 30
0.0
 11
-26.04263678308143
 21
20.89781479851729
 31
0.0
  0
LINE
  5
192
330
2
100
AcDbEntity
  8
GAIKEI
  6
S10
 62
     1
100
AcDbLine
 10
-27.34275228964146
 20
21.00349318733476
 30
0.0
 11
-27.34275228964146
 21
20.89781479851729
 31
0.0
  0
LINE
  5
193
330
2
100
AcDbEntity
  8
GAIKEI
  6
S10
 62
     1
100
AcDbLine
 10
-26.45934047108142
 20
9.06909956301456
 30
0.0
 11
-26.45934047108142
 21
9.207792884987838
 31
0.0
  0
LINE
  5
194
330
2
100
AcDbEntity
  8
GAIKEI
  6
S10
 62
     1
100
AcDbLine
 10
-26.92604860164141
 20
9.06909956301456
 30
0.0
 11
-26.92604860164141
 21
9.207792884987838
 31
0.0
  0
LINE
  5
195
330
2
100
AcDbEntity
  8
GAIKEI
  6
S10
 62
     1
100
AcDbLine
 10
-26.70936268388147
 20
8.852413645254614
 30
0.0
 11
-26.67602638884142
 21
8.852413645254614
 31
0.0
  0
ARC
  5
196
330
2
100
AcDbEntity
  8
GAIKEI
  6
S10
 62
     1
100
AcDbCircle
 10
-26.70936268388147
 20
9.06909956301456
 30
0.0
 40
0.2166859177600031
100
AcDbArc
 50
180.0
 51
270.0
  0
ARC
  5
197
330
2
100
AcDbEntity
  8
GAIKEI
  6
S10
 62
     1
100
AcDbCircle
 10
-26.67602638884142
 20
9.06909956301456
 30
0.0
 40
0.2166859177600031
100
AcDbArc
 50
270.0
 51
0.0
  0
ARC
  5
198
330
2
100
AcDbEntity
  8
GAIKEI
  6
S10
 62
     1
100
AcDbCircle
 10
-26.14281801684678
 20
10.03585211917459
 30
0.0
 40
0.0668446053624074
100
AcDbArc
 50
270.1475399999991
 51
93.33963399999893
  0
ARC
  5
199
330
2
100
AcDbEntity
  8
GAIKEI
  6
S10
 62
     1
100
AcDbCircle
 10
-26.69269453636144
 20
10.03585211917459
 30
0.0
 40
0.5500488681600077
100
AcDbArc
 50
6.973575999999998
 51
173.0689550000007
  0
ARC
  5
19A
330
2
100
AcDbEntity
  8
GAIKEI
  6
S10
 62
     1
100
AcDbCircle
 10
-26.69269453636144
 20
9.802498053894623
 30
0.0
 40
0.5500488681600077
100
AcDbArc
 50
303.9272320000022
 51
0.0
  0
ARC
  5
19B
330
2
100
AcDbEntity
  8
GAIKEI
  6
S10
 62
     1
100
AcDbCircle
 10
-26.69269453636144
 20
9.802498053894623
 30
0.0
 40
0.5500488681600077
100
AcDbArc
 50
180.0
 51
236.0727679999977
  0
ARC
  5
19C
330
2
100
AcDbEntity
  8
GAIKEI
  6
S10
 62
     1
100
AcDbCircle
 10
-27.24257138923906
 20
10.03585211917459
 30
0.0
 40
0.0668446053624074
100
AcDbArc
 50
86.66036600000108
 51
269.8524600000009
  0
LINE
  5
19D
330
2
100
AcDbEntity
  8
GAIKEI
  6
S10
 62
     1
100
AcDbLine
 10
-26.14264566820145
 20
9.802498053894623
 30
0.0
 11
-26.14264566820145
 21
9.969120523852382
 31
0.0
  0
LINE
  5
19E
330
2
100
AcDbEntity
  8
GAIKEI
  6
S10
 62
     1
100
AcDbLine
 10
-27.24274340452144
 20
9.802498053894623
 30
0.0
 11
-27.24274340452144
 21
9.969007513812186
 31
0.0
  0
ARC
  5
19F
330
2
100
AcDbEntity
  8
GAIKEI
  6
S10
 62
     1
100
AcDbCircle
 10
-26.29265899588143
 20
9.207792884987838
 30
0.0
 40
0.1666814752000023
100
AcDbArc
 50
123.9272320000022
 51
180.0
  0
ARC
  5
1A0
330
2
100
AcDbEntity
  8
GAIKEI
  6
S10
 62
     1
100
AcDbCircle
 10
-27.09273007684146
 20
9.207792884987838
 30
0.0
 40
0.1666814752000023
100
AcDbArc
 50
0.0
 51
56.07276799999778
  0
LINE
  5
1A1
330
2
100
AcDbEntity
  8
GAIKEI
  6
S10
 62
     1
100
AcDbLine
 10
-26.10211006688456
 20
20.77018579286778
 30
0.0
 11
-26.3403939034751
 21
20.57002734346276
 31
0.0
  0
LINE
  5
1A2
330
2
100
AcDbEntity
  8
GAIKEI
  6
S10
 62
     1
100
AcDbLine
 10
-27.04499516924779
 20
20.57002734346276
 30
0.0
 11
-27.28327900583827
 21
20.77018579286778
 31
0.0
  0
ARC
  5
1A3
330
2
100
AcDbEntity
  8
GAIKEI
  6
S10
 62
     1
100
AcDbCircle
 10
-26.12597752068143
 20
20.31476966552668
 30
0.0
 40
0.3333629504000047
100
AcDbArc
 50
130.0302589999995
 51
180.0
  0
ARC
  5
1A4
330
2
100
AcDbEntity
  8
GAIKEI
  6
S10
 62
     1
100
AcDbCircle
 10
-27.25941155204146
 20
20.31476966552668
 30
0.0
 40
0.3333629504000047
100
AcDbArc
 50
0.0
 51
49.96974100000052
  0
ARC
  5
1A5
330
2
100
AcDbEntity
  8
GAIKEI
  6
S10
 62
     1
100
AcDbCircle
 10
-26.20931825828143
 20
20.89781479851729
 30
0.0
 40
0.1666814752000023
100
AcDbArc
 50
310.0302589999995
 51
0.0
  0
ARC
  5
1A6
330
2
100
AcDbEntity
  8
GAIKEI
  6
S10
 62
     1
100
AcDbCircle
 10
-27.17607081444146
 20
20.89781479851729
 30
0.0
 40
0.1666814752000023
100
AcDbArc
 50
180.0
 51
229.9697410000005
  0
ARC
  5
1A7
330
2
100
AcDbEntity
  8
GAIKEI
  6
S10
 62
     1
100
AcDbCircle
 10
-25.94262789796142
 20
21.00349318733476
 30
0.0
 40
0.1000088851200014
100
AcDbArc
 50
90.0
 51
180.0
  0
ARC
  5
1A8
330
2
100
AcDbEntity
  8
GAIKEI
  6
S10
 62
     1
100
AcDbCircle
 10
-27.44276117476147
 20
21.00349318733476
 30
0.0
 40
0.1000088851200014
100
AcDbArc
 50
0.0
 51
90.0
  0
LINE
  5
1A9
330
2
100
AcDbEntity
  8
GAIKEI
  6
S10
 62
     1
100
AcDbLine
 10
-14.1759990821746
 20
18.62661535098272
 30
0.0
 11
-13.8759724268146
 21
18.62661535098272
 31
0.0
  0
LINE
  5
1AA
330
2
100
AcDbEntity
  8
GAIKEI
  6
S10
 62
     1
100
AcDbLine
 10
-17.50962858617464
 20
18.62661535098272
 30
0.0
 11
-17.20960193081464
 21
18.62661535098272
 31
0.0
  0
LINE
  5
1AB
330
2
100
AcDbEntity
  8
GAIKEI
  6
S10
 62
     1
100
AcDbLine
 10
-17.43462192233465
 20
21.4770535933402
 30
0.0
 11
-17.21793600457459
 21
21.4770535933402
 31
0.0
  0
LINE
  5
1AC
330
2
100
AcDbEntity
  8
GAIKEI
  6
S10
 62
     1
100
AcDbLine
 10
-17.21793600457459
 20
21.36019154426276
 30
0.0
 11
-17.43462192233465
 21
21.36019154426276
 31
0.0
  0
LINE
  5
1AD
330
2
100
AcDbEntity
  8
GAIKEI
  6
S10
 62
     1
100
AcDbLine
 10
-17.43462192233465
 20
21.09350118394275
 30
0.0
 11
-17.21793600457459
 21
21.09350118394275
 31
0.0
  0
LINE
  5
1AE
330
2
100
AcDbEntity
  8
GAIKEI
  6
S10
 62
     1
100
AcDbLine
 10
-17.43462192233465
 20
20.9766388015023
 30
0.0
 11
-17.21793600457459
 21
20.9766388015023
 31
0.0
  0
LINE
  5
1AF
330
2
100
AcDbEntity
  8
GAIKEI
  6
S10
 62
     1
100
AcDbLine
 10
-17.21793600457459
 20
21.52687301946276
 30
0.0
 11
-17.21793600457459
 21
20.92681970874275
 31
0.0
  0
LINE
  5
1B0
330
2
100
AcDbEntity
  8
GAIKEI
  6
S10
 62
     1
100
AcDbLine
 10
-17.17793245052661
 20
21.52687301946276
 30
0.0
 11
-17.21793600457459
 21
21.52687301946276
 31
0.0
  0
LINE
  5
1B1
330
2
100
AcDbEntity
  8
GAIKEI
  6
S10
 62
     1
100
AcDbLine
 10
-17.21793600457459
 20
20.92681970874275
 30
0.0
 11
-17.17793245052661
 21
20.92681970874275
 31
0.0
  0
LINE
  5
1B2
330
2
100
AcDbEntity
  8
GAIKEI
  6
S10
 62
     1
100
AcDbLine
 10
-17.43462192233465
 20
21.4770535933402
 30
0.0
 11
-17.43462192233465
 21
20.9766388015023
 31
0.0
  0
LINE
  5
1B3
330
2
100
AcDbEntity
  8
GAIKEI
  6
S10
 62
     1
100
AcDbLine
 10
-13.95097909065458
 20
21.4770535933402
 30
0.0
 11
-14.16766500841459
 21
21.4770535933402
 31
0.0
  0
LINE
  5
1B4
330
2
100
AcDbEntity
  8
GAIKEI
  6
S10
 62
     1
100
AcDbLine
 10
-14.16766500841459
 20
21.36019154426276
 30
0.0
 11
-13.95097909065458
 21
21.36019154426276
 31
0.0
  0
LINE
  5
1B5
330
2
100
AcDbEntity
  8
GAIKEI
  6
S10
 62
     1
100
AcDbLine
 10
-13.95097909065458
 20
21.09350118394275
 30
0.0
 11
-14.16766500841459
 21
21.09350118394275
 31
0.0
  0
LINE
  5
1B6
330
2
100
AcDbEntity
  8
GAIKEI
  6
S10
 62
     1
100
AcDbLine
 10
-13.95097909065458
 20
20.9766388015023
 30
0.0
 11
-14.16766500841459
 21
20.9766388015023
 31
0.0
  0
LINE
  5
1B7
330
2
100
AcDbEntity
  8
GAIKEI
  6
S10
 62
     1
100
AcDbLine
 10
-14.16766500841459
 20
21.52687301946276
 30
0.0
 11
-14.16766500841459
 21
20.92681970874275
 31
0.0
  0
LINE
  5
1B8
330
2
100
AcDbEntity
  8
GAIKEI
  6
S10
 62
     1
100
AcDbLine
 10
-14.20766856246257
 20
21.52687301946276
 30
0.0
 11
-14.16766500841459
 21
21.52687301946276
 31
0.0
  0
LINE
  5
1B9
330
2
100
AcDbEntity
  8
GAIKEI
  6
S10
 62
     1
100
AcDbLine
 10
-14.16766500841459
 20
20.92681970874275
 30
0.0
 11
-14.20766856246257
 21
20.92681970874275
 31
0.0
  0
LINE
  5
1BA
330
2
100
AcDbEntity
  8
GAIKEI
  6
S10
 62
     1
100
AcDbLine
 10
-13.95097909065458
 20
21.4770535933402
 30
0.0
 11
-13.95097909065458
 21
20.9766388015023
 31
0.0
  0
LINE
  5
1BB
330
2
100
AcDbEntity
  8
GAIKEI
  6
S10
 62
     1
100
AcDbLine
 10
-17.17793245052661
 20
21.52687301946276
 30
0.0
 11
-17.17793245052661
 21
20.92681970874275
 31
0.0
  0
LINE
  5
1BC
330
2
100
AcDbEntity
  8
GAIKEI
  6
S10
 62
     1
100
AcDbLine
 10
-14.20766856246257
 20
21.52687301946276
 30
0.0
 11
-14.20766856246257
 21
20.92681970874275
 31
0.0
  0
ELLIPSE
  5
1BD
330
2
100
AcDbEntity
  8
GAIKEI
  6
Continuous
 62
     1
100
AcDbEllipse
 10
-35.75481791578409
 20
26.27803229782296
 30
0.0
 11
-0.0052978427251001
 21
0.2879170138793281
 31
0.0
210
0.0
220
0.0
230
1.0
 40
0.0404429999982056
 41
4.285401047309302
 42
4.371811220306485
  0
ELLIPSE
  5
1BE
330
2
100
AcDbEntity
  8
GAIKEI
  6
Continuous
 62
     1
100
AcDbEllipse
 10
-35.75481791578409
 20
2.353866456506921
 30
0.0
 11
0.0052978427251001
 21
0.2879170138793289
 31
0.0
210
0.0
220
0.0
230
1.0
 40
0.0404429999982055
 41
-1.230218566716693
 42
-1.143808393719511
  0
ELLIPSE
  5
1BF
330
2
100
AcDbEntity
  8
GAIKEI
  6
Continuous
 62
     1
100
AcDbEllipse
 10
-35.70488201264669
 20
26.32796820096036
 30
0.0
 11
-0.2879170138797297
 21
0.0052978427250935
 31
0.0
210
0.0
220
0.0
230
1.0
 40
0.0404429999981596
 41
1.911374086872534
 42
1.997784259869754
  0
ELLIPSE
  5
1C0
330
2
100
AcDbEntity
  8
GAIKEI
  6
Continuous
 62
     1
100
AcDbEllipse
 10
-35.70488201264669
 20
2.303930553369525
 30
0.0
 11
0.2879170138799391
 21
0.0052978427250901
 31
0.0
210
0.0
220
0.0
230
1.0
 40
0.0404429999981356
 41
1.143808393720369
 42
1.23021856671755
  0
ELLIPSE
  5
1C1
330
2
100
AcDbEntity
  8
GAIKEI
  6
Continuous
 62
     1
100
AcDbEllipse
 10
4.469225787914069
 20
2.353866456506921
 30
0.0
 11
-0.0052978427254085
 21
0.2879170138543368
 31
0.0
210
0.0
220
0.0
230
1.0
 40
0.0404430000012197
 41
1.14380839367993
 42
1.230218566685839
  0
ELLIPSE
  5
1C2
330
2
100
AcDbEntity
  8
GAIKEI
  6
Continuous
 62
     1
100
AcDbEllipse
 10
4.469225787914069
 20
26.27803229782296
 30
0.0
 11
0.0052978427250493
 21
0.2879170138793219
 31
0.0
210
0.0
220
0.0
230
1.0
 40
0.0404429999982778
 41
1.911374086873103
 42
1.997784259870286
  0
ELLIPSE
  5
1C3
330
2
100
AcDbEntity
  8
GAIKEI
  6
Continuous
 62
     1
100
AcDbEllipse
 10
4.419289884776731
 20
26.32796820096036
 30
0.0
 11
0.2879170138798924
 21
0.005297842725091
 31
0.0
210
0.0
220
0.0
230
1.0
 40
0.0404429999981408
 41
4.285401047310096
 42
4.371811220307267
  0
ELLIPSE
  5
1C4
330
2
100
AcDbEntity
  8
GAIKEI
  6
Continuous
 62
     1
100
AcDbEllipse
 10
4.419289884776731
 20
2.303930553369525
 30
0.0
 11
-0.2879170138799422
 21
0.0052978427250903
 31
0.0
210
0.0
220
0.0
230
1.0
 40
0.0404429999981349
 41
-1.230218566717536
 42
-1.143808393720374
  0
ELLIPSE
  5
1C5
330
2
100
AcDbEntity
  8
GAIKEI
  6
Continuous
 62
     1
100
AcDbEllipse
 10
-34.03124558792001
 20
24.62939809437628
 30
0.0
 11
-0.0427537848529118
 21
0.0546568828203793
 31
0.0
210
0.0
220
0.0
230
1.0
 40
0.960211999995565
 41
-0.6513938851084821
 42
-0.3742724761095297
  0
ELLIPSE
  5
1C6
330
2
100
AcDbEntity
  8
GAIKEI
  6
Continuous
 62
     1
100
AcDbEllipse
 10
2.745653460049993
 20
24.62939809437628
 30
0.0
 11
0.0427537848527262
 21
0.0546568828205145
 31
0.0
210
0.0
220
0.0
230
1.0
 40
0.9602119999955242
 41
0.3742724761062375
 42
0.6513938851051569
  0
ELLIPSE
  5
1C7
330
2
100
AcDbEntity
  8
GAIKEI
  6
Continuous
 62
     1
100
AcDbEllipse
 10
-34.03124558792001
 20
4.002500659953597
 30
0.0
 11
0.0427537848582486
 21
0.0546568828163674
 31
0.0
210
0.0
220
0.0
230
1.0
 40
0.9602120000005857
 41
3.515865129796059
 42
3.792986538793065
  0
ELLIPSE
  5
1C8
330
2
100
AcDbEntity
  8
GAIKEI
  6
Continuous
 62
     1
100
AcDbEllipse
 10
2.745653460049993
 20
4.002500659953597
 30
0.0
 11
-0.042753784866503
 21
0.0546568828102033
 31
0.0
210
0.0
220
0.0
230
0.9999999999999996
 40
0.9602120000078178
 41
2.490198768239826
 42
2.767320177232909
  0
ELLIPSE
  5
1C9
330
2
100
AcDbEntity
  8
GAIKEI
  6
Continuous
 62
     1
100
AcDbEllipse
 10
-34.03123828727138
 20
24.62939079372768
 30
0.0
 11
-0.05471957312403
 21
0.042691791412705
 31
0.0
210
0.0
220
0.0
230
1.0
 40
0.9600420000005415
 41
0.3752614365549947
 42
0.6500607537665788
  0
ELLIPSE
  5
1CA
330
2
100
AcDbEntity
  8
GAIKEI
  6
Continuous
 62
     1
100
AcDbEllipse
 10
-34.03123828727138
 20
4.002507960602201
 30
0.0
 11
0.054719573126713
 21
0.0426917914091056
 31
0.0
210
0.0
220
0.0
230
1.0
 40
0.9600419999976159
 41
2.491531899886615
 42
2.766331217099247
  0
ELLIPSE
  5
1CB
330
2
100
AcDbEntity
  8
GAIKEI
  6
Continuous
 62
     1
100
AcDbEllipse
 10
2.745646159401417
 20
24.62939079372768
 30
0.0
 11
0.0547195731240741
 21
0.0426917914126376
 31
0.0
210
0.0
220
0.0
230
1.0
 40
0.9600420000007662
 41
-0.6500607537652972
 42
-0.3752614365537126
  0
ELLIPSE
  5
1CC
330
2
100
AcDbEntity
  8
GAIKEI
  6
Continuous
 62
     1
100
AcDbEllipse
 10
2.745646159401417
 20
4.002507960602201
 30
0.0
 11
-0.0547195731247495
 21
0.0426917914117292
 31
0.0
210
0.0
220
0.0
230
1.0
 40
0.9600419999999962
 41
3.516854090128136
 42
3.791653407339537
  0
ELLIPSE
  5
1CD
330
2
100
AcDbEntity
  8
GAIKEI
  6
Continuous
 62
     1
100
AcDbEllipse
 10
2.745653460049993
 20
4.004326622178126
 30
0.0
 11
-0.0607808270033003
 21
0.0822184915853297
 31
0.0
210
0.0
220
0.0
230
1.0
 40
0.9776259999984945
 41
2.515781018572056
 42
2.792902427569963
  0
ELLIPSE
  5
1CE
330
2
100
AcDbEntity
  8
GAIKEI
  6
Continuous
 62
     1
100
AcDbEllipse
 10
-34.03124558792001
 20
4.004326622178126
 30
0.0
 11
0.0607808269967871
 21
0.0822184915900438
 31
0.0
210
0.0
220
0.0
230
1.0
 40
0.977625999995409
 41
3.490282879530687
 42
3.767404288529979
  0
ELLIPSE
  5
1CF
330
2
100
AcDbEntity
  8
GAIKEI
  6
Continuous
 62
     1
100
AcDbEllipse
 10
-34.03124558792001
 20
24.62757213215179
 30
0.0
 11
-0.0607808270158122
 21
0.082218491576272
 31
0.0
210
0.0
220
0.0
230
1.0
 40
0.9776260000034472
 41
-0.625811635167389
 42
-0.3486902261722637
  0
ELLIPSE
  5
1D0
330
2
100
AcDbEntity
  8
GAIKEI
  6
Continuous
 62
     1
100
AcDbEllipse
 10
2.745653460049993
 20
24.62757213215179
 30
0.0
 11
0.0607808270141988
 21
0.0822184915774339
 31
0.0
210
0.0
220
0.0
230
1.0
 40
0.9776260000029461
 41
0.3486902261527096
 42
0.6258116351479744
  0
ELLIPSE
  5
1D1
330
2
100
AcDbEntity
  8
GAIKEI
  6
Continuous
 62
     1
100
AcDbEllipse
 10
-34.0293857226834
 20
4.002507960602201
 30
0.0
 11
0.0823124171870749
 21
0.0606728015078452
 31
0.0
210
0.0
220
0.0
230
1.0
 40
0.9775040000002562
 41
2.517225752813203
 42
2.792025070024934
  0
ELLIPSE
  5
1D2
330
2
100
AcDbEntity
  8
GAIKEI
  6
Continuous
 62
     1
100
AcDbEllipse
 10
-34.0293857226834
 20
24.62939079372768
 30
0.0
 11
-0.0823124171911972
 21
0.0606728015020962
 31
0.0
210
0.0
220
0.0
230
1.0
 40
0.9775039999983139
 41
0.3495675834948664
 42
0.6243669007078401
  0
ELLIPSE
  5
1D3
330
2
100
AcDbEntity
  8
GAIKEI
  6
Continuous
 62
     1
100
AcDbEllipse
 10
2.743793594813439
 20
24.62939079372768
 30
0.0
 11
0.0823124171885619
 21
0.0606728015057627
 31
0.0
210
0.0
220
0.0
230
1.0
 40
0.9775039999996579
 41
-0.6243669007516715
 42
-0.349567583539371
  0
ELLIPSE
  5
1D4
330
2
100
AcDbEntity
  8
GAIKEI
  6
Continuous
 62
     1
100
AcDbEllipse
 10
2.743793594813439
 20
4.002507960602201
 30
0.0
 11
-0.0823124171856116
 21
0.0606728015098772
 31
0.0
210
0.0
220
0.0
230
1.0
 40
0.9775040000007887
 41
3.491160237179388
 42
3.765959554391168
  0
ELLIPSE
  5
1D5
330
2
100
AcDbEntity
  8
GAIKEI
  6
Continuous
 62
     1
100
AcDbEllipse
 10
-35.70488201264669
 20
26.27803229782296
 30
0.0
 11
0.3230407423546598
 21
0.0305357091463026
 31
0.0
210
0.0
220
0.0
230
1.0
 40
0.0083089999813824
 41
1.192616585226102
 42
1.279026757979404
  0
ELLIPSE
  5
1D6
330
2
100
AcDbEntity
  8
GAIKEI
  6
Continuous
 62
     1
100
AcDbEllipse
 10
-35.70488201264669
 20
26.27803229782296
 30
0.0
 11
0.0305357090498701
 21
0.3230407412646187
 31
0.0
210
0.0
220
0.0
230
1.0
 40
0.0083090000057821
 41
1.862565896623444
 42
1.948976069703653
  0
ELLIPSE
  5
1D7
330
2
100
AcDbEntity
  8
GAIKEI
  6
Continuous
 62
     1
100
AcDbEllipse
 10
-35.70488201264669
 20
2.353866456506921
 30
0.0
 11
-0.030535709049866
 21
0.3230407412645781
 31
0.0
210
0.0
220
0.0
230
1.0
 40
0.0083090000057778
 41
1.192616583886016
 42
1.279026756966244
  0
ELLIPSE
  5
1D8
330
2
100
AcDbEntity
  8
GAIKEI
  6
Continuous
 62
     1
100
AcDbEllipse
 10
-35.70488201264669
 20
2.353866456506921
 30
0.0
 11
-0.3230407423546608
 21
0.0305357091463026
 31
0.0
210
0.0
220
0.0
230
1.0
 40
0.0083089999813824
 41
1.862565895610391
 42
1.948976068363679
  0
ELLIPSE
  5
1D9
330
2
100
AcDbEntity
  8
GAIKEI
  6
Continuous
 62
     1
100
AcDbEllipse
 10
4.419289884776731
 20
26.27803229782296
 30
0.0
 11
-0.030535709066745
 21
0.3230407414557805
 31
0.0
210
0.0
220
0.0
230
1.0
 40
0.0083090000015409
 41
4.33420923771091
 42
4.420619410733783
  0
ELLIPSE
  5
1DA
330
2
100
AcDbEntity
  8
GAIKEI
  6
Continuous
 62
     1
100
AcDbEllipse
 10
4.419289884776731
 20
26.27803229782296
 30
0.0
 11
-0.3230407423314021
 21
0.0305357091442352
 31
0.0
210
0.0
220
0.0
230
1.0
 40
0.0083089999819134
 41
-1.279026757957789
 42
-1.192616585197497
  0
ELLIPSE
  5
1DB
330
2
100
AcDbEntity
  8
GAIKEI
  6
Continuous
 62
     1
100
AcDbEllipse
 10
4.419289884776731
 20
2.353866456506921
 30
0.0
 11
0.3230407423313618
 21
0.0305357091442317
 31
0.0
210
0.0
220
0.0
230
1.0
 40
0.0083089999819143
 41
4.334209238787228
 42
4.420619411547537
  0
ELLIPSE
  5
1DC
330
2
100
AcDbEntity
  8
GAIKEI
  6
Continuous
 62
     1
100
AcDbEllipse
 10
4.419289884776731
 20
2.353866456506921
 30
0.0
 11
0.0305357090723699
 21
0.3230407415195018
 31
0.0
210
0.0
220
0.0
230
1.0
 40
0.0083090000001242
 41
-1.279026757203155
 42
-1.192616584199406
  0
ELLIPSE
  5
1DD
330
2
100
AcDbEntity
  8
GAIKEI
  6
Continuous
 62
     1
100
AcDbEllipse
 10
3.851462337099974
 20
2.921694004183592
 30
0.0
 11
-0.3876090726745644
 21
0.3876090726745644
 31
0.0
210
0.0
220
0.0
230
1.0
 40
0.4561099999999687
 41
2.756538952252958
 42
3.526646354926537
  0
ELLIPSE
  5
1DE
330
2
100
AcDbEntity
  8
GAIKEI
  6
Continuous
 62
     1
100
AcDbEllipse
 10
-35.13705446496999
 20
2.921694004183592
 30
0.0
 11
0.3876090726745644
 21
0.3876090726745644
 31
0.0
210
0.0
220
0.0
230
1.0
 40
0.4561099999999612
 41
2.756538952253047
 42
3.526646354926617
  0
ELLIPSE
  5
1DF
330
2
100
AcDbEntity
  8
GAIKEI
  6
Continuous
 62
     1
100
AcDbEllipse
 10
3.851462337099974
 20
25.71020475014629
 30
0.0
 11
0.3876090726745562
 21
0.3876090726745562
 31
0.0
210
0.0
220
0.0
230
1.0
 40
0.4561100000000421
 41
5.898131605842833
 42
6.668239008516371
  0
ELLIPSE
  5
1E0
330
2
100
AcDbEntity
  8
GAIKEI
  6
Continuous
 62
     1
100
AcDbEllipse
 10
-35.13705446496999
 20
25.71020475014629
 30
0.0
 11
-0.3876090726745502
 21
0.3876090726745502
 31
0.0
210
0.0
220
0.0
230
1.0
 40
0.4561100000000735
 41
-0.3850537013367683
 42
0.3850537013367188
  0
ARC
  5
1E1
330
2
100
AcDbEntity
  8
GAIKEI
  6
Continuous
 62
     1
100
AcDbCircle
 10
-35.67624256822376
 20
26.24939285340003
 30
0.0
 40
0.133345180160005
100
AcDbArc
 50
179.9215319999867
 51
180.0
  0
ARC
  5
1E2
330
2
100
AcDbEntity
  8
GAIKEI
  6
Continuous
 62
     1
100
AcDbCircle
 10
-35.67624256822376
 20
2.3825059009298
 30
0.0
 40
0.133345180160005
100
AcDbArc
 50
180.0
 51
180.0784680000133
  0
ARC
  5
1E3
330
2
100
AcDbEntity
  8
GAIKEI
  6
Continuous
 62
     1
100
AcDbCircle
 10
4.390650440353738
 20
2.3825059009298
 30
0.0
 40
0.133345180160005
100
AcDbArc
 50
359.9215319999867
 51
0.0
  0
ARC
  5
1E4
330
2
100
AcDbEntity
  8
GAIKEI
  6
Continuous
 62
     1
100
AcDbCircle
 10
4.390650440353738
 20
26.24939285340003
 30
0.0
 40
0.133345180160005
100
AcDbArc
 50
0.0
 51
0.0784680000133402
  0
ARC
  5
1E5
330
2
100
AcDbEntity
  8
GAIKEI
  6
Continuous
 62
     1
100
AcDbCircle
 10
4.390650440353738
 20
26.24939285340003
 30
0.0
 40
0.133345180160005
100
AcDbArc
 50
89.92153200000187
 51
90.0
  0
ARC
  5
1E6
330
2
100
AcDbEntity
  8
GAIKEI
  6
Continuous
 62
     1
100
AcDbCircle
 10
-35.67624256822376
 20
26.24939285340003
 30
0.0
 40
0.133345180160005
100
AcDbArc
 50
90.0
 51
90.07846799999812
  0
ARC
  5
1E7
330
2
100
AcDbEntity
  8
GAIKEI
  6
Continuous
 62
     1
100
AcDbCircle
 10
-35.67624256822376
 20
2.3825059009298
 30
0.0
 40
0.133345180160005
100
AcDbArc
 50
269.9215320000019
 51
270.0
  0
ARC
  5
1E8
330
2
100
AcDbEntity
  8
GAIKEI
  6
Continuous
 62
     1
100
AcDbCircle
 10
4.390650440353738
 20
2.3825059009298
 30
0.0
 40
0.133345180160005
100
AcDbArc
 50
270.0
 51
270.0784679999981
  0
ARC
  5
1E9
330
2
100
AcDbEntity
  8
GAIKEI
  6
Continuous
 62
     7
100
AcDbCircle
 10
-35.67624256822376
 20
2.3825059009298
 30
0.0
 40
0.133345180160005
100
AcDbArc
 50
180.0784680000133
 51
269.9215320000019
  0
ARC
  5
1EA
330
2
100
AcDbEntity
  8
GAIKEI
  6
Continuous
 62
     7
100
AcDbCircle
 10
4.390650440353738
 20
2.3825059009298
 30
0.0
 40
0.133345180160005
100
AcDbArc
 50
270.0784679999981
 51
359.9215319999867
  0
ARC
  5
1EB
330
2
100
AcDbEntity
  8
GAIKEI
  6
Continuous
 62
     7
100
AcDbCircle
 10
-35.67624256822376
 20
26.24939285340003
 30
0.0
 40
0.133345180160005
100
AcDbArc
 50
90.07846799999812
 51
179.9215319999867
  0
ARC
  5
1EC
330
2
100
AcDbEntity
  8
GAIKEI
  6
Continuous
 62
     7
100
AcDbCircle
 10
4.390650440353738
 20
26.24939285340003
 30
0.0
 40
0.133345180160005
100
AcDbArc
 50
0.0784680000133402
 51
89.92153200000187
  0
ARC
  5
1ED
330
2
100
AcDbEntity
  8
GAIKEI
  6
Continuous
 62
     1
100
AcDbCircle
 10
-34.03406707192329
 20
24.63221521132493
 30
0.0
 40
0.0655246547603001
100
AcDbArc
 50
105.7493539999931
 51
164.3805440000051
  0
ARC
  5
1EE
330
2
100
AcDbEntity
  8
GAIKEI
  6
Continuous
 62
     1
100
AcDbCircle
 10
2.74847494405327
 20
24.63221521132493
 30
0.0
 40
0.0655246547603001
100
AcDbArc
 50
15.61945599999485
 51
74.25064600000682
  0
ARC
  5
1EF
330
2
100
AcDbEntity
  8
GAIKEI
  6
Continuous
 62
     1
100
AcDbCircle
 10
-34.6361501629757
 20
3.419264676673833
 30
0.0
 40
0.0666725900800025
100
AcDbArc
 50
180.0
 51
270.0
  0
ARC
  5
1F0
330
2
100
AcDbEntity
  8
GAIKEI
  6
Continuous
 62
     1
100
AcDbCircle
 10
3.350558035105734
 20
3.419264676673833
 30
0.0
 40
0.0666725900800025
100
AcDbArc
 50
270.0
 51
0.0
  0
ARC
  5
1F1
330
2
100
AcDbEntity
  8
GAIKEI
  6
Continuous
 62
     1
100
AcDbCircle
 10
-34.6361501629757
 20
25.21263407765599
 30
0.0
 40
0.0666725900800025
100
AcDbArc
 50
90.0
 51
180.0
  0
ARC
  5
1F2
330
2
100
AcDbEntity
  8
GAIKEI
  6
Continuous
 62
     1
100
AcDbCircle
 10
3.350558035105734
 20
25.21263407765599
 30
0.0
 40
0.0666725900800025
100
AcDbArc
 50
0.0
 51
90.0
  0
ARC
  5
1F3
330
2
100
AcDbEntity
  8
GAIKEI
  6
Continuous
 62
     1
100
AcDbCircle
 10
-34.06776633254373
 20
2.797542774177827
 30
0.0
 40
0.0166681475200006
100
AcDbArc
 50
90.0
 51
180.0
  0
ARC
  5
1F4
330
2
100
AcDbEntity
  8
GAIKEI
  6
Continuous
 62
     1
100
AcDbCircle
 10
-33.86774856230369
 20
2.797542774177827
 30
0.0
 40
0.0166681475200006
100
AcDbArc
 50
0.0
 51
90.0
  0
ARC
  5
1F5
330
2
100
AcDbEntity
  8
GAIKEI
  6
Continuous
 62
     1
100
AcDbCircle
 10
-34.06776633254373
 20
2.597525003937789
 30
0.0
 40
0.0166681475200006
100
AcDbArc
 50
180.0
 51
270.0
  0
ARC
  5
1F6
330
2
100
AcDbEntity
  8
GAIKEI
  6
Continuous
 62
     1
100
AcDbCircle
 10
-33.86774856230369
 20
2.597525003937789
 30
0.0
 40
0.0166681475200006
100
AcDbArc
 50
270.0
 51
0.0
  0
ARC
  5
1F7
330
2
100
AcDbEntity
  8
GAIKEI
  6
Continuous
 62
     1
100
AcDbCircle
 10
3.350558035105734
 20
25.21263407765599
 30
0.0
 40
0.1346545964928812
100
AcDbArc
 50
0.0
 51
90.0
  0
ARC
  5
1F8
330
2
100
AcDbEntity
  8
GAIKEI
  6
Continuous
 62
     1
100
AcDbCircle
 10
3.350558035105734
 20
3.419264676673833
 30
0.0
 40
0.1346545964928812
100
AcDbArc
 50
270.0
 51
0.0
  0
ARC
  5
1F9
330
2
100
AcDbEntity
  8
GAIKEI
  6
Continuous
 62
     1
100
AcDbCircle
 10
-34.6361501629757
 20
25.21263407765599
 30
0.0
 40
0.1346545964928812
100
AcDbArc
 50
90.0
 51
180.0
  0
ARC
  5
1FA
330
2
100
AcDbEntity
  8
GAIKEI
  6
Continuous
 62
     1
100
AcDbCircle
 10
-34.6361501629757
 20
3.419264676673833
 30
0.0
 40
0.1346545964928812
100
AcDbArc
 50
180.0
 51
270.0
  0
LINE
  5
1FB
330
2
100
AcDbEntity
  8
GAIKEI
  6
Continuous
 62
     7
100
AcDbLine
 10
-35.80958774838376
 20
26.24939285340003
 30
0.0
 11
-35.80958774838376
 21
2.3825059009298
 31
0.0
  0
LINE
  5
1FC
330
2
100
AcDbEntity
  8
GAIKEI
  6
Continuous
 62
     7
100
AcDbLine
 10
4.523995620513744
 20
26.24939285340003
 30
0.0
 11
4.523995620513744
 21
2.3825059009298
 31
0.0
  0
LINE
  5
1FD
330
2
100
AcDbEntity
  8
GAIKEI
  6
Continuous
 62
     7
100
AcDbLine
 10
-35.67624256822376
 20
26.38273803356003
 30
0.0
 11
4.390650440353738
 21
26.38273803356003
 31
0.0
  0
LINE
  5
1FE
330
2
100
AcDbEntity
  8
GAIKEI
  6
Continuous
 62
     7
100
AcDbLine
 10
-35.67624256822376
 20
2.249160720769793
 30
0.0
 11
4.390650440353738
 21
2.249160720769793
 31
0.0
  0
LINE
  5
1FF
330
2
100
AcDbEntity
  8
GAIKEI
  6
Continuous
 62
     1
100
AcDbLine
 10
-35.74207298348216
 20
2.449837949598304
 30
0.0
 11
-35.8095876150386
 21
2.382323284705591
 31
0.0
  0
LINE
  5
200
330
2
100
AcDbEntity
  8
GAIKEI
  6
Continuous
 62
     1
100
AcDbLine
 10
-35.67642518444797
 20
2.249160854114961
 30
0.0
 11
-35.60891051955531
 21
2.316675485671396
 31
0.0
  0
LINE
  5
201
330
2
100
AcDbEntity
  8
GAIKEI
  6
Continuous
 62
     1
100
AcDbLine
 10
-35.60891051955531
 20
26.31522326865843
 30
0.0
 11
-35.67642518444797
 21
26.38273790021486
 31
0.0
  0
LINE
  5
202
330
2
100
AcDbEntity
  8
GAIKEI
  6
Continuous
 62
     1
100
AcDbLine
 10
-35.8095876150386
 20
26.24957546962424
 30
0.0
 11
-35.74207298348216
 21
26.18206080473158
 31
0.0
  0
LINE
  5
203
330
2
100
AcDbEntity
  8
GAIKEI
  6
Continuous
 62
     1
100
AcDbLine
 10
4.32331839168529
 20
26.31522326865843
 30
0.0
 11
4.390833056578003
 21
26.38273790021486
 31
0.0
  0
LINE
  5
204
330
2
100
AcDbEntity
  8
GAIKEI
  6
Continuous
 62
     1
100
AcDbLine
 10
4.523995487168576
 20
26.24957546962424
 30
0.0
 11
4.456480855612142
 21
26.18206080473158
 31
0.0
  0
LINE
  5
205
330
2
100
AcDbEntity
  8
GAIKEI
  6
Continuous
 62
     1
100
AcDbLine
 10
-35.74202524590766
 20
26.15899192188237
 30
0.0
 11
-35.74202524590766
 21
2.472906832447449
 31
0.0
  0
LINE
  5
206
330
2
100
AcDbEntity
  8
GAIKEI
  6
Continuous
 62
     1
100
AcDbLine
 10
4.456433118037637
 20
26.15899192188237
 30
0.0
 11
4.456433118037637
 21
2.472906832447449
 31
0.0
  0
LINE
  5
207
330
2
100
AcDbEntity
  8
GAIKEI
  6
Continuous
 62
     1
100
AcDbLine
 10
4.300249508836088
 20
26.31517553108392
 30
0.0
 11
-35.58584163670611
 21
26.31517553108392
 31
0.0
  0
LINE
  5
208
330
2
100
AcDbEntity
  8
GAIKEI
  6
Continuous
 62
     1
100
AcDbLine
 10
-35.58584163670611
 20
2.316723223245901
 30
0.0
 11
4.300249508836088
 21
2.316723223245901
 31
0.0
  0
LINE
  5
209
330
2
100
AcDbEntity
  8
GAIKEI
  6
Continuous
 62
     1
100
AcDbLine
 10
2.747833220373763
 20
24.69775346729358
 30
0.0
 11
-34.03342534824378
 21
24.69775346729358
 31
0.0
  0
LINE
  5
20A
330
2
100
AcDbEntity
  8
GAIKEI
  6
Continuous
 62
     1
100
AcDbLine
 10
-34.03342534824378
 20
3.934145287036244
 30
0.0
 11
2.747833220373763
 21
3.934145287036244
 31
0.0
  0
LINE
  5
20B
330
2
100
AcDbEntity
  8
GAIKEI
  6
Continuous
 62
     1
100
AcDbLine
 10
-34.09960372774981
 20
24.63158062161256
 30
0.0
 11
-34.09960372774981
 21
4.000318132717325
 31
0.0
  0
LINE
  5
20C
330
2
100
AcDbEntity
  8
GAIKEI
  6
Continuous
 62
     1
100
AcDbLine
 10
2.81401159987979
 20
24.63158062161256
 30
0.0
 11
2.81401159987979
 21
4.000318132717325
 31
0.0
  0
LINE
  5
20D
330
2
100
AcDbEntity
  8
GAIKEI
  6
Continuous
 62
     1
100
AcDbLine
 10
2.747833220373763
 20
3.90288340962769
 30
0.0
 11
-34.03342534824378
 21
3.90288340962769
 31
0.0
  0
LINE
  5
20E
330
2
100
AcDbEntity
  8
GAIKEI
  6
Continuous
 62
     1
100
AcDbLine
 10
-34.03342534824378
 20
24.72901534470214
 30
0.0
 11
2.747833220373763
 21
24.72901534470214
 31
0.0
  0
LINE
  5
20F
330
2
100
AcDbEntity
  8
GAIKEI
  6
Continuous
 62
     1
100
AcDbLine
 10
-34.6361501629757
 20
25.27930666773603
 30
0.0
 11
3.350558035105734
 21
25.27930666773603
 31
0.0
  0
LINE
  5
210
330
2
100
AcDbEntity
  8
GAIKEI
  6
Continuous
 62
     1
100
AcDbLine
 10
3.350558035105734
 20
3.352592086593858
 30
0.0
 11
-34.6361501629757
 21
3.352592086593858
 31
0.0
  0
LINE
  5
211
330
2
100
AcDbEntity
  8
GAIKEI
  6
Continuous
 62
     1
100
AcDbLine
 10
-34.70282275305573
 20
3.419264676673833
 30
0.0
 11
-34.70282275305573
 21
25.21263407765599
 31
0.0
  0
LINE
  5
212
330
2
100
AcDbEntity
  8
GAIKEI
  6
Continuous
 62
     1
100
AcDbLine
 10
-34.13083896945864
 20
4.000318132717325
 30
0.0
 11
-34.13083896945864
 21
24.63158062161256
 31
0.0
  0
LINE
  5
213
330
2
100
AcDbEntity
  8
GAIKEI
  6
Continuous
 62
     1
100
AcDbLine
 10
3.417230625185709
 20
3.419264676673833
 30
0.0
 11
3.417230625185709
 21
25.21263407765599
 31
0.0
  0
LINE
  5
214
330
2
100
AcDbEntity
  8
GAIKEI
  6
Continuous
 62
     1
100
AcDbLine
 10
2.845246841588618
 20
4.000318132717325
 30
0.0
 11
2.845246841588618
 21
24.63158062161256
 31
0.0
  0
LINE
  5
215
330
2
100
AcDbEntity
  8
GAIKEI
  6
Continuous
 62
     1
100
AcDbLine
 10
-34.697158416484
 20
3.394596785096837
 30
0.0
 11
-34.12703239793689
 21
3.973061744503013
 31
0.0
  0
LINE
  5
216
330
2
100
AcDbEntity
  8
GAIKEI
  6
Continuous
 62
     1
100
AcDbLine
 10
-34.06090585636963
 20
3.906753786818171
 30
0.0
 11
-34.60707895959587
 21
3.352592086593858
 31
0.0
  0
LINE
  5
217
330
2
100
AcDbEntity
  8
GAIKEI
  6
Continuous
 62
     1
100
AcDbLine
 10
3.411566288613983
 20
3.394596785096837
 30
0.0
 11
2.841440270066868
 21
3.973061744503013
 31
0.0
  0
LINE
  5
218
330
2
100
AcDbEntity
  8
GAIKEI
  6
Continuous
 62
     1
100
AcDbLine
 10
2.775313728499668
 20
3.906753786818171
 30
0.0
 11
3.321486831725906
 21
3.352592086593858
 31
0.0
  0
LINE
  5
219
330
2
100
AcDbEntity
  8
GAIKEI
  6
Continuous
 62
     1
100
AcDbLine
 10
-34.12703239793689
 20
24.65883700982687
 30
0.0
 11
-34.697158416484
 21
25.23730196923305
 31
0.0
  0
LINE
  5
21A
330
2
100
AcDbEntity
  8
GAIKEI
  6
Continuous
 62
     1
100
AcDbLine
 10
-34.60626160757767
 20
25.27847736072431
 30
0.0
 11
-34.06090585636963
 21
24.72514496751171
 31
0.0
  0
LINE
  5
21B
330
2
100
AcDbEntity
  8
GAIKEI
  6
Continuous
 62
     1
100
AcDbLine
 10
3.321486831725906
 20
25.27930666773603
 30
0.0
 11
2.775313728499668
 21
24.72514496751171
 31
0.0
  0
LINE
  5
21C
330
2
100
AcDbEntity
  8
GAIKEI
  6
Continuous
 62
     1
100
AcDbLine
 10
2.841440270066868
 20
24.65883700982687
 30
0.0
 11
3.411566288613983
 21
25.23730196923305
 31
0.0
  0
LINE
  5
21D
330
2
100
AcDbEntity
  8
GAIKEI
  6
Continuous
 62
     1
100
AcDbLine
 10
-35.71865123595001
 20
2.472906832447449
 30
0.0
 11
-35.71865123595001
 21
26.15899192188237
 31
0.0
  0
LINE
  5
21E
330
2
100
AcDbEntity
  8
GAIKEI
  6
Continuous
 62
     1
100
AcDbLine
 10
-35.58584163670611
 20
26.29180152112628
 30
0.0
 11
4.300249508836088
 21
26.29180152112628
 31
0.0
  0
LINE
  5
21F
330
2
100
AcDbEntity
  8
GAIKEI
  6
Continuous
 62
     1
100
AcDbLine
 10
4.433059108079987
 20
2.472906832447449
 30
0.0
 11
4.433059108079987
 21
26.15899192188237
 31
0.0
  0
LINE
  5
220
330
2
100
AcDbEntity
  8
GAIKEI
  6
Continuous
 62
     1
100
AcDbLine
 10
4.300249508836088
 20
2.34009723320355
 30
0.0
 11
-35.58584163670611
 21
2.34009723320355
 31
0.0
  0
LINE
  5
221
330
2
100
AcDbEntity
  8
GAIKEI
  6
Continuous
 62
     1
100
AcDbLine
 10
-35.71865123595001
 20
26.15899192188237
 30
0.0
 11
-35.56268694623355
 21
26.00302763216593
 31
0.0
  0
LINE
  5
222
330
2
100
AcDbEntity
  8
GAIKEI
  6
Continuous
 62
     1
100
AcDbLine
 10
-35.42987734698966
 20
26.13583723140982
 30
0.0
 11
-35.58584163670611
 21
26.29180152112628
 31
0.0
  0
LINE
  5
223
330
2
100
AcDbEntity
  8
GAIKEI
  6
Continuous
 62
     1
100
AcDbLine
 10
-35.58584163670611
 20
2.34009723320355
 30
0.0
 11
-35.42987734698966
 21
2.496061522920058
 31
0.0
  0
LINE
  5
224
330
2
100
AcDbEntity
  8
GAIKEI
  6
Continuous
 62
     1
100
AcDbLine
 10
-35.56268694623355
 20
2.6288711221639
 30
0.0
 11
-35.71865123595001
 21
2.472906832447449
 31
0.0
  0
LINE
  5
225
330
2
100
AcDbEntity
  8
GAIKEI
  6
Continuous
 62
     1
100
AcDbLine
 10
4.433059108079987
 20
26.15899192188237
 30
0.0
 11
4.277094818363536
 21
26.00302763216593
 31
0.0
  0
LINE
  5
226
330
2
100
AcDbEntity
  8
GAIKEI
  6
Continuous
 62
     1
100
AcDbLine
 10
4.144285219119637
 20
26.13583723140982
 30
0.0
 11
4.300249508836088
 21
26.29180152112628
 31
0.0
  0
LINE
  5
227
330
2
100
AcDbEntity
  8
GAIKEI
  6
Continuous
 62
     1
100
AcDbLine
 10
4.300249508836088
 20
2.34009723320355
 30
0.0
 11
4.144285219119637
 21
2.496061522920058
 31
0.0
  0
LINE
  5
228
330
2
100
AcDbEntity
  8
GAIKEI
  6
Continuous
 62
     1
100
AcDbLine
 10
4.277094818363536
 20
2.6288711221639
 30
0.0
 11
4.433059108079987
 21
2.472906832447449
 31
0.0
  0
LINE
  5
229
330
2
100
AcDbEntity
  8
GAIKEI
  6
Continuous
 62
     1
100
AcDbLine
 10
-35.07452244275174
 20
2.66086396451385
 30
0.0
 11
-35.14786229183972
 21
2.66086396451385
 31
0.0
  0
LINE
  5
22A
330
2
100
AcDbEntity
  8
GAIKEI
  6
Continuous
 62
     1
100
AcDbLine
 10
-33.85108041478367
 20
2.797542774177827
 30
0.0
 11
-33.85108041478367
 21
2.597525003937789
 31
0.0
  0
LINE
  5
22B
330
2
100
AcDbEntity
  8
GAIKEI
  6
Continuous
 62
     1
100
AcDbLine
 10
-35.14786229183972
 20
2.66086396451385
 30
0.0
 11
-35.14786229183972
 21
2.734203813601823
 31
0.0
  0
LINE
  5
22C
330
2
100
AcDbEntity
  8
GAIKEI
  6
Continuous
 62
     1
100
AcDbLine
 10
-35.14786229183972
 20
2.734203813601823
 30
0.0
 11
-35.07452244275174
 21
2.734203813601823
 31
0.0
  0
LINE
  5
22D
330
2
100
AcDbEntity
  8
GAIKEI
  6
Continuous
 62
     1
100
AcDbLine
 10
-35.07452244275174
 20
2.734203813601823
 30
0.0
 11
-35.07452244275174
 21
2.66086396451385
 31
0.0
  0
LINE
  5
22E
330
2
100
AcDbEntity
  8
GAIKEI
  6
Continuous
 62
     1
100
AcDbLine
 10
-33.86774856230369
 20
2.580856856417824
 30
0.0
 11
-34.06776633254373
 21
2.580856856417824
 31
0.0
  0
LINE
  5
22F
330
2
100
AcDbEntity
  8
GAIKEI
  6
Continuous
 62
     1
100
AcDbLine
 10
-34.08443448006369
 20
2.597525003937789
 30
0.0
 11
-34.08443448006369
 21
2.797542774177827
 31
0.0
  0
LINE
  5
230
330
2
100
AcDbEntity
  8
GAIKEI
  6
Continuous
 62
     1
100
AcDbLine
 10
-34.06776633254373
 20
2.814210921697849
 30
0.0
 11
-33.86774856230369
 21
2.814210921697849
 31
0.0
  0
LINE
  5
231
330
2
100
AcDbEntity
  8
GAIKEI
  6
Continuous
 62
     1
100
AcDbLine
 10
3.350558035105734
 20
25.3472886741489
 30
0.0
 11
-34.6361501629757
 21
25.3472886741489
 31
0.0
  0
LINE
  5
232
330
2
100
AcDbEntity
  8
GAIKEI
  6
Continuous
 62
     1
100
AcDbLine
 10
-34.6361501629757
 20
3.284610080180982
 30
0.0
 11
3.350558035105734
 21
3.284610080180982
 31
0.0
  0
LINE
  5
233
330
2
100
AcDbEntity
  8
GAIKEI
  6
Continuous
 62
     1
100
AcDbLine
 10
3.485212631598585
 20
25.21263407765599
 30
0.0
 11
3.485212631598585
 21
3.419264676673833
 31
0.0
  0
LINE
  5
234
330
2
100
AcDbEntity
  8
GAIKEI
  6
Continuous
 62
     1
100
AcDbLine
 10
-34.7708047594686
 20
25.21263407765599
 30
0.0
 11
-34.7708047594686
 21
3.419264676673833
 31
0.0
  0
LINE
  5
235
330
2
100
AcDbEntity
  8
GAIKEI
  6
Continuous
 62
     1
100
AcDbLine
 10
-35.56268694623355
 20
26.00302763216593
 30
0.0
 11
-35.56268694623355
 21
2.6288711221639
 31
0.0
  0
LINE
  5
236
330
2
100
AcDbEntity
  8
GAIKEI
  6
Continuous
 62
     1
100
AcDbLine
 10
4.144285219119637
 20
26.13583723140982
 30
0.0
 11
-35.42987734698966
 21
26.13583723140982
 31
0.0
  0
LINE
  5
237
330
2
100
AcDbEntity
  8
GAIKEI
  6
Continuous
 62
     1
100
AcDbLine
 10
4.277094818363536
 20
26.00302763216593
 30
0.0
 11
4.277094818363536
 21
2.6288711221639
 31
0.0
  0
LINE
  5
238
330
2
100
AcDbEntity
  8
GAIKEI
  6
Continuous
 62
     1
100
AcDbLine
 10
-35.42987734698966
 20
2.496061522920058
 30
0.0
 11
4.144285219119637
 21
2.496061522920058
 31
0.0
  0
SPLINE
  5
239
330
2
100
AcDbEntity
  8
GAIKEI
  6
Continuous
 62
     1
100
AcDbSpline
210
0.0
220
0.0
230
1.0
 70
     8
 71
     3
 72
    21
 73
    17
 74
    15
 42
0.0000000001
 43
0.0000000001
 44
0.000001
 12
-0.0001490760298766
 22
-0.9999999888881687
 32
0.0
 13
0.9999997489039975
 23
0.0007086550233522
 33
0.0
 40
0.0
 40
0.0
 40
0.0
 40
0.0
 40
0.0146800531684178
 40
0.0294098671609969
 40
0.0440944857460786
 40
0.0587961819046507
 40
0.0735433082183418
 40
0.0882452749644542
 40
0.103128986356457
 40
0.1180596885229536
 40
0.1329432357532041
 40
0.1478756372181133
 40
0.1628556352591372
 40
0.1777879301772848
 40
0.1934470599830163
 40
0.2091023769872336
 40
0.2091023769872336
 40
0.2091023769872336
 40
0.2091023769872336
 10
-35.74207297040477
 20
2.449837933973753
 30
0.0
 10
-35.74207369988612
 20
2.444944582971984
 30
0.0
 10
-35.74154011026367
 20
2.435132340370941
 30
0.0
 10
-35.73912159401775
 20
2.420606114130166
 30
0.0
 10
-35.73513137494347
 20
2.406420340680071
 30
0.0
 10
-35.72955733662125
 20
2.392772783250407
 30
0.0
 10
-35.72252466087881
 20
2.379812194192567
 30
0.0
 10
-35.71408421920437
 20
2.36764479719504
 30
0.0
 10
-35.70427624360365
 20
2.356467357763648
 30
0.0
 10
-35.69325214345445
 20
2.346400338484187
 30
0.0
 10
-35.68117016727699
 20
2.337599727323464
 30
0.0
 10
-35.66814504446694
 20
2.330232865498302
 30
0.0
 10
-35.65437052684468
 20
2.324349079950508
 30
0.0
 10
-35.63979245825989
 20
2.319964187082561
 30
0.0
 10
-35.6245775984048
 20
2.317275145524945
 30
0.0
 10
-35.61412897287088
 20
2.316671800675806
 30
0.0
 10
-35.6089105351798
 20
2.316675498748821
 30
0.0
 11
-35.74207297040477
 21
2.449837933973753
 31
0.0
 11
-35.74127284420524
 21
2.435179136264991
 31
0.0
 11
-35.73885731015969
 21
2.42064872225103
 31
0.0
 11
-35.73487061343985
 21
2.4065156136474
 31
0.0
 11
-35.72932171602849
 21
2.392901270307362
 31
0.0
 11
-35.72228853657867
 21
2.379939296260886
 31
0.0
 11
-35.71390085166786
 21
2.367864728491838
 31
0.0
 11
-35.70409180355517
 21
2.356670618402773
 31
0.0
 11
-35.69306644610492
 21
2.346602450064693
 31
0.0
 11
-35.68102982215453
 21
2.337848004134741
 31
0.0
 11
-35.66803733747713
 21
2.330487804111186
 31
0.0
 11
-35.65426099068594
 21
2.324604504292494
 31
0.0
 11
-35.63995928415284
 21
2.320310863334668
 31
0.0
 11
-35.62454035621954
 21
2.317578574461492
 31
0.0
 11
-35.6089105351798
 21
2.316675498748821
 31
0.0
  0
SPLINE
  5
23A
330
2
100
AcDbEntity
  8
GAIKEI
  6
Continuous
 62
     1
100
AcDbSpline
210
0.0
220
0.0
230
1.0
 70
     8
 71
     3
 72
    21
 73
    17
 74
    15
 42
0.0000000001
 43
0.0000000001
 44
0.000001
 12
0.0001490760298765
 22
-0.9999999888881687
 32
0.0
 13
-0.9999997489039975
 23
0.000708655023352
 33
0.0
 40
0.0
 40
0.0
 40
0.0
 40
0.0
 40
0.0146800531684205
 40
0.0294098671609996
 40
0.0440944857460659
 40
0.0587961819046433
 40
0.073543308218331
 40
0.0882452749644394
 40
0.1031289863564469
 40
0.1180596885229855
 40
0.1329432357531899
 40
0.1478756372180992
 40
0.1628556352591296
 40
0.1777879301772704
 40
0.1934470599830018
 40
0.2091023769872192
 40
0.2091023769872192
 40
0.2091023769872192
 40
0.2091023769872192
 10
4.456480842534801
 20
2.449837933973753
 30
0.0
 10
4.456481572016144
 20
2.444944582971984
 30
0.0
 10
4.455947982393638
 20
2.435132340370955
 30
0.0
 10
4.453529466147728
 20
2.420606114130151
 30
0.0
 10
4.449539247073531
 20
2.406420340680071
 30
0.0
 10
4.443965208751265
 20
2.392772783250393
 30
0.0
 10
4.436932533008828
 20
2.379812194192567
 30
0.0
 10
4.428492091334447
 20
2.367644797195055
 30
0.0
 10
4.418684115733668
 20
2.356467357763648
 30
0.0
 10
4.407660015584454
 20
2.346400338484215
 30
0.0
 10
4.395578039407013
 20
2.337599727323464
 30
0.0
 10
4.382552916596978
 20
2.330232865498317
 30
0.0
 10
4.368778398974711
 20
2.324349079950508
 30
0.0
 10
4.354200330389929
 20
2.319964187082561
 30
0.0
 10
4.338985470534836
 20
2.317275145524952
 30
0.0
 10
4.328536845000911
 20
2.316671800675806
 30
0.0
 10
4.323318407309841
 20
2.316675498748821
 30
0.0
 11
4.456480842534801
 21
2.449837933973753
 31
0.0
 11
4.455680716335223
 21
2.435179136264991
 31
0.0
 11
4.453265182289669
 21
2.42064872225103
 31
0.0
 11
4.449278485569891
 21
2.4065156136474
 31
0.0
 11
4.443729588158532
 21
2.392901270307362
 31
0.0
 11
4.436696408708712
 21
2.379939296260886
 31
0.0
 11
4.428308723797897
 21
2.367864728491838
 31
0.0
 11
4.418499675685211
 21
2.356670618402773
 31
0.0
 11
4.407474318234903
 21
2.346602450064693
 31
0.0
 11
4.395437694284566
 21
2.337848004134741
 31
0.0
 11
4.382445209607169
 21
2.330487804111186
 31
0.0
 11
4.368668862815979
 21
2.324604504292494
 31
0.0
 11
4.354367156282876
 21
2.320310863334668
 31
0.0
 11
4.338948228349579
 21
2.317578574461492
 31
0.0
 11
4.323318407309841
 21
2.316675498748821
 31
0.0
  0
SPLINE
  5
23B
330
2
100
AcDbEntity
  8
GAIKEI
  6
Continuous
 62
     1
100
AcDbSpline
210
0.0
220
0.0
230
1.0
 70
     8
 71
     3
 72
    21
 73
    17
 74
    15
 42
0.0000000001
 43
0.0000000001
 44
0.000001
 12
-0.9999999888881687
 22
0.0001490760296198
 32
0.0
 13
0.0007086550231108
 23
-0.9999997489039976
 33
0.0
 40
0.0
 40
0.0
 40
0.0
 40
0.0
 40
0.0146800531684686
 40
0.0294098671610617
 40
0.0440944857461211
 40
0.058796181904683
 40
0.0735433082183655
 40
0.0882452749644985
 40
0.1031289863565034
 40
0.118059688523
 40
0.1329432357531919
 40
0.1478756372181082
 40
0.1628556352591787
 40
0.1777879301772923
 40
0.1934470599830138
 40
0.2091023769872327
 40
0.2091023769872327
 40
0.2091023769872327
 40
0.2091023769872327
 10
-35.6089105351798
 20
26.31522325558106
 30
0.0
 10
-35.61380388618159
 20
26.3152239850624
 30
0.0
 10
-35.62361612878265
 20
26.31469039543993
 30
0.0
 10
-35.63814235502345
 20
26.31227187919404
 30
0.0
 10
-35.65232812847354
 20
26.3082816601198
 30
0.0
 10
-35.66597568590319
 20
26.30270762179754
 30
0.0
 10
-35.67893627496098
 20
26.29567494605503
 30
0.0
 10
-35.6911036719586
 20
26.28723450438071
 30
0.0
 10
-35.70228111138991
 20
26.27742652877987
 30
0.0
 10
-35.71234813066939
 20
26.26640242863073
 30
0.0
 10
-35.7211487418301
 20
26.25432045245329
 30
0.0
 10
-35.72851560365528
 20
26.24129532964325
 30
0.0
 10
-35.73439938920309
 20
26.22752081202101
 30
0.0
 10
-35.73878428207109
 20
26.21294274343617
 30
0.0
 10
-35.74147332362857
 20
26.19772788358114
 30
0.0
 10
-35.74207666847777
 20
26.1872792580472
 30
0.0
 10
-35.74207297040477
 20
26.18206082035613
 30
0.0
 11
-35.6089105351798
 21
26.31522325558106
 31
0.0
 11
-35.62356933288862
 21
26.31442312938151
 31
0.0
 11
-35.63809974690258
 21
26.31200759533596
 31
0.0
 11
-35.65223285550621
 21
26.30802089861618
 31
0.0
 11
-35.66584719884622
 21
26.30247200120479
 31
0.0
 11
-35.67880917289267
 21
26.29543882175494
 31
0.0
 11
-35.69088374066178
 21
26.28705113684416
 31
0.0
 11
-35.70207785075081
 21
26.27724208873144
 31
0.0
 11
-35.71214601908889
 21
26.26621673128119
 31
0.0
 11
-35.72090046501882
 21
26.25418010733085
 31
0.0
 11
-35.7282606650424
 21
26.24118762265346
 31
0.0
 11
-35.73414396486112
 21
26.22741127586224
 31
0.0
 11
-35.73843760581894
 21
26.21310956932916
 31
0.0
 11
-35.74116989469207
 21
26.19769064139587
 31
0.0
 11
-35.74207297040477
 21
26.18206082035613
 31
0.0
  0
SPLINE
  5
23C
330
2
100
AcDbEntity
  8
GAIKEI
  6
Continuous
 62
     1
100
AcDbSpline
210
0.0
220
0.0
230
1.0
 70
     8
 71
     3
 72
    21
 73
    17
 74
    15
 42
0.0000000001
 43
0.0000000001
 44
0.000001
 12
0.9999999888881687
 22
0.00014907602962
 32
0.0
 13
-0.0007086550231109
 23
-0.9999997489039976
 33
0.0
 40
0.0
 40
0.0
 40
0.0
 40
0.0
 40
0.0146800531684757
 40
0.0294098671610548
 40
0.0440944857460664
 40
0.0587961819046282
 40
0.0735433082183545
 40
0.0882452749644466
 40
0.1031289863564515
 40
0.1180596885229481
 40
0.1329432357531693
 40
0.1478756372180645
 40
0.1628556352591322
 40
0.1777879301772458
 40
0.1934470599829772
 40
0.2091023769871962
 40
0.2091023769871962
 40
0.2091023769871962
 40
0.2091023769871962
 10
4.323318407309841
 20
26.31522325558106
 30
0.0
 10
4.328211758311624
 20
26.3152239850624
 30
0.0
 10
4.338024000912682
 20
26.31469039543994
 30
0.0
 10
4.352550227153457
 20
26.31227187919399
 30
0.0
 10
4.366736000603538
 20
26.30828166011985
 30
0.0
 10
4.380383558033187
 20
26.30270762179751
 30
0.0
 10
4.393344147090999
 20
26.29567494605507
 30
0.0
 10
4.405511544088597
 20
26.28723450438071
 30
0.0
 10
4.416688983519875
 20
26.27742652877986
 30
0.0
 10
4.426756002799351
 20
26.26640242863073
 30
0.0
 10
4.435556613960159
 20
26.2543204524533
 30
0.0
 10
4.442923475785235
 20
26.24129532964327
 30
0.0
 10
4.448807261333101
 20
26.22752081202101
 30
0.0
 10
4.453192154201033
 20
26.2129427434362
 30
0.0
 10
4.455881195758635
 20
26.19772788358114
 30
0.0
 10
4.456484540607817
 20
26.1872792580472
 30
0.0
 10
4.456480842534801
 20
26.18206082035613
 30
0.0
 11
4.323318407309841
 21
26.31522325558106
 31
0.0
 11
4.33797720501866
 21
26.31442312938151
 31
0.0
 11
4.352507619032621
 21
26.31200759533596
 31
0.0
 11
4.366640727636195
 21
26.30802089861618
 31
0.0
 11
4.380255070976204
 21
26.30247200120479
 31
0.0
 11
4.393217045022709
 21
26.29543882175494
 31
0.0
 11
4.405291612791756
 21
26.28705113684416
 31
0.0
 11
4.416485722880793
 21
26.27724208873144
 31
0.0
 11
4.426553891218873
 21
26.26621673128119
 31
0.0
 11
4.435308337148853
 21
26.25418010733085
 31
0.0
 11
4.44266853717238
 21
26.24118762265346
 31
0.0
 11
4.4485518369911
 21
26.22741127586224
 31
0.0
 11
4.452845477948926
 21
26.21310956932916
 31
0.0
 11
4.455577766822102
 21
26.19769064139587
 31
0.0
 11
4.456480842534801
 21
26.18206082035613
 31
0.0
  0
SPLINE
  5
23D
330
2
100
AcDbEntity
  8
GAIKEI
  6
Continuous
 62
     1
100
AcDbSpline
210
0.0
220
0.0
230
1.0
 70
     8
 71
     3
 72
    14
 73
    10
 74
     8
 42
0.0000000001
 43
0.0000000001
 44
0.000001
 12
0.2697836156325394
 22
-0.962920973255975
 32
0.0
 13
0.9616843088117285
 23
-0.2741592423853476
 33
0.0
 40
0.0
 40
0.0
 40
0.0
 40
0.0
 40
0.0000378405968451
 40
0.0111891984537606
 40
0.022341586963257
 40
0.0334914632169824
 40
0.0446413298613385
 40
0.0558040986429959
 40
0.0669660519622347
 40
0.0669660519622347
 40
0.0669660519622347
 40
0.0669660519622347
 10
-34.097171996518
 20
3.982041226887986
 30
0.0
 10
-34.09716859359366
 20
3.982029081053198
 30
0.0
 10
-34.09616121937425
 20
3.978437978016174
 30
0.0
 10
-34.09352087000805
 20
3.971430237686519
 30
0.0
 10
-34.08788909360172
 20
3.961745617415772
 30
0.0
 10
-34.08066254614147
 20
3.953181609071179
 30
0.0
 10
-34.07211011262656
 20
3.945937110767715
 30
0.0
 10
-34.06243137618594
 20
3.940278704668827
 30
0.0
 10
-34.05543051111275
 20
3.93763883759837
 30
0.0
 10
-34.05185241932514
 20
3.936618786709857
 30
0.0
 11
-34.097171996518
 21
3.982041226887986
 31
0.0
 11
-34.09716177710266
 21
3.982004792004659
 31
0.0
 11
-34.09324193857697
 21
3.971564545706883
 31
0.0
 11
-34.08762345208936
 21
3.961930910622442
 31
0.0
 11
-34.08044269852428
 21
3.953401147033105
 31
0.0
 11
-34.07192711690612
 21
3.946203587907888
 31
0.0
 11
-34.06229530655327
 21
3.940561295883981
 31
0.0
 11
-34.05185241932514
 21
3.936618786709857
 31
0.0
  0
SPLINE
  5
23E
330
2
100
AcDbEntity
  8
GAIKEI
  6
Continuous
 62
     1
100
AcDbSpline
210
0.0
220
0.0
230
1.0
 70
     8
 71
     3
 72
    14
 73
    10
 74
     8
 42
0.0000000001
 43
0.0000000001
 44
0.000001
 12
-0.2697836156325397
 22
-0.962920973255975
 32
0.0
 13
-0.9616843088117285
 23
-0.2741592423853476
 33
0.0
 40
0.0
 40
0.0
 40
0.0
 40
0.0
 40
0.0000378405968763
 40
0.0111891984537602
 40
0.022341586963253
 40
0.0334914632170196
 40
0.0446413298613323
 40
0.0558040986429897
 40
0.0669660519622285
 40
0.0669660519622285
 40
0.0669660519622285
 40
0.0669660519622285
 10
2.811579868648038
 20
3.982041226887986
 30
0.0
 10
2.811576465723689
 20
3.982029081053198
 30
0.0
 10
2.810569091502543
 20
3.978437978012479
 30
0.0
 10
2.807928742138884
 20
3.971430237688224
 30
0.0
 10
2.802296965731571
 20
3.961745617415274
 30
0.0
 10
2.795070418271492
 20
3.95318160907135
 30
0.0
 10
2.786517984756585
 20
3.945937110767658
 30
0.0
 10
2.776839248315965
 20
3.940278704668841
 30
0.0
 10
2.769838383242785
 20
3.93763883759837
 30
0.0
 10
2.766260291455182
 20
3.936618786709857
 30
0.0
 11
2.811579868648038
 21
3.982041226887986
 31
0.0
 11
2.811569649232637
 21
3.982004792004659
 31
0.0
 11
2.807649810707005
 21
3.971564545706883
 31
0.0
 11
2.802031324219399
 21
3.961930910622442
 31
0.0
 11
2.794850570654261
 21
3.953401147033105
 31
0.0
 11
2.786334989036163
 21
3.946203587907888
 31
0.0
 11
2.776703178683305
 21
3.940561295883981
 31
0.0
 11
2.766260291455182
 21
3.936618786709857
 31
0.0
  0
SPLINE
  5
23F
330
2
100
AcDbEntity
  8
GAIKEI
  6
Continuous
 62
     1
100
AcDbSpline
210
0.0
220
0.0
230
1.0
 70
     8
 71
     3
 72
    19
 73
    15
 74
    13
 42
0.0000000001
 43
0.0000000001
 44
0.000001
 12
-0.963993839467831
 22
0.2659245710122877
 32
0.0
 13
-0.26346002757732
 23
0.9646703135625962
 33
0.0
 40
0.0
 40
0.0
 40
0.0
 40
0.0
 40
0.0080455644807649
 40
0.0160915728628309
 40
0.0243810347115466
 40
0.0326706179664328
 40
0.0406926484299314
 40
0.0487147353963949
 40
0.0569835490403169
 40
0.0652522942794894
 40
0.0733062202837371
 40
0.0813600285367601
 40
0.0896585537562746
 40
0.0979566571399843
 40
0.0979566571399843
 40
0.0979566571399843
 40
0.0979566571399843
 10
-34.06090584676537
 20
3.906753779147209
 30
0.0
 10
-34.06349113829687
 20
3.90746695024157
 30
0.0
 10
-34.06860419333771
 20
3.909112366743386
 30
0.0
 10
-34.07611360349007
 20
3.912243934419507
 30
0.0
 10
-34.08339714008909
 20
3.916052154457659
 30
0.0
 10
-34.0903142424138
 20
3.920476323381251
 30
0.0
 10
-34.09674878941697
 20
3.925430918882213
 30
0.0
 10
-34.10273510363583
 20
3.930908435757544
 30
0.0
 10
-34.10827754209505
 20
3.936947881625172
 30
0.0
 10
-34.11327773396058
 20
3.94345676045971
 30
0.0
 10
-34.11765323519874
 20
3.950315211910464
 30
0.0
 10
-34.12143704074757
 20
3.957528348225224
 30
0.0
 10
-34.12461329742633
 20
3.96511726649004
 30
0.0
 10
-34.12630367222224
 20
3.970393422136638
 30
0.0
 10
-34.12703241173768
 20
3.973061733467687
 30
0.0
 11
-34.06090584676537
 21
3.906753779147209
 31
0.0
 11
-34.06856550856958
 21
3.909216920193244
 31
0.0
 11
-34.07599082457523
 21
3.912315759712839
 31
0.0
 11
-34.08333722844975
 21
3.916155786368818
 31
0.0
 11
-34.09031962240465
 21
3.920623859935119
 31
0.0
 11
-34.0966764279608
 21
3.92551715365883
 31
0.0
 11
-34.1025938979169
 21
3.930933588184814
 31
0.0
 11
-34.10818590911129
 21
3.937024815743427
 31
0.0
 11
-34.11322231953051
 21
3.943582793721844
 31
0.0
 11
-34.11755549682528
 21
3.950371724997296
 31
0.0
 11
-34.12129600665151
 21
3.957504231512245
 31
0.0
 11
-34.12450206847905
 21
3.965158417042715
 31
0.0
 11
-34.12703241173768
 21
3.973061733467687
 31
0.0
  0
SPLINE
  5
240
330
2
100
AcDbEntity
  8
GAIKEI
  6
Continuous
 62
     1
100
AcDbSpline
210
0.0
220
0.0
230
1.0
 70
     8
 71
     3
 72
    19
 73
    15
 74
    13
 42
0.0000000001
 43
0.0000000001
 44
0.000001
 12
0.9639938394678312
 22
0.2659245710122878
 32
0.0
 13
0.26346002757732
 23
0.9646703135625962
 33
0.0
 40
0.0
 40
0.0
 40
0.0
 40
0.0
 40
0.0080455644807717
 40
0.0160915728627721
 40
0.0243810347114878
 40
0.0326706179664278
 40
0.0406926484298814
 40
0.0487147353963501
 40
0.0569835490402673
 40
0.0652522942794744
 40
0.0733062202836916
 40
0.081360028536741
 40
0.0896585537562774
 40
0.0979566571399698
 40
0.0979566571399698
 40
0.0979566571399698
 40
0.0979566571399698
 10
2.775313718895404
 20
3.906753779147209
 30
0.0
 10
2.777899010426907
 20
3.90746695024157
 30
0.0
 10
2.783012065467744
 20
3.909112366743357
 30
0.0
 10
2.790521475620039
 20
3.912243934419507
 30
0.0
 10
2.797805012219086
 20
3.916052154457702
 30
0.0
 10
2.804722114543807
 20
3.920476323381194
 30
0.0
 10
2.811156661546959
 20
3.925430918882227
 30
0.0
 10
2.81714297576579
 20
3.930908435757544
 30
0.0
 10
2.82268541422502
 20
3.936947881625201
 30
0.0
 10
2.827685606090625
 20
3.943456760459682
 30
0.0
 10
2.832061107328684
 20
3.950315211910492
 30
0.0
 10
2.835844912877604
 20
3.95752834822521
 30
0.0
 10
2.83902116955646
 20
3.965117266489997
 30
0.0
 10
2.840711544352274
 20
3.970393422136652
 30
0.0
 10
2.841440283867711
 20
3.973061733467687
 30
0.0
 11
2.775313718895404
 21
3.906753779147209
 31
0.0
 11
2.782973380699615
 21
3.909216920193244
 31
0.0
 11
2.79039869670521
 21
3.912315759712839
 31
0.0
 11
2.797745100579732
 21
3.916155786368818
 31
0.0
 11
2.804727494534688
 21
3.920623859935119
 31
0.0
 11
2.811084300090783
 21
3.92551715365883
 31
0.0
 11
2.817001770046886
 21
3.930933588184814
 31
0.0
 11
2.822593781241266
 21
3.937024815743427
 31
0.0
 11
2.827630191660546
 21
3.943582793721844
 31
0.0
 11
2.831963368955257
 21
3.950371724997296
 31
0.0
 11
2.835703878781544
 21
3.957504231512245
 31
0.0
 11
2.838909940609141
 21
3.965158417042715
 31
0.0
 11
2.841440283867711
 21
3.973061733467687
 31
0.0
  0
SPLINE
  5
241
330
2
100
AcDbEntity
  8
GAIKEI
  6
Continuous
 62
     1
100
AcDbSpline
210
0.0
220
0.0
230
1.0
 70
     8
 71
     3
 72
    19
 73
    15
 74
    13
 42
0.0000000001
 43
0.0000000001
 44
0.000001
 12
0.2634414923284026
 22
0.9646753755122933
 32
0.0
 13
0.9639886149825482
 23
0.2659435093850355
 33
0.0
 40
0.0
 40
0.0
 40
0.0
 40
0.0
 40
0.0080469836170657
 40
0.0160943919464678
 40
0.0243850109521368
 40
0.0326757504935936
 40
0.0406967337973748
 40
0.0487177849602463
 40
0.0569854589412121
 40
0.0652530764933909
 40
0.0733066642993731
 40
0.0813601339663878
 40
0.0896586163757147
 40
0.0979566568646878
 40
0.0979566568646878
 40
0.0979566568646878
 40
0.0979566568646878
 10
-34.12703241173768
 20
24.65883702086228
 30
0.0
 10
-34.12632577528007
 20
24.66142459650979
 30
0.0
 10
-34.12469337248283
 20
24.66654279859685
 30
0.0
 10
-34.12158126042476
 20
24.67406171679781
 30
0.0
 10
-34.11779214408085
 20
24.68135659626722
 30
0.0
 10
-34.11338664702144
 20
24.68828610024396
 30
0.0
 10
-34.10845000765728
 20
24.6947340341728
 30
0.0
 10
-34.10298989609958
 20
24.70073476851043
 30
0.0
 10
-34.09696677525842
 20
24.70629331592747
 30
0.0
 10
-34.0904725725932
 20
24.71131113581515
 30
0.0
 10
-34.08362677576762
 20
24.7157053088306
 30
0.0
 10
-34.0764242152049
 20
24.71950871412412
 30
0.0
 10
-34.06884396135334
 20
24.72270525152864
 30
0.0
 10
-34.06357225228471
 20
24.72440937184645
 30
0.0
 10
-34.06090584676537
 20
24.72514497518267
 30
0.0
 11
-34.12703241173768
 21
24.65883702086228
 31
0.0
 11
-34.12458877143979
 21
24.66650441170918
 31
0.0
 11
-34.12150911090839
 21
24.67393921779055
 31
0.0
 11
-34.11768837445703
 21
24.68129697639381
 31
0.0
 11
-34.11323873877507
 21
24.68829250499567
 31
0.0
 11
-34.10836361476027
 21
24.69466193715692
 31
0.0
 11
-34.10296435141913
 21
24.70059367817112
 31
0.0
 11
-34.09688959999949
 21
24.70620190349933
 31
0.0
 11
-34.09034659292178
 21
24.71125590349521
 31
0.0
 11
-34.08356997347107
 21
24.71560768416407
 31
0.0
 11
-34.07644801150656
 21
24.71936750712857
 31
0.0
 11
-34.06880247784324
 21
24.72259403730155
 31
0.0
 11
-34.06090584676537
 21
24.72514497518267
 31
0.0
  0
SPLINE
  5
242
330
2
100
AcDbEntity
  8
GAIKEI
  6
Continuous
 62
     1
100
AcDbSpline
210
0.0
220
0.0
230
1.0
 70
     8
 71
     3
 72
    19
 73
    15
 74
    13
 42
0.0000000001
 43
0.0000000001
 44
0.000001
 12
-0.2634414923284028
 22
0.9646753755122933
 32
0.0
 13
-0.9639886149825482
 23
0.2659435093850356
 33
0.0
 40
0.0
 40
0.0
 40
0.0
 40
0.0
 40
0.0080469836170484
 40
0.0160943919464532
 40
0.0243850109521222
 40
0.0326757504935753
 40
0.0406967337973565
 40
0.048717784960228
 40
0.0569854589411938
 40
0.0652530764933669
 40
0.0733066642993551
 40
0.0813601339663697
 40
0.0896586163756902
 40
0.09795665686467
 40
0.09795665686467
 40
0.09795665686467
 40
0.09795665686467
 10
2.841440283867655
 20
24.65883702086228
 30
0.0
 10
2.840733647410047
 20
24.66142459650979
 30
0.0
 10
2.839101244612891
 20
24.66654279859691
 30
0.0
 10
2.835989132554786
 20
24.67406171679778
 30
0.0
 10
2.83220001621089
 20
24.68135659626722
 30
0.0
 10
2.827794519151467
 20
24.68828610024394
 30
0.0
 10
2.822857879787321
 20
24.69473403417282
 30
0.0
 10
2.817397768229596
 20
24.70073476851041
 30
0.0
 10
2.81137464738849
 20
24.70629331592747
 30
0.0
 10
2.804880444723224
 20
24.71131113581514
 30
0.0
 10
2.798034647897679
 20
24.71570530883058
 30
0.0
 10
2.790832087334919
 20
24.71950871412412
 30
0.0
 10
2.783251833483362
 20
24.72270525152868
 30
0.0
 10
2.777980124414753
 20
24.72440937184645
 30
0.0
 10
2.775313718895404
 20
24.72514497518267
 30
0.0
 11
2.841440283867655
 21
24.65883702086228
 31
0.0
 11
2.838996643569828
 21
24.66650441170918
 31
0.0
 11
2.83591698303843
 21
24.67393921779055
 31
0.0
 11
2.83209624658707
 21
24.68129697639381
 31
0.0
 11
2.827646610905105
 21
24.68829250499567
 31
0.0
 11
2.822771486890303
 21
24.69466193715692
 31
0.0
 11
2.81737222354917
 21
24.70059367817112
 31
0.0
 11
2.811297472129524
 21
24.70620190349933
 31
0.0
 11
2.804754465051814
 21
24.71125590349521
 31
0.0
 11
2.79797784560111
 21
24.71560768416407
 31
0.0
 11
2.790855883636595
 21
24.71936750712857
 31
0.0
 11
2.783210349973273
 21
24.72259403730155
 31
0.0
 11
2.775313718895404
 21
24.72514497518267
 31
0.0
  0
SPLINE
  5
243
330
2
100
AcDbEntity
  8
GAIKEI
  6
Continuous
 62
     1
100
AcDbSpline
210
0.0
220
0.0
230
1.0
 70
     8
 71
     3
 72
    19
 73
    15
 74
    13
 42
0.0000000001
 43
0.0000000001
 44
0.000001
 12
0.0944471245025448
 22
0.9955298793472755
 32
0.0
 13
0.9955257326591484
 23
0.0944908229060694
 33
0.0
 40
0.0
 40
0.0
 40
0.0
 40
0.0
 40
0.0114746607580188
 40
0.0229538204373716
 40
0.0343591230295806
 40
0.0457936629856627
 40
0.0572035280088677
 40
0.0746287115525541
 40
0.0920556101582286
 40
0.10906563289104
 40
0.126069362854442
 40
0.1369222365398787
 40
0.1478018299471692
 40
0.1586464376140143
 40
0.1586464376140143
 40
0.1586464376140143
 40
0.1586464376140143
 10
-35.71623631090051
 20
26.18535344355735
 30
0.0
 10
-35.71587506132944
 20
26.18916123277067
 30
0.0
 10
-35.71473780534417
 20
26.19674637952886
 30
0.0
 10
-35.71177880800163
 20
26.20783310696842
 30
0.0
 10
-35.70768586924116
 20
26.21853647878629
 30
0.0
 10
-35.70256588373335
 20
26.22876090950228
 30
0.0
 10
-35.69543173092873
 20
26.24015311521501
 30
0.0
 10
-35.68571945690878
 20
26.25220029039548
 30
0.0
 10
-35.67307598405868
 20
26.26407156278289
 30
0.0
 10
-35.65901576783102
 20
26.273979651475
 30
0.0
 10
-35.64565922009414
 20
26.28083188572543
 30
0.0
 10
-35.63351482979428
 20
26.28527254238229
 30
0.0
 10
-35.62298198361548
 20
26.28798955238061
 30
0.0
 10
-35.615801853712
 20
26.28904502410933
 30
0.0
 10
-35.61220315838102
 20
26.28938659607684
 30
0.0
 11
-35.71623631090051
 21
26.18535344355735
 31
0.0
 11
-35.71452856903665
 21
26.19670120347428
 31
0.0
 11
-35.71158169113841
 21
26.20779578751311
 31
0.0
 11
-35.70751715452616
 21
26.21845231054184
 31
0.0
 11
-35.70240379792426
 21
26.22867983153452
 31
0.0
 11
-35.69634951718433
 21
26.23835086262289
 31
0.0
 11
-35.68542549234371
 21
26.25192612789843
 31
0.0
 11
-35.67271481886462
 21
26.26384722201442
 31
0.0
 11
-35.65880777949371
 21
26.27364153411364
 31
0.0
 11
-35.64366493816294
 21
26.28137597172492
 31
0.0
 11
-35.63347106143101
 21
26.28510024840469
 31
0.0
 11
-35.62293243380628
 21
26.28780308179921
 31
0.0
 11
-35.61220315838102
 21
26.28938659607684
 31
0.0
  0
SPLINE
  5
244
330
2
100
AcDbEntity
  8
GAIKEI
  6
Continuous
 62
     1
100
AcDbSpline
210
0.0
220
0.0
230
1.0
 70
     8
 71
     3
 72
    19
 73
    15
 74
    13
 42
0.0000000001
 43
0.0000000001
 44
0.000001
 12
-0.995529879347374
 22
0.0944471245015059
 32
0.0
 13
-0.0944908229060039
 23
0.9955257326591544
 33
0.0
 40
0.0
 40
0.0
 40
0.0
 40
0.0
 40
0.0114746607580311
 40
0.0229538204374096
 40
0.034359123029622
 40
0.045793662985701
 40
0.0572035280088879
 40
0.074628711552601
 40
0.092055610158256
 40
0.1090656328910797
 40
0.1260693628545011
 40
0.1369222365398722
 40
0.147801829947185
 40
0.1586464376140009
 40
0.1586464376140009
 40
0.1586464376140009
 40
0.1586464376140009
 10
-35.61220315838102
 20
2.342512158253043
 30
0.0
 10
-35.61601094759435
 20
2.342873407824114
 30
0.0
 10
-35.62359609435255
 20
2.344010663809456
 30
0.0
 10
-35.63468282179213
 20
2.346969661151902
 30
0.0
 10
-35.64538619360997
 20
2.351062599912523
 30
0.0
 10
-35.65561062432605
 20
2.356182585420157
 30
0.0
 10
-35.66700283003866
 20
2.363316738224938
 30
0.0
 10
-35.67905000521918
 20
2.373029012244799
 30
0.0
 10
-35.69092127760655
 20
2.385672485094971
 30
0.0
 10
-35.70082936629869
 20
2.399732701322591
 30
0.0
 10
-35.70768160054919
 20
2.413089249059453
 30
0.0
 10
-35.71212225720599
 20
2.425233639359277
 30
0.0
 10
-35.71483926720429
 20
2.435766485538124
 30
0.0
 10
-35.715894738933
 20
2.44294661544157
 30
0.0
 10
-35.71623631090051
 20
2.446545310772535
 30
0.0
 11
-35.61220315838102
 21
2.342512158253043
 31
0.0
 11
-35.62355091829795
 21
2.344219900116939
 31
0.0
 11
-35.63464550233681
 21
2.347166778015179
 31
0.0
 11
-35.64530202536554
 21
2.351231314627455
 31
0.0
 11
-35.65552954635825
 21
2.356344671229294
 31
0.0
 11
-35.66520057744657
 21
2.362398951969282
 31
0.0
 11
-35.67877584272213
 21
2.373322976809902
 31
0.0
 11
-35.6906969368381
 21
2.386033650288993
 31
0.0
 11
-35.70049124893734
 21
2.399940689659899
 31
0.0
 11
-35.70822568654865
 21
2.415083530990671
 31
0.0
 11
-35.71194996322839
 21
2.425277407722546
 31
0.0
 11
-35.71465279662289
 21
2.435816035347301
 31
0.0
 11
-35.71623631090051
 21
2.446545310772535
 31
0.0
  0
SPLINE
  5
245
330
2
100
AcDbEntity
  8
GAIKEI
  6
Continuous
 62
     1
100
AcDbSpline
210
0.0
220
0.0
230
1.0
 70
     8
 71
     3
 72
    19
 73
    15
 74
    13
 42
0.0000000001
 43
0.0000000001
 44
0.000001
 12
-0.0944471245025449
 22
0.9955298793472755
 32
0.0
 13
-0.9955257326591484
 23
0.0944908229060694
 33
0.0
 40
0.0
 40
0.0
 40
0.0
 40
0.0
 40
0.0114746607580262
 40
0.0229538204373808
 40
0.0343591230295898
 40
0.0457936629856687
 40
0.0572035280089039
 40
0.0746287115525948
 40
0.0920556101582693
 40
0.1090656328910807
 40
0.1260693628544827
 40
0.136922236539866
 40
0.1478018299471565
 40
0.1586464376140016
 40
0.1586464376140016
 40
0.1586464376140016
 40
0.1586464376140016
 10
4.430644183030608
 20
26.18535344355735
 30
0.0
 10
4.430282933459523
 20
26.18916123277067
 30
0.0
 10
4.429145677474181
 20
26.19674637952888
 30
0.0
 10
4.426186680131678
 20
26.20783310696842
 30
0.0
 10
4.422093741371185
 20
26.21853647878628
 30
0.0
 10
4.416973755863381
 20
26.22876090950231
 30
0.0
 10
4.409839603058699
 20
26.24015311521498
 30
0.0
 10
4.400127329038767
 20
26.25220029039548
 30
0.0
 10
4.387483856188666
 20
26.26407156278288
 30
0.0
 10
4.373423639961004
 20
26.27397965147502
 30
0.0
 10
4.360067092224113
 20
26.28083188572541
 30
0.0
 10
4.347922701924332
 20
26.28527254238229
 30
0.0
 10
4.337389855745513
 20
26.28798955238063
 30
0.0
 10
4.330209725842038
 20
26.28904502410933
 30
0.0
 10
4.32661103051106
 20
26.28938659607684
 30
0.0
 11
4.430644183030608
 21
26.18535344355735
 31
0.0
 11
4.428936441166683
 21
26.19670120347428
 31
0.0
 11
4.425989563268444
 21
26.20779578751311
 31
0.0
 11
4.421925026656197
 21
26.21845231054184
 31
0.0
 11
4.4168116700543
 21
26.22867983153452
 31
0.0
 11
4.410757389314312
 21
26.23835086262289
 31
0.0
 11
4.399833364473693
 21
26.25192612789843
 31
0.0
 11
4.387122690994601
 21
26.26384722201442
 31
0.0
 11
4.373215651623695
 21
26.27364153411364
 31
0.0
 11
4.358072810292924
 21
26.28137597172492
 31
0.0
 11
4.347878933561048
 21
26.28510024840469
 31
0.0
 11
4.337340305936322
 21
26.28780308179921
 31
0.0
 11
4.32661103051106
 21
26.28938659607684
 31
0.0
  0
SPLINE
  5
246
330
2
100
AcDbEntity
  8
GAIKEI
  6
Continuous
 62
     1
100
AcDbSpline
210
0.0
220
0.0
230
1.0
 70
     8
 71
     3
 72
    19
 73
    15
 74
    13
 42
0.0000000001
 43
0.0000000001
 44
0.000001
 12
0.995529879347374
 22
0.0944471245015057
 32
0.0
 13
0.0944908229060041
 23
0.9955257326591546
 33
0.0
 40
0.0
 40
0.0
 40
0.0
 40
0.0
 40
0.011474660758024
 40
0.0229538204374025
 40
0.0343591230296216
 40
0.0457936629856497
 40
0.0572035280088849
 40
0.074628711552598
 40
0.0920556101582529
 40
0.1090656328910807
 40
0.1260693628544698
 40
0.1369222365398629
 40
0.1478018299471738
 40
0.1586464376139991
 40
0.1586464376139991
 40
0.1586464376139991
 40
0.1586464376139991
 10
4.32661103051106
 20
2.342512158253043
 30
0.0
 10
4.330418819724386
 20
2.342873407824114
 30
0.0
 10
4.338003966482574
 20
2.344010663809427
 30
0.0
 10
4.34909069392215
 20
2.346969661151916
 30
0.0
 10
4.359794065740018
 20
2.351062599912495
 30
0.0
 10
4.37001849645604
 20
2.356182585420171
 30
0.0
 10
4.381410702168707
 20
2.363316738224924
 30
0.0
 10
4.39345787734922
 20
2.373029012244799
 30
0.0
 10
4.405329149736587
 20
2.385672485094957
 30
0.0
 10
4.415237238428758
 20
2.399732701322562
 30
0.0
 10
4.422089472679132
 20
2.413089249059495
 30
0.0
 10
4.426530129336043
 20
2.425233639359277
 30
0.0
 10
4.429247139334279
 20
2.435766485538096
 30
0.0
 10
4.430302611063098
 20
2.442946615441556
 30
0.0
 10
4.430644183030608
 20
2.446545310772535
 30
0.0
 11
4.32661103051106
 21
2.342512158253043
 31
0.0
 11
4.33795879042799
 21
2.344219900116939
 31
0.0
 11
4.349053374466848
 21
2.347166778015179
 31
0.0
 11
4.359709897495577
 21
2.351231314627455
 31
0.0
 11
4.369937418488234
 21
2.356344671229294
 31
0.0
 11
4.379608449576608
 21
2.362398951969282
 31
0.0
 11
4.39318371485217
 21
2.373322976809902
 31
0.0
 11
4.405104808968133
 21
2.386033650288993
 31
0.0
 11
4.414899121067378
 21
2.399940689659899
 31
0.0
 11
4.422633558678626
 21
2.415083530990671
 31
0.0
 11
4.42635783535843
 21
2.425277407722546
 31
0.0
 11
4.429060668752924
 21
2.435816035347301
 31
0.0
 11
4.430644183030608
 21
2.446545310772535
 31
0.0
  0
LINE
  5
247
330
2
100
AcDbEntity
  8
GAIKEI
  6
Continuous
 62
     1
100
AcDbLine
 10
25.89670626574912
 20
25.87645438822477
 30
0.0
 11
26.06518863427971
 21
25.88405359545248
 31
0.0
  0
LINE
  5
248
330
2
100
AcDbEntity
  8
GAIKEI
  6
Continuous
 62
     1
100
AcDbLine
 10
26.04637056242007
 20
26.01894284612615
 30
0.0
 11
25.89670626574912
 21
26.02376720807172
 31
0.0
  0
LINE
  5
249
330
2
100
AcDbEntity
  8
GAIKEI
  6
Continuous
 62
     1
100
AcDbLine
 10
26.97900325392516
 20
4.459480526222421
 30
0.0
 11
26.95013318901317
 21
4.442812378702456
 31
0.0
  0
LINE
  5
24A
330
2
100
AcDbEntity
  8
GAIKEI
  6
Continuous
 62
     1
100
AcDbLine
 10
27.05014207413308
 20
4.459480526222421
 30
0.0
 11
26.97900325392516
 21
4.459480526222421
 31
0.0
  0
LINE
  5
24B
330
2
100
AcDbEntity
  8
GAIKEI
  6
Continuous
 62
     1
100
AcDbLine
 10
26.95013318901317
 20
4.344470308334393
 30
0.0
 11
27.05014207413308
 21
4.355721307910414
 31
0.0
  0
LINE
  5
24C
330
2
100
AcDbEntity
  8
GAIKEI
  6
Continuous
 62
     1
100
AcDbLine
 10
27.08347836917312
 20
4.359471641102459
 30
0.0
 11
27.05014207413308
 21
4.355721307910414
 31
0.0
  0
LINE
  5
24D
330
2
100
AcDbEntity
  8
GAIKEI
  6
Continuous
 62
     1
100
AcDbLine
 10
27.08347836917312
 20
4.459480526222421
 30
0.0
 11
27.08347836917312
 21
4.359471641102459
 31
0.0
  0
LINE
  5
24E
330
2
100
AcDbEntity
  8
GAIKEI
  6
Continuous
 62
     1
100
AcDbLine
 10
27.05014207413308
 20
4.459480526222421
 30
0.0
 11
27.08347836917312
 21
4.459480526222421
 31
0.0
  0
LINE
  5
24F
330
2
100
AcDbEntity
  8
GAIKEI
  6
Continuous
 62
     1
100
AcDbLine
 10
26.98346948405311
 20
4.742839034062455
 30
0.0
 11
26.95013318901317
 21
4.776175329102443
 31
0.0
  0
LINE
  5
250
330
2
100
AcDbEntity
  8
GAIKEI
  6
Continuous
 62
     1
100
AcDbLine
 10
26.95013318901317
 20
4.442812378702456
 30
0.0
 11
26.98346948405311
 21
4.476148673742443
 31
0.0
  0
LINE
  5
251
330
2
100
AcDbEntity
  8
GAIKEI
  6
Continuous
 62
     1
100
AcDbLine
 10
26.98346948405311
 20
4.476148673742443
 30
0.0
 11
26.98346948405311
 21
4.742839034062455
 31
0.0
  0
LINE
  5
252
330
2
100
AcDbEntity
  8
GAIKEI
  6
Continuous
 62
     1
100
AcDbLine
 10
26.68344282869305
 20
4.792843476622465
 30
0.0
 11
26.95013318901317
 21
4.792843476622465
 31
0.0
  0
LINE
  5
253
330
2
100
AcDbEntity
  8
GAIKEI
  6
Continuous
 62
     1
100
AcDbLine
 10
26.95013318901317
 20
4.326135346062415
 30
0.0
 11
26.69091522589895
 21
4.326135346062415
 31
0.0
  0
LINE
  5
254
330
2
100
AcDbEntity
  8
GAIKEI
  6
Continuous
 62
     1
100
AcDbLine
 10
26.95013318901317
 20
4.792843476622465
 30
0.0
 11
26.95013318901317
 21
4.326135346062415
 31
0.0
  0
LINE
  5
255
330
2
100
AcDbEntity
  8
GAIKEI
  6
Continuous
 62
     1
100
AcDbLine
 10
24.39318964318238
 20
2.662539680056625
 30
0.0
 11
24.39370605572879
 21
2.662494476040535
 31
0.0
  0
ELLIPSE
  5
256
330
2
100
AcDbEntity
  8
GAIKEI
  6
Continuous
 62
     7
100
AcDbEllipse
 10
24.78604651255216
 20
26.27803229782299
 30
0.0
 11
-0.2869767173597468
 21
0.0122233693731572
 31
0.0
210
0.0
220
0.0
230
1.0
 40
0.0979550000005576
 41
-0.0556951287901055
 42
0.0307150442121456
  0
ELLIPSE
  5
257
330
2
100
AcDbEntity
  8
GAIKEI
  6
Continuous
 62
     1
100
AcDbEllipse
 10
24.78604651255216
 20
2.353866456506921
 30
0.0
 11
-0.2001980877510127
 21
0.2902428013319058
 31
0.0
210
0.0
220
0.0
230
1.0
 40
0.7084260000000244
 41
0.7388798675130728
 42
0.8252900405155028
  0
ELLIPSE
  5
258
330
2
100
AcDbEntity
  8
GAIKEI
  6
Continuous
 62
     1
100
AcDbEllipse
 10
24.78604651255216
 20
26.27803229782299
 30
0.0
 11
0.2001980877512309
 21
0.2902428013316132
 31
0.0
210
0.0
220
0.0
230
1.0
 40
0.7084260000000006
 41
2.316302613075226
 42
2.402712786077776
  0
ELLIPSE
  5
259
330
2
100
AcDbEntity
  8
GAIKEI
  6
Continuous
 62
     7
100
AcDbEllipse
 10
24.54285850692566
 20
26.26528733218476
 30
0.0
 11
-0.0026170303216906
 21
0.049935913209143
 31
0.0
210
0.0
220
0.0
230
1.0
 40
0.9969939999998402
 41
-0.0000000000786828
 42
1.015719002433118
  0
ELLIPSE
  5
25A
330
2
100
AcDbEntity
  8
GAIKEI
  6
Continuous
 62
     1
100
AcDbEllipse
 10
25.83185863780477
 20
26.24939285340005
 30
0.0
 11
-0.0034917656106537
 21
0.1333451488971089
 31
0.0
210
0.0
220
0.0
230
1.0
 40
0.0261499999999963
 41
0.0006847638988461
 42
1.568742034989258
  0
ELLIPSE
  5
25B
330
2
100
AcDbEntity
  8
GAIKEI
  6
Continuous
 62
     1
100
AcDbEllipse
 10
24.78342948004627
 20
26.27803229782299
 30
0.0
 11
0.1794014869528182
 21
0.2652613547454717
 31
0.0
210
0.0
220
0.0
230
1.0
 40
0.6240159999999813
 41
2.309985920125742
 42
2.396396093127902
  0
ELLIPSE
  5
25C
330
2
100
AcDbEntity
  8
GAIKEI
  6
Continuous
 62
     1
100
AcDbEllipse
 10
24.78342948004627
 20
2.353866456506921
 30
0.0
 11
-0.1794014869538512
 21
0.2652613547436747
 31
0.0
210
0.0
220
0.0
230
1.0
 40
0.6240159999999943
 41
0.7451965604551792
 42
0.8316067334577596
  0
ELLIPSE
  5
25D
330
2
100
AcDbEntity
  8
GAIKEI
  6
Continuous
 62
     1
100
AcDbEllipse
 10
23.28398924333066
 20
26.24867618673341
 30
0.0
 11
2.544377609282683
 21
0.0
 31
0.0
210
0.0
220
0.0
230
1.0
 40
0.052408
 41
0.0
 42
0.0013695278703807
  0
ARC
  5
25E
330
2
100
AcDbEntity
  8
GAIKEI
  6
Continuous
 62
     7
100
AcDbCircle
 10
24.43004261732233
 20
26.11812925817492
 30
0.0
 40
0.0333362950400013
100
AcDbArc
 50
147.9140249999916
 51
180.0
  0
ARC
  5
25F
330
2
100
AcDbEntity
  8
GAIKEI
  6
Continuous
 62
     7
100
AcDbCircle
 10
24.43004261732233
 20
2.513769496154964
 30
0.0
 40
0.0333362950400013
100
AcDbArc
 50
180.0
 51
212.0859750000083
  0
ARC
  5
260
330
2
100
AcDbEntity
  8
GAIKEI
  6
Continuous
 62
     7
100
AcDbCircle
 10
24.54194779268153
 20
26.26523962794653
 30
0.0
 40
0.0500044425600019
100
AcDbArc
 50
92.99999999999908
 51
147.9140249999916
  0
ARC
  5
261
330
2
100
AcDbEntity
  8
GAIKEI
  6
Continuous
 62
     7
100
AcDbCircle
 10
24.54194779268153
 20
2.366659126383297
 30
0.0
 40
0.0500044425600019
100
AcDbArc
 50
212.0859750000083
 51
267.0000000000009
  0
ARC
  5
262
330
2
100
AcDbEntity
  8
GAIKEI
  6
Continuous
 62
     7
100
AcDbCircle
 10
25.86336997070907
 20
2.282497015809781
 30
0.0
 40
0.0333362950400013
100
AcDbArc
 50
270.0
 51
0.0
  0
ARC
  5
263
330
2
100
AcDbEntity
  8
GAIKEI
  6
Continuous
 62
     7
100
AcDbCircle
 10
25.86336997070907
 20
26.34940173852005
 30
0.0
 40
0.0333362950400013
100
AcDbArc
 50
0.0
 51
90.0
  0
LINE
  5
264
330
2
100
AcDbEntity
  8
GAIKEI
  6
Continuous
 62
     7
100
AcDbLine
 10
24.3967063222824
 20
26.11812925817492
 30
0.0
 11
24.3967063222824
 21
2.513769496154964
 31
0.0
  0
LINE
  5
265
330
2
100
AcDbEntity
  8
GAIKEI
  6
Continuous
 62
     7
100
AcDbLine
 10
24.54024147441987
 20
26.31522326865843
 30
0.0
 11
24.53933076017563
 21
26.31517553108392
 31
0.0
  0
LINE
  5
266
330
2
100
AcDbEntity
  8
GAIKEI
  6
Continuous
 62
     7
100
AcDbLine
 10
24.53933076017563
 20
2.316723223245901
 30
0.0
 11
24.54024147441987
 21
2.316675485671396
 31
0.0
  0
LINE
  5
267
330
2
100
AcDbEntity
  8
GAIKEI
  6
Continuous
 62
     7
100
AcDbLine
 10
24.49958142871367
 20
2.34009723320355
 30
0.0
 11
24.40179837467713
 21
2.496061522920058
 31
0.0
  0
LINE
  5
268
330
2
100
AcDbEntity
  8
GAIKEI
  6
Continuous
 62
     1
100
AcDbLine
 10
24.3967063222824
 20
2.63699296232096
 30
0.0
 11
24.49958142871367
 21
2.472906832447449
 31
0.0
  0
LINE
  5
269
330
2
100
AcDbEntity
  8
GAIKEI
  6
Continuous
 62
     1
100
AcDbLine
 10
24.49958142871367
 20
26.15899192188237
 30
0.0
 11
24.3967063222824
 21
25.99490579200892
 31
0.0
  0
LINE
  5
26A
330
2
100
AcDbEntity
  8
GAIKEI
  6
Continuous
 62
     7
100
AcDbLine
 10
24.40179837467713
 20
26.13583723140982
 30
0.0
 11
24.49958142871367
 21
26.29180152112628
 31
0.0
  0
LINE
  5
26B
330
2
100
AcDbEntity
  8
GAIKEI
  6
Continuous
 62
     1
100
AcDbLine
 10
24.49958142871367
 20
2.472906832447449
 30
0.0
 11
24.49958142871367
 21
26.15899192188237
 31
0.0
  0
LINE
  5
26C
330
2
100
AcDbEntity
  8
GAIKEI
  6
Continuous
 62
     7
100
AcDbLine
 10
24.54024147441987
 20
26.31522326865843
 30
0.0
 11
25.82836446070394
 21
26.38273790021486
 31
0.0
  0
LINE
  5
26D
330
2
100
AcDbEntity
  8
GAIKEI
  6
Continuous
 62
     7
100
AcDbLine
 10
25.82836446070394
 20
2.249160854114961
 30
0.0
 11
24.54024147441987
 21
2.316675485671396
 31
0.0
  0
LINE
  5
26E
330
2
100
AcDbEntity
  8
GAIKEI
  6
Continuous
 62
     7
100
AcDbLine
 10
25.86336997070907
 20
2.24916072076985
 30
0.0
 11
25.82836686091707
 21
2.24916072076985
 31
0.0
  0
LINE
  5
26F
330
2
100
AcDbEntity
  8
GAIKEI
  6
Continuous
 62
     7
100
AcDbLine
 10
25.89670626574912
 20
2.3825059009298
 30
0.0
 11
25.89670626574912
 21
2.282497015809781
 31
0.0
  0
LINE
  5
270
330
2
100
AcDbEntity
  8
GAIKEI
  6
Continuous
 62
     7
100
AcDbLine
 10
25.82836686091707
 20
26.38273803356003
 30
0.0
 11
25.86336997070907
 21
26.38273803356003
 31
0.0
  0
LINE
  5
271
330
2
100
AcDbEntity
  8
GAIKEI
  6
Continuous
 62
     7
100
AcDbLine
 10
25.82836686091707
 20
26.38273803356003
 30
0.0
 11
25.82836446070394
 21
26.38273790021486
 31
0.0
  0
LINE
  5
272
330
2
100
AcDbEntity
  8
GAIKEI
  6
Continuous
 62
     1
100
AcDbLine
 10
25.89670626574912
 20
2.3825059009298
 30
0.0
 11
25.86336997070907
 21
2.3825059009298
 31
0.0
  0
LINE
  5
273
330
2
100
AcDbEntity
  8
GAIKEI
  6
Continuous
 62
     7
100
AcDbLine
 10
25.89670626574912
 20
2.3825059009298
 30
0.0
 11
25.89670626574912
 21
26.34940173852005
 31
0.0
  0
LINE
  5
274
330
2
100
AcDbEntity
  8
GAIKEI
  6
Continuous
 62
     1
100
AcDbLine
 10
25.82836686091707
 20
2.3825059009298
 30
0.0
 11
25.86336997070907
 21
2.3825059009298
 31
0.0
  0
LINE
  5
275
330
2
100
AcDbEntity
  8
GAIKEI
  6
Continuous
 62
     1
100
AcDbLine
 10
25.82836446070394
 20
26.24957546962424
 30
0.0
 11
24.54024147441987
 21
26.18206080473158
 31
0.0
  0
LINE
  5
276
330
2
100
AcDbEntity
  8
GAIKEI
  6
Continuous
 62
     1
100
AcDbLine
 10
24.53933076017563
 20
26.15899192188237
 30
0.0
 11
24.53933076017563
 21
2.472906832447449
 31
0.0
  0
LINE
  5
277
330
2
100
AcDbEntity
  8
GAIKEI
  6
Continuous
 62
     1
100
AcDbLine
 10
24.49907869802416
 20
2.451995199682869
 30
0.0
 11
25.82836446070394
 21
2.382323284705591
 31
0.0
  0
LINE
  5
278
330
2
100
AcDbEntity
  8
GAIKEI
  6
Continuous
 62
     1
100
AcDbLine
 10
25.82836686091707
 20
26.24939285340003
 30
0.0
 11
25.82836686091707
 21
2.24916072076985
 31
0.0
  0
ARC
  5
279
330
2
100
AcDbEntity
  8
GAIKEI
  6
Continuous
 62
     1
100
AcDbCircle
 10
25.67168627422905
 20
3.902640954753906
 30
0.0
 40
0.3000266553600113
100
AcDbArc
 50
0.0
 51
16.60155000000203
  0
ARC
  5
27A
330
2
100
AcDbEntity
  8
GAIKEI
  6
Continuous
 62
     1
100
AcDbCircle
 10
25.67168627422905
 20
3.902640954753906
 30
0.0
 40
0.3000266553600113
100
AcDbArc
 50
343.3984499999979
 51
0.0
  0
ARC
  5
27B
330
2
100
AcDbEntity
  8
GAIKEI
  6
Continuous
 62
     1
100
AcDbCircle
 10
25.91767559540028
 20
3.829301105665877
 30
0.0
 40
0.0433371835520016
100
AcDbArc
 50
270.0
 51
343.3984499999979
  0
ARC
  5
27C
330
2
100
AcDbEntity
  8
GAIKEI
  6
Continuous
 62
     1
100
AcDbCircle
 10
25.91767559540028
 20
3.975980803841878
 30
0.0
 40
0.0433371835520016
100
AcDbArc
 50
16.60155000000203
 51
90.0
  0
LINE
  5
27D
330
2
100
AcDbEntity
  8
GAIKEI
  6
Continuous
 62
     1
100
AcDbLine
 10
25.89670626574912
 20
3.785963922113865
 30
0.0
 11
25.91767559540028
 21
3.785963922113865
 31
0.0
  0
LINE
  5
27E
330
2
100
AcDbEntity
  8
GAIKEI
  6
Continuous
 62
     1
100
AcDbLine
 10
25.91767559540028
 20
4.01931798739389
 30
0.0
 11
25.89670626574912
 21
4.01931798739389
 31
0.0
  0
ELLIPSE
  5
27F
330
2
100
AcDbEntity
  8
GAIKEI
  6
Continuous
 62
     1
100
AcDbEllipse
 10
26.58405623219266
 20
3.393037379887459
 30
0.0
 11
-0.0174468687851453
 21
0.3329060880623922
 31
0.0
210
0.0
220
0.0
230
1.0
 40
0.765609999999989
 41
3.141592653589826
 42
4.672286563984031
  0
ELLIPSE
  5
280
330
2
100
AcDbEntity
  8
GAIKEI
  6
Continuous
 62
     1
100
AcDbEllipse
 10
27.15181777400517
 20
8.109681388802073
 30
0.0
 11
0.0
 21
0.2166859177600031
 31
0.0
210
0.0
220
0.0
230
1.0
 40
0.1391730000000056
 41
3.141592653589793
 42
6.283185307179586
  0
ELLIPSE
  5
281
330
2
100
AcDbEntity
  8
GAIKEI
  6
Continuous
 62
     1
100
AcDbEllipse
 10
27.15181777400517
 20
20.46221203445583
 30
0.0
 11
0.0
 21
0.2166859177600031
 31
0.0
210
0.0
220
0.0
230
1.0
 40
0.1391730000000056
 41
3.141592653589793
 42
6.283185307179586
  0
ELLIPSE
  5
282
330
2
100
AcDbEntity
  8
GAIKEI
  6
Continuous
 62
     7
100
AcDbEllipse
 10
26.5882426374601
 20
5.488205824574748
 30
0.0
 11
-0.2142815740456751
 21
0.2553708356956748
 31
0.0
210
0.0
220
0.0
230
1.0
 40
0.160711
 41
3.141592653589792
 42
3.14434683352869
  0
ARC
  5
283
330
2
100
AcDbEntity
  8
GAIKEI
  6
Continuous
 62
     1
100
AcDbCircle
 10
27.5318515374612
 20
5.626509408926835
 30
0.0
 40
0.1666814752000063
100
AcDbArc
 50
131.5352399999969
 51
178.4006089999968
  0
ARC
  5
284
330
2
100
AcDbEntity
  8
GAIKEI
  6
Continuous
 62
     1
100
AcDbCircle
 10
27.5318515374612
 20
5.626509408926835
 30
0.0
 40
0.1666814752000063
100
AcDbArc
 50
178.4006089999968
 51
179.1867999999953
  0
ARC
  5
285
330
2
100
AcDbEntity
  8
GAIKEI
  6
Continuous
 62
     7
100
AcDbCircle
 10
27.38350502453318
 20
5.937206312266937
 30
0.0
 40
0.1666814752000063
100
AcDbArc
 50
309.9999999999995
 51
0.0
  0
ARC
  5
286
330
2
100
AcDbEntity
  8
GAIKEI
  6
Continuous
 62
     1
100
AcDbCircle
 10
27.0318071118611
 20
3.416502997983855
 30
0.0
 40
0.3333629504000126
100
AcDbArc
 50
272.9999999999991
 51
0.0
  0
ARC
  5
287
330
2
100
AcDbEntity
  8
GAIKEI
  6
Continuous
 62
     1
100
AcDbCircle
 10
27.5318515374612
 20
5.626509408926835
 30
0.0
 40
0.1666814752000063
100
AcDbArc
 50
179.1867999999953
 51
180.0
  0
ARC
  5
288
330
2
100
AcDbEntity
  8
GAIKEI
  6
Continuous
 62
     7
100
AcDbCircle
 10
26.93799577735206
 20
25.20144538361541
 30
0.0
 40
0.1666814752000063
100
AcDbArc
 50
7.999999999998594
 51
78.00000000000039
  0
ARC
  5
289
330
2
100
AcDbEntity
  8
GAIKEI
  6
Continuous
 62
     1
100
AcDbCircle
 10
26.03377877705759
 20
3.026396339618543
 30
0.0
 40
0.1666814752000063
100
AcDbArc
 50
285.0000000000012
 51
314.9999999999916
  0
ARC
  5
28A
330
2
100
AcDbEntity
  8
GAIKEI
  6
Continuous
 62
     1
100
AcDbCircle
 10
26.35935970274341
 20
2.880530880448873
 30
0.0
 40
0.1666814752000063
100
AcDbArc
 50
133.2988929999928
 51
134.9999999999916
  0
ARC
  5
28B
330
2
100
AcDbEntity
  8
GAIKEI
  6
Continuous
 62
     1
100
AcDbCircle
 10
25.9717129295891
 20
2.664643133601032
 30
0.0
 40
0.1666814752000063
100
AcDbArc
 50
105.0000000000012
 51
116.743683999998
  0
ARC
  5
28C
330
2
100
AcDbEntity
  8
GAIKEI
  6
Continuous
 62
     1
100
AcDbCircle
 10
26.57343305506117
 20
4.526029672001868
 30
0.0
 40
0.2300204357760087
100
AcDbArc
 50
298.5718781421438
 51
0.0
  0
ARC
  5
28D
330
2
100
AcDbEntity
  8
GAIKEI
  6
Continuous
 62
     1
100
AcDbCircle
 10
26.57343305506117
 20
4.526029672001868
 30
0.0
 40
0.2300204357760087
100
AcDbArc
 50
0.0
 51
61.42812185785618
  0
ARC
  5
28E
330
2
100
AcDbEntity
  8
GAIKEI
  6
Continuous
 62
     7
100
AcDbCircle
 10
26.45008876341319
 20
3.285870292142362
 30
0.0
 40
0.2333540652800088
100
AcDbArc
 50
272.9999999999991
 51
0.0
  0
ARC
  5
28F
330
2
100
AcDbEntity
  8
GAIKEI
  6
Continuous
 62
     7
100
AcDbCircle
 10
27.01680577909315
 20
4.976747481928953
 30
0.0
 40
0.3333629504000126
100
AcDbArc
 50
130.5742470000073
 51
180.0
  0
LINE
  5
290
330
2
100
AcDbEntity
  8
GAIKEI
  6
Continuous
 62
     1
100
AcDbLine
 10
27.55018649973318
 20
20.99023694593473
 30
0.0
 11
27.55018649973318
 21
20.36755895849694
 31
0.0
  0
LINE
  5
291
330
2
100
AcDbEntity
  8
GAIKEI
  6
Continuous
 62
     7
100
AcDbLine
 10
27.1467171875189
 20
24.9139711767898
 30
0.0
 11
27.55018649973318
 21
22.04313785579933
 31
0.0
  0
LINE
  5
292
330
2
100
AcDbEntity
  8
GAIKEI
  6
Continuous
 62
     7
100
AcDbLine
 10
27.1467171875189
 20
24.9139711767898
 30
0.0
 11
27.55018649973318
 21
22.04313785579933
 31
0.0
  0
LINE
  5
293
330
2
100
AcDbEntity
  8
GAIKEI
  6
Continuous
 62
     7
100
AcDbLine
 10
27.1467171875189
 20
24.9139711767898
 30
0.0
 11
27.55018649973318
 21
22.04313785579933
 31
0.0
  0
LINE
  5
294
330
2
100
AcDbEntity
  8
GAIKEI
  6
Continuous
 62
     7
100
AcDbLine
 10
27.55018649973318
 20
22.04313785579933
 30
0.0
 11
27.55018649973318
 21
5.937206312266937
 31
0.0
  0
LINE
  5
295
330
2
100
AcDbEntity
  8
GAIKEI
  6
Continuous
 62
     1
100
AcDbLine
 10
27.3651700622612
 20
3.416502997983855
 30
0.0
 11
27.3651700622612
 21
5.626509408926835
 31
0.0
  0
LINE
  5
296
330
2
100
AcDbEntity
  8
GAIKEI
  6
Continuous
 62
     1
100
AcDbLine
 10
26.47423094429417
 20
3.053461213687569
 30
0.0
 11
27.04925398064631
 21
3.083596922402591
 31
0.0
  0
LINE
  5
297
330
2
100
AcDbEntity
  8
GAIKEI
  6
Continuous
 62
     1
100
AcDbLine
 10
26.83942705351399
 20
4.792843476622465
 30
0.0
 11
26.83942705351399
 21
4.931744217023492
 31
0.0
  0
LINE
  5
298
330
2
100
AcDbEntity
  8
GAIKEI
  6
Continuous
 62
     1
100
AcDbLine
 10
26.83942705351399
 20
3.393037379887459
 30
0.0
 11
26.83942705351399
 21
4.326135346062415
 31
0.0
  0
LINE
  5
299
330
2
100
AcDbEntity
  8
GAIKEI
  6
Continuous
 62
     1
100
AcDbLine
 10
26.83942705351399
 20
4.931744217023492
 30
0.0
 11
27.20918583744026
 21
5.24200864860802
 31
0.0
  0
LINE
  5
29A
330
2
100
AcDbEntity
  8
GAIKEI
  6
Continuous
 62
     7
100
AcDbLine
 10
26.80252420827662
 20
5.232118303250388
 30
0.0
 11
26.79479842189221
 21
5.224938632051305
 31
0.0
  0
LINE
  5
29B
330
2
100
AcDbEntity
  8
GAIKEI
  6
Continuous
 62
     7
100
AcDbLine
 10
27.55018649973318
 20
22.04313785579933
 30
0.0
 11
27.31568336569945
 21
23.71171429764706
 31
0.0
  0
LINE
  5
29C
330
2
100
AcDbEntity
  8
GAIKEI
  6
Continuous
 62
     7
100
AcDbLine
 10
27.31568336569945
 20
23.71171429764706
 30
0.0
 11
27.10305511989338
 21
25.22464296139162
 31
0.0
  0
LINE
  5
29D
330
2
100
AcDbEntity
  8
GAIKEI
  6
Continuous
 62
     1
100
AcDbLine
 10
26.15164034826921
 20
2.908534735070588
 30
0.0
 11
26.24149809819539
 21
2.998392484996884
 31
0.0
  0
LINE
  5
29E
330
2
100
AcDbEntity
  8
GAIKEI
  6
Continuous
 62
     1
100
AcDbLine
 10
25.92857259685923
 20
2.825645070878749
 30
0.0
 11
26.07691910978735
 21
2.865394402340825
 31
0.0
  0
LINE
  5
29F
330
2
100
AcDbEntity
  8
GAIKEI
  6
Continuous
 62
     7
100
AcDbLine
 10
26.9726508046889
 20
25.36448446866905
 30
0.0
 11
25.89670626574912
 21
25.59318352195459
 31
0.0
  0
LINE
  5
2A0
330
2
100
AcDbEntity
  8
GAIKEI
  6
Continuous
 62
     7
100
AcDbLine
 10
27.06652376286991
 20
5.453640250659248
 30
0.0
 11
27.49064580994139
 21
5.809520901606219
 31
0.0
  0
LINE
  5
2A1
330
2
100
AcDbEntity
  8
GAIKEI
  6
Continuous
 62
     1
100
AcDbLine
 10
27.12839859336771
 20
7.892995471042013
 30
0.0
 11
27.15181777400517
 21
7.892995471042013
 31
0.0
  0
LINE
  5
2A2
330
2
100
AcDbEntity
  8
GAIKEI
  6
Continuous
 62
     1
100
AcDbLine
 10
27.15181777400517
 20
8.326367306562019
 30
0.0
 11
27.12839859336771
 21
8.326367306562019
 31
0.0
  0
LINE
  5
2A3
330
2
100
AcDbEntity
  8
GAIKEI
  6
Continuous
 62
     1
100
AcDbLine
 10
27.15181777400517
 20
20.67889795221583
 30
0.0
 11
27.12839859336771
 21
20.67889795221583
 31
0.0
  0
LINE
  5
2A4
330
2
100
AcDbEntity
  8
GAIKEI
  6
Continuous
 62
     1
100
AcDbLine
 10
27.12839859336771
 20
20.24552611669583
 30
0.0
 11
27.15181777400517
 21
20.24552611669583
 31
0.0
  0
LINE
  5
2A5
330
2
100
AcDbEntity
  8
GAIKEI
  6
Continuous
 62
     7
100
AcDbLine
 10
26.68344282869305
 20
3.285870292142362
 30
0.0
 11
26.68344282869305
 21
3.465880684860849
 31
0.0
  0
LINE
  5
2A6
330
2
100
AcDbEntity
  8
GAIKEI
  6
Continuous
 62
     1
100
AcDbLine
 10
26.99799427448352
 20
7.892995471042013
 30
0.0
 11
27.12839859336771
 21
7.892995471042013
 31
0.0
  0
LINE
  5
2A7
330
2
100
AcDbEntity
  8
GAIKEI
  6
Continuous
 62
     1
100
AcDbLine
 10
27.12839859336771
 20
8.326367306562019
 30
0.0
 11
26.99799427448352
 21
8.326367306562019
 31
0.0
  0
LINE
  5
2A8
330
2
100
AcDbEntity
  8
GAIKEI
  6
Continuous
 62
     1
100
AcDbLine
 10
27.12839859336771
 20
20.67889795221583
 30
0.0
 11
26.99799427448352
 21
20.67889795221583
 31
0.0
  0
LINE
  5
2A9
330
2
100
AcDbEntity
  8
GAIKEI
  6
Continuous
 62
     1
100
AcDbLine
 10
26.99799427448352
 20
20.24552611669583
 30
0.0
 11
27.12839859336771
 21
20.24552611669583
 31
0.0
  0
LINE
  5
2AA
330
2
100
AcDbEntity
  8
GAIKEI
  6
Continuous
 62
     1
100
AcDbLine
 10
27.10305510843534
 20
8.326367306562019
 30
0.0
 11
27.10305510843534
 21
20.24552611669583
 31
0.0
  0
LINE
  5
2AB
330
2
100
AcDbEntity
  8
GAIKEI
  6
Continuous
 62
     1
100
AcDbLine
 10
27.10305510843534
 20
20.67889795221583
 30
0.0
 11
27.10305510843534
 21
21.76991161915527
 31
0.0
  0
LINE
  5
2AC
330
2
100
AcDbEntity
  8
GAIKEI
  6
Continuous
 62
     1
100
AcDbLine
 10
27.10305510843534
 20
5.484293689049422
 30
0.0
 11
27.10305510843534
 21
7.892995471042013
 31
0.0
  0
LINE
  5
2AD
330
2
100
AcDbEntity
  8
GAIKEI
  6
Continuous
 62
     7
100
AcDbLine
 10
26.80252420827662
 20
5.232118303250388
 30
0.0
 11
27.06652376286991
 21
5.453640250659248
 31
0.0
  0
LINE
  5
2AE
330
2
100
AcDbEntity
  8
GAIKEI
  6
Continuous
 62
     7
100
AcDbLine
 10
26.68344282869305
 20
3.465880684860849
 30
0.0
 11
26.68344282869305
 21
4.976747481928953
 31
0.0
  0
LINE
  5
2AF
330
2
100
AcDbEntity
  8
GAIKEI
  6
Continuous
 62
     7
100
AcDbLine
 10
26.7999734816616
 20
5.230027917533561
 30
0.0
 11
26.80244853488682
 21
5.232185509221153
 31
0.0
  0
LINE
  5
2B0
330
2
100
AcDbEntity
  8
GAIKEI
  6
Continuous
 62
     7
100
AcDbLine
 10
25.89670626574912
 20
3.023194437951133
 30
0.0
 11
26.46240773062686
 21
3.052841618306956
 31
0.0
  0
LINE
  5
2B1
330
2
100
AcDbEntity
  8
GAIKEI
  6
Continuous
 62
     1
100
AcDbLine
 10
26.97265078955127
 20
7.892995471042013
 30
0.0
 11
26.97265078955127
 21
5.751887881298159
 31
0.0
  0
LINE
  5
2B2
330
2
100
AcDbEntity
  8
GAIKEI
  6
Continuous
 62
     1
100
AcDbLine
 10
26.97265078955127
 20
7.892995471042013
 30
0.0
 11
26.99799427448352
 21
7.892995471042013
 31
0.0
  0
LINE
  5
2B3
330
2
100
AcDbEntity
  8
GAIKEI
  6
Continuous
 62
     1
100
AcDbLine
 10
26.99799427448352
 20
8.326367306562019
 30
0.0
 11
26.99799427448352
 21
7.892995471042013
 31
0.0
  0
LINE
  5
2B4
330
2
100
AcDbEntity
  8
GAIKEI
  6
Continuous
 62
     1
100
AcDbLine
 10
26.99799427448352
 20
8.326367306562019
 30
0.0
 11
26.97265078955127
 21
8.326367306562019
 31
0.0
  0
LINE
  5
2B5
330
2
100
AcDbEntity
  8
GAIKEI
  6
Continuous
 62
     1
100
AcDbLine
 10
26.97265078955127
 20
20.24552611669583
 30
0.0
 11
26.97265078955127
 21
8.326367306562019
 31
0.0
  0
LINE
  5
2B6
330
2
100
AcDbEntity
  8
GAIKEI
  6
Continuous
 62
     1
100
AcDbLine
 10
26.97265078955127
 20
20.24552611669583
 30
0.0
 11
26.99799427448352
 21
20.24552611669583
 31
0.0
  0
LINE
  5
2B7
330
2
100
AcDbEntity
  8
GAIKEI
  6
Continuous
 62
     1
100
AcDbLine
 10
26.99799427448352
 20
20.67889795221583
 30
0.0
 11
26.99799427448352
 21
20.24552611669583
 31
0.0
  0
LINE
  5
2B8
330
2
100
AcDbEntity
  8
GAIKEI
  6
Continuous
 62
     1
100
AcDbLine
 10
26.99799427448352
 20
20.67889795221583
 30
0.0
 11
26.97265078955127
 21
20.67889795221583
 31
0.0
  0
LINE
  5
2B9
330
2
100
AcDbEntity
  8
GAIKEI
  6
Continuous
 62
     1
100
AcDbLine
 10
26.97265078955127
 20
21.50236465579133
 30
0.0
 11
26.97265078955127
 21
20.67889795221583
 31
0.0
  0
LINE
  5
2BA
330
2
100
AcDbEntity
  8
GAIKEI
  6
Continuous
 62
     1
100
AcDbLine
 10
25.89670626574912
 20
21.00226001410385
 30
0.0
 11
25.98706235994985
 21
21.00226001410385
 31
0.0
  0
LINE
  5
2BB
330
2
100
AcDbEntity
  8
GAIKEI
  6
Continuous
 62
     1
100
AcDbLine
 10
25.98706235994985
 20
20.13551634306384
 30
0.0
 11
25.89670626574912
 21
20.13551634306384
 31
0.0
  0
LINE
  5
2BC
330
2
100
AcDbEntity
  8
GAIKEI
  6
Continuous
 62
     1
100
AcDbLine
 10
25.98706235994985
 20
20.13551634306384
 30
0.0
 11
25.98706235994985
 21
21.00226001410385
 31
0.0
  0
LINE
  5
2BD
330
2
100
AcDbEntity
  8
GAIKEI
  6
Continuous
 62
     1
100
AcDbLine
 10
25.98706235994985
 20
7.766317549890004
 30
0.0
 11
25.89670626574912
 21
7.766317549890004
 31
0.0
  0
LINE
  5
2BE
330
2
100
AcDbEntity
  8
GAIKEI
  6
Continuous
 62
     1
100
AcDbLine
 10
25.89670626574912
 20
8.633061220930073
 30
0.0
 11
25.98706235994985
 21
8.633061220930073
 31
0.0
  0
LINE
  5
2BF
330
2
100
AcDbEntity
  8
GAIKEI
  6
Continuous
 62
     1
100
AcDbLine
 10
25.98706235994985
 20
7.766317549890004
 30
0.0
 11
25.98706235994985
 21
8.633061220930073
 31
0.0
  0
ELLIPSE
  5
2C0
330
2
100
AcDbEntity
  8
GAIKEI
  6
Continuous
 62
     1
100
AcDbEllipse
 10
25.97989488983478
 20
21.74599782356313
 30
0.0
 11
-0.023564856710522
 21
0.023564856710522
 31
0.0
210
0.0
220
0.0
230
1.0
 40
0.9990757796463732
 41
0.7858604317907339
 42
0.8903589325719298
  0
LINE
  5
2C1
330
2
100
AcDbEntity
  8
GAIKEI
  6
Continuous
 62
     1
100
AcDbLine
 10
25.94594934066674
 20
21.74469427441818
 30
0.0
 11
25.94656366191169
 21
21.74599782356313
 31
0.0
  0
LINE
  5
2C2
330
2
100
AcDbEntity
  8
GAIKEI
  6
Continuous
 62
     1
100
AcDbLine
 10
25.93894835200911
 20
21.78362669997023
 30
0.0
 11
25.94000081217973
 21
21.77399534428878
 31
0.0
  0
LINE
  5
2C3
330
2
100
AcDbEntity
  8
GAIKEI
  6
Continuous
 62
     1
100
AcDbLine
 10
26.99319284790897
 20
23.61369632273943
 30
0.0
 11
26.99195120426384
 21
23.63183866789871
 31
0.0
  0
LINE
  5
2C4
330
2
100
AcDbEntity
  8
GAIKEI
  6
Continuous
 62
     1
100
AcDbLine
 10
26.90767325006516
 20
25.37070205427097
 30
0.0
 11
26.90777865943005
 21
25.37119399797689
 31
0.0
  0
LINE
  5
2C5
330
2
100
AcDbEntity
  8
GAIKEI
  6
Continuous
 62
     1
100
AcDbLine
 10
26.90762287892324
 20
25.37046703339092
 30
0.0
 11
26.90767325006516
 21
25.37070205427097
 31
0.0
  0
LINE
  5
2C6
330
2
100
AcDbEntity
  8
GAIKEI
  6
Continuous
 62
     1
100
AcDbLine
 10
26.99195120426384
 20
23.21644502962113
 30
0.0
 11
26.99319284790897
 21
23.2345873747804
 31
0.0
  0
LINE
  5
2C7
330
2
100
AcDbEntity
  8
GAIKEI
  6
Continuous
 62
     1
100
AcDbLine
 10
26.90767325006516
 20
21.47758164324887
 30
0.0
 11
26.90777865943005
 21
21.47708969954294
 31
0.0
  0
LINE
  5
2C8
330
2
100
AcDbEntity
  8
GAIKEI
  6
Continuous
 62
     1
100
AcDbLine
 10
26.90762287892324
 20
21.47781666412891
 30
0.0
 11
26.90767325006516
 21
21.47758164324887
 31
0.0
  0
LINE
  5
2C9
330
2
100
AcDbEntity
  8
GAIKEI
  6
Continuous
 62
     1
100
AcDbLine
 10
27.08924678165795
 20
21.67319805579103
 30
0.0
 11
27.08974519260517
 21
21.67312951636848
 31
0.0
  0
LINE
  5
2CA
330
2
100
AcDbEntity
  8
GAIKEI
  6
Continuous
 62
     1
100
AcDbLine
 10
27.08900869383877
 20
21.67323079203277
 30
0.0
 11
27.08924678165795
 21
21.67319805579103
 31
0.0
  0
LINE
  5
2CB
330
2
100
AcDbEntity
  8
GAIKEI
  6
Continuous
 62
     1
100
AcDbLine
 10
25.89746586656782
 20
25.51950344094479
 30
0.0
 11
25.89670626574912
 21
25.51950344094479
 31
0.0
  0
LINE
  5
2CC
330
2
100
AcDbEntity
  8
GAIKEI
  6
Continuous
 62
     1
100
AcDbLine
 10
25.89670626574912
 20
21.32878025657504
 30
0.0
 11
25.89746586656782
 21
21.32878025657504
 31
0.0
  0
LINE
  5
2CD
330
2
100
AcDbEntity
  8
GAIKEI
  6
Continuous
 62
     1
100
AcDbLine
 10
25.89746586656782
 20
21.32878025657504
 30
0.0
 11
26.89380881830312
 21
21.54228232480466
 31
0.0
  0
LINE
  5
2CE
330
2
100
AcDbEntity
  8
GAIKEI
  6
Continuous
 62
     1
100
AcDbLine
 10
25.89670626574912
 20
21.26043134146653
 30
0.0
 11
26.90777865943005
 21
21.47708969954294
 31
0.0
  0
LINE
  5
2CF
330
2
100
AcDbEntity
  8
GAIKEI
  6
Continuous
 62
     1
100
AcDbLine
 10
26.99319284790897
 20
23.2345873747804
 30
0.0
 11
26.99319284790897
 21
23.61369632273943
 31
0.0
  0
LINE
  5
2D0
330
2
100
AcDbEntity
  8
GAIKEI
  6
Continuous
 62
     1
100
AcDbLine
 10
26.80657510150468
 20
24.97978755746795
 30
0.0
 11
26.80203976523706
 21
25.01276608738959
 31
0.0
  0
LINE
  5
2D1
330
2
100
AcDbEntity
  8
GAIKEI
  6
Continuous
 62
     1
100
AcDbLine
 10
26.91343709547755
 20
24.21689461286985
 30
0.0
 11
26.81763495076495
 21
24.91351286940556
 31
0.0
  0
LINE
  5
2D2
330
2
100
AcDbEntity
  8
GAIKEI
  6
Continuous
 62
     1
100
AcDbLine
 10
26.99195120426384
 20
23.63183866789871
 30
0.0
 11
26.92070270764521
 21
24.14991699569021
 31
0.0
  0
LINE
  5
2D3
330
2
100
AcDbEntity
  8
GAIKEI
  6
Continuous
 62
     1
100
AcDbLine
 10
26.89380881830312
 20
25.30600137271517
 30
0.0
 11
25.89746586656782
 21
25.51950344094479
 31
0.0
  0
LINE
  5
2D4
330
2
100
AcDbEntity
  8
GAIKEI
  6
Continuous
 62
     1
100
AcDbLine
 10
26.80203976523706
 20
21.83551761013024
 30
0.0
 11
26.80657510150468
 21
21.86849614005189
 31
0.0
  0
LINE
  5
2D5
330
2
100
AcDbEntity
  8
GAIKEI
  6
Continuous
 62
     1
100
AcDbLine
 10
26.9305594833537
 20
22.77003973616564
 30
0.0
 11
26.99195120426384
 21
23.21644502962113
 31
0.0
  0
LINE
  5
2D6
330
2
100
AcDbEntity
  8
GAIKEI
  6
Continuous
 62
     1
100
AcDbLine
 10
26.81763495076495
 20
21.93477082811432
 30
0.0
 11
26.92329387118605
 21
22.70306211898605
 31
0.0
  0
LINE
  5
2D7
330
2
100
AcDbEntity
  8
GAIKEI
  6
Continuous
 62
     1
100
AcDbLine
 10
27.2336671457739
 20
23.27274319800324
 30
0.0
 11
27.2336671457739
 21
23.57554049951659
 31
0.0
  0
LINE
  5
2D8
330
2
100
AcDbEntity
  8
GAIKEI
  6
Continuous
 62
     1
100
AcDbLine
 10
27.22498474106703
 20
23.70240143692843
 30
0.0
 11
27.02369429109138
 21
25.16607057413376
 31
0.0
  0
LINE
  5
2D9
330
2
100
AcDbEntity
  8
GAIKEI
  6
Continuous
 62
     1
100
AcDbLine
 10
27.02369429109138
 20
21.68221312338614
 30
0.0
 11
27.22498474106703
 21
23.14588226059147
 31
0.0
  0
LINE
  5
2DA
330
2
100
AcDbEntity
  8
GAIKEI
  6
Continuous
 62
     1
100
AcDbLine
 10
27.08974519260517
 20
21.67312951636848
 30
0.0
 11
27.34318715650648
 21
23.51601466407357
 31
0.0
  0
LINE
  5
2DB
330
2
100
AcDbEntity
  8
GAIKEI
  6
Continuous
 62
     1
100
AcDbLine
 10
25.93894835200911
 20
25.06465699754961
 30
0.0
 11
25.89670626574912
 21
25.06465699754961
 31
0.0
  0
LINE
  5
2DC
330
2
100
AcDbEntity
  8
GAIKEI
  6
Continuous
 62
     1
100
AcDbLine
 10
25.89670626574912
 20
21.78362669997023
 30
0.0
 11
25.93894835200911
 21
21.78362669997023
 31
0.0
  0
LINE
  5
2DD
330
2
100
AcDbEntity
  8
GAIKEI
  6
Continuous
 62
     1
100
AcDbLine
 10
25.93894835200911
 20
25.06465699754961
 30
0.0
 11
25.93894835200911
 21
21.78362669997023
 31
0.0
  0
LINE
  5
2DE
330
2
100
AcDbEntity
  8
GAIKEI
  6
Continuous
 62
     1
100
AcDbLine
 10
26.67476629117425
 20
25.12770506561509
 30
0.0
 11
26.01089867764711
 21
25.15088782524811
 31
0.0
  0
LINE
  5
2DF
330
2
100
AcDbEntity
  8
GAIKEI
  6
Continuous
 62
     1
100
AcDbLine
 10
26.01089867764711
 20
21.69739587227173
 30
0.0
 11
26.67476629117425
 21
21.72057863190474
 31
0.0
  0
SPLINE
  5
2E0
330
2
100
AcDbEntity
  8
GAIKEI
  6
Continuous
 62
     1
100
AcDbSpline
210
0.0
220
0.0
230
1.0
 70
     8
 71
     3
 72
    19
 73
    15
 74
    13
 42
0.0000000001
 43
0.0000000001
 44
0.000001
 12
0.0213842593146391
 22
0.9997713305819308
 32
0.0
 13
-0.1213258174957188
 23
0.9926127371785009
 33
0.0
 40
0.0
 40
0.0
 40
0.0
 40
0.0
 40
0.0113484976343809
 40
0.0224435594540862
 40
0.0331022403675693
 40
0.0433328148777521
 40
0.0530063883185424
 40
0.0665828207561415
 40
0.0785040285380693
 40
0.0883020525193522
 40
0.0960449799608842
 40
0.0997746755134362
 40
0.1024788578004918
 40
0.1040675002433311
 40
0.1040675002433311
 40
0.1040675002433311
 40
0.1040675002433311
 10
24.49916837126284
 20
26.18535344355735
 30
0.0
 10
24.49924926433492
 20
26.18913541108403
 30
0.0
 10
24.49933947111779
 20
26.19661684694366
 30
0.0
 10
24.49921168091623
 20
26.20765073692408
 30
0.0
 10
24.49898932930718
 20
26.21830986009795
 30
0.0
 10
24.49873071014489
 20
26.22849419678417
 30
0.0
 10
24.49846178306792
 20
26.23965119163049
 30
0.0
 10
24.49829619008892
 20
26.25137406008635
 30
0.0
 10
24.49832570836583
 20
26.2631403662763
 30
0.0
 10
24.49858999378816
 20
26.27295791884214
 30
0.0
 10
24.49894375946044
 20
26.28004133024891
 30
0.0
 10
24.49918558212548
 20
26.28475756923633
 30
0.0
 10
24.49936100198172
 20
26.28743227256566
 30
0.0
 10
24.49923261904387
 20
26.2888609605023
 30
0.0
 10
24.49916837126284
 20
26.28938659607684
 30
0.0
 11
24.49916837126284
 21
26.18535344355735
 31
0.0
 11
24.49929427363315
 21
26.19670120347428
 31
0.0
 11
24.49919150292954
 21
26.20779578751311
 31
0.0
 11
24.49897714149472
 21
26.21845231054184
 31
0.0
 11
24.49872725621151
 21
26.22867983153455
 31
0.0
 11
24.49850551186898
 21
26.23835086262289
 31
0.0
 11
24.49832747816742
 21
26.25192612789843
 31
0.0
 11
24.49837970779561
 21
26.26384722201442
 31
0.0
 11
24.49864935940821
 21
26.27364153411361
 31
0.0
 11
24.49901173295791
 21
26.28137597172492
 31
0.0
 11
24.49921247228724
 21
26.28510024840469
 31
0.0
 11
24.49929620829891
 21
26.28780308179921
 31
0.0
 11
24.49916837126284
 21
26.28938659607684
 31
0.0
  0
SPLINE
  5
2E1
330
2
100
AcDbEntity
  8
GAIKEI
  6
Continuous
 62
     1
100
AcDbSpline
210
0.0
220
0.0
230
1.0
 70
     8
 71
     3
 72
    25
 73
    21
 74
    19
 42
0.0000000001
 43
0.0000000001
 44
0.000001
 12
0.5909511587252205
 22
-0.8067073372675615
 32
0.0
 13
-0.0272811889574892
 23
-0.999627799097777
 33
0.0
 40
0.0
 40
0.0
 40
0.0
 40
0.0
 40
0.000495509916845
 40
0.0018178620006343
 40
0.0040907347726695
 40
0.0072755829691142
 40
0.0112339836523134
 40
0.0160079251331226
 40
0.0217345560386304
 40
0.0282471715098788
 40
0.0353831516206299
 40
0.0431870615597024
 40
0.0518586981817944
 40
0.0611185243132913
 40
0.0706522526824103
 40
0.0806167164363537
 40
0.0912501549405888
 40
0.1021898340907434
 40
0.117498283690035
 40
0.1332424412970224
 40
0.1332424412970224
 40
0.1332424412970224
 40
0.1332424412970224
 10
24.54024148719156
 20
26.31522325558109
 30
0.0
 10
24.54033909457808
 20
26.31509001175256
 30
0.0
 10
24.54066508070986
 20
26.31456224524004
 30
0.0
 10
24.540581617237
 20
26.31313765275715
 30
0.0
 10
24.54070024360689
 20
26.31091335968444
 30
0.0
 10
24.54062347899434
 20
26.30775893453682
 30
0.0
 10
24.54057498253624
 20
26.30379304666194
 30
0.0
 10
24.54049024101612
 20
26.29897190624901
 30
0.0
 10
24.54041791772379
 20
26.29330205308219
 30
0.0
 10
24.54035968357543
 20
26.28684363686168
 30
0.0
 10
24.54033104379576
 20
26.27969290874216
 30
0.0
 10
24.54033228866447
 20
26.27182235572119
 30
0.0
 10
24.54036728654909
 20
26.26324396010387
 30
0.0
 10
24.54042821768302
 20
26.25408909175757
 30
0.0
 10
24.54050643565735
 20
26.24450340412654
 30
0.0
 10
24.5405855856697
 20
26.23445984099639
 30
0.0
 10
24.54064939468735
 20
26.22394748444272
 30
0.0
 10
24.54067216082942
 20
26.21165363132802
 30
0.0
 10
24.54059972214006
 20
26.19765603836855
 30
0.0
 10
24.54038466030445
 20
26.18730691956191
 30
0.0
 10
24.54024148719156
 20
26.18206082035613
 30
0.0
 11
24.54024148719156
 21
26.31522325558109
 31
0.0
 11
24.54048900017551
 21
26.31479391735803
 31
0.0
 11
24.54061851631775
 21
26.31347811423097
 31
0.0
 11
24.54065906915355
 21
26.31120563758031
 31
0.0
 11
24.54063463704438
 21
26.30802089861618
 31
0.0
 11
24.54057413808243
 21
26.30406296854227
 31
0.0
 11
24.54049836795639
 21
26.29928963338739
 31
0.0
 11
24.54042364435725
 21
26.29356349325451
 31
0.0
 11
24.54036579628439
 21
26.28705113684416
 31
0.0
 11
24.54033571286903
 21
26.27991522157902
 31
0.0
 11
24.54033612179012
 21
26.27211131268536
 31
0.0
 11
24.54036913382845
 21
26.26343973968358
 31
0.0
 11
24.54042894402164
 21
26.25418010733085
 31
0.0
 11
24.54050387663722
 21
26.24464667391254
 31
0.0
 11
24.54057996529343
 21
26.23468250104253
 31
0.0
 11
24.54064045206462
 21
26.22404923478928
 31
0.0
 11
24.5406578305882
 21
26.21310956932916
 31
0.0
 11
24.54056027204877
 21
26.19780142828108
 31
0.0
 11
24.54024148719156
 21
26.18206082035613
 31
0.0
  0
SPLINE
  5
2E2
330
2
100
AcDbEntity
  8
GAIKEI
  6
Continuous
 62
     1
100
AcDbSpline
210
0.0
220
0.0
230
1.0
 70
     8
 71
     3
 72
    25
 73
    21
 74
    19
 42
0.0000000001
 43
0.0000000001
 44
0.000001
 12
0.0281905901065335
 22
-0.9996025663379647
 32
0.0
 13
-0.4008655609207862
 23
-0.9161368904632446
 33
0.0
 40
0.0
 40
0.0
 40
0.0
 40
0.0
 40
0.0108642250676633
 40
0.021656885762074
 40
0.0326063958987594
 40
0.0433262346926799
 40
0.053469096987319
 40
0.0632547433492315
 40
0.0728733530304751
 40
0.081978070094057
 40
0.0903746034312849
 40
0.0981541992728616
 40
0.1054556263380682
 40
0.1119952017292011
 40
0.117589857797189
 40
0.1223753842863815
 40
0.1264164536402364
 40
0.1295339844560035
 40
0.1322586066750005
 40
0.1332252651171003
 40
0.1332252651171003
 40
0.1332252651171003
 40
0.1332252651171003
 10
24.54024148719156
 20
2.449837933973753
 30
0.0
 10
24.54034357683014
 20
2.446217964887452
 30
0.0
 10
24.5405109104677
 20
2.439000753804137
 30
0.0
 10
24.54063432472319
 20
2.428132475392999
 30
0.0
 10
24.54067094939214
 20
2.417311787592367
 30
0.0
 10
24.5406426857329
 20
2.40670771234005
 30
0.0
 10
24.54057898467823
 20
2.396491785824665
 30
0.0
 10
24.54049969847048
 20
2.386643064500844
 30
0.0
 10
24.54042376919067
 20
2.377140376539401
 30
0.0
 10
24.54036375064575
 20
2.368100617343884
 30
0.0
 10
24.54033232092532
 20
2.359673704687523
 30
0.0
 10
24.54033081934445
 20
2.351847858335588
 30
0.0
 10
24.54036345073918
 20
2.344640943028736
 30
0.0
 10
24.54042060593655
 20
2.338162929139855
 30
0.0
 10
24.54050175536764
 20
2.332522625413133
 30
0.0
 10
24.54056719025664
 20
2.327718815136819
 30
0.0
 10
24.54066914829308
 20
2.323730469143995
 30
0.0
 10
24.54059926335947
 20
2.32045640973277
 30
0.0
 10
24.54080617337068
 20
2.318136895985986
 30
0.0
 10
24.54037065388444
 20
2.316970695901915
 30
0.0
 10
24.54024148719156
 20
2.316675498748821
 30
0.0
 11
24.54024148719156
 21
2.449837933973753
 31
0.0
 11
24.54048900017551
 21
2.438976743996022
 31
0.0
 11
24.54061851631775
 21
2.428184858970269
 31
0.0
 11
24.54065906915355
 21
2.417235424106138
 31
0.0
 11
24.54063463704438
 21
2.4065156136474
 31
0.0
 11
24.54057413808243
 21
2.396372932349066
 31
0.0
 11
24.54049836795639
 21
2.386587579911235
 31
0.0
 11
24.54042364435725
 21
2.376969261109621
 31
0.0
 11
24.54036579628439
 21
2.367864728491838
 31
0.0
 11
24.54033571286903
 21
2.359468249833525
 31
0.0
 11
24.54033612179012
 21
2.351688654991477
 31
0.0
 11
24.54036913382845
 21
2.344387303964509
 31
0.0
 11
24.54042894402164
 21
2.337848004134741
 31
0.0
 11
24.54050387663722
 21
2.332253852975242
 31
0.0
 11
24.54057996529343
 21
2.327468936332138
 31
0.0
 11
24.54064045206462
 21
2.323428328451257
 31
0.0
 11
24.5406578305882
 21
2.320310863334668
 31
0.0
 11
24.54056027204877
 21
2.317588133835897
 31
0.0
 11
24.54024148719156
 21
2.316675498748821
 31
0.0
  0
SPLINE
  5
2E3
330
2
100
AcDbEntity
  8
GAIKEI
  6
Continuous
 62
     1
100
AcDbSpline
210
0.0
220
0.0
230
1.0
 70
     8
 71
     3
 72
    41
 73
    37
 74
    35
 42
0.0000000001
 43
0.0000000001
 44
0.000001
 12
-0.4353819225186907
 22
-0.9002458450578536
 32
0.0
 13
-0.5598877767279204
 23
-0.8285684506850756
 33
0.0
 40
0.0
 40
0.0
 40
0.0
 40
0.0
 40
0.0014188981556501
 40
0.0056448915115561
 40
0.0126413138108069
 40
0.0164792481112086
 40
0.0208170576424738
 40
0.0256522187933257
 40
0.0309822866874736
 40
0.0368048965486417
 40
0.0431177647878563
 40
0.0499186898280259
 40
0.0729057058812596
 40
0.1010164645422988
 40
0.1080304895441056
 40
0.1153021852383623
 40
0.1228314347323212
 40
0.1306181176540326
 40
0.1386621104765995
 40
0.146963286777165
 40
0.1555215174959621
 40
0.1642630739514209
 40
0.1739105775431262
 40
0.184468511455264
 40
0.1959416628115397
 40
0.2083351588239668
 40
0.2238438276835902
 40
0.2405950042822329
 40
0.2556503340562618
 40
0.2671428071198596
 40
0.2750469816947987
 40
0.2819138388210415
 40
0.2964544164855388
 40
0.3382914855718702
 40
0.3781195110425885
 40
0.4161359202117508
 40
0.4161359202117508
 40
0.4161359202117508
 40
0.4161359202117508
 10
27.36517006226029
 20
5.626509400799136
 30
0.0
 10
27.36496414139134
 20
5.626083615076069
 30
0.0
 10
27.3641473608036
 20
5.624388479974584
 30
0.0
 10
27.36237992506534
 20
5.620563053042303
 30
0.0
 10
27.36032780784642
 20
5.615981411230251
 30
0.0
 10
27.35830564453705
 20
5.611345853508424
 30
0.0
 10
27.35659583555634
 20
5.607360119290802
 30
0.0
 10
27.35471766690532
 20
5.602905492966726
 30
0.0
 10
27.35267783942865
 20
5.597982010355238
 30
0.0
 10
27.35048286808774
 20
5.592589747541993
 30
0.0
 10
27.34814043950651
 20
5.586728306680285
 30
0.0
 10
27.34373833308777
 20
5.575528683833553
 30
0.0
 10
27.33699838676591
 20
5.557442254545151
 30
0.0
 10
27.33057967715595
 20
5.539165167796838
 30
0.0
 10
27.32600544128452
 20
5.525793771358024
 30
0.0
 10
27.3236737171505
 20
5.518906081005027
 30
0.0
 10
27.32128081705976
 20
5.511767231714173
 30
0.0
 10
27.31882740663876
 20
5.504377188873093
 30
0.0
 10
27.31631406141813
 20
5.496735958854415
 30
0.0
 10
27.3137413424131
 20
5.488843552083679
 30
0.0
 10
27.31111753384026
 20
5.480723265091725
 30
0.0
 10
27.30837642450441
 20
5.472169293105963
 30
0.0
 10
27.30543630254883
 20
5.462979144451267
 30
0.0
 10
27.30220964239017
 20
5.452924673813015
 30
0.0
 10
27.29868117812089
 20
5.442005755823743
 30
0.0
 10
27.29460677340339
 20
5.429529069761173
 30
0.0
 10
27.28993284241311
 20
5.415397350316681
 30
0.0
 10
27.28482252709302
 20
5.400476152943809
 30
0.0
 10
27.28001499061222
 20
5.386867133338014
 30
0.0
 10
27.27609384520635
 20
5.376073224744487
 30
0.0
 10
27.2730566465804
 20
5.367862343297048
 30
0.0
 10
27.26956206031625
 20
5.358737892329017
 30
0.0
 10
27.26171920265689
 20
5.339168682271079
 30
0.0
 10
27.24865323787089
 20
5.309859123802539
 30
0.0
 10
27.23007270280986
 20
5.274520125331676
 30
0.0
 10
27.21628080712149
 20
5.252508395106787
 30
0.0
 10
27.20918583285186
 20
5.242008662691489
 30
0.0
 11
27.36517006226029
 21
5.626509400799136
 31
0.0
 11
27.36455616787691
 21
5.625230170433781
 31
0.0
 11
27.36277382882713
 21
5.621398433139319
 31
0.0
 11
27.35991179551059
 21
5.615014188915779
 31
0.0
 11
27.35837654023965
 21
5.61149670457641
 31
0.0
 11
27.35666602521769
 21
5.607510392433709
 31
0.0
 11
27.35478707547952
 21
5.603055252487735
 31
0.0
 11
27.35274646579694
 21
5.598131284738457
 31
0.0
 11
27.35055091563379
 21
5.592738489185876
 31
0.0
 11
27.34820708439418
 21
5.586876865829992
 31
0.0
 11
27.34572156695719
 21
5.580546414670806
 31
0.0
 11
27.33765736251451
 21
5.559020406212994
 31
0.0
 11
27.32830807089602
 21
5.532510020092189
 31
0.0
 11
27.32603768115757
 21
5.525873642437915
 31
0.0
 11
27.32370561520975
 21
5.518986073739398
 31
0.0
 11
27.32131245316452
 21
5.511847313996639
 31
0.0
 11
27.31885877880882
 21
5.504457363209667
 31
0.0
 11
27.31634517947407
 21
5.496816221378423
 31
0.0
 11
27.3137722459054
 21
5.488923888502938
 31
0.0
 11
27.31114057213324
 21
5.480780364583239
 31
0.0
 11
27.30847020957333
 21
5.472456700343286
 31
0.0
 11
27.3055284498131
 21
5.463268679899613
 31
0.0
 11
27.30230060811107
 21
5.453216303252219
 31
0.0
 11
27.2987711093715
 21
5.442299570401075
 31
0.0
 11
27.29492352340958
 21
5.43051848134624
 31
0.0
 11
27.29003901591716
 21
5.415799121660313
 31
0.0
 11
27.28461364797465
 21
5.399950888224168
 31
0.0
 11
27.27959660589898
 21
5.385756100203053
 31
0.0
 11
27.27567396542565
 21
5.374953784214739
 31
0.0
 11
27.27292252780023
 21
5.367543940259281
 31
0.0
 11
27.2704673709917
 21
5.361130980861304
 31
0.0
 11
27.26506091187457
 21
5.347632876253612
 31
0.0
 11
27.24796477243342
 21
5.309448270778091
 31
0.0
 11
27.22934571756184
 21
5.274240199590678
 31
0.0
 11
27.20918583285186
 21
5.242008662691489
 31
0.0
  0
SPLINE
  5
2E4
330
2
100
AcDbEntity
  8
GAIKEI
  6
Continuous
 62
     1
100
AcDbSpline
210
0.0
220
0.0
230
1.0
 70
     8
 71
     3
 72
    41
 73
    37
 74
    35
 42
0.0000000001
 43
0.0000000001
 44
0.000001
 12
0.0064747712617763
 22
0.9999790384488605
 32
0.0
 13
0.7486451432179164
 23
0.6629709266146034
 33
0.0
 40
0.0
 40
0.0
 40
0.0
 40
0.0
 40
0.0048797220293208
 40
0.0095408573170913
 40
0.014141256721718
 40
0.0164487246822603
 40
0.0187692787785242
 40
0.022329069396695
 40
0.0263636850181176
 40
0.0309350675743363
 40
0.0370166492812665
 40
0.0438225559119462
 40
0.0592497184656911
 40
0.0737747348064714
 40
0.0806057129628047
 40
0.0867323678927868
 40
0.0921021930536401
 40
0.0967157812166311
 40
0.1005724437415808
 40
0.1036696750114764
 40
0.1061043465926093
 40
0.1085083068790812
 40
0.110997452035008
 40
0.1135749438028506
 40
0.1162400271326614
 40
0.1176035175536715
 40
0.1189706962059677
 40
0.1203341254549628
 40
0.1216923397903731
 40
0.124386235673468
 40
0.1270369830950314
 40
0.1296268378283619
 40
0.1321361840472562
 40
0.1345438299926775
 40
0.1368271714864146
 40
0.1389621751958124
 40
0.1389621751958124
 40
0.1389621751958124
 40
0.1389621751958124
 10
27.36518464057861
 20
5.628713864089888
 30
0.0
 10
27.36519517227326
 20
5.630340404004144
 30
0.0
 10
27.36524862302971
 20
5.633520324248394
 30
0.0
 10
27.3653777246623
 20
5.638232666197822
 30
0.0
 10
27.36561875480756
 20
5.642082586508507
 30
0.0
 10
27.36590387794655
 20
5.645145659938009
 30
0.0
 10
27.36621384267967
 20
5.647857508079482
 30
0.0
 10
27.36667877570609
 20
5.651130040738252
 30
0.0
 10
27.36733507513044
 20
5.655132166715617
 30
0.0
 10
27.36825298855502
 20
5.659941824905871
 30
0.0
 10
27.36952490602802
 20
5.665622167274392
 30
0.0
 10
27.37194064791147
 20
5.674748107239878
 30
0.0
 10
27.37586093041816
 20
5.686376649312947
 30
0.0
 10
27.38080710051983
 20
5.697613514921158
 30
0.0
 10
27.38502623021503
 20
5.70574730733665
 30
0.0
 10
27.38804172878169
 20
5.711061908322051
 30
0.0
 10
27.39084690611931
 20
5.71564201527974
 30
0.0
 10
27.39336907252815
 20
5.719505511635119
 30
0.0
 10
27.39555309518295
 20
5.722683539769747
 30
0.0
 10
27.39737458899718
 20
5.725228464143498
 30
0.0
 10
27.39893735985524
 20
5.727362885168915
 30
0.0
 10
27.40041779023409
 20
5.72930591558098
 30
0.0
 10
27.40196382756298
 20
5.731258238433682
 30
0.0
 10
27.4036015517548
 20
5.733248412879021
 30
0.0
 10
27.40503217313662
 20
5.734922572450784
 30
0.0
 10
27.40621896751881
 20
5.736274052038567
 30
0.0
 10
27.4071289740845
 20
5.737291081306807
 30
0.0
 10
27.4080470323224
 20
5.738298467741557
 30
0.0
 10
27.40927468353302
 20
5.739621954069704
 30
0.0
 10
27.41081496720231
 20
5.741240613127686
 30
0.0
 10
27.41266838717603
 20
5.743127541558735
 30
0.0
 10
27.41450557096688
 20
5.74494378258332
 30
0.0
 10
27.41630894829766
 20
5.746678601258068
 30
0.0
 10
27.41805944738314
 20
5.748320732370487
 30
0.0
 10
27.41973770439756
 20
5.749857212864597
 30
0.0
 10
27.42083398650463
 20
5.750840754885629
 30
0.0
 10
27.4213667732239
 20
5.751312570014817
 30
0.0
 11
27.36518464057861
 21
5.628713864089888
 31
0.0
 11
27.36525765389229
 21
5.633593107286117
 31
0.0
 11
27.36540474091305
 21
5.638251931226221
 31
0.0
 11
27.36569636027139
 21
5.642843104479311
 31
0.0
 11
27.36591049058541
 21
5.645140630685119
 31
0.0
 11
27.36617421451479
 21
5.647446167466625
 31
0.0
 11
27.36666729724504
 21
5.650971673419519
 31
0.0
 11
27.36732131353267
 21
5.654952965094366
 31
0.0
 11
27.36817795676143
 21
5.659443409981065
 31
0.0
 11
27.36950696192287
 21
5.665378059741158
 31
0.0
 11
27.37124861693621
 21
5.671957405214669
 31
0.0
 11
27.37617730003729
 21
5.68657619765193
 31
0.0
 11
27.38202907700725
 21
5.699870377673079
 31
0.0
 11
27.38517320220115
 21
5.705934792869385
 31
0.0
 11
27.38819676103617
 21
5.711263420576131
 31
0.0
 11
27.39100121580066
 21
5.71584274923623
 31
0.0
 11
27.39352273543477
 21
5.719706331174279
 31
0.0
 11
27.39570683228271
 21
5.722884954591933
 31
0.0
 11
27.39750740768284
 21
5.725405036068224
 31
0.0
 11
27.3989488862336
 21
5.72736712262079
 31
0.0
 11
27.40040561905312
 21
5.729279446019546
 31
0.0
 11
27.4019507315603
 21
5.731230985529549
 31
0.0
 11
27.40358824669397
 21
5.733221475569507
 31
0.0
 11
27.40531926570213
 21
5.735247873967722
 31
0.0
 11
27.40621898496716
 21
5.736272385573244
 31
0.0
 11
27.40713060195583
 21
5.737291279426301
 31
0.0
 11
27.40804893295456
 21
5.738299059207292
 31
0.0
 11
27.40897256690824
 21
5.739294879885846
 31
0.0
 11
27.41082929769107
 21
5.741246718448451
 31
0.0
 11
27.41268652805866
 21
5.743138067437115
 31
0.0
 11
27.41452810326007
 21
5.744959052438218
 31
0.0
 11
27.41633634850121
 21
5.746698908292387
 31
0.0
 11
27.4180923449735
 21
5.748346105162653
 31
0.0
 11
27.41977612206176
 21
5.749888363017191
 31
0.0
 11
27.4213667732239
 21
5.751312570014817
 31
0.0
  0
SPLINE
  5
2E5
330
2
100
AcDbEntity
  8
GAIKEI
  6
Continuous
 62
     1
100
AcDbSpline
210
0.0
220
0.0
230
1.0
 70
     8
 71
     3
 72
    28
 73
    24
 74
    22
 42
0.0000000001
 43
0.0000000001
 44
0.000001
 12
0.7217480328339719
 22
0.6921558907502644
 32
0.0
 13
0.9952109123015889
 23
0.097750908107491
 33
0.0
 40
0.0
 40
0.0
 40
0.0
 40
0.0
 40
0.0085574556743562
 40
0.015761227867041
 40
0.021492793801582
 40
0.0271056635000057
 40
0.032978739091628
 40
0.0433389756415557
 40
0.0541633007319012
 40
0.064655963491455
 40
0.0722886488915161
 40
0.0796562109045873
 40
0.0829521424257581
 40
0.0858598682483176
 40
0.0883836539144262
 40
0.0905234199420554
 40
0.0914476423482327
 40
0.0930940134125192
 40
0.0950313810153595
 40
0.0987440020350484
 40
0.1025235815010236
 40
0.1066919450468006
 40
0.1110672556985563
 40
0.1110672556985563
 40
0.1110672556985563
 40
0.1110672556985563
 10
26.24417279241709
 20
3.00100780843158
 30
0.0
 10
26.24623156801677
 20
3.002982172883193
 30
0.0
 10
26.25011590167239
 20
3.006523020427522
 30
0.0
 10
26.25561043071838
 20
3.011123999858682
 30
0.0
 10
26.26052551092675
 20
3.014877349856035
 30
0.0
 10
26.26520639839413
 20
3.018199945239487
 30
0.0
 10
26.27128678976021
 20
3.022209466807069
 30
0.0
 10
26.27905535909896
 20
3.026804139437516
 30
0.0
 10
26.28847387087588
 20
3.031592500517106
 30
0.0
 10
26.2973255190411
 20
3.035449950214385
 30
0.0
 10
26.305277602796
 20
3.03845098757597
 30
0.0
 10
26.31106167306224
 20
3.040391073367274
 30
0.0
 10
26.31540044974291
 20
3.041673033779233
 30
0.0
 10
26.31821116139918
 20
3.042424628457922
 30
0.0
 10
26.32066453489921
 20
3.043017478082887
 30
0.0
 10
26.32248480381497
 20
3.043413071930729
 30
0.0
 10
26.32402462799309
 20
3.043720211010793
 30
0.0
 10
26.32550322017748
 20
3.043988418746337
 30
0.0
 10
26.3278995152489
 20
3.044404341133628
 30
0.0
 10
26.33100325943447
 20
3.044901755118246
 30
0.0
 10
26.33485028298131
 20
3.045457782005016
 30
0.0
 10
26.33892515535088
 20
3.045978118779785
 30
0.0
 10
26.34175664862815
 20
3.046285382939956
 30
0.0
 10
26.34320810092993
 20
3.046427946469776
 30
0.0
 11
26.24417279241709
 21
3.00100780843158
 31
0.0
 11
26.25049174931758
 21
3.006778822852993
 31
0.0
 11
26.25602377948065
 21
3.011393025600625
 31
0.0
 11
26.26057642694104
 21
3.014875100325667
 31
0.0
 11
26.26515296930768
 21
3.018124743432025
 31
0.0
 11
26.27005619594979
 21
3.021357692093829
 31
0.0
 11
26.27897359191354
 21
3.026631801466407
 31
0.0
 11
26.28861861438406
 21
3.03154514796796
 31
0.0
 11
26.29823728163092
 21
3.035737703629479
 31
0.0
 11
26.30537641485318
 21
3.038437802578783
 31
0.0
 11
26.31236681002986
 21
3.040764869995911
 31
0.0
 11
26.31552846210605
 21
3.041696071565127
 31
0.0
 11
26.31833768836794
 21
3.042446504029669
 31
0.0
 11
26.32079112145971
 21
3.043038275184983
 31
0.0
 11
26.32288228947607
 21
3.043491753319244
 31
0.0
 11
26.32378872676179
 21
3.043672207539486
 31
0.0
 11
26.32540790941414
 21
3.043970202461935
 31
0.0
 11
26.32731678005723
 21
3.044301301697032
 31
0.0
 11
26.33098245783469
 21
3.044889887681733
 31
0.0
 11
26.33472319566647
 21
3.045430415133864
 31
0.0
 11
26.33885809240553
 21
3.045957637477101
 31
0.0
 11
26.34320810092993
 21
3.046427946469776
 31
0.0
  0
SPLINE
  5
2E6
330
2
100
AcDbEntity
  8
GAIKEI
  6
Continuous
 62
     1
100
AcDbSpline
210
0.0
220
0.0
230
1.0
 70
     8
 71
     3
 72
    29
 73
    25
 74
    23
 42
0.0000000001
 43
0.0000000001
 44
0.000001
 12
-0.7526510322232209
 22
0.6584196410294276
 32
0.0
 13
-0.2875771477137425
 23
0.9577574766676731
 33
0.0
 40
0.0
 40
0.0
 40
0.0
 40
0.0
 40
0.0006178609696637
 40
0.0025238280918951
 40
0.0057516774460303
 40
0.0103542765095745
 40
0.0162722171497671
 40
0.0234867232100684
 40
0.0319681323428762
 40
0.0417098918669659
 40
0.0526991513234511
 40
0.064741541992991
 40
0.0778782946105611
 40
0.0920789904186701
 40
0.1103097290039199
 40
0.129700940375526
 40
0.1502086033981838
 40
0.1717154207143042
 40
0.1940021147980663
 40
0.2166743733353052
 40
0.2399436692024415
 40
0.2637847006266198
 40
0.288115600515652
 40
0.3127859900064714
 40
0.3127859900064714
 40
0.3127859900064714
 40
0.3127859900064714
 10
27.06652374975511
 20
5.453640238481199
 30
0.0
 10
27.06636873852291
 20
5.453775842413818
 30
0.0
 10
27.06576014643719
 20
5.454372324333704
 30
0.0
 10
27.06516020944341
 20
5.456256066669951
 30
0.0
 10
27.06387878575882
 20
5.459205039734726
 30
0.0
 10
27.06235713595081
 20
5.463545448556601
 30
0.0
 10
27.06039029919836
 20
5.469113526703296
 30
0.0
 10
27.05808129782977
 20
5.475940762153499
 30
0.0
 10
27.05540364772185
 20
5.483985244778779
 30
0.0
 10
27.05237476529959
 20
5.493239993084841
 30
0.0
 10
27.04901335283681
 20
5.503634383841713
 30
0.0
 10
27.04533769552589
 20
5.515116584978144
 30
0.0
 10
27.04136572798271
 20
5.527627839677833
 30
0.0
 10
27.03679936753373
 20
5.542114607850578
 30
0.0
 10
27.03163858878594
 20
5.558599911655804
 30
0.0
 10
27.02588319646542
 20
5.577101966375806
 30
0.0
 10
27.01983437856761
 20
5.596656357665409
 30
0.0
 10
27.01352921427697
 20
5.617141711866437
 30
0.0
 10
27.00703880395679
 20
5.638324965025233
 30
0.0
 10
27.00040156162004
 20
5.660077663227241
 30
0.0
 10
26.99363692767366
 20
5.682333170959552
 30
0.0
 10
26.98673471353719
 20
5.705124703194158
 30
0.0
 10
26.97971901120713
 20
5.72836983341152
 30
0.0
 10
26.97501568238069
 20
5.744011783696805
 30
0.0
 10
26.97265080229977
 20
5.751887867025857
 30
0.0
 11
27.06652374975511
 21
5.453640238481199
 31
0.0
 11
27.0660921384582
 21
5.454082414144437
 31
0.0
 11
27.06527956032642
 21
5.455806317151768
 31
0.0
 11
27.0640883784439
 21
5.458806306249982
 31
0.0
 11
27.06250308194217
 21
5.463127259494399
 31
0.0
 11
27.06054576677536
 21
5.468712136305583
 31
0.0
 11
27.05822265752693
 21
5.475542377017035
 31
0.0
 11
27.05554337119736
 21
5.483589467466003
 31
0.0
 11
27.05251006254548
 21
5.49284694364033
 31
0.0
 11
27.04912711824136
 21
5.503302538598461
 31
0.0
 11
27.04545413515757
 21
5.514771118698632
 31
0.0
 11
27.04147799503483
 21
5.52729168358212
 31
0.0
 11
27.03720792507124
 21
5.540835177730741
 31
0.0
 11
27.03176007119214
 21
5.55823289826219
 31
0.0
 11
27.02599931459997
 21
5.576748641007156
 31
0.0
 11
27.01993812706917
 21
5.596340124359414
 31
0.0
 11
27.01361080928268
 21
5.616895128999431
 31
0.0
 11
27.00708137853724
 21
5.63820388882965
 31
0.0
 11
27.0004642914397
 21
5.659889032285946
 31
0.0
 11
26.9936969163308
 21
5.682152516906313
 31
0.0
 11
26.98678641744084
 21
5.704970048959239
 31
0.0
 11
26.97975652495404
 21
5.728263251523941
 31
0.0
 11
26.97265080229977
 21
5.751887867025857
 31
0.0
  0
SPLINE
  5
2E7
330
2
100
AcDbEntity
  8
GAIKEI
  6
Continuous
 62
     1
100
AcDbSpline
210
0.0
220
0.0
230
1.0
 70
     8
 71
     3
 72
    11
 73
     7
 74
     5
 42
0.0000000001
 43
0.0000000001
 44
0.000001
 12
0.1117045080192779
 22
-0.9937414668253364
 32
0.0
 13
0.1717596663978053
 23
-0.98513888208664
 33
0.0
 40
0.0
 40
0.0
 40
0.0
 40
0.0
 40
0.0001599086223832
 40
0.0092970523466191
 40
0.0172856571480339
 40
0.0223562774757458
 40
0.0223562774757458
 40
0.0223562774757458
 40
0.0223562774757458
 10
25.94000081738011
 20
21.77399533648713
 30
0.0
 10
25.94000677155144
 20
21.77394236721081
 30
0.0
 10
25.9403529622025
 20
21.77086274635809
 30
0.0
 10
25.94102088529478
 20
21.76513977171359
 30
0.0
 10
25.94197934539865
 20
21.75780228689374
 30
0.0
 10
25.94268383337781
 20
21.7535060417998
 30
0.0
 10
25.94297414272978
 20
21.75184095338608
 30
0.0
 11
25.94000081738011
 21
21.77399533648713
 31
0.0
 11
25.94001869431645
 21
21.77383643108806
 31
0.0
 11
25.94108835930672
 21
21.76476228576078
 31
0.0
 11
25.94215695302705
 21
21.75684539886902
 31
0.0
 11
25.94297414272978
 21
21.75184095338608
 31
0.0
  0
SPLINE
  5
2E8
330
2
100
AcDbEntity
  8
GAIKEI
  6
Continuous
 62
     1
100
AcDbSpline
210
0.0
220
0.0
230
1.0
 70
     8
 71
     3
 72
    15
 73
    11
 74
     9
 42
0.0000000001
 43
0.0000000001
 44
0.000001
 12
0.9994496190759601
 22
0.0331731657958403
 32
0.0
 13
0.134530790036436
 23
0.9909094138881577
 33
0.0
 40
0.0
 40
0.0
 40
0.0
 40
0.0
 40
0.0233153785982003
 40
0.0466018528889253
 40
0.0698679735041619
 40
0.0931236945379439
 40
0.1163794155718419
 40
0.139645536186903
 40
0.1629320104776194
 40
0.1862473890757132
 40
0.1862473890757132
 40
0.1862473890757132
 40
0.1862473890757132
 10
26.67476628435873
 20
21.72057862422179
 30
0.0
 10
26.68253379977826
 20
21.72083643919507
 30
0.0
 10
26.69805085539226
 20
21.72268681892629
 30
0.0
 10
26.72044324898583
 20
21.72949657432521
 30
0.0
 10
26.74129109201369
 20
21.74010231916846
 30
0.0
 10
26.75995125014366
 20
21.75418746262474
 30
0.0
 10
26.77585912387973
 20
21.77132024759435
 30
0.0
 10
26.78852783474571
 20
21.79098285544745
 30
0.0
 10
26.79757709678863
 20
21.81256763980865
 30
0.0
 10
26.80099420656305
 20
21.82781645224979
 30
0.0
 10
26.80203975199731
 20
21.83551759496353
 30
0.0
 11
26.67476628435873
 21
21.72057862422179
 31
0.0
 11
26.6979155611117
 21
21.72336093198734
 31
0.0
 11
26.72019585563248
 21
21.7301321479948
 31
0.0
 11
26.74093156919742
 21
21.74068411574513
 31
0.0
 11
26.75949327467368
 21
21.75469458501999
 31
0.0
 11
26.77531685920224
 21
21.77173701243402
 31
0.0
 11
26.78792068048461
 21
21.79129353384059
 31
0.0
 11
26.79692021490564
 21
21.81277071406416
 31
0.0
 11
26.80203975199731
 21
21.83551759496353
 31
0.0
  0
SPLINE
  5
2E9
330
2
100
AcDbEntity
  8
GAIKEI
  6
Continuous
 62
     1
100
AcDbSpline
210
0.0
220
0.0
230
1.0
 70
     8
 71
     3
 72
    13
 73
     9
 74
     7
 42
0.0000000001
 43
0.0000000001
 44
0.000001
 12
-0.999877353382941
 22
0.0156613598364006
 32
0.0
 13
-0.9488110788832816
 23
-0.3158441650376698
 33
0.0
 40
0.0
 40
0.0
 40
0.0
 40
0.0
 40
0.0035193495400316
 40
0.0069366593676279
 40
0.0102686576436158
 40
0.013532864983916
 40
0.019931675503105
 40
0.0230409896073194
 40
0.0230409896073194
 40
0.0230409896073194
 40
0.0230409896073194
 10
26.01089867781877
 20
25.15088784095912
 30
0.0
 10
26.0097257051842
 20
25.15090621355895
 30
0.0
 10
26.00741283373248
 20
25.15089701004079
 30
0.0
 10
26.00399210628358
 20
25.15075409713591
 30
0.0
 10
26.00066499938782
 20
25.15047105640852
 30
0.0
 10
25.99636996338349
 20
25.14990022746052
 30
0.0
 10
25.99219527155729
 20
25.14901548627006
 30
0.0
 10
25.98916062042501
 20
25.14809603501293
 30
0.0
 10
25.98817723653508
 20
25.14776868210723
 30
0.0
 11
26.01089867781877
 21
25.15088784095912
 31
0.0
 11
26.00738028195417
 21
25.15087402077131
 31
0.0
 11
26.00396604865534
 21
25.15072857463454
 31
0.0
 11
26.00064611194046
 21
25.1504434995166
 31
0.0
 11
25.99741060582721
 21
25.15001079238528
 31
0.0
 11
25.99115342147775
 21
25.14867046995329
 31
0.0
 11
25.98817723653508
 21
25.14776868210723
 31
0.0
  0
SPLINE
  5
2EA
330
2
100
AcDbEntity
  8
GAIKEI
  6
Continuous
 62
     1
100
AcDbSpline
210
0.0
220
0.0
230
1.0
 70
     8
 71
     3
 72
    27
 73
    23
 74
    21
 42
0.0000000001
 43
0.0000000001
 44
0.000001
 12
0.076512265488583
 22
0.9970686401797044
 32
0.0
 13
0.9552657900996008
 23
0.2957486606316001
 33
0.0
 40
0.0
 40
0.0
 40
0.0
 40
0.0
 40
0.0049081096672613
 40
0.007194918629476
 40
0.0093538447207488
 40
0.0140218595452973
 40
0.0168863887855808
 40
0.0201057702735887
 40
0.024937426570896
 40
0.0303592006904445
 40
0.0363136033730493
 40
0.0449355480795042
 40
0.0526210573926992
 40
0.0587210726899698
 40
0.0641083993651435
 40
0.0689597463310479
 40
0.0735065916914099
 40
0.0777817551463604
 40
0.0817588340345054
 40
0.0856007268680687
 40
0.0893264960170737
 40
0.0929602759868089
 40
0.0929602759868089
 40
0.0929602759868089
 40
0.0929602759868089
 10
25.93952466305677
 20
25.07482715137178
 30
0.0
 10
25.93964983992008
 20
25.07645839211571
 30
0.0
 10
25.93982057442986
 20
25.07885121766063
 30
0.0
 10
25.93993352228816
 20
25.08196731980003
 30
0.0
 10
25.94018018458029
 20
25.08499698918642
 30
0.0
 10
25.94074865069995
 20
25.08818330881516
 30
0.0
 10
25.94154801105214
 20
25.09167699816425
 30
0.0
 10
25.94251656177128
 20
25.09518575636585
 30
0.0
 10
25.94393638120238
 20
25.09944911342555
 30
0.0
 10
25.94596327913698
 20
25.10446175298552
 30
0.0
 10
25.94888831796779
 20
25.11045639236457
 30
0.0
 10
25.95256165903332
 20
25.11691169046859
 30
0.0
 10
25.95670542322539
 20
25.12313344086874
 30
0.0
 10
25.96060487351488
 20
25.12820260084686
 30
0.0
 10
25.96420007938487
 20
25.13229814310383
 30
0.0
 10
25.96767569391911
 20
25.13579746739735
 30
0.0
 10
25.97111367378807
 20
25.13879597522726
 30
0.0
 10
25.97451727228648
 20
25.14137288672439
 30
0.0
 10
25.97789726461059
 20
25.14358019849442
 30
0.0
 10
25.98134033509339
 20
25.14531847376139
 30
0.0
 10
25.98482777417287
 20
25.14665980207609
 30
0.0
 10
25.98714969469825
 20
25.14745354436112
 30
0.0
 10
25.98830676992952
 20
25.1478117728808
 30
0.0
 11
25.93952466305677
 21
25.07482715137178
 31
0.0
 11
25.93984275687399
 21
25.07972482635975
 31
0.0
 11
25.93995169984931
 21
25.08200904722634
 31
0.0
 11
25.94013284630103
 21
25.08416035079392
 31
0.0
 11
25.94089883264519
 21
25.0887650086579
 31
0.0
 11
25.94154005456051
 21
25.09155677073622
 31
0.0
 11
25.94239399648098
 21
25.09466072726985
 31
0.0
 11
25.94391814139499
 21
25.09924551303331
 31
0.0
 11
25.94595085015737
 21
25.10427166366679
 31
0.0
 11
25.9485434076679
 21
25.10963201341008
 31
0.0
 11
25.95280690078528
 21
25.11712613155635
 31
0.0
 11
25.95707765315115
 21
25.12351581227523
 31
0.0
 11
25.96080369787638
 21
25.1283455681949
 31
0.0
 11
25.96436045039297
 21
25.13239184256017
 31
0.0
 11
25.96778796962406
 21
25.13582506217313
 31
0.0
 11
25.97121544735512
 21
25.1388125940133
 31
0.0
 11
25.97462572109782
 21
25.14139064636896
 31
0.0
 11
25.97797201571109
 21
25.14354041627849
 31
0.0
 11
25.98139967884993
 21
25.14527638137463
 31
0.0
 11
25.98486341740272
 21
25.14664892340585
 31
0.0
 11
25.98830676992952
 21
25.1478117728808
 31
0.0
  0
SPLINE
  5
2EB
330
2
100
AcDbEntity
  8
GAIKEI
  6
Continuous
 62
     1
100
AcDbSpline
210
0.0
220
0.0
230
1.0
 70
     8
 71
     3
 72
     9
 73
     5
 74
     3
 42
0.0000000001
 43
0.0000000001
 44
0.000001
 12
-0.1110702931717985
 22
-0.9938125527355401
 32
0.0
 13
-0.0037416002969241
 23
-0.9999930001891105
 33
0.0
 40
0.0
 40
0.0
 40
0.0
 40
0.0
 40
0.0014819459234942
 40
0.0103546008421547
 40
0.0103546008421547
 40
0.0103546008421547
 40
0.0103546008421547
 10
25.9395429630855
 20
25.07499266991672
 30
0.0
 10
25.93948809636277
 20
25.07450174442964
 30
0.0
 10
25.9391312787035
 20
25.07106880324808
 30
0.0
 10
25.93895943238774
 20
25.06761452681265
 30
0.0
 10
25.93894836641164
 20
25.0646569958754
 30
0.0
 11
25.9395429630855
 21
25.07499266991672
 31
0.0
 11
25.9393897229221
 21
25.07351882751908
 31
0.0
 11
25.93894836641164
 21
25.0646569958754
 31
0.0
  0
SPLINE
  5
2EC
330
2
100
AcDbEntity
  8
GAIKEI
  6
Continuous
 62
     1
100
AcDbSpline
210
0.0
220
0.0
230
1.0
 70
     8
 71
     3
 72
     9
 73
     5
 74
     3
 42
0.0000000001
 43
0.0000000001
 44
0.000001
 12
0.0037801567420873
 22
-0.9999928551819785
 32
0.0
 13
0.1113488517851972
 23
-0.993781380991875
 33
0.0
 40
0.0
 40
0.0
 40
0.0
 40
0.0
 40
0.0089265387507856
 40
0.0103706013120687
 40
0.0103706013120687
 40
0.0103706013120687
 40
0.0103706013120687
 10
25.93894836641164
 20
21.78362670164452
 30
0.0
 10
25.93895961431686
 20
21.7806512099871
 30
0.0
 10
25.93913293386933
 20
21.77719155056835
 30
0.0
 10
25.93949192573689
 20
21.77375347819827
 30
0.0
 10
25.93954552397292
 20
21.77327511736948
 30
0.0
 11
25.93894836641164
 21
21.78362670164452
 31
0.0
 11
25.93939552362338
 21
21.77471121343845
 31
0.0
 11
25.93954552397292
 21
21.77327511736948
 31
0.0
  0
SPLINE
  5
2ED
330
2
100
AcDbEntity
  8
GAIKEI
  6
Continuous
 62
     1
100
AcDbSpline
210
0.0
220
0.0
230
1.0
 70
     8
 71
     3
 72
    27
 73
    23
 74
    21
 42
0.0000000001
 43
0.0000000001
 44
0.000001
 12
-0.9535249561077124
 22
0.3013140522441413
 32
0.0
 13
-0.0768695003212578
 23
0.9970411626008027
 33
0.0
 40
0.0
 40
0.0
 40
0.0
 40
0.0
 40
0.0058739979649625
 40
0.0124236204271418
 40
0.0197818398251864
 40
0.0278973743688295
 40
0.0358503791856791
 40
0.0433983327957338
 40
0.0464908188594507
 40
0.0498285563935974
 40
0.0535042922793903
 40
0.057523446329249
 40
0.061889390570726
 40
0.066480365839343
 40
0.070767949252359
 40
0.0742103199827138
 40
0.0773515146810327
 40
0.0801844570515056
 40
0.0827251027316558
 40
0.0852229030852811
 40
0.0877452409019791
 40
0.0928258952681045
 40
0.0928258952681045
 40
0.0928258952681045
 40
0.0928258952681045
 10
25.98830773230327
 20
21.70047352567843
 30
0.0
 10
25.98644073108604
 20
21.70106349838833
 30
0.0
 10
25.98255742150489
 20
21.70252526790759
 30
0.0
 10
25.97665769080109
 20
21.70550855411241
 30
0.0
 10
25.97063061197807
 20
21.7097479107025
 30
0.0
 10
25.96491424960932
 20
21.71509888398518
 30
0.0
 10
25.95978805516775
 20
21.72109072744566
 30
0.0
 10
25.95622767847653
 20
21.72617477579795
 30
0.0
 10
25.95377982569669
 20
21.73013965829651
 30
0.0
 10
25.95206935837192
 20
21.73304208067819
 30
0.0
 10
25.95027708058325
 20
21.73625370056679
 30
0.0
 10
25.94840200285725
 20
21.73981045274046
 30
0.0
 10
25.94648010937452
 20
21.7436855316565
 30
0.0
 10
25.94460990395154
 20
21.74768632265347
 30
0.0
 10
25.94310482607779
 20
21.75151089567257
 30
0.0
 10
25.9419793371311
 20
21.7549572755881
 30
0.0
 10
25.94117627683785
 20
21.75799348629503
 30
0.0
 10
25.94060679487404
 20
21.76077541440557
 30
0.0
 10
25.94021958307941
 20
21.76337199748693
 30
0.0
 10
25.94000153083572
 20
21.76588406985573
 30
0.0
 10
25.93984251935777
 20
21.76924736077113
 30
0.0
 10
25.93965483213327
 20
21.77177508308597
 30
0.0
 10
25.93952464967913
 20
21.77346362359796
 30
0.0
 11
25.98830773230327
 21
21.70047352567843
 31
0.0
 11
25.98280747891351
 21
21.70253818390509
 31
0.0
 11
25.97697377061945
 21
21.70551567898912
 31
0.0
 11
25.9709410612262
 21
21.70972863370201
 31
0.0
 11
25.96498478864362
 21
21.71524067809537
 31
0.0
 11
25.95980441653819
 21
21.72127494946017
 31
0.0
 11
25.95546221730604
 21
21.72744873977785
 31
0.0
 11
25.95383161390919
 21
21.73007636792059
 31
0.0
 11
25.95213750537437
 21
21.73295219797885
 31
0.0
 11
25.95034525518088
 21
21.73616139381653
 31
0.0
 11
25.94847013253184
 21
21.73971637197888
 31
0.0
 11
25.94652793813714
 21
21.74362663005147
 31
0.0
 11
25.94461165454777
 21
21.74779854455341
 31
0.0
 11
25.94304498352233
 21
21.75178942846503
 31
0.0
 11
25.94198003511235
 21
21.75506275894364
 31
0.0
 11
25.94117939067212
 21
21.75810009960966
 31
0.0
 11
25.94061266879442
 21
21.76087571891975
 31
0.0
 11
25.94024255111197
 21
21.763389231036
 31
0.0
 11
25.94001751717212
 21
21.76587686555643
 31
0.0
 11
25.93987431155449
 21
21.76839514603068
 31
0.0
 11
25.93952464967913
 21
21.77346362359796
 31
0.0
  0
SPLINE
  5
2EE
330
2
100
AcDbEntity
  8
GAIKEI
  6
Continuous
 62
     1
100
AcDbSpline
210
0.0
220
0.0
230
1.0
 70
     8
 71
     3
 72
    13
 73
     9
 74
     7
 42
0.0000000001
 43
0.0000000001
 44
0.000001
 12
0.9487139982427795
 22
-0.3161356505334366
 32
0.0
 13
0.9998801064241472
 23
0.0154845980650528
 33
0.0
 40
0.0
 40
0.0
 40
0.0
 40
0.0
 40
0.00322816300206
 40
0.0096478713637333
 40
0.0129156519904508
 40
0.0162409066154061
 40
0.0196368648975663
 40
0.0231158048285515
 40
0.0231158048285515
 40
0.0231158048285515
 40
0.0231158048285515
 10
25.98810536294104
 20
21.70054082234847
 30
0.0
 10
25.9891262307506
 20
21.70020064321157
 30
0.0
 10
25.99220608949976
 20
21.69926916454603
 30
0.0
 10
25.99642888172646
 20
21.69838112068692
 30
0.0
 10
26.00073005489182
 20
21.69781194706489
 30
0.0
 10
26.00404901847509
 20
21.69752989898952
 30
0.0
 10
26.00744689200238
 20
21.69738714720431
 30
0.0
 10
26.0097391702093
 20
21.6973778998986
 30
0.0
 10
26.01089867781877
 20
21.69739585656078
 30
0.0
 11
25.98810536294104
 21
21.70054082234847
 31
0.0
 11
25.99119583866662
 21
21.69960634530978
 31
0.0
 11
25.99747529621959
 21
21.69827006442639
 31
0.0
 11
26.00071461846426
 21
21.69783892679695
 31
0.0
 11
26.00402786065968
 21
21.69755493897603
 31
0.0
 11
26.00742066603482
 21
21.69740996191388
 31
0.0
 11
26.01089867781877
 21
21.69739585656078
 31
0.0
  0
SPLINE
  5
2EF
330
2
100
AcDbEntity
  8
GAIKEI
  6
Continuous
 62
     1
100
AcDbSpline
210
0.0
220
0.0
230
1.0
 70
     8
 71
     3
 72
    15
 73
    11
 74
     9
 42
0.0000000001
 43
0.0000000001
 44
0.000001
 12
-0.1345307900367005
 22
0.990909413888122
 32
0.0
 13
-0.9994496190759491
 23
0.0331731657961701
 33
0.0
 40
0.0
 40
0.0
 40
0.0
 40
0.0
 40
0.0233153785982047
 40
0.0466018528890437
 40
0.0698679735041664
 40
0.0931236945380436
 40
0.1163794155718085
 40
0.139645536186905
 40
0.1629320104776135
 40
0.1862473890756975
 40
0.1862473890756975
 40
0.1862473890756975
 40
0.1862473890756975
 10
26.80203975199731
 20
25.01276610255639
 30
0.0
 10
26.80099420656303
 20
25.02046724527016
 30
0.0
 10
26.79757709678862
 20
25.0357160577114
 30
0.0
 10
26.78852783474563
 20
25.05730084207265
 30
0.0
 10
26.77585912387951
 20
25.07696344992573
 30
0.0
 10
26.75995125014343
 20
25.09409623489536
 30
0.0
 10
26.74129109201349
 20
25.10818137835159
 30
0.0
 10
26.72044324898568
 20
25.11878712319478
 30
0.0
 10
26.69805085539215
 20
25.1255968785936
 30
0.0
 10
26.68253379977822
 20
25.12744725832482
 30
0.0
 10
26.67476628435873
 20
25.1277050732981
 30
0.0
 11
26.80203975199731
 21
25.01276610255639
 31
0.0
 11
26.79692021490564
 21
25.03551298345588
 31
0.0
 11
26.78792068048449
 21
25.05699016367953
 31
0.0
 11
26.77531685920201
 21
25.0765466850861
 31
0.0
 11
26.75949327467345
 21
25.0935891125001
 31
0.0
 11
26.74093156919719
 21
25.10759958177493
 31
0.0
 11
26.72019585563237
 21
25.11815154952518
 31
0.0
 11
26.69791556111159
 21
25.12492276553258
 31
0.0
 11
26.67476628435873
 21
25.1277050732981
 31
0.0
  0
SPLINE
  5
2F0
330
2
100
AcDbEntity
  8
GAIKEI
  6
Continuous
 62
     1
100
AcDbSpline
210
0.0
220
0.0
230
1.0
 70
     8
 71
     3
 72
    21
 73
    17
 74
    15
 42
0.0000000001
 43
0.0000000001
 44
0.000001
 12
0.978004482629762
 22
0.2085838727133314
 32
0.0
 13
0.1354487900196674
 23
0.9907843485250502
 33
0.0
 40
0.0
 40
0.0
 40
0.0
 40
0.0
 40
0.0199215087763172
 40
0.0395198938739145
 40
0.0588087415335798
 40
0.0777961773045899
 40
0.09648728297425
 40
0.1148865293641577
 40
0.1329997522067975
 40
0.1508345262551564
 40
0.1741839345166028
 40
0.1970597141137876
 40
0.2194690949709153
 40
0.2414165726700063
 40
0.2629089085026706
 40
0.2839580335681901
 40
0.2839580335681901
 40
0.2839580335681901
 40
0.2839580335681901
 10
26.907622991322
 20
21.47781618726583
 30
0.0
 10
26.91411743294999
 20
21.47920128908278
 30
0.0
 10
26.92688985401816
 20
21.4825054670444
 30
0.0
 10
26.94539577663645
 20
21.48903868218146
 30
0.0
 10
26.96300893432515
 20
21.4969630395198
 30
0.0
 10
26.97965029848585
 20
21.50615207117406
 30
0.0
 10
26.99525256545765
 20
21.51648296445485
 30
0.0
 10
27.00975523595925
 20
21.52783990411854
 30
0.0
 10
27.02310718553908
 20
21.54011181674446
 30
0.0
 10
27.03657133514048
 20
21.55460894733513
 30
0.0
 10
27.04965200923574
 20
21.57153551425428
 30
0.0
 10
27.0617909671296
 20
21.59097030555832
 30
0.0
 10
27.07178760782684
 20
21.61106629524163
 30
0.0
 10
27.07967487102119
 20
21.63158470368811
 30
0.0
 10
27.08549896717904
 20
21.65230777441421
 30
0.0
 10
27.08805880350401
 20
21.66627901855585
 30
0.0
 10
27.08900916301104
 20
21.67323073311087
 30
0.0
 11
26.907622991322
 21
21.47781618726583
 31
0.0
 11
26.92690953043507
 21
21.48280777841816
 31
0.0
 11
26.94539168676897
 21
21.48932748914859
 31
0.0
 11
26.96298266532802
 21
21.49724058975022
 31
0.0
 11
26.97960461361504
 21
21.50641848053004
 31
0.0
 11
26.99518836296659
 21
21.51673857838966
 31
0.0
 11
27.00967316264178
 21
21.52808420235055
 31
0.0
 11
27.0230064069558
 21
21.5403444574265
 31
0.0
 11
27.03514329938685
 21
21.55341256532967
 31
0.0
 11
27.04942712177877
 21
21.57188330059694
 31
0.0
 11
27.06154861358846
 21
21.59128359060793
 31
0.0
 11
27.07152974866005
 21
21.61134742838931
 31
0.0
 11
27.07940340602488
 21
21.63183394673467
 31
0.0
 11
27.08521250599699
 21
21.6525263362841
 31
0.0
 11
27.08900916301104
 21
21.67323073311087
 31
0.0
  0
SPLINE
  5
2F1
330
2
100
AcDbEntity
  8
GAIKEI
  6
Continuous
 62
     1
100
AcDbSpline
210
0.0
220
0.0
230
1.0
 70
     8
 71
     3
 72
    15
 73
    11
 74
     9
 42
0.0000000001
 43
0.0000000001
 44
0.000001
 12
0.9785263958185264
 22
0.2061215483310866
 32
0.0
 13
0.1327585762537782
 23
0.9911484048471599
 33
0.0
 40
0.0
 40
0.0
 40
0.0
 40
0.0
 40
0.0257301444279343
 40
0.0508393460168287
 40
0.0759402904367359
 40
0.1016467932428445
 40
0.1273459535904971
 40
0.1524442556000925
 40
0.177556234341914
 40
0.203294906624298
 40
0.203294906624298
 40
0.203294906624298
 40
0.203294906624298
 10
26.89380881720183
 20
21.5422823331599
 30
0.0
 10
26.90220135903215
 20
21.54405017889599
 30
0.0
 10
26.91854166318523
 20
21.54882673167688
 30
0.0
 10
26.9415724263937
 20
21.55956406489108
 30
0.0
 10
26.96259788270439
 20
21.57384223704626
 30
0.0
 10
26.98129453287135
 20
21.59131960372939
 30
0.0
 10
26.99733694920939
 20
21.61126016726173
 30
0.0
 10
27.01001146454405
 20
21.63328699312683
 30
0.0
 10
27.01900647659899
 20
21.65705551371775
 30
0.0
 10
27.02255528585013
 20
21.67370951671019
 30
0.0
 10
27.02369429567909
 20
21.68221313136871
 30
0.0
 11
26.89380881720183
 21
21.5422823331599
 31
0.0
 11
26.91850574781404
 21
21.54950208222027
 31
0.0
 11
26.94124511740506
 21
21.56015070927594
 31
0.0
 11
26.96202692597513
 21
21.57422821432692
 31
0.0
 11
26.98085117352412
 21
21.59173459737321
 31
0.0
 11
26.99690820531055
 21
21.61179999151966
 31
0.0
 11
27.00940106959854
 21
21.63356821190106
 31
0.0
 11
27.01832976638798
 21
21.65703925851742
 31
0.0
 11
27.02369429567909
 21
21.68221313136871
 31
0.0
  0
SPLINE
  5
2F2
330
2
100
AcDbEntity
  8
GAIKEI
  6
Continuous
 62
     1
100
AcDbSpline
210
0.0
220
0.0
230
1.0
 70
     8
 71
     3
 72
     9
 73
     5
 74
     3
 42
0.0000000001
 43
0.0000000001
 44
0.000001
 12
0.1362218791743881
 22
0.990678353268203
 32
0.0
 13
0.0000205302016735
 23
0.9999999997892553
 33
0.0
 40
0.0
 40
0.0
 40
0.0
 40
0.0
 40
0.0636160010089689
 40
0.1272320020215971
 40
0.1272320020215971
 40
0.1272320020215971
 40
0.1272320020215971
 10
27.22498474598717
 20
23.1458822628945
 30
0.0
 10
27.22787337638818
 20
23.16688992793486
 30
0.0
 10
27.23221973057483
 20
23.20911467136783
 30
0.0
 10
27.23366669642131
 20
23.2515378494965
 30
0.0
 10
27.23366713177109
 20
23.2727431831629
 30
0.0
 11
27.22498474598717
 21
23.1458822628945
 31
0.0
 11
27.23149588115587
 21
23.20916421176008
 31
0.0
 11
27.23366713177109
 21
23.2727431831629
 31
0.0
  0
SPLINE
  5
2F3
330
2
100
AcDbEntity
  8
GAIKEI
  6
Continuous
 62
     1
100
AcDbSpline
210
0.0
220
0.0
230
1.0
 70
     8
 71
     3
 72
     9
 73
     5
 74
     3
 42
0.0000000001
 43
0.0000000001
 44
0.000001
 12
-0.0000205301984769
 22
0.9999999997892555
 32
0.0
 13
-0.1362218791775721
 23
0.990678353267765
 33
0.0
 40
0.0
 40
0.0
 40
0.0
 40
0.0
 40
0.0636160010141195
 40
0.127232002021604
 40
0.127232002021604
 40
0.127232002021604
 40
0.127232002021604
 10
27.23366713177109
 20
23.57554051435702
 30
0.0
 10
27.23366669642138
 20
23.59674584802391
 30
0.0
 10
27.23221973057494
 20
23.6391690261526
 30
0.0
 10
27.22787337638818
 20
23.68139376958556
 30
0.0
 10
27.22498474598717
 20
23.70240143462542
 30
0.0
 11
27.23366713177109
 21
23.57554051435702
 31
0.0
 11
27.23149588115587
 21
23.63911948576134
 31
0.0
 11
27.22498474598717
 21
23.70240143462542
 31
0.0
  0
SPLINE
  5
2F4
330
2
100
AcDbEntity
  8
GAIKEI
  6
Continuous
 62
     1
100
AcDbSpline
210
0.0
220
0.0
230
1.0
 70
     8
 71
     3
 72
    15
 73
    11
 74
     9
 42
0.0000000001
 43
0.0000000001
 44
0.000001
 12
-0.1327902774087838
 22
0.9911441581453722
 32
0.0
 13
-0.9785329879817496
 23
0.2060902506949534
 33
0.0
 40
0.0
 40
0.0
 40
0.0
 40
0.0
 40
0.025730144427474
 40
0.0508393460162984
 40
0.0759402904363192
 40
0.1016467932429407
 40
0.1273459535906121
 40
0.1524442556002716
 40
0.177556234342068
 40
0.2032949066243493
 40
0.2032949066243493
 40
0.2032949066243493
 40
0.2032949066243493
 10
27.02369429567909
 20
25.16607056615121
 30
0.0
 10
27.02255539134033
 20
25.17457132693038
 30
0.0
 10
27.01900708384443
 20
25.19122156747493
 30
0.0
 10
27.01001198237742
 20
25.21498697359625
 30
0.0
 10
26.9973367348602
 20
25.23701591169032
 30
0.0
 10
26.98129798536195
 20
25.25696037428486
 30
0.0
 10
26.96260549611971
 20
25.27444110773313
 30
0.0
 10
26.94158209174712
 20
25.28871839267282
 30
0.0
 10
26.91854821604271
 20
25.29945586830638
 30
0.0
 10
26.90220419716685
 20
25.30423320121892
 30
0.0
 10
26.89380881720183
 20
25.30600136435999
 30
0.0
 11
27.02369429567909
 21
25.16607056615121
 31
0.0
 11
27.01833093232926
 21
25.19123596882457
 31
0.0
 11
27.00940262418681
 21
25.21470419204829
 31
0.0
 11
26.99690937125183
 21
25.23647523582233
 31
0.0
 11
26.98085117352412
 21
25.25654910014669
 31
0.0
 11
26.96203528600802
 21
25.27405369065963
 31
0.0
 11
26.94125626411551
 21
25.28813059819948
 31
0.0
 11
26.91851410784682
 21
25.29877982276628
 31
0.0
 11
26.89380881720183
 21
25.30600136435999
 31
0.0
  0
SPLINE
  5
2F5
330
2
100
AcDbEntity
  8
GAIKEI
  6
Continuous
 62
     1
100
AcDbSpline
210
0.0
220
0.0
230
1.0
 70
     8
 71
     3
 72
    15
 73
    11
 74
     9
 42
0.0000000001
 43
0.0000000001
 44
0.000001
 12
-0.1364008987339492
 22
0.9906537209462097
 32
0.0
 13
-0.1677708966327061
 23
0.9858260121558256
 33
0.0
 40
0.0
 40
0.0
 40
0.0
 40
0.0
 40
0.0088099548289516
 40
0.017520847846406
 40
0.0261353685926659
 40
0.0346546660583846
 40
0.0430781984095309
 40
0.0513553481857564
 40
0.0593952990170761
 40
0.0671960523423747
 40
0.0671960523423747
 40
0.0671960523423747
 40
0.0671960523423747
 10
26.8176349655729
 20
24.91351286014785
 30
0.0
 10
26.81723440365407
 20
24.91642206499208
 30
0.0
 10
26.81640666817353
 20
24.92220352336638
 30
0.0
 10
26.81508365069098
 20
24.93081440351995
 30
0.0
 10
26.81369500751163
 20
24.93931676513309
 30
0.0
 10
26.8122563465399
 20
24.94771359192939
 30
0.0
 10
26.81078960389346
 20
24.9559913351878
 30
0.0
 10
26.80932925951497
 20
24.96410787694762
 30
0.0
 10
26.80790768999991
 20
24.97202050678426
 30
0.0
 10
26.80701135956703
 20
24.97722415301993
 30
0.0
 10
26.8065751131071
 20
24.97978754820076
 30
0.0
 11
26.8176349655729
 21
24.91351286014785
 31
0.0
 11
26.81638799891857
 21
24.9222341862527
 31
0.0
 11
26.81506613579302
 21
24.93084420257031
 31
0.0
 11
26.81367977592447
 21
24.93934643662061
 31
0.0
 11
26.81224393829098
 21
24.94774386411712
 31
0.0
 11
26.81077838024214
 21
24.95603892369053
 31
0.0
 11
26.8093165877159
 21
24.96418597001292
 31
0.0
 11
26.80790418724053
 21
24.97210092049523
 31
0.0
 11
26.8065751131071
 21
24.97978754820076
 31
0.0
  0
SPLINE
  5
2F6
330
2
100
AcDbEntity
  8
GAIKEI
  6
Continuous
 62
     1
100
AcDbSpline
210
0.0
220
0.0
230
1.0
 70
     8
 71
     3
 72
    13
 73
     9
 74
     7
 42
0.0000000001
 43
0.0000000001
 44
0.000001
 12
-0.1032078770309288
 22
0.9946598082353428
 32
0.0
 13
-0.135947176317206
 23
0.9907160871063812
 33
0.0
 40
0.0
 40
0.0
 40
0.0
 40
0.0
 40
0.0106674821795217
 40
0.0213526033888006
 40
0.0323808699812688
 40
0.0439032233371616
 40
0.055587226842309
 40
0.0673754141472346
 40
0.0673754141472346
 40
0.0673754141472346
 40
0.0673754141472346
 10
26.92070269625981
 20
24.14991697927678
 30
0.0
 10
26.92033570686347
 20
24.15345381786979
 30
0.0
 10
26.91961358934353
 20
24.16053469287464
 30
0.0
 10
26.91860106153467
 20
24.17128075327506
 30
0.0
 10
26.9175260373803
 20
24.18230708662186
 30
0.0
 10
26.91633415062587
 20
24.19365639598551
 30
0.0
 10
26.91498278966189
 20
24.20524300880659
 30
0.0
 10
26.91397127150317
 20
24.21300170345471
 30
0.0
 10
26.91343708124384
 20
24.21689461905498
 30
0.0
 11
26.92070269625981
 21
24.14991697927678
 31
0.0
 11
26.91962875360218
 21
24.16052997205168
 31
0.0
 11
26.91860713169729
 21
24.17116638726202
 31
0.0
 11
26.91752969655715
 21
24.18214190124934
 31
0.0
 11
26.91631903040184
 21
24.19360047772887
 31
0.0
 11
26.91496176633075
 21
24.20520538554811
 31
0.0
 11
26.91343708124384
 21
24.21689461905498
 31
0.0
  0
SPLINE
  5
2F7
330
2
100
AcDbEntity
  8
GAIKEI
  6
Continuous
 62
     1
100
AcDbSpline
210
0.0
220
0.0
230
1.0
 70
     8
 71
     3
 72
    14
 73
    10
 74
     8
 42
0.0000000001
 43
0.0000000001
 44
0.000001
 12
0.1677588837034731
 22
0.9858280564776825
 32
0.0
 13
0.1366130456583842
 23
0.9906244877631182
 33
0.0
 40
0.0
 40
0.0
 40
0.0
 40
0.0
 40
0.00778055378193
 40
0.0157593947442874
 40
0.0239337084991847
 40
0.0323033226631446
 40
0.043835678540694
 40
0.0554749749921557
 40
0.0671959577983805
 40
0.0671959577983805
 40
0.0671959577983805
 40
0.0671959577983805
 10
26.8065751131071
 20
21.86849614931916
 30
0.0
 10
26.80701019877945
 20
21.87105291205688
 30
0.0
 10
26.80790189132563
 20
21.87622985471699
 30
0.0
 10
26.80931237947206
 20
21.88408210996987
 30
0.0
 10
26.81075991640549
 20
21.89212717047297
 30
0.0
 10
26.81239378652382
 20
21.901342226056
 30
0.0
 10
26.81416063135643
 20
21.91170662432873
 30
0.0
 10
26.81598530524237
 20
21.92319378908789
 30
0.0
 10
26.81710121918647
 20
21.93090047317588
 30
0.0
 10
26.8176349655729
 20
21.93477083737204
 30
0.0
 11
26.8065751131071
 21
21.86849614931916
 31
0.0
 11
26.80790067726809
 21
21.87616288970961
 31
0.0
 11
26.80930221337997
 21
21.88401769995659
 31
0.0
 11
26.81074599699537
 21
21.89206349928918
 31
0.0
 11
26.81220304973613
 21
21.90030530842165
 31
0.0
 11
26.81413425097753
 21
21.91167481568522
 31
0.0
 11
26.81595577527855
 21
21.92317070018692
 31
0.0
 11
26.8176349655729
 21
21.93477083737204
 31
0.0
  0
SPLINE
  5
2F8
330
2
100
AcDbEntity
  8
GAIKEI
  6
Continuous
 62
     1
100
AcDbSpline
210
0.0
220
0.0
230
1.0
 70
     8
 71
     3
 72
    14
 73
    10
 74
     8
 42
0.0000000001
 43
0.0000000001
 44
0.000001
 12
0.1359523053525381
 22
0.9907153832808543
 32
0.0
 13
0.1044770653903519
 23
0.9945272961600501
 33
0.0
 40
0.0
 40
0.0
 40
0.0
 40
0.0
 40
0.0117441122318229
 40
0.0233143127744299
 40
0.0347515885516744
 40
0.0432002755691822
 40
0.0514996482291385
 40
0.05955813221226
 40
0.0673754410105541
 40
0.0673754410105541
 40
0.0673754410105541
 40
0.0673754410105541
 10
26.92329388360827
 20
22.70306211280092
 30
0.0
 10
26.92382609665235
 20
22.70694047035127
 30
0.0
 10
26.92483101786864
 20
22.71464695100218
 30
0.0
 10
26.92617416793871
 20
22.72615297670038
 30
0.0
 10
26.92727171876184
 20
22.73658093313411
 30
0.0
 10
26.92819106933536
 20
22.74593097884178
 30
0.0
 10
26.92897733669878
 20
22.75416235336803
 30
0.0
 10
26.92974497590868
 20
22.76218412537279
 30
0.0
 10
26.9302872554634
 20
22.76744824358498
 30
0.0
 10
26.93055949862424
 20
22.77003975257912
 30
0.0
 11
26.92329388360827
 21
22.70306211280092
 31
0.0
 11
26.92481316732642
 21
22.71470759892642
 31
0.0
 11
26.92615843376791
 21
22.7261993293983
 31
0.0
 11
26.92736203814354
 21
22.73757309822165
 31
0.0
 11
26.92819300745623
 21
22.74598081992184
 31
0.0
 11
26.928986210615
 21
22.75424220039213
 31
0.0
 11
26.92976346816897
 21
22.76226313661573
 31
0.0
 11
26.93055949862424
 21
22.77003975257912
 31
0.0
  0
ARC
  5
2F9
330
2
100
AcDbEntity
  8
GAIKEI
 62
     1
100
AcDbCircle
 10
26.02338215962902
 20
25.97492532368847
 30
0.0
 40
0.1000109124005768
100
AcDbArc
 50
294.6822153763272
 51
359.9992555506058
  0
LINE
  5
2FA
330
2
100
AcDbEntity
  8
GAIKEI
 62
     1
100
AcDbLine
 10
26.12339307202103
 20
25.97492403534943
 30
0.0
 11
26.12339307202103
 21
26.02361172759169
 31
0.0
  0
ARC
  5
2FB
330
2
100
AcDbEntity
  8
GAIKEI
 62
     1
100
AcDbCircle
 10
26.04704805270364
 20
26.0286012035354
 30
0.0
 40
0.0096820896984856
100
AcDbArc
 50
265.9875314113319
 51
357.4403055779336
  0
LINE
  5
2FC
330
2
100
AcDbEntity
  8
GAIKEI
 62
     1
100
AcDbLine
 10
26.05672048194117
 20
26.02816879912365
 30
0.0
 11
26.05672048194117
 21
26.04777624111364
 31
0.0
  0
ARC
  5
2FD
330
2
100
AcDbEntity
  8
GAIKEI
 62
     1
100
AcDbCircle
 10
26.06672137045314
 20
26.04777624111358
 30
0.0
 40
0.0100008885120045
100
AcDbArc
 50
88.00000000002242
 51
179.9999999998913
  0
LINE
  5
2FE
330
2
100
AcDbEntity
  8
GAIKEI
 62
     1
100
AcDbLine
 10
26.06707040146216
 20
26.0577710290836
 30
0.0
 11
26.09122019689994
 21
26.05692771506142
 31
0.0
  0
ARC
  5
2FF
330
2
100
AcDbEntity
  8
GAIKEI
 62
     1
100
AcDbCircle
 10
26.09005676774371
 20
26.02361172385946
 30
0.0
 40
0.03333630427746
100
AcDbArc
 50
0.000006414618277
 51
88.00001314450822
  0
LINE
  5
300
330
2
100
AcDbEntity
  8
GAIKEI
 62
     1
100
AcDbLine
 10
24.49916836060106
 20
2.446545327402702
 30
0.0
 11
24.49916836060106
 21
2.340756078188633
 31
0.0
  0
ELLIPSE
  5
301
330
2
100
AcDbEntity
  8
S1
100
AcDbEllipse
 10
32.01324711279369
 20
18.28508684179326
 30
0.0
 11
-0.0010561492818511
 21
-0.3251459740627804
 31
0.0
210
0.0
220
0.0
230
1.0
 40
0.7373811941899307
 41
0.0
 42
6.283185307179586
  0
TEXT
  5
303
330
2
100
AcDbEntity
  8
TOUROKU
100
AcDbText
 10
10.37838055316176
 20
46.82006515068652
 30
0.0
 40
2.0
  1
ＴＨ４２ＰＨ１１ＫＲ＋ＴＹＣＥ４２ＰＳ７
 72
     2
 11
57.57838055316176
 21
46.82006515068652
 31
0.0
100
AcDbText
  0
TEXT
  5
305
330
2
100
AcDbEntity
  8
MOJI1
100
AcDbText
 10
-40.42156947976581
 20
52.82006515068676
 30
0.0
 40
4.0
  1
ハイビジョンプラズマディスプレイ天吊り金具付
 41
0.9200000000000001
100
AcDbText
  0
DIMENSION
  5
306
330
2
100
AcDbEntity
  8
SUNPO
100
AcDbDimension
  2
*D8
 10
4.523869498196746
 20
34.38974435464425
 30
0.0
 11
-23.64248669617331
 21
34.38974435464425
 31
0.0
 70
   161
  1
1210
 71
     5
 42
40.3333311242635
  3
STANDARD
100
AcDbAlignedDimension
 13
-35.80946162606676
 23
26.38974435464424
 33
0.0
 14
4.523869498196745
 24
26.38974435464424
 34
0.0
1001
ACAD
1000
DSTYLE
1002
{
1070
    40
1040
1.0
1070
   140
1040
2.5
1070
   147
1040
0.5
1070
   172
1070
     1
1070
   279
1070
     0
1070
   288
1070
     0
1002
}
  0
DIMENSION
  5
315
330
2
100
AcDbEntity
  8
SUNPO
100
AcDbDimension
  2
*D7
 10
12.48360900002672
 20
26.38273803356004
 30
0.0
 11
10.73360900002671
 21
14.3160753605804
 31
0.0
 70
    33
  1
724
 71
     5
 42
24.13332534595929
  3
STANDARD
100
AcDbAlignedDimension
 13
4.483609000026717
 23
2.249412687600752
 33
0.0
 14
4.483609000026717
 24
26.38273803356005
 34
0.0
1001
ACAD
1000
DSTYLE
1002
{
1070
    40
1040
1.0
1070
   140
1040
2.5
1070
   147
1040
0.5
1070
   172
1070
     1
1070
   279
1070
     0
1070
   288
1070
     0
1002
}
  0
DIMENSION
  5
322
330
2
100
AcDbEntity
  8
SUNPO
100
AcDbDimension
  2
*D6
 10
-43.76284557227802
 20
41.91530506183869
 30
0.0
 11
-45.51284557227803
 21
22.08235887471972
 31
0.0
 70
    33
  1
1130.3～1430.3
 71
     5
 42
39.66589237423794
  3
STANDARD
100
AcDbAlignedDimension
 13
-35.76284557227803
 23
2.249412687600752
 33
0.0
 14
-35.76284557227803
 24
41.91530506183869
 34
0.0
1001
ACAD
1000
DSTYLE
1002
{
1070
    40
1040
1.0
1070
   140
1040
2.5
1070
   147
1040
0.5
1070
   172
1070
     1
1070
   279
1070
     0
1070
   288
1070
     0
1002
}
  0
DIMENSION
  5
32F
330
2
100
AcDbEntity
  8
SUNPO
100
AcDbDimension
  2
*D5
 10
-3.509468002708388
 20
-5.743852609184216
 30
0.0
 11
-15.69280050649507
 21
-3.993852609184216
 31
0.0
 70
    33
  1
731
 71
     5
 42
24.36666500757338
  3
STANDARD
100
AcDbAlignedDimension
 13
-27.87613301028176
 23
2.256147390815783
 33
0.0
 14
-3.509468002708388
 24
2.256147390815783
 34
0.0
1001
ACAD
1000
DSTYLE
1002
{
1070
    40
1040
1.0
1070
   140
1040
2.5
1070
   147
1040
0.5
1070
   172
1070
     1
1070
   279
1070
     0
1070
   288
1070
     0
1002
}
  0
TEXT
  5
33C
330
2
100
AcDbEntity
  8
MOJI1
100
AcDbText
 10
-64.92156947976559
 20
-40.17993484931344
 30
0.0
 40
3.0
  1
階調数
100
AcDbText
  0
TEXT
  5
33D
330
2
100
AcDbEntity
  8
MOJI1
100
AcDbText
 10
-64.92156947976559
 20
-35.17993484931344
 30
0.0
 40
3.0
  1
コントラスト
100
AcDbText
  0
LINE
  5
33E
330
2
100
AcDbEntity
  8
WAKU
 62
     1
100
AcDbLine
 10
-67.42156947976559
 20
-41.17993484931344
 30
0.0
 11
57.57843052023417
 21
-41.17993484931344
 31
0.0
  0
LINE
  5
340
330
2
100
AcDbEntity
  8
WAKU
 62
     1
100
AcDbLine
 10
-67.42156947976559
 20
-36.17993484931344
 30
0.0
 11
57.57843052023417
 21
-36.17993484931344
 31
0.0
  0
TEXT
  5
341
330
2
100
AcDbEntity
  8
MOJI1
100
AcDbText
 10
-64.92156947976559
 20
-15.17993484931344
 30
0.0
 40
3.0
  1
電  源
100
AcDbText
  0
TEXT
  5
342
330
2
100
AcDbEntity
  8
MOJI1
100
AcDbText
 10
-64.92156947976559
 20
-20.17993484931344
 30
0.0
 40
3.0
  1
消費電力
100
AcDbText
  0
TEXT
  5
343
330
2
100
AcDbEntity
  8
MOJI1
100
AcDbText
 10
-64.92156947976559
 20
-25.17993484931344
 30
0.0
 40
3.0
  1
画面サイズ
100
AcDbText
  0
TEXT
  5
344
330
2
100
AcDbEntity
  8
MOJI1
100
AcDbText
 10
-25.9215694797656
 20
-20.17993484931344
 30
0.0
 40
3.0
  1
３５５Ｗ
100
AcDbText
  0
TEXT
  5
345
330
2
100
AcDbEntity
  8
MOJI1
100
AcDbText
 10
-25.9215694797656
 20
-25.17993484931344
 30
0.0
 40
3.0
  1
４２Ｖ型（１６：９）
100
AcDbText
  0
TEXT
  5
346
330
2
100
AcDbEntity
  8
MOJI1
100
AcDbText
 10
-25.9215694797656
 20
-15.17993484931344
 30
0.0
 40
3.0
  1
ＡＣ１００Ｖ　５０Ｈｚ／６０Ｈｚ
100
AcDbText
  0
TEXT
  5
347
330
2
100
AcDbEntity
  8
MOJI1
100
AcDbText
 10
-64.92156947976559
 20
-50.17993484931344
 30
0.0
 40
3.0
  1
接続端子
100
AcDbText
  0
TEXT
  5
348
330
2
100
AcDbEntity
  8
MOJI1
100
AcDbText
 10
-64.92156947976559
 20
-45.17993484931344
 30
0.0
 40
3.0
  1
音声最大出力
100
AcDbText
  0
TEXT
  5
349
330
2
100
AcDbEntity
  8
MOJI1
100
AcDbText
 10
-25.9215694797656
 20
-45.17993484931344
 30
0.0
 40
3.0
  1
１６Ｗ（８Ｗ＋８Ｗ）
100
AcDbText
  0
TEXT
  5
34A
330
2
100
AcDbEntity
  8
MOJI1
100
AcDbText
 10
-25.9215694797656
 20
-55.17993484931344
 30
0.0
 40
3.0
  1
シリアル
100
AcDbText
  0
TEXT
  5
34B
330
2
100
AcDbEntity
  8
MOJI1
100
AcDbText
 10
-25.9215694797656
 20
-50.17993484931344
 30
0.0
 40
3.0
  1
ビデオ／Ｓビデオ／ＰＣ／外部スピーカ
100
AcDbText
  0
TEXT
  5
34C
330
2
100
AcDbEntity
  8
MOJI1
100
AcDbText
 10
-25.9215694797656
 20
-30.17993484931344
 30
0.0
 40
3.0
  1
７８６４３２画素（水平１０２４×垂直７６８）
100
AcDbText
  0
LINE
  5
34D
330
2
100
AcDbEntity
  8
WAKU
 62
     4
100
AcDbLine
 10
-27.42156947976582
 20
-11.17993484931344
 30
0.0
 11
-27.42156947976582
 21
-56.17993484931344
 31
0.0
  0
TEXT
  5
34E
330
2
100
AcDbEntity
  8
MOJI1
100
AcDbText
 10
-64.92156947976559
 20
-30.17993484931344
 30
0.0
 40
3.0
  1
画素数
100
AcDbText
  0
LINE
  5
34F
330
2
100
AcDbEntity
  8
WAKU
 62
     4
100
AcDbLine
 10
57.57843052023417
 20
-11.17993484931344
 30
0.0
 11
57.57843052023417
 21
-56.17993484931344
 31
0.0
  0
LINE
  5
350
330
2
100
AcDbEntity
  8
WAKU
 62
     4
100
AcDbLine
 10
-67.42156947976582
 20
-11.17993484931344
 30
0.0
 11
-67.42156947976559
 21
-56.17993484931344
 31
0.0
  0
LINE
  5
351
330
2
100
AcDbEntity
  8
WAKU
 62
     4
100
AcDbLine
 10
57.57843052023417
 20
-56.17993484931344
 30
0.0
 11
-67.42156947976559
 21
-56.17993484931344
 31
0.0
  0
LINE
  5
352
330
2
100
AcDbEntity
  8
WAKU
 62
     1
100
AcDbLine
 10
-67.42156947976559
 20
-51.17993484931344
 30
0.0
 11
57.57843052023417
 21
-51.17993484931344
 31
0.0
  0
LINE
  5
353
330
2
100
AcDbEntity
  8
WAKU
 62
     1
100
AcDbLine
 10
-67.42156947976559
 20
-46.17993484931344
 30
0.0
 11
57.57843052023417
 21
-46.17993484931344
 31
0.0
  0
LINE
  5
354
330
2
100
AcDbEntity
  8
WAKU
 62
     1
100
AcDbLine
 10
-67.42156947976559
 20
-26.17993484931344
 30
0.0
 11
57.57843052023417
 21
-26.17993484931344
 31
0.0
  0
LINE
  5
355
330
2
100
AcDbEntity
  8
WAKU
 62
     1
100
AcDbLine
 10
-67.42156947976559
 20
-16.17993484931344
 30
0.0
 11
57.57843052023417
 21
-16.17993484931344
 31
0.0
  0
LINE
  5
356
330
2
100
AcDbEntity
  8
WAKU
 62
     4
100
AcDbLine
 10
-67.42156947976559
 20
-11.17993484931344
 30
0.0
 11
57.57843052023417
 21
-11.17993484931344
 31
0.0
  0
LINE
  5
357
330
2
100
AcDbEntity
  8
WAKU
 62
     1
100
AcDbLine
 10
-67.42156947976559
 20
-31.17993484931344
 30
0.0
 11
57.57843052023417
 21
-31.17993484931344
 31
0.0
  0
LINE
  5
358
330
2
100
AcDbEntity
  8
WAKU
 62
     1
100
AcDbLine
 10
-67.42156947976559
 20
-21.17993484931344
 30
0.0
 11
57.57843052023417
 21
-21.17993484931344
 31
0.0
  0
TEXT
  5
359
330
2
100
AcDbEntity
  8
MOJI1
100
AcDbText
 10
-25.9215694797656
 20
-40.17993484931344
 30
0.0
 40
3.0
  1
４０９６階調（相当）
100
AcDbText
  0
TEXT
  5
35A
330
2
100
AcDbEntity
  8
MOJI1
100
AcDbText
 10
-25.9215694797656
 20
-35.17993484931344
 30
0.0
 40
3.0
  1
１５０００：１
100
AcDbText
  0
ENDSEC
  0
SECTION
  2
OBJECTS
  0
DICTIONARY
  5
9
330
0
100
AcDbDictionary
281
     1
  3
ACAD_COLOR
350
2E
  3
ACAD_GROUP
350
2A
  3
ACAD_LAYOUT
350
D
  3
ACAD_MATERIAL
350
2D
  3
ACAD_MLINESTYLE
350
2B
  3
ACAD_PLOTSETTINGS
350
2C
  3
ACAD_PLOTSTYLENAME
350
8
  3
ACDBHEADERROUNDTRIPXREC
350
3A7
  3
AcDbVariableDictionary
350
3A2
  3
ASE_INDEX_DICTIONARY
350
363
  0
DICTIONARY
  5
13
330
12
100
AcDbDictionary
280
     1
281
     1
  3
ACAD_LAYERSTATES
360
14
  0
DICTIONARY
  5
3
330
2
100
AcDbDictionary
280
     1
281
     1
  3
ACAD_SORTENTS
360
4
  0
DICTIONARY
  5
2E
102
{ACAD_REACTORS
330
9
102
}
330
9
100
AcDbDictionary
281
     1
  0
DICTIONARY
  5
2A
102
{ACAD_REACTORS
330
9
102
}
330
9
100
AcDbDictionary
281
     1
  0
DICTIONARY
  5
D
102
{ACAD_REACTORS
330
9
102
}
330
9
100
AcDbDictionary
281
     1
  3
Model
350
C
  3
レイアウト1
350
11
  0
DICTIONARY
  5
2D
102
{ACAD_REACTORS
330
9
102
}
330
9
100
AcDbDictionary
281
     1
  0
DICTIONARY
  5
2B
102
{ACAD_REACTORS
330
9
102
}
330
9
100
AcDbDictionary
281
     1
  3
Standard
350
30
  0
DICTIONARY
  5
2C
102
{ACAD_REACTORS
330
9
102
}
330
9
100
AcDbDictionary
281
     1
  0
ACDBDICTIONARYWDFLT
  5
8
102
{ACAD_REACTORS
330
9
102
}
330
9
100
AcDbDictionary
281
     1
  3
Normal
350
7
100
AcDbDictionaryWithDefault
340
7
  0
DICTIONARY
  5
3A7
102
{ACAD_REACTORS
330
9
102
}
330
9
100
AcDbDictionary
281
     1
  3
COLORDICT
350
3A9
  3
MATERIALDICT
350
3A8
  0
DICTIONARY
  5
3A2
102
{ACAD_REACTORS
330
9
102
}
330
9
100
AcDbDictionary
281
     1
  3
DIMASSOC
350
3A4
  3
HIDETEXT
350
3A3
  3
PROJECTNAME
350
3A5
  0
DICTIONARY
  5
363
102
{ACAD_REACTORS
330
9
102
}
330
9
100
AcDbDictionary
281
     1
  3
ASEBlockHierarchyIndexRecord
350
365
1001
DCO15
1040
1627816629.454
  0
DICTIONARY
  5
14
102
{ACAD_REACTORS
330
13
102
}
330
13
100
AcDbDictionary
281
     1
  0
SORTENTSTABLE
  5
4
102
{ACAD_REACTORS
330
3
102
}
330
3
100
AcDbSortentsTable
330
2
  0
LAYOUT
  5
C
102
{ACAD_XDICTIONARY
360
3AA
102
}
102
{ACAD_REACTORS
330
D
102
}
330
D
100
AcDbPlotSettings
  1

  2
Ａ４－縦3FRIM01.pc3
  4
A4
  6

 40
5.873749732971191
 41
5.873747825622558
 42
5.873748779296875
 43
5.873748779296875
 44
209.9733276367187
 45
296.9259948730469
 46
5.429999999999999
 47
0.0
 48
0.0
 49
0.0
140
0.0
141
0.0
142
1.0
143
1.382400741325372
 70
 11956
 72
     1
 73
     0
 74
     1
  7
tmsacad.ctb
 75
     0
147
0.7233792417105138
148
0.009170693714168
149
0.0078838135646038
100
AcDbLayout
  1
Model
 70
     1
 71
     0
 10
0.0
 20
0.0
 11
12.0
 21
9.0
 12
0.0
 22
0.0
 32
0.0
 14
0.0
 24
0.0
 34
0.0
 15
0.0
 25
0.0
 35
0.0
146
0.0
 13
0.0
 23
0.0
 33
0.0
 16
1.0
 26
0.0
 36
0.0
 17
0.0
 27
1.0
 37
0.0
 76
     0
330
2
  0
LAYOUT
  5
11
102
{ACAD_XDICTIONARY
360
3AC
102
}
102
{ACAD_REACTORS
330
D
102
}
330
D
100
AcDbPlotSettings
  1

  2
None
  4

  6

 40
0.0
 41
0.0
 42
0.0
 43
0.0
 44
0.0
 45
0.0
 46
0.0
 47
0.0
 48
0.0
 49
0.0
140
0.0
141
0.0
142
1.0
143
1.0
 70
   688
 72
     0
 73
     0
 74
     5
  7
tmsacad.ctb
 75
    16
147
1.0
148
0.0
149
0.0
100
AcDbLayout
  1
レイアウト1
 70
     1
 71
     1
 10
0.0
 20
0.0
 11
12.0
 21
9.0
 12
0.0
 22
0.0
 32
0.0
 14
0.0
 24
0.0
 34
0.0
 15
0.0
 25
0.0
 35
0.0
146
0.0
 13
0.0
 23
0.0
 33
0.0
 16
1.0
 26
0.0
 36
0.0
 17
0.0
 27
1.0
 37
0.0
 76
     0
330
E
  0
MLINESTYLE
  5
30
102
{ACAD_REACTORS
330
2B
102
}
330
2B
100
AcDbMlineStyle
  2
STANDARD
 70
     0
  3

 62
   256
 51
90.0
 52
90.0
 71
     2
 49
0.5
 62
   256
  6
BYLAYER
 49
-0.5
 62
   256
  6
BYLAYER
  0
ACDBPLACEHOLDER
  5
7
102
{ACAD_REACTORS
330
8
102
}
330
8
  0
XRECORD
  5
3A9
102
{ACAD_REACTORS
330
3A7
102
}
330
3A7
100
AcDbXrecord
280
     1
340
2E
  0
XRECORD
  5
3A8
102
{ACAD_REACTORS
330
3A7
102
}
330
3A7
100
AcDbXrecord
280
     1
340
2D
  0
DICTIONARYVAR
  5
3A4
102
{ACAD_REACTORS
330
3A2
102
}
330
3A2
100
DictionaryVariables
280
     0
  1
1
  0
DICTIONARYVAR
  5
3A3
102
{ACAD_REACTORS
330
3A2
102
}
330
3A2
100
DictionaryVariables
280
     0
  1
1
  0
DICTIONARYVAR
  5
3A5
102
{ACAD_REACTORS
330
3A2
102
}
330
3A2
100
DictionaryVariables
280
     0
  1

  0
XRECORD
  5
365
102
{ACAD_REACTORS
330
363
102
}
330
363
100
AcDbXrecord
280
     1
330
30D
330
30E
330
31B
330
31C
330
328
330
329
330
335
330
336
330
376
330
377
330
382
330
383
330
38E
330
38F
330
39A
330
39B
  0
DICTIONARY
  5
3AA
330
C
100
AcDbDictionary
280
     1
281
     1
  3
ACAD_XREC_ROUNDTRIP
360
3AB
  0
DICTIONARY
  5
3AC
330
11
100
AcDbDictionary
280
     1
281
     1
  3
ACAD_XREC_ROUNDTRIP
360
3AD
  0
XRECORD
  5
3AB
102
{ACAD_REACTORS
330
3AA
102
}
330
3AA
100
AcDbXrecord
280
     1
102
SHADEPLOT
 70
     0
102
SHADEPLOTRESLEVEL
 70
     2
102
SHADEPLOTCUSTOMDPI
 70
   300
  0
XRECORD
  5
3AD
102
{ACAD_REACTORS
330
3AC
102
}
330
3AC
100
AcDbXrecord
280
     1
102
SHADEPLOT
 70
     0
102
SHADEPLOTRESLEVEL
 70
     2
102
SHADEPLOTCUSTOMDPI
 70
   300
  0
ENDSEC
  0
EOF
