  0
SECTION
  2
HEADER
  9
$ACADVER
  1
AC1015
  9
$ACADMAINTVER
 70
    20
  9
$DWGCODEPAGE
  3
ANSI_932
  9
$INSBASE
 10
0.4999999440410648
 20
120.5008351249346
 30
0.0
  9
$EXTMIN
 10
-58.39599518384318
 20
-58.42474302885205
 30
-0.0015258207003583
  9
$EXTMAX
 10
66.60553035163968
 20
54.59985392494115
 30
0.0000000349246037
  9
$LIMMIN
 10
0.0
 20
0.0
  9
$LIMMAX
 10
420.0
 20
297.0
  9
$ORTHOMODE
 70
     1
  9
$REGENMODE
 70
     0
  9
$FILLMODE
 70
     1
  9
$QTEXTMODE
 70
     0
  9
$MIRRTEXT
 70
     0
  9
$LTSCALE
 40
1.0
  9
$ATTMODE
 70
     1
  9
$TEXTSIZE
 40
2.5
  9
$TRACEWID
 40
1.0
  9
$TEXTSTYLE
  7
Standard
  9
$CLAYER
  8
SUNPO
  9
$CELTYPE
  6
ByLayer
  9
$CECOLOR
 62
   256
  9
$CELTSCALE
 40
1.0
  9
$DISPSILH
 70
     0
  9
$DIMSCALE
 40
1.0
  9
$DIMASZ
 40
2.0
  9
$DIMEXO
 40
2.0
  9
$DIMDLI
 40
8.0
  9
$DIMRND
 40
0.0
  9
$DIMDLE
 40
0.0
  9
$DIMEXE
 40
2.0
  9
$DIMTP
 40
0.0
  9
$DIMTM
 40
0.0
  9
$DIMTXT
 40
2.5
  9
$DIMCEN
 40
0.0
  9
$DIMTSZ
 40
0.0
  9
$DIMTOL
 70
     0
  9
$DIMLIM
 70
     0
  9
$DIMTIH
 70
     0
  9
$DIMTOH
 70
     0
  9
$DIMSE1
 70
     0
  9
$DIMSE2
 70
     0
  9
$DIMTAD
 70
     3
  9
$DIMZIN
 70
     0
  9
$DIMBLK
  1

  9
$DIMASO
 70
     1
  9
$DIMSHO
 70
     1
  9
$DIMPOST
  1

  9
$DIMAPOST
  1

  9
$DIMALT
 70
     0
  9
$DIMALTD
 70
     2
  9
$DIMALTF
 40
25.4
  9
$DIMLFAC
 40
1.0
  9
$DIMTOFL
 70
     1
  9
$DIMTVP
 40
0.0
  9
$DIMTIX
 70
     0
  9
$DIMSOXD
 70
     0
  9
$DIMSAH
 70
     1
  9
$DIMBLK1
  1
OPEN30
  9
$DIMBLK2
  1
OPEN30
  9
$DIMSTYLE
  2
STANDARD
  9
$DIMCLRD
 70
     0
  9
$DIMCLRE
 70
     0
  9
$DIMCLRT
 70
     0
  9
$DIMTFAC
 40
1.0
  9
$DIMGAP
 40
0.5
  9
$DIMJUST
 70
     0
  9
$DIMSD1
 70
     0
  9
$DIMSD2
 70
     0
  9
$DIMTOLJ
 70
     1
  9
$DIMTZIN
 70
     0
  9
$DIMALTZ
 70
     0
  9
$DIMALTTZ
 70
     0
  9
$DIMUPT
 70
     0
  9
$DIMDEC
 70
     4
  9
$DIMTDEC
 70
     4
  9
$DIMALTU
 70
     2
  9
$DIMALTTD
 70
     2
  9
$DIMTXSTY
  7
Standard
  9
$DIMAUNIT
 70
     0
  9
$DIMADEC
 70
     0
  9
$DIMALTRND
 40
0.0
  9
$DIMAZIN
 70
     0
  9
$DIMDSEP
 70
    46
  9
$DIMATFIT
 70
     3
  9
$DIMFRAC
 70
     0
  9
$DIMLDRBLK
  1
OPEN30
  9
$DIMLUNIT
 70
     2
  9
$DIMLWD
 70
    -2
  9
$DIMLWE
 70
    -2
  9
$DIMTMOVE
 70
     0
  9
$LUNITS
 70
     2
  9
$LUPREC
 70
     4
  9
$SKETCHINC
 40
1.0
  9
$FILLETRAD
 40
0.0
  9
$AUNITS
 70
     0
  9
$AUPREC
 70
     0
  9
$MENU
  1
.
  9
$ELEVATION
 40
0.0
  9
$PELEVATION
 40
0.0
  9
$THICKNESS
 40
0.0
  9
$LIMCHECK
 70
     0
  9
$CHAMFERA
 40
0.0
  9
$CHAMFERB
 40
0.0
  9
$CHAMFERC
 40
0.0
  9
$CHAMFERD
 40
0.0
  9
$SKPOLY
 70
     0
  9
$TDCREATE
 40
2454349.434269746
  9
$TDUCREATE
 40
2454349.059269746
  9
$TDUPDATE
 40
2454643.681450556
  9
$TDUUPDATE
 40
2454643.306450556
  9
$TDINDWG
 40
0.4611409259
  9
$TDUSRTIMER
 40
0.4611409259
  9
$USRTIMER
 70
     1
  9
$ANGBASE
 50
0.0
  9
$ANGDIR
 70
     0
  9
$PDMODE
 70
     0
  9
$PDSIZE
 40
0.0
  9
$PLINEWID
 40
0.0
  9
$SPLFRAME
 70
     0
  9
$SPLINETYPE
 70
     6
  9
$SPLINESEGS
 70
     8
  9
$HANDSEED
  5
2A0
  9
$SURFTAB1
 70
     6
  9
$SURFTAB2
 70
     6
  9
$SURFTYPE
 70
     6
  9
$SURFU
 70
     6
  9
$SURFV
 70
     6
  9
$UCSBASE
  2

  9
$UCSNAME
  2

  9
$UCSORG
 10
0.0
 20
0.0
 30
0.0
  9
$UCSXDIR
 10
1.0
 20
0.0
 30
0.0
  9
$UCSYDIR
 10
0.0
 20
1.0
 30
0.0
  9
$UCSORTHOREF
  2

  9
$UCSORTHOVIEW
 70
     0
  9
$UCSORGTOP
 10
0.0
 20
0.0
 30
0.0
  9
$UCSORGBOTTOM
 10
0.0
 20
0.0
 30
0.0
  9
$UCSORGLEFT
 10
0.0
 20
0.0
 30
0.0
  9
$UCSORGRIGHT
 10
0.0
 20
0.0
 30
0.0
  9
$UCSORGFRONT
 10
0.0
 20
0.0
 30
0.0
  9
$UCSORGBACK
 10
0.0
 20
0.0
 30
0.0
  9
$PUCSBASE
  2

  9
$PUCSNAME
  2

  9
$PUCSORG
 10
0.0
 20
0.0
 30
0.0
  9
$PUCSXDIR
 10
1.0
 20
0.0
 30
0.0
  9
$PUCSYDIR
 10
0.0
 20
1.0
 30
0.0
  9
$PUCSORTHOREF
  2

  9
$PUCSORTHOVIEW
 70
     0
  9
$PUCSORGTOP
 10
0.0
 20
0.0
 30
0.0
  9
$PUCSORGBOTTOM
 10
0.0
 20
0.0
 30
0.0
  9
$PUCSORGLEFT
 10
0.0
 20
0.0
 30
0.0
  9
$PUCSORGRIGHT
 10
0.0
 20
0.0
 30
0.0
  9
$PUCSORGFRONT
 10
0.0
 20
0.0
 30
0.0
  9
$PUCSORGBACK
 10
0.0
 20
0.0
 30
0.0
  9
$USERI1
 70
     0
  9
$USERI2
 70
     0
  9
$USERI3
 70
     0
  9
$USERI4
 70
     0
  9
$USERI5
 70
     0
  9
$USERR1
 40
0.0
  9
$USERR2
 40
0.0
  9
$USERR3
 40
0.0
  9
$USERR4
 40
0.0
  9
$USERR5
 40
0.0
  9
$WORLDVIEW
 70
     1
  9
$SHADEDGE
 70
     3
  9
$SHADEDIF
 70
    70
  9
$TILEMODE
 70
     1
  9
$MAXACTVP
 70
    64
  9
$PINSBASE
 10
0.0
 20
0.0
 30
0.0
  9
$PLIMCHECK
 70
     0
  9
$PEXTMIN
 10
0.0
 20
0.0
 30
0.0
  9
$PEXTMAX
 10
0.0
 20
0.0
 30
0.0
  9
$PLIMMIN
 10
0.0
 20
0.0
  9
$PLIMMAX
 10
12.0
 20
9.0
  9
$UNITMODE
 70
     0
  9
$VISRETAIN
 70
     1
  9
$PLINEGEN
 70
     0
  9
$PSLTSCALE
 70
     1
  9
$TREEDEPTH
 70
  3020
  9
$CMLSTYLE
  2
Standard
  9
$CMLJUST
 70
     0
  9
$CMLSCALE
 40
20.0
  9
$PROXYGRAPHICS
 70
     1
  9
$MEASUREMENT
 70
     1
  9
$CELWEIGHT
370
    -1
  9
$ENDCAPS
280
     0
  9
$JOINSTYLE
280
     0
  9
$LWDISPLAY
290
     0
  9
$INSUNITS
 70
     4
  9
$HYPERLINKBASE
  1

  9
$STYLESHEET
  1

  9
$XEDIT
290
     1
  9
$CEPSNTYPE
380
     0
  9
$PSTYLEMODE
290
     1
  9
$FINGERPRINTGUID
  2
{FDEAD578-A652-11D2-9A35-0060089B3A3F}
  9
$VERSIONGUID
  2
{A278DEBE-8E67-434E-A3E4-0415EC84D0CB}
  9
$EXTNAMES
290
     1
  9
$PSVPSCALE
 40
0.0
  9
$OLESTARTUP
290
     0
  0
ENDSEC
  0
SECTION
  2
CLASSES
  0
CLASS
  1
ACDBDICTIONARYWDFLT
  2
AcDbDictionaryWithDefault
  3
ObjectDBX Classes
 90
        0
280
     0
281
     0
  0
CLASS
  1
ACDBPLACEHOLDER
  2
AcDbPlaceHolder
  3
ObjectDBX Classes
 90
        0
280
     0
281
     0
  0
CLASS
  1
LAYOUT
  2
AcDbLayout
  3
ObjectDBX Classes
 90
        0
280
     0
281
     0
  0
CLASS
  1
DICTIONARYVAR
  2
AcDbDictionaryVar
  3
ObjectDBX Classes
 90
        0
280
     0
281
     0
  0
CLASS
  1
SORTENTSTABLE
  2
AcDbSortentsTable
  3
ObjectDBX Classes
 90
        0
280
     0
281
     0
  0
CLASS
  1
DIMASSOC
  2
AcDbDimAssoc
  3
"AcDbDimAssoc|Product Desc:     AcDim ARX App For Dimension|Company:          Autodesk, Inc.|WEB Address:      www.autodesk.com"
 90
    32768
280
     0
281
     0
  0
ENDSEC
  0
SECTION
  2
TABLES
  0
TABLE
  2
VPORT
  5
1D
330
0
100
AcDbSymbolTable
 70
     3
  0
VPORT
  5
298
330
1D
100
AcDbSymbolTableRecord
100
AcDbViewportTableRecord
  2
*Active
 70
     0
 10
0.0
 20
0.0
 11
1.0
 21
1.0
 12
4.104767583898258
 22
-1.912444551955445
 13
0.0
 23
0.0
 14
10.0
 24
10.0
 15
10.0
 25
10.0
 16
0.0
 26
0.0
 36
1.0
 17
0.0
 27
0.0
 37
0.0
 40
113.9180720285267
 41
1.439313984168865
 42
50.0
 43
0.0
 44
0.0
 50
0.0
 51
0.0
 71
     0
 72
 10000
 73
     1
 74
     2
 75
     0
 76
     0
 77
     0
 78
     0
281
     0
 65
     1
110
0.0
120
0.0
130
0.0
111
1.0
121
0.0
131
0.0
112
0.0
122
1.0
132
0.0
 79
     0
146
0.0
  0
ENDTAB
  0
TABLE
  2
LTYPE
  5
18
330
0
100
AcDbSymbolTable
 70
     1
  0
LTYPE
  5
19
330
18
100
AcDbSymbolTableRecord
100
AcDbLinetypeTableRecord
  2
ByBlock
 70
     0
  3

 72
    65
 73
     0
 40
0.0
  0
LTYPE
  5
1A
330
18
100
AcDbSymbolTableRecord
100
AcDbLinetypeTableRecord
  2
ByLayer
 70
     0
  3

 72
    65
 73
     0
 40
0.0
  0
LTYPE
  5
A
330
18
100
AcDbSymbolTableRecord
100
AcDbLinetypeTableRecord
  2
Continuous
 70
     0
  3
Solid line
 72
    65
 73
     0
 40
0.0
  0
ENDTAB
  0
TABLE
  2
LAYER
  5
12
102
{ACAD_XDICTIONARY
360
13
102
}
330
0
100
AcDbSymbolTable
 70
     7
  0
LAYER
  5
6
330
12
100
AcDbSymbolTableRecord
100
AcDbLayerTableRecord
  2
0
 70
     0
 62
     7
  6
Continuous
370
    -3
390
7
  0
LAYER
  5
38
330
12
100
AcDbSymbolTableRecord
100
AcDbLayerTableRecord
  2
WAKU
 70
     0
 62
     4
  6
Continuous
370
    -3
390
7
  0
LAYER
  5
34
330
12
100
AcDbSymbolTableRecord
100
AcDbLayerTableRecord
  2
MOJI1
 70
     0
 62
     2
  6
Continuous
370
    -3
390
7
  0
LAYER
  5
32
330
12
100
AcDbSymbolTableRecord
100
AcDbLayerTableRecord
  2
TOUROKU
 70
     0
 62
     1
  6
Continuous
370
    -3
390
7
  0
LAYER
  5
53
330
12
100
AcDbSymbolTableRecord
100
AcDbLayerTableRecord
  2
GAIKEI
 70
     0
 62
     7
  6
Continuous
370
    -3
390
7
  0
LAYER
  5
193
330
12
100
AcDbSymbolTableRecord
100
AcDbLayerTableRecord
  2
DEFPOINTS
 70
     0
 62
     7
  6
Continuous
290
     0
370
    -3
390
7
  0
LAYER
  5
2F
330
12
100
AcDbSymbolTableRecord
100
AcDbLayerTableRecord
  2
SUNPO
 70
     0
 62
     3
  6
Continuous
370
    -3
390
7
  0
ENDTAB
  0
TABLE
  2
STYLE
  5
15
330
0
100
AcDbSymbolTable
 70
     1
  0
STYLE
  5
16
330
15
100
AcDbSymbolTableRecord
100
AcDbTextStyleTableRecord
  2
Standard
 70
     0
 40
0.0
 41
1.0
 50
0.0
 71
     0
 42
2.5
  3
MONOTXT.shx
  4
BIGFONT.shx
  0
ENDTAB
  0
TABLE
  2
VIEW
  5
1B
330
0
100
AcDbSymbolTable
 70
     0
  0
ENDTAB
  0
TABLE
  2
UCS
  5
1C
330
0
100
AcDbSymbolTable
 70
     0
  0
ENDTAB
  0
TABLE
  2
APPID
  5
1F
330
0
100
AcDbSymbolTable
 70
     2
  0
APPID
  5
20
330
1F
100
AcDbSymbolTableRecord
100
AcDbRegAppTableRecord
  2
ACAD
 70
     0
  0
APPID
  5
23C
330
1F
100
AcDbSymbolTableRecord
100
AcDbRegAppTableRecord
  2
DCO15
 70
     0
  0
ENDTAB
  0
TABLE
  2
DIMSTYLE
  5
21
330
0
100
AcDbSymbolTable
 70
     1
100
AcDbDimStyleTable
 71
     1
340
22
  0
DIMSTYLE
105
22
102
{ACAD_REACTORS
330
187
330
19B
330
1A8
330
1DC
330
1E9
330
224
102
}
330
21
100
AcDbSymbolTableRecord
100
AcDbDimStyleTableRecord
  2
STANDARD
 70
     0
 40
0.0
 41
2.0
 42
2.0
 43
8.0
 44
2.0
 73
     0
 74
     0
 77
     3
140
3.0
141
0.0
173
     1
279
     2
288
     1
340
16
341
23
343
23
344
23
  0
ENDTAB
  0
TABLE
  2
BLOCK_RECORD
  5
1
330
0
100
AcDbSymbolTable
 70
    13
  0
BLOCK_RECORD
  5
2
102
{ACAD_XDICTIONARY
360
3
102
}
330
1
100
AcDbSymbolTableRecord
100
AcDbBlockTableRecord
  2
*Model_Space
340
C
  0
BLOCK_RECORD
  5
E
330
1
100
AcDbSymbolTableRecord
100
AcDbBlockTableRecord
  2
*Paper_Space
340
11
  0
BLOCK_RECORD
  5
23
330
1
100
AcDbSymbolTableRecord
100
AcDbBlockTableRecord
  2
_OPEN30
340
0
102
{BLKREFS
331
1EF
331
1F0
331
1E2
331
1E3
331
1AE
331
1AF
331
1A1
331
1A2
331
22A
331
22B
331
18F
331
190
331
24E
331
24F
331
25A
331
25B
331
266
331
267
331
272
331
273
331
27E
331
27F
331
28C
331
28D
102
}
  0
BLOCK_RECORD
  5
188
330
1
100
AcDbSymbolTableRecord
100
AcDbBlockTableRecord
  2
*D1
340
0
  0
BLOCK_RECORD
  5
19C
330
1
100
AcDbSymbolTableRecord
100
AcDbBlockTableRecord
  2
*D2
340
0
  0
BLOCK_RECORD
  5
1A9
330
1
100
AcDbSymbolTableRecord
100
AcDbBlockTableRecord
  2
*D3
340
0
  0
BLOCK_RECORD
  5
1DD
330
1
100
AcDbSymbolTableRecord
100
AcDbBlockTableRecord
  2
*D4
340
0
  0
BLOCK_RECORD
  5
1EA
330
1
100
AcDbSymbolTableRecord
100
AcDbBlockTableRecord
  2
*D5
340
0
  0
BLOCK_RECORD
  5
225
330
1
100
AcDbSymbolTableRecord
100
AcDbBlockTableRecord
  2
*D6
340
0
  0
BLOCK_RECORD
  5
24A
330
1
100
AcDbSymbolTableRecord
100
AcDbBlockTableRecord
  2
*D7
340
0
  0
BLOCK_RECORD
  5
256
330
1
100
AcDbSymbolTableRecord
100
AcDbBlockTableRecord
  2
*D8
340
0
  0
BLOCK_RECORD
  5
262
330
1
100
AcDbSymbolTableRecord
100
AcDbBlockTableRecord
  2
*D9
340
0
  0
BLOCK_RECORD
  5
26E
330
1
100
AcDbSymbolTableRecord
100
AcDbBlockTableRecord
  2
*D10
340
0
  0
BLOCK_RECORD
  5
27A
330
1
100
AcDbSymbolTableRecord
100
AcDbBlockTableRecord
  2
*D11
340
0
  0
BLOCK_RECORD
  5
286
330
1
100
AcDbSymbolTableRecord
100
AcDbBlockTableRecord
  2
*D12
340
0
  0
ENDTAB
  0
ENDSEC
  0
SECTION
  2
BLOCKS
  0
BLOCK
  5
5
330
2
100
AcDbEntity
  8
0
100
AcDbBlockBegin
  2
*Model_Space
 70
     0
 10
0.0
 20
0.0
 30
0.0
  3
*Model_Space
  1

  0
ENDBLK
  5
B
330
2
100
AcDbEntity
  8
0
100
AcDbBlockEnd
  0
BLOCK
  5
F
330
E
100
AcDbEntity
 67
     1
  8
0
100
AcDbBlockBegin
  2
*Paper_Space
 70
     0
 10
0.0
 20
0.0
 30
0.0
  3
*Paper_Space
  1

  0
ENDBLK
  5
10
330
E
100
AcDbEntity
 67
     1
  8
0
100
AcDbBlockEnd
  0
BLOCK
  5
24
330
23
100
AcDbEntity
  8
0
100
AcDbBlockBegin
  2
_OPEN30
 70
     0
 10
0.0
 20
0.0
 30
0.0
  3
_OPEN30
  1

  0
LINE
  5
25
330
23
100
AcDbEntity
  8
0
  6
ByBlock
 62
     0
100
AcDbLine
 10
-1.0
 20
0.26794919
 30
0.0
 11
0.0
 21
0.0
 31
0.0
  0
LINE
  5
26
330
23
100
AcDbEntity
  8
0
  6
ByBlock
 62
     0
100
AcDbLine
 10
0.0
 20
0.0
 30
0.0
 11
-1.0
 21
-0.26794919
 31
0.0
  0
LINE
  5
27
330
23
100
AcDbEntity
  8
0
  6
ByBlock
 62
     0
100
AcDbLine
 10
0.0
 20
0.0
 30
0.0
 11
-1.0
 21
0.0
 31
0.0
  0
ENDBLK
  5
28
330
23
100
AcDbEntity
  8
0
100
AcDbBlockEnd
  0
BLOCK
  5
189
330
188
100
AcDbEntity
  8
0
100
AcDbBlockBegin
  2
*D1
 70
     1
 10
0.0
 20
0.0
 30
0.0
  3
*D1
  1

  0
LINE
  5
18A
330
188
100
AcDbEntity
  8
SUNPO
 62
     0
370
    -2
100
AcDbLine
 10
99.62536608404708
 20
97.88739951827432
 30
0.0
 11
99.62536608404708
 21
105.8808670137152
 31
0.0
  0
LINE
  5
18B
330
188
100
AcDbEntity
  8
SUNPO
 62
     0
370
    -2
100
AcDbLine
 10
104.075366084047
 20
97.88739951827432
 30
0.0
 11
104.075366084047
 21
105.8808670137152
 31
0.0
  0
LINE
  5
18C
330
188
100
AcDbEntity
  8
SUNPO
 62
     0
370
    -2
100
AcDbLine
 10
97.62536608404708
 20
103.8808670137152
 30
0.0
 11
95.62536608404707
 21
103.8808670137152
 31
0.0
  0
LINE
  5
18D
330
188
100
AcDbEntity
  8
SUNPO
 62
     0
370
    -2
100
AcDbLine
 10
106.075366084047
 20
103.8808670137152
 30
0.0
 11
113.2420327507137
 21
103.8808670137152
 31
0.0
  0
LINE
  5
18E
330
188
100
AcDbEntity
  8
SUNPO
 62
     0
370
    -2
100
AcDbLine
 10
99.62536608404708
 20
103.8808670137152
 30
0.0
 11
104.075366084047
 21
103.8808670137152
 31
0.0
  0
INSERT
  5
18F
330
188
100
AcDbEntity
  8
SUNPO
 62
     0
370
    -2
100
AcDbBlockReference
  2
_OPEN30
 10
99.62536608404708
 20
103.8808670137152
 30
0.0
 41
2.0
 42
2.0
 43
2.0
  0
INSERT
  5
190
330
188
100
AcDbEntity
  8
SUNPO
 62
     0
370
    -2
100
AcDbBlockReference
  2
_OPEN30
 10
104.075366084047
 20
103.8808670137152
 30
0.0
 41
2.0
 42
2.0
 43
2.0
 50
180.0
  0
MTEXT
  5
191
330
188
100
AcDbEntity
  8
SUNPO
 62
     0
100
AcDbMText
 10
110.6586994173804
 20
105.6308670137152
 30
0.0
 40
2.5
 41
0.0
 71
     5
 72
     1
  1
\A1;89
 73
     1
 44
1.0
1001
ACAD
1000
MTEXTBEGIN
1070
    73
1070
     1
1070
    44
1040
1.0
1070
    74
1070
     0
1000
MTEXTEND
  0
POINT
  5
192
330
188
100
AcDbEntity
  8
DEFPOINTS
 62
     0
100
AcDbPoint
 10
99.62536608404708
 20
95.88739951827433
 30
0.0
  0
POINT
  5
194
330
188
100
AcDbEntity
  8
DEFPOINTS
 62
     0
100
AcDbPoint
 10
104.075366084047
 20
95.88739951827433
 30
0.0
  0
POINT
  5
195
330
188
100
AcDbEntity
  8
DEFPOINTS
 62
     0
100
AcDbPoint
 10
104.075366084047
 20
103.8808670137152
 30
0.0
  0
ENDBLK
  5
196
330
188
100
AcDbEntity
  8
0
100
AcDbBlockEnd
  0
BLOCK
  5
19D
330
19C
100
AcDbEntity
  8
0
100
AcDbBlockBegin
  2
*D2
 70
     1
 10
0.0
 20
0.0
 30
0.0
  3
*D2
  1

  0
LINE
  5
19E
330
19C
100
AcDbEntity
  8
SUNPO
 62
     0
370
    -2
100
AcDbLine
 10
69.74849392087458
 20
65.38115345806659
 30
0.0
 11
77.74849392087458
 21
65.38115345806659
 31
0.0
  0
LINE
  5
19F
330
19C
100
AcDbEntity
  8
SUNPO
 62
     0
370
    -2
100
AcDbLine
 10
69.74849392087458
 20
95.88115345806659
 30
0.0
 11
77.74849392087458
 21
95.88115345806659
 31
0.0
  0
LINE
  5
1A0
330
19C
100
AcDbEntity
  8
SUNPO
 62
     0
370
    -2
100
AcDbLine
 10
75.74849392087457
 20
67.38115345806659
 30
0.0
 11
75.74849392087457
 21
93.88115345806658
 31
0.0
  0
INSERT
  5
1A1
330
19C
100
AcDbEntity
  8
SUNPO
 62
     0
370
    -2
100
AcDbBlockReference
  2
_OPEN30
 10
75.74849392087457
 20
65.38115345806659
 30
0.0
 41
2.0
 42
2.0
 43
2.0
 50
270.0
  0
INSERT
  5
1A2
330
19C
100
AcDbEntity
  8
SUNPO
 62
     0
370
    -2
100
AcDbBlockReference
  2
_OPEN30
 10
75.74849392087457
 20
95.88115345806659
 30
0.0
 41
2.0
 42
2.0
 43
2.0
 50
90.0
  0
MTEXT
  5
1A3
330
19C
100
AcDbEntity
  8
SUNPO
 62
     0
100
AcDbMText
 10
73.99849392087457
 20
80.63115345806661
 30
0.0
 40
2.5
 41
0.0
 71
     5
 72
     1
  1
\A1;610
 11
0.0000000000000001
 21
1.0
 31
0.0
 73
     1
 44
1.0
1001
ACAD
1000
MTEXTBEGIN
1070
    73
1070
     1
1070
    44
1040
1.0
1070
    74
1070
     0
1000
MTEXTEND
  0
POINT
  5
1A4
330
19C
100
AcDbEntity
  8
DEFPOINTS
 62
     0
100
AcDbPoint
 10
67.74849392087458
 20
65.38115345806659
 30
0.0
  0
POINT
  5
1A5
330
19C
100
AcDbEntity
  8
DEFPOINTS
 62
     0
100
AcDbPoint
 10
67.74849392087458
 20
95.88115345806659
 30
0.0
  0
POINT
  5
1A6
330
19C
100
AcDbEntity
  8
DEFPOINTS
 62
     0
100
AcDbPoint
 10
75.74849392087457
 20
95.88115345806659
 30
0.0
  0
ENDBLK
  5
1A7
330
19C
100
AcDbEntity
  8
0
100
AcDbBlockEnd
  0
BLOCK
  5
1AA
330
1A9
100
AcDbEntity
  8
0
100
AcDbBlockBegin
  2
*D3
 70
     1
 10
0.0
 20
0.0
 30
0.0
  3
*D3
  1

  0
LINE
  5
1AB
330
1A9
100
AcDbEntity
  8
SUNPO
 62
     0
370
    -2
100
AcDbLine
 10
17.63816451886453
 20
97.88086701371526
 30
0.0
 11
17.63816451886453
 21
105.8808670137152
 31
0.0
  0
LINE
  5
1AC
330
1A9
100
AcDbEntity
  8
SUNPO
 62
     0
370
    -2
100
AcDbLine
 10
67.73816451886455
 20
97.88086701371526
 30
0.0
 11
67.73816451886455
 21
105.8808670137152
 31
0.0
  0
LINE
  5
1AD
330
1A9
100
AcDbEntity
  8
SUNPO
 62
     0
370
    -2
100
AcDbLine
 10
19.63816451886453
 20
103.8808670137152
 30
0.0
 11
65.73816451886455
 21
103.8808670137152
 31
0.0
  0
INSERT
  5
1AE
330
1A9
100
AcDbEntity
  8
SUNPO
 62
     0
370
    -2
100
AcDbBlockReference
  2
_OPEN30
 10
17.63816451886453
 20
103.8808670137152
 30
0.0
 41
2.0
 42
2.0
 43
2.0
 50
180.0
  0
INSERT
  5
1AF
330
1A9
100
AcDbEntity
  8
SUNPO
 62
     0
370
    -2
100
AcDbBlockReference
  2
_OPEN30
 10
67.73816451886455
 20
103.8808670137152
 30
0.0
 41
2.0
 42
2.0
 43
2.0
  0
MTEXT
  5
1B0
330
1A9
100
AcDbEntity
  8
SUNPO
 62
     0
100
AcDbMText
 10
42.68816451886453
 20
105.6308670137152
 30
0.0
 40
2.5
 41
0.0
 71
     5
 72
     1
  1
\A1;1020
 73
     1
 44
1.0
1001
ACAD
1000
MTEXTBEGIN
1070
    73
1070
     1
1070
    44
1040
1.0
1070
    74
1070
     0
1000
MTEXTEND
  0
POINT
  5
1B1
330
1A9
100
AcDbEntity
  8
DEFPOINTS
 62
     0
100
AcDbPoint
 10
17.63816451886453
 20
95.88086701371526
 30
0.0
  0
POINT
  5
1B2
330
1A9
100
AcDbEntity
  8
DEFPOINTS
 62
     0
100
AcDbPoint
 10
67.73816451886455
 20
95.88086701371526
 30
0.0
  0
POINT
  5
1B3
330
1A9
100
AcDbEntity
  8
DEFPOINTS
 62
     0
100
AcDbPoint
 10
67.73816451886455
 20
103.8808670137152
 30
0.0
  0
ENDBLK
  5
1B4
330
1A9
100
AcDbEntity
  8
0
100
AcDbBlockEnd
  0
BLOCK
  5
1DE
330
1DD
100
AcDbEntity
  8
0
100
AcDbBlockBegin
  2
*D4
 70
     1
 10
0.0
 20
0.0
 30
0.0
  3
*D4
  1

  0
LINE
  5
1DF
330
1DD
100
AcDbEntity
  8
SUNPO
 62
     0
370
    -2
100
AcDbLine
 10
77.74849392087457
 20
95.88115345806658
 30
0.0
 11
84.74849392087456
 21
95.88115345806658
 31
0.0
  0
LINE
  5
1E0
330
1DD
100
AcDbEntity
  8
SUNPO
 62
     0
370
    -2
100
AcDbLine
 10
59.19979891132848
 20
62.41407548794476
 30
0.0
 11
84.74849392087456
 21
62.41407548794475
 31
0.0
  0
LINE
  5
1E1
330
1DD
100
AcDbEntity
  8
SUNPO
 62
     0
370
    -2
100
AcDbLine
 10
82.74849392087457
 20
93.88115345806658
 30
0.0
 11
82.74849392087457
 21
64.41407548794476
 31
0.0
  0
INSERT
  5
1E2
330
1DD
100
AcDbEntity
  8
SUNPO
 62
     0
370
    -2
100
AcDbBlockReference
  2
_OPEN30
 10
82.74849392087457
 20
95.88115345806658
 30
0.0
 41
2.0
 42
2.0
 43
2.0
 50
90.0
  0
INSERT
  5
1E3
330
1DD
100
AcDbEntity
  8
SUNPO
 62
     0
370
    -2
100
AcDbBlockReference
  2
_OPEN30
 10
82.74849392087457
 20
62.41407548794475
 30
0.0
 41
2.0
 42
2.0
 43
2.0
 50
270.0
  0
MTEXT
  5
1E4
330
1DD
100
AcDbEntity
  8
SUNPO
 62
     0
100
AcDbMText
 10
80.99849392087454
 20
79.14761447300569
 30
0.0
 40
2.5
 41
0.0
 71
     5
 72
     1
  1
\A1;669
 11
0.0000000000000001
 21
1.0
 31
0.0
 73
     1
 44
1.0
1001
ACAD
1000
MTEXTBEGIN
1070
    73
1070
     1
1070
    44
1040
1.0
1070
    74
1070
     0
1000
MTEXTEND
  0
POINT
  5
1E5
330
1DD
100
AcDbEntity
  8
DEFPOINTS
 62
     0
100
AcDbPoint
 10
75.74849392087457
 20
95.88115345806658
 30
0.0
  0
POINT
  5
1E6
330
1DD
100
AcDbEntity
  8
DEFPOINTS
 62
     0
100
AcDbPoint
 10
57.19979891132848
 20
62.41407548794476
 30
0.0
  0
POINT
  5
1E7
330
1DD
100
AcDbEntity
  8
DEFPOINTS
 62
     0
100
AcDbPoint
 10
82.74849392087457
 20
62.41407548794475
 30
0.0
  0
ENDBLK
  5
1E8
330
1DD
100
AcDbEntity
  8
0
100
AcDbBlockEnd
  0
BLOCK
  5
1EB
330
1EA
100
AcDbEntity
  8
0
100
AcDbBlockBegin
  2
*D5
 70
     1
 10
0.0
 20
0.0
 30
0.0
  3
*D5
  1

  0
LINE
  5
1EC
330
1EA
100
AcDbEntity
  8
SUNPO
 62
     0
370
    -2
100
AcDbLine
 10
28.23075266336298
 20
60.39483244833022
 30
0.0
 11
28.23075266336298
 21
53.39483244833022
 31
0.0
  0
LINE
  5
1ED
330
1EA
100
AcDbEntity
  8
SUNPO
 62
     0
370
    -2
100
AcDbLine
 10
57.14562054847951
 20
60.39483244833022
 30
0.0
 11
57.14562054847951
 21
53.39483244833022
 31
0.0
  0
LINE
  5
1EE
330
1EA
100
AcDbEntity
  8
SUNPO
 62
     0
370
    -2
100
AcDbLine
 10
30.23075266336298
 20
55.39483244833022
 30
0.0
 11
55.14562054847951
 21
55.39483244833022
 31
0.0
  0
INSERT
  5
1EF
330
1EA
100
AcDbEntity
  8
SUNPO
 62
     0
370
    -2
100
AcDbBlockReference
  2
_OPEN30
 10
28.23075266336298
 20
55.39483244833022
 30
0.0
 41
2.0
 42
2.0
 43
2.0
 50
180.0
  0
INSERT
  5
1F0
330
1EA
100
AcDbEntity
  8
SUNPO
 62
     0
370
    -2
100
AcDbBlockReference
  2
_OPEN30
 10
57.14562054847951
 20
55.39483244833022
 30
0.0
 41
2.0
 42
2.0
 43
2.0
  0
MTEXT
  5
1F1
330
1EA
100
AcDbEntity
  8
SUNPO
 62
     0
100
AcDbMText
 10
42.68818660592124
 20
57.14483244833022
 30
0.0
 40
2.5
 41
0.0
 71
     5
 72
     1
  1
\A1;578
 73
     1
 44
1.0
1001
ACAD
1000
MTEXTBEGIN
1070
    73
1070
     1
1070
    44
1040
1.0
1070
    74
1070
     0
1000
MTEXTEND
  0
POINT
  5
1F2
330
1EA
100
AcDbEntity
  8
DEFPOINTS
 62
     0
100
AcDbPoint
 10
28.23075266336298
 20
62.39483244833022
 30
0.0
  0
POINT
  5
1F3
330
1EA
100
AcDbEntity
  8
DEFPOINTS
 62
     0
100
AcDbPoint
 10
57.14562054847951
 20
62.39483244833022
 30
0.0
  0
POINT
  5
1F4
330
1EA
100
AcDbEntity
  8
DEFPOINTS
 62
     0
100
AcDbPoint
 10
57.14562054847951
 20
55.39483244833022
 30
0.0
  0
ENDBLK
  5
1F5
330
1EA
100
AcDbEntity
  8
0
100
AcDbBlockEnd
  0
BLOCK
  5
226
330
225
100
AcDbEntity
  8
0
100
AcDbBlockBegin
  2
*D6
 70
     1
 10
0.0
 20
0.0
 30
0.0
  3
*D6
  1

  0
LINE
  5
227
330
225
100
AcDbEntity
  8
SUNPO
 62
     0
370
    -2
100
AcDbLine
 10
93.26415092101992
 20
60.39483244833022
 30
0.0
 11
93.26415092101992
 21
53.39483244833022
 31
0.0
  0
LINE
  5
228
330
225
100
AcDbEntity
  8
SUNPO
 62
     0
370
    -2
100
AcDbLine
 10
109.6103690209305
 20
60.39483244833022
 30
0.0
 11
109.6103690209305
 21
53.39483244833022
 31
0.0
  0
LINE
  5
229
330
225
100
AcDbEntity
  8
SUNPO
 62
     0
370
    -2
100
AcDbLine
 10
95.26415092101991
 20
55.39483244833022
 30
0.0
 11
107.6103690209305
 21
55.39483244833022
 31
0.0
  0
INSERT
  5
22A
330
225
100
AcDbEntity
  8
SUNPO
 62
     0
370
    -2
100
AcDbBlockReference
  2
_OPEN30
 10
93.26415092101992
 20
55.39483244833022
 30
0.0
 41
2.0
 42
2.0
 43
2.0
 50
180.0
  0
INSERT
  5
22B
330
225
100
AcDbEntity
  8
SUNPO
 62
     0
370
    -2
100
AcDbBlockReference
  2
_OPEN30
 10
109.6103690209305
 20
55.39483244833022
 30
0.0
 41
2.0
 42
2.0
 43
2.0
  0
MTEXT
  5
22C
330
225
100
AcDbEntity
  8
SUNPO
 62
     0
100
AcDbMText
 10
101.4372599709752
 20
57.14483244833022
 30
0.0
 40
2.5
 41
0.0
 71
     5
 72
     1
  1
\A1;327
 73
     1
 44
1.0
1001
ACAD
1000
MTEXTBEGIN
1070
    73
1070
     1
1070
    44
1040
1.0
1070
    74
1070
     0
1000
MTEXTEND
  0
POINT
  5
22D
330
225
100
AcDbEntity
  8
DEFPOINTS
 62
     0
100
AcDbPoint
 10
93.26415092101992
 20
62.39483244833022
 30
0.0
  0
POINT
  5
22E
330
225
100
AcDbEntity
  8
DEFPOINTS
 62
     0
100
AcDbPoint
 10
109.6103690209305
 20
62.39483244833022
 30
0.0
  0
POINT
  5
22F
330
225
100
AcDbEntity
  8
DEFPOINTS
 62
     0
100
AcDbPoint
 10
109.6103690209305
 20
55.39483244833022
 30
0.0
  0
ENDBLK
  5
230
330
225
100
AcDbEntity
  8
0
100
AcDbBlockEnd
  0
BLOCK
  5
254
330
24A
100
AcDbEntity
  8
0
100
AcDbBlockBegin
  2
*D7
 70
     1
 10
0.0
 20
0.0
 30
0.0
  3
*D7
  1

  0
LINE
  5
24B
330
24A
100
AcDbEntity
  8
SUNPO
 62
     0
370
    -2
100
AcDbLine
 10
32.3684072342834
 20
-3.516327163075771
 30
0.0
 11
32.3684072342834
 21
-10.51632716307576
 31
0.0
  0
LINE
  5
24C
330
24A
100
AcDbEntity
  8
SUNPO
 62
     0
370
    -2
100
AcDbLine
 10
48.71462533419396
 20
-3.516327163075771
 30
0.0
 11
48.71462533419396
 21
-10.51632716307576
 31
0.0
  0
LINE
  5
24D
330
24A
100
AcDbEntity
  8
SUNPO
 62
     0
370
    -2
100
AcDbLine
 10
34.3684072342834
 20
-8.516327163075764
 30
0.0
 11
46.71462533419396
 21
-8.516327163075764
 31
0.0
  0
INSERT
  5
24E
330
24A
100
AcDbEntity
  8
SUNPO
 62
     0
370
    -2
100
AcDbBlockReference
  2
_OPEN30
 10
32.3684072342834
 20
-8.516327163075764
 30
0.0
 41
2.0
 42
2.0
 43
2.0
 50
180.0
  0
INSERT
  5
24F
330
24A
100
AcDbEntity
  8
SUNPO
 62
     0
370
    -2
100
AcDbBlockReference
  2
_OPEN30
 10
48.71462533419396
 20
-8.516327163075764
 30
0.0
 41
2.0
 42
2.0
 43
2.0
  0
MTEXT
  5
250
330
24A
100
AcDbEntity
  8
SUNPO
 62
     0
100
AcDbMText
 10
40.54151628423868
 20
-6.766327163075764
 30
0.0
 40
2.5
 41
0.0
 71
     5
 72
     1
  1
\A1;327
 73
     1
 44
1.0
1001
ACAD
1000
MTEXTBEGIN
1070
    73
1070
     1
1070
    44
1040
1.0
1070
    74
1070
     0
1000
MTEXTEND
  0
POINT
  5
251
330
24A
100
AcDbEntity
  8
DEFPOINTS
 62
     0
100
AcDbPoint
 10
32.3684072342834
 20
-1.516327163075771
 30
0.0
  0
POINT
  5
252
330
24A
100
AcDbEntity
  8
DEFPOINTS
 62
     0
100
AcDbPoint
 10
48.71462533419396
 20
-1.516327163075771
 30
0.0
  0
POINT
  5
253
330
24A
100
AcDbEntity
  8
DEFPOINTS
 62
     0
100
AcDbPoint
 10
48.71462533419396
 20
-8.516327163075764
 30
0.0
  0
ENDBLK
  5
255
330
24A
100
AcDbEntity
  8
0
100
AcDbBlockEnd
  0
BLOCK
  5
260
330
256
100
AcDbEntity
  8
0
100
AcDbBlockBegin
  2
*D8
 70
     1
 10
0.0
 20
0.0
 30
0.0
  3
*D8
  1

  0
LINE
  5
257
330
256
100
AcDbEntity
  8
SUNPO
 62
     0
370
    -2
100
AcDbLine
 10
-32.66499102337355
 20
-3.516327163075771
 30
0.0
 11
-32.66499102337355
 21
-10.51632716307577
 31
0.0
  0
LINE
  5
258
330
256
100
AcDbEntity
  8
SUNPO
 62
     0
370
    -2
100
AcDbLine
 10
-3.750123138257009
 20
-3.516327163075771
 30
0.0
 11
-3.75012313825701
 21
-10.51632716307577
 31
0.0
  0
LINE
  5
259
330
256
100
AcDbEntity
  8
SUNPO
 62
     0
370
    -2
100
AcDbLine
 10
-30.66499102337355
 20
-8.516327163075771
 30
0.0
 11
-5.750123138257009
 21
-8.516327163075771
 31
0.0
  0
INSERT
  5
25A
330
256
100
AcDbEntity
  8
SUNPO
 62
     0
370
    -2
100
AcDbBlockReference
  2
_OPEN30
 10
-32.66499102337355
 20
-8.516327163075771
 30
0.0
 41
2.0
 42
2.0
 43
2.0
 50
180.0
  0
INSERT
  5
25B
330
256
100
AcDbEntity
  8
SUNPO
 62
     0
370
    -2
100
AcDbBlockReference
  2
_OPEN30
 10
-3.75012313825701
 20
-8.516327163075771
 30
0.0
 41
2.0
 42
2.0
 43
2.0
  0
MTEXT
  5
25C
330
256
100
AcDbEntity
  8
SUNPO
 62
     0
100
AcDbMText
 10
-18.20755708081527
 20
-6.766327163075771
 30
0.0
 40
2.5
 41
0.0
 71
     5
 72
     1
  1
\A1;578
 73
     1
 44
1.0
1001
ACAD
1000
MTEXTBEGIN
1070
    73
1070
     1
1070
    44
1040
1.0
1070
    74
1070
     0
1000
MTEXTEND
  0
POINT
  5
25D
330
256
100
AcDbEntity
  8
DEFPOINTS
 62
     0
100
AcDbPoint
 10
-32.66499102337355
 20
-1.516327163075771
 30
0.0
  0
POINT
  5
25E
330
256
100
AcDbEntity
  8
DEFPOINTS
 62
     0
100
AcDbPoint
 10
-3.750123138257009
 20
-1.516327163075771
 30
0.0
  0
POINT
  5
25F
330
256
100
AcDbEntity
  8
DEFPOINTS
 62
     0
100
AcDbPoint
 10
-3.75012313825701
 20
-8.516327163075771
 30
0.0
  0
ENDBLK
  5
261
330
256
100
AcDbEntity
  8
0
100
AcDbBlockEnd
  0
BLOCK
  5
26C
330
262
100
AcDbEntity
  8
0
100
AcDbBlockBegin
  2
*D9
 70
     1
 10
0.0
 20
0.0
 30
0.0
  3
*D9
  1

  0
LINE
  5
263
330
262
100
AcDbEntity
  8
SUNPO
 62
     0
370
    -2
100
AcDbLine
 10
16.85275023413804
 20
31.96999384666059
 30
0.0
 11
23.85275023413805
 21
31.96999384666059
 31
0.0
  0
LINE
  5
264
330
262
100
AcDbEntity
  8
SUNPO
 62
     0
370
    -2
100
AcDbLine
 10
-1.695944775408037
 20
-1.497084123461235
 30
0.0
 11
23.85275023413804
 21
-1.497084123461243
 31
0.0
  0
LINE
  5
265
330
262
100
AcDbEntity
  8
SUNPO
 62
     0
370
    -2
100
AcDbLine
 10
21.85275023413805
 20
29.96999384666059
 30
0.0
 11
21.85275023413804
 21
0.5029158765387577
 31
0.0
  0
INSERT
  5
266
330
262
100
AcDbEntity
  8
SUNPO
 62
     0
370
    -2
100
AcDbBlockReference
  2
_OPEN30
 10
21.85275023413805
 20
31.96999384666059
 30
0.0
 41
2.0
 42
2.0
 43
2.0
 50
90.0
  0
INSERT
  5
267
330
262
100
AcDbEntity
  8
SUNPO
 62
     0
370
    -2
100
AcDbBlockReference
  2
_OPEN30
 10
21.85275023413804
 20
-1.497084123461242
 30
0.0
 41
2.0
 42
2.0
 43
2.0
 50
270.0
  0
MTEXT
  5
268
330
262
100
AcDbEntity
  8
SUNPO
 62
     0
100
AcDbMText
 10
20.10275023413804
 20
15.23645486159967
 30
0.0
 40
2.5
 41
0.0
 71
     5
 72
     1
  1
\A1;669
 11
0.0000000000000001
 21
1.0
 31
0.0
 73
     1
 44
1.0
1001
ACAD
1000
MTEXTBEGIN
1070
    73
1070
     1
1070
    44
1040
1.0
1070
    74
1070
     0
1000
MTEXTEND
  0
POINT
  5
269
330
262
100
AcDbEntity
  8
DEFPOINTS
 62
     0
100
AcDbPoint
 10
14.85275023413804
 20
31.96999384666059
 30
0.0
  0
POINT
  5
26A
330
262
100
AcDbEntity
  8
DEFPOINTS
 62
     0
100
AcDbPoint
 10
-3.695944775408037
 20
-1.497084123461235
 30
0.0
  0
POINT
  5
26B
330
262
100
AcDbEntity
  8
DEFPOINTS
 62
     0
100
AcDbPoint
 10
21.85275023413804
 20
-1.497084123461242
 30
0.0
  0
ENDBLK
  5
26D
330
262
100
AcDbEntity
  8
0
100
AcDbBlockEnd
  0
BLOCK
  5
278
330
26E
100
AcDbEntity
  8
0
100
AcDbBlockBegin
  2
*D10
 70
     1
 10
0.0
 20
0.0
 30
0.0
  3
*D10
  1

  0
LINE
  5
26F
330
26E
100
AcDbEntity
  8
SUNPO
 62
     0
370
    -2
100
AcDbLine
 10
-43.25757916787199
 20
33.96970740230927
 30
0.0
 11
-43.25757916787199
 21
41.96970740230926
 31
0.0
  0
LINE
  5
270
330
26E
100
AcDbEntity
  8
SUNPO
 62
     0
370
    -2
100
AcDbLine
 10
6.842420832128027
 20
33.96970740230927
 30
0.0
 11
6.842420832128028
 21
41.96970740230926
 31
0.0
  0
LINE
  5
271
330
26E
100
AcDbEntity
  8
SUNPO
 62
     0
370
    -2
100
AcDbLine
 10
-41.257579167872
 20
39.96970740230927
 30
0.0
 11
4.842420832128028
 21
39.96970740230927
 31
0.0
  0
INSERT
  5
272
330
26E
100
AcDbEntity
  8
SUNPO
 62
     0
370
    -2
100
AcDbBlockReference
  2
_OPEN30
 10
-43.25757916787199
 20
39.96970740230927
 30
0.0
 41
2.0
 42
2.0
 43
2.0
 50
180.0
  0
INSERT
  5
273
330
26E
100
AcDbEntity
  8
SUNPO
 62
     0
370
    -2
100
AcDbBlockReference
  2
_OPEN30
 10
6.842420832128028
 20
39.96970740230927
 30
0.0
 41
2.0
 42
2.0
 43
2.0
  0
MTEXT
  5
274
330
26E
100
AcDbEntity
  8
SUNPO
 62
     0
100
AcDbMText
 10
-18.20757916787198
 20
41.71970740230927
 30
0.0
 40
2.5
 41
0.0
 71
     5
 72
     1
  1
\A1;1020
 73
     1
 44
1.0
1001
ACAD
1000
MTEXTBEGIN
1070
    73
1070
     1
1070
    44
1040
1.0
1070
    74
1070
     0
1000
MTEXTEND
  0
POINT
  5
275
330
26E
100
AcDbEntity
  8
DEFPOINTS
 62
     0
100
AcDbPoint
 10
-43.25757916787199
 20
31.96970740230927
 30
0.0
  0
POINT
  5
276
330
26E
100
AcDbEntity
  8
DEFPOINTS
 62
     0
100
AcDbPoint
 10
6.842420832128027
 20
31.96970740230927
 30
0.0
  0
POINT
  5
277
330
26E
100
AcDbEntity
  8
DEFPOINTS
 62
     0
100
AcDbPoint
 10
6.842420832128028
 20
39.96970740230927
 30
0.0
  0
ENDBLK
  5
279
330
26E
100
AcDbEntity
  8
0
100
AcDbBlockEnd
  0
BLOCK
  5
284
330
27A
100
AcDbEntity
  8
0
100
AcDbBlockBegin
  2
*D11
 70
     1
 10
0.0
 20
0.0
 30
0.0
  3
*D11
  1

  0
LINE
  5
27B
330
27A
100
AcDbEntity
  8
SUNPO
 62
     0
370
    -2
100
AcDbLine
 10
8.852750234138056
 20
1.469993846660599
 30
0.0
 11
16.85275023413805
 21
1.469993846660597
 31
0.0
  0
LINE
  5
27C
330
27A
100
AcDbEntity
  8
SUNPO
 62
     0
370
    -2
100
AcDbLine
 10
8.852750234138056
 20
31.9699938466606
 30
0.0
 11
16.85275023413806
 21
31.9699938466606
 31
0.0
  0
LINE
  5
27D
330
27A
100
AcDbEntity
  8
SUNPO
 62
     0
370
    -2
100
AcDbLine
 10
14.85275023413805
 20
3.469993846660597
 30
0.0
 11
14.85275023413805
 21
29.96999384666059
 31
0.0
  0
INSERT
  5
27E
330
27A
100
AcDbEntity
  8
SUNPO
 62
     0
370
    -2
100
AcDbBlockReference
  2
_OPEN30
 10
14.85275023413805
 20
1.469993846660597
 30
0.0
 41
2.0
 42
2.0
 43
2.0
 50
270.0
  0
INSERT
  5
27F
330
27A
100
AcDbEntity
  8
SUNPO
 62
     0
370
    -2
100
AcDbBlockReference
  2
_OPEN30
 10
14.85275023413805
 20
31.9699938466606
 30
0.0
 41
2.0
 42
2.0
 43
2.0
 50
90.0
  0
MTEXT
  5
280
330
27A
100
AcDbEntity
  8
SUNPO
 62
     0
100
AcDbMText
 10
13.10275023413805
 20
16.7199938466606
 30
0.0
 40
2.5
 41
0.0
 71
     5
 72
     1
  1
\A1;610
 11
0.0000000000000001
 21
1.0
 31
0.0
 73
     1
 44
1.0
1001
ACAD
1000
MTEXTBEGIN
1070
    73
1070
     1
1070
    44
1040
1.0
1070
    74
1070
     0
1000
MTEXTEND
  0
POINT
  5
281
330
27A
100
AcDbEntity
  8
DEFPOINTS
 62
     0
100
AcDbPoint
 10
6.852750234138056
 20
1.469993846660599
 30
0.0
  0
POINT
  5
282
330
27A
100
AcDbEntity
  8
DEFPOINTS
 62
     0
100
AcDbPoint
 10
6.852750234138056
 20
31.9699938466606
 30
0.0
  0
POINT
  5
283
330
27A
100
AcDbEntity
  8
DEFPOINTS
 62
     0
100
AcDbPoint
 10
14.85275023413805
 20
31.9699938466606
 30
0.0
  0
ENDBLK
  5
285
330
27A
100
AcDbEntity
  8
0
100
AcDbBlockEnd
  0
BLOCK
  5
292
330
286
100
AcDbEntity
  8
0
100
AcDbBlockBegin
  2
*D12
 70
     1
 10
0.0
 20
0.0
 30
0.0
  3
*D12
  1

  0
LINE
  5
287
330
286
100
AcDbEntity
  8
SUNPO
 62
     0
370
    -2
100
AcDbLine
 10
38.72962239731055
 20
33.97623990686833
 30
0.0
 11
38.72962239731055
 21
41.96970740230926
 31
0.0
  0
LINE
  5
288
330
286
100
AcDbEntity
  8
SUNPO
 62
     0
370
    -2
100
AcDbLine
 10
43.17962239731054
 20
33.97623990686833
 30
0.0
 11
43.17962239731054
 21
41.96970740230926
 31
0.0
  0
LINE
  5
289
330
286
100
AcDbEntity
  8
SUNPO
 62
     0
370
    -2
100
AcDbLine
 10
36.72962239731055
 20
39.96970740230927
 30
0.0
 11
34.72962239731055
 21
39.96970740230927
 31
0.0
  0
LINE
  5
28A
330
286
100
AcDbEntity
  8
SUNPO
 62
     0
370
    -2
100
AcDbLine
 10
45.17962239731054
 20
39.96970740230927
 30
0.0
 11
52.3462890639772
 21
39.96970740230927
 31
0.0
  0
LINE
  5
28B
330
286
100
AcDbEntity
  8
SUNPO
 62
     0
370
    -2
100
AcDbLine
 10
38.72962239731055
 20
39.96970740230927
 30
0.0
 11
43.17962239731054
 21
39.96970740230927
 31
0.0
  0
INSERT
  5
28C
330
286
100
AcDbEntity
  8
SUNPO
 62
     0
370
    -2
100
AcDbBlockReference
  2
_OPEN30
 10
38.72962239731055
 20
39.96970740230927
 30
0.0
 41
2.0
 42
2.0
 43
2.0
  0
INSERT
  5
28D
330
286
100
AcDbEntity
  8
SUNPO
 62
     0
370
    -2
100
AcDbBlockReference
  2
_OPEN30
 10
43.17962239731054
 20
39.96970740230927
 30
0.0
 41
2.0
 42
2.0
 43
2.0
 50
180.0
  0
MTEXT
  5
28E
330
286
100
AcDbEntity
  8
SUNPO
 62
     0
100
AcDbMText
 10
49.76295573064387
 20
41.71970740230927
 30
0.0
 40
2.5
 41
0.0
 71
     5
 72
     1
  1
\A1;89
 73
     1
 44
1.0
1001
ACAD
1000
MTEXTBEGIN
1070
    73
1070
     1
1070
    44
1040
1.0
1070
    74
1070
     0
1000
MTEXTEND
  0
POINT
  5
28F
330
286
100
AcDbEntity
  8
DEFPOINTS
 62
     0
100
AcDbPoint
 10
38.72962239731055
 20
31.97623990686833
 30
0.0
  0
POINT
  5
290
330
286
100
AcDbEntity
  8
DEFPOINTS
 62
     0
100
AcDbPoint
 10
43.17962239731054
 20
31.97623990686833
 30
0.0
  0
POINT
  5
291
330
286
100
AcDbEntity
  8
DEFPOINTS
 62
     0
100
AcDbPoint
 10
43.17962239731054
 20
39.96970740230927
 30
0.0
  0
ENDBLK
  5
293
330
286
100
AcDbEntity
  8
0
100
AcDbBlockEnd
  0
ENDSEC
  0
SECTION
  2
ENTITIES
  0
TEXT
  5
31
330
2
100
AcDbEntity
  8
TOUROKU
100
AcDbText
 10
24.20420629023229
 20
44.5896755135287
 30
0.0
 40
2.0
  1
ＴＨ４２ＰＨ１１ＫＲ＋ＴＹＳＴ０８Ｋ
 72
     2
 11
66.6042062902323
 21
44.5896755135287
 31
0.0
100
AcDbText
  0
TEXT
  5
33
330
2
100
AcDbEntity
  8
MOJI1
100
AcDbText
 10
-31.39574374269546
 20
50.58967551352873
 30
0.0
 40
4.0
  1
ハイビジョンプラズマディスプレイ据置きスタンド付
 41
0.85
100
AcDbText
  0
TEXT
  5
35
330
2
100
AcDbEntity
  8
MOJI1
100
AcDbText
 10
-55.89574374269526
 20
-42.41032448647149
 30
0.0
 40
3.0
  1
階調数
100
AcDbText
  0
TEXT
  5
36
330
2
100
AcDbEntity
  8
MOJI1
100
AcDbText
 10
-55.89574374269526
 20
-37.4103244864715
 30
0.0
 40
3.0
  1
コントラスト
100
AcDbText
  0
LINE
  5
37
330
2
100
AcDbEntity
  8
WAKU
 62
     1
100
AcDbLine
 10
-58.39574374269526
 20
-43.41032448647149
 30
0.0
 11
66.60425625730451
 21
-43.41032448647149
 31
0.0
  0
LINE
  5
39
330
2
100
AcDbEntity
  8
WAKU
 62
     1
100
AcDbLine
 10
-58.39574374269526
 20
-38.4103244864715
 30
0.0
 11
66.60425625730451
 21
-38.4103244864715
 31
0.0
  0
TEXT
  5
3A
330
2
100
AcDbEntity
  8
MOJI1
100
AcDbText
 10
-55.89574374269526
 20
-17.41032448647149
 30
0.0
 40
3.0
  1
電  源
100
AcDbText
  0
TEXT
  5
3B
330
2
100
AcDbEntity
  8
MOJI1
100
AcDbText
 10
-55.89574374269526
 20
-22.4103244864715
 30
0.0
 40
3.0
  1
消費電力
100
AcDbText
  0
TEXT
  5
3C
330
2
100
AcDbEntity
  8
MOJI1
100
AcDbText
 10
-55.89574374269526
 20
-27.4103244864715
 30
0.0
 40
3.0
  1
画面サイズ
100
AcDbText
  0
TEXT
  5
3D
330
2
100
AcDbEntity
  8
MOJI1
100
AcDbText
 10
-16.89574374269526
 20
-22.4103244864715
 30
0.0
 40
3.0
  1
３５５Ｗ
100
AcDbText
  0
TEXT
  5
3E
330
2
100
AcDbEntity
  8
MOJI1
100
AcDbText
 10
-16.89574374269526
 20
-27.4103244864715
 30
0.0
 40
3.0
  1
４２Ｖ型（１６：９）
100
AcDbText
  0
TEXT
  5
3F
330
2
100
AcDbEntity
  8
MOJI1
100
AcDbText
 10
-16.89574374269526
 20
-17.41032448647149
 30
0.0
 40
3.0
  1
ＡＣ１００Ｖ　５０Ｈｚ／６０Ｈｚ
100
AcDbText
  0
TEXT
  5
40
330
2
100
AcDbEntity
  8
MOJI1
100
AcDbText
 10
-55.89574374269526
 20
-52.4103244864715
 30
0.0
 40
3.0
  1
接続端子
100
AcDbText
  0
TEXT
  5
41
330
2
100
AcDbEntity
  8
MOJI1
100
AcDbText
 10
-55.89574374269526
 20
-47.41032448647149
 30
0.0
 40
3.0
  1
音声最大出力
100
AcDbText
  0
TEXT
  5
42
330
2
100
AcDbEntity
  8
MOJI1
100
AcDbText
 10
-16.89574374269526
 20
-47.41032448647149
 30
0.0
 40
3.0
  1
１６Ｗ（８Ｗ＋８Ｗ）
100
AcDbText
  0
TEXT
  5
43
330
2
100
AcDbEntity
  8
MOJI1
100
AcDbText
 10
-16.89574374269526
 20
-57.4103244864715
 30
0.0
 40
3.0
  1
シリアル
100
AcDbText
  0
TEXT
  5
44
330
2
100
AcDbEntity
  8
MOJI1
100
AcDbText
 10
-16.89574374269526
 20
-52.4103244864715
 30
0.0
 40
3.0
  1
ビデオ／Ｓビデオ／ＰＣ／外部スピーカ
100
AcDbText
  0
TEXT
  5
45
330
2
100
AcDbEntity
  8
MOJI1
100
AcDbText
 10
-16.89574374269526
 20
-32.4103244864715
 30
0.0
 40
3.0
  1
７８６４３２画素（水平１０２４×垂直７６８）
100
AcDbText
  0
LINE
  5
46
330
2
100
AcDbEntity
  8
WAKU
 62
     4
100
AcDbLine
 10
-18.39574374269549
 20
-13.41032448647149
 30
0.0
 11
-18.39574374269549
 21
-58.41032448647149
 31
0.0
  0
TEXT
  5
47
330
2
100
AcDbEntity
  8
MOJI1
100
AcDbText
 10
-55.89574374269526
 20
-32.4103244864715
 30
0.0
 40
3.0
  1
画素数
100
AcDbText
  0
LINE
  5
48
330
2
100
AcDbEntity
  8
WAKU
 62
     4
100
AcDbLine
 10
66.60425625730451
 20
-13.41032448647149
 30
0.0
 11
66.60425625730451
 21
-58.41032448647149
 31
0.0
  0
LINE
  5
49
330
2
100
AcDbEntity
  8
WAKU
 62
     4
100
AcDbLine
 10
-58.39574374269549
 20
-13.41032448647149
 30
0.0
 11
-58.39574374269526
 21
-58.41032448647149
 31
0.0
  0
LINE
  5
4A
330
2
100
AcDbEntity
  8
WAKU
 62
     4
100
AcDbLine
 10
66.60425625730451
 20
-58.41032448647149
 30
0.0
 11
-58.39574374269526
 21
-58.41032448647149
 31
0.0
  0
LINE
  5
4B
330
2
100
AcDbEntity
  8
WAKU
 62
     1
100
AcDbLine
 10
-58.39574374269526
 20
-53.41032448647149
 30
0.0
 11
66.60425625730451
 21
-53.41032448647149
 31
0.0
  0
LINE
  5
4C
330
2
100
AcDbEntity
  8
WAKU
 62
     1
100
AcDbLine
 10
-58.39574374269526
 20
-48.41032448647149
 30
0.0
 11
66.60425625730451
 21
-48.41032448647149
 31
0.0
  0
LINE
  5
4D
330
2
100
AcDbEntity
  8
WAKU
 62
     1
100
AcDbLine
 10
-58.39574374269526
 20
-28.4103244864715
 30
0.0
 11
66.60425625730451
 21
-28.4103244864715
 31
0.0
  0
LINE
  5
4E
330
2
100
AcDbEntity
  8
WAKU
 62
     1
100
AcDbLine
 10
-58.39574374269526
 20
-18.41032448647149
 30
0.0
 11
66.60425625730451
 21
-18.41032448647149
 31
0.0
  0
LINE
  5
4F
330
2
100
AcDbEntity
  8
WAKU
 62
     4
100
AcDbLine
 10
-58.39574374269526
 20
-13.41032448647149
 30
0.0
 11
66.60425625730451
 21
-13.41032448647149
 31
0.0
  0
LINE
  5
50
330
2
100
AcDbEntity
  8
WAKU
 62
     1
100
AcDbLine
 10
-58.39574374269526
 20
-33.4103244864715
 30
0.0
 11
66.60425625730451
 21
-33.4103244864715
 31
0.0
  0
LINE
  5
51
330
2
100
AcDbEntity
  8
WAKU
 62
     1
100
AcDbLine
 10
-58.39574374269526
 20
-23.41032448647149
 30
0.0
 11
66.60425625730451
 21
-23.41032448647149
 31
0.0
  0
ELLIPSE
  5
52
330
2
100
AcDbEntity
  8
GAIKEI
  6
Continuous
 62
     1
100
AcDbEllipse
 10
-43.17542441897245
 20
31.82062509291404
 30
0.0
 11
-0.0079467640876592
 21
0.4318755208183608
 31
0.0
210
0.0
220
0.0
230
1.0
 40
0.0404429999982552
 41
4.285401047308635
 42
4.371811220305964
  0
ELLIPSE
  5
54
330
2
100
AcDbEntity
  8
GAIKEI
  6
Continuous
 62
     1
100
AcDbEllipse
 10
-43.1754244189724
 20
1.634364349878978
 30
0.0
 11
0.007946764087659
 21
0.4318755208183799
 31
0.0
210
0.0
220
0.0
230
1.0
 40
0.0404429999982537
 41
-1.230218566716188
 42
-1.143808393718863
  0
ELLIPSE
  5
55
330
2
100
AcDbEntity
  8
GAIKEI
  6
Continuous
 62
     1
100
AcDbEllipse
 10
-43.10052056426639
 20
31.89552894762016
 30
0.0
 11
-0.4318755208192346
 21
0.0079467640870345
 31
0.0
210
0.0
220
0.0
230
1.0
 40
0.0404429999987592
 41
1.911374086872785
 42
1.997784259870051
  0
ELLIPSE
  5
56
330
2
100
AcDbEntity
  8
GAIKEI
  6
Continuous
 62
     1
100
AcDbEllipse
 10
-43.10052056426639
 20
1.5594604951728
 30
0.0
 11
0.4318755208195003
 21
0.0079467640870295
 31
0.0
210
0.0
220
0.0
230
1.0
 40
0.0404429999987397
 41
1.14380839372002
 42
1.230218566717296
  0
ELLIPSE
  5
57
330
2
100
AcDbEntity
  8
GAIKEI
  6
Continuous
 62
     1
100
AcDbEllipse
 10
6.760455266703957
 20
1.634364349878978
 30
0.0
 11
-0.007946764091891
 21
0.4318755205240271
 31
0.0
210
0.0
220
0.0
230
1.0
 40
0.0404430000213599
 41
1.143808393408041
 42
1.23021856647389
  0
ELLIPSE
  5
58
330
2
100
AcDbEntity
  8
GAIKEI
  6
Continuous
 62
     1
100
AcDbEllipse
 10
6.760455266703957
 20
31.82062509291404
 30
0.0
 11
0.0079467640876545
 21
0.4318755208186895
 31
0.0
210
0.0
220
0.0
230
1.0
 40
0.0404429999982294
 41
1.911374086873349
 42
1.997784259870601
  0
ELLIPSE
  5
59
330
2
100
AcDbEntity
  8
GAIKEI
  6
Continuous
 62
     1
100
AcDbEllipse
 10
6.685551411997835
 20
31.89552894762016
 30
0.0
 11
0.4318755208195939
 21
0.007946764087639
 31
0.0
210
0.0
220
0.0
230
1.0
 40
0.040442999998161
 41
4.285401047309866
 42
4.37181122030712
  0
ELLIPSE
  5
5A
330
2
100
AcDbEntity
  8
GAIKEI
  6
Continuous
 62
     1
100
AcDbEllipse
 10
6.685551411997835
 20
1.5594604951728
 30
0.0
 11
-0.4318755208195887
 21
0.0079467640876391
 31
0.0
210
0.0
220
0.0
230
1.0
 40
0.0404429999981614
 41
-1.230218566717322
 42
-1.143808393720068
  0
ELLIPSE
  5
5B
330
2
100
AcDbEntity
  8
GAIKEI
  6
Continuous
 62
     1
100
AcDbEllipse
 10
-40.68599061261074
 20
29.73240892654241
 30
0.0
 11
-0.0641306772673077
 21
0.0819853242396075
 31
0.0
210
0.0
220
0.0
230
1.0
 40
0.9602119999885655
 41
-0.6513938849655593
 42
-0.3742724759626874
  0
ELLIPSE
  5
5C
330
2
100
AcDbEntity
  8
GAIKEI
  6
Continuous
 62
     1
100
AcDbEllipse
 10
4.302383622383331
 20
29.73240892654241
 30
0.0
 11
0.0641306772729958
 21
0.0819853242353328
 31
0.0
210
0.0
220
0.0
230
1.0
 40
0.9602119999921054
 41
0.3742724760321388
 42
0.6513938850329191
  0
ELLIPSE
  5
5D
330
2
100
AcDbEntity
  8
GAIKEI
  6
Continuous
 62
     1
100
AcDbEllipse
 10
-40.68599061261068
 20
3.855026906036528
 30
0.0
 11
0.0641306772804553
 21
0.0819853242296695
 31
0.0
210
0.0
220
0.0
230
1.0
 40
0.960211999997915
 41
3.515865129711884
 42
3.792986538710805
  0
ELLIPSE
  5
5E
330
2
100
AcDbEntity
  8
GAIKEI
  6
Continuous
 62
     1
100
AcDbEllipse
 10
4.302383622383331
 20
3.855026906036528
 30
0.0
 11
-0.0641306772997718
 21
0.081985324215292
 31
0.0
210
0.0
220
0.0
230
1.0
 40
0.9602120000078306
 41
2.490198768239517
 42
2.767320177232699
  0
ELLIPSE
  5
5F
330
2
100
AcDbEntity
  8
GAIKEI
  6
Continuous
 62
     1
100
AcDbEllipse
 10
-40.68597966163781
 20
29.73239797556954
 30
0.0
 11
-0.0820793596799872
 21
0.0640376871272272
 31
0.0
210
0.0
220
0.0
230
1.0
 40
0.960042000004322
 41
0.3752614366540838
 42
0.6500607538632135
  0
ELLIPSE
  5
60
330
2
100
AcDbEntity
  8
GAIKEI
  6
Continuous
 62
     1
100
AcDbEllipse
 10
-40.68597966163776
 20
3.855037857009506
 30
0.0
 11
0.0820793596877476
 21
0.0640376871167844
 31
0.0
210
0.0
220
0.0
230
1.0
 40
0.9600419999991443
 41
2.491531899849828
 42
2.766331217060938
  0
ELLIPSE
  5
61
330
2
100
AcDbEntity
  8
GAIKEI
  6
Continuous
 62
     1
100
AcDbEllipse
 10
4.302372671410466
 20
29.73239797556954
 30
0.0
 11
0.0820793596853468
 21
0.0640376871199563
 31
0.0
210
0.0
220
0.0
230
1.0
 40
0.9600420000016073
 41
-0.6500607537771041
 42
-0.3752614365658411
  0
ELLIPSE
  5
62
330
2
100
AcDbEntity
  8
GAIKEI
  6
Continuous
 62
     1
100
AcDbEllipse
 10
4.302372671410466
 20
3.855037857009506
 30
0.0
 11
-0.0820793596818472
 21
0.064037687124634
 31
0.0
210
0.0
220
0.0
230
1.0
 40
0.9600420000044229
 41
3.516854090213623
 42
3.791653407422807
  0
ELLIPSE
  5
63
330
2
100
AcDbEntity
  8
GAIKEI
  6
Continuous
 62
     1
100
AcDbEllipse
 10
4.302383622383331
 20
3.857765849373322
 30
0.0
 11
-0.0911712405080007
 21
0.1233277373757855
 31
0.0
210
0.0
220
0.0
230
1.0
 40
0.977625999999314
 41
2.515781018547835
 42
2.792902427545178
  0
ELLIPSE
  5
64
330
2
100
AcDbEntity
  8
GAIKEI
  6
Continuous
 62
     1
100
AcDbEllipse
 10
-40.68599061261068
 20
3.857765849373322
 30
0.0
 11
0.0911712404724387
 21
0.1233277374014959
 31
0.0
210
0.0
220
0.0
230
1.0
 40
0.9776259999899165
 41
3.490282879346349
 42
3.767404288348283
  0
ELLIPSE
  5
65
330
2
100
AcDbEntity
  8
GAIKEI
  6
Continuous
 62
     1
100
AcDbEllipse
 10
-40.68599061261074
 20
29.72966998320561
 30
0.0
 11
-0.0911712405137962
 21
0.1233277373716018
 31
0.0
210
0.0
220
0.0
230
1.0
 40
0.9776260000001293
 41
-0.6258116350885031
 42
-0.3486902260919513
  0
ELLIPSE
  5
66
330
2
100
AcDbEntity
  8
GAIKEI
  6
Continuous
 62
     1
100
AcDbEllipse
 10
4.302383622383331
 20
29.72966998320561
 30
0.0
 11
0.0911712405204928
 21
0.1233277373667308
 31
0.0
210
0.0
220
0.0
230
1.0
 40
0.9776260000027797
 41
0.3486902261462024
 42
0.6258116351416079
  0
ELLIPSE
  5
67
330
2
100
AcDbEntity
  8
GAIKEI
  6
Continuous
 62
     1
100
AcDbEllipse
 10
-40.68320081475576
 20
3.855037857009506
 30
0.0
 11
0.1234686257683748
 21
0.0910092022787943
 31
0.0
210
0.0
220
0.0
230
1.0
 40
0.9775040000039993
 41
2.51722575267712
 42
2.792025069887031
  0
ELLIPSE
  5
68
330
2
100
AcDbEntity
  8
GAIKEI
  6
Continuous
 62
     1
100
AcDbEllipse
 10
-40.68320081475582
 20
29.73239797556954
 30
0.0
 11
-0.1234686257922888
 21
0.0910092022455151
 31
0.0
210
0.0
220
0.0
230
1.0
 40
0.9775039999962212
 41
0.3495675834329772
 42
0.6243669006472979
  0
ELLIPSE
  5
69
330
2
100
AcDbEntity
  8
GAIKEI
  6
Continuous
 62
     1
100
AcDbEllipse
 10
4.299593824528415
 20
29.73239797556954
 30
0.0
 11
0.1234686257867853
 21
0.0910092022531102
 31
0.0
210
0.0
220
0.0
230
1.0
 40
0.977503999999106
 41
-0.624366900707318
 42
-0.3495675834944374
  0
ELLIPSE
  5
6A
330
2
100
AcDbEntity
  8
GAIKEI
  6
Continuous
 62
     1
100
AcDbEllipse
 10
4.299593824528415
 20
3.855037857009506
 30
0.0
 11
-0.1234686257771081
 21
0.0910092022665973
 31
0.0
210
0.0
220
0.0
230
1.0
 40
0.977504000001821
 41
3.491160237193698
 42
3.76595955440519
  0
ELLIPSE
  5
6B
330
2
100
AcDbEntity
  8
GAIKEI
  6
Continuous
 62
     1
100
AcDbEllipse
 10
6.685551411997835
 20
31.82062509291404
 30
0.0
 11
-0.0458035635644591
 21
0.4845611117803465
 31
0.0
210
0.0
220
0.0
230
1.0
 40
0.0083090000075435
 41
4.334209237380324
 42
4.420619410483875
  0
ELLIPSE
  5
6C
330
2
100
AcDbEntity
  8
GAIKEI
  6
Continuous
 62
     1
100
AcDbEllipse
 10
6.685551411997835
 20
31.82062509291404
 30
0.0
 11
-0.4845611135830396
 21
0.0458035637240449
 31
0.0
210
0.0
220
0.0
230
1.0
 40
0.0083089999805696
 41
-1.279026758011011
 42
-1.192616585267888
  0
ELLIPSE
  5
6D
330
2
100
AcDbEntity
  8
GAIKEI
  6
Continuous
 62
     1
100
AcDbEllipse
 10
6.685551411997835
 20
1.634364349878978
 30
0.0
 11
0.4845611134166673
 21
0.0458035637092122
 31
0.0
210
0.0
220
0.0
230
1.0
 40
0.0083089999831293
 41
4.334209238721307
 42
4.420619411497712
  0
ELLIPSE
  5
6E
330
2
100
AcDbEntity
  8
GAIKEI
  6
Continuous
 62
     1
100
AcDbEllipse
 10
6.685551411997835
 20
1.634364349878978
 30
0.0
 11
0.0458035635727632
 21
0.48456111187736
 31
0.0
210
0.0
220
0.0
230
1.0
 40
0.0083090000063217
 41
-1.279026756954143
 42
-1.192616583870014
  0
ELLIPSE
  5
6F
330
2
100
AcDbEntity
  8
GAIKEI
  6
Continuous
 62
     1
100
AcDbEllipse
 10
5.833810090482757
 20
2.486105671393943
 30
0.0
 11
-0.5814136090118265
 21
0.5814136090118265
 31
0.0
210
0.0
220
0.0
230
1.0
 40
0.4561100000001053
 41
2.756538952253019
 42
3.526646354926448
  0
ELLIPSE
  5
70
330
2
100
AcDbEntity
  8
GAIKEI
  6
Continuous
 62
     1
100
AcDbEllipse
 10
-42.24877924275131
 20
2.486105671393943
 30
0.0
 11
0.5814136090118486
 21
0.5814136090118486
 31
0.0
210
0.0
220
0.0
230
1.0
 40
0.4561099999999815
 41
2.756538952252924
 42
3.526646354926543
  0
ELLIPSE
  5
71
330
2
100
AcDbEntity
  8
GAIKEI
  6
Continuous
 62
     1
100
AcDbEllipse
 10
5.833810090482757
 20
30.96888377139896
 30
0.0
 11
0.581413609011829
 21
0.581413609011829
 31
0.0
210
0.0
220
0.0
230
1.0
 40
0.4561099999999685
 41
5.898131605842851
 42
6.668239008516433
  0
ELLIPSE
  5
72
330
2
100
AcDbEntity
  8
GAIKEI
  6
Continuous
 62
     1
100
AcDbEllipse
 10
-42.24877924275131
 20
30.96888377139896
 30
0.0
 11
-0.581413609011845
 21
0.581413609011845
 31
0.0
210
0.0
220
0.0
230
1.0
 40
0.4561099999999933
 41
-0.3850537013368589
 42
0.3850537013368587
  0
ARC
  5
73
330
2
100
AcDbEntity
  8
GAIKEI
  6
Continuous
 62
     1
100
AcDbCircle
 10
-43.05756139763196
 20
31.77766592627967
 30
0.0
 40
0.2000177702400075
100
AcDbArc
 50
179.9215319999855
 51
180.0
  0
ARC
  5
74
330
2
100
AcDbEntity
  8
GAIKEI
  6
Continuous
 62
     1
100
AcDbCircle
 10
-43.05756139763196
 20
1.677323516513297
 30
0.0
 40
0.2000177702400075
100
AcDbArc
 50
180.0
 51
180.0784680000144
  0
ARC
  5
75
330
2
100
AcDbEntity
  8
GAIKEI
  6
Continuous
 62
     1
100
AcDbCircle
 10
6.642592245363516
 20
1.677323516513297
 30
0.0
 40
0.2000177702400075
100
AcDbArc
 50
359.9215319999856
 51
0.0
  0
ARC
  5
76
330
2
100
AcDbEntity
  8
GAIKEI
  6
Continuous
 62
     1
100
AcDbCircle
 10
6.642592245363459
 20
31.77766592627967
 30
0.0
 40
0.2000177702400075
100
AcDbArc
 50
0.0
 51
0.0784680000144216
  0
ARC
  5
77
330
2
100
AcDbEntity
  8
GAIKEI
  6
Continuous
 62
     1
100
AcDbCircle
 10
6.642592245363459
 20
31.77766592627967
 30
0.0
 40
0.2000177702400075
100
AcDbArc
 50
89.92153200000187
 51
90.0
  0
ARC
  5
78
330
2
100
AcDbEntity
  8
GAIKEI
  6
Continuous
 62
     1
100
AcDbCircle
 10
-43.05756139763196
 20
31.77766592627967
 30
0.0
 40
0.2000177702400075
100
AcDbArc
 50
90.0
 51
90.07846799999812
  0
ARC
  5
79
330
2
100
AcDbEntity
  8
GAIKEI
  6
Continuous
 62
     1
100
AcDbCircle
 10
-43.05756139763196
 20
1.677323516513297
 30
0.0
 40
0.2000177702400075
100
AcDbArc
 50
269.9215320000019
 51
270.0
  0
ARC
  5
7A
330
2
100
AcDbEntity
  8
GAIKEI
  6
Continuous
 62
     1
100
AcDbCircle
 10
6.642592245363516
 20
1.677323516513297
 30
0.0
 40
0.2000177702400075
100
AcDbArc
 50
270.0
 51
270.0784679999981
  0
ARC
  5
7B
330
2
100
AcDbEntity
  8
GAIKEI
  6
Continuous
 62
     7
100
AcDbCircle
 10
-43.05756139763196
 20
1.677323516513297
 30
0.0
 40
0.2000177702400075
100
AcDbArc
 50
180.0784680000144
 51
269.9215320000019
  0
ARC
  5
7C
330
2
100
AcDbEntity
  8
GAIKEI
  6
Continuous
 62
     7
100
AcDbCircle
 10
6.642592245363516
 20
1.677323516513297
 30
0.0
 40
0.2000177702400075
100
AcDbArc
 50
270.0784679999981
 51
359.9215319999856
  0
ARC
  5
7D
330
2
100
AcDbEntity
  8
GAIKEI
  6
Continuous
 62
     7
100
AcDbCircle
 10
-43.05756139763196
 20
31.77766592627967
 30
0.0
 40
0.2000177702400075
100
AcDbArc
 50
90.07846799999812
 51
179.9215319999855
  0
ARC
  5
7E
330
2
100
AcDbEntity
  8
GAIKEI
  6
Continuous
 62
     7
100
AcDbCircle
 10
6.642592245363459
 20
31.77766592627967
 30
0.0
 40
0.2000177702400075
100
AcDbArc
 50
0.0784680000144216
 51
89.92153200000187
  0
ARC
  5
7F
330
2
100
AcDbEntity
  8
GAIKEI
  6
Continuous
 62
     1
100
AcDbCircle
 10
-40.69022283861568
 20
29.73663460196542
 30
0.0
 40
0.0982869821404501
100
AcDbArc
 50
105.7493539999931
 51
164.3805440000052
  0
ARC
  5
80
330
2
100
AcDbEntity
  8
GAIKEI
  6
Continuous
 62
     1
100
AcDbCircle
 10
4.306615848388332
 20
29.73663460196542
 30
0.0
 40
0.0982869821404501
100
AcDbArc
 50
15.61945599999471
 51
74.25064600000692
  0
ARC
  5
81
330
2
100
AcDbEntity
  8
GAIKEI
  6
Continuous
 62
     1
100
AcDbCircle
 10
-41.62470963723523
 20
3.070011791399906
 30
0.0
 40
0.1000088851200038
100
AcDbArc
 50
180.0
 51
270.0
  0
ARC
  5
82
330
2
100
AcDbEntity
  8
GAIKEI
  6
Continuous
 62
     1
100
AcDbCircle
 10
5.241102647008005
 20
3.070011791399906
 30
0.0
 40
0.1000088851200038
100
AcDbArc
 50
270.0
 51
0.0
  0
ARC
  5
83
330
2
100
AcDbEntity
  8
GAIKEI
  6
Continuous
 62
     1
100
AcDbCircle
 10
-41.6247096372353
 20
30.36997590192129
 30
0.0
 40
0.1000088851200038
100
AcDbArc
 50
90.0
 51
180.0
  0
ARC
  5
84
330
2
100
AcDbEntity
  8
GAIKEI
  6
Continuous
 62
     1
100
AcDbCircle
 10
5.241102647008005
 20
30.36997590192129
 30
0.0
 40
0.1000088851200038
100
AcDbArc
 50
0.0
 51
90.0
  0
ARC
  5
85
330
2
100
AcDbEntity
  8
GAIKEI
  6
Continuous
 62
     1
100
AcDbCircle
 10
-40.74077172954616
 20
2.299878826385338
 30
0.0
 40
0.025002221280001
100
AcDbArc
 50
90.0
 51
180.0
  0
ARC
  5
86
330
2
100
AcDbEntity
  8
GAIKEI
  6
Continuous
 62
     1
100
AcDbCircle
 10
-40.44074507418616
 20
2.299878826385338
 30
0.0
 40
0.025002221280001
100
AcDbArc
 50
0.0
 51
90.0
  0
ARC
  5
87
330
2
100
AcDbEntity
  8
GAIKEI
  6
Continuous
 62
     1
100
AcDbCircle
 10
-40.74077172954616
 20
1.999852171025281
 30
0.0
 40
0.025002221280001
100
AcDbArc
 50
180.0
 51
270.0
  0
ARC
  5
88
330
2
100
AcDbEntity
  8
GAIKEI
  6
Continuous
 62
     1
100
AcDbCircle
 10
-40.44074507418616
 20
1.999852171025281
 30
0.0
 40
0.025002221280001
100
AcDbArc
 50
270.0
 51
0.0
  0
ARC
  5
89
330
2
100
AcDbEntity
  8
GAIKEI
  6
Continuous
 62
     1
100
AcDbCircle
 10
5.241102647008005
 20
30.36997590192129
 30
0.0
 40
0.2019818947393219
100
AcDbArc
 50
0.0
 51
90.0
  0
ARC
  5
8A
330
2
100
AcDbEntity
  8
GAIKEI
  6
Continuous
 62
     1
100
AcDbCircle
 10
5.241102647008005
 20
3.070011791399906
 30
0.0
 40
0.2019818947393219
100
AcDbArc
 50
270.0
 51
0.0
  0
ARC
  5
8B
330
2
100
AcDbEntity
  8
GAIKEI
  6
Continuous
 62
     1
100
AcDbCircle
 10
-41.6247096372353
 20
30.36997590192129
 30
0.0
 40
0.2019818947393219
100
AcDbArc
 50
90.0
 51
180.0
  0
ARC
  5
8C
330
2
100
AcDbEntity
  8
GAIKEI
  6
Continuous
 62
     1
100
AcDbCircle
 10
-41.62470963723523
 20
3.070011791399906
 30
0.0
 40
0.2019818947393219
100
AcDbArc
 50
180.0
 51
270.0
  0
LINE
  5
8D
330
2
100
AcDbEntity
  8
GAIKEI
  6
Continuous
 62
     7
100
AcDbLine
 10
-43.25757916787199
 20
31.77766592627967
 30
0.0
 11
-43.25757916787199
 21
1.677323516513297
 31
0.0
  0
LINE
  5
8E
330
2
100
AcDbEntity
  8
GAIKEI
  6
Continuous
 62
     7
100
AcDbLine
 10
6.84261001560344
 20
31.77766592627967
 30
0.0
 11
6.84261001560344
 21
1.677323516513297
 31
0.0
  0
LINE
  5
8F
330
2
100
AcDbEntity
  8
GAIKEI
  6
Continuous
 62
     7
100
AcDbLine
 10
-43.05756139763196
 20
31.97768369651965
 30
0.0
 11
6.642592245363459
 21
31.97768369651965
 31
0.0
  0
LINE
  5
90
330
2
100
AcDbEntity
  8
GAIKEI
  6
Continuous
 62
     7
100
AcDbLine
 10
-43.05756139763196
 20
1.477305746273259
 30
0.0
 11
6.642592245363516
 21
1.477305746273259
 31
0.0
  0
LINE
  5
91
330
2
100
AcDbEntity
  8
GAIKEI
  6
Continuous
 62
     1
100
AcDbLine
 10
-43.15630702051953
 20
1.778321589516053
 30
0.0
 11
-43.25757896785421
 21
1.677049592176956
 31
0.0
  0
LINE
  5
92
330
2
100
AcDbEntity
  8
GAIKEI
  6
Continuous
 62
     1
100
AcDbLine
 10
-43.05783532196835
 20
1.477305946291039
 30
0.0
 11
-42.9565633246292
 21
1.578577893625663
 31
0.0
  0
LINE
  5
93
330
2
100
AcDbEntity
  8
GAIKEI
  6
Continuous
 62
     1
100
AcDbLine
 10
-42.9565633246292
 20
31.8764115491673
 30
0.0
 11
-43.05783532196835
 21
31.97768349650193
 31
0.0
  0
LINE
  5
94
330
2
100
AcDbEntity
  8
GAIKEI
  6
Continuous
 62
     1
100
AcDbLine
 10
-43.25757896785421
 20
31.77793985061601
 30
0.0
 11
-43.15630702051953
 21
31.67666785327691
 31
0.0
  0
LINE
  5
95
330
2
100
AcDbEntity
  8
GAIKEI
  6
Continuous
 62
     1
100
AcDbLine
 10
6.541594172360703
 20
31.8764115491673
 30
0.0
 11
6.642866169699857
 21
31.97768349650193
 31
0.0
  0
LINE
  5
96
330
2
100
AcDbEntity
  8
GAIKEI
  6
Continuous
 62
     1
100
AcDbLine
 10
6.842609815585717
 20
31.77793985061601
 30
0.0
 11
6.74133786825115
 21
31.67666785327691
 31
0.0
  0
LINE
  5
97
330
2
100
AcDbEntity
  8
GAIKEI
  6
Continuous
 62
     1
100
AcDbLine
 10
-43.15623541415789
 20
31.64206452900316
 30
0.0
 11
-43.15623541415789
 21
1.812924913789743
 31
0.0
  0
LINE
  5
98
330
2
100
AcDbEntity
  8
GAIKEI
  6
Continuous
 62
     1
100
AcDbLine
 10
6.741266261889393
 20
31.64206452900316
 30
0.0
 11
6.74126626188945
 21
1.812924913789743
 31
0.0
  0
LINE
  5
99
330
2
100
AcDbEntity
  8
GAIKEI
  6
Continuous
 62
     1
100
AcDbLine
 10
6.50699084808707
 20
31.87633994280555
 30
0.0
 11
-42.92196000035551
 21
31.87633994280555
 31
0.0
  0
LINE
  5
9A
330
2
100
AcDbEntity
  8
GAIKEI
  6
Continuous
 62
     1
100
AcDbLine
 10
-42.92196000035551
 20
1.57864949998742
 30
0.0
 11
6.50699084808707
 21
1.57864949998742
 31
0.0
  0
LINE
  5
9B
330
2
100
AcDbEntity
  8
GAIKEI
  6
Continuous
 62
     1
100
AcDbLine
 10
4.305653262868986
 20
29.83494198591842
 30
0.0
 11
-40.68926025309639
 21
29.83494198591842
 31
0.0
  0
LINE
  5
9C
330
2
100
AcDbEntity
  8
GAIKEI
  6
Continuous
 62
     1
100
AcDbLine
 10
-40.68926025309633
 20
3.752493846660513
 30
0.0
 11
4.305653262868986
 21
3.75249384666057
 31
0.0
  0
LINE
  5
9D
330
2
100
AcDbEntity
  8
GAIKEI
  6
Continuous
 62
     1
100
AcDbLine
 10
-40.78852782235543
 20
29.73568271739686
 30
0.0
 11
-40.78852782235538
 21
3.851753115182191
 31
0.0
  0
LINE
  5
9E
330
2
100
AcDbEntity
  8
GAIKEI
  6
Continuous
 62
     1
100
AcDbLine
 10
4.404920832128027
 20
29.73568271739686
 30
0.0
 11
4.404920832128027
 21
3.851753115182191
 31
0.0
  0
LINE
  5
9F
330
2
100
AcDbEntity
  8
GAIKEI
  6
Continuous
 62
     1
100
AcDbLine
 10
4.305653262868986
 20
3.705601030547711
 30
0.0
 11
-40.68926025309633
 21
3.705601030547711
 31
0.0
  0
LINE
  5
A0
330
2
100
AcDbEntity
  8
GAIKEI
  6
Continuous
 62
     1
100
AcDbLine
 10
-40.68926025309639
 20
29.88183480203122
 30
0.0
 11
4.305653262868986
 21
29.88183480203122
 31
0.0
  0
LINE
  5
A1
330
2
100
AcDbEntity
  8
GAIKEI
  6
Continuous
 62
     1
100
AcDbLine
 10
-41.6247096372353
 20
30.46998478704125
 30
0.0
 11
5.241102647008005
 21
30.46998478704125
 31
0.0
  0
LINE
  5
A2
330
2
100
AcDbEntity
  8
GAIKEI
  6
Continuous
 62
     1
100
AcDbLine
 10
5.241102647008005
 20
2.970002906279944
 30
0.0
 11
-41.62470963723523
 21
2.970002906279944
 31
0.0
  0
LINE
  5
A3
330
2
100
AcDbEntity
  8
GAIKEI
  6
Continuous
 62
     1
100
AcDbLine
 10
-41.72471852235526
 20
3.070011791399906
 30
0.0
 11
-41.72471852235531
 21
30.36997590192129
 31
0.0
  0
LINE
  5
A4
330
2
100
AcDbEntity
  8
GAIKEI
  6
Continuous
 62
     1
100
AcDbLine
 10
-40.83538068491861
 20
3.851753115182191
 30
0.0
 11
-40.83538068491868
 21
29.73568271739686
 31
0.0
  0
LINE
  5
A5
330
2
100
AcDbEntity
  8
GAIKEI
  6
Continuous
 62
     1
100
AcDbLine
 10
5.341111532128024
 20
3.070011791399906
 30
0.0
 11
5.341111532128024
 21
30.36997590192129
 31
0.0
  0
LINE
  5
A6
330
2
100
AcDbEntity
  8
GAIKEI
  6
Continuous
 62
     1
100
AcDbLine
 10
4.451773694691269
 20
3.851753115182191
 30
0.0
 11
4.451773694691269
 21
29.73568271739686
 31
0.0
  0
LINE
  5
A7
330
2
100
AcDbEntity
  8
GAIKEI
  6
Continuous
 62
     1
100
AcDbLine
 10
-41.71622201749767
 20
3.033009954034298
 30
0.0
 11
-40.82967082763599
 21
3.810868532860695
 31
0.0
  0
LINE
  5
A8
330
2
100
AcDbEntity
  8
GAIKEI
  6
Continuous
 62
     1
100
AcDbLine
 10
-40.73048101528508
 20
3.711406596333347
 30
0.0
 11
-41.58110283216558
 21
2.970002906279944
 31
0.0
  0
LINE
  5
A9
330
2
100
AcDbEntity
  8
GAIKEI
  6
Continuous
 62
     1
100
AcDbLine
 10
5.332615027270435
 20
3.033009954034298
 30
0.0
 11
4.446063837408701
 21
3.810868532860695
 31
0.0
  0
LINE
  5
AA
330
2
100
AcDbEntity
  8
GAIKEI
  6
Continuous
 62
     1
100
AcDbLine
 10
4.3468740250579
 20
3.711406596333347
 30
0.0
 11
5.197495841938348
 21
2.970002906279944
 31
0.0
  0
LINE
  5
AB
330
2
100
AcDbEntity
  8
GAIKEI
  6
Continuous
 62
     1
100
AcDbLine
 10
-40.82967082763604
 20
29.77656729971835
 30
0.0
 11
-41.71622201749772
 21
30.4069777392869
 31
0.0
  0
LINE
  5
AC
330
2
100
AcDbEntity
  8
GAIKEI
  6
Continuous
 62
     1
100
AcDbLine
 10
-41.57987680413817
 20
30.4687408265238
 30
0.0
 11
-40.73048101528513
 21
29.87602923624559
 31
0.0
  0
LINE
  5
AD
330
2
100
AcDbEntity
  8
GAIKEI
  6
Continuous
 62
     1
100
AcDbLine
 10
5.197495841938234
 20
30.46998478704137
 30
0.0
 11
4.346874025057786
 21
29.87602923624559
 31
0.0
  0
LINE
  5
AE
330
2
100
AcDbEntity
  8
GAIKEI
  6
Continuous
 62
     1
100
AcDbLine
 10
4.446063837408587
 20
29.77656729971835
 30
0.0
 11
5.332615027270435
 21
30.4069777392869
 31
0.0
  0
LINE
  5
AF
330
2
100
AcDbEntity
  8
GAIKEI
  6
Continuous
 62
     1
100
AcDbLine
 10
-43.12117439922133
 20
1.812924913789743
 30
0.0
 11
-43.12117439922133
 21
31.64206452900316
 31
0.0
  0
LINE
  5
B0
330
2
100
AcDbEntity
  8
GAIKEI
  6
Continuous
 62
     1
100
AcDbLine
 10
-42.92196000035551
 20
31.84127892786904
 30
0.0
 11
6.50699084808707
 21
31.84127892786904
 31
0.0
  0
LINE
  5
B1
330
2
100
AcDbEntity
  8
GAIKEI
  6
Continuous
 62
     1
100
AcDbLine
 10
6.70620524695289
 20
1.812924913789743
 30
0.0
 11
6.706205246952833
 21
31.64206452900316
 31
0.0
  0
LINE
  5
B2
330
2
100
AcDbEntity
  8
GAIKEI
  6
Continuous
 62
     1
100
AcDbLine
 10
6.50699084808707
 20
1.613710514923923
 30
0.0
 11
-42.92196000035551
 21
1.613710514923923
 31
0.0
  0
LINE
  5
B3
330
2
100
AcDbEntity
  8
GAIKEI
  6
Continuous
 62
     1
100
AcDbLine
 10
-43.12117439922133
 20
31.64206452900316
 30
0.0
 11
-42.88722796464656
 21
31.40811809442852
 31
0.0
  0
LINE
  5
B4
330
2
100
AcDbEntity
  8
GAIKEI
  6
Continuous
 62
     1
100
AcDbLine
 10
-42.6880135657808
 20
31.60733249329439
 30
0.0
 11
-42.92196000035551
 21
31.84127892786904
 31
0.0
  0
LINE
  5
B5
330
2
100
AcDbEntity
  8
GAIKEI
  6
Continuous
 62
     1
100
AcDbLine
 10
-42.92196000035551
 20
1.613710514923923
 30
0.0
 11
-42.6880135657808
 21
1.847656949498684
 31
0.0
  0
LINE
  5
B6
330
2
100
AcDbEntity
  8
GAIKEI
  6
Continuous
 62
     1
100
AcDbLine
 10
-42.88722796464651
 20
2.046871348364447
 30
0.0
 11
-43.12117439922133
 21
1.812924913789743
 31
0.0
  0
LINE
  5
B7
330
2
100
AcDbEntity
  8
GAIKEI
  6
Continuous
 62
     1
100
AcDbLine
 10
6.706205246952833
 20
31.64206452900316
 30
0.0
 11
6.472258812378186
 21
31.40811809442852
 31
0.0
  0
LINE
  5
B8
330
2
100
AcDbEntity
  8
GAIKEI
  6
Continuous
 62
     1
100
AcDbLine
 10
6.273044413512309
 20
31.60733249329439
 30
0.0
 11
6.50699084808707
 21
31.84127892786904
 31
0.0
  0
LINE
  5
B9
330
2
100
AcDbEntity
  8
GAIKEI
  6
Continuous
 62
     1
100
AcDbLine
 10
6.50699084808707
 20
1.613710514923923
 30
0.0
 11
6.273044413512366
 21
1.847656949498684
 31
0.0
  0
LINE
  5
BA
330
2
100
AcDbEntity
  8
GAIKEI
  6
Continuous
 62
     1
100
AcDbLine
 10
6.472258812378186
 20
2.046871348364447
 30
0.0
 11
6.70620524695289
 21
1.812924913789743
 31
0.0
  0
LINE
  5
BB
330
2
100
AcDbEntity
  8
GAIKEI
  6
Continuous
 62
     1
100
AcDbLine
 10
-42.15498120942391
 20
2.094860611889373
 30
0.0
 11
-42.26499098305589
 21
2.094860611889373
 31
0.0
  0
LINE
  5
BC
330
2
100
AcDbEntity
  8
GAIKEI
  6
Continuous
 62
     1
100
AcDbLine
 10
-40.41574285290624
 20
2.299878826385338
 30
0.0
 11
-40.41574285290624
 21
1.999852171025281
 31
0.0
  0
LINE
  5
BD
330
2
100
AcDbEntity
  8
GAIKEI
  6
Continuous
 62
     1
100
AcDbLine
 10
-42.26499098305589
 20
2.094860611889373
 30
0.0
 11
-42.26499098305589
 21
2.204870385521303
 31
0.0
  0
LINE
  5
BE
330
2
100
AcDbEntity
  8
GAIKEI
  6
Continuous
 62
     1
100
AcDbLine
 10
-42.26499098305589
 20
2.204870385521303
 30
0.0
 11
-42.15498120942391
 21
2.204870385521303
 31
0.0
  0
LINE
  5
BF
330
2
100
AcDbEntity
  8
GAIKEI
  6
Continuous
 62
     1
100
AcDbLine
 10
-42.15498120942391
 20
2.204870385521303
 30
0.0
 11
-42.15498120942391
 21
2.094860611889373
 31
0.0
  0
LINE
  5
C0
330
2
100
AcDbEntity
  8
GAIKEI
  6
Continuous
 62
     1
100
AcDbLine
 10
-40.44074507418616
 20
1.974849949745305
 30
0.0
 11
-40.74077172954616
 21
1.974849949745305
 31
0.0
  0
LINE
  5
C1
330
2
100
AcDbEntity
  8
GAIKEI
  6
Continuous
 62
     1
100
AcDbLine
 10
-40.7657739508262
 20
1.999852171025281
 30
0.0
 11
-40.7657739508262
 21
2.299878826385338
 31
0.0
  0
LINE
  5
C2
330
2
100
AcDbEntity
  8
GAIKEI
  6
Continuous
 62
     1
100
AcDbLine
 10
-40.74077172954616
 20
2.324881047665371
 30
0.0
 11
-40.44074507418616
 21
2.324881047665371
 31
0.0
  0
LINE
  5
C3
330
2
100
AcDbEntity
  8
GAIKEI
  6
Continuous
 62
     1
100
AcDbLine
 10
5.241102647008005
 20
30.57195779666069
 30
0.0
 11
-41.6247096372353
 21
30.57195779666069
 31
0.0
  0
LINE
  5
C4
330
2
100
AcDbEntity
  8
GAIKEI
  6
Continuous
 62
     1
100
AcDbLine
 10
-41.62470963723523
 20
2.86802989666063
 30
0.0
 11
5.241102647008005
 21
2.86802989666063
 31
0.0
  0
LINE
  5
C5
330
2
100
AcDbEntity
  8
GAIKEI
  6
Continuous
 62
     1
100
AcDbLine
 10
5.443084541747339
 20
30.36997590192129
 30
0.0
 11
5.443084541747339
 21
3.070011791399906
 31
0.0
  0
LINE
  5
C6
330
2
100
AcDbEntity
  8
GAIKEI
  6
Continuous
 62
     1
100
AcDbLine
 10
-41.82669153197463
 20
30.36997590192129
 30
0.0
 11
-41.82669153197458
 21
3.070011791399906
 31
0.0
  0
LINE
  5
C7
330
2
100
AcDbEntity
  8
GAIKEI
  6
Continuous
 62
     1
100
AcDbLine
 10
-42.88722796464656
 20
31.40811809442852
 30
0.0
 11
-42.88722796464651
 21
2.046871348364447
 31
0.0
  0
LINE
  5
C8
330
2
100
AcDbEntity
  8
GAIKEI
  6
Continuous
 62
     1
100
AcDbLine
 10
6.273044413512309
 20
31.60733249329439
 30
0.0
 11
-42.6880135657808
 21
31.60733249329439
 31
0.0
  0
LINE
  5
C9
330
2
100
AcDbEntity
  8
GAIKEI
  6
Continuous
 62
     1
100
AcDbLine
 10
6.472258812378186
 20
31.40811809442852
 30
0.0
 11
6.472258812378186
 21
2.046871348364447
 31
0.0
  0
LINE
  5
CA
330
2
100
AcDbEntity
  8
GAIKEI
  6
Continuous
 62
     1
100
AcDbLine
 10
-42.6880135657808
 20
1.847656949498684
 30
0.0
 11
6.273044413512366
 21
1.847656949498684
 31
0.0
  0
SPLINE
  5
CB
330
2
100
AcDbEntity
  8
GAIKEI
  6
Continuous
 62
     1
100
AcDbSpline
210
0.0
220
0.0
230
1.0
 70
     8
 71
     3
 72
    21
 73
    17
 74
    15
 42
0.0000000001
 43
0.0000000001
 44
0.000001
 12
-0.0001490760298766
 22
-0.9999999888881687
 32
0.0
 13
0.9999997489039975
 23
0.0007086550233522
 33
0.0
 40
0.0
 40
0.0
 40
0.0
 40
0.0
 40
0.0220203622856801
 40
0.0441150886358801
 40
0.0661420247968131
 40
0.088194581569359
 40
0.1103152820562982
 40
0.132368242697412
 40
0.1546938208840769
 40
0.1770898850745031
 40
0.1994152170311274
 40
0.2218138290891934
 40
0.2442838362701905
 40
0.266682290884425
 40
0.2901709918964654
 40
0.3136542532514646
 40
0.3136542532514646
 40
0.3136542532514646
 40
0.3136542532514646
 10
-43.15630700090344
 20
1.778321566079227
 30
0.0
 10
-43.1563080951395
 20
1.770981445398902
 30
0.0
 10
-43.15550831284635
 20
1.756262952026162
 30
0.0
 10
-43.15188027818869
 20
1.734473528583464
 30
0.0
 10
-43.14589500834581
 20
1.713194857403863
 30
0.0
 10
-43.13753392522006
 20
1.692723514140737
 30
0.0
 10
-43.12698490891089
 20
1.673282621422373
 30
0.0
 10
-43.11432423770441
 20
1.655031517936862
 30
0.0
 10
-43.09961226711263
 20
1.638265350883386
 30
0.0
 10
-43.08307610892474
 20
1.623164814511426
 30
0.0
 10
-43.0649531370718
 20
1.609963889134021
 30
0.0
 10
-43.04541544470152
 20
1.598913593540814
 30
0.0
 10
-43.02475366045977
 20
1.590087892540935
 30
0.0
 10
-43.00288654685018
 20
1.583510604754124
 30
0.0
 10
-42.98006417081603
 20
1.579476785176865
 30
0.0
 10
-42.96439109988545
 20
1.578572366064719
 30
0.0
 10
-42.95656334806596
 20
1.578577913241758
 30
0.0
 11
-43.15630700090344
 21
1.778321566079227
 31
0.0
 11
-43.15510681160413
 21
1.756333369516084
 31
0.0
 11
-43.15148351053585
 21
1.734537748495142
 31
0.0
 11
-43.14550346545615
 21
1.713338085589668
 31
0.0
 11
-43.13718011933906
 21
1.692916570579598
 31
0.0
 11
-43.1266303501643
 21
1.673473609509926
 31
0.0
 11
-43.11404882279805
 21
1.655361757856269
 31
0.0
 11
-43.09933525062911
 21
1.638570592722714
 31
0.0
 11
-43.08279721445365
 21
1.623468340215595
 31
0.0
 11
-43.06474227852823
 21
1.610336671320681
 31
0.0
 11
-43.04525355151201
 21
1.599296371285333
 31
0.0
 11
-43.02458903132526
 21
1.590471421557253
 31
0.0
 11
-43.00313647152563
 21
1.584030960120628
 31
0.0
 11
-42.98000807962568
 21
1.579932526810864
 31
0.0
 11
-42.95656334806596
 21
1.578577913241758
 31
0.0
  0
SPLINE
  5
CC
330
2
100
AcDbEntity
  8
GAIKEI
  6
Continuous
 62
     1
100
AcDbSpline
210
0.0
220
0.0
230
1.0
 70
     8
 71
     3
 72
    21
 73
    17
 74
    15
 42
0.0000000001
 43
0.0000000001
 44
0.000001
 12
0.0001490760298765
 22
-0.9999999888881687
 32
0.0
 13
-0.9999997489039975
 23
0.000708655023352
 33
0.0
 40
0.0
 40
0.0
 40
0.0
 40
0.0
 40
0.0220203622856797
 40
0.0441150886358803
 40
0.0661420247968133
 40
0.0881945815693633
 40
0.1103152820562973
 40
0.1323682426974091
 40
0.1546938208841513
 40
0.1770898850744961
 40
0.1994152170312152
 40
0.2218138290891823
 40
0.244283836270284
 40
0.2666822908844062
 40
0.2901709918964466
 40
0.3136542532513323
 40
0.3136542532513323
 40
0.3136542532513323
 40
0.3136542532513323
 10
6.741337848634998
 20
1.778321566079227
 30
0.0
 10
6.741338942871067
 20
1.770981445398902
 30
0.0
 10
6.740539160577924
 20
1.756262952026148
 30
0.0
 10
6.736911125920244
 20
1.734473528583478
 30
0.0
 10
6.730925856077362
 20
1.713194857403877
 30
0.0
 10
6.722564772951614
 20
1.692723514140737
 30
0.0
 10
6.712015756642458
 20
1.673282621422373
 30
0.0
 10
6.699355085435996
 20
1.655031517936791
 30
0.0
 10
6.684643114844078
 20
1.638265350883472
 30
0.0
 10
6.668106956656302
 20
1.623164814511312
 30
0.0
 10
6.649983984803242
 20
1.609963889134107
 30
0.0
 10
6.630446292433049
 20
1.598913593540743
 30
0.0
 10
6.609784508191268
 20
1.590087892540992
 30
0.0
 10
6.587917394581722
 20
1.583510604754081
 30
0.0
 10
6.565095018547623
 20
1.579476785176893
 30
0.0
 10
6.549421947617091
 20
1.578572366064719
 30
0.0
 10
6.541594195797642
 20
1.578577913241758
 30
0.0
 11
6.741337848634998
 21
1.778321566079227
 31
0.0
 11
6.740137659335687
 21
1.756333369516084
 31
0.0
 11
6.736514358267413
 21
1.734537748495142
 31
0.0
 11
6.730534313187717
 21
1.713338085589668
 31
0.0
 11
6.722210967070623
 21
1.692916570579598
 31
0.0
 11
6.711661197895864
 21
1.673473609509926
 31
0.0
 11
6.699079670529613
 21
1.655361757856269
 31
0.0
 11
6.684366098360555
 21
1.638570592722714
 31
0.0
 11
6.667828062185208
 21
1.623468340215595
 31
0.0
 11
6.649773126259674
 21
1.610336671320681
 31
0.0
 11
6.630284399243578
 21
1.599296371285333
 31
0.0
 11
6.609619879056708
 21
1.590471421557253
 31
0.0
 11
6.588167319257195
 21
1.584030960120628
 31
0.0
 11
6.56503892735725
 21
1.579932526810864
 31
0.0
 11
6.541594195797642
 21
1.578577913241758
 31
0.0
  0
SPLINE
  5
CD
330
2
100
AcDbEntity
  8
GAIKEI
  6
Continuous
 62
     1
100
AcDbSpline
210
0.0
220
0.0
230
1.0
 70
     8
 71
     3
 72
    21
 73
    17
 74
    15
 42
0.0000000001
 43
0.0000000001
 44
0.000001
 12
-0.9999999888881687
 22
0.0001490760296198
 32
0.0
 13
0.0007086550231108
 23
-0.9999997489039975
 33
0.0
 40
0.0
 40
0.0
 40
0.0
 40
0.0
 40
0.0220203622857329
 40
0.0441150886359627
 40
0.0661420247968614
 40
0.0881945815693983
 40
0.1103152820562813
 40
0.1323682426973931
 40
0.1546938208841299
 40
0.1770898850744795
 40
0.199415217031232
 40
0.2218138290891676
 40
0.2442838362702721
 40
0.2666822908844249
 40
0.2901709918964659
 40
0.3136542532513418
 40
0.3136542532513418
 40
0.3136542532513418
 40
0.3136542532513418
 10
-42.95656334806603
 20
31.87641152955121
 30
0.0
 10
-42.96390346874638
 20
31.87641262378726
 30
0.0
 10
-42.97862196211915
 20
31.87561284149416
 30
0.0
 10
-43.0004113855618
 20
31.87198480683627
 30
0.0
 10
-43.02169005674147
 20
31.86599953699367
 30
0.0
 10
-43.04216140000445
 20
31.85763845386762
 30
0.0
 10
-43.06160229272292
 20
31.84708943755871
 30
0.0
 10
-43.07985339620844
 20
31.83442876635221
 30
0.0
 10
-43.09661956326179
 20
31.81971679576026
 30
0.0
 10
-43.11172009963393
 20
31.8031806375725
 30
0.0
 10
-43.12492102501122
 20
31.78505766571951
 30
0.0
 10
-43.1359713206045
 20
31.76551997334923
 30
0.0
 10
-43.14479702160425
 20
31.74485818910748
 30
0.0
 10
-43.15137430939128
 20
31.72299107549796
 30
0.0
 10
-43.15540812896855
 20
31.70016869946385
 30
0.0
 10
-43.15631254808048
 20
31.68449562853329
 30
0.0
 10
-43.15630700090344
 20
31.67666787671385
 30
0.0
 11
-42.95656334806603
 21
31.87641152955121
 31
0.0
 11
-42.97855154462922
 21
31.87521134025189
 31
0.0
 11
-43.00034716565017
 21
31.87158803918351
 31
0.0
 11
-43.02154682855564
 21
31.86560799410393
 31
0.0
 11
-43.04196834356566
 21
31.85728464798672
 31
0.0
 11
-43.06141130463532
 21
31.84673487881207
 31
0.0
 11
-43.07952315628898
 21
31.83415335144582
 31
0.0
 11
-43.09631432142253
 21
31.81943977927677
 31
0.0
 11
-43.11141657392965
 21
31.80290174310142
 31
0.0
 11
-43.12454824282463
 21
31.78484680717588
 31
0.0
 11
-43.13558854285992
 21
31.76535808015979
 31
0.0
 11
-43.144413492588
 21
31.74469355997292
 31
0.0
 11
-43.15085395402474
 21
31.7232410001734
 31
0.0
 11
-43.1549523873345
 21
31.70011260827346
 31
0.0
 11
-43.15630700090344
 21
31.67666787671385
 31
0.0
  0
SPLINE
  5
CE
330
2
100
AcDbEntity
  8
GAIKEI
  6
Continuous
 62
     1
100
AcDbSpline
210
0.0
220
0.0
230
1.0
 70
     8
 71
     3
 72
    21
 73
    17
 74
    15
 42
0.0000000001
 43
0.0000000001
 44
0.000001
 12
0.9999999888881687
 22
0.00014907602962
 32
0.0
 13
-0.0007086550231109
 23
-0.9999997489039975
 33
0.0
 40
0.0
 40
0.0
 40
0.0
 40
0.0
 40
0.0220203622856797
 40
0.044115088635899
 40
0.0661420247966917
 40
0.0881945815692845
 40
0.1103152820562643
 40
0.1323682426972827
 40
0.1546938208840249
 40
0.1770898850743314
 40
0.1994152170311508
 40
0.2218138290890618
 40
0.2442838362701859
 40
0.2666822908843244
 40
0.2901709918963648
 40
0.3136542532512439
 40
0.3136542532512439
 40
0.3136542532512439
 40
0.3136542532512439
 10
6.541594195797642
 20
31.87641152955121
 30
0.0
 10
6.548934316477968
 20
31.87641262378726
 30
0.0
 10
6.563652809850736
 20
31.87561284149422
 30
0.0
 10
6.585442233293306
 20
31.87198480683623
 30
0.0
 10
6.606720904472979
 20
31.86599953699368
 30
0.0
 10
6.627192247735948
 20
31.85763845386759
 30
0.0
 10
6.646633140454525
 20
31.84708943755878
 30
0.0
 10
6.664884243939937
 20
31.83442876635214
 30
0.0
 10
6.681650410993313
 20
31.81971679576032
 30
0.0
 10
6.696750947365359
 20
31.80318063757244
 30
0.0
 10
6.709951872742777
 20
31.78505766571956
 30
0.0
 10
6.721002168335999
 20
31.76551997334922
 30
0.0
 10
6.729827869335835
 20
31.7448581891075
 30
0.0
 10
6.73640515712276
 20
31.72299107549793
 30
0.0
 10
6.740438976700033
 20
31.70016869946385
 30
0.0
 10
6.741343395812037
 20
31.6844956285333
 30
0.0
 10
6.741337848634998
 20
31.67666787671385
 30
0.0
 11
6.541594195797642
 21
31.87641152955121
 31
0.0
 11
6.563582392360785
 21
31.87521134025189
 31
0.0
 11
6.585378013381728
 21
31.87158803918351
 31
0.0
 11
6.606577676287088
 21
31.86560799410393
 31
0.0
 11
6.626999191297159
 21
31.85728464798672
 31
0.0
 11
6.646442152366944
 21
31.84673487881207
 31
0.0
 11
6.664554004020487
 21
31.83415335144582
 31
0.0
 11
6.681345169154042
 21
31.81943977927677
 31
0.0
 11
6.696447421661105
 21
31.80290174310142
 31
0.0
 11
6.709579090556189
 21
31.78484680717588
 31
0.0
 11
6.720619390591423
 21
31.76535808015979
 31
0.0
 11
6.72944434031956
 21
31.74469355997292
 31
0.0
 11
6.735884801756242
 21
31.7232410001734
 31
0.0
 11
6.739983235066006
 21
31.70011260827346
 31
0.0
 11
6.741337848634998
 21
31.67666787671385
 31
0.0
  0
SPLINE
  5
CF
330
2
100
AcDbEntity
  8
GAIKEI
  6
Continuous
 62
     1
100
AcDbSpline
210
0.0
220
0.0
230
1.0
 70
     8
 71
     3
 72
    14
 73
    10
 74
     8
 42
0.0000000001
 43
0.0000000001
 44
0.000001
 12
0.2697836156325394
 22
-0.9629209732559752
 32
0.0
 13
0.9616843088117285
 23
-0.2741592423853476
 33
0.0
 40
0.0
 40
0.0
 40
0.0
 40
0.0
 40
0.0000567608952296
 40
0.0167840465309859
 40
0.0335125966987466
 40
0.0502374188860438
 40
0.0669622291995262
 40
0.0837063784098542
 40
0.1004494891285224
 40
0.1004494891285224
 40
0.1004494891285224
 40
0.1004494891285224
 10
-40.78488022550772
 20
3.824337756438126
 30
0.0
 10
-40.7848751211212
 20
3.824319537685965
 30
0.0
 10
-40.7833640368723
 20
3.818932803453208
 30
0.0
 10
-40.77940408256607
 20
3.808420900984572
 30
0.0
 10
-40.77095616003388
 20
3.793893988823839
 30
0.0
 10
-40.76011640518628
 20
3.781047942631289
 30
0.0
 10
-40.74728771119501
 20
3.770181264333871
 30
0.0
 10
-40.73276965150276
 20
3.76169336937589
 30
0.0
 10
-40.72226805533796
 20
3.757734189020951
 30
0.0
 10
-40.71690085971835
 20
3.756204096171018
 30
0.0
 11
-40.78488022550772
 21
3.824337756438126
 31
0.0
 11
-40.78486489638464
 21
3.824283104113192
 31
0.0
 11
-40.77898513859617
 21
3.808622734666528
 31
0.0
 11
-40.7705574088647
 21
3.794172282039767
 31
0.0
 11
-40.75978627851708
 21
3.781377636655861
 31
0.0
 11
-40.74701290608993
 21
3.770581297967964
 31
0.0
 11
-40.73256519056059
 21
3.762117859932118
 31
0.0
 11
-40.71690085971835
 21
3.756204096171018
 31
0.0
  0
SPLINE
  5
D0
330
2
100
AcDbEntity
  8
GAIKEI
  6
Continuous
 62
     1
100
AcDbSpline
210
0.0
220
0.0
230
1.0
 70
     8
 71
     3
 72
    14
 73
    10
 74
     8
 42
0.0000000001
 43
0.0000000001
 44
0.000001
 12
-0.2697836156325396
 22
-0.962920973255975
 32
0.0
 13
-0.9616843088117285
 23
-0.2741592423853476
 33
0.0
 40
0.0
 40
0.0
 40
0.0
 40
0.0
 40
0.0000567608952939
 40
0.0167840465310377
 40
0.0335125966987908
 40
0.0502374188861469
 40
0.0669622291995831
 40
0.0837063784099345
 40
0.1004494891285165
 40
0.1004494891285165
 40
0.1004494891285165
 40
0.1004494891285165
 10
4.401273235280427
 20
3.824337756438183
 30
0.0
 10
4.40126813089391
 20
3.824319537686008
 30
0.0
 10
4.399757046642491
 20
3.81893280345524
 30
0.0
 10
4.395797092340004
 20
3.80842090098362
 30
0.0
 10
4.387349169806086
 20
3.793893988824152
 30
0.0
 10
4.376509414959002
 20
3.781047942631261
 30
0.0
 10
4.363680720967636
 20
3.770181264333814
 30
0.0
 10
4.349162661275357
 20
3.761693369376033
 30
0.0
 10
4.338661065110642
 20
3.757734189020951
 30
0.0
 10
4.333293869491058
 20
3.756204096171018
 30
0.0
 11
4.401273235280427
 21
3.824337756438183
 31
0.0
 11
4.401257906157297
 21
3.824283104113192
 31
0.0
 11
4.395378148368877
 21
3.808622734666528
 31
0.0
 11
4.386950418637297
 21
3.794172282039824
 31
0.0
 11
4.376179288289677
 21
3.781377636655861
 31
0.0
 11
4.363405915862585
 21
3.770581297967964
 31
0.0
 11
4.348958200333186
 21
3.762117859932175
 31
0.0
 11
4.333293869491058
 21
3.756204096171018
 31
0.0
  0
SPLINE
  5
D1
330
2
100
AcDbEntity
  8
GAIKEI
  6
Continuous
 62
     1
100
AcDbSpline
210
0.0
220
0.0
230
1.0
 70
     8
 71
     3
 72
    19
 73
    15
 74
    13
 42
0.0000000001
 43
0.0000000001
 44
0.000001
 12
-0.9639938394678312
 22
0.2659245710122878
 32
0.0
 13
-0.26346002757732
 23
0.9646703135625962
 33
0.0
 40
0.0
 40
0.0
 40
0.0
 40
0.0
 40
0.0120685447878048
 40
0.0241375534231659
 40
0.0365717545461067
 40
0.0490061389643643
 40
0.0610391948685998
 40
0.0730723357382149
 40
0.0854755671878948
 40
0.0978786958477273
 40
0.1099595938326079
 40
0.1220403135244441
 40
0.13448809736987
 40
0.1469354490877667
 40
0.1469354490877667
 40
0.1469354490877667
 40
0.1469354490877667
 10
-40.7304810008788
 20
3.711406584826931
 30
0.0
 10
-40.73435900182106
 20
3.712476359025416
 30
0.0
 10
-40.74202885209749
 20
3.714943863150011
 30
0.0
 10
-40.75329294822319
 20
3.71964149513559
 30
0.0
 10
-40.76421827847382
 20
3.725353759655519
 30
0.0
 10
-40.774593932979
 20
3.73199003815688
 30
0.0
 10
-40.78424576242022
 20
3.739421933523118
 30
0.0
 10
-40.79322524051348
 20
3.747638217626473
 30
0.0
 10
-40.80153890707115
 20
3.756697393363339
 30
0.0
 10
-40.80903919717566
 20
3.766460720692663
 30
0.0
 10
-40.81560247253833
 20
3.776748399119071
 30
0.0
 10
-40.82127811933498
 20
3.787568127062769
 30
0.0
 10
-40.82604278207957
 20
3.798951485713274
 30
0.0
 10
-40.82857772179488
 20
3.806865986079415
 30
0.0
 10
-40.82967084833717
 20
3.810868516307664
 30
0.0
 11
-40.7304810008788
 21
3.711406584826931
 31
0.0
 11
-40.74197049358502
 21
3.715101296396028
 31
0.0
 11
-40.7531084675935
 21
3.719749555675434
 31
0.0
 11
-40.76412807340529
 21
3.725509595659332
 31
0.0
 11
-40.77460166433763
 21
3.732211706008797
 31
0.0
 11
-40.78413687267186
 21
3.73955164659435
 31
0.0
 11
-40.79301307760601
 21
3.747676298383339
 31
0.0
 11
-40.80140109439759
 21
3.756813139721316
 31
0.0
 11
-40.80895571002651
 21
3.766650106688871
 31
0.0
 11
-40.81545547596857
 21
3.776833503602119
 31
0.0
 11
-40.82106624070791
 21
3.787532263374487
 31
0.0
 11
-40.82587533344934
 21
3.799013541670205
 31
0.0
 11
-40.82967084833717
 21
3.810868516307664
 31
0.0
  0
SPLINE
  5
D2
330
2
100
AcDbEntity
  8
GAIKEI
  6
Continuous
 62
     1
100
AcDbSpline
210
0.0
220
0.0
230
1.0
 70
     8
 71
     3
 72
    19
 73
    15
 74
    13
 42
0.0000000001
 43
0.0000000001
 44
0.000001
 12
0.9639938394678312
 22
0.2659245710122878
 32
0.0
 13
0.26346002757732
 23
0.9646703135625962
 33
0.0
 40
0.0
 40
0.0
 40
0.0
 40
0.0
 40
0.0120685447879198
 40
0.0241375534232186
 40
0.0365717545461322
 40
0.0490061389644131
 40
0.0610391948686832
 40
0.0730723357382652
 40
0.0854755671879787
 40
0.097878695847787
 40
0.1099595938326789
 40
0.1220403135244657
 40
0.1344880973698902
 40
0.1469354490878043
 40
0.1469354490878043
 40
0.1469354490878043
 40
0.1469354490878043
 10
4.34687401065139
 20
3.711406584826931
 30
0.0
 10
4.350752011593684
 20
3.712476359025416
 30
0.0
 10
4.358421861870169
 20
3.714943863149969
 30
0.0
 10
4.369685957995841
 20
3.719641495135562
 30
0.0
 10
4.380611288246399
 20
3.725353759655646
 30
0.0
 10
4.39098694275168
 20
3.731990038156808
 30
0.0
 10
4.400638772192849
 20
3.739421933523203
 30
0.0
 10
4.409618250286143
 20
3.747638217626473
 30
0.0
 10
4.417931916843883
 20
3.756697393363282
 30
0.0
 10
4.425432206948173
 20
3.766460720692748
 30
0.0
 10
4.431995482311108
 20
3.776748399119043
 30
0.0
 10
4.437671129107556
 20
3.787568127062769
 30
0.0
 10
4.442435791852147
 20
3.798951485713288
 30
0.0
 10
4.444970731567536
 20
3.806865986079415
 30
0.0
 10
4.446063858109823
 20
3.810868516307664
 30
0.0
 11
4.34687401065139
 21
3.711406584826931
 31
0.0
 11
4.358363503357736
 21
3.715101296396028
 31
0.0
 11
4.369501477366156
 21
3.719749555675434
 31
0.0
 11
4.380521083177882
 21
3.725509595659389
 31
0.0
 11
4.390994674110288
 21
3.732211706008797
 31
0.0
 11
4.400529882444516
 21
3.739551646594406
 31
0.0
 11
4.40940608737867
 21
3.747676298383339
 31
0.0
 11
4.417794104170297
 21
3.756813139721316
 31
0.0
 11
4.425348719799103
 21
3.766650106688928
 31
0.0
 11
4.431848485741284
 21
3.776833503602119
 31
0.0
 11
4.437459250480515
 21
3.787532263374487
 31
0.0
 11
4.44226834322194
 21
3.799013541670205
 31
0.0
 11
4.446063858109823
 21
3.810868516307664
 31
0.0
  0
SPLINE
  5
D3
330
2
100
AcDbEntity
  8
GAIKEI
  6
Continuous
 62
     1
100
AcDbSpline
210
0.0
220
0.0
230
1.0
 70
     8
 71
     3
 72
    19
 73
    15
 74
    13
 42
0.0000000001
 43
0.0000000001
 44
0.000001
 12
0.2634414923284027
 22
0.9646753755122933
 32
0.0
 13
0.9639886149825482
 23
0.2659435093850355
 33
0.0
 40
0.0
 40
0.0
 40
0.0
 40
0.0
 40
0.0120706715938937
 40
0.0241417800381293
 40
0.0365777168450818
 40
0.0490138356852544
 40
0.061045320834793
 40
0.0730769079994259
 40
0.0854784299499595
 40
0.0978798670910695
 40
0.1099602577905312
 40
0.1220404696565197
 40
0.1344881894039838
 40
0.146935448671559
 40
0.146935448671559
 40
0.146935448671559
 40
0.146935448671559
 10
-40.82967084833723
 20
29.77656731627144
 30
0.0
 10
-40.82861087642453
 20
29.78044874282229
 30
0.0
 10
-40.82616289487411
 20
29.78812631176977
 30
0.0
 10
-40.82149444607432
 20
29.79940466991573
 30
0.0
 10
-40.81581083737066
 20
29.81034701432017
 30
0.0
 10
-40.80920256668055
 20
29.8207412713582
 30
0.0
 10
-40.80179760559566
 20
29.83041318122088
 30
0.0
 10
-40.79360742952363
 20
29.8394142895421
 30
0.0
 10
-40.78457274138083
 20
29.84775211958952
 30
0.0
 10
-40.7748314283418
 20
29.85527885180643
 30
0.0
 10
-40.7645627319031
 20
29.86187013485056
 30
0.0
 10
-40.75375886743959
 20
29.86757518152749
 30
0.0
 10
-40.74238850535354
 20
29.87237026512922
 30
0.0
 10
-40.73448067295274
 20
29.87492582514811
 30
0.0
 10
-40.73048100087885
 20
29.87602924775206
 30
0.0
 11
-40.82967084833723
 21
29.77656731627144
 31
0.0
 11
-40.82600538789051
 21
29.78806840254179
 31
0.0
 11
-40.82138589709336
 21
29.79922061166383
 31
0.0
 11
-40.81565479241635
 21
29.81025724956874
 31
0.0
 11
-40.80898033889332
 21
29.82075054247145
 31
0.0
 11
-40.80166765287112
 21
29.83030469071343
 31
0.0
 11
-40.79356875785942
 21
29.8392023022347
 31
0.0
 11
-40.78445663072995
 21
29.847614640227
 31
0.0
 11
-40.77464212011341
 21
29.85519564022076
 31
0.0
 11
-40.76447719093732
 21
29.86172331122413
 31
0.0
 11
-40.75379424799052
 21
29.8673630456708
 31
0.0
 11
-40.7423259474956
 21
29.8722028409303
 31
0.0
 11
-40.73048100087885
 21
29.87602924775206
 31
0.0
  0
SPLINE
  5
D4
330
2
100
AcDbEntity
  8
GAIKEI
  6
Continuous
 62
     1
100
AcDbSpline
210
0.0
220
0.0
230
1.0
 70
     8
 71
     3
 72
    19
 73
    15
 74
    13
 42
0.0000000001
 43
0.0000000001
 44
0.000001
 12
-0.2634414923284028
 22
0.9646753755122933
 32
0.0
 13
-0.9639886149825482
 23
0.2659435093850356
 33
0.0
 40
0.0
 40
0.0
 40
0.0
 40
0.0
 40
0.0120706715939109
 40
0.0241417800381044
 40
0.036577716845111
 40
0.0490138356852168
 40
0.0610453208347921
 40
0.073076907999425
 40
0.085478429949956
 40
0.0978798670911082
 40
0.1099602577904801
 40
0.1220404696563713
 40
0.1344881894040383
 40
0.1469354486716169
 40
0.1469354486716169
 40
0.1469354486716169
 40
0.1469354486716169
 10
4.446063858109823
 20
29.77656731627144
 30
0.0
 10
4.445003886197127
 20
29.78044874282229
 30
0.0
 10
4.442555904646582
 20
29.78812631176969
 30
0.0
 10
4.437887455847032
 20
29.79940466991583
 30
0.0
 10
4.432203847143128
 20
29.81034701432006
 30
0.0
 10
4.425595576453247
 20
29.82074127135826
 30
0.0
 10
4.418190615368246
 20
29.83041318122082
 30
0.0
 10
4.410000439296226
 20
29.83941428954215
 30
0.0
 10
4.400965751153435
 20
29.84775211958953
 30
0.0
 10
4.391224438114363
 20
29.85527885180636
 30
0.0
 10
4.380955741675762
 20
29.86187013485058
 30
0.0
 10
4.370151877212293
 20
29.86757518152756
 30
0.0
 10
4.358781515126125
 20
29.87237026512914
 30
0.0
 10
4.350873682725278
 20
29.87492582514811
 30
0.0
 10
4.34687401065139
 20
29.87602924775206
 30
0.0
 11
4.446063858109823
 21
29.77656731627144
 31
0.0
 11
4.442398397663055
 21
29.78806840254179
 31
0.0
 11
4.437778906866014
 21
29.79922061166383
 31
0.0
 11
4.43204780218889
 21
29.81025724956874
 31
0.0
 11
4.425373348665971
 21
29.82075054247145
 31
0.0
 11
4.418060662643711
 21
29.83030469071343
 31
0.0
 11
4.409961767632012
 21
29.8392023022347
 31
0.0
 11
4.400849640502542
 21
29.847614640227
 31
0.0
 11
4.391035129885949
 21
29.85519564022076
 31
0.0
 11
4.380870200709978
 21
29.86172331122413
 31
0.0
 11
4.370187257763291
 21
29.8673630456708
 31
0.0
 11
4.358718957268138
 21
29.8722028409303
 31
0.0
 11
4.34687401065139
 21
29.87602924775206
 31
0.0
  0
SPLINE
  5
D5
330
2
100
AcDbEntity
  8
GAIKEI
  6
Continuous
 62
     1
100
AcDbSpline
210
0.0
220
0.0
230
1.0
 70
     8
 71
     3
 72
    19
 73
    15
 74
    13
 42
0.0000000001
 43
0.0000000001
 44
0.000001
 12
0.0944471245025448
 22
0.9955298793472755
 32
0.0
 13
0.9955257326591484
 23
0.0944908229060694
 33
0.0
 40
0.0
 40
0.0
 40
0.0
 40
0.0
 40
0.0172124311712243
 40
0.0344312311769038
 40
0.0515392072852459
 40
0.0686910149758104
 40
0.0858057717066218
 40
0.1119433335992097
 40
0.1380833502633924
 40
0.1635982876566638
 40
0.1891038875427886
 40
0.2053832094130278
 40
0.2217026553121966
 40
0.2379700129382747
 40
0.2379700129382747
 40
0.2379700129382747
 40
0.2379700129382747
 10
-43.11755201164714
 20
31.68160681151562
 30
0.0
 10
-43.1170101234372
 20
31.687318641358
 30
0.0
 10
-43.11530460179165
 20
31.69869658936037
 30
0.0
 10
-43.11086574893553
 20
31.71532678471422
 30
0.0
 10
-43.10472633392818
 20
31.73138185445525
 30
0.0
 10
-43.09704635128733
 20
31.7467184937524
 30
0.0
 10
-43.08634523360389
 20
31.76380676484394
 30
0.0
 10
-43.07177708136288
 20
31.78187749194812
 30
0.0
 10
-43.05281193961131
 20
31.79968417862803
 30
0.0
 10
-43.03172164863865
 20
31.81454609421308
 30
0.0
 10
-43.0116868778766
 20
31.82482449599738
 30
0.0
 10
-42.993470263076
 20
31.83148543443842
 30
0.0
 10
-42.9776708943459
 20
31.83556130929762
 30
0.0
 10
-42.96690047390767
 20
31.83714416829206
 30
0.0
 10
-42.96150228286797
 20
31.83765654029492
 30
0.0
 11
-43.11755201164714
 21
31.68160681151562
 31
0.0
 11
-43.11499039885137
 21
31.69862845139107
 31
0.0
 11
-43.11057008200395
 21
31.71527032744928
 31
0.0
 11
-43.10447327708556
 21
31.73125511199237
 31
0.0
 11
-43.09680324218277
 21
31.74659639348135
 31
0.0
 11
-43.08772182107282
 21
31.76110294011392
 31
0.0
 11
-43.07133578381189
 21
31.7814658380272
 31
0.0
 11
-43.05226977359325
 21
31.79934747920129
 31
0.0
 11
-43.03140921453689
 21
31.81403894735002
 31
0.0
 11
-43.00869495254073
 21
31.82564060376694
 31
0.0
 11
-42.99340413744289
 21
31.83122701878665
 31
0.0
 11
-42.97759619600583
 21
31.83528126887848
 31
0.0
 11
-42.96150228286797
 21
31.83765654029492
 31
0.0
  0
SPLINE
  5
D6
330
2
100
AcDbEntity
  8
GAIKEI
  6
Continuous
 62
     1
100
AcDbSpline
210
0.0
220
0.0
230
1.0
 70
     8
 71
     3
 72
    19
 73
    15
 74
    13
 42
0.0000000001
 43
0.0000000001
 44
0.000001
 12
-0.995529879347374
 22
0.0944471245015059
 32
0.0
 13
-0.0944908229060039
 23
0.9955257326591544
 33
0.0
 40
0.0
 40
0.0
 40
0.0
 40
0.0
 40
0.0172124311711138
 40
0.0344312311769005
 40
0.051539207285217
 40
0.0686910149758038
 40
0.085805771706617
 40
0.1119433335992434
 40
0.1380833502631879
 40
0.1635982876565844
 40
0.1891038875427173
 40
0.2053832094130107
 40
0.2217026553121213
 40
0.2379700129382712
 40
0.2379700129382712
 40
0.2379700129382712
 40
0.2379700129382712
 10
-42.96150228286797
 20
1.617332902498162
 30
0.0
 10
-42.96721411271032
 20
1.617874790708086
 30
0.0
 10
-42.97859206071265
 20
1.619580312353832
 30
0.0
 10
-42.99522225606655
 20
1.62401916520973
 30
0.0
 10
-43.01127732580758
 20
1.630158580217056
 30
0.0
 10
-43.02661396510475
 20
1.637838562857993
 30
0.0
 10
-43.04370223619625
 20
1.648539680541418
 30
0.0
 10
-43.06177296330044
 20
1.663107832782387
 30
0.0
 10
-43.07957964998011
 20
1.682072974534108
 30
0.0
 10
-43.09444156556549
 20
1.703163265506532
 30
0.0
 10
-43.10471996734968
 20
1.723198036268655
 30
0.0
 10
-43.11138090579083
 20
1.741414651069263
 30
0.0
 10
-43.11545678064962
 20
1.757214019799477
 30
0.0
 10
-43.11703963964428
 20
1.767984440237668
 30
0.0
 10
-43.11755201164714
 20
1.773382631277399
 30
0.0
 11
-42.96150228286797
 21
1.617332902498162
 31
0.0
 11
-42.97852392274331
 21
1.619894515293992
 31
0.0
 11
-42.99516579880162
 21
1.624314832141351
 31
0.0
 11
-43.01115058334471
 21
1.630411637059694
 31
0.0
 11
-43.0264918648337
 21
1.638081671962538
 31
0.0
 11
-43.04099841146626
 21
1.647163093072492
 31
0.0
 11
-43.06136130937955
 21
1.663549130333478
 31
0.0
 11
-43.0792429505534
 21
1.682615140552002
 31
0.0
 11
-43.09393441870236
 21
1.703475699608361
 31
0.0
 11
-43.10553607511929
 21
1.726189961604518
 31
0.0
 11
-43.11112249013899
 21
1.741480776702417
 31
0.0
 11
-43.11517674023059
 21
1.757288718139477
 31
0.0
 11
-43.11755201164714
 21
1.773382631277399
 31
0.0
  0
SPLINE
  5
D7
330
2
100
AcDbEntity
  8
GAIKEI
  6
Continuous
 62
     1
100
AcDbSpline
210
0.0
220
0.0
230
1.0
 70
     8
 71
     3
 72
    19
 73
    15
 74
    13
 42
0.0000000001
 43
0.0000000001
 44
0.000001
 12
-0.0944471245025449
 22
0.9955298793472755
 32
0.0
 13
-0.9955257326591484
 23
0.0944908229060694
 33
0.0
 40
0.0
 40
0.0
 40
0.0
 40
0.0
 40
0.0172124311712192
 40
0.0344312311769252
 40
0.0515392072852484
 40
0.0686910149757843
 40
0.0858057717065975
 40
0.1119433335992211
 40
0.1380833502633675
 40
0.163598287656726
 40
0.1891038875427528
 40
0.2053832094129953
 40
0.2217026553121606
 40
0.2379700129383512
 40
0.2379700129383512
 40
0.2379700129383512
 40
0.2379700129383512
 10
6.702582859378708
 20
31.68160681151562
 30
0.0
 10
6.70204097116877
 20
31.687318641358
 30
0.0
 10
6.700335449523123
 20
31.69869658936038
 30
0.0
 10
6.695896596666983
 20
31.71532678471424
 30
0.0
 10
6.689757181659672
 20
31.73138185445521
 30
0.0
 10
6.68207719901892
 20
31.74671849375243
 30
0.0
 10
6.671376081335466
 20
31.76380676484392
 30
0.0
 10
6.656807929094384
 20
31.7818774919481
 30
0.0
 10
6.637842787342862
 20
31.79968417862807
 30
0.0
 10
6.616752496370139
 20
31.81454609421303
 30
0.0
 10
6.596717725608129
 20
31.82482449599738
 30
0.0
 10
6.57850111080755
 20
31.83148543443839
 30
0.0
 10
6.562701742077422
 20
31.83556130929763
 30
0.0
 10
6.551931321639159
 20
31.83714416829204
 30
0.0
 10
6.546533130599414
 20
31.83765654029492
 30
0.0
 11
6.702582859378708
 21
31.68160681151562
 31
0.0
 11
6.700021246582878
 21
31.69862845139107
 31
0.0
 11
6.695600929735405
 21
31.71527032744928
 31
0.0
 11
6.689504124817062
 21
31.73125511199237
 31
0.0
 11
6.681834089914332
 21
31.74659639348135
 31
0.0
 11
6.672752668804378
 21
31.76110294011392
 31
0.0
 11
6.656366631543392
 21
31.7814658380272
 31
0.0
 11
6.637300621324811
 21
31.79934747920129
 31
0.0
 11
6.616440062268338
 21
31.81403894735002
 31
0.0
 11
6.593725800272295
 21
31.82564060376694
 31
0.0
 11
6.578434985174453
 21
31.83122701878665
 31
0.0
 11
6.562627043737393
 21
31.83528126887848
 31
0.0
 11
6.546533130599414
 21
31.83765654029492
 31
0.0
  0
SPLINE
  5
D8
330
2
100
AcDbEntity
  8
GAIKEI
  6
Continuous
 62
     1
100
AcDbSpline
210
0.0
220
0.0
230
1.0
 70
     8
 71
     3
 72
    19
 73
    15
 74
    13
 42
0.0000000001
 43
0.0000000001
 44
0.000001
 12
0.995529879347374
 22
0.0944471245015057
 32
0.0
 13
0.0944908229060041
 23
0.9955257326591546
 33
0.0
 40
0.0
 40
0.0
 40
0.0
 40
0.0
 40
0.0172124311712192
 40
0.034431231176896
 40
0.0515392072853254
 40
0.0686910149758105
 40
0.0858057717067201
 40
0.1119433335992551
 40
0.13808335026336
 40
0.1635982876566256
 40
0.1891038875428053
 40
0.2053832094131012
 40
0.2217026553122383
 40
0.2379700129383726
 40
0.2379700129383726
 40
0.2379700129383726
 40
0.2379700129383726
 10
6.546533130599414
 20
1.617332902498162
 30
0.0
 10
6.552244960441797
 20
1.6178747907081
 30
0.0
 10
6.563622908444145
 20
1.619580312353775
 30
0.0
 10
6.580253103798057
 20
1.624019165209801
 30
0.0
 10
6.5963081735391
 20
1.630158580216971
 30
0.0
 10
6.611644812836232
 20
1.637838562858064
 30
0.0
 10
6.628733083927784
 20
1.648539680541318
 30
0.0
 10
6.646803811031844
 20
1.663107832782529
 30
0.0
 10
6.664610497711848
 20
1.682072974533937
 30
0.0
 10
6.679472413296863
 20
1.703163265506631
 30
0.0
 10
6.689750815081282
 20
1.723198036268669
 30
0.0
 10
6.696411753522355
 20
1.741414651069277
 30
0.0
 10
6.700487628381367
 20
1.757214019799434
 30
0.0
 10
6.702070487375834
 20
1.767984440237668
 30
0.0
 10
6.702582859378708
 20
1.773382631277399
 30
0.0
 11
6.546533130599414
 21
1.617332902498162
 31
0.0
 11
6.563554770474866
 21
1.619894515293992
 31
0.0
 11
6.580196646533067
 21
1.624314832141351
 31
0.0
 11
6.596181431076274
 21
1.630411637059694
 31
0.0
 11
6.611522712565147
 21
1.638081671962538
 31
0.0
 11
6.626029259197821
 21
1.647163093072492
 31
0.0
 11
6.646392157110994
 21
1.663549130333478
 31
0.0
 11
6.66427379828508
 21
1.682615140552002
 31
0.0
 11
6.678965266433806
 21
1.703475699608361
 31
0.0
 11
6.690566922850848
 21
1.726189961604518
 31
0.0
 11
6.696153337870555
 21
1.741480776702417
 31
0.0
 11
6.700207587962268
 21
1.757288718139477
 31
0.0
 11
6.702582859378708
 21
1.773382631277399
 31
0.0
  0
LINE
  5
D9
330
2
100
AcDbEntity
  8
GAIKEI
  6
Continuous
 62
     1
100
AcDbLine
 10
40.97962231251068
 20
31.20805497175252
 30
0.0
 11
41.23234586530668
 21
31.21945378259409
 31
0.0
  0
LINE
  5
DA
330
2
100
AcDbEntity
  8
GAIKEI
  6
Continuous
 62
     1
100
AcDbLine
 10
41.2041187575171
 20
31.42178765860456
 30
0.0
 11
40.97962231251068
 21
31.42902420152291
 31
0.0
  0
LINE
  5
DB
330
2
100
AcDbEntity
  8
GAIKEI
  6
Continuous
 62
     1
100
AcDbLine
 10
42.60306779477474
 20
4.778770133980174
 30
0.0
 11
42.55976269740677
 21
4.753767912700141
 31
0.0
  0
LINE
  5
DC
330
2
100
AcDbEntity
  8
GAIKEI
  6
Continuous
 62
     1
100
AcDbLine
 10
42.70977602508674
 20
4.778770133980174
 30
0.0
 11
42.60306779477474
 21
4.778770133980174
 31
0.0
  0
LINE
  5
DD
330
2
100
AcDbEntity
  8
GAIKEI
  6
Continuous
 62
     1
100
AcDbLine
 10
42.55976269740677
 20
4.606254807148161
 30
0.0
 11
42.70977602508674
 21
4.623131306512163
 31
0.0
  0
LINE
  5
DE
330
2
100
AcDbEntity
  8
GAIKEI
  6
Continuous
 62
     1
100
AcDbLine
 10
42.75978046764669
 20
4.628756806300145
 30
0.0
 11
42.70977602508674
 21
4.623131306512163
 31
0.0
  0
LINE
  5
DF
330
2
100
AcDbEntity
  8
GAIKEI
  6
Continuous
 62
     1
100
AcDbLine
 10
42.75978046764669
 20
4.778770133980174
 30
0.0
 11
42.75978046764669
 21
4.628756806300145
 31
0.0
  0
LINE
  5
E0
330
2
100
AcDbEntity
  8
GAIKEI
  6
Continuous
 62
     1
100
AcDbLine
 10
42.70977602508674
 20
4.778770133980174
 30
0.0
 11
42.75978046764669
 21
4.778770133980174
 31
0.0
  0
LINE
  5
E1
330
2
100
AcDbEntity
  8
GAIKEI
  6
Continuous
 62
     1
100
AcDbLine
 10
42.60976713996666
 20
5.203807895740226
 30
0.0
 11
42.55976269740677
 21
5.253812338300235
 31
0.0
  0
LINE
  5
E2
330
2
100
AcDbEntity
  8
GAIKEI
  6
Continuous
 62
     1
100
AcDbLine
 10
42.55976269740677
 20
4.753767912700141
 30
0.0
 11
42.60976713996666
 21
4.803772355260207
 31
0.0
  0
LINE
  5
E3
330
2
100
AcDbEntity
  8
GAIKEI
  6
Continuous
 62
     1
100
AcDbLine
 10
42.60976713996666
 20
4.803772355260207
 30
0.0
 11
42.60976713996666
 21
5.203807895740226
 31
0.0
  0
LINE
  5
E4
330
2
100
AcDbEntity
  8
GAIKEI
  6
Continuous
 62
     1
100
AcDbLine
 10
42.15972715692674
 20
5.278814559580155
 30
0.0
 11
42.55976269740677
 21
5.278814559580155
 31
0.0
  0
LINE
  5
E5
330
2
100
AcDbEntity
  8
GAIKEI
  6
Continuous
 62
     1
100
AcDbLine
 10
42.55976269740677
 20
4.578752363740193
 30
0.0
 11
42.17093575273543
 21
4.578752363740193
 31
0.0
  0
LINE
  5
E6
330
2
100
AcDbEntity
  8
GAIKEI
  6
Continuous
 62
     1
100
AcDbLine
 10
42.55976269740677
 20
5.278814559580155
 30
0.0
 11
42.55976269740677
 21
4.578752363740193
 31
0.0
  0
LINE
  5
E7
330
2
100
AcDbEntity
  8
GAIKEI
  6
Continuous
 62
     1
100
AcDbLine
 10
38.72434737866047
 20
2.083358864731508
 30
0.0
 11
38.72512199748019
 21
2.083291058707345
 31
0.0
  0
ELLIPSE
  5
E8
330
2
100
AcDbEntity
  8
GAIKEI
  6
Continuous
 62
     7
100
AcDbEllipse
 10
39.31363268271514
 20
31.81042183614977
 30
0.0
 11
-0.4304650760396076
 21
0.0183350540597169
 31
0.0
210
0.0
220
0.0
230
1.0
 40
0.0979550000027946
 41
-0.0556951287892611
 42
0.0307150442110096
  0
ELLIPSE
  5
E9
330
2
100
AcDbEntity
  8
GAIKEI
  6
Continuous
 62
     1
100
AcDbEllipse
 10
39.31363268271514
 20
1.620349029406952
 30
0.0
 11
-0.3002971316235787
 21
0.4353642020019295
 31
0.0
210
0.0
220
0.0
230
1.0
 40
0.7084259999999128
 41
0.7388798675229174
 42
0.8252900405248016
  0
ELLIPSE
  5
EA
330
2
100
AcDbEntity
  8
GAIKEI
  6
Continuous
 62
     1
100
AcDbEllipse
 10
39.31363268271514
 20
31.81042183614977
 30
0.0
 11
0.3002971316397903
 21
0.4353642019797884
 31
0.0
210
0.0
220
0.0
230
1.0
 40
0.7084259999997621
 41
2.316302613115392
 42
2.402712786120312
  0
ELLIPSE
  5
EB
330
2
100
AcDbEntity
  8
GAIKEI
  6
Continuous
 62
     7
100
AcDbEllipse
 10
38.94885067427549
 20
31.79130438769244
 30
0.0
 11
-0.0039255454801028
 21
0.0749038698138415
 31
0.0
210
0.0
220
0.0
230
1.0
 40
0.9969940000001736
 41
-0.0000000000462679
 42
1.015719002465488
  0
ELLIPSE
  5
EC
330
2
100
AcDbEntity
  8
GAIKEI
  6
Continuous
 62
     1
100
AcDbEllipse
 10
40.88235087059411
 20
31.76746266951534
 30
0.0
 11
-0.0052376484159654
 21
0.2000177233456646
 31
0.0
210
0.0
220
0.0
230
1.0
 40
0.0261499999999963
 41
0.000684763903771
 42
1.568742034989261
  0
ELLIPSE
  5
ED
330
2
100
AcDbEntity
  8
GAIKEI
  6
Continuous
 62
     1
100
AcDbEllipse
 10
39.30970713395641
 20
31.81042183614977
 30
0.0
 11
0.2691022304283923
 21
0.3978920321198732
 31
0.0
210
0.0
220
0.0
230
1.0
 40
0.6240159999996433
 41
2.309985920121875
 42
2.396396093123733
  0
ELLIPSE
  5
EE
330
2
100
AcDbEntity
  8
GAIKEI
  6
Continuous
 62
     1
100
AcDbEllipse
 10
39.30970713395641
 20
1.620349029406952
 30
0.0
 11
-0.2691022304227062
 21
0.397892032129457
 31
0.0
210
0.0
220
0.0
230
1.0
 40
0.6240160000001015
 41
0.7451965604898776
 42
0.8316067334899205
  0
ARC
  5
EF
330
2
100
AcDbEntity
  8
GAIKEI
  6
Continuous
 62
     7
100
AcDbCircle
 10
38.77962683987062
 20
31.57056727667771
 30
0.0
 40
0.0500044425600019
100
AcDbArc
 50
147.9140249999912
 51
180.0
  0
ARC
  5
F0
330
2
100
AcDbEntity
  8
GAIKEI
  6
Continuous
 62
     7
100
AcDbCircle
 10
38.77962683987062
 20
1.860203588878903
 30
0.0
 40
0.0500044425600019
100
AcDbArc
 50
180.0
 51
212.0859750000088
  0
ARC
  5
F1
330
2
100
AcDbEntity
  8
GAIKEI
  6
Continuous
 62
     7
100
AcDbCircle
 10
38.94748460290919
 20
31.79123283133515
 30
0.0
 40
0.0750066638400028
100
AcDbArc
 50
92.9999999999991
 51
147.9140249999912
  0
ARC
  5
F2
330
2
100
AcDbEntity
  8
GAIKEI
  6
Continuous
 62
     7
100
AcDbCircle
 10
38.94748460290919
 20
1.639538034221516
 30
0.0
 40
0.0750066638400028
100
AcDbArc
 50
212.0859750000088
 51
267.0000000000009
  0
ARC
  5
F3
330
2
100
AcDbEntity
  8
GAIKEI
  6
Continuous
 62
     7
100
AcDbCircle
 10
40.92961786995061
 20
1.513294868361242
 30
0.0
 40
0.0500044425600019
100
AcDbArc
 50
270.0
 51
0.0
  0
ARC
  5
F4
330
2
100
AcDbEntity
  8
GAIKEI
  6
Continuous
 62
     7
100
AcDbCircle
 10
40.92961786995061
 20
31.91747599719543
 30
0.0
 40
0.0500044425600019
100
AcDbArc
 50
0.0
 51
90.0
  0
LINE
  5
F5
330
2
100
AcDbEntity
  8
GAIKEI
  6
Continuous
 62
     7
100
AcDbLine
 10
38.72962239731061
 20
31.57056727667771
 30
0.0
 11
38.72962239731061
 21
1.860203588878903
 31
0.0
  0
LINE
  5
F6
330
2
100
AcDbEntity
  8
GAIKEI
  6
Continuous
 62
     7
100
AcDbLine
 10
38.94492512551682
 20
31.86620829240297
 30
0.0
 11
38.94355905415046
 21
31.86613668604122
 31
0.0
  0
LINE
  5
F7
330
2
100
AcDbEntity
  8
GAIKEI
  6
Continuous
 62
     7
100
AcDbLine
 10
38.94355905415046
 20
1.564634179515394
 30
0.0
 11
38.94492512551682
 21
1.564562573153637
 31
0.0
  0
LINE
  5
F8
330
2
100
AcDbEntity
  8
GAIKEI
  6
Continuous
 62
     7
100
AcDbLine
 10
38.8839350569574
 20
1.599695194451896
 30
0.0
 11
38.7372604759027
 21
1.833641629026658
 31
0.0
  0
LINE
  5
F9
330
2
100
AcDbEntity
  8
GAIKEI
  6
Continuous
 62
     1
100
AcDbLine
 10
38.72962239731061
 20
2.04503878812801
 30
0.0
 11
38.8839350569574
 21
1.798909593317716
 31
0.0
  0
LINE
  5
FA
330
2
100
AcDbEntity
  8
GAIKEI
  6
Continuous
 62
     1
100
AcDbLine
 10
38.8839350569574
 20
31.6318612722389
 30
0.0
 11
38.72962239731061
 21
31.38573207742866
 31
0.0
  0
LINE
  5
FB
330
2
100
AcDbEntity
  8
GAIKEI
  6
Continuous
 62
     7
100
AcDbLine
 10
38.7372604759027
 20
31.59712923653007
 30
0.0
 11
38.8839350569574
 21
31.83107567110472
 31
0.0
  0
LINE
  5
FC
330
2
100
AcDbEntity
  8
GAIKEI
  6
Continuous
 62
     1
100
AcDbLine
 10
38.8839350569574
 20
1.798909593317716
 30
0.0
 11
38.8839350569574
 21
31.6318612722389
 31
0.0
  0
LINE
  5
FD
330
2
100
AcDbEntity
  8
GAIKEI
  6
Continuous
 62
     7
100
AcDbLine
 10
38.94492512551682
 20
31.86620829240297
 30
0.0
 11
40.87710960494274
 21
31.9674802397376
 31
0.0
  0
LINE
  5
FE
330
2
100
AcDbEntity
  8
GAIKEI
  6
Continuous
 62
     7
100
AcDbLine
 10
40.87710960494274
 20
1.463290625819013
 30
0.0
 11
38.94492512551682
 21
1.564562573153637
 31
0.0
  0
LINE
  5
FF
330
2
100
AcDbEntity
  8
GAIKEI
  6
Continuous
 62
     7
100
AcDbLine
 10
40.92961786995061
 20
1.463290425801233
 30
0.0
 11
40.87711320526262
 21
1.463290425801233
 31
0.0
  0
LINE
  5
100
330
2
100
AcDbEntity
  8
GAIKEI
  6
Continuous
 62
     7
100
AcDbLine
 10
40.97962231251068
 20
1.663308196041271
 30
0.0
 11
40.97962231251068
 21
1.513294868361242
 31
0.0
  0
LINE
  5
101
330
2
100
AcDbEntity
  8
GAIKEI
  6
Continuous
 62
     7
100
AcDbLine
 10
40.87711320526262
 20
31.96748043975538
 30
0.0
 11
40.92961786995061
 21
31.96748043975538
 31
0.0
  0
LINE
  5
102
330
2
100
AcDbEntity
  8
GAIKEI
  6
Continuous
 62
     7
100
AcDbLine
 10
40.87711320526262
 20
31.96748043975538
 30
0.0
 11
40.87710960494274
 21
31.9674802397376
 31
0.0
  0
LINE
  5
103
330
2
100
AcDbEntity
  8
GAIKEI
  6
Continuous
 62
     1
100
AcDbLine
 10
40.97962231251068
 20
1.663308196041271
 30
0.0
 11
40.92961786995061
 21
1.663308196041271
 31
0.0
  0
LINE
  5
104
330
2
100
AcDbEntity
  8
GAIKEI
  6
Continuous
 62
     7
100
AcDbLine
 10
40.97962231251068
 20
1.663308196041271
 30
0.0
 11
40.97962231251068
 21
31.91747599719543
 31
0.0
  0
LINE
  5
105
330
2
100
AcDbEntity
  8
GAIKEI
  6
Continuous
 62
     1
100
AcDbLine
 10
40.87711320526262
 20
1.663308196041271
 30
0.0
 11
40.92961786995061
 21
1.663308196041271
 31
0.0
  0
LINE
  5
106
330
2
100
AcDbEntity
  8
GAIKEI
  6
Continuous
 62
     1
100
AcDbLine
 10
40.87710960494274
 20
31.76773659385168
 30
0.0
 11
38.94492512551682
 21
31.66646459651258
 31
0.0
  0
LINE
  5
107
330
2
100
AcDbEntity
  8
GAIKEI
  6
Continuous
 62
     1
100
AcDbLine
 10
38.94355905415046
 20
31.6318612722389
 30
0.0
 11
38.94355905415046
 21
1.798909593317716
 31
0.0
  0
LINE
  5
108
330
2
100
AcDbEntity
  8
GAIKEI
  6
Continuous
 62
     1
100
AcDbLine
 10
38.88318096092314
 20
1.767542144170761
 30
0.0
 11
40.87710960494274
 21
1.66303427170493
 31
0.0
  0
LINE
  5
109
330
2
100
AcDbEntity
  8
GAIKEI
  6
Continuous
 62
     1
100
AcDbLine
 10
40.87711320526262
 20
31.76746266951534
 30
0.0
 11
40.87711320526262
 21
1.463290425801233
 31
0.0
  0
ARC
  5
10A
330
2
100
AcDbEntity
  8
GAIKEI
  6
Continuous
 62
     1
100
AcDbCircle
 10
40.64209232523069
 20
3.943510776777316
 30
0.0
 40
0.450039983040017
100
AcDbArc
 50
0.0
 51
16.60155000000191
  0
ARC
  5
10B
330
2
100
AcDbEntity
  8
GAIKEI
  6
Continuous
 62
     1
100
AcDbCircle
 10
40.64209232523069
 20
3.943510776777316
 30
0.0
 40
0.450039983040017
100
AcDbArc
 50
343.3984499999981
 51
0.0
  0
ARC
  5
10C
330
2
100
AcDbEntity
  8
GAIKEI
  6
Continuous
 62
     1
100
AcDbCircle
 10
41.01107630698755
 20
3.833501003145386
 30
0.0
 40
0.0650057753280025
100
AcDbArc
 50
270.0
 51
343.3984499999981
  0
ARC
  5
10D
330
2
100
AcDbEntity
  8
GAIKEI
  6
Continuous
 62
     1
100
AcDbCircle
 10
41.01107630698755
 20
4.053520550409359
 30
0.0
 40
0.0650057753280025
100
AcDbArc
 50
16.60155000000191
 51
90.0
  0
LINE
  5
10E
330
2
100
AcDbEntity
  8
GAIKEI
  6
Continuous
 62
     1
100
AcDbLine
 10
40.97962231251068
 20
3.768495227817368
 30
0.0
 11
41.01107630698755
 21
3.768495227817368
 31
0.0
  0
LINE
  5
10F
330
2
100
AcDbEntity
  8
GAIKEI
  6
Continuous
 62
     1
100
AcDbLine
 10
41.01107630698755
 20
4.118526325737377
 30
0.0
 11
40.97962231251068
 21
4.118526325737377
 31
0.0
  0
ELLIPSE
  5
110
330
2
100
AcDbEntity
  8
GAIKEI
  6
Continuous
 62
     1
100
AcDbEllipse
 10
42.01064726217601
 20
3.17910541447776
 30
0.0
 11
-0.0261703031777274
 21
0.4993591320935867
 31
0.0
210
0.0
220
0.0
230
1.0
 40
0.7656099999999868
 41
3.14159265358974
 42
4.672286563984016
  0
ELLIPSE
  5
111
330
2
100
AcDbEntity
  8
GAIKEI
  6
Continuous
 62
     1
100
AcDbEllipse
 10
42.86228957489476
 20
10.01242408458131
 30
0.0
 11
0.0
 21
0.3250288766400047
 31
0.0
210
0.0
220
0.0
230
1.0
 40
0.1391730000000111
 41
3.141592653589793
 42
6.283185307179586
  0
ELLIPSE
  5
112
330
2
100
AcDbEntity
  8
GAIKEI
  6
Continuous
 62
     1
100
AcDbEllipse
 10
42.8622895748947
 20
23.08669144109911
 30
0.0
 11
0.0
 21
0.3250288766400047
 31
0.0
210
0.0
220
0.0
230
1.0
 40
0.1391730000000111
 41
3.141592653589793
 42
6.283185307179586
  0
ELLIPSE
  5
113
330
2
100
AcDbEntity
  8
GAIKEI
  6
Continuous
 62
     7
100
AcDbEllipse
 10
42.01692687007709
 20
3.485879392511151
 30
0.0
 11
-0.3214223610685126
 21
0.3830562535435122
 31
0.0
210
0.0
220
0.0
230
1.0
 40
0.160711
 41
3.141592653589792
 42
3.14434683352869
  0
ARC
  5
114
330
2
100
AcDbEntity
  8
GAIKEI
  6
Continuous
 62
     1
100
AcDbCircle
 10
42.34475785832131
 20
3.211247257953345
 30
0.0
 40
0.5148736118819045
100
AcDbArc
 50
274.6649765704082
 51
0.3401424516866607
  0
ARC
  5
115
330
2
100
AcDbEntity
  8
GAIKEI
  6
Continuous
 62
     7
100
AcDbCircle
 10
42.5415565799151
 20
30.19554146483847
 30
0.0
 40
0.2500222128000095
100
AcDbArc
 50
7.999999999997649
 51
78.00000000000022
  0
ARC
  5
116
330
2
100
AcDbEntity
  8
GAIKEI
  6
Continuous
 62
     1
100
AcDbCircle
 10
41.18523107947328
 20
2.629143854074357
 30
0.0
 40
0.2500222128000095
100
AcDbArc
 50
285.0000000000043
 51
314.9999999999954
  0
ARC
  5
117
330
2
100
AcDbEntity
  8
GAIKEI
  6
Continuous
 62
     1
100
AcDbCircle
 10
41.67360246800211
 20
2.41034566531988
 30
0.0
 40
0.2500222128000095
100
AcDbArc
 50
133.2988929999924
 51
134.9999999999954
  0
ARC
  5
118
330
2
100
AcDbEntity
  8
GAIKEI
  6
Continuous
 62
     1
100
AcDbCircle
 10
41.09213230827066
 20
2.08651404504809
 30
0.0
 40
0.2500222128000095
100
AcDbArc
 50
105.0000000000043
 51
116.7436839999979
  0
ARC
  5
119
330
2
100
AcDbEntity
  8
GAIKEI
  6
Continuous
 62
     1
100
AcDbCircle
 10
41.99471249647865
 20
4.878593852649373
 30
0.0
 40
0.345030653664013
100
AcDbArc
 50
298.5718781421404
 51
0.0
  0
ARC
  5
11A
330
2
100
AcDbEntity
  8
GAIKEI
  6
Continuous
 62
     1
100
AcDbCircle
 10
41.99471249647865
 20
4.878593852649373
 30
0.0
 40
0.345030653664013
100
AcDbArc
 50
0.0
 51
61.42812185785672
  0
ARC
  5
11B
330
2
100
AcDbEntity
  8
GAIKEI
  6
Continuous
 62
     7
100
AcDbCircle
 10
41.80969605900668
 20
3.018354782860114
 30
0.0
 40
0.3500310979200132
100
AcDbArc
 50
272.9999999999991
 51
0.0
  0
ARC
  5
11C
330
2
100
AcDbEntity
  8
GAIKEI
  6
Continuous
 62
     7
100
AcDbCircle
 10
42.65977158252673
 20
5.554670567539972
 30
0.0
 40
0.500044425600019
100
AcDbArc
 50
130.5742470000082
 51
180.0
  0
LINE
  5
11D
330
2
100
AcDbEntity
  8
GAIKEI
  6
Continuous
 62
     1
100
AcDbLine
 10
42.85962239731055
 20
3.214303841622324
 30
0.0
 11
42.85962239731055
 21
6.375126952149457
 31
0.0
  0
LINE
  5
11E
330
2
100
AcDbEntity
  8
GAIKEI
  6
Continuous
 62
     1
100
AcDbLine
 10
41.84590933032808
 20
2.669741165177924
 30
0.0
 11
42.38663215572552
 21
2.698079274317137
 31
0.0
  0
LINE
  5
11F
330
2
100
AcDbEntity
  8
GAIKEI
  6
Continuous
 62
     1
100
AcDbLine
 10
42.3937034941581
 20
5.278814559580155
 30
0.0
 11
42.3937034941581
 21
5.487165670181695
 31
0.0
  0
LINE
  5
120
330
2
100
AcDbEntity
  8
GAIKEI
  6
Continuous
 62
     1
100
AcDbLine
 10
42.3937034941581
 20
3.179105414477646
 30
0.0
 11
42.3937034941581
 21
4.578752363740193
 31
0.0
  0
LINE
  5
121
330
2
100
AcDbEntity
  8
GAIKEI
  6
Continuous
 62
     1
100
AcDbLine
 10
42.3937034941581
 20
5.487165670181695
 30
0.0
 11
42.94834167004739
 21
5.952562317558601
 31
0.0
  0
LINE
  5
122
330
2
100
AcDbEntity
  8
GAIKEI
  6
Continuous
 62
     7
100
AcDbLine
 10
42.33834922630194
 20
5.937726799522124
 30
0.0
 11
42.32676054672532
 21
5.9269572927235
 31
0.0
  0
LINE
  5
123
330
2
100
AcDbEntity
  8
GAIKEI
  6
Continuous
 62
     7
100
AcDbLine
 10
43.13462239731046
 20
27.77214251122098
 30
0.0
 11
42.78914559372696
 21
30.23033783150265
 31
0.0
  0
LINE
  5
124
330
2
100
AcDbEntity
  8
GAIKEI
  6
Continuous
 62
     1
100
AcDbLine
 10
41.36202343629082
 20
2.452351447252453
 30
0.0
 11
41.49681006118021
 21
2.587138072141783
 31
0.0
  0
LINE
  5
125
330
2
100
AcDbEntity
  8
GAIKEI
  6
Continuous
 62
     1
100
AcDbLine
 10
41.02742180917601
 20
2.328016950964695
 30
0.0
 11
41.24994157856792
 21
2.387640948157809
 31
0.0
  0
LINE
  5
126
330
2
100
AcDbEntity
  8
GAIKEI
  6
Continuous
 62
     7
100
AcDbLine
 10
42.59353912092024
 20
30.4401000924189
 30
0.0
 11
40.97962231251068
 21
30.78314867234724
 31
0.0
  0
LINE
  5
127
330
2
100
AcDbEntity
  8
GAIKEI
  6
Continuous
 62
     7
100
AcDbLine
 10
42.73434855819175
 20
6.270009720635414
 30
0.0
 11
43.13462239731052
 21
6.60587934921557
 31
0.0
  0
LINE
  5
128
330
2
100
AcDbEntity
  8
GAIKEI
  6
Continuous
 62
     1
100
AcDbLine
 10
42.82716080393862
 20
9.687395207941221
 30
0.0
 11
42.86228957489476
 21
9.687395207941221
 31
0.0
  0
LINE
  5
129
330
2
100
AcDbEntity
  8
GAIKEI
  6
Continuous
 62
     1
100
AcDbLine
 10
42.86228957489476
 20
10.33745296122123
 30
0.0
 11
42.82716080393862
 21
10.33745296122123
 31
0.0
  0
LINE
  5
12A
330
2
100
AcDbEntity
  8
GAIKEI
  6
Continuous
 62
     1
100
AcDbLine
 10
42.86228957489476
 20
23.41172031773908
 30
0.0
 11
42.82716080393856
 21
23.41172031773908
 31
0.0
  0
LINE
  5
12B
330
2
100
AcDbEntity
  8
GAIKEI
  6
Continuous
 62
     1
100
AcDbLine
 10
42.82716080393856
 20
22.76166256445907
 30
0.0
 11
42.86228957489476
 21
22.76166256445907
 31
0.0
  0
LINE
  5
12C
330
2
100
AcDbEntity
  8
GAIKEI
  6
Continuous
 62
     7
100
AcDbLine
 10
42.15972715692674
 20
3.018354782860114
 30
0.0
 11
42.15972715692674
 21
3.28837037193773
 31
0.0
  0
LINE
  5
12D
330
2
100
AcDbEntity
  8
GAIKEI
  6
Continuous
 62
     1
100
AcDbLine
 10
42.63155432561228
 20
9.687395207941221
 30
0.0
 11
42.82716080393862
 21
9.687395207941221
 31
0.0
  0
LINE
  5
12E
330
2
100
AcDbEntity
  8
GAIKEI
  6
Continuous
 62
     1
100
AcDbLine
 10
42.82716080393862
 20
10.33745296122123
 30
0.0
 11
42.63155432561228
 21
10.33745296122123
 31
0.0
  0
LINE
  5
12F
330
2
100
AcDbEntity
  8
GAIKEI
  6
Continuous
 62
     1
100
AcDbLine
 10
42.82716080393856
 20
23.41172031773908
 30
0.0
 11
42.63155432561228
 21
23.41172031773908
 31
0.0
  0
LINE
  5
130
330
2
100
AcDbEntity
  8
GAIKEI
  6
Continuous
 62
     1
100
AcDbLine
 10
42.63155432561228
 20
22.76166256445907
 30
0.0
 11
42.82716080393856
 21
22.76166256445907
 31
0.0
  0
LINE
  5
131
330
2
100
AcDbEntity
  8
GAIKEI
  6
Continuous
 62
     1
100
AcDbLine
 10
42.78914557654019
 20
10.33745296122123
 30
0.0
 11
42.78914557654013
 21
22.76166256445907
 31
0.0
  0
LINE
  5
132
330
2
100
AcDbEntity
  8
GAIKEI
  6
Continuous
 62
     1
100
AcDbLine
 10
42.78914557654013
 20
23.41172031773908
 30
0.0
 11
42.78914557654013
 21
25.0482408181482
 31
0.0
  0
LINE
  5
133
330
2
100
AcDbEntity
  8
GAIKEI
  6
Continuous
 62
     1
100
AcDbLine
 10
42.78914557654013
 20
6.315989878220705
 30
0.0
 11
42.78914557654019
 21
9.687395207941221
 31
0.0
  0
LINE
  5
134
330
2
100
AcDbEntity
  8
GAIKEI
  6
Continuous
 62
     7
100
AcDbLine
 10
42.33834922630194
 20
5.937726799522124
 30
0.0
 11
42.73434855819175
 21
6.270009720635414
 31
0.0
  0
LINE
  5
135
330
2
100
AcDbEntity
  8
GAIKEI
  6
Continuous
 62
     7
100
AcDbLine
 10
42.15972715692674
 20
3.28837037193773
 30
0.0
 11
42.15972715692674
 21
5.554670567539972
 31
0.0
  0
LINE
  5
136
330
2
100
AcDbEntity
  8
GAIKEI
  6
Continuous
 62
     7
100
AcDbLine
 10
42.3345231363794
 20
5.934591220946913
 30
0.0
 11
42.33823571621724
 21
5.937827608478301
 31
0.0
  0
LINE
  5
137
330
2
100
AcDbEntity
  8
GAIKEI
  6
Continuous
 62
     7
100
AcDbLine
 10
40.97962231251068
 20
2.62434100157327
 30
0.0
 11
41.82817450982731
 21
2.668811772107005
 31
0.0
  0
LINE
  5
138
330
2
100
AcDbEntity
  8
GAIKEI
  6
Continuous
 62
     1
100
AcDbLine
 10
42.59353909821385
 20
9.687395207941221
 30
0.0
 11
42.59353909821379
 21
6.717381166593781
 31
0.0
  0
LINE
  5
139
330
2
100
AcDbEntity
  8
GAIKEI
  6
Continuous
 62
     1
100
AcDbLine
 10
42.59353909821385
 20
9.687395207941221
 30
0.0
 11
42.63155432561228
 21
9.687395207941221
 31
0.0
  0
LINE
  5
13A
330
2
100
AcDbEntity
  8
GAIKEI
  6
Continuous
 62
     1
100
AcDbLine
 10
42.63155432561228
 20
10.33745296122123
 30
0.0
 11
42.63155432561228
 21
9.687395207941221
 31
0.0
  0
LINE
  5
13B
330
2
100
AcDbEntity
  8
GAIKEI
  6
Continuous
 62
     1
100
AcDbLine
 10
42.63155432561228
 20
10.33745296122123
 30
0.0
 11
42.59353909821385
 21
10.33745296122123
 31
0.0
  0
LINE
  5
13C
330
2
100
AcDbEntity
  8
GAIKEI
  6
Continuous
 62
     1
100
AcDbLine
 10
42.59353909821379
 20
22.76166256445907
 30
0.0
 11
42.59353909821385
 21
10.33745296122123
 31
0.0
  0
LINE
  5
13D
330
2
100
AcDbEntity
  8
GAIKEI
  6
Continuous
 62
     1
100
AcDbLine
 10
42.59353909821379
 20
22.76166256445907
 30
0.0
 11
42.63155432561228
 21
22.76166256445907
 31
0.0
  0
LINE
  5
13E
330
2
100
AcDbEntity
  8
GAIKEI
  6
Continuous
 62
     1
100
AcDbLine
 10
42.63155432561228
 20
23.41172031773908
 30
0.0
 11
42.63155432561228
 21
22.76166256445907
 31
0.0
  0
LINE
  5
13F
330
2
100
AcDbEntity
  8
GAIKEI
  6
Continuous
 62
     1
100
AcDbLine
 10
42.63155432561228
 20
23.41172031773908
 30
0.0
 11
42.59353909821379
 21
23.41172031773908
 31
0.0
  0
LINE
  5
140
330
2
100
AcDbEntity
  8
GAIKEI
  6
Continuous
 62
     1
100
AcDbLine
 10
42.59353909821379
 20
24.64692037310232
 30
0.0
 11
42.59353909821379
 21
23.41172031773908
 31
0.0
  0
LINE
  5
141
330
2
100
AcDbEntity
  8
GAIKEI
  6
Continuous
 62
     1
100
AcDbLine
 10
40.97962231251068
 20
23.89676341057111
 30
0.0
 11
41.11515645381189
 21
23.89676341057111
 31
0.0
  0
LINE
  5
142
330
2
100
AcDbEntity
  8
GAIKEI
  6
Continuous
 62
     1
100
AcDbLine
 10
41.11515645381189
 20
22.59664790401098
 30
0.0
 11
40.97962231251068
 21
22.59664790401098
 31
0.0
  0
LINE
  5
143
330
2
100
AcDbEntity
  8
GAIKEI
  6
Continuous
 62
     1
100
AcDbLine
 10
41.11515645381189
 20
22.59664790401098
 30
0.0
 11
41.11515645381189
 21
23.89676341057111
 31
0.0
  0
LINE
  5
144
330
2
100
AcDbEntity
  8
GAIKEI
  6
Continuous
 62
     1
100
AcDbLine
 10
41.11515645381189
 20
9.497378326213208
 30
0.0
 11
40.97962231251074
 21
9.497378326213208
 31
0.0
  0
LINE
  5
145
330
2
100
AcDbEntity
  8
GAIKEI
  6
Continuous
 62
     1
100
AcDbLine
 10
40.97962231251074
 20
10.79749383277328
 30
0.0
 11
41.11515645381189
 21
10.79749383277328
 31
0.0
  0
LINE
  5
146
330
2
100
AcDbEntity
  8
GAIKEI
  6
Continuous
 62
     1
100
AcDbLine
 10
41.11515645381189
 20
9.497378326213208
 30
0.0
 11
41.11515645381189
 21
10.79749383277328
 31
0.0
  0
ELLIPSE
  5
147
330
2
100
AcDbEntity
  8
GAIKEI
  6
Continuous
 62
     1
100
AcDbEllipse
 10
41.10440524863929
 20
25.01237012476003
 30
0.0
 11
-0.0353472850665863
 21
0.0353472850665863
 31
0.0
210
0.0
220
0.0
230
1.0
 40
0.9990757796394584
 41
0.785860431794156
 42
0.8903589325753582
  0
LINE
  5
148
330
2
100
AcDbEntity
  8
GAIKEI
  6
Continuous
 62
     1
100
AcDbLine
 10
41.05348692488701
 20
25.0104148010426
 30
0.0
 11
41.05440840675453
 21
25.01237012476003
 31
0.0
  0
LINE
  5
149
330
2
100
AcDbEntity
  8
GAIKEI
  6
Continuous
 62
     1
100
AcDbLine
 10
41.04298544190055
 20
25.06881343937067
 30
0.0
 11
41.0445641321566
 21
25.05436640584844
 31
0.0
  0
LINE
  5
14A
330
2
100
AcDbEntity
  8
GAIKEI
  6
Continuous
 62
     1
100
AcDbLine
 10
42.62435218575035
 20
27.81391787352447
 30
0.0
 11
42.62248972028277
 21
27.84113139126339
 31
0.0
  0
LINE
  5
14B
330
2
100
AcDbEntity
  8
GAIKEI
  6
Continuous
 62
     1
100
AcDbLine
 10
42.49607278898463
 20
30.44942647082178
 30
0.0
 11
42.49623090303209
 21
30.45016438638067
 31
0.0
  0
LINE
  5
14C
330
2
100
AcDbEntity
  8
GAIKEI
  6
Continuous
 62
     1
100
AcDbLine
 10
42.49599723227198
 20
30.44907393950172
 30
0.0
 11
42.49607278898463
 21
30.44942647082178
 31
0.0
  0
LINE
  5
14D
330
2
100
AcDbEntity
  8
GAIKEI
  6
Continuous
 62
     1
100
AcDbLine
 10
42.62248972028277
 20
27.21804093384702
 30
0.0
 11
42.62435218575035
 21
27.24525445158594
 31
0.0
  0
LINE
  5
14E
330
2
100
AcDbEntity
  8
GAIKEI
  6
Continuous
 62
     1
100
AcDbLine
 10
42.49607278898463
 20
24.60974585428863
 30
0.0
 11
42.49623090303209
 21
24.60900793872975
 31
0.0
  0
LINE
  5
14F
330
2
100
AcDbEntity
  8
GAIKEI
  6
Continuous
 62
     1
100
AcDbLine
 10
42.49599723227198
 20
24.61009838560869
 30
0.0
 11
42.49607278898463
 21
24.60974585428863
 31
0.0
  0
LINE
  5
150
330
2
100
AcDbEntity
  8
GAIKEI
  6
Continuous
 62
     1
100
AcDbLine
 10
42.76843308637393
 20
24.90317047310191
 30
0.0
 11
42.76918070279464
 21
24.90306766396793
 31
0.0
  0
LINE
  5
151
330
2
100
AcDbEntity
  8
GAIKEI
  6
Continuous
 62
     1
100
AcDbLine
 10
42.76807595464515
 20
24.90321957746449
 30
0.0
 11
42.76843308637393
 21
24.90317047310191
 31
0.0
  0
LINE
  5
152
330
2
100
AcDbEntity
  8
GAIKEI
  6
Continuous
 62
     1
100
AcDbLine
 10
40.98076171373884
 20
30.67262855083254
 30
0.0
 11
40.97962231251068
 21
30.67262855083254
 31
0.0
  0
LINE
  5
153
330
2
100
AcDbEntity
  8
GAIKEI
  6
Continuous
 62
     1
100
AcDbLine
 10
40.97962231251068
 20
24.38654377427793
 30
0.0
 11
40.98076171373884
 21
24.38654377427793
 31
0.0
  0
LINE
  5
154
330
2
100
AcDbEntity
  8
GAIKEI
  6
Continuous
 62
     1
100
AcDbLine
 10
40.98076171373884
 20
24.38654377427793
 30
0.0
 11
42.47527614134173
 21
24.70679687662232
 31
0.0
  0
LINE
  5
155
330
2
100
AcDbEntity
  8
GAIKEI
  6
Continuous
 62
     1
100
AcDbLine
 10
40.97962231251068
 20
24.28402040161512
 30
0.0
 11
42.49623090303209
 21
24.60900793872975
 31
0.0
  0
LINE
  5
156
330
2
100
AcDbEntity
  8
GAIKEI
  6
Continuous
 62
     1
100
AcDbLine
 10
42.62435218575035
 20
27.24525445158594
 30
0.0
 11
42.62435218575035
 21
27.81391787352447
 31
0.0
  0
LINE
  5
157
330
2
100
AcDbEntity
  8
GAIKEI
  6
Continuous
 62
     1
100
AcDbLine
 10
42.34442556614403
 20
29.86305472561724
 30
0.0
 11
42.33762256174259
 21
29.91252252049969
 31
0.0
  0
LINE
  5
158
330
2
100
AcDbEntity
  8
GAIKEI
  6
Continuous
 62
     1
100
AcDbLine
 10
42.50471855710332
 20
28.71871530871999
 30
0.0
 11
42.36101534003433
 21
29.76364269352371
 31
0.0
  0
LINE
  5
159
330
2
100
AcDbEntity
  8
GAIKEI
  6
Continuous
 62
     1
100
AcDbLine
 10
42.62248972028277
 20
27.84113139126339
 30
0.0
 11
42.51561697535481
 21
28.61824888295064
 31
0.0
  0
LINE
  5
15A
330
2
100
AcDbEntity
  8
GAIKEI
  6
Continuous
 62
     1
100
AcDbLine
 10
42.47527614134173
 20
30.35237544848809
 30
0.0
 11
40.98076171373884
 21
30.67262855083254
 31
0.0
  0
LINE
  5
15B
330
2
100
AcDbEntity
  8
GAIKEI
  6
Continuous
 62
     1
100
AcDbLine
 10
42.33762256174259
 20
25.14664980461066
 30
0.0
 11
42.34442556614403
 21
25.19611759949317
 31
0.0
  0
LINE
  5
15C
330
2
100
AcDbEntity
  8
GAIKEI
  6
Continuous
 62
     1
100
AcDbLine
 10
42.53040213891767
 20
26.54843299366382
 30
0.0
 11
42.62248972028277
 21
27.21804093384702
 31
0.0
  0
LINE
  5
15D
330
2
100
AcDbEntity
  8
GAIKEI
  6
Continuous
 62
     1
100
AcDbLine
 10
42.36101534003433
 20
25.29552963158676
 30
0.0
 11
42.51950372066608
 21
26.44796656789436
 31
0.0
  0
LINE
  5
15E
330
2
100
AcDbEntity
  8
GAIKEI
  6
Continuous
 62
     1
100
AcDbLine
 10
42.98506363254796
 20
27.30248818642019
 30
0.0
 11
42.98506363254796
 21
27.75668413869022
 31
0.0
  0
LINE
  5
15F
330
2
100
AcDbEntity
  8
GAIKEI
  6
Continuous
 62
     1
100
AcDbLine
 10
42.97204002548755
 20
27.94697554480786
 30
0.0
 11
42.67010435052395
 21
30.14247925061591
 31
0.0
  0
LINE
  5
160
330
2
100
AcDbEntity
  8
GAIKEI
  6
Continuous
 62
     1
100
AcDbLine
 10
42.67010435052395
 20
24.91669307449456
 30
0.0
 11
42.97204002548755
 21
27.1121967803025
 31
0.0
  0
LINE
  5
161
330
2
100
AcDbEntity
  8
GAIKEI
  6
Continuous
 62
     1
100
AcDbLine
 10
42.76918070279464
 20
24.90306766396793
 30
0.0
 11
43.14934364864678
 21
27.66739538552565
 31
0.0
  0
LINE
  5
162
330
2
100
AcDbEntity
  8
GAIKEI
  6
Continuous
 62
     1
100
AcDbLine
 10
41.04298544190055
 20
29.99035888573974
 30
0.0
 11
40.97962231251068
 21
29.99035888573974
 31
0.0
  0
LINE
  5
163
330
2
100
AcDbEntity
  8
GAIKEI
  6
Continuous
 62
     1
100
AcDbLine
 10
40.97962231251068
 20
25.06881343937067
 30
0.0
 11
41.04298544190055
 21
25.06881343937067
 31
0.0
  0
LINE
  5
164
330
2
100
AcDbEntity
  8
GAIKEI
  6
Continuous
 62
     1
100
AcDbLine
 10
41.04298544190055
 20
29.99035888573974
 30
0.0
 11
41.04298544190055
 21
25.06881343937067
 31
0.0
  0
LINE
  5
165
330
2
100
AcDbEntity
  8
GAIKEI
  6
Continuous
 62
     1
100
AcDbLine
 10
42.14671235064827
 20
30.08493098783799
 30
0.0
 11
41.15091093035778
 21
30.11970512728749
 31
0.0
  0
LINE
  5
166
330
2
100
AcDbEntity
  8
GAIKEI
  6
Continuous
 62
     1
100
AcDbLine
 10
41.15091093035778
 20
24.93946719782292
 30
0.0
 11
42.14671235064827
 21
24.97424133727248
 31
0.0
  0
SPLINE
  5
167
330
2
100
AcDbEntity
  8
GAIKEI
  6
Continuous
 62
     1
100
AcDbSpline
210
0.0
220
0.0
230
1.0
 70
     8
 71
     3
 72
    19
 73
    15
 74
    13
 42
0.0000000001
 43
0.0000000001
 44
0.000001
 12
0.0213842593146391
 22
0.9997713305819308
 32
0.0
 13
-0.1213258174957188
 23
0.9926127371785009
 33
0.0
 40
0.0
 40
0.0
 40
0.0
 40
0.0
 40
0.0170227267862881
 40
0.0336653186151554
 40
0.0496533389315691
 40
0.064999200049314
 40
0.079509559945612
 40
0.0998742087045729
 40
0.1177560207523958
 40
0.1324530564066686
 40
0.1440674448046813
 40
0.1496619817088298
 40
0.1537182290903426
 40
0.1561012044465202
 40
0.1561012044465202
 40
0.1561012044465202
 40
0.1561012044465202
 10
38.88331547078133
 20
31.67140355475135
 30
0.0
 10
38.88343681024928
 20
31.67707649948777
 30
0.0
 10
38.88357139385758
 20
31.68829865453388
 30
0.0
 10
38.88337999316002
 20
31.70484947912346
 30
0.0
 10
38.88304639349276
 20
31.72083816381422
 30
0.0
 10
38.88265848323801
 20
31.73611466801889
 30
0.0
 10
38.88225508615629
 20
31.75285015994544
 30
0.0
 10
38.88200670616811
 20
31.77043446331513
 30
0.0
 10
38.88205095740054
 20
31.7880839205544
 30
0.0
 10
38.88244745765985
 20
31.80281025439432
 30
0.0
 10
38.88297793319691
 20
31.81343535419882
 30
0.0
 10
38.88334096596349
 20
31.82050972537866
 30
0.0
 10
38.88360352178793
 20
31.8245217263396
 30
0.0
 10
38.88341184292571
 20
31.82666482630028
 30
0.0
 10
38.88331547078133
 20
31.82745328353059
 30
0.0
 11
38.88331547078133
 21
31.67140355475135
 31
0.0
 11
38.88350432433663
 21
31.68842519462675
 31
0.0
 11
38.88335016828137
 21
31.70506707068495
 31
0.0
 11
38.88302862612921
 21
31.72105185522804
 31
0.0
 11
38.88265379820439
 21
31.73639313671709
 31
0.0
 11
38.88232118169049
 21
31.75089968334959
 31
0.0
 11
38.88205413113804
 21
31.77126258126293
 31
0.0
 11
38.88213247558042
 21
31.78914422243696
 31
0.0
 11
38.88253695299921
 21
31.80383569058574
 31
0.0
 11
38.88308051332387
 21
31.81543734700261
 31
0.0
 11
38.88338162231787
 21
31.82102376202232
 31
0.0
 11
38.88350722633527
 21
31.82507801211415
 31
0.0
 11
38.88331547078133
 21
31.82745328353059
 31
0.0
  0
SPLINE
  5
168
330
2
100
AcDbEntity
  8
GAIKEI
  6
Continuous
 62
     1
100
AcDbSpline
210
0.0
220
0.0
230
1.0
 70
     8
 71
     3
 72
    25
 73
    21
 74
    19
 42
0.0000000001
 43
0.0000000001
 44
0.000001
 12
0.5909511587252205
 22
-0.8067073372675615
 32
0.0
 13
-0.0272811889574892
 23
-0.999627799097777
 33
0.0
 40
0.0
 40
0.0
 40
0.0
 40
0.0
 40
0.0007432967824129
 40
0.0027267298551587
 40
0.00613602185663
 40
0.0109132863929191
 40
0.0168508832889015
 40
0.0240117930148014
 40
0.0326017377538632
 40
0.042370659891234
 40
0.0530746293406286
 40
0.0647804937318611
 40
0.0777879482733547
 40
0.0916776871623132
 40
0.1059782794806514
 40
0.1209249749249342
 40
0.1368751325740174
 40
0.1532846513560146
 40
0.1762473269125235
 40
0.1998634023454698
 40
0.1998634023454698
 40
0.1998634023454698
 40
0.1998634023454698
 10
38.94492514467447
 20
31.86620827278688
 30
0.0
 10
38.94507156203942
 20
31.86600839846416
 30
0.0
 10
38.94555955941726
 20
31.86521620151575
 30
0.0
 10
38.94543520728774
 20
31.86307985925341
 30
0.0
 10
38.94561265259478
 20
31.85974316125568
 30
0.0
 10
38.94549771870209
 20
31.85501166455629
 30
0.0
 10
38.9454248917127
 20
31.84906278805238
 30
0.0
 10
38.94529780752674
 20
31.84183109779991
 30
0.0
 10
38.94518931212522
 20
31.83332631368546
 30
0.0
 10
38.94510196384234
 20
31.82363869248238
 30
0.0
 10
38.94505900294433
 20
31.81291260045443
 30
0.0
 10
38.94506087040699
 20
31.80110677165445
 30
0.0
 10
38.94511336697954
 20
31.78823917857585
 30
0.0
 10
38.94520476378394
 20
31.77450687638148
 30
0.0
 10
38.94532208999244
 20
31.76012834518642
 30
0.0
 10
38.94544081764546
 20
31.74506300061386
 30
0.0
 10
38.94553652023205
 20
31.72929446608353
 30
0.0
 10
38.94557071750476
 20
31.71085368506574
 30
0.0
 10
38.94546180505691
 20
31.68985735406278
 30
0.0
 10
38.94513990287992
 20
31.67433371511898
 30
0.0
 10
38.94492514467447
 20
31.66646461994953
 30
0.0
 11
38.94492514467447
 21
31.86620827278688
 31
0.0
 11
38.94529641415033
 21
31.86556426545229
 31
0.0
 11
38.94549068836375
 21
31.8635905607618
 31
0.0
 11
38.94555151761711
 21
31.86018184578581
 31
0.0
 11
38.94551486945352
 21
31.8554047373396
 31
0.0
 11
38.94542412101066
 21
31.84946784222871
 31
0.0
 11
38.94531046582154
 21
31.84230783949641
 31
0.0
 11
38.94519838042266
 21
31.8337186292971
 31
0.0
 11
38.9451116083136
 21
31.82395009468155
 31
0.0
 11
38.94506648319066
 21
31.81324622178386
 31
0.0
 11
38.94506709657219
 21
31.80154035844339
 31
0.0
 11
38.94511661462968
 21
31.7885329989407
 31
0.0
 11
38.94520632991953
 21
31.77464355041161
 31
0.0
 11
38.94531872884272
 21
31.76034340028406
 31
0.0
 11
38.94543286182716
 21
31.74539714097909
 31
0.0
 11
38.94552359198383
 21
31.72944724159925
 31
0.0
 11
38.94554965976931
 21
31.71303774340908
 31
0.0
 11
38.94540332196016
 21
31.69007553183695
 31
0.0
 11
38.94492514467447
 21
31.66646461994953
 31
0.0
  0
SPLINE
  5
169
330
2
100
AcDbEntity
  8
GAIKEI
  6
Continuous
 62
     1
100
AcDbSpline
210
0.0
220
0.0
230
1.0
 70
     8
 71
     3
 72
    25
 73
    21
 74
    19
 42
0.0000000001
 43
0.0000000001
 44
0.000001
 12
0.0281905901065335
 22
-0.9996025663379647
 32
0.0
 13
-0.4008655609207862
 23
-0.9161368904632448
 33
0.0
 40
0.0
 40
0.0
 40
0.0
 40
0.0
 40
0.0162962299869762
 40
0.0324852217692415
 40
0.0489094868862328
 40
0.0649892448307301
 40
0.0802035379895592
 40
0.0948820072443146
 40
0.1093099214539837
 40
0.1229669967138563
 40
0.1355617963262418
 40
0.147231189594259
 40
0.1581833294875882
 40
0.1679926915507556
 40
0.1763846741143672
 40
0.1835629613920773
 40
0.1896245610412927
 40
0.1943008486346091
 40
0.198387709231251
 40
0.199837722078124
 40
0.199837722078124
 40
0.199837722078124
 40
0.199837722078124
 10
38.94492514467447
 20
1.764306245607201
 30
0.0
 10
38.94507827812109
 20
1.758876327834997
 30
0.0
 10
38.94532856465583
 20
1.74805053052205
 30
0.0
 10
38.94551397123819
 20
1.731748155091409
 30
0.0
 10
38.94556883112506
 20
1.715517121490677
 30
0.0
 10
38.94552645581581
 20
1.699611009278271
 30
0.0
 10
38.94543089925156
 20
1.684287119662513
 30
0.0
 10
38.94531197127483
 20
1.669514037998652
 30
0.0
 10
38.94519807707414
 20
1.655260006365125
 30
0.0
 10
38.94510804944713
 20
1.641700367904206
 30
0.0
 10
38.9450609047742
 20
1.629059999380572
 30
0.0
 10
38.94505865300177
 20
1.617321230203316
 30
0.0
 10
38.94510759855439
 20
1.606510858585721
 30
0.0
 10
38.94519333682043
 20
1.596793836941799
 30
0.0
 10
38.94531504543605
 20
1.588333388722034
 30
0.0
 10
38.94541324491024
 20
1.581127659304698
 30
0.0
 10
38.94556604977714
 20
1.575145193327841
 30
0.0
 10
38.94546158409217
 20
1.570234003295922
 30
0.0
 10
38.94577106765414
 20
1.56675506936294
 30
0.0
 10
38.94511889807887
 20
1.56500539618996
 30
0.0
 10
38.94492514467447
 20
1.564562592769732
 30
0.0
 11
38.94492514467447
 21
1.764306245607201
 31
0.0
 11
38.94529641415033
 21
1.748014460640604
 31
0.0
 11
38.94549068836375
 21
1.731826633102002
 31
0.0
 11
38.94555151761722
 21
1.715402480805778
 31
0.0
 11
38.94551486945352
 21
1.699322765117585
 31
0.0
 11
38.94542412101078
 21
1.684108743170156
 31
0.0
 11
38.94531046582165
 21
1.669430714513453
 31
0.0
 11
38.94519838042277
 21
1.65500323631096
 31
0.0
 11
38.9451116083136
 21
1.641346437384243
 31
0.0
 11
38.94506648319066
 21
1.628751719396859
 31
0.0
 11
38.94506709657219
 21
1.617082327133744
 31
0.0
 11
38.94511661462968
 21
1.606130300593292
 31
0.0
 11
38.94520632991953
 21
1.596321350848654
 31
0.0
 11
38.94531872884272
 21
1.587930124109391
 31
0.0
 11
38.94543286182716
 21
1.580752749144778
 31
0.0
 11
38.94552359198383
 21
1.574691837323371
 31
0.0
 11
38.94554965976931
 21
1.570015639648488
 31
0.0
 11
38.94540332196016
 21
1.565931545400417
 31
0.0
 11
38.94492514467447
 21
1.564562592769732
 31
0.0
  0
SPLINE
  5
16A
330
2
100
AcDbEntity
  8
GAIKEI
  6
Continuous
 62
     1
100
AcDbSpline
210
0.0
220
0.0
230
1.0
 70
     8
 71
     3
 72
    30
 73
    26
 74
     0
 42
0.0000000001
 43
0.0000000001
 40
0.256854181831742
 40
0.256854181831742
 40
0.256854181831742
 40
0.256854181831742
 40
0.3030489831524179
 40
0.3240910055785475
 40
0.345906034337955
 40
0.3684937187094058
 40
0.3918536980679295
 40
0.4159856031357031
 40
0.4408890570347025
 40
0.466563676236536
 40
0.4927882784883748
 40
0.5217307213297099
 40
0.5534044539066166
 40
0.5878238395940912
 40
0.6250042657959281
 40
0.6715302177737608
 40
0.7217836999859159
 40
0.7669496736025986
 40
0.8014271103592763
 40
0.8251396620111714
 40
0.8457402503410477
 40
0.8893619991088861
 40
1.01487324770404
 40
1.134357471453109
 40
1.248407897277932
 40
1.248407897277932
 40
1.248407897277932
 40
1.248407897277932
 10
43.13462239731052
 20
6.60587934921557
 30
0.0
 10
43.13205816863143
 20
6.598619688771577
 30
0.0
 10
43.12837604238819
 20
6.588035536555651
 30
0.0
 10
43.12357205299309
 20
6.573992536522041
 30
0.0
 10
43.12007447269428
 20
6.563661029790807
 30
0.0
 10
43.11648512805215
 20
6.552952787736046
 30
0.0
 10
43.11280501716123
 20
6.346115009875973
 30
0.0
 10
43.10903500293313
 20
6.33465320187912
 30
0.0
 10
43.10517592655225
 20
6.322814629834454
 30
0.0
 10
43.10124021427145
 20
6.310634236830082
 30
0.0
 10
43.09712854989271
 20
6.297803315375119
 30
0.0
 10
43.0927183652231
 20
6.284018128682475
 30
0.0
 10
43.08787837159485
 20
6.268936459778956
 30
0.0
 10
43.08258567007675
 20
6.252558119368359
 30
0.0
 10
43.07647405585322
 20
6.23384312501804
 30
0.0
 10
43.06946315532821
 20
6.212645575981923
 30
0.0
 10
43.06179767384134
 20
6.190263803616687
 30
0.0
 10
43.0545863660729
 20
6.169850283397863
 30
0.0
 10
43.04870465096064
 20
6.153659414192247
 30
0.0
 10
43.04414886117479
 20
6.141343077859971
 30
0.0
 10
43.03890698439483
 20
6.127656389729793
 30
0.0
 10
43.02714270827681
 20
6.098302554890835
 30
0.0
 10
43.00754363590709
 20
6.054338256388859
 30
0.0
 10
42.97967322813792
 20
6.001329246425996
 30
0.0
 10
42.95898423638976
 20
5.96831210278799
 30
0.0
 10
42.94834166316479
 20
5.952562338683719
 30
0.0
  0
SPLINE
  5
16B
330
2
100
AcDbEntity
  8
GAIKEI
  6
Continuous
 62
     1
100
AcDbSpline
210
0.0
220
0.0
230
1.0
 70
     8
 71
     3
 72
    28
 73
    24
 74
    22
 42
0.0000000001
 43
0.0000000001
 44
0.000001
 12
0.7217480328339719
 22
0.6921558907502644
 32
0.0
 13
0.9952109123015889
 23
0.097750908107491
 33
0.0
 40
0.0
 40
0.0
 40
0.0
 40
0.0
 40
0.012836293808838
 40
0.023641948312258
 40
0.0322393231767322
 40
0.0406586550764645
 40
0.0494682927973049
 40
0.0650086881395549
 40
0.0812452085397
 40
0.0969842100843736
 40
0.1084332339619296
 40
0.1194845735025495
 40
0.1244284719691723
 40
0.1287900634212257
 40
0.1325757451840387
 40
0.1357853974312541
 40
0.1371717324530552
 40
0.1396412914417354
 40
0.142547345505269
 40
0.1481162818960561
 40
0.1537856556269113
 40
0.1600382057310414
 40
0.1666011957495944
 40
0.1666011957495944
 40
0.1666011957495944
 40
0.1666011957495944
 10
41.50082210251276
 20
2.59106105729387
 30
0.0
 10
41.50391029244789
 20
2.59402262941893
 30
0.0
 10
41.50973636178297
 20
2.599334425523807
 30
0.0
 10
41.51797834067605
 20
2.606235757455365
 30
0.0
 10
41.52535094715052
 20
2.611865821352225
 30
0.0
 10
41.53237230966005
 20
2.616849717328136
 30
0.0
 10
41.5414929230741
 20
2.622864014528076
 30
0.0
 10
41.55314581011663
 20
2.629756032280994
 30
0.0
 10
41.56727360501984
 20
2.636938579168798
 30
0.0
 10
41.58055108839414
 20
2.642724758022083
 30
0.0
 10
41.59247921354662
 20
2.647226315049181
 30
0.0
 10
41.60115531678324
 20
2.650136443386799
 30
0.0
 10
41.60766348198674
 20
2.652059383890588
 30
0.0
 10
41.61187955181732
 20
2.653186776385766
 30
0.0
 10
41.61555961506998
 20
2.654076051429825
 30
0.0
 10
41.61829002101661
 20
2.654669442746381
 30
0.0
 10
41.62059975958182
 20
2.65513015176738
 30
0.0
 10
41.62281764993872
 20
2.655532464102549
 30
0.0
 10
41.62641209601196
 20
2.656156346275793
 30
0.0
 10
41.63106771461037
 20
2.656902483052036
 30
0.0
 10
41.63683826165512
 20
2.65773645895581
 30
0.0
 10
41.64295055177025
 20
2.658517237584035
 30
0.0
 10
41.64719787885397
 20
2.658977418273124
 30
0.0
 10
41.6493750652819
 20
2.659191264351193
 30
0.0
 11
41.50082210251276
 21
2.59106105729387
 31
0.0
 11
41.51030053786326
 21
2.59971757892606
 31
0.0
 11
41.51859858310785
 21
2.606638883047537
 31
0.0
 11
41.52542755429863
 21
2.611861995135029
 31
0.0
 11
41.53229236784841
 21
2.616736459794594
 31
0.0
 11
41.53964720781163
 21
2.621585882787314
 31
0.0
 11
41.55302330175743
 21
2.629497046846211
 31
0.0
 11
41.56749083546287
 21
2.636867066598426
 31
0.0
 11
41.58191883633344
 21
2.643155900090789
 31
0.0
 11
41.59262753616679
 21
2.647206048514703
 31
0.0
 11
41.60311312893179
 21
2.650696649640394
 31
0.0
 11
41.60785560704607
 21
2.652093451994176
 31
0.0
 11
41.61206944643891
 21
2.653219100691046
 31
0.0
 11
41.61574959607651
 21
2.654106757424017
 31
0.0
 11
41.61888634810111
 21
2.654786974625437
 31
0.0
 11
41.62024600402958
 21
2.655057655955715
 31
0.0
 11
41.6226747780081
 21
2.655504648339388
 31
0.0
 11
41.62553808397285
 21
2.656001297192119
 31
0.0
 11
41.63103660063893
 21
2.656884176169171
 31
0.0
 11
41.63664770738671
 21
2.657694967347367
 31
0.0
 11
41.64285005249519
 21
2.658485800862251
 31
0.0
 11
41.6493750652819
 21
2.659191264351193
 31
0.0
  0
SPLINE
  5
16C
330
2
100
AcDbEntity
  8
GAIKEI
  6
Continuous
 62
     1
100
AcDbSpline
210
0.0
220
0.0
230
1.0
 70
     8
 71
     3
 72
    29
 73
    25
 74
    23
 42
0.0000000001
 43
0.0000000001
 44
0.000001
 12
-0.7526510322232211
 22
0.6584196410294274
 32
0.0
 13
-0.2875771477137425
 23
0.9577574766676731
 33
0.0
 40
0.0
 40
0.0
 40
0.0
 40
0.0
 40
0.0009268136212599
 40
0.0037856874541923
 40
0.0086274488929548
 40
0.0155313411765295
 40
0.0244082483448172
 40
0.035230004907842
 40
0.0479521168105378
 40
0.0625647547588319
 40
0.0790486429128433
 40
0.0971122281118402
 40
0.1168173563900773
 40
0.1381183995708255
 40
0.1654645069305471
 40
0.194551323568338
 40
0.2253128177557744
 40
0.2575730434400128
 40
0.2910030843208288
 40
0.3250114719193808
 40
0.3599154155390493
 40
0.3956769625130938
 40
0.4321733121892507
 40
0.4691787508434128
 40
0.4691787508434128
 40
0.4691787508434128
 40
0.4691787508434128
 10
42.73434853851973
 20
6.270009702368326
 30
0.0
 10
42.73411601611015
 20
6.270213113132257
 30
0.0
 10
42.73320402041817
 20
6.271108685633663
 30
0.0
 10
42.7323032845188
 20
6.273933439185299
 30
0.0
 10
42.73038165302864
 20
6.278357358661793
 30
0.0
 10
42.72809896191384
 20
6.284867745391906
 30
0.0
 10
42.72514879534418
 20
6.293219945021718
 30
0.0
 10
42.72168526371411
 20
6.30346076483191
 30
0.0
 10
42.71766880024142
 20
6.315527497736724
 30
0.0
 10
42.71312547389186
 20
6.329409615496189
 30
0.0
 10
42.70808335692092
 20
6.345001201832758
 30
0.0
 10
42.70256987108012
 20
6.362224502473083
 30
0.0
 10
42.69661192024988
 20
6.380991384054055
 30
0.0
 10
42.68976237986999
 20
6.402721535789638
 30
0.0
 10
42.68202121204708
 20
6.427449491085766
 30
0.0
 10
42.67338812378852
 20
6.455202572784273
 30
0.0
 10
42.66431489722022
 20
6.484534159436336
 30
0.0
 10
42.65485715064812
 20
6.515262190390544
 30
0.0
 10
42.64512153650215
 20
6.547037070272125
 30
0.0
 10
42.63516566852158
 20
6.579666116009065
 30
0.0
 10
42.62501873550116
 20
6.613049382799061
 30
0.0
 10
42.61466534557976
 20
6.647236660310866
 30
0.0
 10
42.60414207057576
 20
6.68210438860504
 30
0.0
 10
42.59708642350263
 20
6.705567066669232
 30
0.0
 10
42.5935391173366
 20
6.717381145185356
 30
0.0
 11
42.73434853851973
 21
6.270009702368326
 31
0.0
 11
42.7337011215742
 21
6.270672965863184
 31
0.0
 11
42.73248225437669
 21
6.273258820374223
 31
0.0
 11
42.73069548155262
 21
6.277758804021516
 31
0.0
 11
42.7283175368002
 21
6.284240233888169
 31
0.0
 11
42.72538156405005
 21
6.292617549104932
 31
0.0
 11
42.72189690017728
 21
6.302862910172109
 31
0.0
 11
42.71787797068293
 21
6.314933545845576
 31
0.0
 11
42.71332800770517
 21
6.328819760107023
 31
0.0
 11
42.7082535912491
 21
6.344503152544291
 31
0.0
 11
42.7027441166233
 21
6.361706022694477
 31
0.0
 11
42.69677990643924
 21
6.380486870019751
 31
0.0
 11
42.69037480149381
 21
6.400802111242683
 31
0.0
 11
42.68220302067516
 21
6.426898692039856
 31
0.0
 11
42.67356188578697
 21
6.454672306157306
 31
0.0
 11
42.66447010449076
 21
6.484059531185664
 31
0.0
 11
42.65497912781097
 21
6.514892038145717
 31
0.0
 11
42.64518498169286
 21
6.546855177891018
 31
0.0
 11
42.63525935104655
 21
6.579382893075489
 31
0.0
 11
42.62510828838322
 21
6.612778120005998
 31
0.0
 11
42.61474254004826
 21
6.64700441808543
 31
0.0
 11
42.60419770131806
 21
6.68194422193244
 31
0.0
 11
42.5935391173366
 21
6.717381145185356
 31
0.0
  0
SPLINE
  5
16D
330
2
100
AcDbEntity
  8
GAIKEI
  6
Continuous
 62
     1
100
AcDbSpline
210
0.0
220
0.0
230
1.0
 70
     8
 71
     3
 72
    11
 73
     7
 74
     5
 42
0.0000000001
 43
0.0000000001
 44
0.000001
 12
0.1117045080192779
 22
-0.9937414668253364
 32
0.0
 13
0.1717596663978053
 23
-0.9851388820866398
 33
0.0
 40
0.0
 40
0.0
 40
0.0
 40
0.0
 40
0.0002398629335755
 40
0.0139454933406226
 40
0.0259284375106715
 40
0.0335344213696631
 40
0.0335344213696631
 40
0.0335344213696631
 40
0.0335344213696631
 10
41.04456413995706
 20
25.05436639414603
 30
0.0
 10
41.04457307121406
 20
25.05428694023155
 30
0.0
 10
41.04509234787871
 20
25.04966753637517
 30
0.0
 10
41.04609554655937
 20
25.04108326019196
 30
0.0
 10
41.04753079355396
 20
25.03007669083018
 30
0.0
 10
41.04858866089831
 20
25.02363246963982
 30
0.0
 10
41.04902412798174
 20
25.02113481949448
 30
0.0
 11
41.04456413995706
 21
25.05436639414603
 31
0.0
 11
41.04459095536163
 21
25.05412803604742
 31
0.0
 11
41.04619545284708
 21
25.04051681805646
 31
0.0
 11
41.04779834342752
 21
25.02864148771886
 31
0.0
 11
41.04902412798174
 21
25.02113481949448
 31
0.0
  0
SPLINE
  5
16E
330
2
100
AcDbEntity
  8
GAIKEI
  6
Continuous
 62
     1
100
AcDbSpline
210
0.0
220
0.0
230
1.0
 70
     8
 71
     3
 72
    15
 73
    11
 74
     9
 42
0.0000000001
 43
0.0000000001
 44
0.000001
 12
0.9994496190759601
 22
0.0331731657958403
 32
0.0
 13
0.134530790036436
 23
0.9909094138881577
 33
0.0
 40
0.0
 40
0.0
 40
0.0
 40
0.0
 40
0.0349733184911274
 40
0.0699030407195616
 40
0.1048022374589338
 40
0.1396858361956347
 40
0.1745694349323189
 40
0.2094686316716487
 40
0.2443983539000361
 40
0.2793716723909996
 40
0.2793716723909996
 40
0.2793716723909996
 40
0.2793716723909996
 10
42.14671234042509
 20
24.97424132574804
 30
0.0
 10
42.15836369703969
 20
24.97462805097895
 30
0.0
 10
42.18163944428712
 20
24.97740299727525
 30
0.0
 10
42.21522809221769
 20
24.98761791144784
 30
0.0
 10
42.24649987718879
 20
25.00352647168919
 30
0.0
 10
42.27449012012266
 20
25.02465421680924
 30
0.0
 10
42.29835196109057
 20
25.05035339693181
 30
0.0
 10
42.31735497273634
 20
25.07984733482793
 30
0.0
 10
42.33092915126621
 20
25.11222454005923
 30
0.0
 10
42.33605421249404
 20
25.13509798501802
 30
0.0
 10
42.33762254188298
 20
25.14664978186056
 30
0.0
 11
42.14671234042509
 21
24.97424132574804
 31
0.0
 11
42.18143625555455
 21
24.97841478739633
 31
0.0
 11
42.21485669733579
 21
24.98857161140745
 31
0.0
 11
42.24596026768302
 21
25.00439956303302
 31
0.0
 11
42.27380282589751
 21
25.02541526694529
 31
0.0
 11
42.29753820269024
 21
25.05097890806627
 31
0.0
 11
42.31644393461396
 21
25.08031369017613
 31
0.0
 11
42.32994323624552
 21
25.1125294605115
 31
0.0
 11
42.33762254188298
 21
25.14664978186056
 31
0.0
  0
SPLINE
  5
16F
330
2
100
AcDbEntity
  8
GAIKEI
  6
Continuous
 62
     1
100
AcDbSpline
210
0.0
220
0.0
230
1.0
 70
     8
 71
     3
 72
    13
 73
     9
 74
     7
 42
0.0000000001
 43
0.0000000001
 44
0.000001
 12
-0.999877353382941
 22
0.0156613598364006
 32
0.0
 13
-0.9488110788832816
 23
-0.3158441650376698
 33
0.0
 40
0.0
 40
0.0
 40
0.0
 40
0.0
 40
0.0052785610370456
 40
0.0104045357744839
 40
0.0154026108476515
 40
0.020298974373814
 40
0.0298973481511527
 40
0.0345615655985498
 40
0.0345615655985498
 40
0.0345615655985498
 40
0.0345615655985498
 10
41.15091093061517
 20
30.11970515085398
 30
0.0
 10
41.1491516260687
 20
30.11973270733525
 30
0.0
 10
41.14568247726018
 20
30.11971846626732
 30
0.0
 10
41.14055148406487
 20
30.11950491253006
 30
0.0
 10
41.13556076477562
 20
30.11908032980489
 30
0.0
 10
41.12911813298407
 20
30.11822408929541
 30
0.0
 10
41.12285577182975
 20
30.11689753229
 30
0.0
 10
41.1183039224191
 20
30.11551746786454
 30
0.0
 10
41.11682876868963
 20
30.11502641257613
 30
0.0
 11
41.15091093061517
 21
30.11970515085398
 31
0.0
 11
41.14563333681815
 21
30.1196844205723
 31
0.0
 11
41.14051198687002
 21
30.1194662513671
 31
0.0
 11
41.13553208179758
 21
30.1190386386902
 31
0.0
 11
41.13067882262782
 21
30.11838957799324
 31
0.0
 11
41.12129304610357
 21
30.11637909434524
 31
0.0
 11
41.11682876868963
 21
30.11502641257613
 31
0.0
  0
SPLINE
  5
170
330
2
100
AcDbEntity
  8
GAIKEI
  6
Continuous
 62
     1
100
AcDbSpline
210
0.0
220
0.0
230
1.0
 70
     8
 71
     3
 72
    27
 73
    23
 74
    21
 42
0.0000000001
 43
0.0000000001
 44
0.000001
 12
0.076512265488583
 22
0.9970686401797044
 32
0.0
 13
0.9552657900996008
 23
0.2957486606316
 33
0.0
 40
0.0
 40
0.0
 40
0.0
 40
0.0
 40
0.0073621065757002
 40
0.01079232420715
 40
0.0140307086205363
 40
0.0210326905144362
 40
0.025329447132356
 40
0.030158468561743
 40
0.0374058689576682
 40
0.0455384591465291
 40
0.0544700544554279
 40
0.0674030077538306
 40
0.0789312812237215
 40
0.0880812945348212
 40
0.0961622630154013
 40
0.1034392482983017
 40
0.1102594694563154
 40
0.1166721736016241
 40
0.1226379202587764
 40
0.1284009097425312
 40
0.1339895635089698
 40
0.1394405456631981
 40
0.1394405456631981
 40
0.1394405456631981
 40
0.1394405456631981
 10
41.0438499084721
 20
30.005614116473
 30
0.0
 10
41.04403767228973
 20
30.0080609583371
 30
0.0
 10
41.04429317356289
 20
30.01165021780999
 30
0.0
 10
41.04446271458622
 20
30.0163243437066
 30
0.0
 10
41.04483267946946
 20
30.02086883602007
 30
0.0
 10
41.04568539289945
 20
30.02564828683083
 30
0.0
 10
41.0468844397778
 20
30.03088877517904
 30
0.0
 10
41.04833728384558
 20
30.03615184839681
 30
0.0
 10
41.05046706223689
 20
30.04254679618566
 30
0.0
 10
41.05350753225673
 20
30.05006564827515
 30
0.0
 10
41.05789527795448
 20
30.05905749839991
 30
0.0
 10
41.06340536174838
 20
30.0687404141395
 30
0.0
 10
41.0696210232308
 20
30.07807304333085
 30
0.0
 10
41.07547018134844
 20
30.08567678696631
 30
0.0
 10
41.08086295399414
 20
30.09182010210276
 30
0.0
 10
41.08607630986985
 20
30.09706910390733
 30
0.0
 10
41.09123319522424
 20
30.10156690036474
 30
0.0
 10
41.09633848294061
 20
30.1054324194767
 30
0.0
 10
41.1014082859518
 20
30.10874382951281
 30
0.0
 10
41.10657295845216
 20
30.11135132217132
 30
0.0
 10
41.11180419429524
 20
30.11336356987742
 30
0.0
 10
41.11528735652311
 20
30.11455367517945
 30
0.0
 10
41.11702306878123
 20
30.11509104873653
 30
0.0
 11
41.0438499084721
 21
30.005614116473
 31
0.0
 11
41.04432704919804
 21
30.01296062895494
 31
0.0
 11
41.04449046366084
 21
30.01638696025486
 31
0.0
 11
41.04476218333855
 21
30.01961391560622
 31
0.0
 11
41.04591116285473
 21
30.02652090240218
 31
0.0
 11
41.04687299572765
 21
30.03070854551959
 31
0.0
 11
41.04815390860835
 21
30.03536448032003
 31
0.0
 11
41.05044012597955
 21
30.04224165896528
 31
0.0
 11
41.05348918912307
 21
30.04978088491555
 31
0.0
 11
41.05737802538874
 21
30.05782140953045
 31
0.0
 11
41.06377326506492
 21
30.06906258674985
 31
0.0
 11
41.07017939361367
 21
30.07864710782809
 31
0.0
 11
41.07576846070151
 21
30.0858917417076
 31
0.0
 11
41.08110358947658
 21
30.09196115325551
 31
0.0
 11
41.08624486832297
 21
30.09711098267502
 31
0.0
 11
41.09138608491969
 21
30.10159228043529
 31
0.0
 11
41.09650149553362
 21
30.10545935896869
 31
0.0
 11
41.10152093745364
 21
30.10868401383306
 31
0.0
 11
41.10666243216178
 21
30.11128796147727
 31
0.0
 11
41.11185803999115
 21
30.11334677452402
 31
0.0
 11
41.11702306878123
 21
30.11509104873653
 31
0.0
  0
SPLINE
  5
171
330
2
100
AcDbEntity
  8
GAIKEI
  6
Continuous
 62
     1
100
AcDbSpline
210
0.0
220
0.0
230
1.0
 70
     8
 71
     3
 72
     9
 73
     5
 74
     3
 42
0.0000000001
 43
0.0000000001
 44
0.000001
 12
-0.1110702931717985
 22
-0.9938125527355401
 32
0.0
 13
-0.0037416002969241
 23
-0.9999930001891105
 33
0.0
 40
0.0
 40
0.0
 40
0.0
 40
0.0
 40
0.002222918885187
 40
0.0155319012632193
 40
0.0155319012632193
 40
0.0155319012632193
 40
0.0155319012632193
 10
41.04387735851526
 20
30.00586239429038
 30
0.0
 10
41.04379505843117
 20
30.00512600605977
 30
0.0
 10
41.04325983194212
 20
29.99997659428743
 30
0.0
 10
41.0430020624686
 20
29.99479517963428
 30
0.0
 10
41.04298546350446
 20
29.9903588832284
 30
0.0
 11
41.04387735851526
 21
30.00586239429038
 31
0.0
 11
41.04364749827005
 21
30.00365163069398
 31
0.0
 11
41.04298546350446
 21
29.9903588832284
 31
0.0
  0
SPLINE
  5
172
330
2
100
AcDbEntity
  8
GAIKEI
  6
Continuous
 62
     1
100
AcDbSpline
210
0.0
220
0.0
230
1.0
 70
     8
 71
     3
 72
     9
 73
     5
 74
     3
 42
0.0000000001
 43
0.0000000001
 44
0.000001
 12
0.0037801567420873
 22
-0.9999928551819785
 32
0.0
 13
0.1113488517851972
 23
-0.9937813809918749
 33
0.0
 40
0.0
 40
0.0
 40
0.0
 40
0.0
 40
0.0133898081262012
 40
0.0155559019681257
 40
0.0155559019681257
 40
0.0155559019681257
 40
0.0155559019681257
 10
41.04298546350446
 20
25.06881344188207
 30
0.0
 10
41.04300233536228
 20
25.06435020439592
 30
0.0
 10
41.04326231469094
 20
25.05916071526782
 30
0.0
 10
41.04380080249223
 20
25.05400360671267
 30
0.0
 10
41.04388119984628
 20
25.05328606546948
 30
0.0
 11
41.04298546350446
 21
25.06881344188207
 31
0.0
 11
41.04365619932218
 21
25.05544020957297
 31
0.0
 11
41.04388119984628
 21
25.05328606546948
 31
0.0
  0
SPLINE
  5
173
330
2
100
AcDbEntity
  8
GAIKEI
  6
Continuous
 62
     1
100
AcDbSpline
210
0.0
220
0.0
230
1.0
 70
     8
 71
     3
 72
    27
 73
    23
 74
    21
 42
0.0000000001
 43
0.0000000001
 44
0.000001
 12
-0.9535249561077124
 22
0.3013140522441414
 32
0.0
 13
-0.0768695003212578
 23
0.9970411626008027
 33
0.0
 40
0.0
 40
0.0
 40
0.0
 40
0.0
 40
0.008811496941082
 40
0.0186359334979069
 40
0.0296732346399734
 40
0.0418464722408069
 40
0.0537759291834432
 40
0.0650978191022681
 40
0.0697365342153631
 40
0.0747431338058696
 40
0.080256742013075
 40
0.0862854951947126
 40
0.0928344555395396
 40
0.0997209162279428
 40
0.1061521887748483
 40
0.1113156643485846
 40
0.1160274059134005
 40
0.1202767906794456
 40
0.1240877444184323
 40
0.1278344408627553
 40
0.1316179531714081
 40
0.1392388697101033
 40
0.1392388697101033
 40
0.1392388697101033
 40
0.1392388697101033
 10
41.11702451234168
 20
24.94408367793301
 30
0.0
 10
41.11422385159701
 20
24.94496868721623
 30
0.0
 10
41.10839872154602
 20
24.94716137878248
 30
0.0
 10
41.09954900871033
 20
24.95163644645473
 30
0.0
 10
41.09050856888662
 20
24.95799568612725
 30
0.0
 10
41.08193416013075
 20
24.96602220912782
 30
0.0
 10
41.07424495960123
 20
24.97500998409833
 30
0.0
 10
41.06890445346927
 20
24.98263605466444
 30
0.0
 10
41.06523271093267
 20
24.98858337698732
 30
0.0
 10
41.06266701997386
 20
24.99293701004764
 30
0.0
 10
41.05997859643331
 20
24.9977544434127
 30
0.0
 10
41.05716594105112
 20
25.00308957761928
 30
0.0
 10
41.05428301442121
 20
25.00890217555195
 30
0.0
 10
41.05147746043863
 20
25.01490322393603
 30
0.0
 10
41.04921969687191
 20
25.02063996241569
 30
0.0
 10
41.0475314310193
 20
25.02580944089748
 30
0.0
 10
41.04632683134645
 20
25.0303636998481
 30
0.0
 10
41.04547260863049
 20
25.03453655990349
 30
0.0
 10
41.04489178307057
 20
25.03843141791963
 30
0.0
 10
41.04456473082032
 20
25.04219952387048
 30
0.0
 10
41.04432608489088
 20
25.04724443009728
 30
0.0
 10
41.04404516042115
 20
25.05103603565031
 30
0.0
 10
41.0438498884057
 20
25.05356882481226
 30
0.0
 11
41.11702451234168
 21
24.94408367793301
 31
0.0
 11
41.10877413225728
 21
24.94718066527293
 31
0.0
 11
41.10002356981612
 21
24.95164690789892
 31
0.0
 11
41.09097450572619
 21
24.95796633996838
 31
0.0
 11
41.08204009685244
 21
24.96623440655838
 31
0.0
 11
41.07426953869435
 21
24.97528581360558
 31
0.0
 11
41.06775623984606
 21
24.98454649908211
 31
0.0
 11
41.06531033475085
 21
24.98848794129617
 31
0.0
 11
41.0627691719485
 21
24.99280168638359
 31
0.0
 11
41.06008079665833
 21
24.99761548014004
 31
0.0
 11
41.0572681126847
 21
25.00294794738363
 31
0.0
 11
41.0543548210926
 21
25.00881333449252
 31
0.0
 11
41.05148039570872
 21
25.01507120624547
 31
0.0
 11
41.04913038917061
 21
25.02105753211288
 31
0.0
 11
41.0475329665553
 21
25.02596752783075
 31
0.0
 11
41.04633199989507
 21
25.03052353882981
 31
0.0
 11
41.04548191707863
 21
25.03468696779487
 31
0.0
 11
41.04492674055495
 21
25.03845723596925
 31
0.0
 11
41.04458918964508
 21
25.0421886877499
 31
0.0
 11
41.04437438121886
 21
25.04596610846136
 31
0.0
 11
41.0438498884057
 21
25.05356882481226
 31
0.0
  0
SPLINE
  5
174
330
2
100
AcDbEntity
  8
GAIKEI
  6
Continuous
 62
     1
100
AcDbSpline
210
0.0
220
0.0
230
1.0
 70
     8
 71
     3
 72
    13
 73
     9
 74
     7
 42
0.0000000001
 43
0.0000000001
 44
0.000001
 12
0.9487139982427796
 22
-0.3161356505334367
 32
0.0
 13
0.9998801064241472
 23
0.0154845980650528
 33
0.0
 40
0.0
 40
0.0
 40
0.0
 40
0.0
 40
0.0048424962272411
 40
0.014472237053836
 40
0.0193739613949114
 40
0.0243619113375842
 40
0.0294558203124854
 40
0.0346737804275774
 40
0.0346737804275774
 40
0.0346737804275774
 40
0.0346737804275774
 10
41.11672095829862
 20
24.944184622938
 30
0.0
 10
41.11825233961769
 20
24.94367432770633
 30
0.0
 10
41.12287201410278
 20
24.94227623461001
 30
0.0
 10
41.12920653496037
 20
24.94094473283336
 30
0.0
 10
41.13565837891765
 20
24.94009098884144
 30
0.0
 10
41.14063686948412
 20
24.93966792359561
 30
0.0
 10
41.14573356815292
 20
24.93945458027993
 30
0.0
 10
41.1491718191101
 20
24.93944024158479
 30
0.0
 10
41.15091093061517
 20
24.93946717425649
 30
0.0
 11
41.11672095829862
 21
24.944184622938
 31
0.0
 11
41.12135667188693
 21
24.94278290737998
 31
0.0
 11
41.13077585821634
 21
24.94077848605491
 31
0.0
 11
41.13563484158328
 21
24.94013177961074
 31
0.0
 11
41.14060470487641
 21
24.93970579787936
 31
0.0
 11
41.14569391293923
 21
24.93948833228615
 31
0.0
 11
41.15091093061517
 21
24.93946717425649
 31
0.0
  0
SPLINE
  5
175
330
2
100
AcDbEntity
  8
GAIKEI
  6
Continuous
 62
     1
100
AcDbSpline
210
0.0
220
0.0
230
1.0
 70
     8
 71
     3
 72
    15
 73
    11
 74
     9
 42
0.0000000001
 43
0.0000000001
 44
0.000001
 12
-0.1345307900367005
 22
0.9909094138881219
 32
0.0
 13
-0.9994496190759491
 23
0.0331731657961701
 33
0.0
 40
0.0
 40
0.0
 40
0.0
 40
0.0
 40
0.0349733184911549
 40
0.069903040719691
 40
0.1048022374590209
 40
0.1396858361957407
 40
0.1745694349324759
 40
0.2094686316718721
 40
0.2443983539000722
 40
0.2793716723909738
 40
0.2793716723909738
 40
0.2793716723909738
 40
0.2793716723909738
 10
42.33762254188298
 20
29.91252254324991
 30
0.0
 10
42.33605421249403
 20
29.9240743400925
 30
0.0
 10
42.33092915126613
 20
29.94694778505141
 30
0.0
 10
42.31735497273612
 20
29.97932499028276
 30
0.0
 10
42.29835196109038
 20
30.00881892817896
 30
0.0
 10
42.27449012012226
 20
30.03451810830143
 30
0.0
 10
42.24649987718854
 20
30.05564585342162
 30
0.0
 10
42.21522809221727
 20
30.07155441366263
 30
0.0
 10
42.18163944428697
 20
30.08176932783533
 30
0.0
 10
42.15836369703962
 20
30.08454427413158
 30
0.0
 10
42.14671234042509
 20
30.08493099936249
 30
0.0
 11
42.33762254188298
 21
29.91252254324991
 31
0.0
 11
42.32994323624541
 21
29.94664286459914
 31
0.0
 11
42.31644393461374
 21
29.97885863493463
 31
0.0
 11
42.29753820269002
 21
30.00819341704448
 31
0.0
 11
42.27380282589717
 21
30.03375705816541
 31
0.0
 11
42.24596026768267
 21
30.05477276207773
 31
0.0
 11
42.21485669733533
 21
30.07060071370313
 31
0.0
 11
42.18143625555433
 21
30.08075753771419
 31
0.0
 11
42.14671234042509
 21
30.08493099936249
 31
0.0
  0
SPLINE
  5
176
330
2
100
AcDbEntity
  8
GAIKEI
  6
Continuous
 62
     1
100
AcDbSpline
210
0.0
220
0.0
230
1.0
 70
     8
 71
     3
 72
    21
 73
    17
 74
    15
 42
0.0000000001
 43
0.0000000001
 44
0.000001
 12
0.9780044826297622
 22
0.2085838727133314
 32
0.0
 13
0.1354487900196674
 23
0.9907843485250502
 33
0.0
 40
0.0
 40
0.0
 40
0.0
 40
0.0
 40
0.0298825149088525
 40
0.0592800929675749
 40
0.0882133650241669
 40
0.1166945203511631
 40
0.1447311819658486
 40
0.1723300561294163
 40
0.1994998961448565
 40
0.2262520633387355
 40
0.2612761840532123
 40
0.2955898591758201
 40
0.3292039337351373
 40
0.3621251518427404
 40
0.3943636570830451
 40
0.4259375939275614
 40
0.4259375939275614
 40
0.4259375939275614
 40
0.4259375939275614
 10
42.49599740087001
 20
24.61009767031408
 30
0.0
 10
42.50573914538104
 20
24.61217534054278
 30
0.0
 10
42.52489801674935
 20
24.617131017508
 30
0.0
 10
42.55265691837766
 20
24.62693110744263
 30
0.0
 10
42.57907667181604
 20
24.63881758143984
 30
0.0
 10
42.60403871514094
 20
24.65260114661312
 30
0.0
 10
42.62744211893077
 20
24.66809748455964
 30
0.0
 10
42.64919612748662
 20
24.6851328984717
 30
0.0
 10
42.66922405576514
 20
24.7035407711137
 30
0.0
 10
42.68942028441898
 20
24.7252864720699
 30
0.0
 10
42.70904130165139
 20
24.7506763270459
 30
0.0
 10
42.72724973702452
 20
24.77982851934567
 30
0.0
 10
42.74224472005778
 20
24.80997250303645
 30
0.0
 10
42.7540755452509
 20
24.84075013047208
 30
0.0
 10
42.76281196891878
 20
24.8718347705932
 30
0.0
 10
42.7666511078896
 20
24.89279183493259
 30
0.0
 10
42.76807665840351
 20
24.90321948908155
 30
0.0
 11
42.49599740087001
 21
24.61009767031408
 31
0.0
 11
42.52492720953955
 21
24.61758505704256
 31
0.0
 11
42.5526504440404
 21
24.62736462313813
 31
0.0
 11
42.57903691187891
 21
24.63923427404058
 31
0.0
 11
42.6039698343095
 21
24.65300111021043
 31
0.0
 11
42.62734545833689
 21
24.66848125699983
 31
0.0
 11
42.64907265784972
 21
24.68549969294116
 31
0.0
 11
42.66907252432065
 21
24.70389007555508
 31
0.0
 11
42.68727786296722
 21
24.72349223740974
 31
0.0
 11
42.7087035965551
 21
24.75119834031074
 31
0.0
 11
42.72688583426975
 21
24.78029877532714
 31
0.0
 11
42.74185753687709
 21
24.8103945319993
 31
0.0
 11
42.75366802292433
 21
24.84112430951734
 31
0.0
 11
42.76238167288238
 21
24.8721628938415
 31
0.0
 11
42.76807665840351
 21
24.90321948908155
 31
0.0
  0
SPLINE
  5
177
330
2
100
AcDbEntity
  8
GAIKEI
  6
Continuous
 62
     1
100
AcDbSpline
210
0.0
220
0.0
230
1.0
 70
     8
 71
     3
 72
    15
 73
    11
 74
     9
 42
0.0000000001
 43
0.0000000001
 44
0.000001
 12
0.9785263958185264
 22
0.2061215483310866
 32
0.0
 13
0.1327585762537782
 23
0.9911484048471599
 33
0.0
 40
0.0
 40
0.0
 40
0.0
 40
0.0
 40
0.0385954384161592
 40
0.0762592426229613
 40
0.1139106822114168
 40
0.1524704505865495
 40
0.1910192054029263
 40
0.2286666814559341
 40
0.2663346513536813
 40
0.3049428812072328
 40
0.3049428812072328
 40
0.3049428812072328
 40
0.3049428812072328
 10
42.47527613968975
 20
24.7067968891551
 30
0.0
 10
42.48786502477256
 20
24.70944867299671
 30
0.0
 10
42.51237573656178
 20
24.71661289573705
 30
0.0
 10
42.54692188537858
 20
24.73271917336423
 30
0.0
 10
42.57846009707731
 20
24.75413637929501
 30
0.0
 10
42.60650507523648
 20
24.78035245917306
 30
0.0
 10
42.63056872930579
 20
24.81026330961694
 30
0.0
 10
42.64958044816978
 20
24.84330357172776
 30
0.0
 10
42.66307324296188
 20
24.87895637717712
 30
0.0
 10
42.66839583286318
 20
24.90393759132395
 30
0.0
 10
42.67010435740553
 20
24.9166930864684
 30
0.0
 11
42.47527613968975
 21
24.7067968891551
 31
0.0
 11
42.51232153560795
 21
24.71762651274571
 31
0.0
 11
42.54643058999454
 21
24.73359945332925
 31
0.0
 11
42.57760330284964
 21
24.75471571090571
 31
0.0
 11
42.60583967417324
 21
24.78097528547505
 31
0.0
 11
42.62992522185277
 21
24.81107337669482
 31
0.0
 11
42.6486645182847
 21
24.84372570726691
 31
0.0
 11
42.66205756346903
 21
24.87893227719144
 31
0.0
 11
42.67010435740553
 21
24.9166930864684
 31
0.0
  0
SPLINE
  5
178
330
2
100
AcDbEntity
  8
GAIKEI
  6
Continuous
 62
     1
100
AcDbSpline
210
0.0
220
0.0
230
1.0
 70
     8
 71
     3
 72
     9
 73
     5
 74
     3
 42
0.0000000001
 43
0.0000000001
 44
0.000001
 12
0.1362218791743881
 22
0.990678353268203
 32
0.0
 13
0.0000205302016735
 23
0.9999999997892553
 33
0.0
 40
0.0
 40
0.0
 40
0.0
 40
0.0
 40
0.0954240186017895
 40
0.1908480372091483
 40
0.1908480372091483
 40
0.1908480372091483
 40
0.1908480372091483
 10
42.97204003286765
 20
27.11219678375704
 30
0.0
 10
42.97637297924508
 20
27.14370828696059
 30
0.0
 10
42.98289350702759
 20
27.20704532821315
 30
0.0
 10
42.98506295851885
 20
27.27068015796394
 30
0.0
 10
42.98506361154363
 20
27.30248816415969
 30
0.0
 11
42.97204003286765
 21
27.11219678375704
 31
0.0
 11
42.98180673562081
 21
27.20711970705537
 31
0.0
 11
42.98506361154363
 21
27.30248816415969
 31
0.0
  0
SPLINE
  5
179
330
2
100
AcDbEntity
  8
GAIKEI
  6
Continuous
 62
     1
100
AcDbSpline
210
0.0
220
0.0
230
1.0
 70
     8
 71
     3
 72
     9
 73
     5
 74
     3
 42
0.0000000001
 43
0.0000000001
 44
0.000001
 12
-0.0000205301984769
 22
0.9999999997892555
 32
0.0
 13
-0.1362218791775721
 23
0.9906783532677652
 33
0.0
 40
0.0
 40
0.0
 40
0.0
 40
0.0
 40
0.0954240186094608
 40
0.190848037209045
 40
0.190848037209045
 40
0.190848037209045
 40
0.190848037209045
 10
42.98506361154363
 20
27.75668416095084
 30
0.0
 10
42.98506295851895
 20
27.7884921671473
 30
0.0
 10
42.98289350702773
 20
27.85212699689808
 30
0.0
 10
42.97637297924508
 20
27.91546403815056
 30
0.0
 10
42.97204003286765
 20
27.94697554135337
 30
0.0
 11
42.98506361154363
 21
27.75668416095084
 31
0.0
 11
42.98180673562081
 21
27.85205261805726
 31
0.0
 11
42.97204003286765
 21
27.94697554135337
 31
0.0
  0
SPLINE
  5
17A
330
2
100
AcDbEntity
  8
GAIKEI
  6
Continuous
 62
     1
100
AcDbSpline
210
0.0
220
0.0
230
1.0
 70
     8
 71
     3
 72
    15
 73
    11
 74
     9
 42
0.0000000001
 43
0.0000000001
 44
0.000001
 12
-0.1327902774087838
 22
0.9911441581453722
 32
0.0
 13
-0.9785329879817497
 23
0.2060902506949535
 33
0.0
 40
0.0
 40
0.0
 40
0.0
 40
0.0
 40
0.0385954384155931
 40
0.0762592426221648
 40
0.113910682210892
 40
0.1524704505867089
 40
0.1910192054031866
 40
0.2286666814562371
 40
0.2663346513539419
 40
0.3049428812073585
 40
0.3049428812073585
 40
0.3049428812073585
 40
0.3049428812073585
 10
42.67010435740553
 20
30.14247923864207
 30
0.0
 10
42.6683959910809
 20
30.15523045308096
 30
0.0
 10
42.66307415359233
 20
30.18020602365745
 30
0.0
 10
42.64958122465259
 20
30.21585415748928
 30
0.0
 10
42.63056840755891
 20
30.24889758789858
 30
0.0
 10
42.60651025375703
 20
30.27881428691086
 30
0.0
 10
42.57847151696063
 20
30.30503541694624
 30
0.0
 10
42.54693638312782
 20
30.32645129210138
 30
0.0
 10
42.51238556565145
 20
30.34255778332147
 30
0.0
 10
42.48786928186279
 20
30.34972317603219
 30
0.0
 10
42.47527613968975
 20
30.35237543595531
 30
0.0
 11
42.67010435740553
 21
30.14247923864207
 31
0.0
 11
42.66205931238096
 21
30.18022734265219
 31
0.0
 11
42.64866685016727
 21
30.21542967748769
 31
0.0
 11
42.62992697076469
 21
30.24808624314881
 31
0.0
 11
42.60583967417324
 21
30.27819703963536
 31
0.0
 11
42.57761584289892
 21
30.30445392540469
 31
0.0
 11
42.54644731006033
 21
30.32556928671454
 31
0.0
 11
42.51233407565723
 21
30.34154312356475
 31
0.0
 11
42.47527613968975
 21
30.35237543595531
 31
0.0
  0
SPLINE
  5
17B
330
2
100
AcDbEntity
  8
GAIKEI
  6
Continuous
 62
     1
100
AcDbSpline
210
0.0
220
0.0
230
1.0
 70
     8
 71
     3
 72
    15
 73
    11
 74
     9
 42
0.0000000001
 43
0.0000000001
 44
0.000001
 12
-0.1364008987339492
 22
0.9906537209462097
 32
0.0
 13
-0.1677708966327061
 23
0.9858260121558256
 33
0.0
 40
0.0
 40
0.0
 40
0.0
 40
0.0
 40
0.0132149648800479
 40
0.0262813057249109
 40
0.0392030871300203
 40
0.051982033004629
 40
0.0646173308324763
 40
0.0770330552777339
 40
0.0890929972857488
 40
0.1007940929957572
 40
0.1007940929957572
 40
0.1007940929957572
 40
0.1007940929957572
 10
42.36101536224635
 20
29.76364267963709
 30
0.0
 10
42.36041451788422
 20
29.76800649768062
 30
0.0
 10
42.35917363376969
 20
29.776678799566
 30
0.0
 10
42.35718881888397
 20
29.78959509001028
 30
0.0
 10
42.35510593122123
 20
29.80234864394396
 30
0.0
 10
42.35294791362957
 20
29.81494387996422
 30
0.0
 10
42.35074782807956
 20
29.82736049918668
 30
0.0
 10
42.34855722556796
 20
29.83953530203914
 30
0.0
 10
42.34642517243459
 20
29.85140429247437
 30
0.0
 10
42.34507995132067
 20
29.85920963020925
 30
0.0
 10
42.34442558354771
 20
29.86305471171647
 30
0.0
 11
42.36101536224635
 21
29.76364267963709
 31
0.0
 11
42.35914491226481
 21
29.77672466879437
 31
0.0
 11
42.35716211757654
 21
29.78963969327072
 31
0.0
 11
42.35508257777371
 21
29.80239304434622
 31
0.0
 11
42.35292882132353
 21
29.814989185591
 31
0.0
 11
42.3507304842501
 21
29.82743177495115
 31
0.0
 11
42.34853779546085
 21
29.83965234443463
 31
0.0
 11
42.34641919474779
 21
29.85152477015816
 31
0.0
 11
42.34442558354771
 21
29.86305471171647
 31
0.0
  0
SPLINE
  5
17C
330
2
100
AcDbEntity
  8
GAIKEI
  6
Continuous
 62
     1
100
AcDbSpline
210
0.0
220
0.0
230
1.0
 70
     8
 71
     3
 72
    13
 73
     9
 74
     7
 42
0.0000000001
 43
0.0000000001
 44
0.000001
 12
-0.1032078770309288
 22
0.9946598082353427
 32
0.0
 13
-0.135947176317206
 23
0.9907160871063812
 33
0.0
 40
0.0
 40
0.0
 40
0.0
 40
0.0
 40
0.01600107777398
 40
0.032028881826234
 40
0.0485712842024411
 40
0.0658548155515402
 40
0.0833808232344127
 40
0.1010631356637666
 40
0.1010631356637666
 40
0.1010631356637666
 40
0.1010631356637666
 10
42.51561695827649
 20
28.6182488583305
 30
0.0
 10
42.5150664791874
 20
28.62355406798058
 30
0.0
 10
42.51398399392593
 20
28.63417544274546
 30
0.0
 10
42.51246495199024
 20
28.65029450071424
 30
0.0
 10
42.51085249960762
 20
28.66683405206217
 30
0.0
 10
42.50906457463037
 20
28.68385800638751
 30
0.0
 10
42.50703782508594
 20
28.70123797535102
 30
0.0
 10
42.50551982256794
 20
28.71287593420414
 30
0.0
 10
42.50471853575277
 20
28.71871531799781
 30
0.0
 11
42.51561695827649
 21
28.6182488583305
 31
0.0
 11
42.51400604429022
 21
28.63416834749285
 31
0.0
 11
42.51247361143282
 21
28.65012297030836
 31
0.0
 11
42.51085745872285
 21
28.66658624128934
 31
0.0
 11
42.50904145948971
 21
28.68377410600863
 31
0.0
 11
42.50700556338301
 21
28.70118146773746
 31
0.0
 11
42.50471853575277
 21
28.71871531799781
 31
0.0
  0
SPLINE
  5
17D
330
2
100
AcDbEntity
  8
GAIKEI
  6
Continuous
 62
     1
100
AcDbSpline
210
0.0
220
0.0
230
1.0
 70
     8
 71
     3
 72
    14
 73
    10
 74
     8
 42
0.0000000001
 43
0.0000000001
 44
0.000001
 12
0.1677588837034731
 22
0.9858280564776825
 32
0.0
 13
0.1366130456583842
 23
0.9906244877631182
 33
0.0
 40
0.0
 40
0.0
 40
0.0
 40
0.0
 40
0.0116707988865292
 40
0.0236390742539405
 40
0.0359005446620076
 40
0.0484549652869992
 40
0.0657534991372789
 40
0.0832124457340306
 40
0.1007939503193695
 40
0.1007939503193695
 40
0.1007939503193695
 40
0.1007939503193695
 10
42.34442558354771
 20
25.196117613394
 30
0.0
 10
42.34507821027875
 20
25.19995274705528
 30
0.0
 10
42.34641647341926
 20
25.20771802984511
 30
0.0
 10
42.34853190750976
 20
25.21949645813697
 30
0.0
 10
42.35070329301463
 20
25.23156403938593
 30
0.0
 10
42.35315408738046
 20
25.24538662474399
 30
0.0
 10
42.35580429139907
 20
25.26093323150803
 30
0.0
 10
42.35854159005646
 20
25.27816394792367
 30
0.0
 10
42.36021474128345
 20
25.28972408914873
 30
0.0
 10
42.36101536224635
 20
25.29552964547338
 30
0.0
 11
42.34442558354771
 21
25.196117613394
 31
0.0
 11
42.34641392978903
 21
25.2076177239797
 31
0.0
 11
42.34851623395707
 21
25.21939993935013
 31
0.0
 11
42.35068190938
 21
25.2314686383491
 31
0.0
 11
42.35286748849126
 21
25.24383135204778
 31
0.0
 11
42.35576429035325
 21
25.26088561294319
 31
0.0
 11
42.35849657680478
 21
25.2781294396957
 31
0.0
 11
42.36101536224635
 21
25.29552964547338
 31
0.0
  0
SPLINE
  5
17E
330
2
100
AcDbEntity
  8
GAIKEI
  6
Continuous
 62
     1
100
AcDbSpline
210
0.0
220
0.0
230
1.0
 70
     8
 71
     3
 72
    14
 73
    10
 74
     8
 42
0.0000000001
 43
0.0000000001
 44
0.000001
 12
0.1359523053525381
 22
0.9907153832808543
 32
0.0
 13
0.1044770653903519
 23
0.9945272961600503
 33
0.0
 40
0.0
 40
0.0
 40
0.0
 40
0.0
 40
0.0176161980931361
 40
0.0349715004290102
 40
0.0521274141722101
 40
0.0648004441618367
 40
0.0772495029101837
 40
0.0893372407698941
 40
0.1010631752749938
 40
0.1010631752749938
 40
0.1010631752749938
 40
0.1010631752749938
 10
42.51950373929935
 20
26.44796655861672
 30
0.0
 10
42.52030206021345
 20
26.4537841047653
 30
0.0
 10
42.52181016420365
 20
26.46534374207361
 30
0.0
 10
42.52382460658333
 20
26.48260282809591
 30
0.0
 10
42.52547099546712
 20
26.49824475468435
 30
0.0
 10
42.52685003230289
 20
26.512269822279
 30
0.0
 10
42.52802935247998
 20
26.52461689598577
 30
0.0
 10
42.52918111314151
 20
26.53664951736943
 30
0.0
 10
42.52999379808129
 20
26.54454576430457
 30
0.0
 10
42.5304021618233
 20
26.54843301828402
 30
0.0
 11
42.51950373929935
 21
26.44796655861672
 31
0.0
 11
42.52178266487658
 21
26.46543478780496
 31
0.0
 11
42.52380056453887
 21
26.48267238351269
 31
0.0
 11
42.5256059711022
 21
26.49973303674779
 31
0.0
 11
42.52685242507129
 21
26.51234461929801
 31
0.0
 11
42.52804222980944
 21
26.52473669000352
 31
0.0
 11
42.52920811614046
 21
26.53676809433893
 31
0.0
 11
42.5304021618233
 21
26.54843301828402
 31
0.0
  0
ARC
  5
17F
330
2
100
AcDbEntity
  8
GAIKEI
 62
     1
100
AcDbCircle
 10
41.16963615333043
 20
31.35576137494803
 30
0.0
 40
0.1500163686008653
100
AcDbArc
 50
294.6822153763272
 51
359.9992555506062
  0
LINE
  5
180
330
2
100
AcDbEntity
  8
GAIKEI
 62
     1
100
AcDbLine
 10
41.31965252191867
 20
31.35575944243948
 30
0.0
 11
41.31965252191867
 21
31.42879098080289
 31
0.0
  0
ARC
  5
181
330
2
100
AcDbEntity
  8
GAIKEI
 62
     1
100
AcDbCircle
 10
41.20513499294236
 20
31.43627519471841
 30
0.0
 40
0.0145231345477284
100
AcDbArc
 50
265.9875314113319
 51
357.4403055779344
  0
LINE
  5
182
330
2
100
AcDbEntity
  8
GAIKEI
 62
     1
100
AcDbLine
 10
41.21964363679859
 20
31.43562658810083
 30
0.0
 11
41.21964363679865
 21
31.46503775108568
 31
0.0
  0
ARC
  5
183
330
2
100
AcDbEntity
  8
GAIKEI
 62
     1
100
AcDbCircle
 10
41.23464496956671
 20
31.46503775108568
 30
0.0
 40
0.0150013327680068
100
AcDbArc
 50
88.00000000002242
 51
179.9999999998925
  0
LINE
  5
184
330
2
100
AcDbEntity
  8
GAIKEI
 62
     1
100
AcDbLine
 10
41.23516851608025
 20
31.48002993304073
 30
0.0
 11
41.27139320923691
 21
31.47876496200746
 31
0.0
  0
ARC
  5
185
330
2
100
AcDbEntity
  8
GAIKEI
 62
     1
100
AcDbCircle
 10
41.26964806550256
 20
31.42879097520449
 30
0.0
 40
0.05000445641619
100
AcDbArc
 50
0.0000064146167758
 51
88.00001314450822
  0
LINE
  5
186
330
2
100
AcDbEntity
  8
GAIKEI
 62
     1
100
AcDbLine
 10
38.8833154547886
 20
1.759367335750596
 30
0.0
 11
38.8833154547886
 21
1.60068346192952
 31
0.0
  0
DIMENSION
  5
187
330
2
100
AcDbEntity
  8
SUNPO
100
AcDbDimension
  2
*D12
 10
43.17962239731054
 20
39.96970740230927
 30
0.0
 11
49.76295573064387
 21
41.71970740230927
 31
0.0
 70
    33
  1
89
 71
     5
 42
4.449999999999988
  3
STANDARD
100
AcDbAlignedDimension
 13
38.72962239731055
 23
31.97623990686833
 33
0.0
 14
43.17962239731054
 24
31.97623990686833
 34
0.0
1001
ACAD
1000
DSTYLE
1002
{
1070
    40
1040
1.0
1070
   140
1040
2.5
1070
   147
1040
0.5
1070
   172
1070
     1
1070
   279
1070
     0
1070
   288
1070
     0
1002
}
  0
LINE
  5
197
330
2
100
AcDbEntity
  8
GAIKEI
  6
Continuous
 62
     1
100
AcDbLine
 10
43.13462239731046
 20
23.87872880831742
 30
0.0
 11
43.13462239731046
 21
22.94471182716074
 31
0.0
  0
LINE
  5
198
330
2
100
AcDbEntity
  8
GAIKEI
  6
Continuous
 62
     7
100
AcDbLine
 10
43.13462239731046
 20
27.77214251122098
 30
0.0
 11
43.13462239731046
 21
6.995358813046948
 31
0.0
  0
ARC
  5
199
330
2
100
AcDbEntity
  8
GAIKEI
  6
Continuous
 62
     7
100
AcDbCircle
 10
42.88460018451047
 20
6.721112362337009
 30
0.0
 40
0.2500222128000095
100
AcDbArc
 50
0.0
 51
0.0
  0
LINE
  5
19A
330
2
100
AcDbEntity
  8
GAIKEI
  6
Continuous
 62
     7
100
AcDbLine
 10
43.13462239731052
 20
6.60587934921557
 30
0.0
 11
43.13462239731046
 21
7.102888255129983
 31
0.0
  0
DIMENSION
  5
19B
330
2
100
AcDbEntity
  8
SUNPO
100
AcDbDimension
  2
*D11
 10
14.85275023413805
 20
31.9699938466606
 30
0.0
 11
13.10275023413805
 21
16.7199938466606
 31
0.0
 70
    33
  1
610
 71
     5
 42
30.5
  3
STANDARD
100
AcDbAlignedDimension
 13
6.852750234138056
 23
1.469993846660599
 33
0.0
 14
6.852750234138056
 24
31.9699938466606
 34
0.0
1001
ACAD
1000
DSTYLE
1002
{
1070
   287
1070
     3
1070
   287
1070
     3
1070
   287
1070
     3
1070
   287
1070
     3
1070
   287
1070
     3
1070
   287
1070
     3
1070
   287
1070
     3
1070
   287
1070
     3
1070
   287
1070
     3
1070
   287
1070
     3
1070
   287
1070
     3
1070
   287
1070
     3
1070
   287
1070
     3
1070
   287
1070
     3
1070
   287
1070
     3
1070
   287
1070
     3
1070
   287
1070
     3
1070
   287
1070
     3
1070
   287
1070
     3
1070
   287
1070
     3
1070
   287
1070
     3
1070
   287
1070
     3
1070
   287
1070
     3
1070
   287
1070
     3
1070
   287
1070
     3
1070
   287
1070
     3
1070
   287
1070
     3
1070
   287
1070
     3
1070
   287
1070
     3
1070
   287
1070
     3
1070
   287
1070
     3
1070
   287
1070
     3
1070
   287
1070
     3
1070
   287
1070
     3
1070
    40
1040
1.0
1070
   140
1040
2.5
1070
   147
1040
0.5
1070
   172
1070
     1
1070
   279
1070
     0
1002
}
  0
DIMENSION
  5
1A8
330
2
100
AcDbEntity
  8
SUNPO
100
AcDbDimension
  2
*D10
 10
6.842420832128028
 20
39.96970740230927
 30
0.0
 11
-18.20757916787198
 21
41.71970740230927
 31
0.0
 70
    33
  1
1020
 71
     5
 42
50.10000000000002
  3
STANDARD
100
AcDbAlignedDimension
 13
-43.25757916787199
 23
31.96970740230927
 33
0.0
 14
6.842420832128027
 24
31.96970740230927
 34
0.0
1001
ACAD
1000
DSTYLE
1002
{
1070
   287
1070
     3
1070
   287
1070
     3
1070
   287
1070
     3
1070
   287
1070
     3
1070
   287
1070
     3
1070
   287
1070
     3
1070
   287
1070
     3
1070
   287
1070
     3
1070
   287
1070
     3
1070
   287
1070
     3
1070
   287
1070
     3
1070
   287
1070
     3
1070
   287
1070
     3
1070
   287
1070
     3
1070
   287
1070
     3
1070
   287
1070
     3
1070
   287
1070
     3
1070
   287
1070
     3
1070
   287
1070
     3
1070
   287
1070
     3
1070
   287
1070
     3
1070
   287
1070
     3
1070
   287
1070
     3
1070
   287
1070
     3
1070
   287
1070
     3
1070
   287
1070
     3
1070
   287
1070
     3
1070
   287
1070
     3
1070
   287
1070
     3
1070
   287
1070
     3
1070
   287
1070
     3
1070
   287
1070
     3
1070
   287
1070
     3
1070
   287
1070
     3
1070
    40
1040
1.0
1070
   140
1040
2.5
1070
   147
1040
0.5
1070
   172
1070
     1
1070
   279
1070
     0
1002
}
  0
LINE
  5
1B5
330
2
100
AcDbEntity
  8
GAIKEI
100
AcDbLine
 10
-10.72007447186297
 20
-0.0356635231308928
 30
0.0
 11
-10.79745311968233
 21
1.440791350268185
 31
0.0
  0
ARC
  5
1B6
330
2
100
AcDbEntity
  8
GAIKEI
100
AcDbCircle
 10
-10.97474625490994
 20
-0.0237248367802892
 30
0.0
 40
0.2543156729427776
100
AcDbArc
 50
316.0567044890232
 51
357.31048390303
  0
LINE
  5
1B7
330
2
100
AcDbEntity
  8
GAIKEI
 62
     1
100
AcDbLine
 10
-25.58666680087478
 20
1.263160394708009
 30
0.0
 11
-10.8284475826899
 21
1.263160324279866
 31
0.0
  0
LINE
  5
1B8
330
2
100
AcDbEntity
  8
GAIKEI
 62
     1
100
AcDbLine
 10
-25.58666680087478
 20
1.263160394708009
 30
0.0
 11
-18.20753501680318
 21
0.8840612507269582
 31
0.0
  0
LINE
  5
1B9
330
2
100
AcDbEntity
  8
GAIKEI
 62
     1
100
AcDbLine
 10
-18.20753501680318
 20
0.8840612507269582
 30
0.0
 11
-10.8284475826899
 21
1.263160324279866
 31
0.0
  0
LINE
  5
1BA
330
2
100
AcDbEntity
  8
GAIKEI
  6
Continuous
100
AcDbLine
 10
-10.72071071634872
 20
-0.0356582626186111
 30
0.0
 11
-7.879880311006047
 21
-0.0572708892283771
 31
0.0
  0
LINE
  5
1BB
330
2
100
AcDbEntity
  8
GAIKEI
  6
Continuous
100
AcDbLine
 10
-7.879880311006047
 20
-0.0572708892283771
 30
0.0
 11
-7.306913951821911
 21
-0.0804972079201605
 31
0.0
  0
LINE
  5
1BC
330
2
100
AcDbEntity
  8
GAIKEI
 62
     1
100
AcDbLine
 10
-10.79163211977248
 20
-0.2002062097837438
 30
0.0
 11
-9.064848432736454
 21
-0.2093586263627714
 31
0.0
  0
LINE
  5
1BD
330
2
100
AcDbEntity
  8
GAIKEI
 62
     1
100
AcDbLine
 10
-7.214151281735865
 20
-0.095774285062177
 30
0.0
 11
-10.67748118857292
 21
-0.28731527370131
 31
0.0
  0
ARC
  5
1BE
330
2
100
AcDbEntity
  8
GAIKEI
100
AcDbCircle
 10
-10.8197252419055
 20
-21.69961339942381
 30
0.0
 40
21.90264888230355
100
AcDbArc
 50
71.36122384959627
 51
80.77087569906385
  0
ARC
  5
1BF
330
2
100
AcDbEntity
  8
GAIKEI
100
AcDbCircle
 10
-3.844939312934513
 20
-1.018103706823083
 30
0.0
 40
0.0766870727508342
100
AcDbArc
 50
3.827867468270713
 51
70.73427782708417
  0
LINE
  5
1C0
330
2
100
AcDbEntity
  8
GAIKEI
100
AcDbLine
 10
-3.768417288767381
 20
-1.01300211592995
 30
0.0
 11
-3.750123138257009
 21
-1.36207610961587
 31
0.0
  0
ARC
  5
1C1
330
2
100
AcDbEntity
  8
GAIKEI
 62
     1
100
AcDbCircle
 10
-17.63560477442505
 20
136.2885007479454
 30
0.0
 40
136.6595514024471
100
AcDbArc
 50
269.760186349897
 51
272.8892609470638
  0
ARC
  5
1C2
330
2
100
AcDbEntity
  8
GAIKEI
 62
     1
100
AcDbCircle
 10
-18.30191332419483
 20
165.9962084192562
 30
0.0
 40
166.4582296467708
100
AcDbArc
 50
270.0324765715022
 51
272.6252873085557
  0
LINE
  5
1C3
330
2
100
AcDbEntity
  8
GAIKEI
 62
     1
100
AcDbLine
 10
-3.826446184300522
 20
-0.9434260140745465
 30
0.0
 11
-32.58871324104362
 21
-0.9434260140745465
 31
0.0
  0
LINE
  5
1C4
330
2
100
AcDbEntity
  8
GAIKEI
100
AcDbLine
 10
-3.750123138257009
 20
-1.36207610961587
 30
0.0
 11
-32.66498185587986
 21
-1.36207610961587
 31
0.0
  0
LINE
  5
1C5
330
2
100
AcDbEntity
  8
GAIKEI
 62
     1
100
AcDbLine
 10
-3.797514497269986
 20
-1.362075276207349
 30
0.0
 11
-3.798382075543486
 21
-1.412081037760117
 31
0.0
  0
LINE
  5
1C6
330
2
100
AcDbEntity
  8
GAIKEI
 62
     1
100
AcDbLine
 10
-3.798382075543486
 20
-1.412081037760117
 30
0.0
 11
-32.6167229185933
 21
-1.412081037760117
 31
0.0
  0
LINE
  5
1C7
330
2
100
AcDbEntity
  8
GAIKEI
 62
     1
100
AcDbLine
 10
-3.976273124991251
 20
-1.412081037760117
 30
0.0
 11
-3.976273124991251
 21
-1.497084123461249
 31
0.0
  0
LINE
  5
1C8
330
2
100
AcDbEntity
  8
GAIKEI
 62
     1
100
AcDbLine
 10
-3.976273124991251
 20
-1.497084123461249
 30
0.0
 11
-6.976543811391223
 21
-1.497084123461249
 31
0.0
  0
LINE
  5
1C9
330
2
100
AcDbEntity
  8
GAIKEI
 62
     1
100
AcDbLine
 10
-6.976543811391223
 20
-1.497084123461249
 30
0.0
 11
-6.976543811391223
 21
-1.412081037760117
 31
0.0
  0
LINE
  5
1CA
330
2
100
AcDbEntity
  8
GAIKEI
100
AcDbLine
 10
-25.69503052227381
 20
-0.0356635231308928
 30
0.0
 11
-25.61765187445454
 21
1.440791350268185
 31
0.0
  0
ARC
  5
1CB
330
2
100
AcDbEntity
  8
GAIKEI
100
AcDbCircle
 10
-25.44035873922692
 20
-0.0237248367802892
 30
0.0
 40
0.2543156729427776
100
AcDbArc
 50
182.68951609697
 51
223.9432955109768
  0
LINE
  5
1CC
330
2
100
AcDbEntity
  8
GAIKEI
  6
Continuous
100
AcDbLine
 10
-25.69439427778807
 20
-0.0356582626186111
 30
0.0
 11
-28.53522468313073
 21
-0.0572708892283771
 31
0.0
  0
LINE
  5
1CD
330
2
100
AcDbEntity
  8
GAIKEI
  6
Continuous
100
AcDbLine
 10
-28.53522468313073
 20
-0.0572708892283771
 30
0.0
 11
-29.10819104231487
 21
-0.0804972079201605
 31
0.0
  0
LINE
  5
1CE
330
2
100
AcDbEntity
  8
GAIKEI
 62
     1
100
AcDbLine
 10
-25.6234728743643
 20
-0.2002062097837438
 30
0.0
 11
-27.35025656140042
 21
-0.2093586263627714
 31
0.0
  0
LINE
  5
1CF
330
2
100
AcDbEntity
  8
GAIKEI
 62
     1
100
AcDbLine
 10
-29.20095371240092
 20
-0.095774285062177
 30
0.0
 11
-25.73762380556386
 21
-0.28731527370131
 31
0.0
  0
ARC
  5
1D0
330
2
100
AcDbEntity
  8
GAIKEI
100
AcDbCircle
 10
-25.59537975223137
 20
-21.69961339942381
 30
0.0
 40
21.90264888230355
100
AcDbArc
 50
99.22912430093616
 51
108.6387761504037
  0
ARC
  5
1D1
330
2
100
AcDbEntity
  8
GAIKEI
100
AcDbCircle
 10
-32.57016568120227
 20
-1.018103706823083
 30
0.0
 40
0.0766870727508342
100
AcDbArc
 50
109.2657221729158
 51
176.1721325317292
  0
LINE
  5
1D2
330
2
100
AcDbEntity
  8
GAIKEI
100
AcDbLine
 10
-32.64668770536949
 20
-1.01300211592995
 30
0.0
 11
-32.66498185587986
 21
-1.36207610961587
 31
0.0
  0
ARC
  5
1D3
330
2
100
AcDbEntity
  8
GAIKEI
 62
     1
100
AcDbCircle
 10
-18.77950021971182
 20
136.2885007479454
 30
0.0
 40
136.6595514024471
100
AcDbArc
 50
267.1107390529363
 51
270.239813650103
  0
ARC
  5
1D4
330
2
100
AcDbEntity
  8
GAIKEI
 62
     1
100
AcDbCircle
 10
-18.11319166994204
 20
165.9962084192562
 30
0.0
 40
166.4582296467708
100
AcDbArc
 50
267.3747126914443
 51
269.9675234284979
  0
LINE
  5
1D5
330
2
100
AcDbEntity
  8
GAIKEI
 62
     1
100
AcDbLine
 10
-32.6175904968668
 20
-1.362075276207349
 30
0.0
 11
-32.6167229185933
 21
-1.412081037760117
 31
0.0
  0
LINE
  5
1D6
330
2
100
AcDbEntity
  8
GAIKEI
 62
     1
100
AcDbLine
 10
-32.43883186914562
 20
-1.412081037760117
 30
0.0
 11
-32.43883186914562
 21
-1.497084123461249
 31
0.0
  0
LINE
  5
1D7
330
2
100
AcDbEntity
  8
GAIKEI
 62
     1
100
AcDbLine
 10
-32.43883186914562
 20
-1.497084123461249
 30
0.0
 11
-29.43856118274556
 21
-1.497084123461249
 31
0.0
  0
LINE
  5
1D8
330
2
100
AcDbEntity
  8
GAIKEI
 62
     1
100
AcDbLine
 10
-29.43856118274556
 20
-1.497084123461249
 30
0.0
 11
-29.43856118274556
 21
-1.412081037760117
 31
0.0
  0
LINE
  5
1D9
330
2
100
AcDbEntity
  8
GAIKEI
 62
     1
100
AcDbLine
 10
-12.95708337961528
 20
-1.412081037760117
 30
0.0
 11
-12.95708337961528
 21
-1.497084123461249
 31
0.0
  0
LINE
  5
1DA
330
2
100
AcDbEntity
  8
GAIKEI
 62
     1
100
AcDbLine
 10
-12.95708337961528
 20
-1.497084123461249
 30
0.0
 11
-23.45803078201535
 21
-1.497084123461249
 31
0.0
  0
LINE
  5
1DB
330
2
100
AcDbEntity
  8
GAIKEI
 62
     1
100
AcDbLine
 10
-23.45803078201535
 20
-1.497084123461249
 30
0.0
 11
-23.45803078201535
 21
-1.412081037760117
 31
0.0
  0
DIMENSION
  5
1DC
330
2
100
AcDbEntity
  8
SUNPO
100
AcDbDimension
  2
*D9
 10
21.85275023413804
 20
-1.497084123461242
 30
0.0
 11
20.10275023413804
 21
15.23645486159967
 31
0.0
 70
    32
  1
669
 71
     5
 42
33.46707797012183
  3
STANDARD
100
AcDbAlignedDimension
 13
14.85275023413804
 23
31.96999384666059
 33
0.0
 14
-3.695944775408037
 24
-1.497084123461235
 34
0.0
 50
90.0
100
AcDbRotatedDimension
1001
ACAD
1000
DSTYLE
1002
{
1070
    40
1040
1.0
1070
   140
1040
2.5
1070
   147
1040
0.5
1070
   172
1070
     1
1070
   279
1070
     0
1070
   288
1070
     0
1002
}
  0
DIMENSION
  5
1E9
330
2
100
AcDbEntity
  8
SUNPO
100
AcDbDimension
  2
*D8
 10
-3.75012313825701
 20
-8.516327163075771
 30
0.0
 11
-18.20755708081527
 21
-6.766327163075771
 31
0.0
 70
    33
  1
578
 71
     5
 42
28.91486788511654
  3
STANDARD
100
AcDbAlignedDimension
 13
-32.66499102337355
 23
-1.516327163075771
 33
0.0
 14
-3.750123138257009
 24
-1.516327163075771
 34
0.0
1001
ACAD
1000
DSTYLE
1002
{
1070
    40
1040
1.0
1070
   140
1040
2.5
1070
   147
1040
0.5
1070
   172
1070
     1
1070
   279
1070
     0
1070
   288
1070
     0
1002
}
  0
LINE
  5
1F6
330
2
100
AcDbEntity
  8
GAIKEI
  6
Continuous
 62
     7
100
AcDbLine
 10
46.3996418915277
 20
1.785105747873558
 30
0.0
 11
46.3996418915277
 21
1.485078679233566
 31
0.0
  0
LINE
  5
1F7
330
2
100
AcDbEntity
  8
GAIKEI
  6
Continuous
 62
     7
100
AcDbLine
 10
41.89923586192775
 20
1.785105747873558
 30
0.0
 11
41.89923586192775
 21
1.485078679233566
 31
0.0
  0
LINE
  5
1F8
330
2
100
AcDbEntity
  8
GAIKEI
  6
Continuous
 62
     1
100
AcDbLine
 10
41.89923586192775
 20
1.785105747873558
 30
0.0
 11
46.3996418915277
 21
1.785105747873558
 31
0.0
  0
LINE
  5
1F9
330
2
100
AcDbEntity
  8
GAIKEI
  6
Continuous
 62
     7
100
AcDbLine
 10
41.89923586192775
 20
2.085132816513578
 30
0.0
 11
46.3996418915277
 21
2.085132816513578
 31
0.0
  0
LINE
  5
1FA
330
2
100
AcDbEntity
  8
GAIKEI
  6
Continuous
 62
     7
100
AcDbLine
 10
46.3996418915277
 20
2.085132816513578
 30
0.0
 11
46.3996418915277
 21
1.785105747873558
 31
0.0
  0
LINE
  5
1FB
330
2
100
AcDbEntity
  8
GAIKEI
  6
Continuous
 62
     7
100
AcDbLine
 10
41.89923586192775
 20
2.085132816513578
 30
0.0
 11
41.89923586192775
 21
1.785105747873558
 31
0.0
  0
ARC
  5
1FC
330
2
100
AcDbEntity
  8
GAIKEI
  6
Continuous
 62
     7
100
AcDbCircle
 10
41.69573416853746
 20
1.917339761446783
 30
0.0
 40
0.05000451144
100
AcDbArc
 50
179.0000000000015
 51
270.0
  0
LINE
  5
1FD
330
2
100
AcDbEntity
  8
GAIKEI
  6
Continuous
 62
     7
100
AcDbLine
 10
41.64921330472767
 20
2.117357807206786
 30
0.0
 11
41.65892874779565
 21
2.673957360347827
 31
0.0
  0
LINE
  5
1FE
330
2
100
AcDbEntity
  8
GAIKEI
  6
Continuous
 62
     7
100
AcDbLine
 10
41.69573416853746
 20
1.867335250006789
 30
0.0
 11
41.89923586192775
 21
1.867335250006789
 31
0.0
  0
ARC
  5
1FF
330
2
100
AcDbEntity
  8
GAIKEI
  6
Continuous
 62
     7
100
AcDbCircle
 10
42.84904988810895
 20
2.767416455926792
 30
0.0
 40
0.2500225572
100
AcDbArc
 50
190.1327320881873
 51
270.0
  0
LINE
  5
200
330
2
100
AcDbEntity
  8
GAIKEI
  6
Continuous
 62
     7
100
AcDbLine
 10
41.64573715777414
 20
1.918212756875703
 30
0.0
 11
41.64921330472767
 21
2.117357807206786
 31
0.0
  0
LINE
  5
201
330
2
100
AcDbEntity
  8
GAIKEI
  6
Continuous
 62
     7
100
AcDbLine
 10
43.89959091861347
 20
2.107356904918788
 30
0.0
 11
43.89243360620937
 21
2.517393898726794
 31
0.0
  0
LINE
  5
202
330
2
100
AcDbEntity
  8
GAIKEI
  6
Continuous
 62
     7
100
AcDbLine
 10
41.65619601804611
 20
2.517393898726794
 30
0.0
 11
43.89243360620937
 21
2.517393898726794
 31
0.0
  0
LINE
  5
203
330
2
100
AcDbEntity
  8
GAIKEI
 62
     1
100
AcDbLine
 10
35.61617149971728
 20
-1.415185067807755
 30
0.0
 11
35.61617149971728
 21
-1.500188153508844
 31
0.0
  0
LINE
  5
204
330
2
100
AcDbEntity
  8
GAIKEI
 62
     1
100
AcDbLine
 10
35.61617149971728
 20
-1.500188153508844
 30
0.0
 11
32.56845653286298
 21
-1.500188153508844
 31
0.0
  0
LINE
  5
205
330
2
100
AcDbEntity
  8
GAIKEI
 62
     1
100
AcDbLine
 10
32.56845653286298
 20
-1.500188153508844
 30
0.0
 11
32.56845653286298
 21
-1.415185067807755
 31
0.0
  0
LINE
  5
206
330
2
100
AcDbEntity
  8
GAIKEI
100
AcDbLine
 10
32.36840765098764
 20
-1.365180556367761
 30
0.0
 11
48.71462533419396
 21
-1.365180556367761
 31
0.0
  0
LINE
  5
207
330
2
100
AcDbEntity
  8
GAIKEI
 62
     1
100
AcDbLine
 10
32.41666367134427
 20
-1.415185067807755
 30
0.0
 11
48.66636390395338
 21
-1.415185067807755
 31
0.0
  0
LINE
  5
208
330
2
100
AcDbEntity
  8
GAIKEI
 62
     1
100
AcDbLine
 10
32.41666367134427
 20
-1.415185067807755
 30
0.0
 11
32.41579067591541
 21
-1.365181389776267
 31
0.0
  0
LINE
  5
209
330
2
100
AcDbEntity
  8
GAIKEI
100
AcDbLine
 10
32.36840765098764
 20
-1.365180556367761
 30
0.0
 11
32.38657957426786
 21
-1.018432430053479
 31
0.0
  0
ARC
  5
20A
330
2
100
AcDbEntity
  8
GAIKEI
100
AcDbCircle
 10
32.46149055914318
 20
-1.022360365715456
 30
0.0
 40
0.0750137523647868
100
AcDbArc
 50
106.0450984138906
 51
176.9985900851084
  0
ARC
  5
20B
330
2
100
AcDbEntity
  8
GAIKEI
100
AcDbCircle
 10
36.58793260150164
 20
-15.37688262160407
 30
0.0
 40
15.01087104638736
100
AcDbArc
 50
96.58699258193671
 51
106.038196862209
  0
LINE
  5
20C
330
2
100
AcDbEntity
  8
GAIKEI
100
AcDbLine
 10
34.86601111919767
 20
-0.465100837388917
 30
0.0
 11
44.79018661931069
 21
-0.0387693480741973
 31
0.0
  0
LINE
  5
20D
330
2
100
AcDbEntity
  8
GAIKEI
 62
     1
100
AcDbLine
 10
46.8970880214456
 20
-1.415185067807755
 30
0.0
 11
46.8970880214456
 21
-1.500188153508844
 31
0.0
  0
LINE
  5
20E
330
2
100
AcDbEntity
  8
GAIKEI
 62
     1
100
AcDbLine
 10
48.51989568222304
 20
-1.500188153508844
 30
0.0
 11
43.84937305459139
 21
-1.500188153508844
 31
0.0
  0
LINE
  5
20F
330
2
100
AcDbEntity
  8
GAIKEI
 62
     1
100
AcDbLine
 10
43.84937305459139
 20
-1.500188153508844
 30
0.0
 11
43.84937305459139
 21
-1.415185067807755
 31
0.0
  0
LINE
  5
210
330
2
100
AcDbEntity
  8
GAIKEI
100
AcDbLine
 10
48.71462533419396
 20
-1.365180556367761
 30
0.0
 11
48.69614199994872
 21
-1.012495820251615
 31
0.0
  0
ARC
  5
211
330
2
100
AcDbEntity
  8
GAIKEI
100
AcDbCircle
 10
48.62123360544455
 20
-1.016419361809312
 30
0.0
 40
0.0750110774855606
100
AcDbArc
 50
2.99829056426661
 51
67.68849986971353
  0
LINE
  5
212
330
2
100
AcDbEntity
  8
GAIKEI
 62
     1
100
AcDbLine
 10
48.51989568222304
 20
-1.415185067807755
 30
0.0
 11
48.51989568222304
 21
-1.500188153508844
 31
0.0
  0
LINE
  5
213
330
2
100
AcDbEntity
  8
GAIKEI
 62
     1
100
AcDbLine
 10
48.66636390395338
 20
-1.415185067807755
 30
0.0
 11
48.66723647540659
 21
-1.365180973072028
 31
0.0
  0
ARC
  5
214
330
2
100
AcDbEntity
  8
GAIKEI
100
AcDbCircle
 10
42.96014187815096
 20
-14.81304251388865
 30
0.0
 40
14.98791727173363
100
AcDbArc
 50
67.69038278575703
 51
71.91495060504657
  0
ARC
  5
215
330
2
100
AcDbEntity
  8
GAIKEI
100
AcDbCircle
 10
40.09674070126966
 20
-28.19827908352005
 30
0.0
 40
28.54796705767762
100
AcDbArc
 50
77.04151910734045
 51
80.53729314661032
  0
ARC
  5
216
330
2
100
AcDbEntity
  8
GAIKEI
100
AcDbCircle
 10
47.12398644867569
 20
2.648442275198704
 30
0.0
 40
3.089768614986323
100
AcDbArc
 50
258.3200110016844
 51
271.1072643177896
  0
ARC
  5
217
330
2
100
AcDbEntity
  8
GAIKEI
100
AcDbCircle
 10
47.0720677903035
 20
-1.624443084123811
 30
0.0
 40
1.188945384238282
100
AcDbArc
 50
62.94724415665939
 51
84.61276257708194
  0
LINE
  5
218
330
2
100
AcDbEntity
  8
GAIKEI
100
AcDbLine
 10
40.58898181661031
 20
-0.219245919389067
 30
0.0
 11
40.64664484536577
 21
0.8809592016448561
 31
0.0
  0
ARC
  5
219
330
2
100
AcDbEntity
  8
GAIKEI
100
AcDbCircle
 10
41.04234487377065
 20
0.8640215674812452
 30
0.0
 40
0.396066257374069
100
AcDbArc
 50
90.69906002077289
 51
177.5496258904873
  0
LINE
  5
21A
330
2
100
AcDbEntity
  8
GAIKEI
 62
     7
100
AcDbLine
 10
41.03751270002907
 20
1.260058377753551
 30
0.0
 11
44.67419330375149
 21
1.260058377753551
 31
0.0
  0
LINE
  5
21B
330
2
100
AcDbEntity
  8
GAIKEI
 62
     7
100
AcDbLine
 10
41.72585605282033
 20
1.485078679233566
 30
0.0
 11
47.45789153417503
 21
1.485078679233566
 31
0.0
  0
LINE
  5
21C
330
2
100
AcDbEntity
  8
GAIKEI
 62
     7
100
AcDbLine
 10
47.50781728850954
 20
1.437693570784517
 30
0.0
 11
47.61280384379914
 21
-0.565572998579853
 31
0.0
  0
ARC
  5
21D
330
2
100
AcDbEntity
  8
GAIKEI
 62
     7
100
AcDbCircle
 10
41.72602675213396
 20
1.434886400756738
 30
0.0
 40
0.0501925368555389
100
AcDbArc
 50
90.1949378391694
 51
176.8019857905066
  0
LINE
  5
21E
330
2
100
AcDbEntity
  8
GAIKEI
 62
     7
100
AcDbLine
 10
41.6759125112609
 20
1.43768667605849
 30
0.0
 11
41.66659945665112
 21
1.260055044119468
 31
0.0
  0
LINE
  5
21F
330
2
100
AcDbEntity
  8
GAIKEI
 62
     1
100
AcDbLine
 10
45.00043773773954
 20
1.437691070558912
 30
0.0
 11
45.06336924879533
 21
-0.082653179235308
 31
0.0
  0
LINE
  5
220
330
2
100
AcDbEntity
  8
GAIKEI
 62
     1
100
AcDbLine
 10
44.68019967898398
 20
1.437686486812026
 30
0.0
 11
44.63694786010968
 21
-0.0453523139266281
 31
0.0
  0
ARC
  5
221
330
2
100
AcDbEntity
  8
GAIKEI
 62
     1
100
AcDbCircle
 10
44.72150728566991
 20
1.444323952806826
 30
0.0
 40
0.0418374507040371
100
AcDbArc
 50
103.0635590081792
 51
189.1282203946025
  0
ARC
  5
222
330
2
100
AcDbEntity
  8
GAIKEI
 62
     1
100
AcDbCircle
 10
44.95514869986478
 20
1.440098618489315
 30
0.0
 40
0.0453588822826283
100
AcDbArc
 50
356.951879704111
 51
82.58954369112784
  0
ARC
  5
223
330
2
100
AcDbEntity
  8
GAIKEI
 62
     7
100
AcDbCircle
 10
47.45789153417503
 20
1.435074167793544
 30
0.0
 40
0.0500045114399966
100
AcDbArc
 50
2.999964999996189
 51
89.99996400000483
  0
DIMENSION
  5
224
330
2
100
AcDbEntity
  8
SUNPO
100
AcDbDimension
  2
*D7
 10
48.71462533419396
 20
-8.516327163075764
 30
0.0
 11
40.54151628423868
 21
-6.766327163075764
 31
0.0
 70
    33
  1
327
 71
     5
 42
16.34621809991057
  3
STANDARD
100
AcDbAlignedDimension
 13
32.3684072342834
 23
-1.516327163075771
 33
0.0
 14
48.71462533419396
 24
-1.516327163075771
 34
0.0
1001
ACAD
1000
DSTYLE
1002
{
1070
    40
1040
1.0
1070
   140
1040
2.5
1070
   147
1040
0.5
1070
   172
1070
     1
1070
   279
1070
     0
1070
   288
1070
     0
1002
}
  0
TEXT
  5
231
330
2
100
AcDbEntity
  8
MOJI1
100
AcDbText
 10
-16.89574374269526
 20
-42.41032448647149
 30
0.0
 40
3.0
  1
４０９６階調（相当）
100
AcDbText
  0
TEXT
  5
232
330
2
100
AcDbEntity
  8
MOJI1
100
AcDbText
 10
-16.89574374269526
 20
-37.4103244864715
 30
0.0
 40
3.0
  1
１５０００：１
100
AcDbText
  0
ENDSEC
  0
SECTION
  2
OBJECTS
  0
DICTIONARY
  5
9
330
0
100
AcDbDictionary
281
     1
  3
ACAD_COLOR
350
2E
  3
ACAD_GROUP
350
2A
  3
ACAD_LAYOUT
350
D
  3
ACAD_MATERIAL
350
2D
  3
ACAD_MLINESTYLE
350
2B
  3
ACAD_PLOTSETTINGS
350
2C
  3
ACAD_PLOTSTYLENAME
350
8
  3
ACDBHEADERROUNDTRIPXREC
350
299
  3
AcDbVariableDictionary
350
294
  3
ASE_INDEX_DICTIONARY
350
23B
  0
DICTIONARY
  5
13
330
12
100
AcDbDictionary
280
     1
281
     1
  3
ACAD_LAYERSTATES
360
14
  0
DICTIONARY
  5
3
330
2
100
AcDbDictionary
280
     1
281
     1
  3
ACAD_SORTENTS
360
4
  0
DICTIONARY
  5
2E
102
{ACAD_REACTORS
330
9
102
}
330
9
100
AcDbDictionary
281
     1
  0
DICTIONARY
  5
2A
102
{ACAD_REACTORS
330
9
102
}
330
9
100
AcDbDictionary
281
     1
  0
DICTIONARY
  5
D
102
{ACAD_REACTORS
330
9
102
}
330
9
100
AcDbDictionary
281
     1
  3
Model
350
C
  3
レイアウト1
350
11
  0
DICTIONARY
  5
2D
102
{ACAD_REACTORS
330
9
102
}
330
9
100
AcDbDictionary
281
     1
  0
DICTIONARY
  5
2B
102
{ACAD_REACTORS
330
9
102
}
330
9
100
AcDbDictionary
281
     1
  3
Standard
350
30
  0
DICTIONARY
  5
2C
102
{ACAD_REACTORS
330
9
102
}
330
9
100
AcDbDictionary
281
     1
  0
ACDBDICTIONARYWDFLT
  5
8
102
{ACAD_REACTORS
330
9
102
}
330
9
100
AcDbDictionary
281
     1
  3
Normal
350
7
100
AcDbDictionaryWithDefault
340
7
  0
DICTIONARY
  5
299
102
{ACAD_REACTORS
330
9
102
}
330
9
100
AcDbDictionary
281
     1
  3
COLORDICT
350
29B
  3
MATERIALDICT
350
29A
  0
DICTIONARY
  5
294
102
{ACAD_REACTORS
330
9
102
}
330
9
100
AcDbDictionary
281
     1
  3
DIMASSOC
350
296
  3
HIDETEXT
350
295
  3
PROJECTNAME
350
297
  0
DICTIONARY
  5
23B
102
{ACAD_REACTORS
330
9
102
}
330
9
100
AcDbDictionary
281
     1
  3
ASEBlockHierarchyIndexRecord
350
23D
1001
DCO15
1040
1627816573.328
  0
DICTIONARY
  5
14
102
{ACAD_REACTORS
330
13
102
}
330
13
100
AcDbDictionary
281
     1
  0
SORTENTSTABLE
  5
4
102
{ACAD_REACTORS
330
3
102
}
330
3
100
AcDbSortentsTable
330
2
  0
LAYOUT
  5
C
102
{ACAD_XDICTIONARY
360
29C
102
}
102
{ACAD_REACTORS
330
D
102
}
330
D
100
AcDbPlotSettings
  1

  2
Ａ４－縦3FRIM01.pc3
  4
A4
  6

 40
5.873749732971191
 41
5.873747825622558
 42
5.873748779296875
 43
5.873748779296875
 44
209.9733276367187
 45
296.9259948730469
 46
5.419999999999999
 47
0.0
 48
0.0
 49
0.0
140
0.0
141
0.0
142
1.0
143
1.38245207335299
 70
 11956
 72
     1
 73
     0
 74
     1
  7
tmsacad.ctb
 75
     0
147
0.7233523818114045
148
0.0320386232301644
149
0.0300716685512725
100
AcDbLayout
  1
Model
 70
     1
 71
     0
 10
0.0
 20
0.0
 11
12.0
 21
9.0
 12
0.0
 22
0.0
 32
0.0
 14
0.0
 24
0.0
 34
0.0
 15
0.0
 25
0.0
 35
0.0
146
0.0
 13
0.0
 23
0.0
 33
0.0
 16
1.0
 26
0.0
 36
0.0
 17
0.0
 27
1.0
 37
0.0
 76
     0
330
2
  0
LAYOUT
  5
11
102
{ACAD_XDICTIONARY
360
29E
102
}
102
{ACAD_REACTORS
330
D
102
}
330
D
100
AcDbPlotSettings
  1

  2
None
  4

  6

 40
0.0
 41
0.0
 42
0.0
 43
0.0
 44
0.0
 45
0.0
 46
0.0
 47
0.0
 48
0.0
 49
0.0
140
0.0
141
0.0
142
1.0
143
1.0
 70
   688
 72
     0
 73
     0
 74
     5
  7
tmsacad.ctb
 75
    16
147
1.0
148
0.0
149
0.0
100
AcDbLayout
  1
レイアウト1
 70
     1
 71
     1
 10
0.0
 20
0.0
 11
12.0
 21
9.0
 12
0.0
 22
0.0
 32
0.0
 14
0.0
 24
0.0
 34
0.0
 15
0.0
 25
0.0
 35
0.0
146
0.0
 13
0.0
 23
0.0
 33
0.0
 16
1.0
 26
0.0
 36
0.0
 17
0.0
 27
1.0
 37
0.0
 76
     0
330
E
  0
MLINESTYLE
  5
30
102
{ACAD_REACTORS
330
2B
102
}
330
2B
100
AcDbMlineStyle
  2
STANDARD
 70
     0
  3

 62
   256
 51
90.0
 52
90.0
 71
     2
 49
0.5
 62
   256
  6
BYLAYER
 49
-0.5
 62
   256
  6
BYLAYER
  0
ACDBPLACEHOLDER
  5
7
102
{ACAD_REACTORS
330
8
102
}
330
8
  0
XRECORD
  5
29B
102
{ACAD_REACTORS
330
299
102
}
330
299
100
AcDbXrecord
280
     1
340
2E
  0
XRECORD
  5
29A
102
{ACAD_REACTORS
330
299
102
}
330
299
100
AcDbXrecord
280
     1
340
2D
  0
DICTIONARYVAR
  5
296
102
{ACAD_REACTORS
330
294
102
}
330
294
100
DictionaryVariables
280
     0
  1
1
  0
DICTIONARYVAR
  5
295
102
{ACAD_REACTORS
330
294
102
}
330
294
100
DictionaryVariables
280
     0
  1
1
  0
DICTIONARYVAR
  5
297
102
{ACAD_REACTORS
330
294
102
}
330
294
100
DictionaryVariables
280
     0
  1

  0
XRECORD
  5
23D
102
{ACAD_REACTORS
330
23B
102
}
330
23B
100
AcDbXrecord
280
     1
330
18F
330
190
330
1A1
330
1A2
330
1AE
330
1AF
330
1E2
330
1E3
330
1EF
330
1F0
330
22A
330
22B
330
24E
330
24F
330
25A
330
25B
330
266
330
267
330
272
330
273
330
27E
330
27F
330
28C
330
28D
  0
DICTIONARY
  5
29C
330
C
100
AcDbDictionary
280
     1
281
     1
  3
ACAD_XREC_ROUNDTRIP
360
29D
  0
DICTIONARY
  5
29E
330
11
100
AcDbDictionary
280
     1
281
     1
  3
ACAD_XREC_ROUNDTRIP
360
29F
  0
XRECORD
  5
29D
102
{ACAD_REACTORS
330
29C
102
}
330
29C
100
AcDbXrecord
280
     1
102
SHADEPLOT
 70
     0
102
SHADEPLOTRESLEVEL
 70
     2
102
SHADEPLOTCUSTOMDPI
 70
   300
  0
XRECORD
  5
29F
102
{ACAD_REACTORS
330
29E
102
}
330
29E
100
AcDbXrecord
280
     1
102
SHADEPLOT
 70
     0
102
SHADEPLOTRESLEVEL
 70
     2
102
SHADEPLOTCUSTOMDPI
 70
   300
  0
ENDSEC
  0
EOF
