  0
SECTION
  2
HEADER
  9
$ACADVER
  1
AC1015
  9
$ACADMAINTVER
 70
    20
  9
$DWGCODEPAGE
  3
ANSI_932
  9
$INSBASE
 10
0.4999999440410648
 20
372.5008351249344
 30
0.0
  9
$EXTMIN
 10
-57.0822134440325
 20
-57.24645933607416
 30
-0.0015258207003583
  9
$EXTMAX
 10
67.9513555485189
 20
55.77813761771904
 30
0.0000000349246037
  9
$LIMMIN
 10
0.0
 20
0.0
  9
$LIMMAX
 10
420.0
 20
297.0
  9
$ORTHOMODE
 70
     1
  9
$REGENMODE
 70
     0
  9
$FILLMODE
 70
     1
  9
$QTEXTMODE
 70
     0
  9
$MIRRTEXT
 70
     0
  9
$LTSCALE
 40
1.0
  9
$ATTMODE
 70
     1
  9
$TEXTSIZE
 40
2.5
  9
$TRACEWID
 40
1.0
  9
$TEXTSTYLE
  7
Standard
  9
$CLAYER
  8
MOJI1
  9
$CELTYPE
  6
ByLayer
  9
$CECOLOR
 62
   256
  9
$CELTSCALE
 40
1.0
  9
$DISPSILH
 70
     0
  9
$DIMSCALE
 40
1.0
  9
$DIMASZ
 40
2.0
  9
$DIMEXO
 40
2.0
  9
$DIMDLI
 40
8.0
  9
$DIMRND
 40
0.0
  9
$DIMDLE
 40
0.0
  9
$DIMEXE
 40
2.0
  9
$DIMTP
 40
0.0
  9
$DIMTM
 40
0.0
  9
$DIMTXT
 40
2.5
  9
$DIMCEN
 40
0.0
  9
$DIMTSZ
 40
0.0
  9
$DIMTOL
 70
     0
  9
$DIMLIM
 70
     0
  9
$DIMTIH
 70
     0
  9
$DIMTOH
 70
     0
  9
$DIMSE1
 70
     0
  9
$DIMSE2
 70
     0
  9
$DIMTAD
 70
     3
  9
$DIMZIN
 70
     0
  9
$DIMBLK
  1

  9
$DIMASO
 70
     1
  9
$DIMSHO
 70
     1
  9
$DIMPOST
  1

  9
$DIMAPOST
  1

  9
$DIMALT
 70
     0
  9
$DIMALTD
 70
     2
  9
$DIMALTF
 40
25.4
  9
$DIMLFAC
 40
1.0
  9
$DIMTOFL
 70
     1
  9
$DIMTVP
 40
0.0
  9
$DIMTIX
 70
     0
  9
$DIMSOXD
 70
     0
  9
$DIMSAH
 70
     1
  9
$DIMBLK1
  1
OPEN30
  9
$DIMBLK2
  1
OPEN30
  9
$DIMSTYLE
  2
STANDARD
  9
$DIMCLRD
 70
     0
  9
$DIMCLRE
 70
     0
  9
$DIMCLRT
 70
     0
  9
$DIMTFAC
 40
1.0
  9
$DIMGAP
 40
0.5
  9
$DIMJUST
 70
     0
  9
$DIMSD1
 70
     0
  9
$DIMSD2
 70
     0
  9
$DIMTOLJ
 70
     1
  9
$DIMTZIN
 70
     0
  9
$DIMALTZ
 70
     0
  9
$DIMALTTZ
 70
     0
  9
$DIMUPT
 70
     0
  9
$DIMDEC
 70
     4
  9
$DIMTDEC
 70
     4
  9
$DIMALTU
 70
     2
  9
$DIMALTTD
 70
     2
  9
$DIMTXSTY
  7
Standard
  9
$DIMAUNIT
 70
     0
  9
$DIMADEC
 70
     0
  9
$DIMALTRND
 40
0.0
  9
$DIMAZIN
 70
     0
  9
$DIMDSEP
 70
    46
  9
$DIMATFIT
 70
     3
  9
$DIMFRAC
 70
     0
  9
$DIMLDRBLK
  1
OPEN30
  9
$DIMLUNIT
 70
     2
  9
$DIMLWD
 70
    -2
  9
$DIMLWE
 70
    -2
  9
$DIMTMOVE
 70
     0
  9
$LUNITS
 70
     2
  9
$LUPREC
 70
     4
  9
$SKETCHINC
 40
1.0
  9
$FILLETRAD
 40
0.0
  9
$AUNITS
 70
     0
  9
$AUPREC
 70
     0
  9
$MENU
  1
.
  9
$ELEVATION
 40
0.0
  9
$PELEVATION
 40
0.0
  9
$THICKNESS
 40
0.0
  9
$LIMCHECK
 70
     0
  9
$CHAMFERA
 40
0.0
  9
$CHAMFERB
 40
0.0
  9
$CHAMFERC
 40
0.0
  9
$CHAMFERD
 40
0.0
  9
$SKPOLY
 70
     0
  9
$TDCREATE
 40
2454349.434269746
  9
$TDUCREATE
 40
2454349.059269746
  9
$TDUPDATE
 40
2454643.680920278
  9
$TDUUPDATE
 40
2454643.305920278
  9
$TDINDWG
 40
0.4639134375
  9
$TDUSRTIMER
 40
0.4639134375
  9
$USRTIMER
 70
     1
  9
$ANGBASE
 50
0.0
  9
$ANGDIR
 70
     0
  9
$PDMODE
 70
     0
  9
$PDSIZE
 40
0.0
  9
$PLINEWID
 40
0.0
  9
$SPLFRAME
 70
     0
  9
$SPLINETYPE
 70
     6
  9
$SPLINESEGS
 70
     8
  9
$HANDSEED
  5
3F1
  9
$SURFTAB1
 70
     6
  9
$SURFTAB2
 70
     6
  9
$SURFTYPE
 70
     6
  9
$SURFU
 70
     6
  9
$SURFV
 70
     6
  9
$UCSBASE
  2

  9
$UCSNAME
  2

  9
$UCSORG
 10
0.0
 20
0.0
 30
0.0
  9
$UCSXDIR
 10
1.0
 20
0.0
 30
0.0
  9
$UCSYDIR
 10
0.0
 20
1.0
 30
0.0
  9
$UCSORTHOREF
  2

  9
$UCSORTHOVIEW
 70
     0
  9
$UCSORGTOP
 10
0.0
 20
0.0
 30
0.0
  9
$UCSORGBOTTOM
 10
0.0
 20
0.0
 30
0.0
  9
$UCSORGLEFT
 10
0.0
 20
0.0
 30
0.0
  9
$UCSORGRIGHT
 10
0.0
 20
0.0
 30
0.0
  9
$UCSORGFRONT
 10
0.0
 20
0.0
 30
0.0
  9
$UCSORGBACK
 10
0.0
 20
0.0
 30
0.0
  9
$PUCSBASE
  2

  9
$PUCSNAME
  2

  9
$PUCSORG
 10
0.0
 20
0.0
 30
0.0
  9
$PUCSXDIR
 10
1.0
 20
0.0
 30
0.0
  9
$PUCSYDIR
 10
0.0
 20
1.0
 30
0.0
  9
$PUCSORTHOREF
  2

  9
$PUCSORTHOVIEW
 70
     0
  9
$PUCSORGTOP
 10
0.0
 20
0.0
 30
0.0
  9
$PUCSORGBOTTOM
 10
0.0
 20
0.0
 30
0.0
  9
$PUCSORGLEFT
 10
0.0
 20
0.0
 30
0.0
  9
$PUCSORGRIGHT
 10
0.0
 20
0.0
 30
0.0
  9
$PUCSORGFRONT
 10
0.0
 20
0.0
 30
0.0
  9
$PUCSORGBACK
 10
0.0
 20
0.0
 30
0.0
  9
$USERI1
 70
     0
  9
$USERI2
 70
     0
  9
$USERI3
 70
     0
  9
$USERI4
 70
     0
  9
$USERI5
 70
     0
  9
$USERR1
 40
0.0
  9
$USERR2
 40
0.0
  9
$USERR3
 40
0.0
  9
$USERR4
 40
0.0
  9
$USERR5
 40
0.0
  9
$WORLDVIEW
 70
     1
  9
$SHADEDGE
 70
     3
  9
$SHADEDIF
 70
    70
  9
$TILEMODE
 70
     1
  9
$MAXACTVP
 70
    64
  9
$PINSBASE
 10
0.0
 20
0.0
 30
0.0
  9
$PLIMCHECK
 70
     0
  9
$PEXTMIN
 10
0.0
 20
0.0
 30
0.0
  9
$PEXTMAX
 10
0.0
 20
0.0
 30
0.0
  9
$PLIMMIN
 10
0.0
 20
0.0
  9
$PLIMMAX
 10
12.0
 20
9.0
  9
$UNITMODE
 70
     0
  9
$VISRETAIN
 70
     1
  9
$PLINEGEN
 70
     0
  9
$PSLTSCALE
 70
     1
  9
$TREEDEPTH
 70
  3020
  9
$CMLSTYLE
  2
Standard
  9
$CMLJUST
 70
     0
  9
$CMLSCALE
 40
20.0
  9
$PROXYGRAPHICS
 70
     1
  9
$MEASUREMENT
 70
     1
  9
$CELWEIGHT
370
    -1
  9
$ENDCAPS
280
     0
  9
$JOINSTYLE
280
     0
  9
$LWDISPLAY
290
     0
  9
$INSUNITS
 70
     4
  9
$HYPERLINKBASE
  1

  9
$STYLESHEET
  1

  9
$XEDIT
290
     1
  9
$CEPSNTYPE
380
     0
  9
$PSTYLEMODE
290
     1
  9
$FINGERPRINTGUID
  2
{FDEAD578-A652-11D2-9A35-0060089B3A3F}
  9
$VERSIONGUID
  2
{746A35D9-06FB-4F4C-AED2-9F00FA279D4F}
  9
$EXTNAMES
290
     1
  9
$PSVPSCALE
 40
0.0
  9
$OLESTARTUP
290
     0
  0
ENDSEC
  0
SECTION
  2
CLASSES
  0
CLASS
  1
ACDBDICTIONARYWDFLT
  2
AcDbDictionaryWithDefault
  3
ObjectDBX Classes
 90
        0
280
     0
281
     0
  0
CLASS
  1
ACDBPLACEHOLDER
  2
AcDbPlaceHolder
  3
ObjectDBX Classes
 90
        0
280
     0
281
     0
  0
CLASS
  1
LAYOUT
  2
AcDbLayout
  3
ObjectDBX Classes
 90
        0
280
     0
281
     0
  0
CLASS
  1
DICTIONARYVAR
  2
AcDbDictionaryVar
  3
ObjectDBX Classes
 90
        0
280
     0
281
     0
  0
CLASS
  1
SORTENTSTABLE
  2
AcDbSortentsTable
  3
ObjectDBX Classes
 90
        0
280
     0
281
     0
  0
CLASS
  1
DIMASSOC
  2
AcDbDimAssoc
  3
"AcDbDimAssoc|Product Desc:     AcDim ARX App For Dimension|Company:          Autodesk, Inc.|WEB Address:      www.autodesk.com"
 90
    32768
280
     0
281
     0
  0
ENDSEC
  0
SECTION
  2
TABLES
  0
TABLE
  2
VPORT
  5
1D
330
0
100
AcDbSymbolTable
 70
     3
  0
VPORT
  5
3E9
330
1D
100
AcDbSymbolTableRecord
100
AcDbViewportTableRecord
  2
*Active
 70
     0
 10
0.0
 20
0.0
 11
1.0
 21
1.0
 12
5.434571052243207
 22
-0.7341608591775639
 13
0.0
 23
0.0
 14
10.0
 24
10.0
 15
10.0
 25
10.0
 16
0.0
 26
0.0
 36
1.0
 17
0.0
 27
0.0
 37
0.0
 40
113.9180720285267
 41
1.439313984168865
 42
50.0
 43
0.0
 44
0.0
 50
0.0
 51
0.0
 71
     0
 72
 10000
 73
     1
 74
     2
 75
     0
 76
     0
 77
     0
 78
     0
281
     0
 65
     1
110
0.0
120
0.0
130
0.0
111
1.0
121
0.0
131
0.0
112
0.0
122
1.0
132
0.0
 79
     0
146
0.0
  0
ENDTAB
  0
TABLE
  2
LTYPE
  5
18
330
0
100
AcDbSymbolTable
 70
     2
  0
LTYPE
  5
19
330
18
100
AcDbSymbolTableRecord
100
AcDbLinetypeTableRecord
  2
ByBlock
 70
     0
  3

 72
    65
 73
     0
 40
0.0
  0
LTYPE
  5
1A
330
18
100
AcDbSymbolTableRecord
100
AcDbLinetypeTableRecord
  2
ByLayer
 70
     0
  3

 72
    65
 73
     0
 40
0.0
  0
LTYPE
  5
A
330
18
100
AcDbSymbolTableRecord
100
AcDbLinetypeTableRecord
  2
Continuous
 70
     0
  3
Solid line
 72
    65
 73
     0
 40
0.0
  0
LTYPE
  5
18A
330
18
100
AcDbSymbolTableRecord
100
AcDbLinetypeTableRecord
  2
HIDDEN2
 70
     0
  3
Hidden (.5x) _ _ _ _ _ _ _ _ _ _ _ _ _ _ _ _ _
 72
    65
 73
     2
 40
1.399999999999999
 49
0.7
 74
     0
 49
-0.7
 74
     0
  0
ENDTAB
  0
TABLE
  2
LAYER
  5
12
102
{ACAD_XDICTIONARY
360
13
102
}
330
0
100
AcDbSymbolTable
 70
     7
  0
LAYER
  5
6
330
12
100
AcDbSymbolTableRecord
100
AcDbLayerTableRecord
  2
0
 70
     0
 62
     7
  6
Continuous
370
    -3
390
7
  0
LAYER
  5
382
330
12
100
AcDbSymbolTableRecord
100
AcDbLayerTableRecord
  2
WAKU
 70
     0
 62
     4
  6
Continuous
370
    -3
390
7
  0
LAYER
  5
2F
330
12
100
AcDbSymbolTableRecord
100
AcDbLayerTableRecord
  2
MOJI1
 70
     0
 62
     2
  6
Continuous
370
    -3
390
7
  0
LAYER
  5
32
330
12
100
AcDbSymbolTableRecord
100
AcDbLayerTableRecord
  2
TOUROKU
 70
     0
 62
     1
  6
Continuous
370
    -3
390
7
  0
LAYER
  5
35
330
12
100
AcDbSymbolTableRecord
100
AcDbLayerTableRecord
  2
GAIKEI
 70
     0
 62
     7
  6
Continuous
370
    -3
390
7
  0
LAYER
  5
178
330
12
100
AcDbSymbolTableRecord
100
AcDbLayerTableRecord
  2
DEFPOINTS
 70
     0
 62
     7
  6
Continuous
290
     0
370
    -3
390
7
  0
LAYER
  5
16E
330
12
100
AcDbSymbolTableRecord
100
AcDbLayerTableRecord
  2
SUNPO
 70
     0
 62
     3
  6
Continuous
370
    -3
390
7
  0
ENDTAB
  0
TABLE
  2
STYLE
  5
15
330
0
100
AcDbSymbolTable
 70
     1
  0
STYLE
  5
16
330
15
100
AcDbSymbolTableRecord
100
AcDbTextStyleTableRecord
  2
Standard
 70
     0
 40
0.0
 41
1.0
 50
0.0
 71
     0
 42
2.5
  3
MONOTXT.shx
  4
BIGFONT.shx
  0
ENDTAB
  0
TABLE
  2
VIEW
  5
1B
330
0
100
AcDbSymbolTable
 70
     0
  0
ENDTAB
  0
TABLE
  2
UCS
  5
1C
330
0
100
AcDbSymbolTable
 70
     0
  0
ENDTAB
  0
TABLE
  2
APPID
  5
1F
330
0
100
AcDbSymbolTable
 70
     2
  0
APPID
  5
20
330
1F
100
AcDbSymbolTableRecord
100
AcDbRegAppTableRecord
  2
ACAD
 70
     0
  0
APPID
  5
3A7
330
1F
100
AcDbSymbolTableRecord
100
AcDbRegAppTableRecord
  2
DCO15
 70
     0
  0
ENDTAB
  0
TABLE
  2
DIMSTYLE
  5
21
330
0
100
AcDbSymbolTable
 70
     1
100
AcDbDimStyleTable
 71
     1
340
22
  0
DIMSTYLE
105
22
102
{ACAD_REACTORS
330
30E
330
31B
330
16D
330
17C
102
}
330
21
100
AcDbSymbolTableRecord
100
AcDbDimStyleTableRecord
  2
STANDARD
 70
     0
 40
0.0
 41
2.0
 42
2.0
 43
8.0
 44
2.0
 73
     0
 74
     0
 77
     3
140
3.0
141
0.0
173
     1
279
     2
288
     1
340
16
341
23
343
23
344
23
  0
ENDTAB
  0
TABLE
  2
BLOCK_RECORD
  5
1
330
0
100
AcDbSymbolTable
 70
     9
  0
BLOCK_RECORD
  5
2
102
{ACAD_XDICTIONARY
360
3
102
}
330
1
100
AcDbSymbolTableRecord
100
AcDbBlockTableRecord
  2
*Model_Space
340
C
  0
BLOCK_RECORD
  5
E
330
1
100
AcDbSymbolTableRecord
100
AcDbBlockTableRecord
  2
*Paper_Space
340
11
  0
BLOCK_RECORD
  5
23
330
1
100
AcDbSymbolTableRecord
100
AcDbBlockTableRecord
  2
_OPEN30
340
0
102
{BLKREFS
331
36B
331
37D
331
321
331
322
331
314
331
315
331
182
331
183
331
174
331
175
331
3B9
331
3BA
331
3C5
331
3C6
331
3D1
331
3D2
331
3DD
331
3DE
102
}
  0
BLOCK_RECORD
  5
30F
330
1
100
AcDbSymbolTableRecord
100
AcDbBlockTableRecord
  2
*D1
340
0
  0
BLOCK_RECORD
  5
31C
330
1
100
AcDbSymbolTableRecord
100
AcDbBlockTableRecord
  2
*D2
340
0
  0
BLOCK_RECORD
  5
16F
330
1
100
AcDbSymbolTableRecord
100
AcDbBlockTableRecord
  2
*D3
340
0
  0
BLOCK_RECORD
  5
17D
330
1
100
AcDbSymbolTableRecord
100
AcDbBlockTableRecord
  2
*D4
340
0
  0
BLOCK_RECORD
  5
3B5
330
1
100
AcDbSymbolTableRecord
100
AcDbBlockTableRecord
  2
*D5
340
0
  0
BLOCK_RECORD
  5
3C1
330
1
100
AcDbSymbolTableRecord
100
AcDbBlockTableRecord
  2
*D6
340
0
  0
BLOCK_RECORD
  5
3CD
330
1
100
AcDbSymbolTableRecord
100
AcDbBlockTableRecord
  2
*D7
340
0
  0
BLOCK_RECORD
  5
3D9
330
1
100
AcDbSymbolTableRecord
100
AcDbBlockTableRecord
  2
*D8
340
0
  0
ENDTAB
  0
ENDSEC
  0
SECTION
  2
BLOCKS
  0
BLOCK
  5
5
330
2
100
AcDbEntity
  8
0
100
AcDbBlockBegin
  2
*Model_Space
 70
     0
 10
0.0
 20
0.0
 30
0.0
  3
*Model_Space
  1

  0
ENDBLK
  5
B
330
2
100
AcDbEntity
  8
0
100
AcDbBlockEnd
  0
BLOCK
  5
F
330
E
100
AcDbEntity
 67
     1
  8
0
100
AcDbBlockBegin
  2
*Paper_Space
 70
     0
 10
0.0
 20
0.0
 30
0.0
  3
*Paper_Space
  1

  0
ENDBLK
  5
10
330
E
100
AcDbEntity
 67
     1
  8
0
100
AcDbBlockEnd
  0
BLOCK
  5
24
330
23
100
AcDbEntity
  8
0
100
AcDbBlockBegin
  2
_OPEN30
 70
     0
 10
0.0
 20
0.0
 30
0.0
  3
_OPEN30
  1

  0
LINE
  5
25
330
23
100
AcDbEntity
  8
0
  6
ByBlock
 62
     0
100
AcDbLine
 10
-1.0
 20
0.26794919
 30
0.0
 11
0.0
 21
0.0
 31
0.0
  0
LINE
  5
26
330
23
100
AcDbEntity
  8
0
  6
ByBlock
 62
     0
100
AcDbLine
 10
0.0
 20
0.0
 30
0.0
 11
-1.0
 21
-0.26794919
 31
0.0
  0
LINE
  5
27
330
23
100
AcDbEntity
  8
0
  6
ByBlock
 62
     0
100
AcDbLine
 10
0.0
 20
0.0
 30
0.0
 11
-1.0
 21
0.0
 31
0.0
  0
ENDBLK
  5
28
330
23
100
AcDbEntity
  8
0
100
AcDbBlockEnd
  0
BLOCK
  5
310
330
30F
100
AcDbEntity
  8
0
100
AcDbBlockBegin
  2
*D1
 70
     1
 10
0.0
 20
0.0
 30
0.0
  3
*D1
  1

  0
LINE
  5
311
330
30F
100
AcDbEntity
  8
SUNPO
 62
     0
370
    -2
100
AcDbLine
 10
21.87331118359117
 20
317.7398179685005
 30
0.0
 11
11.87331118359116
 21
317.7398179685005
 31
0.0
  0
LINE
  5
312
330
30F
100
AcDbEntity
  8
SUNPO
 62
     0
370
    -2
100
AcDbLine
 10
21.87331118359117
 20
343.5398179659206
 30
0.0
 11
11.87331118359117
 21
343.5398179659206
 31
0.0
  0
LINE
  5
313
330
30F
100
AcDbEntity
  8
SUNPO
 62
     0
370
    -2
100
AcDbLine
 10
13.87331118359116
 20
319.7398179685005
 30
0.0
 11
13.87331118359117
 21
341.5398179659206
 31
0.0
  0
INSERT
  5
314
330
30F
100
AcDbEntity
  8
SUNPO
 62
     0
370
    -2
100
AcDbBlockReference
  2
_OPEN30
 10
13.87331118359116
 20
317.7398179685005
 30
0.0
 41
2.0
 42
2.0
 43
2.0
 50
270.0
  0
INSERT
  5
315
330
30F
100
AcDbEntity
  8
SUNPO
 62
     0
370
    -2
100
AcDbBlockReference
  2
_OPEN30
 10
13.87331118359117
 20
343.5398179659206
 30
0.0
 41
2.0
 42
2.0
 43
2.0
 50
90.0
  0
MTEXT
  5
316
330
30F
100
AcDbEntity
  8
SUNPO
 62
     0
100
AcDbMText
 10
12.12331118359111
 20
330.6398179672105
 30
0.0
 40
2.5
 41
0.0
 71
     5
 72
     1
  1
\A1;516
 11
0.0000000000000001
 21
1.0
 31
0.0
 73
     1
 44
1.0
1001
ACAD
1000
MTEXTBEGIN
1070
    73
1070
     1
1070
    44
1040
1.0
1070
    74
1070
     0
1000
MTEXTEND
  0
POINT
  5
317
330
30F
100
AcDbEntity
  8
DEFPOINTS
 62
     0
100
AcDbPoint
 10
23.87331118359117
 20
317.7398179685005
 30
0.0
  0
POINT
  5
318
330
30F
100
AcDbEntity
  8
DEFPOINTS
 62
     0
100
AcDbPoint
 10
23.87331118359117
 20
343.5398179659206
 30
0.0
  0
POINT
  5
319
330
30F
100
AcDbEntity
  8
DEFPOINTS
 62
     0
100
AcDbPoint
 10
13.87331118359117
 20
343.5398179659206
 30
0.0
  0
ENDBLK
  5
31A
330
30F
100
AcDbEntity
  8
0
100
AcDbBlockEnd
  0
BLOCK
  5
31D
330
31C
100
AcDbEntity
  8
0
100
AcDbBlockBegin
  2
*D2
 70
     1
 10
0.0
 20
0.0
 30
0.0
  3
*D2
  1

  0
LINE
  5
31E
330
31C
100
AcDbEntity
  8
SUNPO
 62
     0
370
    -2
100
AcDbLine
 10
29.70091197244438
 20
314.0490477927317
 30
0.0
 11
29.70091197244438
 21
306.0490477927317
 31
0.0
  0
LINE
  5
31F
330
31C
100
AcDbEntity
  8
SUNPO
 62
     0
370
    -2
100
AcDbLine
 10
68.45091196856924
 20
314.0490477927317
 30
0.0
 11
68.45091196856924
 21
306.0490477927317
 31
0.0
  0
LINE
  5
320
330
31C
100
AcDbEntity
  8
SUNPO
 62
     0
370
    -2
100
AcDbLine
 10
31.70091197244437
 20
308.0490477927317
 30
0.0
 11
66.45091196856924
 21
308.0490477927317
 31
0.0
  0
INSERT
  5
321
330
31C
100
AcDbEntity
  8
SUNPO
 62
     0
370
    -2
100
AcDbBlockReference
  2
_OPEN30
 10
29.70091197244438
 20
308.0490477927317
 30
0.0
 41
2.0
 42
2.0
 43
2.0
 50
180.0
  0
INSERT
  5
322
330
31C
100
AcDbEntity
  8
SUNPO
 62
     0
370
    -2
100
AcDbBlockReference
  2
_OPEN30
 10
68.45091196856924
 20
308.0490477927317
 30
0.0
 41
2.0
 42
2.0
 43
2.0
  0
MTEXT
  5
323
330
31C
100
AcDbEntity
  8
SUNPO
 62
     0
100
AcDbMText
 10
49.07591197050681
 20
309.7990477927317
 30
0.0
 40
2.5
 41
0.0
 71
     5
 72
     1
  1
\A1;775
 73
     1
 44
1.0
1001
ACAD
1000
MTEXTBEGIN
1070
    73
1070
     1
1070
    44
1040
1.0
1070
    74
1070
     0
1000
MTEXTEND
  0
POINT
  5
324
330
31C
100
AcDbEntity
  8
DEFPOINTS
 62
     0
100
AcDbPoint
 10
29.70091197244438
 20
316.0490477927317
 30
0.0
  0
POINT
  5
325
330
31C
100
AcDbEntity
  8
DEFPOINTS
 62
     0
100
AcDbPoint
 10
68.45091196856924
 20
316.0490477927317
 30
0.0
  0
POINT
  5
326
330
31C
100
AcDbEntity
  8
DEFPOINTS
 62
     0
100
AcDbPoint
 10
68.45091196856924
 20
308.0490477927317
 30
0.0
  0
ENDBLK
  5
327
330
31C
100
AcDbEntity
  8
0
100
AcDbBlockEnd
  0
BLOCK
  5
170
330
16F
100
AcDbEntity
  8
0
100
AcDbBlockBegin
  2
*D3
 70
     1
 10
0.0
 20
0.0
 30
0.0
  3
*D3
  1

  0
LINE
  5
171
330
16F
100
AcDbEntity
  8
SUNPO
 62
     0
370
    -2
100
AcDbLine
 10
76.13624137251685
 20
316.0148179685005
 30
0.0
 11
84.13624137251686
 21
316.0148179685005
 31
0.0
  0
LINE
  5
172
330
16F
100
AcDbEntity
  8
SUNPO
 62
     0
370
    -2
100
AcDbLine
 10
76.13624137251685
 20
346.5148179685004
 30
0.0
 11
84.13624137251686
 21
346.5148179685004
 31
0.0
  0
LINE
  5
173
330
16F
100
AcDbEntity
  8
SUNPO
 62
     0
370
    -2
100
AcDbLine
 10
82.13624137251684
 20
318.0148179685005
 30
0.0
 11
82.13624137251684
 21
344.5148179685004
 31
0.0
  0
INSERT
  5
174
330
16F
100
AcDbEntity
  8
SUNPO
 62
     0
370
    -2
100
AcDbBlockReference
  2
_OPEN30
 10
82.13624137251684
 20
316.0148179685005
 30
0.0
 41
2.0
 42
2.0
 43
2.0
 50
270.0
  0
INSERT
  5
175
330
16F
100
AcDbEntity
  8
SUNPO
 62
     0
370
    -2
100
AcDbBlockReference
  2
_OPEN30
 10
82.13624137251684
 20
346.5148179685004
 30
0.0
 41
2.0
 42
2.0
 43
2.0
 50
90.0
  0
MTEXT
  5
176
330
16F
100
AcDbEntity
  8
SUNPO
 62
     0
100
AcDbMText
 10
80.38624137251678
 20
331.2648179685004
 30
0.0
 40
2.5
 41
0.0
 71
     5
 72
     1
  1
\A1;610
 11
0.0000000000000001
 21
1.0
 31
0.0
 73
     1
 44
1.0
1001
ACAD
1000
MTEXTBEGIN
1070
    73
1070
     1
1070
    44
1040
1.0
1070
    74
1070
     0
1000
MTEXTEND
  0
POINT
  5
177
330
16F
100
AcDbEntity
  8
DEFPOINTS
 62
     0
100
AcDbPoint
 10
74.13624137251685
 20
316.0148179685005
 30
0.0
  0
POINT
  5
179
330
16F
100
AcDbEntity
  8
DEFPOINTS
 62
     0
100
AcDbPoint
 10
74.13624137251685
 20
346.5148179685004
 30
0.0
  0
POINT
  5
17A
330
16F
100
AcDbEntity
  8
DEFPOINTS
 62
     0
100
AcDbPoint
 10
82.13624137251684
 20
346.5148179685004
 30
0.0
  0
ENDBLK
  5
17B
330
16F
100
AcDbEntity
  8
0
100
AcDbBlockEnd
  0
BLOCK
  5
17E
330
17D
100
AcDbEntity
  8
0
100
AcDbBlockBegin
  2
*D4
 70
     1
 10
0.0
 20
0.0
 30
0.0
  3
*D4
  1

  0
LINE
  5
17F
330
17D
100
AcDbEntity
  8
SUNPO
 62
     0
370
    -2
100
AcDbLine
 10
24.0259119705068
 20
348.5145315241491
 30
0.0
 11
24.0259119705068
 21
356.5145315241491
 31
0.0
  0
LINE
  5
180
330
17D
100
AcDbEntity
  8
SUNPO
 62
     0
370
    -2
100
AcDbLine
 10
74.12591197050682
 20
348.5145315241491
 30
0.0
 11
74.12591197050682
 21
356.5145315241491
 31
0.0
  0
LINE
  5
181
330
17D
100
AcDbEntity
  8
SUNPO
 62
     0
370
    -2
100
AcDbLine
 10
26.0259119705068
 20
354.5145315241491
 30
0.0
 11
72.12591197050682
 21
354.5145315241491
 31
0.0
  0
INSERT
  5
182
330
17D
100
AcDbEntity
  8
SUNPO
 62
     0
370
    -2
100
AcDbBlockReference
  2
_OPEN30
 10
24.0259119705068
 20
354.5145315241491
 30
0.0
 41
2.0
 42
2.0
 43
2.0
 50
180.0
  0
INSERT
  5
183
330
17D
100
AcDbEntity
  8
SUNPO
 62
     0
370
    -2
100
AcDbBlockReference
  2
_OPEN30
 10
74.12591197050682
 20
354.5145315241491
 30
0.0
 41
2.0
 42
2.0
 43
2.0
  0
MTEXT
  5
184
330
17D
100
AcDbEntity
  8
SUNPO
 62
     0
100
AcDbMText
 10
49.07591197050681
 20
356.2645315241491
 30
0.0
 40
2.5
 41
0.0
 71
     5
 72
     1
  1
\A1;1020
 73
     1
 44
1.0
1001
ACAD
1000
MTEXTBEGIN
1070
    73
1070
     1
1070
    44
1040
1.0
1070
    74
1070
     0
1000
MTEXTEND
  0
POINT
  5
185
330
17D
100
AcDbEntity
  8
DEFPOINTS
 62
     0
100
AcDbPoint
 10
24.0259119705068
 20
346.5145315241491
 30
0.0
  0
POINT
  5
186
330
17D
100
AcDbEntity
  8
DEFPOINTS
 62
     0
100
AcDbPoint
 10
74.12591197050682
 20
346.5145315241491
 30
0.0
  0
POINT
  5
187
330
17D
100
AcDbEntity
  8
DEFPOINTS
 62
     0
100
AcDbPoint
 10
74.12591197050682
 20
354.5145315241491
 30
0.0
  0
ENDBLK
  5
188
330
17D
100
AcDbEntity
  8
0
100
AcDbBlockEnd
  0
BLOCK
  5
3BF
330
3B5
100
AcDbEntity
  8
0
100
AcDbBlockBegin
  2
*D5
 70
     1
 10
0.0
 20
0.0
 30
0.0
  3
*D5
  1

  0
LINE
  5
3B6
330
3B5
100
AcDbEntity
  8
SUNPO
 62
     0
370
    -2
100
AcDbLine
 10
-29.86860532368701
 20
-0.6762425544411031
 30
0.0
 11
-29.86860532368701
 21
-8.676242554441103
 31
0.0
  0
LINE
  5
3B7
330
3B5
100
AcDbEntity
  8
SUNPO
 62
     0
370
    -2
100
AcDbLine
 10
8.881394672437863
 20
-0.6762425544411031
 30
0.0
 11
8.881394672437863
 21
-8.676242554441103
 31
0.0
  0
LINE
  5
3B8
330
3B5
100
AcDbEntity
  8
SUNPO
 62
     0
370
    -2
100
AcDbLine
 10
-27.86860532368701
 20
-6.676242554441103
 30
0.0
 11
6.881394672437863
 21
-6.676242554441103
 31
0.0
  0
INSERT
  5
3B9
330
3B5
100
AcDbEntity
  8
SUNPO
 62
     0
370
    -2
100
AcDbBlockReference
  2
_OPEN30
 10
-29.86860532368701
 20
-6.676242554441103
 30
0.0
 41
2.0
 42
2.0
 43
2.0
 50
180.0
  0
INSERT
  5
3BA
330
3B5
100
AcDbEntity
  8
SUNPO
 62
     0
370
    -2
100
AcDbBlockReference
  2
_OPEN30
 10
8.881394672437863
 20
-6.676242554441103
 30
0.0
 41
2.0
 42
2.0
 43
2.0
  0
MTEXT
  5
3BB
330
3B5
100
AcDbEntity
  8
SUNPO
 62
     0
100
AcDbMText
 10
-10.49360532562457
 20
-4.926242554441103
 30
0.0
 40
2.5
 41
0.0
 71
     5
 72
     1
  1
\A1;775
 73
     1
 44
1.0
1001
ACAD
1000
MTEXTBEGIN
1070
    73
1070
     1
1070
    44
1040
1.0
1070
    74
1070
     0
1000
MTEXTEND
  0
POINT
  5
3BC
330
3B5
100
AcDbEntity
  8
DEFPOINTS
 62
     0
100
AcDbPoint
 10
-29.86860532368701
 20
1.323757445558896
 30
0.0
  0
POINT
  5
3BD
330
3B5
100
AcDbEntity
  8
DEFPOINTS
 62
     0
100
AcDbPoint
 10
8.881394672437863
 20
1.323757445558896
 30
0.0
  0
POINT
  5
3BE
330
3B5
100
AcDbEntity
  8
DEFPOINTS
 62
     0
100
AcDbPoint
 10
8.881394672437863
 20
-6.676242554441103
 30
0.0
  0
ENDBLK
  5
3C0
330
3B5
100
AcDbEntity
  8
0
100
AcDbBlockEnd
  0
BLOCK
  5
3CB
330
3C1
100
AcDbEntity
  8
0
100
AcDbBlockBegin
  2
*D6
 70
     1
 10
0.0
 20
0.0
 30
0.0
  3
*D6
  1

  0
LINE
  5
3C2
330
3C1
100
AcDbEntity
  8
SUNPO
 62
     0
370
    -2
100
AcDbLine
 10
-37.69620611254021
 20
3.014527621327602
 30
0.0
 11
-47.69620611254022
 21
3.014527621327605
 31
0.0
  0
LINE
  5
3C3
330
3C1
100
AcDbEntity
  8
SUNPO
 62
     0
370
    -2
100
AcDbLine
 10
-37.69620611254021
 20
28.81452761874772
 30
0.0
 11
-47.69620611254021
 21
28.81452761874772
 31
0.0
  0
LINE
  5
3C4
330
3C1
100
AcDbEntity
  8
SUNPO
 62
     0
370
    -2
100
AcDbLine
 10
-45.69620611254022
 20
5.014527621327604
 30
0.0
 11
-45.69620611254021
 21
26.81452761874772
 31
0.0
  0
INSERT
  5
3C5
330
3C1
100
AcDbEntity
  8
SUNPO
 62
     0
370
    -2
100
AcDbBlockReference
  2
_OPEN30
 10
-45.69620611254022
 20
3.014527621327604
 30
0.0
 41
2.0
 42
2.0
 43
2.0
 50
270.0
  0
INSERT
  5
3C6
330
3C1
100
AcDbEntity
  8
SUNPO
 62
     0
370
    -2
100
AcDbBlockReference
  2
_OPEN30
 10
-45.69620611254021
 20
28.81452761874772
 30
0.0
 41
2.0
 42
2.0
 43
2.0
 50
90.0
  0
MTEXT
  5
3C7
330
3C1
100
AcDbEntity
  8
SUNPO
 62
     0
100
AcDbMText
 10
-47.44620611254021
 20
15.91452762003765
 30
0.0
 40
2.5
 41
0.0
 71
     5
 72
     1
  1
\A1;516
 11
0.0000000000000001
 21
1.0
 31
0.0
 73
     1
 44
1.0
1001
ACAD
1000
MTEXTBEGIN
1070
    73
1070
     1
1070
    44
1040
1.0
1070
    74
1070
     0
1000
MTEXTEND
  0
POINT
  5
3C8
330
3C1
100
AcDbEntity
  8
DEFPOINTS
 62
     0
100
AcDbPoint
 10
-35.69620611254021
 20
3.014527621327601
 30
0.0
  0
POINT
  5
3C9
330
3C1
100
AcDbEntity
  8
DEFPOINTS
 62
     0
100
AcDbPoint
 10
-35.69620611254021
 20
28.81452761874772
 30
0.0
  0
POINT
  5
3CA
330
3C1
100
AcDbEntity
  8
DEFPOINTS
 62
     0
100
AcDbPoint
 10
-45.69620611254021
 20
28.81452761874772
 30
0.0
  0
ENDBLK
  5
3CC
330
3C1
100
AcDbEntity
  8
0
100
AcDbBlockEnd
  0
BLOCK
  5
3D7
330
3CD
100
AcDbEntity
  8
0
100
AcDbBlockBegin
  2
*D7
 70
     1
 10
0.0
 20
0.0
 30
0.0
  3
*D7
  1

  0
LINE
  5
3CE
330
3CD
100
AcDbEntity
  8
SUNPO
 62
     0
370
    -2
100
AcDbLine
 10
-35.54360532562458
 20
33.78924117697625
 30
0.0
 11
-35.54360532562458
 21
41.78924117697625
 31
0.0
  0
LINE
  5
3CF
330
3CD
100
AcDbEntity
  8
SUNPO
 62
     0
370
    -2
100
AcDbLine
 10
14.55639467437544
 20
33.78924117697625
 30
0.0
 11
14.55639467437544
 21
41.78924117697625
 31
0.0
  0
LINE
  5
3D0
330
3CD
100
AcDbEntity
  8
SUNPO
 62
     0
370
    -2
100
AcDbLine
 10
-33.54360532562458
 20
39.78924117697625
 30
0.0
 11
12.55639467437544
 21
39.78924117697625
 31
0.0
  0
INSERT
  5
3D1
330
3CD
100
AcDbEntity
  8
SUNPO
 62
     0
370
    -2
100
AcDbBlockReference
  2
_OPEN30
 10
-35.54360532562458
 20
39.78924117697625
 30
0.0
 41
2.0
 42
2.0
 43
2.0
 50
180.0
  0
INSERT
  5
3D2
330
3CD
100
AcDbEntity
  8
SUNPO
 62
     0
370
    -2
100
AcDbBlockReference
  2
_OPEN30
 10
14.55639467437544
 20
39.78924117697625
 30
0.0
 41
2.0
 42
2.0
 43
2.0
  0
MTEXT
  5
3D3
330
3CD
100
AcDbEntity
  8
SUNPO
 62
     0
100
AcDbMText
 10
-10.49360532562457
 20
41.53924117697624
 30
0.0
 40
2.5
 41
0.0
 71
     5
 72
     1
  1
\A1;1020
 73
     1
 44
1.0
1001
ACAD
1000
MTEXTBEGIN
1070
    73
1070
     1
1070
    44
1040
1.0
1070
    74
1070
     0
1000
MTEXTEND
  0
POINT
  5
3D4
330
3CD
100
AcDbEntity
  8
DEFPOINTS
 62
     0
100
AcDbPoint
 10
-35.54360532562458
 20
31.78924117697625
 30
0.0
  0
POINT
  5
3D5
330
3CD
100
AcDbEntity
  8
DEFPOINTS
 62
     0
100
AcDbPoint
 10
14.55639467437544
 20
31.78924117697625
 30
0.0
  0
POINT
  5
3D6
330
3CD
100
AcDbEntity
  8
DEFPOINTS
 62
     0
100
AcDbPoint
 10
14.55639467437544
 20
39.78924117697625
 30
0.0
  0
ENDBLK
  5
3D8
330
3CD
100
AcDbEntity
  8
0
100
AcDbBlockEnd
  0
BLOCK
  5
3E3
330
3D9
100
AcDbEntity
  8
0
100
AcDbBlockBegin
  2
*D8
 70
     1
 10
0.0
 20
0.0
 30
0.0
  3
*D8
  1

  0
LINE
  5
3DA
330
3D9
100
AcDbEntity
  8
SUNPO
 62
     0
370
    -2
100
AcDbLine
 10
16.56672407638547
 20
1.289527621327578
 30
0.0
 11
24.56672407638546
 21
1.289527621327576
 31
0.0
  0
LINE
  5
3DB
330
3D9
100
AcDbEntity
  8
SUNPO
 62
     0
370
    -2
100
AcDbLine
 10
16.56672407638547
 20
31.78952762132758
 30
0.0
 11
24.56672407638547
 21
31.78952762132758
 31
0.0
  0
LINE
  5
3DC
330
3D9
100
AcDbEntity
  8
SUNPO
 62
     0
370
    -2
100
AcDbLine
 10
22.56672407638546
 20
3.289527621327577
 30
0.0
 11
22.56672407638547
 21
29.78952762132758
 31
0.0
  0
INSERT
  5
3DD
330
3D9
100
AcDbEntity
  8
SUNPO
 62
     0
370
    -2
100
AcDbBlockReference
  2
_OPEN30
 10
22.56672407638546
 20
1.289527621327577
 30
0.0
 41
2.0
 42
2.0
 43
2.0
 50
270.0
  0
INSERT
  5
3DE
330
3D9
100
AcDbEntity
  8
SUNPO
 62
     0
370
    -2
100
AcDbBlockReference
  2
_OPEN30
 10
22.56672407638547
 20
31.78952762132758
 30
0.0
 41
2.0
 42
2.0
 43
2.0
 50
90.0
  0
MTEXT
  5
3DF
330
3D9
100
AcDbEntity
  8
SUNPO
 62
     0
100
AcDbMText
 10
20.81672407638546
 20
16.53952762132758
 30
0.0
 40
2.5
 41
0.0
 71
     5
 72
     1
  1
\A1;610
 11
0.0000000000000001
 21
1.0
 31
0.0
 73
     1
 44
1.0
1001
ACAD
1000
MTEXTBEGIN
1070
    73
1070
     1
1070
    44
1040
1.0
1070
    74
1070
     0
1000
MTEXTEND
  0
POINT
  5
3E0
330
3D9
100
AcDbEntity
  8
DEFPOINTS
 62
     0
100
AcDbPoint
 10
14.56672407638547
 20
1.289527621327579
 30
0.0
  0
POINT
  5
3E1
330
3D9
100
AcDbEntity
  8
DEFPOINTS
 62
     0
100
AcDbPoint
 10
14.56672407638547
 20
31.78952762132758
 30
0.0
  0
POINT
  5
3E2
330
3D9
100
AcDbEntity
  8
DEFPOINTS
 62
     0
100
AcDbPoint
 10
22.56672407638547
 20
31.78952762132758
 30
0.0
  0
ENDBLK
  5
3E4
330
3D9
100
AcDbEntity
  8
0
100
AcDbBlockEnd
  0
ENDSEC
  0
SECTION
  2
ENTITIES
  0
TEXT
  5
31
330
2
100
AcDbEntity
  8
TOUROKU
100
AcDbText
 10
20.73043268083718
 20
45.77554477776175
 30
0.0
 40
2.0
  1
ＴＨ４２ＰＨ１１ＫＲ＋ＴＹＷＫ４２ＰＶ７
 72
     2
 11
67.93043268083716
 21
45.77554477776175
 31
0.0
100
AcDbText
  0
TEXT
  5
33
330
2
100
AcDbEntity
  8
MOJI1
100
AcDbText
 10
-30.06951735209054
 20
51.77554477776187
 30
0.0
 40
4.0
  1
ハイビジョンプラズマディスプレイ壁掛け金具付
 41
0.93
100
AcDbText
  0
ELLIPSE
  5
34
330
2
100
AcDbEntity
  8
GAIKEI
  6
Continuous
 62
     1
100
AcDbEllipse
 10
-35.46145057672504
 20
31.64015886758102
 30
0.0
 11
-0.0079467640876592
 21
0.4318755208183608
 31
0.0
210
0.0
220
0.0
230
1.0
 40
0.0404429999982552
 41
4.285401047308635
 42
4.371811220305964
  0
ELLIPSE
  5
36
330
2
100
AcDbEntity
  8
GAIKEI
  6
Continuous
 62
     1
100
AcDbEllipse
 10
-35.46145057672499
 20
1.453898124545958
 30
0.0
 11
0.007946764087659
 21
0.4318755208183799
 31
0.0
210
0.0
220
0.0
230
1.0
 40
0.0404429999982537
 41
-1.230218566716188
 42
-1.143808393718863
  0
ELLIPSE
  5
37
330
2
100
AcDbEntity
  8
GAIKEI
  6
Continuous
 62
     1
100
AcDbEllipse
 10
-35.38654672201898
 20
31.71506272228715
 30
0.0
 11
-0.4318755208192349
 21
0.0079467640870345
 31
0.0
210
0.0
220
0.0
230
1.0
 40
0.0404429999987592
 41
1.911374086872785
 42
1.997784259870051
  0
ELLIPSE
  5
38
330
2
100
AcDbEntity
  8
GAIKEI
  6
Continuous
 62
     1
100
AcDbEllipse
 10
-35.38654672201898
 20
1.378994269839779
 30
0.0
 11
0.4318755208195003
 21
0.0079467640870295
 31
0.0
210
0.0
220
0.0
230
1.0
 40
0.0404429999987397
 41
1.14380839372002
 42
1.230218566717296
  0
ELLIPSE
  5
39
330
2
100
AcDbEntity
  8
GAIKEI
  6
Continuous
 62
     1
100
AcDbEllipse
 10
14.47442910895137
 20
1.453898124545958
 30
0.0
 11
-0.007946764091891
 21
0.4318755205240271
 31
0.0
210
0.0
220
0.0
230
1.0
 40
0.0404430000213599
 41
1.143808393408041
 42
1.23021856647389
  0
ELLIPSE
  5
3A
330
2
100
AcDbEntity
  8
GAIKEI
  6
Continuous
 62
     1
100
AcDbEllipse
 10
14.47442910895137
 20
31.64015886758102
 30
0.0
 11
0.0079467640876545
 21
0.4318755208186895
 31
0.0
210
0.0
220
0.0
230
1.0
 40
0.0404429999982294
 41
1.911374086873349
 42
1.997784259870601
  0
ELLIPSE
  5
3B
330
2
100
AcDbEntity
  8
GAIKEI
  6
Continuous
 62
     1
100
AcDbEllipse
 10
14.39952525424525
 20
31.71506272228715
 30
0.0
 11
0.4318755208195939
 21
0.007946764087639
 31
0.0
210
0.0
220
0.0
230
1.0
 40
0.040442999998161
 41
4.285401047309866
 42
4.37181122030712
  0
ELLIPSE
  5
3C
330
2
100
AcDbEntity
  8
GAIKEI
  6
Continuous
 62
     1
100
AcDbEllipse
 10
14.39952525424525
 20
1.378994269839779
 30
0.0
 11
-0.4318755208195887
 21
0.0079467640876391
 31
0.0
210
0.0
220
0.0
230
1.0
 40
0.0404429999981614
 41
-1.230218566717322
 42
-1.143808393720068
  0
ELLIPSE
  5
3D
330
2
100
AcDbEntity
  8
GAIKEI
  6
Continuous
 62
     1
100
AcDbEllipse
 10
-32.97201677036333
 20
29.55194270120939
 30
0.0
 11
-0.0641306772673077
 21
0.0819853242396075
 31
0.0
210
0.0
220
0.0
230
1.0
 40
0.9602119999885655
 41
-0.6513938849655593
 42
-0.3742724759626874
  0
ELLIPSE
  5
3E
330
2
100
AcDbEntity
  8
GAIKEI
  6
Continuous
 62
     1
100
AcDbEllipse
 10
12.01635746463074
 20
29.55194270120939
 30
0.0
 11
0.0641306772729958
 21
0.0819853242353328
 31
0.0
210
0.0
220
0.0
230
1.0
 40
0.9602119999921054
 41
0.3742724760321388
 42
0.6513938850329191
  0
ELLIPSE
  5
3F
330
2
100
AcDbEntity
  8
GAIKEI
  6
Continuous
 62
     1
100
AcDbEllipse
 10
-32.97201677036327
 20
3.674560680703507
 30
0.0
 11
0.0641306772804553
 21
0.0819853242296695
 31
0.0
210
0.0
220
0.0
230
1.0
 40
0.960211999997915
 41
3.515865129711884
 42
3.792986538710805
  0
ELLIPSE
  5
40
330
2
100
AcDbEntity
  8
GAIKEI
  6
Continuous
 62
     1
100
AcDbEllipse
 10
12.01635746463074
 20
3.674560680703507
 30
0.0
 11
-0.0641306772997718
 21
0.081985324215292
 31
0.0
210
0.0
220
0.0
230
1.0
 40
0.9602120000078306
 41
2.490198768239517
 42
2.767320177232699
  0
ELLIPSE
  5
41
330
2
100
AcDbEntity
  8
GAIKEI
  6
Continuous
 62
     1
100
AcDbEllipse
 10
-32.97200581939041
 20
29.55193175023652
 30
0.0
 11
-0.0820793596799872
 21
0.0640376871272272
 31
0.0
210
0.0
220
0.0
230
1.0
 40
0.960042000004322
 41
0.3752614366540838
 42
0.6500607538632135
  0
ELLIPSE
  5
42
330
2
100
AcDbEntity
  8
GAIKEI
  6
Continuous
 62
     1
100
AcDbEllipse
 10
-32.97200581939035
 20
3.674571631676485
 30
0.0
 11
0.0820793596877476
 21
0.0640376871167844
 31
0.0
210
0.0
220
0.0
230
1.0
 40
0.9600419999991443
 41
2.491531899849828
 42
2.766331217060938
  0
ELLIPSE
  5
43
330
2
100
AcDbEntity
  8
GAIKEI
  6
Continuous
 62
     1
100
AcDbEllipse
 10
12.01634651365788
 20
29.55193175023652
 30
0.0
 11
0.0820793596853468
 21
0.0640376871199563
 31
0.0
210
0.0
220
0.0
230
1.0
 40
0.9600420000016073
 41
-0.6500607537771041
 42
-0.3752614365658411
  0
ELLIPSE
  5
44
330
2
100
AcDbEntity
  8
GAIKEI
  6
Continuous
 62
     1
100
AcDbEllipse
 10
12.01634651365788
 20
3.674571631676485
 30
0.0
 11
-0.0820793596818472
 21
0.064037687124634
 31
0.0
210
0.0
220
0.0
230
1.0
 40
0.9600420000044229
 41
3.516854090213623
 42
3.791653407422807
  0
ELLIPSE
  5
45
330
2
100
AcDbEntity
  8
GAIKEI
  6
Continuous
 62
     1
100
AcDbEllipse
 10
12.01635746463074
 20
3.677299624040301
 30
0.0
 11
-0.0911712405080007
 21
0.1233277373757855
 31
0.0
210
0.0
220
0.0
230
1.0
 40
0.977625999999314
 41
2.515781018547835
 42
2.792902427545178
  0
ELLIPSE
  5
46
330
2
100
AcDbEntity
  8
GAIKEI
  6
Continuous
 62
     1
100
AcDbEllipse
 10
-32.97201677036327
 20
3.677299624040301
 30
0.0
 11
0.0911712404724387
 21
0.1233277374014959
 31
0.0
210
0.0
220
0.0
230
1.0
 40
0.9776259999899165
 41
3.490282879346349
 42
3.767404288348283
  0
ELLIPSE
  5
47
330
2
100
AcDbEntity
  8
GAIKEI
  6
Continuous
 62
     1
100
AcDbEllipse
 10
-32.97201677036333
 20
29.54920375787259
 30
0.0
 11
-0.0911712405137963
 21
0.1233277373716018
 31
0.0
210
0.0
220
0.0
230
1.0
 40
0.9776260000001293
 41
-0.6258116350885031
 42
-0.3486902260919513
  0
ELLIPSE
  5
48
330
2
100
AcDbEntity
  8
GAIKEI
  6
Continuous
 62
     1
100
AcDbEllipse
 10
12.01635746463074
 20
29.54920375787259
 30
0.0
 11
0.0911712405204928
 21
0.1233277373667308
 31
0.0
210
0.0
220
0.0
230
1.0
 40
0.9776260000027797
 41
0.3486902261462024
 42
0.6258116351416079
  0
ELLIPSE
  5
49
330
2
100
AcDbEntity
  8
GAIKEI
  6
Continuous
 62
     1
100
AcDbEllipse
 10
-32.96922697250835
 20
3.674571631676485
 30
0.0
 11
0.1234686257683748
 21
0.0910092022787943
 31
0.0
210
0.0
220
0.0
230
1.0
 40
0.9775040000039993
 41
2.51722575267712
 42
2.792025069887031
  0
ELLIPSE
  5
4A
330
2
100
AcDbEntity
  8
GAIKEI
  6
Continuous
 62
     1
100
AcDbEllipse
 10
-32.96922697250841
 20
29.55193175023652
 30
0.0
 11
-0.1234686257922888
 21
0.0910092022455151
 31
0.0
210
0.0
220
0.0
230
1.0
 40
0.9775039999962212
 41
0.3495675834329772
 42
0.6243669006472979
  0
ELLIPSE
  5
4B
330
2
100
AcDbEntity
  8
GAIKEI
  6
Continuous
 62
     1
100
AcDbEllipse
 10
12.01356766677583
 20
29.55193175023652
 30
0.0
 11
0.1234686257867853
 21
0.0910092022531102
 31
0.0
210
0.0
220
0.0
230
1.0
 40
0.977503999999106
 41
-0.624366900707318
 42
-0.3495675834944374
  0
ELLIPSE
  5
4C
330
2
100
AcDbEntity
  8
GAIKEI
  6
Continuous
 62
     1
100
AcDbEllipse
 10
12.01356766677583
 20
3.674571631676485
 30
0.0
 11
-0.1234686257771081
 21
0.0910092022665973
 31
0.0
210
0.0
220
0.0
230
1.0
 40
0.977504000001821
 41
3.491160237193698
 42
3.76595955440519
  0
ELLIPSE
  5
4D
330
2
100
AcDbEntity
  8
GAIKEI
  6
Continuous
 62
     1
100
AcDbEllipse
 10
14.39952525424525
 20
31.64015886758102
 30
0.0
 11
-0.0458035635644591
 21
0.4845611117803465
 31
0.0
210
0.0
220
0.0
230
1.0
 40
0.0083090000075435
 41
4.334209237380324
 42
4.420619410483875
  0
ELLIPSE
  5
4E
330
2
100
AcDbEntity
  8
GAIKEI
  6
Continuous
 62
     1
100
AcDbEllipse
 10
14.39952525424525
 20
31.64015886758102
 30
0.0
 11
-0.4845611135830396
 21
0.0458035637240449
 31
0.0
210
0.0
220
0.0
230
1.0
 40
0.0083089999805696
 41
-1.279026758011011
 42
-1.192616585267888
  0
ELLIPSE
  5
4F
330
2
100
AcDbEntity
  8
GAIKEI
  6
Continuous
 62
     1
100
AcDbEllipse
 10
14.39952525424525
 20
1.453898124545958
 30
0.0
 11
0.4845611134166674
 21
0.0458035637092122
 31
0.0
210
0.0
220
0.0
230
1.0
 40
0.0083089999831293
 41
4.334209238721307
 42
4.420619411497712
  0
ELLIPSE
  5
50
330
2
100
AcDbEntity
  8
GAIKEI
  6
Continuous
 62
     1
100
AcDbEllipse
 10
14.39952525424525
 20
1.453898124545958
 30
0.0
 11
0.0458035635727632
 21
0.4845611118773602
 31
0.0
210
0.0
220
0.0
230
1.0
 40
0.0083090000063217
 41
-1.279026756954143
 42
-1.192616583870014
  0
ELLIPSE
  5
51
330
2
100
AcDbEntity
  8
GAIKEI
  6
Continuous
 62
     1
100
AcDbEllipse
 10
13.54778393273017
 20
2.305639446060922
 30
0.0
 11
-0.5814136090118265
 21
0.5814136090118265
 31
0.0
210
0.0
220
0.0
230
1.0
 40
0.4561100000001053
 41
2.756538952253019
 42
3.526646354926448
  0
ELLIPSE
  5
52
330
2
100
AcDbEntity
  8
GAIKEI
  6
Continuous
 62
     1
100
AcDbEllipse
 10
-34.5348054005039
 20
2.305639446060922
 30
0.0
 11
0.5814136090118486
 21
0.5814136090118486
 31
0.0
210
0.0
220
0.0
230
1.0
 40
0.4561099999999815
 41
2.756538952252924
 42
3.526646354926543
  0
ELLIPSE
  5
53
330
2
100
AcDbEntity
  8
GAIKEI
  6
Continuous
 62
     1
100
AcDbEllipse
 10
13.54778393273017
 20
30.78841754606595
 30
0.0
 11
0.581413609011829
 21
0.581413609011829
 31
0.0
210
0.0
220
0.0
230
1.0
 40
0.4561099999999685
 41
5.898131605842851
 42
6.668239008516433
  0
ELLIPSE
  5
54
330
2
100
AcDbEntity
  8
GAIKEI
  6
Continuous
 62
     1
100
AcDbEllipse
 10
-34.5348054005039
 20
30.78841754606595
 30
0.0
 11
-0.581413609011845
 21
0.581413609011845
 31
0.0
210
0.0
220
0.0
230
1.0
 40
0.4561099999999933
 41
-0.3850537013368589
 42
0.3850537013368587
  0
ARC
  5
55
330
2
100
AcDbEntity
  8
GAIKEI
  6
Continuous
 62
     1
100
AcDbCircle
 10
-35.34358755538455
 20
31.59719970094665
 30
0.0
 40
0.2000177702400075
100
AcDbArc
 50
179.9215319999855
 51
180.0
  0
ARC
  5
56
330
2
100
AcDbEntity
  8
GAIKEI
  6
Continuous
 62
     1
100
AcDbCircle
 10
-35.34358755538455
 20
1.496857291180276
 30
0.0
 40
0.2000177702400075
100
AcDbArc
 50
180.0
 51
180.0784680000144
  0
ARC
  5
57
330
2
100
AcDbEntity
  8
GAIKEI
  6
Continuous
 62
     1
100
AcDbCircle
 10
14.35656608761093
 20
1.496857291180276
 30
0.0
 40
0.2000177702400075
100
AcDbArc
 50
359.9215319999856
 51
0.0
  0
ARC
  5
58
330
2
100
AcDbEntity
  8
GAIKEI
  6
Continuous
 62
     1
100
AcDbCircle
 10
14.35656608761087
 20
31.59719970094665
 30
0.0
 40
0.2000177702400075
100
AcDbArc
 50
0.0
 51
0.0784680000144216
  0
ARC
  5
59
330
2
100
AcDbEntity
  8
GAIKEI
  6
Continuous
 62
     1
100
AcDbCircle
 10
14.35656608761087
 20
31.59719970094665
 30
0.0
 40
0.2000177702400075
100
AcDbArc
 50
89.92153200000187
 51
90.0
  0
ARC
  5
5A
330
2
100
AcDbEntity
  8
GAIKEI
  6
Continuous
 62
     1
100
AcDbCircle
 10
-35.34358755538455
 20
31.59719970094665
 30
0.0
 40
0.2000177702400075
100
AcDbArc
 50
90.0
 51
90.07846799999812
  0
ARC
  5
5B
330
2
100
AcDbEntity
  8
GAIKEI
  6
Continuous
 62
     1
100
AcDbCircle
 10
-35.34358755538455
 20
1.496857291180276
 30
0.0
 40
0.2000177702400075
100
AcDbArc
 50
269.9215320000019
 51
270.0
  0
ARC
  5
5C
330
2
100
AcDbEntity
  8
GAIKEI
  6
Continuous
 62
     1
100
AcDbCircle
 10
14.35656608761093
 20
1.496857291180276
 30
0.0
 40
0.2000177702400075
100
AcDbArc
 50
270.0
 51
270.0784679999981
  0
ARC
  5
5D
330
2
100
AcDbEntity
  8
GAIKEI
  6
Continuous
 62
     7
100
AcDbCircle
 10
-35.34358755538455
 20
1.496857291180276
 30
0.0
 40
0.2000177702400075
100
AcDbArc
 50
180.0784680000144
 51
269.9215320000019
  0
ARC
  5
5E
330
2
100
AcDbEntity
  8
GAIKEI
  6
Continuous
 62
     7
100
AcDbCircle
 10
14.35656608761093
 20
1.496857291180276
 30
0.0
 40
0.2000177702400075
100
AcDbArc
 50
270.0784679999981
 51
359.9215319999856
  0
ARC
  5
5F
330
2
100
AcDbEntity
  8
GAIKEI
  6
Continuous
 62
     7
100
AcDbCircle
 10
-35.34358755538455
 20
31.59719970094665
 30
0.0
 40
0.2000177702400075
100
AcDbArc
 50
90.07846799999812
 51
179.9215319999855
  0
ARC
  5
60
330
2
100
AcDbEntity
  8
GAIKEI
  6
Continuous
 62
     7
100
AcDbCircle
 10
14.35656608761087
 20
31.59719970094665
 30
0.0
 40
0.2000177702400075
100
AcDbArc
 50
0.0784680000144216
 51
89.92153200000187
  0
ARC
  5
61
330
2
100
AcDbEntity
  8
GAIKEI
  6
Continuous
 62
     1
100
AcDbCircle
 10
-32.97624899636827
 20
29.5561683766324
 30
0.0
 40
0.0982869821404501
100
AcDbArc
 50
105.7493539999931
 51
164.3805440000049
  0
ARC
  5
62
330
2
100
AcDbEntity
  8
GAIKEI
  6
Continuous
 62
     1
100
AcDbCircle
 10
12.02058969063574
 20
29.5561683766324
 30
0.0
 40
0.0982869821404501
100
AcDbArc
 50
15.61945599999503
 51
74.25064600000684
  0
ARC
  5
63
330
2
100
AcDbEntity
  8
GAIKEI
  6
Continuous
 62
     1
100
AcDbCircle
 10
-33.91073579498783
 20
2.889545566066885
 30
0.0
 40
0.1000088851200038
100
AcDbArc
 50
180.0
 51
270.0
  0
ARC
  5
64
330
2
100
AcDbEntity
  8
GAIKEI
  6
Continuous
 62
     1
100
AcDbCircle
 10
12.95507648925542
 20
2.889545566066885
 30
0.0
 40
0.1000088851200038
100
AcDbArc
 50
270.0
 51
0.0
  0
ARC
  5
65
330
2
100
AcDbEntity
  8
GAIKEI
  6
Continuous
 62
     1
100
AcDbCircle
 10
-33.91073579498789
 20
30.18950967658827
 30
0.0
 40
0.1000088851200038
100
AcDbArc
 50
90.0
 51
180.0
  0
ARC
  5
66
330
2
100
AcDbEntity
  8
GAIKEI
  6
Continuous
 62
     1
100
AcDbCircle
 10
12.95507648925542
 20
30.18950967658827
 30
0.0
 40
0.1000088851200038
100
AcDbArc
 50
0.0
 51
90.0
  0
ARC
  5
67
330
2
100
AcDbEntity
  8
GAIKEI
  6
Continuous
 62
     1
100
AcDbCircle
 10
-33.02679788729875
 20
2.119412601052317
 30
0.0
 40
0.025002221280001
100
AcDbArc
 50
90.0
 51
180.0
  0
ARC
  5
68
330
2
100
AcDbEntity
  8
GAIKEI
  6
Continuous
 62
     1
100
AcDbCircle
 10
-32.72677123193876
 20
2.119412601052317
 30
0.0
 40
0.025002221280001
100
AcDbArc
 50
0.0
 51
90.0
  0
ARC
  5
69
330
2
100
AcDbEntity
  8
GAIKEI
  6
Continuous
 62
     1
100
AcDbCircle
 10
-33.02679788729875
 20
1.81938594569226
 30
0.0
 40
0.025002221280001
100
AcDbArc
 50
180.0
 51
270.0
  0
ARC
  5
6A
330
2
100
AcDbEntity
  8
GAIKEI
  6
Continuous
 62
     1
100
AcDbCircle
 10
-32.72677123193876
 20
1.81938594569226
 30
0.0
 40
0.025002221280001
100
AcDbArc
 50
270.0
 51
0.0
  0
ARC
  5
6B
330
2
100
AcDbEntity
  8
GAIKEI
  6
Continuous
 62
     1
100
AcDbCircle
 10
12.95507648925542
 20
30.18950967658827
 30
0.0
 40
0.2019818947393219
100
AcDbArc
 50
0.0
 51
90.0
  0
ARC
  5
6C
330
2
100
AcDbEntity
  8
GAIKEI
  6
Continuous
 62
     1
100
AcDbCircle
 10
12.95507648925542
 20
2.889545566066885
 30
0.0
 40
0.2019818947393219
100
AcDbArc
 50
270.0
 51
0.0
  0
ARC
  5
6D
330
2
100
AcDbEntity
  8
GAIKEI
  6
Continuous
 62
     1
100
AcDbCircle
 10
-33.91073579498789
 20
30.18950967658827
 30
0.0
 40
0.2019818947393219
100
AcDbArc
 50
90.0
 51
180.0
  0
ARC
  5
6E
330
2
100
AcDbEntity
  8
GAIKEI
  6
Continuous
 62
     1
100
AcDbCircle
 10
-33.91073579498783
 20
2.889545566066885
 30
0.0
 40
0.2019818947393219
100
AcDbArc
 50
180.0
 51
270.0
  0
LINE
  5
6F
330
2
100
AcDbEntity
  8
GAIKEI
  6
Continuous
 62
     7
100
AcDbLine
 10
-35.54360532562458
 20
31.59719970094665
 30
0.0
 11
-35.54360532562458
 21
1.496857291180276
 31
0.0
  0
LINE
  5
70
330
2
100
AcDbEntity
  8
GAIKEI
  6
Continuous
 62
     7
100
AcDbLine
 10
14.55658385785085
 20
31.59719970094665
 30
0.0
 11
14.55658385785085
 21
1.496857291180276
 31
0.0
  0
LINE
  5
71
330
2
100
AcDbEntity
  8
GAIKEI
  6
Continuous
 62
     7
100
AcDbLine
 10
-35.34358755538455
 20
31.79721747118663
 30
0.0
 11
14.35656608761087
 21
31.79721747118663
 31
0.0
  0
LINE
  5
72
330
2
100
AcDbEntity
  8
GAIKEI
  6
Continuous
 62
     7
100
AcDbLine
 10
-35.34358755538455
 20
1.296839520940238
 30
0.0
 11
14.35656608761093
 21
1.296839520940238
 31
0.0
  0
LINE
  5
73
330
2
100
AcDbEntity
  8
GAIKEI
  6
Continuous
 62
     1
100
AcDbLine
 10
-35.44233317827212
 20
1.597855364183033
 30
0.0
 11
-35.5436051256068
 21
1.496583366843935
 31
0.0
  0
LINE
  5
74
330
2
100
AcDbEntity
  8
GAIKEI
  6
Continuous
 62
     1
100
AcDbLine
 10
-35.34386147972095
 20
1.296839720958018
 30
0.0
 11
-35.24258948238179
 21
1.398111668292642
 31
0.0
  0
LINE
  5
75
330
2
100
AcDbEntity
  8
GAIKEI
  6
Continuous
 62
     1
100
AcDbLine
 10
-35.24258948238179
 20
31.69594532383428
 30
0.0
 11
-35.34386147972095
 21
31.7972172711689
 31
0.0
  0
LINE
  5
76
330
2
100
AcDbEntity
  8
GAIKEI
  6
Continuous
 62
     1
100
AcDbLine
 10
-35.5436051256068
 20
31.59747362528299
 30
0.0
 11
-35.44233317827212
 21
31.49620162794389
 31
0.0
  0
LINE
  5
77
330
2
100
AcDbEntity
  8
GAIKEI
  6
Continuous
 62
     1
100
AcDbLine
 10
14.25556801460811
 20
31.69594532383428
 30
0.0
 11
14.35684001194727
 21
31.7972172711689
 31
0.0
  0
LINE
  5
78
330
2
100
AcDbEntity
  8
GAIKEI
  6
Continuous
 62
     1
100
AcDbLine
 10
14.55658365783313
 20
31.59747362528299
 30
0.0
 11
14.45531171049856
 21
31.49620162794389
 31
0.0
  0
LINE
  5
79
330
2
100
AcDbEntity
  8
GAIKEI
  6
Continuous
 62
     1
100
AcDbLine
 10
-35.44226157191048
 20
31.46159830367015
 30
0.0
 11
-35.44226157191048
 21
1.632458688456722
 31
0.0
  0
LINE
  5
7A
330
2
100
AcDbEntity
  8
GAIKEI
  6
Continuous
 62
     1
100
AcDbLine
 10
14.4552401041368
 20
31.46159830367015
 30
0.0
 11
14.45524010413686
 21
1.632458688456722
 31
0.0
  0
LINE
  5
7B
330
2
100
AcDbEntity
  8
GAIKEI
  6
Continuous
 62
     1
100
AcDbLine
 10
14.22096469033448
 20
31.69587371747252
 30
0.0
 11
-35.2079861581081
 21
31.69587371747252
 31
0.0
  0
LINE
  5
7C
330
2
100
AcDbEntity
  8
GAIKEI
  6
Continuous
 62
     1
100
AcDbLine
 10
-35.2079861581081
 20
1.3981832746544
 30
0.0
 11
14.22096469033448
 21
1.3981832746544
 31
0.0
  0
LINE
  5
7D
330
2
100
AcDbEntity
  8
GAIKEI
  6
Continuous
 62
     1
100
AcDbLine
 10
12.0196271051164
 20
29.6544757605854
 30
0.0
 11
-32.97528641084898
 21
29.6544757605854
 31
0.0
  0
LINE
  5
7E
330
2
100
AcDbEntity
  8
GAIKEI
  6
Continuous
 62
     1
100
AcDbLine
 10
-32.97528641084892
 20
3.572027621327492
 30
0.0
 11
12.0196271051164
 21
3.572027621327549
 31
0.0
  0
LINE
  5
7F
330
2
100
AcDbEntity
  8
GAIKEI
  6
Continuous
 62
     1
100
AcDbLine
 10
-33.07455398010802
 20
29.55521649206384
 30
0.0
 11
-33.07455398010797
 21
3.67128688984917
 31
0.0
  0
LINE
  5
80
330
2
100
AcDbEntity
  8
GAIKEI
  6
Continuous
 62
     1
100
AcDbLine
 10
12.11889467437544
 20
29.55521649206384
 30
0.0
 11
12.11889467437544
 21
3.67128688984917
 31
0.0
  0
LINE
  5
81
330
2
100
AcDbEntity
  8
GAIKEI
  6
Continuous
 62
     1
100
AcDbLine
 10
12.0196271051164
 20
3.52513480521469
 30
0.0
 11
-32.97528641084892
 21
3.52513480521469
 31
0.0
  0
LINE
  5
82
330
2
100
AcDbEntity
  8
GAIKEI
  6
Continuous
 62
     1
100
AcDbLine
 10
-32.97528641084898
 20
29.7013685766982
 30
0.0
 11
12.0196271051164
 21
29.7013685766982
 31
0.0
  0
LINE
  5
83
330
2
100
AcDbEntity
  8
GAIKEI
  6
Continuous
 62
     1
100
AcDbLine
 10
-33.91073579498789
 20
30.28951856170824
 30
0.0
 11
12.95507648925542
 21
30.28951856170824
 31
0.0
  0
LINE
  5
84
330
2
100
AcDbEntity
  8
GAIKEI
  6
Continuous
 62
     1
100
AcDbLine
 10
12.95507648925542
 20
2.789536680946923
 30
0.0
 11
-33.91073579498783
 21
2.789536680946923
 31
0.0
  0
LINE
  5
85
330
2
100
AcDbEntity
  8
GAIKEI
  6
Continuous
 62
     1
100
AcDbLine
 10
-34.01074468010785
 20
2.889545566066885
 30
0.0
 11
-34.0107446801079
 21
30.18950967658827
 31
0.0
  0
LINE
  5
86
330
2
100
AcDbEntity
  8
GAIKEI
  6
Continuous
 62
     1
100
AcDbLine
 10
-33.12140684267121
 20
3.67128688984917
 30
0.0
 11
-33.12140684267126
 21
29.55521649206384
 31
0.0
  0
LINE
  5
87
330
2
100
AcDbEntity
  8
GAIKEI
  6
Continuous
 62
     1
100
AcDbLine
 10
13.05508537437544
 20
2.889545566066885
 30
0.0
 11
13.05508537437544
 21
30.18950967658827
 31
0.0
  0
LINE
  5
88
330
2
100
AcDbEntity
  8
GAIKEI
  6
Continuous
 62
     1
100
AcDbLine
 10
12.16574753693868
 20
3.67128688984917
 30
0.0
 11
12.16574753693868
 21
29.55521649206384
 31
0.0
  0
LINE
  5
89
330
2
100
AcDbEntity
  8
GAIKEI
  6
Continuous
 62
     1
100
AcDbLine
 10
-34.00224817525026
 20
2.852543728701277
 30
0.0
 11
-33.11569698538858
 21
3.630402307527674
 31
0.0
  0
LINE
  5
8A
330
2
100
AcDbEntity
  8
GAIKEI
  6
Continuous
 62
     1
100
AcDbLine
 10
-33.01650717303767
 20
3.530940371000326
 30
0.0
 11
-33.86712898991817
 21
2.789536680946923
 31
0.0
  0
LINE
  5
8B
330
2
100
AcDbEntity
  8
GAIKEI
  6
Continuous
 62
     1
100
AcDbLine
 10
13.04658886951785
 20
2.852543728701277
 30
0.0
 11
12.16003767965611
 21
3.630402307527674
 31
0.0
  0
LINE
  5
8C
330
2
100
AcDbEntity
  8
GAIKEI
  6
Continuous
 62
     1
100
AcDbLine
 10
12.06084786730531
 20
3.530940371000326
 30
0.0
 11
12.91146968418576
 21
2.789536680946923
 31
0.0
  0
LINE
  5
8D
330
2
100
AcDbEntity
  8
GAIKEI
  6
Continuous
 62
     1
100
AcDbLine
 10
-33.11569698538864
 20
29.59610107438533
 30
0.0
 11
-34.00224817525032
 21
30.22651151395388
 31
0.0
  0
LINE
  5
8E
330
2
100
AcDbEntity
  8
GAIKEI
  6
Continuous
 62
     1
100
AcDbLine
 10
-33.86590296189075
 20
30.28827460119078
 30
0.0
 11
-33.01650717303772
 21
29.69556301091257
 31
0.0
  0
LINE
  5
8F
330
2
100
AcDbEntity
  8
GAIKEI
  6
Continuous
 62
     1
100
AcDbLine
 10
12.91146968418565
 20
30.28951856170835
 30
0.0
 11
12.0608478673052
 21
29.69556301091257
 31
0.0
  0
LINE
  5
90
330
2
100
AcDbEntity
  8
GAIKEI
  6
Continuous
 62
     1
100
AcDbLine
 10
12.160037679656
 20
29.59610107438533
 30
0.0
 11
13.04658886951785
 21
30.22651151395388
 31
0.0
  0
LINE
  5
91
330
2
100
AcDbEntity
  8
GAIKEI
  6
Continuous
 62
     1
100
AcDbLine
 10
-35.40720055697392
 20
1.632458688456722
 30
0.0
 11
-35.40720055697392
 21
31.46159830367015
 31
0.0
  0
LINE
  5
92
330
2
100
AcDbEntity
  8
GAIKEI
  6
Continuous
 62
     1
100
AcDbLine
 10
-35.2079861581081
 20
31.66081270253602
 30
0.0
 11
14.22096469033448
 21
31.66081270253602
 31
0.0
  0
LINE
  5
93
330
2
100
AcDbEntity
  8
GAIKEI
  6
Continuous
 62
     1
100
AcDbLine
 10
14.4201790892003
 20
1.632458688456722
 30
0.0
 11
14.42017908920024
 21
31.46159830367015
 31
0.0
  0
LINE
  5
94
330
2
100
AcDbEntity
  8
GAIKEI
  6
Continuous
 62
     1
100
AcDbLine
 10
14.22096469033448
 20
1.433244289590902
 30
0.0
 11
-35.2079861581081
 21
1.433244289590902
 31
0.0
  0
LINE
  5
95
330
2
100
AcDbEntity
  8
GAIKEI
  6
Continuous
 62
     1
100
AcDbLine
 10
-35.40720055697392
 20
31.46159830367015
 30
0.0
 11
-35.17325412239916
 21
31.2276518690955
 31
0.0
  0
LINE
  5
96
330
2
100
AcDbEntity
  8
GAIKEI
  6
Continuous
 62
     1
100
AcDbLine
 10
-34.97403972353339
 20
31.42686626796137
 30
0.0
 11
-35.2079861581081
 21
31.66081270253602
 31
0.0
  0
LINE
  5
97
330
2
100
AcDbEntity
  8
GAIKEI
  6
Continuous
 62
     1
100
AcDbLine
 10
-35.2079861581081
 20
1.433244289590902
 30
0.0
 11
-34.97403972353339
 21
1.667190724165664
 31
0.0
  0
LINE
  5
98
330
2
100
AcDbEntity
  8
GAIKEI
  6
Continuous
 62
     1
100
AcDbLine
 10
-35.1732541223991
 20
1.866405123031427
 30
0.0
 11
-35.40720055697392
 21
1.632458688456722
 31
0.0
  0
LINE
  5
99
330
2
100
AcDbEntity
  8
GAIKEI
  6
Continuous
 62
     1
100
AcDbLine
 10
14.42017908920024
 20
31.46159830367015
 30
0.0
 11
14.1862326546256
 21
31.2276518690955
 31
0.0
  0
LINE
  5
9A
330
2
100
AcDbEntity
  8
GAIKEI
  6
Continuous
 62
     1
100
AcDbLine
 10
13.98701825575972
 20
31.42686626796137
 30
0.0
 11
14.22096469033448
 21
31.66081270253602
 31
0.0
  0
LINE
  5
9B
330
2
100
AcDbEntity
  8
GAIKEI
  6
Continuous
 62
     1
100
AcDbLine
 10
14.22096469033448
 20
1.433244289590902
 30
0.0
 11
13.98701825575978
 21
1.667190724165664
 31
0.0
  0
LINE
  5
9C
330
2
100
AcDbEntity
  8
GAIKEI
  6
Continuous
 62
     1
100
AcDbLine
 10
14.1862326546256
 20
1.866405123031427
 30
0.0
 11
14.4201790892003
 21
1.632458688456722
 31
0.0
  0
LINE
  5
9D
330
2
100
AcDbEntity
  8
GAIKEI
  6
Continuous
 62
     1
100
AcDbLine
 10
-34.4410073671765
 20
1.914394386556352
 30
0.0
 11
-34.55101714080849
 21
1.914394386556352
 31
0.0
  0
LINE
  5
9E
330
2
100
AcDbEntity
  8
GAIKEI
  6
Continuous
 62
     1
100
AcDbLine
 10
-32.70176901065884
 20
2.119412601052317
 30
0.0
 11
-32.70176901065884
 21
1.81938594569226
 31
0.0
  0
LINE
  5
9F
330
2
100
AcDbEntity
  8
GAIKEI
  6
Continuous
 62
     1
100
AcDbLine
 10
-34.55101714080849
 20
1.914394386556352
 30
0.0
 11
-34.55101714080849
 21
2.024404160188282
 31
0.0
  0
LINE
  5
A0
330
2
100
AcDbEntity
  8
GAIKEI
  6
Continuous
 62
     1
100
AcDbLine
 10
-34.55101714080849
 20
2.024404160188282
 30
0.0
 11
-34.4410073671765
 21
2.024404160188282
 31
0.0
  0
LINE
  5
A1
330
2
100
AcDbEntity
  8
GAIKEI
  6
Continuous
 62
     1
100
AcDbLine
 10
-34.4410073671765
 20
2.024404160188282
 30
0.0
 11
-34.4410073671765
 21
1.914394386556352
 31
0.0
  0
LINE
  5
A2
330
2
100
AcDbEntity
  8
GAIKEI
  6
Continuous
 62
     1
100
AcDbLine
 10
-32.72677123193876
 20
1.794383724412284
 30
0.0
 11
-33.02679788729875
 21
1.794383724412284
 31
0.0
  0
LINE
  5
A3
330
2
100
AcDbEntity
  8
GAIKEI
  6
Continuous
 62
     1
100
AcDbLine
 10
-33.05180010857879
 20
1.81938594569226
 30
0.0
 11
-33.05180010857879
 21
2.119412601052317
 31
0.0
  0
LINE
  5
A4
330
2
100
AcDbEntity
  8
GAIKEI
  6
Continuous
 62
     1
100
AcDbLine
 10
-33.02679788729875
 20
2.14441482233235
 30
0.0
 11
-32.72677123193876
 21
2.14441482233235
 31
0.0
  0
LINE
  5
A5
330
2
100
AcDbEntity
  8
GAIKEI
  6
Continuous
 62
     1
100
AcDbLine
 10
12.95507648925542
 20
30.39149157132766
 30
0.0
 11
-33.91073579498789
 21
30.39149157132766
 31
0.0
  0
LINE
  5
A6
330
2
100
AcDbEntity
  8
GAIKEI
  6
Continuous
 62
     1
100
AcDbLine
 10
-33.91073579498783
 20
2.687563671327609
 30
0.0
 11
12.95507648925542
 21
2.687563671327609
 31
0.0
  0
LINE
  5
A7
330
2
100
AcDbEntity
  8
GAIKEI
  6
Continuous
 62
     1
100
AcDbLine
 10
13.15705838399475
 20
30.18950967658827
 30
0.0
 11
13.15705838399475
 21
2.889545566066885
 31
0.0
  0
LINE
  5
A8
330
2
100
AcDbEntity
  8
GAIKEI
  6
Continuous
 62
     1
100
AcDbLine
 10
-34.11271768972722
 20
30.18950967658827
 30
0.0
 11
-34.11271768972716
 21
2.889545566066885
 31
0.0
  0
LINE
  5
A9
330
2
100
AcDbEntity
  8
GAIKEI
  6
Continuous
 62
     1
100
AcDbLine
 10
-35.17325412239916
 20
31.2276518690955
 30
0.0
 11
-35.1732541223991
 21
1.866405123031427
 31
0.0
  0
LINE
  5
AA
330
2
100
AcDbEntity
  8
GAIKEI
  6
Continuous
 62
     1
100
AcDbLine
 10
13.98701825575972
 20
31.42686626796137
 30
0.0
 11
-34.97403972353339
 21
31.42686626796137
 31
0.0
  0
LINE
  5
AB
330
2
100
AcDbEntity
  8
GAIKEI
  6
Continuous
 62
     1
100
AcDbLine
 10
14.1862326546256
 20
31.2276518690955
 30
0.0
 11
14.1862326546256
 21
1.866405123031427
 31
0.0
  0
LINE
  5
AC
330
2
100
AcDbEntity
  8
GAIKEI
  6
Continuous
 62
     1
100
AcDbLine
 10
-34.97403972353339
 20
1.667190724165664
 30
0.0
 11
13.98701825575978
 21
1.667190724165664
 31
0.0
  0
SPLINE
  5
AD
330
2
100
AcDbEntity
  8
GAIKEI
  6
Continuous
 62
     1
100
AcDbSpline
210
0.0
220
0.0
230
1.0
 70
     8
 71
     3
 72
    21
 73
    17
 74
    15
 42
0.0000000001
 43
0.0000000001
 44
0.000001
 12
-0.0001490760298766
 22
-0.9999999888881687
 32
0.0
 13
0.9999997489039975
 23
0.0007086550233522
 33
0.0
 40
0.0
 40
0.0
 40
0.0
 40
0.0
 40
0.0220203622856517
 40
0.0441150886358798
 40
0.0661420247968402
 40
0.0881945815693729
 40
0.1103152820563245
 40
0.1323682426974384
 40
0.1546938208840925
 40
0.1770898850745092
 40
0.1994152170311418
 40
0.2218138290892008
 40
0.2442838362702091
 40
0.2666822908844273
 40
0.2901709918964701
 40
0.3136542532514702
 40
0.3136542532514702
 40
0.3136542532514702
 40
0.3136542532514702
 10
-35.44233315865603
 20
1.597855340746207
 30
0.0
 10
-35.44233425289209
 20
1.590515220065867
 30
0.0
 10
-35.44153447059894
 20
1.57579672669317
 30
0.0
 10
-35.43790643594127
 20
1.5540073032505
 30
0.0
 10
-35.43192116609841
 20
1.532728632070927
 30
0.0
 10
-35.42356008297264
 20
1.512257288807688
 30
0.0
 10
-35.41301106666349
 20
1.492816396089324
 30
0.0
 10
-35.40035039545701
 20
1.474565292603756
 30
0.0
 10
-35.38563842486522
 20
1.457799125550366
 30
0.0
 10
-35.36910226667732
 20
1.442698589178405
 30
0.0
 10
-35.3509792948244
 20
1.429497663800987
 30
0.0
 10
-35.33144160245411
 20
1.418447368207694
 30
0.0
 10
-35.31077981821238
 20
1.409621667207886
 30
0.0
 10
-35.28891270460277
 20
1.403044379421203
 30
0.0
 10
-35.26609032856863
 20
1.399010559843816
 30
0.0
 10
-35.25041725763804
 20
1.39810614073167
 30
0.0
 10
-35.24258950581856
 20
1.398111687908738
 30
0.0
 11
-35.44233315865603
 21
1.597855340746207
 31
0.0
 11
-35.44113296935672
 21
1.575867144183064
 31
0.0
 11
-35.43750966828844
 21
1.554071523162122
 31
0.0
 11
-35.43152962320875
 21
1.532871860256648
 31
0.0
 11
-35.42320627709165
 21
1.512450345246577
 31
0.0
 11
-35.41265650791689
 21
1.493007384176905
 31
0.0
 11
-35.40007498055064
 21
1.474895532523248
 31
0.0
 11
-35.3853614083817
 21
1.458104367389694
 31
0.0
 11
-35.36882337220624
 21
1.443002114882574
 31
0.0
 11
-35.35076843628082
 21
1.42987044598766
 31
0.0
 11
-35.33127970926461
 21
1.418830145952313
 31
0.0
 11
-35.31061518907785
 21
1.410005196224233
 31
0.0
 11
-35.28916262927822
 21
1.403564734787607
 31
0.0
 11
-35.26603423737828
 21
1.399466301477843
 31
0.0
 11
-35.24258950581856
 21
1.398111687908738
 31
0.0
  0
SPLINE
  5
AE
330
2
100
AcDbEntity
  8
GAIKEI
  6
Continuous
 62
     1
100
AcDbSpline
210
0.0
220
0.0
230
1.0
 70
     8
 71
     3
 72
    21
 73
    17
 74
    15
 42
0.0000000001
 43
0.0000000001
 44
0.000001
 12
0.0001490760298765
 22
-0.9999999888881687
 32
0.0
 13
-0.9999997489039975
 23
0.000708655023352
 33
0.0
 40
0.0
 40
0.0
 40
0.0
 40
0.0
 40
0.0220203622856513
 40
0.04411508863588
 40
0.0661420247968403
 40
0.0881945815693771
 40
0.1103152820563237
 40
0.1323682426974355
 40
0.1546938208841669
 40
0.1770898850745022
 40
0.1994152170312296
 40
0.2218138290891897
 40
0.2442838362703026
 40
0.2666822908844084
 40
0.2901709918964513
 40
0.3136542532513378
 40
0.3136542532513378
 40
0.3136542532513378
 40
0.3136542532513378
 10
14.45531169088241
 20
1.597855340746207
 30
0.0
 10
14.45531278511848
 20
1.590515220065867
 30
0.0
 10
14.45451300282532
 20
1.575796726693056
 30
0.0
 10
14.45088496816765
 20
1.554007303250557
 30
0.0
 10
14.44489969832479
 20
1.532728632070757
 30
0.0
 10
14.43653861519903
 20
1.512257288807802
 30
0.0
 10
14.42598959888985
 20
1.492816396089267
 30
0.0
 10
14.41332892768342
 20
1.474565292603699
 30
0.0
 10
14.39861695709146
 20
1.457799125550423
 30
0.0
 10
14.3820807989037
 20
1.442698589178235
 30
0.0
 10
14.36395782705068
 20
1.429497663801043
 30
0.0
 10
14.34442013468045
 20
1.41844736820775
 30
0.0
 10
14.32375835043871
 20
1.409621667207943
 30
0.0
 10
14.3018912368291
 20
1.403044379421089
 30
0.0
 10
14.27906886079505
 20
1.399010559843986
 30
0.0
 10
14.2633957898645
 20
1.39810614073167
 30
0.0
 10
14.25556803804505
 20
1.398111687908738
 30
0.0
 11
14.45531169088241
 21
1.597855340746207
 31
0.0
 11
14.4541115015831
 21
1.575867144183064
 31
0.0
 11
14.45048820051482
 21
1.554071523162122
 31
0.0
 11
14.44450815543513
 21
1.532871860256648
 31
0.0
 11
14.43618480931803
 21
1.512450345246577
 31
0.0
 11
14.42563504014328
 21
1.493007384176905
 31
0.0
 11
14.41305351277702
 21
1.474895532523248
 31
0.0
 11
14.39833994060797
 21
1.458104367389694
 31
0.0
 11
14.38180190443262
 21
1.443002114882574
 31
0.0
 11
14.36374696850708
 21
1.42987044598766
 31
0.0
 11
14.34425824149099
 21
1.418830145952313
 31
0.0
 11
14.32359372130412
 21
1.410005196224233
 31
0.0
 11
14.30214116150461
 21
1.403564734787607
 31
0.0
 11
14.27901276960466
 21
1.399466301477843
 31
0.0
 11
14.25556803804505
 21
1.398111687908738
 31
0.0
  0
SPLINE
  5
AF
330
2
100
AcDbEntity
  8
GAIKEI
  6
Continuous
 62
     1
100
AcDbSpline
210
0.0
220
0.0
230
1.0
 70
     8
 71
     3
 72
    21
 73
    17
 74
    15
 42
0.0000000001
 43
0.0000000001
 44
0.000001
 12
-0.9999999888881687
 22
0.0001490760296198
 32
0.0
 13
0.0007086550231108
 23
-0.9999997489039975
 33
0.0
 40
0.0
 40
0.0
 40
0.0
 40
0.0
 40
0.0220203622857329
 40
0.0441150886359604
 40
0.0661420247968591
 40
0.088194581569396
 40
0.1103152820562925
 40
0.1323682426974043
 40
0.1546938208841224
 40
0.177089885074472
 40
0.199415217031213
 40
0.2218138290891733
 40
0.2442838362702517
 40
0.2666822908844182
 40
0.2901709918964592
 40
0.3136542532513492
 40
0.3136542532513492
 40
0.3136542532513492
 40
0.3136542532513492
 10
-35.24258950581862
 20
31.69594530421818
 30
0.0
 10
-35.24992962649897
 20
31.69594639845423
 30
0.0
 10
-35.26464811987174
 20
31.69514661616114
 30
0.0
 10
-35.28643754331439
 20
31.69151858150326
 30
0.0
 10
-35.30771621449407
 20
31.68553331166072
 30
0.0
 10
-35.32818755775705
 20
31.67717222853458
 30
0.0
 10
-35.34762845047551
 20
31.66662321222572
 30
0.0
 10
-35.36587955396104
 20
31.65396254101904
 30
0.0
 10
-35.38264572101438
 20
31.63925057042729
 30
0.0
 10
-35.39774625738651
 20
31.62271441223942
 30
0.0
 10
-35.41094718276382
 20
31.60459144038652
 30
0.0
 10
-35.42199747835707
 20
31.58505374801632
 30
0.0
 10
-35.43082317935685
 20
31.56439196377448
 30
0.0
 10
-35.43740046714388
 20
31.54252485016491
 30
0.0
 10
-35.44143428672113
 20
31.51970247413089
 30
0.0
 10
-35.44233870583307
 20
31.50402940320026
 30
0.0
 10
-35.44233315865603
 20
31.49620165138083
 30
0.0
 11
-35.24258950581862
 21
31.69594530421818
 31
0.0
 11
-35.26457770238181
 21
31.69474511491888
 31
0.0
 11
-35.28637332340276
 21
31.69112181385049
 31
0.0
 11
-35.30757298630823
 21
31.68514176877091
 31
0.0
 11
-35.32799450131824
 21
31.6768184226537
 31
0.0
 11
-35.34743746238792
 21
31.66626865347905
 31
0.0
 11
-35.36554931404157
 21
31.6536871261128
 31
0.0
 11
-35.38234047917513
 21
31.63897355394374
 31
0.0
 11
-35.39744273168225
 21
31.62243551776839
 31
0.0
 11
-35.41057440057722
 21
31.60438058184286
 31
0.0
 11
-35.42161470061251
 21
31.58489185482677
 31
0.0
 11
-35.43043965034059
 21
31.5642273346399
 31
0.0
 11
-35.43688011177733
 21
31.54277477484038
 31
0.0
 11
-35.44097854508709
 21
31.51964638294044
 31
0.0
 11
-35.44233315865603
 21
31.49620165138083
 31
0.0
  0
SPLINE
  5
B0
330
2
100
AcDbEntity
  8
GAIKEI
  6
Continuous
 62
     1
100
AcDbSpline
210
0.0
220
0.0
230
1.0
 70
     8
 71
     3
 72
    21
 73
    17
 74
    15
 42
0.0000000001
 43
0.0000000001
 44
0.000001
 12
0.9999999888881687
 22
0.00014907602962
 32
0.0
 13
-0.0007086550231109
 23
-0.9999997489039975
 33
0.0
 40
0.0
 40
0.0
 40
0.0
 40
0.0
 40
0.0220203622856797
 40
0.0441150886358966
 40
0.0661420247966894
 40
0.0881945815692822
 40
0.1103152820562755
 40
0.1323682426972939
 40
0.1546938208840173
 40
0.1770898850743239
 40
0.1994152170311317
 40
0.2218138290890676
 40
0.2442838362701654
 40
0.2666822908843176
 40
0.290170991896358
 40
0.3136542532512513
 40
0.3136542532512513
 40
0.3136542532512513
 40
0.3136542532512513
 10
14.25556803804505
 20
31.69594530421818
 30
0.0
 10
14.26290815872538
 20
31.69594639845423
 30
0.0
 10
14.27762665209815
 20
31.6951466161612
 30
0.0
 10
14.29941607554075
 20
31.69151858150326
 30
0.0
 10
14.32069474672039
 20
31.68553331166072
 30
0.0
 10
14.34116608998337
 20
31.67717222853463
 30
0.0
 10
14.36060698270191
 20
31.66662321222572
 30
0.0
 10
14.37885808618735
 20
31.65396254101904
 30
0.0
 10
14.39562425324072
 20
31.63925057042735
 30
0.0
 10
14.41072478961277
 20
31.62271441223948
 30
0.0
 10
14.42392571499022
 20
31.60459144038657
 30
0.0
 10
14.43497601058337
 20
31.58505374801621
 30
0.0
 10
14.44380171158326
 20
31.56439196377448
 30
0.0
 10
14.45037899937019
 20
31.54252485016491
 30
0.0
 10
14.45441281894744
 20
31.51970247413089
 30
0.0
 10
14.45531723805945
 20
31.50402940320026
 30
0.0
 10
14.45531169088241
 20
31.49620165138083
 30
0.0
 11
14.25556803804505
 21
31.69594530421818
 31
0.0
 11
14.2775562346082
 21
31.69474511491888
 31
0.0
 11
14.29935185562914
 21
31.69112181385049
 31
0.0
 11
14.3205515185345
 21
31.68514176877091
 31
0.0
 11
14.34097303354457
 21
31.6768184226537
 31
0.0
 11
14.36041599461435
 21
31.66626865347905
 31
0.0
 11
14.3785278462679
 21
31.6536871261128
 31
0.0
 11
14.39531901140145
 21
31.63897355394374
 31
0.0
 11
14.41042126390852
 21
31.62243551776839
 31
0.0
 11
14.4235529328036
 21
31.60438058184286
 31
0.0
 11
14.43459323283883
 21
31.58489185482677
 31
0.0
 11
14.44341818256697
 21
31.5642273346399
 31
0.0
 11
14.44985864400365
 21
31.54277477484038
 31
0.0
 11
14.45395707731342
 21
31.51964638294044
 31
0.0
 11
14.45531169088241
 21
31.49620165138083
 31
0.0
  0
SPLINE
  5
B1
330
2
100
AcDbEntity
  8
GAIKEI
  6
Continuous
 62
     1
100
AcDbSpline
210
0.0
220
0.0
230
1.0
 70
     8
 71
     3
 72
    14
 73
    10
 74
     8
 42
0.0000000001
 43
0.0000000001
 44
0.000001
 12
0.2697836156325394
 22
-0.9629209732559752
 32
0.0
 13
0.9616843088117285
 23
-0.2741592423853476
 33
0.0
 40
0.0
 40
0.0
 40
0.0
 40
0.0
 40
0.0000567608951748
 40
0.0167840465309844
 40
0.0335125966987574
 40
0.0502374188860437
 40
0.0669622291995169
 40
0.0837063784098593
 40
0.1004494891285224
 40
0.1004494891285224
 40
0.1004494891285224
 40
0.1004494891285224
 10
-33.07090638326031
 20
3.643871531105105
 30
0.0
 10
-33.0709012788738
 20
3.643853312352973
 30
0.0
 10
-33.06939019462248
 20
3.638466578122745
 30
0.0
 10
-33.06543024031979
 20
3.627954675650357
 30
0.0
 10
-33.05698231778619
 20
3.613427763491131
 30
0.0
 10
-33.04614256293895
 20
3.600581717298155
 30
0.0
 10
-33.03331386894758
 20
3.589715039000907
 30
0.0
 10
-33.01879580925537
 20
3.581227144042713
 30
0.0
 10
-33.00829421309055
 20
3.577267963687916
 30
0.0
 10
-33.00292701747094
 20
3.575737870837997
 30
0.0
 11
-33.07090638326031
 21
3.643871531105105
 31
0.0
 11
-33.07089105413723
 21
3.643816878780171
 31
0.0
 11
-33.06501129634876
 21
3.628156509333507
 31
0.0
 11
-33.05658356661729
 21
3.613706056706746
 31
0.0
 11
-33.04581243626967
 21
3.60091141132284
 31
0.0
 11
-33.03303906384253
 21
3.590115072634944
 31
0.0
 11
-33.01859134831318
 21
3.581651634599097
 31
0.0
 11
-33.00292701747094
 21
3.575737870837997
 31
0.0
  0
SPLINE
  5
B2
330
2
100
AcDbEntity
  8
GAIKEI
  6
Continuous
 62
     1
100
AcDbSpline
210
0.0
220
0.0
230
1.0
 70
     8
 71
     3
 72
    14
 73
    10
 74
     8
 42
0.0000000001
 43
0.0000000001
 44
0.000001
 12
-0.2697836156325396
 22
-0.962920973255975
 32
0.0
 13
-0.9616843088117285
 23
-0.2741592423853476
 33
0.0
 40
0.0
 40
0.0
 40
0.0
 40
0.0
 40
0.0000567608953486
 40
0.0167840465310392
 40
0.0335125966988168
 40
0.0502374188861512
 40
0.0669622291995783
 40
0.0837063784099441
 40
0.100449489128521
 40
0.100449489128521
 40
0.100449489128521
 40
0.100449489128521
 10
12.11524707752784
 20
3.643871531105162
 30
0.0
 10
12.11524197314131
 20
3.643853312352973
 30
0.0
 10
12.1137308888926
 20
3.638466578114389
 30
0.0
 10
12.10977093458616
 20
3.627954675654223
 30
0.0
 10
12.10132301205385
 20
3.613427763490051
 30
0.0
 10
12.09048325720633
 20
3.600581717298496
 30
0.0
 10
12.07765456321506
 20
3.589715039000736
 30
0.0
 10
12.06313650352276
 20
3.581227144042998
 30
0.0
 10
12.05263490735805
 20
3.577267963687916
 30
0.0
 10
12.04726771173847
 20
3.575737870837997
 30
0.0
 11
12.11524707752784
 21
3.643871531105162
 31
0.0
 11
12.11523174840471
 21
3.643816878780171
 31
0.0
 11
12.10935199061629
 21
3.628156509333507
 31
0.0
 11
12.10092426088471
 21
3.613706056706803
 31
0.0
 11
12.09015313053709
 21
3.60091141132284
 31
0.0
 11
12.07737975811
 21
3.590115072634944
 31
0.0
 11
12.0629320425806
 21
3.581651634599154
 31
0.0
 11
12.04726771173847
 21
3.575737870837997
 31
0.0
  0
SPLINE
  5
B3
330
2
100
AcDbEntity
  8
GAIKEI
  6
Continuous
 62
     1
100
AcDbSpline
210
0.0
220
0.0
230
1.0
 70
     8
 71
     3
 72
    19
 73
    15
 74
    13
 42
0.0000000001
 43
0.0000000001
 44
0.000001
 12
-0.9639938394678312
 22
0.2659245710122878
 32
0.0
 13
-0.26346002757732
 23
0.9646703135625962
 33
0.0
 40
0.0
 40
0.0
 40
0.0
 40
0.0
 40
0.0120685447878091
 40
0.0241375534231703
 40
0.0365717545460979
 40
0.0490061389643479
 40
0.0610391948686007
 40
0.0730723357382158
 40
0.0854755671878957
 40
0.0978786958477056
 40
0.1099595938325843
 40
0.1220403135244222
 40
0.1344880973698612
 40
0.1469354490877714
 40
0.1469354490877714
 40
0.1469354490877714
 40
0.1469354490877714
 10
-33.01650715863138
 20
3.530940359493911
 30
0.0
 10
-33.02038515957365
 20
3.532010133692381
 30
0.0
 10
-33.02805500985008
 20
3.534477637816962
 30
0.0
 10
-33.03931910597577
 20
3.539175269802569
 30
0.0
 10
-33.05024443622641
 20
3.544887534322469
 30
0.0
 10
-33.06062009073161
 20
3.551523812823802
 30
0.0
 10
-33.0702719201728
 20
3.558955708190126
 30
0.0
 10
-33.07925139826607
 20
3.567171992293424
 30
0.0
 10
-33.08756506482373
 20
3.57623116803029
 30
0.0
 10
-33.09506535492825
 20
3.58599449535967
 30
0.0
 10
-33.10162863029092
 20
3.596282173785994
 30
0.0
 10
-33.10730427708758
 20
3.60710190172972
 30
0.0
 10
-33.11206893983217
 20
3.618485260380225
 30
0.0
 10
-33.11460387954748
 20
3.62639976074638
 30
0.0
 10
-33.11569700608976
 20
3.630402290974643
 30
0.0
 11
-33.01650715863138
 21
3.530940359493911
 31
0.0
 11
-33.02799665133762
 21
3.534635071063007
 31
0.0
 11
-33.03913462534609
 21
3.539283330342414
 31
0.0
 11
-33.05015423115788
 21
3.545043370326311
 31
0.0
 11
-33.06062782209023
 21
3.551745480675776
 31
0.0
 11
-33.07016303042445
 21
3.559085421261329
 31
0.0
 11
-33.07903923535861
 21
3.567210073050318
 31
0.0
 11
-33.08742725215018
 21
3.576346914388295
 31
0.0
 11
-33.0949818677791
 21
3.58618388135585
 31
0.0
 11
-33.10148163372117
 21
3.596367278269099
 31
0.0
 11
-33.10709239846051
 21
3.607066038041466
 31
0.0
 11
-33.11190149120193
 21
3.618547316337185
 31
0.0
 11
-33.11569700608976
 21
3.630402290974643
 31
0.0
  0
SPLINE
  5
B4
330
2
100
AcDbEntity
  8
GAIKEI
  6
Continuous
 62
     1
100
AcDbSpline
210
0.0
220
0.0
230
1.0
 70
     8
 71
     3
 72
    19
 73
    15
 74
    13
 42
0.0000000001
 43
0.0000000001
 44
0.000001
 12
0.9639938394678312
 22
0.2659245710122878
 32
0.0
 13
0.26346002757732
 23
0.9646703135625962
 33
0.0
 40
0.0
 40
0.0
 40
0.0
 40
0.0
 40
0.0120685447879241
 40
0.024137553423223
 40
0.0365717545461234
 40
0.0490061389643966
 40
0.0610391948686841
 40
0.0730723357382661
 40
0.0854755671879796
 40
0.0978786958477654
 40
0.1099595938326573
 40
0.1220403135244441
 40
0.1344880973698816
 40
0.1469354490878092
 40
0.1469354490878092
 40
0.1469354490878092
 40
0.1469354490878092
 10
12.0608478528988
 20
3.530940359493911
 30
0.0
 10
12.0647258538411
 20
3.532010133692381
 30
0.0
 10
12.07239570411754
 20
3.534477637816905
 30
0.0
 10
12.08365980024327
 20
3.539175269802512
 30
0.0
 10
12.09458513049381
 20
3.544887534322583
 30
0.0
 10
12.10496078499912
 20
3.551523812823802
 30
0.0
 10
12.11461261444022
 20
3.558955708190069
 30
0.0
 10
12.12359209253357
 20
3.567171992293538
 30
0.0
 10
12.13190575909129
 20
3.57623116803029
 30
0.0
 10
12.1394060491956
 20
3.585994495359727
 30
0.0
 10
12.14596932455849
 20
3.596282173785937
 30
0.0
 10
12.15164497135498
 20
3.60710190172972
 30
0.0
 10
12.15640963409957
 20
3.618485260380282
 30
0.0
 10
12.15894457381495
 20
3.62639976074638
 30
0.0
 10
12.16003770035724
 20
3.630402290974643
 30
0.0
 11
12.0608478528988
 21
3.530940359493911
 31
0.0
 11
12.07233734560515
 21
3.534635071063007
 31
0.0
 11
12.08347531961357
 21
3.539283330342414
 31
0.0
 11
12.09449492542529
 21
3.545043370326368
 31
0.0
 11
12.1049685163577
 21
3.551745480675776
 31
0.0
 11
12.11450372469193
 21
3.559085421261386
 31
0.0
 11
12.12337992962608
 21
3.567210073050318
 31
0.0
 11
12.13176794641771
 21
3.576346914388295
 31
0.0
 11
12.13932256204651
 21
3.586183881355907
 31
0.0
 11
12.1458223279887
 21
3.596367278269099
 31
0.0
 11
12.15143309272793
 21
3.607066038041466
 31
0.0
 11
12.15624218546935
 21
3.618547316337185
 31
0.0
 11
12.16003770035724
 21
3.630402290974643
 31
0.0
  0
SPLINE
  5
B5
330
2
100
AcDbEntity
  8
GAIKEI
  6
Continuous
 62
     1
100
AcDbSpline
210
0.0
220
0.0
230
1.0
 70
     8
 71
     3
 72
    19
 73
    15
 74
    13
 42
0.0000000001
 43
0.0000000001
 44
0.000001
 12
0.2634414923284027
 22
0.9646753755122933
 32
0.0
 13
0.9639886149825482
 23
0.2659435093850355
 33
0.0
 40
0.0
 40
0.0
 40
0.0
 40
0.0
 40
0.0120706715938666
 40
0.0241417800381547
 40
0.036577716845082
 40
0.0490138356852426
 40
0.0610453208348037
 40
0.0730769079994262
 40
0.0854784299499502
 40
0.0978798670910514
 40
0.1099602577905208
 40
0.1220404696565093
 40
0.1344881894039734
 40
0.146935448671553
 40
0.146935448671553
 40
0.146935448671553
 40
0.146935448671553
 10
-33.11569700608982
 20
29.59610109093842
 30
0.0
 10
-33.11463703417712
 20
29.59998251748925
 30
0.0
 10
-33.11218905262668
 20
29.60766008643691
 30
0.0
 10
-33.10752060382694
 20
29.61893844458268
 30
0.0
 10
-33.10183699512324
 20
29.62988078898724
 30
0.0
 10
-33.09522872443313
 20
29.64027504602518
 30
0.0
 10
-33.08782376334827
 20
29.64994695588791
 30
0.0
 10
-33.07963358727622
 20
29.65894806420909
 30
0.0
 10
-33.07059889913342
 20
29.6672858942564
 30
0.0
 10
-33.06085758609438
 20
29.67481262647334
 30
0.0
 10
-33.0505888896557
 20
29.6814039095176
 30
0.0
 10
-33.03978502519218
 20
29.68710895619444
 30
0.0
 10
-33.02841466310614
 20
29.69190403979616
 30
0.0
 10
-33.02050683070534
 20
29.69445959981511
 30
0.0
 10
-33.01650715863144
 20
29.69556302241904
 30
0.0
 11
-33.11569700608982
 21
29.59610109093842
 31
0.0
 11
-33.11203154564311
 21
29.60760217720878
 31
0.0
 11
-33.10741205484595
 21
29.61875438633081
 31
0.0
 11
-33.10168095016894
 21
29.62979102423572
 31
0.0
 11
-33.09500649664591
 21
29.64028431713842
 31
0.0
 11
-33.08769381062371
 21
29.64983846538041
 31
0.0
 11
-33.07959491561201
 21
29.65873607690168
 31
0.0
 11
-33.07048278848254
 21
29.66714841489397
 31
0.0
 11
-33.060668277866
 21
29.67472941488774
 31
0.0
 11
-33.05050334868992
 21
29.68125708589111
 31
0.0
 11
-33.03982040574311
 21
29.68689682033778
 31
0.0
 11
-33.02835210524819
 21
29.69173661559728
 31
0.0
 11
-33.01650715863144
 21
29.69556302241904
 31
0.0
  0
SPLINE
  5
B6
330
2
100
AcDbEntity
  8
GAIKEI
  6
Continuous
 62
     1
100
AcDbSpline
210
0.0
220
0.0
230
1.0
 70
     8
 71
     3
 72
    19
 73
    15
 74
    13
 42
0.0000000001
 43
0.0000000001
 44
0.000001
 12
-0.2634414923284028
 22
0.9646753755122933
 32
0.0
 13
-0.9639886149825482
 23
0.2659435093850356
 33
0.0
 40
0.0
 40
0.0
 40
0.0
 40
0.0
 40
0.0120706715938838
 40
0.0241417800381298
 40
0.0365777168451112
 40
0.049013835685205
 40
0.0610453208348029
 40
0.0730769079994253
 40
0.0854784299499467
 40
0.0978798670910901
 40
0.1099602577904698
 40
0.1220404696563609
 40
0.134488189404028
 40
0.1469354486716109
 40
0.1469354486716109
 40
0.1469354486716109
 40
0.1469354486716109
 10
12.16003770035724
 20
29.59610109093842
 30
0.0
 10
12.15897772844454
 20
29.59998251748925
 30
0.0
 10
12.15652974689398
 20
29.60766008643668
 30
0.0
 10
12.15186129809447
 20
29.6189384445828
 30
0.0
 10
12.14617768939052
 20
29.62988078898701
 30
0.0
 10
12.13956941870064
 20
29.6402750460253
 30
0.0
 10
12.13216445761569
 20
29.6499469558878
 30
0.0
 10
12.12397428154367
 20
29.65894806420931
 30
0.0
 10
12.11493959340083
 20
29.6672858942564
 30
0.0
 10
12.10519828036177
 20
29.6748126264734
 30
0.0
 10
12.09492958392317
 20
29.68140390951754
 30
0.0
 10
12.08412571945969
 20
29.68710895619444
 30
0.0
 10
12.07275535737355
 20
29.69190403979622
 30
0.0
 10
12.06484752497269
 20
29.69445959981511
 30
0.0
 10
12.0608478528988
 20
29.69556302241904
 30
0.0
 11
12.16003770035724
 21
29.59610109093842
 31
0.0
 11
12.15637223991047
 21
29.60760217720878
 31
0.0
 11
12.15175274911343
 21
29.61875438633081
 31
0.0
 11
12.1460216444363
 21
29.62979102423572
 31
0.0
 11
12.13934719091338
 21
29.64028431713842
 31
0.0
 11
12.13203450489112
 21
29.64983846538041
 31
0.0
 11
12.12393560987942
 21
29.65873607690168
 31
0.0
 11
12.11482348274995
 21
29.66714841489397
 31
0.0
 11
12.10500897213336
 21
29.67472941488774
 31
0.0
 11
12.09484404295739
 21
29.68125708589111
 31
0.0
 11
12.0841611000107
 21
29.68689682033778
 31
0.0
 11
12.07269279951555
 21
29.69173661559728
 31
0.0
 11
12.0608478528988
 21
29.69556302241904
 31
0.0
  0
SPLINE
  5
B7
330
2
100
AcDbEntity
  8
GAIKEI
  6
Continuous
 62
     1
100
AcDbSpline
210
0.0
220
0.0
230
1.0
 70
     8
 71
     3
 72
    19
 73
    15
 74
    13
 42
0.0000000001
 43
0.0000000001
 44
0.000001
 12
0.0944471245025448
 22
0.9955298793472755
 32
0.0
 13
0.9955257326591484
 23
0.0944908229060694
 33
0.0
 40
0.0
 40
0.0
 40
0.0
 40
0.0
 40
0.0172124311712102
 40
0.0344312311769035
 40
0.0515392072852589
 40
0.0686910149758234
 40
0.0858057717066227
 40
0.1119433335992328
 40
0.1380833502634083
 40
0.1635982876566686
 40
0.1891038875427935
 40
0.2053832094130375
 40
0.2217026553121992
 40
0.2379700129382794
 40
0.2379700129382794
 40
0.2379700129382794
 40
0.2379700129382794
 10
-35.40357816939974
 20
31.5011405861826
 30
0.0
 10
-35.4030362811898
 20
31.50685241602497
 30
0.0
 10
-35.40133075954422
 20
31.51823036402743
 30
0.0
 10
-35.39689190668811
 20
31.53486055938129
 30
0.0
 10
-35.39075249168079
 20
31.55091562912213
 30
0.0
 10
-35.38307250903992
 20
31.56625226841936
 30
0.0
 10
-35.37237139135647
 20
31.58334053951092
 30
0.0
 10
-35.35780323911549
 20
31.60141126661512
 30
0.0
 10
-35.33883809736389
 20
31.61921795329505
 30
0.0
 10
-35.31774780639124
 20
31.63407986888001
 30
0.0
 10
-35.29771303562918
 20
31.64435827066438
 30
0.0
 10
-35.27949642082859
 20
31.65101920910536
 30
0.0
 10
-35.26369705209849
 20
31.65509508396463
 30
0.0
 10
-35.25292663166027
 20
31.65667794295905
 30
0.0
 10
-35.24752844062056
 20
31.6571903149619
 30
0.0
 11
-35.40357816939974
 21
31.5011405861826
 31
0.0
 11
-35.40101655660397
 21
31.51816222605805
 31
0.0
 11
-35.39659623975655
 21
31.53480410211626
 31
0.0
 11
-35.39049943483815
 21
31.55078888665935
 31
0.0
 11
-35.38282939993536
 21
31.56613016814834
 31
0.0
 11
-35.37374797882541
 21
31.58063671478089
 31
0.0
 11
-35.35736194156448
 21
31.60099961269418
 31
0.0
 11
-35.33829593134584
 21
31.61888125386827
 31
0.0
 11
-35.31743537228948
 21
31.63357272201699
 31
0.0
 11
-35.29472111029333
 21
31.64517437843392
 31
0.0
 11
-35.27943029519548
 21
31.65076079345363
 31
0.0
 11
-35.26362235375842
 21
31.65481504354545
 31
0.0
 11
-35.24752844062056
 21
31.6571903149619
 31
0.0
  0
SPLINE
  5
B8
330
2
100
AcDbEntity
  8
GAIKEI
  6
Continuous
 62
     1
100
AcDbSpline
210
0.0
220
0.0
230
1.0
 70
     8
 71
     3
 72
    19
 73
    15
 74
    13
 42
0.0000000001
 43
0.0000000001
 44
0.000001
 12
-0.995529879347374
 22
0.0944471245015059
 32
0.0
 13
-0.0944908229060039
 23
0.9955257326591544
 33
0.0
 40
0.0
 40
0.0
 40
0.0
 40
0.0
 40
0.0172124311711117
 40
0.0344312311769021
 40
0.0515392072852236
 40
0.0686910149758104
 40
0.0858057717066236
 40
0.1119433335992411
 40
0.138083350263196
 40
0.1635982876565692
 40
0.1891038875427147
 40
0.2053832094130082
 40
0.2217026553120913
 40
0.2379700129382693
 40
0.2379700129382693
 40
0.2379700129382693
 40
0.2379700129382693
 10
-35.24752844062056
 20
1.436866677165141
 30
0.0
 10
-35.25324027046291
 20
1.437408565375051
 30
0.0
 10
-35.26461821846524
 20
1.439114087020811
 30
0.0
 10
-35.28124841381914
 20
1.443552939876781
 30
0.0
 10
-35.29730348356017
 20
1.449692354884064
 30
0.0
 10
-35.31264012285735
 20
1.457372337525043
 30
0.0
 10
-35.32972839394883
 20
1.468073455208354
 30
0.0
 10
-35.34779912105306
 20
1.482641607449238
 30
0.0
 10
-35.36560580773268
 20
1.501606749201187
 30
0.0
 10
-35.38046772331809
 20
1.522697040173511
 30
0.0
 10
-35.39074612510227
 20
1.542731810935606
 30
0.0
 10
-35.39740706354341
 20
1.560948425736228
 30
0.0
 10
-35.40148293840222
 20
1.576747794466427
 30
0.0
 10
-35.40306579739687
 20
1.587518214904662
 30
0.0
 10
-35.40357816939974
 20
1.592916405944379
 30
0.0
 11
-35.24752844062056
 21
1.436866677165141
 31
0.0
 11
-35.2645500804959
 21
1.439428289960972
 31
0.0
 11
-35.28119195655421
 21
1.44384860680833
 31
0.0
 11
-35.2971767410973
 21
1.449945411726673
 31
0.0
 11
-35.31251802258629
 21
1.457615446629517
 31
0.0
 11
-35.32702456921885
 21
1.466696867739472
 31
0.0
 11
-35.34738746713214
 21
1.483082905000458
 31
0.0
 11
-35.365269108306
 21
1.502148915218981
 31
0.0
 11
-35.37996057645495
 21
1.52300947427534
 31
0.0
 11
-35.39156223287188
 21
1.545723736271497
 31
0.0
 11
-35.39714864789158
 21
1.561014551369396
 31
0.0
 11
-35.40120289798319
 21
1.576822492806456
 31
0.0
 11
-35.40357816939974
 21
1.592916405944379
 31
0.0
  0
SPLINE
  5
B9
330
2
100
AcDbEntity
  8
GAIKEI
  6
Continuous
 62
     1
100
AcDbSpline
210
0.0
220
0.0
230
1.0
 70
     8
 71
     3
 72
    19
 73
    15
 74
    13
 42
0.0000000001
 43
0.0000000001
 44
0.000001
 12
-0.0944471245025449
 22
0.9955298793472755
 32
0.0
 13
-0.9955257326591484
 23
0.0944908229060694
 33
0.0
 40
0.0
 40
0.0
 40
0.0
 40
0.0
 40
0.0172124311712192
 40
0.0344312311769252
 40
0.0515392072852616
 40
0.0686910149757976
 40
0.0858057717065988
 40
0.1119433335992445
 40
0.1380833502633811
 40
0.1635982876567315
 40
0.1891038875427583
 40
0.2053832094130056
 40
0.2217026553121639
 40
0.2379700129383566
 40
0.2379700129383566
 40
0.2379700129383566
 40
0.2379700129383566
 10
14.41655670162612
 20
31.5011405861826
 30
0.0
 10
14.41601481341618
 20
31.50685241602497
 30
0.0
 10
14.41430929177055
 20
31.51823036402737
 30
0.0
 10
14.40987043891437
 20
31.53486055938117
 30
0.0
 10
14.40373102390714
 20
31.5509156291223
 30
0.0
 10
14.3960510412663
 20
31.56625226841936
 30
0.0
 10
14.38534992358286
 20
31.58334053951092
 30
0.0
 10
14.37078177134181
 20
31.60141126661512
 30
0.0
 10
14.35181662959026
 20
31.619217953295
 30
0.0
 10
14.33072633861755
 20
31.63407986888001
 30
0.0
 10
14.31069156785557
 20
31.64435827066444
 30
0.0
 10
14.29247495305496
 20
31.65101920910536
 30
0.0
 10
14.27667558432485
 20
31.65509508396468
 30
0.0
 10
14.26590516388657
 20
31.65667794295905
 30
0.0
 10
14.26050697284682
 20
31.6571903149619
 30
0.0
 11
14.41655670162612
 21
31.5011405861826
 31
0.0
 11
14.41399508883029
 21
31.51816222605805
 31
0.0
 11
14.40957477198281
 21
31.53480410211626
 31
0.0
 11
14.40347796706447
 21
31.55078888665935
 31
0.0
 11
14.39580793216174
 21
31.56613016814834
 31
0.0
 11
14.38672651105179
 21
31.58063671478089
 31
0.0
 11
14.3703404737908
 21
31.60099961269418
 31
0.0
 11
14.35127446357222
 21
31.61888125386827
 31
0.0
 11
14.33041390451575
 21
31.63357272201699
 31
0.0
 11
14.30769964251971
 21
31.64517437843392
 31
0.0
 11
14.29240882742186
 21
31.65076079345363
 31
0.0
 11
14.2766008859848
 21
31.65481504354545
 31
0.0
 11
14.26050697284682
 21
31.6571903149619
 31
0.0
  0
SPLINE
  5
BA
330
2
100
AcDbEntity
  8
GAIKEI
  6
Continuous
 62
     1
100
AcDbSpline
210
0.0
220
0.0
230
1.0
 70
     8
 71
     3
 72
    19
 73
    15
 74
    13
 42
0.0000000001
 43
0.0000000001
 44
0.000001
 12
0.995529879347374
 22
0.0944471245015057
 32
0.0
 13
0.0944908229060041
 23
0.9955257326591546
 33
0.0
 40
0.0
 40
0.0
 40
0.0
 40
0.0
 40
0.0172124311712171
 40
0.0344312311768976
 40
0.051539207285332
 40
0.068691014975817
 40
0.0858057717067267
 40
0.1119433335992528
 40
0.1380833502633681
 40
0.1635982876566104
 40
0.1891038875428028
 40
0.2053832094130986
 40
0.2217026553122082
 40
0.2379700129383707
 40
0.2379700129383707
 40
0.2379700129383707
 40
0.2379700129383707
 10
14.26050697284682
 20
1.436866677165141
 30
0.0
 10
14.26621880268921
 20
1.437408565375051
 30
0.0
 10
14.27759675069157
 20
1.439114087020755
 30
0.0
 10
14.29422694604545
 20
1.443552939876724
 30
0.0
 10
14.31028201578653
 20
1.44969235488412
 30
0.0
 10
14.32561865508364
 20
1.457372337525043
 30
0.0
 10
14.34270692617521
 20
1.468073455208298
 30
0.0
 10
14.36077765327928
 20
1.482641607449579
 30
0.0
 10
14.37858433995923
 20
1.501606749200846
 30
0.0
 10
14.39344625554429
 20
1.522697040173682
 30
0.0
 10
14.40372465732865
 20
1.542731810935492
 30
0.0
 10
14.41038559576978
 20
1.560948425736398
 30
0.0
 10
14.41446147062881
 20
1.576747794466427
 30
0.0
 10
14.41604432962324
 20
1.587518214904662
 30
0.0
 10
14.41655670162612
 20
1.592916405944379
 30
0.0
 11
14.26050697284682
 21
1.436866677165141
 31
0.0
 11
14.27752861272228
 21
1.439428289960972
 31
0.0
 11
14.29417048878048
 21
1.44384860680833
 31
0.0
 11
14.31015527332369
 21
1.449945411726673
 31
0.0
 11
14.32549655481256
 21
1.457615446629517
 31
0.0
 11
14.34000310144523
 21
1.466696867739472
 31
0.0
 11
14.36036599935841
 21
1.483082905000458
 31
0.0
 11
14.37824764053249
 21
1.502148915218981
 31
0.0
 11
14.39293910868122
 21
1.52300947427534
 31
0.0
 11
14.40454076509826
 21
1.545723736271497
 31
0.0
 11
14.41012718011797
 21
1.561014551369396
 31
0.0
 11
14.41418143020968
 21
1.576822492806456
 31
0.0
 11
14.41655670162612
 21
1.592916405944379
 31
0.0
  0
LINE
  5
BB
330
2
100
AcDbEntity
  8
GAIKEI
  6
Continuous
 62
     1
100
AcDbLine
 10
40.27794240452363
 20
31.0275887464195
 30
0.0
 11
40.53066595731962
 21
31.03898755726107
 31
0.0
  0
LINE
  5
BC
330
2
100
AcDbEntity
  8
GAIKEI
  6
Continuous
 62
     1
100
AcDbLine
 10
40.50243884953005
 20
31.24132143327154
 30
0.0
 11
40.27794240452363
 21
31.24855797618989
 31
0.0
  0
LINE
  5
BD
330
2
100
AcDbEntity
  8
GAIKEI
  6
Continuous
 62
     1
100
AcDbLine
 10
41.90138788678768
 20
4.598303908647153
 30
0.0
 11
41.85808278941971
 21
4.57330168736712
 31
0.0
  0
LINE
  5
BE
330
2
100
AcDbEntity
  8
GAIKEI
  6
Continuous
 62
     1
100
AcDbLine
 10
42.00809611709968
 20
4.598303908647153
 30
0.0
 11
41.90138788678768
 21
4.598303908647153
 31
0.0
  0
LINE
  5
BF
330
2
100
AcDbEntity
  8
GAIKEI
  6
Continuous
 62
     1
100
AcDbLine
 10
41.85808278941971
 20
4.42578858181514
 30
0.0
 11
42.00809611709968
 21
4.442665081179143
 31
0.0
  0
LINE
  5
C0
330
2
100
AcDbEntity
  8
GAIKEI
  6
Continuous
 62
     1
100
AcDbLine
 10
42.05810055965963
 20
4.448290580967125
 30
0.0
 11
42.00809611709968
 21
4.442665081179143
 31
0.0
  0
LINE
  5
C1
330
2
100
AcDbEntity
  8
GAIKEI
  6
Continuous
 62
     1
100
AcDbLine
 10
42.05810055965963
 20
4.598303908647153
 30
0.0
 11
42.05810055965963
 21
4.448290580967125
 31
0.0
  0
LINE
  5
C2
330
2
100
AcDbEntity
  8
GAIKEI
  6
Continuous
 62
     1
100
AcDbLine
 10
42.00809611709968
 20
4.598303908647153
 30
0.0
 11
42.05810055965963
 21
4.598303908647153
 31
0.0
  0
LINE
  5
C3
330
2
100
AcDbEntity
  8
GAIKEI
  6
Continuous
 62
     1
100
AcDbLine
 10
41.9080872319796
 20
5.023341670407205
 30
0.0
 11
41.85808278941971
 21
5.073346112967215
 31
0.0
  0
LINE
  5
C4
330
2
100
AcDbEntity
  8
GAIKEI
  6
Continuous
 62
     1
100
AcDbLine
 10
41.85808278941971
 20
4.57330168736712
 30
0.0
 11
41.9080872319796
 21
4.623306129927186
 31
0.0
  0
LINE
  5
C5
330
2
100
AcDbEntity
  8
GAIKEI
  6
Continuous
 62
     1
100
AcDbLine
 10
41.9080872319796
 20
4.623306129927186
 30
0.0
 11
41.9080872319796
 21
5.023341670407205
 31
0.0
  0
LINE
  5
C6
330
2
100
AcDbEntity
  8
GAIKEI
  6
Continuous
 62
     1
100
AcDbLine
 10
41.45804724893969
 20
5.098348334247134
 30
0.0
 11
41.85808278941971
 21
5.098348334247134
 31
0.0
  0
LINE
  5
C7
330
2
100
AcDbEntity
  8
GAIKEI
  6
Continuous
 62
     1
100
AcDbLine
 10
41.85808278941971
 20
4.398286138407172
 30
0.0
 11
41.46925584474837
 21
4.398286138407172
 31
0.0
  0
LINE
  5
C8
330
2
100
AcDbEntity
  8
GAIKEI
  6
Continuous
 62
     1
100
AcDbLine
 10
41.85808278941971
 20
5.098348334247134
 30
0.0
 11
41.85808278941971
 21
4.398286138407172
 31
0.0
  0
LINE
  5
C9
330
2
100
AcDbEntity
  8
GAIKEI
  6
Continuous
 62
     1
100
AcDbLine
 10
38.02266747067341
 20
1.902892639398487
 30
0.0
 11
38.02344208949313
 21
1.902824833374324
 31
0.0
  0
ELLIPSE
  5
CA
330
2
100
AcDbEntity
  8
GAIKEI
  6
Continuous
 62
     7
100
AcDbEllipse
 10
38.61195277472808
 20
31.62995561081675
 30
0.0
 11
-0.4304650760396076
 21
0.0183350540597169
 31
0.0
210
0.0
220
0.0
230
1.0
 40
0.0979550000027946
 41
-0.0556951287892611
 42
0.0307150442110096
  0
ELLIPSE
  5
CB
330
2
100
AcDbEntity
  8
GAIKEI
  6
Continuous
 62
     1
100
AcDbEllipse
 10
38.61195277472808
 20
1.439882804073931
 30
0.0
 11
-0.3002971316235787
 21
0.4353642020019295
 31
0.0
210
0.0
220
0.0
230
1.0
 40
0.7084259999999128
 41
0.7388798675229174
 42
0.8252900405248016
  0
ELLIPSE
  5
CC
330
2
100
AcDbEntity
  8
GAIKEI
  6
Continuous
 62
     1
100
AcDbEllipse
 10
38.61195277472808
 20
31.62995561081675
 30
0.0
 11
0.3002971316397903
 21
0.4353642019797884
 31
0.0
210
0.0
220
0.0
230
1.0
 40
0.7084259999997621
 41
2.316302613115392
 42
2.402712786120312
  0
ELLIPSE
  5
CD
330
2
100
AcDbEntity
  8
GAIKEI
  6
Continuous
 62
     7
100
AcDbEllipse
 10
38.24717076628843
 20
31.61083816235942
 30
0.0
 11
-0.0039255454801028
 21
0.0749038698138415
 31
0.0
210
0.0
220
0.0
230
1.0
 40
0.9969940000001736
 41
-0.0000000000462679
 42
1.015719002465488
  0
ELLIPSE
  5
CE
330
2
100
AcDbEntity
  8
GAIKEI
  6
Continuous
 62
     1
100
AcDbEllipse
 10
40.18067096260705
 20
31.58699644418232
 30
0.0
 11
-0.0052376484159654
 21
0.2000177233456646
 31
0.0
210
0.0
220
0.0
230
1.0
 40
0.0261499999999963
 41
0.000684763903771
 42
1.568742034989261
  0
ELLIPSE
  5
CF
330
2
100
AcDbEntity
  8
GAIKEI
  6
Continuous
 62
     1
100
AcDbEllipse
 10
38.60802722596935
 20
31.62995561081675
 30
0.0
 11
0.2691022304283923
 21
0.3978920321198732
 31
0.0
210
0.0
220
0.0
230
1.0
 40
0.6240159999996433
 41
2.309985920121875
 42
2.396396093123733
  0
ELLIPSE
  5
D0
330
2
100
AcDbEntity
  8
GAIKEI
  6
Continuous
 62
     1
100
AcDbEllipse
 10
38.60802722596935
 20
1.439882804073931
 30
0.0
 11
-0.2691022304227062
 21
0.397892032129457
 31
0.0
210
0.0
220
0.0
230
1.0
 40
0.6240160000001015
 41
0.7451965604898776
 42
0.8316067334899205
  0
ARC
  5
D1
330
2
100
AcDbEntity
  8
GAIKEI
  6
Continuous
 62
     7
100
AcDbCircle
 10
38.07794693188356
 20
31.39010105134469
 30
0.0
 40
0.0500044425600019
100
AcDbArc
 50
147.9140249999909
 51
180.0
  0
ARC
  5
D2
330
2
100
AcDbEntity
  8
GAIKEI
  6
Continuous
 62
     7
100
AcDbCircle
 10
38.07794693188356
 20
1.679737363545882
 30
0.0
 40
0.0500044425600019
100
AcDbArc
 50
180.0
 51
212.085975000009
  0
ARC
  5
D3
330
2
100
AcDbEntity
  8
GAIKEI
  6
Continuous
 62
     7
100
AcDbCircle
 10
38.24580469492213
 20
31.61076660600213
 30
0.0
 40
0.0750066638400028
100
AcDbArc
 50
92.99999999999908
 51
147.9140249999909
  0
ARC
  5
D4
330
2
100
AcDbEntity
  8
GAIKEI
  6
Continuous
 62
     7
100
AcDbCircle
 10
38.24580469492213
 20
1.459071808888495
 30
0.0
 40
0.0750066638400028
100
AcDbArc
 50
212.085975000009
 51
267.0000000000009
  0
ARC
  5
D5
330
2
100
AcDbEntity
  8
GAIKEI
  6
Continuous
 62
     7
100
AcDbCircle
 10
40.22793796196356
 20
1.332828643028221
 30
0.0
 40
0.0500044425600019
100
AcDbArc
 50
270.0
 51
0.0
  0
ARC
  5
D6
330
2
100
AcDbEntity
  8
GAIKEI
  6
Continuous
 62
     7
100
AcDbCircle
 10
40.22793796196356
 20
31.73700977186241
 30
0.0
 40
0.0500044425600019
100
AcDbArc
 50
0.0
 51
90.0
  0
LINE
  5
D7
330
2
100
AcDbEntity
  8
GAIKEI
  6
Continuous
 62
     7
100
AcDbLine
 10
38.02794248932355
 20
31.39010105134469
 30
0.0
 11
38.02794248932355
 21
1.679737363545882
 31
0.0
  0
LINE
  5
D8
330
2
100
AcDbEntity
  8
GAIKEI
  6
Continuous
 62
     7
100
AcDbLine
 10
38.24324521752976
 20
31.68574206706995
 30
0.0
 11
38.2418791461634
 21
31.68567046070819
 31
0.0
  0
LINE
  5
D9
330
2
100
AcDbEntity
  8
GAIKEI
  6
Continuous
 62
     7
100
AcDbLine
 10
38.2418791461634
 20
1.384167954182373
 30
0.0
 11
38.24324521752976
 21
1.384096347820616
 31
0.0
  0
LINE
  5
DA
330
2
100
AcDbEntity
  8
GAIKEI
  6
Continuous
 62
     7
100
AcDbLine
 10
38.18225514897034
 20
1.419228969118876
 30
0.0
 11
38.03558056791565
 21
1.653175403693637
 31
0.0
  0
LINE
  5
DB
330
2
100
AcDbEntity
  8
GAIKEI
  6
Continuous
 62
     1
100
AcDbLine
 10
38.02794248932355
 20
1.86457256279499
 30
0.0
 11
38.18225514897034
 21
1.618443367984696
 31
0.0
  0
LINE
  5
DC
330
2
100
AcDbEntity
  8
GAIKEI
  6
Continuous
 62
     1
100
AcDbLine
 10
38.18225514897034
 20
31.45139504690587
 30
0.0
 11
38.02794248932355
 21
31.20526585209564
 31
0.0
  0
LINE
  5
DD
330
2
100
AcDbEntity
  8
GAIKEI
  6
Continuous
 62
     7
100
AcDbLine
 10
38.03558056791565
 20
31.41666301119705
 30
0.0
 11
38.18225514897034
 21
31.65060944577169
 31
0.0
  0
LINE
  5
DE
330
2
100
AcDbEntity
  8
GAIKEI
  6
Continuous
 62
     1
100
AcDbLine
 10
38.18225514897034
 20
1.618443367984696
 30
0.0
 11
38.18225514897034
 21
31.45139504690587
 31
0.0
  0
LINE
  5
DF
330
2
100
AcDbEntity
  8
GAIKEI
  6
Continuous
 62
     7
100
AcDbLine
 10
38.24324521752976
 20
31.68574206706995
 30
0.0
 11
40.17542969695568
 21
31.78701401440458
 31
0.0
  0
LINE
  5
E0
330
2
100
AcDbEntity
  8
GAIKEI
  6
Continuous
 62
     7
100
AcDbLine
 10
40.17542969695568
 20
1.282824400485992
 30
0.0
 11
38.24324521752976
 21
1.384096347820616
 31
0.0
  0
LINE
  5
E1
330
2
100
AcDbEntity
  8
GAIKEI
  6
Continuous
 62
     7
100
AcDbLine
 10
40.22793796196356
 20
1.282824200468212
 30
0.0
 11
40.17543329727556
 21
1.282824200468212
 31
0.0
  0
LINE
  5
E2
330
2
100
AcDbEntity
  8
GAIKEI
  6
Continuous
 62
     7
100
AcDbLine
 10
40.27794240452363
 20
1.48284197070825
 30
0.0
 11
40.27794240452363
 21
1.332828643028221
 31
0.0
  0
LINE
  5
E3
330
2
100
AcDbEntity
  8
GAIKEI
  6
Continuous
 62
     7
100
AcDbLine
 10
40.17543329727556
 20
31.78701421442236
 30
0.0
 11
40.22793796196356
 21
31.78701421442236
 31
0.0
  0
LINE
  5
E4
330
2
100
AcDbEntity
  8
GAIKEI
  6
Continuous
 62
     7
100
AcDbLine
 10
40.17543329727556
 20
31.78701421442236
 30
0.0
 11
40.17542969695568
 21
31.78701401440458
 31
0.0
  0
LINE
  5
E5
330
2
100
AcDbEntity
  8
GAIKEI
  6
Continuous
 62
     1
100
AcDbLine
 10
40.27794240452363
 20
1.48284197070825
 30
0.0
 11
40.22793796196356
 21
1.48284197070825
 31
0.0
  0
LINE
  5
E6
330
2
100
AcDbEntity
  8
GAIKEI
  6
Continuous
 62
     7
100
AcDbLine
 10
40.27794240452363
 20
1.48284197070825
 30
0.0
 11
40.27794240452363
 21
31.73700977186241
 31
0.0
  0
LINE
  5
E7
330
2
100
AcDbEntity
  8
GAIKEI
  6
Continuous
 62
     1
100
AcDbLine
 10
40.17543329727556
 20
1.48284197070825
 30
0.0
 11
40.22793796196356
 21
1.48284197070825
 31
0.0
  0
LINE
  5
E8
330
2
100
AcDbEntity
  8
GAIKEI
  6
Continuous
 62
     1
100
AcDbLine
 10
40.17542969695568
 20
31.58727036851866
 30
0.0
 11
38.24324521752976
 21
31.48599837117956
 31
0.0
  0
LINE
  5
E9
330
2
100
AcDbEntity
  8
GAIKEI
  6
Continuous
 62
     1
100
AcDbLine
 10
38.2418791461634
 20
31.45139504690587
 30
0.0
 11
38.2418791461634
 21
1.618443367984696
 31
0.0
  0
LINE
  5
EA
330
2
100
AcDbEntity
  8
GAIKEI
  6
Continuous
 62
     1
100
AcDbLine
 10
38.18150105293609
 20
1.58707591883774
 30
0.0
 11
40.17542969695568
 21
1.482568046371909
 31
0.0
  0
LINE
  5
EB
330
2
100
AcDbEntity
  8
GAIKEI
  6
Continuous
 62
     1
100
AcDbLine
 10
40.17543329727556
 20
31.58699644418232
 30
0.0
 11
40.17543329727556
 21
1.282824200468212
 31
0.0
  0
ARC
  5
EC
330
2
100
AcDbEntity
  8
GAIKEI
  6
Continuous
 62
     1
100
AcDbCircle
 10
39.94041241724364
 20
3.763044551444295
 30
0.0
 40
0.450039983040017
100
AcDbArc
 50
0.0
 51
16.60155000000189
  0
ARC
  5
ED
330
2
100
AcDbEntity
  8
GAIKEI
  6
Continuous
 62
     1
100
AcDbCircle
 10
39.94041241724364
 20
3.763044551444295
 30
0.0
 40
0.450039983040017
100
AcDbArc
 50
343.3984499999981
 51
0.0
  0
ARC
  5
EE
330
2
100
AcDbEntity
  8
GAIKEI
  6
Continuous
 62
     1
100
AcDbCircle
 10
40.30939639900049
 20
3.653034777812365
 30
0.0
 40
0.0650057753280025
100
AcDbArc
 50
270.0
 51
343.3984499999981
  0
ARC
  5
EF
330
2
100
AcDbEntity
  8
GAIKEI
  6
Continuous
 62
     1
100
AcDbCircle
 10
40.30939639900049
 20
3.873054325076338
 30
0.0
 40
0.0650057753280025
100
AcDbArc
 50
16.60155000000189
 51
90.0
  0
LINE
  5
F0
330
2
100
AcDbEntity
  8
GAIKEI
  6
Continuous
 62
     1
100
AcDbLine
 10
40.27794240452363
 20
3.588029002484347
 30
0.0
 11
40.30939639900049
 21
3.588029002484347
 31
0.0
  0
LINE
  5
F1
330
2
100
AcDbEntity
  8
GAIKEI
  6
Continuous
 62
     1
100
AcDbLine
 10
40.30939639900049
 20
3.938060100404356
 30
0.0
 11
40.27794240452363
 21
3.938060100404356
 31
0.0
  0
ELLIPSE
  5
F2
330
2
100
AcDbEntity
  8
GAIKEI
  6
Continuous
 62
     1
100
AcDbEllipse
 10
41.30896735418895
 20
2.998639189144739
 30
0.0
 11
-0.0261703031777274
 21
0.4993591320935867
 31
0.0
210
0.0
220
0.0
230
1.0
 40
0.7656099999999868
 41
3.14159265358974
 42
4.672286563984016
  0
ELLIPSE
  5
F3
330
2
100
AcDbEntity
  8
GAIKEI
  6
Continuous
 62
     1
100
AcDbEllipse
 10
42.1606096669077
 20
9.831957859248291
 30
0.0
 11
0.0
 21
0.3250288766400047
 31
0.0
210
0.0
220
0.0
230
1.0
 40
0.1391730000000111
 41
3.141592653589793
 42
6.283185307179586
  0
ELLIPSE
  5
F4
330
2
100
AcDbEntity
  8
GAIKEI
  6
Continuous
 62
     1
100
AcDbEllipse
 10
42.16060966690764
 20
22.90622521576608
 30
0.0
 11
0.0
 21
0.3250288766400047
 31
0.0
210
0.0
220
0.0
230
1.0
 40
0.1391730000000111
 41
3.141592653589793
 42
6.283185307179586
  0
ELLIPSE
  5
F5
330
2
100
AcDbEntity
  8
GAIKEI
  6
Continuous
 62
     7
100
AcDbEllipse
 10
41.31524696209004
 20
3.30541316717813
 30
0.0
 11
-0.3214223610685126
 21
0.3830562535435122
 31
0.0
210
0.0
220
0.0
230
1.0
 40
0.160711
 41
3.141592653589792
 42
3.14434683352869
  0
ARC
  5
F6
330
2
100
AcDbEntity
  8
GAIKEI
  6
Continuous
 62
     1
100
AcDbCircle
 10
41.64307795033425
 20
3.030781032620325
 30
0.0
 40
0.5148736118819045
100
AcDbArc
 50
274.664976570409
 51
0.3401424516866529
  0
ARC
  5
F7
330
2
100
AcDbEntity
  8
GAIKEI
  6
Continuous
 62
     7
100
AcDbCircle
 10
41.83987667192804
 20
30.01507523950545
 30
0.0
 40
0.2500222128000095
100
AcDbArc
 50
7.9999999999978
 51
78.00000000000038
  0
ARC
  5
F8
330
2
100
AcDbEntity
  8
GAIKEI
  6
Continuous
 62
     1
100
AcDbCircle
 10
40.48355117148623
 20
2.448677628741336
 30
0.0
 40
0.2500222128000095
100
AcDbArc
 50
285.0000000000045
 51
314.9999999999956
  0
ARC
  5
F9
330
2
100
AcDbEntity
  8
GAIKEI
  6
Continuous
 62
     1
100
AcDbCircle
 10
40.97192256001505
 20
2.229879439986859
 30
0.0
 40
0.2500222128000095
100
AcDbArc
 50
133.2988929999926
 51
134.9999999999956
  0
ARC
  5
FA
330
2
100
AcDbEntity
  8
GAIKEI
  6
Continuous
 62
     1
100
AcDbCircle
 10
40.3904524002836
 20
1.90604781971507
 30
0.0
 40
0.2500222128000095
100
AcDbArc
 50
105.0000000000045
 51
116.743683999998
  0
ARC
  5
FB
330
2
100
AcDbEntity
  8
GAIKEI
  6
Continuous
 62
     1
100
AcDbCircle
 10
41.2930325884916
 20
4.698127627316353
 30
0.0
 40
0.345030653664013
100
AcDbArc
 50
298.5718781421402
 51
0.0
  0
ARC
  5
FC
330
2
100
AcDbEntity
  8
GAIKEI
  6
Continuous
 62
     1
100
AcDbCircle
 10
41.2930325884916
 20
4.698127627316353
 30
0.0
 40
0.345030653664013
100
AcDbArc
 50
0.0
 51
61.42812185785624
  0
ARC
  5
FD
330
2
100
AcDbEntity
  8
GAIKEI
  6
Continuous
 62
     7
100
AcDbCircle
 10
41.10801615101962
 20
2.837888557527094
 30
0.0
 40
0.3500310979200132
100
AcDbArc
 50
272.9999999999991
 51
0.0
  0
ARC
  5
FE
330
2
100
AcDbEntity
  8
GAIKEI
  6
Continuous
 62
     7
100
AcDbCircle
 10
41.95809167453967
 20
5.374204342206951
 30
0.0
 40
0.500044425600019
100
AcDbArc
 50
130.5742470000077
 51
180.0
  0
LINE
  5
FF
330
2
100
AcDbEntity
  8
GAIKEI
  6
Continuous
 62
     1
100
AcDbLine
 10
42.15794248932349
 20
3.033837616289304
 30
0.0
 11
42.15794248932349
 21
6.194660726816437
 31
0.0
  0
LINE
  5
100
330
2
100
AcDbEntity
  8
GAIKEI
  6
Continuous
 62
     1
100
AcDbLine
 10
41.14422942234102
 20
2.489274939844904
 30
0.0
 11
41.68495224773846
 21
2.517613048984117
 31
0.0
  0
LINE
  5
101
330
2
100
AcDbEntity
  8
GAIKEI
  6
Continuous
 62
     1
100
AcDbLine
 10
41.69202358617105
 20
5.098348334247134
 30
0.0
 11
41.69202358617105
 21
5.306699444848675
 31
0.0
  0
LINE
  5
102
330
2
100
AcDbEntity
  8
GAIKEI
  6
Continuous
 62
     1
100
AcDbLine
 10
41.69202358617105
 20
2.998639189144626
 30
0.0
 11
41.69202358617105
 21
4.398286138407172
 31
0.0
  0
LINE
  5
103
330
2
100
AcDbEntity
  8
GAIKEI
  6
Continuous
 62
     1
100
AcDbLine
 10
41.69202358617105
 20
5.306699444848675
 30
0.0
 11
42.24666176206034
 21
5.772096092225581
 31
0.0
  0
LINE
  5
104
330
2
100
AcDbEntity
  8
GAIKEI
  6
Continuous
 62
     7
100
AcDbLine
 10
41.63666931831488
 20
5.757260574189103
 30
0.0
 11
41.62508063873826
 21
5.746491067390479
 31
0.0
  0
LINE
  5
105
330
2
100
AcDbEntity
  8
GAIKEI
  6
Continuous
 62
     7
100
AcDbLine
 10
42.43294248932341
 20
27.59167628588796
 30
0.0
 11
42.08746568573991
 21
30.04987160616963
 31
0.0
  0
LINE
  5
106
330
2
100
AcDbEntity
  8
GAIKEI
  6
Continuous
 62
     1
100
AcDbLine
 10
40.66034352830377
 20
2.271885221919433
 30
0.0
 11
40.79513015319315
 21
2.406671846808762
 31
0.0
  0
LINE
  5
107
330
2
100
AcDbEntity
  8
GAIKEI
  6
Continuous
 62
     1
100
AcDbLine
 10
40.32574190118896
 20
2.147550725631674
 30
0.0
 11
40.54826167058087
 21
2.207174722824788
 31
0.0
  0
LINE
  5
108
330
2
100
AcDbEntity
  8
GAIKEI
  6
Continuous
 62
     7
100
AcDbLine
 10
41.89185921293318
 20
30.25963386708588
 30
0.0
 11
40.27794240452363
 21
30.60268244701422
 31
0.0
  0
LINE
  5
109
330
2
100
AcDbEntity
  8
GAIKEI
  6
Continuous
 62
     7
100
AcDbLine
 10
42.03266865020469
 20
6.089543495302393
 30
0.0
 11
42.43294248932346
 21
6.425413123882549
 31
0.0
  0
LINE
  5
10A
330
2
100
AcDbEntity
  8
GAIKEI
  6
Continuous
 62
     1
100
AcDbLine
 10
42.12548089595157
 20
9.506928982608201
 30
0.0
 11
42.1606096669077
 21
9.506928982608201
 31
0.0
  0
LINE
  5
10B
330
2
100
AcDbEntity
  8
GAIKEI
  6
Continuous
 62
     1
100
AcDbLine
 10
42.1606096669077
 20
10.15698673588821
 30
0.0
 11
42.12548089595157
 21
10.15698673588821
 31
0.0
  0
LINE
  5
10C
330
2
100
AcDbEntity
  8
GAIKEI
  6
Continuous
 62
     1
100
AcDbLine
 10
42.1606096669077
 20
23.23125409240606
 30
0.0
 11
42.12548089595151
 21
23.23125409240606
 31
0.0
  0
LINE
  5
10D
330
2
100
AcDbEntity
  8
GAIKEI
  6
Continuous
 62
     1
100
AcDbLine
 10
42.12548089595151
 20
22.58119633912605
 30
0.0
 11
42.1606096669077
 21
22.58119633912605
 31
0.0
  0
LINE
  5
10E
330
2
100
AcDbEntity
  8
GAIKEI
  6
Continuous
 62
     7
100
AcDbLine
 10
41.45804724893969
 20
2.837888557527094
 30
0.0
 11
41.45804724893969
 21
3.10790414660471
 31
0.0
  0
LINE
  5
10F
330
2
100
AcDbEntity
  8
GAIKEI
  6
Continuous
 62
     1
100
AcDbLine
 10
41.92987441762523
 20
9.506928982608201
 30
0.0
 11
42.12548089595157
 21
9.506928982608201
 31
0.0
  0
LINE
  5
110
330
2
100
AcDbEntity
  8
GAIKEI
  6
Continuous
 62
     1
100
AcDbLine
 10
42.12548089595157
 20
10.15698673588821
 30
0.0
 11
41.92987441762523
 21
10.15698673588821
 31
0.0
  0
LINE
  5
111
330
2
100
AcDbEntity
  8
GAIKEI
  6
Continuous
 62
     1
100
AcDbLine
 10
42.12548089595151
 20
23.23125409240606
 30
0.0
 11
41.92987441762523
 21
23.23125409240606
 31
0.0
  0
LINE
  5
112
330
2
100
AcDbEntity
  8
GAIKEI
  6
Continuous
 62
     1
100
AcDbLine
 10
41.92987441762523
 20
22.58119633912605
 30
0.0
 11
42.12548089595151
 21
22.58119633912605
 31
0.0
  0
LINE
  5
113
330
2
100
AcDbEntity
  8
GAIKEI
  6
Continuous
 62
     1
100
AcDbLine
 10
42.08746566855313
 20
10.15698673588821
 30
0.0
 11
42.08746566855308
 21
22.58119633912605
 31
0.0
  0
LINE
  5
114
330
2
100
AcDbEntity
  8
GAIKEI
  6
Continuous
 62
     1
100
AcDbLine
 10
42.08746566855308
 20
23.23125409240606
 30
0.0
 11
42.08746566855308
 21
24.86777459281518
 31
0.0
  0
LINE
  5
115
330
2
100
AcDbEntity
  8
GAIKEI
  6
Continuous
 62
     1
100
AcDbLine
 10
42.08746566855308
 20
6.135523652887684
 30
0.0
 11
42.08746566855313
 21
9.506928982608201
 31
0.0
  0
LINE
  5
116
330
2
100
AcDbEntity
  8
GAIKEI
  6
Continuous
 62
     7
100
AcDbLine
 10
41.63666931831488
 20
5.757260574189103
 30
0.0
 11
42.03266865020469
 21
6.089543495302393
 31
0.0
  0
LINE
  5
117
330
2
100
AcDbEntity
  8
GAIKEI
  6
Continuous
 62
     7
100
AcDbLine
 10
41.45804724893969
 20
3.10790414660471
 30
0.0
 11
41.45804724893969
 21
5.374204342206951
 31
0.0
  0
LINE
  5
118
330
2
100
AcDbEntity
  8
GAIKEI
  6
Continuous
 62
     7
100
AcDbLine
 10
41.63284322839234
 20
5.754124995613892
 30
0.0
 11
41.63655580823018
 21
5.75736138314528
 31
0.0
  0
LINE
  5
119
330
2
100
AcDbEntity
  8
GAIKEI
  6
Continuous
 62
     7
100
AcDbLine
 10
40.27794240452363
 20
2.443874776240249
 30
0.0
 11
41.12649460184025
 21
2.488345546773985
 31
0.0
  0
LINE
  5
11A
330
2
100
AcDbEntity
  8
GAIKEI
  6
Continuous
 62
     1
100
AcDbLine
 10
41.89185919022679
 20
9.506928982608201
 30
0.0
 11
41.89185919022674
 21
6.536914941260761
 31
0.0
  0
LINE
  5
11B
330
2
100
AcDbEntity
  8
GAIKEI
  6
Continuous
 62
     1
100
AcDbLine
 10
41.89185919022679
 20
9.506928982608201
 30
0.0
 11
41.92987441762523
 21
9.506928982608201
 31
0.0
  0
LINE
  5
11C
330
2
100
AcDbEntity
  8
GAIKEI
  6
Continuous
 62
     1
100
AcDbLine
 10
41.92987441762523
 20
10.15698673588821
 30
0.0
 11
41.92987441762523
 21
9.506928982608201
 31
0.0
  0
LINE
  5
11D
330
2
100
AcDbEntity
  8
GAIKEI
  6
Continuous
 62
     1
100
AcDbLine
 10
41.92987441762523
 20
10.15698673588821
 30
0.0
 11
41.89185919022679
 21
10.15698673588821
 31
0.0
  0
LINE
  5
11E
330
2
100
AcDbEntity
  8
GAIKEI
  6
Continuous
 62
     1
100
AcDbLine
 10
41.89185919022674
 20
22.58119633912605
 30
0.0
 11
41.89185919022679
 21
10.15698673588821
 31
0.0
  0
LINE
  5
11F
330
2
100
AcDbEntity
  8
GAIKEI
  6
Continuous
 62
     1
100
AcDbLine
 10
41.89185919022674
 20
22.58119633912605
 30
0.0
 11
41.92987441762523
 21
22.58119633912605
 31
0.0
  0
LINE
  5
120
330
2
100
AcDbEntity
  8
GAIKEI
  6
Continuous
 62
     1
100
AcDbLine
 10
41.92987441762523
 20
23.23125409240606
 30
0.0
 11
41.92987441762523
 21
22.58119633912605
 31
0.0
  0
LINE
  5
121
330
2
100
AcDbEntity
  8
GAIKEI
  6
Continuous
 62
     1
100
AcDbLine
 10
41.92987441762523
 20
23.23125409240606
 30
0.0
 11
41.89185919022674
 21
23.23125409240606
 31
0.0
  0
LINE
  5
122
330
2
100
AcDbEntity
  8
GAIKEI
  6
Continuous
 62
     1
100
AcDbLine
 10
41.89185919022674
 20
24.4664541477693
 30
0.0
 11
41.89185919022674
 21
23.23125409240606
 31
0.0
  0
LINE
  5
123
330
2
100
AcDbEntity
  8
GAIKEI
  6
Continuous
 62
     1
100
AcDbLine
 10
40.27794240452363
 20
23.71629718523809
 30
0.0
 11
40.41347654582483
 21
23.71629718523809
 31
0.0
  0
LINE
  5
124
330
2
100
AcDbEntity
  8
GAIKEI
  6
Continuous
 62
     1
100
AcDbLine
 10
40.41347654582483
 20
22.41618167867796
 30
0.0
 11
40.27794240452363
 21
22.41618167867796
 31
0.0
  0
LINE
  5
125
330
2
100
AcDbEntity
  8
GAIKEI
  6
Continuous
 62
     1
100
AcDbLine
 10
40.41347654582483
 20
22.41618167867796
 30
0.0
 11
40.41347654582483
 21
23.71629718523809
 31
0.0
  0
LINE
  5
126
330
2
100
AcDbEntity
  8
GAIKEI
  6
Continuous
 62
     1
100
AcDbLine
 10
40.41347654582483
 20
9.316912100880188
 30
0.0
 11
40.27794240452368
 21
9.316912100880188
 31
0.0
  0
LINE
  5
127
330
2
100
AcDbEntity
  8
GAIKEI
  6
Continuous
 62
     1
100
AcDbLine
 10
40.27794240452368
 20
10.61702760744026
 30
0.0
 11
40.41347654582483
 21
10.61702760744026
 31
0.0
  0
LINE
  5
128
330
2
100
AcDbEntity
  8
GAIKEI
  6
Continuous
 62
     1
100
AcDbLine
 10
40.41347654582483
 20
9.316912100880188
 30
0.0
 11
40.41347654582483
 21
10.61702760744026
 31
0.0
  0
ELLIPSE
  5
129
330
2
100
AcDbEntity
  8
GAIKEI
  6
Continuous
 62
     1
100
AcDbEllipse
 10
40.40272534065223
 20
24.83190389942701
 30
0.0
 11
-0.0353472850665863
 21
0.0353472850665863
 31
0.0
210
0.0
220
0.0
230
1.0
 40
0.9990757796394584
 41
0.785860431794156
 42
0.8903589325753582
  0
LINE
  5
12A
330
2
100
AcDbEntity
  8
GAIKEI
  6
Continuous
 62
     1
100
AcDbLine
 10
40.35180701689995
 20
24.82994857570958
 30
0.0
 11
40.35272849876747
 21
24.83190389942701
 31
0.0
  0
LINE
  5
12B
330
2
100
AcDbEntity
  8
GAIKEI
  6
Continuous
 62
     1
100
AcDbLine
 10
40.34130553391349
 20
24.88834721403765
 30
0.0
 11
40.34288422416955
 21
24.87390018051542
 31
0.0
  0
LINE
  5
12C
330
2
100
AcDbEntity
  8
GAIKEI
  6
Continuous
 62
     1
100
AcDbLine
 10
41.92267227776329
 20
27.63345164819146
 30
0.0
 11
41.92080981229572
 21
27.66066516593037
 31
0.0
  0
LINE
  5
12D
330
2
100
AcDbEntity
  8
GAIKEI
  6
Continuous
 62
     1
100
AcDbLine
 10
41.79439288099757
 20
30.26896024548876
 30
0.0
 11
41.79455099504503
 21
30.26969816104764
 31
0.0
  0
LINE
  5
12E
330
2
100
AcDbEntity
  8
GAIKEI
  6
Continuous
 62
     1
100
AcDbLine
 10
41.79431732428492
 20
30.2686077141687
 30
0.0
 11
41.79439288099757
 21
30.26896024548876
 31
0.0
  0
LINE
  5
12F
330
2
100
AcDbEntity
  8
GAIKEI
  6
Continuous
 62
     1
100
AcDbLine
 10
41.92080981229572
 20
27.037574708514
 30
0.0
 11
41.92267227776329
 21
27.06478822625292
 31
0.0
  0
LINE
  5
130
330
2
100
AcDbEntity
  8
GAIKEI
  6
Continuous
 62
     1
100
AcDbLine
 10
41.79439288099757
 20
24.42927962895562
 30
0.0
 11
41.79455099504503
 21
24.42854171339673
 31
0.0
  0
LINE
  5
131
330
2
100
AcDbEntity
  8
GAIKEI
  6
Continuous
 62
     1
100
AcDbLine
 10
41.79431732428492
 20
24.42963216027568
 30
0.0
 11
41.79439288099757
 21
24.42927962895562
 31
0.0
  0
LINE
  5
132
330
2
100
AcDbEntity
  8
GAIKEI
  6
Continuous
 62
     1
100
AcDbLine
 10
42.06675317838687
 20
24.72270424776889
 30
0.0
 11
42.06750079480758
 21
24.72260143863491
 31
0.0
  0
LINE
  5
133
330
2
100
AcDbEntity
  8
GAIKEI
  6
Continuous
 62
     1
100
AcDbLine
 10
42.06639604665809
 20
24.72275335213146
 30
0.0
 11
42.06675317838687
 21
24.72270424776889
 31
0.0
  0
LINE
  5
134
330
2
100
AcDbEntity
  8
GAIKEI
  6
Continuous
 62
     1
100
AcDbLine
 10
40.27908180575178
 20
30.49216232549952
 30
0.0
 11
40.27794240452363
 21
30.49216232549952
 31
0.0
  0
LINE
  5
135
330
2
100
AcDbEntity
  8
GAIKEI
  6
Continuous
 62
     1
100
AcDbLine
 10
40.27794240452363
 20
24.2060775489449
 30
0.0
 11
40.27908180575178
 21
24.2060775489449
 31
0.0
  0
LINE
  5
136
330
2
100
AcDbEntity
  8
GAIKEI
  6
Continuous
 62
     1
100
AcDbLine
 10
40.27908180575178
 20
24.2060775489449
 30
0.0
 11
41.77359623335468
 21
24.5263306512893
 31
0.0
  0
LINE
  5
137
330
2
100
AcDbEntity
  8
GAIKEI
  6
Continuous
 62
     1
100
AcDbLine
 10
40.27794240452363
 20
24.1035541762821
 30
0.0
 11
41.79455099504503
 21
24.42854171339673
 31
0.0
  0
LINE
  5
138
330
2
100
AcDbEntity
  8
GAIKEI
  6
Continuous
 62
     1
100
AcDbLine
 10
41.92267227776329
 20
27.06478822625292
 30
0.0
 11
41.92267227776329
 21
27.63345164819146
 31
0.0
  0
LINE
  5
139
330
2
100
AcDbEntity
  8
GAIKEI
  6
Continuous
 62
     1
100
AcDbLine
 10
41.64274565815697
 20
29.68258850028423
 30
0.0
 11
41.63594265375553
 21
29.73205629516667
 31
0.0
  0
LINE
  5
13A
330
2
100
AcDbEntity
  8
GAIKEI
  6
Continuous
 62
     1
100
AcDbLine
 10
41.80303864911627
 20
28.53824908338697
 30
0.0
 11
41.65933543204727
 21
29.58317646819068
 31
0.0
  0
LINE
  5
13B
330
2
100
AcDbEntity
  8
GAIKEI
  6
Continuous
 62
     1
100
AcDbLine
 10
41.92080981229572
 20
27.66066516593037
 30
0.0
 11
41.81393706736776
 21
28.43778265761762
 31
0.0
  0
LINE
  5
13C
330
2
100
AcDbEntity
  8
GAIKEI
  6
Continuous
 62
     1
100
AcDbLine
 10
41.77359623335468
 20
30.17190922315507
 30
0.0
 11
40.27908180575178
 21
30.49216232549952
 31
0.0
  0
LINE
  5
13D
330
2
100
AcDbEntity
  8
GAIKEI
  6
Continuous
 62
     1
100
AcDbLine
 10
41.63594265375553
 20
24.96618357927764
 30
0.0
 11
41.64274565815697
 21
25.01565137416014
 31
0.0
  0
LINE
  5
13E
330
2
100
AcDbEntity
  8
GAIKEI
  6
Continuous
 62
     1
100
AcDbLine
 10
41.82872223093062
 20
26.36796676833081
 30
0.0
 11
41.92080981229572
 21
27.037574708514
 31
0.0
  0
LINE
  5
13F
330
2
100
AcDbEntity
  8
GAIKEI
  6
Continuous
 62
     1
100
AcDbLine
 10
41.65933543204727
 20
25.11506340625374
 30
0.0
 11
41.81782381267902
 21
26.26750034256133
 31
0.0
  0
LINE
  5
140
330
2
100
AcDbEntity
  8
GAIKEI
  6
Continuous
 62
     1
100
AcDbLine
 10
42.2833837245609
 20
27.12202196108717
 30
0.0
 11
42.2833837245609
 21
27.5762179133572
 31
0.0
  0
LINE
  5
141
330
2
100
AcDbEntity
  8
GAIKEI
  6
Continuous
 62
     1
100
AcDbLine
 10
42.2703601175005
 20
27.76650931947484
 30
0.0
 11
41.9684244425369
 21
29.96201302528289
 31
0.0
  0
LINE
  5
142
330
2
100
AcDbEntity
  8
GAIKEI
  6
Continuous
 62
     1
100
AcDbLine
 10
41.9684244425369
 20
24.73622684916154
 30
0.0
 11
42.2703601175005
 21
26.93173055496948
 31
0.0
  0
LINE
  5
143
330
2
100
AcDbEntity
  8
GAIKEI
  6
Continuous
 62
     1
100
AcDbLine
 10
42.06750079480758
 20
24.72260143863491
 30
0.0
 11
42.44766374065972
 21
27.48692916019263
 31
0.0
  0
LINE
  5
144
330
2
100
AcDbEntity
  8
GAIKEI
  6
Continuous
 62
     1
100
AcDbLine
 10
40.34130553391349
 20
29.80989266040672
 30
0.0
 11
40.27794240452363
 21
29.80989266040672
 31
0.0
  0
LINE
  5
145
330
2
100
AcDbEntity
  8
GAIKEI
  6
Continuous
 62
     1
100
AcDbLine
 10
40.27794240452363
 20
24.88834721403765
 30
0.0
 11
40.34130553391349
 21
24.88834721403765
 31
0.0
  0
LINE
  5
146
330
2
100
AcDbEntity
  8
GAIKEI
  6
Continuous
 62
     1
100
AcDbLine
 10
40.34130553391349
 20
29.80989266040672
 30
0.0
 11
40.34130553391349
 21
24.88834721403765
 31
0.0
  0
LINE
  5
147
330
2
100
AcDbEntity
  8
GAIKEI
  6
Continuous
 62
     1
100
AcDbLine
 10
41.44503244266121
 20
29.90446476250497
 30
0.0
 11
40.44923102237072
 21
29.93923890195447
 31
0.0
  0
LINE
  5
148
330
2
100
AcDbEntity
  8
GAIKEI
  6
Continuous
 62
     1
100
AcDbLine
 10
40.44923102237072
 20
24.7590009724899
 30
0.0
 11
41.44503244266121
 21
24.79377511193945
 31
0.0
  0
SPLINE
  5
149
330
2
100
AcDbEntity
  8
GAIKEI
  6
Continuous
 62
     1
100
AcDbSpline
210
0.0
220
0.0
230
1.0
 70
     8
 71
     3
 72
    19
 73
    15
 74
    13
 42
0.0000000001
 43
0.0000000001
 44
0.000001
 12
0.0213842593146391
 22
0.9997713305819308
 32
0.0
 13
-0.1213258174957188
 23
0.9926127371785009
 33
0.0
 40
0.0
 40
0.0
 40
0.0
 40
0.0
 40
0.0170227267862881
 40
0.033665318615127
 40
0.0496533389315407
 40
0.064999200049314
 40
0.0795095599456262
 40
0.0998742087045729
 40
0.11775602075241
 40
0.1324530564066402
 40
0.144067444804667
 40
0.1496619817088156
 40
0.153718229090371
 40
0.1561012044465203
 40
0.1561012044465203
 40
0.1561012044465203
 40
0.1561012044465203
 10
38.18163556279427
 20
31.49093732941833
 30
0.0
 10
38.18175690226222
 20
31.49661027415476
 30
0.0
 10
38.18189148587052
 20
31.5078324292009
 30
0.0
 10
38.18170008517298
 20
31.52438325379041
 30
0.0
 10
38.18136648550567
 20
31.5403719384812
 30
0.0
 10
38.18097857525099
 20
31.55564844268594
 30
0.0
 10
38.18057517816922
 20
31.57238393461233
 30
0.0
 10
38.18032679818106
 20
31.58996823798225
 30
0.0
 10
38.1803710494135
 20
31.60761769522134
 30
0.0
 10
38.18076754967278
 20
31.62234402906131
 30
0.0
 10
38.18129802520989
 20
31.63296912886585
 30
0.0
 10
38.18166105797642
 20
31.64004350004564
 30
0.0
 10
38.1819236138009
 20
31.64405550100662
 30
0.0
 10
38.18173193493866
 20
31.6461986009673
 30
0.0
 10
38.18163556279427
 20
31.64698705819757
 30
0.0
 11
38.18163556279427
 21
31.49093732941833
 31
0.0
 11
38.18182441634957
 21
31.50795896929373
 31
0.0
 11
38.18167026029431
 21
31.52460084535193
 31
0.0
 11
38.18134871814215
 21
31.54058562989502
 31
0.0
 11
38.18097389021733
 21
31.55592691138406
 31
0.0
 11
38.18064127370343
 21
31.57043345801657
 31
0.0
 11
38.18037422315098
 21
31.59079635592991
 31
0.0
 11
38.18045256759337
 21
31.60867799710394
 31
0.0
 11
38.18085704501215
 21
31.62336946525272
 31
0.0
 11
38.18140060533682
 21
31.6349711216696
 31
0.0
 11
38.18170171433081
 21
31.6405575366893
 31
0.0
 11
38.18182731834821
 21
31.64461178678113
 31
0.0
 11
38.18163556279427
 21
31.64698705819757
 31
0.0
  0
SPLINE
  5
14A
330
2
100
AcDbEntity
  8
GAIKEI
  6
Continuous
 62
     1
100
AcDbSpline
210
0.0
220
0.0
230
1.0
 70
     8
 71
     3
 72
    25
 73
    21
 74
    19
 42
0.0000000001
 43
0.0000000001
 44
0.000001
 12
0.5909511587252205
 22
-0.8067073372675615
 32
0.0
 13
-0.0272811889574892
 23
-0.999627799097777
 33
0.0
 40
0.0
 40
0.0
 40
0.0
 40
0.0
 40
0.0007432967824375
 40
0.0027267298551833
 40
0.006136021856612
 40
0.0109132863929153
 40
0.0168508832888977
 40
0.0240117930147976
 40
0.0326017377538593
 40
0.0423706598912017
 40
0.0530746293406247
 40
0.0647804937318431
 40
0.0777879482733225
 40
0.0916776871623378
 40
0.1059782794806192
 40
0.120924974924902
 40
0.1368751325740136
 40
0.153284651356025
 40
0.1762473269125055
 40
0.199863402345466
 40
0.199863402345466
 40
0.199863402345466
 40
0.199863402345466
 10
38.24324523668741
 20
31.68574204745386
 30
0.0
 10
38.24339165405238
 20
31.68554217313113
 30
0.0
 10
38.24387965143018
 20
31.68474997618273
 30
0.0
 10
38.24375529930073
 20
31.68261363392043
 30
0.0
 10
38.24393274460769
 20
31.67927693592253
 30
0.0
 10
38.243817810715
 20
31.67454543922327
 30
0.0
 10
38.24374498372563
 20
31.66859656271936
 30
0.0
 10
38.24361789953968
 20
31.66136487246684
 30
0.0
 10
38.24350940413814
 20
31.65286008835233
 30
0.0
 10
38.24342205585529
 20
31.6431724671495
 30
0.0
 10
38.24337909495723
 20
31.63244637512139
 30
0.0
 10
38.24338096241998
 20
31.62064054632151
 30
0.0
 10
38.24343345899249
 20
31.60777295324283
 30
0.0
 10
38.24352485579686
 20
31.59404065104843
 30
0.0
 10
38.2436421820054
 20
31.57966211985337
 30
0.0
 10
38.24376090965839
 20
31.56459677528079
 30
0.0
 10
38.24385661224498
 20
31.54882824075048
 30
0.0
 10
38.24389080951774
 20
31.53038745973276
 30
0.0
 10
38.24378189706982
 20
31.50939112872971
 30
0.0
 10
38.24345999489286
 20
31.49386748978594
 30
0.0
 10
38.24324523668741
 20
31.4859983946165
 30
0.0
 11
38.24324523668741
 21
31.68574204745386
 31
0.0
 11
38.24361650616328
 21
31.68509804011927
 31
0.0
 11
38.24381078037669
 21
31.68312433542877
 31
0.0
 11
38.24387160963005
 21
31.67971562045278
 31
0.0
 11
38.24383496146646
 21
31.67493851200658
 31
0.0
 11
38.24374421302361
 21
31.66900161689568
 31
0.0
 11
38.24363055783448
 21
31.66184161416339
 31
0.0
 11
38.2435184724356
 21
31.65325240396408
 31
0.0
 11
38.24343170032654
 21
31.64348386934853
 31
0.0
 11
38.2433865752036
 21
31.63277999645084
 31
0.0
 11
38.24338718858513
 21
31.62107413311037
 31
0.0
 11
38.24343670664262
 21
31.60806677360767
 31
0.0
 11
38.24352642193247
 21
31.59417732507859
 31
0.0
 11
38.24363882085567
 21
31.57987717495104
 31
0.0
 11
38.2437529538401
 21
31.56493091564608
 31
0.0
 11
38.24384368399677
 21
31.54898101626623
 31
0.0
 11
38.24386975178226
 21
31.53257151807606
 31
0.0
 11
38.2437234139731
 21
31.50960930650394
 31
0.0
 11
38.24324523668741
 21
31.4859983946165
 31
0.0
  0
SPLINE
  5
14B
330
2
100
AcDbEntity
  8
GAIKEI
  6
Continuous
 62
     1
100
AcDbSpline
210
0.0
220
0.0
230
1.0
 70
     8
 71
     3
 72
    25
 73
    21
 74
    19
 42
0.0000000001
 43
0.0000000001
 44
0.000001
 12
0.0281905901065335
 22
-0.9996025663379647
 32
0.0
 13
-0.4008655609207862
 23
-0.9161368904632448
 33
0.0
 40
0.0
 40
0.0
 40
0.0
 40
0.0
 40
0.0162962299869904
 40
0.0324852217692273
 40
0.0489094868862328
 40
0.0649892448307301
 40
0.0802035379895734
 40
0.0948820072443004
 40
0.1093099214539979
 40
0.1229669967138563
 40
0.135561796326256
 40
0.1472311895942732
 40
0.158183329487574
 40
0.1679926915507271
 40
0.1763846741143813
 40
0.1835629613920773
 40
0.1896245610412642
 40
0.1943008486346233
 40
0.1983877092312225
 40
0.1998377220781223
 40
0.1998377220781223
 40
0.1998377220781223
 40
0.1998377220781223
 10
38.24324523668741
 20
1.58384002027418
 30
0.0
 10
38.24339837013403
 20
1.578410102501948
 30
0.0
 10
38.24364865666881
 20
1.567584305189029
 30
0.0
 10
38.24383406325114
 20
1.551281929758488
 30
0.0
 10
38.24388892313797
 20
1.535050896157656
 30
0.0
 10
38.24384654782878
 20
1.51914478394525
 30
0.0
 10
38.24375099126446
 20
1.503820894329464
 30
0.0
 10
38.24363206328779
 20
1.489047812665603
 30
0.0
 10
38.24351816908707
 20
1.474793781032133
 30
0.0
 10
38.24342814146007
 20
1.461234142571129
 30
0.0
 10
38.24338099678715
 20
1.448593774047594
 30
0.0
 10
38.24337874501468
 20
1.43685500487021
 30
0.0
 10
38.2434276905673
 20
1.426044633252729
 30
0.0
 10
38.24351342883337
 20
1.416327611608835
 30
0.0
 10
38.24363513744902
 20
1.407867163389028
 30
0.0
 10
38.24373333692317
 20
1.40066143397172
 30
0.0
 10
38.24388614179012
 20
1.394678967994764
 30
0.0
 10
38.24378167610513
 20
1.389767777962902
 30
0.0
 10
38.24409115966707
 20
1.386288844029877
 30
0.0
 10
38.24343899009182
 20
1.384539170856953
 30
0.0
 10
38.24324523668741
 20
1.384096367436711
 30
0.0
 11
38.24324523668741
 21
1.58384002027418
 31
0.0
 11
38.24361650616328
 21
1.567548235307583
 31
0.0
 11
38.24381078037669
 21
1.551360407768981
 31
0.0
 11
38.24387160963016
 21
1.534936255472757
 31
0.0
 11
38.24383496146646
 21
1.518856539784565
 31
0.0
 11
38.24374421302372
 21
1.503642517837135
 31
0.0
 11
38.24363055783459
 21
1.488964489180432
 31
0.0
 11
38.24351847243571
 21
1.47453701097794
 31
0.0
 11
38.24343170032654
 21
1.460880212051222
 31
0.0
 11
38.2433865752036
 21
1.448285494063838
 31
0.0
 11
38.24338718858513
 21
1.436616101800723
 31
0.0
 11
38.24343670664262
 21
1.425664075260272
 31
0.0
 11
38.24352642193247
 21
1.415855125515633
 31
0.0
 11
38.24363882085567
 21
1.40746389877637
 31
0.0
 11
38.2437529538401
 21
1.400286523811757
 31
0.0
 11
38.24384368399677
 21
1.39422561199035
 31
0.0
 11
38.24386975178226
 21
1.389549414315467
 31
0.0
 11
38.2437234139731
 21
1.385465320067396
 31
0.0
 11
38.24324523668741
 21
1.384096367436711
 31
0.0
  0
SPLINE
  5
14C
330
2
100
AcDbEntity
  8
GAIKEI
  6
Continuous
 62
     1
100
AcDbSpline
210
0.0
220
0.0
230
1.0
 70
     8
 71
     3
 72
    30
 73
    26
 74
     0
 42
0.0000000001
 43
0.0000000001
 40
0.256854181831742
 40
0.256854181831742
 40
0.256854181831742
 40
0.256854181831742
 40
0.3030489831524179
 40
0.3240910055785475
 40
0.345906034337955
 40
0.3684937187094058
 40
0.3918536980679295
 40
0.4159856031357031
 40
0.4408890570347025
 40
0.466563676236536
 40
0.4927882784883748
 40
0.5217307213297099
 40
0.5534044539066166
 40
0.5878238395940912
 40
0.6250042657959281
 40
0.6715302177737608
 40
0.7217836999859159
 40
0.7669496736025986
 40
0.8014271103592763
 40
0.8251396620111714
 40
0.8457402503410477
 40
0.8893619991088861
 40
1.01487324770404
 40
1.134357471453109
 40
1.248407897277932
 40
1.248407897277932
 40
1.248407897277932
 40
1.248407897277932
 10
42.43294248932346
 20
6.425413123882549
 30
0.0
 10
42.43037826064437
 20
6.418153463438557
 30
0.0
 10
42.42669613440114
 20
6.40756931122263
 30
0.0
 10
42.42189214500604
 20
6.39352631118902
 30
0.0
 10
42.41839456470723
 20
6.383194804457787
 30
0.0
 10
42.41480522006509
 20
6.372486562403025
 30
0.0
 10
42.41112510917417
 20
6.165648784542952
 30
0.0
 10
42.40735509494607
 20
6.1541869765461
 30
0.0
 10
42.40349601856519
 20
6.142348404501433
 30
0.0
 10
42.3995603062844
 20
6.130168011497062
 30
0.0
 10
42.39544864190565
 20
6.117337090042099
 30
0.0
 10
42.39103845723604
 20
6.103551903349455
 30
0.0
 10
42.38619846360779
 20
6.088470234445935
 30
0.0
 10
42.3809057620897
 20
6.072091894035338
 30
0.0
 10
42.37479414786617
 20
6.053376899685019
 30
0.0
 10
42.36778324734115
 20
6.032179350648902
 30
0.0
 10
42.36011776585428
 20
6.009797578283667
 30
0.0
 10
42.35290645808584
 20
5.989384058064842
 30
0.0
 10
42.34702474297359
 20
5.973193188859227
 30
0.0
 10
42.34246895318773
 20
5.960876852526951
 30
0.0
 10
42.33722707640777
 20
5.947190164396772
 30
0.0
 10
42.32546280028976
 20
5.917836329557815
 30
0.0
 10
42.30586372792004
 20
5.873872031055839
 30
0.0
 10
42.27799332015087
 20
5.820863021092975
 30
0.0
 10
42.25730432840271
 20
5.787845877454969
 30
0.0
 10
42.24666175517774
 20
5.772096113350698
 30
0.0
  0
SPLINE
  5
14D
330
2
100
AcDbEntity
  8
GAIKEI
  6
Continuous
 62
     1
100
AcDbSpline
210
0.0
220
0.0
230
1.0
 70
     8
 71
     3
 72
    28
 73
    24
 74
    22
 42
0.0000000001
 43
0.0000000001
 44
0.000001
 12
0.7217480328339719
 22
0.6921558907502644
 32
0.0
 13
0.9952109123015889
 23
0.097750908107491
 33
0.0
 40
0.0
 40
0.0
 40
0.0
 40
0.0
 40
0.0128362938088476
 40
0.0236419483122585
 40
0.0322393231767327
 40
0.0406586550764814
 40
0.0494682927972984
 40
0.0650086881395701
 40
0.0812452085396958
 40
0.0969842100843637
 40
0.1084332339619348
 40
0.1194845735025502
 40
0.1244284719691691
 40
0.1287900634212224
 40
0.1325757451840354
 40
0.1357853974312538
 40
0.1371717324530494
 40
0.1396412914417295
 40
0.142547345505268
 40
0.1481162818960573
 40
0.1537856556269125
 40
0.1600382057310444
 40
0.1666011957495944
 40
0.1666011957495944
 40
0.1666011957495944
 40
0.1666011957495944
 10
40.7991421945257
 20
2.41059483196085
 30
0.0
 10
40.80223038446084
 20
2.413556404085909
 30
0.0
 10
40.8080564537959
 20
2.418868200190786
 30
0.0
 10
40.81629843268898
 20
2.42576953212233
 30
0.0
 10
40.82367103916348
 20
2.431399596019161
 30
0.0
 10
40.83069240167296
 20
2.436383491995172
 30
0.0
 10
40.83981301508709
 20
2.442397789195069
 30
0.0
 10
40.85146590212953
 20
2.449289806948002
 30
0.0
 10
40.86559369703276
 20
2.456472353835806
 30
0.0
 10
40.87887118040711
 20
2.46225853268902
 30
0.0
 10
40.89079930555956
 20
2.46676008971616
 30
0.0
 10
40.89947540879622
 20
2.469670218053806
 30
0.0
 10
40.90598357399966
 20
2.471593158557482
 30
0.0
 10
40.91019964383031
 20
2.472720551052873
 30
0.0
 10
40.91387970708288
 20
2.473609826096662
 30
0.0
 10
40.9166101130296
 20
2.474203217413389
 30
0.0
 10
40.91891985159472
 20
2.474663926434288
 30
0.0
 10
40.92113774195166
 20
2.4750662387695
 30
0.0
 10
40.92473218802493
 20
2.475690120942829
 30
0.0
 10
40.92938780662329
 20
2.476436257719001
 30
0.0
 10
40.93515835366814
 20
2.477270233622903
 30
0.0
 10
40.94127064378315
 20
2.478051012251
 30
0.0
 10
40.94551797086691
 20
2.478511192940118
 30
0.0
 10
40.94769515729484
 20
2.478725039018172
 30
0.0
 11
40.7991421945257
 21
2.41059483196085
 31
0.0
 11
40.8086206298762
 21
2.41925135359304
 31
0.0
 11
40.8169186751208
 21
2.426172657714516
 31
0.0
 11
40.82374764631157
 21
2.431395769802008
 31
0.0
 11
40.83061245986136
 21
2.436270234461574
 31
0.0
 11
40.83796729982458
 21
2.441119657454294
 31
0.0
 11
40.85134339377037
 21
2.44903082151319
 31
0.0
 11
40.86581092747581
 21
2.456400841265406
 31
0.0
 11
40.88023892834638
 21
2.462689674757768
 31
0.0
 11
40.89094762817973
 21
2.466739823181683
 31
0.0
 11
40.90143322094474
 21
2.470230424307374
 31
0.0
 11
40.90617569905901
 21
2.471627226661155
 31
0.0
 11
40.91038953845185
 21
2.472752875358025
 31
0.0
 11
40.91406968808946
 21
2.473640532090996
 31
0.0
 11
40.91720644011405
 21
2.474320749292417
 31
0.0
 11
40.91856609604252
 21
2.474591430622695
 31
0.0
 11
40.92099487002104
 21
2.475038423006367
 31
0.0
 11
40.9238581759858
 21
2.475535071859098
 31
0.0
 11
40.92935669265187
 21
2.47641795083615
 31
0.0
 11
40.93496779939965
 21
2.477228742014347
 31
0.0
 11
40.94117014450813
 21
2.478019575529231
 31
0.0
 11
40.94769515729484
 21
2.478725039018172
 31
0.0
  0
SPLINE
  5
14E
330
2
100
AcDbEntity
  8
GAIKEI
  6
Continuous
 62
     1
100
AcDbSpline
210
0.0
220
0.0
230
1.0
 70
     8
 71
     3
 72
    29
 73
    25
 74
    23
 42
0.0000000001
 43
0.0000000001
 44
0.000001
 12
-0.7526510322232211
 22
0.6584196410294274
 32
0.0
 13
-0.2875771477137425
 23
0.9577574766676731
 33
0.0
 40
0.0
 40
0.0
 40
0.0
 40
0.0
 40
0.00092681362127
 40
0.0037856874542025
 40
0.0086274488929518
 40
0.0155313411764998
 40
0.0244082483448277
 40
0.0352300049078256
 40
0.0479521168105079
 40
0.0625647547588155
 40
0.079048642912854
 40
0.0971122281118509
 40
0.1168173563900608
 40
0.1381183995708498
 40
0.1654645069305171
 40
0.1945513235683351
 40
0.2253128177557579
 40
0.2575730434400235
 40
0.2910030843208259
 40
0.3250114719193914
 40
0.3599154155390327
 40
0.3956769625130772
 40
0.4321733121892477
 40
0.4691787508434098
 40
0.4691787508434098
 40
0.4691787508434098
 40
0.4691787508434098
 10
42.03266863053267
 20
6.089543477035306
 30
0.0
 10
42.03243610812309
 20
6.089746887799265
 30
0.0
 10
42.0315241124311
 20
6.090642460300671
 30
0.0
 10
42.03062337653176
 20
6.09346721385225
 30
0.0
 10
42.02870174504157
 20
6.097891133328744
 30
0.0
 10
42.02641905392681
 20
6.104401520059013
 30
0.0
 10
42.02346888735711
 20
6.112753719688612
 30
0.0
 10
42.02000535572707
 20
6.122994539499018
 30
0.0
 10
42.01598889225437
 20
6.135061272403618
 30
0.0
 10
42.01144556590479
 20
6.148943390163196
 30
0.0
 10
42.00640344893389
 20
6.164534976499737
 30
0.0
 10
42.00088996309306
 20
6.181758277140033
 30
0.0
 10
41.99493201226286
 20
6.200525158721063
 30
0.0
 10
41.98808247188293
 20
6.222255310456603
 30
0.0
 10
41.98034130406003
 20
6.24698326575276
 30
0.0
 10
41.97170821580146
 20
6.274736347451209
 30
0.0
 10
41.96263498923317
 20
6.304067934103329
 30
0.0
 10
41.95317724266104
 20
6.334795965057537
 30
0.0
 10
41.94344162851509
 20
6.366570844939133
 30
0.0
 10
41.93348576053451
 20
6.399199890675959
 30
0.0
 10
41.9233388275141
 20
6.432583157466069
 30
0.0
 10
41.91298543759269
 20
6.466770434977831
 30
0.0
 10
41.90246216258867
 20
6.501638163271934
 30
0.0
 10
41.89540651551557
 20
6.525100841336211
 30
0.0
 10
41.89185920934955
 20
6.536914919852335
 30
0.0
 11
42.03266863053267
 21
6.089543477035306
 31
0.0
 11
42.03202121358714
 21
6.090206740530163
 31
0.0
 11
42.03080234638963
 21
6.092792595041203
 31
0.0
 11
42.02901557356557
 21
6.097292578688495
 31
0.0
 11
42.02663762881314
 21
6.103774008555149
 31
0.0
 11
42.02370165606299
 21
6.112151323771911
 31
0.0
 11
42.02021699219023
 21
6.122396684839088
 31
0.0
 11
42.01619806269587
 21
6.134467320512555
 31
0.0
 11
42.01164809971811
 21
6.148353534774003
 31
0.0
 11
42.00657368326204
 21
6.16403692721127
 31
0.0
 11
42.00106420863625
 21
6.181239797361456
 31
0.0
 11
41.99509999845218
 21
6.20002064468673
 31
0.0
 11
41.98869489350676
 21
6.220335885909662
 31
0.0
 11
41.9805231126881
 21
6.246432466706835
 31
0.0
 11
41.97188197779991
 21
6.274206080824285
 31
0.0
 11
41.9627901965037
 21
6.303593305852643
 31
0.0
 11
41.95329921982391
 21
6.334425812812696
 31
0.0
 11
41.94350507370581
 21
6.366388952557997
 31
0.0
 11
41.9335794430595
 21
6.398916667742469
 31
0.0
 11
41.92342838039616
 21
6.432311894672977
 31
0.0
 11
41.91306263206121
 21
6.466538192752409
 31
0.0
 11
41.90251779333102
 21
6.501477996599419
 31
0.0
 11
41.89185920934955
 21
6.536914919852335
 31
0.0
  0
SPLINE
  5
14F
330
2
100
AcDbEntity
  8
GAIKEI
  6
Continuous
 62
     1
100
AcDbSpline
210
0.0
220
0.0
230
1.0
 70
     8
 71
     3
 72
    11
 73
     7
 74
     5
 42
0.0000000001
 43
0.0000000001
 44
0.000001
 12
0.1117045080192779
 22
-0.9937414668253364
 32
0.0
 13
0.1717596663978053
 23
-0.9851388820866398
 33
0.0
 40
0.0
 40
0.0
 40
0.0
 40
0.0
 40
0.0002398629336179
 40
0.0139454933406509
 40
0.0259284375106716
 40
0.0335344213696632
 40
0.0335344213696632
 40
0.0335344213696632
 40
0.0335344213696632
 10
40.34288423197
 20
24.87390016881301
 30
0.0
 10
40.342893163227
 20
24.8738207148985
 30
0.0
 10
40.34341243989177
 20
24.86920131104381
 30
0.0
 10
40.34441563857228
 20
24.86061703485825
 30
0.0
 10
40.34585088556688
 20
24.84961046549728
 30
0.0
 10
40.34690875291126
 20
24.84316624430682
 30
0.0
 10
40.34734421999468
 20
24.84066859416146
 30
0.0
 11
40.34288423197
 21
24.87390016881301
 31
0.0
 11
40.34291104737457
 21
24.8736618107144
 31
0.0
 11
40.34451554486003
 21
24.86005059272344
 31
0.0
 11
40.34611843544047
 21
24.84817526238584
 31
0.0
 11
40.34734421999468
 21
24.84066859416146
 31
0.0
  0
SPLINE
  5
150
330
2
100
AcDbEntity
  8
GAIKEI
  6
Continuous
 62
     1
100
AcDbSpline
210
0.0
220
0.0
230
1.0
 70
     8
 71
     3
 72
    15
 73
    11
 74
     9
 42
0.0000000001
 43
0.0000000001
 44
0.000001
 12
0.9994496190759601
 22
0.0331731657958403
 32
0.0
 13
0.134530790036436
 23
0.9909094138881577
 33
0.0
 40
0.0
 40
0.0
 40
0.0
 40
0.0
 40
0.0349733184911274
 40
0.0699030407195574
 40
0.1048022374589425
 40
0.1396858361956178
 40
0.1745694349323332
 40
0.2094686316716631
 40
0.2443983539000373
 40
0.2793716723910008
 40
0.2793716723910008
 40
0.2793716723910008
 40
0.2793716723910008
 10
41.44503243243804
 20
24.79377510041502
 30
0.0
 10
41.45668378905263
 20
24.79416182564591
 30
0.0
 10
41.4799595363001
 20
24.79693677194223
 30
0.0
 10
41.51354818423061
 20
24.80715168611477
 30
0.0
 10
41.54481996920174
 20
24.82306024635619
 30
0.0
 10
41.57281021213562
 20
24.84418799147619
 30
0.0
 10
41.5966720531035
 20
24.86988717159875
 30
0.0
 10
41.6156750647493
 20
24.89938110949493
 30
0.0
 10
41.62924924327917
 20
24.93175831472616
 30
0.0
 10
41.63437430450699
 20
24.95463175968501
 30
0.0
 10
41.63594263389592
 20
24.96618355652754
 30
0.0
 11
41.44503243243804
 21
24.79377510041502
 31
0.0
 11
41.4797563475675
 21
24.79794856206331
 31
0.0
 11
41.51317678934873
 21
24.80810538607443
 31
0.0
 11
41.54428035969596
 21
24.8239333377
 31
0.0
 11
41.57212291791046
 21
24.84494904161227
 31
0.0
 11
41.59585829470318
 21
24.87051268273325
 31
0.0
 11
41.61476402662692
 21
24.89984746484311
 31
0.0
 11
41.62826332825846
 21
24.93206323517848
 31
0.0
 11
41.63594263389592
 21
24.96618355652754
 31
0.0
  0
SPLINE
  5
151
330
2
100
AcDbEntity
  8
GAIKEI
  6
Continuous
 62
     1
100
AcDbSpline
210
0.0
220
0.0
230
1.0
 70
     8
 71
     3
 72
    13
 73
     9
 74
     7
 42
0.0000000001
 43
0.0000000001
 44
0.000001
 12
-0.999877353382941
 22
0.0156613598364006
 32
0.0
 13
-0.9488110788832816
 23
-0.3158441650376698
 33
0.0
 40
0.0
 40
0.0
 40
0.0
 40
0.0
 40
0.0052785610370455
 40
0.0104045357744838
 40
0.0154026108476514
 40
0.0202989743738214
 40
0.0298973481511511
 40
0.0345615655985524
 40
0.0345615655985524
 40
0.0345615655985524
 40
0.0345615655985524
 10
40.44923102262811
 20
29.93923892552095
 30
0.0
 10
40.44747171808164
 20
29.93926648200221
 30
0.0
 10
40.44400256927315
 20
29.93925224093431
 30
0.0
 10
40.43887157607784
 20
29.93903868719707
 30
0.0
 10
40.43388085678853
 20
29.93861410447187
 30
0.0
 10
40.427438224997
 20
29.93775786396225
 30
0.0
 10
40.42117586384271
 20
29.93643130695705
 30
0.0
 10
40.41662401443204
 20
29.93505124253153
 30
0.0
 10
40.41514886070257
 20
29.93456018724311
 30
0.0
 11
40.44923102262811
 21
29.93923892552095
 31
0.0
 11
40.44395342883109
 21
29.93921819523928
 31
0.0
 11
40.43883207888296
 21
29.93900002603408
 31
0.0
 11
40.43385217381052
 21
29.93857241335718
 31
0.0
 11
40.42899891464077
 21
29.93792335266022
 31
0.0
 11
40.41961313811651
 21
29.93591286901221
 31
0.0
 11
40.41514886070257
 21
29.93456018724311
 31
0.0
  0
SPLINE
  5
152
330
2
100
AcDbEntity
  8
GAIKEI
  6
Continuous
 62
     1
100
AcDbSpline
210
0.0
220
0.0
230
1.0
 70
     8
 71
     3
 72
    27
 73
    23
 74
    21
 42
0.0000000001
 43
0.0000000001
 44
0.000001
 12
0.076512265488583
 22
0.9970686401797044
 32
0.0
 13
0.9552657900996008
 23
0.2957486606316
 33
0.0
 40
0.0
 40
0.0
 40
0.0
 40
0.0
 40
0.0073621065757144
 40
0.01079232420715
 40
0.0140307086205363
 40
0.0210326905144642
 40
0.0253294471323425
 40
0.0301584685617158
 40
0.037405868957668
 40
0.0455384591465289
 40
0.0544700544554276
 40
0.0674030077538427
 40
0.0789312812237218
 40
0.0880812945348327
 40
0.0961622630153808
 40
0.1034392482983114
 40
0.1102594694563251
 40
0.1166721736016166
 40
0.1226379202587842
 40
0.1284009097425262
 40
0.1339895635089596
 40
0.139440545663197
 40
0.139440545663197
 40
0.139440545663197
 40
0.139440545663197
 10
40.34217000048506
 20
29.82514789113998
 30
0.0
 10
40.34235776430267
 20
29.82759473300411
 30
0.0
 10
40.3426132655758
 20
29.8311839924769
 30
0.0
 10
40.3427828065992
 20
29.83585811837367
 30
0.0
 10
40.34315277148239
 20
29.84040261068691
 30
0.0
 10
40.34400548491237
 20
29.84518206149778
 30
0.0
 10
40.34520453179077
 20
29.85042254984603
 30
0.0
 10
40.34665737585854
 20
29.85568562306378
 30
0.0
 10
40.3487871542498
 20
29.8620805708527
 30
0.0
 10
40.35182762426969
 20
29.86959942294209
 30
0.0
 10
40.35621536996745
 20
29.87859127306695
 30
0.0
 10
40.36172545376135
 20
29.88827418880658
 30
0.0
 10
40.36794111524378
 20
29.89760681799788
 30
0.0
 10
40.37379027336132
 20
29.90521056163323
 30
0.0
 10
40.37918304600715
 20
29.9113538767698
 30
0.0
 10
40.38439640188276
 20
29.91660287857428
 30
0.0
 10
40.38955328723716
 20
29.92110067503171
 30
0.0
 10
40.39465857495355
 20
29.92496619414362
 30
0.0
 10
40.39972837796476
 20
29.92827760417981
 30
0.0
 10
40.40489305046505
 20
29.93088509683827
 30
0.0
 10
40.41012428630823
 20
29.9328973445443
 30
0.0
 10
40.41360744853605
 20
29.9340874498464
 30
0.0
 10
40.41534316079418
 20
29.93462482340351
 30
0.0
 11
40.34217000048506
 21
29.82514789113998
 31
0.0
 11
40.34264714121099
 21
29.83249440362192
 31
0.0
 11
40.34281055567379
 21
29.83592073492184
 31
0.0
 11
40.34308227535149
 21
29.8391476902732
 31
0.0
 11
40.34423125486767
 21
29.84605467706916
 31
0.0
 11
40.3451930877406
 21
29.85024232018657
 31
0.0
 11
40.34647400062129
 21
29.85489825498701
 31
0.0
 11
40.34876021799249
 21
29.86177543363226
 31
0.0
 11
40.35180928113601
 21
29.86931465958253
 31
0.0
 11
40.35569811740169
 21
29.87735518419743
 31
0.0
 11
40.36209335707787
 21
29.88859636141683
 31
0.0
 11
40.36849948562661
 21
29.89818088249507
 31
0.0
 11
40.37408855271445
 21
29.90542551637458
 31
0.0
 11
40.37942368148953
 21
29.91149492792249
 31
0.0
 11
40.38456496033592
 21
29.916644757342
 31
0.0
 11
40.38970617693263
 21
29.92112605510227
 31
0.0
 11
40.39482158754657
 21
29.92499313363567
 31
0.0
 11
40.39984102946658
 21
29.92821778850004
 31
0.0
 11
40.40498252417473
 21
29.93082173614425
 31
0.0
 11
40.41017813200409
 21
29.932880549191
 31
0.0
 11
40.41534316079418
 21
29.93462482340351
 31
0.0
  0
SPLINE
  5
153
330
2
100
AcDbEntity
  8
GAIKEI
  6
Continuous
 62
     1
100
AcDbSpline
210
0.0
220
0.0
230
1.0
 70
     8
 71
     3
 72
     9
 73
     5
 74
     3
 42
0.0000000001
 43
0.0000000001
 44
0.000001
 12
-0.1110702931717985
 22
-0.9938125527355401
 32
0.0
 13
-0.0037416002969241
 23
-0.9999930001891105
 33
0.0
 40
0.0
 40
0.0
 40
0.0
 40
0.0
 40
0.002222918885187
 40
0.0155319012632193
 40
0.0155319012632193
 40
0.0155319012632193
 40
0.0155319012632193
 10
40.3421974505282
 20
29.82539616895735
 30
0.0
 10
40.34211515044411
 20
29.82465978072673
 30
0.0
 10
40.34157992395508
 20
29.81951036895436
 30
0.0
 10
40.34132215448154
 20
29.81432895430129
 30
0.0
 10
40.3413055555174
 20
29.80989265789538
 30
0.0
 11
40.3421974505282
 21
29.82539616895735
 31
0.0
 11
40.34196759028299
 21
29.82318540536096
 31
0.0
 11
40.3413055555174
 21
29.80989265789538
 31
0.0
  0
SPLINE
  5
154
330
2
100
AcDbEntity
  8
GAIKEI
  6
Continuous
 62
     1
100
AcDbSpline
210
0.0
220
0.0
230
1.0
 70
     8
 71
     3
 72
     9
 73
     5
 74
     3
 42
0.0000000001
 43
0.0000000001
 44
0.000001
 12
0.0037801567420873
 22
-0.9999928551819785
 32
0.0
 13
0.1113488517851972
 23
-0.9937813809918749
 33
0.0
 40
0.0
 40
0.0
 40
0.0
 40
0.0
 40
0.0133898081261586
 40
0.0155559019681255
 40
0.0155559019681255
 40
0.0155559019681255
 40
0.0155559019681255
 10
40.3413055555174
 20
24.88834721654905
 30
0.0
 10
40.34132242737523
 20
24.88388397906289
 30
0.0
 10
40.34158240670385
 20
24.87869448993473
 30
0.0
 10
40.34212089450517
 20
24.87353738137966
 30
0.0
 10
40.34220129185922
 20
24.87281984013646
 30
0.0
 11
40.3413055555174
 21
24.88834721654905
 31
0.0
 11
40.34197629133513
 21
24.87497398423994
 31
0.0
 11
40.34220129185922
 21
24.87281984013646
 31
0.0
  0
SPLINE
  5
155
330
2
100
AcDbEntity
  8
GAIKEI
  6
Continuous
 62
     1
100
AcDbSpline
210
0.0
220
0.0
230
1.0
 70
     8
 71
     3
 72
    27
 73
    23
 74
    21
 42
0.0000000001
 43
0.0000000001
 44
0.000001
 12
-0.9535249561077124
 22
0.3013140522441414
 32
0.0
 13
-0.0768695003212578
 23
0.9970411626008027
 33
0.0
 40
0.0
 40
0.0
 40
0.0
 40
0.0
 40
0.0088114969410919
 40
0.0186359334979105
 40
0.0296732346399769
 40
0.0418464722408007
 40
0.0537759291834371
 40
0.0650978191022735
 40
0.0697365342153686
 40
0.0747431338058628
 40
0.0802567420130807
 40
0.0862854951947057
 40
0.09283445553952
 40
0.099720916227949
 40
0.106152188774828
 40
0.1113156643485913
 40
0.1160274059133661
 40
0.120276790679425
 40
0.1240877444184258
 40
0.1278344408627347
 40
0.1316179531714301
 40
0.139238869710097
 40
0.139238869710097
 40
0.139238869710097
 40
0.139238869710097
 10
40.41534460435463
 20
24.76361745259999
 30
0.0
 10
40.41254394360996
 20
24.76450246188318
 30
0.0
 10
40.40671881355895
 20
24.76669515344946
 30
0.0
 10
40.39786910072328
 20
24.77117022112174
 30
0.0
 10
40.38882866089953
 20
24.7775294607942
 30
0.0
 10
40.38025425214371
 20
24.78555598379484
 30
0.0
 10
40.37256505161413
 20
24.79454375876526
 30
0.0
 10
40.36722454548224
 20
24.80216982933132
 30
0.0
 10
40.3635528029456
 20
24.8081171516543
 30
0.0
 10
40.36098711198682
 20
24.81247078471461
 30
0.0
 10
40.35829868844627
 20
24.81728821807968
 30
0.0
 10
40.35548603306405
 20
24.82262335228631
 30
0.0
 10
40.35260310643415
 20
24.82843595021893
 30
0.0
 10
40.34979755245162
 20
24.834436998603
 30
0.0
 10
40.34753978888478
 20
24.84017373708264
 30
0.0
 10
40.34585152303229
 20
24.84534321556453
 30
0.0
 10
40.3446469233594
 20
24.84989747451511
 30
0.0
 10
40.34379270064343
 20
24.85407033457045
 30
0.0
 10
40.34321187508355
 20
24.85796519258668
 30
0.0
 10
40.34288482283328
 20
24.8617332985375
 30
0.0
 10
40.34264617690381
 20
24.86677820476422
 30
0.0
 10
40.34236525243407
 20
24.87056981031731
 30
0.0
 10
40.34216998041864
 20
24.87310259947924
 30
0.0
 11
40.41534460435463
 21
24.76361745259999
 31
0.0
 11
40.40709422427022
 21
24.7667144399399
 31
0.0
 11
40.39834366182907
 21
24.7711806825659
 31
0.0
 11
40.38929459773913
 21
24.77750011463536
 31
0.0
 11
40.38036018886538
 21
24.78576818122537
 31
0.0
 11
40.37258963070729
 21
24.79481958827256
 31
0.0
 11
40.36607633185901
 21
24.8040802737491
 31
0.0
 11
40.36363042676379
 21
24.80802171596315
 31
0.0
 11
40.36108926396145
 21
24.81233546105057
 31
0.0
 11
40.35840088867127
 21
24.81714925480702
 31
0.0
 11
40.35558820469765
 21
24.82248172205061
 31
0.0
 11
40.35267491310555
 21
24.8283471091595
 31
0.0
 11
40.34980048772166
 21
24.83460498091245
 31
0.0
 11
40.34745048118355
 21
24.84059130677986
 31
0.0
 11
40.34585305856825
 21
24.84550130249772
 31
0.0
 11
40.34465209190801
 21
24.85005731349679
 31
0.0
 11
40.34380200909157
 21
24.85422074246185
 31
0.0
 11
40.3432468325679
 21
24.85799101063623
 31
0.0
 11
40.34290928165802
 21
24.86172246241688
 31
0.0
 11
40.3426944732318
 21
24.86549988312834
 31
0.0
 11
40.34216998041864
 21
24.87310259947924
 31
0.0
  0
SPLINE
  5
156
330
2
100
AcDbEntity
  8
GAIKEI
  6
Continuous
 62
     1
100
AcDbSpline
210
0.0
220
0.0
230
1.0
 70
     8
 71
     3
 72
    13
 73
     9
 74
     7
 42
0.0000000001
 43
0.0000000001
 44
0.000001
 12
0.9487139982427796
 22
-0.3161356505334367
 32
0.0
 13
0.9998801064241472
 23
0.0154845980650528
 33
0.0
 40
0.0
 40
0.0
 40
0.0
 40
0.0
 40
0.0048424962272411
 40
0.014472237053833
 40
0.019373961394914
 40
0.0243619113375832
 40
0.0294558203124856
 40
0.0346737804275776
 40
0.0346737804275776
 40
0.0346737804275776
 40
0.0346737804275776
 10
40.41504105031157
 20
24.76371839760498
 30
0.0
 10
40.41657243163064
 20
24.76320810237331
 30
0.0
 10
40.42119210611569
 20
24.76181000927687
 30
0.0
 10
40.42752662697338
 20
24.76047850750047
 30
0.0
 10
40.43397847093055
 20
24.75962476350827
 30
0.0
 10
40.4389569614971
 20
24.75920169826264
 30
0.0
 10
40.44405366016583
 20
24.75898835494684
 30
0.0
 10
40.44749191112305
 20
24.75897401625179
 30
0.0
 10
40.44923102262811
 20
24.75900094892347
 30
0.0
 11
40.41504105031157
 21
24.76371839760498
 31
0.0
 11
40.41967676389987
 21
24.76231668204696
 31
0.0
 11
40.42909595022928
 21
24.76031226072189
 31
0.0
 11
40.43395493359622
 21
24.75966555427772
 31
0.0
 11
40.43892479688935
 21
24.75923957254634
 31
0.0
 11
40.44401400495218
 21
24.75902210695313
 31
0.0
 11
40.44923102262811
 21
24.75900094892347
 31
0.0
  0
SPLINE
  5
157
330
2
100
AcDbEntity
  8
GAIKEI
  6
Continuous
 62
     1
100
AcDbSpline
210
0.0
220
0.0
230
1.0
 70
     8
 71
     3
 72
    15
 73
    11
 74
     9
 42
0.0000000001
 43
0.0000000001
 44
0.000001
 12
-0.1345307900367005
 22
0.9909094138881219
 32
0.0
 13
-0.9994496190759491
 23
0.0331731657961701
 33
0.0
 40
0.0
 40
0.0
 40
0.0
 40
0.0
 40
0.0349733184911549
 40
0.0699030407196779
 40
0.1048022374590077
 40
0.1396858361957588
 40
0.1745694349324683
 40
0.2094686316718775
 40
0.2443983539000734
 40
0.2793716723909751
 40
0.2793716723909751
 40
0.2793716723909751
 40
0.2793716723909751
 10
41.63594263389592
 20
29.73205631791689
 30
0.0
 10
41.63437430450698
 20
29.74360811475947
 30
0.0
 10
41.62924924327907
 20
29.76648155971827
 30
0.0
 10
41.61567506474905
 20
29.79885876494979
 30
0.0
 10
41.59667205310333
 20
29.82835270284591
 30
0.0
 10
41.57281021213522
 20
29.85405188296841
 30
0.0
 10
41.54481996920148
 20
29.87517962808869
 30
0.0
 10
41.5135481842302
 20
29.8910881883296
 30
0.0
 10
41.47995953629989
 20
29.90130310250237
 30
0.0
 10
41.45668378905256
 20
29.90407804879857
 30
0.0
 10
41.44503243243804
 20
29.90446477402946
 30
0.0
 11
41.63594263389592
 21
29.73205631791689
 31
0.0
 11
41.62826332825836
 21
29.76617663926612
 31
0.0
 11
41.61476402662668
 21
29.7983924096016
 31
0.0
 11
41.59585829470296
 21
29.82772719171146
 31
0.0
 11
41.57212291791012
 21
29.85329083283239
 31
0.0
 11
41.54428035969561
 21
29.87430653674471
 31
0.0
 11
41.51317678934828
 21
29.89013448837011
 31
0.0
 11
41.47975634756727
 21
29.90029131238117
 31
0.0
 11
41.44503243243804
 21
29.90446477402946
 31
0.0
  0
SPLINE
  5
158
330
2
100
AcDbEntity
  8
GAIKEI
  6
Continuous
 62
     1
100
AcDbSpline
210
0.0
220
0.0
230
1.0
 70
     8
 71
     3
 72
    21
 73
    17
 74
    15
 42
0.0000000001
 43
0.0000000001
 44
0.000001
 12
0.9780044826297622
 22
0.2085838727133314
 32
0.0
 13
0.1354487900196674
 23
0.9907843485250502
 33
0.0
 40
0.0
 40
0.0
 40
0.0
 40
0.0
 40
0.0298825149088525
 40
0.0592800929675796
 40
0.0882133650241542
 40
0.116694520351171
 40
0.1447311819658408
 40
0.172330056129426
 40
0.1994998961448662
 40
0.2262520633387244
 40
0.2612761840532124
 40
0.2955898591758323
 40
0.3292039337351623
 40
0.3621251518427256
 40
0.3943636570830302
 40
0.4259375939275606
 40
0.4259375939275606
 40
0.4259375939275606
 40
0.4259375939275606
 10
41.79431749288295
 20
24.42963144498106
 30
0.0
 10
41.80405923739399
 20
24.43170911520974
 30
0.0
 10
41.82321810876229
 20
24.4366647921749
 30
0.0
 10
41.85097701039061
 20
24.44646488210964
 30
0.0
 10
41.87739676382898
 20
24.45835135610679
 30
0.0
 10
41.90235880715391
 20
24.47213492128009
 30
0.0
 10
41.92576221094367
 20
24.48763125922653
 30
0.0
 10
41.9475162194996
 20
24.50466667313879
 30
0.0
 10
41.96754414777804
 20
24.52307454578067
 30
0.0
 10
41.98774037643199
 20
24.54482024673695
 30
0.0
 10
42.00736139366431
 20
24.57021010171286
 30
0.0
 10
42.02556982903748
 20
24.59936229401268
 30
0.0
 10
42.0405648120707
 20
24.6295062777034
 30
0.0
 10
42.05239563726382
 20
24.66028390513901
 30
0.0
 10
42.06113206093175
 20
24.69136854526022
 30
0.0
 10
42.06497119990254
 20
24.71232560959959
 30
0.0
 10
42.06639675041645
 20
24.72275326374853
 30
0.0
 11
41.79431749288295
 21
24.42963144498106
 31
0.0
 11
41.8232473015525
 21
24.43711883170954
 31
0.0
 11
41.85097053605335
 21
24.44689839780512
 31
0.0
 11
41.87735700389185
 21
24.45876804870755
 31
0.0
 11
41.90228992632245
 21
24.47253488487741
 31
0.0
 11
41.92566555034983
 21
24.48801503166681
 31
0.0
 11
41.94739274986267
 21
24.50503346760815
 31
0.0
 11
41.9673926163336
 21
24.52342385022206
 31
0.0
 11
41.98559795498016
 21
24.54302601207672
 31
0.0
 11
42.00702368856804
 21
24.57073211497772
 31
0.0
 11
42.02520592628269
 21
24.59983254999412
 31
0.0
 11
42.04017762889003
 21
24.62992830666627
 31
0.0
 11
42.05198811493727
 21
24.66065808418432
 31
0.0
 11
42.06070176489532
 21
24.69169666850849
 31
0.0
 11
42.06639675041645
 21
24.72275326374853
 31
0.0
  0
SPLINE
  5
159
330
2
100
AcDbEntity
  8
GAIKEI
  6
Continuous
 62
     1
100
AcDbSpline
210
0.0
220
0.0
230
1.0
 70
     8
 71
     3
 72
    15
 73
    11
 74
     9
 42
0.0000000001
 43
0.0000000001
 44
0.000001
 12
0.9785263958185264
 22
0.2061215483310866
 32
0.0
 13
0.1327585762537782
 23
0.9911484048471599
 33
0.0
 40
0.0
 40
0.0
 40
0.0
 40
0.0
 40
0.0385954384161552
 40
0.0762592426229633
 40
0.1139106822114348
 40
0.1524704505865384
 40
0.1910192054029152
 40
0.2286666814559477
 40
0.266334651353655
 40
0.3049428812072342
 40
0.3049428812072342
 40
0.3049428812072342
 40
0.3049428812072342
 10
41.7735962317027
 20
24.52633066382208
 30
0.0
 10
41.78618511678549
 20
24.52898244766368
 30
0.0
 10
41.81069582857475
 20
24.53614667040404
 30
0.0
 10
41.8452419773915
 20
24.5522529480312
 30
0.0
 10
41.87678018909022
 20
24.57367015396199
 30
0.0
 10
41.90482516724941
 20
24.59988623383998
 30
0.0
 10
41.92888882131877
 20
24.62979708428395
 30
0.0
 10
41.94790054018271
 20
24.66283734639478
 30
0.0
 10
41.96139333497481
 20
24.69849015184394
 30
0.0
 10
41.96671592487613
 20
24.72347136599092
 30
0.0
 10
41.96842444941847
 20
24.73622686113538
 30
0.0
 11
41.7735962317027
 21
24.52633066382208
 31
0.0
 11
41.8106416276209
 21
24.53716028741269
 31
0.0
 11
41.84475068200748
 21
24.55313322799623
 31
0.0
 11
41.87592339486258
 21
24.5742494855727
 31
0.0
 11
41.90415976618618
 21
24.60050906014203
 31
0.0
 11
41.92824531386571
 21
24.6306071513618
 31
0.0
 11
41.94698461029765
 21
24.66325948193389
 31
0.0
 11
41.96037765548197
 21
24.69846605185842
 31
0.0
 11
41.96842444941847
 21
24.73622686113538
 31
0.0
  0
SPLINE
  5
15A
330
2
100
AcDbEntity
  8
GAIKEI
  6
Continuous
 62
     1
100
AcDbSpline
210
0.0
220
0.0
230
1.0
 70
     8
 71
     3
 72
     9
 73
     5
 74
     3
 42
0.0000000001
 43
0.0000000001
 44
0.000001
 12
0.1362218791743881
 22
0.990678353268203
 32
0.0
 13
0.0000205302016735
 23
0.9999999997892553
 33
0.0
 40
0.0
 40
0.0
 40
0.0
 40
0.0
 40
0.0954240186018036
 40
0.1908480372091482
 40
0.1908480372091482
 40
0.1908480372091482
 40
0.1908480372091482
 10
42.27036012488059
 20
26.93173055842402
 30
0.0
 10
42.27469307125803
 20
26.96324206162757
 30
0.0
 10
42.2812135990405
 20
27.02657910288014
 30
0.0
 10
42.28338305053179
 20
27.09021393263095
 30
0.0
 10
42.28338370355658
 20
27.12202193882666
 30
0.0
 11
42.27036012488059
 21
26.93173055842402
 31
0.0
 11
42.28012682763375
 21
27.02665348172235
 31
0.0
 11
42.28338370355658
 21
27.12202193882666
 31
0.0
  0
SPLINE
  5
15B
330
2
100
AcDbEntity
  8
GAIKEI
  6
Continuous
 62
     1
100
AcDbSpline
210
0.0
220
0.0
230
1.0
 70
     8
 71
     3
 72
     9
 73
     5
 74
     3
 42
0.0000000001
 43
0.0000000001
 44
0.000001
 12
-0.0000205301984769
 22
0.9999999997892555
 32
0.0
 13
-0.1362218791775721
 23
0.9906783532677652
 33
0.0
 40
0.0
 40
0.0
 40
0.0
 40
0.0
 40
0.0954240186094466
 40
0.190848037209045
 40
0.190848037209045
 40
0.190848037209045
 40
0.190848037209045
 10
42.28338370355658
 20
27.57621793561782
 30
0.0
 10
42.28338305053189
 20
27.60802594181428
 30
0.0
 10
42.28121359904065
 20
27.67166077156503
 30
0.0
 10
42.27469307125803
 20
27.73499781281754
 30
0.0
 10
42.27036012488059
 20
27.76650931602035
 30
0.0
 11
42.28338370355658
 21
27.57621793561782
 31
0.0
 11
42.28012682763375
 21
27.67158639272424
 31
0.0
 11
42.27036012488059
 21
27.76650931602035
 31
0.0
  0
SPLINE
  5
15C
330
2
100
AcDbEntity
  8
GAIKEI
  6
Continuous
 62
     1
100
AcDbSpline
210
0.0
220
0.0
230
1.0
 70
     8
 71
     3
 72
    15
 73
    11
 74
     9
 42
0.0000000001
 43
0.0000000001
 44
0.000001
 12
-0.1327902774087838
 22
0.9911441581453722
 32
0.0
 13
-0.9785329879817497
 23
0.2060902506949535
 33
0.0
 40
0.0
 40
0.0
 40
0.0
 40
0.0
 40
0.0385954384155653
 40
0.0762592426221769
 40
0.1139106822108793
 40
0.1524704505867185
 40
0.1910192054031768
 40
0.2286666814562273
 40
0.2663346513539381
 40
0.3049428812073548
 40
0.3049428812073548
 40
0.3049428812073548
 40
0.3049428812073548
 10
41.96842444941847
 20
29.96201301330905
 30
0.0
 10
41.96671608309384
 20
29.97476422774793
 30
0.0
 10
41.9613942456053
 20
29.99973979832441
 30
0.0
 10
41.94790131666553
 20
30.03538793215625
 30
0.0
 10
41.92888849957181
 20
30.06843136256555
 30
0.0
 10
41.90483034577001
 20
30.09834806157789
 30
0.0
 10
41.87679160897355
 20
30.12456919161309
 30
0.0
 10
41.8452564751408
 20
30.14598506676839
 30
0.0
 10
41.81070565766437
 20
30.16209155798833
 30
0.0
 10
41.78618937387574
 20
30.16925695069915
 30
0.0
 10
41.7735962317027
 20
30.17190921062229
 30
0.0
 11
41.96842444941847
 21
29.96201301330905
 31
0.0
 11
41.9603794043939
 21
29.99976111731917
 31
0.0
 11
41.94698694218021
 21
30.03496345215467
 31
0.0
 11
41.92824706277764
 21
30.06762001781579
 31
0.0
 11
41.90415976618618
 21
30.09773081430234
 31
0.0
 11
41.87593593491186
 21
30.12398770007167
 31
0.0
 11
41.84476740207327
 21
30.14510306138152
 31
0.0
 11
41.81065416767018
 21
30.16107689823173
 31
0.0
 11
41.7735962317027
 21
30.17190921062229
 31
0.0
  0
SPLINE
  5
15D
330
2
100
AcDbEntity
  8
GAIKEI
  6
Continuous
 62
     1
100
AcDbSpline
210
0.0
220
0.0
230
1.0
 70
     8
 71
     3
 72
    15
 73
    11
 74
     9
 42
0.0000000001
 43
0.0000000001
 44
0.000001
 12
-0.1364008987339492
 22
0.9906537209462097
 32
0.0
 13
-0.1677708966327061
 23
0.9858260121558256
 33
0.0
 40
0.0
 40
0.0
 40
0.0
 40
0.0
 40
0.013214964880076
 40
0.0262813057248969
 40
0.0392030871300063
 40
0.051982033004643
 40
0.0646173308324903
 40
0.0770330552777199
 40
0.0890929972857488
 40
0.1007940929957572
 40
0.1007940929957572
 40
0.1007940929957572
 40
0.1007940929957572
 10
41.65933545425929
 20
29.58317645430407
 30
0.0
 10
41.65873460989717
 20
29.58754027234761
 30
0.0
 10
41.65749372578264
 20
29.59621257423299
 30
0.0
 10
41.65550891089693
 20
29.6091288646773
 30
0.0
 10
41.65342602323417
 20
29.62188241861088
 30
0.0
 10
41.65126800564253
 20
29.63447765463127
 30
0.0
 10
41.6490679200925
 20
29.64689427385361
 30
0.0
 10
41.64687731758088
 20
29.65906907670609
 30
0.0
 10
41.64474526444749
 20
29.67093806714127
 30
0.0
 10
41.64340004333361
 20
29.67874340487623
 30
0.0
 10
41.64274567556065
 20
29.68258848638345
 30
0.0
 11
41.65933545425929
 21
29.58317645430407
 31
0.0
 11
41.65746500427775
 21
29.59625844346135
 31
0.0
 11
41.65548220958948
 21
29.60917346793769
 31
0.0
 11
41.65340266978666
 21
29.6219268190132
 31
0.0
 11
41.65124891333647
 21
29.63452296025798
 31
0.0
 11
41.64905057626305
 21
29.64696554961813
 31
0.0
 11
41.64685788747379
 21
29.65918611910161
 31
0.0
 11
41.64473928676073
 21
29.67105854482515
 31
0.0
 11
41.64274567556065
 21
29.68258848638345
 31
0.0
  0
SPLINE
  5
15E
330
2
100
AcDbEntity
  8
GAIKEI
  6
Continuous
 62
     1
100
AcDbSpline
210
0.0
220
0.0
230
1.0
 70
     8
 71
     3
 72
    13
 73
     9
 74
     7
 42
0.0000000001
 43
0.0000000001
 44
0.000001
 12
-0.1032078770309288
 22
0.9946598082353427
 32
0.0
 13
-0.135947176317206
 23
0.9907160871063812
 33
0.0
 40
0.0
 40
0.0
 40
0.0
 40
0.0
 40
0.01600107777398
 40
0.0320288818262623
 40
0.0485712842024553
 40
0.0658548155515402
 40
0.0833808232344127
 40
0.1010631356637666
 40
0.1010631356637666
 40
0.1010631356637666
 40
0.1010631356637666
 10
41.81393705028944
 20
28.43778263299748
 30
0.0
 10
41.81338657120035
 20
28.44308784264757
 30
0.0
 10
41.81230408593886
 20
28.45370921741244
 30
0.0
 10
41.81078504400318
 20
28.46982827538131
 30
0.0
 10
41.80917259162055
 20
28.48636782672912
 30
0.0
 10
41.80738466664339
 20
28.50339178105457
 30
0.0
 10
41.80535791709885
 20
28.52077175001796
 30
0.0
 10
41.80383991458088
 20
28.53240970887112
 30
0.0
 10
41.80303862776571
 20
28.53824909266478
 30
0.0
 11
41.81393705028944
 21
28.43778263299748
 31
0.0
 11
41.81232613630316
 21
28.45370212215982
 31
0.0
 11
41.81079370344576
 21
28.46965674497534
 31
0.0
 11
41.80917755073579
 21
28.48612001595632
 31
0.0
 11
41.80736155150265
 21
28.50330788067561
 31
0.0
 11
41.80532565539595
 21
28.52071524240443
 31
0.0
 11
41.80303862776571
 21
28.53824909266478
 31
0.0
  0
SPLINE
  5
15F
330
2
100
AcDbEntity
  8
GAIKEI
  6
Continuous
 62
     1
100
AcDbSpline
210
0.0
220
0.0
230
1.0
 70
     8
 71
     3
 72
    14
 73
    10
 74
     8
 42
0.0000000001
 43
0.0000000001
 44
0.000001
 12
0.1677588837034731
 22
0.9858280564776825
 32
0.0
 13
0.1366130456583842
 23
0.9906244877631182
 33
0.0
 40
0.0
 40
0.0
 40
0.0
 40
0.0
 40
0.0116707988865572
 40
0.0236390742539265
 40
0.0359005446620076
 40
0.0484549652869712
 40
0.065753499137279
 40
0.0832124457340167
 40
0.1007939503193696
 40
0.1007939503193696
 40
0.1007939503193696
 40
0.1007939503193696
 10
41.64274567556065
 20
25.01565138806097
 30
0.0
 10
41.64339830229169
 20
25.01948652172229
 30
0.0
 10
41.64473656543219
 20
25.02725180451199
 30
0.0
 10
41.64685199952269
 20
25.03903023280396
 30
0.0
 10
41.64902338502756
 20
25.05109781405292
 30
0.0
 10
41.65147417939341
 20
25.06492039941088
 30
0.0
 10
41.65412438341201
 20
25.08046700617513
 30
0.0
 10
41.6568616820694
 20
25.09769772259068
 30
0.0
 10
41.6585348332964
 20
25.10925786381569
 30
0.0
 10
41.65933545425929
 20
25.11506342014036
 30
0.0
 11
41.64274567556065
 21
25.01565138806097
 31
0.0
 11
41.64473402180198
 21
25.02715149864668
 31
0.0
 11
41.64683632597001
 21
25.03893371401711
 31
0.0
 11
41.64900200139294
 21
25.05100241301608
 31
0.0
 11
41.6511875805042
 21
25.06336512671476
 31
0.0
 11
41.65408438236619
 21
25.08041938761016
 31
0.0
 11
41.65681666881773
 21
25.09766321436269
 31
0.0
 11
41.65933545425929
 21
25.11506342014036
 31
0.0
  0
SPLINE
  5
160
330
2
100
AcDbEntity
  8
GAIKEI
  6
Continuous
 62
     1
100
AcDbSpline
210
0.0
220
0.0
230
1.0
 70
     8
 71
     3
 72
    14
 73
    10
 74
     8
 42
0.0000000001
 43
0.0000000001
 44
0.000001
 12
0.1359523053525381
 22
0.9907153832808543
 32
0.0
 13
0.1044770653903519
 23
0.9945272961600503
 33
0.0
 40
0.0
 40
0.0
 40
0.0
 40
0.0
 40
0.0176161980931221
 40
0.0349715004289961
 40
0.0521274141722384
 40
0.064800444161865
 40
0.0772495029101837
 40
0.0893372407698799
 40
0.1010631752749937
 40
0.1010631752749937
 40
0.1010631752749937
 40
0.1010631752749937
 10
41.81782383131229
 20
26.26750033328369
 30
0.0
 10
41.81862215222639
 20
26.27331787943229
 30
0.0
 10
41.82013025621661
 20
26.28487751674055
 30
0.0
 10
41.82214469859625
 20
26.30213660276286
 30
0.0
 10
41.82379108748008
 20
26.31777852935136
 30
0.0
 10
41.8251701243158
 20
26.33180359694592
 30
0.0
 10
41.8263494444929
 20
26.34415067065271
 30
0.0
 10
41.8275012051545
 20
26.35618329203647
 30
0.0
 10
41.82831389009423
 20
26.36407953897157
 30
0.0
 10
41.82872225383625
 20
26.367966792951
 30
0.0
 11
41.81782383131229
 21
26.26750033328369
 31
0.0
 11
41.82010275688952
 21
26.28496856247193
 31
0.0
 11
41.82212065655181
 21
26.30220615817967
 31
0.0
 11
41.82392606311515
 21
26.31926681141476
 31
0.0
 11
41.82517251708424
 21
26.33187839396498
 31
0.0
 11
41.82636232182239
 21
26.3442704646705
 31
0.0
 11
41.8275282081534
 21
26.3563018690059
 31
0.0
 11
41.82872225383625
 21
26.367966792951
 31
0.0
  0
ARC
  5
161
330
2
100
AcDbEntity
  8
GAIKEI
 62
     1
100
AcDbCircle
 10
40.46795624534337
 20
31.17529514961501
 30
0.0
 40
0.1500163686008653
100
AcDbArc
 50
294.6822153763272
 51
359.9992555506062
  0
LINE
  5
162
330
2
100
AcDbEntity
  8
GAIKEI
 62
     1
100
AcDbLine
 10
40.61797261393161
 20
31.17529321710646
 30
0.0
 11
40.61797261393161
 21
31.24832475546987
 31
0.0
  0
ARC
  5
163
330
2
100
AcDbEntity
  8
GAIKEI
 62
     1
100
AcDbCircle
 10
40.50345508495531
 20
31.25580896938539
 30
0.0
 40
0.0145231345477284
100
AcDbArc
 50
265.9875314113319
 51
357.4403055779344
  0
LINE
  5
164
330
2
100
AcDbEntity
  8
GAIKEI
 62
     1
100
AcDbLine
 10
40.51796372881153
 20
31.25516036276781
 30
0.0
 11
40.51796372881159
 21
31.28457152575265
 31
0.0
  0
ARC
  5
165
330
2
100
AcDbEntity
  8
GAIKEI
 62
     1
100
AcDbCircle
 10
40.53296506157965
 20
31.28457152575265
 30
0.0
 40
0.0150013327680068
100
AcDbArc
 50
88.00000000002242
 51
179.9999999998925
  0
LINE
  5
166
330
2
100
AcDbEntity
  8
GAIKEI
 62
     1
100
AcDbLine
 10
40.53348860809319
 20
31.2995637077077
 30
0.0
 11
40.56971330124986
 21
31.29829873667444
 31
0.0
  0
ARC
  5
167
330
2
100
AcDbEntity
  8
GAIKEI
 62
     1
100
AcDbCircle
 10
40.56796815751551
 20
31.24832474987147
 30
0.0
 40
0.05000445641619
100
AcDbArc
 50
0.0000064146167758
 51
88.00001314450822
  0
LINE
  5
168
330
2
100
AcDbEntity
  8
GAIKEI
 62
     1
100
AcDbLine
 10
38.18163554680154
 20
1.578901110417575
 30
0.0
 11
38.18163554680154
 21
1.420217236596499
 31
0.0
  0
LINE
  5
169
330
2
100
AcDbEntity
  8
GAIKEI
  6
Continuous
 62
     1
100
AcDbLine
 10
42.43294248932341
 20
23.6982625829844
 30
0.0
 11
42.43294248932341
 21
22.76424560182773
 31
0.0
  0
LINE
  5
16A
330
2
100
AcDbEntity
  8
GAIKEI
  6
Continuous
 62
     7
100
AcDbLine
 10
42.43294248932341
 20
27.59167628588796
 30
0.0
 11
42.43294248932341
 21
6.814892587713927
 31
0.0
  0
ARC
  5
16B
330
2
100
AcDbEntity
  8
GAIKEI
  6
Continuous
 62
     7
100
AcDbCircle
 10
42.18292027652341
 20
6.540646137003989
 30
0.0
 40
0.2500222128000095
100
AcDbArc
 50
0.0
 51
0.0
  0
LINE
  5
16C
330
2
100
AcDbEntity
  8
GAIKEI
  6
Continuous
 62
     7
100
AcDbLine
 10
42.43294248932346
 20
6.425413123882549
 30
0.0
 11
42.43294248932341
 21
6.922422029796962
 31
0.0
  0
DIMENSION
  5
16D
330
2
100
AcDbEntity
  8
SUNPO
100
AcDbDimension
  2
*D8
 10
22.56672407638547
 20
31.78952762132758
 30
0.0
 11
20.81672407638546
 21
16.53952762132758
 31
0.0
 70
    33
  1
610
 71
     5
 42
30.5
  3
STANDARD
100
AcDbAlignedDimension
 13
14.56672407638547
 23
1.289527621327579
 33
0.0
 14
14.56672407638547
 24
31.78952762132758
 34
0.0
1001
ACAD
1000
DSTYLE
1002
{
1070
   287
1070
     3
1070
   287
1070
     3
1070
   287
1070
     3
1070
   287
1070
     3
1070
   287
1070
     3
1070
   287
1070
     3
1070
   287
1070
     3
1070
   287
1070
     3
1070
   287
1070
     3
1070
   287
1070
     3
1070
   287
1070
     3
1070
   287
1070
     3
1070
   287
1070
     3
1070
   287
1070
     3
1070
   287
1070
     3
1070
   287
1070
     3
1070
   287
1070
     3
1070
   287
1070
     3
1070
   287
1070
     3
1070
   287
1070
     3
1070
   287
1070
     3
1070
   287
1070
     3
1070
   287
1070
     3
1070
   287
1070
     3
1070
   287
1070
     3
1070
   287
1070
     3
1070
   287
1070
     3
1070
   287
1070
     3
1070
   287
1070
     3
1070
   287
1070
     3
1070
   287
1070
     3
1070
   287
1070
     3
1070
   287
1070
     3
1070
   287
1070
     3
1070
    40
1040
1.0
1070
   140
1040
2.5
1070
   147
1040
0.5
1070
   172
1070
     1
1070
   279
1070
     0
1002
}
  0
DIMENSION
  5
17C
330
2
100
AcDbEntity
  8
SUNPO
100
AcDbDimension
  2
*D7
 10
14.55639467437544
 20
39.78924117697625
 30
0.0
 11
-10.49360532562457
 21
41.53924117697624
 31
0.0
 70
    33
  1
1020
 71
     5
 42
50.10000000000002
  3
STANDARD
100
AcDbAlignedDimension
 13
-35.54360532562458
 23
31.78924117697625
 33
0.0
 14
14.55639467437544
 24
31.78924117697625
 34
0.0
1001
ACAD
1000
DSTYLE
1002
{
1070
   287
1070
     3
1070
   287
1070
     3
1070
   287
1070
     3
1070
   287
1070
     3
1070
   287
1070
     3
1070
   287
1070
     3
1070
   287
1070
     3
1070
   287
1070
     3
1070
   287
1070
     3
1070
   287
1070
     3
1070
   287
1070
     3
1070
   287
1070
     3
1070
   287
1070
     3
1070
   287
1070
     3
1070
   287
1070
     3
1070
   287
1070
     3
1070
   287
1070
     3
1070
   287
1070
     3
1070
   287
1070
     3
1070
   287
1070
     3
1070
   287
1070
     3
1070
   287
1070
     3
1070
   287
1070
     3
1070
   287
1070
     3
1070
   287
1070
     3
1070
   287
1070
     3
1070
   287
1070
     3
1070
   287
1070
     3
1070
   287
1070
     3
1070
   287
1070
     3
1070
   287
1070
     3
1070
   287
1070
     3
1070
   287
1070
     3
1070
   287
1070
     3
1070
    40
1040
1.0
1070
   140
1040
2.5
1070
   147
1040
0.5
1070
   172
1070
     1
1070
   279
1070
     0
1002
}
  0
LINE
  5
189
330
2
100
AcDbEntity
  8
GAIKEI
  6
HIDDEN2
 62
     1
100
AcDbLine
 10
7.66889467255919
 20
26.16452761901263
 30
0.0
 11
7.66889467255919
 21
26.91561036893745
 31
0.0
  0
LINE
  5
18B
330
2
100
AcDbEntity
  8
GAIKEI
  6
HIDDEN2
 62
     1
100
AcDbLine
 10
8.881394672437863
 20
26.06452761902261
 30
0.0
 11
8.881394672437863
 21
28.8145276187476
 31
0.0
  0
LINE
  5
18C
330
2
100
AcDbEntity
  8
GAIKEI
  6
HIDDEN2
 62
     1
100
AcDbLine
 10
7.531394672572901
 20
26.03952761902514
 30
0.0
 11
7.631394672562919
 21
26.03952761902514
 31
0.0
  0
LINE
  5
18D
330
2
100
AcDbEntity
  8
GAIKEI
  6
HIDDEN2
 62
     1
100
AcDbLine
 10
7.40639467258552
 20
25.93952761903512
 30
0.0
 11
7.40639467258552
 21
26.03952761902514
 31
0.0
  0
LINE
  5
18E
330
2
100
AcDbEntity
  8
GAIKEI
  6
HIDDEN2
 62
     1
100
AcDbLine
 10
7.40639467258552
 20
25.93952761903512
 30
0.0
 11
7.506394672575538
 21
25.93952761903512
 31
0.0
  0
POINT
  5
18F
330
2
100
AcDbEntity
  8
GAIKEI
  6
HIDDEN2
 62
     1
100
AcDbPoint
 10
6.981394672627857
 20
25.93952761903512
 30
0.0
  0
ARC
  5
190
330
2
100
AcDbEntity
  8
GAIKEI
  6
HIDDEN2
 62
     1
100
AcDbCircle
 10
6.881394672637952
 20
25.98552111903052
 30
0.0
 40
0.09999999999
100
AcDbArc
 50
310.6012949999993
 51
0.0
  0
LINE
  5
191
330
2
100
AcDbEntity
  8
GAIKEI
  6
HIDDEN2
 62
     1
100
AcDbLine
 10
6.981394672627857
 20
26.03952761902514
 30
0.0
 11
6.981394672627857
 21
25.98552111903052
 31
0.0
  0
LINE
  5
192
330
2
100
AcDbEntity
  8
GAIKEI
  6
HIDDEN2
 62
     1
100
AcDbLine
 10
7.006394672625447
 20
26.06452761902261
 30
0.0
 11
7.006394672625447
 21
26.16452761901263
 31
0.0
  0
LINE
  5
193
330
2
100
AcDbEntity
  8
GAIKEI
  6
HIDDEN2
 62
     1
100
AcDbLine
 10
7.506394672575538
 20
26.06452761902261
 30
0.0
 11
7.506394672575538
 21
25.93952761903512
 31
0.0
  0
LINE
  5
194
330
2
100
AcDbEntity
  8
GAIKEI
  6
HIDDEN2
 62
     1
100
AcDbLine
 10
7.006394672625447
 20
26.16452761901263
 30
0.0
 11
8.881394672437863
 21
26.16452761901263
 31
0.0
  0
LINE
  5
195
330
2
100
AcDbEntity
  8
GAIKEI
  6
HIDDEN2
 62
     1
100
AcDbLine
 10
7.631394672562919
 20
25.8395276190451
 30
0.0
 11
7.506394672575538
 21
25.8395276190451
 31
0.0
  0
LINE
  5
196
330
2
100
AcDbEntity
  8
GAIKEI
  6
HIDDEN2
 62
     1
100
AcDbLine
 10
7.531394672572901
 20
26.03952761902514
 30
0.0
 11
7.531394672572901
 21
25.8395276190451
 31
0.0
  0
ARC
  5
197
330
2
100
AcDbEntity
  8
GAIKEI
  6
HIDDEN2
 62
     1
100
AcDbCircle
 10
7.506394672575538
 20
25.93952761903512
 30
0.0
 40
0.09999999999
100
AcDbArc
 50
180.0
 51
270.0
  0
LINE
  5
198
330
2
100
AcDbEntity
  8
GAIKEI
  6
HIDDEN2
 62
     1
100
AcDbLine
 10
6.946473672631441
 20
25.90959561903816
 30
0.0
 11
6.543498922671801
 21
25.56418861907264
 31
0.0
  0
ARC
  5
199
330
2
100
AcDbEntity
  8
GAIKEI
  6
HIDDEN2
 62
     1
100
AcDbCircle
 10
8.131394672512897
 20
27.91452761883767
 30
0.0
 40
0.1749999999825
100
AcDbArc
 50
270.0
 51
90.0
  0
ARC
  5
19A
330
2
100
AcDbEntity
  8
GAIKEI
  6
HIDDEN2
 62
     1
100
AcDbCircle
 10
8.131394672512897
 20
27.91452761883767
 30
0.0
 40
0.49999999995
100
AcDbArc
 50
270.0
 51
90.0
  0
LINE
  5
19B
330
2
100
AcDbEntity
  8
GAIKEI
  6
HIDDEN2
 62
     1
100
AcDbLine
 10
7.511394672574851
 20
27.07952761892108
 30
0.0
 11
7.511394672574851
 21
26.92952761893617
 31
0.0
  0
LINE
  5
19C
330
2
100
AcDbEntity
  8
GAIKEI
  6
HIDDEN2
 62
     1
100
AcDbLine
 10
7.506394672575538
 20
27.03952761892515
 30
0.0
 11
7.506394672575538
 21
26.92952761893617
 31
0.0
  0
LINE
  5
19D
330
2
100
AcDbEntity
  8
GAIKEI
  6
HIDDEN2
 62
     1
100
AcDbLine
 10
6.751394672650917
 20
27.07952761892108
 30
0.0
 11
6.751394672650917
 21
26.92952761893617
 31
0.0
  0
LINE
  5
19E
330
2
100
AcDbEntity
  8
GAIKEI
  6
HIDDEN2
 62
     1
100
AcDbLine
 10
6.756394672650344
 20
27.03952761892515
 30
0.0
 11
6.756394672650344
 21
26.92952761893617
 31
0.0
  0
LINE
  5
19F
330
2
100
AcDbEntity
  8
GAIKEI
  6
HIDDEN2
 62
     1
100
AcDbLine
 10
7.511394672574851
 20
27.07952761892108
 30
0.0
 11
6.751394672650917
 21
27.07952761892108
 31
0.0
  0
LINE
  5
1A0
330
2
100
AcDbEntity
  8
GAIKEI
  6
HIDDEN2
 62
     1
100
AcDbLine
 10
7.511394672574851
 20
26.92952761893617
 30
0.0
 11
6.751394672650917
 21
26.92952761893617
 31
0.0
  0
LINE
  5
1A1
330
2
100
AcDbEntity
  8
GAIKEI
  6
HIDDEN2
 62
     1
100
AcDbLine
 10
7.506394672575538
 20
27.03952761892515
 30
0.0
 11
6.756394672650344
 21
27.03952761892515
 31
0.0
  0
LINE
  5
1A2
330
2
100
AcDbEntity
  8
GAIKEI
  6
HIDDEN2
 62
     1
100
AcDbLine
 10
7.506394672575538
 20
26.93952761893513
 30
0.0
 11
6.756394672650344
 21
26.93952761893513
 31
0.0
  0
ARC
  5
1A3
330
2
100
AcDbEntity
  8
GAIKEI
  6
HIDDEN2
 62
     1
100
AcDbCircle
 10
8.168894672509054
 20
26.91561036893745
 30
0.0
 40
0.49999999995
100
AcDbArc
 50
94.30122199999933
 51
180.0
  0
ARC
  5
1A4
330
2
100
AcDbEntity
  8
GAIKEI
  6
HIDDEN2
 62
     1
100
AcDbCircle
 10
3.843894672941587
 20
26.9145276189376
 30
0.0
 40
0.49999999995
100
AcDbArc
 50
0.0
 51
90.0
  0
ARC
  5
1A5
330
2
100
AcDbEntity
  8
GAIKEI
  6
HIDDEN2
 62
     1
100
AcDbCircle
 10
2.006394673125328
 20
27.91452761883767
 30
0.0
 40
0.1749999999825
100
AcDbArc
 50
270.0
 51
90.0
  0
LINE
  5
1A6
330
2
100
AcDbEntity
  8
GAIKEI
  6
HIDDEN2
 62
     1
100
AcDbLine
 10
4.343894672891678
 20
26.16452761901263
 30
0.0
 11
4.343894672891678
 21
26.9145276189376
 31
0.0
  0
LINE
  5
1A7
330
2
100
AcDbEntity
  8
GAIKEI
  6
HIDDEN2
 62
     1
100
AcDbLine
 10
5.031394672823012
 20
26.03952761902514
 30
0.0
 11
5.031394672823012
 21
25.98552111903052
 31
0.0
  0
POINT
  5
1A8
330
2
100
AcDbEntity
  8
GAIKEI
  6
HIDDEN2
 62
     1
100
AcDbPoint
 10
5.031394672823012
 20
25.93952761903512
 30
0.0
  0
ARC
  5
1A9
330
2
100
AcDbEntity
  8
GAIKEI
  6
HIDDEN2
 62
     1
100
AcDbCircle
 10
5.13139467281303
 20
25.98552111903052
 30
0.0
 40
0.09999999999
100
AcDbArc
 50
180.0
 51
229.3987050000006
  0
LINE
  5
1AA
330
2
100
AcDbEntity
  8
GAIKEI
  6
HIDDEN2
 62
     1
100
AcDbLine
 10
5.006394672825422
 20
26.06452761902261
 30
0.0
 11
5.006394672825422
 21
26.16452761901263
 31
0.0
  0
LINE
  5
1AB
330
2
100
AcDbEntity
  8
GAIKEI
  6
HIDDEN2
 62
     1
100
AcDbLine
 10
6.368894672689066
 20
24.53952761917509
 30
0.0
 11
6.368894672689066
 21
25.18456011911059
 31
0.0
  0
POINT
  5
1AC
330
2
100
AcDbEntity
  8
GAIKEI
  6
HIDDEN2
 62
     1
100
AcDbPoint
 10
6.368894672689066
 20
25.41452761908767
 30
0.0
  0
LINE
  5
1AD
330
2
100
AcDbEntity
  8
GAIKEI
  6
HIDDEN2
 62
     1
100
AcDbLine
 10
5.643894672761575
 20
24.53952761917509
 30
0.0
 11
5.643894672761575
 21
25.18456011911059
 31
0.0
  0
POINT
  5
1AE
330
2
100
AcDbEntity
  8
GAIKEI
  6
HIDDEN2
 62
     1
100
AcDbPoint
 10
5.643894672761575
 20
25.41452761908767
 30
0.0
  0
ARC
  5
1AF
330
2
100
AcDbEntity
  8
GAIKEI
  6
HIDDEN2
 62
     1
100
AcDbCircle
 10
5.143894672811597
 20
25.18456011911059
 30
0.0
 40
0.49999999995
100
AcDbArc
 50
0.0
 51
49.3987050000006
  0
LINE
  5
1B0
330
2
100
AcDbEntity
  8
GAIKEI
  6
HIDDEN2
 62
     1
100
AcDbLine
 10
5.066315422819343
 20
25.90959561903816
 30
0.0
 11
5.469290172779096
 21
25.56418861907264
 31
0.0
  0
LINE
  5
1B1
330
2
100
AcDbEntity
  8
GAIKEI
  6
HIDDEN2
 62
     1
100
AcDbLine
 10
6.043894672721648
 20
24.21452761920767
 30
0.0
 11
5.96889467272922
 21
24.21452761920767
 31
0.0
  0
ARC
  5
1B2
330
2
100
AcDbEntity
  8
GAIKEI
  6
HIDDEN2
 62
     1
100
AcDbCircle
 10
6.043894672721648
 20
24.53952761917509
 30
0.0
 40
0.3249999999675
100
AcDbArc
 50
270.0
 51
0.0
  0
ARC
  5
1B3
330
2
100
AcDbEntity
  8
GAIKEI
  6
HIDDEN2
 62
     1
100
AcDbCircle
 10
5.96889467272922
 20
24.53952761917509
 30
0.0
 40
0.3249999999675
100
AcDbArc
 50
180.0
 51
270.0
  0
LINE
  5
1B4
330
2
100
AcDbEntity
  8
GAIKEI
  6
HIDDEN2
 62
     1
100
AcDbLine
 10
4.481394672877854
 20
26.03952761902514
 30
0.0
 11
4.381394672887836
 21
26.03952761902514
 31
0.0
  0
LINE
  5
1B5
330
2
100
AcDbEntity
  8
GAIKEI
  6
HIDDEN2
 62
     1
100
AcDbLine
 10
4.606394672865349
 20
25.93952761903512
 30
0.0
 11
4.606394672865349
 21
26.03952761902514
 31
0.0
  0
LINE
  5
1B6
330
2
100
AcDbEntity
  8
GAIKEI
  6
HIDDEN2
 62
     1
100
AcDbLine
 10
4.606394672865349
 20
25.93952761903512
 30
0.0
 11
4.506394672875444
 21
25.93952761903512
 31
0.0
  0
LINE
  5
1B7
330
2
100
AcDbEntity
  8
GAIKEI
  6
HIDDEN2
 62
     1
100
AcDbLine
 10
4.506394672875444
 20
26.06452761902261
 30
0.0
 11
4.506394672875444
 21
25.93952761903512
 31
0.0
  0
LINE
  5
1B8
330
2
100
AcDbEntity
  8
GAIKEI
  6
HIDDEN2
 62
     1
100
AcDbLine
 10
4.381394672887836
 20
25.8395276190451
 30
0.0
 11
4.506394672875444
 21
25.8395276190451
 31
0.0
  0
LINE
  5
1B9
330
2
100
AcDbEntity
  8
GAIKEI
  6
HIDDEN2
 62
     1
100
AcDbLine
 10
4.481394672877854
 20
26.03952761902514
 30
0.0
 11
4.481394672877854
 21
25.8395276190451
 31
0.0
  0
ARC
  5
1BA
330
2
100
AcDbEntity
  8
GAIKEI
  6
HIDDEN2
 62
     1
100
AcDbCircle
 10
4.506394672875444
 20
25.93952761903512
 30
0.0
 40
0.09999999999
100
AcDbArc
 50
270.0
 51
0.0
  0
ARC
  5
1BB
330
2
100
AcDbEntity
  8
GAIKEI
  6
HIDDEN2
 62
     1
100
AcDbCircle
 10
6.006394672725377
 20
27.91452761883767
 30
0.0
 40
0.1749999999825
100
AcDbArc
 50
90.0
 51
270.0
  0
LINE
  5
1BC
330
2
100
AcDbEntity
  8
GAIKEI
  6
HIDDEN2
 62
     1
100
AcDbLine
 10
5.261394672799724
 20
27.07952761892108
 30
0.0
 11
5.261394672799724
 21
26.92952761893617
 31
0.0
  0
LINE
  5
1BD
330
2
100
AcDbEntity
  8
GAIKEI
  6
HIDDEN2
 62
     1
100
AcDbLine
 10
5.256394672800411
 20
27.03952761892515
 30
0.0
 11
5.256394672800411
 21
26.92952761893617
 31
0.0
  0
LINE
  5
1BE
330
2
100
AcDbEntity
  8
GAIKEI
  6
HIDDEN2
 62
     1
100
AcDbLine
 10
4.50139467287579
 20
27.07952761892108
 30
0.0
 11
4.50139467287579
 21
26.92952761893617
 31
0.0
  0
LINE
  5
1BF
330
2
100
AcDbEntity
  8
GAIKEI
  6
HIDDEN2
 62
     1
100
AcDbLine
 10
4.506394672875444
 20
27.03952761892515
 30
0.0
 11
4.506394672875444
 21
26.92952761893617
 31
0.0
  0
LINE
  5
1C0
330
2
100
AcDbEntity
  8
GAIKEI
  6
HIDDEN2
 62
     1
100
AcDbLine
 10
4.50139467287579
 20
27.07952761892108
 30
0.0
 11
5.261394672799724
 21
27.07952761892108
 31
0.0
  0
LINE
  5
1C1
330
2
100
AcDbEntity
  8
GAIKEI
  6
HIDDEN2
 62
     1
100
AcDbLine
 10
4.50139467287579
 20
26.92952761893617
 30
0.0
 11
5.261394672799724
 21
26.92952761893617
 31
0.0
  0
LINE
  5
1C2
330
2
100
AcDbEntity
  8
GAIKEI
  6
HIDDEN2
 62
     1
100
AcDbLine
 10
5.256394672800411
 20
27.03952761892515
 30
0.0
 11
4.506394672875444
 21
27.03952761892515
 31
0.0
  0
LINE
  5
1C3
330
2
100
AcDbEntity
  8
GAIKEI
  6
HIDDEN2
 62
     1
100
AcDbLine
 10
5.256394672800411
 20
26.93952761893513
 30
0.0
 11
4.506394672875444
 21
26.93952761893513
 31
0.0
  0
ARC
  5
1C4
330
2
100
AcDbEntity
  8
GAIKEI
  6
HIDDEN2
 62
     1
100
AcDbCircle
 10
6.868894672639157
 20
25.18456011911059
 30
0.0
 40
0.49999999995
100
AcDbArc
 50
130.6012949999994
 51
180.0
  0
LINE
  5
1C5
330
2
100
AcDbEntity
  8
GAIKEI
  6
HIDDEN2
 62
     1
100
AcDbLine
 10
6.97018992262906
 20
25.93952761903512
 30
0.0
 11
5.042599422821695
 21
25.93952761903512
 31
0.0
  0
LINE
  5
1C6
330
2
100
AcDbEntity
  8
GAIKEI
  6
HIDDEN2
 62
     1
100
AcDbLine
 10
7.506394672575538
 20
26.03952761902514
 30
0.0
 11
4.506394672875444
 21
26.03952761902514
 31
0.0
  0
LINE
  5
1C7
330
2
100
AcDbEntity
  8
GAIKEI
  6
HIDDEN2
 62
     1
100
AcDbLine
 10
8.131394672512897
 20
27.73952761885511
 30
0.0
 11
6.006394672725377
 21
27.73952761885511
 31
0.0
  0
LINE
  5
1C8
330
2
100
AcDbEntity
  8
GAIKEI
  6
HIDDEN2
 62
     1
100
AcDbLine
 10
8.131394672512897
 20
28.08952761882011
 30
0.0
 11
6.006394672725377
 21
28.08952761882011
 31
0.0
  0
LINE
  5
1C9
330
2
100
AcDbEntity
  8
GAIKEI
  6
HIDDEN2
 62
     1
100
AcDbLine
 10
6.856394672640362
 20
23.25202761930388
 30
0.0
 11
6.856394672640362
 21
23.3270276192963
 31
0.0
  0
ARC
  5
1CA
330
2
100
AcDbEntity
  8
GAIKEI
  6
HIDDEN2
 62
     1
100
AcDbCircle
 10
6.531394672672945
 20
23.26452761930255
 30
0.0
 40
0.3249999999675
100
AcDbArc
 50
270.0
 51
0.0
  0
ARC
  5
1CB
330
2
100
AcDbEntity
  8
GAIKEI
  6
HIDDEN2
 62
     1
100
AcDbCircle
 10
6.531394672672945
 20
23.31452761929762
 30
0.0
 40
0.3249999999675
100
AcDbArc
 50
0.0
 51
90.0
  0
ARC
  5
1CC
330
2
100
AcDbEntity
  8
GAIKEI
  6
HIDDEN2
 62
     1
100
AcDbCircle
 10
6.199915922706054
 20
23.88952761924008
 30
0.0
 40
0.249999999975
100
AcDbArc
 50
217.979872
 51
270.0
  0
ARC
  5
1CD
330
2
100
AcDbEntity
  8
GAIKEI
  6
HIDDEN2
 62
     1
100
AcDbCircle
 10
5.431394672782857
 20
24.01426961922766
 30
0.0
 40
0.1002582499899742
100
AcDbArc
 50
355.8873210000003
 51
183.8197659999996
  0
ARC
  5
1CE
330
2
100
AcDbEntity
  8
GAIKEI
  6
HIDDEN2
 62
     1
100
AcDbCircle
 10
5.431394672782857
 20
23.28952761930015
 30
0.0
 40
0.7249999999274999
100
AcDbArc
 50
37.97987200000007
 51
82.06901600000044
  0
ARC
  5
1CF
330
2
100
AcDbEntity
  8
GAIKEI
  6
HIDDEN2
 62
     1
100
AcDbCircle
 10
6.199915922706054
 20
22.68952761936015
 30
0.0
 40
0.249999999975
100
AcDbArc
 50
90.0
 51
142.0201279999999
  0
ARC
  5
1D0
330
2
100
AcDbEntity
  8
GAIKEI
  6
HIDDEN2
 62
     1
100
AcDbCircle
 10
5.431394672782857
 20
22.56478586937266
 30
0.0
 40
0.1002582499899742
100
AcDbArc
 50
176.1802340000004
 51
4.11267899999968
  0
ARC
  5
1D1
330
2
100
AcDbEntity
  8
GAIKEI
  6
HIDDEN2
 62
     1
100
AcDbCircle
 10
5.431394672782857
 20
23.28952761930015
 30
0.0
 40
0.7249999999274999
100
AcDbArc
 50
277.9309839999996
 51
322.0201279999999
  0
ARC
  5
1D2
330
2
100
AcDbEntity
  8
GAIKEI
  6
HIDDEN2
 62
     1
100
AcDbCircle
 10
4.752858422850863
 20
23.5441633692746
 30
0.0
 40
0.1002582499899742
100
AcDbArc
 50
65.61198600000039
 51
253.2485960000011
  0
ARC
  5
1D3
330
2
100
AcDbEntity
  8
GAIKEI
  6
HIDDEN2
 62
     1
100
AcDbCircle
 10
5.431394672782857
 20
23.28952761930015
 30
0.0
 40
0.7249999999274999
100
AcDbArc
 50
167.3612749999998
 51
192.6387249999972
  0
ARC
  5
1D4
330
2
100
AcDbEntity
  8
GAIKEI
  6
HIDDEN2
 62
     1
100
AcDbCircle
 10
4.752858422850863
 20
23.03489211932555
 30
0.0
 40
0.1002582499899742
100
AcDbArc
 50
106.7514039999989
 51
294.6823879999999
  0
ARC
  5
1D5
330
2
100
AcDbEntity
  8
GAIKEI
  6
HIDDEN2
 62
     1
100
AcDbCircle
 10
5.431394672782857
 20
23.28952761930015
 30
0.0
 40
0.7249999999274999
100
AcDbArc
 50
97.93380099999502
 51
151.4993070000004
  0
ARC
  5
1D6
330
2
100
AcDbEntity
  8
GAIKEI
  6
HIDDEN2
 62
     1
100
AcDbCircle
 10
5.431394672782857
 20
23.28952761930015
 30
0.0
 40
0.7249999999274999
100
AcDbArc
 50
208.5035099999991
 51
262.0661989999984
  0
LINE
  5
1D7
330
2
100
AcDbEntity
  8
GAIKEI
  6
HIDDEN2
 62
     1
100
AcDbLine
 10
6.531394672672945
 20
23.63952761926504
 30
0.0
 11
6.199915922706054
 21
23.63952761926504
 31
0.0
  0
LINE
  5
1D8
330
2
100
AcDbEntity
  8
GAIKEI
  6
HIDDEN2
 62
     1
100
AcDbLine
 10
6.531394672672945
 20
22.93952761933514
 30
0.0
 11
6.199915922706054
 21
22.93952761933514
 31
0.0
  0
LINE
  5
1D9
330
2
100
AcDbEntity
  8
GAIKEI
  6
HIDDEN2
 62
     1
100
AcDbLine
 10
6.831394672642773
 20
9.639527620665091
 30
0.0
 11
6.831394672642773
 21
9.889439620640075
 31
0.0
  0
ARC
  5
1DA
330
2
100
AcDbEntity
  8
GAIKEI
  6
HIDDEN2
 62
     1
100
AcDbCircle
 10
6.831136422642885
 20
9.989527620630099
 30
0.0
 40
0.1002582499899742
100
AcDbArc
 50
270.1475399999991
 51
93.33963399999893
  0
ARC
  5
1DB
330
2
100
AcDbEntity
  8
GAIKEI
  6
HIDDEN2
 62
     1
100
AcDbCircle
 10
6.618894672664168
 20
8.756086370753507
 30
0.0
 40
0.249999999975
100
AcDbArc
 50
124.7340099999987
 51
180.0
  0
ARC
  5
1DC
330
2
100
AcDbEntity
  8
GAIKEI
  6
HIDDEN2
 62
     1
100
AcDbCircle
 10
6.006394672725377
 20
9.639527620665091
 30
0.0
 40
0.8249999999174999
100
AcDbArc
 50
180.0
 51
235.2659900000013
  0
ARC
  5
1DD
330
2
100
AcDbEntity
  8
GAIKEI
  6
HIDDEN2
 62
     1
100
AcDbCircle
 10
5.3938946727867
 20
8.756086370753507
 30
0.0
 40
0.249999999975
100
AcDbArc
 50
0.0
 51
55.26599000000127
  0
LINE
  5
1DE
330
2
100
AcDbEntity
  8
GAIKEI
  6
HIDDEN2
 62
     1
100
AcDbLine
 10
5.181394672807869
 20
9.639527620665091
 30
0.0
 11
5.181394672807869
 21
9.889269870640134
 31
0.0
  0
ARC
  5
1DF
330
2
100
AcDbEntity
  8
GAIKEI
  6
HIDDEN2
 62
     1
100
AcDbCircle
 10
5.181652672807899
 20
9.989527620630099
 30
0.0
 40
0.1002582499899742
100
AcDbArc
 50
86.66036600000108
 51
269.8524600000009
  0
ARC
  5
1E0
330
2
100
AcDbEntity
  8
GAIKEI
  6
HIDDEN2
 62
     1
100
AcDbCircle
 10
6.006394672725377
 20
9.989527620630099
 30
0.0
 40
0.8249999999174999
100
AcDbArc
 50
6.973576000001058
 51
173.068955000001
  0
ARC
  5
1E1
330
2
100
AcDbEntity
  8
GAIKEI
  6
HIDDEN2
 62
     1
100
AcDbCircle
 10
6.006394672725377
 20
9.639527620665091
 30
0.0
 40
0.8249999999174999
100
AcDbArc
 50
304.7340099999987
 51
0.0
  0
ARC
  5
1E2
330
2
100
AcDbEntity
  8
GAIKEI
  6
HIDDEN2
 62
     1
100
AcDbCircle
 10
-2.993605326374563
 20
27.91452761883767
 30
0.0
 40
0.1749999999825
100
AcDbArc
 50
90.0
 51
270.0
  0
ARC
  5
1E3
330
2
100
AcDbEntity
  8
GAIKEI
  6
HIDDEN2
 62
     1
100
AcDbCircle
 10
-7.993605325874568
 20
27.91452761883767
 30
0.0
 40
0.1749999999825
100
AcDbArc
 50
270.0
 51
90.0
  0
ARC
  5
1E4
330
2
100
AcDbEntity
  8
GAIKEI
  6
HIDDEN2
 62
     1
100
AcDbCircle
 10
-10.49360532562457
 20
26.9145276189376
 30
0.0
 40
0.49999999995
100
AcDbArc
 50
180.0
 51
0.0
  0
ARC
  5
1E5
330
2
100
AcDbEntity
  8
GAIKEI
  6
HIDDEN2
 62
     1
100
AcDbCircle
 10
-10.49360532562457
 20
26.9145276189376
 30
0.0
 40
0.1749999999825
100
AcDbArc
 50
180.0
 51
0.0
  0
LINE
  5
1E6
330
2
100
AcDbEntity
  8
GAIKEI
  6
HIDDEN2
 62
     1
100
AcDbLine
 10
-11.24360532554954
 20
27.73952761885511
 30
0.0
 11
-12.99360532537446
 21
27.73952761885511
 31
0.0
  0
LINE
  5
1E7
330
2
100
AcDbEntity
  8
GAIKEI
  6
HIDDEN2
 62
     1
100
AcDbLine
 10
-11.24360532554954
 20
28.08952761882011
 30
0.0
 11
-12.99360532537446
 21
28.08952761882011
 31
0.0
  0
ARC
  5
1E8
330
2
100
AcDbEntity
  8
GAIKEI
  6
HIDDEN2
 62
     1
100
AcDbCircle
 10
-12.99360532537446
 20
27.91452761883767
 30
0.0
 40
0.1749999999825
100
AcDbArc
 50
90.0
 51
270.0
  0
ARC
  5
1E9
330
2
100
AcDbEntity
  8
GAIKEI
  6
HIDDEN2
 62
     1
100
AcDbCircle
 10
-9.743605325699604
 20
27.91452761883767
 30
0.0
 40
0.1749999999825
100
AcDbArc
 50
90.0
 51
270.0
  0
LINE
  5
1EA
330
2
100
AcDbEntity
  8
GAIKEI
  6
HIDDEN2
 62
     1
100
AcDbLine
 10
-10.31860532564212
 20
27.72693761885643
 30
0.0
 11
-10.31860532564212
 21
27.91452761883767
 31
0.0
  0
ARC
  5
1EB
330
2
100
AcDbEntity
  8
GAIKEI
  6
HIDDEN2
 62
     1
100
AcDbCircle
 10
-10.26860532564706
 20
27.72693761885643
 30
0.0
 40
0.049999999995
100
AcDbArc
 50
180.0
 51
234.2382859999949
  0
ARC
  5
1EC
330
2
100
AcDbEntity
  8
GAIKEI
  6
HIDDEN2
 62
     1
100
AcDbCircle
 10
-11.24360532554954
 20
27.91452761883767
 30
0.0
 40
0.1749999999825
100
AcDbArc
 50
270.0
 51
90.0
  0
LINE
  5
1ED
330
2
100
AcDbEntity
  8
GAIKEI
  6
HIDDEN2
 62
     1
100
AcDbLine
 10
-10.66860532560713
 20
27.72693761885643
 30
0.0
 11
-10.66860532560713
 21
27.91452761883767
 31
0.0
  0
ARC
  5
1EE
330
2
100
AcDbEntity
  8
GAIKEI
  6
HIDDEN2
 62
     1
100
AcDbCircle
 10
-10.71860532560197
 20
27.72693761885643
 30
0.0
 40
0.049999999995
100
AcDbArc
 50
305.7617140000051
 51
0.0
  0
ARC
  5
1EF
330
2
100
AcDbEntity
  8
GAIKEI
  6
HIDDEN2
 62
     1
100
AcDbCircle
 10
-10.49360532562457
 20
27.91452761883767
 30
0.0
 40
0.1749999999825
100
AcDbArc
 50
0.0
 51
180.0
  0
LINE
  5
1F0
330
2
100
AcDbEntity
  8
GAIKEI
  6
HIDDEN2
 62
     1
100
AcDbLine
 10
-10.31860532564212
 20
26.9145276189376
 30
0.0
 11
-10.31860532564212
 21
27.1021176189189
 31
0.0
  0
ARC
  5
1F1
330
2
100
AcDbEntity
  8
GAIKEI
  6
HIDDEN2
 62
     1
100
AcDbCircle
 10
-10.26860532564706
 20
27.1021176189189
 30
0.0
 40
0.049999999995
100
AcDbArc
 50
125.761714000005
 51
180.0
  0
LINE
  5
1F2
330
2
100
AcDbEntity
  8
GAIKEI
  6
HIDDEN2
 62
     1
100
AcDbLine
 10
-10.66860532560713
 20
26.9145276189376
 30
0.0
 11
-10.66860532560713
 21
27.1021176189189
 31
0.0
  0
ARC
  5
1F3
330
2
100
AcDbEntity
  8
GAIKEI
  6
HIDDEN2
 62
     1
100
AcDbCircle
 10
-10.71860532560197
 20
27.1021176189189
 30
0.0
 40
0.049999999995
100
AcDbArc
 50
0.0
 51
54.23828599999494
  0
ARC
  5
1F4
330
2
100
AcDbEntity
  8
GAIKEI
  6
HIDDEN2
 62
     1
100
AcDbCircle
 10
-11.49360532552452
 20
26.9145276189376
 30
0.0
 40
0.49999999995
100
AcDbArc
 50
0.0
 51
90.0
  0
ARC
  5
1F5
330
2
100
AcDbEntity
  8
GAIKEI
  6
HIDDEN2
 62
     1
100
AcDbCircle
 10
-9.493605325724502
 20
26.9145276189376
 30
0.0
 40
0.49999999995
100
AcDbArc
 50
90.0
 51
180.0
  0
ARC
  5
1F6
330
2
100
AcDbEntity
  8
GAIKEI
  6
HIDDEN2
 62
     1
100
AcDbCircle
 10
-10.49360532562457
 20
27.41452761888763
 30
0.0
 40
0.3349999999665
100
AcDbArc
 50
125.761714000005
 51
234.2382859999949
  0
ARC
  5
1F7
330
2
100
AcDbEntity
  8
GAIKEI
  6
HIDDEN2
 62
     1
100
AcDbCircle
 10
-10.49360532562457
 20
27.41452761888763
 30
0.0
 40
0.3349999999665
100
AcDbArc
 50
305.7617140000051
 51
54.23828599999494
  0
ARC
  5
1F8
330
2
100
AcDbEntity
  8
GAIKEI
  6
HIDDEN2
 62
     1
100
AcDbCircle
 10
-17.99360532487458
 20
27.91452761883767
 30
0.0
 40
0.1749999999825
100
AcDbArc
 50
270.0
 51
90.0
  0
LINE
  5
1F9
330
2
100
AcDbEntity
  8
GAIKEI
  6
HIDDEN2
 62
     1
100
AcDbLine
 10
-9.743605325699604
 20
27.73952761885511
 30
0.0
 11
-7.993605325874568
 21
27.73952761885511
 31
0.0
  0
LINE
  5
1FA
330
2
100
AcDbEntity
  8
GAIKEI
  6
HIDDEN2
 62
     1
100
AcDbLine
 10
-9.743605325699604
 20
28.08952761882011
 30
0.0
 11
-7.993605325874568
 21
28.08952761882011
 31
0.0
  0
LINE
  5
1FB
330
2
100
AcDbEntity
  8
GAIKEI
  6
HIDDEN2
 62
     1
100
AcDbLine
 10
-9.493605325724502
 20
27.41452761888763
 30
0.0
 11
3.843894672941587
 21
27.41452761888763
 31
0.0
  0
LINE
  5
1FC
330
2
100
AcDbEntity
  8
GAIKEI
  6
HIDDEN2
 62
     1
100
AcDbLine
 10
2.006394673125328
 20
27.73952761885511
 30
0.0
 11
-2.993605326374563
 21
27.73952761885511
 31
0.0
  0
LINE
  5
1FD
330
2
100
AcDbEntity
  8
GAIKEI
  6
HIDDEN2
 62
     1
100
AcDbLine
 10
2.006394673125328
 20
28.08952761882011
 30
0.0
 11
-2.993605326374563
 21
28.08952761882011
 31
0.0
  0
ARC
  5
1FE
330
2
100
AcDbEntity
  8
GAIKEI
  6
HIDDEN2
 62
     1
100
AcDbCircle
 10
-22.99360532437459
 20
27.91452761883767
 30
0.0
 40
0.1749999999825
100
AcDbArc
 50
90.0
 51
270.0
  0
LINE
  5
1FF
330
2
100
AcDbEntity
  8
GAIKEI
  6
HIDDEN2
 62
     1
100
AcDbLine
 10
-25.33110532414094
 20
26.16452761901263
 30
0.0
 11
-25.33110532414094
 21
26.9145276189376
 31
0.0
  0
LINE
  5
200
330
2
100
AcDbEntity
  8
GAIKEI
  6
HIDDEN2
 62
     1
100
AcDbLine
 10
-28.65610532380822
 20
26.16452761901263
 30
0.0
 11
-28.65610532380822
 21
26.91561036893745
 31
0.0
  0
LINE
  5
201
330
2
100
AcDbEntity
  8
GAIKEI
  6
HIDDEN2
 62
     1
100
AcDbLine
 10
-29.86860532368712
 20
26.06452761902261
 30
0.0
 11
-29.86860532368712
 21
28.8145276187476
 31
0.0
  0
LINE
  5
202
330
2
100
AcDbEntity
  8
GAIKEI
  6
HIDDEN2
 62
     1
100
AcDbLine
 10
-27.93368457388055
 20
25.90959561903816
 30
0.0
 11
-27.53070982392092
 21
25.56418861907264
 31
0.0
  0
LINE
  5
203
330
2
100
AcDbEntity
  8
GAIKEI
  6
HIDDEN2
 62
     1
100
AcDbLine
 10
-28.49360532382457
 20
26.03952761902514
 30
0.0
 11
-25.49360532412459
 21
26.03952761902514
 31
0.0
  0
LINE
  5
204
330
2
100
AcDbEntity
  8
GAIKEI
  6
HIDDEN2
 62
     1
100
AcDbLine
 10
-27.95740057387821
 20
25.93952761903512
 30
0.0
 11
-26.02981007407095
 21
25.93952761903512
 31
0.0
  0
LINE
  5
205
330
2
100
AcDbEntity
  8
GAIKEI
  6
HIDDEN2
 62
     1
100
AcDbLine
 10
-28.51860532382216
 20
26.03952761902514
 30
0.0
 11
-28.61860532381206
 21
26.03952761902514
 31
0.0
  0
LINE
  5
206
330
2
100
AcDbEntity
  8
GAIKEI
  6
HIDDEN2
 62
     1
100
AcDbLine
 10
-28.39360532383455
 20
25.93952761903512
 30
0.0
 11
-28.39360532383455
 21
26.03952761902514
 31
0.0
  0
LINE
  5
207
330
2
100
AcDbEntity
  8
GAIKEI
  6
HIDDEN2
 62
     1
100
AcDbLine
 10
-28.39360532383455
 20
25.93952761903512
 30
0.0
 11
-28.49360532382457
 21
25.93952761903512
 31
0.0
  0
POINT
  5
208
330
2
100
AcDbEntity
  8
GAIKEI
  6
HIDDEN2
 62
     1
100
AcDbPoint
 10
-27.96860532387711
 20
25.93952761903512
 30
0.0
  0
LINE
  5
209
330
2
100
AcDbEntity
  8
GAIKEI
  6
HIDDEN2
 62
     1
100
AcDbLine
 10
-27.96860532387711
 20
26.03952761902514
 30
0.0
 11
-27.96860532387711
 21
25.98552111903052
 31
0.0
  0
LINE
  5
20A
330
2
100
AcDbEntity
  8
GAIKEI
  6
HIDDEN2
 62
     1
100
AcDbLine
 10
-27.99360532387448
 20
26.06452761902261
 30
0.0
 11
-27.99360532387448
 21
26.16452761901263
 31
0.0
  0
LINE
  5
20B
330
2
100
AcDbEntity
  8
GAIKEI
  6
HIDDEN2
 62
     1
100
AcDbLine
 10
-28.49360532382457
 20
26.06452761902261
 30
0.0
 11
-28.49360532382457
 21
25.93952761903512
 31
0.0
  0
LINE
  5
20C
330
2
100
AcDbEntity
  8
GAIKEI
  6
HIDDEN2
 62
     1
100
AcDbLine
 10
-27.99360532387448
 20
26.16452761901263
 30
0.0
 11
-29.86860532368712
 21
26.16452761901263
 31
0.0
  0
LINE
  5
20D
330
2
100
AcDbEntity
  8
GAIKEI
  6
HIDDEN2
 62
     1
100
AcDbLine
 10
-28.61860532381206
 20
25.8395276190451
 30
0.0
 11
-28.49360532382457
 21
25.8395276190451
 31
0.0
  0
LINE
  5
20E
330
2
100
AcDbEntity
  8
GAIKEI
  6
HIDDEN2
 62
     1
100
AcDbLine
 10
-28.51860532382216
 20
26.03952761902514
 30
0.0
 11
-28.51860532382216
 21
25.8395276190451
 31
0.0
  0
ARC
  5
20F
330
2
100
AcDbEntity
  8
GAIKEI
  6
HIDDEN2
 62
     1
100
AcDbCircle
 10
-28.49360532382457
 20
25.93952761903512
 30
0.0
 40
0.09999999999
100
AcDbArc
 50
270.0
 51
0.0
  0
ARC
  5
210
330
2
100
AcDbEntity
  8
GAIKEI
  6
HIDDEN2
 62
     1
100
AcDbCircle
 10
-27.8686053238871
 20
25.98552111903052
 30
0.0
 40
0.09999999999
100
AcDbArc
 50
180.0
 51
229.3987050000006
  0
LINE
  5
211
330
2
100
AcDbEntity
  8
GAIKEI
  6
HIDDEN2
 62
     1
100
AcDbLine
 10
-25.46860532412711
 20
26.03952761902514
 30
0.0
 11
-25.36860532413709
 21
26.03952761902514
 31
0.0
  0
LINE
  5
212
330
2
100
AcDbEntity
  8
GAIKEI
  6
HIDDEN2
 62
     1
100
AcDbLine
 10
-25.5936053241146
 20
25.93952761903512
 30
0.0
 11
-25.5936053241146
 21
26.03952761902514
 31
0.0
  0
LINE
  5
213
330
2
100
AcDbEntity
  8
GAIKEI
  6
HIDDEN2
 62
     1
100
AcDbLine
 10
-25.5936053241146
 20
25.93952761903512
 30
0.0
 11
-25.49360532412459
 21
25.93952761903512
 31
0.0
  0
LINE
  5
214
330
2
100
AcDbEntity
  8
GAIKEI
  6
HIDDEN2
 62
     1
100
AcDbLine
 10
-25.49360532412459
 20
26.06452761902261
 30
0.0
 11
-25.49360532412459
 21
25.93952761903512
 31
0.0
  0
LINE
  5
215
330
2
100
AcDbEntity
  8
GAIKEI
  6
HIDDEN2
 62
     1
100
AcDbLine
 10
-25.36860532413709
 20
25.8395276190451
 30
0.0
 11
-25.49360532412459
 21
25.8395276190451
 31
0.0
  0
LINE
  5
216
330
2
100
AcDbEntity
  8
GAIKEI
  6
HIDDEN2
 62
     1
100
AcDbLine
 10
-25.46860532412711
 20
26.03952761902514
 30
0.0
 11
-25.46860532412711
 21
25.8395276190451
 31
0.0
  0
ARC
  5
217
330
2
100
AcDbEntity
  8
GAIKEI
  6
HIDDEN2
 62
     1
100
AcDbCircle
 10
-25.49360532412459
 20
25.93952761903512
 30
0.0
 40
0.09999999999
100
AcDbArc
 50
180.0
 51
270.0
  0
LINE
  5
218
330
2
100
AcDbEntity
  8
GAIKEI
  6
HIDDEN2
 62
     1
100
AcDbLine
 10
-26.01860532407204
 20
26.03952761902514
 30
0.0
 11
-26.01860532407204
 21
25.98552111903052
 31
0.0
  0
POINT
  5
219
330
2
100
AcDbEntity
  8
GAIKEI
  6
HIDDEN2
 62
     1
100
AcDbPoint
 10
-26.01860532407204
 20
25.93952761903512
 30
0.0
  0
ARC
  5
21A
330
2
100
AcDbEntity
  8
GAIKEI
  6
HIDDEN2
 62
     1
100
AcDbCircle
 10
-26.11860532406206
 20
25.98552111903052
 30
0.0
 40
0.09999999999
100
AcDbArc
 50
310.6012949999993
 51
0.0
  0
LINE
  5
21B
330
2
100
AcDbEntity
  8
GAIKEI
  6
HIDDEN2
 62
     1
100
AcDbLine
 10
-25.99360532407445
 20
26.06452761902261
 30
0.0
 11
-25.99360532407445
 21
26.16452761901263
 31
0.0
  0
LINE
  5
21C
330
2
100
AcDbEntity
  8
GAIKEI
  6
HIDDEN2
 62
     1
100
AcDbLine
 10
-26.63110532401083
 20
24.53952761917509
 30
0.0
 11
-26.63110532401083
 21
25.18456011911059
 31
0.0
  0
POINT
  5
21D
330
2
100
AcDbEntity
  8
GAIKEI
  6
HIDDEN2
 62
     1
100
AcDbPoint
 10
-26.63110532401083
 20
25.41452761908767
 30
0.0
  0
ARC
  5
21E
330
2
100
AcDbEntity
  8
GAIKEI
  6
HIDDEN2
 62
     1
100
AcDbCircle
 10
-26.13110532406086
 20
25.18456011911059
 30
0.0
 40
0.49999999995
100
AcDbArc
 50
130.6012949999994
 51
180.0
  0
LINE
  5
21F
330
2
100
AcDbEntity
  8
GAIKEI
  6
HIDDEN2
 62
     1
100
AcDbLine
 10
-27.35610532393832
 20
24.53952761917509
 30
0.0
 11
-27.35610532393832
 21
25.18456011911059
 31
0.0
  0
POINT
  5
220
330
2
100
AcDbEntity
  8
GAIKEI
  6
HIDDEN2
 62
     1
100
AcDbPoint
 10
-27.35610532393832
 20
25.41452761908767
 30
0.0
  0
ARC
  5
221
330
2
100
AcDbEntity
  8
GAIKEI
  6
HIDDEN2
 62
     1
100
AcDbCircle
 10
-27.85610532388842
 20
25.18456011911059
 30
0.0
 40
0.49999999995
100
AcDbArc
 50
0.0
 51
49.3987050000006
  0
LINE
  5
222
330
2
100
AcDbEntity
  8
GAIKEI
  6
HIDDEN2
 62
     1
100
AcDbLine
 10
-26.05352632406868
 20
25.90959561903816
 30
0.0
 11
-26.45650107402833
 21
25.56418861907264
 31
0.0
  0
LINE
  5
223
330
2
100
AcDbEntity
  8
GAIKEI
  6
HIDDEN2
 62
     1
100
AcDbLine
 10
-26.95610532397848
 20
24.21452761920767
 30
0.0
 11
-27.0311053239709
 21
24.21452761920767
 31
0.0
  0
ARC
  5
224
330
2
100
AcDbEntity
  8
GAIKEI
  6
HIDDEN2
 62
     1
100
AcDbCircle
 10
-27.0311053239709
 20
24.53952761917509
 30
0.0
 40
0.3249999999675
100
AcDbArc
 50
180.0
 51
270.0
  0
ARC
  5
225
330
2
100
AcDbEntity
  8
GAIKEI
  6
HIDDEN2
 62
     1
100
AcDbCircle
 10
-26.95610532397848
 20
24.53952761917509
 30
0.0
 40
0.3249999999675
100
AcDbArc
 50
270.0
 51
0.0
  0
LINE
  5
226
330
2
100
AcDbEntity
  8
GAIKEI
  6
HIDDEN2
 62
     1
100
AcDbLine
 10
-29.11860532376215
 20
27.73952761885511
 30
0.0
 11
-26.99360532397463
 21
27.73952761885511
 31
0.0
  0
LINE
  5
227
330
2
100
AcDbEntity
  8
GAIKEI
  6
HIDDEN2
 62
     1
100
AcDbLine
 10
-29.11860532376215
 20
28.08952761882011
 30
0.0
 11
-26.99360532397463
 21
28.08952761882011
 31
0.0
  0
LINE
  5
228
330
2
100
AcDbEntity
  8
GAIKEI
  6
HIDDEN2
 62
     1
100
AcDbLine
 10
-27.73860532390017
 20
27.07952761892108
 30
0.0
 11
-27.73860532390017
 21
26.92952761893617
 31
0.0
  0
LINE
  5
229
330
2
100
AcDbEntity
  8
GAIKEI
  6
HIDDEN2
 62
     1
100
AcDbLine
 10
-27.7436053238996
 20
27.03952761892515
 30
0.0
 11
-27.7436053238996
 21
26.92952761893617
 31
0.0
  0
ARC
  5
22A
330
2
100
AcDbEntity
  8
GAIKEI
  6
HIDDEN2
 62
     1
100
AcDbCircle
 10
-29.11860532376215
 20
27.91452761883767
 30
0.0
 40
0.1749999999825
100
AcDbArc
 50
90.0
 51
270.0
  0
ARC
  5
22B
330
2
100
AcDbEntity
  8
GAIKEI
  6
HIDDEN2
 62
     1
100
AcDbCircle
 10
-29.11860532376215
 20
27.91452761883767
 30
0.0
 40
0.49999999995
100
AcDbArc
 50
90.0
 51
270.0
  0
LINE
  5
22C
330
2
100
AcDbEntity
  8
GAIKEI
  6
HIDDEN2
 62
     1
100
AcDbLine
 10
-28.49860532382422
 20
27.07952761892108
 30
0.0
 11
-28.49860532382422
 21
26.92952761893617
 31
0.0
  0
LINE
  5
22D
330
2
100
AcDbEntity
  8
GAIKEI
  6
HIDDEN2
 62
     1
100
AcDbLine
 10
-28.49360532382457
 20
27.03952761892515
 30
0.0
 11
-28.49360532382457
 21
26.92952761893617
 31
0.0
  0
ARC
  5
22E
330
2
100
AcDbEntity
  8
GAIKEI
  6
HIDDEN2
 62
     1
100
AcDbCircle
 10
-29.15610532375831
 20
26.91561036893745
 30
0.0
 40
0.49999999995
100
AcDbArc
 50
0.0
 51
85.69877800000066
  0
LINE
  5
22F
330
2
100
AcDbEntity
  8
GAIKEI
  6
HIDDEN2
 62
     1
100
AcDbLine
 10
-28.49860532382422
 20
27.07952761892108
 30
0.0
 11
-27.73860532390017
 21
27.07952761892108
 31
0.0
  0
LINE
  5
230
330
2
100
AcDbEntity
  8
GAIKEI
  6
HIDDEN2
 62
     1
100
AcDbLine
 10
-28.49860532382422
 20
26.92952761893617
 30
0.0
 11
-27.73860532390017
 21
26.92952761893617
 31
0.0
  0
LINE
  5
231
330
2
100
AcDbEntity
  8
GAIKEI
  6
HIDDEN2
 62
     1
100
AcDbLine
 10
-28.49360532382457
 20
27.03952761892515
 30
0.0
 11
-27.7436053238996
 21
27.03952761892515
 31
0.0
  0
LINE
  5
232
330
2
100
AcDbEntity
  8
GAIKEI
  6
HIDDEN2
 62
     1
100
AcDbLine
 10
-28.49360532382457
 20
26.93952761893513
 30
0.0
 11
-27.7436053238996
 21
26.93952761893513
 31
0.0
  0
ARC
  5
233
330
2
100
AcDbEntity
  8
GAIKEI
  6
HIDDEN2
 62
     1
100
AcDbCircle
 10
-26.99360532397463
 20
27.91452761883767
 30
0.0
 40
0.1749999999825
100
AcDbArc
 50
270.0
 51
90.0
  0
LINE
  5
234
330
2
100
AcDbEntity
  8
GAIKEI
  6
HIDDEN2
 62
     1
100
AcDbLine
 10
-25.48860532412528
 20
27.07952761892108
 30
0.0
 11
-25.48860532412528
 21
26.92952761893617
 31
0.0
  0
LINE
  5
235
330
2
100
AcDbEntity
  8
GAIKEI
  6
HIDDEN2
 62
     1
100
AcDbLine
 10
-25.49360532412459
 20
27.03952761892515
 30
0.0
 11
-25.49360532412459
 21
26.92952761893617
 31
0.0
  0
LINE
  5
236
330
2
100
AcDbEntity
  8
GAIKEI
  6
HIDDEN2
 62
     1
100
AcDbLine
 10
-26.24860532404921
 20
27.07952761892108
 30
0.0
 11
-26.24860532404921
 21
26.92952761893617
 31
0.0
  0
LINE
  5
237
330
2
100
AcDbEntity
  8
GAIKEI
  6
HIDDEN2
 62
     1
100
AcDbLine
 10
-26.24360532404955
 20
27.03952761892515
 30
0.0
 11
-26.24360532404955
 21
26.92952761893617
 31
0.0
  0
LINE
  5
238
330
2
100
AcDbEntity
  8
GAIKEI
  6
HIDDEN2
 62
     1
100
AcDbLine
 10
-25.48860532412528
 20
27.07952761892108
 30
0.0
 11
-26.24860532404921
 21
27.07952761892108
 31
0.0
  0
LINE
  5
239
330
2
100
AcDbEntity
  8
GAIKEI
  6
HIDDEN2
 62
     1
100
AcDbLine
 10
-25.48860532412528
 20
26.92952761893617
 30
0.0
 11
-26.24860532404921
 21
26.92952761893617
 31
0.0
  0
LINE
  5
23A
330
2
100
AcDbEntity
  8
GAIKEI
  6
HIDDEN2
 62
     1
100
AcDbLine
 10
-26.24360532404955
 20
27.03952761892515
 30
0.0
 11
-25.49360532412459
 21
27.03952761892515
 31
0.0
  0
LINE
  5
23B
330
2
100
AcDbEntity
  8
GAIKEI
  6
HIDDEN2
 62
     1
100
AcDbLine
 10
-26.24360532404955
 20
26.93952761893513
 30
0.0
 11
-25.49360532412459
 21
26.93952761893513
 31
0.0
  0
ARC
  5
23C
330
2
100
AcDbEntity
  8
GAIKEI
  6
HIDDEN2
 62
     1
100
AcDbCircle
 10
-24.83110532419096
 20
26.9145276189376
 30
0.0
 40
0.49999999995
100
AcDbArc
 50
90.0
 51
180.0
  0
LINE
  5
23D
330
2
100
AcDbEntity
  8
GAIKEI
  6
HIDDEN2
 62
     1
100
AcDbLine
 10
-26.46860532402718
 20
23.65202761926383
 30
0.0
 11
-27.58997982391486
 21
23.65202761926383
 31
0.0
  0
LINE
  5
23E
330
2
100
AcDbEntity
  8
GAIKEI
  6
HIDDEN2
 62
     1
100
AcDbLine
 10
-26.46860532402718
 20
22.92702761933634
 30
0.0
 11
-27.58997982391486
 21
22.92702761933634
 31
0.0
  0
POINT
  5
23F
330
2
100
AcDbEntity
  8
GAIKEI
  6
HIDDEN2
 62
     1
100
AcDbPoint
 10
-27.81860532389203
 20
23.65202761926383
 30
0.0
  0
POINT
  5
240
330
2
100
AcDbEntity
  8
GAIKEI
  6
HIDDEN2
 62
     1
100
AcDbPoint
 10
-27.81860532389203
 20
22.92702761933634
 30
0.0
  0
LINE
  5
241
330
2
100
AcDbEntity
  8
GAIKEI
  6
HIDDEN2
 62
     1
100
AcDbLine
 10
-28.61860532381206
 20
24.11452761921765
 30
0.0
 11
-28.33291832384077
 21
24.11452761921765
 31
0.0
  0
LINE
  5
242
330
2
100
AcDbEntity
  8
GAIKEI
  6
HIDDEN2
 62
     1
100
AcDbLine
 10
-27.96816132387721
 20
23.82495161924652
 30
0.0
 11
-28.14382757385954
 21
24.02806561922626
 31
0.0
  0
ARC
  5
243
330
2
100
AcDbEntity
  8
GAIKEI
  6
HIDDEN2
 62
     1
100
AcDbCircle
 10
-28.33291832384077
 20
23.86452761924255
 30
0.0
 40
0.249999999975
100
AcDbArc
 50
40.85537600000193
 51
90.0
  0
LINE
  5
244
330
2
100
AcDbEntity
  8
GAIKEI
  6
HIDDEN2
 62
     1
100
AcDbLine
 10
-28.61860532381206
 20
22.46452761938264
 30
0.0
 11
-28.33291832384077
 21
22.46452761938264
 31
0.0
  0
LINE
  5
245
330
2
100
AcDbEntity
  8
GAIKEI
  6
HIDDEN2
 62
     1
100
AcDbLine
 10
-27.96816132387721
 20
22.75410361935366
 30
0.0
 11
-28.14382757385954
 21
22.55098961937398
 31
0.0
  0
POINT
  5
246
330
2
100
AcDbEntity
  8
GAIKEI
  6
HIDDEN2
 62
     1
100
AcDbPoint
 10
-28.2186053238521
 20
22.46452761938264
 30
0.0
  0
ARC
  5
247
330
2
100
AcDbEntity
  8
GAIKEI
  6
HIDDEN2
 62
     1
100
AcDbCircle
 10
-28.33291832384077
 20
22.71452761935762
 30
0.0
 40
0.249999999975
100
AcDbArc
 50
270.0
 51
319.144623999998
  0
LINE
  5
248
330
2
100
AcDbEntity
  8
GAIKEI
  6
HIDDEN2
 62
     1
100
AcDbLine
 10
-28.51860532382216
 20
24.11452761921765
 30
0.0
 11
-28.51860532382216
 21
22.46452761938264
 31
0.0
  0
ARC
  5
249
330
2
100
AcDbEntity
  8
GAIKEI
  6
HIDDEN2
 62
     1
100
AcDbCircle
 10
-27.58997982391486
 20
22.42702761938637
 30
0.0
 40
0.49999999995
100
AcDbArc
 50
90.0
 51
139.1446239999981
  0
ARC
  5
24A
330
2
100
AcDbEntity
  8
GAIKEI
  6
HIDDEN2
 62
     1
100
AcDbCircle
 10
-27.58997982391486
 20
24.15202761921381
 30
0.0
 40
0.49999999995
100
AcDbArc
 50
220.8553760000019
 51
270.0
  0
LINE
  5
24B
330
2
100
AcDbEntity
  8
GAIKEI
  6
HIDDEN2
 62
     1
100
AcDbLine
 10
-26.14360532405965
 20
23.25202761930388
 30
0.0
 11
-26.14360532405965
 21
23.3270276192963
 31
0.0
  0
ARC
  5
24C
330
2
100
AcDbEntity
  8
GAIKEI
  6
HIDDEN2
 62
     1
100
AcDbCircle
 10
-26.46860532402718
 20
23.3270276192963
 30
0.0
 40
0.3249999999675
100
AcDbArc
 50
0.0
 51
90.0
  0
ARC
  5
24D
330
2
100
AcDbEntity
  8
GAIKEI
  6
HIDDEN2
 62
     1
100
AcDbCircle
 10
-26.46860532402718
 20
23.25202761930388
 30
0.0
 40
0.3249999999675
100
AcDbArc
 50
270.0
 51
0.0
  0
ARC
  5
24E
330
2
100
AcDbEntity
  8
GAIKEI
  6
HIDDEN2
 62
     1
100
AcDbCircle
 10
-26.99360532397463
 20
9.989527620630099
 30
0.0
 40
0.8249999999174999
100
AcDbArc
 50
6.931044999999011
 51
173.0264239999989
  0
ARC
  5
24F
330
2
100
AcDbEntity
  8
GAIKEI
  6
HIDDEN2
 62
     1
100
AcDbCircle
 10
-26.99360532397463
 20
9.639527620665091
 30
0.0
 40
0.8249999999174999
100
AcDbArc
 50
180.0
 51
235.2659900000013
  0
LINE
  5
250
330
2
100
AcDbEntity
  8
GAIKEI
  6
HIDDEN2
 62
     1
100
AcDbLine
 10
-27.81860532389203
 20
9.639527620665091
 30
0.0
 11
-27.81860532389203
 21
9.889439620640075
 31
0.0
  0
ARC
  5
251
330
2
100
AcDbEntity
  8
GAIKEI
  6
HIDDEN2
 62
     1
100
AcDbCircle
 10
-27.818347323892
 20
9.989527620630099
 30
0.0
 40
0.1002582499899742
100
AcDbArc
 50
86.66036600000108
 51
269.8524600000009
  0
ARC
  5
252
330
2
100
AcDbEntity
  8
GAIKEI
  6
HIDDEN2
 62
     1
100
AcDbCircle
 10
-26.99360532397463
 20
9.639527620665091
 30
0.0
 40
0.8249999999174999
100
AcDbArc
 50
304.7340099999987
 51
0.0
  0
ARC
  5
253
330
2
100
AcDbEntity
  8
GAIKEI
  6
HIDDEN2
 62
     1
100
AcDbCircle
 10
-26.38110532403596
 20
8.756086370753507
 30
0.0
 40
0.249999999975
100
AcDbArc
 50
124.7340099999987
 51
180.0
  0
LINE
  5
254
330
2
100
AcDbEntity
  8
GAIKEI
  6
HIDDEN2
 62
     1
100
AcDbLine
 10
-26.16860532405713
 20
9.639527620665091
 30
0.0
 11
-26.16860532405713
 21
9.889269870640134
 31
0.0
  0
ARC
  5
255
330
2
100
AcDbEntity
  8
GAIKEI
  6
HIDDEN2
 62
     1
100
AcDbCircle
 10
-27.60610532391343
 20
8.756086370753507
 30
0.0
 40
0.249999999975
100
AcDbArc
 50
0.0
 51
55.26599000000127
  0
ARC
  5
256
330
2
100
AcDbEntity
  8
GAIKEI
  6
HIDDEN2
 62
     1
100
AcDbCircle
 10
-26.16886357405701
 20
9.989527620630099
 30
0.0
 40
0.1002582499899742
100
AcDbArc
 50
270.1475399999991
 51
93.33963399999893
  0
LINE
  5
257
330
2
100
AcDbEntity
  8
GAIKEI
  6
HIDDEN2
 62
     1
100
AcDbLine
 10
-11.49360532552452
 20
27.41452761888763
 30
0.0
 11
-24.83110532419096
 21
27.41452761888763
 31
0.0
  0
LINE
  5
258
330
2
100
AcDbEntity
  8
GAIKEI
  6
HIDDEN2
 62
     1
100
AcDbLine
 10
8.881394672437863
 20
28.8145276187476
 30
0.0
 11
-29.86860532368712
 21
28.8145276187476
 31
0.0
  0
LINE
  5
259
330
2
100
AcDbEntity
  8
GAIKEI
  6
HIDDEN2
 62
     1
100
AcDbLine
 10
8.881394672437863
 20
28.71452761875758
 30
0.0
 11
-29.86860532368712
 21
28.71452761875758
 31
0.0
  0
LINE
  5
25A
330
2
100
AcDbEntity
  8
GAIKEI
  6
HIDDEN2
 62
     1
100
AcDbLine
 10
8.131394672512897
 20
28.41452761878765
 30
0.0
 11
-29.11860532376215
 21
28.41452761878765
 31
0.0
  0
LINE
  5
25B
330
2
100
AcDbEntity
  8
GAIKEI
  6
HIDDEN2
 62
     1
100
AcDbLine
 10
5.006394672825422
 20
26.16452761901263
 30
0.0
 11
-25.99360532407445
 21
26.16452761901263
 31
0.0
  0
LINE
  5
25C
330
2
100
AcDbEntity
  8
GAIKEI
  6
HIDDEN2
 62
     1
100
AcDbLine
 10
-29.86860532368712
 20
26.06452761902261
 30
0.0
 11
8.881394672437863
 21
26.06452761902261
 31
0.0
  0
LINE
  5
25D
330
2
100
AcDbEntity
  8
GAIKEI
  6
HIDDEN2
 62
     1
100
AcDbLine
 10
-22.99360532437459
 20
27.73952761885511
 30
0.0
 11
-17.99360532487458
 21
27.73952761885511
 31
0.0
  0
LINE
  5
25E
330
2
100
AcDbEntity
  8
GAIKEI
  6
HIDDEN2
 62
     1
100
AcDbLine
 10
-22.99360532437459
 20
28.08952761882011
 30
0.0
 11
-17.99360532487458
 21
28.08952761882011
 31
0.0
  0
ARC
  5
25F
330
2
100
AcDbEntity
  8
GAIKEI
  6
HIDDEN2
 62
     1
100
AcDbCircle
 10
8.131394672512897
 20
3.914527621237709
 30
0.0
 40
0.49999999995
100
AcDbArc
 50
270.0
 51
90.0
  0
LINE
  5
260
330
2
100
AcDbEntity
  8
GAIKEI
  6
HIDDEN2
 62
     1
100
AcDbLine
 10
8.881394672437863
 20
5.764527621052536
 30
0.0
 11
8.881394672437863
 21
3.014527621327545
 31
0.0
  0
LINE
  5
261
330
2
100
AcDbEntity
  8
GAIKEI
  6
HIDDEN2
 62
     1
100
AcDbLine
 10
6.856394672640362
 20
7.252027620903902
 30
0.0
 11
6.856394672640362
 21
7.32702762089633
 31
0.0
  0
ARC
  5
262
330
2
100
AcDbEntity
  8
GAIKEI
  6
HIDDEN2
 62
     1
100
AcDbCircle
 10
6.531394672672945
 20
7.314527620897649
 30
0.0
 40
0.3249999999675
100
AcDbArc
 50
2.202597999999964
 51
90.0
  0
LINE
  5
263
330
2
100
AcDbEntity
  8
GAIKEI
  6
HIDDEN2
 62
     1
100
AcDbLine
 10
7.531394672572901
 20
5.789527621050183
 30
0.0
 11
7.531394672572901
 21
5.989527621030163
 31
0.0
  0
LINE
  5
264
330
2
100
AcDbEntity
  8
GAIKEI
  6
HIDDEN2
 62
     1
100
AcDbLine
 10
7.631394672562919
 20
5.989527621030163
 30
0.0
 11
7.506394672575538
 21
5.989527621030163
 31
0.0
  0
LINE
  5
265
330
2
100
AcDbEntity
  8
GAIKEI
  6
HIDDEN2
 62
     1
100
AcDbLine
 10
7.531394672572901
 20
5.789527621050183
 30
0.0
 11
7.631394672562919
 21
5.789527621050183
 31
0.0
  0
ARC
  5
266
330
2
100
AcDbEntity
  8
GAIKEI
  6
HIDDEN2
 62
     1
100
AcDbCircle
 10
7.506394672575538
 20
5.889527621040144
 30
0.0
 40
0.09999999999
100
AcDbArc
 50
90.0
 51
180.0
  0
LINE
  5
267
330
2
100
AcDbEntity
  8
GAIKEI
  6
HIDDEN2
 62
     1
100
AcDbLine
 10
7.40639467258552
 20
5.889527621040144
 30
0.0
 11
7.40639467258552
 21
5.789527621050183
 31
0.0
  0
LINE
  5
268
330
2
100
AcDbEntity
  8
GAIKEI
  6
HIDDEN2
 62
     1
100
AcDbLine
 10
7.40639467258552
 20
5.889527621040144
 30
0.0
 11
7.506394672575538
 21
5.889527621040144
 31
0.0
  0
LINE
  5
269
330
2
100
AcDbEntity
  8
GAIKEI
  6
HIDDEN2
 62
     1
100
AcDbLine
 10
7.006394672625447
 20
5.764527621052536
 30
0.0
 11
7.006394672625447
 21
5.664527621062632
 31
0.0
  0
LINE
  5
26A
330
2
100
AcDbEntity
  8
GAIKEI
  6
HIDDEN2
 62
     1
100
AcDbLine
 10
7.506394672575538
 20
5.764527621052536
 30
0.0
 11
7.506394672575538
 21
5.889527621040144
 31
0.0
  0
LINE
  5
26B
330
2
100
AcDbEntity
  8
GAIKEI
  6
HIDDEN2
 62
     1
100
AcDbLine
 10
7.006394672625447
 20
5.664527621062632
 30
0.0
 11
8.881394672437863
 21
5.664527621062632
 31
0.0
  0
LINE
  5
26C
330
2
100
AcDbEntity
  8
GAIKEI
  6
HIDDEN2
 62
     1
100
AcDbLine
 10
7.511394672574851
 20
4.749527621154072
 30
0.0
 11
7.511394672574851
 21
4.899527621139043
 31
0.0
  0
LINE
  5
26D
330
2
100
AcDbEntity
  8
GAIKEI
  6
HIDDEN2
 62
     1
100
AcDbLine
 10
7.506394672575538
 20
4.78952762115017
 30
0.0
 11
7.506394672575538
 21
4.899527621139043
 31
0.0
  0
ARC
  5
26E
330
2
100
AcDbEntity
  8
GAIKEI
  6
HIDDEN2
 62
     1
100
AcDbCircle
 10
8.168894672509054
 20
4.913445121137726
 30
0.0
 40
0.49999999995
100
AcDbArc
 50
180.0
 51
265.6987780000007
  0
LINE
  5
26F
330
2
100
AcDbEntity
  8
GAIKEI
  6
HIDDEN2
 62
     1
100
AcDbLine
 10
7.66889467255919
 20
5.664527621062632
 30
0.0
 11
7.66889467255919
 21
4.913445121137726
 31
0.0
  0
LINE
  5
270
330
2
100
AcDbEntity
  8
GAIKEI
  6
HIDDEN2
 62
     1
100
AcDbLine
 10
6.751394672650917
 20
4.749527621154072
 30
0.0
 11
6.751394672650917
 21
4.899527621139043
 31
0.0
  0
LINE
  5
271
330
2
100
AcDbEntity
  8
GAIKEI
  6
HIDDEN2
 62
     1
100
AcDbLine
 10
6.756394672650344
 20
4.78952762115017
 30
0.0
 11
6.756394672650344
 21
4.899527621139043
 31
0.0
  0
LINE
  5
272
330
2
100
AcDbEntity
  8
GAIKEI
  6
HIDDEN2
 62
     1
100
AcDbLine
 10
7.511394672574851
 20
4.749527621154072
 30
0.0
 11
6.751394672650917
 21
4.749527621154072
 31
0.0
  0
LINE
  5
273
330
2
100
AcDbEntity
  8
GAIKEI
  6
HIDDEN2
 62
     1
100
AcDbLine
 10
7.511394672574851
 20
4.899527621139043
 30
0.0
 11
6.751394672650917
 21
4.899527621139043
 31
0.0
  0
LINE
  5
274
330
2
100
AcDbEntity
  8
GAIKEI
  6
HIDDEN2
 62
     1
100
AcDbLine
 10
6.756394672650344
 20
4.78952762115017
 30
0.0
 11
7.506394672575538
 21
4.78952762115017
 31
0.0
  0
LINE
  5
275
330
2
100
AcDbEntity
  8
GAIKEI
  6
HIDDEN2
 62
     1
100
AcDbLine
 10
6.756394672650344
 20
4.889527621140075
 30
0.0
 11
7.506394672575538
 21
4.889527621140075
 31
0.0
  0
ARC
  5
276
330
2
100
AcDbEntity
  8
GAIKEI
  6
HIDDEN2
 62
     1
100
AcDbCircle
 10
8.131394672512897
 20
3.914527621237709
 30
0.0
 40
0.1749999999825
100
AcDbArc
 50
270.0
 51
90.0
  0
ARC
  5
277
330
2
100
AcDbEntity
  8
GAIKEI
  6
HIDDEN2
 62
     1
100
AcDbCircle
 10
6.531394672672945
 20
7.264527620902583
 30
0.0
 40
0.3249999999675
100
AcDbArc
 50
270.0
 51
357.797402
  0
ARC
  5
278
330
2
100
AcDbEntity
  8
GAIKEI
  6
HIDDEN2
 62
     1
100
AcDbCircle
 10
3.843894672941587
 20
4.914527621137665
 30
0.0
 40
0.49999999995
100
AcDbArc
 50
270.0
 51
0.0
  0
ARC
  5
279
330
2
100
AcDbEntity
  8
GAIKEI
  6
HIDDEN2
 62
     1
100
AcDbCircle
 10
2.006394673125328
 20
3.914527621237709
 30
0.0
 40
0.1749999999825
100
AcDbArc
 50
270.0
 51
90.0
  0
LINE
  5
27A
330
2
100
AcDbEntity
  8
GAIKEI
  6
HIDDEN2
 62
     1
100
AcDbLine
 10
5.96889467272922
 20
8.214527620807587
 30
0.0
 11
6.043894672721648
 21
8.214527620807587
 31
0.0
  0
ARC
  5
27B
330
2
100
AcDbEntity
  8
GAIKEI
  6
HIDDEN2
 62
     1
100
AcDbCircle
 10
6.199915922706054
 20
7.889527620840055
 30
0.0
 40
0.249999999975
100
AcDbArc
 50
217.979872
 51
270.0
  0
ARC
  5
27C
330
2
100
AcDbEntity
  8
GAIKEI
  6
HIDDEN2
 62
     1
100
AcDbCircle
 10
5.431394672782857
 20
8.014269620827747
 30
0.0
 40
0.1002582499899742
100
AcDbArc
 50
355.8873210000003
 51
184.1126789999997
  0
ARC
  5
27D
330
2
100
AcDbEntity
  8
GAIKEI
  6
HIDDEN2
 62
     1
100
AcDbCircle
 10
5.431394672782857
 20
7.289527620900173
 30
0.0
 40
0.7249999999274999
100
AcDbArc
 50
37.97987200000007
 51
82.06901600000044
  0
ARC
  5
27E
330
2
100
AcDbEntity
  8
GAIKEI
  6
HIDDEN2
 62
     1
100
AcDbCircle
 10
5.96889467272922
 20
8.539527620775174
 30
0.0
 40
0.3249999999675
100
AcDbArc
 50
180.0
 51
270.0
  0
ARC
  5
27F
330
2
100
AcDbEntity
  8
GAIKEI
  6
HIDDEN2
 62
     1
100
AcDbCircle
 10
6.043894672721648
 20
8.539527620775174
 30
0.0
 40
0.3249999999675
100
AcDbArc
 50
270.0
 51
0.0
  0
ARC
  5
280
330
2
100
AcDbEntity
  8
GAIKEI
  6
HIDDEN2
 62
     1
100
AcDbCircle
 10
6.199915922706054
 20
6.689527620960063
 30
0.0
 40
0.249999999975
100
AcDbArc
 50
90.0
 51
142.0201279999999
  0
LINE
  5
281
330
2
100
AcDbEntity
  8
GAIKEI
  6
HIDDEN2
 62
     1
100
AcDbLine
 10
5.006394672825422
 20
5.764527621052536
 30
0.0
 11
5.006394672825422
 21
5.664527621062632
 31
0.0
  0
POINT
  5
282
330
2
100
AcDbEntity
  8
GAIKEI
  6
HIDDEN2
 62
     1
100
AcDbPoint
 10
5.281394672797887
 20
6.927027620936371
 30
0.0
  0
ARC
  5
283
330
2
100
AcDbEntity
  8
GAIKEI
  6
HIDDEN2
 62
     1
100
AcDbCircle
 10
5.431394672782857
 20
6.564785870972571
 30
0.0
 40
0.1002582499899742
100
AcDbArc
 50
175.8873210000003
 51
4.11267899999968
  0
ARC
  5
284
330
2
100
AcDbEntity
  8
GAIKEI
  6
HIDDEN2
 62
     1
100
AcDbCircle
 10
5.431394672782857
 20
7.289527620900173
 30
0.0
 40
0.7249999999274999
100
AcDbArc
 50
277.9309839999996
 51
322.0201279999999
  0
LINE
  5
285
330
2
100
AcDbEntity
  8
GAIKEI
  6
HIDDEN2
 62
     1
100
AcDbLine
 10
5.261394672799724
 20
4.749527621154072
 30
0.0
 11
5.261394672799724
 21
4.899527621139043
 31
0.0
  0
LINE
  5
286
330
2
100
AcDbEntity
  8
GAIKEI
  6
HIDDEN2
 62
     1
100
AcDbLine
 10
5.256394672800411
 20
4.78952762115017
 30
0.0
 11
5.256394672800411
 21
4.899527621139043
 31
0.0
  0
ARC
  5
287
330
2
100
AcDbEntity
  8
GAIKEI
  6
HIDDEN2
 62
     1
100
AcDbCircle
 10
6.006394672725377
 20
3.914527621237709
 30
0.0
 40
0.1749999999825
100
AcDbArc
 50
90.0
 51
270.0
  0
ARC
  5
288
330
2
100
AcDbEntity
  8
GAIKEI
  6
HIDDEN2
 62
     1
100
AcDbCircle
 10
4.752858422850863
 20
7.544163370874628
 30
0.0
 40
0.1002582499899742
100
AcDbArc
 50
65.61198600000039
 51
253.2485960000011
  0
ARC
  5
289
330
2
100
AcDbEntity
  8
GAIKEI
  6
HIDDEN2
 62
     1
100
AcDbCircle
 10
5.431394672782857
 20
7.289527620900173
 30
0.0
 40
0.7249999999274999
100
AcDbArc
 50
167.3612749999998
 51
192.6387249999972
  0
LINE
  5
28A
330
2
100
AcDbEntity
  8
GAIKEI
  6
HIDDEN2
 62
     1
100
AcDbLine
 10
4.481394672877854
 20
5.789527621050183
 30
0.0
 11
4.481394672877854
 21
5.989527621030163
 31
0.0
  0
LINE
  5
28B
330
2
100
AcDbEntity
  8
GAIKEI
  6
HIDDEN2
 62
     1
100
AcDbLine
 10
4.381394672887836
 20
5.989527621030163
 30
0.0
 11
4.506394672875444
 21
5.989527621030163
 31
0.0
  0
LINE
  5
28C
330
2
100
AcDbEntity
  8
GAIKEI
  6
HIDDEN2
 62
     1
100
AcDbLine
 10
4.481394672877854
 20
5.789527621050183
 30
0.0
 11
4.381394672887836
 21
5.789527621050183
 31
0.0
  0
ARC
  5
28D
330
2
100
AcDbEntity
  8
GAIKEI
  6
HIDDEN2
 62
     1
100
AcDbCircle
 10
4.506394672875444
 20
5.889527621040144
 30
0.0
 40
0.09999999999
100
AcDbArc
 50
0.0
 51
90.0
  0
LINE
  5
28E
330
2
100
AcDbEntity
  8
GAIKEI
  6
HIDDEN2
 62
     1
100
AcDbLine
 10
4.606394672865349
 20
5.889527621040144
 30
0.0
 11
4.606394672865349
 21
5.789527621050183
 31
0.0
  0
LINE
  5
28F
330
2
100
AcDbEntity
  8
GAIKEI
  6
HIDDEN2
 62
     1
100
AcDbLine
 10
4.606394672865349
 20
5.889527621040144
 30
0.0
 11
4.506394672875444
 21
5.889527621040144
 31
0.0
  0
LINE
  5
290
330
2
100
AcDbEntity
  8
GAIKEI
  6
HIDDEN2
 62
     1
100
AcDbLine
 10
4.506394672875444
 20
5.764527621052536
 30
0.0
 11
4.506394672875444
 21
5.889527621040144
 31
0.0
  0
LINE
  5
291
330
2
100
AcDbEntity
  8
GAIKEI
  6
HIDDEN2
 62
     1
100
AcDbLine
 10
4.50139467287579
 20
4.749527621154072
 30
0.0
 11
4.50139467287579
 21
4.899527621139043
 31
0.0
  0
LINE
  5
292
330
2
100
AcDbEntity
  8
GAIKEI
  6
HIDDEN2
 62
     1
100
AcDbLine
 10
4.506394672875444
 20
4.78952762115017
 30
0.0
 11
4.506394672875444
 21
4.899527621139043
 31
0.0
  0
LINE
  5
293
330
2
100
AcDbEntity
  8
GAIKEI
  6
HIDDEN2
 62
     1
100
AcDbLine
 10
4.343894672891678
 20
5.664527621062632
 30
0.0
 11
4.343894672891678
 21
4.914527621137665
 31
0.0
  0
ARC
  5
294
330
2
100
AcDbEntity
  8
GAIKEI
  6
HIDDEN2
 62
     1
100
AcDbCircle
 10
4.752858422850863
 20
7.034892120925576
 30
0.0
 40
0.1002582499899742
100
AcDbArc
 50
106.7514039999989
 51
294.6823879999999
  0
LINE
  5
295
330
2
100
AcDbEntity
  8
GAIKEI
  6
HIDDEN2
 62
     1
100
AcDbLine
 10
4.50139467287579
 20
4.749527621154072
 30
0.0
 11
5.261394672799724
 21
4.749527621154072
 31
0.0
  0
LINE
  5
296
330
2
100
AcDbEntity
  8
GAIKEI
  6
HIDDEN2
 62
     1
100
AcDbLine
 10
4.50139467287579
 20
4.899527621139043
 30
0.0
 11
5.261394672799724
 21
4.899527621139043
 31
0.0
  0
LINE
  5
297
330
2
100
AcDbEntity
  8
GAIKEI
  6
HIDDEN2
 62
     1
100
AcDbLine
 10
4.506394672875444
 20
4.78952762115017
 30
0.0
 11
5.256394672800411
 21
4.78952762115017
 31
0.0
  0
LINE
  5
298
330
2
100
AcDbEntity
  8
GAIKEI
  6
HIDDEN2
 62
     1
100
AcDbLine
 10
4.506394672875444
 20
4.889527621140075
 30
0.0
 11
5.256394672800411
 21
4.889527621140075
 31
0.0
  0
ARC
  5
299
330
2
100
AcDbEntity
  8
GAIKEI
  6
HIDDEN2
 62
     1
100
AcDbCircle
 10
5.431394672782857
 20
7.289527620900173
 30
0.0
 40
0.7249999999274999
100
AcDbArc
 50
97.93380099999502
 51
151.4993070000004
  0
ARC
  5
29A
330
2
100
AcDbEntity
  8
GAIKEI
  6
HIDDEN2
 62
     1
100
AcDbCircle
 10
5.431394672782857
 20
7.289527620900173
 30
0.0
 40
0.7249999999274999
100
AcDbArc
 50
208.5035099999991
 51
262.0661989999984
  0
LINE
  5
29B
330
2
100
AcDbEntity
  8
GAIKEI
  6
HIDDEN2
 62
     1
100
AcDbLine
 10
6.531394672672945
 20
7.639527620865067
 30
0.0
 11
6.199915922706054
 21
7.639527620865067
 31
0.0
  0
LINE
  5
29C
330
2
100
AcDbEntity
  8
GAIKEI
  6
HIDDEN2
 62
     1
100
AcDbLine
 10
6.531394672672945
 20
6.939527620935166
 30
0.0
 11
6.199915922706054
 21
6.939527620935166
 31
0.0
  0
LINE
  5
29D
330
2
100
AcDbEntity
  8
GAIKEI
  6
HIDDEN2
 62
     1
100
AcDbLine
 10
8.131394672512897
 20
4.089527621220156
 30
0.0
 11
6.006394672725377
 21
4.089527621220156
 31
0.0
  0
LINE
  5
29E
330
2
100
AcDbEntity
  8
GAIKEI
  6
HIDDEN2
 62
     1
100
AcDbLine
 10
8.131394672512897
 20
3.739527621255035
 30
0.0
 11
6.006394672725377
 21
3.739527621255035
 31
0.0
  0
LINE
  5
29F
330
2
100
AcDbEntity
  8
GAIKEI
  6
HIDDEN2
 62
     1
100
AcDbLine
 10
7.506394672575538
 20
5.789527621050183
 30
0.0
 11
4.506394672875444
 21
5.789527621050183
 31
0.0
  0
ARC
  5
2A0
330
2
100
AcDbEntity
  8
GAIKEI
  6
HIDDEN2
 62
     1
100
AcDbCircle
 10
-2.993605326374563
 20
3.914527621237709
 30
0.0
 40
0.1749999999825
100
AcDbArc
 50
90.0
 51
270.0
  0
ARC
  5
2A1
330
2
100
AcDbEntity
  8
GAIKEI
  6
HIDDEN2
 62
     1
100
AcDbCircle
 10
-7.993605325874568
 20
3.914527621237709
 30
0.0
 40
0.1749999999825
100
AcDbArc
 50
270.0
 51
90.0
  0
LINE
  5
2A2
330
2
100
AcDbEntity
  8
GAIKEI
  6
HIDDEN2
 62
     1
100
AcDbLine
 10
-11.24360532554954
 20
4.089527621220156
 30
0.0
 11
-12.99360532537446
 21
4.089527621220156
 31
0.0
  0
LINE
  5
2A3
330
2
100
AcDbEntity
  8
GAIKEI
  6
HIDDEN2
 62
     1
100
AcDbLine
 10
-11.24360532554954
 20
3.739527621255035
 30
0.0
 11
-12.99360532537446
 21
3.739527621255035
 31
0.0
  0
ARC
  5
2A4
330
2
100
AcDbEntity
  8
GAIKEI
  6
HIDDEN2
 62
     1
100
AcDbCircle
 10
-12.99360532537446
 20
3.914527621237709
 30
0.0
 40
0.1749999999825
100
AcDbArc
 50
90.0
 51
270.0
  0
LINE
  5
2A5
330
2
100
AcDbEntity
  8
GAIKEI
  6
HIDDEN2
 62
     1
100
AcDbLine
 10
-10.31860532564212
 20
4.914527621137665
 30
0.0
 11
-10.31860532564212
 21
4.726937621156423
 31
0.0
  0
ARC
  5
2A6
330
2
100
AcDbEntity
  8
GAIKEI
  6
HIDDEN2
 62
     1
100
AcDbCircle
 10
-9.493605325724502
 20
4.914527621137665
 30
0.0
 40
0.49999999995
100
AcDbArc
 50
180.0
 51
270.0
  0
ARC
  5
2A7
330
2
100
AcDbEntity
  8
GAIKEI
  6
HIDDEN2
 62
     1
100
AcDbCircle
 10
-10.49360532562457
 20
4.414527621187573
 30
0.0
 40
0.3349999999665
100
AcDbArc
 50
305.7617140000051
 51
54.23828599999494
  0
ARC
  5
2A8
330
2
100
AcDbEntity
  8
GAIKEI
  6
HIDDEN2
 62
     1
100
AcDbCircle
 10
-10.26860532564706
 20
4.726937621156423
 30
0.0
 40
0.049999999995
100
AcDbArc
 50
180.0
 51
234.2382859999949
  0
LINE
  5
2A9
330
2
100
AcDbEntity
  8
GAIKEI
  6
HIDDEN2
 62
     1
100
AcDbLine
 10
-10.66860532560713
 20
4.914527621137665
 30
0.0
 11
-10.66860532560713
 21
4.726937621156423
 31
0.0
  0
ARC
  5
2AA
330
2
100
AcDbEntity
  8
GAIKEI
  6
HIDDEN2
 62
     1
100
AcDbCircle
 10
-11.49360532552452
 20
4.914527621137665
 30
0.0
 40
0.49999999995
100
AcDbArc
 50
270.0
 51
0.0
  0
ARC
  5
2AB
330
2
100
AcDbEntity
  8
GAIKEI
  6
HIDDEN2
 62
     1
100
AcDbCircle
 10
-10.49360532562457
 20
4.414527621187573
 30
0.0
 40
0.3349999999665
100
AcDbArc
 50
125.761714000005
 51
234.2382859999949
  0
ARC
  5
2AC
330
2
100
AcDbEntity
  8
GAIKEI
  6
HIDDEN2
 62
     1
100
AcDbCircle
 10
-10.71860532560197
 20
4.726937621156423
 30
0.0
 40
0.049999999995
100
AcDbArc
 50
305.7617140000051
 51
0.0
  0
ARC
  5
2AD
330
2
100
AcDbEntity
  8
GAIKEI
  6
HIDDEN2
 62
     1
100
AcDbCircle
 10
-10.49360532562457
 20
4.914527621137665
 30
0.0
 40
0.49999999995
100
AcDbArc
 50
0.0
 51
180.0
  0
ARC
  5
2AE
330
2
100
AcDbEntity
  8
GAIKEI
  6
HIDDEN2
 62
     1
100
AcDbCircle
 10
-10.49360532562457
 20
4.914527621137665
 30
0.0
 40
0.1749999999825
100
AcDbArc
 50
0.0
 51
180.0
  0
ARC
  5
2AF
330
2
100
AcDbEntity
  8
GAIKEI
  6
HIDDEN2
 62
     1
100
AcDbCircle
 10
-9.743605325699604
 20
3.914527621237709
 30
0.0
 40
0.1749999999825
100
AcDbArc
 50
90.0
 51
270.0
  0
LINE
  5
2B0
330
2
100
AcDbEntity
  8
GAIKEI
  6
HIDDEN2
 62
     1
100
AcDbLine
 10
-10.31860532564212
 20
4.102117621218837
 30
0.0
 11
-10.31860532564212
 21
3.914527621237709
 31
0.0
  0
ARC
  5
2B1
330
2
100
AcDbEntity
  8
GAIKEI
  6
HIDDEN2
 62
     1
100
AcDbCircle
 10
-11.24360532554954
 20
3.914527621237709
 30
0.0
 40
0.1749999999825
100
AcDbArc
 50
270.0
 51
90.0
  0
LINE
  5
2B2
330
2
100
AcDbEntity
  8
GAIKEI
  6
HIDDEN2
 62
     1
100
AcDbLine
 10
-10.66860532560713
 20
4.102117621218837
 30
0.0
 11
-10.66860532560713
 21
3.914527621237709
 31
0.0
  0
ARC
  5
2B3
330
2
100
AcDbEntity
  8
GAIKEI
  6
HIDDEN2
 62
     1
100
AcDbCircle
 10
-10.49360532562457
 20
3.914527621237709
 30
0.0
 40
0.1749999999825
100
AcDbArc
 50
180.0
 51
0.0
  0
ARC
  5
2B4
330
2
100
AcDbEntity
  8
GAIKEI
  6
HIDDEN2
 62
     1
100
AcDbCircle
 10
-10.71860532560197
 20
4.102117621218837
 30
0.0
 40
0.049999999995
100
AcDbArc
 50
0.0
 51
54.23828599999494
  0
ARC
  5
2B5
330
2
100
AcDbEntity
  8
GAIKEI
  6
HIDDEN2
 62
     1
100
AcDbCircle
 10
-10.26860532564706
 20
4.102117621218837
 30
0.0
 40
0.049999999995
100
AcDbArc
 50
125.761714000005
 51
180.0
  0
ARC
  5
2B6
330
2
100
AcDbEntity
  8
GAIKEI
  6
HIDDEN2
 62
     1
100
AcDbCircle
 10
-17.99360532487458
 20
3.914527621237709
 30
0.0
 40
0.1749999999825
100
AcDbArc
 50
270.0
 51
90.0
  0
LINE
  5
2B7
330
2
100
AcDbEntity
  8
GAIKEI
  6
HIDDEN2
 62
     1
100
AcDbLine
 10
-9.743605325699604
 20
4.089527621220156
 30
0.0
 11
-7.993605325874568
 21
4.089527621220156
 31
0.0
  0
LINE
  5
2B8
330
2
100
AcDbEntity
  8
GAIKEI
  6
HIDDEN2
 62
     1
100
AcDbLine
 10
-9.743605325699604
 20
3.739527621255035
 30
0.0
 11
-7.993605325874568
 21
3.739527621255035
 31
0.0
  0
LINE
  5
2B9
330
2
100
AcDbEntity
  8
GAIKEI
  6
HIDDEN2
 62
     1
100
AcDbLine
 10
-9.493605325724502
 20
4.414527621187573
 30
0.0
 11
3.843894672941587
 21
4.414527621187573
 31
0.0
  0
LINE
  5
2BA
330
2
100
AcDbEntity
  8
GAIKEI
  6
HIDDEN2
 62
     1
100
AcDbLine
 10
2.006394673125328
 20
4.089527621220156
 30
0.0
 11
-2.993605326374563
 21
4.089527621220156
 31
0.0
  0
LINE
  5
2BB
330
2
100
AcDbEntity
  8
GAIKEI
  6
HIDDEN2
 62
     1
100
AcDbLine
 10
2.006394673125328
 20
3.739527621255035
 30
0.0
 11
-2.993605326374563
 21
3.739527621255035
 31
0.0
  0
ARC
  5
2BC
330
2
100
AcDbEntity
  8
GAIKEI
  6
HIDDEN2
 62
     1
100
AcDbCircle
 10
-22.99360532437459
 20
3.914527621237709
 30
0.0
 40
0.1749999999825
100
AcDbArc
 50
90.0
 51
270.0
  0
LINE
  5
2BD
330
2
100
AcDbEntity
  8
GAIKEI
  6
HIDDEN2
 62
     1
100
AcDbLine
 10
-26.46860532402718
 20
7.652027620863862
 30
0.0
 11
-27.58997982391486
 21
7.652027620863862
 31
0.0
  0
LINE
  5
2BE
330
2
100
AcDbEntity
  8
GAIKEI
  6
HIDDEN2
 62
     1
100
AcDbLine
 10
-26.46860532402718
 20
6.927027620936371
 30
0.0
 11
-27.58997982391486
 21
6.927027620936371
 31
0.0
  0
LINE
  5
2BF
330
2
100
AcDbEntity
  8
GAIKEI
  6
HIDDEN2
 62
     1
100
AcDbLine
 10
-29.11860532376215
 20
4.089527621220156
 30
0.0
 11
-26.99360532397463
 21
4.089527621220156
 31
0.0
  0
LINE
  5
2C0
330
2
100
AcDbEntity
  8
GAIKEI
  6
HIDDEN2
 62
     1
100
AcDbLine
 10
-29.11860532376215
 20
3.739527621255035
 30
0.0
 11
-26.99360532397463
 21
3.739527621255035
 31
0.0
  0
LINE
  5
2C1
330
2
100
AcDbEntity
  8
GAIKEI
  6
HIDDEN2
 62
     1
100
AcDbLine
 10
-28.49360532382457
 20
5.789527621050183
 30
0.0
 11
-25.49360532412459
 21
5.789527621050183
 31
0.0
  0
ARC
  5
2C2
330
2
100
AcDbEntity
  8
GAIKEI
  6
HIDDEN2
 62
     1
100
AcDbCircle
 10
-29.11860532376215
 20
3.914527621237709
 30
0.0
 40
0.49999999995
100
AcDbArc
 50
90.0
 51
270.0
  0
LINE
  5
2C3
330
2
100
AcDbEntity
  8
GAIKEI
  6
HIDDEN2
 62
     1
100
AcDbLine
 10
-29.86860532368712
 20
5.764527621052536
 30
0.0
 11
-29.86860532368712
 21
3.014527621327545
 31
0.0
  0
POINT
  5
2C4
330
2
100
AcDbEntity
  8
GAIKEI
  6
HIDDEN2
 62
     1
100
AcDbPoint
 10
-27.81860532389203
 20
7.652027620863862
 30
0.0
  0
LINE
  5
2C5
330
2
100
AcDbEntity
  8
GAIKEI
  6
HIDDEN2
 62
     1
100
AcDbLine
 10
-28.61860532381206
 20
8.114527620817568
 30
0.0
 11
-28.33291832384077
 21
8.114527620817568
 31
0.0
  0
LINE
  5
2C6
330
2
100
AcDbEntity
  8
GAIKEI
  6
HIDDEN2
 62
     1
100
AcDbLine
 10
-27.96816132387721
 20
7.824951620846547
 30
0.0
 11
-28.14382757385954
 21
8.028065620826225
 31
0.0
  0
POINT
  5
2C7
330
2
100
AcDbEntity
  8
GAIKEI
  6
HIDDEN2
 62
     1
100
AcDbPoint
 10
-28.2186053238521
 20
8.114527620817568
 30
0.0
  0
ARC
  5
2C8
330
2
100
AcDbEntity
  8
GAIKEI
  6
HIDDEN2
 62
     1
100
AcDbCircle
 10
-28.33291832384077
 20
7.864527620842579
 30
0.0
 40
0.249999999975
100
AcDbArc
 50
40.85537600000193
 51
90.0
  0
ARC
  5
2C9
330
2
100
AcDbEntity
  8
GAIKEI
  6
HIDDEN2
 62
     1
100
AcDbCircle
 10
-27.58997982391486
 20
8.152027620813839
 30
0.0
 40
0.49999999995
100
AcDbArc
 50
220.8553760000019
 51
270.0
  0
POINT
  5
2CA
330
2
100
AcDbEntity
  8
GAIKEI
  6
HIDDEN2
 62
     1
100
AcDbPoint
 10
-27.81860532389203
 20
6.927027620936371
 30
0.0
  0
LINE
  5
2CB
330
2
100
AcDbEntity
  8
GAIKEI
  6
HIDDEN2
 62
     1
100
AcDbLine
 10
-27.73860532390017
 20
4.749527621154072
 30
0.0
 11
-27.73860532390017
 21
4.899527621139043
 31
0.0
  0
LINE
  5
2CC
330
2
100
AcDbEntity
  8
GAIKEI
  6
HIDDEN2
 62
     1
100
AcDbLine
 10
-27.7436053238996
 20
4.78952762115017
 30
0.0
 11
-27.7436053238996
 21
4.899527621139043
 31
0.0
  0
LINE
  5
2CD
330
2
100
AcDbEntity
  8
GAIKEI
  6
HIDDEN2
 62
     1
100
AcDbLine
 10
-28.51860532382216
 20
5.789527621050183
 30
0.0
 11
-28.51860532382216
 21
5.989527621030163
 31
0.0
  0
LINE
  5
2CE
330
2
100
AcDbEntity
  8
GAIKEI
  6
HIDDEN2
 62
     1
100
AcDbLine
 10
-28.61860532381206
 20
5.989527621030163
 30
0.0
 11
-28.49360532382457
 21
5.989527621030163
 31
0.0
  0
LINE
  5
2CF
330
2
100
AcDbEntity
  8
GAIKEI
  6
HIDDEN2
 62
     1
100
AcDbLine
 10
-28.51860532382216
 20
5.789527621050183
 30
0.0
 11
-28.61860532381206
 21
5.789527621050183
 31
0.0
  0
ARC
  5
2D0
330
2
100
AcDbEntity
  8
GAIKEI
  6
HIDDEN2
 62
     1
100
AcDbCircle
 10
-28.49360532382457
 20
5.889527621040144
 30
0.0
 40
0.09999999999
100
AcDbArc
 50
0.0
 51
90.0
  0
LINE
  5
2D1
330
2
100
AcDbEntity
  8
GAIKEI
  6
HIDDEN2
 62
     1
100
AcDbLine
 10
-28.39360532383455
 20
5.889527621040144
 30
0.0
 11
-28.39360532383455
 21
5.789527621050183
 31
0.0
  0
LINE
  5
2D2
330
2
100
AcDbEntity
  8
GAIKEI
  6
HIDDEN2
 62
     1
100
AcDbLine
 10
-28.39360532383455
 20
5.889527621040144
 30
0.0
 11
-28.49360532382457
 21
5.889527621040144
 31
0.0
  0
LINE
  5
2D3
330
2
100
AcDbEntity
  8
GAIKEI
  6
HIDDEN2
 62
     1
100
AcDbLine
 10
-28.61860532381206
 20
6.464527620982664
 30
0.0
 11
-28.33291832384077
 21
6.464527620982664
 31
0.0
  0
LINE
  5
2D4
330
2
100
AcDbEntity
  8
GAIKEI
  6
HIDDEN2
 62
     1
100
AcDbLine
 10
-27.96816132387721
 20
6.754103620953685
 30
0.0
 11
-28.14382757385954
 21
6.550989620973894
 31
0.0
  0
POINT
  5
2D5
330
2
100
AcDbEntity
  8
GAIKEI
  6
HIDDEN2
 62
     1
100
AcDbPoint
 10
-28.2186053238521
 20
6.464527620982664
 30
0.0
  0
ARC
  5
2D6
330
2
100
AcDbEntity
  8
GAIKEI
  6
HIDDEN2
 62
     1
100
AcDbCircle
 10
-28.33291832384077
 20
6.714527620957596
 30
0.0
 40
0.249999999975
100
AcDbArc
 50
270.0
 51
319.144623999998
  0
LINE
  5
2D7
330
2
100
AcDbEntity
  8
GAIKEI
  6
HIDDEN2
 62
     1
100
AcDbLine
 10
-27.99360532387448
 20
5.764527621052536
 30
0.0
 11
-27.99360532387448
 21
5.664527621062632
 31
0.0
  0
LINE
  5
2D8
330
2
100
AcDbEntity
  8
GAIKEI
  6
HIDDEN2
 62
     1
100
AcDbLine
 10
-28.49360532382457
 20
5.764527621052536
 30
0.0
 11
-28.49360532382457
 21
5.889527621040144
 31
0.0
  0
LINE
  5
2D9
330
2
100
AcDbEntity
  8
GAIKEI
  6
HIDDEN2
 62
     1
100
AcDbLine
 10
-27.99360532387448
 20
5.664527621062632
 30
0.0
 11
-29.86860532368712
 21
5.664527621062632
 31
0.0
  0
LINE
  5
2DA
330
2
100
AcDbEntity
  8
GAIKEI
  6
HIDDEN2
 62
     1
100
AcDbLine
 10
-28.49860532382422
 20
4.749527621154072
 30
0.0
 11
-28.49860532382422
 21
4.899527621139043
 31
0.0
  0
LINE
  5
2DB
330
2
100
AcDbEntity
  8
GAIKEI
  6
HIDDEN2
 62
     1
100
AcDbLine
 10
-28.49360532382457
 20
4.78952762115017
 30
0.0
 11
-28.49360532382457
 21
4.899527621139043
 31
0.0
  0
ARC
  5
2DC
330
2
100
AcDbEntity
  8
GAIKEI
  6
HIDDEN2
 62
     1
100
AcDbCircle
 10
-29.15610532375831
 20
4.913445121137726
 30
0.0
 40
0.49999999995
100
AcDbArc
 50
274.3012219999993
 51
0.0
  0
LINE
  5
2DD
330
2
100
AcDbEntity
  8
GAIKEI
  6
HIDDEN2
 62
     1
100
AcDbLine
 10
-28.65610532380822
 20
5.664527621062632
 30
0.0
 11
-28.65610532380822
 21
4.913445121137726
 31
0.0
  0
ARC
  5
2DE
330
2
100
AcDbEntity
  8
GAIKEI
  6
HIDDEN2
 62
     1
100
AcDbCircle
 10
-29.11860532376215
 20
3.914527621237709
 30
0.0
 40
0.1749999999825
100
AcDbArc
 50
90.0
 51
270.0
  0
LINE
  5
2DF
330
2
100
AcDbEntity
  8
GAIKEI
  6
HIDDEN2
 62
     1
100
AcDbLine
 10
-28.49860532382422
 20
4.749527621154072
 30
0.0
 11
-27.73860532390017
 21
4.749527621154072
 31
0.0
  0
LINE
  5
2E0
330
2
100
AcDbEntity
  8
GAIKEI
  6
HIDDEN2
 62
     1
100
AcDbLine
 10
-28.49860532382422
 20
4.899527621139043
 30
0.0
 11
-27.73860532390017
 21
4.899527621139043
 31
0.0
  0
LINE
  5
2E1
330
2
100
AcDbEntity
  8
GAIKEI
  6
HIDDEN2
 62
     1
100
AcDbLine
 10
-27.7436053238996
 20
4.78952762115017
 30
0.0
 11
-28.49360532382457
 21
4.78952762115017
 31
0.0
  0
LINE
  5
2E2
330
2
100
AcDbEntity
  8
GAIKEI
  6
HIDDEN2
 62
     1
100
AcDbLine
 10
-27.7436053238996
 20
4.889527621140075
 30
0.0
 11
-28.49360532382457
 21
4.889527621140075
 31
0.0
  0
ARC
  5
2E3
330
2
100
AcDbEntity
  8
GAIKEI
  6
HIDDEN2
 62
     1
100
AcDbCircle
 10
-27.58997982391486
 20
6.427027620986336
 30
0.0
 40
0.49999999995
100
AcDbArc
 50
90.0
 51
139.1446239999981
  0
LINE
  5
2E4
330
2
100
AcDbEntity
  8
GAIKEI
  6
HIDDEN2
 62
     1
100
AcDbLine
 10
-28.51860532382216
 20
8.114527620817568
 30
0.0
 11
-28.51860532382216
 21
6.464527620982664
 31
0.0
  0
LINE
  5
2E5
330
2
100
AcDbEntity
  8
GAIKEI
  6
HIDDEN2
 62
     1
100
AcDbLine
 10
-26.14360532405965
 20
7.252027620903902
 30
0.0
 11
-26.14360532405965
 21
7.32702762089633
 31
0.0
  0
ARC
  5
2E6
330
2
100
AcDbEntity
  8
GAIKEI
  6
HIDDEN2
 62
     1
100
AcDbCircle
 10
-26.46860532402718
 20
7.32702762089633
 30
0.0
 40
0.3249999999675
100
AcDbArc
 50
0.0
 51
90.0
  0
LINE
  5
2E7
330
2
100
AcDbEntity
  8
GAIKEI
  6
HIDDEN2
 62
     1
100
AcDbLine
 10
-26.95610532397848
 20
8.214527620807587
 30
0.0
 11
-27.0311053239709
 21
8.214527620807587
 31
0.0
  0
ARC
  5
2E8
330
2
100
AcDbEntity
  8
GAIKEI
  6
HIDDEN2
 62
     1
100
AcDbCircle
 10
-26.95610532397848
 20
8.539527620775174
 30
0.0
 40
0.3249999999675
100
AcDbArc
 50
270.0
 51
0.0
  0
ARC
  5
2E9
330
2
100
AcDbEntity
  8
GAIKEI
  6
HIDDEN2
 62
     1
100
AcDbCircle
 10
-27.0311053239709
 20
8.539527620775174
 30
0.0
 40
0.3249999999675
100
AcDbArc
 50
180.0
 51
270.0
  0
LINE
  5
2EA
330
2
100
AcDbEntity
  8
GAIKEI
  6
HIDDEN2
 62
     1
100
AcDbLine
 10
-25.46860532412711
 20
5.789527621050183
 30
0.0
 11
-25.46860532412711
 21
5.989527621030163
 31
0.0
  0
LINE
  5
2EB
330
2
100
AcDbEntity
  8
GAIKEI
  6
HIDDEN2
 62
     1
100
AcDbLine
 10
-25.36860532413709
 20
5.989527621030163
 30
0.0
 11
-25.49360532412459
 21
5.989527621030163
 31
0.0
  0
LINE
  5
2EC
330
2
100
AcDbEntity
  8
GAIKEI
  6
HIDDEN2
 62
     1
100
AcDbLine
 10
-25.46860532412711
 20
5.789527621050183
 30
0.0
 11
-25.36860532413709
 21
5.789527621050183
 31
0.0
  0
ARC
  5
2ED
330
2
100
AcDbEntity
  8
GAIKEI
  6
HIDDEN2
 62
     1
100
AcDbCircle
 10
-25.49360532412459
 20
5.889527621040144
 30
0.0
 40
0.09999999999
100
AcDbArc
 50
90.0
 51
180.0
  0
LINE
  5
2EE
330
2
100
AcDbEntity
  8
GAIKEI
  6
HIDDEN2
 62
     1
100
AcDbLine
 10
-25.5936053241146
 20
5.889527621040144
 30
0.0
 11
-25.5936053241146
 21
5.789527621050183
 31
0.0
  0
LINE
  5
2EF
330
2
100
AcDbEntity
  8
GAIKEI
  6
HIDDEN2
 62
     1
100
AcDbLine
 10
-25.5936053241146
 20
5.889527621040144
 30
0.0
 11
-25.49360532412459
 21
5.889527621040144
 31
0.0
  0
LINE
  5
2F0
330
2
100
AcDbEntity
  8
GAIKEI
  6
HIDDEN2
 62
     1
100
AcDbLine
 10
-25.49360532412459
 20
5.764527621052536
 30
0.0
 11
-25.49360532412459
 21
5.889527621040144
 31
0.0
  0
LINE
  5
2F1
330
2
100
AcDbEntity
  8
GAIKEI
  6
HIDDEN2
 62
     1
100
AcDbLine
 10
-25.48860532412528
 20
4.749527621154072
 30
0.0
 11
-25.48860532412528
 21
4.899527621139043
 31
0.0
  0
LINE
  5
2F2
330
2
100
AcDbEntity
  8
GAIKEI
  6
HIDDEN2
 62
     1
100
AcDbLine
 10
-25.49360532412459
 20
4.78952762115017
 30
0.0
 11
-25.49360532412459
 21
4.899527621139043
 31
0.0
  0
LINE
  5
2F3
330
2
100
AcDbEntity
  8
GAIKEI
  6
HIDDEN2
 62
     1
100
AcDbLine
 10
-25.33110532414094
 20
5.664527621062632
 30
0.0
 11
-25.33110532414094
 21
4.914527621137665
 31
0.0
  0
LINE
  5
2F4
330
2
100
AcDbEntity
  8
GAIKEI
  6
HIDDEN2
 62
     1
100
AcDbLine
 10
-25.99360532407445
 20
5.764527621052536
 30
0.0
 11
-25.99360532407445
 21
5.664527621062632
 31
0.0
  0
LINE
  5
2F5
330
2
100
AcDbEntity
  8
GAIKEI
  6
HIDDEN2
 62
     1
100
AcDbLine
 10
-26.24860532404921
 20
4.749527621154072
 30
0.0
 11
-26.24860532404921
 21
4.899527621139043
 31
0.0
  0
LINE
  5
2F6
330
2
100
AcDbEntity
  8
GAIKEI
  6
HIDDEN2
 62
     1
100
AcDbLine
 10
-26.24360532404955
 20
4.78952762115017
 30
0.0
 11
-26.24360532404955
 21
4.899527621139043
 31
0.0
  0
LINE
  5
2F7
330
2
100
AcDbEntity
  8
GAIKEI
  6
HIDDEN2
 62
     1
100
AcDbLine
 10
-25.48860532412528
 20
4.749527621154072
 30
0.0
 11
-26.24860532404921
 21
4.749527621154072
 31
0.0
  0
LINE
  5
2F8
330
2
100
AcDbEntity
  8
GAIKEI
  6
HIDDEN2
 62
     1
100
AcDbLine
 10
-25.48860532412528
 20
4.899527621139043
 30
0.0
 11
-26.24860532404921
 21
4.899527621139043
 31
0.0
  0
LINE
  5
2F9
330
2
100
AcDbEntity
  8
GAIKEI
  6
HIDDEN2
 62
     1
100
AcDbLine
 10
-25.49360532412459
 20
4.78952762115017
 30
0.0
 11
-26.24360532404955
 21
4.78952762115017
 31
0.0
  0
LINE
  5
2FA
330
2
100
AcDbEntity
  8
GAIKEI
  6
HIDDEN2
 62
     1
100
AcDbLine
 10
-25.49360532412459
 20
4.889527621140075
 30
0.0
 11
-26.24360532404955
 21
4.889527621140075
 31
0.0
  0
ARC
  5
2FB
330
2
100
AcDbEntity
  8
GAIKEI
  6
HIDDEN2
 62
     1
100
AcDbCircle
 10
-26.99360532397463
 20
3.914527621237709
 30
0.0
 40
0.1749999999825
100
AcDbArc
 50
270.0
 51
90.0
  0
ARC
  5
2FC
330
2
100
AcDbEntity
  8
GAIKEI
  6
HIDDEN2
 62
     1
100
AcDbCircle
 10
-26.46860532402718
 20
7.252027620903902
 30
0.0
 40
0.3249999999675
100
AcDbArc
 50
270.0
 51
0.0
  0
ARC
  5
2FD
330
2
100
AcDbEntity
  8
GAIKEI
  6
HIDDEN2
 62
     1
100
AcDbCircle
 10
-24.83110532419096
 20
4.914527621137665
 30
0.0
 40
0.49999999995
100
AcDbArc
 50
180.0
 51
270.0
  0
LINE
  5
2FE
330
2
100
AcDbEntity
  8
GAIKEI
  6
HIDDEN2
 62
     1
100
AcDbLine
 10
-11.49360532552452
 20
4.414527621187573
 30
0.0
 11
-24.83110532419096
 21
4.414527621187573
 31
0.0
  0
LINE
  5
2FF
330
2
100
AcDbEntity
  8
GAIKEI
  6
HIDDEN2
 62
     1
100
AcDbLine
 10
8.881394672437863
 20
3.014527621327545
 30
0.0
 11
-29.86860532368712
 21
3.014527621327545
 31
0.0
  0
LINE
  5
300
330
2
100
AcDbEntity
  8
GAIKEI
  6
HIDDEN2
 62
     1
100
AcDbLine
 10
8.881394672437863
 20
3.114527621317563
 30
0.0
 11
-29.86860532368712
 21
3.114527621317563
 31
0.0
  0
LINE
  5
301
330
2
100
AcDbEntity
  8
GAIKEI
  6
HIDDEN2
 62
     1
100
AcDbLine
 10
8.131394672512897
 20
3.414527621287675
 30
0.0
 11
-29.11860532376215
 21
3.414527621287675
 31
0.0
  0
LINE
  5
302
330
2
100
AcDbEntity
  8
GAIKEI
  6
HIDDEN2
 62
     1
100
AcDbLine
 10
5.006394672825422
 20
5.664527621062632
 30
0.0
 11
-25.99360532407445
 21
5.664527621062632
 31
0.0
  0
LINE
  5
303
330
2
100
AcDbEntity
  8
GAIKEI
  6
HIDDEN2
 62
     1
100
AcDbLine
 10
-29.86860532368712
 20
5.764527621052536
 30
0.0
 11
8.881394672437863
 21
5.764527621052536
 31
0.0
  0
LINE
  5
304
330
2
100
AcDbEntity
  8
GAIKEI
  6
HIDDEN2
 62
     1
100
AcDbLine
 10
-22.99360532437459
 20
4.089527621220156
 30
0.0
 11
-17.99360532487458
 21
4.089527621220156
 31
0.0
  0
LINE
  5
305
330
2
100
AcDbEntity
  8
GAIKEI
  6
HIDDEN2
 62
     1
100
AcDbLine
 10
-22.99360532437459
 20
3.739527621255035
 30
0.0
 11
-17.99360532487458
 21
3.739527621255035
 31
0.0
  0
LINE
  5
306
330
2
100
AcDbEntity
  8
GAIKEI
  6
HIDDEN2
 62
     1
100
AcDbLine
 10
7.631394672562919
 20
26.03952761902514
 30
0.0
 11
7.631394672562919
 21
5.789527621050183
 31
0.0
  0
LINE
  5
307
330
2
100
AcDbEntity
  8
GAIKEI
  6
HIDDEN2
 62
     1
100
AcDbLine
 10
4.381394672887836
 20
26.03952761902514
 30
0.0
 11
4.381394672887836
 21
5.789527621050183
 31
0.0
  0
LINE
  5
308
330
2
100
AcDbEntity
  8
GAIKEI
  6
HIDDEN2
 62
     1
100
AcDbLine
 10
-25.36860532413709
 20
26.03952761902514
 30
0.0
 11
-25.36860532413709
 21
5.789527621050183
 31
0.0
  0
LINE
  5
309
330
2
100
AcDbEntity
  8
GAIKEI
  6
HIDDEN2
 62
     1
100
AcDbLine
 10
-28.61860532381206
 20
26.03952761902514
 30
0.0
 11
-28.61860532381206
 21
5.789527621050183
 31
0.0
  0
LINE
  5
30A
330
2
100
AcDbEntity
  8
GAIKEI
  6
HIDDEN2
 62
     1
100
AcDbLine
 10
-26.63110532401083
 20
8.539527620775174
 30
0.0
 11
-26.63110532401083
 21
8.756086370753507
 31
0.0
  0
LINE
  5
30B
330
2
100
AcDbEntity
  8
GAIKEI
  6
HIDDEN2
 62
     1
100
AcDbLine
 10
-27.35610532393832
 20
8.539527620775174
 30
0.0
 11
-27.35610532393832
 21
8.756086370753507
 31
0.0
  0
LINE
  5
30C
330
2
100
AcDbEntity
  8
GAIKEI
  6
HIDDEN2
 62
     1
100
AcDbLine
 10
6.368894672689066
 20
8.539527620775174
 30
0.0
 11
6.368894672689066
 21
8.756086370753507
 31
0.0
  0
LINE
  5
30D
330
2
100
AcDbEntity
  8
GAIKEI
  6
HIDDEN2
 62
     1
100
AcDbLine
 10
5.643894672761575
 20
8.539527620775174
 30
0.0
 11
5.643894672761575
 21
8.756086370753507
 31
0.0
  0
DIMENSION
  5
30E
330
2
100
AcDbEntity
  8
SUNPO
100
AcDbDimension
  2
*D6
 10
-45.69620611254021
 20
28.81452761874772
 30
0.0
 11
-47.44620611254021
 21
15.91452762003765
 31
0.0
 70
    33
  1
516
 71
     5
 42
25.79999999742012
  3
STANDARD
100
AcDbAlignedDimension
 13
-35.69620611254021
 23
3.014527621327601
 33
0.0
 14
-35.69620611254021
 24
28.81452761874772
 34
0.0
1001
ACAD
1000
DSTYLE
1002
{
1070
   287
1070
     3
1070
   287
1070
     3
1070
   287
1070
     3
1070
   287
1070
     3
1070
   287
1070
     3
1070
   287
1070
     3
1070
   287
1070
     3
1070
   287
1070
     3
1070
   287
1070
     3
1070
   287
1070
     3
1070
   287
1070
     3
1070
    40
1040
1.0
1070
   140
1040
2.5
1070
   147
1040
0.5
1070
   172
1070
     1
1070
   279
1070
     0
1070
   288
1070
     0
1002
}
  0
DIMENSION
  5
31B
330
2
100
AcDbEntity
  8
SUNPO
100
AcDbDimension
  2
*D5
 10
8.881394672437863
 20
-6.676242554441103
 30
0.0
 11
-10.49360532562457
 21
-4.926242554441103
 31
0.0
 70
    33
  1
775
 71
     5
 42
38.74999999612487
  3
STANDARD
100
AcDbAlignedDimension
 13
-29.86860532368701
 23
1.323757445558896
 33
0.0
 14
8.881394672437863
 24
1.323757445558896
 34
0.0
1001
ACAD
1000
DSTYLE
1002
{
1070
   287
1070
     3
1070
   287
1070
     3
1070
   287
1070
     3
1070
   287
1070
     3
1070
   287
1070
     3
1070
   287
1070
     3
1070
   287
1070
     3
1070
   287
1070
     3
1070
   287
1070
     3
1070
   287
1070
     3
1070
   287
1070
     3
1070
    40
1040
1.0
1070
   140
1040
2.5
1070
   147
1040
0.5
1070
   172
1070
     1
1070
   279
1070
     0
1070
   288
1070
     0
1002
}
  0
LINE
  5
328
330
2
100
AcDbEntity
  8
GAIKEI
  6
Continuous
 62
     1
100
AcDbLine
 10
42.47794248932348
 20
7.664817434016015
 30
0.0
 11
42.47794248932348
 21
3.850922594989015
 31
0.0
  0
LINE
  5
329
330
2
100
AcDbEntity
  8
GAIKEI
  6
Continuous
 62
     1
100
AcDbLine
 10
42.47794248932348
 20
25.93345963957631
 30
0.0
 11
42.47794248932348
 21
24.99944265841964
 31
0.0
  0
LINE
  5
32A
330
2
100
AcDbEntity
  8
GAIKEI
  6
Continuous
 62
     1
100
AcDbLine
 10
43.3779424892333
 20
28.71452761860638
 30
0.0
 11
43.3779424892333
 21
26.16452761886222
 31
0.0
  0
LINE
  5
32B
330
2
100
AcDbEntity
  8
GAIKEI
  6
Continuous
 62
     1
100
AcDbLine
 10
42.9779424892734
 20
28.81452761859629
 30
0.0
 11
43.3779424892333
 21
28.81452761859629
 31
0.0
  0
LINE
  5
32C
330
2
100
AcDbEntity
  8
GAIKEI
  6
Continuous
 62
     1
100
AcDbLine
 10
42.9779424892734
 20
28.71452761860638
 30
0.0
 11
43.3779424892333
 21
28.71452761860638
 31
0.0
  0
LINE
  5
32D
330
2
100
AcDbEntity
  8
GAIKEI
  6
Continuous
 62
     1
100
AcDbLine
 10
42.9779424892734
 20
26.16452761886222
 30
0.0
 11
43.3779424892333
 21
26.16452761886222
 31
0.0
  0
LINE
  5
32E
330
2
100
AcDbEntity
  8
GAIKEI
  6
Continuous
 62
     1
100
AcDbLine
 10
42.9779424892734
 20
28.71452761860638
 30
0.0
 11
42.9779424892734
 21
28.81452761859629
 31
0.0
  0
LINE
  5
32F
330
2
100
AcDbEntity
  8
GAIKEI
  6
Continuous
 62
     1
100
AcDbLine
 10
42.9779424892734
 20
26.16452761886222
 30
0.0
 11
42.9779424892734
 21
26.06452761887221
 31
0.0
  0
ARC
  5
330
330
2
100
AcDbEntity
  8
GAIKEI
  6
Continuous
 62
     1
100
AcDbCircle
 10
43.3779424892333
 20
28.71452761860638
 30
0.0
 40
0.0999999999899659
100
AcDbArc
 50
0.0
 51
90.0
  0
ARC
  5
331
330
2
100
AcDbEntity
  8
GAIKEI
  6
Continuous
 62
     1
100
AcDbCircle
 10
43.3779424892333
 20
26.16452761886222
 30
0.0
 40
0.0999999999899659
100
AcDbArc
 50
270.0
 51
0.0
  0
ARC
  5
332
330
2
100
AcDbEntity
  8
GAIKEI
  6
Continuous
 62
     1
100
AcDbCircle
 10
43.3779424892333
 20
28.26452761865147
 30
0.0
 40
0.0999999999899659
100
AcDbArc
 50
138.1896849999924
 51
180.0
  0
LINE
  5
333
330
2
100
AcDbEntity
  8
GAIKEI
  6
Continuous
 62
     1
100
AcDbLine
 10
43.3779424892333
 20
28.41452761863644
 30
0.0
 11
43.30340698924072
 21
28.33119436864484
 31
0.0
  0
ARC
  5
334
330
2
100
AcDbEntity
  8
GAIKEI
  6
Continuous
 62
     1
100
AcDbCircle
 10
43.3779424892333
 20
27.56452761872174
 30
0.0
 40
0.0999999999899659
100
AcDbArc
 50
180.0
 51
221.8103150000076
  0
LINE
  5
335
330
2
100
AcDbEntity
  8
GAIKEI
  6
Continuous
 62
     1
100
AcDbLine
 10
43.3779424892333
 20
27.41452761873683
 30
0.0
 11
43.30340698924072
 21
27.4978611187284
 31
0.0
  0
LINE
  5
336
330
2
100
AcDbEntity
  8
GAIKEI
  6
Continuous
 62
     1
100
AcDbLine
 10
43.27794248924329
 20
28.71452761860638
 30
0.0
 11
43.27794248924329
 21
26.16452761886222
 31
0.0
  0
LINE
  5
337
330
2
100
AcDbEntity
  8
GAIKEI
  6
Continuous
 62
     1
100
AcDbLine
 10
43.47794248922332
 20
3.114527621175056
 30
0.0
 11
43.47794248922332
 21
5.789527620906653
 31
0.0
  0
LINE
  5
338
330
2
100
AcDbEntity
  8
GAIKEI
  6
Continuous
 62
     1
100
AcDbLine
 10
43.3779424892333
 20
3.114527621175056
 30
0.0
 11
43.3779424892333
 21
5.664527620919159
 31
0.0
  0
LINE
  5
339
330
2
100
AcDbEntity
  8
GAIKEI
  6
Continuous
 62
     1
100
AcDbLine
 10
42.9779424892734
 20
3.014527621185095
 30
0.0
 11
43.3779424892333
 21
3.014527621185095
 31
0.0
  0
LINE
  5
33A
330
2
100
AcDbEntity
  8
GAIKEI
  6
Continuous
 62
     1
100
AcDbLine
 10
42.9779424892734
 20
3.114527621175056
 30
0.0
 11
43.3779424892333
 21
3.114527621175056
 31
0.0
  0
LINE
  5
33B
330
2
100
AcDbEntity
  8
GAIKEI
  6
Continuous
 62
     1
100
AcDbLine
 10
42.9779424892734
 20
5.664527620919159
 30
0.0
 11
43.3779424892333
 21
5.664527620919159
 31
0.0
  0
LINE
  5
33C
330
2
100
AcDbEntity
  8
GAIKEI
  6
Continuous
 62
     1
100
AcDbLine
 10
42.9779424892734
 20
5.664527620919159
 30
0.0
 11
42.9779424892734
 21
5.764527620909177
 31
0.0
  0
ARC
  5
33D
330
2
100
AcDbEntity
  8
GAIKEI
  6
Continuous
 62
     1
100
AcDbCircle
 10
43.3779424892333
 20
3.114527621175056
 30
0.0
 40
0.0999999999899659
100
AcDbArc
 50
270.0
 51
0.0
  0
ARC
  5
33E
330
2
100
AcDbEntity
  8
GAIKEI
  6
Continuous
 62
     1
100
AcDbCircle
 10
43.3779424892333
 20
5.664527620919159
 30
0.0
 40
0.0999999999899659
100
AcDbArc
 50
0.0
 51
90.0
  0
ARC
  5
33F
330
2
100
AcDbEntity
  8
GAIKEI
  6
Continuous
 62
     1
100
AcDbCircle
 10
43.3779424892333
 20
3.564527621129968
 30
0.0
 40
0.0999999999899659
100
AcDbArc
 50
180.0
 51
221.8103150000076
  0
LINE
  5
340
330
2
100
AcDbEntity
  8
GAIKEI
  6
Continuous
 62
     1
100
AcDbLine
 10
43.3779424892333
 20
3.414527621144941
 30
0.0
 11
43.30340698924072
 21
3.497861121136622
 31
0.0
  0
ARC
  5
341
330
2
100
AcDbEntity
  8
GAIKEI
  6
Continuous
 62
     1
100
AcDbCircle
 10
43.3779424892333
 20
4.264527621059698
 30
0.0
 40
0.0999999999899659
100
AcDbArc
 50
138.1896849999924
 51
180.0
  0
LINE
  5
342
330
2
100
AcDbEntity
  8
GAIKEI
  6
Continuous
 62
     1
100
AcDbLine
 10
43.3779424892333
 20
4.414527621044612
 30
0.0
 11
43.30340698924072
 21
4.331194371053072
 31
0.0
  0
LINE
  5
343
330
2
100
AcDbEntity
  8
GAIKEI
  6
Continuous
 62
     1
100
AcDbLine
 10
43.27794248924329
 20
3.114527621175056
 30
0.0
 11
43.27794248924329
 21
5.664527620919159
 31
0.0
  0
LINE
  5
344
330
2
100
AcDbEntity
  8
GAIKEI
  6
Continuous
 62
     1
100
AcDbLine
 10
43.47794248922332
 20
28.71452761860638
 30
0.0
 11
43.47794248922332
 21
26.03952761887473
 31
0.0
  0
LINE
  5
345
330
2
100
AcDbEntity
  8
GAIKEI
  6
Continuous
 62
     1
100
AcDbLine
 10
42.47794248932348
 20
25.93952761888483
 30
0.0
 11
42.47794248932348
 21
5.889527620896615
 31
0.0
  0
LINE
  5
346
330
2
100
AcDbEntity
  8
GAIKEI
  6
Continuous
 62
     1
100
AcDbLine
 10
42.57794248931349
 20
5.789527620906653
 30
0.0
 11
43.35294248923571
 21
5.789527620906653
 31
0.0
  0
LINE
  5
347
330
2
100
AcDbEntity
  8
GAIKEI
  6
Continuous
 62
     1
100
AcDbLine
 10
42.57794248931349
 20
26.03952761887473
 30
0.0
 11
43.35294248923571
 21
26.03952761887473
 31
0.0
  0
LINE
  5
348
330
2
100
AcDbEntity
  8
GAIKEI
  6
Continuous
 62
     1
100
AcDbLine
 10
42.57794248931349
 20
25.93952761888483
 30
0.0
 11
42.57794248931349
 21
25.83952761889481
 31
0.0
  0
ARC
  5
349
330
2
100
AcDbEntity
  8
GAIKEI
  6
Continuous
 62
     1
100
AcDbCircle
 10
42.57794248931349
 20
5.889527620896615
 30
0.0
 40
0.0999999999899659
100
AcDbArc
 50
180.0
 51
270.0
  0
ARC
  5
34A
330
2
100
AcDbEntity
  8
GAIKEI
  6
Continuous
 62
     1
100
AcDbCircle
 10
42.57794248931349
 20
25.93952761888483
 30
0.0
 40
0.0999999999899659
100
AcDbArc
 50
90.0
 51
180.0
  0
CIRCLE
  5
34B
330
2
100
AcDbEntity
  8
GAIKEI
  6
Continuous
 62
     1
100
AcDbCircle
 10
42.87794248928338
 20
9.264527620557942
 30
0.0
 40
0.102499999989715
  0
CIRCLE
  5
34C
330
2
100
AcDbEntity
  8
GAIKEI
  6
Continuous
 62
     1
100
AcDbCircle
 10
42.87794248928338
 20
9.264527620557942
 30
0.0
 40
0.1249999999874574
  0
LINE
  5
34D
330
2
100
AcDbEntity
  8
GAIKEI
  6
Continuous
 62
     1
100
AcDbLine
 10
42.47794248932348
 20
25.83952761889481
 30
0.0
 11
42.57794248931349
 21
25.83952761889481
 31
0.0
  0
LINE
  5
34E
330
2
100
AcDbEntity
  8
GAIKEI
  6
Continuous
 62
     1
100
AcDbLine
 10
42.57794248931349
 20
25.93952761888483
 30
0.0
 11
42.67794248930352
 21
25.93952761888483
 31
0.0
  0
LINE
  5
34F
330
2
100
AcDbEntity
  8
GAIKEI
  6
Continuous
 62
     1
100
AcDbLine
 10
42.47794248932348
 20
5.989527620886576
 30
0.0
 11
42.57794248931349
 21
5.989527620886576
 31
0.0
  0
LINE
  5
350
330
2
100
AcDbEntity
  8
GAIKEI
  6
Continuous
 62
     1
100
AcDbLine
 10
42.57794248931349
 20
5.989527620886576
 30
0.0
 11
42.57794248931349
 21
5.891456370896435
 31
0.0
  0
LINE
  5
351
330
2
100
AcDbEntity
  8
GAIKEI
  6
Continuous
 62
     1
100
AcDbLine
 10
42.57794248931349
 20
5.889527620896615
 30
0.0
 11
42.67794248930352
 21
5.889527620896615
 31
0.0
  0
ARC
  5
352
330
2
100
AcDbEntity
  8
GAIKEI
  6
Continuous
 62
     1
100
AcDbCircle
 10
42.57794248931349
 20
25.93952761888483
 30
0.0
 40
0.0999999999899659
100
AcDbArc
 50
270.0
 51
0.0
  0
ARC
  5
353
330
2
100
AcDbEntity
  8
GAIKEI
  6
Continuous
 62
     1
100
AcDbCircle
 10
42.77794248929336
 20
25.93952761888483
 30
0.0
 40
0.0999999999899659
100
AcDbArc
 50
90.0
 51
180.0
  0
ARC
  5
354
330
2
100
AcDbEntity
  8
GAIKEI
  6
Continuous
 62
     1
100
AcDbCircle
 10
42.57794248931349
 20
5.889527620896615
 30
0.0
 40
0.0999999999899659
100
AcDbArc
 50
0.0
 51
90.0
  0
ARC
  5
355
330
2
100
AcDbEntity
  8
GAIKEI
  6
Continuous
 62
     1
100
AcDbCircle
 10
42.77794248929336
 20
5.889527620896615
 30
0.0
 40
0.0999999999899659
100
AcDbArc
 50
180.0
 51
270.0
  0
ARC
  5
356
330
2
100
AcDbEntity
  8
GAIKEI
  6
Continuous
 62
     1
100
AcDbCircle
 10
43.35294248923571
 20
25.93952761888483
 30
0.0
 40
0.0999999999899659
100
AcDbArc
 50
0.0
 51
90.0
  0
ARC
  5
357
330
2
100
AcDbEntity
  8
GAIKEI
  6
Continuous
 62
     1
100
AcDbCircle
 10
43.3779424892333
 20
26.03952761887473
 30
0.0
 40
0.0999999999899659
100
AcDbArc
 50
314.9403499999854
 51
0.0
  0
LINE
  5
358
330
2
100
AcDbEntity
  8
GAIKEI
  6
Continuous
 62
     1
100
AcDbLine
 10
43.45294248922573
 20
25.93952761888483
 30
0.0
 11
43.45294248922573
 21
5.889527620896615
 31
0.0
  0
LINE
  5
359
330
2
100
AcDbEntity
  8
GAIKEI
  6
Continuous
 62
     1
100
AcDbLine
 10
43.3779424892333
 20
26.06452761887221
 30
0.0
 11
43.3779424892333
 21
26.03952761887473
 31
0.0
  0
LINE
  5
35A
330
2
100
AcDbEntity
  8
GAIKEI
  6
Continuous
 62
     1
100
AcDbLine
 10
43.27794248924329
 20
27.0395276187744
 30
0.0
 11
43.12794248925825
 21
27.0395276187744
 31
0.0
  0
LINE
  5
35B
330
2
100
AcDbEntity
  8
GAIKEI
  6
Continuous
 62
     1
100
AcDbLine
 10
43.27794248924329
 20
26.93952761878444
 30
0.0
 11
43.12794248925825
 21
26.93952761878444
 31
0.0
  0
LINE
  5
35C
330
2
100
AcDbEntity
  8
GAIKEI
  6
Continuous
 62
     1
100
AcDbLine
 10
43.12794248925825
 20
26.93952761878444
 30
0.0
 11
43.12794248925825
 21
27.0395276187744
 31
0.0
  0
ARC
  5
35D
330
2
100
AcDbEntity
  8
GAIKEI
  6
Continuous
 62
     1
100
AcDbCircle
 10
43.35294248923571
 20
5.889527620896615
 30
0.0
 40
0.0999999999899659
100
AcDbArc
 50
270.0
 51
0.0
  0
ARC
  5
35E
330
2
100
AcDbEntity
  8
GAIKEI
  6
Continuous
 62
     1
100
AcDbCircle
 10
43.3779424892333
 20
5.789527620906653
 30
0.0
 40
0.0999999999899659
100
AcDbArc
 50
0.0
 51
45.05965000001459
  0
LINE
  5
35F
330
2
100
AcDbEntity
  8
GAIKEI
  6
Continuous
 62
     1
100
AcDbLine
 10
43.3779424892333
 20
5.764527620909177
 30
0.0
 11
43.3779424892333
 21
5.789527620906653
 31
0.0
  0
LINE
  5
360
330
2
100
AcDbEntity
  8
GAIKEI
  6
Continuous
 62
     1
100
AcDbLine
 10
43.27794248924329
 20
4.789527621007039
 30
0.0
 11
43.12794248925825
 21
4.789527621007039
 31
0.0
  0
LINE
  5
361
330
2
100
AcDbEntity
  8
GAIKEI
  6
Continuous
 62
     1
100
AcDbLine
 10
43.27794248924329
 20
4.889527620996943
 30
0.0
 11
43.12794248925825
 21
4.889527620996943
 31
0.0
  0
LINE
  5
362
330
2
100
AcDbEntity
  8
GAIKEI
  6
Continuous
 62
     1
100
AcDbLine
 10
43.12794248925825
 20
4.889527620996943
 30
0.0
 11
43.12794248925825
 21
4.789527621007039
 31
0.0
  0
LINE
  5
363
330
2
100
AcDbEntity
  8
GAIKEI
  6
Continuous
 62
     1
100
AcDbLine
 10
42.9779424892734
 20
26.06452761887221
 30
0.0
 11
43.3779424892333
 21
26.06452761887221
 31
0.0
  0
LINE
  5
364
330
2
100
AcDbEntity
  8
GAIKEI
  6
Continuous
 62
     1
100
AcDbLine
 10
42.9779424892734
 20
5.764527620909177
 30
0.0
 11
43.3779424892333
 21
5.764527620909177
 31
0.0
  0
POINT
  5
365
330
2
100
AcDbEntity
  8
GAIKEI
  6
Continuous
 62
     1
100
AcDbPoint
 10
43.47794248922332
 20
15.91452761989063
 30
0.0
  0
LINE
  5
366
330
2
100
AcDbEntity
  8
SUNPO
100
AcDbLine
 10
42.47794248932348
 20
33.79577368153531
 30
0.0
 11
42.47794248932348
 21
41.78924117697625
 31
0.0
  0
LINE
  5
367
330
2
100
AcDbEntity
  8
SUNPO
100
AcDbLine
 10
38.02794248932349
 20
33.79577368153531
 30
0.0
 11
38.02794248932349
 21
41.78924117697625
 31
0.0
  0
LINE
  5
368
330
2
100
AcDbEntity
  8
SUNPO
100
AcDbLine
 10
44.47794248932348
 20
39.78924117697625
 30
0.0
 11
46.47794248932348
 21
39.78924117697625
 31
0.0
  0
LINE
  5
369
330
2
100
AcDbEntity
  8
SUNPO
100
AcDbLine
 10
36.0279424893235
 20
39.78924117697625
 30
0.0
 11
28.86127582265681
 21
39.78924117697625
 31
0.0
  0
LINE
  5
36A
330
2
100
AcDbEntity
  8
SUNPO
100
AcDbLine
 10
42.47794248932348
 20
39.78924117697625
 30
0.0
 11
38.02794248932349
 21
39.78924117697625
 31
0.0
  0
INSERT
  5
36B
330
2
100
AcDbEntity
  8
SUNPO
100
AcDbBlockReference
  2
_OPEN30
 10
38.02794248932349
 20
39.78924117697625
 30
0.0
 41
2.0
 42
2.0
 43
2.0
  0
MTEXT
  5
36C
330
2
100
AcDbEntity
  8
SUNPO
100
AcDbMText
 10
31.44460915599018
 20
41.53924117697624
 30
0.0
 40
2.5
 41
0.0
 71
     5
 72
     1
  1
\A1;89
 73
     1
 44
1.0
1001
ACAD
1000
MTEXTBEGIN
1070
    73
1070
     1
1070
    44
1040
1.0
1070
    74
1070
     0
1000
MTEXTEND
  0
LINE
  5
36D
330
2
100
AcDbEntity
  8
SUNPO
100
AcDbLine
 10
42.34130290429596
 20
39.58829684689533
 30
0.0
 11
42.61458207435111
 21
39.58829684689533
 31
0.0
  0
LINE
  5
36E
330
2
100
AcDbEntity
  8
SUNPO
100
AcDbLine
 10
42.2915816406927
 20
39.63329684689075
 30
0.0
 11
42.66430333795426
 21
39.63329684689075
 31
0.0
  0
LINE
  5
36F
330
2
100
AcDbEntity
  8
SUNPO
100
AcDbLine
 10
42.26174730989282
 20
39.67829684688627
 30
0.0
 11
42.69413766875425
 21
39.67829684688627
 31
0.0
  0
LINE
  5
370
330
2
100
AcDbEntity
  8
SUNPO
100
AcDbLine
 10
42.2440614398206
 20
39.7232968468818
 30
0.0
 11
42.71182353882648
 21
39.7232968468818
 31
0.0
  0
LINE
  5
371
330
2
100
AcDbEntity
  8
SUNPO
100
AcDbLine
 10
42.24496112860129
 20
39.85829684686826
 30
0.0
 11
42.71092385004567
 21
39.85829684686826
 31
0.0
  0
LINE
  5
372
330
2
100
AcDbEntity
  8
SUNPO
100
AcDbLine
 10
42.26337244445545
 20
39.90329684686384
 30
0.0
 11
42.69251253419162
 21
39.90329684686384
 31
0.0
  0
LINE
  5
373
330
2
100
AcDbEntity
  8
SUNPO
100
AcDbLine
 10
42.29422995881395
 20
39.94829684685925
 30
0.0
 11
42.66165501983311
 21
39.94829684685925
 31
0.0
  0
LINE
  5
374
330
2
100
AcDbEntity
  8
SUNPO
100
AcDbLine
 10
42.34599445569438
 20
39.99329684685472
 30
0.0
 11
42.60989052295269
 21
39.99329684685472
 31
0.0
  0
LINE
  5
375
330
2
100
AcDbEntity
  8
SUNPO
100
AcDbLine
 10
42.23613611071863
 20
39.81329684687279
 30
0.0
 11
42.71974886792839
 21
39.81329684687279
 31
0.0
  0
LINE
  5
376
330
2
100
AcDbEntity
  8
SUNPO
100
AcDbLine
 10
42.23584677472922
 20
39.76829684687726
 30
0.0
 11
42.72003820391773
 21
39.76829684687726
 31
0.0
  0
CIRCLE
  5
377
330
2
100
AcDbEntity
  8
SUNPO
100
AcDbCircle
 10
42.47794248932348
 20
39.78924117697625
 30
0.0
 40
0.2429999999756999
  0
LINE
  5
378
330
2
100
AcDbEntity
  8
SUNPO
100
AcDbLine
 10
42.47794248932348
 20
33.79577368153531
 30
0.0
 11
42.47794248932348
 21
41.78924117697625
 31
0.0
  0
LINE
  5
379
330
2
100
AcDbEntity
  8
SUNPO
100
AcDbLine
 10
43.45294248922573
 20
33.79577368153531
 30
0.0
 11
43.45294248922573
 21
41.78924117697625
 31
0.0
  0
LINE
  5
37A
330
2
100
AcDbEntity
  8
SUNPO
100
AcDbLine
 10
40.47794248932348
 20
39.78924117697625
 30
0.0
 11
38.47794248932348
 21
39.78924117697625
 31
0.0
  0
LINE
  5
37B
330
2
100
AcDbEntity
  8
SUNPO
100
AcDbLine
 10
45.45294248922573
 20
39.78924117697625
 30
0.0
 11
57.61960915589248
 21
39.78924117697625
 31
0.0
  0
LINE
  5
37C
330
2
100
AcDbEntity
  8
SUNPO
100
AcDbLine
 10
42.47794248932348
 20
39.78924117697625
 30
0.0
 11
43.45294248922573
 21
39.78924117697625
 31
0.0
  0
INSERT
  5
37D
330
2
100
AcDbEntity
  8
SUNPO
100
AcDbBlockReference
  2
_OPEN30
 10
43.45294248922573
 20
39.78924117697625
 30
0.0
 41
2.0
 42
2.0
 43
2.0
 50
180.0
  0
MTEXT
  5
37E
330
2
100
AcDbEntity
  8
SUNPO
100
AcDbMText
 10
52.53627582255899
 20
41.53924117697624
 30
0.0
 40
2.5
 41
0.0
 71
     5
 72
     1
  1
\A1;21.5
 73
     1
 44
1.0
1001
ACAD
1000
MTEXTBEGIN
1070
    73
1070
     1
1070
    44
1040
1.0
1070
    74
1070
     0
1000
MTEXTEND
  0
TEXT
  5
37F
330
2
100
AcDbEntity
  8
MOJI1
100
AcDbText
 10
-54.56951735209009
 20
-41.22445522223824
 30
0.0
 40
3.0
  1
階調数
100
AcDbText
  0
TEXT
  5
380
330
2
100
AcDbEntity
  8
MOJI1
100
AcDbText
 10
-54.56951735209009
 20
-36.22445522223825
 30
0.0
 40
3.0
  1
コントラスト
100
AcDbText
  0
LINE
  5
381
330
2
100
AcDbEntity
  8
WAKU
 62
     1
100
AcDbLine
 10
-57.06951735209009
 20
-42.22445522223824
 30
0.0
 11
67.93048264790968
 21
-42.22445522223824
 31
0.0
  0
LINE
  5
383
330
2
100
AcDbEntity
  8
WAKU
 62
     1
100
AcDbLine
 10
-57.06951735209009
 20
-37.22445522223825
 30
0.0
 11
67.93048264790968
 21
-37.22445522223825
 31
0.0
  0
TEXT
  5
384
330
2
100
AcDbEntity
  8
MOJI1
100
AcDbText
 10
-54.56951735209009
 20
-16.22445522223825
 30
0.0
 40
3.0
  1
電  源
100
AcDbText
  0
TEXT
  5
385
330
2
100
AcDbEntity
  8
MOJI1
100
AcDbText
 10
-54.56951735209009
 20
-21.22445522223825
 30
0.0
 40
3.0
  1
消費電力
100
AcDbText
  0
TEXT
  5
386
330
2
100
AcDbEntity
  8
MOJI1
100
AcDbText
 10
-54.56951735209009
 20
-26.22445522223825
 30
0.0
 40
3.0
  1
画面サイズ
100
AcDbText
  0
TEXT
  5
387
330
2
100
AcDbEntity
  8
MOJI1
100
AcDbText
 10
-15.56951735209009
 20
-21.22445522223825
 30
0.0
 40
3.0
  1
３５５Ｗ
100
AcDbText
  0
TEXT
  5
388
330
2
100
AcDbEntity
  8
MOJI1
100
AcDbText
 10
-15.56951735209009
 20
-26.22445522223825
 30
0.0
 40
3.0
  1
４２Ｖ型（１６：９）
100
AcDbText
  0
TEXT
  5
389
330
2
100
AcDbEntity
  8
MOJI1
100
AcDbText
 10
-15.56951735209009
 20
-16.22445522223825
 30
0.0
 40
3.0
  1
ＡＣ１００Ｖ　５０Ｈｚ／６０Ｈｚ
100
AcDbText
  0
TEXT
  5
38A
330
2
100
AcDbEntity
  8
MOJI1
100
AcDbText
 10
-54.56951735209009
 20
-51.22445522223824
 30
0.0
 40
3.0
  1
接続端子
100
AcDbText
  0
TEXT
  5
38B
330
2
100
AcDbEntity
  8
MOJI1
100
AcDbText
 10
-54.56951735209009
 20
-46.22445522223824
 30
0.0
 40
3.0
  1
音声最大出力
100
AcDbText
  0
TEXT
  5
38C
330
2
100
AcDbEntity
  8
MOJI1
100
AcDbText
 10
-15.56951735209009
 20
-46.22445522223824
 30
0.0
 40
3.0
  1
１６Ｗ（８Ｗ＋８Ｗ）
100
AcDbText
  0
TEXT
  5
38D
330
2
100
AcDbEntity
  8
MOJI1
100
AcDbText
 10
-15.56951735209009
 20
-56.22445522223824
 30
0.0
 40
3.0
  1
シリアル
100
AcDbText
  0
TEXT
  5
38E
330
2
100
AcDbEntity
  8
MOJI1
100
AcDbText
 10
-15.56951735209009
 20
-51.22445522223824
 30
0.0
 40
3.0
  1
ビデオ／Ｓビデオ／ＰＣ／外部スピーカ
100
AcDbText
  0
TEXT
  5
38F
330
2
100
AcDbEntity
  8
MOJI1
100
AcDbText
 10
-15.56951735209009
 20
-31.22445522223825
 30
0.0
 40
3.0
  1
７８６４３２画素（水平１０２４×垂直７６８）
100
AcDbText
  0
LINE
  5
390
330
2
100
AcDbEntity
  8
WAKU
 62
     4
100
AcDbLine
 10
-17.06951735209031
 20
-12.22445522223825
 30
0.0
 11
-17.06951735209031
 21
-57.22445522223825
 31
0.0
  0
TEXT
  5
391
330
2
100
AcDbEntity
  8
MOJI1
100
AcDbText
 10
-54.56951735209009
 20
-31.22445522223825
 30
0.0
 40
3.0
  1
画素数
100
AcDbText
  0
LINE
  5
392
330
2
100
AcDbEntity
  8
WAKU
 62
     4
100
AcDbLine
 10
67.93048264790968
 20
-12.22445522223825
 30
0.0
 11
67.93048264790968
 21
-57.22445522223825
 31
0.0
  0
LINE
  5
393
330
2
100
AcDbEntity
  8
WAKU
 62
     4
100
AcDbLine
 10
-57.06951735209031
 20
-12.22445522223825
 30
0.0
 11
-57.06951735209009
 21
-57.22445522223825
 31
0.0
  0
LINE
  5
394
330
2
100
AcDbEntity
  8
WAKU
 62
     4
100
AcDbLine
 10
67.93048264790968
 20
-57.22445522223825
 30
0.0
 11
-57.06951735209009
 21
-57.22445522223825
 31
0.0
  0
LINE
  5
395
330
2
100
AcDbEntity
  8
WAKU
 62
     1
100
AcDbLine
 10
-57.06951735209009
 20
-52.22445522223825
 30
0.0
 11
67.93048264790968
 21
-52.22445522223825
 31
0.0
  0
LINE
  5
396
330
2
100
AcDbEntity
  8
WAKU
 62
     1
100
AcDbLine
 10
-57.06951735209009
 20
-47.22445522223824
 30
0.0
 11
67.93048264790968
 21
-47.22445522223824
 31
0.0
  0
LINE
  5
397
330
2
100
AcDbEntity
  8
WAKU
 62
     1
100
AcDbLine
 10
-57.06951735209009
 20
-27.22445522223825
 30
0.0
 11
67.93048264790968
 21
-27.22445522223825
 31
0.0
  0
LINE
  5
398
330
2
100
AcDbEntity
  8
WAKU
 62
     1
100
AcDbLine
 10
-57.06951735209009
 20
-17.22445522223825
 30
0.0
 11
67.93048264790968
 21
-17.22445522223825
 31
0.0
  0
LINE
  5
399
330
2
100
AcDbEntity
  8
WAKU
 62
     4
100
AcDbLine
 10
-57.06951735209009
 20
-12.22445522223825
 30
0.0
 11
67.93048264790968
 21
-12.22445522223825
 31
0.0
  0
LINE
  5
39A
330
2
100
AcDbEntity
  8
WAKU
 62
     1
100
AcDbLine
 10
-57.06951735209009
 20
-32.22445522223825
 30
0.0
 11
67.93048264790968
 21
-32.22445522223825
 31
0.0
  0
LINE
  5
39B
330
2
100
AcDbEntity
  8
WAKU
 62
     1
100
AcDbLine
 10
-57.06951735209009
 20
-22.22445522223825
 30
0.0
 11
67.93048264790968
 21
-22.22445522223825
 31
0.0
  0
TEXT
  5
39C
330
2
100
AcDbEntity
  8
MOJI1
100
AcDbText
 10
-15.56951735209009
 20
-41.22445522223824
 30
0.0
 40
3.0
  1
４０９６階調（相当）
100
AcDbText
  0
TEXT
  5
39D
330
2
100
AcDbEntity
  8
MOJI1
100
AcDbText
 10
-15.56951735209009
 20
-36.22445522223825
 30
0.0
 40
3.0
  1
１５０００：１
100
AcDbText
  0
ENDSEC
  0
SECTION
  2
OBJECTS
  0
DICTIONARY
  5
9
330
0
100
AcDbDictionary
281
     1
  3
ACAD_COLOR
350
2E
  3
ACAD_GROUP
350
2A
  3
ACAD_LAYOUT
350
D
  3
ACAD_MATERIAL
350
2D
  3
ACAD_MLINESTYLE
350
2B
  3
ACAD_PLOTSETTINGS
350
2C
  3
ACAD_PLOTSTYLENAME
350
8
  3
ACDBHEADERROUNDTRIPXREC
350
3EA
  3
AcDbVariableDictionary
350
3E5
  3
ASE_INDEX_DICTIONARY
350
3A6
  0
DICTIONARY
  5
13
330
12
100
AcDbDictionary
280
     1
281
     1
  3
ACAD_LAYERSTATES
360
14
  0
DICTIONARY
  5
3
330
2
100
AcDbDictionary
280
     1
281
     1
  3
ACAD_SORTENTS
360
4
  0
DICTIONARY
  5
2E
102
{ACAD_REACTORS
330
9
102
}
330
9
100
AcDbDictionary
281
     1
  0
DICTIONARY
  5
2A
102
{ACAD_REACTORS
330
9
102
}
330
9
100
AcDbDictionary
281
     1
  0
DICTIONARY
  5
D
102
{ACAD_REACTORS
330
9
102
}
330
9
100
AcDbDictionary
281
     1
  3
Model
350
C
  3
レイアウト1
350
11
  0
DICTIONARY
  5
2D
102
{ACAD_REACTORS
330
9
102
}
330
9
100
AcDbDictionary
281
     1
  0
DICTIONARY
  5
2B
102
{ACAD_REACTORS
330
9
102
}
330
9
100
AcDbDictionary
281
     1
  3
Standard
350
30
  0
DICTIONARY
  5
2C
102
{ACAD_REACTORS
330
9
102
}
330
9
100
AcDbDictionary
281
     1
  0
ACDBDICTIONARYWDFLT
  5
8
102
{ACAD_REACTORS
330
9
102
}
330
9
100
AcDbDictionary
281
     1
  3
Normal
350
7
100
AcDbDictionaryWithDefault
340
7
  0
DICTIONARY
  5
3EA
102
{ACAD_REACTORS
330
9
102
}
330
9
100
AcDbDictionary
281
     1
  3
COLORDICT
350
3EC
  3
MATERIALDICT
350
3EB
  0
DICTIONARY
  5
3E5
102
{ACAD_REACTORS
330
9
102
}
330
9
100
AcDbDictionary
281
     1
  3
DIMASSOC
350
3E7
  3
HIDETEXT
350
3E6
  3
PROJECTNAME
350
3E8
  0
DICTIONARY
  5
3A6
102
{ACAD_REACTORS
330
9
102
}
330
9
100
AcDbDictionary
281
     1
  3
ASEBlockHierarchyIndexRecord
350
3A8
1001
DCO15
1040
1627816527.512
  0
DICTIONARY
  5
14
102
{ACAD_REACTORS
330
13
102
}
330
13
100
AcDbDictionary
281
     1
  0
SORTENTSTABLE
  5
4
102
{ACAD_REACTORS
330
3
102
}
330
3
100
AcDbSortentsTable
330
2
  0
LAYOUT
  5
C
102
{ACAD_XDICTIONARY
360
3ED
102
}
102
{ACAD_REACTORS
330
D
102
}
330
D
100
AcDbPlotSettings
  1

  2
Ａ４－縦3FRIM01.pc3
  4
A4
  6

 40
5.873749732971191
 41
5.873747825622558
 42
5.873748779296875
 43
5.873748779296875
 44
209.9733276367187
 45
296.9259948730469
 46
5.429999999999999
 47
0.0
 48
0.0
 49
0.0
140
0.0
141
0.0
142
1.0
143
1.382400741325372
 70
 11956
 72
     1
 73
     0
 74
     1
  7
tmsacad.ctb
 75
     0
147
0.7233792417105138
148
0.009170693714168
149
0.0078838135646038
100
AcDbLayout
  1
Model
 70
     1
 71
     0
 10
0.0
 20
0.0
 11
12.0
 21
9.0
 12
0.0
 22
0.0
 32
0.0
 14
0.0
 24
0.0
 34
0.0
 15
0.0
 25
0.0
 35
0.0
146
0.0
 13
0.0
 23
0.0
 33
0.0
 16
1.0
 26
0.0
 36
0.0
 17
0.0
 27
1.0
 37
0.0
 76
     0
330
2
  0
LAYOUT
  5
11
102
{ACAD_XDICTIONARY
360
3EF
102
}
102
{ACAD_REACTORS
330
D
102
}
330
D
100
AcDbPlotSettings
  1

  2
None
  4

  6

 40
0.0
 41
0.0
 42
0.0
 43
0.0
 44
0.0
 45
0.0
 46
0.0
 47
0.0
 48
0.0
 49
0.0
140
0.0
141
0.0
142
1.0
143
1.0
 70
   688
 72
     0
 73
     0
 74
     5
  7
tmsacad.ctb
 75
    16
147
1.0
148
0.0
149
0.0
100
AcDbLayout
  1
レイアウト1
 70
     1
 71
     1
 10
0.0
 20
0.0
 11
12.0
 21
9.0
 12
0.0
 22
0.0
 32
0.0
 14
0.0
 24
0.0
 34
0.0
 15
0.0
 25
0.0
 35
0.0
146
0.0
 13
0.0
 23
0.0
 33
0.0
 16
1.0
 26
0.0
 36
0.0
 17
0.0
 27
1.0
 37
0.0
 76
     0
330
E
  0
MLINESTYLE
  5
30
102
{ACAD_REACTORS
330
2B
102
}
330
2B
100
AcDbMlineStyle
  2
STANDARD
 70
     0
  3

 62
   256
 51
90.0
 52
90.0
 71
     2
 49
0.5
 62
   256
  6
BYLAYER
 49
-0.5
 62
   256
  6
BYLAYER
  0
ACDBPLACEHOLDER
  5
7
102
{ACAD_REACTORS
330
8
102
}
330
8
  0
XRECORD
  5
3EC
102
{ACAD_REACTORS
330
3EA
102
}
330
3EA
100
AcDbXrecord
280
     1
340
2E
  0
XRECORD
  5
3EB
102
{ACAD_REACTORS
330
3EA
102
}
330
3EA
100
AcDbXrecord
280
     1
340
2D
  0
DICTIONARYVAR
  5
3E7
102
{ACAD_REACTORS
330
3E5
102
}
330
3E5
100
DictionaryVariables
280
     0
  1
1
  0
DICTIONARYVAR
  5
3E6
102
{ACAD_REACTORS
330
3E5
102
}
330
3E5
100
DictionaryVariables
280
     0
  1
1
  0
DICTIONARYVAR
  5
3E8
102
{ACAD_REACTORS
330
3E5
102
}
330
3E5
100
DictionaryVariables
280
     0
  1

  0
XRECORD
  5
3A8
102
{ACAD_REACTORS
330
3A6
102
}
330
3A6
100
AcDbXrecord
280
     1
330
36B
330
37D
330
314
330
315
330
321
330
322
330
174
330
175
330
182
330
183
330
3B9
330
3BA
330
3C5
330
3C6
330
3D1
330
3D2
330
3DD
330
3DE
  0
DICTIONARY
  5
3ED
330
C
100
AcDbDictionary
280
     1
281
     1
  3
ACAD_XREC_ROUNDTRIP
360
3EE
  0
DICTIONARY
  5
3EF
330
11
100
AcDbDictionary
280
     1
281
     1
  3
ACAD_XREC_ROUNDTRIP
360
3F0
  0
XRECORD
  5
3EE
102
{ACAD_REACTORS
330
3ED
102
}
330
3ED
100
AcDbXrecord
280
     1
102
SHADEPLOT
 70
     0
102
SHADEPLOTRESLEVEL
 70
     2
102
SHADEPLOTCUSTOMDPI
 70
   300
  0
XRECORD
  5
3F0
102
{ACAD_REACTORS
330
3EF
102
}
330
3EF
100
AcDbXrecord
280
     1
102
SHADEPLOT
 70
     0
102
SHADEPLOTRESLEVEL
 70
     2
102
SHADEPLOTCUSTOMDPI
 70
   300
  0
ENDSEC
  0
EOF
