  0
SECTION
  2
HEADER
  9
$ACADVER
  1
AC1015
  9
$ACADMAINTVER
 70
    20
  9
$DWGCODEPAGE
  3
ANSI_932
  9
$INSBASE
 10
0.4999999440410648
 20
372.5008351249344
 30
0.0
  9
$EXTMIN
 10
-58.01147369902048
 20
-61.18917784652342
 30
-0.0015258207003583
  9
$EXTMAX
 10
67.02209529353092
 20
51.81275980548559
 30
0.0000000349246037
  9
$LIMMIN
 10
0.0
 20
0.0
  9
$LIMMAX
 10
420.0
 20
297.0
  9
$ORTHOMODE
 70
     1
  9
$REGENMODE
 70
     0
  9
$FILLMODE
 70
     1
  9
$QTEXTMODE
 70
     0
  9
$MIRRTEXT
 70
     0
  9
$LTSCALE
 40
1.0
  9
$ATTMODE
 70
     1
  9
$TEXTSIZE
 40
2.5
  9
$TRACEWID
 40
1.0
  9
$TEXTSTYLE
  7
Standard
  9
$CLAYER
  8
SUNPO
  9
$CELTYPE
  6
ByLayer
  9
$CECOLOR
 62
   256
  9
$CELTSCALE
 40
1.0
  9
$DISPSILH
 70
     0
  9
$DIMSCALE
 40
1.0
  9
$DIMASZ
 40
2.0
  9
$DIMEXO
 40
2.0
  9
$DIMDLI
 40
8.0
  9
$DIMRND
 40
0.0
  9
$DIMDLE
 40
0.0
  9
$DIMEXE
 40
2.0
  9
$DIMTP
 40
0.0
  9
$DIMTM
 40
0.0
  9
$DIMTXT
 40
2.5
  9
$DIMCEN
 40
0.0
  9
$DIMTSZ
 40
0.0
  9
$DIMTOL
 70
     0
  9
$DIMLIM
 70
     0
  9
$DIMTIH
 70
     0
  9
$DIMTOH
 70
     0
  9
$DIMSE1
 70
     0
  9
$DIMSE2
 70
     0
  9
$DIMTAD
 70
     3
  9
$DIMZIN
 70
     0
  9
$DIMBLK
  1

  9
$DIMASO
 70
     1
  9
$DIMSHO
 70
     1
  9
$DIMPOST
  1

  9
$DIMAPOST
  1

  9
$DIMALT
 70
     0
  9
$DIMALTD
 70
     2
  9
$DIMALTF
 40
25.4
  9
$DIMLFAC
 40
1.0
  9
$DIMTOFL
 70
     1
  9
$DIMTVP
 40
0.0
  9
$DIMTIX
 70
     0
  9
$DIMSOXD
 70
     0
  9
$DIMSAH
 70
     1
  9
$DIMBLK1
  1
OPEN30
  9
$DIMBLK2
  1
OPEN30
  9
$DIMSTYLE
  2
STANDARD
  9
$DIMCLRD
 70
     0
  9
$DIMCLRE
 70
     0
  9
$DIMCLRT
 70
     0
  9
$DIMTFAC
 40
1.0
  9
$DIMGAP
 40
0.5
  9
$DIMJUST
 70
     0
  9
$DIMSD1
 70
     0
  9
$DIMSD2
 70
     0
  9
$DIMTOLJ
 70
     1
  9
$DIMTZIN
 70
     0
  9
$DIMALTZ
 70
     0
  9
$DIMALTTZ
 70
     0
  9
$DIMUPT
 70
     0
  9
$DIMDEC
 70
     4
  9
$DIMTDEC
 70
     4
  9
$DIMALTU
 70
     2
  9
$DIMALTTD
 70
     2
  9
$DIMTXSTY
  7
Standard
  9
$DIMAUNIT
 70
     0
  9
$DIMADEC
 70
     0
  9
$DIMALTRND
 40
0.0
  9
$DIMAZIN
 70
     0
  9
$DIMDSEP
 70
    46
  9
$DIMATFIT
 70
     3
  9
$DIMFRAC
 70
     0
  9
$DIMLDRBLK
  1
OPEN30
  9
$DIMLUNIT
 70
     2
  9
$DIMLWD
 70
    -2
  9
$DIMLWE
 70
    -2
  9
$DIMTMOVE
 70
     0
  9
$LUNITS
 70
     2
  9
$LUPREC
 70
     4
  9
$SKETCHINC
 40
1.0
  9
$FILLETRAD
 40
0.0
  9
$AUNITS
 70
     0
  9
$AUPREC
 70
     0
  9
$MENU
  1
.
  9
$ELEVATION
 40
0.0
  9
$PELEVATION
 40
0.0
  9
$THICKNESS
 40
0.0
  9
$LIMCHECK
 70
     0
  9
$CHAMFERA
 40
0.0
  9
$CHAMFERB
 40
0.0
  9
$CHAMFERC
 40
0.0
  9
$CHAMFERD
 40
0.0
  9
$SKPOLY
 70
     0
  9
$TDCREATE
 40
2454349.434269746
  9
$TDUCREATE
 40
2454349.059269746
  9
$TDUPDATE
 40
2454643.682310243
  9
$TDUUPDATE
 40
2454643.307310243
  9
$TDINDWG
 40
0.4609116898
  9
$TDUSRTIMER
 40
0.4609116898
  9
$USRTIMER
 70
     1
  9
$ANGBASE
 50
0.0
  9
$ANGDIR
 70
     0
  9
$PDMODE
 70
     0
  9
$PDSIZE
 40
0.0
  9
$PLINEWID
 40
0.0
  9
$SPLFRAME
 70
     0
  9
$SPLINETYPE
 70
     6
  9
$SPLINESEGS
 70
     8
  9
$HANDSEED
  5
200
  9
$SURFTAB1
 70
     6
  9
$SURFTAB2
 70
     6
  9
$SURFTYPE
 70
     6
  9
$SURFU
 70
     6
  9
$SURFV
 70
     6
  9
$UCSBASE
  2

  9
$UCSNAME
  2

  9
$UCSORG
 10
0.0
 20
0.0
 30
0.0
  9
$UCSXDIR
 10
1.0
 20
0.0
 30
0.0
  9
$UCSYDIR
 10
0.0
 20
1.0
 30
0.0
  9
$UCSORTHOREF
  2

  9
$UCSORTHOVIEW
 70
     0
  9
$UCSORGTOP
 10
0.0
 20
0.0
 30
0.0
  9
$UCSORGBOTTOM
 10
0.0
 20
0.0
 30
0.0
  9
$UCSORGLEFT
 10
0.0
 20
0.0
 30
0.0
  9
$UCSORGRIGHT
 10
0.0
 20
0.0
 30
0.0
  9
$UCSORGFRONT
 10
0.0
 20
0.0
 30
0.0
  9
$UCSORGBACK
 10
0.0
 20
0.0
 30
0.0
  9
$PUCSBASE
  2

  9
$PUCSNAME
  2

  9
$PUCSORG
 10
0.0
 20
0.0
 30
0.0
  9
$PUCSXDIR
 10
1.0
 20
0.0
 30
0.0
  9
$PUCSYDIR
 10
0.0
 20
1.0
 30
0.0
  9
$PUCSORTHOREF
  2

  9
$PUCSORTHOVIEW
 70
     0
  9
$PUCSORGTOP
 10
0.0
 20
0.0
 30
0.0
  9
$PUCSORGBOTTOM
 10
0.0
 20
0.0
 30
0.0
  9
$PUCSORGLEFT
 10
0.0
 20
0.0
 30
0.0
  9
$PUCSORGRIGHT
 10
0.0
 20
0.0
 30
0.0
  9
$PUCSORGFRONT
 10
0.0
 20
0.0
 30
0.0
  9
$PUCSORGBACK
 10
0.0
 20
0.0
 30
0.0
  9
$USERI1
 70
     0
  9
$USERI2
 70
     0
  9
$USERI3
 70
     0
  9
$USERI4
 70
     0
  9
$USERI5
 70
     0
  9
$USERR1
 40
0.0
  9
$USERR2
 40
0.0
  9
$USERR3
 40
0.0
  9
$USERR4
 40
0.0
  9
$USERR5
 40
0.0
  9
$WORLDVIEW
 70
     1
  9
$SHADEDGE
 70
     3
  9
$SHADEDIF
 70
    70
  9
$TILEMODE
 70
     1
  9
$MAXACTVP
 70
    64
  9
$PINSBASE
 10
0.0
 20
0.0
 30
0.0
  9
$PLIMCHECK
 70
     0
  9
$PEXTMIN
 10
0.0
 20
0.0
 30
0.0
  9
$PEXTMAX
 10
0.0
 20
0.0
 30
0.0
  9
$PLIMMIN
 10
0.0
 20
0.0
  9
$PLIMMAX
 10
12.0
 20
9.0
  9
$UNITMODE
 70
     0
  9
$VISRETAIN
 70
     1
  9
$PLINEGEN
 70
     0
  9
$PSLTSCALE
 70
     1
  9
$TREEDEPTH
 70
  3020
  9
$CMLSTYLE
  2
Standard
  9
$CMLJUST
 70
     0
  9
$CMLSCALE
 40
20.0
  9
$PROXYGRAPHICS
 70
     1
  9
$MEASUREMENT
 70
     1
  9
$CELWEIGHT
370
    -1
  9
$ENDCAPS
280
     0
  9
$JOINSTYLE
280
     0
  9
$LWDISPLAY
290
     0
  9
$INSUNITS
 70
     4
  9
$HYPERLINKBASE
  1

  9
$STYLESHEET
  1

  9
$XEDIT
290
     1
  9
$CEPSNTYPE
380
     0
  9
$PSTYLEMODE
290
     1
  9
$FINGERPRINTGUID
  2
{FDEAD578-A652-11D2-9A35-0060089B3A3F}
  9
$VERSIONGUID
  2
{9DDBB559-AECC-4ABC-AD48-22890894F577}
  9
$EXTNAMES
290
     1
  9
$PSVPSCALE
 40
0.0
  9
$OLESTARTUP
290
     0
  0
ENDSEC
  0
SECTION
  2
CLASSES
  0
CLASS
  1
ACDBDICTIONARYWDFLT
  2
AcDbDictionaryWithDefault
  3
ObjectDBX Classes
 90
        0
280
     0
281
     0
  0
CLASS
  1
ACDBPLACEHOLDER
  2
AcDbPlaceHolder
  3
ObjectDBX Classes
 90
        0
280
     0
281
     0
  0
CLASS
  1
LAYOUT
  2
AcDbLayout
  3
ObjectDBX Classes
 90
        0
280
     0
281
     0
  0
CLASS
  1
DICTIONARYVAR
  2
AcDbDictionaryVar
  3
ObjectDBX Classes
 90
        0
280
     0
281
     0
  0
CLASS
  1
SORTENTSTABLE
  2
AcDbSortentsTable
  3
ObjectDBX Classes
 90
        0
280
     0
281
     0
  0
CLASS
  1
DIMASSOC
  2
AcDbDimAssoc
  3
"AcDbDimAssoc|Product Desc:     AcDim ARX App For Dimension|Company:          Autodesk, Inc.|WEB Address:      www.autodesk.com"
 90
    32768
280
     0
281
     0
  0
ENDSEC
  0
SECTION
  2
TABLES
  0
TABLE
  2
VPORT
  5
1D
330
0
100
AcDbSymbolTable
 70
     3
  0
VPORT
  5
1F8
330
1D
100
AcDbSymbolTableRecord
100
AcDbViewportTableRecord
  2
*Active
 70
     0
 10
0.0
 20
0.0
 11
1.0
 21
1.0
 12
4.505310797255223
 22
-4.688209020518911
 13
0.0
 23
0.0
 14
10.0
 24
10.0
 15
10.0
 25
10.0
 16
0.0
 26
0.0
 36
1.0
 17
0.0
 27
0.0
 37
0.0
 40
113.8952336018272
 41
1.439313984168865
 42
50.0
 43
0.0
 44
0.0
 50
0.0
 51
0.0
 71
     0
 72
 10000
 73
     1
 74
     2
 75
     0
 76
     0
 77
     0
 78
     0
281
     0
 65
     1
110
0.0
120
0.0
130
0.0
111
1.0
121
0.0
131
0.0
112
0.0
122
1.0
132
0.0
 79
     0
146
0.0
  0
ENDTAB
  0
TABLE
  2
LTYPE
  5
18
330
0
100
AcDbSymbolTable
 70
     1
  0
LTYPE
  5
19
330
18
100
AcDbSymbolTableRecord
100
AcDbLinetypeTableRecord
  2
ByBlock
 70
     0
  3

 72
    65
 73
     0
 40
0.0
  0
LTYPE
  5
1A
330
18
100
AcDbSymbolTableRecord
100
AcDbLinetypeTableRecord
  2
ByLayer
 70
     0
  3

 72
    65
 73
     0
 40
0.0
  0
LTYPE
  5
A
330
18
100
AcDbSymbolTableRecord
100
AcDbLinetypeTableRecord
  2
Continuous
 70
     0
  3
Solid line
 72
    65
 73
     0
 40
0.0
  0
ENDTAB
  0
TABLE
  2
LAYER
  5
12
102
{ACAD_XDICTIONARY
360
13
102
}
330
0
100
AcDbSymbolTable
 70
     7
  0
LAYER
  5
6
330
12
100
AcDbSymbolTableRecord
100
AcDbLayerTableRecord
  2
0
 70
     0
 62
     7
  6
Continuous
370
    -3
390
7
  0
LAYER
  5
37
330
12
100
AcDbSymbolTableRecord
100
AcDbLayerTableRecord
  2
WAKU
 70
     0
 62
     4
  6
Continuous
370
    -3
390
7
  0
LAYER
  5
32
330
12
100
AcDbSymbolTableRecord
100
AcDbLayerTableRecord
  2
MOJI1
 70
     0
 62
     2
  6
Continuous
370
    -3
390
7
  0
LAYER
  5
52
330
12
100
AcDbSymbolTableRecord
100
AcDbLayerTableRecord
  2
TOUROKU
 70
     0
 62
     1
  6
Continuous
370
    -3
390
7
  0
LAYER
  5
55
330
12
100
AcDbSymbolTableRecord
100
AcDbLayerTableRecord
  2
GAIKEI
 70
     0
 62
     7
  6
Continuous
370
    -3
390
7
  0
LAYER
  5
195
330
12
100
AcDbSymbolTableRecord
100
AcDbLayerTableRecord
  2
DEFPOINTS
 70
     0
 62
     7
  6
Continuous
290
     0
370
    -3
390
7
  0
LAYER
  5
2F
330
12
100
AcDbSymbolTableRecord
100
AcDbLayerTableRecord
  2
SUNPO
 70
     0
 62
     3
  6
Continuous
370
    -3
390
7
  0
ENDTAB
  0
TABLE
  2
STYLE
  5
15
330
0
100
AcDbSymbolTable
 70
     1
  0
STYLE
  5
16
330
15
100
AcDbSymbolTableRecord
100
AcDbTextStyleTableRecord
  2
Standard
 70
     0
 40
0.0
 41
1.0
 50
0.0
 71
     0
 42
2.5
  3
MONOTXT.shx
  4
BIGFONT.shx
  0
ENDTAB
  0
TABLE
  2
VIEW
  5
1B
330
0
100
AcDbSymbolTable
 70
     0
  0
ENDTAB
  0
TABLE
  2
UCS
  5
1C
330
0
100
AcDbSymbolTable
 70
     0
  0
ENDTAB
  0
TABLE
  2
APPID
  5
1F
330
0
100
AcDbSymbolTable
 70
     2
  0
APPID
  5
20
330
1F
100
AcDbSymbolTableRecord
100
AcDbRegAppTableRecord
  2
ACAD
 70
     0
  0
APPID
  5
1C0
330
1F
100
AcDbSymbolTableRecord
100
AcDbRegAppTableRecord
  2
DCO15
 70
     0
  0
ENDTAB
  0
TABLE
  2
DIMSTYLE
  5
21
330
0
100
AcDbSymbolTable
 70
     1
100
AcDbDimStyleTable
 71
     1
340
22
  0
DIMSTYLE
105
22
102
{ACAD_REACTORS
330
189
330
19D
330
1AA
102
}
330
21
100
AcDbSymbolTableRecord
100
AcDbDimStyleTableRecord
  2
STANDARD
 70
     0
 40
0.0
 41
2.0
 42
2.0
 43
8.0
 44
2.0
 73
     0
 74
     0
 77
     3
140
3.0
141
0.0
173
     1
279
     2
288
     1
340
16
341
23
343
23
344
23
  0
ENDTAB
  0
TABLE
  2
BLOCK_RECORD
  5
1
330
0
100
AcDbSymbolTable
 70
     7
  0
BLOCK_RECORD
  5
2
102
{ACAD_XDICTIONARY
360
3
102
}
330
1
100
AcDbSymbolTableRecord
100
AcDbBlockTableRecord
  2
*Model_Space
340
C
  0
BLOCK_RECORD
  5
E
330
1
100
AcDbSymbolTableRecord
100
AcDbBlockTableRecord
  2
*Paper_Space
340
11
  0
BLOCK_RECORD
  5
23
330
1
100
AcDbSymbolTableRecord
100
AcDbBlockTableRecord
  2
_OPEN30
340
0
102
{BLKREFS
331
1A3
331
1A4
331
191
331
192
331
1B0
331
1B1
331
1D2
331
1D3
331
1DE
331
1DF
331
1EC
331
1ED
102
}
  0
BLOCK_RECORD
  5
18A
330
1
100
AcDbSymbolTableRecord
100
AcDbBlockTableRecord
  2
*D1
340
0
  0
BLOCK_RECORD
  5
19E
330
1
100
AcDbSymbolTableRecord
100
AcDbBlockTableRecord
  2
*D2
340
0
  0
BLOCK_RECORD
  5
1AB
330
1
100
AcDbSymbolTableRecord
100
AcDbBlockTableRecord
  2
*D3
340
0
  0
BLOCK_RECORD
  5
1CE
330
1
100
AcDbSymbolTableRecord
100
AcDbBlockTableRecord
  2
*D4
340
0
  0
BLOCK_RECORD
  5
1DA
330
1
100
AcDbSymbolTableRecord
100
AcDbBlockTableRecord
  2
*D5
340
0
  0
BLOCK_RECORD
  5
1E6
330
1
100
AcDbSymbolTableRecord
100
AcDbBlockTableRecord
  2
*D6
340
0
  0
ENDTAB
  0
ENDSEC
  0
SECTION
  2
BLOCKS
  0
BLOCK
  5
5
330
2
100
AcDbEntity
  8
0
100
AcDbBlockBegin
  2
*Model_Space
 70
     0
 10
0.0
 20
0.0
 30
0.0
  3
*Model_Space
  1

  0
ENDBLK
  5
B
330
2
100
AcDbEntity
  8
0
100
AcDbBlockEnd
  0
BLOCK
  5
F
330
E
100
AcDbEntity
 67
     1
  8
0
100
AcDbBlockBegin
  2
*Paper_Space
 70
     0
 10
0.0
 20
0.0
 30
0.0
  3
*Paper_Space
  1

  0
ENDBLK
  5
10
330
E
100
AcDbEntity
 67
     1
  8
0
100
AcDbBlockEnd
  0
BLOCK
  5
24
330
23
100
AcDbEntity
  8
0
100
AcDbBlockBegin
  2
_OPEN30
 70
     0
 10
0.0
 20
0.0
 30
0.0
  3
_OPEN30
  1

  0
LINE
  5
25
330
23
100
AcDbEntity
  8
0
  6
ByBlock
 62
     0
100
AcDbLine
 10
-1.0
 20
0.26794919
 30
0.0
 11
0.0
 21
0.0
 31
0.0
  0
LINE
  5
26
330
23
100
AcDbEntity
  8
0
  6
ByBlock
 62
     0
100
AcDbLine
 10
0.0
 20
0.0
 30
0.0
 11
-1.0
 21
-0.26794919
 31
0.0
  0
LINE
  5
27
330
23
100
AcDbEntity
  8
0
  6
ByBlock
 62
     0
100
AcDbLine
 10
0.0
 20
0.0
 30
0.0
 11
-1.0
 21
0.0
 31
0.0
  0
ENDBLK
  5
28
330
23
100
AcDbEntity
  8
0
100
AcDbBlockEnd
  0
BLOCK
  5
18B
330
18A
100
AcDbEntity
  8
0
100
AcDbBlockBegin
  2
*D1
 70
     1
 10
0.0
 20
0.0
 30
0.0
  3
*D1
  1

  0
LINE
  5
18C
330
18A
100
AcDbEntity
  8
SUNPO
 62
     0
370
    -2
100
AcDbLine
 10
101.1868855351945
 20
345.8622824972462
 30
0.0
 11
101.1868855351945
 21
353.8557499926871
 31
0.0
  0
LINE
  5
18D
330
18A
100
AcDbEntity
  8
SUNPO
 62
     0
370
    -2
100
AcDbLine
 10
105.6368855351945
 20
345.8622824972462
 30
0.0
 11
105.6368855351945
 21
353.8557499926871
 31
0.0
  0
LINE
  5
18E
330
18A
100
AcDbEntity
  8
SUNPO
 62
     0
370
    -2
100
AcDbLine
 10
99.18688553519452
 20
351.8557499926871
 30
0.0
 11
97.1868855351945
 21
351.8557499926871
 31
0.0
  0
LINE
  5
18F
330
18A
100
AcDbEntity
  8
SUNPO
 62
     0
370
    -2
100
AcDbLine
 10
107.6368855351945
 20
351.8557499926871
 30
0.0
 11
114.8035522018611
 21
351.8557499926871
 31
0.0
  0
LINE
  5
190
330
18A
100
AcDbEntity
  8
SUNPO
 62
     0
370
    -2
100
AcDbLine
 10
101.1868855351945
 20
351.8557499926871
 30
0.0
 11
105.6368855351945
 21
351.8557499926871
 31
0.0
  0
INSERT
  5
191
330
18A
100
AcDbEntity
  8
SUNPO
 62
     0
370
    -2
100
AcDbBlockReference
  2
_OPEN30
 10
101.1868855351945
 20
351.8557499926871
 30
0.0
 41
2.0
 42
2.0
 43
2.0
  0
INSERT
  5
192
330
18A
100
AcDbEntity
  8
SUNPO
 62
     0
370
    -2
100
AcDbBlockReference
  2
_OPEN30
 10
105.6368855351945
 20
351.8557499926871
 30
0.0
 41
2.0
 42
2.0
 43
2.0
 50
180.0
  0
MTEXT
  5
193
330
18A
100
AcDbEntity
  8
SUNPO
 62
     0
100
AcDbMText
 10
112.2202188685278
 20
353.6057499926871
 30
0.0
 40
2.5
 41
0.0
 71
     5
 72
     1
  1
\A1;89
 73
     1
 44
1.0
1001
ACAD
1000
MTEXTBEGIN
1070
    73
1070
     1
1070
    44
1040
1.0
1070
    74
1070
     0
1000
MTEXTEND
  0
POINT
  5
194
330
18A
100
AcDbEntity
  8
DEFPOINTS
 62
     0
100
AcDbPoint
 10
101.1868855351945
 20
343.8622824972462
 30
0.0
  0
POINT
  5
196
330
18A
100
AcDbEntity
  8
DEFPOINTS
 62
     0
100
AcDbPoint
 10
105.6368855351945
 20
343.8622824972462
 30
0.0
  0
POINT
  5
197
330
18A
100
AcDbEntity
  8
DEFPOINTS
 62
     0
100
AcDbPoint
 10
105.6368855351945
 20
351.8557499926871
 30
0.0
  0
ENDBLK
  5
198
330
18A
100
AcDbEntity
  8
0
100
AcDbBlockEnd
  0
BLOCK
  5
19F
330
19E
100
AcDbEntity
  8
0
100
AcDbBlockBegin
  2
*D2
 70
     1
 10
0.0
 20
0.0
 30
0.0
  3
*D2
  1

  0
LINE
  5
1A0
330
19E
100
AcDbEntity
  8
SUNPO
 62
     0
370
    -2
100
AcDbLine
 10
76.36895010155308
 20
313.3560364370385
 30
0.0
 11
84.36895010155309
 21
313.3560364370385
 31
0.0
  0
LINE
  5
1A1
330
19E
100
AcDbEntity
  8
SUNPO
 62
     0
370
    -2
100
AcDbLine
 10
76.36895010155308
 20
343.8560364370385
 30
0.0
 11
84.36895010155309
 21
343.8560364370385
 31
0.0
  0
LINE
  5
1A2
330
19E
100
AcDbEntity
  8
SUNPO
 62
     0
370
    -2
100
AcDbLine
 10
82.36895010155308
 20
315.3560364370385
 30
0.0
 11
82.36895010155308
 21
341.8560364370385
 31
0.0
  0
INSERT
  5
1A3
330
19E
100
AcDbEntity
  8
SUNPO
 62
     0
370
    -2
100
AcDbBlockReference
  2
_OPEN30
 10
82.36895010155308
 20
313.3560364370385
 30
0.0
 41
2.0
 42
2.0
 43
2.0
 50
270.0
  0
INSERT
  5
1A4
330
19E
100
AcDbEntity
  8
SUNPO
 62
     0
370
    -2
100
AcDbBlockReference
  2
_OPEN30
 10
82.36895010155308
 20
343.8560364370385
 30
0.0
 41
2.0
 42
2.0
 43
2.0
 50
90.0
  0
MTEXT
  5
1A5
330
19E
100
AcDbEntity
  8
SUNPO
 62
     0
100
AcDbMText
 10
80.61895010155302
 20
328.6060364370385
 30
0.0
 40
2.5
 41
0.0
 71
     5
 72
     1
  1
\A1;610
 11
0.0000000000000001
 21
1.0
 31
0.0
 73
     1
 44
1.0
1001
ACAD
1000
MTEXTBEGIN
1070
    73
1070
     1
1070
    44
1040
1.0
1070
    74
1070
     0
1000
MTEXTEND
  0
POINT
  5
1A6
330
19E
100
AcDbEntity
  8
DEFPOINTS
 62
     0
100
AcDbPoint
 10
74.36895010155308
 20
313.3560364370385
 30
0.0
  0
POINT
  5
1A7
330
19E
100
AcDbEntity
  8
DEFPOINTS
 62
     0
100
AcDbPoint
 10
74.36895010155308
 20
343.8560364370385
 30
0.0
  0
POINT
  5
1A8
330
19E
100
AcDbEntity
  8
DEFPOINTS
 62
     0
100
AcDbPoint
 10
82.36895010155308
 20
343.8560364370385
 30
0.0
  0
ENDBLK
  5
1A9
330
19E
100
AcDbEntity
  8
0
100
AcDbBlockEnd
  0
BLOCK
  5
1AC
330
1AB
100
AcDbEntity
  8
0
100
AcDbBlockBegin
  2
*D3
 70
     1
 10
0.0
 20
0.0
 30
0.0
  3
*D3
  1

  0
LINE
  5
1AD
330
1AB
100
AcDbEntity
  8
SUNPO
 62
     0
370
    -2
100
AcDbLine
 10
24.25862069954303
 20
345.8557499926872
 30
0.0
 11
24.25862069954303
 21
353.8557499926871
 31
0.0
  0
LINE
  5
1AE
330
1AB
100
AcDbEntity
  8
SUNPO
 62
     0
370
    -2
100
AcDbLine
 10
74.35862069954305
 20
345.8557499926872
 30
0.0
 11
74.35862069954305
 21
353.8557499926871
 31
0.0
  0
LINE
  5
1AF
330
1AB
100
AcDbEntity
  8
SUNPO
 62
     0
370
    -2
100
AcDbLine
 10
26.25862069954303
 20
351.8557499926871
 30
0.0
 11
72.35862069954305
 21
351.8557499926871
 31
0.0
  0
INSERT
  5
1B0
330
1AB
100
AcDbEntity
  8
SUNPO
 62
     0
370
    -2
100
AcDbBlockReference
  2
_OPEN30
 10
24.25862069954303
 20
351.8557499926871
 30
0.0
 41
2.0
 42
2.0
 43
2.0
 50
180.0
  0
INSERT
  5
1B1
330
1AB
100
AcDbEntity
  8
SUNPO
 62
     0
370
    -2
100
AcDbBlockReference
  2
_OPEN30
 10
74.35862069954305
 20
351.8557499926871
 30
0.0
 41
2.0
 42
2.0
 43
2.0
  0
MTEXT
  5
1B2
330
1AB
100
AcDbEntity
  8
SUNPO
 62
     0
100
AcDbMText
 10
49.30862069954304
 20
353.6057499926871
 30
0.0
 40
2.5
 41
0.0
 71
     5
 72
     1
  1
\A1;1020
 73
     1
 44
1.0
1001
ACAD
1000
MTEXTBEGIN
1070
    73
1070
     1
1070
    44
1040
1.0
1070
    74
1070
     0
1000
MTEXTEND
  0
POINT
  5
1B3
330
1AB
100
AcDbEntity
  8
DEFPOINTS
 62
     0
100
AcDbPoint
 10
24.25862069954303
 20
343.8557499926872
 30
0.0
  0
POINT
  5
1B4
330
1AB
100
AcDbEntity
  8
DEFPOINTS
 62
     0
100
AcDbPoint
 10
74.35862069954305
 20
343.8557499926872
 30
0.0
  0
POINT
  5
1B5
330
1AB
100
AcDbEntity
  8
DEFPOINTS
 62
     0
100
AcDbPoint
 10
74.35862069954305
 20
351.8557499926871
 30
0.0
  0
ENDBLK
  5
1B6
330
1AB
100
AcDbEntity
  8
0
100
AcDbBlockEnd
  0
BLOCK
  5
1D8
330
1CE
100
AcDbEntity
  8
0
100
AcDbBlockBegin
  2
*D4
 70
     1
 10
0.0
 20
0.0
 30
0.0
  3
*D4
  1

  0
LINE
  5
1CF
330
1CE
100
AcDbEntity
  8
SUNPO
 62
     0
370
    -2
100
AcDbLine
 10
-36.2467359639835
 20
27.1657644902391
 30
0.0
 11
-36.2467359639835
 21
35.1657644902391
 31
0.0
  0
LINE
  5
1D0
330
1CE
100
AcDbEntity
  8
SUNPO
 62
     0
370
    -2
100
AcDbLine
 10
13.85326403601652
 20
27.1657644902391
 30
0.0
 11
13.85326403601652
 21
35.1657644902391
 31
0.0
  0
LINE
  5
1D1
330
1CE
100
AcDbEntity
  8
SUNPO
 62
     0
370
    -2
100
AcDbLine
 10
-34.2467359639835
 20
33.1657644902391
 30
0.0
 11
11.85326403601652
 21
33.1657644902391
 31
0.0
  0
INSERT
  5
1D2
330
1CE
100
AcDbEntity
  8
SUNPO
 62
     0
370
    -2
100
AcDbBlockReference
  2
_OPEN30
 10
-36.2467359639835
 20
33.1657644902391
 30
0.0
 41
2.0
 42
2.0
 43
2.0
 50
180.0
  0
INSERT
  5
1D3
330
1CE
100
AcDbEntity
  8
SUNPO
 62
     0
370
    -2
100
AcDbBlockReference
  2
_OPEN30
 10
13.85326403601652
 20
33.1657644902391
 30
0.0
 41
2.0
 42
2.0
 43
2.0
  0
MTEXT
  5
1D4
330
1CE
100
AcDbEntity
  8
SUNPO
 62
     0
100
AcDbMText
 10
-11.19673596398348
 20
34.9157644902391
 30
0.0
 40
2.5
 41
0.0
 71
     5
 72
     1
  1
\A1;1020
 73
     1
 44
1.0
1001
ACAD
1000
MTEXTBEGIN
1070
    73
1070
     1
1070
    44
1040
1.0
1070
    74
1070
     0
1000
MTEXTEND
  0
POINT
  5
1D5
330
1CE
100
AcDbEntity
  8
DEFPOINTS
 62
     0
100
AcDbPoint
 10
-36.2467359639835
 20
25.1657644902391
 30
0.0
  0
POINT
  5
1D6
330
1CE
100
AcDbEntity
  8
DEFPOINTS
 62
     0
100
AcDbPoint
 10
13.85326403601652
 20
25.1657644902391
 30
0.0
  0
POINT
  5
1D7
330
1CE
100
AcDbEntity
  8
DEFPOINTS
 62
     0
100
AcDbPoint
 10
13.85326403601652
 20
33.1657644902391
 30
0.0
  0
ENDBLK
  5
1D9
330
1CE
100
AcDbEntity
  8
0
100
AcDbBlockEnd
  0
BLOCK
  5
1E4
330
1DA
100
AcDbEntity
  8
0
100
AcDbBlockBegin
  2
*D5
 70
     1
 10
0.0
 20
0.0
 30
0.0
  3
*D5
  1

  0
LINE
  5
1DB
330
1DA
100
AcDbEntity
  8
SUNPO
 62
     0
370
    -2
100
AcDbLine
 10
15.86359343802655
 20
-5.33394906540957
 30
0.0
 11
23.86359343802655
 21
-5.333949065409573
 31
0.0
  0
LINE
  5
1DC
330
1DA
100
AcDbEntity
  8
SUNPO
 62
     0
370
    -2
100
AcDbLine
 10
15.86359343802655
 20
25.16605093459043
 30
0.0
 11
23.86359343802656
 21
25.16605093459043
 31
0.0
  0
LINE
  5
1DD
330
1DA
100
AcDbEntity
  8
SUNPO
 62
     0
370
    -2
100
AcDbLine
 10
21.86359343802655
 20
-3.333949065409572
 30
0.0
 11
21.86359343802655
 21
23.16605093459043
 31
0.0
  0
INSERT
  5
1DE
330
1DA
100
AcDbEntity
  8
SUNPO
 62
     0
370
    -2
100
AcDbBlockReference
  2
_OPEN30
 10
21.86359343802655
 20
-5.333949065409572
 30
0.0
 41
2.0
 42
2.0
 43
2.0
 50
270.0
  0
INSERT
  5
1DF
330
1DA
100
AcDbEntity
  8
SUNPO
 62
     0
370
    -2
100
AcDbBlockReference
  2
_OPEN30
 10
21.86359343802656
 20
25.16605093459043
 30
0.0
 41
2.0
 42
2.0
 43
2.0
 50
90.0
  0
MTEXT
  5
1E0
330
1DA
100
AcDbEntity
  8
SUNPO
 62
     0
100
AcDbMText
 10
20.11359343802655
 20
9.916050934590431
 30
0.0
 40
2.5
 41
0.0
 71
     5
 72
     1
  1
\A1;610
 11
0.0000000000000001
 21
1.0
 31
0.0
 73
     1
 44
1.0
1001
ACAD
1000
MTEXTBEGIN
1070
    73
1070
     1
1070
    44
1040
1.0
1070
    74
1070
     0
1000
MTEXTEND
  0
POINT
  5
1E1
330
1DA
100
AcDbEntity
  8
DEFPOINTS
 62
     0
100
AcDbPoint
 10
13.86359343802655
 20
-5.333949065409569
 30
0.0
  0
POINT
  5
1E2
330
1DA
100
AcDbEntity
  8
DEFPOINTS
 62
     0
100
AcDbPoint
 10
13.86359343802655
 20
25.16605093459043
 30
0.0
  0
POINT
  5
1E3
330
1DA
100
AcDbEntity
  8
DEFPOINTS
 62
     0
100
AcDbPoint
 10
21.86359343802656
 20
25.16605093459043
 30
0.0
  0
ENDBLK
  5
1E5
330
1DA
100
AcDbEntity
  8
0
100
AcDbBlockEnd
  0
BLOCK
  5
1F2
330
1E6
100
AcDbEntity
  8
0
100
AcDbBlockBegin
  2
*D6
 70
     1
 10
0.0
 20
0.0
 30
0.0
  3
*D6
  1

  0
LINE
  5
1E7
330
1E6
100
AcDbEntity
  8
SUNPO
 62
     0
370
    -2
100
AcDbLine
 10
40.68152887166798
 20
27.17229699479816
 30
0.0
 11
40.68152887166798
 21
35.1657644902391
 31
0.0
  0
LINE
  5
1E8
330
1E6
100
AcDbEntity
  8
SUNPO
 62
     0
370
    -2
100
AcDbLine
 10
45.13152887166796
 20
27.17229699479816
 30
0.0
 11
45.13152887166796
 21
35.1657644902391
 31
0.0
  0
LINE
  5
1E9
330
1E6
100
AcDbEntity
  8
SUNPO
 62
     0
370
    -2
100
AcDbLine
 10
38.68152887166798
 20
33.1657644902391
 30
0.0
 11
36.68152887166798
 21
33.1657644902391
 31
0.0
  0
LINE
  5
1EA
330
1E6
100
AcDbEntity
  8
SUNPO
 62
     0
370
    -2
100
AcDbLine
 10
47.13152887166796
 20
33.1657644902391
 30
0.0
 11
54.29819553833463
 21
33.1657644902391
 31
0.0
  0
LINE
  5
1EB
330
1E6
100
AcDbEntity
  8
SUNPO
 62
     0
370
    -2
100
AcDbLine
 10
40.68152887166798
 20
33.1657644902391
 30
0.0
 11
45.13152887166796
 21
33.1657644902391
 31
0.0
  0
INSERT
  5
1EC
330
1E6
100
AcDbEntity
  8
SUNPO
 62
     0
370
    -2
100
AcDbBlockReference
  2
_OPEN30
 10
40.68152887166798
 20
33.1657644902391
 30
0.0
 41
2.0
 42
2.0
 43
2.0
  0
INSERT
  5
1ED
330
1E6
100
AcDbEntity
  8
SUNPO
 62
     0
370
    -2
100
AcDbBlockReference
  2
_OPEN30
 10
45.13152887166796
 20
33.1657644902391
 30
0.0
 41
2.0
 42
2.0
 43
2.0
 50
180.0
  0
MTEXT
  5
1EE
330
1E6
100
AcDbEntity
  8
SUNPO
 62
     0
100
AcDbMText
 10
51.7148622050013
 20
34.9157644902391
 30
0.0
 40
2.5
 41
0.0
 71
     5
 72
     1
  1
\A1;89
 73
     1
 44
1.0
1001
ACAD
1000
MTEXTBEGIN
1070
    73
1070
     1
1070
    44
1040
1.0
1070
    74
1070
     0
1000
MTEXTEND
  0
POINT
  5
1EF
330
1E6
100
AcDbEntity
  8
DEFPOINTS
 62
     0
100
AcDbPoint
 10
40.68152887166798
 20
25.17229699479816
 30
0.0
  0
POINT
  5
1F0
330
1E6
100
AcDbEntity
  8
DEFPOINTS
 62
     0
100
AcDbPoint
 10
45.13152887166796
 20
25.17229699479816
 30
0.0
  0
POINT
  5
1F1
330
1E6
100
AcDbEntity
  8
DEFPOINTS
 62
     0
100
AcDbPoint
 10
45.13152887166796
 20
33.1657644902391
 30
0.0
  0
ENDBLK
  5
1F3
330
1E6
100
AcDbEntity
  8
0
100
AcDbBlockEnd
  0
ENDSEC
  0
SECTION
  2
ENTITIES
  0
TEXT
  5
31
330
2
100
AcDbEntity
  8
MOJI1
100
AcDbText
 10
-16.50535671948526
 20
-45.18915037751344
 30
0.0
 40
3.0
  1
４０９６階調（相当）
100
AcDbText
  0
TEXT
  5
33
330
2
100
AcDbEntity
  8
MOJI1
100
AcDbText
 10
-16.50535671948526
 20
-40.18915037751344
 30
0.0
 40
3.0
  1
１５０００：１
100
AcDbText
  0
TEXT
  5
34
330
2
100
AcDbEntity
  8
MOJI1
100
AcDbText
 10
-55.50535671948527
 20
-45.18915037751344
 30
0.0
 40
3.0
  1
階調数
100
AcDbText
  0
TEXT
  5
35
330
2
100
AcDbEntity
  8
MOJI1
100
AcDbText
 10
-55.50535671948527
 20
-40.18915037751344
 30
0.0
 40
3.0
  1
コントラスト
100
AcDbText
  0
LINE
  5
36
330
2
100
AcDbEntity
  8
WAKU
 62
     1
100
AcDbLine
 10
-58.00535671948527
 20
-46.18915037751344
 30
0.0
 11
66.99464328051451
 21
-46.18915037751344
 31
0.0
  0
LINE
  5
38
330
2
100
AcDbEntity
  8
WAKU
 62
     1
100
AcDbLine
 10
-58.00535671948527
 20
-41.18915037751344
 30
0.0
 11
66.99464328051451
 21
-41.18915037751344
 31
0.0
  0
TEXT
  5
39
330
2
100
AcDbEntity
  8
MOJI1
100
AcDbText
 10
-55.50535671948527
 20
-20.18915037751344
 30
0.0
 40
3.0
  1
電  源
100
AcDbText
  0
TEXT
  5
3A
330
2
100
AcDbEntity
  8
MOJI1
100
AcDbText
 10
-55.50535671948527
 20
-25.18915037751344
 30
0.0
 40
3.0
  1
消費電力
100
AcDbText
  0
TEXT
  5
3B
330
2
100
AcDbEntity
  8
MOJI1
100
AcDbText
 10
-55.50535671948527
 20
-30.18915037751344
 30
0.0
 40
3.0
  1
画面サイズ
100
AcDbText
  0
TEXT
  5
3C
330
2
100
AcDbEntity
  8
MOJI1
100
AcDbText
 10
-16.50535671948526
 20
-25.18915037751344
 30
0.0
 40
3.0
  1
３５５Ｗ
100
AcDbText
  0
TEXT
  5
3D
330
2
100
AcDbEntity
  8
MOJI1
100
AcDbText
 10
-16.50535671948526
 20
-30.18915037751344
 30
0.0
 40
3.0
  1
４２Ｖ型（１６：９）
100
AcDbText
  0
TEXT
  5
3E
330
2
100
AcDbEntity
  8
MOJI1
100
AcDbText
 10
-16.50535671948526
 20
-20.18915037751344
 30
0.0
 40
3.0
  1
ＡＣ１００Ｖ　５０Ｈｚ／６０Ｈｚ
100
AcDbText
  0
TEXT
  5
3F
330
2
100
AcDbEntity
  8
MOJI1
100
AcDbText
 10
-55.50535671948527
 20
-55.18915037751344
 30
0.0
 40
3.0
  1
接続端子
100
AcDbText
  0
TEXT
  5
40
330
2
100
AcDbEntity
  8
MOJI1
100
AcDbText
 10
-55.50535671948527
 20
-50.18915037751344
 30
0.0
 40
3.0
  1
音声最大出力
100
AcDbText
  0
TEXT
  5
41
330
2
100
AcDbEntity
  8
MOJI1
100
AcDbText
 10
-16.50535671948526
 20
-50.18915037751344
 30
0.0
 40
3.0
  1
１６Ｗ（８Ｗ＋８Ｗ）
100
AcDbText
  0
TEXT
  5
42
330
2
100
AcDbEntity
  8
MOJI1
100
AcDbText
 10
-16.50535671948526
 20
-60.18915037751344
 30
0.0
 40
3.0
  1
シリアル
100
AcDbText
  0
TEXT
  5
43
330
2
100
AcDbEntity
  8
MOJI1
100
AcDbText
 10
-16.50535671948526
 20
-55.18915037751344
 30
0.0
 40
3.0
  1
ビデオ／Ｓビデオ／ＰＣ／外部スピーカ
100
AcDbText
  0
TEXT
  5
44
330
2
100
AcDbEntity
  8
MOJI1
100
AcDbText
 10
-16.50535671948526
 20
-35.18915037751344
 30
0.0
 40
3.0
  1
７８６４３２画素（水平１０２４×垂直７６８）
100
AcDbText
  0
LINE
  5
45
330
2
100
AcDbEntity
  8
WAKU
 62
     4
100
AcDbLine
 10
-18.00535671948549
 20
-16.18915037751344
 30
0.0
 11
-18.00535671948549
 21
-61.18915037751344
 31
0.0
  0
TEXT
  5
46
330
2
100
AcDbEntity
  8
MOJI1
100
AcDbText
 10
-55.50535671948527
 20
-35.18915037751344
 30
0.0
 40
3.0
  1
画素数
100
AcDbText
  0
LINE
  5
47
330
2
100
AcDbEntity
  8
WAKU
 62
     4
100
AcDbLine
 10
66.99464328051451
 20
-16.18915037751344
 30
0.0
 11
66.99464328051451
 21
-61.18915037751344
 31
0.0
  0
LINE
  5
48
330
2
100
AcDbEntity
  8
WAKU
 62
     4
100
AcDbLine
 10
-58.00535671948549
 20
-16.18915037751344
 30
0.0
 11
-58.00535671948527
 21
-61.18915037751344
 31
0.0
  0
LINE
  5
49
330
2
100
AcDbEntity
  8
WAKU
 62
     4
100
AcDbLine
 10
66.99464328051451
 20
-61.18915037751344
 30
0.0
 11
-58.00535671948527
 21
-61.18915037751344
 31
0.0
  0
LINE
  5
4A
330
2
100
AcDbEntity
  8
WAKU
 62
     1
100
AcDbLine
 10
-58.00535671948527
 20
-56.18915037751344
 30
0.0
 11
66.99464328051451
 21
-56.18915037751344
 31
0.0
  0
LINE
  5
4B
330
2
100
AcDbEntity
  8
WAKU
 62
     1
100
AcDbLine
 10
-58.00535671948527
 20
-51.18915037751344
 30
0.0
 11
66.99464328051451
 21
-51.18915037751344
 31
0.0
  0
LINE
  5
4C
330
2
100
AcDbEntity
  8
WAKU
 62
     1
100
AcDbLine
 10
-58.00535671948527
 20
-31.18915037751345
 30
0.0
 11
66.99464328051451
 21
-31.18915037751345
 31
0.0
  0
LINE
  5
4D
330
2
100
AcDbEntity
  8
WAKU
 62
     1
100
AcDbLine
 10
-58.00535671948527
 20
-21.18915037751344
 30
0.0
 11
66.99464328051451
 21
-21.18915037751344
 31
0.0
  0
LINE
  5
4E
330
2
100
AcDbEntity
  8
WAKU
 62
     4
100
AcDbLine
 10
-58.00535671948527
 20
-16.18915037751344
 30
0.0
 11
66.99464328051451
 21
-16.18915037751344
 31
0.0
  0
LINE
  5
4F
330
2
100
AcDbEntity
  8
WAKU
 62
     1
100
AcDbLine
 10
-58.00535671948527
 20
-36.18915037751345
 30
0.0
 11
66.99464328051451
 21
-36.18915037751345
 31
0.0
  0
LINE
  5
50
330
2
100
AcDbEntity
  8
WAKU
 62
     1
100
AcDbLine
 10
-58.00535671948527
 20
-26.18915037751345
 30
0.0
 11
66.99464328051451
 21
-26.18915037751345
 31
0.0
  0
TEXT
  5
51
330
2
100
AcDbEntity
  8
TOUROKU
100
AcDbText
 10
43.66125998010872
 20
41.81084962248633
 30
0.0
 40
2.0
  1
ＴＨ４２ＰＨ１１ＫＲ
 72
     2
 11
66.99459331344207
 21
41.81084962248633
 31
0.0
100
AcDbText
  0
TEXT
  5
53
330
2
100
AcDbEntity
  8
MOJI1
100
AcDbText
 10
-31.00535671948549
 20
47.81084962248655
 30
0.0
 40
4.0
  1
ハイビジョンプラズマディスプレイ
100
AcDbText
  0
ELLIPSE
  5
54
330
2
100
AcDbEntity
  8
GAIKEI
  6
Continuous
 62
     1
100
AcDbEllipse
 10
-36.16458121508396
 20
25.01668218084387
 30
0.0
 11
-0.0079467640876592
 21
0.4318755208183608
 31
0.0
210
0.0
220
0.0
230
1.0
 40
0.0404429999982552
 41
4.285401047308635
 42
4.371811220305964
  0
ELLIPSE
  5
56
330
2
100
AcDbEntity
  8
GAIKEI
  6
Continuous
 62
     1
100
AcDbEllipse
 10
-36.1645812150839
 20
-5.16957856219119
 30
0.0
 11
0.007946764087659
 21
0.4318755208183799
 31
0.0
210
0.0
220
0.0
230
1.0
 40
0.0404429999982537
 41
-1.230218566716188
 42
-1.143808393718863
  0
ELLIPSE
  5
57
330
2
100
AcDbEntity
  8
GAIKEI
  6
Continuous
 62
     1
100
AcDbEllipse
 10
-36.08967736037789
 20
25.09158603554999
 30
0.0
 11
-0.4318755208192345
 21
0.0079467640870345
 31
0.0
210
0.0
220
0.0
230
1.0
 40
0.0404429999987592
 41
1.911374086872785
 42
1.997784259870051
  0
ELLIPSE
  5
58
330
2
100
AcDbEntity
  8
GAIKEI
  6
Continuous
 62
     1
100
AcDbEllipse
 10
-36.08967736037789
 20
-5.244482416897369
 30
0.0
 11
0.4318755208195003
 21
0.0079467640870295
 31
0.0
210
0.0
220
0.0
230
1.0
 40
0.0404429999987397
 41
1.14380839372002
 42
1.230218566717296
  0
ELLIPSE
  5
59
330
2
100
AcDbEntity
  8
GAIKEI
  6
Continuous
 62
     1
100
AcDbEllipse
 10
13.77129847059245
 20
-5.16957856219119
 30
0.0
 11
-0.007946764091891
 21
0.4318755205240271
 31
0.0
210
0.0
220
0.0
230
1.0
 40
0.0404430000213599
 41
1.143808393408041
 42
1.23021856647389
  0
ELLIPSE
  5
5A
330
2
100
AcDbEntity
  8
GAIKEI
  6
Continuous
 62
     1
100
AcDbEllipse
 10
13.77129847059245
 20
25.01668218084387
 30
0.0
 11
0.0079467640876545
 21
0.4318755208186895
 31
0.0
210
0.0
220
0.0
230
1.0
 40
0.0404429999982294
 41
1.911374086873349
 42
1.997784259870601
  0
ELLIPSE
  5
5B
330
2
100
AcDbEntity
  8
GAIKEI
  6
Continuous
 62
     1
100
AcDbEllipse
 10
13.69639461588633
 20
25.09158603554999
 30
0.0
 11
0.4318755208195939
 21
0.007946764087639
 31
0.0
210
0.0
220
0.0
230
1.0
 40
0.040442999998161
 41
4.285401047309866
 42
4.37181122030712
  0
ELLIPSE
  5
5C
330
2
100
AcDbEntity
  8
GAIKEI
  6
Continuous
 62
     1
100
AcDbEllipse
 10
13.69639461588633
 20
-5.244482416897369
 30
0.0
 11
-0.4318755208195887
 21
0.0079467640876391
 31
0.0
210
0.0
220
0.0
230
1.0
 40
0.0404429999981614
 41
-1.230218566717322
 42
-1.143808393720068
  0
ELLIPSE
  5
5D
330
2
100
AcDbEntity
  8
GAIKEI
  6
Continuous
 62
     1
100
AcDbEllipse
 10
-33.67514740872224
 20
22.92846601447223
 30
0.0
 11
-0.0641306772673077
 21
0.0819853242396075
 31
0.0
210
0.0
220
0.0
230
1.0
 40
0.9602119999885655
 41
-0.6513938849655593
 42
-0.3742724759626874
  0
ELLIPSE
  5
5E
330
2
100
AcDbEntity
  8
GAIKEI
  6
Continuous
 62
     1
100
AcDbEllipse
 10
11.31322682627183
 20
22.92846601447223
 30
0.0
 11
0.0641306772729958
 21
0.0819853242353328
 31
0.0
210
0.0
220
0.0
230
1.0
 40
0.9602119999921054
 41
0.3742724760321388
 42
0.6513938850329191
  0
ELLIPSE
  5
5F
330
2
100
AcDbEntity
  8
GAIKEI
  6
Continuous
 62
     1
100
AcDbEllipse
 10
-33.67514740872219
 20
-2.948916006033641
 30
0.0
 11
0.0641306772804553
 21
0.0819853242296695
 31
0.0
210
0.0
220
0.0
230
1.0
 40
0.960211999997915
 41
3.515865129711884
 42
3.792986538710805
  0
ELLIPSE
  5
60
330
2
100
AcDbEntity
  8
GAIKEI
  6
Continuous
 62
     1
100
AcDbEllipse
 10
11.31322682627183
 20
-2.948916006033641
 30
0.0
 11
-0.0641306772997718
 21
0.081985324215292
 31
0.0
210
0.0
220
0.0
230
1.0
 40
0.9602120000078306
 41
2.490198768239517
 42
2.767320177232699
  0
ELLIPSE
  5
61
330
2
100
AcDbEntity
  8
GAIKEI
  6
Continuous
 62
     1
100
AcDbEllipse
 10
-33.67513645774932
 20
22.92845506349937
 30
0.0
 11
-0.0820793596799872
 21
0.0640376871272272
 31
0.0
210
0.0
220
0.0
230
1.0
 40
0.960042000004322
 41
0.3752614366540838
 42
0.6500607538632135
  0
ELLIPSE
  5
62
330
2
100
AcDbEntity
  8
GAIKEI
  6
Continuous
 62
     1
100
AcDbEllipse
 10
-33.67513645774926
 20
-2.948905055060663
 30
0.0
 11
0.0820793596877476
 21
0.0640376871167843
 31
0.0
210
0.0
220
0.0
230
1.0
 40
0.9600419999991441
 41
2.491531899849828
 42
2.766331217060938
  0
ELLIPSE
  5
63
330
2
100
AcDbEntity
  8
GAIKEI
  6
Continuous
 62
     1
100
AcDbEllipse
 10
11.31321587529896
 20
22.92845506349937
 30
0.0
 11
0.0820793596853468
 21
0.0640376871199563
 31
0.0
210
0.0
220
0.0
230
1.0
 40
0.9600420000016073
 41
-0.6500607537771041
 42
-0.3752614365658411
  0
ELLIPSE
  5
64
330
2
100
AcDbEntity
  8
GAIKEI
  6
Continuous
 62
     1
100
AcDbEllipse
 10
11.31321587529896
 20
-2.948905055060663
 30
0.0
 11
-0.0820793596818472
 21
0.064037687124634
 31
0.0
210
0.0
220
0.0
230
1.0
 40
0.9600420000044229
 41
3.516854090213623
 42
3.791653407422807
  0
ELLIPSE
  5
65
330
2
100
AcDbEntity
  8
GAIKEI
  6
Continuous
 62
     1
100
AcDbEllipse
 10
11.31322682627183
 20
-2.946177062696847
 30
0.0
 11
-0.0911712405080007
 21
0.1233277373757855
 31
0.0
210
0.0
220
0.0
230
1.0
 40
0.977625999999314
 41
2.515781018547835
 42
2.792902427545178
  0
ELLIPSE
  5
66
330
2
100
AcDbEntity
  8
GAIKEI
  6
Continuous
 62
     1
100
AcDbEllipse
 10
-33.67514740872219
 20
-2.946177062696847
 30
0.0
 11
0.0911712404724387
 21
0.1233277374014959
 31
0.0
210
0.0
220
0.0
230
1.0
 40
0.9776259999899165
 41
3.490282879346349
 42
3.767404288348283
  0
ELLIPSE
  5
67
330
2
100
AcDbEntity
  8
GAIKEI
  6
Continuous
 62
     1
100
AcDbEllipse
 10
-33.67514740872224
 20
22.92572707113544
 30
0.0
 11
-0.0911712405137962
 21
0.1233277373716018
 31
0.0
210
0.0
220
0.0
230
1.0
 40
0.9776260000001293
 41
-0.6258116350885031
 42
-0.3486902260919513
  0
ELLIPSE
  5
68
330
2
100
AcDbEntity
  8
GAIKEI
  6
Continuous
 62
     1
100
AcDbEllipse
 10
11.31322682627183
 20
22.92572707113544
 30
0.0
 11
0.0911712405204928
 21
0.1233277373667308
 31
0.0
210
0.0
220
0.0
230
1.0
 40
0.9776260000027797
 41
0.3486902261462024
 42
0.6258116351416079
  0
ELLIPSE
  5
69
330
2
100
AcDbEntity
  8
GAIKEI
  6
Continuous
 62
     1
100
AcDbEllipse
 10
-33.67235761086727
 20
-2.948905055060663
 30
0.0
 11
0.1234686257683748
 21
0.0910092022787943
 31
0.0
210
0.0
220
0.0
230
1.0
 40
0.9775040000039993
 41
2.51722575267712
 42
2.792025069887031
  0
ELLIPSE
  5
6A
330
2
100
AcDbEntity
  8
GAIKEI
  6
Continuous
 62
     1
100
AcDbEllipse
 10
-33.67235761086732
 20
22.92845506349937
 30
0.0
 11
-0.1234686257922888
 21
0.0910092022455151
 31
0.0
210
0.0
220
0.0
230
1.0
 40
0.9775039999962212
 41
0.3495675834329772
 42
0.6243669006472979
  0
ELLIPSE
  5
6B
330
2
100
AcDbEntity
  8
GAIKEI
  6
Continuous
 62
     1
100
AcDbEllipse
 10
11.31043702841691
 20
22.92845506349937
 30
0.0
 11
0.1234686257867853
 21
0.0910092022531102
 31
0.0
210
0.0
220
0.0
230
1.0
 40
0.977503999999106
 41
-0.624366900707318
 42
-0.3495675834944374
  0
ELLIPSE
  5
6C
330
2
100
AcDbEntity
  8
GAIKEI
  6
Continuous
 62
     1
100
AcDbEllipse
 10
11.31043702841691
 20
-2.948905055060663
 30
0.0
 11
-0.1234686257771081
 21
0.0910092022665973
 31
0.0
210
0.0
220
0.0
230
1.0
 40
0.977504000001821
 41
3.491160237193698
 42
3.76595955440519
  0
ELLIPSE
  5
6D
330
2
100
AcDbEntity
  8
GAIKEI
  6
Continuous
 62
     1
100
AcDbEllipse
 10
13.69639461588633
 20
25.01668218084387
 30
0.0
 11
-0.0458035635644591
 21
0.4845611117803465
 31
0.0
210
0.0
220
0.0
230
1.0
 40
0.0083090000075435
 41
4.334209237380324
 42
4.420619410483875
  0
ELLIPSE
  5
6E
330
2
100
AcDbEntity
  8
GAIKEI
  6
Continuous
 62
     1
100
AcDbEllipse
 10
13.69639461588633
 20
25.01668218084387
 30
0.0
 11
-0.4845611135830396
 21
0.0458035637240449
 31
0.0
210
0.0
220
0.0
230
1.0
 40
0.0083089999805696
 41
-1.279026758011011
 42
-1.192616585267888
  0
ELLIPSE
  5
6F
330
2
100
AcDbEntity
  8
GAIKEI
  6
Continuous
 62
     1
100
AcDbEllipse
 10
13.69639461588633
 20
-5.16957856219119
 30
0.0
 11
0.4845611134166673
 21
0.0458035637092122
 31
0.0
210
0.0
220
0.0
230
1.0
 40
0.0083089999831293
 41
4.334209238721307
 42
4.420619411497712
  0
ELLIPSE
  5
70
330
2
100
AcDbEntity
  8
GAIKEI
  6
Continuous
 62
     1
100
AcDbEllipse
 10
13.69639461588633
 20
-5.16957856219119
 30
0.0
 11
0.0458035635727632
 21
0.4845611118773599
 31
0.0
210
0.0
220
0.0
230
1.0
 40
0.0083090000063217
 41
-1.279026756954143
 42
-1.192616583870014
  0
ELLIPSE
  5
71
330
2
100
AcDbEntity
  8
GAIKEI
  6
Continuous
 62
     1
100
AcDbEllipse
 10
12.84465329437125
 20
-4.317837240676226
 30
0.0
 11
-0.5814136090118265
 21
0.5814136090118265
 31
0.0
210
0.0
220
0.0
230
1.0
 40
0.4561100000001053
 41
2.756538952253019
 42
3.526646354926448
  0
ELLIPSE
  5
72
330
2
100
AcDbEntity
  8
GAIKEI
  6
Continuous
 62
     1
100
AcDbEllipse
 10
-35.23793603886281
 20
-4.317837240676226
 30
0.0
 11
0.5814136090118486
 21
0.5814136090118486
 31
0.0
210
0.0
220
0.0
230
1.0
 40
0.4561099999999815
 41
2.756538952252924
 42
3.526646354926543
  0
ELLIPSE
  5
73
330
2
100
AcDbEntity
  8
GAIKEI
  6
Continuous
 62
     1
100
AcDbEllipse
 10
12.84465329437125
 20
24.1649408593288
 30
0.0
 11
0.581413609011829
 21
0.581413609011829
 31
0.0
210
0.0
220
0.0
230
1.0
 40
0.4561099999999685
 41
5.898131605842851
 42
6.668239008516433
  0
ELLIPSE
  5
74
330
2
100
AcDbEntity
  8
GAIKEI
  6
Continuous
 62
     1
100
AcDbEllipse
 10
-35.23793603886281
 20
24.1649408593288
 30
0.0
 11
-0.581413609011845
 21
0.581413609011845
 31
0.0
210
0.0
220
0.0
230
1.0
 40
0.4561099999999933
 41
-0.3850537013368589
 42
0.3850537013368587
  0
ARC
  5
75
330
2
100
AcDbEntity
  8
GAIKEI
  6
Continuous
 62
     1
100
AcDbCircle
 10
-36.04671819374346
 20
24.9737230142095
 30
0.0
 40
0.2000177702400075
100
AcDbArc
 50
179.9215319999855
 51
180.0
  0
ARC
  5
76
330
2
100
AcDbEntity
  8
GAIKEI
  6
Continuous
 62
     1
100
AcDbCircle
 10
-36.04671819374346
 20
-5.126619395556872
 30
0.0
 40
0.2000177702400075
100
AcDbArc
 50
180.0
 51
180.0784680000144
  0
ARC
  5
77
330
2
100
AcDbEntity
  8
GAIKEI
  6
Continuous
 62
     1
100
AcDbCircle
 10
13.65343544925201
 20
-5.126619395556872
 30
0.0
 40
0.2000177702400075
100
AcDbArc
 50
359.9215319999856
 51
0.0
  0
ARC
  5
78
330
2
100
AcDbEntity
  8
GAIKEI
  6
Continuous
 62
     1
100
AcDbCircle
 10
13.65343544925196
 20
24.9737230142095
 30
0.0
 40
0.2000177702400075
100
AcDbArc
 50
0.0
 51
0.0784680000144216
  0
ARC
  5
79
330
2
100
AcDbEntity
  8
GAIKEI
  6
Continuous
 62
     1
100
AcDbCircle
 10
13.65343544925196
 20
24.9737230142095
 30
0.0
 40
0.2000177702400075
100
AcDbArc
 50
89.92153200000187
 51
90.0
  0
ARC
  5
7A
330
2
100
AcDbEntity
  8
GAIKEI
  6
Continuous
 62
     1
100
AcDbCircle
 10
-36.04671819374346
 20
24.9737230142095
 30
0.0
 40
0.2000177702400075
100
AcDbArc
 50
90.0
 51
90.07846799999812
  0
ARC
  5
7B
330
2
100
AcDbEntity
  8
GAIKEI
  6
Continuous
 62
     1
100
AcDbCircle
 10
-36.04671819374346
 20
-5.126619395556872
 30
0.0
 40
0.2000177702400075
100
AcDbArc
 50
269.9215320000019
 51
270.0
  0
ARC
  5
7C
330
2
100
AcDbEntity
  8
GAIKEI
  6
Continuous
 62
     1
100
AcDbCircle
 10
13.65343544925201
 20
-5.126619395556872
 30
0.0
 40
0.2000177702400075
100
AcDbArc
 50
270.0
 51
270.0784679999981
  0
ARC
  5
7D
330
2
100
AcDbEntity
  8
GAIKEI
  6
Continuous
 62
     7
100
AcDbCircle
 10
-36.04671819374346
 20
-5.126619395556872
 30
0.0
 40
0.2000177702400075
100
AcDbArc
 50
180.0784680000144
 51
269.9215320000019
  0
ARC
  5
7E
330
2
100
AcDbEntity
  8
GAIKEI
  6
Continuous
 62
     7
100
AcDbCircle
 10
13.65343544925201
 20
-5.126619395556872
 30
0.0
 40
0.2000177702400075
100
AcDbArc
 50
270.0784679999981
 51
359.9215319999856
  0
ARC
  5
7F
330
2
100
AcDbEntity
  8
GAIKEI
  6
Continuous
 62
     7
100
AcDbCircle
 10
-36.04671819374346
 20
24.9737230142095
 30
0.0
 40
0.2000177702400075
100
AcDbArc
 50
90.07846799999812
 51
179.9215319999855
  0
ARC
  5
80
330
2
100
AcDbEntity
  8
GAIKEI
  6
Continuous
 62
     7
100
AcDbCircle
 10
13.65343544925196
 20
24.9737230142095
 30
0.0
 40
0.2000177702400075
100
AcDbArc
 50
0.0784680000144216
 51
89.92153200000187
  0
ARC
  5
81
330
2
100
AcDbEntity
  8
GAIKEI
  6
Continuous
 62
     1
100
AcDbCircle
 10
-33.67937963472718
 20
22.93269168989525
 30
0.0
 40
0.0982869821404501
100
AcDbArc
 50
105.7493539999931
 51
164.3805440000052
  0
ARC
  5
82
330
2
100
AcDbEntity
  8
GAIKEI
  6
Continuous
 62
     1
100
AcDbCircle
 10
11.31745905227683
 20
22.93269168989525
 30
0.0
 40
0.0982869821404501
100
AcDbArc
 50
15.61945599999471
 51
74.25064600000692
  0
ARC
  5
83
330
2
100
AcDbEntity
  8
GAIKEI
  6
Continuous
 62
     1
100
AcDbCircle
 10
-34.61386643334674
 20
-3.733931120670263
 30
0.0
 40
0.1000088851200038
100
AcDbArc
 50
180.0
 51
270.0
  0
ARC
  5
84
330
2
100
AcDbEntity
  8
GAIKEI
  6
Continuous
 62
     1
100
AcDbCircle
 10
12.2519458508965
 20
-3.733931120670263
 30
0.0
 40
0.1000088851200038
100
AcDbArc
 50
270.0
 51
0.0
  0
ARC
  5
85
330
2
100
AcDbEntity
  8
GAIKEI
  6
Continuous
 62
     1
100
AcDbCircle
 10
-34.6138664333468
 20
23.56603298985112
 30
0.0
 40
0.1000088851200038
100
AcDbArc
 50
90.0
 51
180.0
  0
ARC
  5
86
330
2
100
AcDbEntity
  8
GAIKEI
  6
Continuous
 62
     1
100
AcDbCircle
 10
12.2519458508965
 20
23.56603298985112
 30
0.0
 40
0.1000088851200038
100
AcDbArc
 50
0.0
 51
90.0
  0
ARC
  5
87
330
2
100
AcDbEntity
  8
GAIKEI
  6
Continuous
 62
     1
100
AcDbCircle
 10
-33.72992852565767
 20
-4.504064085684831
 30
0.0
 40
0.025002221280001
100
AcDbArc
 50
90.0
 51
180.0
  0
ARC
  5
88
330
2
100
AcDbEntity
  8
GAIKEI
  6
Continuous
 62
     1
100
AcDbCircle
 10
-33.42990187029767
 20
-4.504064085684831
 30
0.0
 40
0.025002221280001
100
AcDbArc
 50
0.0
 51
90.0
  0
ARC
  5
89
330
2
100
AcDbEntity
  8
GAIKEI
  6
Continuous
 62
     1
100
AcDbCircle
 10
-33.72992852565767
 20
-4.804090741044888
 30
0.0
 40
0.025002221280001
100
AcDbArc
 50
180.0
 51
270.0
  0
ARC
  5
8A
330
2
100
AcDbEntity
  8
GAIKEI
  6
Continuous
 62
     1
100
AcDbCircle
 10
-33.42990187029767
 20
-4.804090741044888
 30
0.0
 40
0.025002221280001
100
AcDbArc
 50
270.0
 51
0.0
  0
ARC
  5
8B
330
2
100
AcDbEntity
  8
GAIKEI
  6
Continuous
 62
     1
100
AcDbCircle
 10
12.2519458508965
 20
23.56603298985112
 30
0.0
 40
0.2019818947393219
100
AcDbArc
 50
0.0
 51
90.0
  0
ARC
  5
8C
330
2
100
AcDbEntity
  8
GAIKEI
  6
Continuous
 62
     1
100
AcDbCircle
 10
12.2519458508965
 20
-3.733931120670263
 30
0.0
 40
0.2019818947393219
100
AcDbArc
 50
270.0
 51
0.0
  0
ARC
  5
8D
330
2
100
AcDbEntity
  8
GAIKEI
  6
Continuous
 62
     1
100
AcDbCircle
 10
-34.6138664333468
 20
23.56603298985112
 30
0.0
 40
0.2019818947393219
100
AcDbArc
 50
90.0
 51
180.0
  0
ARC
  5
8E
330
2
100
AcDbEntity
  8
GAIKEI
  6
Continuous
 62
     1
100
AcDbCircle
 10
-34.61386643334674
 20
-3.733931120670263
 30
0.0
 40
0.2019818947393219
100
AcDbArc
 50
180.0
 51
270.0
  0
LINE
  5
8F
330
2
100
AcDbEntity
  8
GAIKEI
  6
Continuous
 62
     7
100
AcDbLine
 10
-36.2467359639835
 20
24.9737230142095
 30
0.0
 11
-36.2467359639835
 21
-5.126619395556872
 31
0.0
  0
LINE
  5
90
330
2
100
AcDbEntity
  8
GAIKEI
  6
Continuous
 62
     7
100
AcDbLine
 10
13.85345321949194
 20
24.9737230142095
 30
0.0
 11
13.85345321949194
 21
-5.126619395556872
 31
0.0
  0
LINE
  5
91
330
2
100
AcDbEntity
  8
GAIKEI
  6
Continuous
 62
     7
100
AcDbLine
 10
-36.04671819374346
 20
25.17374078444948
 30
0.0
 11
13.65343544925196
 21
25.17374078444948
 31
0.0
  0
LINE
  5
92
330
2
100
AcDbEntity
  8
GAIKEI
  6
Continuous
 62
     7
100
AcDbLine
 10
-36.04671819374346
 20
-5.32663716579691
 30
0.0
 11
13.65343544925201
 21
-5.32663716579691
 31
0.0
  0
LINE
  5
93
330
2
100
AcDbEntity
  8
GAIKEI
  6
Continuous
 62
     1
100
AcDbLine
 10
-36.14546381663104
 20
-5.025621322554115
 30
0.0
 11
-36.24673576396572
 21
-5.126893319893213
 31
0.0
  0
LINE
  5
94
330
2
100
AcDbEntity
  8
GAIKEI
  6
Continuous
 62
     1
100
AcDbLine
 10
-36.04699211807986
 20
-5.32663696577913
 30
0.0
 11
-35.9457201207407
 21
-5.225365018444506
 31
0.0
  0
LINE
  5
95
330
2
100
AcDbEntity
  8
GAIKEI
  6
Continuous
 62
     1
100
AcDbLine
 10
-35.9457201207407
 20
25.07246863709713
 30
0.0
 11
-36.04699211807986
 21
25.17374058443176
 31
0.0
  0
LINE
  5
96
330
2
100
AcDbEntity
  8
GAIKEI
  6
Continuous
 62
     1
100
AcDbLine
 10
-36.24673576396572
 20
24.97399693854584
 30
0.0
 11
-36.14546381663104
 21
24.87272494120674
 31
0.0
  0
LINE
  5
97
330
2
100
AcDbEntity
  8
GAIKEI
  6
Continuous
 62
     1
100
AcDbLine
 10
13.5524373762492
 20
25.07246863709713
 30
0.0
 11
13.65370937358835
 21
25.17374058443176
 31
0.0
  0
LINE
  5
98
330
2
100
AcDbEntity
  8
GAIKEI
  6
Continuous
 62
     1
100
AcDbLine
 10
13.85345301947421
 20
24.97399693854584
 30
0.0
 11
13.75218107213965
 21
24.87272494120674
 31
0.0
  0
LINE
  5
99
330
2
100
AcDbEntity
  8
GAIKEI
  6
Continuous
 62
     1
100
AcDbLine
 10
-36.1453922102694
 20
24.83812161693299
 30
0.0
 11
-36.1453922102694
 21
-4.991017998280426
 31
0.0
  0
LINE
  5
9A
330
2
100
AcDbEntity
  8
GAIKEI
  6
Continuous
 62
     1
100
AcDbLine
 10
13.75210946577789
 20
24.83812161693299
 30
0.0
 11
13.75210946577795
 21
-4.991017998280426
 31
0.0
  0
LINE
  5
9B
330
2
100
AcDbEntity
  8
GAIKEI
  6
Continuous
 62
     1
100
AcDbLine
 10
13.51783405197557
 20
25.07239703073537
 30
0.0
 11
-35.91111679646701
 21
25.07239703073537
 31
0.0
  0
LINE
  5
9C
330
2
100
AcDbEntity
  8
GAIKEI
  6
Continuous
 62
     1
100
AcDbLine
 10
-35.91111679646701
 20
-5.225293412082749
 30
0.0
 11
13.51783405197557
 21
-5.225293412082749
 31
0.0
  0
LINE
  5
9D
330
2
100
AcDbEntity
  8
GAIKEI
  6
Continuous
 62
     1
100
AcDbLine
 10
11.31649646675748
 20
23.03099907384825
 30
0.0
 11
-33.6784170492079
 21
23.03099907384825
 31
0.0
  0
LINE
  5
9E
330
2
100
AcDbEntity
  8
GAIKEI
  6
Continuous
 62
     1
100
AcDbLine
 10
-33.67841704920784
 20
-3.051449065409656
 30
0.0
 11
11.31649646675748
 21
-3.051449065409599
 31
0.0
  0
LINE
  5
9F
330
2
100
AcDbEntity
  8
GAIKEI
  6
Continuous
 62
     1
100
AcDbLine
 10
-33.77768461846694
 20
22.93173980532669
 30
0.0
 11
-33.77768461846688
 21
-2.952189796887978
 31
0.0
  0
LINE
  5
A0
330
2
100
AcDbEntity
  8
GAIKEI
  6
Continuous
 62
     1
100
AcDbLine
 10
11.41576403601652
 20
22.93173980532669
 30
0.0
 11
11.41576403601652
 21
-2.952189796887978
 31
0.0
  0
LINE
  5
A1
330
2
100
AcDbEntity
  8
GAIKEI
  6
Continuous
 62
     1
100
AcDbLine
 10
11.31649646675748
 20
-3.098341881522458
 30
0.0
 11
-33.67841704920784
 21
-3.098341881522458
 31
0.0
  0
LINE
  5
A2
330
2
100
AcDbEntity
  8
GAIKEI
  6
Continuous
 62
     1
100
AcDbLine
 10
-33.6784170492079
 20
23.07789188996105
 30
0.0
 11
11.31649646675748
 21
23.07789188996105
 31
0.0
  0
LINE
  5
A3
330
2
100
AcDbEntity
  8
GAIKEI
  6
Continuous
 62
     1
100
AcDbLine
 10
-34.6138664333468
 20
23.66604187497109
 30
0.0
 11
12.2519458508965
 21
23.66604187497109
 31
0.0
  0
LINE
  5
A4
330
2
100
AcDbEntity
  8
GAIKEI
  6
Continuous
 62
     1
100
AcDbLine
 10
12.2519458508965
 20
-3.833940005790225
 30
0.0
 11
-34.61386643334674
 21
-3.833940005790225
 31
0.0
  0
LINE
  5
A5
330
2
100
AcDbEntity
  8
GAIKEI
  6
Continuous
 62
     1
100
AcDbLine
 10
-34.71387531846676
 20
-3.733931120670263
 30
0.0
 11
-34.71387531846682
 21
23.56603298985112
 31
0.0
  0
LINE
  5
A6
330
2
100
AcDbEntity
  8
GAIKEI
  6
Continuous
 62
     1
100
AcDbLine
 10
-33.82453748103012
 20
-2.952189796887978
 30
0.0
 11
-33.82453748103018
 21
22.93173980532669
 31
0.0
  0
LINE
  5
A7
330
2
100
AcDbEntity
  8
GAIKEI
  6
Continuous
 62
     1
100
AcDbLine
 10
12.35195473601652
 20
-3.733931120670263
 30
0.0
 11
12.35195473601652
 21
23.56603298985112
 31
0.0
  0
LINE
  5
A8
330
2
100
AcDbEntity
  8
GAIKEI
  6
Continuous
 62
     1
100
AcDbLine
 10
11.46261689857976
 20
-2.952189796887978
 30
0.0
 11
11.46261689857976
 21
22.93173980532669
 31
0.0
  0
LINE
  5
A9
330
2
100
AcDbEntity
  8
GAIKEI
  6
Continuous
 62
     1
100
AcDbLine
 10
-34.70537881360917
 20
-3.770932958035871
 30
0.0
 11
-33.8188276237475
 21
-2.993074379209474
 31
0.0
  0
LINE
  5
AA
330
2
100
AcDbEntity
  8
GAIKEI
  6
Continuous
 62
     1
100
AcDbLine
 10
-33.71963781139658
 20
-3.092536315736822
 30
0.0
 11
-34.57025962827709
 21
-3.833940005790225
 31
0.0
  0
LINE
  5
AB
330
2
100
AcDbEntity
  8
GAIKEI
  6
Continuous
 62
     1
100
AcDbLine
 10
12.34345823115893
 20
-3.770932958035871
 30
0.0
 11
11.4569070412972
 21
-2.993074379209474
 31
0.0
  0
LINE
  5
AC
330
2
100
AcDbEntity
  8
GAIKEI
  6
Continuous
 62
     1
100
AcDbLine
 10
11.3577172289464
 20
-3.092536315736822
 30
0.0
 11
12.20833904582685
 21
-3.833940005790225
 31
0.0
  0
LINE
  5
AD
330
2
100
AcDbEntity
  8
GAIKEI
  6
Continuous
 62
     1
100
AcDbLine
 10
-33.81882762374755
 20
22.97262438764818
 30
0.0
 11
-34.70537881360923
 21
23.60303482721673
 31
0.0
  0
LINE
  5
AE
330
2
100
AcDbEntity
  8
GAIKEI
  6
Continuous
 62
     1
100
AcDbLine
 10
-34.56903360024967
 20
23.66479791445363
 30
0.0
 11
-33.71963781139664
 21
23.07208632417542
 31
0.0
  0
LINE
  5
AF
330
2
100
AcDbEntity
  8
GAIKEI
  6
Continuous
 62
     1
100
AcDbLine
 10
12.20833904582673
 20
23.6660418749712
 30
0.0
 11
11.35771722894628
 21
23.07208632417542
 31
0.0
  0
LINE
  5
B0
330
2
100
AcDbEntity
  8
GAIKEI
  6
Continuous
 62
     1
100
AcDbLine
 10
11.45690704129708
 20
22.97262438764818
 30
0.0
 11
12.34345823115893
 21
23.60303482721673
 31
0.0
  0
LINE
  5
B1
330
2
100
AcDbEntity
  8
GAIKEI
  6
Continuous
 62
     1
100
AcDbLine
 10
-36.11033119533284
 20
-4.991017998280426
 30
0.0
 11
-36.11033119533284
 21
24.83812161693299
 31
0.0
  0
LINE
  5
B2
330
2
100
AcDbEntity
  8
GAIKEI
  6
Continuous
 62
     1
100
AcDbLine
 10
-35.91111679646701
 20
25.03733601579887
 30
0.0
 11
13.51783405197557
 21
25.03733601579887
 31
0.0
  0
LINE
  5
B3
330
2
100
AcDbEntity
  8
GAIKEI
  6
Continuous
 62
     1
100
AcDbLine
 10
13.71704845084139
 20
-4.991017998280426
 30
0.0
 11
13.71704845084133
 21
24.83812161693299
 31
0.0
  0
LINE
  5
B4
330
2
100
AcDbEntity
  8
GAIKEI
  6
Continuous
 62
     1
100
AcDbLine
 10
13.51783405197557
 20
-5.190232397146246
 30
0.0
 11
-35.91111679646701
 21
-5.190232397146246
 31
0.0
  0
LINE
  5
B5
330
2
100
AcDbEntity
  8
GAIKEI
  6
Continuous
 62
     1
100
AcDbLine
 10
-36.11033119533284
 20
24.83812161693299
 30
0.0
 11
-35.87638476075807
 21
24.60417518235835
 31
0.0
  0
LINE
  5
B6
330
2
100
AcDbEntity
  8
GAIKEI
  6
Continuous
 62
     1
100
AcDbLine
 10
-35.67717036189231
 20
24.80338958122422
 30
0.0
 11
-35.91111679646701
 21
25.03733601579887
 31
0.0
  0
LINE
  5
B7
330
2
100
AcDbEntity
  8
GAIKEI
  6
Continuous
 62
     1
100
AcDbLine
 10
-35.91111679646701
 20
-5.190232397146246
 30
0.0
 11
-35.67717036189231
 21
-4.956285962571485
 31
0.0
  0
LINE
  5
B8
330
2
100
AcDbEntity
  8
GAIKEI
  6
Continuous
 62
     1
100
AcDbLine
 10
-35.87638476075801
 20
-4.757071563705721
 30
0.0
 11
-36.11033119533284
 21
-4.991017998280426
 31
0.0
  0
LINE
  5
B9
330
2
100
AcDbEntity
  8
GAIKEI
  6
Continuous
 62
     1
100
AcDbLine
 10
13.71704845084133
 20
24.83812161693299
 30
0.0
 11
13.48310201626668
 21
24.60417518235835
 31
0.0
  0
LINE
  5
BA
330
2
100
AcDbEntity
  8
GAIKEI
  6
Continuous
 62
     1
100
AcDbLine
 10
13.28388761740081
 20
24.80338958122422
 30
0.0
 11
13.51783405197557
 21
25.03733601579887
 31
0.0
  0
LINE
  5
BB
330
2
100
AcDbEntity
  8
GAIKEI
  6
Continuous
 62
     1
100
AcDbLine
 10
13.51783405197557
 20
-5.190232397146246
 30
0.0
 11
13.28388761740086
 21
-4.956285962571485
 31
0.0
  0
LINE
  5
BC
330
2
100
AcDbEntity
  8
GAIKEI
  6
Continuous
 62
     1
100
AcDbLine
 10
13.48310201626668
 20
-4.757071563705721
 30
0.0
 11
13.71704845084139
 21
-4.991017998280426
 31
0.0
  0
LINE
  5
BD
330
2
100
AcDbEntity
  8
GAIKEI
  6
Continuous
 62
     1
100
AcDbLine
 10
-35.14413800553541
 20
-4.709082300180796
 30
0.0
 11
-35.2541477791674
 21
-4.709082300180796
 31
0.0
  0
LINE
  5
BE
330
2
100
AcDbEntity
  8
GAIKEI
  6
Continuous
 62
     1
100
AcDbLine
 10
-33.40489964901775
 20
-4.504064085684831
 30
0.0
 11
-33.40489964901775
 21
-4.804090741044888
 31
0.0
  0
LINE
  5
BF
330
2
100
AcDbEntity
  8
GAIKEI
  6
Continuous
 62
     1
100
AcDbLine
 10
-35.2541477791674
 20
-4.709082300180796
 30
0.0
 11
-35.2541477791674
 21
-4.599072526548866
 31
0.0
  0
LINE
  5
C0
330
2
100
AcDbEntity
  8
GAIKEI
  6
Continuous
 62
     1
100
AcDbLine
 10
-35.2541477791674
 20
-4.599072526548866
 30
0.0
 11
-35.14413800553541
 21
-4.599072526548866
 31
0.0
  0
LINE
  5
C1
330
2
100
AcDbEntity
  8
GAIKEI
  6
Continuous
 62
     1
100
AcDbLine
 10
-35.14413800553541
 20
-4.599072526548866
 30
0.0
 11
-35.14413800553541
 21
-4.709082300180796
 31
0.0
  0
LINE
  5
C2
330
2
100
AcDbEntity
  8
GAIKEI
  6
Continuous
 62
     1
100
AcDbLine
 10
-33.42990187029767
 20
-4.829092962324864
 30
0.0
 11
-33.72992852565767
 21
-4.829092962324864
 31
0.0
  0
LINE
  5
C3
330
2
100
AcDbEntity
  8
GAIKEI
  6
Continuous
 62
     1
100
AcDbLine
 10
-33.7549307469377
 20
-4.804090741044888
 30
0.0
 11
-33.7549307469377
 21
-4.504064085684831
 31
0.0
  0
LINE
  5
C4
330
2
100
AcDbEntity
  8
GAIKEI
  6
Continuous
 62
     1
100
AcDbLine
 10
-33.72992852565767
 20
-4.479061864404798
 30
0.0
 11
-33.42990187029767
 21
-4.479061864404798
 31
0.0
  0
LINE
  5
C5
330
2
100
AcDbEntity
  8
GAIKEI
  6
Continuous
 62
     1
100
AcDbLine
 10
12.2519458508965
 20
23.76801488459051
 30
0.0
 11
-34.6138664333468
 21
23.76801488459051
 31
0.0
  0
LINE
  5
C6
330
2
100
AcDbEntity
  8
GAIKEI
  6
Continuous
 62
     1
100
AcDbLine
 10
-34.61386643334674
 20
-3.935913015409539
 30
0.0
 11
12.2519458508965
 21
-3.935913015409539
 31
0.0
  0
LINE
  5
C7
330
2
100
AcDbEntity
  8
GAIKEI
  6
Continuous
 62
     1
100
AcDbLine
 10
12.45392774563583
 20
23.56603298985112
 30
0.0
 11
12.45392774563583
 21
-3.733931120670263
 31
0.0
  0
LINE
  5
C8
330
2
100
AcDbEntity
  8
GAIKEI
  6
Continuous
 62
     1
100
AcDbLine
 10
-34.81584832808613
 20
23.56603298985112
 30
0.0
 11
-34.81584832808608
 21
-3.733931120670263
 31
0.0
  0
LINE
  5
C9
330
2
100
AcDbEntity
  8
GAIKEI
  6
Continuous
 62
     1
100
AcDbLine
 10
-35.87638476075807
 20
24.60417518235835
 30
0.0
 11
-35.87638476075801
 21
-4.757071563705721
 31
0.0
  0
LINE
  5
CA
330
2
100
AcDbEntity
  8
GAIKEI
  6
Continuous
 62
     1
100
AcDbLine
 10
13.28388761740081
 20
24.80338958122422
 30
0.0
 11
-35.67717036189231
 21
24.80338958122422
 31
0.0
  0
LINE
  5
CB
330
2
100
AcDbEntity
  8
GAIKEI
  6
Continuous
 62
     1
100
AcDbLine
 10
13.48310201626668
 20
24.60417518235835
 30
0.0
 11
13.48310201626668
 21
-4.757071563705721
 31
0.0
  0
LINE
  5
CC
330
2
100
AcDbEntity
  8
GAIKEI
  6
Continuous
 62
     1
100
AcDbLine
 10
-35.67717036189231
 20
-4.956285962571485
 30
0.0
 11
13.28388761740086
 21
-4.956285962571485
 31
0.0
  0
SPLINE
  5
CD
330
2
100
AcDbEntity
  8
GAIKEI
  6
Continuous
 62
     1
100
AcDbSpline
210
0.0
220
0.0
230
1.0
 70
     8
 71
     3
 72
    21
 73
    17
 74
    15
 42
0.0000000001
 43
0.0000000001
 44
0.000001
 12
-0.0001490760298766
 22
-0.9999999888881687
 32
0.0
 13
0.9999997489039975
 23
0.0007086550233522
 33
0.0
 40
0.0
 40
0.0
 40
0.0
 40
0.0
 40
0.0220203622856517
 40
0.0441150886358798
 40
0.0661420247968402
 40
0.0881945815693729
 40
0.1103152820563245
 40
0.1323682426974384
 40
0.1546938208840925
 40
0.1770898850745092
 40
0.1994152170311418
 40
0.2218138290892008
 40
0.2442838362702091
 40
0.2666822908844273
 40
0.2901709918964701
 40
0.3136542532514702
 40
0.3136542532514702
 40
0.3136542532514702
 40
0.3136542532514702
 10
-36.14546379701494
 20
-5.025621345990941
 30
0.0
 10
-36.145464891251
 20
-5.032961466671281
 30
0.0
 10
-36.14466510895785
 20
-5.047679960043922
 30
0.0
 10
-36.14103707430018
 20
-5.069469383486648
 30
0.0
 10
-36.13505180445731
 20
-5.090748054666278
 30
0.0
 10
-36.12669072133156
 20
-5.111219397929403
 30
0.0
 10
-36.11614170502241
 20
-5.130660290647824
 30
0.0
 10
-36.10348103381593
 20
-5.148911394133392
 30
0.0
 10
-36.08876906322413
 20
-5.165677561186782
 30
0.0
 10
-36.07223290503624
 20
-5.180778097558743
 30
0.0
 10
-36.05410993318332
 20
-5.193979022936105
 30
0.0
 10
-36.03457224081302
 20
-5.205029318529454
 30
0.0
 10
-36.0139104565713
 20
-5.213855019529262
 30
0.0
 10
-35.99204334296168
 20
-5.220432307315945
 30
0.0
 10
-35.96922096692754
 20
-5.224466126893332
 30
0.0
 10
-35.95354789599696
 20
-5.225370546005478
 30
0.0
 10
-35.94572014417747
 20
-5.22536499882841
 30
0.0
 11
-36.14546379701494
 21
-5.025621345990941
 31
0.0
 11
-36.14426360771563
 21
-5.047609542554084
 31
0.0
 11
-36.14064030664736
 21
-5.069405163575027
 31
0.0
 11
-36.13466026156766
 21
-5.0906048264805
 31
0.0
 11
-36.12633691545056
 21
-5.111026341490571
 31
0.0
 11
-36.11578714627581
 21
-5.130469302560243
 31
0.0
 11
-36.10320561890956
 21
-5.1485811542139
 31
0.0
 11
-36.08849204674061
 21
-5.165372319347454
 31
0.0
 11
-36.07195401056515
 21
-5.180474571854574
 31
0.0
 11
-36.05389907463973
 21
-5.193606240749488
 31
0.0
 11
-36.03441034762352
 21
-5.204646540784835
 31
0.0
 11
-36.01374582743677
 21
-5.213471490512915
 31
0.0
 11
-35.99229326763714
 21
-5.219911951949541
 31
0.0
 11
-35.96916487573719
 21
-5.224010385259305
 31
0.0
 11
-35.94572014417747
 21
-5.22536499882841
 31
0.0
  0
SPLINE
  5
CE
330
2
100
AcDbEntity
  8
GAIKEI
  6
Continuous
 62
     1
100
AcDbSpline
210
0.0
220
0.0
230
1.0
 70
     8
 71
     3
 72
    21
 73
    17
 74
    15
 42
0.0000000001
 43
0.0000000001
 44
0.000001
 12
0.0001490760298765
 22
-0.9999999888881687
 32
0.0
 13
-0.9999997489039975
 23
0.000708655023352
 33
0.0
 40
0.0
 40
0.0
 40
0.0
 40
0.0
 40
0.0220203622856513
 40
0.04411508863588
 40
0.0661420247968403
 40
0.0881945815693771
 40
0.1103152820563237
 40
0.1323682426974355
 40
0.1546938208841669
 40
0.1770898850745022
 40
0.1994152170312296
 40
0.2218138290891897
 40
0.2442838362703026
 40
0.2666822908844084
 40
0.2901709918964513
 40
0.3136542532513378
 40
0.3136542532513378
 40
0.3136542532513378
 40
0.3136542532513378
 10
13.75218105252349
 20
-5.025621345990941
 30
0.0
 10
13.75218214675956
 20
-5.032961466671281
 30
0.0
 10
13.75138236446642
 20
-5.047679960043979
 30
0.0
 10
13.74775432980874
 20
-5.069469383486648
 30
0.0
 10
13.74176905996587
 20
-5.090748054666391
 30
0.0
 10
13.73340797684011
 20
-5.111219397929346
 30
0.0
 10
13.72285896053094
 20
-5.130660290647938
 30
0.0
 10
13.71019828932449
 20
-5.148911394133392
 30
0.0
 10
13.69548631873257
 20
-5.165677561186726
 30
0.0
 10
13.67895016054478
 20
-5.180778097558857
 30
0.0
 10
13.66082718869177
 20
-5.193979022936105
 30
0.0
 10
13.64128949632152
 20
-5.205029318529398
 30
0.0
 10
13.62062771207979
 20
-5.213855019529262
 30
0.0
 10
13.59876059847019
 20
-5.220432307316059
 30
0.0
 10
13.57593822243615
 20
-5.224466126893105
 30
0.0
 10
13.56026515150559
 20
-5.225370546005478
 30
0.0
 10
13.55243739968614
 20
-5.22536499882841
 30
0.0
 11
13.75218105252349
 21
-5.025621345990941
 31
0.0
 11
13.75098086322418
 21
-5.047609542554084
 31
0.0
 11
13.74735756215591
 21
-5.069405163575027
 31
0.0
 11
13.74137751707621
 21
-5.0906048264805
 31
0.0
 11
13.73305417095912
 21
-5.111026341490571
 31
0.0
 11
13.72250440178436
 21
-5.130469302560243
 31
0.0
 11
13.70992287441811
 21
-5.1485811542139
 31
0.0
 11
13.69520930224905
 21
-5.165372319347454
 31
0.0
 11
13.6786712660737
 21
-5.180474571854574
 31
0.0
 11
13.66061633014817
 21
-5.193606240749488
 31
0.0
 11
13.64112760313207
 21
-5.204646540784835
 31
0.0
 11
13.62046308294521
 21
-5.213471490512915
 31
0.0
 11
13.59901052314569
 21
-5.219911951949541
 31
0.0
 11
13.57588213124575
 21
-5.224010385259305
 31
0.0
 11
13.55243739968614
 21
-5.22536499882841
 31
0.0
  0
SPLINE
  5
CF
330
2
100
AcDbEntity
  8
GAIKEI
  6
Continuous
 62
     1
100
AcDbSpline
210
0.0
220
0.0
230
1.0
 70
     8
 71
     3
 72
    21
 73
    17
 74
    15
 42
0.0000000001
 43
0.0000000001
 44
0.000001
 12
-0.9999999888881687
 22
0.0001490760296198
 32
0.0
 13
0.0007086550231108
 23
-0.9999997489039975
 33
0.0
 40
0.0
 40
0.0
 40
0.0
 40
0.0
 40
0.0220203622857329
 40
0.0441150886359604
 40
0.0661420247968591
 40
0.088194581569396
 40
0.1103152820562925
 40
0.1323682426974043
 40
0.1546938208841224
 40
0.177089885074472
 40
0.199415217031213
 40
0.2218138290891733
 40
0.2442838362702517
 40
0.2666822908844182
 40
0.2901709918964592
 40
0.3136542532513492
 40
0.3136542532513492
 40
0.3136542532513492
 40
0.3136542532513492
 10
-35.94572014417753
 20
25.07246861748104
 30
0.0
 10
-35.95306026485789
 20
25.07246971171708
 30
0.0
 10
-35.96777875823065
 20
25.07166992942405
 30
0.0
 10
-35.98956818167331
 20
25.06804189476606
 30
0.0
 10
-36.01084685285298
 20
25.06205662492352
 30
0.0
 10
-36.03131819611597
 20
25.05369554179748
 30
0.0
 10
-36.05075908883441
 20
25.04314652548857
 30
0.0
 10
-36.06901019231995
 20
25.03048585428201
 30
0.0
 10
-36.0857763593733
 20
25.01577388369014
 30
0.0
 10
-36.10087689574543
 20
24.99923772550227
 30
0.0
 10
-36.11407782112273
 20
24.98111475364942
 30
0.0
 10
-36.12512811671598
 20
24.96157706127906
 30
0.0
 10
-36.13395381771577
 20
24.94091527703734
 30
0.0
 10
-36.14053110550279
 20
24.91904816342776
 30
0.0
 10
-36.14456492508005
 20
24.89622578739381
 30
0.0
 10
-36.14546934419198
 20
24.88055271646312
 30
0.0
 10
-36.14546379701494
 20
24.87272496464368
 30
0.0
 11
-35.94572014417753
 21
25.07246861748104
 31
0.0
 11
-35.96770834074073
 21
25.07126842818172
 31
0.0
 11
-35.98950396176167
 21
25.06764512711334
 31
0.0
 11
-36.01070362466714
 21
25.06166508203376
 31
0.0
 11
-36.03112513967716
 21
25.05334173591655
 31
0.0
 11
-36.05056810074683
 21
25.0427919667419
 31
0.0
 11
-36.06867995240049
 21
25.03021043937565
 31
0.0
 11
-36.08547111753404
 21
25.0154968672066
 31
0.0
 11
-36.10057337004116
 21
24.99895883103125
 31
0.0
 11
-36.11370503893613
 21
24.98090389510571
 31
0.0
 11
-36.12474533897142
 21
24.96141516808962
 31
0.0
 11
-36.13357028869951
 21
24.94075064790275
 31
0.0
 11
-36.14001075013624
 21
24.91929808810323
 31
0.0
 11
-36.14410918344601
 21
24.89616969620329
 31
0.0
 11
-36.14546379701494
 21
24.87272496464368
 31
0.0
  0
SPLINE
  5
D0
330
2
100
AcDbEntity
  8
GAIKEI
  6
Continuous
 62
     1
100
AcDbSpline
210
0.0
220
0.0
230
1.0
 70
     8
 71
     3
 72
    21
 73
    17
 74
    15
 42
0.0000000001
 43
0.0000000001
 44
0.000001
 12
0.9999999888881687
 22
0.00014907602962
 32
0.0
 13
-0.0007086550231109
 23
-0.9999997489039975
 33
0.0
 40
0.0
 40
0.0
 40
0.0
 40
0.0
 40
0.0220203622856797
 40
0.0441150886358966
 40
0.0661420247966894
 40
0.0881945815692822
 40
0.1103152820562755
 40
0.1323682426972939
 40
0.1546938208840173
 40
0.1770898850743239
 40
0.1994152170311317
 40
0.2218138290890676
 40
0.2442838362701654
 40
0.2666822908843176
 40
0.290170991896358
 40
0.3136542532512513
 40
0.3136542532512513
 40
0.3136542532512513
 40
0.3136542532512513
 10
13.55243739968614
 20
25.07246861748104
 30
0.0
 10
13.55977752036646
 20
25.07246971171708
 30
0.0
 10
13.57449601373923
 20
25.07166992942405
 30
0.0
 10
13.59628543718185
 20
25.06804189476606
 30
0.0
 10
13.61756410836148
 20
25.06205662492352
 30
0.0
 10
13.63803545162446
 20
25.05369554179754
 30
0.0
 10
13.65747634434299
 20
25.04314652548851
 30
0.0
 10
13.67572744782845
 20
25.03048585428189
 30
0.0
 10
13.69249361488181
 20
25.01577388369014
 30
0.0
 10
13.70759415125386
 20
24.99923772550233
 30
0.0
 10
13.7207950766313
 20
24.98111475364936
 30
0.0
 10
13.73184537222447
 20
24.96157706127906
 30
0.0
 10
13.74067107322433
 20
24.94091527703734
 30
0.0
 10
13.74724836101127
 20
24.91904816342782
 30
0.0
 10
13.75128218058854
 20
24.89622578739369
 30
0.0
 10
13.75218659970053
 20
24.88055271646312
 30
0.0
 10
13.75218105252349
 20
24.87272496464368
 30
0.0
 11
13.55243739968614
 21
25.07246861748104
 31
0.0
 11
13.57442559624928
 21
25.07126842818172
 31
0.0
 11
13.59622121727023
 21
25.06764512711334
 31
0.0
 11
13.61742088017559
 21
25.06166508203376
 31
0.0
 11
13.63784239518565
 21
25.05334173591655
 31
0.0
 11
13.65728535625544
 21
25.0427919667419
 31
0.0
 11
13.67539720790899
 21
25.03021043937565
 31
0.0
 11
13.69218837304254
 21
25.0154968672066
 31
0.0
 11
13.7072906255496
 21
24.99895883103125
 31
0.0
 11
13.72042229444469
 21
24.98090389510571
 31
0.0
 11
13.73146259447992
 21
24.96141516808962
 31
0.0
 11
13.74028754420806
 21
24.94075064790275
 31
0.0
 11
13.74672800564474
 21
24.91929808810323
 31
0.0
 11
13.7508264389545
 21
24.89616969620329
 31
0.0
 11
13.75218105252349
 21
24.87272496464368
 31
0.0
  0
SPLINE
  5
D1
330
2
100
AcDbEntity
  8
GAIKEI
  6
Continuous
 62
     1
100
AcDbSpline
210
0.0
220
0.0
230
1.0
 70
     8
 71
     3
 72
    14
 73
    10
 74
     8
 42
0.0000000001
 43
0.0000000001
 44
0.000001
 12
0.2697836156325394
 22
-0.962920973255975
 32
0.0
 13
0.9616843088117285
 23
-0.2741592423853476
 33
0.0
 40
0.0
 40
0.0
 40
0.0
 40
0.0
 40
0.0000567608951748
 40
0.0167840465309844
 40
0.0335125966987574
 40
0.0502374188860437
 40
0.0669622291995169
 40
0.0837063784098593
 40
0.1004494891285224
 40
0.1004494891285224
 40
0.1004494891285224
 40
0.1004494891285224
 10
-33.77403702161922
 20
-2.979605155632043
 30
0.0
 10
-33.77403191723271
 20
-2.979623374384175
 30
0.0
 10
-33.77252083298169
 20
-2.985010108618041
 30
0.0
 10
-33.76856087867857
 20
-2.995522011085142
 30
0.0
 10
-33.76011295614514
 20
-3.010048923246472
 30
0.0
 10
-33.74927320129785
 20
-3.02289496943888
 30
0.0
 10
-33.73644450730648
 20
-3.033761647736241
 30
0.0
 10
-33.72192644761428
 20
-3.042249542694378
 30
0.0
 10
-33.71142485144947
 20
-3.046208723049232
 30
0.0
 10
-33.70605765582985
 20
-3.047738815899151
 30
0.0
 11
-33.77403702161922
 21
-2.979605155632043
 31
0.0
 11
-33.77402169249615
 21
-2.979659807956977
 31
0.0
 11
-33.76814193470767
 21
-2.995320177403641
 31
0.0
 11
-33.75971420497621
 21
-3.009770630030402
 31
0.0
 11
-33.74894307462859
 21
-3.022565275414308
 31
0.0
 11
-33.73616970220144
 21
-3.033361614102204
 31
0.0
 11
-33.7217219866721
 21
-3.041825052138051
 31
0.0
 11
-33.70605765582985
 21
-3.047738815899151
 31
0.0
  0
SPLINE
  5
D2
330
2
100
AcDbEntity
  8
GAIKEI
  6
Continuous
 62
     1
100
AcDbSpline
210
0.0
220
0.0
230
1.0
 70
     8
 71
     3
 72
    14
 73
    10
 74
     8
 42
0.0000000001
 43
0.0000000001
 44
0.000001
 12
-0.2697836156325396
 22
-0.962920973255975
 32
0.0
 13
-0.9616843088117285
 23
-0.2741592423853476
 33
0.0
 40
0.0
 40
0.0
 40
0.0
 40
0.0
 40
0.0000567608953486
 40
0.0167840465310392
 40
0.0335125966988168
 40
0.0502374188861512
 40
0.0669622291995783
 40
0.0837063784099441
 40
0.100449489128521
 40
0.100449489128521
 40
0.100449489128521
 40
0.100449489128521
 10
11.41211643916892
 20
-2.979605155631986
 30
0.0
 10
11.41211133478239
 20
-2.979623374384175
 30
0.0
 10
11.41060025053265
 20
-2.985010108623669
 30
0.0
 10
11.40664029622775
 20
-2.995522011082471
 30
0.0
 10
11.39819237369481
 20
-3.010048923247154
 30
0.0
 10
11.38735261884743
 20
-3.022894969438596
 30
0.0
 10
11.37452392485615
 20
-3.033761647736412
 30
0.0
 10
11.36000586516385
 20
-3.04224954269415
 30
0.0
 10
11.34950426899914
 20
-3.046208723049232
 30
0.0
 10
11.34413707337955
 20
-3.047738815899151
 30
0.0
 11
11.41211643916892
 21
-2.979605155631986
 31
0.0
 11
11.41210111004579
 21
-2.979659807956977
 31
0.0
 11
11.40622135225737
 21
-2.995320177403641
 31
0.0
 11
11.39779362252579
 21
-3.009770630030345
 31
0.0
 11
11.38702249217817
 21
-3.022565275414308
 31
0.0
 11
11.37424911975108
 21
-3.033361614102204
 31
0.0
 11
11.35980140422168
 21
-3.041825052137994
 31
0.0
 11
11.34413707337955
 21
-3.047738815899151
 31
0.0
  0
SPLINE
  5
D3
330
2
100
AcDbEntity
  8
GAIKEI
  6
Continuous
 62
     1
100
AcDbSpline
210
0.0
220
0.0
230
1.0
 70
     8
 71
     3
 72
    19
 73
    15
 74
    13
 42
0.0000000001
 43
0.0000000001
 44
0.000001
 12
-0.9639938394678312
 22
0.2659245710122878
 32
0.0
 13
-0.26346002757732
 23
0.9646703135625962
 33
0.0
 40
0.0
 40
0.0
 40
0.0
 40
0.0
 40
0.0120685447878091
 40
0.0241375534231703
 40
0.0365717545460979
 40
0.0490061389643479
 40
0.0610391948686007
 40
0.0730723357382158
 40
0.0854755671878957
 40
0.0978786958477056
 40
0.1099595938325843
 40
0.1220403135244222
 40
0.1344880973698612
 40
0.1469354490877714
 40
0.1469354490877714
 40
0.1469354490877714
 40
0.1469354490877714
 10
-33.7196377969903
 20
-3.092536327243237
 30
0.0
 10
-33.72351579793257
 20
-3.091466553044767
 30
0.0
 10
-33.73118564820899
 20
-3.088999048920129
 30
0.0
 10
-33.74244974433468
 20
-3.084301416934636
 30
0.0
 10
-33.75337507458533
 20
-3.078589152414679
 30
0.0
 10
-33.76375072909051
 20
-3.071952873913346
 30
0.0
 10
-33.77340255853172
 20
-3.064520978547022
 30
0.0
 10
-33.78238203662498
 20
-3.056304694443667
 30
0.0
 10
-33.79069570318265
 20
-3.047245518706859
 30
0.0
 10
-33.79819599328717
 20
-3.037482191377478
 30
0.0
 10
-33.80475926864983
 20
-3.027194512951155
 30
0.0
 10
-33.8104349154465
 20
-3.016374785007428
 30
0.0
 10
-33.81519957819108
 20
-3.004991426356923
 30
0.0
 10
-33.81773451790639
 20
-2.997076925990768
 30
0.0
 10
-33.81882764444867
 20
-2.993074395762505
 30
0.0
 11
-33.7196377969903
 21
-3.092536327243237
 31
0.0
 11
-33.73112728969653
 21
-3.088841615674141
 31
0.0
 11
-33.74226526370501
 21
-3.084193356394735
 31
0.0
 11
-33.75328486951679
 21
-3.078433316410837
 31
0.0
 11
-33.76375846044914
 21
-3.071731206061372
 31
0.0
 11
-33.77329366878337
 21
-3.064391265475819
 31
0.0
 11
-33.78216987371752
 21
-3.05626661368683
 31
0.0
 11
-33.79055789050909
 21
-3.047129772348853
 31
0.0
 11
-33.79811250613801
 21
-3.037292805381298
 31
0.0
 11
-33.80461227208008
 21
-3.027109408468049
 31
0.0
 11
-33.81022303681942
 21
-3.016410648695682
 31
0.0
 11
-33.81503212956085
 21
-3.004929370399963
 31
0.0
 11
-33.81882764444867
 21
-2.993074395762505
 31
0.0
  0
SPLINE
  5
D4
330
2
100
AcDbEntity
  8
GAIKEI
  6
Continuous
 62
     1
100
AcDbSpline
210
0.0
220
0.0
230
1.0
 70
     8
 71
     3
 72
    19
 73
    15
 74
    13
 42
0.0000000001
 43
0.0000000001
 44
0.000001
 12
0.9639938394678312
 22
0.2659245710122878
 32
0.0
 13
0.26346002757732
 23
0.9646703135625962
 33
0.0
 40
0.0
 40
0.0
 40
0.0
 40
0.0
 40
0.0120685447879241
 40
0.024137553423223
 40
0.0365717545461234
 40
0.0490061389643966
 40
0.0610391948686841
 40
0.0730723357382661
 40
0.0854755671879796
 40
0.0978786958477654
 40
0.1099595938326573
 40
0.1220403135244441
 40
0.1344880973698816
 40
0.1469354490878092
 40
0.1469354490878092
 40
0.1469354490878092
 40
0.1469354490878092
 10
11.35771721453989
 20
-3.092536327243237
 30
0.0
 10
11.36159521548218
 20
-3.091466553044767
 30
0.0
 10
11.36926506575864
 20
-3.088999048920243
 30
0.0
 10
11.38052916188434
 20
-3.084301416934636
 30
0.0
 10
11.3914544921349
 20
-3.078589152414508
 30
0.0
 10
11.40183014664019
 20
-3.071952873913403
 30
0.0
 10
11.41148197608132
 20
-3.064520978547022
 30
0.0
 10
11.42046145417465
 20
-3.056304694443724
 30
0.0
 10
11.42877512073239
 20
-3.047245518706859
 30
0.0
 10
11.43627541083668
 20
-3.037482191377421
 30
0.0
 10
11.44283868619959
 20
-3.027194512951211
 30
0.0
 10
11.44851433299607
 20
-3.016374785007428
 30
0.0
 10
11.45327899574066
 20
-3.004991426356809
 30
0.0
 10
11.45581393545603
 20
-2.997076925990768
 30
0.0
 10
11.45690706199832
 20
-2.993074395762505
 30
0.0
 11
11.35771721453989
 21
-3.092536327243237
 31
0.0
 11
11.36920670724623
 21
-3.088841615674141
 31
0.0
 11
11.38034468125465
 21
-3.084193356394735
 31
0.0
 11
11.39136428706638
 21
-3.07843331641078
 31
0.0
 11
11.40183787799879
 21
-3.071731206061372
 31
0.0
 11
11.41137308633301
 21
-3.064391265475762
 31
0.0
 11
11.42024929126717
 21
-3.05626661368683
 31
0.0
 11
11.42863730805879
 21
-3.047129772348853
 31
0.0
 11
11.4361919236876
 21
-3.037292805381241
 31
0.0
 11
11.44269168962978
 21
-3.027109408468049
 31
0.0
 11
11.44830245436901
 21
-3.016410648695682
 31
0.0
 11
11.45311154711044
 21
-3.004929370399963
 31
0.0
 11
11.45690706199832
 21
-2.993074395762505
 31
0.0
  0
SPLINE
  5
D5
330
2
100
AcDbEntity
  8
GAIKEI
  6
Continuous
 62
     1
100
AcDbSpline
210
0.0
220
0.0
230
1.0
 70
     8
 71
     3
 72
    19
 73
    15
 74
    13
 42
0.0000000001
 43
0.0000000001
 44
0.000001
 12
0.2634414923284027
 22
0.9646753755122933
 32
0.0
 13
0.9639886149825482
 23
0.2659435093850355
 33
0.0
 40
0.0
 40
0.0
 40
0.0
 40
0.0
 40
0.0120706715938666
 40
0.0241417800381547
 40
0.036577716845082
 40
0.0490138356852426
 40
0.0610453208348037
 40
0.0730769079994262
 40
0.0854784299499502
 40
0.0978798670910514
 40
0.1099602577905208
 40
0.1220404696565093
 40
0.1344881894039734
 40
0.146935448671553
 40
0.146935448671553
 40
0.146935448671553
 40
0.146935448671553
 10
-33.81882764444873
 20
22.97262440420127
 30
0.0
 10
-33.81776767253604
 20
22.9765058307521
 30
0.0
 10
-33.81531969098559
 20
22.98418339969964
 30
0.0
 10
-33.81065124218586
 20
22.99546175784553
 30
0.0
 10
-33.80496763348215
 20
23.00640410225014
 30
0.0
 10
-33.79835936279204
 20
23.01679835928798
 30
0.0
 10
-33.79095440170719
 20
23.02647026915082
 30
0.0
 10
-33.78276422563514
 20
23.03547137747194
 30
0.0
 10
-33.77372953749234
 20
23.04380920751936
 30
0.0
 10
-33.7639882244533
 20
23.05133593973619
 30
0.0
 10
-33.75371952801462
 20
23.05792722278034
 30
0.0
 10
-33.74291566355109
 20
23.06363226945729
 30
0.0
 10
-33.73154530146505
 20
23.06842735305906
 30
0.0
 10
-33.72363746906425
 20
23.07098291307795
 30
0.0
 10
-33.71963779699036
 20
23.07208633568189
 30
0.0
 11
-33.81882764444873
 21
22.97262440420127
 31
0.0
 11
-33.81516218400202
 21
22.98412549047163
 31
0.0
 11
-33.81054269320487
 21
22.99527769959366
 31
0.0
 11
-33.80481158852786
 21
23.00631433749857
 31
0.0
 11
-33.79813713500482
 21
23.01680763040128
 31
0.0
 11
-33.79082444898262
 21
23.02636177864326
 31
0.0
 11
-33.78272555397092
 21
23.03525939016453
 31
0.0
 11
-33.77361342684145
 21
23.04367172815682
 31
0.0
 11
-33.76379891622491
 21
23.05125272815059
 31
0.0
 11
-33.75363398704883
 21
23.05778039915395
 31
0.0
 11
-33.74295104410203
 21
23.06342013360063
 31
0.0
 11
-33.73148274360711
 21
23.06825992886013
 31
0.0
 11
-33.71963779699036
 21
23.07208633568189
 31
0.0
  0
SPLINE
  5
D6
330
2
100
AcDbEntity
  8
GAIKEI
  6
Continuous
 62
     1
100
AcDbSpline
210
0.0
220
0.0
230
1.0
 70
     8
 71
     3
 72
    19
 73
    15
 74
    13
 42
0.0000000001
 43
0.0000000001
 44
0.000001
 12
-0.2634414923284028
 22
0.9646753755122933
 32
0.0
 13
-0.9639886149825482
 23
0.2659435093850356
 33
0.0
 40
0.0
 40
0.0
 40
0.0
 40
0.0
 40
0.0120706715938838
 40
0.0241417800381298
 40
0.0365777168451112
 40
0.049013835685205
 40
0.0610453208348029
 40
0.0730769079994253
 40
0.0854784299499467
 40
0.0978798670910901
 40
0.1099602577904698
 40
0.1220404696563609
 40
0.134488189404028
 40
0.1469354486716109
 40
0.1469354486716109
 40
0.1469354486716109
 40
0.1469354486716109
 10
11.45690706199832
 20
22.97262440420127
 30
0.0
 10
11.45584709008562
 20
22.9765058307521
 30
0.0
 10
11.45339910853505
 20
22.98418339969942
 30
0.0
 10
11.44873065973557
 20
22.9954617578457
 30
0.0
 10
11.44304705103161
 20
23.0064041022498
 30
0.0
 10
11.43643878034172
 20
23.01679835928803
 30
0.0
 10
11.42903381925677
 20
23.02647026915071
 30
0.0
 10
11.42084364318474
 20
23.03547137747199
 30
0.0
 10
11.41180895504192
 20
23.04380920751936
 30
0.0
 10
11.40206764200286
 20
23.05133593973619
 30
0.0
 10
11.39179894556427
 20
23.05792722278045
 30
0.0
 10
11.38099508110077
 20
23.06363226945729
 30
0.0
 10
11.36962471901464
 20
23.06842735305901
 30
0.0
 10
11.36171688661377
 20
23.07098291307795
 30
0.0
 10
11.35771721453989
 20
23.07208633568189
 30
0.0
 11
11.45690706199832
 21
22.97262440420127
 31
0.0
 11
11.45324160155155
 21
22.98412549047163
 31
0.0
 11
11.44862211075451
 21
22.99527769959366
 31
0.0
 11
11.44289100607739
 21
23.00631433749857
 31
0.0
 11
11.43621655255447
 21
23.01680763040128
 31
0.0
 11
11.42890386653221
 21
23.02636177864326
 31
0.0
 11
11.42080497152051
 21
23.03525939016453
 31
0.0
 11
11.41169284439104
 21
23.04367172815682
 31
0.0
 11
11.40187833377445
 21
23.05125272815059
 31
0.0
 11
11.39171340459848
 21
23.05778039915395
 31
0.0
 11
11.38103046165179
 21
23.06342013360063
 31
0.0
 11
11.36956216115663
 21
23.06825992886013
 31
0.0
 11
11.35771721453989
 21
23.07208633568189
 31
0.0
  0
SPLINE
  5
D7
330
2
100
AcDbEntity
  8
GAIKEI
  6
Continuous
 62
     1
100
AcDbSpline
210
0.0
220
0.0
230
1.0
 70
     8
 71
     3
 72
    19
 73
    15
 74
    13
 42
0.0000000001
 43
0.0000000001
 44
0.000001
 12
0.0944471245025448
 22
0.9955298793472755
 32
0.0
 13
0.9955257326591484
 23
0.0944908229060694
 33
0.0
 40
0.0
 40
0.0
 40
0.0
 40
0.0
 40
0.0172124311712102
 40
0.0344312311769035
 40
0.0515392072852589
 40
0.0686910149758234
 40
0.0858057717066227
 40
0.1119433335992328
 40
0.1380833502634083
 40
0.1635982876566686
 40
0.1891038875427935
 40
0.2053832094130375
 40
0.2217026553121992
 40
0.2379700129382794
 40
0.2379700129382794
 40
0.2379700129382794
 40
0.2379700129382794
 10
-36.10670880775865
 20
24.87766389944545
 30
0.0
 10
-36.10616691954871
 20
24.88337572928782
 30
0.0
 10
-36.10446139790314
 20
24.89475367729028
 30
0.0
 10
-36.10002254504703
 20
24.91138387264414
 30
0.0
 10
-36.09388313003971
 20
24.92743894238498
 30
0.0
 10
-36.08620314739884
 20
24.94277558168233
 30
0.0
 10
-36.07550202971538
 20
24.95986385277371
 30
0.0
 10
-36.06093387747441
 20
24.97793457987797
 30
0.0
 10
-36.04196873572281
 20
24.9957412665579
 30
0.0
 10
-36.02087844475016
 20
25.01060318214286
 30
0.0
 10
-36.00084367398809
 20
25.02088158392735
 30
0.0
 10
-35.98262705918752
 20
25.0275425223681
 30
0.0
 10
-35.96682769045739
 20
25.03161839722748
 30
0.0
 10
-35.95605727001918
 20
25.0332012562219
 30
0.0
 10
-35.95065907897947
 20
25.03371362822475
 30
0.0
 11
-36.10670880775865
 21
24.87766389944545
 31
0.0
 11
-36.10414719496288
 21
24.8946855393209
 31
0.0
 11
-36.09972687811546
 21
24.9113274153791
 31
0.0
 11
-36.09363007319706
 21
24.9273121999222
 31
0.0
 11
-36.08596003829428
 21
24.94265348141118
 31
0.0
 11
-36.07687861718432
 21
24.95716002804375
 31
0.0
 11
-36.06049257992339
 21
24.97752292595703
 31
0.0
 11
-36.04142656970476
 21
24.99540456713112
 31
0.0
 11
-36.0205660106484
 21
25.01009603527985
 31
0.0
 11
-35.99785174865224
 21
25.02169769169678
 31
0.0
 11
-35.9825609335544
 21
25.02728410671648
 31
0.0
 11
-35.96675299211734
 21
25.03133835680831
 31
0.0
 11
-35.95065907897947
 21
25.03371362822475
 31
0.0
  0
SPLINE
  5
D8
330
2
100
AcDbEntity
  8
GAIKEI
  6
Continuous
 62
     1
100
AcDbSpline
210
0.0
220
0.0
230
1.0
 70
     8
 71
     3
 72
    19
 73
    15
 74
    13
 42
0.0000000001
 43
0.0000000001
 44
0.000001
 12
-0.995529879347374
 22
0.0944471245015059
 32
0.0
 13
-0.0944908229060039
 23
0.9955257326591544
 33
0.0
 40
0.0
 40
0.0
 40
0.0
 40
0.0
 40
0.0172124311711117
 40
0.0344312311769021
 40
0.0515392072852236
 40
0.0686910149758104
 40
0.0858057717066236
 40
0.1119433335992411
 40
0.138083350263196
 40
0.1635982876565692
 40
0.1891038875427147
 40
0.2053832094130082
 40
0.2217026553120913
 40
0.2379700129382693
 40
0.2379700129382693
 40
0.2379700129382693
 40
0.2379700129382693
 10
-35.95065907897947
 20
-5.186610009572007
 30
0.0
 10
-35.95637090882183
 20
-5.186068121362097
 30
0.0
 10
-35.96774885682416
 20
-5.18436259971628
 30
0.0
 10
-35.98437905217807
 20
-5.179923746860481
 30
0.0
 10
-36.00043412191908
 20
-5.173784331853084
 30
0.0
 10
-36.01577076121626
 20
-5.166104349212105
 30
0.0
 10
-36.03285903230776
 20
-5.155403231528737
 30
0.0
 10
-36.05092975941197
 20
-5.14083507928791
 30
0.0
 10
-36.0687364460916
 20
-5.121869937535961
 30
0.0
 10
-36.083598361677
 20
-5.100779646563751
 30
0.0
 10
-36.09387676346119
 20
-5.080744875801428
 30
0.0
 10
-36.10053770190233
 20
-5.06252826100092
 30
0.0
 10
-36.10461357676114
 20
-5.046728892270664
 30
0.0
 10
-36.10619643575578
 20
-5.035958471832486
 30
0.0
 10
-36.10670880775865
 20
-5.030560280792769
 30
0.0
 11
-35.95065907897947
 21
-5.186610009572007
 31
0.0
 11
-35.96768071885481
 21
-5.184048396776177
 31
0.0
 11
-35.98432259491313
 21
-5.179628079928818
 31
0.0
 11
-36.00030737945622
 21
-5.173531275010475
 31
0.0
 11
-36.0156486609452
 21
-5.165861240107631
 31
0.0
 11
-36.03015520757776
 21
-5.156779818997677
 31
0.0
 11
-36.05051810549105
 21
-5.14039378173669
 31
0.0
 11
-36.06839974666491
 21
-5.121327771518167
 31
0.0
 11
-36.08309121481386
 21
-5.100467212461808
 31
0.0
 11
-36.09469287123079
 21
-5.077752950465651
 31
0.0
 11
-36.1002792862505
 21
-5.062462135367752
 31
0.0
 11
-36.1043335363421
 21
-5.046654193930692
 31
0.0
 11
-36.10670880775865
 21
-5.030560280792769
 31
0.0
  0
SPLINE
  5
D9
330
2
100
AcDbEntity
  8
GAIKEI
  6
Continuous
 62
     1
100
AcDbSpline
210
0.0
220
0.0
230
1.0
 70
     8
 71
     3
 72
    19
 73
    15
 74
    13
 42
0.0000000001
 43
0.0000000001
 44
0.000001
 12
-0.0944471245025449
 22
0.9955298793472755
 32
0.0
 13
-0.9955257326591484
 23
0.0944908229060694
 33
0.0
 40
0.0
 40
0.0
 40
0.0
 40
0.0
 40
0.0172124311712192
 40
0.0344312311769252
 40
0.0515392072852616
 40
0.0686910149757976
 40
0.0858057717065988
 40
0.1119433335992445
 40
0.1380833502633811
 40
0.1635982876567315
 40
0.1891038875427583
 40
0.2053832094130056
 40
0.2217026553121639
 40
0.2379700129383566
 40
0.2379700129383566
 40
0.2379700129383566
 40
0.2379700129383566
 10
13.7134260632672
 20
24.87766389944545
 30
0.0
 10
13.71288417505727
 20
24.88337572928782
 30
0.0
 10
13.71117865341163
 20
24.89475367729028
 30
0.0
 10
13.70673980055544
 20
24.91138387264403
 30
0.0
 10
13.70060038554824
 20
24.92743894238515
 30
0.0
 10
13.69292040290739
 20
24.94277558168216
 30
0.0
 10
13.68221928522393
 20
24.95986385277376
 30
0.0
 10
13.66765113298291
 20
24.97793457987791
 30
0.0
 10
13.64868599123134
 20
24.99574126655796
 30
0.0
 10
13.62759570025864
 20
25.0106031821428
 30
0.0
 10
13.60756092949663
 20
25.02088158392729
 30
0.0
 10
13.58934431469606
 20
25.02754252236826
 30
0.0
 10
13.57354494596593
 20
25.03161839722742
 30
0.0
 10
13.56277452552766
 20
25.0332012562219
 30
0.0
 10
13.55737633448791
 20
25.03371362822475
 30
0.0
 11
13.7134260632672
 21
24.87766389944545
 31
0.0
 11
13.71086445047138
 21
24.8946855393209
 31
0.0
 11
13.7064441336239
 21
24.9113274153791
 31
0.0
 11
13.70034732870556
 21
24.9273121999222
 31
0.0
 11
13.69267729380283
 21
24.94265348141118
 31
0.0
 11
13.68359587269287
 21
24.95716002804375
 31
0.0
 11
13.66720983543189
 21
24.97752292595703
 31
0.0
 11
13.64814382521331
 21
24.99540456713112
 31
0.0
 11
13.62728326615683
 21
25.01009603527985
 31
0.0
 11
13.60456900416079
 21
25.02169769169678
 31
0.0
 11
13.58927818906295
 21
25.02728410671648
 31
0.0
 11
13.57347024762589
 21
25.03133835680831
 31
0.0
 11
13.55737633448791
 21
25.03371362822475
 31
0.0
  0
SPLINE
  5
DA
330
2
100
AcDbEntity
  8
GAIKEI
  6
Continuous
 62
     1
100
AcDbSpline
210
0.0
220
0.0
230
1.0
 70
     8
 71
     3
 72
    19
 73
    15
 74
    13
 42
0.0000000001
 43
0.0000000001
 44
0.000001
 12
0.995529879347374
 22
0.0944471245015057
 32
0.0
 13
0.0944908229060041
 23
0.9955257326591546
 33
0.0
 40
0.0
 40
0.0
 40
0.0
 40
0.0
 40
0.0172124311712171
 40
0.0344312311768976
 40
0.051539207285332
 40
0.068691014975817
 40
0.0858057717067267
 40
0.1119433335992528
 40
0.1380833502633681
 40
0.1635982876566104
 40
0.1891038875428028
 40
0.2053832094130986
 40
0.2217026553122082
 40
0.2379700129383707
 40
0.2379700129383707
 40
0.2379700129383707
 40
0.2379700129383707
 10
13.55737633448791
 20
-5.186610009572007
 30
0.0
 10
13.56308816433029
 20
-5.186068121362097
 30
0.0
 10
13.57446611233266
 20
-5.184362599716337
 30
0.0
 10
13.59109630768654
 20
-5.179923746860481
 30
0.0
 10
13.60715137742761
 20
-5.173784331852971
 30
0.0
 10
13.62248801672473
 20
-5.166104349212218
 30
0.0
 10
13.63957628781629
 20
-5.155403231528794
 30
0.0
 10
13.65764701492037
 20
-5.140835079287626
 30
0.0
 10
13.67545370160033
 20
-5.121869937536246
 30
0.0
 10
13.69031561718538
 20
-5.100779646563523
 30
0.0
 10
13.70059401896975
 20
-5.080744875801656
 30
0.0
 10
13.70725495741084
 20
-5.062528261000807
 30
0.0
 10
13.71133083226991
 20
-5.046728892270721
 30
0.0
 10
13.71291369126433
 20
-5.035958471832486
 30
0.0
 10
13.7134260632672
 20
-5.030560280792769
 30
0.0
 11
13.55737633448791
 21
-5.186610009572007
 31
0.0
 11
13.57439797436336
 21
-5.184048396776177
 31
0.0
 11
13.59103985042156
 21
-5.179628079928818
 31
0.0
 11
13.60702463496477
 21
-5.173531275010475
 31
0.0
 11
13.62236591645364
 21
-5.165861240107631
 31
0.0
 11
13.63687246308632
 21
-5.156779818997677
 31
0.0
 11
13.65723536099949
 21
-5.14039378173669
 31
0.0
 11
13.67511700217358
 21
-5.121327771518167
 31
0.0
 11
13.6898084703223
 21
-5.100467212461808
 31
0.0
 11
13.70141012673935
 21
-5.077752950465651
 31
0.0
 11
13.70699654175905
 21
-5.062462135367752
 31
0.0
 11
13.71105079185076
 21
-5.046654193930692
 31
0.0
 11
13.7134260632672
 21
-5.030560280792769
 31
0.0
  0
LINE
  5
DB
330
2
100
AcDbEntity
  8
GAIKEI
  6
Continuous
 62
     1
100
AcDbLine
 10
42.93152878686811
 20
24.40411205968235
 30
0.0
 11
43.18425233966411
 21
24.41551087052392
 31
0.0
  0
LINE
  5
DC
330
2
100
AcDbEntity
  8
GAIKEI
  6
Continuous
 62
     1
100
AcDbLine
 10
43.15602523187453
 20
24.61784474653439
 30
0.0
 11
42.93152878686811
 21
24.62508128945274
 31
0.0
  0
LINE
  5
DD
330
2
100
AcDbEntity
  8
GAIKEI
  6
Continuous
 62
     1
100
AcDbLine
 10
44.55497426913217
 20
-2.025172778089995
 30
0.0
 11
44.51166917176419
 21
-2.050174999370028
 31
0.0
  0
LINE
  5
DE
330
2
100
AcDbEntity
  8
GAIKEI
  6
Continuous
 62
     1
100
AcDbLine
 10
44.66168249944416
 20
-2.025172778089995
 30
0.0
 11
44.55497426913217
 21
-2.025172778089995
 31
0.0
  0
LINE
  5
DF
330
2
100
AcDbEntity
  8
GAIKEI
  6
Continuous
 62
     1
100
AcDbLine
 10
44.51166917176419
 20
-2.197688104922008
 30
0.0
 11
44.66168249944416
 21
-2.180811605558005
 31
0.0
  0
LINE
  5
E0
330
2
100
AcDbEntity
  8
GAIKEI
  6
Continuous
 62
     1
100
AcDbLine
 10
44.71168694200412
 20
-2.175186105770023
 30
0.0
 11
44.66168249944416
 21
-2.180811605558005
 31
0.0
  0
LINE
  5
E1
330
2
100
AcDbEntity
  8
GAIKEI
  6
Continuous
 62
     1
100
AcDbLine
 10
44.71168694200412
 20
-2.025172778089995
 30
0.0
 11
44.71168694200412
 21
-2.175186105770023
 31
0.0
  0
LINE
  5
E2
330
2
100
AcDbEntity
  8
GAIKEI
  6
Continuous
 62
     1
100
AcDbLine
 10
44.66168249944416
 20
-2.025172778089995
 30
0.0
 11
44.71168694200412
 21
-2.025172778089995
 31
0.0
  0
LINE
  5
E3
330
2
100
AcDbEntity
  8
GAIKEI
  6
Continuous
 62
     1
100
AcDbLine
 10
44.56167361432409
 20
-1.600135016329943
 30
0.0
 11
44.51166917176419
 21
-1.550130573769934
 31
0.0
  0
LINE
  5
E4
330
2
100
AcDbEntity
  8
GAIKEI
  6
Continuous
 62
     1
100
AcDbLine
 10
44.51166917176419
 20
-2.050174999370028
 30
0.0
 11
44.56167361432409
 21
-2.000170556809962
 31
0.0
  0
LINE
  5
E5
330
2
100
AcDbEntity
  8
GAIKEI
  6
Continuous
 62
     1
100
AcDbLine
 10
44.56167361432409
 20
-2.000170556809962
 30
0.0
 11
44.56167361432409
 21
-1.600135016329943
 31
0.0
  0
LINE
  5
E6
330
2
100
AcDbEntity
  8
GAIKEI
  6
Continuous
 62
     1
100
AcDbLine
 10
44.11163363128418
 20
-1.525128352490014
 30
0.0
 11
44.51166917176419
 21
-1.525128352490014
 31
0.0
  0
LINE
  5
E7
330
2
100
AcDbEntity
  8
GAIKEI
  6
Continuous
 62
     1
100
AcDbLine
 10
44.51166917176419
 20
-2.225190548329976
 30
0.0
 11
44.12284222709286
 21
-2.225190548329976
 31
0.0
  0
LINE
  5
E8
330
2
100
AcDbEntity
  8
GAIKEI
  6
Continuous
 62
     1
100
AcDbLine
 10
44.51166917176419
 20
-1.525128352490014
 30
0.0
 11
44.51166917176419
 21
-2.225190548329976
 31
0.0
  0
LINE
  5
E9
330
2
100
AcDbEntity
  8
GAIKEI
  6
Continuous
 62
     1
100
AcDbLine
 10
40.6762538530179
 20
-4.720584047338661
 30
0.0
 11
40.67702847183761
 21
-4.720651853362824
 31
0.0
  0
ELLIPSE
  5
EA
330
2
100
AcDbEntity
  8
GAIKEI
  6
Continuous
 62
     7
100
AcDbEllipse
 10
41.26553915707257
 20
25.0064789240796
 30
0.0
 11
-0.4304650760396076
 21
0.0183350540597169
 31
0.0
210
0.0
220
0.0
230
1.0
 40
0.0979550000027946
 41
-0.0556951287892611
 42
0.0307150442110096
  0
ELLIPSE
  5
EB
330
2
100
AcDbEntity
  8
GAIKEI
  6
Continuous
 62
     1
100
AcDbEllipse
 10
41.26553915707257
 20
-5.183593882663217
 30
0.0
 11
-0.3002971316235787
 21
0.4353642020019295
 31
0.0
210
0.0
220
0.0
230
1.0
 40
0.7084259999999128
 41
0.7388798675229174
 42
0.8252900405248016
  0
ELLIPSE
  5
EC
330
2
100
AcDbEntity
  8
GAIKEI
  6
Continuous
 62
     1
100
AcDbEllipse
 10
41.26553915707257
 20
25.0064789240796
 30
0.0
 11
0.3002971316397903
 21
0.4353642019797884
 31
0.0
210
0.0
220
0.0
230
1.0
 40
0.7084259999997621
 41
2.316302613115392
 42
2.402712786120312
  0
ELLIPSE
  5
ED
330
2
100
AcDbEntity
  8
GAIKEI
  6
Continuous
 62
     7
100
AcDbEllipse
 10
40.90075714863291
 20
24.98736147562226
 30
0.0
 11
-0.0039255454801028
 21
0.0749038698138415
 31
0.0
210
0.0
220
0.0
230
1.0
 40
0.9969940000001736
 41
-0.0000000000462679
 42
1.015719002465488
  0
ELLIPSE
  5
EE
330
2
100
AcDbEntity
  8
GAIKEI
  6
Continuous
 62
     1
100
AcDbEllipse
 10
42.83425734495153
 20
24.96351975744517
 30
0.0
 11
-0.0052376484159654
 21
0.2000177233456646
 31
0.0
210
0.0
220
0.0
230
1.0
 40
0.0261499999999963
 41
0.000684763903771
 42
1.568742034989261
  0
ELLIPSE
  5
EF
330
2
100
AcDbEntity
  8
GAIKEI
  6
Continuous
 62
     1
100
AcDbEllipse
 10
41.26161360831384
 20
25.0064789240796
 30
0.0
 11
0.2691022304283923
 21
0.3978920321198732
 31
0.0
210
0.0
220
0.0
230
1.0
 40
0.6240159999996433
 41
2.309985920121875
 42
2.396396093123733
  0
ELLIPSE
  5
F0
330
2
100
AcDbEntity
  8
GAIKEI
  6
Continuous
 62
     1
100
AcDbEllipse
 10
41.26161360831384
 20
-5.183593882663217
 30
0.0
 11
-0.2691022304227059
 21
0.3978920321294572
 31
0.0
210
0.0
220
0.0
230
1.0
 40
0.6240160000001015
 41
0.7451965604898776
 42
0.8316067334899205
  0
ARC
  5
F1
330
2
100
AcDbEntity
  8
GAIKEI
  6
Continuous
 62
     7
100
AcDbCircle
 10
40.73153331422804
 20
24.76662436460754
 30
0.0
 40
0.0500044425600019
100
AcDbArc
 50
147.9140249999912
 51
180.0
  0
ARC
  5
F2
330
2
100
AcDbEntity
  8
GAIKEI
  6
Continuous
 62
     7
100
AcDbCircle
 10
40.73153331422804
 20
-4.943739323191266
 30
0.0
 40
0.0500044425600019
100
AcDbArc
 50
180.0
 51
212.0859750000088
  0
ARC
  5
F3
330
2
100
AcDbEntity
  8
GAIKEI
  6
Continuous
 62
     7
100
AcDbCircle
 10
40.89939107726661
 20
24.98728991926498
 30
0.0
 40
0.0750066638400028
100
AcDbArc
 50
92.9999999999991
 51
147.9140249999912
  0
ARC
  5
F4
330
2
100
AcDbEntity
  8
GAIKEI
  6
Continuous
 62
     7
100
AcDbCircle
 10
40.89939107726661
 20
-5.164404877848653
 30
0.0
 40
0.0750066638400028
100
AcDbArc
 50
212.0859750000088
 51
267.0000000000009
  0
ARC
  5
F5
330
2
100
AcDbEntity
  8
GAIKEI
  6
Continuous
 62
     7
100
AcDbCircle
 10
42.88152434430805
 20
-5.290648043708927
 30
0.0
 40
0.0500044425600019
100
AcDbArc
 50
270.0
 51
0.0
  0
ARC
  5
F6
330
2
100
AcDbEntity
  8
GAIKEI
  6
Continuous
 62
     7
100
AcDbCircle
 10
42.88152434430805
 20
25.11353308512525
 30
0.0
 40
0.0500044425600019
100
AcDbArc
 50
0.0
 51
90.0
  0
LINE
  5
F7
330
2
100
AcDbEntity
  8
GAIKEI
  6
Continuous
 62
     7
100
AcDbLine
 10
40.68152887166803
 20
24.76662436460754
 30
0.0
 11
40.68152887166803
 21
-4.943739323191266
 31
0.0
  0
LINE
  5
F8
330
2
100
AcDbEntity
  8
GAIKEI
  6
Continuous
 62
     7
100
AcDbLine
 10
40.89683159987425
 20
25.0622653803328
 30
0.0
 11
40.89546552850788
 21
25.06219377397105
 31
0.0
  0
LINE
  5
F9
330
2
100
AcDbEntity
  8
GAIKEI
  6
Continuous
 62
     7
100
AcDbLine
 10
40.89546552850788
 20
-5.239308732554775
 30
0.0
 11
40.89683159987425
 21
-5.239380338916532
 31
0.0
  0
LINE
  5
FA
330
2
100
AcDbEntity
  8
GAIKEI
  6
Continuous
 62
     7
100
AcDbLine
 10
40.83584153131482
 20
-5.204247717618272
 30
0.0
 11
40.68916695026013
 21
-4.970301283043511
 31
0.0
  0
LINE
  5
FB
330
2
100
AcDbEntity
  8
GAIKEI
  6
Continuous
 62
     1
100
AcDbLine
 10
40.68152887166803
 20
-4.758904123942159
 30
0.0
 11
40.83584153131482
 21
-5.005033318752452
 31
0.0
  0
LINE
  5
FC
330
2
100
AcDbEntity
  8
GAIKEI
  6
Continuous
 62
     1
100
AcDbLine
 10
40.83584153131482
 20
24.82791836016872
 30
0.0
 11
40.68152887166803
 21
24.58178916535849
 31
0.0
  0
LINE
  5
FD
330
2
100
AcDbEntity
  8
GAIKEI
  6
Continuous
 62
     7
100
AcDbLine
 10
40.68916695026013
 20
24.7931863244599
 30
0.0
 11
40.83584153131482
 21
25.02713275903455
 31
0.0
  0
LINE
  5
FE
330
2
100
AcDbEntity
  8
GAIKEI
  6
Continuous
 62
     1
100
AcDbLine
 10
40.83584153131482
 20
-5.005033318752452
 30
0.0
 11
40.83584153131482
 21
24.82791836016872
 31
0.0
  0
LINE
  5
FF
330
2
100
AcDbEntity
  8
GAIKEI
  6
Continuous
 62
     7
100
AcDbLine
 10
40.89683159987425
 20
25.0622653803328
 30
0.0
 11
42.82901607930017
 21
25.16353732766743
 31
0.0
  0
LINE
  5
100
330
2
100
AcDbEntity
  8
GAIKEI
  6
Continuous
 62
     7
100
AcDbLine
 10
42.82901607930017
 20
-5.340652286251156
 30
0.0
 11
40.89683159987425
 21
-5.239380338916532
 31
0.0
  0
LINE
  5
101
330
2
100
AcDbEntity
  8
GAIKEI
  6
Continuous
 62
     7
100
AcDbLine
 10
42.88152434430805
 20
-5.340652486268936
 30
0.0
 11
42.82901967962004
 21
-5.340652486268936
 31
0.0
  0
LINE
  5
102
330
2
100
AcDbEntity
  8
GAIKEI
  6
Continuous
 62
     7
100
AcDbLine
 10
42.93152878686811
 20
-5.140634716028898
 30
0.0
 11
42.93152878686811
 21
-5.290648043708927
 31
0.0
  0
LINE
  5
103
330
2
100
AcDbEntity
  8
GAIKEI
  6
Continuous
 62
     7
100
AcDbLine
 10
42.82901967962004
 20
25.16353752768521
 30
0.0
 11
42.88152434430805
 21
25.16353752768521
 31
0.0
  0
LINE
  5
104
330
2
100
AcDbEntity
  8
GAIKEI
  6
Continuous
 62
     7
100
AcDbLine
 10
42.82901967962004
 20
25.16353752768521
 30
0.0
 11
42.82901607930017
 21
25.16353732766743
 31
0.0
  0
LINE
  5
105
330
2
100
AcDbEntity
  8
GAIKEI
  6
Continuous
 62
     1
100
AcDbLine
 10
42.93152878686811
 20
-5.140634716028898
 30
0.0
 11
42.88152434430805
 21
-5.140634716028898
 31
0.0
  0
LINE
  5
106
330
2
100
AcDbEntity
  8
GAIKEI
  6
Continuous
 62
     7
100
AcDbLine
 10
42.93152878686811
 20
-5.140634716028898
 30
0.0
 11
42.93152878686811
 21
25.11353308512525
 31
0.0
  0
LINE
  5
107
330
2
100
AcDbEntity
  8
GAIKEI
  6
Continuous
 62
     1
100
AcDbLine
 10
42.82901967962004
 20
-5.140634716028898
 30
0.0
 11
42.88152434430805
 21
-5.140634716028898
 31
0.0
  0
LINE
  5
108
330
2
100
AcDbEntity
  8
GAIKEI
  6
Continuous
 62
     1
100
AcDbLine
 10
42.82901607930017
 20
24.96379368178151
 30
0.0
 11
40.89683159987425
 21
24.86252168444242
 31
0.0
  0
LINE
  5
109
330
2
100
AcDbEntity
  8
GAIKEI
  6
Continuous
 62
     1
100
AcDbLine
 10
40.89546552850788
 20
24.82791836016872
 30
0.0
 11
40.89546552850788
 21
-5.005033318752452
 31
0.0
  0
LINE
  5
10A
330
2
100
AcDbEntity
  8
GAIKEI
  6
Continuous
 62
     1
100
AcDbLine
 10
40.83508743528057
 20
-5.036400767899408
 30
0.0
 11
42.82901607930017
 21
-5.140908640365239
 31
0.0
  0
LINE
  5
10B
330
2
100
AcDbEntity
  8
GAIKEI
  6
Continuous
 62
     1
100
AcDbLine
 10
42.82901967962004
 20
24.96351975744517
 30
0.0
 11
42.82901967962004
 21
-5.340652486268936
 31
0.0
  0
ARC
  5
10C
330
2
100
AcDbEntity
  8
GAIKEI
  6
Continuous
 62
     1
100
AcDbCircle
 10
42.59399879958812
 20
-2.860432135292853
 30
0.0
 40
0.450039983040017
100
AcDbArc
 50
0.0
 51
16.60155000000191
  0
ARC
  5
10D
330
2
100
AcDbEntity
  8
GAIKEI
  6
Continuous
 62
     1
100
AcDbCircle
 10
42.59399879958812
 20
-2.860432135292853
 30
0.0
 40
0.450039983040017
100
AcDbArc
 50
343.3984499999981
 51
0.0
  0
ARC
  5
10E
330
2
100
AcDbEntity
  8
GAIKEI
  6
Continuous
 62
     1
100
AcDbCircle
 10
42.96298278134497
 20
-2.970441908924783
 30
0.0
 40
0.0650057753280025
100
AcDbArc
 50
270.0
 51
343.3984499999981
  0
ARC
  5
10F
330
2
100
AcDbEntity
  8
GAIKEI
  6
Continuous
 62
     1
100
AcDbCircle
 10
42.96298278134497
 20
-2.75042236166081
 30
0.0
 40
0.0650057753280025
100
AcDbArc
 50
16.60155000000191
 51
90.0
  0
LINE
  5
110
330
2
100
AcDbEntity
  8
GAIKEI
  6
Continuous
 62
     1
100
AcDbLine
 10
42.93152878686811
 20
-3.035447684252801
 30
0.0
 11
42.96298278134497
 21
-3.035447684252801
 31
0.0
  0
LINE
  5
111
330
2
100
AcDbEntity
  8
GAIKEI
  6
Continuous
 62
     1
100
AcDbLine
 10
42.96298278134497
 20
-2.685416586332792
 30
0.0
 11
42.93152878686811
 21
-2.685416586332792
 31
0.0
  0
ELLIPSE
  5
112
330
2
100
AcDbEntity
  8
GAIKEI
  6
Continuous
 62
     1
100
AcDbEllipse
 10
43.96255373653343
 20
-3.624837497592409
 30
0.0
 11
-0.0261703031777274
 21
0.4993591320935867
 31
0.0
210
0.0
220
0.0
230
1.0
 40
0.7656099999999868
 41
3.14159265358974
 42
4.672286563984016
  0
ELLIPSE
  5
113
330
2
100
AcDbEntity
  8
GAIKEI
  6
Continuous
 62
     1
100
AcDbEllipse
 10
44.81419604925219
 20
3.208481172511142
 30
0.0
 11
0.0
 21
0.3250288766400047
 31
0.0
210
0.0
220
0.0
230
1.0
 40
0.1391730000000111
 41
3.141592653589793
 42
6.283185307179586
  0
ELLIPSE
  5
114
330
2
100
AcDbEntity
  8
GAIKEI
  6
Continuous
 62
     1
100
AcDbEllipse
 10
44.81419604925213
 20
16.28274852902893
 30
0.0
 11
0.0
 21
0.3250288766400047
 31
0.0
210
0.0
220
0.0
230
1.0
 40
0.1391730000000111
 41
3.141592653589793
 42
6.283185307179586
  0
ELLIPSE
  5
115
330
2
100
AcDbEntity
  8
GAIKEI
  6
Continuous
 62
     7
100
AcDbEllipse
 10
43.96883334443453
 20
-3.318063519559018
 30
0.0
 11
-0.3214223610685126
 21
0.3830562535435122
 31
0.0
210
0.0
220
0.0
230
1.0
 40
0.160711
 41
3.141592653589792
 42
3.14434683352869
  0
ARC
  5
116
330
2
100
AcDbEntity
  8
GAIKEI
  6
Continuous
 62
     1
100
AcDbCircle
 10
44.29666433267875
 20
-3.592695654116823
 30
0.0
 40
0.5148736118819045
100
AcDbArc
 50
274.6649765704082
 51
0.3401424516866607
  0
ARC
  5
117
330
2
100
AcDbEntity
  8
GAIKEI
  6
Continuous
 62
     7
100
AcDbCircle
 10
44.49346305427252
 20
23.3915985527683
 30
0.0
 40
0.2500222128000095
100
AcDbArc
 50
7.999999999997649
 51
78.00000000000022
  0
ARC
  5
118
330
2
100
AcDbEntity
  8
GAIKEI
  6
Continuous
 62
     1
100
AcDbCircle
 10
43.13713755383071
 20
-4.174799057995812
 30
0.0
 40
0.2500222128000095
100
AcDbArc
 50
285.0000000000043
 51
314.9999999999954
  0
ARC
  5
119
330
2
100
AcDbEntity
  8
GAIKEI
  6
Continuous
 62
     1
100
AcDbCircle
 10
43.62550894235954
 20
-4.393597246750289
 30
0.0
 40
0.2500222128000095
100
AcDbArc
 50
133.2988929999924
 51
134.9999999999954
  0
ARC
  5
11A
330
2
100
AcDbEntity
  8
GAIKEI
  6
Continuous
 62
     1
100
AcDbCircle
 10
43.04403878262809
 20
-4.717428867022078
 30
0.0
 40
0.2500222128000095
100
AcDbArc
 50
105.0000000000043
 51
116.7436839999979
  0
ARC
  5
11B
330
2
100
AcDbEntity
  8
GAIKEI
  6
Continuous
 62
     1
100
AcDbCircle
 10
43.94661897083608
 20
-1.925349059420796
 30
0.0
 40
0.345030653664013
100
AcDbArc
 50
298.5718781421404
 51
0.0
  0
ARC
  5
11C
330
2
100
AcDbEntity
  8
GAIKEI
  6
Continuous
 62
     1
100
AcDbCircle
 10
43.94661897083608
 20
-1.925349059420796
 30
0.0
 40
0.345030653664013
100
AcDbArc
 50
0.0
 51
61.42812185785672
  0
ARC
  5
11D
330
2
100
AcDbEntity
  8
GAIKEI
  6
Continuous
 62
     7
100
AcDbCircle
 10
43.76160253336411
 20
-3.785588129210054
 30
0.0
 40
0.3500310979200132
100
AcDbArc
 50
272.9999999999991
 51
0.0
  0
ARC
  5
11E
330
2
100
AcDbEntity
  8
GAIKEI
  6
Continuous
 62
     7
100
AcDbCircle
 10
44.61167805688416
 20
-1.249272344530197
 30
0.0
 40
0.500044425600019
100
AcDbArc
 50
130.5742470000082
 51
180.0
  0
LINE
  5
11F
330
2
100
AcDbEntity
  8
GAIKEI
  6
Continuous
 62
     1
100
AcDbLine
 10
44.81152887166797
 20
-3.589639070447844
 30
0.0
 11
44.81152887166797
 21
-0.428815959920712
 31
0.0
  0
LINE
  5
120
330
2
100
AcDbEntity
  8
GAIKEI
  6
Continuous
 62
     1
100
AcDbLine
 10
43.79781580468551
 20
-4.134201746892244
 30
0.0
 11
44.33853863008295
 21
-4.105863637753031
 31
0.0
  0
LINE
  5
121
330
2
100
AcDbEntity
  8
GAIKEI
  6
Continuous
 62
     1
100
AcDbLine
 10
44.34560996851553
 20
-1.525128352490014
 30
0.0
 11
44.34560996851553
 21
-1.316777241888473
 31
0.0
  0
LINE
  5
122
330
2
100
AcDbEntity
  8
GAIKEI
  6
Continuous
 62
     1
100
AcDbLine
 10
44.34560996851553
 20
-3.624837497592523
 30
0.0
 11
44.34560996851553
 21
-2.225190548329976
 31
0.0
  0
LINE
  5
123
330
2
100
AcDbEntity
  8
GAIKEI
  6
Continuous
 62
     1
100
AcDbLine
 10
44.34560996851553
 20
-1.316777241888473
 30
0.0
 11
44.90024814440483
 21
-0.8513805945115677
 31
0.0
  0
LINE
  5
124
330
2
100
AcDbEntity
  8
GAIKEI
  6
Continuous
 62
     7
100
AcDbLine
 10
44.29025570065937
 20
-0.8662161125480452
 30
0.0
 11
44.27866702108275
 21
-0.8769856193466694
 31
0.0
  0
LINE
  5
125
330
2
100
AcDbEntity
  8
GAIKEI
  6
Continuous
 62
     7
100
AcDbLine
 10
45.08652887166789
 20
20.96819959915081
 30
0.0
 11
44.7410520680844
 21
23.42639491943248
 31
0.0
  0
LINE
  5
126
330
2
100
AcDbEntity
  8
GAIKEI
  6
Continuous
 62
     1
100
AcDbLine
 10
43.31392991064825
 20
-4.351591464817715
 30
0.0
 11
43.44871653553764
 21
-4.216804839928386
 31
0.0
  0
LINE
  5
127
330
2
100
AcDbEntity
  8
GAIKEI
  6
Continuous
 62
     1
100
AcDbLine
 10
42.97932828353345
 20
-4.475925961105474
 30
0.0
 11
43.20184805292536
 21
-4.41630196391236
 31
0.0
  0
LINE
  5
128
330
2
100
AcDbEntity
  8
GAIKEI
  6
Continuous
 62
     7
100
AcDbLine
 10
44.54544559527767
 20
23.63615718034873
 30
0.0
 11
42.93152878686811
 21
23.97920576027707
 31
0.0
  0
LINE
  5
129
330
2
100
AcDbEntity
  8
GAIKEI
  6
Continuous
 62
     7
100
AcDbLine
 10
44.68625503254918
 20
-0.5339331914347554
 30
0.0
 11
45.08652887166795
 21
-0.1980635628545997
 31
0.0
  0
LINE
  5
12A
330
2
100
AcDbEntity
  8
GAIKEI
  6
Continuous
 62
     1
100
AcDbLine
 10
44.77906727829605
 20
2.883452295871052
 30
0.0
 11
44.81419604925219
 21
2.883452295871052
 31
0.0
  0
LINE
  5
12B
330
2
100
AcDbEntity
  8
GAIKEI
  6
Continuous
 62
     1
100
AcDbLine
 10
44.81419604925219
 20
3.533510049151061
 30
0.0
 11
44.77906727829605
 21
3.533510049151061
 31
0.0
  0
LINE
  5
12C
330
2
100
AcDbEntity
  8
GAIKEI
  6
Continuous
 62
     1
100
AcDbLine
 10
44.81419604925219
 20
16.60777740566891
 30
0.0
 11
44.779067278296
 21
16.60777740566891
 31
0.0
  0
LINE
  5
12D
330
2
100
AcDbEntity
  8
GAIKEI
  6
Continuous
 62
     1
100
AcDbLine
 10
44.779067278296
 20
15.9577196523889
 30
0.0
 11
44.81419604925219
 21
15.9577196523889
 31
0.0
  0
LINE
  5
12E
330
2
100
AcDbEntity
  8
GAIKEI
  6
Continuous
 62
     7
100
AcDbLine
 10
44.11163363128418
 20
-3.785588129210054
 30
0.0
 11
44.11163363128418
 21
-3.515572540132438
 31
0.0
  0
LINE
  5
12F
330
2
100
AcDbEntity
  8
GAIKEI
  6
Continuous
 62
     1
100
AcDbLine
 10
44.58346079996971
 20
2.883452295871052
 30
0.0
 11
44.77906727829605
 21
2.883452295871052
 31
0.0
  0
LINE
  5
130
330
2
100
AcDbEntity
  8
GAIKEI
  6
Continuous
 62
     1
100
AcDbLine
 10
44.77906727829605
 20
3.533510049151061
 30
0.0
 11
44.58346079996971
 21
3.533510049151061
 31
0.0
  0
LINE
  5
131
330
2
100
AcDbEntity
  8
GAIKEI
  6
Continuous
 62
     1
100
AcDbLine
 10
44.779067278296
 20
16.60777740566891
 30
0.0
 11
44.58346079996971
 21
16.60777740566891
 31
0.0
  0
LINE
  5
132
330
2
100
AcDbEntity
  8
GAIKEI
  6
Continuous
 62
     1
100
AcDbLine
 10
44.58346079996971
 20
15.9577196523889
 30
0.0
 11
44.779067278296
 21
15.9577196523889
 31
0.0
  0
LINE
  5
133
330
2
100
AcDbEntity
  8
GAIKEI
  6
Continuous
 62
     1
100
AcDbLine
 10
44.74105205089762
 20
3.533510049151061
 30
0.0
 11
44.74105205089756
 21
15.9577196523889
 31
0.0
  0
LINE
  5
134
330
2
100
AcDbEntity
  8
GAIKEI
  6
Continuous
 62
     1
100
AcDbLine
 10
44.74105205089756
 20
16.60777740566891
 30
0.0
 11
44.74105205089756
 21
18.24429790607803
 31
0.0
  0
LINE
  5
135
330
2
100
AcDbEntity
  8
GAIKEI
  6
Continuous
 62
     1
100
AcDbLine
 10
44.74105205089756
 20
-0.4879530338494647
 30
0.0
 11
44.74105205089762
 21
2.883452295871052
 31
0.0
  0
LINE
  5
136
330
2
100
AcDbEntity
  8
GAIKEI
  6
Continuous
 62
     7
100
AcDbLine
 10
44.29025570065937
 20
-0.8662161125480452
 30
0.0
 11
44.68625503254918
 21
-0.5339331914347554
 31
0.0
  0
LINE
  5
137
330
2
100
AcDbEntity
  8
GAIKEI
  6
Continuous
 62
     7
100
AcDbLine
 10
44.11163363128418
 20
-3.515572540132438
 30
0.0
 11
44.11163363128418
 21
-1.249272344530197
 31
0.0
  0
LINE
  5
138
330
2
100
AcDbEntity
  8
GAIKEI
  6
Continuous
 62
     7
100
AcDbLine
 10
44.28642961073683
 20
-0.8693516911232563
 30
0.0
 11
44.29014219057466
 21
-0.8661153035918687
 31
0.0
  0
LINE
  5
139
330
2
100
AcDbEntity
  8
GAIKEI
  6
Continuous
 62
     7
100
AcDbLine
 10
42.93152878686811
 20
-4.179601910496899
 30
0.0
 11
43.78008098418473
 21
-4.135131139963164
 31
0.0
  0
LINE
  5
13A
330
2
100
AcDbEntity
  8
GAIKEI
  6
Continuous
 62
     1
100
AcDbLine
 10
44.54544557257128
 20
2.883452295871052
 30
0.0
 11
44.54544557257122
 21
-0.0865617454763879
 31
0.0
  0
LINE
  5
13B
330
2
100
AcDbEntity
  8
GAIKEI
  6
Continuous
 62
     1
100
AcDbLine
 10
44.54544557257128
 20
2.883452295871052
 30
0.0
 11
44.58346079996971
 21
2.883452295871052
 31
0.0
  0
LINE
  5
13C
330
2
100
AcDbEntity
  8
GAIKEI
  6
Continuous
 62
     1
100
AcDbLine
 10
44.58346079996971
 20
3.533510049151061
 30
0.0
 11
44.58346079996971
 21
2.883452295871052
 31
0.0
  0
LINE
  5
13D
330
2
100
AcDbEntity
  8
GAIKEI
  6
Continuous
 62
     1
100
AcDbLine
 10
44.58346079996971
 20
3.533510049151061
 30
0.0
 11
44.54544557257128
 21
3.533510049151061
 31
0.0
  0
LINE
  5
13E
330
2
100
AcDbEntity
  8
GAIKEI
  6
Continuous
 62
     1
100
AcDbLine
 10
44.54544557257122
 20
15.9577196523889
 30
0.0
 11
44.54544557257128
 21
3.533510049151061
 31
0.0
  0
LINE
  5
13F
330
2
100
AcDbEntity
  8
GAIKEI
  6
Continuous
 62
     1
100
AcDbLine
 10
44.54544557257122
 20
15.9577196523889
 30
0.0
 11
44.58346079996971
 21
15.9577196523889
 31
0.0
  0
LINE
  5
140
330
2
100
AcDbEntity
  8
GAIKEI
  6
Continuous
 62
     1
100
AcDbLine
 10
44.58346079996971
 20
16.60777740566891
 30
0.0
 11
44.58346079996971
 21
15.9577196523889
 31
0.0
  0
LINE
  5
141
330
2
100
AcDbEntity
  8
GAIKEI
  6
Continuous
 62
     1
100
AcDbLine
 10
44.58346079996971
 20
16.60777740566891
 30
0.0
 11
44.54544557257122
 21
16.60777740566891
 31
0.0
  0
LINE
  5
142
330
2
100
AcDbEntity
  8
GAIKEI
  6
Continuous
 62
     1
100
AcDbLine
 10
44.54544557257122
 20
17.84297746103215
 30
0.0
 11
44.54544557257122
 21
16.60777740566891
 31
0.0
  0
LINE
  5
143
330
2
100
AcDbEntity
  8
GAIKEI
  6
Continuous
 62
     1
100
AcDbLine
 10
42.93152878686811
 20
17.09282049850094
 30
0.0
 11
43.06706292816932
 21
17.09282049850094
 31
0.0
  0
LINE
  5
144
330
2
100
AcDbEntity
  8
GAIKEI
  6
Continuous
 62
     1
100
AcDbLine
 10
43.06706292816932
 20
15.79270499194081
 30
0.0
 11
42.93152878686811
 21
15.79270499194081
 31
0.0
  0
LINE
  5
145
330
2
100
AcDbEntity
  8
GAIKEI
  6
Continuous
 62
     1
100
AcDbLine
 10
43.06706292816932
 20
15.79270499194081
 30
0.0
 11
43.06706292816932
 21
17.09282049850094
 31
0.0
  0
LINE
  5
146
330
2
100
AcDbEntity
  8
GAIKEI
  6
Continuous
 62
     1
100
AcDbLine
 10
43.06706292816932
 20
2.693435414143038
 30
0.0
 11
42.93152878686817
 21
2.693435414143038
 31
0.0
  0
LINE
  5
147
330
2
100
AcDbEntity
  8
GAIKEI
  6
Continuous
 62
     1
100
AcDbLine
 10
42.93152878686817
 20
3.993550920703114
 30
0.0
 11
43.06706292816932
 21
3.993550920703114
 31
0.0
  0
LINE
  5
148
330
2
100
AcDbEntity
  8
GAIKEI
  6
Continuous
 62
     1
100
AcDbLine
 10
43.06706292816932
 20
2.693435414143038
 30
0.0
 11
43.06706292816932
 21
3.993550920703114
 31
0.0
  0
ELLIPSE
  5
149
330
2
100
AcDbEntity
  8
GAIKEI
  6
Continuous
 62
     1
100
AcDbEllipse
 10
43.05631172299672
 20
18.20842721268985
 30
0.0
 11
-0.0353472850665863
 21
0.0353472850665863
 31
0.0
210
0.0
220
0.0
230
1.0
 40
0.9990757796394584
 41
0.785860431794156
 42
0.8903589325753582
  0
LINE
  5
14A
330
2
100
AcDbEntity
  8
GAIKEI
  6
Continuous
 62
     1
100
AcDbLine
 10
43.00539339924443
 20
18.20647188897243
 30
0.0
 11
43.00631488111195
 21
18.20842721268985
 31
0.0
  0
LINE
  5
14B
330
2
100
AcDbEntity
  8
GAIKEI
  6
Continuous
 62
     1
100
AcDbLine
 10
42.99489191625798
 20
18.2648705273005
 30
0.0
 11
42.99647060651404
 21
18.25042349377827
 31
0.0
  0
LINE
  5
14C
330
2
100
AcDbEntity
  8
GAIKEI
  6
Continuous
 62
     1
100
AcDbLine
 10
44.57625866010778
 20
21.0099749614543
 30
0.0
 11
44.5743961946402
 21
21.03718847919322
 31
0.0
  0
LINE
  5
14D
330
2
100
AcDbEntity
  8
GAIKEI
  6
Continuous
 62
     1
100
AcDbLine
 10
44.44797926334206
 20
23.64548355875161
 30
0.0
 11
44.44813737738951
 21
23.64622147431049
 31
0.0
  0
LINE
  5
14E
330
2
100
AcDbEntity
  8
GAIKEI
  6
Continuous
 62
     1
100
AcDbLine
 10
44.4479037066294
 20
23.64513102743154
 30
0.0
 11
44.44797926334206
 21
23.64548355875161
 31
0.0
  0
LINE
  5
14F
330
2
100
AcDbEntity
  8
GAIKEI
  6
Continuous
 62
     1
100
AcDbLine
 10
44.5743961946402
 20
20.41409802177685
 30
0.0
 11
44.57625866010778
 21
20.44131153951576
 31
0.0
  0
LINE
  5
150
330
2
100
AcDbEntity
  8
GAIKEI
  6
Continuous
 62
     1
100
AcDbLine
 10
44.44797926334206
 20
17.80580294221846
 30
0.0
 11
44.44813737738951
 21
17.80506502665957
 31
0.0
  0
LINE
  5
151
330
2
100
AcDbEntity
  8
GAIKEI
  6
Continuous
 62
     1
100
AcDbLine
 10
44.4479037066294
 20
17.80615547353852
 30
0.0
 11
44.44797926334206
 21
17.80580294221846
 31
0.0
  0
LINE
  5
152
330
2
100
AcDbEntity
  8
GAIKEI
  6
Continuous
 62
     1
100
AcDbLine
 10
44.72033956073135
 20
18.09922756103174
 30
0.0
 11
44.72108717715207
 21
18.09912475189776
 31
0.0
  0
LINE
  5
153
330
2
100
AcDbEntity
  8
GAIKEI
  6
Continuous
 62
     1
100
AcDbLine
 10
44.71998242900258
 20
18.09927666539431
 30
0.0
 11
44.72033956073135
 21
18.09922756103174
 31
0.0
  0
LINE
  5
154
330
2
100
AcDbEntity
  8
GAIKEI
  6
Continuous
 62
     1
100
AcDbLine
 10
42.93266818809627
 20
23.86868563876237
 30
0.0
 11
42.93152878686811
 21
23.86868563876237
 31
0.0
  0
LINE
  5
155
330
2
100
AcDbEntity
  8
GAIKEI
  6
Continuous
 62
     1
100
AcDbLine
 10
42.93152878686811
 20
17.58260086220775
 30
0.0
 11
42.93266818809627
 21
17.58260086220775
 31
0.0
  0
LINE
  5
156
330
2
100
AcDbEntity
  8
GAIKEI
  6
Continuous
 62
     1
100
AcDbLine
 10
42.93266818809627
 20
17.58260086220775
 30
0.0
 11
44.42718261569917
 21
17.90285396455215
 31
0.0
  0
LINE
  5
157
330
2
100
AcDbEntity
  8
GAIKEI
  6
Continuous
 62
     1
100
AcDbLine
 10
42.93152878686811
 20
17.48007748954495
 30
0.0
 11
44.44813737738951
 21
17.80506502665957
 31
0.0
  0
LINE
  5
158
330
2
100
AcDbEntity
  8
GAIKEI
  6
Continuous
 62
     1
100
AcDbLine
 10
44.57625866010778
 20
20.44131153951576
 30
0.0
 11
44.57625866010778
 21
21.0099749614543
 31
0.0
  0
LINE
  5
159
330
2
100
AcDbEntity
  8
GAIKEI
  6
Continuous
 62
     1
100
AcDbLine
 10
44.29633204050145
 20
23.05911181354708
 30
0.0
 11
44.28952903610002
 21
23.10857960842952
 31
0.0
  0
LINE
  5
15A
330
2
100
AcDbEntity
  8
GAIKEI
  6
Continuous
 62
     1
100
AcDbLine
 10
44.45662503146076
 20
21.91477239664982
 30
0.0
 11
44.31292181439175
 21
22.95969978145354
 31
0.0
  0
LINE
  5
15B
330
2
100
AcDbEntity
  8
GAIKEI
  6
Continuous
 62
     1
100
AcDbLine
 10
44.5743961946402
 20
21.03718847919322
 30
0.0
 11
44.46752344971224
 21
21.81430597088047
 31
0.0
  0
LINE
  5
15C
330
2
100
AcDbEntity
  8
GAIKEI
  6
Continuous
 62
     1
100
AcDbLine
 10
44.42718261569917
 20
23.54843253641792
 30
0.0
 11
42.93266818809627
 21
23.86868563876237
 31
0.0
  0
LINE
  5
15D
330
2
100
AcDbEntity
  8
GAIKEI
  6
Continuous
 62
     1
100
AcDbLine
 10
44.28952903610002
 20
18.34270689254049
 30
0.0
 11
44.29633204050145
 21
18.39217468742299
 31
0.0
  0
LINE
  5
15E
330
2
100
AcDbEntity
  8
GAIKEI
  6
Continuous
 62
     1
100
AcDbLine
 10
44.48230861327511
 20
19.74449008159365
 30
0.0
 11
44.5743961946402
 21
20.41409802177685
 31
0.0
  0
LINE
  5
15F
330
2
100
AcDbEntity
  8
GAIKEI
  6
Continuous
 62
     1
100
AcDbLine
 10
44.31292181439175
 20
18.49158671951659
 30
0.0
 11
44.47141019502351
 21
19.64402365582418
 31
0.0
  0
LINE
  5
160
330
2
100
AcDbEntity
  8
GAIKEI
  6
Continuous
 62
     1
100
AcDbLine
 10
44.93697010690539
 20
20.49854527435002
 30
0.0
 11
44.93697010690539
 21
20.95274122662005
 31
0.0
  0
LINE
  5
161
330
2
100
AcDbEntity
  8
GAIKEI
  6
Continuous
 62
     1
100
AcDbLine
 10
44.92394649984499
 20
21.14303263273769
 30
0.0
 11
44.62201082488138
 21
23.33853633854574
 31
0.0
  0
LINE
  5
162
330
2
100
AcDbEntity
  8
GAIKEI
  6
Continuous
 62
     1
100
AcDbLine
 10
44.62201082488138
 20
18.11275016242439
 30
0.0
 11
44.92394649984499
 21
20.30825386823233
 31
0.0
  0
LINE
  5
163
330
2
100
AcDbEntity
  8
GAIKEI
  6
Continuous
 62
     1
100
AcDbLine
 10
44.72108717715207
 20
18.09912475189776
 30
0.0
 11
45.1012501230042
 21
20.86345247345548
 31
0.0
  0
LINE
  5
164
330
2
100
AcDbEntity
  8
GAIKEI
  6
Continuous
 62
     1
100
AcDbLine
 10
42.99489191625798
 20
23.18641597366957
 30
0.0
 11
42.93152878686811
 21
23.18641597366957
 31
0.0
  0
LINE
  5
165
330
2
100
AcDbEntity
  8
GAIKEI
  6
Continuous
 62
     1
100
AcDbLine
 10
42.93152878686811
 20
18.2648705273005
 30
0.0
 11
42.99489191625798
 21
18.2648705273005
 31
0.0
  0
LINE
  5
166
330
2
100
AcDbEntity
  8
GAIKEI
  6
Continuous
 62
     1
100
AcDbLine
 10
42.99489191625798
 20
23.18641597366957
 30
0.0
 11
42.99489191625798
 21
18.2648705273005
 31
0.0
  0
LINE
  5
167
330
2
100
AcDbEntity
  8
GAIKEI
  6
Continuous
 62
     1
100
AcDbLine
 10
44.0986188250057
 20
23.28098807576783
 30
0.0
 11
43.10281740471521
 21
23.31576221521732
 31
0.0
  0
LINE
  5
168
330
2
100
AcDbEntity
  8
GAIKEI
  6
Continuous
 62
     1
100
AcDbLine
 10
43.10281740471521
 20
18.13552428575275
 30
0.0
 11
44.0986188250057
 21
18.1702984252023
 31
0.0
  0
SPLINE
  5
169
330
2
100
AcDbEntity
  8
GAIKEI
  6
Continuous
 62
     1
100
AcDbSpline
210
0.0
220
0.0
230
1.0
 70
     8
 71
     3
 72
    19
 73
    15
 74
    13
 42
0.0000000001
 43
0.0000000001
 44
0.000001
 12
0.0213842593146391
 22
0.9997713305819308
 32
0.0
 13
-0.1213258174957188
 23
0.9926127371785009
 33
0.0
 40
0.0
 40
0.0
 40
0.0
 40
0.0
 40
0.0170227267862881
 40
0.033665318615127
 40
0.0496533389315407
 40
0.064999200049314
 40
0.0795095599456262
 40
0.0998742087045729
 40
0.11775602075241
 40
0.1324530564066402
 40
0.144067444804667
 40
0.1496619817088156
 40
0.153718229090371
 40
0.1561012044465203
 40
0.1561012044465203
 40
0.1561012044465203
 40
0.1561012044465203
 10
40.83522194513875
 20
24.86746064268118
 30
0.0
 10
40.83534328460671
 20
24.87313358741761
 30
0.0
 10
40.83547786821499
 20
24.8843557424637
 30
0.0
 10
40.83528646751746
 20
24.90090656705326
 30
0.0
 10
40.83495286785015
 20
24.91689525174405
 30
0.0
 10
40.83456495759548
 20
24.93217175594873
 30
0.0
 10
40.83416156051367
 20
24.94890724787519
 30
0.0
 10
40.83391318052557
 20
24.9664915512451
 30
0.0
 10
40.83395743175796
 20
24.98414100848413
 30
0.0
 10
40.83435393201725
 20
24.99886734232422
 30
0.0
 10
40.83488440755437
 20
25.00949244212859
 30
0.0
 10
40.83524744032089
 20
25.01656681330849
 30
0.0
 10
40.83550999614537
 20
25.02057881426941
 30
0.0
 10
40.83531831728314
 20
25.02272191423015
 30
0.0
 10
40.83522194513875
 20
25.02351037146042
 30
0.0
 11
40.83522194513875
 21
24.86746064268118
 31
0.0
 11
40.83541079869405
 21
24.88448228255658
 31
0.0
 11
40.8352566426388
 21
24.90112415861478
 31
0.0
 11
40.83493510048663
 21
24.91710894315787
 31
0.0
 11
40.83456027256182
 21
24.93245022464691
 31
0.0
 11
40.83422765604791
 21
24.94695677127942
 31
0.0
 11
40.83396060549546
 21
24.96731966919276
 31
0.0
 11
40.83403894993785
 21
24.98520131036679
 31
0.0
 11
40.83444342735663
 21
24.99989277851558
 31
0.0
 11
40.8349869876813
 21
25.01149443493245
 31
0.0
 11
40.83528809667529
 21
25.01708084995215
 31
0.0
 11
40.83541370069269
 21
25.02113510004398
 31
0.0
 11
40.83522194513875
 21
25.02351037146042
 31
0.0
  0
SPLINE
  5
16A
330
2
100
AcDbEntity
  8
GAIKEI
  6
Continuous
 62
     1
100
AcDbSpline
210
0.0
220
0.0
230
1.0
 70
     8
 71
     3
 72
    25
 73
    21
 74
    19
 42
0.0000000001
 43
0.0000000001
 44
0.000001
 12
0.5909511587252206
 22
-0.8067073372675617
 32
0.0
 13
-0.0272811889574892
 23
-0.999627799097777
 33
0.0
 40
0.0
 40
0.0
 40
0.0
 40
0.0
 40
0.0007432967824375
 40
0.0027267298551833
 40
0.006136021856612
 40
0.0109132863929153
 40
0.0168508832888977
 40
0.0240117930147976
 40
0.0326017377538593
 40
0.0423706598912017
 40
0.0530746293406247
 40
0.0647804937318431
 40
0.0777879482733225
 40
0.0916776871623378
 40
0.1059782794806192
 40
0.120924974924902
 40
0.1368751325740136
 40
0.153284651356025
 40
0.1762473269125055
 40
0.199863402345466
 40
0.199863402345466
 40
0.199863402345466
 40
0.199863402345466
 10
40.8968316190319
 20
25.06226536071671
 30
0.0
 10
40.89697803639686
 20
25.06206548639398
 30
0.0
 10
40.89746603377466
 20
25.06127328944547
 30
0.0
 10
40.8973416816452
 20
25.05913694718334
 30
0.0
 10
40.89751912695215
 20
25.05580024918544
 30
0.0
 10
40.89740419305949
 20
25.05106875248612
 30
0.0
 10
40.89733136607015
 20
25.04511987598221
 30
0.0
 10
40.89720428188416
 20
25.03788818572969
 30
0.0
 10
40.89709578648262
 20
25.02938340161524
 30
0.0
 10
40.89700843819976
 20
25.01969578041224
 30
0.0
 10
40.89696547730173
 20
25.00896968838424
 30
0.0
 10
40.89696734476446
 20
24.99716385958436
 30
0.0
 10
40.89701984133696
 20
24.98429626650568
 30
0.0
 10
40.89711123814135
 20
24.97056396431134
 30
0.0
 10
40.89722856434988
 20
24.95618543311622
 30
0.0
 10
40.8973472920029
 20
24.94112008854364
 30
0.0
 10
40.89744299458945
 20
24.92535155401339
 30
0.0
 10
40.89747719186222
 20
24.90691077299556
 30
0.0
 10
40.89736827941431
 20
24.88591444199256
 30
0.0
 10
40.89704637723734
 20
24.87039080304879
 30
0.0
 10
40.8968316190319
 20
24.86252170787935
 30
0.0
 11
40.8968316190319
 21
25.06226536071671
 31
0.0
 11
40.89720288850776
 21
25.06162135338212
 31
0.0
 11
40.89739716272117
 21
25.05964764869162
 31
0.0
 11
40.89745799197453
 21
25.05623893371563
 31
0.0
 11
40.89742134381094
 21
25.05146182526943
 31
0.0
 11
40.89733059536809
 21
25.04552493015854
 31
0.0
 11
40.89721694017896
 21
25.03836492742625
 31
0.0
 11
40.89710485478008
 21
25.02977571722693
 31
0.0
 11
40.89701808267102
 21
25.02000718261138
 31
0.0
 11
40.89697295754809
 21
25.00930330971369
 31
0.0
 11
40.89697357092961
 21
24.99759744637322
 31
0.0
 11
40.89702308898711
 21
24.98459008687053
 31
0.0
 11
40.89711280427695
 21
24.97070063834144
 31
0.0
 11
40.89722520320015
 21
24.95640048821389
 31
0.0
 11
40.89733933618458
 21
24.94145422890893
 31
0.0
 11
40.89743006634125
 21
24.92550432952908
 31
0.0
 11
40.89745613412674
 21
24.9090948313389
 31
0.0
 11
40.89730979631759
 21
24.88613261976678
 31
0.0
 11
40.8968316190319
 21
24.86252170787935
 31
0.0
  0
SPLINE
  5
16B
330
2
100
AcDbEntity
  8
GAIKEI
  6
Continuous
 62
     1
100
AcDbSpline
210
0.0
220
0.0
230
1.0
 70
     8
 71
     3
 72
    25
 73
    21
 74
    19
 42
0.0000000001
 43
0.0000000001
 44
0.000001
 12
0.0281905901065335
 22
-0.9996025663379647
 32
0.0
 13
-0.4008655609207862
 23
-0.9161368904632448
 33
0.0
 40
0.0
 40
0.0
 40
0.0
 40
0.0
 40
0.0162962299869904
 40
0.0324852217692273
 40
0.0489094868862328
 40
0.0649892448307301
 40
0.0802035379895734
 40
0.0948820072443004
 40
0.1093099214539979
 40
0.1229669967138563
 40
0.135561796326256
 40
0.1472311895942732
 40
0.158183329487574
 40
0.1679926915507271
 40
0.1763846741143813
 40
0.1835629613920773
 40
0.1896245610412642
 40
0.1943008486346233
 40
0.1983877092312225
 40
0.1998377220781223
 40
0.1998377220781223
 40
0.1998377220781223
 40
0.1998377220781223
 10
40.8968316190319
 20
-5.039636666462968
 30
0.0
 10
40.89698475247852
 20
-5.0450665842352
 30
0.0
 10
40.89723503901327
 20
-5.055892381548119
 30
0.0
 10
40.89742044559563
 20
-5.072194756978774
 30
0.0
 10
40.89747530548246
 20
-5.088425790579492
 30
0.0
 10
40.89743293017325
 20
-5.104331902791955
 30
0.0
 10
40.89733737360894
 20
-5.119655792407627
 30
0.0
 10
40.89721844563229
 20
-5.134428874071488
 30
0.0
 10
40.89710455143154
 20
-5.148682905705072
 30
0.0
 10
40.89701452380459
 20
-5.162242544166019
 30
0.0
 10
40.8969673791316
 20
-5.174882912689497
 30
0.0
 10
40.89696512735918
 20
-5.186621681866938
 30
0.0
 10
40.89701407291179
 20
-5.197432053484476
 30
0.0
 10
40.89709981117787
 20
-5.207149075128313
 30
0.0
 10
40.8972215197935
 20
-5.215609523348121
 30
0.0
 10
40.89731971926767
 20
-5.222815252765485
 30
0.0
 10
40.89747252413457
 20
-5.228797718742328
 30
0.0
 10
40.89736805844959
 20
-5.233708908774246
 30
0.0
 10
40.89767754201155
 20
-5.237187842707214
 30
0.0
 10
40.8970253724363
 20
-5.238937515880195
 30
0.0
 10
40.8968316190319
 20
-5.239380319300437
 30
0.0
 11
40.8968316190319
 21
-5.039636666462968
 31
0.0
 11
40.89720288850776
 21
-5.055928451429565
 31
0.0
 11
40.89739716272117
 21
-5.072116278968167
 31
0.0
 11
40.89745799197465
 21
-5.088540431264391
 31
0.0
 11
40.89742134381094
 21
-5.104620146952584
 31
0.0
 11
40.8973305953682
 21
-5.119834168900013
 31
0.0
 11
40.89721694017907
 21
-5.134512197556716
 31
0.0
 11
40.89710485478019
 21
-5.148939675759208
 31
0.0
 11
40.89701808267102
 21
-5.162596474685926
 31
0.0
 11
40.89697295754809
 21
-5.17519119267331
 31
0.0
 11
40.89697357092961
 21
-5.186860584936425
 31
0.0
 11
40.89702308898711
 21
-5.197812611476877
 31
0.0
 11
40.89711280427695
 21
-5.207621561221515
 31
0.0
 11
40.89722520320015
 21
-5.216012787960778
 31
0.0
 11
40.89733933618458
 21
-5.223190162925391
 31
0.0
 11
40.89743006634125
 21
-5.229251074746798
 31
0.0
 11
40.89745613412674
 21
-5.233927272421681
 31
0.0
 11
40.89730979631759
 21
-5.238011366669752
 31
0.0
 11
40.8968316190319
 21
-5.239380319300437
 31
0.0
  0
SPLINE
  5
16C
330
2
100
AcDbEntity
  8
GAIKEI
  6
Continuous
 62
     1
100
AcDbSpline
210
0.0
220
0.0
230
1.0
 70
     8
 71
     3
 72
    30
 73
    26
 74
     0
 42
0.0000000001
 43
0.0000000001
 40
0.256854181831742
 40
0.256854181831742
 40
0.256854181831742
 40
0.256854181831742
 40
0.3030489831524179
 40
0.3240910055785475
 40
0.345906034337955
 40
0.3684937187094058
 40
0.3918536980679295
 40
0.4159856031357031
 40
0.4408890570347025
 40
0.466563676236536
 40
0.4927882784883748
 40
0.5217307213297099
 40
0.5534044539066166
 40
0.5878238395940912
 40
0.6250042657959281
 40
0.6715302177737608
 40
0.7217836999859159
 40
0.7669496736025986
 40
0.8014271103592763
 40
0.8251396620111714
 40
0.8457402503410477
 40
0.8893619991088861
 40
1.01487324770404
 40
1.134357471453109
 40
1.248407897277932
 40
1.248407897277932
 40
1.248407897277932
 40
1.248407897277932
 10
45.08652887166795
 20
-0.1980635628545997
 30
0.0
 10
45.08396464298885
 20
-0.205323223298592
 30
0.0
 10
45.08028251674562
 20
-0.2159073755145187
 30
0.0
 10
45.07547852735052
 20
-0.2299503755481282
 30
0.0
 10
45.07198094705171
 20
-0.240281882279362
 30
0.0
 10
45.06839160240957
 20
-0.2509901243341233
 30
0.0
 10
45.06471149151866
 20
-0.4578279021941967
 30
0.0
 10
45.06094147729055
 20
-0.469289710191049
 30
0.0
 10
45.05708240090967
 20
-0.4811282822357157
 30
0.0
 10
45.05314668862888
 20
-0.4933086752400869
 30
0.0
 10
45.04903502425015
 20
-0.50613959669505
 30
0.0
 10
45.04462483958053
 20
-0.5199247833876939
 30
0.0
 10
45.03978484595228
 20
-0.5350064522912135
 30
0.0
 10
45.03449214443418
 20
-0.5513847927018105
 30
0.0
 10
45.02838053021065
 20
-0.5700997870521292
 30
0.0
 10
45.02136962968563
 20
-0.5912973360882461
 30
0.0
 10
45.01370414819876
 20
-0.6136791084534821
 30
0.0
 10
45.00649284043032
 20
-0.6340926286723061
 30
0.0
 10
45.00061112531807
 20
-0.650283497877922
 30
0.0
 10
44.99605533553221
 20
-0.662599834210198
 30
0.0
 10
44.99081345875225
 20
-0.6762865223403765
 30
0.0
 10
44.97904918263424
 20
-0.705640357179334
 30
0.0
 10
44.95945011026452
 20
-0.7496046556813099
 30
0.0
 10
44.93157970249535
 20
-0.8026136656441735
 30
0.0
 10
44.91089071074719
 20
-0.8356308092821791
 30
0.0
 10
44.90024813752222
 20
-0.8513805733864501
 30
0.0
  0
SPLINE
  5
16D
330
2
100
AcDbEntity
  8
GAIKEI
  6
Continuous
 62
     1
100
AcDbSpline
210
0.0
220
0.0
230
1.0
 70
     8
 71
     3
 72
    28
 73
    24
 74
    22
 42
0.0000000001
 43
0.0000000001
 44
0.000001
 12
0.7217480328339719
 22
0.6921558907502644
 32
0.0
 13
0.9952109123015889
 23
0.097750908107491
 33
0.0
 40
0.0
 40
0.0
 40
0.0
 40
0.0
 40
0.0128362938088476
 40
0.0236419483122585
 40
0.0322393231767327
 40
0.0406586550764814
 40
0.0494682927972984
 40
0.0650086881395701
 40
0.0812452085396958
 40
0.0969842100843637
 40
0.1084332339619348
 40
0.1194845735025502
 40
0.1244284719691691
 40
0.1287900634212224
 40
0.1325757451840354
 40
0.1357853974312538
 40
0.1371717324530494
 40
0.1396412914417295
 40
0.142547345505268
 40
0.1481162818960573
 40
0.1537856556269125
 40
0.1600382057310444
 40
0.1666011957495944
 40
0.1666011957495944
 40
0.1666011957495944
 40
0.1666011957495944
 10
43.45272857687018
 20
-4.212881854776298
 30
0.0
 10
43.45581676680533
 20
-4.209920282651239
 30
0.0
 10
43.46164283614041
 20
-4.204608486546362
 30
0.0
 10
43.46988481503347
 20
-4.197707154614818
 30
0.0
 10
43.47725742150797
 20
-4.19207709071793
 30
0.0
 10
43.48427878401745
 20
-4.187093194742033
 30
0.0
 10
43.49339939743159
 20
-4.181078897542079
 30
0.0
 10
43.505052284474
 20
-4.174186879789147
 30
0.0
 10
43.51918007937725
 20
-4.167004332901342
 30
0.0
 10
43.5324575627516
 20
-4.161218154048185
 30
0.0
 10
43.54438568790399
 20
-4.156716597020931
 30
0.0
 10
43.55306179114073
 20
-4.153806468683342
 30
0.0
 10
43.55956995634414
 20
-4.15188352817961
 30
0.0
 10
43.56378602617478
 20
-4.150756135684332
 30
0.0
 10
43.5674660894274
 20
-4.149866860640486
 30
0.0
 10
43.57019649537403
 20
-4.149273469323702
 30
0.0
 10
43.57250623393923
 20
-4.14881276030286
 30
0.0
 10
43.57472412429615
 20
-4.148410447967648
 30
0.0
 10
43.5783185703694
 20
-4.147786565794319
 30
0.0
 10
43.58297418896781
 20
-4.147040429018147
 30
0.0
 10
43.5887447360126
 20
-4.146206453114245
 30
0.0
 10
43.59485702612764
 20
-4.145425674486148
 30
0.0
 10
43.5991043532114
 20
-4.14496549379703
 30
0.0
 10
43.60128153963933
 20
-4.144751647718976
 30
0.0
 11
43.45272857687018
 21
-4.212881854776298
 31
0.0
 11
43.46220701222068
 21
-4.204225333144108
 31
0.0
 11
43.47050505746529
 21
-4.197304029022632
 31
0.0
 11
43.47733402865606
 21
-4.19208091693514
 31
0.0
 11
43.48419884220584
 21
-4.187206452275574
 31
0.0
 11
43.49155368216907
 21
-4.182357029282854
 31
0.0
 11
43.50492977611486
 21
-4.174445865223958
 31
0.0
 11
43.51939730982031
 21
-4.167075845471742
 31
0.0
 11
43.53382531069087
 21
-4.16078701197938
 31
0.0
 11
43.54453401052421
 21
-4.156736863555465
 31
0.0
 11
43.55501960328922
 21
-4.153246262429775
 31
0.0
 11
43.5597620814035
 21
-4.151849460075993
 31
0.0
 11
43.56397592079633
 21
-4.150723811379123
 31
0.0
 11
43.56765607043394
 21
-4.149836154646152
 31
0.0
 11
43.57079282245854
 21
-4.149155937444731
 31
0.0
 11
43.57215247838701
 21
-4.148885256114454
 31
0.0
 11
43.57458125236553
 21
-4.148438263730781
 31
0.0
 11
43.57744455833028
 21
-4.14794161487805
 31
0.0
 11
43.58294307499636
 21
-4.147058735900998
 31
0.0
 11
43.58855418174414
 21
-4.146247944722802
 31
0.0
 11
43.59475652685262
 21
-4.145457111207917
 31
0.0
 11
43.60128153963933
 21
-4.144751647718976
 31
0.0
  0
SPLINE
  5
16E
330
2
100
AcDbEntity
  8
GAIKEI
  6
Continuous
 62
     1
100
AcDbSpline
210
0.0
220
0.0
230
1.0
 70
     8
 71
     3
 72
    29
 73
    25
 74
    23
 42
0.0000000001
 43
0.0000000001
 44
0.000001
 12
-0.7526510322232211
 22
0.6584196410294274
 32
0.0
 13
-0.2875771477137425
 23
0.9577574766676731
 33
0.0
 40
0.0
 40
0.0
 40
0.0
 40
0.0
 40
0.00092681362127
 40
0.0037856874542025
 40
0.0086274488929518
 40
0.0155313411764998
 40
0.0244082483448277
 40
0.0352300049078256
 40
0.0479521168105079
 40
0.0625647547588155
 40
0.079048642912854
 40
0.0971122281118509
 40
0.1168173563900608
 40
0.1381183995708498
 40
0.1654645069305171
 40
0.1945513235683351
 40
0.2253128177557579
 40
0.2575730434400235
 40
0.2910030843208259
 40
0.3250114719193914
 40
0.3599154155390327
 40
0.3956769625130772
 40
0.4321733121892477
 40
0.4691787508434098
 40
0.4691787508434098
 40
0.4691787508434098
 40
0.4691787508434098
 10
44.68625501287715
 20
-0.5339332097018428
 30
0.0
 10
44.68602249046758
 20
-0.533729798937884
 30
0.0
 10
44.6851104947756
 20
-0.5328342264365347
 30
0.0
 10
44.68420975887624
 20
-0.5300094728848422
 30
0.0
 10
44.68228812738604
 20
-0.525585553408348
 30
0.0
 10
44.68000543627129
 20
-0.5190751666781353
 30
0.0
 10
44.67705526970159
 20
-0.5107229670485367
 30
0.0
 10
44.67359173807156
 20
-0.5004821472381309
 30
0.0
 10
44.66957527459884
 20
-0.4884154143335309
 30
0.0
 10
44.66503194824929
 20
-0.474533296574009
 30
0.0
 10
44.65998983127838
 20
-0.4589417102373546
 30
0.0
 10
44.65447634543756
 20
-0.4417184095971152
 30
0.0
 10
44.64851839460735
 20
-0.4229515280160286
 30
0.0
 10
44.64166885422741
 20
-0.4012213762805459
 30
0.0
 10
44.63392768640452
 20
-0.3764934209843886
 30
0.0
 10
44.62529459814596
 20
-0.3487403392858823
 30
0.0
 10
44.61622137157769
 20
-0.3194087526337626
 30
0.0
 10
44.60676362500552
 20
-0.2886807216796114
 30
0.0
 10
44.59702801085957
 20
-0.2569058417980727
 30
0.0
 10
44.587072142879
 20
-0.2242767960611331
 30
0.0
 10
44.57692520985858
 20
-0.1908935292710794
 30
0.0
 10
44.56657181993716
 20
-0.156706251759374
 30
0.0
 10
44.55604854493316
 20
-0.1218385234652146
 30
0.0
 10
44.54899289786006
 20
-0.0983758454009376
 30
0.0
 10
44.54544559169403
 20
-0.0865617668848131
 30
0.0
 11
44.68625501287715
 21
-0.5339332097018428
 31
0.0
 11
44.68560759593162
 21
-0.5332699462069855
 31
0.0
 11
44.68438872873412
 21
-0.5306840916959459
 31
0.0
 11
44.68260195591006
 21
-0.5261841080486534
 31
0.0
 11
44.68022401115763
 21
-0.519702678182
 31
0.0
 11
44.67728803840748
 21
-0.5113253629652377
 31
0.0
 11
44.67380337453471
 21
-0.5010800018980604
 31
0.0
 11
44.66978444504036
 21
-0.4890093662245932
 31
0.0
 11
44.6652344820626
 21
-0.4751231519631461
 31
0.0
 11
44.66016006560653
 21
-0.4594397595258784
 31
0.0
 11
44.65465059098074
 21
-0.4422368893756925
 31
0.0
 11
44.64868638079667
 21
-0.4234560420504181
 31
0.0
 11
44.64228127585124
 21
-0.4031408008274866
 31
0.0
 11
44.63410949503258
 21
-0.3770442200303137
 31
0.0
 11
44.62546836014439
 21
-0.3492706059128636
 31
0.0
 11
44.61637657884819
 21
-0.3198833808845052
 31
0.0
 11
44.6068856021684
 21
-0.2890508739244524
 31
0.0
 11
44.59709145605029
 21
-0.2570877341791515
 31
0.0
 11
44.58716582540398
 21
-0.2245600189946799
 31
0.0
 11
44.57701476274064
 21
-0.1911647920641712
 31
0.0
 11
44.5666490144057
 21
-0.1569384939847396
 31
0.0
 11
44.5561041756755
 21
-0.1219986901377297
 31
0.0
 11
44.54544559169403
 21
-0.0865617668848131
 31
0.0
  0
SPLINE
  5
16F
330
2
100
AcDbEntity
  8
GAIKEI
  6
Continuous
 62
     1
100
AcDbSpline
210
0.0
220
0.0
230
1.0
 70
     8
 71
     3
 72
    11
 73
     7
 74
     5
 42
0.0000000001
 43
0.0000000001
 44
0.000001
 12
0.1117045080192779
 22
-0.9937414668253364
 32
0.0
 13
0.1717596663978053
 23
-0.9851388820866398
 33
0.0
 40
0.0
 40
0.0
 40
0.0
 40
0.0
 40
0.0002398629336179
 40
0.0139454933406509
 40
0.0259284375106716
 40
0.0335344213696632
 40
0.0335344213696632
 40
0.0335344213696632
 40
0.0335344213696632
 10
42.99647061431449
 20
18.25042348207586
 30
0.0
 10
42.99647954557149
 20
18.25034402816135
 30
0.0
 10
42.99699882223646
 20
18.2457246243066
 30
0.0
 10
42.99800202091669
 20
18.2371403481211
 30
0.0
 10
42.99943726791139
 20
18.22613377876007
 30
0.0
 10
43.00049513525574
 20
18.21968955756966
 30
0.0
 10
43.00093060233916
 20
18.21719190742431
 30
0.0
 11
42.99647061431449
 21
18.25042348207586
 31
0.0
 11
42.99649742971905
 21
18.25018512397724
 31
0.0
 11
42.99810192720451
 21
18.23657390598629
 31
0.0
 11
42.99970481778496
 21
18.22469857564868
 31
0.0
 11
43.00093060233916
 21
18.21719190742431
 31
0.0
  0
SPLINE
  5
170
330
2
100
AcDbEntity
  8
GAIKEI
  6
Continuous
 62
     1
100
AcDbSpline
210
0.0
220
0.0
230
1.0
 70
     8
 71
     3
 72
    15
 73
    11
 74
     9
 42
0.0000000001
 43
0.0000000001
 44
0.000001
 12
0.9994496190759601
 22
0.0331731657958403
 32
0.0
 13
0.134530790036436
 23
0.9909094138881577
 33
0.0
 40
0.0
 40
0.0
 40
0.0
 40
0.0
 40
0.0349733184911274
 40
0.0699030407195574
 40
0.1048022374589425
 40
0.1396858361956178
 40
0.1745694349323332
 40
0.2094686316716631
 40
0.2443983539000373
 40
0.2793716723910008
 40
0.2793716723910008
 40
0.2793716723910008
 40
0.2793716723910008
 10
44.09861881478252
 20
18.17029841367787
 30
0.0
 10
44.11027017139711
 20
18.17068513890876
 30
0.0
 10
44.1335459186446
 20
18.17346008520508
 30
0.0
 10
44.16713456657508
 20
18.18367499937767
 30
0.0
 10
44.19840635154623
 20
18.19958355961898
 30
0.0
 10
44.22639659448009
 20
18.22071130473904
 30
0.0
 10
44.250258435448
 20
18.24641048486171
 30
0.0
 10
44.26926144709375
 20
18.27590442275772
 30
0.0
 10
44.28283562562367
 20
18.30828162798906
 30
0.0
 10
44.28796068685147
 20
18.33115507294786
 30
0.0
 10
44.2895290162404
 20
18.34270686979039
 30
0.0
 11
44.09861881478252
 21
18.17029841367787
 31
0.0
 11
44.13334272991199
 21
18.17447187532616
 31
0.0
 11
44.16676317169321
 21
18.18462869933728
 31
0.0
 11
44.19786674204044
 21
18.20045665096285
 31
0.0
 11
44.22570930025495
 21
18.22147235487512
 31
0.0
 11
44.24944467704768
 21
18.2470359959961
 31
0.0
 11
44.2683504089714
 21
18.27637077810596
 31
0.0
 11
44.28184971060296
 21
18.30858654844132
 31
0.0
 11
44.2895290162404
 21
18.34270686979039
 31
0.0
  0
SPLINE
  5
171
330
2
100
AcDbEntity
  8
GAIKEI
  6
Continuous
 62
     1
100
AcDbSpline
210
0.0
220
0.0
230
1.0
 70
     8
 71
     3
 72
    13
 73
     9
 74
     7
 42
0.0000000001
 43
0.0000000001
 44
0.000001
 12
-0.999877353382941
 22
0.0156613598364006
 32
0.0
 13
-0.948811078883282
 23
-0.3158441650376698
 33
0.0
 40
0.0
 40
0.0
 40
0.0
 40
0.0
 40
0.0052785610370455
 40
0.0104045357744838
 40
0.0154026108476514
 40
0.0202989743738214
 40
0.0298973481511511
 40
0.0345615655985524
 40
0.0345615655985524
 40
0.0345615655985524
 40
0.0345615655985524
 10
43.10281740497259
 20
23.3157622387838
 30
0.0
 10
43.10105810042613
 20
23.31578979526506
 30
0.0
 10
43.09758895161762
 20
23.31577555419716
 30
0.0
 10
43.09245795842232
 20
23.31556200045998
 30
0.0
 10
43.08746723913301
 20
23.31513741773472
 30
0.0
 10
43.0810246073415
 20
23.3142811772251
 30
0.0
 10
43.07476224618719
 20
23.31295462021996
 30
0.0
 10
43.07021039677652
 20
23.31157455579438
 30
0.0
 10
43.06873524304705
 20
23.31108350050596
 30
0.0
 11
43.10281740497259
 21
23.3157622387838
 31
0.0
 11
43.09753981117558
 21
23.31574150850213
 31
0.0
 11
43.09241846122745
 21
23.31552333929693
 31
0.0
 11
43.087438556155
 21
23.31509572662003
 31
0.0
 11
43.08258529698526
 21
23.31444666592307
 31
0.0
 11
43.073199520461
 21
23.31243618227507
 31
0.0
 11
43.06873524304705
 21
23.31108350050596
 31
0.0
  0
SPLINE
  5
172
330
2
100
AcDbEntity
  8
GAIKEI
  6
Continuous
 62
     1
100
AcDbSpline
210
0.0
220
0.0
230
1.0
 70
     8
 71
     3
 72
    27
 73
    23
 74
    21
 42
0.0000000001
 43
0.0000000001
 44
0.000001
 12
0.076512265488583
 22
0.9970686401797044
 32
0.0
 13
0.955265790099601
 23
0.2957486606316001
 33
0.0
 40
0.0
 40
0.0
 40
0.0
 40
0.0
 40
0.0073621065757144
 40
0.01079232420715
 40
0.0140307086205363
 40
0.0210326905144642
 40
0.0253294471323425
 40
0.0301584685617158
 40
0.037405868957668
 40
0.0455384591465289
 40
0.0544700544554276
 40
0.0674030077538427
 40
0.0789312812237218
 40
0.0880812945348327
 40
0.0961622630153808
 40
0.1034392482983114
 40
0.1102594694563251
 40
0.1166721736016166
 40
0.1226379202587842
 40
0.1284009097425262
 40
0.1339895635089596
 40
0.139440545663197
 40
0.139440545663197
 40
0.139440545663197
 40
0.139440545663197
 10
42.99575638282954
 20
23.20167120440283
 30
0.0
 10
42.99594414664716
 20
23.20411804626695
 30
0.0
 10
42.99619964792028
 20
23.2077073057398
 30
0.0
 10
42.99636918894369
 20
23.21238143163646
 30
0.0
 10
42.99673915382688
 20
23.21692592394987
 30
0.0
 10
42.99759186725687
 20
23.22170537476063
 30
0.0
 10
42.99879091413524
 20
23.22694586310894
 30
0.0
 10
43.00024375820302
 20
23.23220893632657
 30
0.0
 10
43.0023735365943
 20
23.23860388411549
 30
0.0
 10
43.00541400661417
 20
23.24612273620494
 30
0.0
 10
43.00980175231194
 20
23.2551145863298
 30
0.0
 10
43.0153118361058
 20
23.26479750206943
 30
0.0
 10
43.02152749758826
 20
23.27413013126073
 30
0.0
 10
43.02737665570579
 20
23.28173387489613
 30
0.0
 10
43.03276942835164
 20
23.28787719003265
 30
0.0
 10
43.03798278422725
 20
23.29312619183713
 30
0.0
 10
43.04313966958168
 20
23.29762398829462
 30
0.0
 10
43.04824495729802
 20
23.30148950740647
 30
0.0
 10
43.05331476030924
 20
23.30480091744272
 30
0.0
 10
43.05847943280951
 20
23.30740841010095
 30
0.0
 10
43.06371066865273
 20
23.30942065780726
 30
0.0
 10
43.06719383088053
 20
23.31061076310925
 30
0.0
 10
43.06892954313866
 20
23.31114813666636
 30
0.0
 11
42.99575638282954
 21
23.20167120440283
 31
0.0
 11
42.99623352355547
 21
23.20901771688477
 31
0.0
 11
42.99639693801828
 21
23.21244404818469
 31
0.0
 11
42.99666865769597
 21
23.21567100353604
 31
0.0
 11
42.99781763721216
 21
23.22257799033201
 31
0.0
 11
42.99877947008508
 21
23.22676563344942
 31
0.0
 11
43.00006038296579
 21
23.23142156824986
 31
0.0
 11
43.00234660033697
 21
23.23829874689511
 31
0.0
 11
43.00539566348049
 21
23.24583797284538
 31
0.0
 11
43.00928449974617
 21
23.25387849746028
 31
0.0
 11
43.01567973942235
 21
23.26511967467968
 31
0.0
 11
43.02208586797109
 21
23.27470419575792
 31
0.0
 11
43.02767493505894
 21
23.28194882963743
 31
0.0
 11
43.03301006383401
 21
23.28801824118534
 31
0.0
 11
43.03815134268041
 21
23.29316807060485
 31
0.0
 11
43.04329255927711
 21
23.29764936836511
 31
0.0
 11
43.04840796989106
 21
23.30151644689852
 31
0.0
 11
43.05342741181107
 21
23.30474110176289
 31
0.0
 11
43.05856890651921
 21
23.30734504940711
 31
0.0
 11
43.06376451434857
 21
23.30940386245385
 31
0.0
 11
43.06892954313866
 21
23.31114813666636
 31
0.0
  0
SPLINE
  5
173
330
2
100
AcDbEntity
  8
GAIKEI
  6
Continuous
 62
     1
100
AcDbSpline
210
0.0
220
0.0
230
1.0
 70
     8
 71
     3
 72
     9
 73
     5
 74
     3
 42
0.0000000001
 43
0.0000000001
 44
0.000001
 12
-0.1110702931717985
 22
-0.9938125527355401
 32
0.0
 13
-0.0037416002969241
 23
-0.9999930001891105
 33
0.0
 40
0.0
 40
0.0
 40
0.0
 40
0.0
 40
0.002222918885187
 40
0.0155319012632193
 40
0.0155319012632193
 40
0.0155319012632193
 40
0.0155319012632193
 10
42.99578383287268
 20
23.20191948222021
 30
0.0
 10
42.99570153278859
 20
23.20118309398958
 30
0.0
 10
42.99516630629954
 20
23.19603368221738
 30
0.0
 10
42.99490853682603
 20
23.19085226756414
 30
0.0
 10
42.99489193786189
 20
23.18641597115822
 30
0.0
 11
42.99578383287268
 21
23.20191948222021
 31
0.0
 11
42.99555397262747
 21
23.19970871862381
 31
0.0
 11
42.99489193786189
 21
23.18641597115822
 31
0.0
  0
SPLINE
  5
174
330
2
100
AcDbEntity
  8
GAIKEI
  6
Continuous
 62
     1
100
AcDbSpline
210
0.0
220
0.0
230
1.0
 70
     8
 71
     3
 72
     9
 73
     5
 74
     3
 42
0.0000000001
 43
0.0000000001
 44
0.000001
 12
0.0037801567420873
 22
-0.9999928551819785
 32
0.0
 13
0.1113488517851972
 23
-0.9937813809918749
 33
0.0
 40
0.0
 40
0.0
 40
0.0
 40
0.0
 40
0.0133898081261586
 40
0.0155559019681255
 40
0.0155559019681255
 40
0.0155559019681255
 40
0.0155559019681255
 10
42.99489193786189
 20
18.2648705298119
 30
0.0
 10
42.99490880971972
 20
18.26040729232573
 30
0.0
 10
42.99516878904833
 20
18.25521780319752
 30
0.0
 10
42.99570727684965
 20
18.25006069464251
 30
0.0
 10
42.99578767420371
 20
18.24934315339931
 30
0.0
 11
42.99489193786189
 21
18.2648705298119
 31
0.0
 11
42.99556267367961
 21
18.25149729750279
 31
0.0
 11
42.99578767420371
 21
18.24934315339931
 31
0.0
  0
SPLINE
  5
175
330
2
100
AcDbEntity
  8
GAIKEI
  6
Continuous
 62
     1
100
AcDbSpline
210
0.0
220
0.0
230
1.0
 70
     8
 71
     3
 72
    27
 73
    23
 74
    21
 42
0.0000000001
 43
0.0000000001
 44
0.000001
 12
-0.9535249561077124
 22
0.3013140522441414
 32
0.0
 13
-0.0768695003212578
 23
0.9970411626008027
 33
0.0
 40
0.0
 40
0.0
 40
0.0
 40
0.0
 40
0.0088114969410919
 40
0.0186359334979105
 40
0.0296732346399769
 40
0.0418464722408007
 40
0.0537759291834371
 40
0.0650978191022735
 40
0.0697365342153686
 40
0.0747431338058628
 40
0.0802567420130807
 40
0.0862854951947057
 40
0.09283445553952
 40
0.099720916227949
 40
0.106152188774828
 40
0.1113156643485913
 40
0.1160274059133661
 40
0.120276790679425
 40
0.1240877444184258
 40
0.1278344408627347
 40
0.1316179531714301
 40
0.139238869710097
 40
0.139238869710097
 40
0.139238869710097
 40
0.139238869710097
 10
43.06893098669911
 20
18.14014076586284
 30
0.0
 10
43.06613032595445
 20
18.14102577514603
 30
0.0
 10
43.06030519590345
 20
18.14321846671225
 30
0.0
 10
43.05145548306774
 20
18.14769353438453
 30
0.0
 10
43.04241504324403
 20
18.15405277405711
 30
0.0
 10
43.03384063448819
 20
18.16207929705763
 30
0.0
 10
43.02615143395863
 20
18.17106707202811
 30
0.0
 10
43.02081092782674
 20
18.17869314259428
 30
0.0
 10
43.01713918529007
 20
18.18464046491715
 30
0.0
 10
43.01457349433131
 20
18.18899409797751
 30
0.0
 10
43.01188507079075
 20
18.19381153134247
 30
0.0
 10
43.00907241540854
 20
18.19914666554916
 30
0.0
 10
43.00618948877861
 20
18.20495926348178
 30
0.0
 10
43.0033839347961
 20
18.21096031186584
 30
0.0
 10
43.0011261712293
 20
18.2166970503456
 30
0.0
 10
42.99943790537675
 20
18.22186652882726
 30
0.0
 10
42.99823330570392
 20
18.22642078777795
 30
0.0
 10
42.9973790829879
 20
18.23059364783324
 30
0.0
 10
42.99679825742804
 20
18.23448850584952
 30
0.0
 10
42.99647120517775
 20
18.23825661180029
 30
0.0
 10
42.99623255924831
 20
18.24330151802718
 30
0.0
 10
42.99595163477856
 20
18.24709312358016
 30
0.0
 10
42.99575636276313
 20
18.24962591274209
 30
0.0
 11
43.06893098669911
 21
18.14014076586284
 31
0.0
 11
43.06068060661471
 21
18.14323775320275
 31
0.0
 11
43.05193004417356
 21
18.14770399582875
 31
0.0
 11
43.04288098008362
 21
18.15402342789821
 31
0.0
 11
43.03394657120986
 21
18.16229149448821
 31
0.0
 11
43.02617601305178
 21
18.17134290153541
 31
0.0
 11
43.01966271420349
 21
18.18060358701194
 31
0.0
 11
43.01721680910827
 21
18.184545029226
 31
0.0
 11
43.01467564630593
 21
18.18885877431341
 31
0.0
 11
43.01198727101575
 21
18.19367256806987
 31
0.0
 11
43.00917458704214
 21
18.19900503531346
 31
0.0
 11
43.00626129545003
 21
18.20487042242234
 31
0.0
 11
43.00338687006615
 21
18.21112829417529
 31
0.0
 11
43.00103686352804
 21
18.21711462004271
 31
0.0
 11
42.99943944091274
 21
18.22202461576057
 31
0.0
 11
42.9982384742525
 21
18.22658062675964
 31
0.0
 11
42.99738839143606
 21
18.2307440557247
 31
0.0
 11
42.99683321491238
 21
18.23451432389908
 31
0.0
 11
42.9964956640025
 21
18.23824577567973
 31
0.0
 11
42.99628085557628
 21
18.24202319639119
 31
0.0
 11
42.99575636276313
 21
18.24962591274209
 31
0.0
  0
SPLINE
  5
176
330
2
100
AcDbEntity
  8
GAIKEI
  6
Continuous
 62
     1
100
AcDbSpline
210
0.0
220
0.0
230
1.0
 70
     8
 71
     3
 72
    13
 73
     9
 74
     7
 42
0.0000000001
 43
0.0000000001
 44
0.000001
 12
0.9487139982427796
 22
-0.3161356505334367
 32
0.0
 13
0.9998801064241472
 23
0.0154845980650528
 33
0.0
 40
0.0
 40
0.0
 40
0.0
 40
0.0
 40
0.0048424962272411
 40
0.014472237053833
 40
0.019373961394914
 40
0.0243619113375832
 40
0.0294558203124856
 40
0.0346737804275776
 40
0.0346737804275776
 40
0.0346737804275776
 40
0.0346737804275776
 10
43.06862743265606
 20
18.14024171086782
 30
0.0
 10
43.07015881397513
 20
18.13973141563616
 30
0.0
 10
43.07477848846019
 20
18.13833332253972
 30
0.0
 10
43.08111300931787
 20
18.13700182076337
 30
0.0
 10
43.08756485327504
 20
18.13614807677118
 30
0.0
 10
43.09254334384156
 20
18.13572501152549
 30
0.0
 10
43.09764004251031
 20
18.13551166820969
 30
0.0
 10
43.10107829346754
 20
18.13549732951463
 30
0.0
 10
43.10281740497259
 20
18.13552426218632
 30
0.0
 11
43.06862743265606
 21
18.14024171086782
 31
0.0
 11
43.07326314624435
 21
18.13883999530981
 31
0.0
 11
43.08268233257376
 21
18.13683557398474
 31
0.0
 11
43.08754131594071
 21
18.13618886754056
 31
0.0
 11
43.09251117923383
 21
18.13576288580918
 31
0.0
 11
43.09760038729666
 21
18.13554542021597
 31
0.0
 11
43.10281740497259
 21
18.13552426218632
 31
0.0
  0
SPLINE
  5
177
330
2
100
AcDbEntity
  8
GAIKEI
  6
Continuous
 62
     1
100
AcDbSpline
210
0.0
220
0.0
230
1.0
 70
     8
 71
     3
 72
    15
 73
    11
 74
     9
 42
0.0000000001
 43
0.0000000001
 44
0.000001
 12
-0.1345307900367005
 22
0.9909094138881219
 32
0.0
 13
-0.9994496190759493
 23
0.0331731657961701
 33
0.0
 40
0.0
 40
0.0
 40
0.0
 40
0.0
 40
0.0349733184911549
 40
0.0699030407196779
 40
0.1048022374590077
 40
0.1396858361957588
 40
0.1745694349324683
 40
0.2094686316718775
 40
0.2443983539000734
 40
0.2793716723909751
 40
0.2793716723909751
 40
0.2793716723909751
 40
0.2793716723909751
 10
44.2895290162404
 20
23.10857963117974
 30
0.0
 10
44.28796068685146
 20
23.12013142802232
 30
0.0
 10
44.28283562562355
 20
23.14300487298112
 30
0.0
 10
44.26926144709355
 20
23.17538207821258
 30
0.0
 10
44.2502584354478
 20
23.20487601610887
 30
0.0
 10
44.22639659447971
 20
23.23057519623126
 30
0.0
 10
44.19840635154595
 20
23.25170294135148
 30
0.0
 10
44.16713456657471
 20
23.26761150159246
 30
0.0
 10
44.13354591864437
 20
23.27782641576522
 30
0.0
 10
44.11027017139704
 20
23.28060136206142
 30
0.0
 10
44.09861881478252
 20
23.28098808729231
 30
0.0
 11
44.2895290162404
 21
23.10857963117974
 31
0.0
 11
44.28184971060284
 21
23.14269995252897
 31
0.0
 11
44.26835040897117
 21
23.17491572286446
 31
0.0
 11
44.24944467704745
 21
23.20425050497431
 31
0.0
 11
44.2257093002546
 21
23.22981414609524
 31
0.0
 11
44.19786674204011
 21
23.25082985000756
 31
0.0
 11
44.16676317169276
 21
23.26665780163296
 31
0.0
 11
44.13334272991176
 21
23.27681462564402
 31
0.0
 11
44.09861881478252
 21
23.28098808729231
 31
0.0
  0
SPLINE
  5
178
330
2
100
AcDbEntity
  8
GAIKEI
  6
Continuous
 62
     1
100
AcDbSpline
210
0.0
220
0.0
230
1.0
 70
     8
 71
     3
 72
    21
 73
    17
 74
    15
 42
0.0000000001
 43
0.0000000001
 44
0.000001
 12
0.9780044826297622
 22
0.2085838727133314
 32
0.0
 13
0.1354487900196674
 23
0.9907843485250502
 33
0.0
 40
0.0
 40
0.0
 40
0.0
 40
0.0
 40
0.0298825149088525
 40
0.0592800929675796
 40
0.0882133650241542
 40
0.116694520351171
 40
0.1447311819658408
 40
0.172330056129426
 40
0.1994998961448662
 40
0.2262520633387244
 40
0.2612761840532124
 40
0.2955898591758323
 40
0.3292039337351623
 40
0.3621251518427256
 40
0.3943636570830302
 40
0.4259375939275606
 40
0.4259375939275606
 40
0.4259375939275606
 40
0.4259375939275606
 10
44.44790387522743
 20
17.8061547582439
 30
0.0
 10
44.45764561973847
 20
17.80823242847259
 30
0.0
 10
44.47680449110677
 20
17.8131881054378
 30
0.0
 10
44.50456339273507
 20
17.82298819537243
 30
0.0
 10
44.53098314617349
 20
17.83487466936958
 30
0.0
 10
44.55594518949837
 20
17.84865823454299
 30
0.0
 10
44.57934859328818
 20
17.86415457248944
 30
0.0
 10
44.60110260184407
 20
17.88118998640152
 30
0.0
 10
44.62113053012255
 20
17.89959785904352
 30
0.0
 10
44.64132675877647
 20
17.92134355999974
 30
0.0
 10
44.66094777600881
 20
17.94673341497571
 30
0.0
 10
44.67915621138196
 20
17.97588560727553
 30
0.0
 10
44.69415119441521
 20
18.00602959096625
 30
0.0
 10
44.70598201960832
 20
18.03680721840192
 30
0.0
 10
44.71471844327623
 20
18.06789185852307
 30
0.0
 10
44.71855758224703
 20
18.08884892286244
 30
0.0
 10
44.71998313276094
 20
18.09927657701138
 30
0.0
 11
44.44790387522743
 21
17.8061547582439
 31
0.0
 11
44.47683368389698
 21
17.81364214497239
 31
0.0
 11
44.50455691839784
 21
17.82342171106796
 31
0.0
 11
44.53094338623635
 21
17.8352913619704
 31
0.0
 11
44.55587630866694
 21
17.84905819814025
 31
0.0
 11
44.57925193269431
 21
17.86453834492965
 31
0.0
 11
44.60097913220716
 21
17.88155678087099
 31
0.0
 11
44.62097899867808
 21
17.89994716348491
 31
0.0
 11
44.63918433732465
 21
17.91954932533957
 31
0.0
 11
44.66061007091252
 21
17.94725542824056
 31
0.0
 11
44.67879230862718
 21
17.97635586325697
 31
0.0
 11
44.69376401123452
 21
18.00645161992912
 31
0.0
 11
44.70557449728175
 21
18.03718139744717
 31
0.0
 11
44.71428814723981
 21
18.06821998177133
 31
0.0
 11
44.71998313276094
 21
18.09927657701138
 31
0.0
  0
SPLINE
  5
179
330
2
100
AcDbEntity
  8
GAIKEI
  6
Continuous
 62
     1
100
AcDbSpline
210
0.0
220
0.0
230
1.0
 70
     8
 71
     3
 72
    15
 73
    11
 74
     9
 42
0.0000000001
 43
0.0000000001
 44
0.000001
 12
0.9785263958185264
 22
0.2061215483310866
 32
0.0
 13
0.1327585762537783
 23
0.9911484048471601
 33
0.0
 40
0.0
 40
0.0
 40
0.0
 40
0.0
 40
0.0385954384161552
 40
0.0762592426229633
 40
0.1139106822114348
 40
0.1524704505865384
 40
0.1910192054029152
 40
0.2286666814559477
 40
0.266334651353655
 40
0.3049428812072342
 40
0.3049428812072342
 40
0.3049428812072342
 40
0.3049428812072342
 10
44.42718261404718
 20
17.90285397708493
 30
0.0
 10
44.43977149912997
 20
17.90550576092653
 30
0.0
 10
44.46428221091927
 20
17.91266998366689
 30
0.0
 10
44.49882835973596
 20
17.92877626129405
 30
0.0
 10
44.53036657143473
 20
17.95019346722489
 30
0.0
 10
44.55841154959387
 20
17.97640954710277
 30
0.0
 10
44.58247520366326
 20
18.0063203975468
 30
0.0
 10
44.60148692252718
 20
18.03936065965763
 30
0.0
 10
44.6149797173193
 20
18.07501346510685
 30
0.0
 10
44.62030230722061
 20
18.09999467925377
 30
0.0
 10
44.62201083176296
 20
18.11275017439823
 30
0.0
 11
44.42718261404718
 21
17.90285397708493
 31
0.0
 11
44.46422800996538
 21
17.91368360067554
 31
0.0
 11
44.49833706435197
 21
17.92965654125907
 31
0.0
 11
44.52950977720706
 21
17.95077279883554
 31
0.0
 11
44.55774614853067
 21
17.97703237340488
 31
0.0
 11
44.5818316962102
 21
18.00713046462465
 31
0.0
 11
44.60057099264213
 21
18.03978279519674
 31
0.0
 11
44.61396403782646
 21
18.07498936512127
 31
0.0
 11
44.62201083176296
 21
18.11275017439823
 31
0.0
  0
SPLINE
  5
17A
330
2
100
AcDbEntity
  8
GAIKEI
  6
Continuous
 62
     1
100
AcDbSpline
210
0.0
220
0.0
230
1.0
 70
     8
 71
     3
 72
     9
 73
     5
 74
     3
 42
0.0000000001
 43
0.0000000001
 44
0.000001
 12
0.1362218791743881
 22
0.990678353268203
 32
0.0
 13
0.0000205302016735
 23
0.9999999997892555
 33
0.0
 40
0.0
 40
0.0
 40
0.0
 40
0.0
 40
0.0954240186018036
 40
0.1908480372091482
 40
0.1908480372091482
 40
0.1908480372091482
 40
0.1908480372091482
 10
44.92394650722508
 20
20.30825387168687
 30
0.0
 10
44.92827945360251
 20
20.33976537489042
 30
0.0
 10
44.93479998138499
 20
20.40310241614299
 30
0.0
 10
44.93696943287628
 20
20.4667372458938
 30
0.0
 10
44.93697008590106
 20
20.49854525208951
 30
0.0
 11
44.92394650722508
 21
20.30825387168687
 31
0.0
 11
44.93371320997823
 21
20.4031767949852
 31
0.0
 11
44.93697008590106
 21
20.49854525208951
 31
0.0
  0
SPLINE
  5
17B
330
2
100
AcDbEntity
  8
GAIKEI
  6
Continuous
 62
     1
100
AcDbSpline
210
0.0
220
0.0
230
1.0
 70
     8
 71
     3
 72
     9
 73
     5
 74
     3
 42
0.0000000001
 43
0.0000000001
 44
0.000001
 12
-0.0000205301984769
 22
0.9999999997892555
 32
0.0
 13
-0.1362218791775721
 23
0.9906783532677652
 33
0.0
 40
0.0
 40
0.0
 40
0.0
 40
0.0
 40
0.0954240186094466
 40
0.190848037209045
 40
0.190848037209045
 40
0.190848037209045
 40
0.190848037209045
 10
44.93697008590106
 20
20.95274124888067
 30
0.0
 10
44.93696943287638
 20
20.98454925507713
 30
0.0
 10
44.93479998138513
 20
21.04818408482794
 30
0.0
 10
44.92827945360251
 20
21.11152112608039
 30
0.0
 10
44.92394650722508
 20
21.1430326292832
 30
0.0
 11
44.93697008590106
 21
20.95274124888067
 31
0.0
 11
44.93371320997823
 21
21.04810970598709
 31
0.0
 11
44.92394650722508
 21
21.1430326292832
 31
0.0
  0
SPLINE
  5
17C
330
2
100
AcDbEntity
  8
GAIKEI
  6
Continuous
 62
     1
100
AcDbSpline
210
0.0
220
0.0
230
1.0
 70
     8
 71
     3
 72
    15
 73
    11
 74
     9
 42
0.0000000001
 43
0.0000000001
 44
0.000001
 12
-0.1327902774087838
 22
0.9911441581453722
 32
0.0
 13
-0.9785329879817497
 23
0.2060902506949535
 33
0.0
 40
0.0
 40
0.0
 40
0.0
 40
0.0
 40
0.0385954384155653
 40
0.0762592426221769
 40
0.1139106822108793
 40
0.1524704505867185
 40
0.1910192054031768
 40
0.2286666814562273
 40
0.2663346513539381
 40
0.3049428812073548
 40
0.3049428812073548
 40
0.3049428812073548
 40
0.3049428812073548
 10
44.62201083176296
 20
23.3385363265719
 30
0.0
 10
44.62030246543832
 20
23.35128754101078
 30
0.0
 10
44.61498062794977
 20
23.37626311158726
 30
0.0
 10
44.60148769901
 20
23.41191124541905
 30
0.0
 10
44.5824748819163
 20
23.44495467582834
 30
0.0
 10
44.55841672811451
 20
23.47487137484074
 30
0.0
 10
44.53037799131801
 20
23.501092504876
 30
0.0
 10
44.49884285748527
 20
23.52250838003124
 30
0.0
 10
44.46429204000887
 20
23.53861487125124
 30
0.0
 10
44.43977575622023
 20
23.545780263962
 30
0.0
 10
44.42718261404718
 20
23.54843252388514
 30
0.0
 11
44.62201083176296
 21
23.3385363265719
 31
0.0
 11
44.61396578673839
 21
23.37628443058202
 31
0.0
 11
44.6005733245247
 21
23.41148676541752
 31
0.0
 11
44.58183344512213
 21
23.44414333107863
 31
0.0
 11
44.55774614853067
 21
23.47425412756519
 31
0.0
 11
44.52952231725634
 21
23.50051101333452
 31
0.0
 11
44.49835378441775
 21
23.52162637464437
 31
0.0
 11
44.46424055001466
 21
23.53760021149458
 31
0.0
 11
44.42718261404718
 21
23.54843252388514
 31
0.0
  0
SPLINE
  5
17D
330
2
100
AcDbEntity
  8
GAIKEI
  6
Continuous
 62
     1
100
AcDbSpline
210
0.0
220
0.0
230
1.0
 70
     8
 71
     3
 72
    15
 73
    11
 74
     9
 42
0.0000000001
 43
0.0000000001
 44
0.000001
 12
-0.1364008987339492
 22
0.9906537209462097
 32
0.0
 13
-0.1677708966327061
 23
0.9858260121558256
 33
0.0
 40
0.0
 40
0.0
 40
0.0
 40
0.0
 40
0.013214964880076
 40
0.0262813057248969
 40
0.0392030871300063
 40
0.051982033004643
 40
0.0646173308324903
 40
0.0770330552777199
 40
0.0890929972857488
 40
0.1007940929957572
 40
0.1007940929957572
 40
0.1007940929957572
 40
0.1007940929957572
 10
44.31292183660377
 20
22.95969976756692
 30
0.0
 10
44.31232099224165
 20
22.96406358561046
 30
0.0
 10
44.31108010812716
 20
22.97273588749584
 30
0.0
 10
44.30909529324138
 20
22.98565217794021
 30
0.0
 10
44.30701240557866
 20
22.99840573187379
 30
0.0
 10
44.30485438798699
 20
23.01100096789412
 30
0.0
 10
44.30265430243702
 20
23.02341758711651
 30
0.0
 10
44.30046369992538
 20
23.03559238996894
 30
0.0
 10
44.29833164679197
 20
23.04746138040412
 30
0.0
 10
44.29698642567809
 20
23.05526671813908
 30
0.0
 10
44.29633205790515
 20
23.0591117996463
 30
0.0
 11
44.31292183660377
 21
22.95969976756692
 31
0.0
 11
44.31105138662224
 21
22.9727817567242
 31
0.0
 11
44.30906859193396
 21
22.98569678120054
 31
0.0
 11
44.30698905213114
 21
22.99845013227605
 31
0.0
 11
44.30483529568095
 21
23.01104627352083
 31
0.0
 11
44.30263695860753
 21
23.02348886288098
 31
0.0
 11
44.30044426981829
 21
23.03570943236445
 31
0.0
 11
44.29832566910522
 21
23.04758185808799
 31
0.0
 11
44.29633205790515
 21
23.0591117996463
 31
0.0
  0
SPLINE
  5
17E
330
2
100
AcDbEntity
  8
GAIKEI
  6
Continuous
 62
     1
100
AcDbSpline
210
0.0
220
0.0
230
1.0
 70
     8
 71
     3
 72
    13
 73
     9
 74
     7
 42
0.0000000001
 43
0.0000000001
 44
0.000001
 12
-0.1032078770309288
 22
0.9946598082353427
 32
0.0
 13
-0.135947176317206
 23
0.9907160871063812
 33
0.0
 40
0.0
 40
0.0
 40
0.0
 40
0.0
 40
0.01600107777398
 40
0.0320288818262623
 40
0.0485712842024553
 40
0.0658548155515402
 40
0.0833808232344127
 40
0.1010631356637666
 40
0.1010631356637666
 40
0.1010631356637666
 40
0.1010631356637666
 10
44.46752343263392
 20
21.81430594626033
 30
0.0
 10
44.46697295354484
 20
21.81961115591042
 30
0.0
 10
44.46589046828335
 20
21.83023253067535
 30
0.0
 10
44.4643714263477
 20
21.84635158864415
 30
0.0
 10
44.46275897396501
 20
21.86289113999192
 30
0.0
 10
44.46097104898789
 20
21.87991509431748
 30
0.0
 10
44.45894429944334
 20
21.89729506328081
 30
0.0
 10
44.45742629692538
 20
21.90893302213396
 30
0.0
 10
44.4566250101102
 20
21.91477240592764
 30
0.0
 11
44.46752343263392
 21
21.81430594626033
 31
0.0
 11
44.46591251864766
 21
21.83022543542268
 31
0.0
 11
44.46438008579025
 21
21.84618005823819
 31
0.0
 11
44.46276393308028
 21
21.86264332921917
 31
0.0
 11
44.46094793384713
 21
21.87983119393846
 31
0.0
 11
44.45891203774045
 21
21.89723855566729
 31
0.0
 11
44.4566250101102
 21
21.91477240592764
 31
0.0
  0
SPLINE
  5
17F
330
2
100
AcDbEntity
  8
GAIKEI
  6
Continuous
 62
     1
100
AcDbSpline
210
0.0
220
0.0
230
1.0
 70
     8
 71
     3
 72
    14
 73
    10
 74
     8
 42
0.0000000001
 43
0.0000000001
 44
0.000001
 12
0.1677588837034731
 22
0.9858280564776825
 32
0.0
 13
0.1366130456583842
 23
0.9906244877631182
 33
0.0
 40
0.0
 40
0.0
 40
0.0
 40
0.0
 40
0.0116707988865572
 40
0.0236390742539265
 40
0.0359005446620076
 40
0.0484549652869712
 40
0.065753499137279
 40
0.0832124457340167
 40
0.1007939503193696
 40
0.1007939503193696
 40
0.1007939503193696
 40
0.1007939503193696
 10
44.29633205790515
 20
18.39217470132382
 30
0.0
 10
44.29698468463619
 20
18.39600983498513
 30
0.0
 10
44.2983229477767
 20
18.40377511777484
 30
0.0
 10
44.30043838186715
 20
18.4155535460668
 30
0.0
 10
44.30260976737206
 20
18.42762112731577
 30
0.0
 10
44.30506056173792
 20
18.44144371267379
 30
0.0
 10
44.30771076575649
 20
18.45699031943792
 30
0.0
 10
44.31044806441387
 20
18.47422103585347
 30
0.0
 10
44.31212121564088
 20
18.48578117707853
 30
0.0
 10
44.31292183660377
 20
18.49158673340321
 30
0.0
 11
44.29633205790515
 21
18.39217470132382
 31
0.0
 11
44.29832040414646
 21
18.40367481190952
 31
0.0
 11
44.30042270831449
 21
18.41545702727995
 31
0.0
 11
44.30258838373743
 21
18.42752572627893
 31
0.0
 11
44.30477396284868
 21
18.43988843997761
 31
0.0
 11
44.30767076471068
 21
18.45694270087301
 31
0.0
 11
44.31040305116221
 21
18.47418652762553
 31
0.0
 11
44.31292183660377
 21
18.49158673340321
 31
0.0
  0
SPLINE
  5
180
330
2
100
AcDbEntity
  8
GAIKEI
  6
Continuous
 62
     1
100
AcDbSpline
210
0.0
220
0.0
230
1.0
 70
     8
 71
     3
 72
    14
 73
    10
 74
     8
 42
0.0000000001
 43
0.0000000001
 44
0.000001
 12
0.1359523053525381
 22
0.9907153832808543
 32
0.0
 13
0.1044770653903519
 23
0.9945272961600503
 33
0.0
 40
0.0
 40
0.0
 40
0.0
 40
0.0
 40
0.0176161980931221
 40
0.0349715004289961
 40
0.0521274141722384
 40
0.064800444161865
 40
0.0772495029101837
 40
0.0893372407698799
 40
0.1010631752749937
 40
0.1010631752749937
 40
0.1010631752749937
 40
0.1010631752749937
 10
44.47141021365678
 20
19.64402364654654
 30
0.0
 10
44.47220853457088
 20
19.64984119269513
 30
0.0
 10
44.47371663856109
 20
19.66140083000346
 30
0.0
 10
44.47573108094076
 20
19.67865991602571
 30
0.0
 10
44.47737746982456
 20
19.69430184261415
 30
0.0
 10
44.47875650666029
 20
19.70832691020888
 30
0.0
 10
44.47993582683738
 20
19.72067398391556
 30
0.0
 10
44.48108758749898
 20
19.73270660529937
 30
0.0
 10
44.48190027243872
 20
19.74060285223442
 30
0.0
 10
44.48230863618073
 20
19.74449010621384
 30
0.0
 11
44.47141021365678
 21
19.64402364654654
 31
0.0
 11
44.473689139234
 21
19.66149187573478
 31
0.0
 11
44.4757070388963
 21
19.67872947144252
 31
0.0
 11
44.47751244545964
 21
19.69579012467761
 31
0.0
 11
44.47875889942872
 21
19.70840170722783
 31
0.0
 11
44.47994870416687
 21
19.72079377793335
 31
0.0
 11
44.4811145904979
 21
19.73282518226875
 31
0.0
 11
44.48230863618073
 21
19.74449010621384
 31
0.0
  0
ARC
  5
181
330
2
100
AcDbEntity
  8
GAIKEI
 62
     1
100
AcDbCircle
 10
43.12154262768785
 20
24.55181846287786
 30
0.0
 40
0.1500163686008653
100
AcDbArc
 50
294.6822153763272
 51
359.9992555506062
  0
LINE
  5
182
330
2
100
AcDbEntity
  8
GAIKEI
 62
     1
100
AcDbLine
 10
43.2715589962761
 20
24.55181653036931
 30
0.0
 11
43.2715589962761
 21
24.62484806873272
 31
0.0
  0
ARC
  5
183
330
2
100
AcDbEntity
  8
GAIKEI
 62
     1
100
AcDbCircle
 10
43.15704146729979
 20
24.63233228264824
 30
0.0
 40
0.0145231345477284
100
AcDbArc
 50
265.9875314113319
 51
357.4403055779344
  0
LINE
  5
184
330
2
100
AcDbEntity
  8
GAIKEI
 62
     1
100
AcDbLine
 10
43.17155011115602
 20
24.63168367603066
 30
0.0
 11
43.17155011115608
 21
24.66109483901551
 31
0.0
  0
ARC
  5
185
330
2
100
AcDbEntity
  8
GAIKEI
 62
     1
100
AcDbCircle
 10
43.18655144392415
 20
24.66109483901551
 30
0.0
 40
0.0150013327680068
100
AcDbArc
 50
88.00000000002242
 51
179.9999999998925
  0
LINE
  5
186
330
2
100
AcDbEntity
  8
GAIKEI
 62
     1
100
AcDbLine
 10
43.18707499043767
 20
24.67608702097056
 30
0.0
 11
43.22329968359435
 21
24.67482204993729
 31
0.0
  0
ARC
  5
187
330
2
100
AcDbEntity
  8
GAIKEI
 62
     1
100
AcDbCircle
 10
43.22155453985999
 20
24.62484806313432
 30
0.0
 40
0.05000445641619
100
AcDbArc
 50
0.0000064146167758
 51
88.00001314450822
  0
LINE
  5
188
330
2
100
AcDbEntity
  8
GAIKEI
 62
     1
100
AcDbLine
 10
40.83522192914602
 20
-5.044575576319573
 30
0.0
 11
40.83522192914602
 21
-5.203259450140649
 31
0.0
  0
DIMENSION
  5
189
330
2
100
AcDbEntity
  8
SUNPO
100
AcDbDimension
  2
*D6
 10
45.13152887166796
 20
33.1657644902391
 30
0.0
 11
51.7148622050013
 21
34.9157644902391
 31
0.0
 70
    33
  1
89
 71
     5
 42
4.449999999999988
  3
STANDARD
100
AcDbAlignedDimension
 13
40.68152887166798
 23
25.17229699479816
 33
0.0
 14
45.13152887166796
 24
25.17229699479816
 34
0.0
1001
ACAD
1000
DSTYLE
1002
{
1070
    40
1040
1.0
1070
   140
1040
2.5
1070
   147
1040
0.5
1070
   172
1070
     1
1070
   279
1070
     0
1070
   288
1070
     0
1002
}
  0
LINE
  5
199
330
2
100
AcDbEntity
  8
GAIKEI
  6
Continuous
 62
     1
100
AcDbLine
 10
45.08652887166789
 20
17.07478589624725
 30
0.0
 11
45.08652887166789
 21
16.14076891509057
 31
0.0
  0
LINE
  5
19A
330
2
100
AcDbEntity
  8
GAIKEI
  6
Continuous
 62
     7
100
AcDbLine
 10
45.08652887166789
 20
20.96819959915081
 30
0.0
 11
45.08652887166789
 21
0.1914159009767786
 31
0.0
  0
ARC
  5
19B
330
2
100
AcDbEntity
  8
GAIKEI
  6
Continuous
 62
     7
100
AcDbCircle
 10
44.8365066588679
 20
-0.0828305497331599
 30
0.0
 40
0.2500222128000095
100
AcDbArc
 50
0.0
 51
0.0
  0
LINE
  5
19C
330
2
100
AcDbEntity
  8
GAIKEI
  6
Continuous
 62
     7
100
AcDbLine
 10
45.08652887166795
 20
-0.1980635628545997
 30
0.0
 11
45.08652887166789
 21
0.2989453430598132
 31
0.0
  0
DIMENSION
  5
19D
330
2
100
AcDbEntity
  8
SUNPO
100
AcDbDimension
  2
*D5
 10
21.86359343802656
 20
25.16605093459043
 30
0.0
 11
20.11359343802655
 21
9.916050934590431
 31
0.0
 70
    33
  1
610
 71
     5
 42
30.5
  3
STANDARD
100
AcDbAlignedDimension
 13
13.86359343802655
 23
-5.333949065409569
 33
0.0
 14
13.86359343802655
 24
25.16605093459043
 34
0.0
1001
ACAD
1000
DSTYLE
1002
{
1070
   287
1070
     3
1070
   287
1070
     3
1070
   287
1070
     3
1070
   287
1070
     3
1070
   287
1070
     3
1070
   287
1070
     3
1070
   287
1070
     3
1070
   287
1070
     3
1070
   287
1070
     3
1070
   287
1070
     3
1070
   287
1070
     3
1070
   287
1070
     3
1070
   287
1070
     3
1070
   287
1070
     3
1070
   287
1070
     3
1070
   287
1070
     3
1070
   287
1070
     3
1070
   287
1070
     3
1070
   287
1070
     3
1070
   287
1070
     3
1070
   287
1070
     3
1070
   287
1070
     3
1070
   287
1070
     3
1070
   287
1070
     3
1070
   287
1070
     3
1070
   287
1070
     3
1070
   287
1070
     3
1070
   287
1070
     3
1070
   287
1070
     3
1070
   287
1070
     3
1070
   287
1070
     3
1070
   287
1070
     3
1070
   287
1070
     3
1070
   287
1070
     3
1070
    40
1040
1.0
1070
   140
1040
2.5
1070
   147
1040
0.5
1070
   172
1070
     1
1070
   279
1070
     0
1002
}
  0
DIMENSION
  5
1AA
330
2
100
AcDbEntity
  8
SUNPO
100
AcDbDimension
  2
*D4
 10
13.85326403601652
 20
33.1657644902391
 30
0.0
 11
-11.19673596398348
 21
34.9157644902391
 31
0.0
 70
    33
  1
1020
 71
     5
 42
50.10000000000002
  3
STANDARD
100
AcDbAlignedDimension
 13
-36.2467359639835
 23
25.1657644902391
 33
0.0
 14
13.85326403601652
 24
25.1657644902391
 34
0.0
1001
ACAD
1000
DSTYLE
1002
{
1070
   287
1070
     3
1070
   287
1070
     3
1070
   287
1070
     3
1070
   287
1070
     3
1070
   287
1070
     3
1070
   287
1070
     3
1070
   287
1070
     3
1070
   287
1070
     3
1070
   287
1070
     3
1070
   287
1070
     3
1070
   287
1070
     3
1070
   287
1070
     3
1070
   287
1070
     3
1070
   287
1070
     3
1070
   287
1070
     3
1070
   287
1070
     3
1070
   287
1070
     3
1070
   287
1070
     3
1070
   287
1070
     3
1070
   287
1070
     3
1070
   287
1070
     3
1070
   287
1070
     3
1070
   287
1070
     3
1070
   287
1070
     3
1070
   287
1070
     3
1070
   287
1070
     3
1070
   287
1070
     3
1070
   287
1070
     3
1070
   287
1070
     3
1070
   287
1070
     3
1070
   287
1070
     3
1070
   287
1070
     3
1070
   287
1070
     3
1070
   287
1070
     3
1070
    40
1040
1.0
1070
   140
1040
2.5
1070
   147
1040
0.5
1070
   172
1070
     1
1070
   279
1070
     0
1002
}
  0
ENDSEC
  0
SECTION
  2
OBJECTS
  0
DICTIONARY
  5
9
330
0
100
AcDbDictionary
281
     1
  3
ACAD_COLOR
350
2E
  3
ACAD_GROUP
350
2A
  3
ACAD_LAYOUT
350
D
  3
ACAD_MATERIAL
350
2D
  3
ACAD_MLINESTYLE
350
2B
  3
ACAD_PLOTSETTINGS
350
2C
  3
ACAD_PLOTSTYLENAME
350
8
  3
ACDBHEADERROUNDTRIPXREC
350
1F9
  3
AcDbVariableDictionary
350
1F4
  3
ASE_INDEX_DICTIONARY
350
1BF
  0
DICTIONARY
  5
13
330
12
100
AcDbDictionary
280
     1
281
     1
  3
ACAD_LAYERSTATES
360
14
  0
DICTIONARY
  5
3
330
2
100
AcDbDictionary
280
     1
281
     1
  3
ACAD_SORTENTS
360
4
  0
DICTIONARY
  5
2E
102
{ACAD_REACTORS
330
9
102
}
330
9
100
AcDbDictionary
281
     1
  0
DICTIONARY
  5
2A
102
{ACAD_REACTORS
330
9
102
}
330
9
100
AcDbDictionary
281
     1
  0
DICTIONARY
  5
D
102
{ACAD_REACTORS
330
9
102
}
330
9
100
AcDbDictionary
281
     1
  3
Model
350
C
  3
レイアウト1
350
11
  0
DICTIONARY
  5
2D
102
{ACAD_REACTORS
330
9
102
}
330
9
100
AcDbDictionary
281
     1
  0
DICTIONARY
  5
2B
102
{ACAD_REACTORS
330
9
102
}
330
9
100
AcDbDictionary
281
     1
  3
Standard
350
30
  0
DICTIONARY
  5
2C
102
{ACAD_REACTORS
330
9
102
}
330
9
100
AcDbDictionary
281
     1
  0
ACDBDICTIONARYWDFLT
  5
8
102
{ACAD_REACTORS
330
9
102
}
330
9
100
AcDbDictionary
281
     1
  3
Normal
350
7
100
AcDbDictionaryWithDefault
340
7
  0
DICTIONARY
  5
1F9
102
{ACAD_REACTORS
330
9
102
}
330
9
100
AcDbDictionary
281
     1
  3
COLORDICT
350
1FB
  3
MATERIALDICT
350
1FA
  0
DICTIONARY
  5
1F4
102
{ACAD_REACTORS
330
9
102
}
330
9
100
AcDbDictionary
281
     1
  3
DIMASSOC
350
1F6
  3
HIDETEXT
350
1F5
  3
PROJECTNAME
350
1F7
  0
DICTIONARY
  5
1BF
102
{ACAD_REACTORS
330
9
102
}
330
9
100
AcDbDictionary
281
     1
  3
ASEBlockHierarchyIndexRecord
350
1C1
1001
DCO15
1040
1627816647.605
  0
DICTIONARY
  5
14
102
{ACAD_REACTORS
330
13
102
}
330
13
100
AcDbDictionary
281
     1
  0
SORTENTSTABLE
  5
4
102
{ACAD_REACTORS
330
3
102
}
330
3
100
AcDbSortentsTable
330
2
  0
LAYOUT
  5
C
102
{ACAD_XDICTIONARY
360
1FC
102
}
102
{ACAD_REACTORS
330
D
102
}
330
D
100
AcDbPlotSettings
  1

  2
Ａ４－縦3FRIM01.pc3
  4
A4
  6

 40
5.873749732971191
 41
5.873747825622558
 42
5.873748779296875
 43
5.873748779296875
 44
209.9733276367187
 45
296.9259948730469
 46
5.419999999999999
 47
0.0
 48
0.0
 49
0.0
140
0.0
141
0.0
142
1.0
143
1.38245207335299
 70
 11956
 72
     1
 73
     0
 74
     1
  7
tmsacad.ctb
 75
     0
147
0.7233523818114045
148
0.0320386232301644
149
0.0300716685512725
100
AcDbLayout
  1
Model
 70
     1
 71
     0
 10
0.0
 20
0.0
 11
12.0
 21
9.0
 12
0.0
 22
0.0
 32
0.0
 14
0.0
 24
0.0
 34
0.0
 15
0.0
 25
0.0
 35
0.0
146
0.0
 13
0.0
 23
0.0
 33
0.0
 16
1.0
 26
0.0
 36
0.0
 17
0.0
 27
1.0
 37
0.0
 76
     0
330
2
  0
LAYOUT
  5
11
102
{ACAD_XDICTIONARY
360
1FE
102
}
102
{ACAD_REACTORS
330
D
102
}
330
D
100
AcDbPlotSettings
  1

  2
None
  4

  6

 40
0.0
 41
0.0
 42
0.0
 43
0.0
 44
0.0
 45
0.0
 46
0.0
 47
0.0
 48
0.0
 49
0.0
140
0.0
141
0.0
142
1.0
143
1.0
 70
   688
 72
     0
 73
     0
 74
     5
  7
tmsacad.ctb
 75
    16
147
1.0
148
0.0
149
0.0
100
AcDbLayout
  1
レイアウト1
 70
     1
 71
     1
 10
0.0
 20
0.0
 11
12.0
 21
9.0
 12
0.0
 22
0.0
 32
0.0
 14
0.0
 24
0.0
 34
0.0
 15
0.0
 25
0.0
 35
0.0
146
0.0
 13
0.0
 23
0.0
 33
0.0
 16
1.0
 26
0.0
 36
0.0
 17
0.0
 27
1.0
 37
0.0
 76
     0
330
E
  0
MLINESTYLE
  5
30
102
{ACAD_REACTORS
330
2B
102
}
330
2B
100
AcDbMlineStyle
  2
STANDARD
 70
     0
  3

 62
   256
 51
90.0
 52
90.0
 71
     2
 49
0.5
 62
   256
  6
BYLAYER
 49
-0.5
 62
   256
  6
BYLAYER
  0
ACDBPLACEHOLDER
  5
7
102
{ACAD_REACTORS
330
8
102
}
330
8
  0
XRECORD
  5
1FB
102
{ACAD_REACTORS
330
1F9
102
}
330
1F9
100
AcDbXrecord
280
     1
340
2E
  0
XRECORD
  5
1FA
102
{ACAD_REACTORS
330
1F9
102
}
330
1F9
100
AcDbXrecord
280
     1
340
2D
  0
DICTIONARYVAR
  5
1F6
102
{ACAD_REACTORS
330
1F4
102
}
330
1F4
100
DictionaryVariables
280
     0
  1
1
  0
DICTIONARYVAR
  5
1F5
102
{ACAD_REACTORS
330
1F4
102
}
330
1F4
100
DictionaryVariables
280
     0
  1
1
  0
DICTIONARYVAR
  5
1F7
102
{ACAD_REACTORS
330
1F4
102
}
330
1F4
100
DictionaryVariables
280
     0
  1

  0
XRECORD
  5
1C1
102
{ACAD_REACTORS
330
1BF
102
}
330
1BF
100
AcDbXrecord
280
     1
330
191
330
192
330
1A3
330
1A4
330
1B0
330
1B1
330
1D2
330
1D3
330
1DE
330
1DF
330
1EC
330
1ED
  0
DICTIONARY
  5
1FC
330
C
100
AcDbDictionary
280
     1
281
     1
  3
ACAD_XREC_ROUNDTRIP
360
1FD
  0
DICTIONARY
  5
1FE
330
11
100
AcDbDictionary
280
     1
281
     1
  3
ACAD_XREC_ROUNDTRIP
360
1FF
  0
XRECORD
  5
1FD
102
{ACAD_REACTORS
330
1FC
102
}
330
1FC
100
AcDbXrecord
280
     1
102
SHADEPLOT
 70
     0
102
SHADEPLOTRESLEVEL
 70
     2
102
SHADEPLOTCUSTOMDPI
 70
   300
  0
XRECORD
  5
1FF
102
{ACAD_REACTORS
330
1FE
102
}
330
1FE
100
AcDbXrecord
280
     1
102
SHADEPLOT
 70
     0
102
SHADEPLOTRESLEVEL
 70
     2
102
SHADEPLOTCUSTOMDPI
 70
   300
  0
ENDSEC
  0
EOF
