  0
SECTION
  2
HEADER
  9
$ACADVER
  1
AC1015
  9
$ACADMAINTVER
 70
    20
  9
$DWGCODEPAGE
  3
ANSI_932
  9
$INSBASE
 10
0.4999999440410648
 20
246.5008351249344
 30
0.0
  9
$EXTMIN
 10
-63.39477448653747
 20
-50.83387693114798
 30
-0.0015258207003583
  9
$EXTMAX
 10
61.63879450601394
 20
62.19072002264522
 30
0.0000000349246037
  9
$LIMMIN
 10
0.0
 20
0.0
  9
$LIMMAX
 10
420.0
 20
297.0
  9
$ORTHOMODE
 70
     0
  9
$REGENMODE
 70
     0
  9
$FILLMODE
 70
     1
  9
$QTEXTMODE
 70
     0
  9
$MIRRTEXT
 70
     0
  9
$LTSCALE
 40
1.0
  9
$ATTMODE
 70
     1
  9
$TEXTSIZE
 40
2.5
  9
$TRACEWID
 40
1.0
  9
$TEXTSTYLE
  7
Standard
  9
$CLAYER
  8
SUNPO
  9
$CELTYPE
  6
ByLayer
  9
$CECOLOR
 62
   256
  9
$CELTSCALE
 40
1.0
  9
$DISPSILH
 70
     0
  9
$DIMSCALE
 40
1.0
  9
$DIMASZ
 40
2.0
  9
$DIMEXO
 40
2.0
  9
$DIMDLI
 40
8.0
  9
$DIMRND
 40
0.0
  9
$DIMDLE
 40
0.0
  9
$DIMEXE
 40
2.0
  9
$DIMTP
 40
0.0
  9
$DIMTM
 40
0.0
  9
$DIMTXT
 40
2.5
  9
$DIMCEN
 40
0.0
  9
$DIMTSZ
 40
0.0
  9
$DIMTOL
 70
     0
  9
$DIMLIM
 70
     0
  9
$DIMTIH
 70
     0
  9
$DIMTOH
 70
     0
  9
$DIMSE1
 70
     0
  9
$DIMSE2
 70
     0
  9
$DIMTAD
 70
     3
  9
$DIMZIN
 70
     0
  9
$DIMBLK
  1

  9
$DIMASO
 70
     1
  9
$DIMSHO
 70
     1
  9
$DIMPOST
  1

  9
$DIMAPOST
  1

  9
$DIMALT
 70
     0
  9
$DIMALTD
 70
     2
  9
$DIMALTF
 40
25.4
  9
$DIMLFAC
 40
1.0
  9
$DIMTOFL
 70
     1
  9
$DIMTVP
 40
0.0
  9
$DIMTIX
 70
     0
  9
$DIMSOXD
 70
     0
  9
$DIMSAH
 70
     1
  9
$DIMBLK1
  1
OPEN30
  9
$DIMBLK2
  1
OPEN30
  9
$DIMSTYLE
  2
STANDARD
  9
$DIMCLRD
 70
     0
  9
$DIMCLRE
 70
     0
  9
$DIMCLRT
 70
     0
  9
$DIMTFAC
 40
1.0
  9
$DIMGAP
 40
0.5
  9
$DIMJUST
 70
     0
  9
$DIMSD1
 70
     0
  9
$DIMSD2
 70
     0
  9
$DIMTOLJ
 70
     1
  9
$DIMTZIN
 70
     0
  9
$DIMALTZ
 70
     0
  9
$DIMALTTZ
 70
     0
  9
$DIMUPT
 70
     0
  9
$DIMDEC
 70
     4
  9
$DIMTDEC
 70
     4
  9
$DIMALTU
 70
     2
  9
$DIMALTTD
 70
     2
  9
$DIMTXSTY
  7
Standard
  9
$DIMAUNIT
 70
     0
  9
$DIMADEC
 70
     0
  9
$DIMALTRND
 40
0.0
  9
$DIMAZIN
 70
     0
  9
$DIMDSEP
 70
    46
  9
$DIMATFIT
 70
     3
  9
$DIMFRAC
 70
     0
  9
$DIMLDRBLK
  1
OPEN30
  9
$DIMLUNIT
 70
     2
  9
$DIMLWD
 70
    -2
  9
$DIMLWE
 70
    -2
  9
$DIMTMOVE
 70
     0
  9
$LUNITS
 70
     2
  9
$LUPREC
 70
     4
  9
$SKETCHINC
 40
1.0
  9
$FILLETRAD
 40
0.0
  9
$AUNITS
 70
     0
  9
$AUPREC
 70
     0
  9
$MENU
  1
.
  9
$ELEVATION
 40
0.0
  9
$PELEVATION
 40
0.0
  9
$THICKNESS
 40
0.0
  9
$LIMCHECK
 70
     0
  9
$CHAMFERA
 40
0.0
  9
$CHAMFERB
 40
0.0
  9
$CHAMFERC
 40
0.0
  9
$CHAMFERD
 40
0.0
  9
$SKPOLY
 70
     0
  9
$TDCREATE
 40
2454349.434269746
  9
$TDUCREATE
 40
2454349.059269746
  9
$TDUPDATE
 40
2455042.676538820
  9
$TDUUPDATE
 40
2455042.301538820
  9
$TDINDWG
 40
0.2981340856
  9
$TDUSRTIMER
 40
0.2981340856
  9
$USRTIMER
 70
     1
  9
$ANGBASE
 50
0.0
  9
$ANGDIR
 70
     0
  9
$PDMODE
 70
     0
  9
$PDSIZE
 40
0.0
  9
$PLINEWID
 40
0.0
  9
$SPLFRAME
 70
     0
  9
$SPLINETYPE
 70
     6
  9
$SPLINESEGS
 70
     8
  9
$HANDSEED
  5
21C
  9
$SURFTAB1
 70
     6
  9
$SURFTAB2
 70
     6
  9
$SURFTYPE
 70
     6
  9
$SURFU
 70
     6
  9
$SURFV
 70
     6
  9
$UCSBASE
  2

  9
$UCSNAME
  2

  9
$UCSORG
 10
0.0
 20
0.0
 30
0.0
  9
$UCSXDIR
 10
1.0
 20
0.0
 30
0.0
  9
$UCSYDIR
 10
0.0
 20
1.0
 30
0.0
  9
$UCSORTHOREF
  2

  9
$UCSORTHOVIEW
 70
     0
  9
$UCSORGTOP
 10
0.0
 20
0.0
 30
0.0
  9
$UCSORGBOTTOM
 10
0.0
 20
0.0
 30
0.0
  9
$UCSORGLEFT
 10
0.0
 20
0.0
 30
0.0
  9
$UCSORGRIGHT
 10
0.0
 20
0.0
 30
0.0
  9
$UCSORGFRONT
 10
0.0
 20
0.0
 30
0.0
  9
$UCSORGBACK
 10
0.0
 20
0.0
 30
0.0
  9
$PUCSBASE
  2

  9
$PUCSNAME
  2

  9
$PUCSORG
 10
0.0
 20
0.0
 30
0.0
  9
$PUCSXDIR
 10
1.0
 20
0.0
 30
0.0
  9
$PUCSYDIR
 10
0.0
 20
1.0
 30
0.0
  9
$PUCSORTHOREF
  2

  9
$PUCSORTHOVIEW
 70
     0
  9
$PUCSORGTOP
 10
0.0
 20
0.0
 30
0.0
  9
$PUCSORGBOTTOM
 10
0.0
 20
0.0
 30
0.0
  9
$PUCSORGLEFT
 10
0.0
 20
0.0
 30
0.0
  9
$PUCSORGRIGHT
 10
0.0
 20
0.0
 30
0.0
  9
$PUCSORGFRONT
 10
0.0
 20
0.0
 30
0.0
  9
$PUCSORGBACK
 10
0.0
 20
0.0
 30
0.0
  9
$USERI1
 70
     0
  9
$USERI2
 70
     0
  9
$USERI3
 70
     0
  9
$USERI4
 70
     0
  9
$USERI5
 70
     0
  9
$USERR1
 40
0.0
  9
$USERR2
 40
0.0
  9
$USERR3
 40
0.0
  9
$USERR4
 40
0.0
  9
$USERR5
 40
0.0
  9
$WORLDVIEW
 70
     1
  9
$SHADEDGE
 70
     3
  9
$SHADEDIF
 70
    70
  9
$TILEMODE
 70
     1
  9
$MAXACTVP
 70
    64
  9
$PINSBASE
 10
0.0
 20
0.0
 30
0.0
  9
$PLIMCHECK
 70
     0
  9
$PEXTMIN
 10
0.0
 20
0.0
 30
0.0
  9
$PEXTMAX
 10
0.0
 20
0.0
 30
0.0
  9
$PLIMMIN
 10
0.0
 20
0.0
  9
$PLIMMAX
 10
12.0
 20
9.0
  9
$UNITMODE
 70
     0
  9
$VISRETAIN
 70
     1
  9
$PLINEGEN
 70
     0
  9
$PSLTSCALE
 70
     1
  9
$TREEDEPTH
 70
  3020
  9
$CMLSTYLE
  2
Standard
  9
$CMLJUST
 70
     0
  9
$CMLSCALE
 40
20.0
  9
$PROXYGRAPHICS
 70
     1
  9
$MEASUREMENT
 70
     1
  9
$CELWEIGHT
370
    -1
  9
$ENDCAPS
280
     0
  9
$JOINSTYLE
280
     0
  9
$LWDISPLAY
290
     0
  9
$INSUNITS
 70
     4
  9
$HYPERLINKBASE
  1

  9
$STYLESHEET
  1

  9
$XEDIT
290
     1
  9
$CEPSNTYPE
380
     0
  9
$PSTYLEMODE
290
     1
  9
$FINGERPRINTGUID
  2
{FDEAD578-A652-11D2-9A35-0060089B3A3F}
  9
$VERSIONGUID
  2
{52F29B02-3412-45F4-A620-25543A93EF6B}
  9
$EXTNAMES
290
     1
  9
$PSVPSCALE
 40
0.0
  9
$OLESTARTUP
290
     0
  0
ENDSEC
  0
SECTION
  2
CLASSES
  0
CLASS
  1
ACDBDICTIONARYWDFLT
  2
AcDbDictionaryWithDefault
  3
ObjectDBX Classes
 90
        0
280
     0
281
     0
  0
CLASS
  1
ACDBPLACEHOLDER
  2
AcDbPlaceHolder
  3
ObjectDBX Classes
 90
        0
280
     0
281
     0
  0
CLASS
  1
LAYOUT
  2
AcDbLayout
  3
ObjectDBX Classes
 90
        0
280
     0
281
     0
  0
CLASS
  1
DICTIONARYVAR
  2
AcDbDictionaryVar
  3
ObjectDBX Classes
 90
        0
280
     0
281
     0
  0
CLASS
  1
DIMASSOC
  2
AcDbDimAssoc
  3
"AcDbDimAssoc|Product Desc:     AcDim ARX App For Dimension|Company:          Autodesk, Inc.|WEB Address:      www.autodesk.com"
 90
    32768
280
     0
281
     0
  0
CLASS
  1
SORTENTSTABLE
  2
AcDbSortentsTable
  3
ObjectDBX Classes
 90
    32768
280
     0
281
     0
  0
ENDSEC
  0
SECTION
  2
TABLES
  0
TABLE
  2
VPORT
  5
1B
330
0
100
AcDbSymbolTable
 70
     3
  0
VPORT
  5
214
330
1B
100
AcDbSymbolTableRecord
100
AcDbViewportTableRecord
  2
*Active
 70
     0
 10
0.0
 20
0.0
 11
1.0
 21
1.0
 12
-0.8779899902617671
 22
5.678421545748619
 13
0.0
 23
0.0
 14
10.0
 24
10.0
 15
10.0
 25
10.0
 16
0.0
 26
0.0
 36
1.0
 17
0.0
 27
0.0
 37
0.0
 40
113.8906858193395
 41
1.39386189258312
 42
50.0
 43
0.0
 44
0.0
 50
0.0
 51
0.0
 71
     0
 72
  1000
 73
     1
 74
     2
 75
     0
 76
     0
 77
     0
 78
     0
281
     0
 65
     1
110
0.0
120
0.0
130
0.0
111
1.0
121
0.0
131
0.0
112
0.0
122
1.0
132
0.0
 79
     0
146
0.0
  0
ENDTAB
  0
TABLE
  2
LTYPE
  5
16
330
0
100
AcDbSymbolTable
 70
     1
  0
LTYPE
  5
17
330
16
100
AcDbSymbolTableRecord
100
AcDbLinetypeTableRecord
  2
ByBlock
 70
     0
  3

 72
    65
 73
     0
 40
0.0
  0
LTYPE
  5
18
330
16
100
AcDbSymbolTableRecord
100
AcDbLinetypeTableRecord
  2
ByLayer
 70
     0
  3

 72
    65
 73
     0
 40
0.0
  0
LTYPE
  5
8
330
16
100
AcDbSymbolTableRecord
100
AcDbLinetypeTableRecord
  2
Continuous
 70
     0
  3
Solid line
 72
    65
 73
     0
 40
0.0
  0
ENDTAB
  0
TABLE
  2
LAYER
  5
10
102
{ACAD_XDICTIONARY
360
11
102
}
330
0
100
AcDbSymbolTable
 70
     7
  0
LAYER
  5
4
330
10
100
AcDbSymbolTableRecord
100
AcDbLayerTableRecord
  2
0
 70
     0
 62
     7
  6
Continuous
370
    -3
390
5
  0
LAYER
  5
1B1
330
10
100
AcDbSymbolTableRecord
100
AcDbLayerTableRecord
  2
WAKU
 70
     0
 62
     4
  6
Continuous
370
    -3
390
5
  0
LAYER
  5
31
330
10
100
AcDbSymbolTableRecord
100
AcDbLayerTableRecord
  2
MOJI1
 70
     0
 62
     2
  6
Continuous
370
    -3
390
5
  0
LAYER
  5
33
330
10
100
AcDbSymbolTableRecord
100
AcDbLayerTableRecord
  2
TOUROKU
 70
     0
 62
     1
  6
Continuous
370
    -3
390
5
  0
LAYER
  5
37
330
10
100
AcDbSymbolTableRecord
100
AcDbLayerTableRecord
  2
GAIKEI
 70
     0
 62
     7
  6
Continuous
370
    -3
390
5
  0
LAYER
  5
9D
330
10
100
AcDbSymbolTableRecord
100
AcDbLayerTableRecord
  2
Defpoints
 70
     0
 62
     7
  6
Continuous
290
     0
370
    -3
390
5
  0
LAYER
  5
2E
330
10
100
AcDbSymbolTableRecord
100
AcDbLayerTableRecord
  2
SUNPO
 70
     0
 62
     3
  6
Continuous
370
    -3
390
5
  0
ENDTAB
  0
TABLE
  2
STYLE
  5
13
330
0
100
AcDbSymbolTable
 70
     1
  0
STYLE
  5
14
330
13
100
AcDbSymbolTableRecord
100
AcDbTextStyleTableRecord
  2
Standard
 70
     0
 40
0.0
 41
1.0
 50
0.0
 71
     0
 42
2.5
  3
MONOTXT.shx
  4
BIGFONT.shx
  0
ENDTAB
  0
TABLE
  2
VIEW
  5
19
330
0
100
AcDbSymbolTable
 70
     0
  0
ENDTAB
  0
TABLE
  2
UCS
  5
1A
330
0
100
AcDbSymbolTable
 70
     0
  0
ENDTAB
  0
TABLE
  2
APPID
  5
1D
330
0
100
AcDbSymbolTable
 70
     1
  0
APPID
  5
1E
330
1D
100
AcDbSymbolTableRecord
100
AcDbRegAppTableRecord
  2
ACAD
 70
     0
  0
ENDTAB
  0
TABLE
  2
DIMSTYLE
  5
1F
330
0
100
AcDbSymbolTable
 70
     2
100
AcDbDimStyleTable
 71
     2
340
20
340
27
  0
DIMSTYLE
105
27
330
1F
100
AcDbSymbolTableRecord
100
AcDbDimStyleTableRecord
  2
ISO-25
 70
     0
 41
2.5
 42
0.625
 43
3.75
 44
1.25
 73
     0
 74
     0
 77
     1
 78
     8
140
2.5
141
2.5
143
0.03937007874016
147
0.625
171
     3
172
     1
271
     2
272
     2
274
     3
278
    44
283
     0
284
     8
340
14
  0
DIMSTYLE
105
20
102
{ACAD_REACTORS
330
91
330
122
330
12F
330
1A1
102
}
330
1F
100
AcDbSymbolTableRecord
100
AcDbDimStyleTableRecord
  2
STANDARD
 70
     0
 40
0.0
 41
2.0
 42
2.0
 43
8.0
 44
2.0
 73
     0
 74
     0
 77
     3
140
3.0
141
0.0
173
     1
279
     2
288
     1
340
14
341
21
343
21
344
21
  0
ENDTAB
  0
TABLE
  2
BLOCK_RECORD
  5
1
330
0
100
AcDbSymbolTable
 70
     9
  0
BLOCK_RECORD
  5
2
330
1
100
AcDbSymbolTableRecord
100
AcDbBlockTableRecord
  2
*Model_Space
340
A
  0
BLOCK_RECORD
  5
C
330
1
100
AcDbSymbolTableRecord
100
AcDbBlockTableRecord
  2
*Paper_Space
340
F
  0
BLOCK_RECORD
  5
21
330
1
100
AcDbSymbolTableRecord
100
AcDbBlockTableRecord
  2
_OPEN30
340
0
102
{BLKREFS
331
99
331
9A
331
128
331
129
331
135
331
136
331
1A7
331
1A8
331
1E2
331
1E3
331
1EE
331
1EF
331
1FA
331
1FB
331
208
331
209
102
}
  0
BLOCK_RECORD
  5
92
330
1
100
AcDbSymbolTableRecord
100
AcDbBlockTableRecord
  2
*D1
340
0
  0
BLOCK_RECORD
  5
123
330
1
100
AcDbSymbolTableRecord
100
AcDbBlockTableRecord
  2
*D2
340
0
  0
BLOCK_RECORD
  5
130
330
1
100
AcDbSymbolTableRecord
100
AcDbBlockTableRecord
  2
*D3
340
0
  0
BLOCK_RECORD
  5
1A2
330
1
100
AcDbSymbolTableRecord
100
AcDbBlockTableRecord
  2
*D4
340
0
  0
BLOCK_RECORD
  5
1DE
330
1
100
AcDbSymbolTableRecord
100
AcDbBlockTableRecord
  2
*D5
340
0
  0
BLOCK_RECORD
  5
1EA
330
1
100
AcDbSymbolTableRecord
100
AcDbBlockTableRecord
  2
*D6
340
0
  0
BLOCK_RECORD
  5
1F6
330
1
100
AcDbSymbolTableRecord
100
AcDbBlockTableRecord
  2
*D7
340
0
  0
BLOCK_RECORD
  5
202
330
1
100
AcDbSymbolTableRecord
100
AcDbBlockTableRecord
  2
*D8
340
0
  0
ENDTAB
  0
ENDSEC
  0
SECTION
  2
BLOCKS
  0
BLOCK
  5
3
330
2
100
AcDbEntity
  8
0
100
AcDbBlockBegin
  2
*Model_Space
 70
     0
 10
0.0
 20
0.0
 30
0.0
  3
*Model_Space
  1

  0
ENDBLK
  5
9
330
2
100
AcDbEntity
  8
0
100
AcDbBlockEnd
  0
BLOCK
  5
D
330
C
100
AcDbEntity
 67
     1
  8
0
100
AcDbBlockBegin
  2
*Paper_Space
 70
     0
 10
0.0
 20
0.0
 30
0.0
  3
*Paper_Space
  1

  0
ENDBLK
  5
E
330
C
100
AcDbEntity
 67
     1
  8
0
100
AcDbBlockEnd
  0
BLOCK
  5
22
330
21
100
AcDbEntity
  8
0
100
AcDbBlockBegin
  2
_OPEN30
 70
     0
 10
0.0
 20
0.0
 30
0.0
  3
_OPEN30
  1

  0
LINE
  5
23
330
21
100
AcDbEntity
  8
0
  6
ByBlock
 62
     0
100
AcDbLine
 10
-1.0
 20
0.26794919
 30
0.0
 11
0.0
 21
0.0
 31
0.0
  0
LINE
  5
24
330
21
100
AcDbEntity
  8
0
  6
ByBlock
 62
     0
100
AcDbLine
 10
0.0
 20
0.0
 30
0.0
 11
-1.0
 21
-0.26794919
 31
0.0
  0
LINE
  5
25
330
21
100
AcDbEntity
  8
0
  6
ByBlock
 62
     0
100
AcDbLine
 10
0.0
 20
0.0
 30
0.0
 11
-1.0
 21
0.0
 31
0.0
  0
ENDBLK
  5
26
330
21
100
AcDbEntity
  8
0
100
AcDbBlockEnd
  0
BLOCK
  5
93
330
92
100
AcDbEntity
  8
0
100
AcDbBlockBegin
  2
*D1
 70
     1
 10
0.0
 20
0.0
 30
0.0
  3
*D1
  1

  0
LINE
  5
94
330
92
100
AcDbEntity
  8
SUNPO
 62
     0
370
    -2
100
AcDbLine
 10
102.9163645955755
 20
216.0293375253579
 30
0.0
 11
102.9163645955755
 21
224.0293375253578
 31
0.0
  0
LINE
  5
95
330
92
100
AcDbEntity
  8
SUNPO
 62
     0
370
    -2
100
AcDbLine
 10
107.3663848617517
 20
216.0293375253579
 30
0.0
 11
107.3663848617517
 21
224.0293375253578
 31
0.0
  0
LINE
  5
96
330
92
100
AcDbEntity
  8
SUNPO
 62
     0
370
    -2
100
AcDbLine
 10
100.9163645955755
 20
222.0293375253579
 30
0.0
 11
98.91636459557554
 21
222.0293375253579
 31
0.0
  0
LINE
  5
97
330
92
100
AcDbEntity
  8
SUNPO
 62
     0
370
    -2
100
AcDbLine
 10
109.3663848617517
 20
222.0293375253579
 30
0.0
 11
116.5330515284184
 21
222.0293375253579
 31
0.0
  0
LINE
  5
98
330
92
100
AcDbEntity
  8
SUNPO
 62
     0
370
    -2
100
AcDbLine
 10
102.9163645955755
 20
222.0293375253579
 30
0.0
 11
107.3663848617517
 21
222.0293375253579
 31
0.0
  0
INSERT
  5
99
330
92
100
AcDbEntity
  8
SUNPO
 62
     0
370
    -2
100
AcDbBlockReference
  2
_OPEN30
 10
102.9163645955755
 20
222.0293375253579
 30
0.0
 41
2.0
 42
2.0
 43
2.0
  0
INSERT
  5
9A
330
92
100
AcDbEntity
  8
SUNPO
 62
     0
370
    -2
100
AcDbBlockReference
  2
_OPEN30
 10
107.3663848617517
 20
222.0293375253579
 30
0.0
 41
2.0
 42
2.0
 43
2.0
 50
180.0
  0
MTEXT
  5
9B
330
92
100
AcDbEntity
  8
SUNPO
 62
     0
100
AcDbMText
 10
113.949718195085
 20
223.7793375253578
 30
0.0
 40
2.5
 41
0.0
 71
     5
 72
     1
  1
\A1;89
 73
     1
 44
1.0
1001
ACAD
1000
MTEXTBEGIN
1070
    73
1070
     1
1070
    44
1040
1.0
1070
    74
1070
     0
1000
MTEXTEND
  0
POINT
  5
9C
330
92
100
AcDbEntity
  8
Defpoints
 62
     0
100
AcDbPoint
 10
102.9163645955755
 20
214.0293375253579
 30
0.0
  0
POINT
  5
9E
330
92
100
AcDbEntity
  8
Defpoints
 62
     0
100
AcDbPoint
 10
107.3663848617517
 20
214.0293375253579
 30
0.0
  0
POINT
  5
9F
330
92
100
AcDbEntity
  8
Defpoints
 62
     0
100
AcDbPoint
 10
107.3663848617517
 20
222.0293375253579
 30
0.0
  0
ENDBLK
  5
A0
330
92
100
AcDbEntity
  8
0
100
AcDbBlockEnd
  0
BLOCK
  5
124
330
123
100
AcDbEntity
  8
0
100
AcDbBlockBegin
  2
*D2
 70
     1
 10
0.0
 20
0.0
 30
0.0
  3
*D2
  1

  0
LINE
  5
125
330
123
100
AcDbEntity
  8
SUNPO
 62
     0
370
    -2
100
AcDbLine
 10
83.46992636773325
 20
183.5094277676693
 30
0.0
 11
91.46992636773324
 21
183.5094277676693
 31
0.0
  0
LINE
  5
126
330
123
100
AcDbEntity
  8
SUNPO
 62
     0
370
    -2
100
AcDbLine
 10
83.46992636773325
 20
214.0094277676693
 30
0.0
 11
91.46992636773324
 21
214.0094277676693
 31
0.0
  0
LINE
  5
127
330
123
100
AcDbEntity
  8
SUNPO
 62
     0
370
    -2
100
AcDbLine
 10
89.46992636773325
 20
185.5094277676693
 30
0.0
 11
89.46992636773325
 21
212.0094277676693
 31
0.0
  0
INSERT
  5
128
330
123
100
AcDbEntity
  8
SUNPO
 62
     0
370
    -2
100
AcDbBlockReference
  2
_OPEN30
 10
89.46992636773325
 20
183.5094277676693
 30
0.0
 41
2.0
 42
2.0
 43
2.0
 50
270.0
  0
INSERT
  5
129
330
123
100
AcDbEntity
  8
SUNPO
 62
     0
370
    -2
100
AcDbBlockReference
  2
_OPEN30
 10
89.46992636773325
 20
214.0094277676693
 30
0.0
 41
2.0
 42
2.0
 43
2.0
 50
90.0
  0
MTEXT
  5
12A
330
123
100
AcDbEntity
  8
SUNPO
 62
     0
100
AcDbMText
 10
87.71992636773322
 20
198.7594277676693
 30
0.0
 40
2.5
 41
0.0
 71
     5
 72
     1
  1
\A1;610
 11
0.0000000000000001
 21
1.0
 31
0.0
 73
     1
 44
1.0
1001
ACAD
1000
MTEXTBEGIN
1070
    73
1070
     1
1070
    44
1040
1.0
1070
    74
1070
     0
1000
MTEXTEND
  0
POINT
  5
12B
330
123
100
AcDbEntity
  8
Defpoints
 62
     0
100
AcDbPoint
 10
81.46992636773324
 20
183.5094277676693
 30
0.0
  0
POINT
  5
12C
330
123
100
AcDbEntity
  8
Defpoints
 62
     0
100
AcDbPoint
 10
81.46992636773324
 20
214.0094277676693
 30
0.0
  0
POINT
  5
12D
330
123
100
AcDbEntity
  8
Defpoints
 62
     0
100
AcDbPoint
 10
89.46992636773325
 20
214.0094277676693
 30
0.0
  0
ENDBLK
  5
12E
330
123
100
AcDbEntity
  8
0
100
AcDbBlockEnd
  0
BLOCK
  5
131
330
130
100
AcDbEntity
  8
0
100
AcDbBlockBegin
  2
*D3
 70
     1
 10
0.0
 20
0.0
 30
0.0
  3
*D3
  1

  0
LINE
  5
132
330
130
100
AcDbEntity
  8
SUNPO
 62
     0
370
    -2
100
AcDbLine
 10
26.14237538071063
 20
216.009141323318
 30
0.0
 11
26.14237538071063
 21
224.0293375253578
 31
0.0
  0
LINE
  5
133
330
130
100
AcDbEntity
  8
SUNPO
 62
     0
370
    -2
100
AcDbLine
 10
76.24237538071065
 20
216.009141323318
 30
0.0
 11
76.24237538071065
 21
224.0293375253578
 31
0.0
  0
LINE
  5
134
330
130
100
AcDbEntity
  8
SUNPO
 62
     0
370
    -2
100
AcDbLine
 10
28.14237538071063
 20
222.0293375253579
 30
0.0
 11
74.24237538071065
 21
222.0293375253579
 31
0.0
  0
INSERT
  5
135
330
130
100
AcDbEntity
  8
SUNPO
 62
     0
370
    -2
100
AcDbBlockReference
  2
_OPEN30
 10
26.14237538071063
 20
222.0293375253579
 30
0.0
 41
2.0
 42
2.0
 43
2.0
 50
180.0
  0
INSERT
  5
136
330
130
100
AcDbEntity
  8
SUNPO
 62
     0
370
    -2
100
AcDbBlockReference
  2
_OPEN30
 10
76.24237538071065
 20
222.0293375253579
 30
0.0
 41
2.0
 42
2.0
 43
2.0
  0
MTEXT
  5
137
330
130
100
AcDbEntity
  8
SUNPO
 62
     0
100
AcDbMText
 10
51.19237538071065
 20
223.7793375253578
 30
0.0
 40
2.5
 41
0.0
 71
     5
 72
     1
  1
\A1;1020
 73
     1
 44
1.0
1001
ACAD
1000
MTEXTBEGIN
1070
    73
1070
     1
1070
    44
1040
1.0
1070
    74
1070
     0
1000
MTEXTEND
  0
POINT
  5
138
330
130
100
AcDbEntity
  8
Defpoints
 62
     0
100
AcDbPoint
 10
26.14237538071063
 20
214.009141323318
 30
0.0
  0
POINT
  5
139
330
130
100
AcDbEntity
  8
Defpoints
 62
     0
100
AcDbPoint
 10
76.24237538071065
 20
214.009141323318
 30
0.0
  0
POINT
  5
13A
330
130
100
AcDbEntity
  8
Defpoints
 62
     0
100
AcDbPoint
 10
76.24237538071065
 20
222.0293375253579
 30
0.0
  0
ENDBLK
  5
13B
330
130
100
AcDbEntity
  8
0
100
AcDbBlockEnd
  0
BLOCK
  5
1A3
330
1A2
100
AcDbEntity
  8
0
100
AcDbBlockBegin
  2
*D4
 70
     1
 10
0.0
 20
0.0
 30
0.0
  3
*D4
  1

  0
LINE
  5
1A4
330
1A2
100
AcDbEntity
  8
SUNPO
 62
     0
370
    -2
100
AcDbLine
 10
20.89115953095074
 20
215.9981751120033
 30
0.0
 11
20.89115953095074
 21
230.0293375253578
 31
0.0
  0
LINE
  5
1A5
330
1A2
100
AcDbEntity
  8
SUNPO
 62
     0
370
    -2
100
AcDbLine
 10
81.49359123047053
 20
215.9855138543058
 30
0.0
 11
81.49359123047053
 21
230.0293375253578
 31
0.0
  0
LINE
  5
1A6
330
1A2
100
AcDbEntity
  8
SUNPO
 62
     0
370
    -2
100
AcDbLine
 10
22.89115953095075
 20
228.0293375253578
 30
0.0
 11
79.49359123047054
 21
228.0293375253578
 31
0.0
  0
INSERT
  5
1A7
330
1A2
100
AcDbEntity
  8
SUNPO
 62
     0
370
    -2
100
AcDbBlockReference
  2
_OPEN30
 10
20.89115953095074
 20
228.0293375253578
 30
0.0
 41
2.0
 42
2.0
 43
2.0
 50
180.0
  0
INSERT
  5
1A8
330
1A2
100
AcDbEntity
  8
SUNPO
 62
     0
370
    -2
100
AcDbBlockReference
  2
_OPEN30
 10
81.49359123047053
 20
228.0293375253578
 30
0.0
 41
2.0
 42
2.0
 43
2.0
  0
MTEXT
  5
1A9
330
1A2
100
AcDbEntity
  8
SUNPO
 62
     0
100
AcDbMText
 10
51.19237538071065
 20
229.7793375253578
 30
0.0
 40
2.5
 41
0.0
 71
     5
 72
     1
  1
\A1;1230
 73
     1
 44
1.0
1001
ACAD
1000
MTEXTBEGIN
1070
    73
1070
     1
1070
    44
1040
1.0
1070
    74
1070
     0
1000
MTEXTEND
  0
POINT
  5
1AA
330
1A2
100
AcDbEntity
  8
Defpoints
 62
     0
100
AcDbPoint
 10
20.89115953095074
 20
213.9981751120033
 30
0.0
  0
POINT
  5
1AB
330
1A2
100
AcDbEntity
  8
Defpoints
 62
     0
100
AcDbPoint
 10
81.49359123047053
 20
213.9855138543058
 30
0.0
  0
POINT
  5
1AC
330
1A2
100
AcDbEntity
  8
Defpoints
 62
     0
100
AcDbPoint
 10
81.49359123047053
 20
228.0293375253578
 30
0.0
  0
ENDBLK
  5
1AD
330
1A2
100
AcDbEntity
  8
0
100
AcDbBlockEnd
  0
BLOCK
  5
1E8
330
1DE
100
AcDbEntity
  8
0
100
AcDbBlockBegin
  2
*D5
 70
     1
 10
0.0
 20
0.0
 30
0.0
  3
*D5
  1

  0
LINE
  5
1DF
330
1DE
100
AcDbEntity
  8
SUNPO
 62
     0
370
    -2
100
AcDbLine
 10
-44.98523924269204
 20
33.67572735828756
 30
0.0
 11
-44.98523924269204
 21
47.70688977164207
 31
0.0
  0
LINE
  5
1E0
330
1DE
100
AcDbEntity
  8
SUNPO
 62
     0
370
    -2
100
AcDbLine
 10
15.61719245682775
 20
33.66306610058999
 30
0.0
 11
15.61719245682775
 21
47.70688977164207
 31
0.0
  0
LINE
  5
1E1
330
1DE
100
AcDbEntity
  8
SUNPO
 62
     0
370
    -2
100
AcDbLine
 10
-42.98523924269204
 20
45.70688977164206
 30
0.0
 11
13.61719245682775
 21
45.70688977164206
 31
0.0
  0
INSERT
  5
1E2
330
1DE
100
AcDbEntity
  8
SUNPO
 62
     0
370
    -2
100
AcDbBlockReference
  2
_OPEN30
 10
-44.98523924269204
 20
45.70688977164206
 30
0.0
 41
2.0
 42
2.0
 43
2.0
 50
180.0
  0
INSERT
  5
1E3
330
1DE
100
AcDbEntity
  8
SUNPO
 62
     0
370
    -2
100
AcDbBlockReference
  2
_OPEN30
 10
15.61719245682775
 20
45.70688977164206
 30
0.0
 41
2.0
 42
2.0
 43
2.0
  0
MTEXT
  5
1E4
330
1DE
100
AcDbEntity
  8
SUNPO
 62
     0
100
AcDbMText
 10
-14.68402339293215
 20
47.45688977164206
 30
0.0
 40
2.5
 41
0.0
 71
     5
 72
     1
  1
\A1;1230
 73
     1
 44
1.0
1001
ACAD
1000
MTEXTBEGIN
1070
    73
1070
     1
1070
    44
1040
1.0
1070
    74
1070
     0
1000
MTEXTEND
  0
POINT
  5
1E5
330
1DE
100
AcDbEntity
  8
Defpoints
 62
     0
100
AcDbPoint
 10
-44.98523924269204
 20
31.67572735828756
 30
0.0
  0
POINT
  5
1E6
330
1DE
100
AcDbEntity
  8
Defpoints
 62
     0
100
AcDbPoint
 10
15.61719245682775
 20
31.66306610058999
 30
0.0
  0
POINT
  5
1E7
330
1DE
100
AcDbEntity
  8
Defpoints
 62
     0
100
AcDbPoint
 10
15.61719245682775
 20
45.70688977164206
 30
0.0
  0
ENDBLK
  5
1E9
330
1DE
100
AcDbEntity
  8
0
100
AcDbBlockEnd
  0
BLOCK
  5
1F4
330
1EA
100
AcDbEntity
  8
0
100
AcDbBlockBegin
  2
*D6
 70
     1
 10
0.0
 20
0.0
 30
0.0
  3
*D6
  1

  0
LINE
  5
1EB
330
1EA
100
AcDbEntity
  8
SUNPO
 62
     0
370
    -2
100
AcDbLine
 10
-39.73402339293216
 20
33.6866935696022
 30
0.0
 11
-39.73402339293216
 21
41.70688977164206
 31
0.0
  0
LINE
  5
1EC
330
1EA
100
AcDbEntity
  8
SUNPO
 62
     0
370
    -2
100
AcDbLine
 10
10.36597660706786
 20
33.6866935696022
 30
0.0
 11
10.36597660706786
 21
41.70688977164206
 31
0.0
  0
LINE
  5
1ED
330
1EA
100
AcDbEntity
  8
SUNPO
 62
     0
370
    -2
100
AcDbLine
 10
-37.73402339293216
 20
39.70688977164207
 30
0.0
 11
8.365976607067864
 21
39.70688977164207
 31
0.0
  0
INSERT
  5
1EE
330
1EA
100
AcDbEntity
  8
SUNPO
 62
     0
370
    -2
100
AcDbBlockReference
  2
_OPEN30
 10
-39.73402339293216
 20
39.70688977164207
 30
0.0
 41
2.0
 42
2.0
 43
2.0
 50
180.0
  0
INSERT
  5
1EF
330
1EA
100
AcDbEntity
  8
SUNPO
 62
     0
370
    -2
100
AcDbBlockReference
  2
_OPEN30
 10
10.36597660706786
 20
39.70688977164207
 30
0.0
 41
2.0
 42
2.0
 43
2.0
  0
MTEXT
  5
1F0
330
1EA
100
AcDbEntity
  8
SUNPO
 62
     0
100
AcDbMText
 10
-14.68402339293215
 20
41.45688977164207
 30
0.0
 40
2.5
 41
0.0
 71
     5
 72
     1
  1
\A1;1020
 73
     1
 44
1.0
1001
ACAD
1000
MTEXTBEGIN
1070
    73
1070
     1
1070
    44
1040
1.0
1070
    74
1070
     0
1000
MTEXTEND
  0
POINT
  5
1F1
330
1EA
100
AcDbEntity
  8
Defpoints
 62
     0
100
AcDbPoint
 10
-39.73402339293216
 20
31.6866935696022
 30
0.0
  0
POINT
  5
1F2
330
1EA
100
AcDbEntity
  8
Defpoints
 62
     0
100
AcDbPoint
 10
10.36597660706786
 20
31.6866935696022
 30
0.0
  0
POINT
  5
1F3
330
1EA
100
AcDbEntity
  8
Defpoints
 62
     0
100
AcDbPoint
 10
10.36597660706786
 20
39.70688977164207
 30
0.0
  0
ENDBLK
  5
1F5
330
1EA
100
AcDbEntity
  8
0
100
AcDbBlockEnd
  0
BLOCK
  5
200
330
1F6
100
AcDbEntity
  8
0
100
AcDbBlockBegin
  2
*D7
 70
     1
 10
0.0
 20
0.0
 30
0.0
  3
*D7
  1

  0
LINE
  5
1F7
330
1F6
100
AcDbEntity
  8
SUNPO
 62
     0
370
    -2
100
AcDbLine
 10
17.59352759409046
 20
1.186980013953529
 30
0.0
 11
25.59352759409045
 21
1.186980013953527
 31
0.0
  0
LINE
  5
1F8
330
1F6
100
AcDbEntity
  8
SUNPO
 62
     0
370
    -2
100
AcDbLine
 10
17.59352759409046
 20
31.68698001395353
 30
0.0
 11
25.59352759409046
 21
31.68698001395353
 31
0.0
  0
LINE
  5
1F9
330
1F6
100
AcDbEntity
  8
SUNPO
 62
     0
370
    -2
100
AcDbLine
 10
23.59352759409045
 20
3.186980013953527
 30
0.0
 11
23.59352759409046
 21
29.68698001395353
 31
0.0
  0
INSERT
  5
1FA
330
1F6
100
AcDbEntity
  8
SUNPO
 62
     0
370
    -2
100
AcDbBlockReference
  2
_OPEN30
 10
23.59352759409045
 20
1.186980013953527
 30
0.0
 41
2.0
 42
2.0
 43
2.0
 50
270.0
  0
INSERT
  5
1FB
330
1F6
100
AcDbEntity
  8
SUNPO
 62
     0
370
    -2
100
AcDbBlockReference
  2
_OPEN30
 10
23.59352759409046
 20
31.68698001395353
 30
0.0
 41
2.0
 42
2.0
 43
2.0
 50
90.0
  0
MTEXT
  5
1FC
330
1F6
100
AcDbEntity
  8
SUNPO
 62
     0
100
AcDbMText
 10
21.84352759409045
 20
16.43698001395353
 30
0.0
 40
2.5
 41
0.0
 71
     5
 72
     1
  1
\A1;610
 11
0.0000000000000001
 21
1.0
 31
0.0
 73
     1
 44
1.0
1001
ACAD
1000
MTEXTBEGIN
1070
    73
1070
     1
1070
    44
1040
1.0
1070
    74
1070
     0
1000
MTEXTEND
  0
POINT
  5
1FD
330
1F6
100
AcDbEntity
  8
Defpoints
 62
     0
100
AcDbPoint
 10
15.59352759409046
 20
1.18698001395353
 30
0.0
  0
POINT
  5
1FE
330
1F6
100
AcDbEntity
  8
Defpoints
 62
     0
100
AcDbPoint
 10
15.59352759409046
 20
31.68698001395353
 30
0.0
  0
POINT
  5
1FF
330
1F6
100
AcDbEntity
  8
Defpoints
 62
     0
100
AcDbPoint
 10
23.59352759409046
 20
31.68698001395353
 30
0.0
  0
ENDBLK
  5
201
330
1F6
100
AcDbEntity
  8
0
100
AcDbBlockEnd
  0
BLOCK
  5
20E
330
202
100
AcDbEntity
  8
0
100
AcDbBlockBegin
  2
*D8
 70
     1
 10
0.0
 20
0.0
 30
0.0
  3
*D8
  1

  0
LINE
  5
203
330
202
100
AcDbEntity
  8
SUNPO
 62
     0
370
    -2
100
AcDbLine
 10
37.03996582193275
 20
33.70688977164207
 30
0.0
 11
37.03996582193275
 21
41.70688977164206
 31
0.0
  0
LINE
  5
204
330
202
100
AcDbEntity
  8
SUNPO
 62
     0
370
    -2
100
AcDbLine
 10
41.48998608810893
 20
33.70688977164207
 30
0.0
 11
41.48998608810893
 21
41.70688977164206
 31
0.0
  0
LINE
  5
205
330
202
100
AcDbEntity
  8
SUNPO
 62
     0
370
    -2
100
AcDbLine
 10
35.03996582193276
 20
39.70688977164207
 30
0.0
 11
33.03996582193275
 21
39.70688977164207
 31
0.0
  0
LINE
  5
206
330
202
100
AcDbEntity
  8
SUNPO
 62
     0
370
    -2
100
AcDbLine
 10
43.48998608810894
 20
39.70688977164207
 30
0.0
 11
50.65665275477559
 21
39.70688977164207
 31
0.0
  0
LINE
  5
207
330
202
100
AcDbEntity
  8
SUNPO
 62
     0
370
    -2
100
AcDbLine
 10
37.03996582193275
 20
39.70688977164207
 30
0.0
 11
41.48998608810893
 21
39.70688977164207
 31
0.0
  0
INSERT
  5
208
330
202
100
AcDbEntity
  8
SUNPO
 62
     0
370
    -2
100
AcDbBlockReference
  2
_OPEN30
 10
37.03996582193275
 20
39.70688977164207
 30
0.0
 41
2.0
 42
2.0
 43
2.0
  0
INSERT
  5
209
330
202
100
AcDbEntity
  8
SUNPO
 62
     0
370
    -2
100
AcDbBlockReference
  2
_OPEN30
 10
41.48998608810893
 20
39.70688977164207
 30
0.0
 41
2.0
 42
2.0
 43
2.0
 50
180.0
  0
MTEXT
  5
20A
330
202
100
AcDbEntity
  8
SUNPO
 62
     0
100
AcDbMText
 10
48.07331942144227
 20
41.45688977164207
 30
0.0
 40
2.5
 41
0.0
 71
     5
 72
     1
  1
\A1;89
 73
     1
 44
1.0
1001
ACAD
1000
MTEXTBEGIN
1070
    73
1070
     1
1070
    44
1040
1.0
1070
    74
1070
     0
1000
MTEXTEND
  0
POINT
  5
20B
330
202
100
AcDbEntity
  8
Defpoints
 62
     0
100
AcDbPoint
 10
37.03996582193275
 20
31.70688977164207
 30
0.0
  0
POINT
  5
20C
330
202
100
AcDbEntity
  8
Defpoints
 62
     0
100
AcDbPoint
 10
41.48998608810893
 20
31.70688977164207
 30
0.0
  0
POINT
  5
20D
330
202
100
AcDbEntity
  8
Defpoints
 62
     0
100
AcDbPoint
 10
41.48998608810893
 20
39.70688977164207
 30
0.0
  0
ENDBLK
  5
20F
330
202
100
AcDbEntity
  8
0
100
AcDbBlockEnd
  0
ENDSEC
  0
SECTION
  2
ENTITIES
  0
TEXT
  5
30
330
2
100
AcDbEntity
  8
MOJI1
100
AcDbText
 10
-36.37639882960184
 20
58.17838737121935
 30
0.0
 40
4.0
  1
ハイビジョンプラズマディスプレイ（ＳＰ付）
100
AcDbText
  0
TEXT
  5
32
330
2
100
AcDbEntity
  8
TOUROKU
100
AcDbText
 10
14.42355120332585
 20
52.17838737121872
 30
0.0
 40
2.0
  1
ＴＨ４２ＰＨ１２ＫＲ＋ＴＹＳＰ４２Ｐ８Ｋ
 72
     2
 11
61.62355120332586
 21
52.17838737121872
 31
0.0
100
AcDbText
  0
TEXT
  5
34
330
2
100
AcDbEntity
  8
MOJI1
100
AcDbText
 10
-21.87639882960164
 20
-44.8216126287811
 30
0.0
 40
3.0
  1
ビデオ・音声／Ｓ映像・音声／外部スピーカ
100
AcDbText
  0
TEXT
  5
35
330
2
100
AcDbEntity
  8
MOJI1
100
AcDbText
 10
-21.87639882960164
 20
-49.82161262878111
 30
0.0
 40
3.0
  1
シリアル／ＰＣ／拡張スロット２、３
100
AcDbText
  0
LINE
  5
36
330
2
100
AcDbEntity
  8
GAIKEI
  6
Continuous
 62
     1
100
AcDbLine
 10
38.23072104961898
 20
31.68448814617682
 30
0.0
 11
38.23072104961898
 21
1.181510594429312
 31
0.0
  0
LINE
  5
38
330
2
100
AcDbEntity
  8
GAIKEI
  6
Continuous
 62
     1
100
AcDbLine
 10
37.25388928891567
 20
31.59358552283487
 30
0.0
 11
37.25388928891567
 21
1.514267038647489
 31
0.0
  0
LINE
  5
39
330
2
100
AcDbEntity
  8
GAIKEI
  6
Continuous
 62
     1
100
AcDbLine
 10
38.17633405945554
 20
1.185684508310487
 30
0.0
 11
38.17633405945554
 21
31.68030205642106
 31
0.0
  0
LINE
  5
3A
330
2
100
AcDbEntity
  8
GAIKEI
  6
Continuous
 62
     1
100
AcDbLine
 10
38.23072104961898
 20
31.48991549941082
 30
0.0
 11
38.25091370474695
 21
31.48991549941082
 31
0.0
  0
LINE
  5
3B
330
2
100
AcDbEntity
  8
GAIKEI
  6
Continuous
 62
     1
100
AcDbLine
 10
39.05550254528282
 20
31.48991549941082
 30
0.0
 11
38.25091370474695
 21
31.48991549941082
 31
0.0
  0
LINE
  5
3C
330
2
100
AcDbEntity
  8
GAIKEI
  6
Continuous
 62
     1
100
AcDbLine
 10
40.53034558945938
 20
4.934643960642461
 30
0.0
 11
40.53034558945938
 21
27.93135444368545
 31
0.0
  0
LINE
  5
3D
330
2
100
AcDbEntity
  8
GAIKEI
  6
Continuous
 62
     1
100
AcDbLine
 10
39.05550254528282
 20
30.71137817592671
 30
0.0
 11
39.05550254528282
 21
31.48991549941082
 31
0.0
  0
LINE
  5
3E
330
2
100
AcDbEntity
  8
GAIKEI
  6
Continuous
 62
     1
100
AcDbLine
 10
38.17633405945554
 20
31.48031963366543
 30
0.0
 11
38.23072104961898
 21
31.48031963366543
 31
0.0
  0
LINE
  5
3F
330
2
100
AcDbEntity
  8
GAIKEI
  6
Continuous
 62
     1
100
AcDbLine
 10
39.05550254528282
 20
31.48991549941082
 30
0.0
 11
39.2599643252928
 21
31.48991549941082
 31
0.0
  0
LINE
  5
40
330
2
100
AcDbEntity
  8
GAIKEI
  6
Continuous
 62
     1
100
AcDbLine
 10
37.19423098983793
 20
31.35174970066794
 30
0.0
 11
37.03996582193275
 21
31.10488754982146
 31
0.0
  0
LINE
  5
41
330
2
100
AcDbEntity
  8
GAIKEI
  6
Continuous
 62
     1
100
AcDbLine
 10
37.19427682730674
 20
1.514206199825252
 30
0.0
 11
37.19427682730674
 21
31.55852169952317
 31
0.0
  0
LINE
  5
42
330
2
100
AcDbEntity
  8
GAIKEI
  6
Continuous
 62
     7
100
AcDbLine
 10
37.03996582193275
 20
1.582964069872275
 30
0.0
 11
37.03996582193275
 21
31.29050792539465
 31
0.0
  0
SPLINE
  5
43
330
2
100
AcDbEntity
  8
GAIKEI
  6
Continuous
 62
     1
100
AcDbSpline
210
0.0
220
0.0
230
1.0
 70
     8
 71
     3
 72
    29
 73
    25
 74
    23
 42
0.0000000001
 43
0.0000000001
 44
0.000001
 12
0.9994197136940536
 22
-0.0340622353890022
 32
0.0
 13
0.134655474864125
 23
-0.9908924780666756
 33
0.0
 40
0.0
 40
0.0
 40
0.0
 40
0.0
 40
0.0157297675428462
 40
0.032608021354239
 40
0.0384881347488005
 40
0.0444935701093092
 40
0.0506236493246275
 40
0.056877658255708
 40
0.0632548468085526
 40
0.0697544290724074
 40
0.077970000276019
 40
0.0890978607077163
 40
0.1031238352094606
 40
0.1200291605845653
 40
0.1397902389962345
 40
0.1563907244475616
 40
0.1716727383748546
 40
0.1856479354758815
 40
0.1983270083907893
 40
0.2097195472407276
 40
0.2284440493018486
 40
0.2463225676619396
 40
0.2633752199074998
 40
0.2796189477884862
 40
0.2796189477884862
 40
0.2796189477884862
 40
0.2796189477884862
 10
40.14243426457483
 20
29.77403579858981
 30
0.0
 10
40.14767447783287
 20
29.77385720157491
 30
0.0
 10
40.15852750608158
 20
29.77308871060137
 30
0.0
 10
40.17123364721601
 20
29.77121320745624
 30
0.0
 10
40.18063169423513
 20
29.76931023783578
 30
0.0
 10
40.18648287286339
 20
29.7679550614356
 30
0.0
 10
40.19241368771605
 20
29.76640246111026
 30
0.0
 10
40.19841582233424
 20
29.76464316883306
 30
0.0
 10
40.20448034577486
 20
29.762668527085
 30
0.0
 10
40.2110971112076
 20
29.76028839507069
 30
0.0
 10
40.21910125470116
 20
29.75709837548334
 30
0.0
 10
40.22923845572134
 20
29.75250712139084
 30
0.0
 10
40.24164244532656
 20
29.74594946480875
 30
0.0
 10
40.2559563216918
 20
29.73693389705449
 30
0.0
 10
40.27009019391136
 20
29.72613781674624
 30
0.0
 10
40.28277802866113
 20
29.71447427175667
 30
0.0
 10
40.29316277087119
 20
29.70323590949277
 30
0.0
 10
40.30185870197601
 20
29.69227585657561
 30
0.0
 10
40.30904023551883
 20
29.68181119280192
 30
0.0
 10
40.31635512281307
 20
29.66955527114533
 30
0.0
 10
40.32344140199955
 20
29.65517985488253
 30
0.0
 10
40.32975928883662
 20
29.63841903658664
 30
0.0
 10
40.33426877974266
 20
29.62194394441386
 30
0.0
 10
40.33623939225001
 20
29.61100501188275
 30
0.0
 10
40.33696849454713
 20
29.60563974929176
 30
0.0
 11
40.14243426457483
 21
29.77403579858981
 31
0.0
 11
40.15812504140939
 21
29.77292580981134
 31
0.0
 11
40.17482220965201
 21
29.77046006617332
 31
0.0
 11
40.18058536487512
 21
29.76929312046877
 31
0.0
 11
40.18643592150732
 21
29.76793803583007
 31
0.0
 11
40.19236615120371
 21
29.766385528706
 31
0.0
 11
40.19836767081017
 21
29.76462642801426
 31
0.0
 11
40.20443142394936
 21
29.76265171581201
 31
0.0
 11
40.21054766435577
 21
29.76045257055205
 31
0.0
 11
40.21817885632356
 21
29.75740943977655
 31
0.0
 11
40.2283147011235
 21
29.75281659844916
 31
0.0
 11
40.2407137873281
 21
29.74625984051852
 31
0.0
 11
40.25501759289944
 21
29.73724918707319
 31
0.0
 11
40.27071807404502
 21
29.72524934631167
 31
0.0
 11
40.28293618463647
 21
29.71401125654529
 31
0.0
 11
40.29330670784895
 21
29.70278660266615
 31
0.0
 11
40.30199158356412
 21
29.69183764693094
 31
0.0
 11
40.30916445702843
 21
29.68138254043811
 31
0.0
 11
40.31500207052971
 21
29.67159925964677
 31
0.0
 11
40.32328045570614
 21
29.6548041313697
 31
0.0
 11
40.3295859400622
 21
29.63807442359075
 31
0.0
 11
40.33408791078983
 21
29.6216267551655
 31
0.0
 11
40.33696849454713
 21
29.60563974929176
 31
0.0
  0
SPLINE
  5
44
330
2
100
AcDbEntity
  8
GAIKEI
  6
Continuous
 62
     1
100
AcDbSpline
210
0.0
220
0.0
230
1.0
 70
     8
 71
     3
 72
    15
 73
    11
 74
     9
 42
0.0000000001
 43
0.0000000001
 44
0.000001
 12
-0.1345307900367005
 22
0.9909094138881219
 32
0.0
 13
-0.9994496190759491
 23
0.0331731657961701
 33
0.0
 40
0.0
 40
0.0
 40
0.0
 40
0.0
 40
0.0349733666668508
 40
0.0699031370103205
 40
0.1048023818227415
 40
0.1396860286107853
 40
0.1745696753988894
 40
0.2094689202111004
 40
0.244398690554258
 40
0.2793720572208976
 40
0.2793720572208976
 40
0.2793720572208976
 40
0.2793720572208976
 10
40.3679711190191
 20
29.63996937219486
 30
0.0
 10
40.36640278746979
 20
29.65152118495004
 30
0.0
 10
40.36127771918386
 20
29.67439466141724
 30
0.0
 10
40.34770352195495
 20
29.70677191124762
 30
0.0
 10
40.32870048413305
 20
29.73626588977118
 30
0.0
 10
40.30483861029583
 20
29.76196510529374
 30
0.0
 10
40.27684832880608
 20
29.78309287951686
 30
0.0
 10
40.24557650075865
 20
29.79900146167139
 30
0.0
 10
40.21198780656059
 20
29.80921638991586
 30
0.0
 10
40.18871202725094
 20
29.81199134003259
 30
0.0
 10
40.17706065458668
 20
29.81237806579623
 30
0.0
 11
40.3679711190191
 21
29.63996937219486
 31
0.0
 11
40.36029180280343
 21
29.67408974054411
 31
0.0
 11
40.3467924825768
 21
29.70630555525611
 31
0.0
 11
40.32788672461072
 21
29.73564037777407
 31
0.0
 11
40.30415131512308
 21
29.76120405410836
 31
0.0
 11
40.27630871855603
 21
29.78221978696922
 31
0.0
 11
40.24520510536433
 21
29.79804776039726
 31
0.0
 11
40.21178461754743
 21
29.80820459839924
 31
0.0
 11
40.17706065458668
 21
29.81237806579623
 31
0.0
  0
SPLINE
  5
45
330
2
100
AcDbEntity
  8
GAIKEI
  6
Continuous
 62
     1
100
AcDbSpline
210
0.0
220
0.0
230
1.0
 70
     8
 71
     3
 72
    15
 73
    11
 74
     9
 42
0.0000000001
 43
0.0000000001
 44
0.000001
 12
-0.1364008987339492
 22
0.9906537209462097
 32
0.0
 13
-0.1677708966327061
 23
0.9858260121558256
 33
0.0
 40
0.0
 40
0.0
 40
0.0
 40
0.0
 40
0.0132149830834819
 40
0.026281341926962
 40
0.0392031411315474
 40
0.0519821046088349
 40
0.0646174198414178
 40
0.0770331613891428
 40
0.0890931200094193
 40
0.1007942318374199
 40
0.1007942318374199
 40
0.1007942318374199
 40
0.1007942318374199
 10
40.39136397160564
 20
29.49108930350348
 30
0.0
 10
40.39076312641586
 20
29.49545312755811
 30
0.0
 10
40.38952224059386
 20
29.5041254413897
 30
0.0
 10
40.38753742297345
 20
29.51704174962583
 30
0.0
 10
40.38545453244171
 20
29.52979532112733
 30
0.0
 10
40.38329651187723
 20
29.54239057449715
 30
0.0
 10
40.38109642329696
 20
29.55480721082322
 30
0.0
 10
40.37890581776764
 20
29.56698203044621
 30
0.0
 10
40.37677376169789
 20
29.57885103723069
 30
0.0
 10
40.37542853872915
 20
29.58665638571699
 30
0.0
 10
40.37477417005482
 20
29.59050147252071
 30
0.0
 11
40.39136397160564
 21
29.49108930350348
 31
0.0
 11
40.3894935190475
 21
29.50417131068093
 31
0.0
 11
40.38751072162802
 21
29.51708635294745
 31
0.0
 11
40.38543117896063
 21
29.52983972159041
 31
0.0
 11
40.38327741954361
 21
29.54243588018608
 31
0.0
 11
40.3810790794422
 21
29.55487848668554
 31
0.0
 11
40.37888638763251
 21
29.56709907300263
 31
0.0
 11
40.376767784001
 21
29.57897151508007
 31
0.0
 11
40.37477417005482
 21
29.59050147252071
 31
0.0
  0
LINE
  5
46
330
2
100
AcDbEntity
  8
GAIKEI
  6
Continuous
 62
     1
100
AcDbLine
 10
39.8073001211593
 20
29.78563624506444
 30
0.0
 11
40.14243059151243
 21
29.77393318235442
 31
0.0
  0
LINE
  5
47
330
2
100
AcDbEntity
  8
GAIKEI
  6
Continuous
 62
     1
100
AcDbLine
 10
40.33696855952292
 20
29.60563966546909
 30
0.0
 11
40.33676479113876
 21
29.6056117462835
 31
0.0
  0
LINE
  5
48
330
2
100
AcDbEntity
  8
GAIKEI
  6
Continuous
 62
     1
100
AcDbLine
 10
40.33676479113876
 20
29.6056117462835
 30
0.0
 11
40.43459983545221
 21
28.89421261938867
 31
0.0
  0
LINE
  5
49
330
2
100
AcDbEntity
  8
GAIKEI
  6
Continuous
 62
     1
100
AcDbLine
 10
40.33696855952292
 20
29.60563966546909
 30
0.0
 11
40.33676479113876
 21
29.6056117462835
 31
0.0
  0
LINE
  5
4A
330
2
100
AcDbEntity
  8
GAIKEI
  6
Continuous
 62
     1
100
AcDbLine
 10
40.33696855952292
 20
29.60563966546909
 30
0.0
 11
40.43485755946995
 21
28.89384638093344
 31
0.0
  0
LINE
  5
4B
330
2
100
AcDbEntity
  8
GAIKEI
  6
Continuous
 62
     1
100
AcDbLine
 10
40.37477405369282
 20
29.59050163303908
 30
0.0
 11
40.3679709399114
 21
29.63996942938968
 31
0.0
  0
LINE
  5
4C
330
2
100
AcDbEntity
  8
GAIKEI
  6
Continuous
 62
     1
100
AcDbLine
 10
40.48288540339649
 20
28.82559646181039
 30
0.0
 11
40.39136388377165
 21
29.49108933066231
 31
0.0
  0
LINE
  5
4D
330
2
100
AcDbEntity
  8
GAIKEI
  6
Continuous
 62
     1
100
AcDbLine
 10
40.17706079920595
 20
29.81237790086232
 30
0.0
 11
39.77869237365519
 21
29.82628925577285
 31
0.0
  0
LINE
  5
4E
330
2
100
AcDbEntity
  8
GAIKEI
 62
     1
100
AcDbLine
 10
38.17632181875888
 20
31.48031979450371
 30
0.0
 11
37.1942768273068
 21
31.38167049853473
 31
0.0
  0
LINE
  5
4F
330
2
100
AcDbEntity
  8
GAIKEI
 62
     7
100
AcDbLine
 10
38.21945574598351
 20
31.68445652954347
 30
0.0
 11
37.37029061305611
 21
31.59968592824697
 31
0.0
  0
LINE
  5
50
330
2
100
AcDbEntity
  8
GAIKEI
 62
     7
100
AcDbLine
 10
37.37029061305611
 20
31.5996859282468
 30
0.0
 11
37.25526899672718
 21
31.59365777577403
 31
0.0
  0
ARC
  5
51
330
2
100
AcDbEntity
  8
GAIKEI
 62
     7
100
AcDbCircle
 10
37.2578658907139
 20
31.51864368352608
 30
0.0
 40
0.075059029397968
100
AcDbArc
 50
91.98271636162411
 51
147.904279060687
  0
LINE
  5
52
330
2
100
AcDbEntity
  8
GAIKEI
 62
     7
100
AcDbLine
 10
37.19427891082808
 20
31.55852502274058
 30
0.0
 11
37.04760401105523
 21
31.32457849926425
 31
0.0
  0
ARC
  5
53
330
2
100
AcDbEntity
  8
GAIKEI
 62
     7
100
AcDbCircle
 10
37.10302552179036
 20
31.29426222244308
 30
0.0
 40
0.0631713581653474
100
AcDbArc
 50
151.3207753347368
 51
183.4071168973715
  0
ARC
  5
54
330
2
100
AcDbEntity
  8
GAIKEI
 62
     7
100
AcDbCircle
 10
39.21390258794111
 20
31.6411322337803
 30
0.0
 40
0.0463029825448208
100
AcDbArc
 50
354.1487151821884
 51
95.32435032164219
  0
LINE
  5
55
330
2
100
AcDbEntity
  8
GAIKEI
 62
     7
100
AcDbLine
 10
38.21945574598351
 20
31.68445652954347
 30
0.0
 11
39.20960596030432
 21
31.68723543522549
 31
0.0
  0
LINE
  5
56
330
2
100
AcDbEntity
  8
GAIKEI
 62
     1
100
AcDbLine
 10
39.2599643252928
 20
30.70498922857553
 30
0.0
 11
38.47031806985706
 21
30.7349888783819
 31
0.0
  0
LINE
  5
57
330
2
100
AcDbEntity
  8
GAIKEI
 62
     1
100
AcDbLine
 10
38.38680223422205
 20
30.73808974408155
 30
0.0
 11
38.23072104961898
 21
30.7437655984653
 31
0.0
  0
ELLIPSE
  5
58
330
2
100
AcDbEntity
  8
GAIKEI
 62
     1
100
AcDbEllipse
 10
38.43159896711245
 20
30.941851817464
 30
0.0
 11
0.007264347832067
 21
0.2549335227837224
 31
0.0
210
0.0
220
0.0
230
1.0
 40
0.2552453852602103
 41
0.0
 42
6.283185307179586
  0
ARC
  5
59
330
2
100
AcDbEntity
  8
GAIKEI
 62
     1
100
AcDbCircle
 10
38.74791865486935
 20
30.73873555999398
 30
0.0
 40
0.4559027607804774
100
AcDbArc
 50
179.6480118625691
 51
227.0790051900858
  0
LINE
  5
5A
330
2
100
AcDbEntity
  8
GAIKEI
 62
     1
100
AcDbLine
 10
38.43745377669382
 20
30.4048809708288
 30
0.0
 11
39.36495444860361
 21
30.41430564925452
 31
0.0
  0
ARC
  5
5B
330
2
100
AcDbEntity
  8
GAIKEI
 62
     1
100
AcDbCircle
 10
39.51349717032281
 20
30.70892469735554
 30
0.0
 40
0.4580011966388159
100
AcDbArc
 50
179.6930692744338
 51
220.5186299773986
  0
ARC
  5
5C
330
2
100
AcDbEntity
  8
GAIKEI
 62
     7
100
AcDbCircle
 10
39.71157231522034
 20
30.70379115390847
 30
0.0
 40
0.4516095791159937
100
AcDbArc
 50
179.8479998971329
 51
219.8105702442835
  0
LINE
  5
5D
330
2
100
AcDbEntity
  8
GAIKEI
 62
     1
100
AcDbLine
 10
38.43745377669387
 20
30.4048809708288
 30
0.0
 11
40.74409764122856
 21
28.27365841708695
 31
0.0
  0
LINE
  5
5E
330
2
100
AcDbEntity
  8
GAIKEI
 62
     7
100
AcDbLine
 10
39.36466145341944
 20
30.41464747696932
 30
0.0
 11
40.93180680955538
 21
28.18765715081804
 31
0.0
  0
ARC
  5
5F
330
2
100
AcDbEntity
  8
GAIKEI
 62
     1
100
AcDbCircle
 10
40.45348340189775
 20
29.83605511551878
 30
0.0
 40
0.2492818962188115
100
AcDbArc
 50
7.809250808790022
 51
77.92644098243276
  0
LINE
  5
60
330
2
100
AcDbEntity
  8
GAIKEI
 62
     7
100
AcDbLine
 10
39.2599643252928
 20
31.63641179457755
 30
0.0
 11
39.2599643252928
 21
30.70498922857553
 31
0.0
  0
LINE
  5
61
330
2
100
AcDbEntity
  8
GAIKEI
 62
     7
100
AcDbLine
 10
40.62388819560169
 20
30.16754744449281
 30
0.0
 11
39.30267502635093
 21
30.51214723748166
 31
0.0
  0
LINE
  5
62
330
2
100
AcDbEntity
  8
GAIKEI
 62
     1
100
AcDbLine
 10
40.50562502582045
 20
30.07982286325654
 30
0.0
 11
39.39128867346204
 21
30.38289478993898
 31
0.0
  0
LINE
  5
63
330
2
100
AcDbEntity
  8
GAIKEI
 62
     1
100
AcDbLine
 10
40.70045343670165
 20
29.8699264262616
 30
0.0
 11
40.93180680955538
 21
28.18765715081804
 31
0.0
  0
ARC
  5
64
330
2
100
AcDbEntity
  8
GAIKEI
 62
     7
100
AcDbCircle
 10
40.57190619001864
 20
29.92298900023309
 30
0.0
 40
0.2500219221651978
100
AcDbArc
 50
7.999954115666367
 51
78.00011128326026
  0
LINE
  5
65
330
2
100
AcDbEntity
  8
GAIKEI
 62
     7
100
AcDbLine
 10
40.81949494389028
 20
29.95778512817162
 30
0.0
 11
41.10890737101828
 21
27.89850648012055
 31
0.0
  0
ARC
  5
66
330
2
100
AcDbEntity
  8
GAIKEI
 62
     1
100
AcDbCircle
 10
40.69624412379948
 20
28.24634919650805
 30
0.0
 40
0.0550976647323773
100
AcDbArc
 50
318.1467719571983
 51
29.71269670511139
  0
ARC
  5
67
330
2
100
AcDbEntity
  8
GAIKEI
 62
     1
100
AcDbCircle
 10
40.63265752694116
 20
27.98235405924379
 30
0.0
 40
0.3069120172292935
100
AcDbArc
 50
326.1444489288909
 51
33.85555107110908
  0
ARC
  5
68
330
2
100
AcDbEntity
  8
GAIKEI
 62
     1
100
AcDbCircle
 10
40.08121680984681
 20
27.33780821377104
 30
0.0
 40
1.146833292008832
100
AcDbArc
 50
29.34811999867845
 51
54.68931910532308
  0
ARC
  5
69
330
2
100
AcDbEntity
  8
GAIKEI
 62
     1
100
AcDbCircle
 10
40.40892391877503
 20
27.58693635824034
 30
0.0
 40
0.7412429602107574
100
AcDbArc
 50
0.1436196268528104
 51
24.97346866073789
  0
ARC
  5
6A
330
2
100
AcDbEntity
  8
GAIKEI
 62
     7
100
AcDbCircle
 10
40.36267449985246
 20
27.64089949317599
 30
0.0
 40
0.7892119627439312
100
AcDbArc
 50
356.2144820540972
 51
43.85131920853747
  0
LINE
  5
6B
330
2
100
AcDbEntity
  8
GAIKEI
 62
     1
100
AcDbLine
 10
40.73728397565616
 20
28.20958667185937
 30
0.0
 11
40.53034544620845
 21
27.93135458499069
 31
0.0
  0
ARC
  5
6C
330
2
100
AcDbEntity
  8
GAIKEI
 62
     1
100
AcDbCircle
 10
74.14432991312168
 20
127.4087516082876
 30
0.0
 40
105.0031070433414
100
AcDbArc
 50
251.3295934179256
 51
251.5351965038723
  0
ARC
  5
6D
330
2
100
AcDbEntity
  8
GAIKEI
 62
     1
100
AcDbCircle
 10
40.72902191691719
 20
27.2571706706662
 30
0.0
 40
0.5764246802246466
100
AcDbArc
 50
55.92859297969439
 51
74.03878313188508
  0
ARC
  5
6E
330
2
100
AcDbEntity
  8
GAIKEI
 62
     1
100
AcDbCircle
 10
40.94500908239592
 20
27.55663981789934
 30
0.0
 40
0.2076598915007556
100
AcDbArc
 50
8.907655288637757
 51
59.00386356228973
  0
LINE
  5
6F
330
2
100
AcDbEntity
  8
GAIKEI
 62
     7
100
AcDbLine
 10
41.15016455029047
 20
27.58879438210829
 30
0.0
 11
41.49019260415684
 21
25.18552087943709
 31
0.0
  0
LINE
  5
70
330
2
100
AcDbEntity
  8
GAIKEI
 62
     1
100
AcDbLine
 10
41.15016442659032
 20
27.58879437102314
 30
0.0
 11
41.15016442659032
 21
5.265459315485031
 31
0.0
  0
LINE
  5
71
330
2
100
AcDbEntity
  8
GAIKEI
 62
     7
100
AcDbLine
 10
41.49019275742978
 20
25.18552107576579
 30
0.0
 11
41.49019275742978
 21
6.718121982323282
 31
0.0
  0
LINE
  5
72
330
2
100
AcDbEntity
  8
GAIKEI
 62
     7
100
AcDbLine
 10
41.15016442659032
 20
6.316221107443766
 30
0.0
 11
41.40088162979509
 21
6.526598004452864
 31
0.0
  0
LINE
  5
73
330
2
100
AcDbEntity
  8
GAIKEI
 62
     1
100
AcDbLine
 10
41.15016442659032
 20
6.434850143567018
 30
0.0
 11
41.48775946797093
 21
6.718126117578833
 31
0.0
  0
ARC
  5
74
330
2
100
AcDbEntity
  8
GAIKEI
 62
     7
100
AcDbCircle
 10
41.25858437638896
 20
6.709539505354939
 30
0.0
 40
0.2317673425641828
100
AcDbArc
 50
307.8768217257106
 51
2.123203603631707
  0
ARC
  5
75
330
2
100
AcDbEntity
  8
GAIKEI
 62
     7
100
AcDbCircle
 10
41.46039908183047
 20
6.253111652881955
 30
0.0
 40
0.2477336629285835
100
AcDbArc
 50
131.278921730363
 51
180.2385269562974
  0
ARC
  5
76
330
2
100
AcDbEntity
  8
GAIKEI
 62
     7
100
AcDbCircle
 10
40.33140317251207
 20
5.227113329199141
 30
0.0
 40
0.8196587130288321
100
AcDbArc
 50
312.468195291033
 51
2.681439676979124
  0
ARC
  5
77
330
2
100
AcDbEntity
  8
GAIKEI
 62
     1
100
AcDbCircle
 10
40.38857243996233
 20
5.283397617374362
 30
0.0
 40
0.7618032139408431
100
AcDbArc
 50
304.1043947865994
 51
358.6507224250833
  0
ARC
  5
78
330
2
100
AcDbEntity
  8
GAIKEI
 62
     1
100
AcDbCircle
 10
40.80766323599266
 20
5.423091600886522
 30
0.0
 40
0.3770344851093629
100
AcDbArc
 50
282.2297006437137
 51
335.2862852160568
  0
ARC
  5
79
330
2
100
AcDbEntity
  8
GAIKEI
 62
     1
100
AcDbCircle
 10
71.74101775837669
 20
-87.39741182424209
 30
0.0
 40
97.46442747867723
100
AcDbArc
 50
108.4551067593466
 51
108.6766106751912
  0
LINE
  5
7A
330
2
100
AcDbEntity
  8
GAIKEI
 62
     7
100
AcDbLine
 10
41.21268961547025
 20
6.25538689463795
 30
0.0
 11
41.21266756566467
 21
2.937066237862893
 31
0.0
  0
ARC
  5
7B
330
2
100
AcDbEntity
  8
GAIKEI
 62
     7
100
AcDbCircle
 10
40.71262245126468
 20
2.93706623786295
 30
0.0
 40
0.5000451144000238
100
AcDbArc
 50
272.9999999999991
 51
359.9999999999968
  0
LINE
  5
7C
330
2
100
AcDbEntity
  8
GAIKEI
 62
     7
100
AcDbLine
 10
40.7387927904914
 20
2.437706417913318
 30
0.0
 11
39.30996883673277
 21
2.347102398134921
 31
0.0
  0
LINE
  5
7D
330
2
100
AcDbEntity
  8
GAIKEI
 62
     7
100
AcDbLine
 10
39.36495444860361
 20
2.451693070238917
 30
0.0
 11
40.88482103350691
 21
4.622490242494734
 31
0.0
  0
LINE
  5
7E
330
2
100
AcDbEntity
  8
GAIKEI
 62
     1
100
AcDbLine
 10
38.43745377669387
 20
2.461105540531974
 30
0.0
 11
40.81571741264929
 21
4.652611354779139
 31
0.0
  0
ARC
  5
7F
330
2
100
AcDbEntity
  8
GAIKEI
 62
     1
100
AcDbCircle
 10
39.56381537203697
 20
1.639223528988964
 30
0.0
 40
1.496728948923669
100
AcDbArc
 50
134.0418697611579
 51
152.9577913790027
  0
LINE
  5
80
330
2
100
AcDbEntity
  8
GAIKEI
 62
     1
100
AcDbLine
 10
38.5213489125066
 20
2.712959341392604
 30
0.0
 11
40.51805191171161
 21
4.924220795586677
 31
0.0
  0
ARC
  5
81
330
2
100
AcDbEntity
  8
GAIKEI
 62
     1
100
AcDbCircle
 10
39.70945370560617
 20
2.162150103133512
 30
0.0
 40
0.4500165195584107
100
AcDbArc
 50
139.9537923843608
 51
176.7595130411017
  0
ARC
  5
82
330
2
100
AcDbEntity
  8
GAIKEI
 62
     7
100
AcDbCircle
 10
39.25996432529286
 20
1.236054854827386
 30
0.0
 40
0.0500045114399512
100
AcDbArc
 50
269.9999999999349
 51
356.7637596474809
  0
LINE
  5
83
330
2
100
AcDbEntity
  8
GAIKEI
 62
     7
100
AcDbLine
 10
38.17869791725633
 20
1.185438263625144
 30
0.0
 11
39.27066929649561
 21
1.187209642616835
 31
0.0
  0
LINE
  5
84
330
2
100
AcDbEntity
  8
GAIKEI
 62
     7
100
AcDbLine
 10
39.30974959670664
 20
1.23137747152009
 30
0.0
 11
39.30996883673277
 21
2.359855397053763
 31
0.0
  0
LINE
  5
85
330
2
100
AcDbEntity
  8
GAIKEI
 62
     1
100
AcDbLine
 10
39.26001860408474
 20
2.185046888235831
 30
0.0
 11
39.2599643252928
 21
1.192712154661052
 31
0.0
  0
LINE
  5
86
330
2
100
AcDbEntity
  8
GAIKEI
 62
     1
100
AcDbLine
 10
39.2599643252928
 20
1.376071237197777
 30
0.0
 11
38.25091370474695
 21
1.376071237197777
 31
0.0
  0
LINE
  5
87
330
2
100
AcDbEntity
  8
GAIKEI
 62
     1
100
AcDbLine
 10
39.36495444860361
 20
2.451693070238917
 30
0.0
 11
38.31375835955112
 21
2.462360827427687
 31
0.0
  0
LINE
  5
88
330
2
100
AcDbEntity
  8
GAIKEI
 62
     1
100
AcDbLine
 10
39.05550270153799
 20
2.154608161573776
 30
0.0
 11
39.05550254528282
 21
1.376071237197777
 31
0.0
  0
ARC
  5
89
330
2
100
AcDbEntity
  8
GAIKEI
 62
     1
100
AcDbCircle
 10
39.51349608577641
 20
2.157062448130545
 30
0.0
 40
0.4579999601841901
100
AcDbArc
 50
139.4813421796184
 51
180.3070326346161
  0
ELLIPSE
  5
8A
330
2
100
AcDbEntity
  8
GAIKEI
 62
     1
100
AcDbEllipse
 10
38.42783913557173
 20
1.902232018605502
 30
0.0
 11
0.0042325277078703
 21
-0.2321029173034646
 31
0.0
210
0.0
220
0.0
230
1.0
 40
0.310649656473011
 41
0.0
 42
6.283185307179586
  0
LINE
  5
8B
330
2
100
AcDbEntity
  8
GAIKEI
 62
     7
100
AcDbLine
 10
37.25355949352741
 20
1.278247357442808
 30
0.0
 11
38.17869791725633
 21
1.185438263625144
 31
0.0
  0
LINE
  5
8C
330
2
100
AcDbEntity
  8
GAIKEI
 62
     7
100
AcDbLine
 10
37.04762067922565
 20
1.548894746115422
 30
0.0
 11
37.19548651977931
 21
1.31326057037802
 31
0.0
  0
ARC
  5
8D
330
2
100
AcDbEntity
  8
GAIKEI
 62
     7
100
AcDbCircle
 10
37.25918835669148
 20
1.353249971673562
 30
0.0
 40
0.0752135376242624
100
AcDbArc
 50
212.1189170118201
 51
265.7080609928854
  0
ARC
  5
8E
330
2
100
AcDbEntity
  8
GAIKEI
 62
     1
100
AcDbCircle
 10
37.09451640991176
 20
1.577326128072854
 30
0.0
 40
0.0548411618822489
100
AcDbArc
 50
174.0992861487781
 51
211.227093595699
  0
LINE
  5
8F
330
2
100
AcDbEntity
  8
GAIKEI
 62
     1
100
AcDbLine
 10
37.21422002732015
 20
1.482270865255713
 30
0.0
 11
38.17632181875888
 21
1.38567892498969
 31
0.0
  0
LINE
  5
90
330
2
100
AcDbEntity
  8
GAIKEI
 62
     1
100
AcDbLine
 10
37.21422002732015
 20
1.482270865255713
 30
0.0
 11
37.04762151263429
 21
1.748869871336438
 31
0.0
  0
DIMENSION
  5
91
330
2
100
AcDbEntity
  8
SUNPO
100
AcDbDimension
  2
*D8
 10
41.48998608810893
 20
39.70688977164207
 30
0.0
 11
48.07331942144227
 21
41.45688977164207
 31
0.0
 70
    33
  1
89
 71
     5
 42
4.450020266176181
  3
STANDARD
100
AcDbAlignedDimension
 13
37.03996582193275
 23
31.70688977164207
 33
0.0
 14
41.48998608810893
 24
31.70688977164207
 34
0.0
1001
ACAD
1000
DSTYLE
1002
{
1070
    40
1040
1.0
1070
   140
1040
2.5
1070
   147
1040
0.5
1070
   172
1070
     1
1070
   279
1070
     0
1070
   288
1070
     0
1002
}
  0
LINE
  5
A1
330
2
100
AcDbEntity
  8
GAIKEI
  6
Continuous
 62
     1
100
AcDbLine
 10
-39.65173887197307
 20
1.465813782311641
 30
0.0
 11
-40.203740769413
 21
1.465813782311641
 31
0.0
  0
LINE
  5
A2
330
2
100
AcDbEntity
  8
GAIKEI
  6
Continuous
 62
     7
100
AcDbLine
 10
-39.65173792937174
 20
31.42438080277646
 30
0.0
 11
-40.203740769413
 21
31.42438080277634
 31
0.0
  0
LINE
  5
A3
330
2
100
AcDbEntity
  8
GAIKEI
  6
Continuous
100
AcDbLine
 10
-40.24089863927651
 20
1.495821489626763
 30
0.0
 11
-39.63286882269347
 21
1.495821489626763
 31
0.0
  0
LINE
  5
A4
330
2
100
AcDbEntity
  8
GAIKEI
  6
Continuous
 62
     1
100
AcDbLine
 10
-39.63286882269347
 20
30.96656366487889
 30
0.0
 11
-40.24101246542335
 21
30.96656366487889
 31
0.0
  0
LINE
  5
A5
330
2
100
AcDbEntity
  8
GAIKEI
  6
Continuous
 62
     1
100
AcDbLine
 10
-40.24101246542335
 20
1.487263025168147
 30
0.0
 11
-40.24089030791481
 21
31.3956917505667
 31
0.0
  0
LINE
  5
A6
330
2
100
AcDbEntity
  8
GAIKEI
  6
Continuous
 62
     1
100
AcDbLine
 10
-40.27604979318084
 20
1.529796638220403
 30
0.0
 11
-40.27604979318084
 21
31.36041044799544
 31
0.0
  0
LINE
  5
A7
330
2
100
AcDbEntity
  8
GAIKEI
  6
Continuous
 62
     1
100
AcDbLine
 10
-44.90289556359101
 20
1.528966563330499
 30
0.0
 11
-44.90289556359101
 21
31.3612405228854
 31
0.0
  0
LINE
  5
A8
330
2
100
AcDbEntity
  8
GAIKEI
  6
Continuous
 62
     1
100
AcDbLine
 10
-44.93806701998306
 20
31.39752297046812
 30
0.0
 11
-44.93806701998301
 21
1.492671733776774
 31
0.0
  0
LINE
  5
A9
330
2
100
AcDbEntity
  8
GAIKEI
  6
Continuous
 62
     1
100
AcDbLine
 10
-44.6691828112057
 20
1.763618983826603
 30
0.0
 11
-44.6691828112057
 21
31.12658768568497
 31
0.0
  0
LINE
  5
AA
330
2
100
AcDbEntity
  8
GAIKEI
  6
Continuous
100
AcDbLine
 10
-44.98523924269204
 20
1.400414965320521
 30
0.0
 11
-44.98523924269204
 21
31.48979212089529
 31
0.0
  0
LINE
  5
AB
330
2
100
AcDbEntity
  8
GAIKEI
  6
Continuous
 62
     1
100
AcDbLine
 10
-40.50976212886195
 20
1.763643569378103
 30
0.0
 11
-40.50976212886195
 21
31.12655143241421
 31
0.0
  0
LINE
  5
AC
330
2
100
AcDbEntity
  8
GAIKEI
  6
Continuous
 62
     1
100
AcDbLine
 10
-40.23361429795579
 20
1.923630920209063
 30
0.0
 11
-39.63286882269347
 21
1.923630920209063
 31
0.0
  0
LINE
  5
AD
330
2
100
AcDbEntity
  8
GAIKEI
  6
Continuous
 62
     1
100
AcDbLine
 10
-40.203740769413
 20
1.465813782311641
 30
0.0
 11
-40.203740769413
 21
1.495821489626763
 31
0.0
  0
LINE
  5
AE
330
2
100
AcDbEntity
  8
GAIKEI
 62
     7
100
AcDbLine
 10
-40.31568648081338
 20
31.69522065745179
 30
0.0
 11
-44.78287723740845
 21
31.69363122851917
 31
0.0
  0
LINE
  5
AF
330
2
100
AcDbEntity
  8
GAIKEI
 62
     1
100
AcDbLine
 10
-40.44062756662327
 20
31.59544121740788
 30
0.0
 11
-44.70529455425378
 21
31.59697944212502
 31
0.0
  0
LINE
  5
B0
330
2
100
AcDbEntity
  8
GAIKEI
 62
     1
100
AcDbLine
 10
-40.70976809019827
 20
31.32655697704632
 30
0.0
 11
-44.4692014354207
 21
31.32655697704632
 31
0.0
  0
ARC
  5
B1
330
2
100
AcDbEntity
  8
GAIKEI
 62
     1
100
AcDbCircle
 10
-44.44114387680861
 20
31.09851634672663
 30
0.0
 40
0.2297602134223355
100
AcDbArc
 50
97.01427902932415
 51
172.9822586112952
  0
LINE
  5
B2
330
2
100
AcDbEntity
  8
GAIKEI
 62
     1
100
AcDbLine
 10
-44.705404427448
 20
31.56221068026435
 30
0.0
 11
-44.469193934744
 21
31.32657364521674
 31
0.0
  0
LINE
  5
B3
330
2
100
AcDbEntity
  8
GAIKEI
 62
     1
100
AcDbLine
 10
-44.90282347375364
 20
31.36122718834895
 30
0.0
 11
-44.66918447802271
 21
31.12660852089806
 31
0.0
  0
ARC
  5
B4
330
2
100
AcDbEntity
  8
GAIKEI
 62
     1
100
AcDbCircle
 10
-44.71568028198521
 20
31.37485363829148
 30
0.0
 40
0.1876386270555872
100
AcDbArc
 50
86.86067950641858
 51
184.1645260141716
  0
ARC
  5
B5
330
2
100
AcDbEntity
  8
GAIKEI
 62
     1
100
AcDbCircle
 10
-44.73597104223109
 20
31.3972250277086
 30
0.0
 40
0.2020961973750216
100
AcDbArc
 50
81.26923823096262
 51
179.9155309745612
  0
ARC
  5
B6
330
2
100
AcDbEntity
  8
GAIKEI
 62
     7
100
AcDbCircle
 10
-44.78163342817248
 20
31.49002907326292
 30
0.0
 40
0.2036059544473368
100
AcDbArc
 50
90.35001659551728
 51
180.0667031928837
  0
LINE
  5
B7
330
2
100
AcDbEntity
  8
GAIKEI
 62
     1
100
AcDbLine
 10
-40.47593348632164
 20
31.56028179530165
 30
0.0
 11
-44.705404427448
 21
31.56221068026435
 31
0.0
  0
ARC
  5
B8
330
2
100
AcDbEntity
  8
GAIKEI
 62
     1
100
AcDbCircle
 10
-40.46372187007785
 20
31.37260507692497
 30
0.0
 40
0.1880654729935096
100
AcDbArc
 50
356.3131059995682
 51
93.69047934133044
  0
ARC
  5
B9
330
2
100
AcDbEntity
  8
GAIKEI
 62
     1
100
AcDbCircle
 10
-40.4399015007308
 20
31.39642997984379
 30
0.0
 40
0.1990125620368673
100
AcDbArc
 50
359.7874630703805
 51
90.20903506367668
  0
ARC
  5
BA
330
2
100
AcDbEntity
  8
GAIKEI
 62
     7
100
AcDbCircle
 10
-40.34097796461788
 20
31.49550553716017
 30
0.0
 40
0.2013101796385793
100
AcDbArc
 50
0.3995567468761586
 51
82.78260690453075
  0
LINE
  5
BB
330
2
100
AcDbEntity
  8
GAIKEI
 62
     7
100
AcDbLine
 10
-40.13967267989994
 20
31.49690937858168
 30
0.0
 11
-40.13967248913053
 21
31.42438080277634
 31
0.0
  0
LINE
  5
BC
330
2
100
AcDbEntity
  8
GAIKEI
 62
     1
100
AcDbLine
 10
-40.13961165030832
 20
31.49690942969028
 30
0.0
 11
-40.24089030791475
 21
31.3956917505667
 31
0.0
  0
LINE
  5
BD
330
2
100
AcDbEntity
  8
GAIKEI
 62
     1
100
AcDbLine
 10
-40.33937331421031
 20
31.6966588454228
 30
0.0
 11
-40.44062756662327
 21
31.59544121740788
 31
0.0
  0
LINE
  5
BE
330
2
100
AcDbEntity
  8
GAIKEI
 62
     1
100
AcDbLine
 10
-40.47582698387737
 20
31.56028056374248
 30
0.0
 11
-40.70976892360682
 21
31.32656822806138
 31
0.0
  0
LINE
  5
BF
330
2
100
AcDbEntity
  8
GAIKEI
 62
     1
100
AcDbLine
 10
-40.27604562613828
 20
31.36051170713108
 30
0.0
 11
-40.50975796181933
 21
31.12656935069742
 31
0.0
  0
ARC
  5
C0
330
2
100
AcDbEntity
  8
GAIKEI
 62
     1
100
AcDbCircle
 10
-40.73031631975925
 20
31.10599630581305
 30
0.0
 40
0.2215157769392105
100
AcDbArc
 50
5.328964981966165
 51
84.6774814109821
  0
LINE
  5
C1
330
2
100
AcDbEntity
  8
GAIKEI
 62
     1
100
AcDbLine
 10
-40.70976809019827
 20
1.563637608041659
 30
0.0
 11
-44.4692014354207
 21
1.563637608041659
 31
0.0
  0
LINE
  5
C2
330
2
100
AcDbEntity
  8
GAIKEI
 62
     1
100
AcDbLine
 10
-40.47593348632164
 20
1.329912908943271
 30
0.0
 11
-44.705404427448
 21
1.327984023980519
 31
0.0
  0
LINE
  5
C3
330
2
100
AcDbEntity
  8
GAIKEI
 62
     1
100
AcDbLine
 10
-40.47593348632164
 20
1.294887776296462
 30
0.0
 11
-44.73847625886674
 21
1.29298330759903
 31
0.0
  0
LINE
  5
C4
330
2
100
AcDbEntity
  8
GAIKEI
100
AcDbLine
 10
-40.33937331421031
 20
1.193548066954804
 30
0.0
 11
-44.78287723740845
 21
1.196575683858355
 31
0.0
  0
ARC
  5
C5
330
2
100
AcDbEntity
  8
GAIKEI
100
AcDbCircle
 10
-44.78165445116963
 20
1.4001569684672
 30
0.0
 40
0.2035849568341477
100
AcDbArc
 50
179.9274162080465
 51
269.6558640035523
  0
ARC
  5
C6
330
2
100
AcDbEntity
  8
GAIKEI
 62
     1
100
AcDbCircle
 10
-44.73955191746449
 20
1.491498960091831
 30
0.0
 40
0.1985185667036251
100
AcDbArc
 50
179.6615159254603
 51
270.3104545859287
  0
ARC
  5
C7
330
2
100
AcDbEntity
  8
GAIKEI
 62
     1
100
AcDbCircle
 10
-44.71568485164619
 20
1.515394168321876
 30
0.0
 40
0.1876653470639542
100
AcDbArc
 50
175.8526305486517
 51
273.1070202196256
  0
ARC
  5
C8
330
2
100
AcDbEntity
  8
GAIKEI
 62
     1
100
AcDbCircle
 10
-44.44113346658196
 20
1.791686952665315
 30
0.0
 40
0.229770133955667
100
AcDbArc
 50
187.0165901477159
 51
262.9834098522725
  0
LINE
  5
C9
330
2
100
AcDbEntity
  8
GAIKEI
 62
     1
100
AcDbLine
 10
-44.4692014354207
 20
1.563646358831221
 30
0.0
 11
-44.70551317228808
 21
1.328004682417059
 31
0.0
  0
LINE
  5
CA
330
2
100
AcDbEntity
  8
GAIKEI
 62
     1
100
AcDbLine
 10
-44.6691832279099
 20
1.763602732360396
 30
0.0
 11
-44.90282264034516
 21
1.528984481613747
 31
0.0
  0
ARC
  5
CB
330
2
100
AcDbEntity
  8
GAIKEI
100
AcDbCircle
 10
-40.34082010226831
 20
1.394633853342696
 30
0.0
 40
0.2011519427009429
100
AcDbArc
 50
270.4086267862511
 51
359.6158847768076
  0
ARC
  5
CC
330
2
100
AcDbEntity
  8
GAIKEI
 62
     1
100
AcDbCircle
 10
-40.44397335222998
 20
1.495442395460429
 30
0.0
 40
0.2030852171852302
100
AcDbArc
 50
260.9455502991961
 51
359.7349573645162
  0
ARC
  5
CD
330
2
100
AcDbEntity
  8
GAIKEI
 62
     1
100
AcDbCircle
 10
-40.46373025021125
 20
1.517587903900022
 30
0.0
 40
0.1880713234482933
100
AcDbArc
 50
266.2796801161962
 51
3.696555424064384
  0
LINE
  5
CE
330
2
100
AcDbEntity
  8
GAIKEI
 62
     1
100
AcDbLine
 10
-40.47583198432858
 20
1.329927355881949
 30
0.0
 11
-40.70977392405796
 21
1.563639691562997
 31
0.0
  0
LINE
  5
CF
330
2
100
AcDbEntity
  8
GAIKEI
 62
     1
100
AcDbLine
 10
-40.50976254556622
 20
1.763655653801691
 30
0.0
 11
-40.27605020988505
 21
1.529713297367976
 31
0.0
  0
ARC
  5
D0
330
2
100
AcDbEntity
  8
GAIKEI
 62
     1
100
AcDbCircle
 10
-40.730403406481
 20
1.784362516335107
 30
0.0
 40
0.2216847782785941
100
AcDbArc
 50
275.3395407269481
 51
354.6372035467176
  0
LINE
  5
D1
330
2
100
AcDbEntity
  8
GAIKEI
100
AcDbLine
 10
-40.13959998258894
 20
1.393288072327521
 30
0.0
 11
-40.13967248913053
 21
1.465813782311641
 31
0.0
  0
ELLIPSE
  5
D2
330
2
100
AcDbEntity
  8
GAIKEI
  6
Continuous
 62
     1
100
AcDbEllipse
 10
-39.65186864403262
 20
31.53761126020697
 30
0.0
 11
-0.0079467640876592
 21
0.4318755208183608
 31
0.0
210
0.0
220
0.0
230
1.0
 40
0.0404429999982552
 41
4.285401047308635
 42
4.371811220305964
  0
ELLIPSE
  5
D3
330
2
100
AcDbEntity
  8
GAIKEI
  6
Continuous
 62
     1
100
AcDbEllipse
 10
-39.65186864403256
 20
1.351350517171908
 30
0.0
 11
0.007946764087659
 21
0.4318755208183799
 31
0.0
210
0.0
220
0.0
230
1.0
 40
0.0404429999982537
 41
-1.230218566716188
 42
-1.143808393718863
  0
ELLIPSE
  5
D4
330
2
100
AcDbEntity
  8
GAIKEI
  6
Continuous
 62
     1
100
AcDbEllipse
 10
-39.57696478932655
 20
31.6125151149131
 30
0.0
 11
-0.431875520819235
 21
0.0079467640870345
 31
0.0
210
0.0
220
0.0
230
1.0
 40
0.0404429999987592
 41
1.911374086872785
 42
1.997784259870051
  0
ELLIPSE
  5
D5
330
2
100
AcDbEntity
  8
GAIKEI
  6
Continuous
 62
     1
100
AcDbEllipse
 10
-39.57696478932655
 20
1.27644666246573
 30
0.0
 11
0.4318755208195003
 21
0.0079467640870295
 31
0.0
210
0.0
220
0.0
230
1.0
 40
0.0404429999987397
 41
1.14380839372002
 42
1.230218566717296
  0
ELLIPSE
  5
D6
330
2
100
AcDbEntity
  8
GAIKEI
  6
Continuous
 62
     1
100
AcDbEllipse
 10
-37.1624348376709
 20
29.44939509383534
 30
0.0
 11
-0.0641306772673077
 21
0.0819853242396075
 31
0.0
210
0.0
220
0.0
230
1.0
 40
0.9602119999885655
 41
-0.6513938849655593
 42
-0.3742724759626874
  0
ELLIPSE
  5
D7
330
2
100
AcDbEntity
  8
GAIKEI
  6
Continuous
 62
     1
100
AcDbEllipse
 10
-37.16243483767085
 20
3.572013073329458
 30
0.0
 11
0.0641306772804553
 21
0.0819853242296695
 31
0.0
210
0.0
220
0.0
230
1.0
 40
0.960211999997915
 41
3.515865129711884
 42
3.792986538710805
  0
ELLIPSE
  5
D8
330
2
100
AcDbEntity
  8
GAIKEI
  6
Continuous
 62
     1
100
AcDbEllipse
 10
-37.16242388669798
 20
29.44938414286247
 30
0.0
 11
-0.0820793596799872
 21
0.0640376871272272
 31
0.0
210
0.0
220
0.0
230
1.0
 40
0.960042000004322
 41
0.3752614366540838
 42
0.6500607538632135
  0
ELLIPSE
  5
D9
330
2
100
AcDbEntity
  8
GAIKEI
  6
Continuous
 62
     1
100
AcDbEllipse
 10
-37.16242388669793
 20
3.572024024302436
 30
0.0
 11
0.0820793596877476
 21
0.0640376871167844
 31
0.0
210
0.0
220
0.0
230
1.0
 40
0.9600419999991443
 41
2.491531899849828
 42
2.766331217060938
  0
ELLIPSE
  5
DA
330
2
100
AcDbEntity
  8
GAIKEI
  6
Continuous
 62
     1
100
AcDbEllipse
 10
-37.16243483767085
 20
3.574752016666252
 30
0.0
 11
0.0911712404724387
 21
0.1233277374014959
 31
0.0
210
0.0
220
0.0
230
1.0
 40
0.9776259999899165
 41
3.490282879346349
 42
3.767404288348283
  0
ELLIPSE
  5
DB
330
2
100
AcDbEntity
  8
GAIKEI
  6
Continuous
 62
     1
100
AcDbEllipse
 10
-37.1624348376709
 20
29.44665615049854
 30
0.0
 11
-0.0911712405137963
 21
0.1233277373716018
 31
0.0
210
0.0
220
0.0
230
1.0
 40
0.9776260000001293
 41
-0.6258116350885031
 42
-0.3486902260919513
  0
ELLIPSE
  5
DC
330
2
100
AcDbEntity
  8
GAIKEI
  6
Continuous
 62
     1
100
AcDbEllipse
 10
-37.15964503981593
 20
3.572024024302436
 30
0.0
 11
0.1234686257683748
 21
0.0910092022787943
 31
0.0
210
0.0
220
0.0
230
1.0
 40
0.9775040000039993
 41
2.51722575267712
 42
2.792025069887031
  0
ELLIPSE
  5
DD
330
2
100
AcDbEntity
  8
GAIKEI
  6
Continuous
 62
     1
100
AcDbEllipse
 10
-37.15964503981599
 20
29.44938414286247
 30
0.0
 11
-0.1234686257922888
 21
0.0910092022455151
 31
0.0
210
0.0
220
0.0
230
1.0
 40
0.9775039999962212
 41
0.3495675834329772
 42
0.6243669006472979
  0
ELLIPSE
  5
DE
330
2
100
AcDbEntity
  8
GAIKEI
  6
Continuous
 62
     1
100
AcDbEllipse
 10
-38.72522346781148
 20
2.203091838686873
 30
0.0
 11
0.5814136090118486
 21
0.5814136090118486
 31
0.0
210
0.0
220
0.0
230
1.0
 40
0.4561099999999815
 41
2.756538952252924
 42
3.526646354926543
  0
ELLIPSE
  5
DF
330
2
100
AcDbEntity
  8
GAIKEI
  6
Continuous
 62
     1
100
AcDbEllipse
 10
-38.72522346781148
 20
30.68586993869189
 30
0.0
 11
-0.581413609011845
 21
0.581413609011845
 31
0.0
210
0.0
220
0.0
230
1.0
 40
0.4561099999999933
 41
-0.3850537013368589
 42
0.3850537013368587
  0
ARC
  5
E0
330
2
100
AcDbEntity
  8
GAIKEI
  6
Continuous
 62
     1
100
AcDbCircle
 10
-39.53400562269212
 20
31.4946520935726
 30
0.0
 40
0.2000177702400075
100
AcDbArc
 50
179.9215319999855
 51
180.0
  0
ARC
  5
E1
330
2
100
AcDbEntity
  8
GAIKEI
  6
Continuous
 62
     1
100
AcDbCircle
 10
-39.53400562269212
 20
1.394309683806227
 30
0.0
 40
0.2000177702400075
100
AcDbArc
 50
180.0
 51
180.0784680000144
  0
ARC
  5
E2
330
2
100
AcDbEntity
  8
GAIKEI
  6
Continuous
 62
     1
100
AcDbCircle
 10
-39.53400562269212
 20
31.4946520935726
 30
0.0
 40
0.2000177702400075
100
AcDbArc
 50
90.0
 51
90.07846799999811
  0
ARC
  5
E3
330
2
100
AcDbEntity
  8
GAIKEI
  6
Continuous
 62
     1
100
AcDbCircle
 10
-39.53400562269212
 20
1.394309683806227
 30
0.0
 40
0.2000177702400075
100
AcDbArc
 50
269.9215320000019
 51
270.0
  0
ARC
  5
E4
330
2
100
AcDbEntity
  8
GAIKEI
  6
Continuous
 62
     7
100
AcDbCircle
 10
-39.53400562269212
 20
1.394309683806227
 30
0.0
 40
0.2000177702400075
100
AcDbArc
 50
180.0784680000144
 51
269.9215320000019
  0
ARC
  5
E5
330
2
100
AcDbEntity
  8
GAIKEI
  6
Continuous
 62
     7
100
AcDbCircle
 10
-39.53400562269212
 20
31.4946520935726
 30
0.0
 40
0.2000177702400075
100
AcDbArc
 50
90.07846799999811
 51
179.9215319999855
  0
ARC
  5
E6
330
2
100
AcDbEntity
  8
GAIKEI
  6
Continuous
 62
     1
100
AcDbCircle
 10
-37.16666706367585
 20
29.45362076925835
 30
0.0
 40
0.0982869821404501
100
AcDbArc
 50
105.7493539999929
 51
164.3805440000056
  0
ARC
  5
E7
330
2
100
AcDbEntity
  8
GAIKEI
  6
Continuous
 62
     1
100
AcDbCircle
 10
-38.1011538622954
 20
2.786997958692836
 30
0.0
 40
0.1000088851200038
100
AcDbArc
 50
180.0
 51
270.0
  0
ARC
  5
E8
330
2
100
AcDbEntity
  8
GAIKEI
  6
Continuous
 62
     1
100
AcDbCircle
 10
-38.10115386229546
 20
30.08696206921423
 30
0.0
 40
0.1000088851200038
100
AcDbArc
 50
90.0
 51
180.0
  0
ARC
  5
E9
330
2
100
AcDbEntity
  8
GAIKEI
  6
Continuous
 62
     1
100
AcDbCircle
 10
-37.21721595460633
 20
2.016864993678268
 30
0.0
 40
0.025002221280001
100
AcDbArc
 50
90.0
 51
180.0
  0
ARC
  5
EA
330
2
100
AcDbEntity
  8
GAIKEI
  6
Continuous
 62
     1
100
AcDbCircle
 10
-36.91718929924633
 20
2.016864993678268
 30
0.0
 40
0.025002221280001
100
AcDbArc
 50
0.0
 51
90.0
  0
ARC
  5
EB
330
2
100
AcDbEntity
  8
GAIKEI
  6
Continuous
 62
     1
100
AcDbCircle
 10
-37.21721595460633
 20
1.716838338318211
 30
0.0
 40
0.025002221280001
100
AcDbArc
 50
180.0
 51
270.0
  0
ARC
  5
EC
330
2
100
AcDbEntity
  8
GAIKEI
  6
Continuous
 62
     1
100
AcDbCircle
 10
-36.91718929924633
 20
1.716838338318211
 30
0.0
 40
0.025002221280001
100
AcDbArc
 50
270.0
 51
0.0
  0
ARC
  5
ED
330
2
100
AcDbEntity
  8
GAIKEI
  6
Continuous
 62
     1
100
AcDbCircle
 10
-38.10115386229546
 20
30.08696206921423
 30
0.0
 40
0.2019818947393219
100
AcDbArc
 50
90.0
 51
180.0
  0
ARC
  5
EE
330
2
100
AcDbEntity
  8
GAIKEI
  6
Continuous
 62
     1
100
AcDbCircle
 10
-38.1011538622954
 20
2.786997958692836
 30
0.0
 40
0.2019818947393219
100
AcDbArc
 50
180.0
 51
270.0
  0
LINE
  5
EF
330
2
100
AcDbEntity
  8
GAIKEI
  6
Continuous
 62
     7
100
AcDbLine
 10
-39.73402339293216
 20
31.4946520935726
 30
0.0
 11
-39.73402339293216
 21
1.394309683806227
 31
0.0
  0
LINE
  5
F0
330
2
100
AcDbEntity
  8
GAIKEI
  6
Continuous
 62
     7
100
AcDbLine
 10
-39.53400562269212
 20
31.69466986381258
 30
0.0
 11
10.16614802030329
 21
31.69466986381258
 31
0.0
  0
LINE
  5
F1
330
2
100
AcDbEntity
  8
GAIKEI
  6
Continuous
 62
     7
100
AcDbLine
 10
-39.53400562269212
 20
1.194291913566189
 30
0.0
 11
10.16614802030335
 21
1.194291913566189
 31
0.0
  0
LINE
  5
F2
330
2
100
AcDbEntity
  8
GAIKEI
  6
Continuous
 62
     1
100
AcDbLine
 10
-39.6327512455797
 20
1.495307756808983
 30
0.0
 11
-39.73402319291438
 21
1.394035759469886
 31
0.0
  0
LINE
  5
F3
330
2
100
AcDbEntity
  8
GAIKEI
  6
Continuous
 62
     1
100
AcDbLine
 10
-39.53427954702852
 20
1.194292113583969
 30
0.0
 11
-39.43300754968936
 21
1.295564060918593
 31
0.0
  0
LINE
  5
F4
330
2
100
AcDbEntity
  8
GAIKEI
  6
Continuous
 62
     1
100
AcDbLine
 10
-39.43300754968936
 20
31.59339771646023
 30
0.0
 11
-39.53427954702852
 21
31.69466966379486
 31
0.0
  0
LINE
  5
F5
330
2
100
AcDbEntity
  8
GAIKEI
  6
Continuous
 62
     1
100
AcDbLine
 10
-39.73402319291438
 20
31.49492601790894
 30
0.0
 11
-39.6327512455797
 21
31.39365402056984
 31
0.0
  0
LINE
  5
F6
330
2
100
AcDbEntity
  8
GAIKEI
  6
Continuous
 62
     1
100
AcDbLine
 10
-39.63267963921806
 20
31.3590506962961
 30
0.0
 11
-39.63267963921806
 21
1.529911081082673
 31
0.0
  0
LINE
  5
F7
330
2
100
AcDbEntity
  8
GAIKEI
  6
Continuous
 62
     1
100
AcDbLine
 10
10.03054662302691
 20
31.59332611009848
 30
0.0
 11
-39.39840422541568
 21
31.59332611009848
 31
0.0
  0
LINE
  5
F8
330
2
100
AcDbEntity
  8
GAIKEI
  6
Continuous
 62
     1
100
AcDbLine
 10
-39.39840422541568
 20
1.29563566728035
 30
0.0
 11
10.03054662302691
 21
1.29563566728035
 31
0.0
  0
LINE
  5
F9
330
2
100
AcDbEntity
  8
GAIKEI
  6
Continuous
 62
     1
100
AcDbLine
 10
7.829209037808823
 20
29.55192815321135
 30
0.0
 11
-37.16570447815656
 21
29.55192815321135
 31
0.0
  0
LINE
  5
FA
330
2
100
AcDbEntity
  8
GAIKEI
  6
Continuous
 62
     1
100
AcDbLine
 10
-37.1657044781565
 20
3.469480013953443
 30
0.0
 11
7.829209037808823
 21
3.4694800139535
 31
0.0
  0
LINE
  5
FB
330
2
100
AcDbEntity
  8
GAIKEI
  6
Continuous
 62
     1
100
AcDbLine
 10
-37.2649720474156
 20
29.45266888468978
 30
0.0
 11
-37.26497204741554
 21
3.568739282475121
 31
0.0
  0
LINE
  5
FC
330
2
100
AcDbEntity
  8
GAIKEI
  6
Continuous
 62
     1
100
AcDbLine
 10
7.829209037808823
 20
3.422587197840641
 30
0.0
 11
-37.1657044781565
 21
3.422587197840641
 31
0.0
  0
LINE
  5
FD
330
2
100
AcDbEntity
  8
GAIKEI
  6
Continuous
 62
     1
100
AcDbLine
 10
-37.16570447815656
 20
29.59882096932415
 30
0.0
 11
7.829209037808823
 21
29.59882096932415
 31
0.0
  0
LINE
  5
FE
330
2
100
AcDbEntity
  8
GAIKEI
  6
Continuous
 62
     1
100
AcDbLine
 10
-38.10115386229546
 20
30.18697095433419
 30
0.0
 11
8.764658421947842
 21
30.18697095433419
 31
0.0
  0
LINE
  5
FF
330
2
100
AcDbEntity
  8
GAIKEI
  6
Continuous
 62
     1
100
AcDbLine
 10
8.764658421947842
 20
2.686989073572874
 30
0.0
 11
-38.1011538622954
 21
2.686989073572874
 31
0.0
  0
LINE
  5
100
330
2
100
AcDbEntity
  8
GAIKEI
  6
Continuous
 62
     1
100
AcDbLine
 10
-38.20116274741542
 20
2.786997958692836
 30
0.0
 11
-38.20116274741548
 21
30.08696206921423
 31
0.0
  0
LINE
  5
101
330
2
100
AcDbEntity
  8
GAIKEI
  6
Continuous
 62
     1
100
AcDbLine
 10
-37.31182490997878
 20
3.568739282475121
 30
0.0
 11
-37.31182490997884
 21
29.45266888468978
 31
0.0
  0
LINE
  5
102
330
2
100
AcDbEntity
  8
GAIKEI
  6
Continuous
 62
     1
100
AcDbLine
 10
-38.19266624255784
 20
2.749996121327228
 30
0.0
 11
-37.30611505269616
 21
3.527854700153625
 31
0.0
  0
LINE
  5
103
330
2
100
AcDbEntity
  8
GAIKEI
  6
Continuous
 62
     1
100
AcDbLine
 10
-37.20692524034524
 20
3.428392763626277
 30
0.0
 11
-38.05754705722575
 21
2.686989073572874
 31
0.0
  0
LINE
  5
104
330
2
100
AcDbEntity
  8
GAIKEI
  6
Continuous
 62
     1
100
AcDbLine
 10
-37.30611505269621
 20
29.49355346701128
 30
0.0
 11
-38.19266624255789
 21
30.12396390657983
 31
0.0
  0
LINE
  5
105
330
2
100
AcDbEntity
  8
GAIKEI
  6
Continuous
 62
     1
100
AcDbLine
 10
-38.05632102919833
 20
30.18572699381673
 30
0.0
 11
-37.2069252403453
 21
29.59301540353852
 31
0.0
  0
LINE
  5
106
330
2
100
AcDbEntity
  8
GAIKEI
  6
Continuous
 62
     1
100
AcDbLine
 10
-39.5976186242815
 20
1.529911081082673
 30
0.0
 11
-39.5976186242815
 21
31.3590506962961
 31
0.0
  0
LINE
  5
107
330
2
100
AcDbEntity
  8
GAIKEI
  6
Continuous
 62
     1
100
AcDbLine
 10
-39.39840422541568
 20
31.55826509516197
 30
0.0
 11
10.03054662302691
 21
31.55826509516197
 31
0.0
  0
LINE
  5
108
330
2
100
AcDbEntity
  8
GAIKEI
  6
Continuous
 62
     1
100
AcDbLine
 10
10.03054662302691
 20
1.330696682216853
 30
0.0
 11
-39.39840422541568
 21
1.330696682216853
 31
0.0
  0
LINE
  5
109
330
2
100
AcDbEntity
  8
GAIKEI
  6
Continuous
 62
     1
100
AcDbLine
 10
-39.5976186242815
 20
31.3590506962961
 30
0.0
 11
-39.36367218970673
 21
31.12510426172145
 31
0.0
  0
LINE
  5
10A
330
2
100
AcDbEntity
  8
GAIKEI
  6
Continuous
 62
     1
100
AcDbLine
 10
-39.16445779084097
 20
31.32431866058733
 30
0.0
 11
-39.39840422541568
 21
31.55826509516197
 31
0.0
  0
LINE
  5
10B
330
2
100
AcDbEntity
  8
GAIKEI
  6
Continuous
 62
     1
100
AcDbLine
 10
-39.39840422541568
 20
1.330696682216853
 30
0.0
 11
-39.16445779084097
 21
1.564643116791614
 31
0.0
  0
LINE
  5
10C
330
2
100
AcDbEntity
  8
GAIKEI
  6
Continuous
 62
     1
100
AcDbLine
 10
-39.36367218970668
 20
1.763857515657377
 30
0.0
 11
-39.5976186242815
 21
1.529911081082673
 31
0.0
  0
LINE
  5
10D
330
2
100
AcDbEntity
  8
GAIKEI
  6
Continuous
 62
     1
100
AcDbLine
 10
-38.63142543448407
 20
1.811846779182303
 30
0.0
 11
-38.74143520811606
 21
1.811846779182303
 31
0.0
  0
LINE
  5
10E
330
2
100
AcDbEntity
  8
GAIKEI
  6
Continuous
 62
     1
100
AcDbLine
 10
-36.89218707796641
 20
2.016864993678268
 30
0.0
 11
-36.89218707796641
 21
1.716838338318211
 31
0.0
  0
LINE
  5
10F
330
2
100
AcDbEntity
  8
GAIKEI
  6
Continuous
 62
     1
100
AcDbLine
 10
-38.74143520811606
 20
1.811846779182303
 30
0.0
 11
-38.74143520811606
 21
1.921856552814233
 31
0.0
  0
LINE
  5
110
330
2
100
AcDbEntity
  8
GAIKEI
  6
Continuous
 62
     1
100
AcDbLine
 10
-38.74143520811606
 20
1.921856552814233
 30
0.0
 11
-38.63142543448407
 21
1.921856552814233
 31
0.0
  0
LINE
  5
111
330
2
100
AcDbEntity
  8
GAIKEI
  6
Continuous
 62
     1
100
AcDbLine
 10
-38.63142543448407
 20
1.921856552814233
 30
0.0
 11
-38.63142543448407
 21
1.811846779182303
 31
0.0
  0
LINE
  5
112
330
2
100
AcDbEntity
  8
GAIKEI
  6
Continuous
 62
     1
100
AcDbLine
 10
-36.91718929924633
 20
1.691836117038235
 30
0.0
 11
-37.21721595460633
 21
1.691836117038235
 31
0.0
  0
LINE
  5
113
330
2
100
AcDbEntity
  8
GAIKEI
  6
Continuous
 62
     1
100
AcDbLine
 10
-37.24221817588637
 20
1.716838338318211
 30
0.0
 11
-37.24221817588637
 21
2.016864993678268
 31
0.0
  0
LINE
  5
114
330
2
100
AcDbEntity
  8
GAIKEI
  6
Continuous
 62
     1
100
AcDbLine
 10
-37.21721595460633
 20
2.041867214958301
 30
0.0
 11
-36.91718929924633
 21
2.041867214958301
 31
0.0
  0
LINE
  5
115
330
2
100
AcDbEntity
  8
GAIKEI
  6
Continuous
 62
     1
100
AcDbLine
 10
8.764658421947842
 20
30.28894396395362
 30
0.0
 11
-38.10115386229546
 21
30.28894396395362
 31
0.0
  0
LINE
  5
116
330
2
100
AcDbEntity
  8
GAIKEI
  6
Continuous
 62
     1
100
AcDbLine
 10
-38.1011538622954
 20
2.58501606395356
 30
0.0
 11
8.764658421947842
 21
2.58501606395356
 31
0.0
  0
LINE
  5
117
330
2
100
AcDbEntity
  8
GAIKEI
  6
Continuous
 62
     1
100
AcDbLine
 10
-38.3031357570348
 20
30.08696206921423
 30
0.0
 11
-38.30313575703474
 21
2.786997958692836
 31
0.0
  0
LINE
  5
118
330
2
100
AcDbEntity
  8
GAIKEI
  6
Continuous
 62
     1
100
AcDbLine
 10
-39.36367218970673
 20
31.12510426172145
 30
0.0
 11
-39.36367218970668
 21
1.763857515657377
 31
0.0
  0
LINE
  5
119
330
2
100
AcDbEntity
  8
GAIKEI
  6
Continuous
 62
     1
100
AcDbLine
 10
9.796600188452146
 20
31.32431866058733
 30
0.0
 11
-39.16445779084097
 21
31.32431866058733
 31
0.0
  0
LINE
  5
11A
330
2
100
AcDbEntity
  8
GAIKEI
  6
Continuous
 62
     1
100
AcDbLine
 10
-39.16445779084097
 20
1.564643116791614
 30
0.0
 11
9.796600188452202
 21
1.564643116791614
 31
0.0
  0
SPLINE
  5
11B
330
2
100
AcDbEntity
  8
GAIKEI
  6
Continuous
 62
     1
100
AcDbSpline
210
0.0
220
0.0
230
1.0
 70
     8
 71
     3
 72
    21
 73
    17
 74
    15
 42
0.0000000001
 43
0.0000000001
 44
0.000001
 12
-0.0001490760298766
 22
-0.9999999888881687
 32
0.0
 13
0.9999997489039975
 23
0.0007086550233522
 33
0.0
 40
0.0
 40
0.0
 40
0.0
 40
0.0
 40
0.0220203622856801
 40
0.0441150886358801
 40
0.0661420247968131
 40
0.0881945815693722
 40
0.1103152820562989
 40
0.1323682426974127
 40
0.1546938208840669
 40
0.1770898850745026
 40
0.1994152170311352
 40
0.2218138290891943
 40
0.2442838362701914
 40
0.2666822908844259
 40
0.2901709918964638
 40
0.3136542532514638
 40
0.3136542532514638
 40
0.3136542532514638
 40
0.3136542532514638
 10
-39.6327512259636
 20
1.495307733372158
 30
0.0
 10
-39.63275232019967
 20
1.487967612691818
 30
0.0
 10
-39.63195253790653
 20
1.473249119319035
 30
0.0
 10
-39.62832450324884
 20
1.451459695876451
 30
0.0
 10
-39.62233923340598
 20
1.430181024696764
 30
0.0
 10
-39.61397815028023
 20
1.409709681433668
 30
0.0
 10
-39.60342913397106
 20
1.390268788715331
 30
0.0
 10
-39.59076846276459
 20
1.372017685229707
 30
0.0
 10
-39.57605649217279
 20
1.355251518176345
 30
0.0
 10
-39.55952033398491
 20
1.340150981804328
 30
0.0
 10
-39.54139736213198
 20
1.326950056426937
 30
0.0
 10
-39.52185966976168
 20
1.31589976083373
 30
0.0
 10
-39.50119788551995
 20
1.307074059833837
 30
0.0
 10
-39.47933077191036
 20
1.300496772047097
 30
0.0
 10
-39.45650839587619
 20
1.296462952469852
 30
0.0
 10
-39.44083532494562
 20
1.295558533357649
 30
0.0
 10
-39.43300757312613
 20
1.295564080534688
 30
0.0
 11
-39.6327512259636
 21
1.495307733372158
 31
0.0
 11
-39.63155103666429
 21
1.473319536809015
 31
0.0
 11
-39.62792773559602
 21
1.451523915788072
 31
0.0
 11
-39.62194769051632
 21
1.430324252882599
 31
0.0
 11
-39.61362434439923
 21
1.409902737872528
 31
0.0
 11
-39.60307457522447
 21
1.390459776802856
 31
0.0
 11
-39.59049304785822
 21
1.372347925149199
 31
0.0
 11
-39.57577947568927
 21
1.355556760015645
 31
0.0
 11
-39.55924143951381
 21
1.340454507508525
 31
0.0
 11
-39.54118650358839
 21
1.327322838613611
 31
0.0
 11
-39.52169777657218
 21
1.316282538578263
 31
0.0
 11
-39.50103325638543
 21
1.307457588850184
 31
0.0
 11
-39.4795806965858
 21
1.301017127413558
 31
0.0
 11
-39.45645230468585
 21
1.296918694103794
 31
0.0
 11
-39.43300757312613
 21
1.295564080534688
 31
0.0
  0
SPLINE
  5
11C
330
2
100
AcDbEntity
  8
GAIKEI
  6
Continuous
 62
     1
100
AcDbSpline
210
0.0
220
0.0
230
1.0
 70
     8
 71
     3
 72
    21
 73
    17
 74
    15
 42
0.0000000001
 43
0.0000000001
 44
0.000001
 12
-0.9999999888881687
 22
0.0001490760296198
 32
0.0
 13
0.0007086550231108
 23
-0.9999997489039975
 33
0.0
 40
0.0
 40
0.0
 40
0.0
 40
0.0
 40
0.0220203622857329
 40
0.044115088635965
 40
0.0661420247968637
 40
0.0881945815693899
 40
0.1103152820562865
 40
0.1323682426973983
 40
0.1546938208841351
 40
0.1770898850744847
 40
0.1994152170312258
 40
0.2218138290891614
 40
0.2442838362702659
 40
0.2666822908844051
 40
0.2901709918964461
 40
0.3136542532513361
 40
0.3136542532513361
 40
0.3136542532513361
 40
0.3136542532513361
 10
-39.43300757312619
 20
31.59339769684414
 30
0.0
 10
-39.44034769380655
 20
31.59339879108021
 30
0.0
 10
-39.45506618717931
 20
31.5925990087872
 30
0.0
 10
-39.47685561062197
 20
31.58897097412921
 30
0.0
 10
-39.49813428180164
 20
31.58298570428659
 30
0.0
 10
-39.51860562506464
 20
31.57462462116058
 30
0.0
 10
-39.53804651778309
 20
31.56407560485164
 30
0.0
 10
-39.55629762126862
 20
31.55141493364508
 30
0.0
 10
-39.57306378832195
 20
31.53670296305327
 30
0.0
 10
-39.58816432469409
 20
31.5201668048654
 30
0.0
 10
-39.60136525007139
 20
31.50204383301247
 30
0.0
 10
-39.61241554566466
 20
31.48250614064213
 30
0.0
 10
-39.62124124666441
 20
31.46184435640043
 30
0.0
 10
-39.62781853445145
 20
31.43997724279086
 30
0.0
 10
-39.63185235402871
 20
31.41715486675682
 30
0.0
 10
-39.63275677314064
 20
31.40148179582622
 30
0.0
 10
-39.6327512259636
 20
31.39365404400678
 30
0.0
 11
-39.43300757312619
 21
31.59339769684414
 31
0.0
 11
-39.45499576968939
 21
31.59219750754483
 31
0.0
 11
-39.47679139071033
 21
31.58857420647644
 31
0.0
 11
-39.49799105361581
 21
31.58259416139685
 31
0.0
 11
-39.51841256862582
 21
31.57427081527965
 31
0.0
 11
-39.53785552969549
 21
31.563721046105
 31
0.0
 11
-39.55596738134915
 21
31.55113951873875
 31
0.0
 11
-39.57275854648271
 21
31.53642594656969
 31
0.0
 11
-39.58786079898982
 21
31.51988791039435
 31
0.0
 11
-39.60099246788479
 21
31.50183297446881
 31
0.0
 11
-39.61203276792009
 21
31.48234424745272
 31
0.0
 11
-39.62085771764817
 21
31.46167972726585
 31
0.0
 11
-39.62729817908491
 21
31.44022716746633
 31
0.0
 11
-39.63139661239467
 21
31.41709877556639
 31
0.0
 11
-39.6327512259636
 21
31.39365404400678
 31
0.0
  0
SPLINE
  5
11D
330
2
100
AcDbEntity
  8
GAIKEI
  6
Continuous
 62
     1
100
AcDbSpline
210
0.0
220
0.0
230
1.0
 70
     8
 71
     3
 72
    14
 73
    10
 74
     8
 42
0.0000000001
 43
0.0000000001
 44
0.000001
 12
0.2697836156325394
 22
-0.962920973255975
 32
0.0
 13
0.9616843088117285
 23
-0.2741592423853476
 33
0.0
 40
0.0
 40
0.0
 40
0.0
 40
0.0
 40
0.0000567608952296
 40
0.0167840465309859
 40
0.0335125966987343
 40
0.0502374188860424
 40
0.0669622291995339
 40
0.083706378409862
 40
0.1004494891285251
 40
0.1004494891285251
 40
0.1004494891285251
 40
0.1004494891285251
 10
-37.26132445056788
 20
3.541323923731056
 30
0.0
 10
-37.26131934618137
 20
3.541305704978896
 30
0.0
 10
-37.25980826193235
 20
3.535918970747445
 30
0.0
 10
-37.2558483076263
 20
3.525407068276933
 30
0.0
 10
-37.24740038509402
 20
3.510880156116911
 30
0.0
 10
-37.23656063024645
 20
3.498034109924162
 30
0.0
 10
-37.22373193625518
 20
3.487167431626772
 30
0.0
 10
-37.20921387656293
 20
3.478679536668778
 30
0.0
 10
-37.19871228039813
 20
3.474720356313895
 30
0.0
 10
-37.19334508477852
 20
3.473190263463948
 30
0.0
 11
-37.26132445056788
 21
3.541323923731056
 31
0.0
 11
-37.26130912144481
 21
3.541269271406122
 31
0.0
 11
-37.25542936365633
 21
3.525608901959458
 31
0.0
 11
-37.24700163392487
 21
3.511158449332697
 31
0.0
 11
-37.23623050357725
 21
3.498363803948791
 31
0.0
 11
-37.2234571311501
 21
3.487567465260895
 31
0.0
 11
-37.20900941562076
 21
3.479104027225048
 31
0.0
 11
-37.19334508477852
 21
3.473190263463948
 31
0.0
  0
SPLINE
  5
11E
330
2
100
AcDbEntity
  8
GAIKEI
  6
Continuous
 62
     1
100
AcDbSpline
210
0.0
220
0.0
230
1.0
 70
     8
 71
     3
 72
    19
 73
    15
 74
    13
 42
0.0000000001
 43
0.0000000001
 44
0.000001
 12
-0.9639938394678312
 22
0.2659245710122878
 32
0.0
 13
-0.26346002757732
 23
0.9646703135625962
 33
0.0
 40
0.0
 40
0.0
 40
0.0
 40
0.0
 40
0.0120685447878004
 40
0.0241375534231616
 40
0.0365717545461155
 40
0.0490061389643655
 40
0.061039194868601
 40
0.0730723357382161
 40
0.085475567187896
 40
0.0978786958477285
 40
0.109959593832609
 40
0.1220403135244453
 40
0.1344880973698843
 40
0.1469354490877675
 40
0.1469354490877675
 40
0.1469354490877675
 40
0.1469354490877675
 10
-37.20692522593896
 20
3.428392752119862
 30
0.0
 10
-37.21080322688123
 20
3.429462526318332
 30
0.0
 10
-37.21847307715766
 20
3.431930030442913
 30
0.0
 10
-37.22973717328336
 20
3.436627662428463
 30
0.0
 10
-37.24066250353397
 20
3.442339926948534
 30
0.0
 10
-37.25103815803917
 20
3.448976205449753
 30
0.0
 10
-37.26068998748039
 20
3.456408100816076
 30
0.0
 10
-37.26966946557364
 20
3.464624384919403
 30
0.0
 10
-37.27798313213131
 20
3.47368356065624
 30
0.0
 10
-37.28548342223582
 20
3.483446887985593
 30
0.0
 10
-37.29204669759849
 20
3.493734566412001
 30
0.0
 10
-37.29772234439517
 20
3.504554294355699
 30
0.0
 10
-37.30248700713972
 20
3.515937653006233
 30
0.0
 10
-37.30502194685505
 20
3.523852153372359
 30
0.0
 10
-37.30611507339734
 20
3.527854683600594
 30
0.0
 11
-37.20692522593896
 21
3.428392752119862
 31
0.0
 11
-37.21841471864519
 21
3.432087463688958
 31
0.0
 11
-37.22955269265367
 21
3.436735722968364
 31
0.0
 11
-37.24057229846545
 21
3.442495762952262
 31
0.0
 11
-37.2510458893978
 21
3.449197873301727
 31
0.0
 11
-37.26058109773203
 21
3.45653781388728
 31
0.0
 11
-37.26945730266618
 21
3.464662465676269
 31
0.0
 11
-37.27784531945776
 21
3.473799307014246
 31
0.0
 11
-37.28539993508667
 21
3.483636273981801
 31
0.0
 11
-37.29189970102874
 21
3.493819670895049
 31
0.0
 11
-37.29751046576808
 21
3.504518430667417
 31
0.0
 11
-37.30231955850951
 21
3.515999708963136
 31
0.0
 11
-37.30611507339734
 21
3.527854683600594
 31
0.0
  0
SPLINE
  5
11F
330
2
100
AcDbEntity
  8
GAIKEI
  6
Continuous
 62
     1
100
AcDbSpline
210
0.0
220
0.0
230
1.0
 70
     8
 71
     3
 72
    19
 73
    15
 74
    13
 42
0.0000000001
 43
0.0000000001
 44
0.000001
 12
0.2634414923284027
 22
0.9646753755122933
 32
0.0
 13
0.9639886149825482
 23
0.2659435093850355
 33
0.0
 40
0.0
 40
0.0
 40
0.0
 40
0.0
 40
0.0120706715938937
 40
0.0241417800381293
 40
0.0365777168450818
 40
0.0490138356852664
 40
0.0610453208347824
 40
0.0730769079994259
 40
0.0854784299499498
 40
0.0978798670910685
 40
0.1099602577905378
 40
0.1220404696565263
 40
0.1344881894039904
 40
0.1469354486715613
 40
0.1469354486715613
 40
0.1469354486715613
 40
0.1469354486715613
 10
-37.3061150733974
 20
29.49355348356437
 30
0.0
 10
-37.3050551014847
 20
29.49743491011521
 30
0.0
 10
-37.30260711993427
 20
29.50511247906275
 30
0.0
 10
-37.29793867113449
 20
29.51639083720869
 30
0.0
 10
-37.29225506243083
 20
29.5273331816131
 30
0.0
 10
-37.28564679174072
 20
29.53772743865116
 30
0.0
 10
-37.27824183065583
 20
29.54739934851378
 30
0.0
 10
-37.27005165458382
 20
29.55640045683507
 30
0.0
 10
-37.26101696644098
 20
29.56473828688246
 30
0.0
 10
-37.25127565340197
 20
29.57226501909929
 30
0.0
 10
-37.24100695696327
 20
29.57885630214361
 30
0.0
 10
-37.23020309249975
 20
29.58456134882039
 30
0.0
 10
-37.21883273041373
 20
29.58935643242217
 30
0.0
 10
-37.21092489801291
 20
29.59191199244103
 30
0.0
 10
-37.20692522593902
 20
29.59301541504499
 30
0.0
 11
-37.3061150733974
 21
29.49355348356437
 31
0.0
 11
-37.30244961295068
 21
29.50505456983473
 31
0.0
 11
-37.29783012215353
 21
29.51620677895676
 31
0.0
 11
-37.29209901747652
 21
29.52724341686167
 31
0.0
 11
-37.28542456395349
 21
29.53773670976437
 31
0.0
 11
-37.27811187793128
 21
29.54729085800636
 31
0.0
 11
-37.27001298291958
 21
29.55618846952763
 31
0.0
 11
-37.26090085579012
 21
29.56460080751993
 31
0.0
 11
-37.25108634517358
 21
29.57218180751369
 31
0.0
 11
-37.24092141599749
 21
29.57870947851706
 31
0.0
 11
-37.23023847305069
 21
29.58434921296373
 31
0.0
 11
-37.21877017255577
 21
29.58918900822323
 31
0.0
 11
-37.20692522593902
 21
29.59301541504499
 31
0.0
  0
SPLINE
  5
120
330
2
100
AcDbEntity
  8
GAIKEI
  6
Continuous
 62
     1
100
AcDbSpline
210
0.0
220
0.0
230
1.0
 70
     8
 71
     3
 72
    19
 73
    15
 74
    13
 42
0.0000000001
 43
0.0000000001
 44
0.000001
 12
0.0944471245025448
 22
0.9955298793472755
 32
0.0
 13
0.9955257326591484
 23
0.0944908229060694
 33
0.0
 40
0.0
 40
0.0
 40
0.0
 40
0.0
 40
0.0172124311712102
 40
0.0344312311769035
 40
0.0515392072852323
 40
0.0686910149757968
 40
0.0858057717066203
 40
0.1119433335992082
 40
0.1380833502633811
 40
0.1635982876566607
 40
0.1891038875427856
 40
0.2053832094130295
 40
0.2217026553121983
 40
0.2379700129382744
 40
0.2379700129382744
 40
0.2379700129382744
 40
0.2379700129382744
 10
-39.59399623670731
 20
31.39859297880855
 30
0.0
 10
-39.59345434849737
 20
31.40430480865092
 30
0.0
 10
-39.59174882685181
 20
31.41568275665333
 30
0.0
 10
-39.58730997399569
 20
31.43231295200712
 30
0.0
 10
-39.58117055898836
 20
31.44836802174811
 30
0.0
 10
-39.57349057634749
 20
31.46370466104534
 30
0.0
 10
-39.56278945866406
 20
31.48079293213681
 30
0.0
 10
-39.54822130642306
 20
31.49886365924101
 30
0.0
 10
-39.52925616467146
 20
31.516670345921
 30
0.0
 10
-39.50816587369883
 20
31.53153226150599
 30
0.0
 10
-39.48813110293676
 20
31.54181066329028
 30
0.0
 10
-39.46991448813617
 20
31.54847160173142
 30
0.0
 10
-39.45411511940608
 20
31.55254747659052
 30
0.0
 10
-39.44334469896784
 20
31.55413033558498
 30
0.0
 10
-39.43794650792813
 20
31.55464270758784
 30
0.0
 11
-39.59399623670731
 21
31.39859297880855
 31
0.0
 11
-39.59143462391154
 21
31.41561461868401
 31
0.0
 11
-39.58701430706412
 21
31.43225649474221
 31
0.0
 11
-39.58091750214573
 21
31.4482412792853
 31
0.0
 11
-39.57324746724294
 21
31.46358256077429
 31
0.0
 11
-39.56416604613298
 21
31.47808910740685
 31
0.0
 11
-39.54778000887205
 21
31.49845200532013
 31
0.0
 11
-39.52871399865342
 21
31.51633364649422
 31
0.0
 11
-39.50785343959706
 21
31.53102511464294
 31
0.0
 11
-39.4851391776009
 21
31.54262677105987
 31
0.0
 11
-39.46984836250306
 21
31.54821318607958
 31
0.0
 11
-39.454040421066
 21
31.55226743617141
 31
0.0
 11
-39.43794650792813
 21
31.55464270758784
 31
0.0
  0
SPLINE
  5
121
330
2
100
AcDbEntity
  8
GAIKEI
  6
Continuous
 62
     1
100
AcDbSpline
210
0.0
220
0.0
230
1.0
 70
     8
 71
     3
 72
    19
 73
    15
 74
    13
 42
0.0000000001
 43
0.0000000001
 44
0.000001
 12
-0.995529879347374
 22
0.0944471245015059
 32
0.0
 13
-0.0944908229060039
 23
0.9955257326591544
 33
0.0
 40
0.0
 40
0.0
 40
0.0
 40
0.0
 40
0.0172124311711117
 40
0.0344312311769021
 40
0.0515392072852236
 40
0.0686910149758104
 40
0.0858057717066236
 40
0.1119433335992411
 40
0.1380833502631752
 40
0.1635982876565949
 40
0.1891038875427152
 40
0.2053832094130086
 40
0.2217026553121193
 40
0.2379700129382691
 40
0.2379700129382691
 40
0.2379700129382691
 40
0.2379700129382691
 10
-39.43794650792813
 20
1.334319069791092
 30
0.0
 10
-39.44365833777048
 20
1.33486095800103
 30
0.0
 10
-39.45503628577281
 20
1.336566479646734
 30
0.0
 10
-39.47166648112673
 20
1.341005332502675
 30
0.0
 10
-39.48772155086775
 20
1.347144747510014
 30
0.0
 10
-39.50305819016492
 20
1.354824730150909
 30
0.0
 10
-39.52014646125642
 20
1.365525847834391
 30
0.0
 10
-39.5382171883606
 20
1.380094000075274
 30
0.0
 10
-39.55602387504029
 20
1.399059141827081
 30
0.0
 10
-39.57088579062564
 20
1.420149432799462
 30
0.0
 10
-39.58116419240985
 20
1.440184203561614
 30
0.0
 10
-39.58782513085099
 20
1.458400818362179
 30
0.0
 10
-39.59190100570978
 20
1.474200187092407
 30
0.0
 10
-39.59348386470445
 20
1.484970607530584
 30
0.0
 10
-39.59399623670731
 20
1.49036879857033
 30
0.0
 11
-39.43794650792813
 21
1.334319069791092
 31
0.0
 11
-39.45496814780347
 21
1.336880682586922
 31
0.0
 11
-39.47161002386179
 21
1.341300999434281
 31
0.0
 11
-39.48759480840488
 21
1.347397804352624
 31
0.0
 11
-39.50293608989387
 21
1.355067839255468
 31
0.0
 11
-39.51744263652642
 21
1.364149260365422
 31
0.0
 11
-39.53780553443971
 21
1.380535297626408
 31
0.0
 11
-39.55568717561357
 21
1.399601307844932
 31
0.0
 11
-39.57037864376252
 21
1.420461866901291
 31
0.0
 11
-39.58198030017945
 21
1.443176128897448
 31
0.0
 11
-39.58756671519916
 21
1.458466943995347
 31
0.0
 11
-39.59162096529076
 21
1.474274885432407
 31
0.0
 11
-39.59399623670731
 21
1.49036879857033
 31
0.0
  0
DIMENSION
  5
122
330
2
100
AcDbEntity
  8
SUNPO
100
AcDbDimension
  2
*D7
 10
23.59352759409046
 20
31.68698001395353
 30
0.0
 11
21.84352759409045
 21
16.43698001395353
 31
0.0
 70
    33
  1
610
 71
     5
 42
30.5
  3
STANDARD
100
AcDbAlignedDimension
 13
15.59352759409046
 23
1.18698001395353
 33
0.0
 14
15.59352759409046
 24
31.68698001395353
 34
0.0
1001
ACAD
1000
DSTYLE
1002
{
1070
   287
1070
     3
1070
   287
1070
     3
1070
   287
1070
     3
1070
   287
1070
     3
1070
   287
1070
     3
1070
   287
1070
     3
1070
   287
1070
     3
1070
   287
1070
     3
1070
   287
1070
     3
1070
   287
1070
     3
1070
   287
1070
     3
1070
   287
1070
     3
1070
   287
1070
     3
1070
   287
1070
     3
1070
   287
1070
     3
1070
   287
1070
     3
1070
   287
1070
     3
1070
   287
1070
     3
1070
   287
1070
     3
1070
   287
1070
     3
1070
   287
1070
     3
1070
   287
1070
     3
1070
   287
1070
     3
1070
   287
1070
     3
1070
   287
1070
     3
1070
   287
1070
     3
1070
   287
1070
     3
1070
   287
1070
     3
1070
   287
1070
     3
1070
   287
1070
     3
1070
   287
1070
     3
1070
   287
1070
     3
1070
   287
1070
     3
1070
   287
1070
     3
1070
    40
1040
1.0
1070
   140
1040
2.5
1070
   147
1040
0.5
1070
   172
1070
     1
1070
   279
1070
     0
1002
}
  0
DIMENSION
  5
12F
330
2
100
AcDbEntity
  8
SUNPO
100
AcDbDimension
  2
*D6
 10
10.36597660706786
 20
39.70688977164207
 30
0.0
 11
-14.68402339293215
 21
41.45688977164207
 31
0.0
 70
    33
  1
1020
 71
     5
 42
50.10000000000002
  3
STANDARD
100
AcDbAlignedDimension
 13
-39.73402339293216
 23
31.6866935696022
 33
0.0
 14
10.36597660706786
 24
31.6866935696022
 34
0.0
1001
ACAD
1000
DSTYLE
1002
{
1070
   287
1070
     3
1070
   287
1070
     3
1070
   287
1070
     3
1070
   287
1070
     3
1070
   287
1070
     3
1070
   287
1070
     3
1070
   287
1070
     3
1070
   287
1070
     3
1070
   287
1070
     3
1070
   287
1070
     3
1070
   287
1070
     3
1070
   287
1070
     3
1070
   287
1070
     3
1070
   287
1070
     3
1070
   287
1070
     3
1070
   287
1070
     3
1070
   287
1070
     3
1070
   287
1070
     3
1070
   287
1070
     3
1070
   287
1070
     3
1070
   287
1070
     3
1070
   287
1070
     3
1070
   287
1070
     3
1070
   287
1070
     3
1070
   287
1070
     3
1070
   287
1070
     3
1070
   287
1070
     3
1070
   287
1070
     3
1070
   287
1070
     3
1070
   287
1070
     3
1070
   287
1070
     3
1070
   287
1070
     3
1070
   287
1070
     3
1070
   287
1070
     3
1070
    40
1040
1.0
1070
   140
1040
2.5
1070
   147
1040
0.5
1070
   172
1070
     1
1070
   279
1070
     0
1002
}
  0
LINE
  5
13C
330
2
100
AcDbEntity
  8
GAIKEI
  6
Continuous
 62
     1
100
AcDbLine
 10
10.28369208610877
 20
1.465813782311641
 30
0.0
 11
10.83569398354871
 21
1.465813782311641
 31
0.0
  0
LINE
  5
13D
330
2
100
AcDbEntity
  8
GAIKEI
  6
Continuous
 62
     7
100
AcDbLine
 10
10.28369114350744
 20
31.42438080277646
 30
0.0
 11
10.83569398354871
 21
31.42438080277634
 31
0.0
  0
LINE
  5
13E
330
2
100
AcDbEntity
  8
GAIKEI
  6
Continuous
100
AcDbLine
 10
10.87285185341221
 20
1.495821489626763
 30
0.0
 11
10.26482203682917
 21
1.495821489626763
 31
0.0
  0
LINE
  5
13F
330
2
100
AcDbEntity
  8
GAIKEI
  6
Continuous
 62
     1
100
AcDbLine
 10
10.26482203682917
 20
30.96656366487889
 30
0.0
 11
10.87296567955906
 21
30.96656366487889
 31
0.0
  0
LINE
  5
140
330
2
100
AcDbEntity
  8
GAIKEI
  6
Continuous
 62
     1
100
AcDbLine
 10
10.87296567955906
 20
1.487263025168147
 30
0.0
 11
10.87284352205051
 21
31.3956917505667
 31
0.0
  0
LINE
  5
141
330
2
100
AcDbEntity
  8
GAIKEI
  6
Continuous
 62
     1
100
AcDbLine
 10
10.90800300731655
 20
1.529796638220403
 30
0.0
 11
10.90800300731655
 21
31.36041044799544
 31
0.0
  0
LINE
  5
142
330
2
100
AcDbEntity
  8
GAIKEI
  6
Continuous
 62
     1
100
AcDbLine
 10
15.53484877772672
 20
1.528966563330499
 30
0.0
 11
15.53484877772672
 21
31.3612405228854
 31
0.0
  0
LINE
  5
143
330
2
100
AcDbEntity
  8
GAIKEI
  6
Continuous
 62
     1
100
AcDbLine
 10
15.57002023411877
 20
31.39752297046812
 30
0.0
 11
15.57002023411871
 21
1.492671733776774
 31
0.0
  0
LINE
  5
144
330
2
100
AcDbEntity
  8
GAIKEI
  6
Continuous
 62
     1
100
AcDbLine
 10
15.30113602534141
 20
1.763618983826603
 30
0.0
 11
15.30113602534141
 21
31.12658768568497
 31
0.0
  0
LINE
  5
145
330
2
100
AcDbEntity
  8
GAIKEI
  6
Continuous
100
AcDbLine
 10
15.61719245682775
 20
1.400414965320521
 30
0.0
 11
15.61719245682775
 21
31.48979212089529
 31
0.0
  0
LINE
  5
146
330
2
100
AcDbEntity
  8
GAIKEI
  6
Continuous
 62
     1
100
AcDbLine
 10
11.14171534299766
 20
1.763643569378103
 30
0.0
 11
11.14171534299766
 21
31.12655143241421
 31
0.0
  0
LINE
  5
147
330
2
100
AcDbEntity
  8
GAIKEI
  6
Continuous
 62
     1
100
AcDbLine
 10
10.8655675120915
 20
1.923630920209063
 30
0.0
 11
10.26482203682917
 21
1.923630920209063
 31
0.0
  0
LINE
  5
148
330
2
100
AcDbEntity
  8
GAIKEI
  6
Continuous
 62
     1
100
AcDbLine
 10
10.83569398354871
 20
1.465813782311641
 30
0.0
 11
10.83569398354871
 21
1.495821489626763
 31
0.0
  0
LINE
  5
149
330
2
100
AcDbEntity
  8
GAIKEI
 62
     7
100
AcDbLine
 10
10.94763969494909
 20
31.69522065745179
 30
0.0
 11
15.41483045154416
 21
31.69363122851917
 31
0.0
  0
LINE
  5
14A
330
2
100
AcDbEntity
  8
GAIKEI
 62
     1
100
AcDbLine
 10
11.07258078075898
 20
31.59544121740788
 30
0.0
 11
15.33724776838949
 21
31.59697944212502
 31
0.0
  0
LINE
  5
14B
330
2
100
AcDbEntity
  8
GAIKEI
 62
     1
100
AcDbLine
 10
11.34172130433398
 20
31.32655697704632
 30
0.0
 11
15.1011546495564
 21
31.32655697704632
 31
0.0
  0
ARC
  5
14C
330
2
100
AcDbEntity
  8
GAIKEI
 62
     1
100
AcDbCircle
 10
15.07309709094431
 20
31.09851634672663
 30
0.0
 40
0.2297602134223355
100
AcDbArc
 50
7.017741388704748
 51
82.98572097067582
  0
LINE
  5
14D
330
2
100
AcDbEntity
  8
GAIKEI
 62
     1
100
AcDbLine
 10
15.33735764158371
 20
31.56221068026435
 30
0.0
 11
15.1011471488797
 21
31.32657364521674
 31
0.0
  0
LINE
  5
14E
330
2
100
AcDbEntity
  8
GAIKEI
 62
     1
100
AcDbLine
 10
15.53477668788935
 20
31.36122718834895
 30
0.0
 11
15.30113769215842
 21
31.12660852089806
 31
0.0
  0
ARC
  5
14F
330
2
100
AcDbEntity
  8
GAIKEI
 62
     1
100
AcDbCircle
 10
15.34763349612092
 20
31.37485363829148
 30
0.0
 40
0.1876386270555872
100
AcDbArc
 50
355.8354739858283
 51
93.13932049358143
  0
ARC
  5
150
330
2
100
AcDbEntity
  8
GAIKEI
 62
     1
100
AcDbCircle
 10
15.36792425636679
 20
31.3972250277086
 30
0.0
 40
0.2020961973750216
100
AcDbArc
 50
0.0844690254387119
 51
98.73076176903737
  0
ARC
  5
151
330
2
100
AcDbEntity
  8
GAIKEI
 62
     7
100
AcDbCircle
 10
15.41358664230819
 20
31.49002907326292
 30
0.0
 40
0.2036059544473368
100
AcDbArc
 50
359.9332968071163
 51
89.64998340448273
  0
LINE
  5
152
330
2
100
AcDbEntity
  8
GAIKEI
 62
     1
100
AcDbLine
 10
11.10788670045735
 20
31.56028179530165
 30
0.0
 11
15.33735764158371
 21
31.56221068026435
 31
0.0
  0
ARC
  5
153
330
2
100
AcDbEntity
  8
GAIKEI
 62
     1
100
AcDbCircle
 10
11.09567508421355
 20
31.37260507692497
 30
0.0
 40
0.1880654729935096
100
AcDbArc
 50
86.30952065866955
 51
183.6868940004318
  0
ARC
  5
154
330
2
100
AcDbEntity
  8
GAIKEI
 62
     1
100
AcDbCircle
 10
11.0718547148665
 20
31.39642997984379
 30
0.0
 40
0.1990125620368673
100
AcDbArc
 50
89.79096493632331
 51
180.2125369296195
  0
ARC
  5
155
330
2
100
AcDbEntity
  8
GAIKEI
 62
     7
100
AcDbCircle
 10
10.97293117875358
 20
31.49550553716017
 30
0.0
 40
0.2013101796385793
100
AcDbArc
 50
97.21739309546924
 51
179.6004432531238
  0
LINE
  5
156
330
2
100
AcDbEntity
  8
GAIKEI
 62
     7
100
AcDbLine
 10
10.77162589403565
 20
31.49690937858168
 30
0.0
 11
10.77162570326624
 21
31.42438080277634
 31
0.0
  0
LINE
  5
157
330
2
100
AcDbEntity
  8
GAIKEI
 62
     1
100
AcDbLine
 10
10.77156486444403
 20
31.49690942969028
 30
0.0
 11
10.87284352205046
 21
31.3956917505667
 31
0.0
  0
LINE
  5
158
330
2
100
AcDbEntity
  8
GAIKEI
 62
     1
100
AcDbLine
 10
10.97132652834602
 20
31.6966588454228
 30
0.0
 11
11.07258078075898
 21
31.59544121740788
 31
0.0
  0
LINE
  5
159
330
2
100
AcDbEntity
  8
GAIKEI
 62
     1
100
AcDbLine
 10
11.10778019801307
 20
31.56028056374248
 30
0.0
 11
11.34172213774252
 21
31.32656822806138
 31
0.0
  0
LINE
  5
15A
330
2
100
AcDbEntity
  8
GAIKEI
 62
     1
100
AcDbLine
 10
10.90799884027399
 20
31.36051170713108
 30
0.0
 11
11.14171117595504
 21
31.12656935069742
 31
0.0
  0
ARC
  5
15B
330
2
100
AcDbEntity
  8
GAIKEI
 62
     1
100
AcDbCircle
 10
11.36226953389496
 20
31.10599630581305
 30
0.0
 40
0.2215157769392105
100
AcDbArc
 50
95.32251858901785
 51
174.6710350180338
  0
LINE
  5
15C
330
2
100
AcDbEntity
  8
GAIKEI
 62
     1
100
AcDbLine
 10
11.34172130433398
 20
1.563637608041659
 30
0.0
 11
15.1011546495564
 21
1.563637608041659
 31
0.0
  0
LINE
  5
15D
330
2
100
AcDbEntity
  8
GAIKEI
 62
     1
100
AcDbLine
 10
11.10788670045735
 20
1.329912908943271
 30
0.0
 11
15.33735764158371
 21
1.327984023980519
 31
0.0
  0
LINE
  5
15E
330
2
100
AcDbEntity
  8
GAIKEI
 62
     1
100
AcDbLine
 10
11.10788670045735
 20
1.294887776296462
 30
0.0
 11
15.37042947300244
 21
1.29298330759903
 31
0.0
  0
LINE
  5
15F
330
2
100
AcDbEntity
  8
GAIKEI
100
AcDbLine
 10
10.97132652834602
 20
1.193548066954804
 30
0.0
 11
15.41483045154416
 21
1.196575683858355
 31
0.0
  0
ARC
  5
160
330
2
100
AcDbEntity
  8
GAIKEI
100
AcDbCircle
 10
15.41360766530533
 20
1.4001569684672
 30
0.0
 40
0.2035849568341477
100
AcDbArc
 50
270.3441359964477
 51
0.0725837919534603
  0
ARC
  5
161
330
2
100
AcDbEntity
  8
GAIKEI
 62
     1
100
AcDbCircle
 10
15.3715051316002
 20
1.491498960091831
 30
0.0
 40
0.1985185667036251
100
AcDbArc
 50
269.6895454140713
 51
0.3384840745396702
  0
ARC
  5
162
330
2
100
AcDbEntity
  8
GAIKEI
 62
     1
100
AcDbCircle
 10
15.34763806578189
 20
1.515394168321876
 30
0.0
 40
0.1876653470639542
100
AcDbArc
 50
266.8929797803744
 51
4.147369451348247
  0
ARC
  5
163
330
2
100
AcDbEntity
  8
GAIKEI
 62
     1
100
AcDbCircle
 10
15.07308668071766
 20
1.791686952665315
 30
0.0
 40
0.229770133955667
100
AcDbArc
 50
277.0165901477274
 51
352.9834098522841
  0
LINE
  5
164
330
2
100
AcDbEntity
  8
GAIKEI
 62
     1
100
AcDbLine
 10
15.1011546495564
 20
1.563646358831221
 30
0.0
 11
15.33746638642378
 21
1.328004682417059
 31
0.0
  0
LINE
  5
165
330
2
100
AcDbEntity
  8
GAIKEI
 62
     1
100
AcDbLine
 10
15.30113644204561
 20
1.763602732360396
 30
0.0
 11
15.53477585448087
 21
1.528984481613747
 31
0.0
  0
ARC
  5
166
330
2
100
AcDbEntity
  8
GAIKEI
100
AcDbCircle
 10
10.97277331640401
 20
1.394633853342696
 30
0.0
 40
0.2011519427009429
100
AcDbArc
 50
180.3841152231924
 51
269.5913732137488
  0
ARC
  5
167
330
2
100
AcDbEntity
  8
GAIKEI
 62
     1
100
AcDbCircle
 10
11.07592656636569
 20
1.495442395460429
 30
0.0
 40
0.2030852171852302
100
AcDbArc
 50
180.2650426354837
 51
279.0544497008039
  0
ARC
  5
168
330
2
100
AcDbEntity
  8
GAIKEI
 62
     1
100
AcDbCircle
 10
11.09568346434696
 20
1.517587903900022
 30
0.0
 40
0.1880713234482933
100
AcDbArc
 50
176.3034445759356
 51
273.7203198838038
  0
LINE
  5
169
330
2
100
AcDbEntity
  8
GAIKEI
 62
     1
100
AcDbLine
 10
11.10778519846428
 20
1.329927355881949
 30
0.0
 11
11.34172713819367
 21
1.563639691562997
 31
0.0
  0
LINE
  5
16A
330
2
100
AcDbEntity
  8
GAIKEI
 62
     1
100
AcDbLine
 10
11.14171575970192
 20
1.763655653801691
 30
0.0
 11
10.90800342402076
 21
1.529713297367976
 31
0.0
  0
ARC
  5
16B
330
2
100
AcDbEntity
  8
GAIKEI
 62
     1
100
AcDbCircle
 10
11.36235662061671
 20
1.784362516335107
 30
0.0
 40
0.2216847782785941
100
AcDbArc
 50
185.3627964532823
 51
264.6604592730519
  0
LINE
  5
16C
330
2
100
AcDbEntity
  8
GAIKEI
100
AcDbLine
 10
10.77155319672465
 20
1.393288072327521
 30
0.0
 11
10.77162570326624
 21
1.465813782311641
 31
0.0
  0
ELLIPSE
  5
16D
330
2
100
AcDbEntity
  8
GAIKEI
  6
Continuous
 62
     1
100
AcDbEllipse
 10
10.28382185816832
 20
31.53761126020697
 30
0.0
 11
0.0079467640876592
 21
0.4318755208183608
 31
0.0
210
0.0
220
0.0
230
-1.0
 40
0.0404429999982552
 41
4.285401047308635
 42
4.371811220305964
  0
ELLIPSE
  5
16E
330
2
100
AcDbEntity
  8
GAIKEI
  6
Continuous
 62
     1
100
AcDbEllipse
 10
10.28382185816826
 20
1.351350517171908
 30
0.0
 11
-0.007946764087659
 21
0.4318755208183799
 31
0.0
210
0.0
220
0.0
230
-1.0
 40
0.0404429999982537
 41
-1.230218566716188
 42
-1.143808393718863
  0
ELLIPSE
  5
16F
330
2
100
AcDbEntity
  8
GAIKEI
  6
Continuous
 62
     1
100
AcDbEllipse
 10
10.20891800346226
 20
31.6125151149131
 30
0.0
 11
0.431875520819235
 21
0.0079467640870345
 31
0.0
210
0.0
220
0.0
230
-1.0
 40
0.0404429999987592
 41
1.911374086872785
 42
1.997784259870051
  0
ELLIPSE
  5
170
330
2
100
AcDbEntity
  8
GAIKEI
  6
Continuous
 62
     1
100
AcDbEllipse
 10
10.20891800346226
 20
1.27644666246573
 30
0.0
 11
-0.4318755208195003
 21
0.0079467640870295
 31
0.0
210
0.0
220
0.0
230
-1.0
 40
0.0404429999987397
 41
1.14380839372002
 42
1.230218566717296
  0
ELLIPSE
  5
171
330
2
100
AcDbEntity
  8
GAIKEI
  6
Continuous
 62
     1
100
AcDbEllipse
 10
7.794388051806606
 20
29.44939509383534
 30
0.0
 11
0.0641306772673077
 21
0.0819853242396075
 31
0.0
210
0.0
220
0.0
230
-1.0
 40
0.9602119999885655
 41
-0.6513938849655593
 42
-0.3742724759626874
  0
ELLIPSE
  5
172
330
2
100
AcDbEntity
  8
GAIKEI
  6
Continuous
 62
     1
100
AcDbEllipse
 10
7.794388051806549
 20
3.572013073329458
 30
0.0
 11
-0.0641306772804553
 21
0.0819853242296695
 31
0.0
210
0.0
220
0.0
230
-1.0
 40
0.960211999997915
 41
3.515865129711884
 42
3.792986538710805
  0
ELLIPSE
  5
173
330
2
100
AcDbEntity
  8
GAIKEI
  6
Continuous
 62
     1
100
AcDbEllipse
 10
7.794377100833685
 20
29.44938414286247
 30
0.0
 11
0.0820793596799872
 21
0.0640376871272272
 31
0.0
210
0.0
220
0.0
230
-1.0
 40
0.960042000004322
 41
0.3752614366540838
 42
0.6500607538632135
  0
ELLIPSE
  5
174
330
2
100
AcDbEntity
  8
GAIKEI
  6
Continuous
 62
     1
100
AcDbEllipse
 10
7.794377100833628
 20
3.572024024302436
 30
0.0
 11
-0.0820793596877476
 21
0.0640376871167843
 31
0.0
210
0.0
220
0.0
230
-1.0
 40
0.9600419999991441
 41
2.491531899849828
 42
2.766331217060938
  0
ELLIPSE
  5
175
330
2
100
AcDbEntity
  8
GAIKEI
  6
Continuous
 62
     1
100
AcDbEllipse
 10
7.794388051806549
 20
3.574752016666252
 30
0.0
 11
-0.0911712404724387
 21
0.1233277374014959
 31
0.0
210
0.0
220
0.0
230
-1.0
 40
0.9776259999899165
 41
3.490282879346349
 42
3.767404288348283
  0
ELLIPSE
  5
176
330
2
100
AcDbEntity
  8
GAIKEI
  6
Continuous
 62
     1
100
AcDbEllipse
 10
7.794388051806606
 20
29.44665615049854
 30
0.0
 11
0.0911712405137963
 21
0.1233277373716018
 31
0.0
210
0.0
220
0.0
230
-1.0
 40
0.9776260000001293
 41
-0.6258116350885031
 42
-0.3486902260919513
  0
ELLIPSE
  5
177
330
2
100
AcDbEntity
  8
GAIKEI
  6
Continuous
 62
     1
100
AcDbEllipse
 10
7.791598253951633
 20
3.572024024302436
 30
0.0
 11
-0.1234686257683748
 21
0.0910092022787943
 31
0.0
210
0.0
220
0.0
230
-1.0
 40
0.9775040000039993
 41
2.51722575267712
 42
2.792025069887031
  0
ELLIPSE
  5
178
330
2
100
AcDbEntity
  8
GAIKEI
  6
Continuous
 62
     1
100
AcDbEllipse
 10
7.79159825395169
 20
29.44938414286247
 30
0.0
 11
0.1234686257922888
 21
0.0910092022455151
 31
0.0
210
0.0
220
0.0
230
-1.0
 40
0.9775039999962212
 41
0.3495675834329772
 42
0.6243669006472979
  0
ELLIPSE
  5
179
330
2
100
AcDbEntity
  8
GAIKEI
  6
Continuous
 62
     1
100
AcDbEllipse
 10
9.35717668194718
 20
2.203091838686873
 30
0.0
 11
-0.5814136090118486
 21
0.5814136090118486
 31
0.0
210
0.0
220
0.0
230
-1.0
 40
0.4561099999999815
 41
2.756538952252924
 42
3.526646354926543
  0
ELLIPSE
  5
17A
330
2
100
AcDbEntity
  8
GAIKEI
  6
Continuous
 62
     1
100
AcDbEllipse
 10
9.35717668194718
 20
30.68586993869189
 30
0.0
 11
0.581413609011845
 21
0.581413609011845
 31
0.0
210
0.0
220
0.0
230
-1.0
 40
0.4561099999999933
 41
-0.3850537013368589
 42
0.3850537013368587
  0
ARC
  5
17B
330
2
100
AcDbEntity
  8
GAIKEI
  6
Continuous
 62
     1
100
AcDbCircle
 10
10.16595883682782
 20
31.4946520935726
 30
0.0
 40
0.2000177702400075
100
AcDbArc
 50
0.0
 51
0.0784680000144228
  0
ARC
  5
17C
330
2
100
AcDbEntity
  8
GAIKEI
  6
Continuous
 62
     1
100
AcDbCircle
 10
10.16595883682782
 20
1.394309683806227
 30
0.0
 40
0.2000177702400075
100
AcDbArc
 50
359.9215319999856
 51
0.0
  0
ARC
  5
17D
330
2
100
AcDbEntity
  8
GAIKEI
  6
Continuous
 62
     1
100
AcDbCircle
 10
10.16595883682782
 20
31.4946520935726
 30
0.0
 40
0.2000177702400075
100
AcDbArc
 50
89.92153200000187
 51
90.0
  0
ARC
  5
17E
330
2
100
AcDbEntity
  8
GAIKEI
  6
Continuous
 62
     1
100
AcDbCircle
 10
10.16595883682782
 20
1.394309683806227
 30
0.0
 40
0.2000177702400075
100
AcDbArc
 50
270.0
 51
270.0784679999981
  0
ARC
  5
17F
330
2
100
AcDbEntity
  8
GAIKEI
  6
Continuous
 62
     7
100
AcDbCircle
 10
10.16595883682782
 20
1.394309683806227
 30
0.0
 40
0.2000177702400075
100
AcDbArc
 50
270.0784679999981
 51
359.9215319999856
  0
ARC
  5
180
330
2
100
AcDbEntity
  8
GAIKEI
  6
Continuous
 62
     7
100
AcDbCircle
 10
10.16595883682782
 20
31.4946520935726
 30
0.0
 40
0.2000177702400075
100
AcDbArc
 50
0.0784680000144228
 51
89.92153200000187
  0
ARC
  5
181
330
2
100
AcDbEntity
  8
GAIKEI
  6
Continuous
 62
     1
100
AcDbCircle
 10
7.798620277811551
 20
29.45362076925835
 30
0.0
 40
0.0982869821404501
100
AcDbArc
 50
15.61945599999436
 51
74.25064600000702
  0
ARC
  5
182
330
2
100
AcDbEntity
  8
GAIKEI
  6
Continuous
 62
     1
100
AcDbCircle
 10
8.73310707643111
 20
2.786997958692836
 30
0.0
 40
0.1000088851200038
100
AcDbArc
 50
270.0
 51
0.0
  0
ARC
  5
183
330
2
100
AcDbEntity
  8
GAIKEI
  6
Continuous
 62
     1
100
AcDbCircle
 10
8.733107076431167
 20
30.08696206921423
 30
0.0
 40
0.1000088851200038
100
AcDbArc
 50
0.0
 51
90.0
  0
ARC
  5
184
330
2
100
AcDbEntity
  8
GAIKEI
  6
Continuous
 62
     1
100
AcDbCircle
 10
8.733107076431167
 20
30.08696206921423
 30
0.0
 40
0.2019818947393219
100
AcDbArc
 50
0.0
 51
90.0
  0
ARC
  5
185
330
2
100
AcDbEntity
  8
GAIKEI
  6
Continuous
 62
     1
100
AcDbCircle
 10
8.73310707643111
 20
2.786997958692836
 30
0.0
 40
0.2019818947393219
100
AcDbArc
 50
270.0
 51
0.0
  0
LINE
  5
186
330
2
100
AcDbEntity
  8
GAIKEI
  6
Continuous
 62
     7
100
AcDbLine
 10
10.36597660706786
 20
31.4946520935726
 30
0.0
 11
10.36597660706786
 21
1.394309683806227
 31
0.0
  0
LINE
  5
187
330
2
100
AcDbEntity
  8
GAIKEI
  6
Continuous
 62
     1
100
AcDbLine
 10
10.2647044597154
 20
1.495307756808983
 30
0.0
 11
10.36597640705008
 21
1.394035759469886
 31
0.0
  0
LINE
  5
188
330
2
100
AcDbEntity
  8
GAIKEI
  6
Continuous
 62
     1
100
AcDbLine
 10
10.16623276116422
 20
1.194292113583969
 30
0.0
 11
10.06496076382507
 21
1.295564060918593
 31
0.0
  0
LINE
  5
189
330
2
100
AcDbEntity
  8
GAIKEI
  6
Continuous
 62
     1
100
AcDbLine
 10
10.06496076382507
 20
31.59339771646023
 30
0.0
 11
10.16623276116422
 21
31.69466966379486
 31
0.0
  0
LINE
  5
18A
330
2
100
AcDbEntity
  8
GAIKEI
  6
Continuous
 62
     1
100
AcDbLine
 10
10.36597640705008
 20
31.49492601790894
 30
0.0
 11
10.2647044597154
 21
31.39365402056984
 31
0.0
  0
LINE
  5
18B
330
2
100
AcDbEntity
  8
GAIKEI
  6
Continuous
 62
     1
100
AcDbLine
 10
10.26463285335376
 20
31.3590506962961
 30
0.0
 11
10.26463285335376
 21
1.529911081082673
 31
0.0
  0
LINE
  5
18C
330
2
100
AcDbEntity
  8
GAIKEI
  6
Continuous
 62
     1
100
AcDbLine
 10
7.896925261551302
 20
29.45266888468978
 30
0.0
 11
7.896925261551245
 21
3.568739282475121
 31
0.0
  0
LINE
  5
18D
330
2
100
AcDbEntity
  8
GAIKEI
  6
Continuous
 62
     1
100
AcDbLine
 10
8.833115961551129
 20
2.786997958692836
 30
0.0
 11
8.833115961551186
 21
30.08696206921423
 31
0.0
  0
LINE
  5
18E
330
2
100
AcDbEntity
  8
GAIKEI
  6
Continuous
 62
     1
100
AcDbLine
 10
7.943778124114487
 20
3.568739282475121
 30
0.0
 11
7.943778124114544
 21
29.45266888468978
 31
0.0
  0
LINE
  5
18F
330
2
100
AcDbEntity
  8
GAIKEI
  6
Continuous
 62
     1
100
AcDbLine
 10
8.82461945669354
 20
2.749996121327228
 30
0.0
 11
7.938068266831862
 21
3.527854700153625
 31
0.0
  0
LINE
  5
190
330
2
100
AcDbEntity
  8
GAIKEI
  6
Continuous
 62
     1
100
AcDbLine
 10
7.838878454480948
 20
3.428392763626277
 30
0.0
 11
8.689500271361453
 21
2.686989073572874
 31
0.0
  0
LINE
  5
191
330
2
100
AcDbEntity
  8
GAIKEI
  6
Continuous
 62
     1
100
AcDbLine
 10
7.938068266831919
 20
29.49355346701128
 30
0.0
 11
8.824619456693596
 21
30.12396390657983
 31
0.0
  0
LINE
  5
192
330
2
100
AcDbEntity
  8
GAIKEI
  6
Continuous
 62
     1
100
AcDbLine
 10
8.688274243334035
 20
30.18572699381673
 30
0.0
 11
7.838878454481005
 21
29.59301540353852
 31
0.0
  0
LINE
  5
193
330
2
100
AcDbEntity
  8
GAIKEI
  6
Continuous
 62
     1
100
AcDbLine
 10
10.2295718384172
 20
1.529911081082673
 30
0.0
 11
10.2295718384172
 21
31.3590506962961
 31
0.0
  0
LINE
  5
194
330
2
100
AcDbEntity
  8
GAIKEI
  6
Continuous
 62
     1
100
AcDbLine
 10
10.2295718384172
 20
31.3590506962961
 30
0.0
 11
9.995625403842439
 21
31.12510426172145
 31
0.0
  0
LINE
  5
195
330
2
100
AcDbEntity
  8
GAIKEI
  6
Continuous
 62
     1
100
AcDbLine
 10
9.796411004976675
 20
31.32431866058733
 30
0.0
 11
10.03035743955138
 21
31.55826509516197
 31
0.0
  0
LINE
  5
196
330
2
100
AcDbEntity
  8
GAIKEI
  6
Continuous
 62
     1
100
AcDbLine
 10
10.03035743955138
 20
1.330696682216853
 30
0.0
 11
9.796411004976675
 21
1.564643116791614
 31
0.0
  0
LINE
  5
197
330
2
100
AcDbEntity
  8
GAIKEI
  6
Continuous
 62
     1
100
AcDbLine
 10
9.995625403842382
 20
1.763857515657377
 30
0.0
 11
10.2295718384172
 21
1.529911081082673
 31
0.0
  0
LINE
  5
198
330
2
100
AcDbEntity
  8
GAIKEI
  6
Continuous
 62
     1
100
AcDbLine
 10
8.9350889711705
 20
30.08696206921423
 30
0.0
 11
8.935088971170443
 21
2.786997958692836
 31
0.0
  0
LINE
  5
199
330
2
100
AcDbEntity
  8
GAIKEI
  6
Continuous
 62
     1
100
AcDbLine
 10
9.995625403842439
 20
31.12510426172145
 30
0.0
 11
9.995625403842382
 21
1.763857515657377
 31
0.0
  0
SPLINE
  5
19A
330
2
100
AcDbEntity
  8
GAIKEI
  6
Continuous
 62
     1
100
AcDbSpline
210
0.0
220
0.0
230
1.0
 70
     8
 71
     3
 72
    21
 73
    17
 74
    15
 42
0.0000000001
 43
0.0000000001
 44
0.000001
 12
0.0001490760298766
 22
-0.9999999888881687
 32
0.0
 13
-0.9999997489039975
 23
0.0007086550233522
 33
0.0
 40
0.0
 40
0.0
 40
0.0
 40
0.0
 40
0.0220203622856797
 40
0.0441150886358803
 40
0.0661420247968133
 40
0.0881945815693764
 40
0.110315282056298
 40
0.1323682426974098
 40
0.1546938208840663
 40
0.1770898850745047
 40
0.1994152170311402
 40
0.2218138290891992
 40
0.2442838362701964
 40
0.2666822908844275
 40
0.2901709918964654
 40
0.3136542532514654
 40
0.3136542532514654
 40
0.3136542532514654
 40
0.3136542532514654
 10
10.26470444009931
 20
1.495307733372158
 30
0.0
 10
10.26470553433537
 20
1.487967612691818
 30
0.0
 10
10.2639057520422
 20
1.473249119319035
 30
0.0
 10
10.26027771738457
 20
1.451459695876422
 30
0.0
 10
10.25429244754167
 20
1.430181024696764
 30
0.0
 10
10.24593136441595
 20
1.409709681433724
 30
0.0
 10
10.23538234810675
 20
1.390268788715246
 30
0.0
 10
10.2227216769003
 20
1.372017685229764
 30
0.0
 10
10.20800970630851
 20
1.355251518176345
 30
0.0
 10
10.19147354812061
 20
1.340150981804356
 30
0.0
 10
10.17335057626768
 20
1.326950056426937
 30
0.0
 10
10.15381288389739
 20
1.315899760833787
 30
0.0
 10
10.13315109965565
 20
1.307074059833837
 30
0.0
 10
10.11128398604606
 20
1.300496772047097
 30
0.0
 10
10.0884616100119
 20
1.296462952469823
 30
0.0
 10
10.07278853908131
 20
1.295558533357649
 30
0.0
 10
10.06496078726184
 20
1.295564080534688
 30
0.0
 11
10.26470444009931
 21
1.495307733372158
 31
0.0
 11
10.26350425079999
 21
1.473319536809015
 31
0.0
 11
10.25988094973172
 21
1.451523915788072
 31
0.0
 11
10.25390090465203
 21
1.430324252882599
 31
0.0
 11
10.24557755853493
 21
1.409902737872528
 31
0.0
 11
10.23502778936017
 21
1.390459776802856
 31
0.0
 11
10.22244626199392
 21
1.372347925149199
 31
0.0
 11
10.20773268982498
 21
1.355556760015645
 31
0.0
 11
10.19119465364952
 21
1.340454507508525
 31
0.0
 11
10.1731397177241
 21
1.327322838613611
 31
0.0
 11
10.15365099070788
 21
1.316282538578263
 31
0.0
 11
10.13298647052113
 21
1.307457588850184
 31
0.0
 11
10.1115339107215
 21
1.301017127413558
 31
0.0
 11
10.08840551882156
 21
1.296918694103794
 31
0.0
 11
10.06496078726184
 21
1.295564080534688
 31
0.0
  0
SPLINE
  5
19B
330
2
100
AcDbEntity
  8
GAIKEI
  6
Continuous
 62
     1
100
AcDbSpline
210
0.0
220
0.0
230
1.0
 70
     8
 71
     3
 72
    21
 73
    17
 74
    15
 42
0.0000000001
 43
0.0000000001
 44
0.000001
 12
0.9999999888881687
 22
0.0001490760296198
 32
0.0
 13
-0.0007086550231108
 23
-0.9999997489039975
 33
0.0
 40
0.0
 40
0.0
 40
0.0
 40
0.0
 40
0.0220203622857365
 40
0.0441150886359581
 40
0.0661420247968602
 40
0.0881945815693897
 40
0.1103152820562831
 40
0.1323682426973949
 40
0.154693820884137
 40
0.1770898850744819
 40
0.1994152170312229
 40
0.221813829089162
 40
0.2442838362702637
 40
0.266682290884405
 40
0.2901709918964453
 40
0.3136542532513354
 40
0.3136542532513354
 40
0.3136542532513354
 40
0.3136542532513354
 10
10.06496078726189
 20
31.59339769684414
 30
0.0
 10
10.07230090794225
 20
31.59339879108021
 30
0.0
 10
10.08701940131504
 20
31.59259900878715
 30
0.0
 10
10.10880882475766
 20
31.58897097412913
 30
0.0
 10
10.13008749593734
 20
31.58298570428661
 30
0.0
 10
10.15055883920033
 20
31.5746246211605
 30
0.0
 10
10.16999973191878
 20
31.56407560485161
 30
0.0
 10
10.18825083540431
 20
31.5514149336451
 30
0.0
 10
10.20501700245765
 20
31.53670296305319
 30
0.0
 10
10.22011753882978
 20
31.5201668048654
 30
0.0
 10
10.2333184642071
 20
31.50204383301244
 30
0.0
 10
10.24436875980036
 20
31.4825061406421
 30
0.0
 10
10.2531944608001
 20
31.46184435640043
 30
0.0
 10
10.25977174858717
 20
31.43997724279083
 30
0.0
 10
10.26380556816441
 20
31.41715486675682
 30
0.0
 10
10.26470998727635
 20
31.40148179582622
 30
0.0
 10
10.26470444009931
 20
31.39365404400678
 30
0.0
 11
10.06496078726189
 21
31.59339769684414
 31
0.0
 11
10.08694898382509
 21
31.59219750754483
 31
0.0
 11
10.10874460484604
 21
31.58857420647644
 31
0.0
 11
10.12994426775151
 21
31.58259416139685
 31
0.0
 11
10.15036578276152
 21
31.57427081527965
 31
0.0
 11
10.16980874383119
 21
31.563721046105
 31
0.0
 11
10.18792059548485
 21
31.55113951873875
 31
0.0
 11
10.20471176061841
 21
31.53642594656969
 31
0.0
 11
10.21981401312553
 21
31.51988791039435
 31
0.0
 11
10.2329456820205
 21
31.50183297446881
 31
0.0
 11
10.24398598205579
 21
31.48234424745272
 31
0.0
 11
10.25281093178387
 21
31.46167972726585
 31
0.0
 11
10.25925139322061
 21
31.44022716746633
 31
0.0
 11
10.26334982653037
 21
31.41709877556639
 31
0.0
 11
10.26470444009931
 21
31.39365404400678
 31
0.0
  0
SPLINE
  5
19C
330
2
100
AcDbEntity
  8
GAIKEI
  6
Continuous
 62
     1
100
AcDbSpline
210
0.0
220
0.0
230
1.0
 70
     8
 71
     3
 72
    14
 73
    10
 74
     8
 42
0.0000000001
 43
0.0000000001
 44
0.000001
 12
-0.2697836156325394
 22
-0.9629209732559752
 32
0.0
 13
-0.9616843088117285
 23
-0.2741592423853476
 33
0.0
 40
0.0
 40
0.0
 40
0.0
 40
0.0
 40
0.0000567608952277
 40
0.0167840465309865
 40
0.0335125966987313
 40
0.050237418886044
 40
0.0669622291995328
 40
0.0837063784098639
 40
0.1004494891285271
 40
0.1004494891285271
 40
0.1004494891285271
 40
0.1004494891285271
 10
7.893277664703589
 20
3.541323923731056
 30
0.0
 10
7.893272560317072
 20
3.541305704978896
 30
0.0
 10
7.891761476069788
 20
3.535918970746848
 30
0.0
 10
7.887801521761204
 20
3.525407068277161
 30
0.0
 10
7.879353599229943
 20
3.510880156116854
 30
0.0
 10
7.868513844382093
 20
3.498034109924191
 30
0.0
 10
7.855685150390883
 20
3.487167431626772
 30
0.0
 10
7.841167090698633
 20
3.478679536668749
 30
0.0
 10
7.830665494533832
 20
3.474720356313895
 30
0.0
 10
7.825298298914219
 20
3.473190263463948
 30
0.0
 11
7.893277664703589
 21
3.541323923731056
 31
0.0
 11
7.893262335580516
 21
3.541269271406122
 31
0.0
 11
7.887382577792038
 21
3.525608901959458
 31
0.0
 11
7.878954848060573
 21
3.511158449332697
 31
0.0
 11
7.868183717712952
 21
3.498363803948791
 31
0.0
 11
7.855410345285804
 21
3.487567465260895
 31
0.0
 11
7.840962629756461
 21
3.479104027225048
 31
0.0
 11
7.825298298914219
 21
3.473190263463948
 31
0.0
  0
SPLINE
  5
19D
330
2
100
AcDbEntity
  8
GAIKEI
  6
Continuous
 62
     1
100
AcDbSpline
210
0.0
220
0.0
230
1.0
 70
     8
 71
     3
 72
    19
 73
    15
 74
    13
 42
0.0000000001
 43
0.0000000001
 44
0.000001
 12
0.9639938394678312
 22
0.2659245710122878
 32
0.0
 13
0.26346002757732
 23
0.9646703135625962
 33
0.0
 40
0.0
 40
0.0
 40
0.0
 40
0.0
 40
0.0120685447878072
 40
0.0241375534231585
 40
0.0365717545461093
 40
0.0490061389643653
 40
0.0610391948686007
 40
0.0730723357382211
 40
0.0854755671878962
 40
0.0978786958477287
 40
0.1099595938326073
 40
0.1220403135244469
 40
0.1344880973698845
 40
0.1469354490877677
 40
0.1469354490877677
 40
0.1469354490877677
 40
0.1469354490877677
 10
7.838878440074665
 20
3.428392752119862
 30
0.0
 10
7.842756441016931
 20
3.429462526318332
 30
0.0
 10
7.850426291293359
 20
3.431930030442941
 30
0.0
 10
7.861690387419059
 20
3.436627662428463
 30
0.0
 10
7.872615717669688
 20
3.442339926948477
 30
0.0
 10
7.882991372174842
 20
3.448976205449753
 30
0.0
 10
7.89264320161611
 20
3.456408100816076
 30
0.0
 10
7.901622679709348
 20
3.464624384919346
 30
0.0
 10
7.909936346267031
 20
3.473683560656326
 30
0.0
 10
7.917436636371533
 20
3.483446887985564
 30
0.0
 10
7.923999911734199
 20
3.493734566412058
 30
0.0
 10
7.929675558530888
 20
3.504554294355671
 30
0.0
 10
7.934440221275437
 20
3.515937653006233
 30
0.0
 10
7.936975160990755
 20
3.523852153372359
 30
0.0
 10
7.938068287533042
 20
3.527854683600594
 30
0.0
 11
7.838878440074665
 21
3.428392752119862
 31
0.0
 11
7.850367932780898
 21
3.432087463688958
 31
0.0
 11
7.861505906789375
 21
3.436735722968364
 31
0.0
 11
7.872525512601157
 21
3.442495762952262
 31
0.0
 11
7.882999103533506
 21
3.449197873301727
 31
0.0
 11
7.892534311867734
 21
3.45653781388728
 31
0.0
 11
7.901410516801888
 21
3.464662465676269
 31
0.0
 11
7.909798533593459
 21
3.473799307014246
 31
0.0
 11
7.917353149222378
 21
3.483636273981801
 31
0.0
 11
7.923852915164445
 21
3.493819670895049
 31
0.0
 11
7.92946367990379
 21
3.504518430667417
 31
0.0
 11
7.934272772645215
 21
3.515999708963136
 31
0.0
 11
7.938068287533042
 21
3.527854683600594
 31
0.0
  0
SPLINE
  5
19E
330
2
100
AcDbEntity
  8
GAIKEI
  6
Continuous
 62
     1
100
AcDbSpline
210
0.0
220
0.0
230
1.0
 70
     8
 71
     3
 72
    19
 73
    15
 74
    13
 42
0.0000000001
 43
0.0000000001
 44
0.000001
 12
-0.2634414923284027
 22
0.9646753755122933
 32
0.0
 13
-0.9639886149825482
 23
0.2659435093850355
 33
0.0
 40
0.0
 40
0.0
 40
0.0
 40
0.0
 40
0.0120706715938937
 40
0.0241417800381306
 40
0.0365777168450848
 40
0.0490138356852637
 40
0.0610453208347818
 40
0.0730769079994253
 40
0.0854784299499467
 40
0.0978798670910625
 40
0.1099602577905378
 40
0.1220404696565295
 40
0.1344881894039871
 40
0.1469354486715612
 40
0.1469354486715612
 40
0.1469354486715612
 40
0.1469354486715612
 10
7.938068287533099
 20
29.49355348356437
 30
0.0
 10
7.937008315620403
 20
29.49743491011521
 30
0.0
 10
7.934560334069985
 20
29.50511247906275
 30
0.0
 10
7.929891885270166
 20
29.51639083720861
 30
0.0
 10
7.924208276566517
 20
29.5273331816131
 30
0.0
 10
7.917600005876451
 20
29.53772743865119
 30
0.0
 10
7.910195044791521
 20
29.54739934851375
 30
0.0
 10
7.902004868719515
 20
29.55640045683515
 30
0.0
 10
7.892970180576696
 20
29.56473828688237
 30
0.0
 10
7.883228867537667
 20
29.57226501909935
 30
0.0
 10
7.872960171098981
 20
29.57885630214349
 30
0.0
 10
7.862156306635469
 20
29.58456134882039
 30
0.0
 10
7.850785944549414
 20
29.58935643242222
 30
0.0
 10
7.842878112148611
 20
29.59191199244103
 30
0.0
 10
7.838878440074722
 20
29.59301541504499
 30
0.0
 11
7.938068287533099
 21
29.49355348356437
 31
0.0
 11
7.934402827086387
 21
29.50505456983473
 31
0.0
 11
7.929783336289233
 21
29.51620677895676
 31
0.0
 11
7.924052231612222
 21
29.52724341686167
 31
0.0
 11
7.917377778089189
 21
29.53773670976437
 31
0.0
 11
7.910065092066986
 21
29.54729085800636
 31
0.0
 11
7.901966197055287
 21
29.55618846952763
 31
0.0
 11
7.892854069925817
 21
29.56460080751993
 31
0.0
 11
7.883039559309281
 21
29.57218180751369
 31
0.0
 11
7.872874630133196
 21
29.57870947851706
 31
0.0
 11
7.862191687186395
 21
29.58434921296373
 31
0.0
 11
7.85072338669147
 21
29.58918900822323
 31
0.0
 11
7.838878440074722
 21
29.59301541504499
 31
0.0
  0
SPLINE
  5
19F
330
2
100
AcDbEntity
  8
GAIKEI
  6
Continuous
 62
     1
100
AcDbSpline
210
0.0
220
0.0
230
1.0
 70
     8
 71
     3
 72
    19
 73
    15
 74
    13
 42
0.0000000001
 43
0.0000000001
 44
0.000001
 12
-0.0944471245025448
 22
0.9955298793472755
 32
0.0
 13
-0.9955257326591484
 23
0.0944908229060694
 33
0.0
 40
0.0
 40
0.0
 40
0.0
 40
0.0
 40
0.0172124311712107
 40
0.0344312311769022
 40
0.0515392072852323
 40
0.0686910149757936
 40
0.0858057717066189
 40
0.1119433335992069
 40
0.138083350263385
 40
0.1635982876566587
 40
0.1891038875427867
 40
0.2053832094130341
 40
0.2217026553121995
 40
0.2379700129382755
 40
0.2379700129382755
 40
0.2379700129382755
 40
0.2379700129382755
 10
10.22594945084302
 20
31.39859297880855
 30
0.0
 10
10.22540756263308
 20
31.40430480865092
 30
0.0
 10
10.22370204098752
 20
31.41568275665335
 30
0.0
 10
10.2192631881314
 20
31.43231295200721
 30
0.0
 10
10.21312377312407
 20
31.44836802174811
 30
0.0
 10
10.2054437904832
 20
31.46370466104537
 30
0.0
 10
10.19474267279977
 20
31.48079293213687
 30
0.0
 10
10.18017452055876
 20
31.49886365924101
 30
0.0
 10
10.16120937880716
 20
31.51667034592094
 30
0.0
 10
10.14011908783453
 20
31.53153226150605
 30
0.0
 10
10.12008431707245
 20
31.54181066329028
 30
0.0
 10
10.10186770227187
 20
31.54847160173131
 30
0.0
 10
10.08606833354176
 20
31.55254747659058
 30
0.0
 10
10.07529791310354
 20
31.55413033558498
 30
0.0
 10
10.06989972206383
 20
31.55464270758784
 30
0.0
 11
10.22594945084302
 21
31.39859297880855
 31
0.0
 11
10.22338783804724
 21
31.41561461868401
 31
0.0
 11
10.21896752119983
 21
31.43225649474221
 31
0.0
 11
10.21287071628143
 21
31.4482412792853
 31
0.0
 11
10.20520068137864
 21
31.46358256077429
 31
0.0
 11
10.19611926026869
 21
31.47808910740685
 31
0.0
 11
10.17973322300776
 21
31.49845200532013
 31
0.0
 11
10.16066721278912
 21
31.51633364649422
 31
0.0
 11
10.13980665373276
 21
31.53102511464294
 31
0.0
 11
10.1170923917366
 21
31.54262677105987
 31
0.0
 11
10.10180157663876
 21
31.54821318607958
 31
0.0
 11
10.0859936352017
 21
31.55226743617141
 31
0.0
 11
10.06989972206383
 21
31.55464270758784
 31
0.0
  0
SPLINE
  5
1A0
330
2
100
AcDbEntity
  8
GAIKEI
  6
Continuous
 62
     1
100
AcDbSpline
210
0.0
220
0.0
230
1.0
 70
     8
 71
     3
 72
    19
 73
    15
 74
    13
 42
0.0000000001
 43
0.0000000001
 44
0.000001
 12
0.995529879347374
 22
0.0944471245015059
 32
0.0
 13
0.0944908229060039
 23
0.9955257326591544
 33
0.0
 40
0.0
 40
0.0
 40
0.0
 40
0.0
 40
0.0172124311711047
 40
0.034431231176895
 40
0.0515392072852232
 40
0.06869101497581
 40
0.0858057717066232
 40
0.1119433335992379
 40
0.1380833502631769
 40
0.1635982876565966
 40
0.189103887542712
 40
0.2053832094130079
 40
0.2217026553121167
 40
0.2379700129382677
 40
0.2379700129382677
 40
0.2379700129382677
 40
0.2379700129382677
 10
10.06989972206383
 20
1.334319069791092
 30
0.0
 10
10.07561155190619
 20
1.33486095800103
 30
0.0
 10
10.08698949990855
 20
1.336566479646734
 30
0.0
 10
10.10361969526241
 20
1.341005332502675
 30
0.0
 10
10.11967476500345
 20
1.347144747509986
 30
0.0
 10
10.13501140430062
 20
1.354824730150994
 30
0.0
 10
10.15209967539213
 20
1.365525847834362
 30
0.0
 10
10.17017040249628
 20
1.380094000075303
 30
0.0
 10
10.18797708917601
 20
1.399059141827024
 30
0.0
 10
10.20283900476134
 20
1.420149432799462
 30
0.0
 10
10.21311740654555
 20
1.440184203561585
 30
0.0
 10
10.2197783449867
 20
1.458400818362235
 30
0.0
 10
10.22385421984548
 20
1.474200187092378
 30
0.0
 10
10.22543707884014
 20
1.484970607530584
 30
0.0
 10
10.22594945084302
 20
1.49036879857033
 30
0.0
 11
10.06989972206383
 21
1.334319069791092
 31
0.0
 11
10.08692136193917
 21
1.336880682586922
 31
0.0
 11
10.10356323799749
 21
1.341300999434281
 31
0.0
 11
10.11954802254058
 21
1.347397804352624
 31
0.0
 11
10.13488930402957
 21
1.355067839255468
 31
0.0
 11
10.14939585066213
 21
1.364149260365422
 31
0.0
 11
10.16975874857542
 21
1.380535297626408
 31
0.0
 11
10.18764038974927
 21
1.399601307844932
 31
0.0
 11
10.20233185789823
 21
1.420461866901291
 31
0.0
 11
10.21393351431516
 21
1.443176128897448
 31
0.0
 11
10.21951992933486
 21
1.458466943995347
 31
0.0
 11
10.22357417942646
 21
1.474274885432407
 31
0.0
 11
10.22594945084302
 21
1.49036879857033
 31
0.0
  0
DIMENSION
  5
1A1
330
2
100
AcDbEntity
  8
SUNPO
100
AcDbDimension
  2
*D5
 10
15.61719245682775
 20
45.70688977164206
 30
0.0
 11
-14.68402339293215
 21
47.45688977164206
 31
0.0
 70
    32
  1
1230
 71
     5
 42
60.6024316995198
  3
STANDARD
100
AcDbAlignedDimension
 13
-44.98523924269204
 23
31.67572735828756
 33
0.0
 14
15.61719245682775
 24
31.66306610058999
 34
0.0
100
AcDbRotatedDimension
1001
ACAD
1000
DSTYLE
1002
{
1070
    40
1040
1.0
1070
   140
1040
2.5
1070
   147
1040
0.5
1070
   172
1070
     1
1070
   279
1070
     0
1070
   288
1070
     0
1002
}
  0
TEXT
  5
1AE
330
2
100
AcDbEntity
  8
MOJI1
100
AcDbText
 10
-60.87639882960164
 20
-34.82161262878111
 30
0.0
 40
3.0
  1
階調数
100
AcDbText
  0
TEXT
  5
1AF
330
2
100
AcDbEntity
  8
MOJI1
100
AcDbText
 10
-60.87639882960164
 20
-29.82161262878111
 30
0.0
 40
3.0
  1
コントラスト
100
AcDbText
  0
LINE
  5
1B0
330
2
100
AcDbEntity
  8
WAKU
 62
     1
100
AcDbLine
 10
-63.37639882960164
 20
-35.82161262878111
 30
0.0
 11
61.62360117039813
 21
-35.82161262878111
 31
0.0
  0
LINE
  5
1B2
330
2
100
AcDbEntity
  8
WAKU
 62
     1
100
AcDbLine
 10
-63.37639882960164
 20
-30.82161262878111
 30
0.0
 11
61.62360117039813
 21
-30.82161262878111
 31
0.0
  0
TEXT
  5
1B3
330
2
100
AcDbEntity
  8
MOJI1
100
AcDbText
 10
-60.87639882960164
 20
-9.82161262878111
 30
0.0
 40
3.0
  1
電  源
100
AcDbText
  0
TEXT
  5
1B4
330
2
100
AcDbEntity
  8
MOJI1
100
AcDbText
 10
-60.87639882960164
 20
-14.82161262878111
 30
0.0
 40
3.0
  1
消費電力
100
AcDbText
  0
TEXT
  5
1B5
330
2
100
AcDbEntity
  8
MOJI1
100
AcDbText
 10
-60.87639882960164
 20
-19.82161262878111
 30
0.0
 40
3.0
  1
画面サイズ
100
AcDbText
  0
TEXT
  5
1B6
330
2
100
AcDbEntity
  8
MOJI1
100
AcDbText
 10
-21.87639882960164
 20
-14.82161262878111
 30
0.0
 40
3.0
  1
２５０Ｗ
100
AcDbText
  0
TEXT
  5
1B7
330
2
100
AcDbEntity
  8
MOJI1
100
AcDbText
 10
-21.87639882960164
 20
-19.82161262878111
 30
0.0
 40
3.0
  1
４２型（１６：９）
100
AcDbText
  0
TEXT
  5
1B8
330
2
100
AcDbEntity
  8
MOJI1
100
AcDbText
 10
-21.87639882960164
 20
-9.82161262878111
 30
0.0
 40
3.0
  1
ＡＣ１００Ｖ±１０％　５０Ｈｚ／６０Ｈｚ
100
AcDbText
  0
TEXT
  5
1B9
330
2
100
AcDbEntity
  8
MOJI1
100
AcDbText
 10
-60.87639882960164
 20
-44.8216126287811
 30
0.0
 40
3.0
  1
接続端子
100
AcDbText
  0
TEXT
  5
1BA
330
2
100
AcDbEntity
  8
MOJI1
100
AcDbText
 10
-60.87639882960164
 20
-39.82161262878111
 30
0.0
 40
3.0
  1
音声最大出力
100
AcDbText
  0
TEXT
  5
1BB
330
2
100
AcDbEntity
  8
MOJI1
100
AcDbText
 10
-21.87639882960164
 20
-39.82161262878111
 30
0.0
 40
3.0
  1
１６Ｗ（８Ｗ＋８Ｗ）
100
AcDbText
  0
TEXT
  5
1BC
330
2
100
AcDbEntity
  8
MOJI1
100
AcDbText
 10
-21.87639882960164
 20
-24.82161262878111
 30
0.0
 40
3.0
  1
水平１０２４×垂直７６８　画素
100
AcDbText
  0
LINE
  5
1BD
330
2
100
AcDbEntity
  8
WAKU
 62
     4
100
AcDbLine
 10
-23.37639882960187
 20
-5.82161262878111
 30
0.0
 11
-23.37639882960187
 21
-50.82161262878111
 31
0.0
  0
TEXT
  5
1BE
330
2
100
AcDbEntity
  8
MOJI1
100
AcDbText
 10
-60.87639882960164
 20
-24.82161262878111
 30
0.0
 40
3.0
  1
画素数
100
AcDbText
  0
LINE
  5
1BF
330
2
100
AcDbEntity
  8
WAKU
 62
     4
100
AcDbLine
 10
61.62360117039813
 20
-5.82161262878111
 30
0.0
 11
61.62360117039813
 21
-50.82161262878111
 31
0.0
  0
LINE
  5
1C0
330
2
100
AcDbEntity
  8
WAKU
 62
     4
100
AcDbLine
 10
-63.37639882960186
 20
-5.82161262878111
 30
0.0
 11
-63.37639882960164
 21
-50.82161262878111
 31
0.0
  0
LINE
  5
1C1
330
2
100
AcDbEntity
  8
WAKU
 62
     4
100
AcDbLine
 10
61.62360117039813
 20
-50.82161262878111
 30
0.0
 11
-63.37639882960164
 21
-50.82161262878111
 31
0.0
  0
LINE
  5
1C2
330
2
100
AcDbEntity
  8
WAKU
 62
     1
100
AcDbLine
 10
-63.37639882960164
 20
-45.82161262878111
 30
0.0
 11
61.62360117039813
 21
-45.82161262878111
 31
0.0
  0
LINE
  5
1C3
330
2
100
AcDbEntity
  8
WAKU
 62
     1
100
AcDbLine
 10
-63.37639882960164
 20
-40.82161262878111
 30
0.0
 11
61.62360117039813
 21
-40.82161262878111
 31
0.0
  0
LINE
  5
1C4
330
2
100
AcDbEntity
  8
WAKU
 62
     1
100
AcDbLine
 10
-63.37639882960164
 20
-20.82161262878111
 30
0.0
 11
61.62360117039813
 21
-20.82161262878111
 31
0.0
  0
LINE
  5
1C5
330
2
100
AcDbEntity
  8
WAKU
 62
     1
100
AcDbLine
 10
-63.37639882960164
 20
-10.82161262878111
 30
0.0
 11
61.62360117039813
 21
-10.82161262878111
 31
0.0
  0
LINE
  5
1C6
330
2
100
AcDbEntity
  8
WAKU
 62
     4
100
AcDbLine
 10
-63.37639882960164
 20
-5.82161262878111
 30
0.0
 11
61.62360117039813
 21
-5.82161262878111
 31
0.0
  0
LINE
  5
1C7
330
2
100
AcDbEntity
  8
WAKU
 62
     1
100
AcDbLine
 10
-63.37639882960164
 20
-25.82161262878111
 30
0.0
 11
61.62360117039813
 21
-25.82161262878111
 31
0.0
  0
LINE
  5
1C8
330
2
100
AcDbEntity
  8
WAKU
 62
     1
100
AcDbLine
 10
-63.37639882960164
 20
-15.82161262878111
 30
0.0
 11
61.62360117039813
 21
-15.82161262878111
 31
0.0
  0
TEXT
  5
1C9
330
2
100
AcDbEntity
  8
MOJI1
100
AcDbText
 10
-21.87639882960164
 20
-34.82161262878111
 30
0.0
 40
3.0
  1
５１２０階調（相当）
100
AcDbText
  0
TEXT
  5
1CA
330
2
100
AcDbEntity
  8
MOJI1
100
AcDbText
 10
-21.87639882960164
 20
-29.82161262878111
 30
0.0
 40
3.0
  1
３００００：１
100
AcDbText
  0
ENDSEC
  0
SECTION
  2
OBJECTS
  0
DICTIONARY
  5
7
330
0
100
AcDbDictionary
281
     1
  3
ACAD_COLOR
350
2D
  3
ACAD_GROUP
350
29
  3
ACAD_LAYOUT
350
B
  3
ACAD_MATERIAL
350
2C
  3
ACAD_MLINESTYLE
350
2A
  3
ACAD_PLOTSETTINGS
350
2B
  3
ACAD_PLOTSTYLENAME
350
6
  3
ACDBHEADERROUNDTRIPXREC
350
215
  3
AcDbVariableDictionary
350
210
  0
DICTIONARY
  5
11
330
10
100
AcDbDictionary
280
     1
281
     1
  3
ACAD_LAYERSTATES
360
12
  0
DICTIONARY
  5
2D
102
{ACAD_REACTORS
330
7
102
}
330
7
100
AcDbDictionary
281
     1
  0
DICTIONARY
  5
29
102
{ACAD_REACTORS
330
7
102
}
330
7
100
AcDbDictionary
281
     1
  0
DICTIONARY
  5
B
102
{ACAD_REACTORS
330
7
102
}
330
7
100
AcDbDictionary
281
     1
  3
Model
350
A
  3
レイアウト1
350
F
  0
DICTIONARY
  5
2C
102
{ACAD_REACTORS
330
7
102
}
330
7
100
AcDbDictionary
281
     1
  0
DICTIONARY
  5
2A
102
{ACAD_REACTORS
330
7
102
}
330
7
100
AcDbDictionary
281
     1
  3
Standard
350
2F
  0
DICTIONARY
  5
2B
102
{ACAD_REACTORS
330
7
102
}
330
7
100
AcDbDictionary
281
     1
  0
ACDBDICTIONARYWDFLT
  5
6
102
{ACAD_REACTORS
330
7
102
}
330
7
100
AcDbDictionary
281
     1
  3
Normal
350
5
100
AcDbDictionaryWithDefault
340
5
  0
DICTIONARY
  5
215
102
{ACAD_REACTORS
330
7
102
}
330
7
100
AcDbDictionary
281
     1
  3
COLORDICT
350
217
  3
MATERIALDICT
350
216
  0
DICTIONARY
  5
210
102
{ACAD_REACTORS
330
7
102
}
330
7
100
AcDbDictionary
281
     1
  3
DIMASSOC
350
212
  3
HIDETEXT
350
211
  3
PROJECTNAME
350
213
  0
DICTIONARY
  5
12
102
{ACAD_REACTORS
330
11
102
}
330
11
100
AcDbDictionary
281
     1
  0
LAYOUT
  5
A
102
{ACAD_XDICTIONARY
360
218
102
}
102
{ACAD_REACTORS
330
B
102
}
330
B
100
AcDbPlotSettings
  1

  2
Ａ４－縦3FRIM01.pc3
  4
A4
  6

 40
5.873749732971191
 41
5.873747825622558
 42
5.873748779296875
 43
5.873748779296875
 44
209.9733276367187
 45
296.9259948730469
 46
5.419999999999999
 47
0.0
 48
0.0
 49
0.0
140
0.0
141
0.0
142
1.0
143
1.382452020185948
 70
 11956
 72
     1
 73
     0
 74
     1
  7
tmsacad.ctb
 75
     0
147
0.7233524096304576
148
0.0183484674822694
149
0.0079333943659776
100
AcDbLayout
  1
Model
 70
     1
 71
     0
 10
0.0
 20
0.0
 11
12.0
 21
9.0
 12
0.0
 22
0.0
 32
0.0
 14
0.0
 24
0.0
 34
0.0
 15
0.0
 25
0.0
 35
0.0
146
0.0
 13
0.0
 23
0.0
 33
0.0
 16
1.0
 26
0.0
 36
0.0
 17
0.0
 27
1.0
 37
0.0
 76
     0
330
2
  0
LAYOUT
  5
F
102
{ACAD_XDICTIONARY
360
21A
102
}
102
{ACAD_REACTORS
330
B
102
}
330
B
100
AcDbPlotSettings
  1

  2
None
  4

  6

 40
0.0
 41
0.0
 42
0.0
 43
0.0
 44
0.0
 45
0.0
 46
0.0
 47
0.0
 48
0.0
 49
0.0
140
0.0
141
0.0
142
1.0
143
1.0
 70
   688
 72
     0
 73
     0
 74
     5
  7
tmsacad.ctb
 75
    16
147
1.0
148
0.0
149
0.0
100
AcDbLayout
  1
レイアウト1
 70
     1
 71
     1
 10
0.0
 20
0.0
 11
12.0
 21
9.0
 12
0.0
 22
0.0
 32
0.0
 14
0.0
 24
0.0
 34
0.0
 15
0.0
 25
0.0
 35
0.0
146
0.0
 13
0.0
 23
0.0
 33
0.0
 16
1.0
 26
0.0
 36
0.0
 17
0.0
 27
1.0
 37
0.0
 76
     0
330
C
  0
MLINESTYLE
  5
2F
102
{ACAD_REACTORS
330
2A
102
}
330
2A
100
AcDbMlineStyle
  2
STANDARD
 70
     0
  3

 62
   256
 51
90.0
 52
90.0
 71
     2
 49
0.5
 62
   256
  6
BYLAYER
 49
-0.5
 62
   256
  6
BYLAYER
  0
ACDBPLACEHOLDER
  5
5
102
{ACAD_REACTORS
330
6
102
}
330
6
  0
XRECORD
  5
217
102
{ACAD_REACTORS
330
215
102
}
330
215
100
AcDbXrecord
280
     1
340
2D
  0
XRECORD
  5
216
102
{ACAD_REACTORS
330
215
102
}
330
215
100
AcDbXrecord
280
     1
340
2C
  0
DICTIONARYVAR
  5
212
102
{ACAD_REACTORS
330
210
102
}
330
210
100
DictionaryVariables
280
     0
  1
1
  0
DICTIONARYVAR
  5
211
102
{ACAD_REACTORS
330
210
102
}
330
210
100
DictionaryVariables
280
     0
  1
1
  0
DICTIONARYVAR
  5
213
102
{ACAD_REACTORS
330
210
102
}
330
210
100
DictionaryVariables
280
     0
  1

  0
DICTIONARY
  5
218
330
A
100
AcDbDictionary
280
     1
281
     1
  3
ACAD_XREC_ROUNDTRIP
360
219
  0
DICTIONARY
  5
21A
330
F
100
AcDbDictionary
280
     1
281
     1
  3
ACAD_XREC_ROUNDTRIP
360
21B
  0
XRECORD
  5
219
102
{ACAD_REACTORS
330
218
102
}
330
218
100
AcDbXrecord
280
     1
102
SHADEPLOT
 70
     0
102
SHADEPLOTRESLEVEL
 70
     2
102
SHADEPLOTCUSTOMDPI
 70
   300
  0
XRECORD
  5
21B
102
{ACAD_REACTORS
330
21A
102
}
330
21A
100
AcDbXrecord
280
     1
102
SHADEPLOT
 70
     0
102
SHADEPLOTRESLEVEL
 70
     2
102
SHADEPLOTCUSTOMDPI
 70
   300
  0
ENDSEC
  0
EOF
