  0
SECTION
  2
HEADER
  9
$ACADVER
  1
AC1015
  9
$ACADMAINTVER
 70
    20
  9
$DWGCODEPAGE
  3
ANSI_932
  9
$INSBASE
 10
129.499999944041
 20
372.5008351249344
 30
0.0
  9
$EXTMIN
 10
-59.96612458020229
 20
-55.95487913437523
 30
-0.0015258207003583
  9
$EXTMAX
 10
65.06744441234912
 20
57.06971781941797
 30
0.0000000349246037
  9
$LIMMIN
 10
0.0
 20
0.0
  9
$LIMMAX
 10
420.0
 20
297.0
  9
$ORTHOMODE
 70
     0
  9
$REGENMODE
 70
     0
  9
$FILLMODE
 70
     1
  9
$QTEXTMODE
 70
     0
  9
$MIRRTEXT
 70
     0
  9
$LTSCALE
 40
1.0
  9
$ATTMODE
 70
     1
  9
$TEXTSIZE
 40
2.5
  9
$TRACEWID
 40
1.0
  9
$TEXTSTYLE
  7
Standard
  9
$CLAYER
  8
SUNPO
  9
$CELTYPE
  6
ByLayer
  9
$CECOLOR
 62
   256
  9
$CELTSCALE
 40
1.0
  9
$DISPSILH
 70
     0
  9
$DIMSCALE
 40
1.0
  9
$DIMASZ
 40
2.0
  9
$DIMEXO
 40
2.0
  9
$DIMDLI
 40
8.0
  9
$DIMRND
 40
0.0
  9
$DIMDLE
 40
0.0
  9
$DIMEXE
 40
2.0
  9
$DIMTP
 40
0.0
  9
$DIMTM
 40
0.0
  9
$DIMTXT
 40
2.5
  9
$DIMCEN
 40
0.0
  9
$DIMTSZ
 40
0.0
  9
$DIMTOL
 70
     0
  9
$DIMLIM
 70
     0
  9
$DIMTIH
 70
     0
  9
$DIMTOH
 70
     0
  9
$DIMSE1
 70
     0
  9
$DIMSE2
 70
     0
  9
$DIMTAD
 70
     3
  9
$DIMZIN
 70
     0
  9
$DIMBLK
  1

  9
$DIMASO
 70
     1
  9
$DIMSHO
 70
     1
  9
$DIMPOST
  1

  9
$DIMAPOST
  1

  9
$DIMALT
 70
     0
  9
$DIMALTD
 70
     2
  9
$DIMALTF
 40
25.4
  9
$DIMLFAC
 40
1.0
  9
$DIMTOFL
 70
     1
  9
$DIMTVP
 40
0.0
  9
$DIMTIX
 70
     0
  9
$DIMSOXD
 70
     0
  9
$DIMSAH
 70
     1
  9
$DIMBLK1
  1
OPEN30
  9
$DIMBLK2
  1
OPEN30
  9
$DIMSTYLE
  2
STANDARD
  9
$DIMCLRD
 70
     0
  9
$DIMCLRE
 70
     0
  9
$DIMCLRT
 70
     0
  9
$DIMTFAC
 40
1.0
  9
$DIMGAP
 40
0.5
  9
$DIMJUST
 70
     0
  9
$DIMSD1
 70
     0
  9
$DIMSD2
 70
     0
  9
$DIMTOLJ
 70
     1
  9
$DIMTZIN
 70
     0
  9
$DIMALTZ
 70
     0
  9
$DIMALTTZ
 70
     0
  9
$DIMUPT
 70
     0
  9
$DIMDEC
 70
     4
  9
$DIMTDEC
 70
     4
  9
$DIMALTU
 70
     2
  9
$DIMALTTD
 70
     2
  9
$DIMTXSTY
  7
Standard
  9
$DIMAUNIT
 70
     0
  9
$DIMADEC
 70
     0
  9
$DIMALTRND
 40
0.0
  9
$DIMAZIN
 70
     0
  9
$DIMDSEP
 70
    46
  9
$DIMATFIT
 70
     3
  9
$DIMFRAC
 70
     0
  9
$DIMLDRBLK
  1
OPEN30
  9
$DIMLUNIT
 70
     2
  9
$DIMLWD
 70
    -2
  9
$DIMLWE
 70
    -2
  9
$DIMTMOVE
 70
     0
  9
$LUNITS
 70
     2
  9
$LUPREC
 70
     4
  9
$SKETCHINC
 40
1.0
  9
$FILLETRAD
 40
0.0
  9
$AUNITS
 70
     0
  9
$AUPREC
 70
     0
  9
$MENU
  1
.
  9
$ELEVATION
 40
0.0
  9
$PELEVATION
 40
0.0
  9
$THICKNESS
 40
0.0
  9
$LIMCHECK
 70
     0
  9
$CHAMFERA
 40
0.0
  9
$CHAMFERB
 40
0.0
  9
$CHAMFERC
 40
0.0
  9
$CHAMFERD
 40
0.0
  9
$SKPOLY
 70
     0
  9
$TDCREATE
 40
2454349.434269746
  9
$TDUCREATE
 40
2454349.059269746
  9
$TDUPDATE
 40
2455042.675941667
  9
$TDUUPDATE
 40
2455042.300941667
  9
$TDINDWG
 40
0.2991929167
  9
$TDUSRTIMER
 40
0.2991929167
  9
$USRTIMER
 70
     1
  9
$ANGBASE
 50
0.0
  9
$ANGDIR
 70
     0
  9
$PDMODE
 70
     0
  9
$PDSIZE
 40
0.0
  9
$PLINEWID
 40
0.0
  9
$SPLFRAME
 70
     0
  9
$SPLINETYPE
 70
     6
  9
$SPLINESEGS
 70
     8
  9
$HANDSEED
  5
3D4
  9
$SURFTAB1
 70
     6
  9
$SURFTAB2
 70
     6
  9
$SURFTYPE
 70
     6
  9
$SURFU
 70
     6
  9
$SURFV
 70
     6
  9
$UCSBASE
  2

  9
$UCSNAME
  2

  9
$UCSORG
 10
0.0
 20
0.0
 30
0.0
  9
$UCSXDIR
 10
1.0
 20
0.0
 30
0.0
  9
$UCSYDIR
 10
0.0
 20
1.0
 30
0.0
  9
$UCSORTHOREF
  2

  9
$UCSORTHOVIEW
 70
     0
  9
$UCSORGTOP
 10
0.0
 20
0.0
 30
0.0
  9
$UCSORGBOTTOM
 10
0.0
 20
0.0
 30
0.0
  9
$UCSORGLEFT
 10
0.0
 20
0.0
 30
0.0
  9
$UCSORGRIGHT
 10
0.0
 20
0.0
 30
0.0
  9
$UCSORGFRONT
 10
0.0
 20
0.0
 30
0.0
  9
$UCSORGBACK
 10
0.0
 20
0.0
 30
0.0
  9
$PUCSBASE
  2

  9
$PUCSNAME
  2

  9
$PUCSORG
 10
0.0
 20
0.0
 30
0.0
  9
$PUCSXDIR
 10
1.0
 20
0.0
 30
0.0
  9
$PUCSYDIR
 10
0.0
 20
1.0
 30
0.0
  9
$PUCSORTHOREF
  2

  9
$PUCSORTHOVIEW
 70
     0
  9
$PUCSORGTOP
 10
0.0
 20
0.0
 30
0.0
  9
$PUCSORGBOTTOM
 10
0.0
 20
0.0
 30
0.0
  9
$PUCSORGLEFT
 10
0.0
 20
0.0
 30
0.0
  9
$PUCSORGRIGHT
 10
0.0
 20
0.0
 30
0.0
  9
$PUCSORGFRONT
 10
0.0
 20
0.0
 30
0.0
  9
$PUCSORGBACK
 10
0.0
 20
0.0
 30
0.0
  9
$USERI1
 70
     0
  9
$USERI2
 70
     0
  9
$USERI3
 70
     0
  9
$USERI4
 70
     0
  9
$USERI5
 70
     0
  9
$USERR1
 40
0.0
  9
$USERR2
 40
0.0
  9
$USERR3
 40
0.0
  9
$USERR4
 40
0.0
  9
$USERR5
 40
0.0
  9
$WORLDVIEW
 70
     1
  9
$SHADEDGE
 70
     3
  9
$SHADEDIF
 70
    70
  9
$TILEMODE
 70
     1
  9
$MAXACTVP
 70
    64
  9
$PINSBASE
 10
0.0
 20
0.0
 30
0.0
  9
$PLIMCHECK
 70
     0
  9
$PEXTMIN
 10
0.0
 20
0.0
 30
0.0
  9
$PEXTMAX
 10
0.0
 20
0.0
 30
0.0
  9
$PLIMMIN
 10
0.0
 20
0.0
  9
$PLIMMAX
 10
12.0
 20
9.0
  9
$UNITMODE
 70
     0
  9
$VISRETAIN
 70
     1
  9
$PLINEGEN
 70
     0
  9
$PSLTSCALE
 70
     1
  9
$TREEDEPTH
 70
  3020
  9
$CMLSTYLE
  2
Standard
  9
$CMLJUST
 70
     0
  9
$CMLSCALE
 40
20.0
  9
$PROXYGRAPHICS
 70
     1
  9
$MEASUREMENT
 70
     1
  9
$CELWEIGHT
370
    -1
  9
$ENDCAPS
280
     0
  9
$JOINSTYLE
280
     0
  9
$LWDISPLAY
290
     0
  9
$INSUNITS
 70
     4
  9
$HYPERLINKBASE
  1

  9
$STYLESHEET
  1

  9
$XEDIT
290
     1
  9
$CEPSNTYPE
380
     0
  9
$PSTYLEMODE
290
     1
  9
$FINGERPRINTGUID
  2
{FDEAD578-A652-11D2-9A35-0060089B3A3F}
  9
$VERSIONGUID
  2
{AFC23B4C-696C-4656-970B-6FD4FD83130F}
  9
$EXTNAMES
290
     1
  9
$PSVPSCALE
 40
0.0
  9
$OLESTARTUP
290
     0
  0
ENDSEC
  0
SECTION
  2
CLASSES
  0
CLASS
  1
ACDBDICTIONARYWDFLT
  2
AcDbDictionaryWithDefault
  3
ObjectDBX Classes
 90
        0
280
     0
281
     0
  0
CLASS
  1
ACDBPLACEHOLDER
  2
AcDbPlaceHolder
  3
ObjectDBX Classes
 90
        0
280
     0
281
     0
  0
CLASS
  1
LAYOUT
  2
AcDbLayout
  3
ObjectDBX Classes
 90
        0
280
     0
281
     0
  0
CLASS
  1
DICTIONARYVAR
  2
AcDbDictionaryVar
  3
ObjectDBX Classes
 90
        0
280
     0
281
     0
  0
CLASS
  1
DIMASSOC
  2
AcDbDimAssoc
  3
"AcDbDimAssoc|Product Desc:     AcDim ARX App For Dimension|Company:          Autodesk, Inc.|WEB Address:      www.autodesk.com"
 90
    32768
280
     0
281
     0
  0
CLASS
  1
SORTENTSTABLE
  2
AcDbSortentsTable
  3
ObjectDBX Classes
 90
    32768
280
     0
281
     0
  0
ENDSEC
  0
SECTION
  2
TABLES
  0
TABLE
  2
VPORT
  5
1B
330
0
100
AcDbSymbolTable
 70
     3
  0
VPORT
  5
3CC
330
1B
100
AcDbSymbolTableRecord
100
AcDbViewportTableRecord
  2
*Active
 70
     0
 10
0.0
 20
0.0
 11
1.0
 21
1.0
 12
2.550659916073414
 22
0.5574193425213707
 13
0.0
 23
0.0
 14
10.0
 24
10.0
 15
10.0
 25
10.0
 16
0.0
 26
0.0
 36
1.0
 17
0.0
 27
0.0
 37
0.0
 40
113.8906858193395
 41
1.39386189258312
 42
50.0
 43
0.0
 44
0.0
 50
0.0
 51
0.0
 71
     0
 72
  1000
 73
     1
 74
     2
 75
     0
 76
     0
 77
     0
 78
     0
281
     0
 65
     1
110
0.0
120
0.0
130
0.0
111
1.0
121
0.0
131
0.0
112
0.0
122
1.0
132
0.0
 79
     0
146
0.0
  0
ENDTAB
  0
TABLE
  2
LTYPE
  5
16
330
0
100
AcDbSymbolTable
 70
     2
  0
LTYPE
  5
17
330
16
100
AcDbSymbolTableRecord
100
AcDbLinetypeTableRecord
  2
ByBlock
 70
     0
  3

 72
    65
 73
     0
 40
0.0
  0
LTYPE
  5
18
330
16
100
AcDbSymbolTableRecord
100
AcDbLinetypeTableRecord
  2
ByLayer
 70
     0
  3

 72
    65
 73
     0
 40
0.0
  0
LTYPE
  5
8
330
16
100
AcDbSymbolTableRecord
100
AcDbLinetypeTableRecord
  2
Continuous
 70
     0
  3
Solid line
 72
    65
 73
     0
 40
0.0
  0
LTYPE
  5
9A
330
16
100
AcDbSymbolTableRecord
100
AcDbLinetypeTableRecord
  2
HIDDEN2
 70
     0
  3
Hidden (.5x) _ _ _ _ _ _ _ _ _ _ _ _ _ _ _ _ _
 72
    65
 73
     2
 40
1.399999999999999
 49
0.7
 74
     0
 49
-0.7
 74
     0
  0
ENDTAB
  0
TABLE
  2
LAYER
  5
10
102
{ACAD_XDICTIONARY
360
11
102
}
330
0
100
AcDbSymbolTable
 70
     7
  0
LAYER
  5
4
330
10
100
AcDbSymbolTableRecord
100
AcDbLayerTableRecord
  2
0
 70
     0
 62
     7
  6
Continuous
370
    -3
390
5
  0
LAYER
  5
369
330
10
100
AcDbSymbolTableRecord
100
AcDbLayerTableRecord
  2
WAKU
 70
     0
 62
     4
  6
Continuous
370
    -3
390
5
  0
LAYER
  5
31
330
10
100
AcDbSymbolTableRecord
100
AcDbLayerTableRecord
  2
MOJI1
 70
     0
 62
     2
  6
Continuous
370
    -3
390
5
  0
LAYER
  5
384
330
10
100
AcDbSymbolTableRecord
100
AcDbLayerTableRecord
  2
TOUROKU
 70
     0
 62
     1
  6
Continuous
370
    -3
390
5
  0
LAYER
  5
4E
330
10
100
AcDbSymbolTableRecord
100
AcDbLayerTableRecord
  2
GAIKEI
 70
     0
 62
     7
  6
Continuous
370
    -3
390
5
  0
LAYER
  5
95
330
10
100
AcDbSymbolTableRecord
100
AcDbLayerTableRecord
  2
Defpoints
 70
     0
 62
     7
  6
Continuous
290
     0
370
    -3
390
5
  0
LAYER
  5
2E
330
10
100
AcDbSymbolTableRecord
100
AcDbLayerTableRecord
  2
SUNPO
 70
     0
 62
     3
  6
Continuous
370
    -3
390
5
  0
ENDTAB
  0
TABLE
  2
STYLE
  5
13
330
0
100
AcDbSymbolTable
 70
     1
  0
STYLE
  5
14
330
13
100
AcDbSymbolTableRecord
100
AcDbTextStyleTableRecord
  2
Standard
 70
     0
 40
0.0
 41
1.0
 50
0.0
 71
     0
 42
2.5
  3
MONOTXT.shx
  4
BIGFONT.shx
  0
ENDTAB
  0
TABLE
  2
VIEW
  5
19
330
0
100
AcDbSymbolTable
 70
     0
  0
ENDTAB
  0
TABLE
  2
UCS
  5
1A
330
0
100
AcDbSymbolTable
 70
     0
  0
ENDTAB
  0
TABLE
  2
APPID
  5
1D
330
0
100
AcDbSymbolTable
 70
     1
  0
APPID
  5
1E
330
1D
100
AcDbSymbolTableRecord
100
AcDbRegAppTableRecord
  2
ACAD
 70
     0
  0
ENDTAB
  0
TABLE
  2
DIMSTYLE
  5
1F
330
0
100
AcDbSymbolTable
 70
     2
100
AcDbDimStyleTable
 71
     2
340
20
340
27
  0
DIMSTYLE
105
27
330
1F
100
AcDbSymbolTableRecord
100
AcDbDimStyleTableRecord
  2
ISO-25
 70
     0
 41
2.5
 42
0.625
 43
3.75
 44
1.25
 73
     0
 74
     0
 77
     1
 78
     8
140
2.5
141
2.5
143
0.03937007874016
147
0.625
171
     3
172
     1
271
     2
272
     2
274
     3
278
    44
283
     0
284
     8
340
14
  0
DIMSTYLE
105
20
102
{ACAD_REACTORS
330
359
330
34C
330
21E
330
8B
102
}
330
1F
100
AcDbSymbolTableRecord
100
AcDbDimStyleTableRecord
  2
STANDARD
 70
     0
 40
0.0
 41
2.0
 42
2.0
 43
8.0
 44
2.0
 73
     0
 74
     0
 77
     3
140
3.0
141
0.0
173
     1
279
     2
288
     1
340
14
341
21
343
21
344
21
  0
ENDTAB
  0
TABLE
  2
BLOCK_RECORD
  5
1
330
0
100
AcDbSymbolTable
 70
     9
  0
BLOCK_RECORD
  5
2
330
1
100
AcDbSymbolTableRecord
100
AcDbBlockTableRecord
  2
*Model_Space
340
A
  0
BLOCK_RECORD
  5
C
330
1
100
AcDbSymbolTableRecord
100
AcDbBlockTableRecord
  2
*Paper_Space
340
F
  0
BLOCK_RECORD
  5
21
330
1
100
AcDbSymbolTableRecord
100
AcDbBlockTableRecord
  2
_OPEN30
340
0
102
{BLKREFS
331
35
331
47
331
91
331
92
331
224
331
225
331
352
331
353
331
35F
331
360
331
39C
331
39D
331
3A8
331
3A9
331
3B4
331
3B5
331
3C0
331
3C1
102
}
  0
BLOCK_RECORD
  5
35A
330
1
100
AcDbSymbolTableRecord
100
AcDbBlockTableRecord
  2
*D1
340
0
  0
BLOCK_RECORD
  5
34D
330
1
100
AcDbSymbolTableRecord
100
AcDbBlockTableRecord
  2
*D2
340
0
  0
BLOCK_RECORD
  5
21F
330
1
100
AcDbSymbolTableRecord
100
AcDbBlockTableRecord
  2
*D3
340
0
  0
BLOCK_RECORD
  5
8C
330
1
100
AcDbSymbolTableRecord
100
AcDbBlockTableRecord
  2
*D4
340
0
  0
BLOCK_RECORD
  5
398
330
1
100
AcDbSymbolTableRecord
100
AcDbBlockTableRecord
  2
*D5
340
0
  0
BLOCK_RECORD
  5
3A4
330
1
100
AcDbSymbolTableRecord
100
AcDbBlockTableRecord
  2
*D6
340
0
  0
BLOCK_RECORD
  5
3B0
330
1
100
AcDbSymbolTableRecord
100
AcDbBlockTableRecord
  2
*D7
340
0
  0
BLOCK_RECORD
  5
3BC
330
1
100
AcDbSymbolTableRecord
100
AcDbBlockTableRecord
  2
*D8
340
0
  0
ENDTAB
  0
ENDSEC
  0
SECTION
  2
BLOCKS
  0
BLOCK
  5
3
330
2
100
AcDbEntity
  8
0
100
AcDbBlockBegin
  2
*Model_Space
 70
     0
 10
0.0
 20
0.0
 30
0.0
  3
*Model_Space
  1

  0
ENDBLK
  5
9
330
2
100
AcDbEntity
  8
0
100
AcDbBlockEnd
  0
BLOCK
  5
D
330
C
100
AcDbEntity
 67
     1
  8
0
100
AcDbBlockBegin
  2
*Paper_Space
 70
     0
 10
0.0
 20
0.0
 30
0.0
  3
*Paper_Space
  1

  0
ENDBLK
  5
E
330
C
100
AcDbEntity
 67
     1
  8
0
100
AcDbBlockEnd
  0
BLOCK
  5
22
330
21
100
AcDbEntity
  8
0
100
AcDbBlockBegin
  2
_OPEN30
 70
     0
 10
0.0
 20
0.0
 30
0.0
  3
_OPEN30
  1

  0
LINE
  5
23
330
21
100
AcDbEntity
  8
0
  6
ByBlock
 62
     0
100
AcDbLine
 10
-1.0
 20
0.26794919
 30
0.0
 11
0.0
 21
0.0
 31
0.0
  0
LINE
  5
24
330
21
100
AcDbEntity
  8
0
  6
ByBlock
 62
     0
100
AcDbLine
 10
0.0
 20
0.0
 30
0.0
 11
-1.0
 21
-0.26794919
 31
0.0
  0
LINE
  5
25
330
21
100
AcDbEntity
  8
0
  6
ByBlock
 62
     0
100
AcDbLine
 10
0.0
 20
0.0
 30
0.0
 11
-1.0
 21
0.0
 31
0.0
  0
ENDBLK
  5
26
330
21
100
AcDbEntity
  8
0
100
AcDbBlockEnd
  0
BLOCK
  5
35B
330
35A
100
AcDbEntity
  8
0
100
AcDbBlockBegin
  2
*D1
 70
     1
 10
0.0
 20
0.0
 30
0.0
  3
*D1
  1

  0
LINE
  5
35C
330
35A
100
AcDbEntity
  8
SUNPO
 62
     0
370
    -2
100
AcDbLine
 10
205.6872392412982
 20
314.9074971203412
 30
0.0
 11
213.6872392412982
 21
314.9074971203412
 31
0.0
  0
LINE
  5
35D
330
35A
100
AcDbEntity
  8
SUNPO
 62
     0
370
    -2
100
AcDbLine
 10
205.6872392412982
 20
345.4074971203411
 30
0.0
 11
213.6872392412982
 21
345.4074971203411
 31
0.0
  0
LINE
  5
35E
330
35A
100
AcDbEntity
  8
SUNPO
 62
     0
370
    -2
100
AcDbLine
 10
211.6872392412982
 20
316.9074971203411
 30
0.0
 11
211.6872392412982
 21
343.4074971203411
 31
0.0
  0
INSERT
  5
35F
330
35A
100
AcDbEntity
  8
SUNPO
 62
     0
370
    -2
100
AcDbBlockReference
  2
_OPEN30
 10
211.6872392412982
 20
314.9074971203412
 30
0.0
 41
2.0
 42
2.0
 43
2.0
 50
270.0
  0
INSERT
  5
360
330
35A
100
AcDbEntity
  8
SUNPO
 62
     0
370
    -2
100
AcDbBlockReference
  2
_OPEN30
 10
211.6872392412982
 20
345.4074971203411
 30
0.0
 41
2.0
 42
2.0
 43
2.0
 50
90.0
  0
MTEXT
  5
361
330
35A
100
AcDbEntity
  8
SUNPO
 62
     0
100
AcDbMText
 10
209.9372392412982
 20
330.1574971203412
 30
0.0
 40
2.5
 41
0.0
 71
     5
 72
     1
  1
\A1;610
 11
0.0000000000000001
 21
1.0
 31
0.0
 73
     1
 44
1.0
1001
ACAD
1000
MTEXTBEGIN
1070
    73
1070
     1
1070
    44
1040
1.0
1070
    74
1070
     0
1000
MTEXTEND
  0
POINT
  5
362
330
35A
100
AcDbEntity
  8
Defpoints
 62
     0
100
AcDbPoint
 10
203.6872392412982
 20
314.9074971203412
 30
0.0
  0
POINT
  5
363
330
35A
100
AcDbEntity
  8
Defpoints
 62
     0
100
AcDbPoint
 10
203.6872392412982
 20
345.4074971203411
 30
0.0
  0
POINT
  5
364
330
35A
100
AcDbEntity
  8
Defpoints
 62
     0
100
AcDbPoint
 10
211.6872392412982
 20
345.4074971203411
 30
0.0
  0
ENDBLK
  5
365
330
35A
100
AcDbEntity
  8
0
100
AcDbBlockEnd
  0
BLOCK
  5
34E
330
34D
100
AcDbEntity
  8
0
100
AcDbBlockBegin
  2
*D2
 70
     1
 10
0.0
 20
0.0
 30
0.0
  3
*D2
  1

  0
LINE
  5
34F
330
34D
100
AcDbEntity
  8
SUNPO
 62
     0
370
    -2
100
AcDbLine
 10
152.6922392412982
 20
347.4109637634472
 30
0.0
 11
152.6922392412982
 21
355.4109637634472
 31
0.0
  0
LINE
  5
350
330
34D
100
AcDbEntity
  8
SUNPO
 62
     0
370
    -2
100
AcDbLine
 10
203.6872392412982
 20
347.4109637634472
 30
0.0
 11
203.6872392412982
 21
355.4109637634472
 31
0.0
  0
LINE
  5
351
330
34D
100
AcDbEntity
  8
SUNPO
 62
     0
370
    -2
100
AcDbLine
 10
154.6922392412982
 20
353.4109637634472
 30
0.0
 11
201.6872392412982
 21
353.4109637634472
 31
0.0
  0
INSERT
  5
352
330
34D
100
AcDbEntity
  8
SUNPO
 62
     0
370
    -2
100
AcDbBlockReference
  2
_OPEN30
 10
152.6922392412982
 20
353.4109637634472
 30
0.0
 41
2.0
 42
2.0
 43
2.0
 50
180.0
  0
INSERT
  5
353
330
34D
100
AcDbEntity
  8
SUNPO
 62
     0
370
    -2
100
AcDbBlockReference
  2
_OPEN30
 10
203.6872392412982
 20
353.4109637634472
 30
0.0
 41
2.0
 42
2.0
 43
2.0
  0
MTEXT
  5
354
330
34D
100
AcDbEntity
  8
SUNPO
 62
     0
100
AcDbMText
 10
178.1897392412982
 20
355.1609637634472
 30
0.0
 40
2.5
 41
0.0
 71
     5
 72
     1
  1
\A1;1020
 73
     1
 44
1.0
1001
ACAD
1000
MTEXTBEGIN
1070
    73
1070
     1
1070
    44
1040
1.0
1070
    74
1070
     0
1000
MTEXTEND
  0
POINT
  5
355
330
34D
100
AcDbEntity
  8
Defpoints
 62
     0
100
AcDbPoint
 10
152.6922392412982
 20
345.4109637634472
 30
0.0
  0
POINT
  5
356
330
34D
100
AcDbEntity
  8
Defpoints
 62
     0
100
AcDbPoint
 10
203.6872392412982
 20
345.4109637634472
 30
0.0
  0
POINT
  5
357
330
34D
100
AcDbEntity
  8
Defpoints
 62
     0
100
AcDbPoint
 10
203.6872392412982
 20
353.4109637634472
 30
0.0
  0
ENDBLK
  5
358
330
34D
100
AcDbEntity
  8
0
100
AcDbBlockEnd
  0
BLOCK
  5
220
330
21F
100
AcDbEntity
  8
0
100
AcDbBlockBegin
  2
*D3
 70
     1
 10
0.0
 20
0.0
 30
0.0
  3
*D3
  1

  0
LINE
  5
221
330
21F
100
AcDbEntity
  8
SUNPO
 62
     0
370
    -2
100
AcDbLine
 10
158.8147392432358
 20
312.9417269445724
 30
0.0
 11
158.8147392432358
 21
304.9417269445724
 31
0.0
  0
LINE
  5
222
330
21F
100
AcDbEntity
  8
SUNPO
 62
     0
370
    -2
100
AcDbLine
 10
197.5647392393607
 20
312.9417269445724
 30
0.0
 11
197.5647392393607
 21
304.9417269445724
 31
0.0
  0
LINE
  5
223
330
21F
100
AcDbEntity
  8
SUNPO
 62
     0
370
    -2
100
AcDbLine
 10
160.8147392432358
 20
306.9417269445724
 30
0.0
 11
195.5647392393607
 21
306.9417269445724
 31
0.0
  0
INSERT
  5
224
330
21F
100
AcDbEntity
  8
SUNPO
 62
     0
370
    -2
100
AcDbBlockReference
  2
_OPEN30
 10
158.8147392432358
 20
306.9417269445724
 30
0.0
 41
2.0
 42
2.0
 43
2.0
 50
180.0
  0
INSERT
  5
225
330
21F
100
AcDbEntity
  8
SUNPO
 62
     0
370
    -2
100
AcDbBlockReference
  2
_OPEN30
 10
197.5647392393607
 20
306.9417269445724
 30
0.0
 41
2.0
 42
2.0
 43
2.0
  0
MTEXT
  5
226
330
21F
100
AcDbEntity
  8
SUNPO
 62
     0
100
AcDbMText
 10
178.1897392412982
 20
308.6917269445724
 30
0.0
 40
2.5
 41
0.0
 71
     5
 72
     1
  1
\A1;775
 73
     1
 44
1.0
1001
ACAD
1000
MTEXTBEGIN
1070
    73
1070
     1
1070
    44
1040
1.0
1070
    74
1070
     0
1000
MTEXTEND
  0
POINT
  5
227
330
21F
100
AcDbEntity
  8
Defpoints
 62
     0
100
AcDbPoint
 10
158.8147392432358
 20
314.9417269445724
 30
0.0
  0
POINT
  5
228
330
21F
100
AcDbEntity
  8
Defpoints
 62
     0
100
AcDbPoint
 10
197.5647392393607
 20
314.9417269445724
 30
0.0
  0
POINT
  5
229
330
21F
100
AcDbEntity
  8
Defpoints
 62
     0
100
AcDbPoint
 10
197.5647392393607
 20
306.9417269445724
 30
0.0
  0
ENDBLK
  5
22A
330
21F
100
AcDbEntity
  8
0
100
AcDbBlockEnd
  0
BLOCK
  5
8D
330
8C
100
AcDbEntity
  8
0
100
AcDbBlockBegin
  2
*D4
 70
     1
 10
0.0
 20
0.0
 30
0.0
  3
*D4
  1

  0
LINE
  5
8E
330
8C
100
AcDbEntity
  8
SUNPO
 62
     0
370
    -2
100
AcDbLine
 10
150.9871384543826
 20
316.6324971203411
 30
0.0
 11
140.9871384543825
 21
316.6324971203411
 31
0.0
  0
LINE
  5
8F
330
8C
100
AcDbEntity
  8
SUNPO
 62
     0
370
    -2
100
AcDbLine
 10
150.9871384543826
 20
342.4324971177612
 30
0.0
 11
140.9871384543826
 21
342.4324971177612
 31
0.0
  0
LINE
  5
90
330
8C
100
AcDbEntity
  8
SUNPO
 62
     0
370
    -2
100
AcDbLine
 10
142.9871384543826
 20
318.6324971203411
 30
0.0
 11
142.9871384543826
 21
340.4324971177612
 31
0.0
  0
INSERT
  5
91
330
8C
100
AcDbEntity
  8
SUNPO
 62
     0
370
    -2
100
AcDbBlockReference
  2
_OPEN30
 10
142.9871384543826
 20
316.6324971203411
 30
0.0
 41
2.0
 42
2.0
 43
2.0
 50
270.0
  0
INSERT
  5
92
330
8C
100
AcDbEntity
  8
SUNPO
 62
     0
370
    -2
100
AcDbBlockReference
  2
_OPEN30
 10
142.9871384543826
 20
342.4324971177612
 30
0.0
 41
2.0
 42
2.0
 43
2.0
 50
90.0
  0
MTEXT
  5
93
330
8C
100
AcDbEntity
  8
SUNPO
 62
     0
100
AcDbMText
 10
141.2371384543825
 20
329.5324971190512
 30
0.0
 40
2.5
 41
0.0
 71
     5
 72
     1
  1
\A1;516
 11
0.0000000000000001
 21
1.0
 31
0.0
 73
     1
 44
1.0
1001
ACAD
1000
MTEXTBEGIN
1070
    73
1070
     1
1070
    44
1040
1.0
1070
    74
1070
     0
1000
MTEXTEND
  0
POINT
  5
94
330
8C
100
AcDbEntity
  8
Defpoints
 62
     0
100
AcDbPoint
 10
152.9871384543826
 20
316.6324971203411
 30
0.0
  0
POINT
  5
96
330
8C
100
AcDbEntity
  8
Defpoints
 62
     0
100
AcDbPoint
 10
152.9871384543826
 20
342.4324971177612
 30
0.0
  0
POINT
  5
97
330
8C
100
AcDbEntity
  8
Defpoints
 62
     0
100
AcDbPoint
 10
142.9871384543826
 20
342.4324971177612
 30
0.0
  0
ENDBLK
  5
98
330
8C
100
AcDbEntity
  8
0
100
AcDbBlockEnd
  0
BLOCK
  5
3A2
330
398
100
AcDbEntity
  8
0
100
AcDbBlockBegin
  2
*D5
 70
     1
 10
0.0
 20
0.0
 30
0.0
  3
*D5
  1

  0
LINE
  5
399
330
398
100
AcDbEntity
  8
SUNPO
 62
     0
370
    -2
100
AcDbLine
 10
14.22410939009012
 20
1.459628261071485
 30
0.0
 11
22.22410939009011
 21
1.459628261071483
 31
0.0
  0
LINE
  5
39A
330
398
100
AcDbEntity
  8
SUNPO
 62
     0
370
    -2
100
AcDbLine
 10
14.22410939009012
 20
31.95962826107143
 30
0.0
 11
22.22410939009012
 21
31.95962826107143
 31
0.0
  0
LINE
  5
39B
330
398
100
AcDbEntity
  8
SUNPO
 62
     0
370
    -2
100
AcDbLine
 10
20.22410939009011
 20
3.459628261071484
 30
0.0
 11
20.22410939009012
 21
29.95962826107143
 31
0.0
  0
INSERT
  5
39C
330
398
100
AcDbEntity
  8
SUNPO
 62
     0
370
    -2
100
AcDbBlockReference
  2
_OPEN30
 10
20.22410939009011
 20
1.459628261071484
 30
0.0
 41
2.0
 42
2.0
 43
2.0
 50
270.0
  0
INSERT
  5
39D
330
398
100
AcDbEntity
  8
SUNPO
 62
     0
370
    -2
100
AcDbBlockReference
  2
_OPEN30
 10
20.22410939009012
 20
31.95962826107143
 30
0.0
 41
2.0
 42
2.0
 43
2.0
 50
90.0
  0
MTEXT
  5
39E
330
398
100
AcDbEntity
  8
SUNPO
 62
     0
100
AcDbMText
 10
18.47410939009011
 20
16.70962826107146
 30
0.0
 40
2.5
 41
0.0
 71
     5
 72
     1
  1
\A1;610
 11
0.0000000000000001
 21
1.0
 31
0.0
 73
     1
 44
1.0
1001
ACAD
1000
MTEXTBEGIN
1070
    73
1070
     1
1070
    44
1040
1.0
1070
    74
1070
     0
1000
MTEXTEND
  0
POINT
  5
39F
330
398
100
AcDbEntity
  8
Defpoints
 62
     0
100
AcDbPoint
 10
12.22410939009012
 20
1.459628261071486
 30
0.0
  0
POINT
  5
3A0
330
398
100
AcDbEntity
  8
Defpoints
 62
     0
100
AcDbPoint
 10
12.22410939009012
 20
31.95962826107143
 30
0.0
  0
POINT
  5
3A1
330
398
100
AcDbEntity
  8
Defpoints
 62
     0
100
AcDbPoint
 10
20.22410939009012
 20
31.95962826107143
 30
0.0
  0
ENDBLK
  5
3A3
330
398
100
AcDbEntity
  8
0
100
AcDbBlockEnd
  0
BLOCK
  5
3AE
330
3A4
100
AcDbEntity
  8
0
100
AcDbBlockBegin
  2
*D6
 70
     1
 10
0.0
 20
0.0
 30
0.0
  3
*D6
  1

  0
LINE
  5
3A5
330
3A4
100
AcDbEntity
  8
SUNPO
 62
     0
370
    -2
100
AcDbLine
 10
-38.77089060990988
 20
33.96309490417758
 30
0.0
 11
-38.77089060990988
 21
41.96309490417758
 31
0.0
  0
LINE
  5
3A6
330
3A4
100
AcDbEntity
  8
SUNPO
 62
     0
370
    -2
100
AcDbLine
 10
12.22410939009012
 20
33.96309490417758
 30
0.0
 11
12.22410939009012
 21
41.96309490417758
 31
0.0
  0
LINE
  5
3A7
330
3A4
100
AcDbEntity
  8
SUNPO
 62
     0
370
    -2
100
AcDbLine
 10
-36.77089060990989
 20
39.96309490417758
 30
0.0
 11
10.22410939009012
 21
39.96309490417758
 31
0.0
  0
INSERT
  5
3A8
330
3A4
100
AcDbEntity
  8
SUNPO
 62
     0
370
    -2
100
AcDbBlockReference
  2
_OPEN30
 10
-38.77089060990988
 20
39.96309490417758
 30
0.0
 41
2.0
 42
2.0
 43
2.0
 50
180.0
  0
INSERT
  5
3A9
330
3A4
100
AcDbEntity
  8
SUNPO
 62
     0
370
    -2
100
AcDbBlockReference
  2
_OPEN30
 10
12.22410939009012
 20
39.96309490417758
 30
0.0
 41
2.0
 42
2.0
 43
2.0
  0
MTEXT
  5
3AA
330
3A4
100
AcDbEntity
  8
SUNPO
 62
     0
100
AcDbMText
 10
-13.27339060990988
 20
41.71309490417757
 30
0.0
 40
2.5
 41
0.0
 71
     5
 72
     1
  1
\A1;1020
 73
     1
 44
1.0
1001
ACAD
1000
MTEXTBEGIN
1070
    73
1070
     1
1070
    44
1040
1.0
1070
    74
1070
     0
1000
MTEXTEND
  0
POINT
  5
3AB
330
3A4
100
AcDbEntity
  8
Defpoints
 62
     0
100
AcDbPoint
 10
-38.77089060990988
 20
31.96309490417758
 30
0.0
  0
POINT
  5
3AC
330
3A4
100
AcDbEntity
  8
Defpoints
 62
     0
100
AcDbPoint
 10
12.22410939009012
 20
31.96309490417758
 30
0.0
  0
POINT
  5
3AD
330
3A4
100
AcDbEntity
  8
Defpoints
 62
     0
100
AcDbPoint
 10
12.22410939009012
 20
39.96309490417758
 30
0.0
  0
ENDBLK
  5
3AF
330
3A4
100
AcDbEntity
  8
0
100
AcDbBlockEnd
  0
BLOCK
  5
3BA
330
3B0
100
AcDbEntity
  8
0
100
AcDbBlockBegin
  2
*D7
 70
     1
 10
0.0
 20
0.0
 30
0.0
  3
*D7
  1

  0
LINE
  5
3B1
330
3B0
100
AcDbEntity
  8
SUNPO
 62
     0
370
    -2
100
AcDbLine
 10
-32.64839060797232
 20
-0.5061419146972526
 30
0.0
 11
-32.64839060797232
 21
-8.506141914697252
 31
0.0
  0
LINE
  5
3B2
330
3B0
100
AcDbEntity
  8
SUNPO
 62
     0
370
    -2
100
AcDbLine
 10
6.101609388152553
 20
-0.5061419146972526
 30
0.0
 11
6.101609388152552
 21
-8.506141914697252
 31
0.0
  0
LINE
  5
3B3
330
3B0
100
AcDbEntity
  8
SUNPO
 62
     0
370
    -2
100
AcDbLine
 10
-30.64839060797232
 20
-6.506141914697252
 30
0.0
 11
4.101609388152552
 21
-6.506141914697252
 31
0.0
  0
INSERT
  5
3B4
330
3B0
100
AcDbEntity
  8
SUNPO
 62
     0
370
    -2
100
AcDbBlockReference
  2
_OPEN30
 10
-32.64839060797232
 20
-6.506141914697252
 30
0.0
 41
2.0
 42
2.0
 43
2.0
 50
180.0
  0
INSERT
  5
3B5
330
3B0
100
AcDbEntity
  8
SUNPO
 62
     0
370
    -2
100
AcDbBlockReference
  2
_OPEN30
 10
6.101609388152552
 20
-6.506141914697252
 30
0.0
 41
2.0
 42
2.0
 43
2.0
  0
MTEXT
  5
3B6
330
3B0
100
AcDbEntity
  8
SUNPO
 62
     0
100
AcDbMText
 10
-13.27339060990988
 20
-4.756141914697252
 30
0.0
 40
2.5
 41
0.0
 71
     5
 72
     1
  1
\A1;775
 73
     1
 44
1.0
1001
ACAD
1000
MTEXTBEGIN
1070
    73
1070
     1
1070
    44
1040
1.0
1070
    74
1070
     0
1000
MTEXTEND
  0
POINT
  5
3B7
330
3B0
100
AcDbEntity
  8
Defpoints
 62
     0
100
AcDbPoint
 10
-32.64839060797232
 20
1.493858085302747
 30
0.0
  0
POINT
  5
3B8
330
3B0
100
AcDbEntity
  8
Defpoints
 62
     0
100
AcDbPoint
 10
6.101609388152553
 20
1.493858085302747
 30
0.0
  0
POINT
  5
3B9
330
3B0
100
AcDbEntity
  8
Defpoints
 62
     0
100
AcDbPoint
 10
6.101609388152552
 20
-6.506141914697252
 30
0.0
  0
ENDBLK
  5
3BB
330
3B0
100
AcDbEntity
  8
0
100
AcDbBlockEnd
  0
BLOCK
  5
3C6
330
3BC
100
AcDbEntity
  8
0
100
AcDbBlockBegin
  2
*D8
 70
     1
 10
0.0
 20
0.0
 30
0.0
  3
*D8
  1

  0
LINE
  5
3BD
330
3BC
100
AcDbEntity
  8
SUNPO
 62
     0
370
    -2
100
AcDbLine
 10
-40.47599139682552
 20
3.184628261071452
 30
0.0
 11
-50.47599139682553
 21
3.184628261071456
 31
0.0
  0
LINE
  5
3BE
330
3BC
100
AcDbEntity
  8
SUNPO
 62
     0
370
    -2
100
AcDbLine
 10
-40.47599139682552
 20
28.98462825849157
 30
0.0
 11
-50.47599139682552
 21
28.98462825849157
 31
0.0
  0
LINE
  5
3BF
330
3BC
100
AcDbEntity
  8
SUNPO
 62
     0
370
    -2
100
AcDbLine
 10
-48.47599139682553
 20
5.184628261071455
 30
0.0
 11
-48.47599139682552
 21
26.98462825849157
 31
0.0
  0
INSERT
  5
3C0
330
3BC
100
AcDbEntity
  8
SUNPO
 62
     0
370
    -2
100
AcDbBlockReference
  2
_OPEN30
 10
-48.47599139682553
 20
3.184628261071455
 30
0.0
 41
2.0
 42
2.0
 43
2.0
 50
270.0
  0
INSERT
  5
3C1
330
3BC
100
AcDbEntity
  8
SUNPO
 62
     0
370
    -2
100
AcDbBlockReference
  2
_OPEN30
 10
-48.47599139682552
 20
28.98462825849157
 30
0.0
 41
2.0
 42
2.0
 43
2.0
 50
90.0
  0
MTEXT
  5
3C2
330
3BC
100
AcDbEntity
  8
SUNPO
 62
     0
100
AcDbMText
 10
-50.22599139682553
 20
16.08462825978151
 30
0.0
 40
2.5
 41
0.0
 71
     5
 72
     1
  1
\A1;516
 11
0.0000000000000001
 21
1.0
 31
0.0
 73
     1
 44
1.0
1001
ACAD
1000
MTEXTBEGIN
1070
    73
1070
     1
1070
    44
1040
1.0
1070
    74
1070
     0
1000
MTEXTEND
  0
POINT
  5
3C3
330
3BC
100
AcDbEntity
  8
Defpoints
 62
     0
100
AcDbPoint
 10
-38.47599139682552
 20
3.184628261071452
 30
0.0
  0
POINT
  5
3C4
330
3BC
100
AcDbEntity
  8
Defpoints
 62
     0
100
AcDbPoint
 10
-38.47599139682552
 20
28.98462825849157
 30
0.0
  0
POINT
  5
3C5
330
3BC
100
AcDbEntity
  8
Defpoints
 62
     0
100
AcDbPoint
 10
-48.47599139682552
 20
28.98462825849157
 30
0.0
  0
ENDBLK
  5
3C7
330
3BC
100
AcDbEntity
  8
0
100
AcDbBlockEnd
  0
ENDSEC
  0
SECTION
  2
ENTITIES
  0
TEXT
  5
30
330
2
100
AcDbEntity
  8
MOJI1
100
AcDbText
 10
-32.96312990716729
 20
53.05296626566508
 30
0.0
 40
4.0
  1
ハイビジョンプラズマディスプレイ壁掛け金具付
 41
0.93
100
AcDbText
  0
TEXT
  5
32
330
2
100
AcDbEntity
  8
MOJI1
100
AcDbText
 10
-18.46312990716709
 20
-54.94703373433509
 30
0.0
 40
3.0
  1
シリアル／ＰＣ／拡張スロット２、３
100
AcDbText
  0
TEXT
  5
33
330
2
100
AcDbEntity
  8
MOJI1
100
AcDbText
 10
-18.46312990716709
 20
-49.94703373433509
 30
0.0
 40
3.0
  1
ビデオ・音声／Ｓ映像・音声／外部スピーカ
100
AcDbText
  0
MTEXT
  5
34
330
2
100
AcDbEntity
  8
SUNPO
100
AcDbMText
 10
48.17759863444329
 20
41.70934181672009
 30
0.0
 40
2.5
 41
0.0
 71
     5
 72
     1
  1
\A1;21.5
 73
     1
 44
1.0
1001
ACAD
1000
MTEXTBEGIN
1070
    73
1070
     1
1070
    44
1040
1.0
1070
    74
1070
     0
1000
MTEXTEND
  0
INSERT
  5
35
330
2
100
AcDbEntity
  8
SUNPO
100
AcDbBlockReference
  2
_OPEN30
 10
39.09426530110997
 20
39.9593418167201
 30
0.0
 41
2.0
 42
2.0
 43
2.0
 50
180.0
  0
LINE
  5
36
330
2
100
AcDbEntity
  8
SUNPO
100
AcDbLine
 10
38.11926530120772
 20
39.9593418167201
 30
0.0
 11
39.09426530110997
 21
39.9593418167201
 31
0.0
  0
LINE
  5
37
330
2
100
AcDbEntity
  8
SUNPO
100
AcDbLine
 10
41.09426530110996
 20
39.9593418167201
 30
0.0
 11
53.26093196777666
 21
39.9593418167201
 31
0.0
  0
LINE
  5
38
330
2
100
AcDbEntity
  8
SUNPO
100
AcDbLine
 10
36.11926530120772
 20
39.9593418167201
 30
0.0
 11
34.11926530120772
 21
39.9593418167201
 31
0.0
  0
LINE
  5
39
330
2
100
AcDbEntity
  8
SUNPO
100
AcDbLine
 10
39.09426530110997
 20
33.96587432127916
 30
0.0
 11
39.09426530110997
 21
41.9593418167201
 31
0.0
  0
LINE
  5
3A
330
2
100
AcDbEntity
  8
SUNPO
100
AcDbLine
 10
38.11926530120772
 20
33.96587432127916
 30
0.0
 11
38.11926530120772
 21
41.9593418167201
 31
0.0
  0
CIRCLE
  5
3B
330
2
100
AcDbEntity
  8
SUNPO
100
AcDbCircle
 10
38.11926530120772
 20
39.9593418167201
 30
0.0
 40
0.2429999999756999
  0
LINE
  5
3C
330
2
100
AcDbEntity
  8
SUNPO
100
AcDbLine
 10
37.87716958661346
 20
39.93839748662111
 30
0.0
 11
38.36136101580198
 21
39.93839748662111
 31
0.0
  0
LINE
  5
3D
330
2
100
AcDbEntity
  8
SUNPO
100
AcDbLine
 10
37.87745892260287
 20
39.98339748661664
 30
0.0
 11
38.36107167981263
 21
39.98339748661664
 31
0.0
  0
LINE
  5
3E
330
2
100
AcDbEntity
  8
SUNPO
100
AcDbLine
 10
37.98731726757862
 20
40.16339748659857
 30
0.0
 11
38.25121333483693
 21
40.16339748659857
 31
0.0
  0
LINE
  5
3F
330
2
100
AcDbEntity
  8
SUNPO
100
AcDbLine
 10
37.93555277069819
 20
40.11839748660309
 30
0.0
 11
38.30297783171736
 21
40.11839748660309
 31
0.0
  0
LINE
  5
40
330
2
100
AcDbEntity
  8
SUNPO
100
AcDbLine
 10
37.90469525633969
 20
40.07339748660768
 30
0.0
 11
38.33383534607586
 21
40.07339748660768
 31
0.0
  0
LINE
  5
41
330
2
100
AcDbEntity
  8
SUNPO
100
AcDbLine
 10
37.88628394048553
 20
40.02839748661211
 30
0.0
 11
38.35224666192991
 21
40.02839748661211
 31
0.0
  0
LINE
  5
42
330
2
100
AcDbEntity
  8
SUNPO
100
AcDbLine
 10
37.88538425170484
 20
39.89339748662565
 30
0.0
 11
38.35314635071071
 21
39.89339748662565
 31
0.0
  0
LINE
  5
43
330
2
100
AcDbEntity
  8
SUNPO
100
AcDbLine
 10
37.90307012177706
 20
39.84839748663012
 30
0.0
 11
38.33546048063849
 21
39.84839748663012
 31
0.0
  0
LINE
  5
44
330
2
100
AcDbEntity
  8
SUNPO
100
AcDbLine
 10
37.93290445257694
 20
39.80339748663459
 30
0.0
 11
38.3056261498385
 21
39.80339748663459
 31
0.0
  0
LINE
  5
45
330
2
100
AcDbEntity
  8
SUNPO
100
AcDbLine
 10
37.9826257161802
 20
39.75839748663918
 30
0.0
 11
38.25590488623536
 21
39.75839748663918
 31
0.0
  0
MTEXT
  5
46
330
2
100
AcDbEntity
  8
SUNPO
100
AcDbMText
 10
27.08593196787442
 20
41.70934181672009
 30
0.0
 40
2.5
 41
0.0
 71
     5
 72
     1
  1
\A1;89
 73
     1
 44
1.0
1001
ACAD
1000
MTEXTBEGIN
1070
    73
1070
     1
1070
    44
1040
1.0
1070
    74
1070
     0
1000
MTEXTEND
  0
INSERT
  5
47
330
2
100
AcDbEntity
  8
SUNPO
100
AcDbBlockReference
  2
_OPEN30
 10
33.66926530120773
 20
39.9593418167201
 30
0.0
 41
2.0
 42
2.0
 43
2.0
  0
LINE
  5
48
330
2
100
AcDbEntity
  8
SUNPO
100
AcDbLine
 10
38.11926530120772
 20
39.9593418167201
 30
0.0
 11
33.66926530120773
 21
39.9593418167201
 31
0.0
  0
LINE
  5
49
330
2
100
AcDbEntity
  8
SUNPO
100
AcDbLine
 10
31.66926530120773
 20
39.9593418167201
 30
0.0
 11
24.50259863454105
 21
39.9593418167201
 31
0.0
  0
LINE
  5
4A
330
2
100
AcDbEntity
  8
SUNPO
100
AcDbLine
 10
40.11926530120772
 20
39.9593418167201
 30
0.0
 11
42.11926530120772
 21
39.9593418167201
 31
0.0
  0
LINE
  5
4B
330
2
100
AcDbEntity
  8
SUNPO
100
AcDbLine
 10
33.66926530120773
 20
33.96587432127916
 30
0.0
 11
33.66926530120773
 21
41.9593418167201
 31
0.0
  0
LINE
  5
4C
330
2
100
AcDbEntity
  8
SUNPO
100
AcDbLine
 10
38.11926530120772
 20
33.96587432127916
 30
0.0
 11
38.11926530120772
 21
41.9593418167201
 31
0.0
  0
LINE
  5
4D
330
2
100
AcDbEntity
  8
GAIKEI
  6
Continuous
 62
     1
100
AcDbLine
 10
38.11926530120772
 20
26.10356027932017
 30
0.0
 11
38.11926530120772
 21
25.16954329816349
 31
0.0
  0
LINE
  5
4F
330
2
100
AcDbEntity
  8
GAIKEI
  6
Continuous
 62
     1
100
AcDbLine
 10
39.01926530111754
 20
28.88462825835024
 30
0.0
 11
39.01926530111754
 21
26.33462825860608
 31
0.0
  0
LINE
  5
50
330
2
100
AcDbEntity
  8
GAIKEI
  6
Continuous
 62
     1
100
AcDbLine
 10
38.61926530115764
 20
28.98462825834014
 30
0.0
 11
39.01926530111754
 21
28.98462825834014
 31
0.0
  0
LINE
  5
51
330
2
100
AcDbEntity
  8
GAIKEI
  6
Continuous
 62
     1
100
AcDbLine
 10
38.61926530115764
 20
28.88462825835024
 30
0.0
 11
39.01926530111754
 21
28.88462825835024
 31
0.0
  0
LINE
  5
52
330
2
100
AcDbEntity
  8
GAIKEI
  6
Continuous
 62
     1
100
AcDbLine
 10
38.61926530115764
 20
26.33462825860608
 30
0.0
 11
39.01926530111754
 21
26.33462825860608
 31
0.0
  0
LINE
  5
53
330
2
100
AcDbEntity
  8
GAIKEI
  6
Continuous
 62
     1
100
AcDbLine
 10
38.61926530115764
 20
28.88462825835024
 30
0.0
 11
38.61926530115764
 21
28.98462825834014
 31
0.0
  0
LINE
  5
54
330
2
100
AcDbEntity
  8
GAIKEI
  6
Continuous
 62
     1
100
AcDbLine
 10
38.61926530115764
 20
26.33462825860608
 30
0.0
 11
38.61926530115764
 21
26.23462825861606
 31
0.0
  0
ARC
  5
55
330
2
100
AcDbEntity
  8
GAIKEI
  6
Continuous
 62
     1
100
AcDbCircle
 10
39.01926530111754
 20
28.88462825835024
 30
0.0
 40
0.0999999999899659
100
AcDbArc
 50
0.0
 51
90.0
  0
ARC
  5
56
330
2
100
AcDbEntity
  8
GAIKEI
  6
Continuous
 62
     1
100
AcDbCircle
 10
39.01926530111754
 20
26.33462825860608
 30
0.0
 40
0.0999999999899659
100
AcDbArc
 50
270.0
 51
0.0
  0
ARC
  5
57
330
2
100
AcDbEntity
  8
GAIKEI
  6
Continuous
 62
     1
100
AcDbCircle
 10
39.01926530111754
 20
28.43462825839532
 30
0.0
 40
0.0999999999899659
100
AcDbArc
 50
138.1896849999924
 51
180.0
  0
LINE
  5
58
330
2
100
AcDbEntity
  8
GAIKEI
  6
Continuous
 62
     1
100
AcDbLine
 10
39.01926530111754
 20
28.58462825838029
 30
0.0
 11
38.94472980112496
 21
28.5012950083887
 31
0.0
  0
ARC
  5
59
330
2
100
AcDbEntity
  8
GAIKEI
  6
Continuous
 62
     1
100
AcDbCircle
 10
39.01926530111754
 20
27.73462825846559
 30
0.0
 40
0.0999999999899659
100
AcDbArc
 50
180.0
 51
221.8103150000076
  0
LINE
  5
5A
330
2
100
AcDbEntity
  8
GAIKEI
  6
Continuous
 62
     1
100
AcDbLine
 10
39.01926530111754
 20
27.58462825848068
 30
0.0
 11
38.94472980112496
 21
27.66796175847225
 31
0.0
  0
LINE
  5
5B
330
2
100
AcDbEntity
  8
GAIKEI
  6
Continuous
 62
     1
100
AcDbLine
 10
38.91926530112753
 20
28.88462825835024
 30
0.0
 11
38.91926530112753
 21
26.33462825860608
 31
0.0
  0
LINE
  5
5C
330
2
100
AcDbEntity
  8
GAIKEI
  6
Continuous
 62
     1
100
AcDbLine
 10
39.11926530110756
 20
3.284628260918907
 30
0.0
 11
39.11926530110756
 21
5.959628260650504
 31
0.0
  0
LINE
  5
5D
330
2
100
AcDbEntity
  8
GAIKEI
  6
Continuous
 62
     1
100
AcDbLine
 10
39.01926530111754
 20
3.284628260918907
 30
0.0
 11
39.01926530111754
 21
5.834628260663009
 31
0.0
  0
LINE
  5
5E
330
2
100
AcDbEntity
  8
GAIKEI
  6
Continuous
 62
     1
100
AcDbLine
 10
38.61926530115764
 20
3.184628260928946
 30
0.0
 11
39.01926530111754
 21
3.184628260928946
 31
0.0
  0
LINE
  5
5F
330
2
100
AcDbEntity
  8
GAIKEI
  6
Continuous
 62
     1
100
AcDbLine
 10
38.61926530115764
 20
3.284628260918907
 30
0.0
 11
39.01926530111754
 21
3.284628260918907
 31
0.0
  0
LINE
  5
60
330
2
100
AcDbEntity
  8
GAIKEI
  6
Continuous
 62
     1
100
AcDbLine
 10
38.61926530115764
 20
5.834628260663009
 30
0.0
 11
39.01926530111754
 21
5.834628260663009
 31
0.0
  0
LINE
  5
61
330
2
100
AcDbEntity
  8
GAIKEI
  6
Continuous
 62
     1
100
AcDbLine
 10
38.61926530115764
 20
5.834628260663009
 30
0.0
 11
38.61926530115764
 21
5.934628260653028
 31
0.0
  0
ARC
  5
62
330
2
100
AcDbEntity
  8
GAIKEI
  6
Continuous
 62
     1
100
AcDbCircle
 10
39.01926530111754
 20
3.284628260918907
 30
0.0
 40
0.0999999999899659
100
AcDbArc
 50
270.0
 51
0.0
  0
ARC
  5
63
330
2
100
AcDbEntity
  8
GAIKEI
  6
Continuous
 62
     1
100
AcDbCircle
 10
39.01926530111754
 20
5.834628260663009
 30
0.0
 40
0.0999999999899659
100
AcDbArc
 50
0.0
 51
90.0
  0
ARC
  5
64
330
2
100
AcDbEntity
  8
GAIKEI
  6
Continuous
 62
     1
100
AcDbCircle
 10
39.01926530111754
 20
3.734628260873819
 30
0.0
 40
0.0999999999899659
100
AcDbArc
 50
180.0
 51
221.8103150000076
  0
LINE
  5
65
330
2
100
AcDbEntity
  8
GAIKEI
  6
Continuous
 62
     1
100
AcDbLine
 10
39.01926530111754
 20
3.584628260888791
 30
0.0
 11
38.94472980112496
 21
3.667961760880473
 31
0.0
  0
ARC
  5
66
330
2
100
AcDbEntity
  8
GAIKEI
  6
Continuous
 62
     1
100
AcDbCircle
 10
39.01926530111754
 20
4.434628260803549
 30
0.0
 40
0.0999999999899659
100
AcDbArc
 50
138.1896849999924
 51
180.0
  0
LINE
  5
67
330
2
100
AcDbEntity
  8
GAIKEI
  6
Continuous
 62
     1
100
AcDbLine
 10
39.01926530111754
 20
4.584628260788463
 30
0.0
 11
38.94472980112496
 21
4.501295010796923
 31
0.0
  0
LINE
  5
68
330
2
100
AcDbEntity
  8
GAIKEI
  6
Continuous
 62
     1
100
AcDbLine
 10
38.91926530112753
 20
3.284628260918907
 30
0.0
 11
38.91926530112753
 21
5.834628260663009
 31
0.0
  0
LINE
  5
69
330
2
100
AcDbEntity
  8
GAIKEI
  6
Continuous
 62
     1
100
AcDbLine
 10
39.11926530110756
 20
28.88462825835024
 30
0.0
 11
39.11926530110756
 21
26.20962825861858
 31
0.0
  0
LINE
  5
6A
330
2
100
AcDbEntity
  8
GAIKEI
  6
Continuous
 62
     1
100
AcDbLine
 10
38.11926530120772
 20
26.10962825862868
 30
0.0
 11
38.11926530120772
 21
6.059628260640465
 31
0.0
  0
LINE
  5
6B
330
2
100
AcDbEntity
  8
GAIKEI
  6
Continuous
 62
     1
100
AcDbLine
 10
38.21926530119774
 20
5.959628260650504
 30
0.0
 11
38.99426530111995
 21
5.959628260650504
 31
0.0
  0
LINE
  5
6C
330
2
100
AcDbEntity
  8
GAIKEI
  6
Continuous
 62
     1
100
AcDbLine
 10
38.21926530119774
 20
26.20962825861858
 30
0.0
 11
38.99426530111995
 21
26.20962825861858
 31
0.0
  0
LINE
  5
6D
330
2
100
AcDbEntity
  8
GAIKEI
  6
Continuous
 62
     1
100
AcDbLine
 10
38.21926530119774
 20
26.10962825862868
 30
0.0
 11
38.21926530119774
 21
26.00962825863866
 31
0.0
  0
ARC
  5
6E
330
2
100
AcDbEntity
  8
GAIKEI
  6
Continuous
 62
     1
100
AcDbCircle
 10
38.21926530119774
 20
6.059628260640465
 30
0.0
 40
0.0999999999899659
100
AcDbArc
 50
180.0
 51
270.0
  0
ARC
  5
6F
330
2
100
AcDbEntity
  8
GAIKEI
  6
Continuous
 62
     1
100
AcDbCircle
 10
38.21926530119774
 20
26.10962825862868
 30
0.0
 40
0.0999999999899659
100
AcDbArc
 50
90.0
 51
180.0
  0
CIRCLE
  5
70
330
2
100
AcDbEntity
  8
GAIKEI
  6
Continuous
 62
     1
100
AcDbCircle
 10
38.51926530116762
 20
9.434628260301792
 30
0.0
 40
0.102499999989715
  0
CIRCLE
  5
71
330
2
100
AcDbEntity
  8
GAIKEI
  6
Continuous
 62
     1
100
AcDbCircle
 10
38.51926530116762
 20
9.434628260301792
 30
0.0
 40
0.1249999999874574
  0
LINE
  5
72
330
2
100
AcDbEntity
  8
GAIKEI
  6
Continuous
 62
     1
100
AcDbLine
 10
38.11926530120772
 20
26.00962825863866
 30
0.0
 11
38.21926530119774
 21
26.00962825863866
 31
0.0
  0
LINE
  5
73
330
2
100
AcDbEntity
  8
GAIKEI
  6
Continuous
 62
     1
100
AcDbLine
 10
38.21926530119774
 20
26.10962825862868
 30
0.0
 11
38.31926530118776
 21
26.10962825862868
 31
0.0
  0
LINE
  5
74
330
2
100
AcDbEntity
  8
GAIKEI
  6
Continuous
 62
     1
100
AcDbLine
 10
38.11926530120772
 20
6.159628260630427
 30
0.0
 11
38.21926530119774
 21
6.159628260630427
 31
0.0
  0
LINE
  5
75
330
2
100
AcDbEntity
  8
GAIKEI
  6
Continuous
 62
     1
100
AcDbLine
 10
38.21926530119774
 20
6.159628260630427
 30
0.0
 11
38.21926530119774
 21
6.061557010640285
 31
0.0
  0
LINE
  5
76
330
2
100
AcDbEntity
  8
GAIKEI
  6
Continuous
 62
     1
100
AcDbLine
 10
38.21926530119774
 20
6.059628260640465
 30
0.0
 11
38.31926530118776
 21
6.059628260640465
 31
0.0
  0
ARC
  5
77
330
2
100
AcDbEntity
  8
GAIKEI
  6
Continuous
 62
     1
100
AcDbCircle
 10
38.21926530119774
 20
26.10962825862868
 30
0.0
 40
0.0999999999899659
100
AcDbArc
 50
270.0
 51
0.0
  0
ARC
  5
78
330
2
100
AcDbEntity
  8
GAIKEI
  6
Continuous
 62
     1
100
AcDbCircle
 10
38.4192653011776
 20
26.10962825862868
 30
0.0
 40
0.0999999999899659
100
AcDbArc
 50
90.0
 51
180.0
  0
ARC
  5
79
330
2
100
AcDbEntity
  8
GAIKEI
  6
Continuous
 62
     1
100
AcDbCircle
 10
38.21926530119774
 20
6.059628260640465
 30
0.0
 40
0.0999999999899659
100
AcDbArc
 50
0.0
 51
90.0
  0
ARC
  5
7A
330
2
100
AcDbEntity
  8
GAIKEI
  6
Continuous
 62
     1
100
AcDbCircle
 10
38.4192653011776
 20
6.059628260640465
 30
0.0
 40
0.0999999999899659
100
AcDbArc
 50
180.0
 51
270.0
  0
ARC
  5
7B
330
2
100
AcDbEntity
  8
GAIKEI
  6
Continuous
 62
     1
100
AcDbCircle
 10
38.99426530111995
 20
26.10962825862868
 30
0.0
 40
0.0999999999899659
100
AcDbArc
 50
0.0
 51
90.0
  0
ARC
  5
7C
330
2
100
AcDbEntity
  8
GAIKEI
  6
Continuous
 62
     1
100
AcDbCircle
 10
39.01926530111754
 20
26.20962825861858
 30
0.0
 40
0.0999999999899659
100
AcDbArc
 50
314.9403499999862
 51
0.0
  0
LINE
  5
7D
330
2
100
AcDbEntity
  8
GAIKEI
  6
Continuous
 62
     1
100
AcDbLine
 10
39.09426530110997
 20
26.10962825862868
 30
0.0
 11
39.09426530110997
 21
6.059628260640465
 31
0.0
  0
LINE
  5
7E
330
2
100
AcDbEntity
  8
GAIKEI
  6
Continuous
 62
     1
100
AcDbLine
 10
39.01926530111754
 20
26.23462825861606
 30
0.0
 11
39.01926530111754
 21
26.20962825861858
 31
0.0
  0
LINE
  5
7F
330
2
100
AcDbEntity
  8
GAIKEI
  6
Continuous
 62
     1
100
AcDbLine
 10
38.91926530112753
 20
27.20962825851825
 30
0.0
 11
38.7692653011425
 21
27.20962825851825
 31
0.0
  0
LINE
  5
80
330
2
100
AcDbEntity
  8
GAIKEI
  6
Continuous
 62
     1
100
AcDbLine
 10
38.91926530112753
 20
27.10962825852829
 30
0.0
 11
38.7692653011425
 21
27.10962825852829
 31
0.0
  0
LINE
  5
81
330
2
100
AcDbEntity
  8
GAIKEI
  6
Continuous
 62
     1
100
AcDbLine
 10
38.7692653011425
 20
27.10962825852829
 30
0.0
 11
38.7692653011425
 21
27.20962825851825
 31
0.0
  0
ARC
  5
82
330
2
100
AcDbEntity
  8
GAIKEI
  6
Continuous
 62
     1
100
AcDbCircle
 10
38.99426530111995
 20
6.059628260640465
 30
0.0
 40
0.0999999999899659
100
AcDbArc
 50
270.0
 51
0.0
  0
ARC
  5
83
330
2
100
AcDbEntity
  8
GAIKEI
  6
Continuous
 62
     1
100
AcDbCircle
 10
39.01926530111754
 20
5.959628260650504
 30
0.0
 40
0.0999999999899659
100
AcDbArc
 50
0.0
 51
45.05965000001377
  0
LINE
  5
84
330
2
100
AcDbEntity
  8
GAIKEI
  6
Continuous
 62
     1
100
AcDbLine
 10
39.01926530111754
 20
5.934628260653028
 30
0.0
 11
39.01926530111754
 21
5.959628260650504
 31
0.0
  0
LINE
  5
85
330
2
100
AcDbEntity
  8
GAIKEI
  6
Continuous
 62
     1
100
AcDbLine
 10
38.91926530112753
 20
4.959628260750889
 30
0.0
 11
38.7692653011425
 21
4.959628260750889
 31
0.0
  0
LINE
  5
86
330
2
100
AcDbEntity
  8
GAIKEI
  6
Continuous
 62
     1
100
AcDbLine
 10
38.91926530112753
 20
5.059628260740794
 30
0.0
 11
38.7692653011425
 21
5.059628260740794
 31
0.0
  0
LINE
  5
87
330
2
100
AcDbEntity
  8
GAIKEI
  6
Continuous
 62
     1
100
AcDbLine
 10
38.7692653011425
 20
5.059628260740794
 30
0.0
 11
38.7692653011425
 21
4.959628260750889
 31
0.0
  0
LINE
  5
88
330
2
100
AcDbEntity
  8
GAIKEI
  6
Continuous
 62
     1
100
AcDbLine
 10
38.61926530115764
 20
26.23462825861606
 30
0.0
 11
39.01926530111754
 21
26.23462825861606
 31
0.0
  0
LINE
  5
89
330
2
100
AcDbEntity
  8
GAIKEI
  6
Continuous
 62
     1
100
AcDbLine
 10
38.61926530115764
 20
5.934628260653028
 30
0.0
 11
39.01926530111754
 21
5.934628260653028
 31
0.0
  0
POINT
  5
8A
330
2
100
AcDbEntity
  8
GAIKEI
  6
Continuous
 62
     1
100
AcDbPoint
 10
39.11926530110756
 20
16.08462825963448
 30
0.0
  0
DIMENSION
  5
8B
330
2
100
AcDbEntity
  8
SUNPO
100
AcDbDimension
  2
*D8
 10
-48.47599139682552
 20
28.98462825849157
 30
0.0
 11
-50.22599139682553
 21
16.08462825978151
 31
0.0
 70
    33
  1
516
 71
     5
 42
25.79999999742012
  3
STANDARD
100
AcDbAlignedDimension
 13
-38.47599139682552
 23
3.184628261071452
 33
0.0
 14
-38.47599139682552
 24
28.98462825849157
 34
0.0
1001
ACAD
1000
DSTYLE
1002
{
1070
   287
1070
     3
1070
   287
1070
     3
1070
   287
1070
     3
1070
   287
1070
     3
1070
   287
1070
     3
1070
   287
1070
     3
1070
   287
1070
     3
1070
   287
1070
     3
1070
   287
1070
     3
1070
   287
1070
     3
1070
   287
1070
     3
1070
    40
1040
1.0
1070
   140
1040
2.5
1070
   147
1040
0.5
1070
   172
1070
     1
1070
   279
1070
     0
1070
   288
1070
     0
1002
}
  0
LINE
  5
99
330
2
100
AcDbEntity
  8
GAIKEI
  6
HIDDEN2
 62
     1
100
AcDbLine
 10
4.88910938827388
 20
26.33462825875648
 30
0.0
 11
4.88910938827388
 21
27.0857110086813
 31
0.0
  0
LINE
  5
9B
330
2
100
AcDbEntity
  8
GAIKEI
  6
HIDDEN2
 62
     1
100
AcDbLine
 10
6.101609388152553
 20
26.23462825876647
 30
0.0
 11
6.101609388152553
 21
28.98462825849146
 31
0.0
  0
LINE
  5
9C
330
2
100
AcDbEntity
  8
GAIKEI
  6
HIDDEN2
 62
     1
100
AcDbLine
 10
4.75160938828759
 20
26.20962825876899
 30
0.0
 11
4.851609388277609
 21
26.20962825876899
 31
0.0
  0
LINE
  5
9D
330
2
100
AcDbEntity
  8
GAIKEI
  6
HIDDEN2
 62
     1
100
AcDbLine
 10
4.626609388300209
 20
26.10962825877897
 30
0.0
 11
4.626609388300209
 21
26.20962825876899
 31
0.0
  0
LINE
  5
9E
330
2
100
AcDbEntity
  8
GAIKEI
  6
HIDDEN2
 62
     1
100
AcDbLine
 10
4.626609388300209
 20
26.10962825877897
 30
0.0
 11
4.726609388290228
 21
26.10962825877897
 31
0.0
  0
POINT
  5
9F
330
2
100
AcDbEntity
  8
GAIKEI
  6
HIDDEN2
 62
     1
100
AcDbPoint
 10
4.201609388342546
 20
26.10962825877897
 30
0.0
  0
ARC
  5
A0
330
2
100
AcDbEntity
  8
GAIKEI
  6
HIDDEN2
 62
     1
100
AcDbCircle
 10
4.101609388352642
 20
26.15562175877438
 30
0.0
 40
0.09999999999
100
AcDbArc
 50
310.6012950000001
 51
0.0
  0
LINE
  5
A1
330
2
100
AcDbEntity
  8
GAIKEI
  6
HIDDEN2
 62
     1
100
AcDbLine
 10
4.201609388342546
 20
26.20962825876899
 30
0.0
 11
4.201609388342546
 21
26.15562175877438
 31
0.0
  0
LINE
  5
A2
330
2
100
AcDbEntity
  8
GAIKEI
  6
HIDDEN2
 62
     1
100
AcDbLine
 10
4.226609388340136
 20
26.23462825876647
 30
0.0
 11
4.226609388340136
 21
26.33462825875648
 31
0.0
  0
LINE
  5
A3
330
2
100
AcDbEntity
  8
GAIKEI
  6
HIDDEN2
 62
     1
100
AcDbLine
 10
4.726609388290228
 20
26.23462825876647
 30
0.0
 11
4.726609388290228
 21
26.10962825877897
 31
0.0
  0
LINE
  5
A4
330
2
100
AcDbEntity
  8
GAIKEI
  6
HIDDEN2
 62
     1
100
AcDbLine
 10
4.226609388340136
 20
26.33462825875648
 30
0.0
 11
6.101609388152553
 21
26.33462825875648
 31
0.0
  0
LINE
  5
A5
330
2
100
AcDbEntity
  8
GAIKEI
  6
HIDDEN2
 62
     1
100
AcDbLine
 10
4.851609388277609
 20
26.00962825878895
 30
0.0
 11
4.726609388290228
 21
26.00962825878895
 31
0.0
  0
LINE
  5
A6
330
2
100
AcDbEntity
  8
GAIKEI
  6
HIDDEN2
 62
     1
100
AcDbLine
 10
4.75160938828759
 20
26.20962825876899
 30
0.0
 11
4.75160938828759
 21
26.00962825878895
 31
0.0
  0
ARC
  5
A7
330
2
100
AcDbEntity
  8
GAIKEI
  6
HIDDEN2
 62
     1
100
AcDbCircle
 10
4.726609388290228
 20
26.10962825877897
 30
0.0
 40
0.09999999999
100
AcDbArc
 50
180.0
 51
270.0
  0
LINE
  5
A8
330
2
100
AcDbEntity
  8
GAIKEI
  6
HIDDEN2
 62
     1
100
AcDbLine
 10
4.16668838834613
 20
26.07969625878201
 30
0.0
 11
3.763713638386491
 21
25.73428925881649
 31
0.0
  0
ARC
  5
A9
330
2
100
AcDbEntity
  8
GAIKEI
  6
HIDDEN2
 62
     1
100
AcDbCircle
 10
5.351609388227586
 20
28.08462825858152
 30
0.0
 40
0.1749999999825
100
AcDbArc
 50
270.0
 51
90.0
  0
ARC
  5
AA
330
2
100
AcDbEntity
  8
GAIKEI
  6
HIDDEN2
 62
     1
100
AcDbCircle
 10
5.351609388227586
 20
28.08462825858152
 30
0.0
 40
0.49999999995
100
AcDbArc
 50
270.0
 51
90.0
  0
LINE
  5
AB
330
2
100
AcDbEntity
  8
GAIKEI
  6
HIDDEN2
 62
     1
100
AcDbLine
 10
4.731609388289541
 20
27.24962825866493
 30
0.0
 11
4.731609388289541
 21
27.09962825868001
 31
0.0
  0
LINE
  5
AC
330
2
100
AcDbEntity
  8
GAIKEI
  6
HIDDEN2
 62
     1
100
AcDbLine
 10
4.726609388290228
 20
27.209628258669
 30
0.0
 11
4.726609388290228
 21
27.09962825868001
 31
0.0
  0
LINE
  5
AD
330
2
100
AcDbEntity
  8
GAIKEI
  6
HIDDEN2
 62
     1
100
AcDbLine
 10
3.971609388365607
 20
27.24962825866493
 30
0.0
 11
3.971609388365607
 21
27.09962825868001
 31
0.0
  0
LINE
  5
AE
330
2
100
AcDbEntity
  8
GAIKEI
  6
HIDDEN2
 62
     1
100
AcDbLine
 10
3.976609388365034
 20
27.209628258669
 30
0.0
 11
3.976609388365034
 21
27.09962825868001
 31
0.0
  0
LINE
  5
AF
330
2
100
AcDbEntity
  8
GAIKEI
  6
HIDDEN2
 62
     1
100
AcDbLine
 10
4.731609388289541
 20
27.24962825866493
 30
0.0
 11
3.971609388365607
 21
27.24962825866493
 31
0.0
  0
LINE
  5
B0
330
2
100
AcDbEntity
  8
GAIKEI
  6
HIDDEN2
 62
     1
100
AcDbLine
 10
4.731609388289541
 20
27.09962825868001
 30
0.0
 11
3.971609388365607
 21
27.09962825868001
 31
0.0
  0
LINE
  5
B1
330
2
100
AcDbEntity
  8
GAIKEI
  6
HIDDEN2
 62
     1
100
AcDbLine
 10
4.726609388290228
 20
27.209628258669
 30
0.0
 11
3.976609388365034
 21
27.209628258669
 31
0.0
  0
LINE
  5
B2
330
2
100
AcDbEntity
  8
GAIKEI
  6
HIDDEN2
 62
     1
100
AcDbLine
 10
4.726609388290228
 20
27.10962825867898
 30
0.0
 11
3.976609388365034
 21
27.10962825867898
 31
0.0
  0
ARC
  5
B3
330
2
100
AcDbEntity
  8
GAIKEI
  6
HIDDEN2
 62
     1
100
AcDbCircle
 10
5.389109388223744
 20
27.0857110086813
 30
0.0
 40
0.49999999995
100
AcDbArc
 50
94.30122199999926
 51
180.0
  0
ARC
  5
B4
330
2
100
AcDbEntity
  8
GAIKEI
  6
HIDDEN2
 62
     1
100
AcDbCircle
 10
1.064109388656277
 20
27.08462825868145
 30
0.0
 40
0.49999999995
100
AcDbArc
 50
0.0
 51
90.0
  0
ARC
  5
B5
330
2
100
AcDbEntity
  8
GAIKEI
  6
HIDDEN2
 62
     1
100
AcDbCircle
 10
-0.7733906111599822
 20
28.08462825858152
 30
0.0
 40
0.1749999999825
100
AcDbArc
 50
270.0
 51
90.0
  0
LINE
  5
B6
330
2
100
AcDbEntity
  8
GAIKEI
  6
HIDDEN2
 62
     1
100
AcDbLine
 10
1.564109388606368
 20
26.33462825875648
 30
0.0
 11
1.564109388606368
 21
27.08462825868145
 31
0.0
  0
LINE
  5
B7
330
2
100
AcDbEntity
  8
GAIKEI
  6
HIDDEN2
 62
     1
100
AcDbLine
 10
2.251609388537701
 20
26.20962825876899
 30
0.0
 11
2.251609388537701
 21
26.15562175877438
 31
0.0
  0
POINT
  5
B8
330
2
100
AcDbEntity
  8
GAIKEI
  6
HIDDEN2
 62
     1
100
AcDbPoint
 10
2.251609388537701
 20
26.10962825877897
 30
0.0
  0
ARC
  5
B9
330
2
100
AcDbEntity
  8
GAIKEI
  6
HIDDEN2
 62
     1
100
AcDbCircle
 10
2.35160938852772
 20
26.15562175877438
 30
0.0
 40
0.09999999999
100
AcDbArc
 50
180.0
 51
229.3987049999998
  0
LINE
  5
BA
330
2
100
AcDbEntity
  8
GAIKEI
  6
HIDDEN2
 62
     1
100
AcDbLine
 10
2.226609388540111
 20
26.23462825876647
 30
0.0
 11
2.226609388540111
 21
26.33462825875648
 31
0.0
  0
LINE
  5
BB
330
2
100
AcDbEntity
  8
GAIKEI
  6
HIDDEN2
 62
     1
100
AcDbLine
 10
3.589109388403755
 20
24.70962825891894
 30
0.0
 11
3.589109388403755
 21
25.35466075885444
 31
0.0
  0
POINT
  5
BC
330
2
100
AcDbEntity
  8
GAIKEI
  6
HIDDEN2
 62
     1
100
AcDbPoint
 10
3.589109388403755
 20
25.58462825883152
 30
0.0
  0
LINE
  5
BD
330
2
100
AcDbEntity
  8
GAIKEI
  6
HIDDEN2
 62
     1
100
AcDbLine
 10
2.864109388476265
 20
24.70962825891894
 30
0.0
 11
2.864109388476265
 21
25.35466075885444
 31
0.0
  0
POINT
  5
BE
330
2
100
AcDbEntity
  8
GAIKEI
  6
HIDDEN2
 62
     1
100
AcDbPoint
 10
2.864109388476265
 20
25.58462825883152
 30
0.0
  0
ARC
  5
BF
330
2
100
AcDbEntity
  8
GAIKEI
  6
HIDDEN2
 62
     1
100
AcDbCircle
 10
2.364109388526287
 20
25.35466075885444
 30
0.0
 40
0.49999999995
100
AcDbArc
 50
0.0
 51
49.39870499999981
  0
LINE
  5
C0
330
2
100
AcDbEntity
  8
GAIKEI
  6
HIDDEN2
 62
     1
100
AcDbLine
 10
2.286530138534033
 20
26.07969625878201
 30
0.0
 11
2.689504888493786
 21
25.73428925881649
 31
0.0
  0
LINE
  5
C1
330
2
100
AcDbEntity
  8
GAIKEI
  6
HIDDEN2
 62
     1
100
AcDbLine
 10
3.264109388436338
 20
24.38462825895153
 30
0.0
 11
3.18910938844391
 21
24.38462825895153
 31
0.0
  0
ARC
  5
C2
330
2
100
AcDbEntity
  8
GAIKEI
  6
HIDDEN2
 62
     1
100
AcDbCircle
 10
3.264109388436338
 20
24.70962825891894
 30
0.0
 40
0.3249999999675
100
AcDbArc
 50
270.0
 51
0.0
  0
ARC
  5
C3
330
2
100
AcDbEntity
  8
GAIKEI
  6
HIDDEN2
 62
     1
100
AcDbCircle
 10
3.18910938844391
 20
24.70962825891894
 30
0.0
 40
0.3249999999675
100
AcDbArc
 50
180.0
 51
270.0
  0
LINE
  5
C4
330
2
100
AcDbEntity
  8
GAIKEI
  6
HIDDEN2
 62
     1
100
AcDbLine
 10
1.701609388592544
 20
26.20962825876899
 30
0.0
 11
1.601609388602525
 21
26.20962825876899
 31
0.0
  0
LINE
  5
C5
330
2
100
AcDbEntity
  8
GAIKEI
  6
HIDDEN2
 62
     1
100
AcDbLine
 10
1.826609388580038
 20
26.10962825877897
 30
0.0
 11
1.826609388580038
 21
26.20962825876899
 31
0.0
  0
LINE
  5
C6
330
2
100
AcDbEntity
  8
GAIKEI
  6
HIDDEN2
 62
     1
100
AcDbLine
 10
1.826609388580038
 20
26.10962825877897
 30
0.0
 11
1.726609388590134
 21
26.10962825877897
 31
0.0
  0
LINE
  5
C7
330
2
100
AcDbEntity
  8
GAIKEI
  6
HIDDEN2
 62
     1
100
AcDbLine
 10
1.726609388590134
 20
26.23462825876647
 30
0.0
 11
1.726609388590134
 21
26.10962825877897
 31
0.0
  0
LINE
  5
C8
330
2
100
AcDbEntity
  8
GAIKEI
  6
HIDDEN2
 62
     1
100
AcDbLine
 10
1.601609388602525
 20
26.00962825878895
 30
0.0
 11
1.726609388590134
 21
26.00962825878895
 31
0.0
  0
LINE
  5
C9
330
2
100
AcDbEntity
  8
GAIKEI
  6
HIDDEN2
 62
     1
100
AcDbLine
 10
1.701609388592544
 20
26.20962825876899
 30
0.0
 11
1.701609388592544
 21
26.00962825878895
 31
0.0
  0
ARC
  5
CA
330
2
100
AcDbEntity
  8
GAIKEI
  6
HIDDEN2
 62
     1
100
AcDbCircle
 10
1.726609388590134
 20
26.10962825877897
 30
0.0
 40
0.09999999999
100
AcDbArc
 50
270.0
 51
0.0
  0
ARC
  5
CB
330
2
100
AcDbEntity
  8
GAIKEI
  6
HIDDEN2
 62
     1
100
AcDbCircle
 10
3.226609388440067
 20
28.08462825858152
 30
0.0
 40
0.1749999999825
100
AcDbArc
 50
90.0
 51
270.0
  0
LINE
  5
CC
330
2
100
AcDbEntity
  8
GAIKEI
  6
HIDDEN2
 62
     1
100
AcDbLine
 10
2.481609388514414
 20
27.24962825866493
 30
0.0
 11
2.481609388514414
 21
27.09962825868001
 31
0.0
  0
LINE
  5
CD
330
2
100
AcDbEntity
  8
GAIKEI
  6
HIDDEN2
 62
     1
100
AcDbLine
 10
2.4766093885151
 20
27.209628258669
 30
0.0
 11
2.4766093885151
 21
27.09962825868001
 31
0.0
  0
LINE
  5
CE
330
2
100
AcDbEntity
  8
GAIKEI
  6
HIDDEN2
 62
     1
100
AcDbLine
 10
1.721609388590479
 20
27.24962825866493
 30
0.0
 11
1.721609388590479
 21
27.09962825868001
 31
0.0
  0
LINE
  5
CF
330
2
100
AcDbEntity
  8
GAIKEI
  6
HIDDEN2
 62
     1
100
AcDbLine
 10
1.726609388590134
 20
27.209628258669
 30
0.0
 11
1.726609388590134
 21
27.09962825868001
 31
0.0
  0
LINE
  5
D0
330
2
100
AcDbEntity
  8
GAIKEI
  6
HIDDEN2
 62
     1
100
AcDbLine
 10
1.721609388590479
 20
27.24962825866493
 30
0.0
 11
2.481609388514414
 21
27.24962825866493
 31
0.0
  0
LINE
  5
D1
330
2
100
AcDbEntity
  8
GAIKEI
  6
HIDDEN2
 62
     1
100
AcDbLine
 10
1.721609388590479
 20
27.09962825868001
 30
0.0
 11
2.481609388514414
 21
27.09962825868001
 31
0.0
  0
LINE
  5
D2
330
2
100
AcDbEntity
  8
GAIKEI
  6
HIDDEN2
 62
     1
100
AcDbLine
 10
2.4766093885151
 20
27.209628258669
 30
0.0
 11
1.726609388590134
 21
27.209628258669
 31
0.0
  0
LINE
  5
D3
330
2
100
AcDbEntity
  8
GAIKEI
  6
HIDDEN2
 62
     1
100
AcDbLine
 10
2.4766093885151
 20
27.10962825867898
 30
0.0
 11
1.726609388590134
 21
27.10962825867898
 31
0.0
  0
ARC
  5
D4
330
2
100
AcDbEntity
  8
GAIKEI
  6
HIDDEN2
 62
     1
100
AcDbCircle
 10
4.089109388353847
 20
25.35466075885444
 30
0.0
 40
0.49999999995
100
AcDbArc
 50
130.6012950000002
 51
180.0
  0
LINE
  5
D5
330
2
100
AcDbEntity
  8
GAIKEI
  6
HIDDEN2
 62
     1
100
AcDbLine
 10
4.19040463834375
 20
26.10962825877897
 30
0.0
 11
2.262814138536384
 21
26.10962825877897
 31
0.0
  0
LINE
  5
D6
330
2
100
AcDbEntity
  8
GAIKEI
  6
HIDDEN2
 62
     1
100
AcDbLine
 10
4.726609388290228
 20
26.20962825876899
 30
0.0
 11
1.726609388590134
 21
26.20962825876899
 31
0.0
  0
LINE
  5
D7
330
2
100
AcDbEntity
  8
GAIKEI
  6
HIDDEN2
 62
     1
100
AcDbLine
 10
5.351609388227586
 20
27.90962825859896
 30
0.0
 11
3.226609388440067
 21
27.90962825859896
 31
0.0
  0
LINE
  5
D8
330
2
100
AcDbEntity
  8
GAIKEI
  6
HIDDEN2
 62
     1
100
AcDbLine
 10
5.351609388227586
 20
28.25962825856397
 30
0.0
 11
3.226609388440067
 21
28.25962825856397
 31
0.0
  0
LINE
  5
D9
330
2
100
AcDbEntity
  8
GAIKEI
  6
HIDDEN2
 62
     1
100
AcDbLine
 10
4.076609388355052
 20
23.42212825904772
 30
0.0
 11
4.076609388355052
 21
23.49712825904015
 31
0.0
  0
ARC
  5
DA
330
2
100
AcDbEntity
  8
GAIKEI
  6
HIDDEN2
 62
     1
100
AcDbCircle
 10
3.751609388387635
 20
23.43462825904641
 30
0.0
 40
0.3249999999675
100
AcDbArc
 50
270.0
 51
0.0
  0
ARC
  5
DB
330
2
100
AcDbEntity
  8
GAIKEI
  6
HIDDEN2
 62
     1
100
AcDbCircle
 10
3.751609388387635
 20
23.48462825904147
 30
0.0
 40
0.3249999999675
100
AcDbArc
 50
0.0
 51
90.0
  0
ARC
  5
DC
330
2
100
AcDbEntity
  8
GAIKEI
  6
HIDDEN2
 62
     1
100
AcDbCircle
 10
3.420130638420744
 20
24.05962825898394
 30
0.0
 40
0.249999999975
100
AcDbArc
 50
217.9798719999997
 51
270.0
  0
ARC
  5
DD
330
2
100
AcDbEntity
  8
GAIKEI
  6
HIDDEN2
 62
     1
100
AcDbCircle
 10
2.651609388497547
 20
24.18437025897151
 30
0.0
 40
0.1002582499899742
100
AcDbArc
 50
355.8873210000001
 51
183.8197659999996
  0
ARC
  5
DE
330
2
100
AcDbEntity
  8
GAIKEI
  6
HIDDEN2
 62
     1
100
AcDbCircle
 10
2.651609388497547
 20
23.459628259044
 30
0.0
 40
0.7249999999274999
100
AcDbArc
 50
37.97987199999973
 51
82.06901600000037
  0
ARC
  5
DF
330
2
100
AcDbEntity
  8
GAIKEI
  6
HIDDEN2
 62
     1
100
AcDbCircle
 10
3.420130638420744
 20
22.859628259104
 30
0.0
 40
0.249999999975
100
AcDbArc
 50
90.0
 51
142.0201280000003
  0
ARC
  5
E0
330
2
100
AcDbEntity
  8
GAIKEI
  6
HIDDEN2
 62
     1
100
AcDbCircle
 10
2.651609388497547
 20
22.73488650911651
 30
0.0
 40
0.1002582499899742
100
AcDbArc
 50
176.1802340000004
 51
4.112678999999948
  0
ARC
  5
E1
330
2
100
AcDbEntity
  8
GAIKEI
  6
HIDDEN2
 62
     1
100
AcDbCircle
 10
2.651609388497547
 20
23.459628259044
 30
0.0
 40
0.7249999999274999
100
AcDbArc
 50
277.9309839999996
 51
322.0201280000003
  0
ARC
  5
E2
330
2
100
AcDbEntity
  8
GAIKEI
  6
HIDDEN2
 62
     1
100
AcDbCircle
 10
1.973073138565553
 20
23.71426400901845
 30
0.0
 40
0.1002582499899742
100
AcDbArc
 50
65.6119860000001
 51
253.2485960000009
  0
ARC
  5
E3
330
2
100
AcDbEntity
  8
GAIKEI
  6
HIDDEN2
 62
     1
100
AcDbCircle
 10
2.651609388497547
 20
23.459628259044
 30
0.0
 40
0.7249999999274999
100
AcDbArc
 50
167.3612749999991
 51
192.6387249999973
  0
ARC
  5
E4
330
2
100
AcDbEntity
  8
GAIKEI
  6
HIDDEN2
 62
     1
100
AcDbCircle
 10
1.973073138565553
 20
23.2049927590694
 30
0.0
 40
0.1002582499899742
100
AcDbArc
 50
106.7514039999991
 51
294.6823879999998
  0
ARC
  5
E5
330
2
100
AcDbEntity
  8
GAIKEI
  6
HIDDEN2
 62
     1
100
AcDbCircle
 10
2.651609388497547
 20
23.459628259044
 30
0.0
 40
0.7249999999274999
100
AcDbArc
 50
97.93380099999502
 51
151.4993069999999
  0
ARC
  5
E6
330
2
100
AcDbEntity
  8
GAIKEI
  6
HIDDEN2
 62
     1
100
AcDbCircle
 10
2.651609388497547
 20
23.459628259044
 30
0.0
 40
0.7249999999274999
100
AcDbArc
 50
208.5035100000002
 51
262.0661989999985
  0
LINE
  5
E7
330
2
100
AcDbEntity
  8
GAIKEI
  6
HIDDEN2
 62
     1
100
AcDbLine
 10
3.751609388387635
 20
23.80962825900889
 30
0.0
 11
3.420130638420744
 21
23.80962825900889
 31
0.0
  0
LINE
  5
E8
330
2
100
AcDbEntity
  8
GAIKEI
  6
HIDDEN2
 62
     1
100
AcDbLine
 10
3.751609388387635
 20
23.10962825907899
 30
0.0
 11
3.420130638420744
 21
23.10962825907899
 31
0.0
  0
LINE
  5
E9
330
2
100
AcDbEntity
  8
GAIKEI
  6
HIDDEN2
 62
     1
100
AcDbLine
 10
4.051609388357462
 20
9.809628260408942
 30
0.0
 11
4.051609388357462
 21
10.05954026038392
 31
0.0
  0
ARC
  5
EA
330
2
100
AcDbEntity
  8
GAIKEI
  6
HIDDEN2
 62
     1
100
AcDbCircle
 10
4.051351138357574
 20
10.15962826037395
 30
0.0
 40
0.1002582499899742
100
AcDbArc
 50
270.1475399999991
 51
93.33963399999896
  0
ARC
  5
EB
330
2
100
AcDbEntity
  8
GAIKEI
  6
HIDDEN2
 62
     1
100
AcDbCircle
 10
3.839109388378858
 20
8.926187010497358
 30
0.0
 40
0.249999999975
100
AcDbArc
 50
124.7340099999986
 51
180.0
  0
ARC
  5
EC
330
2
100
AcDbEntity
  8
GAIKEI
  6
HIDDEN2
 62
     1
100
AcDbCircle
 10
3.226609388440067
 20
9.809628260408942
 30
0.0
 40
0.8249999999174999
100
AcDbArc
 50
180.0
 51
235.2659900000014
  0
ARC
  5
ED
330
2
100
AcDbEntity
  8
GAIKEI
  6
HIDDEN2
 62
     1
100
AcDbCircle
 10
2.61410938850139
 20
8.926187010497358
 30
0.0
 40
0.249999999975
100
AcDbArc
 50
0.0
 51
55.26599000000138
  0
LINE
  5
EE
330
2
100
AcDbEntity
  8
GAIKEI
  6
HIDDEN2
 62
     1
100
AcDbLine
 10
2.401609388522558
 20
9.809628260408942
 30
0.0
 11
2.401609388522558
 21
10.05937051038398
 31
0.0
  0
ARC
  5
EF
330
2
100
AcDbEntity
  8
GAIKEI
  6
HIDDEN2
 62
     1
100
AcDbCircle
 10
2.401867388522589
 20
10.15962826037395
 30
0.0
 40
0.1002582499899742
100
AcDbArc
 50
86.66036600000103
 51
269.8524600000009
  0
ARC
  5
F0
330
2
100
AcDbEntity
  8
GAIKEI
  6
HIDDEN2
 62
     1
100
AcDbCircle
 10
3.226609388440067
 20
10.15962826037395
 30
0.0
 40
0.8249999999174999
100
AcDbArc
 50
6.973576000000924
 51
173.0689550000012
  0
ARC
  5
F1
330
2
100
AcDbEntity
  8
GAIKEI
  6
HIDDEN2
 62
     1
100
AcDbCircle
 10
3.226609388440067
 20
9.809628260408942
 30
0.0
 40
0.8249999999174999
100
AcDbArc
 50
304.7340099999987
 51
0.0
  0
ARC
  5
F2
330
2
100
AcDbEntity
  8
GAIKEI
  6
HIDDEN2
 62
     1
100
AcDbCircle
 10
-5.773390610659873
 20
28.08462825858152
 30
0.0
 40
0.1749999999825
100
AcDbArc
 50
90.0
 51
270.0
  0
ARC
  5
F3
330
2
100
AcDbEntity
  8
GAIKEI
  6
HIDDEN2
 62
     1
100
AcDbCircle
 10
-10.77339061015988
 20
28.08462825858152
 30
0.0
 40
0.1749999999825
100
AcDbArc
 50
270.0
 51
90.0
  0
ARC
  5
F4
330
2
100
AcDbEntity
  8
GAIKEI
  6
HIDDEN2
 62
     1
100
AcDbCircle
 10
-13.27339060990988
 20
27.08462825868145
 30
0.0
 40
0.49999999995
100
AcDbArc
 50
180.0
 51
0.0
  0
ARC
  5
F5
330
2
100
AcDbEntity
  8
GAIKEI
  6
HIDDEN2
 62
     1
100
AcDbCircle
 10
-13.27339060990988
 20
27.08462825868145
 30
0.0
 40
0.1749999999825
100
AcDbArc
 50
180.0
 51
0.0
  0
LINE
  5
F6
330
2
100
AcDbEntity
  8
GAIKEI
  6
HIDDEN2
 62
     1
100
AcDbLine
 10
-14.02339060983485
 20
27.90962825859896
 30
0.0
 11
-15.77339060965977
 21
27.90962825859896
 31
0.0
  0
LINE
  5
F7
330
2
100
AcDbEntity
  8
GAIKEI
  6
HIDDEN2
 62
     1
100
AcDbLine
 10
-14.02339060983485
 20
28.25962825856397
 30
0.0
 11
-15.77339060965977
 21
28.25962825856397
 31
0.0
  0
ARC
  5
F8
330
2
100
AcDbEntity
  8
GAIKEI
  6
HIDDEN2
 62
     1
100
AcDbCircle
 10
-15.77339060965977
 20
28.08462825858152
 30
0.0
 40
0.1749999999825
100
AcDbArc
 50
90.0
 51
270.0
  0
ARC
  5
F9
330
2
100
AcDbEntity
  8
GAIKEI
  6
HIDDEN2
 62
     1
100
AcDbCircle
 10
-12.52339060998491
 20
28.08462825858152
 30
0.0
 40
0.1749999999825
100
AcDbArc
 50
90.0
 51
270.0
  0
LINE
  5
FA
330
2
100
AcDbEntity
  8
GAIKEI
  6
HIDDEN2
 62
     1
100
AcDbLine
 10
-13.09839060992743
 20
27.89703825860028
 30
0.0
 11
-13.09839060992743
 21
28.08462825858152
 31
0.0
  0
ARC
  5
FB
330
2
100
AcDbEntity
  8
GAIKEI
  6
HIDDEN2
 62
     1
100
AcDbCircle
 10
-13.04839060993237
 20
27.89703825860028
 30
0.0
 40
0.049999999995
100
AcDbArc
 50
180.0
 51
234.2382859999955
  0
ARC
  5
FC
330
2
100
AcDbEntity
  8
GAIKEI
  6
HIDDEN2
 62
     1
100
AcDbCircle
 10
-14.02339060983485
 20
28.08462825858152
 30
0.0
 40
0.1749999999825
100
AcDbArc
 50
270.0
 51
90.0
  0
LINE
  5
FD
330
2
100
AcDbEntity
  8
GAIKEI
  6
HIDDEN2
 62
     1
100
AcDbLine
 10
-13.44839060989244
 20
27.89703825860028
 30
0.0
 11
-13.44839060989244
 21
28.08462825858152
 31
0.0
  0
ARC
  5
FE
330
2
100
AcDbEntity
  8
GAIKEI
  6
HIDDEN2
 62
     1
100
AcDbCircle
 10
-13.49839060988728
 20
27.89703825860028
 30
0.0
 40
0.049999999995
100
AcDbArc
 50
305.7617140000045
 51
0.0
  0
ARC
  5
FF
330
2
100
AcDbEntity
  8
GAIKEI
  6
HIDDEN2
 62
     1
100
AcDbCircle
 10
-13.27339060990988
 20
28.08462825858152
 30
0.0
 40
0.1749999999825
100
AcDbArc
 50
0.0
 51
180.0
  0
LINE
  5
100
330
2
100
AcDbEntity
  8
GAIKEI
  6
HIDDEN2
 62
     1
100
AcDbLine
 10
-13.09839060992743
 20
27.08462825868145
 30
0.0
 11
-13.09839060992743
 21
27.27221825866275
 31
0.0
  0
ARC
  5
101
330
2
100
AcDbEntity
  8
GAIKEI
  6
HIDDEN2
 62
     1
100
AcDbCircle
 10
-13.04839060993237
 20
27.27221825866275
 30
0.0
 40
0.049999999995
100
AcDbArc
 50
125.7617140000045
 51
180.0
  0
LINE
  5
102
330
2
100
AcDbEntity
  8
GAIKEI
  6
HIDDEN2
 62
     1
100
AcDbLine
 10
-13.44839060989244
 20
27.08462825868145
 30
0.0
 11
-13.44839060989244
 21
27.27221825866275
 31
0.0
  0
ARC
  5
103
330
2
100
AcDbEntity
  8
GAIKEI
  6
HIDDEN2
 62
     1
100
AcDbCircle
 10
-13.49839060988728
 20
27.27221825866275
 30
0.0
 40
0.049999999995
100
AcDbArc
 50
0.0
 51
54.23828599999552
  0
ARC
  5
104
330
2
100
AcDbEntity
  8
GAIKEI
  6
HIDDEN2
 62
     1
100
AcDbCircle
 10
-14.27339060980983
 20
27.08462825868145
 30
0.0
 40
0.49999999995
100
AcDbArc
 50
0.0
 51
90.0
  0
ARC
  5
105
330
2
100
AcDbEntity
  8
GAIKEI
  6
HIDDEN2
 62
     1
100
AcDbCircle
 10
-12.27339061000981
 20
27.08462825868145
 30
0.0
 40
0.49999999995
100
AcDbArc
 50
90.0
 51
180.0
  0
ARC
  5
106
330
2
100
AcDbEntity
  8
GAIKEI
  6
HIDDEN2
 62
     1
100
AcDbCircle
 10
-13.27339060990988
 20
27.58462825863148
 30
0.0
 40
0.3349999999665
100
AcDbArc
 50
125.7617140000045
 51
234.2382859999955
  0
ARC
  5
107
330
2
100
AcDbEntity
  8
GAIKEI
  6
HIDDEN2
 62
     1
100
AcDbCircle
 10
-13.27339060990988
 20
27.58462825863148
 30
0.0
 40
0.3349999999665
100
AcDbArc
 50
305.7617140000045
 51
54.23828599999552
  0
ARC
  5
108
330
2
100
AcDbEntity
  8
GAIKEI
  6
HIDDEN2
 62
     1
100
AcDbCircle
 10
-20.77339060915989
 20
28.08462825858152
 30
0.0
 40
0.1749999999825
100
AcDbArc
 50
270.0
 51
90.0
  0
LINE
  5
109
330
2
100
AcDbEntity
  8
GAIKEI
  6
HIDDEN2
 62
     1
100
AcDbLine
 10
-12.52339060998491
 20
27.90962825859896
 30
0.0
 11
-10.77339061015988
 21
27.90962825859896
 31
0.0
  0
LINE
  5
10A
330
2
100
AcDbEntity
  8
GAIKEI
  6
HIDDEN2
 62
     1
100
AcDbLine
 10
-12.52339060998491
 20
28.25962825856397
 30
0.0
 11
-10.77339061015988
 21
28.25962825856397
 31
0.0
  0
LINE
  5
10B
330
2
100
AcDbEntity
  8
GAIKEI
  6
HIDDEN2
 62
     1
100
AcDbLine
 10
-12.27339061000981
 20
27.58462825863148
 30
0.0
 11
1.064109388656277
 21
27.58462825863148
 31
0.0
  0
LINE
  5
10C
330
2
100
AcDbEntity
  8
GAIKEI
  6
HIDDEN2
 62
     1
100
AcDbLine
 10
-0.7733906111599822
 20
27.90962825859896
 30
0.0
 11
-5.773390610659873
 21
27.90962825859896
 31
0.0
  0
LINE
  5
10D
330
2
100
AcDbEntity
  8
GAIKEI
  6
HIDDEN2
 62
     1
100
AcDbLine
 10
-0.7733906111599822
 20
28.25962825856397
 30
0.0
 11
-5.773390610659873
 21
28.25962825856397
 31
0.0
  0
ARC
  5
10E
330
2
100
AcDbEntity
  8
GAIKEI
  6
HIDDEN2
 62
     1
100
AcDbCircle
 10
-25.7733906086599
 20
28.08462825858152
 30
0.0
 40
0.1749999999825
100
AcDbArc
 50
90.0
 51
270.0
  0
LINE
  5
10F
330
2
100
AcDbEntity
  8
GAIKEI
  6
HIDDEN2
 62
     1
100
AcDbLine
 10
-28.11089060842625
 20
26.33462825875648
 30
0.0
 11
-28.11089060842625
 21
27.08462825868145
 31
0.0
  0
LINE
  5
110
330
2
100
AcDbEntity
  8
GAIKEI
  6
HIDDEN2
 62
     1
100
AcDbLine
 10
-31.43589060809353
 20
26.33462825875648
 30
0.0
 11
-31.43589060809353
 21
27.0857110086813
 31
0.0
  0
LINE
  5
111
330
2
100
AcDbEntity
  8
GAIKEI
  6
HIDDEN2
 62
     1
100
AcDbLine
 10
-32.64839060797243
 20
26.23462825876647
 30
0.0
 11
-32.64839060797243
 21
28.98462825849146
 31
0.0
  0
LINE
  5
112
330
2
100
AcDbEntity
  8
GAIKEI
  6
HIDDEN2
 62
     1
100
AcDbLine
 10
-30.71346985816587
 20
26.07969625878201
 30
0.0
 11
-30.31049510820623
 21
25.73428925881649
 31
0.0
  0
LINE
  5
113
330
2
100
AcDbEntity
  8
GAIKEI
  6
HIDDEN2
 62
     1
100
AcDbLine
 10
-31.27339060810988
 20
26.20962825876899
 30
0.0
 11
-28.2733906084099
 21
26.20962825876899
 31
0.0
  0
LINE
  5
114
330
2
100
AcDbEntity
  8
GAIKEI
  6
HIDDEN2
 62
     1
100
AcDbLine
 10
-30.73718585816351
 20
26.10962825877897
 30
0.0
 11
-28.80959535835626
 21
26.10962825877897
 31
0.0
  0
LINE
  5
115
330
2
100
AcDbEntity
  8
GAIKEI
  6
HIDDEN2
 62
     1
100
AcDbLine
 10
-31.29839060810747
 20
26.20962825876899
 30
0.0
 11
-31.39839060809737
 21
26.20962825876899
 31
0.0
  0
LINE
  5
116
330
2
100
AcDbEntity
  8
GAIKEI
  6
HIDDEN2
 62
     1
100
AcDbLine
 10
-31.17339060811986
 20
26.10962825877897
 30
0.0
 11
-31.17339060811986
 21
26.20962825876899
 31
0.0
  0
LINE
  5
117
330
2
100
AcDbEntity
  8
GAIKEI
  6
HIDDEN2
 62
     1
100
AcDbLine
 10
-31.17339060811986
 20
26.10962825877897
 30
0.0
 11
-31.27339060810988
 21
26.10962825877897
 31
0.0
  0
POINT
  5
118
330
2
100
AcDbEntity
  8
GAIKEI
  6
HIDDEN2
 62
     1
100
AcDbPoint
 10
-30.74839060816243
 20
26.10962825877897
 30
0.0
  0
LINE
  5
119
330
2
100
AcDbEntity
  8
GAIKEI
  6
HIDDEN2
 62
     1
100
AcDbLine
 10
-30.74839060816243
 20
26.20962825876899
 30
0.0
 11
-30.74839060816243
 21
26.15562175877438
 31
0.0
  0
LINE
  5
11A
330
2
100
AcDbEntity
  8
GAIKEI
  6
HIDDEN2
 62
     1
100
AcDbLine
 10
-30.77339060815979
 20
26.23462825876647
 30
0.0
 11
-30.77339060815979
 21
26.33462825875648
 31
0.0
  0
LINE
  5
11B
330
2
100
AcDbEntity
  8
GAIKEI
  6
HIDDEN2
 62
     1
100
AcDbLine
 10
-31.27339060810988
 20
26.23462825876647
 30
0.0
 11
-31.27339060810988
 21
26.10962825877897
 31
0.0
  0
LINE
  5
11C
330
2
100
AcDbEntity
  8
GAIKEI
  6
HIDDEN2
 62
     1
100
AcDbLine
 10
-30.77339060815979
 20
26.33462825875648
 30
0.0
 11
-32.64839060797243
 21
26.33462825875648
 31
0.0
  0
LINE
  5
11D
330
2
100
AcDbEntity
  8
GAIKEI
  6
HIDDEN2
 62
     1
100
AcDbLine
 10
-31.39839060809737
 20
26.00962825878895
 30
0.0
 11
-31.27339060810988
 21
26.00962825878895
 31
0.0
  0
LINE
  5
11E
330
2
100
AcDbEntity
  8
GAIKEI
  6
HIDDEN2
 62
     1
100
AcDbLine
 10
-31.29839060810747
 20
26.20962825876899
 30
0.0
 11
-31.29839060810747
 21
26.00962825878895
 31
0.0
  0
ARC
  5
11F
330
2
100
AcDbEntity
  8
GAIKEI
  6
HIDDEN2
 62
     1
100
AcDbCircle
 10
-31.27339060810988
 20
26.10962825877897
 30
0.0
 40
0.09999999999
100
AcDbArc
 50
270.0
 51
0.0
  0
ARC
  5
120
330
2
100
AcDbEntity
  8
GAIKEI
  6
HIDDEN2
 62
     1
100
AcDbCircle
 10
-30.64839060817241
 20
26.15562175877438
 30
0.0
 40
0.09999999999
100
AcDbArc
 50
180.0
 51
229.3987049999998
  0
LINE
  5
121
330
2
100
AcDbEntity
  8
GAIKEI
  6
HIDDEN2
 62
     1
100
AcDbLine
 10
-28.24839060841242
 20
26.20962825876899
 30
0.0
 11
-28.14839060842241
 21
26.20962825876899
 31
0.0
  0
LINE
  5
122
330
2
100
AcDbEntity
  8
GAIKEI
  6
HIDDEN2
 62
     1
100
AcDbLine
 10
-28.37339060839992
 20
26.10962825877897
 30
0.0
 11
-28.37339060839992
 21
26.20962825876899
 31
0.0
  0
LINE
  5
123
330
2
100
AcDbEntity
  8
GAIKEI
  6
HIDDEN2
 62
     1
100
AcDbLine
 10
-28.37339060839992
 20
26.10962825877897
 30
0.0
 11
-28.2733906084099
 21
26.10962825877897
 31
0.0
  0
LINE
  5
124
330
2
100
AcDbEntity
  8
GAIKEI
  6
HIDDEN2
 62
     1
100
AcDbLine
 10
-28.2733906084099
 20
26.23462825876647
 30
0.0
 11
-28.2733906084099
 21
26.10962825877897
 31
0.0
  0
LINE
  5
125
330
2
100
AcDbEntity
  8
GAIKEI
  6
HIDDEN2
 62
     1
100
AcDbLine
 10
-28.14839060842241
 20
26.00962825878895
 30
0.0
 11
-28.2733906084099
 21
26.00962825878895
 31
0.0
  0
LINE
  5
126
330
2
100
AcDbEntity
  8
GAIKEI
  6
HIDDEN2
 62
     1
100
AcDbLine
 10
-28.24839060841242
 20
26.20962825876899
 30
0.0
 11
-28.24839060841242
 21
26.00962825878895
 31
0.0
  0
ARC
  5
127
330
2
100
AcDbEntity
  8
GAIKEI
  6
HIDDEN2
 62
     1
100
AcDbCircle
 10
-28.2733906084099
 20
26.10962825877897
 30
0.0
 40
0.09999999999
100
AcDbArc
 50
180.0
 51
270.0
  0
LINE
  5
128
330
2
100
AcDbEntity
  8
GAIKEI
  6
HIDDEN2
 62
     1
100
AcDbLine
 10
-28.79839060835735
 20
26.20962825876899
 30
0.0
 11
-28.79839060835735
 21
26.15562175877438
 31
0.0
  0
POINT
  5
129
330
2
100
AcDbEntity
  8
GAIKEI
  6
HIDDEN2
 62
     1
100
AcDbPoint
 10
-28.79839060835735
 20
26.10962825877897
 30
0.0
  0
ARC
  5
12A
330
2
100
AcDbEntity
  8
GAIKEI
  6
HIDDEN2
 62
     1
100
AcDbCircle
 10
-28.89839060834737
 20
26.15562175877438
 30
0.0
 40
0.09999999999
100
AcDbArc
 50
310.6012950000001
 51
0.0
  0
LINE
  5
12B
330
2
100
AcDbEntity
  8
GAIKEI
  6
HIDDEN2
 62
     1
100
AcDbLine
 10
-28.77339060835976
 20
26.23462825876647
 30
0.0
 11
-28.77339060835976
 21
26.33462825875648
 31
0.0
  0
LINE
  5
12C
330
2
100
AcDbEntity
  8
GAIKEI
  6
HIDDEN2
 62
     1
100
AcDbLine
 10
-29.41089060829614
 20
24.70962825891894
 30
0.0
 11
-29.41089060829614
 21
25.35466075885444
 31
0.0
  0
POINT
  5
12D
330
2
100
AcDbEntity
  8
GAIKEI
  6
HIDDEN2
 62
     1
100
AcDbPoint
 10
-29.41089060829614
 20
25.58462825883152
 30
0.0
  0
ARC
  5
12E
330
2
100
AcDbEntity
  8
GAIKEI
  6
HIDDEN2
 62
     1
100
AcDbCircle
 10
-28.91089060834616
 20
25.35466075885444
 30
0.0
 40
0.49999999995
100
AcDbArc
 50
130.6012950000002
 51
180.0
  0
LINE
  5
12F
330
2
100
AcDbEntity
  8
GAIKEI
  6
HIDDEN2
 62
     1
100
AcDbLine
 10
-30.13589060822364
 20
24.70962825891894
 30
0.0
 11
-30.13589060822364
 21
25.35466075885444
 31
0.0
  0
POINT
  5
130
330
2
100
AcDbEntity
  8
GAIKEI
  6
HIDDEN2
 62
     1
100
AcDbPoint
 10
-30.13589060822364
 20
25.58462825883152
 30
0.0
  0
ARC
  5
131
330
2
100
AcDbEntity
  8
GAIKEI
  6
HIDDEN2
 62
     1
100
AcDbCircle
 10
-30.63589060817373
 20
25.35466075885444
 30
0.0
 40
0.49999999995
100
AcDbArc
 50
0.0
 51
49.39870499999981
  0
LINE
  5
132
330
2
100
AcDbEntity
  8
GAIKEI
  6
HIDDEN2
 62
     1
100
AcDbLine
 10
-28.833311608354
 20
26.07969625878201
 30
0.0
 11
-29.23628635831363
 21
25.73428925881649
 31
0.0
  0
LINE
  5
133
330
2
100
AcDbEntity
  8
GAIKEI
  6
HIDDEN2
 62
     1
100
AcDbLine
 10
-29.73589060826379
 20
24.38462825895153
 30
0.0
 11
-29.81089060825622
 21
24.38462825895153
 31
0.0
  0
ARC
  5
134
330
2
100
AcDbEntity
  8
GAIKEI
  6
HIDDEN2
 62
     1
100
AcDbCircle
 10
-29.81089060825622
 20
24.70962825891894
 30
0.0
 40
0.3249999999675
100
AcDbArc
 50
180.0
 51
270.0
  0
ARC
  5
135
330
2
100
AcDbEntity
  8
GAIKEI
  6
HIDDEN2
 62
     1
100
AcDbCircle
 10
-29.73589060826379
 20
24.70962825891894
 30
0.0
 40
0.3249999999675
100
AcDbArc
 50
270.0
 51
0.0
  0
LINE
  5
136
330
2
100
AcDbEntity
  8
GAIKEI
  6
HIDDEN2
 62
     1
100
AcDbLine
 10
-31.89839060804747
 20
27.90962825859896
 30
0.0
 11
-29.77339060825995
 21
27.90962825859896
 31
0.0
  0
LINE
  5
137
330
2
100
AcDbEntity
  8
GAIKEI
  6
HIDDEN2
 62
     1
100
AcDbLine
 10
-31.89839060804747
 20
28.25962825856397
 30
0.0
 11
-29.77339060825995
 21
28.25962825856397
 31
0.0
  0
LINE
  5
138
330
2
100
AcDbEntity
  8
GAIKEI
  6
HIDDEN2
 62
     1
100
AcDbLine
 10
-30.51839060818549
 20
27.24962825866493
 30
0.0
 11
-30.51839060818549
 21
27.09962825868001
 31
0.0
  0
LINE
  5
139
330
2
100
AcDbEntity
  8
GAIKEI
  6
HIDDEN2
 62
     1
100
AcDbLine
 10
-30.52339060818491
 20
27.209628258669
 30
0.0
 11
-30.52339060818491
 21
27.09962825868001
 31
0.0
  0
ARC
  5
13A
330
2
100
AcDbEntity
  8
GAIKEI
  6
HIDDEN2
 62
     1
100
AcDbCircle
 10
-31.89839060804747
 20
28.08462825858152
 30
0.0
 40
0.1749999999825
100
AcDbArc
 50
90.0
 51
270.0
  0
ARC
  5
13B
330
2
100
AcDbEntity
  8
GAIKEI
  6
HIDDEN2
 62
     1
100
AcDbCircle
 10
-31.89839060804747
 20
28.08462825858152
 30
0.0
 40
0.49999999995
100
AcDbArc
 50
90.0
 51
270.0
  0
LINE
  5
13C
330
2
100
AcDbEntity
  8
GAIKEI
  6
HIDDEN2
 62
     1
100
AcDbLine
 10
-31.27839060810953
 20
27.24962825866493
 30
0.0
 11
-31.27839060810953
 21
27.09962825868001
 31
0.0
  0
LINE
  5
13D
330
2
100
AcDbEntity
  8
GAIKEI
  6
HIDDEN2
 62
     1
100
AcDbLine
 10
-31.27339060810988
 20
27.209628258669
 30
0.0
 11
-31.27339060810988
 21
27.09962825868001
 31
0.0
  0
ARC
  5
13E
330
2
100
AcDbEntity
  8
GAIKEI
  6
HIDDEN2
 62
     1
100
AcDbCircle
 10
-31.93589060804362
 20
27.0857110086813
 30
0.0
 40
0.49999999995
100
AcDbArc
 50
0.0
 51
85.69877800000073
  0
LINE
  5
13F
330
2
100
AcDbEntity
  8
GAIKEI
  6
HIDDEN2
 62
     1
100
AcDbLine
 10
-31.27839060810953
 20
27.24962825866493
 30
0.0
 11
-30.51839060818549
 21
27.24962825866493
 31
0.0
  0
LINE
  5
140
330
2
100
AcDbEntity
  8
GAIKEI
  6
HIDDEN2
 62
     1
100
AcDbLine
 10
-31.27839060810953
 20
27.09962825868001
 30
0.0
 11
-30.51839060818549
 21
27.09962825868001
 31
0.0
  0
LINE
  5
141
330
2
100
AcDbEntity
  8
GAIKEI
  6
HIDDEN2
 62
     1
100
AcDbLine
 10
-31.27339060810988
 20
27.209628258669
 30
0.0
 11
-30.52339060818491
 21
27.209628258669
 31
0.0
  0
LINE
  5
142
330
2
100
AcDbEntity
  8
GAIKEI
  6
HIDDEN2
 62
     1
100
AcDbLine
 10
-31.27339060810988
 20
27.10962825867898
 30
0.0
 11
-30.52339060818491
 21
27.10962825867898
 31
0.0
  0
ARC
  5
143
330
2
100
AcDbEntity
  8
GAIKEI
  6
HIDDEN2
 62
     1
100
AcDbCircle
 10
-29.77339060825995
 20
28.08462825858152
 30
0.0
 40
0.1749999999825
100
AcDbArc
 50
270.0
 51
90.0
  0
LINE
  5
144
330
2
100
AcDbEntity
  8
GAIKEI
  6
HIDDEN2
 62
     1
100
AcDbLine
 10
-28.26839060841058
 20
27.24962825866493
 30
0.0
 11
-28.26839060841058
 21
27.09962825868001
 31
0.0
  0
LINE
  5
145
330
2
100
AcDbEntity
  8
GAIKEI
  6
HIDDEN2
 62
     1
100
AcDbLine
 10
-28.2733906084099
 20
27.209628258669
 30
0.0
 11
-28.2733906084099
 21
27.09962825868001
 31
0.0
  0
LINE
  5
146
330
2
100
AcDbEntity
  8
GAIKEI
  6
HIDDEN2
 62
     1
100
AcDbLine
 10
-29.02839060833452
 20
27.24962825866493
 30
0.0
 11
-29.02839060833452
 21
27.09962825868001
 31
0.0
  0
LINE
  5
147
330
2
100
AcDbEntity
  8
GAIKEI
  6
HIDDEN2
 62
     1
100
AcDbLine
 10
-29.02339060833487
 20
27.209628258669
 30
0.0
 11
-29.02339060833487
 21
27.09962825868001
 31
0.0
  0
LINE
  5
148
330
2
100
AcDbEntity
  8
GAIKEI
  6
HIDDEN2
 62
     1
100
AcDbLine
 10
-28.26839060841058
 20
27.24962825866493
 30
0.0
 11
-29.02839060833452
 21
27.24962825866493
 31
0.0
  0
LINE
  5
149
330
2
100
AcDbEntity
  8
GAIKEI
  6
HIDDEN2
 62
     1
100
AcDbLine
 10
-28.26839060841058
 20
27.09962825868001
 30
0.0
 11
-29.02839060833452
 21
27.09962825868001
 31
0.0
  0
LINE
  5
14A
330
2
100
AcDbEntity
  8
GAIKEI
  6
HIDDEN2
 62
     1
100
AcDbLine
 10
-29.02339060833487
 20
27.209628258669
 30
0.0
 11
-28.2733906084099
 21
27.209628258669
 31
0.0
  0
LINE
  5
14B
330
2
100
AcDbEntity
  8
GAIKEI
  6
HIDDEN2
 62
     1
100
AcDbLine
 10
-29.02339060833487
 20
27.10962825867898
 30
0.0
 11
-28.2733906084099
 21
27.10962825867898
 31
0.0
  0
ARC
  5
14C
330
2
100
AcDbEntity
  8
GAIKEI
  6
HIDDEN2
 62
     1
100
AcDbCircle
 10
-27.61089060847627
 20
27.08462825868145
 30
0.0
 40
0.49999999995
100
AcDbArc
 50
90.0
 51
180.0
  0
LINE
  5
14D
330
2
100
AcDbEntity
  8
GAIKEI
  6
HIDDEN2
 62
     1
100
AcDbLine
 10
-29.24839060831249
 20
23.82212825900769
 30
0.0
 11
-30.36976510820017
 21
23.82212825900769
 31
0.0
  0
LINE
  5
14E
330
2
100
AcDbEntity
  8
GAIKEI
  6
HIDDEN2
 62
     1
100
AcDbLine
 10
-29.24839060831249
 20
23.09712825908019
 30
0.0
 11
-30.36976510820017
 21
23.09712825908019
 31
0.0
  0
POINT
  5
14F
330
2
100
AcDbEntity
  8
GAIKEI
  6
HIDDEN2
 62
     1
100
AcDbPoint
 10
-30.59839060817734
 20
23.82212825900769
 30
0.0
  0
POINT
  5
150
330
2
100
AcDbEntity
  8
GAIKEI
  6
HIDDEN2
 62
     1
100
AcDbPoint
 10
-30.59839060817734
 20
23.09712825908019
 30
0.0
  0
LINE
  5
151
330
2
100
AcDbEntity
  8
GAIKEI
  6
HIDDEN2
 62
     1
100
AcDbLine
 10
-31.39839060809737
 20
24.28462825896151
 30
0.0
 11
-31.11270360812608
 21
24.28462825896151
 31
0.0
  0
LINE
  5
152
330
2
100
AcDbEntity
  8
GAIKEI
  6
HIDDEN2
 62
     1
100
AcDbLine
 10
-30.74794660816252
 20
23.99505225899037
 30
0.0
 11
-30.92361285814485
 21
24.19816625897011
 31
0.0
  0
ARC
  5
153
330
2
100
AcDbEntity
  8
GAIKEI
  6
HIDDEN2
 62
     1
100
AcDbCircle
 10
-31.11270360812608
 20
24.0346282589864
 30
0.0
 40
0.249999999975
100
AcDbArc
 50
40.85537599999966
 51
90.0
  0
LINE
  5
154
330
2
100
AcDbEntity
  8
GAIKEI
  6
HIDDEN2
 62
     1
100
AcDbLine
 10
-31.39839060809737
 20
22.63462825912649
 30
0.0
 11
-31.11270360812608
 21
22.63462825912649
 31
0.0
  0
LINE
  5
155
330
2
100
AcDbEntity
  8
GAIKEI
  6
HIDDEN2
 62
     1
100
AcDbLine
 10
-30.74794660816252
 20
22.92420425909751
 30
0.0
 11
-30.92361285814485
 21
22.72109025911783
 31
0.0
  0
POINT
  5
156
330
2
100
AcDbEntity
  8
GAIKEI
  6
HIDDEN2
 62
     1
100
AcDbPoint
 10
-30.99839060813741
 20
22.63462825912649
 30
0.0
  0
ARC
  5
157
330
2
100
AcDbEntity
  8
GAIKEI
  6
HIDDEN2
 62
     1
100
AcDbCircle
 10
-31.11270360812608
 20
22.88462825910148
 30
0.0
 40
0.249999999975
100
AcDbArc
 50
270.0
 51
319.1446240000003
  0
LINE
  5
158
330
2
100
AcDbEntity
  8
GAIKEI
  6
HIDDEN2
 62
     1
100
AcDbLine
 10
-31.29839060810747
 20
24.28462825896151
 30
0.0
 11
-31.29839060810747
 21
22.63462825912649
 31
0.0
  0
ARC
  5
159
330
2
100
AcDbEntity
  8
GAIKEI
  6
HIDDEN2
 62
     1
100
AcDbCircle
 10
-30.36976510820017
 20
22.59712825913021
 30
0.0
 40
0.49999999995
100
AcDbArc
 50
90.0
 51
139.1446240000003
  0
ARC
  5
15A
330
2
100
AcDbEntity
  8
GAIKEI
  6
HIDDEN2
 62
     1
100
AcDbCircle
 10
-30.36976510820017
 20
24.32212825895766
 30
0.0
 40
0.49999999995
100
AcDbArc
 50
220.8553759999996
 51
270.0
  0
LINE
  5
15B
330
2
100
AcDbEntity
  8
GAIKEI
  6
HIDDEN2
 62
     1
100
AcDbLine
 10
-28.92339060834496
 20
23.42212825904772
 30
0.0
 11
-28.92339060834496
 21
23.49712825904015
 31
0.0
  0
ARC
  5
15C
330
2
100
AcDbEntity
  8
GAIKEI
  6
HIDDEN2
 62
     1
100
AcDbCircle
 10
-29.24839060831249
 20
23.49712825904015
 30
0.0
 40
0.3249999999675
100
AcDbArc
 50
0.0
 51
90.0
  0
ARC
  5
15D
330
2
100
AcDbEntity
  8
GAIKEI
  6
HIDDEN2
 62
     1
100
AcDbCircle
 10
-29.24839060831249
 20
23.42212825904772
 30
0.0
 40
0.3249999999675
100
AcDbArc
 50
270.0
 51
0.0
  0
ARC
  5
15E
330
2
100
AcDbEntity
  8
GAIKEI
  6
HIDDEN2
 62
     1
100
AcDbCircle
 10
-29.77339060825995
 20
10.15962826037395
 30
0.0
 40
0.8249999999174999
100
AcDbArc
 50
6.93104499999877
 51
173.026423999999
  0
ARC
  5
15F
330
2
100
AcDbEntity
  8
GAIKEI
  6
HIDDEN2
 62
     1
100
AcDbCircle
 10
-29.77339060825995
 20
9.809628260408942
 30
0.0
 40
0.8249999999174999
100
AcDbArc
 50
180.0
 51
235.2659900000014
  0
LINE
  5
160
330
2
100
AcDbEntity
  8
GAIKEI
  6
HIDDEN2
 62
     1
100
AcDbLine
 10
-30.59839060817734
 20
9.809628260408942
 30
0.0
 11
-30.59839060817734
 21
10.05954026038392
 31
0.0
  0
ARC
  5
161
330
2
100
AcDbEntity
  8
GAIKEI
  6
HIDDEN2
 62
     1
100
AcDbCircle
 10
-30.59813260817731
 20
10.15962826037395
 30
0.0
 40
0.1002582499899742
100
AcDbArc
 50
86.66036600000103
 51
269.8524600000009
  0
ARC
  5
162
330
2
100
AcDbEntity
  8
GAIKEI
  6
HIDDEN2
 62
     1
100
AcDbCircle
 10
-29.77339060825995
 20
9.809628260408942
 30
0.0
 40
0.8249999999174999
100
AcDbArc
 50
304.7340099999987
 51
0.0
  0
ARC
  5
163
330
2
100
AcDbEntity
  8
GAIKEI
  6
HIDDEN2
 62
     1
100
AcDbCircle
 10
-29.16089060832127
 20
8.926187010497358
 30
0.0
 40
0.249999999975
100
AcDbArc
 50
124.7340099999986
 51
180.0
  0
LINE
  5
164
330
2
100
AcDbEntity
  8
GAIKEI
  6
HIDDEN2
 62
     1
100
AcDbLine
 10
-28.94839060834243
 20
9.809628260408942
 30
0.0
 11
-28.94839060834243
 21
10.05937051038398
 31
0.0
  0
ARC
  5
165
330
2
100
AcDbEntity
  8
GAIKEI
  6
HIDDEN2
 62
     1
100
AcDbCircle
 10
-30.38589060819874
 20
8.926187010497358
 30
0.0
 40
0.249999999975
100
AcDbArc
 50
0.0
 51
55.26599000000138
  0
ARC
  5
166
330
2
100
AcDbEntity
  8
GAIKEI
  6
HIDDEN2
 62
     1
100
AcDbCircle
 10
-28.94864885834233
 20
10.15962826037395
 30
0.0
 40
0.1002582499899742
100
AcDbArc
 50
270.1475399999991
 51
93.33963399999896
  0
LINE
  5
167
330
2
100
AcDbEntity
  8
GAIKEI
  6
HIDDEN2
 62
     1
100
AcDbLine
 10
-14.27339060980983
 20
27.58462825863148
 30
0.0
 11
-27.61089060847627
 21
27.58462825863148
 31
0.0
  0
LINE
  5
168
330
2
100
AcDbEntity
  8
GAIKEI
  6
HIDDEN2
 62
     1
100
AcDbLine
 10
6.101609388152553
 20
28.98462825849146
 30
0.0
 11
-32.64839060797243
 21
28.98462825849146
 31
0.0
  0
LINE
  5
169
330
2
100
AcDbEntity
  8
GAIKEI
  6
HIDDEN2
 62
     1
100
AcDbLine
 10
6.101609388152553
 20
28.88462825850144
 30
0.0
 11
-32.64839060797243
 21
28.88462825850144
 31
0.0
  0
LINE
  5
16A
330
2
100
AcDbEntity
  8
GAIKEI
  6
HIDDEN2
 62
     1
100
AcDbLine
 10
5.351609388227586
 20
28.5846282585315
 30
0.0
 11
-31.89839060804747
 21
28.5846282585315
 31
0.0
  0
LINE
  5
16B
330
2
100
AcDbEntity
  8
GAIKEI
  6
HIDDEN2
 62
     1
100
AcDbLine
 10
2.226609388540111
 20
26.33462825875648
 30
0.0
 11
-28.77339060835976
 21
26.33462825875648
 31
0.0
  0
LINE
  5
16C
330
2
100
AcDbEntity
  8
GAIKEI
  6
HIDDEN2
 62
     1
100
AcDbLine
 10
-32.64839060797243
 20
26.23462825876647
 30
0.0
 11
6.101609388152553
 21
26.23462825876647
 31
0.0
  0
LINE
  5
16D
330
2
100
AcDbEntity
  8
GAIKEI
  6
HIDDEN2
 62
     1
100
AcDbLine
 10
-25.7733906086599
 20
27.90962825859896
 30
0.0
 11
-20.77339060915989
 21
27.90962825859896
 31
0.0
  0
LINE
  5
16E
330
2
100
AcDbEntity
  8
GAIKEI
  6
HIDDEN2
 62
     1
100
AcDbLine
 10
-25.7733906086599
 20
28.25962825856397
 30
0.0
 11
-20.77339060915989
 21
28.25962825856397
 31
0.0
  0
ARC
  5
16F
330
2
100
AcDbEntity
  8
GAIKEI
  6
HIDDEN2
 62
     1
100
AcDbCircle
 10
5.351609388227586
 20
4.08462826098156
 30
0.0
 40
0.49999999995
100
AcDbArc
 50
270.0
 51
90.0
  0
LINE
  5
170
330
2
100
AcDbEntity
  8
GAIKEI
  6
HIDDEN2
 62
     1
100
AcDbLine
 10
6.101609388152553
 20
5.934628260796387
 30
0.0
 11
6.101609388152553
 21
3.184628261071395
 31
0.0
  0
LINE
  5
171
330
2
100
AcDbEntity
  8
GAIKEI
  6
HIDDEN2
 62
     1
100
AcDbLine
 10
4.076609388355052
 20
7.422128260647752
 30
0.0
 11
4.076609388355052
 21
7.497128260640181
 31
0.0
  0
ARC
  5
172
330
2
100
AcDbEntity
  8
GAIKEI
  6
HIDDEN2
 62
     1
100
AcDbCircle
 10
3.751609388387635
 20
7.4846282606415
 30
0.0
 40
0.3249999999675
100
AcDbArc
 50
2.202597999999976
 51
90.0
  0
LINE
  5
173
330
2
100
AcDbEntity
  8
GAIKEI
  6
HIDDEN2
 62
     1
100
AcDbLine
 10
4.75160938828759
 20
5.959628260794033
 30
0.0
 11
4.75160938828759
 21
6.159628260774013
 31
0.0
  0
LINE
  5
174
330
2
100
AcDbEntity
  8
GAIKEI
  6
HIDDEN2
 62
     1
100
AcDbLine
 10
4.851609388277609
 20
6.159628260774013
 30
0.0
 11
4.726609388290228
 21
6.159628260774013
 31
0.0
  0
LINE
  5
175
330
2
100
AcDbEntity
  8
GAIKEI
  6
HIDDEN2
 62
     1
100
AcDbLine
 10
4.75160938828759
 20
5.959628260794033
 30
0.0
 11
4.851609388277609
 21
5.959628260794033
 31
0.0
  0
ARC
  5
176
330
2
100
AcDbEntity
  8
GAIKEI
  6
HIDDEN2
 62
     1
100
AcDbCircle
 10
4.726609388290228
 20
6.059628260783995
 30
0.0
 40
0.09999999999
100
AcDbArc
 50
90.0
 51
180.0
  0
LINE
  5
177
330
2
100
AcDbEntity
  8
GAIKEI
  6
HIDDEN2
 62
     1
100
AcDbLine
 10
4.626609388300209
 20
6.059628260783995
 30
0.0
 11
4.626609388300209
 21
5.959628260794033
 31
0.0
  0
LINE
  5
178
330
2
100
AcDbEntity
  8
GAIKEI
  6
HIDDEN2
 62
     1
100
AcDbLine
 10
4.626609388300209
 20
6.059628260783995
 30
0.0
 11
4.726609388290228
 21
6.059628260783995
 31
0.0
  0
LINE
  5
179
330
2
100
AcDbEntity
  8
GAIKEI
  6
HIDDEN2
 62
     1
100
AcDbLine
 10
4.226609388340136
 20
5.934628260796387
 30
0.0
 11
4.226609388340136
 21
5.834628260806482
 31
0.0
  0
LINE
  5
17A
330
2
100
AcDbEntity
  8
GAIKEI
  6
HIDDEN2
 62
     1
100
AcDbLine
 10
4.726609388290228
 20
5.934628260796387
 30
0.0
 11
4.726609388290228
 21
6.059628260783995
 31
0.0
  0
LINE
  5
17B
330
2
100
AcDbEntity
  8
GAIKEI
  6
HIDDEN2
 62
     1
100
AcDbLine
 10
4.226609388340136
 20
5.834628260806482
 30
0.0
 11
6.101609388152553
 21
5.834628260806482
 31
0.0
  0
LINE
  5
17C
330
2
100
AcDbEntity
  8
GAIKEI
  6
HIDDEN2
 62
     1
100
AcDbLine
 10
4.731609388289541
 20
4.919628260897923
 30
0.0
 11
4.731609388289541
 21
5.069628260882893
 31
0.0
  0
LINE
  5
17D
330
2
100
AcDbEntity
  8
GAIKEI
  6
HIDDEN2
 62
     1
100
AcDbLine
 10
4.726609388290228
 20
4.959628260894021
 30
0.0
 11
4.726609388290228
 21
5.069628260882893
 31
0.0
  0
ARC
  5
17E
330
2
100
AcDbEntity
  8
GAIKEI
  6
HIDDEN2
 62
     1
100
AcDbCircle
 10
5.389109388223744
 20
5.083545760881577
 30
0.0
 40
0.49999999995
100
AcDbArc
 50
180.0
 51
265.6987780000008
  0
LINE
  5
17F
330
2
100
AcDbEntity
  8
GAIKEI
  6
HIDDEN2
 62
     1
100
AcDbLine
 10
4.88910938827388
 20
5.834628260806482
 30
0.0
 11
4.88910938827388
 21
5.083545760881577
 31
0.0
  0
LINE
  5
180
330
2
100
AcDbEntity
  8
GAIKEI
  6
HIDDEN2
 62
     1
100
AcDbLine
 10
3.971609388365607
 20
4.919628260897923
 30
0.0
 11
3.971609388365607
 21
5.069628260882893
 31
0.0
  0
LINE
  5
181
330
2
100
AcDbEntity
  8
GAIKEI
  6
HIDDEN2
 62
     1
100
AcDbLine
 10
3.976609388365034
 20
4.959628260894021
 30
0.0
 11
3.976609388365034
 21
5.069628260882893
 31
0.0
  0
LINE
  5
182
330
2
100
AcDbEntity
  8
GAIKEI
  6
HIDDEN2
 62
     1
100
AcDbLine
 10
4.731609388289541
 20
4.919628260897923
 30
0.0
 11
3.971609388365607
 21
4.919628260897923
 31
0.0
  0
LINE
  5
183
330
2
100
AcDbEntity
  8
GAIKEI
  6
HIDDEN2
 62
     1
100
AcDbLine
 10
4.731609388289541
 20
5.069628260882893
 30
0.0
 11
3.971609388365607
 21
5.069628260882893
 31
0.0
  0
LINE
  5
184
330
2
100
AcDbEntity
  8
GAIKEI
  6
HIDDEN2
 62
     1
100
AcDbLine
 10
3.976609388365034
 20
4.959628260894021
 30
0.0
 11
4.726609388290228
 21
4.959628260894021
 31
0.0
  0
LINE
  5
185
330
2
100
AcDbEntity
  8
GAIKEI
  6
HIDDEN2
 62
     1
100
AcDbLine
 10
3.976609388365034
 20
5.059628260883926
 30
0.0
 11
4.726609388290228
 21
5.059628260883926
 31
0.0
  0
ARC
  5
186
330
2
100
AcDbEntity
  8
GAIKEI
  6
HIDDEN2
 62
     1
100
AcDbCircle
 10
5.351609388227586
 20
4.08462826098156
 30
0.0
 40
0.1749999999825
100
AcDbArc
 50
270.0
 51
90.0
  0
ARC
  5
187
330
2
100
AcDbEntity
  8
GAIKEI
  6
HIDDEN2
 62
     1
100
AcDbCircle
 10
3.751609388387635
 20
7.434628260646434
 30
0.0
 40
0.3249999999675
100
AcDbArc
 50
270.0
 51
357.797402
  0
ARC
  5
188
330
2
100
AcDbEntity
  8
GAIKEI
  6
HIDDEN2
 62
     1
100
AcDbCircle
 10
1.064109388656277
 20
5.084628260881515
 30
0.0
 40
0.49999999995
100
AcDbArc
 50
270.0
 51
0.0
  0
ARC
  5
189
330
2
100
AcDbEntity
  8
GAIKEI
  6
HIDDEN2
 62
     1
100
AcDbCircle
 10
-0.7733906111599822
 20
4.08462826098156
 30
0.0
 40
0.1749999999825
100
AcDbArc
 50
270.0
 51
90.0
  0
LINE
  5
18A
330
2
100
AcDbEntity
  8
GAIKEI
  6
HIDDEN2
 62
     1
100
AcDbLine
 10
3.18910938844391
 20
8.384628260551437
 30
0.0
 11
3.264109388436338
 21
8.384628260551437
 31
0.0
  0
ARC
  5
18B
330
2
100
AcDbEntity
  8
GAIKEI
  6
HIDDEN2
 62
     1
100
AcDbCircle
 10
3.420130638420744
 20
8.059628260583906
 30
0.0
 40
0.249999999975
100
AcDbArc
 50
217.9798719999997
 51
270.0
  0
ARC
  5
18C
330
2
100
AcDbEntity
  8
GAIKEI
  6
HIDDEN2
 62
     1
100
AcDbCircle
 10
2.651609388497547
 20
8.184370260571597
 30
0.0
 40
0.1002582499899742
100
AcDbArc
 50
355.8873210000001
 51
184.1126789999999
  0
ARC
  5
18D
330
2
100
AcDbEntity
  8
GAIKEI
  6
HIDDEN2
 62
     1
100
AcDbCircle
 10
2.651609388497547
 20
7.459628260644024
 30
0.0
 40
0.7249999999274999
100
AcDbArc
 50
37.97987199999973
 51
82.06901600000037
  0
ARC
  5
18E
330
2
100
AcDbEntity
  8
GAIKEI
  6
HIDDEN2
 62
     1
100
AcDbCircle
 10
3.18910938844391
 20
8.709628260519025
 30
0.0
 40
0.3249999999675
100
AcDbArc
 50
180.0
 51
270.0
  0
ARC
  5
18F
330
2
100
AcDbEntity
  8
GAIKEI
  6
HIDDEN2
 62
     1
100
AcDbCircle
 10
3.264109388436338
 20
8.709628260519025
 30
0.0
 40
0.3249999999675
100
AcDbArc
 50
270.0
 51
0.0
  0
ARC
  5
190
330
2
100
AcDbEntity
  8
GAIKEI
  6
HIDDEN2
 62
     1
100
AcDbCircle
 10
3.420130638420744
 20
6.859628260703914
 30
0.0
 40
0.249999999975
100
AcDbArc
 50
90.0
 51
142.0201280000003
  0
LINE
  5
191
330
2
100
AcDbEntity
  8
GAIKEI
  6
HIDDEN2
 62
     1
100
AcDbLine
 10
2.226609388540111
 20
5.934628260796387
 30
0.0
 11
2.226609388540111
 21
5.834628260806482
 31
0.0
  0
POINT
  5
192
330
2
100
AcDbEntity
  8
GAIKEI
  6
HIDDEN2
 62
     1
100
AcDbPoint
 10
2.501609388512576
 20
7.097128260680221
 30
0.0
  0
ARC
  5
193
330
2
100
AcDbEntity
  8
GAIKEI
  6
HIDDEN2
 62
     1
100
AcDbCircle
 10
2.651609388497547
 20
6.734886510716421
 30
0.0
 40
0.1002582499899742
100
AcDbArc
 50
175.887321
 51
4.112678999999948
  0
ARC
  5
194
330
2
100
AcDbEntity
  8
GAIKEI
  6
HIDDEN2
 62
     1
100
AcDbCircle
 10
2.651609388497547
 20
7.459628260644024
 30
0.0
 40
0.7249999999274999
100
AcDbArc
 50
277.9309839999996
 51
322.0201280000003
  0
LINE
  5
195
330
2
100
AcDbEntity
  8
GAIKEI
  6
HIDDEN2
 62
     1
100
AcDbLine
 10
2.481609388514414
 20
4.919628260897923
 30
0.0
 11
2.481609388514414
 21
5.069628260882893
 31
0.0
  0
LINE
  5
196
330
2
100
AcDbEntity
  8
GAIKEI
  6
HIDDEN2
 62
     1
100
AcDbLine
 10
2.4766093885151
 20
4.959628260894021
 30
0.0
 11
2.4766093885151
 21
5.069628260882893
 31
0.0
  0
ARC
  5
197
330
2
100
AcDbEntity
  8
GAIKEI
  6
HIDDEN2
 62
     1
100
AcDbCircle
 10
3.226609388440067
 20
4.08462826098156
 30
0.0
 40
0.1749999999825
100
AcDbArc
 50
90.0
 51
270.0
  0
ARC
  5
198
330
2
100
AcDbEntity
  8
GAIKEI
  6
HIDDEN2
 62
     1
100
AcDbCircle
 10
1.973073138565553
 20
7.714264010618478
 30
0.0
 40
0.1002582499899742
100
AcDbArc
 50
65.6119860000001
 51
253.2485960000009
  0
ARC
  5
199
330
2
100
AcDbEntity
  8
GAIKEI
  6
HIDDEN2
 62
     1
100
AcDbCircle
 10
2.651609388497547
 20
7.459628260644024
 30
0.0
 40
0.7249999999274999
100
AcDbArc
 50
167.3612749999991
 51
192.6387249999973
  0
LINE
  5
19A
330
2
100
AcDbEntity
  8
GAIKEI
  6
HIDDEN2
 62
     1
100
AcDbLine
 10
1.701609388592544
 20
5.959628260794033
 30
0.0
 11
1.701609388592544
 21
6.159628260774013
 31
0.0
  0
LINE
  5
19B
330
2
100
AcDbEntity
  8
GAIKEI
  6
HIDDEN2
 62
     1
100
AcDbLine
 10
1.601609388602525
 20
6.159628260774013
 30
0.0
 11
1.726609388590134
 21
6.159628260774013
 31
0.0
  0
LINE
  5
19C
330
2
100
AcDbEntity
  8
GAIKEI
  6
HIDDEN2
 62
     1
100
AcDbLine
 10
1.701609388592544
 20
5.959628260794033
 30
0.0
 11
1.601609388602525
 21
5.959628260794033
 31
0.0
  0
ARC
  5
19D
330
2
100
AcDbEntity
  8
GAIKEI
  6
HIDDEN2
 62
     1
100
AcDbCircle
 10
1.726609388590134
 20
6.059628260783995
 30
0.0
 40
0.09999999999
100
AcDbArc
 50
0.0
 51
90.0
  0
LINE
  5
19E
330
2
100
AcDbEntity
  8
GAIKEI
  6
HIDDEN2
 62
     1
100
AcDbLine
 10
1.826609388580038
 20
6.059628260783995
 30
0.0
 11
1.826609388580038
 21
5.959628260794033
 31
0.0
  0
LINE
  5
19F
330
2
100
AcDbEntity
  8
GAIKEI
  6
HIDDEN2
 62
     1
100
AcDbLine
 10
1.826609388580038
 20
6.059628260783995
 30
0.0
 11
1.726609388590134
 21
6.059628260783995
 31
0.0
  0
LINE
  5
1A0
330
2
100
AcDbEntity
  8
GAIKEI
  6
HIDDEN2
 62
     1
100
AcDbLine
 10
1.726609388590134
 20
5.934628260796387
 30
0.0
 11
1.726609388590134
 21
6.059628260783995
 31
0.0
  0
LINE
  5
1A1
330
2
100
AcDbEntity
  8
GAIKEI
  6
HIDDEN2
 62
     1
100
AcDbLine
 10
1.721609388590479
 20
4.919628260897923
 30
0.0
 11
1.721609388590479
 21
5.069628260882893
 31
0.0
  0
LINE
  5
1A2
330
2
100
AcDbEntity
  8
GAIKEI
  6
HIDDEN2
 62
     1
100
AcDbLine
 10
1.726609388590134
 20
4.959628260894021
 30
0.0
 11
1.726609388590134
 21
5.069628260882893
 31
0.0
  0
LINE
  5
1A3
330
2
100
AcDbEntity
  8
GAIKEI
  6
HIDDEN2
 62
     1
100
AcDbLine
 10
1.564109388606368
 20
5.834628260806482
 30
0.0
 11
1.564109388606368
 21
5.084628260881515
 31
0.0
  0
ARC
  5
1A4
330
2
100
AcDbEntity
  8
GAIKEI
  6
HIDDEN2
 62
     1
100
AcDbCircle
 10
1.973073138565553
 20
7.204992760669426
 30
0.0
 40
0.1002582499899742
100
AcDbArc
 50
106.7514039999991
 51
294.6823879999998
  0
LINE
  5
1A5
330
2
100
AcDbEntity
  8
GAIKEI
  6
HIDDEN2
 62
     1
100
AcDbLine
 10
1.721609388590479
 20
4.919628260897923
 30
0.0
 11
2.481609388514414
 21
4.919628260897923
 31
0.0
  0
LINE
  5
1A6
330
2
100
AcDbEntity
  8
GAIKEI
  6
HIDDEN2
 62
     1
100
AcDbLine
 10
1.721609388590479
 20
5.069628260882893
 30
0.0
 11
2.481609388514414
 21
5.069628260882893
 31
0.0
  0
LINE
  5
1A7
330
2
100
AcDbEntity
  8
GAIKEI
  6
HIDDEN2
 62
     1
100
AcDbLine
 10
1.726609388590134
 20
4.959628260894021
 30
0.0
 11
2.4766093885151
 21
4.959628260894021
 31
0.0
  0
LINE
  5
1A8
330
2
100
AcDbEntity
  8
GAIKEI
  6
HIDDEN2
 62
     1
100
AcDbLine
 10
1.726609388590134
 20
5.059628260883926
 30
0.0
 11
2.4766093885151
 21
5.059628260883926
 31
0.0
  0
ARC
  5
1A9
330
2
100
AcDbEntity
  8
GAIKEI
  6
HIDDEN2
 62
     1
100
AcDbCircle
 10
2.651609388497547
 20
7.459628260644024
 30
0.0
 40
0.7249999999274999
100
AcDbArc
 50
97.93380099999502
 51
151.4993069999999
  0
ARC
  5
1AA
330
2
100
AcDbEntity
  8
GAIKEI
  6
HIDDEN2
 62
     1
100
AcDbCircle
 10
2.651609388497547
 20
7.459628260644024
 30
0.0
 40
0.7249999999274999
100
AcDbArc
 50
208.5035100000002
 51
262.0661989999985
  0
LINE
  5
1AB
330
2
100
AcDbEntity
  8
GAIKEI
  6
HIDDEN2
 62
     1
100
AcDbLine
 10
3.751609388387635
 20
7.809628260608917
 30
0.0
 11
3.420130638420744
 21
7.809628260608917
 31
0.0
  0
LINE
  5
1AC
330
2
100
AcDbEntity
  8
GAIKEI
  6
HIDDEN2
 62
     1
100
AcDbLine
 10
3.751609388387635
 20
7.109628260679016
 30
0.0
 11
3.420130638420744
 21
7.109628260679016
 31
0.0
  0
LINE
  5
1AD
330
2
100
AcDbEntity
  8
GAIKEI
  6
HIDDEN2
 62
     1
100
AcDbLine
 10
5.351609388227586
 20
4.259628260964007
 30
0.0
 11
3.226609388440067
 21
4.259628260964007
 31
0.0
  0
LINE
  5
1AE
330
2
100
AcDbEntity
  8
GAIKEI
  6
HIDDEN2
 62
     1
100
AcDbLine
 10
5.351609388227586
 20
3.909628260998886
 30
0.0
 11
3.226609388440067
 21
3.909628260998886
 31
0.0
  0
LINE
  5
1AF
330
2
100
AcDbEntity
  8
GAIKEI
  6
HIDDEN2
 62
     1
100
AcDbLine
 10
4.726609388290228
 20
5.959628260794033
 30
0.0
 11
1.726609388590134
 21
5.959628260794033
 31
0.0
  0
ARC
  5
1B0
330
2
100
AcDbEntity
  8
GAIKEI
  6
HIDDEN2
 62
     1
100
AcDbCircle
 10
-5.773390610659873
 20
4.08462826098156
 30
0.0
 40
0.1749999999825
100
AcDbArc
 50
90.0
 51
270.0
  0
ARC
  5
1B1
330
2
100
AcDbEntity
  8
GAIKEI
  6
HIDDEN2
 62
     1
100
AcDbCircle
 10
-10.77339061015988
 20
4.08462826098156
 30
0.0
 40
0.1749999999825
100
AcDbArc
 50
270.0
 51
90.0
  0
LINE
  5
1B2
330
2
100
AcDbEntity
  8
GAIKEI
  6
HIDDEN2
 62
     1
100
AcDbLine
 10
-14.02339060983485
 20
4.259628260964007
 30
0.0
 11
-15.77339060965977
 21
4.259628260964007
 31
0.0
  0
LINE
  5
1B3
330
2
100
AcDbEntity
  8
GAIKEI
  6
HIDDEN2
 62
     1
100
AcDbLine
 10
-14.02339060983485
 20
3.909628260998886
 30
0.0
 11
-15.77339060965977
 21
3.909628260998886
 31
0.0
  0
ARC
  5
1B4
330
2
100
AcDbEntity
  8
GAIKEI
  6
HIDDEN2
 62
     1
100
AcDbCircle
 10
-15.77339060965977
 20
4.08462826098156
 30
0.0
 40
0.1749999999825
100
AcDbArc
 50
90.0
 51
270.0
  0
LINE
  5
1B5
330
2
100
AcDbEntity
  8
GAIKEI
  6
HIDDEN2
 62
     1
100
AcDbLine
 10
-13.09839060992743
 20
5.084628260881515
 30
0.0
 11
-13.09839060992743
 21
4.897038260900274
 31
0.0
  0
ARC
  5
1B6
330
2
100
AcDbEntity
  8
GAIKEI
  6
HIDDEN2
 62
     1
100
AcDbCircle
 10
-12.27339061000981
 20
5.084628260881515
 30
0.0
 40
0.49999999995
100
AcDbArc
 50
180.0
 51
270.0
  0
ARC
  5
1B7
330
2
100
AcDbEntity
  8
GAIKEI
  6
HIDDEN2
 62
     1
100
AcDbCircle
 10
-13.27339060990988
 20
4.584628260931424
 30
0.0
 40
0.3349999999665
100
AcDbArc
 50
305.7617140000045
 51
54.23828599999552
  0
ARC
  5
1B8
330
2
100
AcDbEntity
  8
GAIKEI
  6
HIDDEN2
 62
     1
100
AcDbCircle
 10
-13.04839060993237
 20
4.897038260900274
 30
0.0
 40
0.049999999995
100
AcDbArc
 50
180.0
 51
234.2382859999955
  0
LINE
  5
1B9
330
2
100
AcDbEntity
  8
GAIKEI
  6
HIDDEN2
 62
     1
100
AcDbLine
 10
-13.44839060989244
 20
5.084628260881515
 30
0.0
 11
-13.44839060989244
 21
4.897038260900274
 31
0.0
  0
ARC
  5
1BA
330
2
100
AcDbEntity
  8
GAIKEI
  6
HIDDEN2
 62
     1
100
AcDbCircle
 10
-14.27339060980983
 20
5.084628260881515
 30
0.0
 40
0.49999999995
100
AcDbArc
 50
270.0
 51
0.0
  0
ARC
  5
1BB
330
2
100
AcDbEntity
  8
GAIKEI
  6
HIDDEN2
 62
     1
100
AcDbCircle
 10
-13.27339060990988
 20
4.584628260931424
 30
0.0
 40
0.3349999999665
100
AcDbArc
 50
125.7617140000045
 51
234.2382859999955
  0
ARC
  5
1BC
330
2
100
AcDbEntity
  8
GAIKEI
  6
HIDDEN2
 62
     1
100
AcDbCircle
 10
-13.49839060988728
 20
4.897038260900274
 30
0.0
 40
0.049999999995
100
AcDbArc
 50
305.7617140000045
 51
0.0
  0
ARC
  5
1BD
330
2
100
AcDbEntity
  8
GAIKEI
  6
HIDDEN2
 62
     1
100
AcDbCircle
 10
-13.27339060990988
 20
5.084628260881515
 30
0.0
 40
0.49999999995
100
AcDbArc
 50
0.0
 51
180.0
  0
ARC
  5
1BE
330
2
100
AcDbEntity
  8
GAIKEI
  6
HIDDEN2
 62
     1
100
AcDbCircle
 10
-13.27339060990988
 20
5.084628260881515
 30
0.0
 40
0.1749999999825
100
AcDbArc
 50
0.0
 51
180.0
  0
ARC
  5
1BF
330
2
100
AcDbEntity
  8
GAIKEI
  6
HIDDEN2
 62
     1
100
AcDbCircle
 10
-12.52339060998491
 20
4.08462826098156
 30
0.0
 40
0.1749999999825
100
AcDbArc
 50
90.0
 51
270.0
  0
LINE
  5
1C0
330
2
100
AcDbEntity
  8
GAIKEI
  6
HIDDEN2
 62
     1
100
AcDbLine
 10
-13.09839060992743
 20
4.272218260962688
 30
0.0
 11
-13.09839060992743
 21
4.08462826098156
 31
0.0
  0
ARC
  5
1C1
330
2
100
AcDbEntity
  8
GAIKEI
  6
HIDDEN2
 62
     1
100
AcDbCircle
 10
-14.02339060983485
 20
4.08462826098156
 30
0.0
 40
0.1749999999825
100
AcDbArc
 50
270.0
 51
90.0
  0
LINE
  5
1C2
330
2
100
AcDbEntity
  8
GAIKEI
  6
HIDDEN2
 62
     1
100
AcDbLine
 10
-13.44839060989244
 20
4.272218260962688
 30
0.0
 11
-13.44839060989244
 21
4.08462826098156
 31
0.0
  0
ARC
  5
1C3
330
2
100
AcDbEntity
  8
GAIKEI
  6
HIDDEN2
 62
     1
100
AcDbCircle
 10
-13.27339060990988
 20
4.08462826098156
 30
0.0
 40
0.1749999999825
100
AcDbArc
 50
180.0
 51
0.0
  0
ARC
  5
1C4
330
2
100
AcDbEntity
  8
GAIKEI
  6
HIDDEN2
 62
     1
100
AcDbCircle
 10
-13.49839060988728
 20
4.272218260962688
 30
0.0
 40
0.049999999995
100
AcDbArc
 50
0.0
 51
54.23828599999552
  0
ARC
  5
1C5
330
2
100
AcDbEntity
  8
GAIKEI
  6
HIDDEN2
 62
     1
100
AcDbCircle
 10
-13.04839060993237
 20
4.272218260962688
 30
0.0
 40
0.049999999995
100
AcDbArc
 50
125.7617140000045
 51
180.0
  0
ARC
  5
1C6
330
2
100
AcDbEntity
  8
GAIKEI
  6
HIDDEN2
 62
     1
100
AcDbCircle
 10
-20.77339060915989
 20
4.08462826098156
 30
0.0
 40
0.1749999999825
100
AcDbArc
 50
270.0
 51
90.0
  0
LINE
  5
1C7
330
2
100
AcDbEntity
  8
GAIKEI
  6
HIDDEN2
 62
     1
100
AcDbLine
 10
-12.52339060998491
 20
4.259628260964007
 30
0.0
 11
-10.77339061015988
 21
4.259628260964007
 31
0.0
  0
LINE
  5
1C8
330
2
100
AcDbEntity
  8
GAIKEI
  6
HIDDEN2
 62
     1
100
AcDbLine
 10
-12.52339060998491
 20
3.909628260998886
 30
0.0
 11
-10.77339061015988
 21
3.909628260998886
 31
0.0
  0
LINE
  5
1C9
330
2
100
AcDbEntity
  8
GAIKEI
  6
HIDDEN2
 62
     1
100
AcDbLine
 10
-12.27339061000981
 20
4.584628260931424
 30
0.0
 11
1.064109388656277
 21
4.584628260931424
 31
0.0
  0
LINE
  5
1CA
330
2
100
AcDbEntity
  8
GAIKEI
  6
HIDDEN2
 62
     1
100
AcDbLine
 10
-0.7733906111599822
 20
4.259628260964007
 30
0.0
 11
-5.773390610659873
 21
4.259628260964007
 31
0.0
  0
LINE
  5
1CB
330
2
100
AcDbEntity
  8
GAIKEI
  6
HIDDEN2
 62
     1
100
AcDbLine
 10
-0.7733906111599822
 20
3.909628260998886
 30
0.0
 11
-5.773390610659873
 21
3.909628260998886
 31
0.0
  0
ARC
  5
1CC
330
2
100
AcDbEntity
  8
GAIKEI
  6
HIDDEN2
 62
     1
100
AcDbCircle
 10
-25.7733906086599
 20
4.08462826098156
 30
0.0
 40
0.1749999999825
100
AcDbArc
 50
90.0
 51
270.0
  0
LINE
  5
1CD
330
2
100
AcDbEntity
  8
GAIKEI
  6
HIDDEN2
 62
     1
100
AcDbLine
 10
-29.24839060831249
 20
7.822128260607712
 30
0.0
 11
-30.36976510820017
 21
7.822128260607712
 31
0.0
  0
LINE
  5
1CE
330
2
100
AcDbEntity
  8
GAIKEI
  6
HIDDEN2
 62
     1
100
AcDbLine
 10
-29.24839060831249
 20
7.097128260680221
 30
0.0
 11
-30.36976510820017
 21
7.097128260680221
 31
0.0
  0
LINE
  5
1CF
330
2
100
AcDbEntity
  8
GAIKEI
  6
HIDDEN2
 62
     1
100
AcDbLine
 10
-31.89839060804747
 20
4.259628260964007
 30
0.0
 11
-29.77339060825995
 21
4.259628260964007
 31
0.0
  0
LINE
  5
1D0
330
2
100
AcDbEntity
  8
GAIKEI
  6
HIDDEN2
 62
     1
100
AcDbLine
 10
-31.89839060804747
 20
3.909628260998886
 30
0.0
 11
-29.77339060825995
 21
3.909628260998886
 31
0.0
  0
LINE
  5
1D1
330
2
100
AcDbEntity
  8
GAIKEI
  6
HIDDEN2
 62
     1
100
AcDbLine
 10
-31.27339060810988
 20
5.959628260794033
 30
0.0
 11
-28.2733906084099
 21
5.959628260794033
 31
0.0
  0
ARC
  5
1D2
330
2
100
AcDbEntity
  8
GAIKEI
  6
HIDDEN2
 62
     1
100
AcDbCircle
 10
-31.89839060804747
 20
4.08462826098156
 30
0.0
 40
0.49999999995
100
AcDbArc
 50
90.0
 51
270.0
  0
LINE
  5
1D3
330
2
100
AcDbEntity
  8
GAIKEI
  6
HIDDEN2
 62
     1
100
AcDbLine
 10
-32.64839060797243
 20
5.934628260796387
 30
0.0
 11
-32.64839060797243
 21
3.184628261071395
 31
0.0
  0
POINT
  5
1D4
330
2
100
AcDbEntity
  8
GAIKEI
  6
HIDDEN2
 62
     1
100
AcDbPoint
 10
-30.59839060817734
 20
7.822128260607712
 30
0.0
  0
LINE
  5
1D5
330
2
100
AcDbEntity
  8
GAIKEI
  6
HIDDEN2
 62
     1
100
AcDbLine
 10
-31.39839060809737
 20
8.284628260561419
 30
0.0
 11
-31.11270360812608
 21
8.284628260561419
 31
0.0
  0
LINE
  5
1D6
330
2
100
AcDbEntity
  8
GAIKEI
  6
HIDDEN2
 62
     1
100
AcDbLine
 10
-30.74794660816252
 20
7.995052260590398
 30
0.0
 11
-30.92361285814485
 21
8.198166260570076
 31
0.0
  0
POINT
  5
1D7
330
2
100
AcDbEntity
  8
GAIKEI
  6
HIDDEN2
 62
     1
100
AcDbPoint
 10
-30.99839060813741
 20
8.284628260561419
 30
0.0
  0
ARC
  5
1D8
330
2
100
AcDbEntity
  8
GAIKEI
  6
HIDDEN2
 62
     1
100
AcDbCircle
 10
-31.11270360812608
 20
8.03462826058643
 30
0.0
 40
0.249999999975
100
AcDbArc
 50
40.85537599999966
 51
90.0
  0
ARC
  5
1D9
330
2
100
AcDbEntity
  8
GAIKEI
  6
HIDDEN2
 62
     1
100
AcDbCircle
 10
-30.36976510820017
 20
8.32212826055769
 30
0.0
 40
0.49999999995
100
AcDbArc
 50
220.8553759999996
 51
270.0
  0
POINT
  5
1DA
330
2
100
AcDbEntity
  8
GAIKEI
  6
HIDDEN2
 62
     1
100
AcDbPoint
 10
-30.59839060817734
 20
7.097128260680221
 30
0.0
  0
LINE
  5
1DB
330
2
100
AcDbEntity
  8
GAIKEI
  6
HIDDEN2
 62
     1
100
AcDbLine
 10
-30.51839060818549
 20
4.919628260897923
 30
0.0
 11
-30.51839060818549
 21
5.069628260882893
 31
0.0
  0
LINE
  5
1DC
330
2
100
AcDbEntity
  8
GAIKEI
  6
HIDDEN2
 62
     1
100
AcDbLine
 10
-30.52339060818491
 20
4.959628260894021
 30
0.0
 11
-30.52339060818491
 21
5.069628260882893
 31
0.0
  0
LINE
  5
1DD
330
2
100
AcDbEntity
  8
GAIKEI
  6
HIDDEN2
 62
     1
100
AcDbLine
 10
-31.29839060810747
 20
5.959628260794033
 30
0.0
 11
-31.29839060810747
 21
6.159628260774013
 31
0.0
  0
LINE
  5
1DE
330
2
100
AcDbEntity
  8
GAIKEI
  6
HIDDEN2
 62
     1
100
AcDbLine
 10
-31.39839060809737
 20
6.159628260774013
 30
0.0
 11
-31.27339060810988
 21
6.159628260774013
 31
0.0
  0
LINE
  5
1DF
330
2
100
AcDbEntity
  8
GAIKEI
  6
HIDDEN2
 62
     1
100
AcDbLine
 10
-31.29839060810747
 20
5.959628260794033
 30
0.0
 11
-31.39839060809737
 21
5.959628260794033
 31
0.0
  0
ARC
  5
1E0
330
2
100
AcDbEntity
  8
GAIKEI
  6
HIDDEN2
 62
     1
100
AcDbCircle
 10
-31.27339060810988
 20
6.059628260783995
 30
0.0
 40
0.09999999999
100
AcDbArc
 50
0.0
 51
90.0
  0
LINE
  5
1E1
330
2
100
AcDbEntity
  8
GAIKEI
  6
HIDDEN2
 62
     1
100
AcDbLine
 10
-31.17339060811986
 20
6.059628260783995
 30
0.0
 11
-31.17339060811986
 21
5.959628260794033
 31
0.0
  0
LINE
  5
1E2
330
2
100
AcDbEntity
  8
GAIKEI
  6
HIDDEN2
 62
     1
100
AcDbLine
 10
-31.17339060811986
 20
6.059628260783995
 30
0.0
 11
-31.27339060810988
 21
6.059628260783995
 31
0.0
  0
LINE
  5
1E3
330
2
100
AcDbEntity
  8
GAIKEI
  6
HIDDEN2
 62
     1
100
AcDbLine
 10
-31.39839060809737
 20
6.634628260726515
 30
0.0
 11
-31.11270360812608
 21
6.634628260726515
 31
0.0
  0
LINE
  5
1E4
330
2
100
AcDbEntity
  8
GAIKEI
  6
HIDDEN2
 62
     1
100
AcDbLine
 10
-30.74794660816252
 20
6.924204260697536
 30
0.0
 11
-30.92361285814485
 21
6.721090260717744
 31
0.0
  0
POINT
  5
1E5
330
2
100
AcDbEntity
  8
GAIKEI
  6
HIDDEN2
 62
     1
100
AcDbPoint
 10
-30.99839060813741
 20
6.634628260726515
 30
0.0
  0
ARC
  5
1E6
330
2
100
AcDbEntity
  8
GAIKEI
  6
HIDDEN2
 62
     1
100
AcDbCircle
 10
-31.11270360812608
 20
6.884628260701447
 30
0.0
 40
0.249999999975
100
AcDbArc
 50
270.0
 51
319.1446240000003
  0
LINE
  5
1E7
330
2
100
AcDbEntity
  8
GAIKEI
  6
HIDDEN2
 62
     1
100
AcDbLine
 10
-30.77339060815979
 20
5.934628260796387
 30
0.0
 11
-30.77339060815979
 21
5.834628260806482
 31
0.0
  0
LINE
  5
1E8
330
2
100
AcDbEntity
  8
GAIKEI
  6
HIDDEN2
 62
     1
100
AcDbLine
 10
-31.27339060810988
 20
5.934628260796387
 30
0.0
 11
-31.27339060810988
 21
6.059628260783995
 31
0.0
  0
LINE
  5
1E9
330
2
100
AcDbEntity
  8
GAIKEI
  6
HIDDEN2
 62
     1
100
AcDbLine
 10
-30.77339060815979
 20
5.834628260806482
 30
0.0
 11
-32.64839060797243
 21
5.834628260806482
 31
0.0
  0
LINE
  5
1EA
330
2
100
AcDbEntity
  8
GAIKEI
  6
HIDDEN2
 62
     1
100
AcDbLine
 10
-31.27839060810953
 20
4.919628260897923
 30
0.0
 11
-31.27839060810953
 21
5.069628260882893
 31
0.0
  0
LINE
  5
1EB
330
2
100
AcDbEntity
  8
GAIKEI
  6
HIDDEN2
 62
     1
100
AcDbLine
 10
-31.27339060810988
 20
4.959628260894021
 30
0.0
 11
-31.27339060810988
 21
5.069628260882893
 31
0.0
  0
ARC
  5
1EC
330
2
100
AcDbEntity
  8
GAIKEI
  6
HIDDEN2
 62
     1
100
AcDbCircle
 10
-31.93589060804362
 20
5.083545760881577
 30
0.0
 40
0.49999999995
100
AcDbArc
 50
274.3012219999993
 51
0.0
  0
LINE
  5
1ED
330
2
100
AcDbEntity
  8
GAIKEI
  6
HIDDEN2
 62
     1
100
AcDbLine
 10
-31.43589060809353
 20
5.834628260806482
 30
0.0
 11
-31.43589060809353
 21
5.083545760881577
 31
0.0
  0
ARC
  5
1EE
330
2
100
AcDbEntity
  8
GAIKEI
  6
HIDDEN2
 62
     1
100
AcDbCircle
 10
-31.89839060804747
 20
4.08462826098156
 30
0.0
 40
0.1749999999825
100
AcDbArc
 50
90.0
 51
270.0
  0
LINE
  5
1EF
330
2
100
AcDbEntity
  8
GAIKEI
  6
HIDDEN2
 62
     1
100
AcDbLine
 10
-31.27839060810953
 20
4.919628260897923
 30
0.0
 11
-30.51839060818549
 21
4.919628260897923
 31
0.0
  0
LINE
  5
1F0
330
2
100
AcDbEntity
  8
GAIKEI
  6
HIDDEN2
 62
     1
100
AcDbLine
 10
-31.27839060810953
 20
5.069628260882893
 30
0.0
 11
-30.51839060818549
 21
5.069628260882893
 31
0.0
  0
LINE
  5
1F1
330
2
100
AcDbEntity
  8
GAIKEI
  6
HIDDEN2
 62
     1
100
AcDbLine
 10
-30.52339060818491
 20
4.959628260894021
 30
0.0
 11
-31.27339060810988
 21
4.959628260894021
 31
0.0
  0
LINE
  5
1F2
330
2
100
AcDbEntity
  8
GAIKEI
  6
HIDDEN2
 62
     1
100
AcDbLine
 10
-30.52339060818491
 20
5.059628260883926
 30
0.0
 11
-31.27339060810988
 21
5.059628260883926
 31
0.0
  0
ARC
  5
1F3
330
2
100
AcDbEntity
  8
GAIKEI
  6
HIDDEN2
 62
     1
100
AcDbCircle
 10
-30.36976510820017
 20
6.597128260730187
 30
0.0
 40
0.49999999995
100
AcDbArc
 50
90.0
 51
139.1446240000003
  0
LINE
  5
1F4
330
2
100
AcDbEntity
  8
GAIKEI
  6
HIDDEN2
 62
     1
100
AcDbLine
 10
-31.29839060810747
 20
8.284628260561419
 30
0.0
 11
-31.29839060810747
 21
6.634628260726515
 31
0.0
  0
LINE
  5
1F5
330
2
100
AcDbEntity
  8
GAIKEI
  6
HIDDEN2
 62
     1
100
AcDbLine
 10
-28.92339060834496
 20
7.422128260647752
 30
0.0
 11
-28.92339060834496
 21
7.497128260640181
 31
0.0
  0
ARC
  5
1F6
330
2
100
AcDbEntity
  8
GAIKEI
  6
HIDDEN2
 62
     1
100
AcDbCircle
 10
-29.24839060831249
 20
7.497128260640181
 30
0.0
 40
0.3249999999675
100
AcDbArc
 50
0.0
 51
90.0
  0
LINE
  5
1F7
330
2
100
AcDbEntity
  8
GAIKEI
  6
HIDDEN2
 62
     1
100
AcDbLine
 10
-29.73589060826379
 20
8.384628260551437
 30
0.0
 11
-29.81089060825622
 21
8.384628260551437
 31
0.0
  0
ARC
  5
1F8
330
2
100
AcDbEntity
  8
GAIKEI
  6
HIDDEN2
 62
     1
100
AcDbCircle
 10
-29.73589060826379
 20
8.709628260519025
 30
0.0
 40
0.3249999999675
100
AcDbArc
 50
270.0
 51
0.0
  0
ARC
  5
1F9
330
2
100
AcDbEntity
  8
GAIKEI
  6
HIDDEN2
 62
     1
100
AcDbCircle
 10
-29.81089060825622
 20
8.709628260519025
 30
0.0
 40
0.3249999999675
100
AcDbArc
 50
180.0
 51
270.0
  0
LINE
  5
1FA
330
2
100
AcDbEntity
  8
GAIKEI
  6
HIDDEN2
 62
     1
100
AcDbLine
 10
-28.24839060841242
 20
5.959628260794033
 30
0.0
 11
-28.24839060841242
 21
6.159628260774013
 31
0.0
  0
LINE
  5
1FB
330
2
100
AcDbEntity
  8
GAIKEI
  6
HIDDEN2
 62
     1
100
AcDbLine
 10
-28.14839060842241
 20
6.159628260774013
 30
0.0
 11
-28.2733906084099
 21
6.159628260774013
 31
0.0
  0
LINE
  5
1FC
330
2
100
AcDbEntity
  8
GAIKEI
  6
HIDDEN2
 62
     1
100
AcDbLine
 10
-28.24839060841242
 20
5.959628260794033
 30
0.0
 11
-28.14839060842241
 21
5.959628260794033
 31
0.0
  0
ARC
  5
1FD
330
2
100
AcDbEntity
  8
GAIKEI
  6
HIDDEN2
 62
     1
100
AcDbCircle
 10
-28.2733906084099
 20
6.059628260783995
 30
0.0
 40
0.09999999999
100
AcDbArc
 50
90.0
 51
180.0
  0
LINE
  5
1FE
330
2
100
AcDbEntity
  8
GAIKEI
  6
HIDDEN2
 62
     1
100
AcDbLine
 10
-28.37339060839992
 20
6.059628260783995
 30
0.0
 11
-28.37339060839992
 21
5.959628260794033
 31
0.0
  0
LINE
  5
1FF
330
2
100
AcDbEntity
  8
GAIKEI
  6
HIDDEN2
 62
     1
100
AcDbLine
 10
-28.37339060839992
 20
6.059628260783995
 30
0.0
 11
-28.2733906084099
 21
6.059628260783995
 31
0.0
  0
LINE
  5
200
330
2
100
AcDbEntity
  8
GAIKEI
  6
HIDDEN2
 62
     1
100
AcDbLine
 10
-28.2733906084099
 20
5.934628260796387
 30
0.0
 11
-28.2733906084099
 21
6.059628260783995
 31
0.0
  0
LINE
  5
201
330
2
100
AcDbEntity
  8
GAIKEI
  6
HIDDEN2
 62
     1
100
AcDbLine
 10
-28.26839060841058
 20
4.919628260897923
 30
0.0
 11
-28.26839060841058
 21
5.069628260882893
 31
0.0
  0
LINE
  5
202
330
2
100
AcDbEntity
  8
GAIKEI
  6
HIDDEN2
 62
     1
100
AcDbLine
 10
-28.2733906084099
 20
4.959628260894021
 30
0.0
 11
-28.2733906084099
 21
5.069628260882893
 31
0.0
  0
LINE
  5
203
330
2
100
AcDbEntity
  8
GAIKEI
  6
HIDDEN2
 62
     1
100
AcDbLine
 10
-28.11089060842625
 20
5.834628260806482
 30
0.0
 11
-28.11089060842625
 21
5.084628260881515
 31
0.0
  0
LINE
  5
204
330
2
100
AcDbEntity
  8
GAIKEI
  6
HIDDEN2
 62
     1
100
AcDbLine
 10
-28.77339060835976
 20
5.934628260796387
 30
0.0
 11
-28.77339060835976
 21
5.834628260806482
 31
0.0
  0
LINE
  5
205
330
2
100
AcDbEntity
  8
GAIKEI
  6
HIDDEN2
 62
     1
100
AcDbLine
 10
-29.02839060833452
 20
4.919628260897923
 30
0.0
 11
-29.02839060833452
 21
5.069628260882893
 31
0.0
  0
LINE
  5
206
330
2
100
AcDbEntity
  8
GAIKEI
  6
HIDDEN2
 62
     1
100
AcDbLine
 10
-29.02339060833487
 20
4.959628260894021
 30
0.0
 11
-29.02339060833487
 21
5.069628260882893
 31
0.0
  0
LINE
  5
207
330
2
100
AcDbEntity
  8
GAIKEI
  6
HIDDEN2
 62
     1
100
AcDbLine
 10
-28.26839060841058
 20
4.919628260897923
 30
0.0
 11
-29.02839060833452
 21
4.919628260897923
 31
0.0
  0
LINE
  5
208
330
2
100
AcDbEntity
  8
GAIKEI
  6
HIDDEN2
 62
     1
100
AcDbLine
 10
-28.26839060841058
 20
5.069628260882893
 30
0.0
 11
-29.02839060833452
 21
5.069628260882893
 31
0.0
  0
LINE
  5
209
330
2
100
AcDbEntity
  8
GAIKEI
  6
HIDDEN2
 62
     1
100
AcDbLine
 10
-28.2733906084099
 20
4.959628260894021
 30
0.0
 11
-29.02339060833487
 21
4.959628260894021
 31
0.0
  0
LINE
  5
20A
330
2
100
AcDbEntity
  8
GAIKEI
  6
HIDDEN2
 62
     1
100
AcDbLine
 10
-28.2733906084099
 20
5.059628260883926
 30
0.0
 11
-29.02339060833487
 21
5.059628260883926
 31
0.0
  0
ARC
  5
20B
330
2
100
AcDbEntity
  8
GAIKEI
  6
HIDDEN2
 62
     1
100
AcDbCircle
 10
-29.77339060825995
 20
4.08462826098156
 30
0.0
 40
0.1749999999825
100
AcDbArc
 50
270.0
 51
90.0
  0
ARC
  5
20C
330
2
100
AcDbEntity
  8
GAIKEI
  6
HIDDEN2
 62
     1
100
AcDbCircle
 10
-29.24839060831249
 20
7.422128260647752
 30
0.0
 40
0.3249999999675
100
AcDbArc
 50
270.0
 51
0.0
  0
ARC
  5
20D
330
2
100
AcDbEntity
  8
GAIKEI
  6
HIDDEN2
 62
     1
100
AcDbCircle
 10
-27.61089060847627
 20
5.084628260881515
 30
0.0
 40
0.49999999995
100
AcDbArc
 50
180.0
 51
270.0
  0
LINE
  5
20E
330
2
100
AcDbEntity
  8
GAIKEI
  6
HIDDEN2
 62
     1
100
AcDbLine
 10
-14.27339060980983
 20
4.584628260931424
 30
0.0
 11
-27.61089060847627
 21
4.584628260931424
 31
0.0
  0
LINE
  5
20F
330
2
100
AcDbEntity
  8
GAIKEI
  6
HIDDEN2
 62
     1
100
AcDbLine
 10
6.101609388152553
 20
3.184628261071395
 30
0.0
 11
-32.64839060797243
 21
3.184628261071395
 31
0.0
  0
LINE
  5
210
330
2
100
AcDbEntity
  8
GAIKEI
  6
HIDDEN2
 62
     1
100
AcDbLine
 10
6.101609388152553
 20
3.284628261061413
 30
0.0
 11
-32.64839060797243
 21
3.284628261061413
 31
0.0
  0
LINE
  5
211
330
2
100
AcDbEntity
  8
GAIKEI
  6
HIDDEN2
 62
     1
100
AcDbLine
 10
5.351609388227586
 20
3.584628261031525
 30
0.0
 11
-31.89839060804747
 21
3.584628261031525
 31
0.0
  0
LINE
  5
212
330
2
100
AcDbEntity
  8
GAIKEI
  6
HIDDEN2
 62
     1
100
AcDbLine
 10
2.226609388540111
 20
5.834628260806482
 30
0.0
 11
-28.77339060835976
 21
5.834628260806482
 31
0.0
  0
LINE
  5
213
330
2
100
AcDbEntity
  8
GAIKEI
  6
HIDDEN2
 62
     1
100
AcDbLine
 10
-32.64839060797243
 20
5.934628260796387
 30
0.0
 11
6.101609388152553
 21
5.934628260796387
 31
0.0
  0
LINE
  5
214
330
2
100
AcDbEntity
  8
GAIKEI
  6
HIDDEN2
 62
     1
100
AcDbLine
 10
-25.7733906086599
 20
4.259628260964007
 30
0.0
 11
-20.77339060915989
 21
4.259628260964007
 31
0.0
  0
LINE
  5
215
330
2
100
AcDbEntity
  8
GAIKEI
  6
HIDDEN2
 62
     1
100
AcDbLine
 10
-25.7733906086599
 20
3.909628260998886
 30
0.0
 11
-20.77339060915989
 21
3.909628260998886
 31
0.0
  0
LINE
  5
216
330
2
100
AcDbEntity
  8
GAIKEI
  6
HIDDEN2
 62
     1
100
AcDbLine
 10
4.851609388277609
 20
26.20962825876899
 30
0.0
 11
4.851609388277609
 21
5.959628260794033
 31
0.0
  0
LINE
  5
217
330
2
100
AcDbEntity
  8
GAIKEI
  6
HIDDEN2
 62
     1
100
AcDbLine
 10
1.601609388602525
 20
26.20962825876899
 30
0.0
 11
1.601609388602525
 21
5.959628260794033
 31
0.0
  0
LINE
  5
218
330
2
100
AcDbEntity
  8
GAIKEI
  6
HIDDEN2
 62
     1
100
AcDbLine
 10
-28.14839060842241
 20
26.20962825876899
 30
0.0
 11
-28.14839060842241
 21
5.959628260794033
 31
0.0
  0
LINE
  5
219
330
2
100
AcDbEntity
  8
GAIKEI
  6
HIDDEN2
 62
     1
100
AcDbLine
 10
-31.39839060809737
 20
26.20962825876899
 30
0.0
 11
-31.39839060809737
 21
5.959628260794033
 31
0.0
  0
LINE
  5
21A
330
2
100
AcDbEntity
  8
GAIKEI
  6
HIDDEN2
 62
     1
100
AcDbLine
 10
-29.41089060829614
 20
8.709628260519025
 30
0.0
 11
-29.41089060829614
 21
8.926187010497358
 31
0.0
  0
LINE
  5
21B
330
2
100
AcDbEntity
  8
GAIKEI
  6
HIDDEN2
 62
     1
100
AcDbLine
 10
-30.13589060822364
 20
8.709628260519025
 30
0.0
 11
-30.13589060822364
 21
8.926187010497358
 31
0.0
  0
LINE
  5
21C
330
2
100
AcDbEntity
  8
GAIKEI
  6
HIDDEN2
 62
     1
100
AcDbLine
 10
3.589109388403755
 20
8.709628260519025
 30
0.0
 11
3.589109388403755
 21
8.926187010497358
 31
0.0
  0
LINE
  5
21D
330
2
100
AcDbEntity
  8
GAIKEI
  6
HIDDEN2
 62
     1
100
AcDbLine
 10
2.864109388476265
 20
8.709628260519025
 30
0.0
 11
2.864109388476265
 21
8.926187010497358
 31
0.0
  0
DIMENSION
  5
21E
330
2
100
AcDbEntity
  8
SUNPO
100
AcDbDimension
  2
*D7
 10
6.101609388152552
 20
-6.506141914697252
 30
0.0
 11
-13.27339060990988
 21
-4.756141914697252
 31
0.0
 70
    33
  1
775
 71
     5
 42
38.74999999612487
  3
STANDARD
100
AcDbAlignedDimension
 13
-32.64839060797232
 23
1.493858085302747
 33
0.0
 14
6.101609388152553
 24
1.493858085302747
 34
0.0
1001
ACAD
1000
DSTYLE
1002
{
1070
   287
1070
     3
1070
   287
1070
     3
1070
   287
1070
     3
1070
   287
1070
     3
1070
   287
1070
     3
1070
   287
1070
     3
1070
   287
1070
     3
1070
   287
1070
     3
1070
   287
1070
     3
1070
   287
1070
     3
1070
   287
1070
     3
1070
    40
1040
1.0
1070
   140
1040
2.5
1070
   147
1040
0.5
1070
   172
1070
     1
1070
   279
1070
     0
1070
   288
1070
     0
1002
}
  0
ARC
  5
22B
330
2
100
AcDbEntity
  8
GAIKEI
  6
Continuous
100
AcDbCircle
 10
-38.5708906099099
 20
31.75712826107144
 30
0.0
 40
0.2
100
AcDbArc
 50
179.9215320000083
 51
180.0
  0
ARC
  5
22C
330
2
100
AcDbEntity
  8
GAIKEI
  6
Continuous
100
AcDbCircle
 10
-38.5708906099099
 20
1.662128261071416
 30
0.0
 40
0.2
100
AcDbArc
 50
180.0
 51
180.0784679999916
  0
ARC
  5
22D
330
2
100
AcDbEntity
  8
GAIKEI
  6
Continuous
100
AcDbCircle
 10
12.02410939009013
 20
1.662128261071416
 30
0.0
 40
0.2
100
AcDbArc
 50
359.9215320000084
 51
0.0
  0
ARC
  5
22E
330
2
100
AcDbEntity
  8
GAIKEI
  6
Continuous
100
AcDbCircle
 10
-38.5708906099099
 20
31.75712826107144
 30
0.0
 40
0.2
100
AcDbArc
 50
90.0
 51
90.0784679999916
  0
ARC
  5
22F
330
2
100
AcDbEntity
  8
GAIKEI
  6
Continuous
100
AcDbCircle
 10
-38.5708906099099
 20
1.662128261071416
 30
0.0
 40
0.2
100
AcDbArc
 50
269.9215320000084
 51
270.0
  0
ARC
  5
230
330
2
100
AcDbEntity
  8
GAIKEI
  6
Continuous
100
AcDbCircle
 10
-38.5708906099099
 20
31.75712826107144
 30
0.0
 40
0.2
100
AcDbArc
 50
90.0784679999916
 51
179.9215320000083
  0
ARC
  5
231
330
2
100
AcDbEntity
  8
GAIKEI
  6
Continuous
100
AcDbCircle
 10
12.02410939009013
 20
31.75712826107144
 30
0.0
 40
0.2
100
AcDbArc
 50
0.0784679999916189
 51
89.92153200000839
  0
ARC
  5
232
330
2
100
AcDbEntity
  8
GAIKEI
  6
Continuous
100
AcDbCircle
 10
-38.5708906099099
 20
1.662128261071416
 30
0.0
 40
0.2
100
AcDbArc
 50
180.0784679999916
 51
269.9215320000084
  0
ARC
  5
233
330
2
100
AcDbEntity
  8
GAIKEI
  6
Continuous
100
AcDbCircle
 10
12.02410939009013
 20
1.662128261071416
 30
0.0
 40
0.2
100
AcDbArc
 50
270.0784679999916
 51
359.9215320000084
  0
ARC
  5
234
330
2
100
AcDbEntity
  8
GAIKEI
  6
Continuous
 62
     1
100
AcDbCircle
 10
10.62660939009015
 20
3.059628261071452
 30
0.0
 40
0.2
100
AcDbArc
 50
270.0
 51
0.0
  0
ARC
  5
235
330
2
100
AcDbEntity
  8
GAIKEI
  6
Continuous
 62
     1
100
AcDbCircle
 10
-36.15839060990988
 20
2.284628261071418
 30
0.0
 40
0.025
100
AcDbArc
 50
90.0
 51
180.0
  0
ARC
  5
236
330
2
100
AcDbEntity
  8
GAIKEI
  6
Continuous
 62
     1
100
AcDbCircle
 10
-35.85839060990986
 20
2.284628261071418
 30
0.0
 40
0.025
100
AcDbArc
 50
0.0
 51
90.0
  0
ARC
  5
237
330
2
100
AcDbEntity
  8
GAIKEI
  6
Continuous
 62
     1
100
AcDbCircle
 10
-35.85839060990986
 20
1.984628261071406
 30
0.0
 40
0.025
100
AcDbArc
 50
270.0
 51
0.0
  0
ARC
  5
238
330
2
100
AcDbEntity
  8
GAIKEI
  6
Continuous
 62
     1
100
AcDbCircle
 10
-36.15839060990988
 20
1.984628261071406
 30
0.0
 40
0.025
100
AcDbArc
 50
180.0
 51
270.0
  0
ARC
  5
239
330
2
100
AcDbEntity
  8
GAIKEI
  6
Continuous
 62
     1
100
AcDbCircle
 10
-37.17339060990992
 20
30.35962826107141
 30
0.0
 40
0.2
100
AcDbArc
 50
90.0
 51
180.0
  0
ARC
  5
23A
330
2
100
AcDbEntity
  8
GAIKEI
  6
Continuous
 62
     1
100
AcDbCircle
 10
-37.17339060990992
 20
3.059628261071452
 30
0.0
 40
0.2
100
AcDbArc
 50
180.0
 51
270.0
  0
ARC
  5
23B
330
2
100
AcDbEntity
  8
GAIKEI
  6
Continuous
 62
     1
100
AcDbCircle
 10
10.62660939009015
 20
30.35962826107141
 30
0.0
 40
0.2
100
AcDbArc
 50
0.0
 51
90.0
  0
LINE
  5
23C
330
2
100
AcDbEntity
  8
GAIKEI
  6
Continuous
100
AcDbLine
 10
-38.77089060990988
 20
31.75712826107144
 30
0.0
 11
-38.77089060990988
 21
1.662128261071416
 31
0.0
  0
LINE
  5
23D
330
2
100
AcDbEntity
  8
GAIKEI
  6
Continuous
100
AcDbLine
 10
12.22410939009012
 20
31.75712826107144
 30
0.0
 11
12.22410939009012
 21
1.662128261071416
 31
0.0
  0
LINE
  5
23E
330
2
100
AcDbEntity
  8
GAIKEI
  6
Continuous
100
AcDbLine
 10
-38.5708906099099
 20
31.95712826107143
 30
0.0
 11
12.02410939009013
 21
31.95712826107143
 31
0.0
  0
LINE
  5
23F
330
2
100
AcDbEntity
  8
GAIKEI
  6
Continuous
100
AcDbLine
 10
-38.5708906099099
 20
1.462128261071427
 30
0.0
 11
12.02410939009013
 21
1.462128261071427
 31
0.0
  0
LINE
  5
240
330
2
100
AcDbEntity
  8
GAIKEI
  6
Continuous
 62
     1
100
AcDbLine
 10
-36.33589060990988
 20
29.57862826107146
 30
0.0
 11
-36.33589060990988
 21
3.840628261071401
 31
0.0
  0
LINE
  5
241
330
2
100
AcDbEntity
  8
GAIKEI
  6
Continuous
 62
     1
100
AcDbLine
 10
9.789109390090118
 20
29.57862826107146
 30
0.0
 11
9.789109390090175
 21
3.840628261071401
 31
0.0
  0
LINE
  5
242
330
2
100
AcDbEntity
  8
GAIKEI
  6
Continuous
 62
     1
100
AcDbLine
 10
-36.23739060990988
 20
29.6771282610714
 30
0.0
 11
9.690609390090116
 21
29.67712826107146
 31
0.0
  0
LINE
  5
243
330
2
100
AcDbEntity
  8
GAIKEI
  6
Continuous
 62
     1
100
AcDbLine
 10
-36.23739060990988
 20
3.742128261071457
 30
0.0
 11
9.690609390090116
 21
3.742128261071457
 31
0.0
  0
LINE
  5
244
330
2
100
AcDbEntity
  8
GAIKEI
  6
Continuous
 62
     1
100
AcDbLine
 10
-37.17358130990988
 20
30.45962826107143
 30
0.0
 11
10.62810939009011
 21
30.45962826107143
 31
0.0
  0
LINE
  5
245
330
2
100
AcDbEntity
  8
GAIKEI
  6
Continuous
 62
     1
100
AcDbLine
 10
10.62810939009011
 20
2.960872111071466
 30
0.0
 11
-37.17358130990988
 21
2.960872111071466
 31
0.0
  0
LINE
  5
246
330
2
100
AcDbEntity
  8
GAIKEI
  6
Continuous
 62
     1
100
AcDbLine
 10
-37.27208130990994
 20
30.36112826107143
 30
0.0
 11
-37.27208130990988
 21
3.059372111071411
 31
0.0
  0
LINE
  5
247
330
2
100
AcDbEntity
  8
GAIKEI
  6
Continuous
 62
     1
100
AcDbLine
 10
10.72660939009006
 20
3.059372111071411
 30
0.0
 11
10.72660939009012
 21
30.36112826107137
 31
0.0
  0
LINE
  5
248
330
2
100
AcDbEntity
  8
GAIKEI
  6
Continuous
 62
     1
100
AcDbLine
 10
-37.26404180990988
 20
3.020583761071407
 30
0.0
 11
-36.33557929356221
 21
3.833474200704415
 31
0.0
  0
LINE
  5
249
330
2
100
AcDbEntity
  8
GAIKEI
  6
Continuous
 62
     1
100
AcDbLine
 10
-36.22755229374678
 20
3.742128261071457
 30
0.0
 11
-37.11988295990989
 21
2.960872111071466
 31
0.0
  0
LINE
  5
24A
330
2
100
AcDbEntity
  8
GAIKEI
  6
Continuous
 62
     1
100
AcDbLine
 10
10.71726059009012
 20
3.020583761071407
 30
0.0
 11
9.788846171022669
 21
3.833432090421524
 31
0.0
  0
LINE
  5
24B
330
2
100
AcDbEntity
  8
GAIKEI
  6
Continuous
 62
     1
100
AcDbLine
 10
9.680771073927019
 20
3.742128261071457
 30
0.0
 11
10.57310174009012
 21
2.960872111071466
 31
0.0
  0
LINE
  5
24C
330
2
100
AcDbEntity
  8
GAIKEI
  6
Continuous
 62
     1
100
AcDbLine
 10
-36.33562739084238
 20
29.58582443172133
 30
0.0
 11
-37.26404180990988
 21
30.39867276107145
 31
0.0
  0
LINE
  5
24D
330
2
100
AcDbEntity
  8
GAIKEI
  6
Continuous
 62
     1
100
AcDbLine
 10
-37.11988295990989
 20
30.45838441107139
 30
0.0
 11
-36.22755229374678
 21
29.6771282610714
 31
0.0
  0
LINE
  5
24E
330
2
100
AcDbEntity
  8
GAIKEI
  6
Continuous
 62
     1
100
AcDbLine
 10
10.57310174009012
 20
30.45838441107139
 30
0.0
 11
9.680771073927019
 21
29.6771282610714
 31
0.0
  0
LINE
  5
24F
330
2
100
AcDbEntity
  8
GAIKEI
  6
Continuous
 62
     1
100
AcDbLine
 10
9.788846171022612
 20
29.58582443172133
 30
0.0
 11
10.71726059009012
 21
30.39867276107145
 31
0.0
  0
LINE
  5
250
330
2
100
AcDbEntity
  8
GAIKEI
  6
Continuous
 62
     1
100
AcDbLine
 10
-38.63449795990988
 20
1.78652091107142
 30
0.0
 11
-38.63449795990994
 21
31.63273561107144
 31
0.0
  0
LINE
  5
251
330
2
100
AcDbEntity
  8
GAIKEI
  6
Continuous
 62
     1
100
AcDbLine
 10
12.08771674009006
 20
1.78652091107142
 30
0.0
 11
12.08771674009011
 21
31.63273561107144
 31
0.0
  0
LINE
  5
252
330
2
100
AcDbEntity
  8
GAIKEI
  6
Continuous
 62
     1
100
AcDbLine
 10
-38.44649795990995
 20
31.82073561107143
 30
0.0
 11
11.89971674009012
 21
31.82073561107143
 31
0.0
  0
LINE
  5
253
330
2
100
AcDbEntity
  8
GAIKEI
  6
Continuous
 62
     1
100
AcDbLine
 10
11.89971674009007
 20
1.598520911071432
 30
0.0
 11
-38.44649795990989
 21
1.598520911071432
 31
0.0
  0
LINE
  5
254
330
2
100
AcDbEntity
  8
GAIKEI
  6
Continuous
 62
     1
100
AcDbLine
 10
-37.17339060990992
 20
2.859628261071406
 30
0.0
 11
10.62660939009015
 21
2.859628261071406
 31
0.0
  0
LINE
  5
255
330
2
100
AcDbEntity
  8
GAIKEI
  6
Continuous
 62
     1
100
AcDbLine
 10
-37.37339060990985
 20
30.35962826107141
 30
0.0
 11
-37.37339060990985
 21
3.059628261071452
 31
0.0
  0
LINE
  5
256
330
2
100
AcDbEntity
  8
GAIKEI
  6
Continuous
 62
     1
100
AcDbLine
 10
10.62660939009015
 20
30.55962826107145
 30
0.0
 11
-37.17339060990992
 21
30.55962826107145
 31
0.0
  0
LINE
  5
257
330
2
100
AcDbEntity
  8
GAIKEI
  6
Continuous
 62
     1
100
AcDbLine
 10
-35.85839060990986
 20
1.959628261071429
 30
0.0
 11
-36.15839060990988
 21
1.959628261071429
 31
0.0
  0
LINE
  5
258
330
2
100
AcDbEntity
  8
GAIKEI
  6
Continuous
 62
     1
100
AcDbLine
 10
-37.66714060990989
 20
2.078378261071406
 30
0.0
 11
-37.77964060990985
 21
2.078378261071406
 31
0.0
  0
LINE
  5
259
330
2
100
AcDbEntity
  8
GAIKEI
  6
Continuous
 62
     1
100
AcDbLine
 10
-37.77964060990985
 20
2.190878261071418
 30
0.0
 11
-37.66714060990989
 21
2.190878261071418
 31
0.0
  0
LINE
  5
25A
330
2
100
AcDbEntity
  8
GAIKEI
  6
Continuous
 62
     1
100
AcDbLine
 10
-37.66714060990989
 20
2.190878261071418
 30
0.0
 11
-37.66714060990989
 21
2.078378261071406
 31
0.0
  0
LINE
  5
25B
330
2
100
AcDbEntity
  8
GAIKEI
  6
Continuous
 62
     1
100
AcDbLine
 10
-36.18339060990991
 20
1.984628261071406
 30
0.0
 11
-36.18339060990991
 21
2.284628261071418
 31
0.0
  0
LINE
  5
25C
330
2
100
AcDbEntity
  8
GAIKEI
  6
Continuous
 62
     1
100
AcDbLine
 10
-37.77964060990985
 20
2.078378261071406
 30
0.0
 11
-37.77964060990985
 21
2.190878261071418
 31
0.0
  0
LINE
  5
25D
330
2
100
AcDbEntity
  8
GAIKEI
  6
Continuous
 62
     1
100
AcDbLine
 10
-35.83339060990989
 20
2.284628261071418
 30
0.0
 11
-35.83339060990989
 21
1.984628261071406
 31
0.0
  0
LINE
  5
25E
330
2
100
AcDbEntity
  8
GAIKEI
  6
Continuous
 62
     1
100
AcDbLine
 10
-36.15839060990988
 20
2.309628261071452
 30
0.0
 11
-35.85839060990986
 21
2.309628261071452
 31
0.0
  0
LINE
  5
25F
330
2
100
AcDbEntity
  8
GAIKEI
  6
Continuous
 62
     1
100
AcDbLine
 10
10.82660939009008
 20
30.35962826107141
 30
0.0
 11
10.82660939009008
 21
3.059628261071452
 31
0.0
  0
LINE
  5
260
330
2
100
AcDbEntity
  8
GAIKEI
  6
Continuous
 62
     1
100
AcDbLine
 10
11.82723149009013
 20
2.014006161071392
 30
0.0
 11
11.82723149009018
 21
31.40525036107147
 31
0.0
  0
LINE
  5
261
330
2
100
AcDbEntity
  8
GAIKEI
  6
Continuous
 62
     1
100
AcDbLine
 10
-38.37401270990989
 20
2.014006161071392
 30
0.0
 11
-38.37401270990984
 21
31.40525036107147
 31
0.0
  0
LINE
  5
262
330
2
100
AcDbEntity
  8
GAIKEI
  6
Continuous
 62
     1
100
AcDbLine
 10
-38.21901270990986
 20
31.56025036107144
 30
0.0
 11
11.67223149009015
 21
31.56025036107144
 31
0.0
  0
LINE
  5
263
330
2
100
AcDbEntity
  8
GAIKEI
  6
Continuous
 62
     1
100
AcDbLine
 10
11.6722314900901
 20
1.85900616107142
 30
0.0
 11
-38.21901270990986
 21
1.85900616107142
 31
0.0
  0
LINE
  5
264
330
2
100
AcDbEntity
  8
GAIKEI
  6
Continuous
 62
     1
100
AcDbLine
 10
37.19926530120768
 20
4.411131261071432
 30
0.0
 11
37.19926530120768
 21
4.335173611071468
 31
0.0
  0
LINE
  5
265
330
2
100
AcDbEntity
  8
GAIKEI
  6
Continuous
 62
     1
100
AcDbLine
 10
37.19926530120768
 20
4.335173611071468
 30
0.0
 11
37.19926530120768
 21
4.285660211071444
 31
0.0
  0
ARC
  5
266
330
2
100
AcDbEntity
  8
GAIKEI
  6
Continuous
 62
     1
100
AcDbCircle
 10
37.14926530120772
 20
4.285660211071444
 30
0.0
 40
0.05
100
AcDbArc
 50
278.0000000000055
 51
0.0
  0
ARC
  5
267
330
2
100
AcDbEntity
  8
GAIKEI
  6
Continuous
 62
     1
100
AcDbCircle
 10
37.2992653012077
 20
4.411131261071432
 30
0.0
 40
0.1
100
AcDbArc
 50
136.2382570000005
 51
180.0
  0
LINE
  5
268
330
2
100
AcDbEntity
  8
GAIKEI
  6
Continuous
 62
     1
100
AcDbLine
 10
37.0815316012077
 20
4.225649461071441
 30
0.0
 11
37.14770880120773
 21
4.234950061071458
 31
0.0
  0
LINE
  5
269
330
2
100
AcDbEntity
  8
GAIKEI
  6
Continuous
 62
     1
100
AcDbLine
 10
37.15622395120772
 20
4.236146811071421
 30
0.0
 11
37.07426530120768
 21
4.224628261071416
 31
0.0
  0
LINE
  5
26A
330
2
100
AcDbEntity
  8
GAIKEI
  6
Continuous
 62
     1
100
AcDbLine
 10
37.34926530120771
 20
4.894628261071432
 30
0.0
 11
37.34926530120771
 21
4.784628261071418
 31
0.0
  0
ARC
  5
26B
330
2
100
AcDbEntity
  8
GAIKEI
  6
Continuous
 62
     1
100
AcDbCircle
 10
36.90926530120771
 20
4.784628261071418
 30
0.0
 40
0.4400000000000001
100
AcDbArc
 50
316.2382570000005
 51
0.0
  0
LINE
  5
26C
330
2
100
AcDbEntity
  8
GAIKEI
  6
Continuous
 62
     1
100
AcDbLine
 10
37.19926530120768
 20
5.393596311071405
 30
0.0
 11
37.19926530120768
 21
5.344082911071438
 31
0.0
  0
LINE
  5
26D
330
2
100
AcDbEntity
  8
GAIKEI
  6
Continuous
 62
     1
100
AcDbLine
 10
37.19926530120768
 20
5.344082911071438
 30
0.0
 11
37.19926530120768
 21
5.268125261071418
 31
0.0
  0
ARC
  5
26E
330
2
100
AcDbEntity
  8
GAIKEI
  6
Continuous
 62
     1
100
AcDbCircle
 10
37.2992653012077
 20
5.268125261071418
 30
0.0
 40
0.1
100
AcDbArc
 50
180.0
 51
223.7617429999995
  0
ARC
  5
26F
330
2
100
AcDbEntity
  8
GAIKEI
  6
Continuous
 62
     1
100
AcDbCircle
 10
37.14926530120772
 20
5.393596311071405
 30
0.0
 40
0.05
100
AcDbArc
 50
0.0
 51
81.99999999999448
  0
ARC
  5
270
330
2
100
AcDbEntity
  8
GAIKEI
  6
Continuous
 62
     1
100
AcDbCircle
 10
36.90926530120771
 20
4.894628261071432
 30
0.0
 40
0.4400000000000001
100
AcDbArc
 50
0.0
 51
43.76174299999948
  0
LINE
  5
271
330
2
100
AcDbEntity
  8
GAIKEI
  6
Continuous
 62
     1
100
AcDbLine
 10
37.14770880120773
 20
5.444306461071391
 30
0.0
 11
37.0815316012077
 21
5.453607061071465
 31
0.0
  0
LINE
  5
272
330
2
100
AcDbEntity
  8
GAIKEI
  6
Continuous
 62
     1
100
AcDbLine
 10
37.07426530120768
 20
5.454628261071434
 30
0.0
 11
37.15622395120772
 21
5.443109711071429
 31
0.0
  0
ELLIPSE
  5
273
330
2
100
AcDbEntity
  8
GAIKEI
  6
Continuous
100
AcDbEllipse
 10
37.82426530120768
 20
7.158366961071465
 30
0.0
 11
-0.25
 21
-0.0000000000000001
 31
0.0
210
0.0
220
0.0
230
1.0
 40
0.9073409999999999
 41
3.135287578111884
 42
3.141592653589792
  0
ARC
  5
274
330
2
100
AcDbEntity
  8
GAIKEI
  6
Continuous
100
AcDbCircle
 10
37.57426530120767
 20
7.158366961071465
 30
0.0
 40
0.5
100
AcDbArc
 50
355.2257539999894
 51
359.670535000016
  0
ARC
  5
275
330
2
100
AcDbEntity
  8
GAIKEI
  6
Continuous
100
AcDbCircle
 10
37.57426530120767
 20
7.158366961071465
 30
0.0
 40
0.5
100
AcDbArc
 50
359.670535000016
 51
0.0
  0
ARC
  5
276
330
2
100
AcDbEntity
  8
GAIKEI
  6
Continuous
100
AcDbCircle
 10
37.2992653012077
 20
3.197343261071409
 30
0.0
 40
0.5
100
AcDbArc
 50
273.0000000000057
 51
0.0
  0
ARC
  5
277
330
2
100
AcDbEntity
  8
GAIKEI
  6
Continuous
100
AcDbCircle
 10
38.2992653012077
 20
6.466664511071428
 30
0.0
 40
0.5
100
AcDbArc
 50
179.3354799999874
 51
180.0
  0
ARC
  5
278
330
2
100
AcDbEntity
  8
GAIKEI
  6
Continuous
100
AcDbCircle
 10
37.57426530120767
 20
7.158366961071465
 30
0.0
 40
0.5
100
AcDbArc
 50
321.8712529999933
 51
359.6917960000155
  0
ARC
  5
279
330
2
100
AcDbEntity
  8
GAIKEI
  6
Continuous
100
AcDbCircle
 10
37.47606080120772
 20
30.26890951107146
 30
0.0
 40
0.25
100
AcDbArc
 50
8.000000000005512
 51
77.99999999998565
  0
ARC
  5
27A
330
2
100
AcDbEntity
  8
GAIKEI
  6
Continuous
 62
     1
100
AcDbCircle
 10
36.82426530120768
 20
2.922106461071393
 30
0.0
 40
0.25
100
AcDbArc
 50
274.2367919999947
 51
0.0
  0
ARC
  5
27B
330
2
100
AcDbEntity
  8
GAIKEI
  6
Continuous
 62
     1
100
AcDbCircle
 10
37.82426530120768
 20
5.511650561071405
 30
0.0
 40
0.75
100
AcDbArc
 50
140.0000000000024
 51
180.0
  0
LINE
  5
27C
330
2
100
AcDbEntity
  8
GAIKEI
  6
Continuous
100
AcDbLine
 10
37.7476088512077
 20
30.13306866107143
 30
0.0
 11
38.07426530120768
 21
27.80878741107142
 31
0.0
  0
LINE
  5
27D
330
2
100
AcDbEntity
  8
GAIKEI
  6
Continuous
100
AcDbLine
 10
37.20845550120771
 20
2.691897911071464
 30
0.0
 11
37.32543330120768
 21
2.69802846107143
 31
0.0
  0
LINE
  5
27E
330
2
100
AcDbEntity
  8
GAIKEI
  6
Continuous
100
AcDbLine
 10
37.7992653012077
 20
3.197343261071409
 30
0.0
 11
37.7992653012077
 21
6.466664511071428
 31
0.0
  0
LINE
  5
27F
330
2
100
AcDbEntity
  8
GAIKEI
  6
Continuous
 62
     7
100
AcDbLine
 10
37.12979375120767
 20
2.687775461071396
 30
0.0
 11
37.20845550120771
 21
2.691897911071464
 31
0.0
  0
LINE
  5
280
330
2
100
AcDbEntity
  8
GAIKEI
  6
Continuous
 62
     1
100
AcDbLine
 10
36.83734930120773
 20
2.672449061071461
 30
0.0
 11
36.84147685120769
 21
2.67266541107142
 31
0.0
  0
LINE
  5
281
330
2
100
AcDbEntity
  8
GAIKEI
  6
Continuous
 62
     1
100
AcDbLine
 10
36.84255515120771
 20
2.672721911071448
 30
0.0
 11
36.84147685120769
 21
2.67266541107142
 31
0.0
  0
LINE
  5
282
330
2
100
AcDbEntity
  8
GAIKEI
  6
Continuous
 62
     7
100
AcDbLine
 10
36.84255515120771
 20
2.672721911071448
 30
0.0
 11
37.12979375120767
 21
2.687775461071396
 31
0.0
  0
LINE
  5
283
330
2
100
AcDbEntity
  8
GAIKEI
  6
Continuous
100
AcDbLine
 10
38.07426530120768
 20
13.80062081107144
 30
0.0
 11
38.07426530120768
 21
14.86863571107142
 31
0.0
  0
LINE
  5
284
330
2
100
AcDbEntity
  8
GAIKEI
  6
Continuous
100
AcDbLine
 10
38.07426530120768
 20
7.255158561071425
 30
0.0
 11
38.07426530120768
 21
13.80062081107144
 31
0.0
  0
LINE
  5
285
330
2
100
AcDbEntity
  8
GAIKEI
  6
Continuous
100
AcDbLine
 10
38.07426530120768
 20
7.158366961071465
 30
0.0
 11
38.07426530120768
 21
7.255158561071425
 31
0.0
  0
LINE
  5
286
330
2
100
AcDbEntity
  8
GAIKEI
  6
Continuous
100
AcDbLine
 10
38.07426530120768
 20
27.80878741107142
 30
0.0
 11
37.99940860120774
 21
28.34142061107144
 31
0.0
  0
LINE
  5
287
330
2
100
AcDbEntity
  8
GAIKEI
  6
Continuous
100
AcDbLine
 10
38.07426530120768
 20
27.80581731107145
 30
0.0
 11
38.07426530120768
 21
27.80878741107142
 31
0.0
  0
LINE
  5
288
330
2
100
AcDbEntity
  8
GAIKEI
  6
Continuous
100
AcDbLine
 10
37.76136865120771
 20
30.03516281107142
 30
0.0
 11
37.72362780120773
 21
30.30370276107146
 31
0.0
  0
LINE
  5
289
330
2
100
AcDbEntity
  8
GAIKEI
  6
Continuous
100
AcDbLine
 10
37.52803870120772
 20
30.51344641107141
 30
0.0
 11
36.60324960120772
 21
30.71001636107144
 31
0.0
  0
LINE
  5
28A
330
2
100
AcDbEntity
  8
GAIKEI
  6
Continuous
100
AcDbLine
 10
36.60324960120772
 20
30.71001636107144
 30
0.0
 11
36.13322115120769
 21
30.80992401107142
 31
0.0
  0
LINE
  5
28B
330
2
100
AcDbEntity
  8
GAIKEI
  6
Continuous
 62
     1
100
AcDbLine
 10
37.57305605120769
 20
6.379063911071398
 30
0.0
 11
37.96757797002738
 21
6.849651647965742
 31
0.0
  0
LINE
  5
28C
330
2
100
AcDbEntity
  8
GAIKEI
  6
Continuous
 62
     1
100
AcDbLine
 10
37.80426530120769
 20
9.747128261071452
 30
0.0
 11
37.75690280120773
 21
9.747128261071452
 31
0.0
  0
LINE
  5
28D
330
2
100
AcDbEntity
  8
GAIKEI
  6
Continuous
100
AcDbLine
 10
38.07183230120768
 20
27.79130571107146
 30
0.0
 11
38.07183230120768
 21
13.80062081107144
 31
0.0
  0
LINE
  5
28E
330
2
100
AcDbEntity
  8
GAIKEI
  6
Continuous
 62
     1
100
AcDbLine
 10
37.97604581944347
 20
25.28863025240401
 30
0.0
 11
37.99417580120769
 21
26.89877146107142
 31
0.0
  0
LINE
  5
28F
330
2
100
AcDbEntity
  8
GAIKEI
  6
Continuous
 62
     1
100
AcDbLine
 10
37.79760479522776
 20
24.72305679564681
 30
0.0
 11
37.88002510120771
 21
24.8572121610714
 31
0.0
  0
LINE
  5
290
330
2
100
AcDbEntity
  8
GAIKEI
  6
Continuous
100
AcDbLine
 10
37.74567350120771
 20
25.07050906107145
 30
0.0
 11
37.74190015120769
 21
25.06436716107146
 31
0.0
  0
LINE
  5
291
330
2
100
AcDbEntity
  8
GAIKEI
  6
Continuous
100
AcDbLine
 10
37.74289365120774
 20
25.07159131107142
 30
0.0
 11
37.74567350120771
 21
25.07050906107145
 31
0.0
  0
LINE
  5
292
330
2
100
AcDbEntity
  8
GAIKEI
  6
Continuous
 62
     1
100
AcDbLine
 10
37.75690280120773
 20
23.15712826107142
 30
0.0
 11
37.75690280120773
 21
23.76212826107144
 31
0.0
  0
LINE
  5
293
330
2
100
AcDbEntity
  8
GAIKEI
  6
Continuous
 62
     1
100
AcDbLine
 10
37.75690280120773
 20
9.747128261071452
 30
0.0
 11
37.75690280120773
 21
10.35212826107147
 31
0.0
  0
LINE
  5
294
330
2
100
AcDbEntity
  8
GAIKEI
  6
Continuous
 62
     1
100
AcDbLine
 10
37.52803870120772
 20
23.76212826107144
 30
0.0
 11
37.75690280120773
 21
23.76212826107144
 31
0.0
  0
LINE
  5
295
330
2
100
AcDbEntity
  8
GAIKEI
  6
Continuous
 62
     1
100
AcDbLine
 10
37.52803870120772
 20
10.35212826107147
 30
0.0
 11
37.80426530120769
 21
10.35212826107147
 31
0.0
  0
LINE
  5
296
330
2
100
AcDbEntity
  8
GAIKEI
  6
Continuous
 62
     1
100
AcDbLine
 10
37.75690280120773
 20
9.747128261071452
 30
0.0
 11
37.52803870120767
 21
9.747128261071452
 31
0.0
  0
LINE
  5
297
330
2
100
AcDbEntity
  8
GAIKEI
  6
Continuous
 62
     1
100
AcDbLine
 10
37.75690280120773
 20
23.15712826107142
 30
0.0
 11
37.52803870120772
 21
23.15712826107142
 31
0.0
  0
LINE
  5
298
330
2
100
AcDbEntity
  8
GAIKEI
  6
Continuous
 62
     1
100
AcDbLine
 10
37.72631876590367
 20
6.843391543916027
 30
0.0
 11
37.72360678706986
 21
9.747128261071452
 31
0.0
  0
LINE
  5
299
330
2
100
AcDbEntity
  8
GAIKEI
  6
Continuous
 62
     1
100
AcDbLine
 10
37.72362780120773
 20
10.35212826107147
 30
0.0
 11
37.72362780120773
 21
23.15712826107142
 31
0.0
  0
LINE
  5
29A
330
2
100
AcDbEntity
  8
GAIKEI
  6
Continuous
 62
     1
100
AcDbLine
 10
37.72362780120773
 20
23.76212826107144
 30
0.0
 11
37.72362780120761
 21
24.46132334655044
 31
0.0
  0
LINE
  5
29B
330
2
100
AcDbEntity
  8
GAIKEI
  6
Continuous
 62
     1
100
AcDbLine
 10
37.72362780120773
 20
24.41139666107142
 30
0.0
 11
37.52803870120772
 21
24.41139666107142
 31
0.0
  0
LINE
  5
29C
330
2
100
AcDbEntity
  8
GAIKEI
  6
Continuous
 62
     1
100
AcDbLine
 10
37.24973195120771
 20
5.993741311071403
 30
0.0
 11
37.57305605120769
 21
6.379063911071398
 31
0.0
  0
LINE
  5
29D
330
2
100
AcDbEntity
  8
GAIKEI
  6
Continuous
 62
     1
100
AcDbLine
 10
37.07426530120768
 20
2.922106461071393
 30
0.0
 11
37.07426530120768
 21
3.65458566107145
 31
0.0
  0
LINE
  5
29E
330
2
100
AcDbEntity
  8
GAIKEI
  6
Continuous
 62
     1
100
AcDbLine
 10
36.83888230120772
 20
2.673394711071409
 30
0.0
 11
36.83734930120773
 21
2.672449061071461
 31
0.0
  0
LINE
  5
29F
330
2
100
AcDbEntity
  8
GAIKEI
  6
Continuous
 62
     1
100
AcDbLine
 10
37.07426530120768
 20
3.65458566107145
 30
0.0
 11
36.67822115120771
 21
3.65458566107145
 31
0.0
  0
LINE
  5
2A0
330
2
100
AcDbEntity
  8
GAIKEI
  6
Continuous
 62
     1
100
AcDbLine
 10
37.07426530120768
 20
3.65458566107145
 30
0.0
 11
37.07426530120768
 21
5.511650561071405
 31
0.0
  0
LINE
  5
2A1
330
2
100
AcDbEntity
  8
GAIKEI
  6
Continuous
100
AcDbLine
 10
35.9192653012077
 20
2.624334341939629
 30
0.0
 11
36.83734930120773
 21
2.672449061071461
 31
0.0
  0
LINE
  5
2A2
330
2
100
AcDbEntity
  8
GAIKEI
  6
Continuous
100
AcDbLine
 10
36.13322115120769
 20
30.80992401107142
 30
0.0
 11
35.9192653012077
 21
30.85540173041676
 31
0.0
  0
LINE
  5
2A3
330
2
100
AcDbEntity
  8
GAIKEI
  6
Continuous
 62
     1
100
AcDbLine
 10
36.67822115120771
 20
3.65458566107145
 30
0.0
 11
36.0146173012077
 21
3.619807661071433
 31
0.0
  0
LINE
  5
2A4
330
2
100
AcDbEntity
  8
GAIKEI
  6
Continuous
 62
     1
100
AcDbLine
 10
36.67822115120771
 20
5.511650561071405
 30
0.0
 11
36.67822115120771
 21
3.65458566107145
 31
0.0
  0
LINE
  5
2A5
330
2
100
AcDbEntity
  8
GAIKEI
  6
Continuous
 62
     1
100
AcDbLine
 10
37.52803870120772
 20
6.979386511071425
 30
0.0
 11
36.97066560120771
 21
6.315135111071413
 31
0.0
  0
LINE
  5
2A6
330
2
100
AcDbEntity
  8
GAIKEI
  6
Continuous
 62
     1
100
AcDbLine
 10
37.52803870120767
 20
9.747128261071452
 30
0.0
 11
37.52803870120772
 21
6.979386511071425
 31
0.0
  0
LINE
  5
2A7
330
2
100
AcDbEntity
  8
GAIKEI
  6
Continuous
 62
     1
100
AcDbLine
 10
37.56131370120773
 20
10.35212826107147
 30
0.0
 11
37.56131370120773
 21
9.747128261071452
 31
0.0
  0
LINE
  5
2A8
330
2
100
AcDbEntity
  8
GAIKEI
  6
Continuous
 62
     1
100
AcDbLine
 10
37.52803870120772
 20
23.15712826107142
 30
0.0
 11
37.52803870120772
 21
10.35212826107147
 31
0.0
  0
LINE
  5
2A9
330
2
100
AcDbEntity
  8
GAIKEI
  6
Continuous
 62
     1
100
AcDbLine
 10
37.56131370120773
 20
23.76212826107144
 30
0.0
 11
37.56131370120773
 21
23.15712826107142
 31
0.0
  0
LINE
  5
2AA
330
2
100
AcDbEntity
  8
GAIKEI
  6
Continuous
 62
     1
100
AcDbLine
 10
37.52803870120772
 20
24.41139666107142
 30
0.0
 11
37.52803870120772
 21
23.76212826107144
 31
0.0
  0
LINE
  5
2AB
330
2
100
AcDbEntity
  8
GAIKEI
  6
Continuous
 62
     1
100
AcDbLine
 10
37.2468604012077
 20
24.54251226107146
 30
0.0
 11
37.52803870120772
 21
24.41139666107142
 31
0.0
  0
LINE
  5
2AC
330
2
100
AcDbEntity
  8
GAIKEI
  6
Continuous
 62
     1
100
AcDbLine
 10
36.05478740120771
 20
9.53212826107142
 30
0.0
 11
36.05478740120771
 21
10.78712826107141
 31
0.0
  0
LINE
  5
2AD
330
2
100
AcDbEntity
  8
GAIKEI
  6
Continuous
 62
     1
100
AcDbLine
 10
35.9192653012077
 20
9.53212826107142
 30
0.0
 11
36.05478740120771
 21
9.53212826107142
 31
0.0
  0
LINE
  5
2AE
330
2
100
AcDbEntity
  8
GAIKEI
  6
Continuous
 62
     1
100
AcDbLine
 10
36.05478740120771
 20
10.78712826107141
 30
0.0
 11
35.9192653012077
 21
10.78712826107141
 31
0.0
  0
ARC
  5
2AF
330
2
100
AcDbEntity
  8
GAIKEI
  6
Continuous
100
AcDbCircle
 10
36.53304425120769
 20
27.28225641107144
 30
0.0
 40
1.49975415
100
AcDbArc
 50
352.1712090000072
 51
359.9983329999857
  0
ARC
  5
2B0
330
2
100
AcDbEntity
  8
GAIKEI
  6
Continuous
100
AcDbCircle
 10
36.53304425120769
 20
27.73672631107144
 30
0.0
 40
1.49975415
100
AcDbArc
 50
0.0016670000142817
 51
7.828790999992842
  0
LINE
  5
2B1
330
2
100
AcDbEntity
  8
GAIKEI
  6
Continuous
100
AcDbLine
 10
38.03279840120774
 20
27.28221281107142
 30
0.0
 11
38.03279840120774
 21
27.73676996107145
 31
0.0
  0
LINE
  5
2B2
330
2
100
AcDbEntity
  8
GAIKEI
  6
Continuous
 62
     1
100
AcDbLine
 10
37.44314435120771
 20
30.43440966107141
 30
0.0
 11
35.9192653012077
 21
30.76095516096405
 31
0.0
  0
LINE
  5
2B3
330
2
100
AcDbEntity
  8
GAIKEI
  6
Continuous
100
AcDbLine
 10
35.9343867012077
 20
24.26126786107142
 30
0.0
 11
37.44314435120771
 21
24.58457311107145
 31
0.0
  0
LINE
  5
2B4
330
2
100
AcDbEntity
  8
GAIKEI
  6
Continuous
100
AcDbLine
 10
37.71640285120771
 20
24.87896536107144
 30
0.0
 11
38.01881995120766
 21
27.0779698110714
 31
0.0
  0
LINE
  5
2B5
330
2
100
AcDbEntity
  8
GAIKEI
  6
Continuous
 62
     1
100
AcDbLine
 10
38.01881995120766
 20
27.94101291107143
 30
0.0
 11
37.71640285120771
 21
30.14001736107144
 31
0.0
  0
ARC
  5
2B6
330
2
100
AcDbEntity
  8
GAIKEI
  6
Continuous
 62
     1
100
AcDbCircle
 10
37.20926530120767
 20
8.709333361071458
 30
0.0
 40
0.9
100
AcDbArc
 50
0.0
 51
15.88084999999635
  0
ARC
  5
2B7
330
2
100
AcDbEntity
  8
GAIKEI
  6
Continuous
 62
     1
100
AcDbCircle
 10
37.20926530120767
 20
8.709333361071458
 30
0.0
 40
0.9
100
AcDbArc
 50
344.1191500000036
 51
0.0
  0
ARC
  5
2B8
330
2
100
AcDbEntity
  8
GAIKEI
  6
Continuous
 62
     1
100
AcDbCircle
 10
37.94987655120769
 20
8.498632261071406
 30
0.0
 40
0.13
100
AcDbArc
 50
343.1044909999914
 51
344.1191500000036
  0
ARC
  5
2B9
330
2
100
AcDbEntity
  8
GAIKEI
  6
Continuous
 62
     1
100
AcDbCircle
 10
37.94987655120769
 20
8.920034411071469
 30
0.0
 40
0.13
100
AcDbArc
 50
15.88084999999635
 51
16.89550900000867
  0
ARC
  5
2BA
330
2
100
AcDbEntity
  8
GAIKEI
  6
Continuous
 62
     1
100
AcDbCircle
 10
37.83176530120773
 20
9.209628261071429
 30
0.0
 40
0.35
100
AcDbArc
 50
0.0
 51
16.25702799999795
  0
ARC
  5
2BB
330
2
100
AcDbEntity
  8
GAIKEI
  6
Continuous
 62
     1
100
AcDbCircle
 10
37.83176530120773
 20
9.209628261071429
 30
0.0
 40
0.35
100
AcDbArc
 50
343.742972000002
 51
0.0
  0
ARC
  5
2BC
330
2
100
AcDbEntity
  8
GAIKEI
  6
Continuous
 62
     1
100
AcDbCircle
 10
38.11976995120767
 20
9.125644211071403
 30
0.0
 40
0.05
100
AcDbArc
 50
275.0000010000026
 51
343.742972000002
  0
ARC
  5
2BD
330
2
100
AcDbEntity
  8
GAIKEI
  6
Continuous
 62
     1
100
AcDbCircle
 10
38.11976995120767
 20
9.293612311071456
 30
0.0
 40
0.05
100
AcDbArc
 50
16.25702799999795
 51
84.99999899999744
  0
LINE
  5
2BE
330
2
100
AcDbEntity
  8
GAIKEI
  6
Continuous
 62
     1
100
AcDbLine
 10
38.16777075120774
 20
9.307609611071427
 30
0.0
 11
38.16777075120774
 21
9.111646911071431
 31
0.0
  0
LINE
  5
2BF
330
2
100
AcDbEntity
  8
GAIKEI
  6
Continuous
 62
     1
100
AcDbLine
 10
38.08176530120773
 20
9.34462826107142
 30
0.0
 11
38.07426530120768
 21
9.34462826107142
 31
0.0
  0
LINE
  5
2C0
330
2
100
AcDbEntity
  8
GAIKEI
  6
Continuous
 62
     1
100
AcDbLine
 10
38.07426530120768
 20
9.074628261071438
 30
0.0
 11
38.08176530120773
 21
9.074628261071438
 31
0.0
  0
LINE
  5
2C1
330
2
100
AcDbEntity
  8
GAIKEI
  6
Continuous
 62
     1
100
AcDbLine
 10
38.12412775120771
 20
9.343422011071425
 30
0.0
 11
38.08176530120773
 21
9.347128261071418
 31
0.0
  0
LINE
  5
2C2
330
2
100
AcDbEntity
  8
GAIKEI
  6
Continuous
 62
     1
100
AcDbLine
 10
38.08176530120773
 20
9.072128261071441
 30
0.0
 11
38.12412775120771
 21
9.075834511071434
 31
0.0
  0
LINE
  5
2C3
330
2
100
AcDbEntity
  8
GAIKEI
  6
Continuous
 62
     1
100
AcDbLine
 10
38.08176530120773
 20
9.347128261071418
 30
0.0
 11
38.08176530120773
 21
9.072128261071441
 31
0.0
  0
LINE
  5
2C4
330
2
100
AcDbEntity
  8
GAIKEI
  6
Continuous
 62
     1
100
AcDbLine
 10
38.12412775120771
 20
9.343422011071425
 30
0.0
 11
38.12412775120771
 21
9.075834511071434
 31
0.0
  0
ARC
  5
2C5
330
2
100
AcDbEntity
  8
GAIKEI
  6
Continuous
 62
     1
100
AcDbCircle
 10
35.58426530120767
 20
16.70962826107143
 30
0.0
 40
0.45
100
AcDbArc
 50
0.0
 51
16.60155000000317
  0
ARC
  5
2C6
330
2
100
AcDbEntity
  8
GAIKEI
  6
Continuous
 62
     1
100
AcDbCircle
 10
35.58426530120767
 20
16.70962826107143
 30
0.0
 40
0.45
100
AcDbArc
 50
343.3984499999969
 51
0.0
  0
ARC
  5
2C7
330
2
100
AcDbEntity
  8
GAIKEI
  6
Continuous
 62
     1
100
AcDbCircle
 10
35.95321650120769
 20
16.59962826107141
 30
0.0
 40
0.065
100
AcDbArc
 50
270.0
 51
343.3984499999969
  0
ARC
  5
2C8
330
2
100
AcDbEntity
  8
GAIKEI
  6
Continuous
 62
     1
100
AcDbCircle
 10
35.95321650120769
 20
16.81962826107144
 30
0.0
 40
0.065
100
AcDbArc
 50
16.60155000000317
 51
90.0
  0
LINE
  5
2C9
330
2
100
AcDbEntity
  8
GAIKEI
  6
Continuous
 62
     1
100
AcDbLine
 10
35.9192653012077
 20
16.53462826107142
 30
0.0
 11
35.95321650120769
 21
16.53462826107142
 31
0.0
  0
LINE
  5
2CA
330
2
100
AcDbEntity
  8
GAIKEI
  6
Continuous
 62
     1
100
AcDbLine
 10
35.95321650120769
 20
16.88462826107144
 30
0.0
 11
35.9192653012077
 21
16.88462826107144
 31
0.0
  0
LINE
  5
2CB
330
2
100
AcDbEntity
  8
GAIKEI
  6
Continuous
 62
     1
100
AcDbLine
 10
35.95321650120769
 20
16.53462826107142
 30
0.0
 11
35.95321650120769
 21
16.88462826107144
 31
0.0
  0
LINE
  5
2CC
330
2
100
AcDbEntity
  8
GAIKEI
  6
Continuous
 62
     1
100
AcDbLine
 10
36.01550700120771
 20
16.58105681107145
 30
0.0
 11
36.01550700120771
 21
16.83819971107141
 31
0.0
  0
ARC
  5
2CD
330
2
100
AcDbEntity
  8
GAIKEI
  6
Continuous
 62
     1
100
AcDbCircle
 10
35.58426530120767
 20
3.749628261071393
 30
0.0
 40
0.45
100
AcDbArc
 50
0.0
 51
16.60155000000317
  0
ARC
  5
2CE
330
2
100
AcDbEntity
  8
GAIKEI
  6
Continuous
 62
     1
100
AcDbCircle
 10
35.58426530120767
 20
3.749628261071393
 30
0.0
 40
0.45
100
AcDbArc
 50
343.3984499999969
 51
0.0
  0
ARC
  5
2CF
330
2
100
AcDbEntity
  8
GAIKEI
  6
Continuous
 62
     1
100
AcDbCircle
 10
35.95321650120769
 20
3.639628261071436
 30
0.0
 40
0.065
100
AcDbArc
 50
270.0
 51
343.3984499999969
  0
ARC
  5
2D0
330
2
100
AcDbEntity
  8
GAIKEI
  6
Continuous
 62
     1
100
AcDbCircle
 10
35.95321650120769
 20
3.859628261071406
 30
0.0
 40
0.065
100
AcDbArc
 50
16.60155000000317
 51
90.0
  0
LINE
  5
2D1
330
2
100
AcDbEntity
  8
GAIKEI
  6
Continuous
 62
     1
100
AcDbLine
 10
35.9192653012077
 20
3.574628261071438
 30
0.0
 11
35.95321650120769
 21
3.574628261071438
 31
0.0
  0
LINE
  5
2D2
330
2
100
AcDbEntity
  8
GAIKEI
  6
Continuous
 62
     1
100
AcDbLine
 10
35.95321650120769
 20
3.924628261071461
 30
0.0
 11
35.9192653012077
 21
3.924628261071461
 31
0.0
  0
LINE
  5
2D3
330
2
100
AcDbEntity
  8
GAIKEI
  6
Continuous
 62
     1
100
AcDbLine
 10
35.95321650120769
 20
3.574628261071438
 30
0.0
 11
35.95321650120769
 21
3.924628261071461
 31
0.0
  0
LINE
  5
2D4
330
2
100
AcDbEntity
  8
GAIKEI
  6
Continuous
 62
     1
100
AcDbLine
 10
36.01550700120771
 20
3.621056811071412
 30
0.0
 11
36.01550700120771
 21
3.878199711071431
 31
0.0
  0
LINE
  5
2D5
330
2
100
AcDbEntity
  8
GAIKEI
  6
Continuous
 62
     1
100
AcDbLine
 10
35.9192653012077
 20
2.134628261071441
 30
0.0
 11
35.95426530120767
 21
2.134628261071441
 31
0.0
  0
ARC
  5
2D6
330
2
100
AcDbEntity
  8
GAIKEI
  6
Continuous
 62
     1
100
AcDbCircle
 10
35.63426530120774
 20
2.134628261071441
 30
0.0
 40
0.45
100
AcDbArc
 50
0.0
 51
16.60155000000317
  0
ARC
  5
2D7
330
2
100
AcDbEntity
  8
GAIKEI
  6
Continuous
 62
     1
100
AcDbCircle
 10
35.63426530120774
 20
2.134628261071441
 30
0.0
 40
0.45
100
AcDbArc
 50
343.3984499999969
 51
0.0
  0
ARC
  5
2D8
330
2
100
AcDbEntity
  8
GAIKEI
  6
Continuous
 62
     1
100
AcDbCircle
 10
36.00321650120771
 20
2.024628261071427
 30
0.0
 40
0.065
100
AcDbArc
 50
270.0
 51
343.3984499999969
  0
ARC
  5
2D9
330
2
100
AcDbEntity
  8
GAIKEI
  6
Continuous
 62
     1
100
AcDbCircle
 10
36.00321650120771
 20
2.244628261071397
 30
0.0
 40
0.065
100
AcDbArc
 50
16.60155000000317
 51
90.0
  0
LINE
  5
2DA
330
2
100
AcDbEntity
  8
GAIKEI
  6
Continuous
 62
     1
100
AcDbLine
 10
35.95426530120767
 20
2.229628261071411
 30
0.0
 11
35.9202556512077
 21
2.229628261071411
 31
0.0
  0
LINE
  5
2DB
330
2
100
AcDbEntity
  8
GAIKEI
  6
Continuous
 62
     1
100
AcDbLine
 10
36.06550700120772
 20
2.006056811071402
 30
0.0
 11
36.06550700120772
 21
2.263199711071422
 31
0.0
  0
LINE
  5
2DC
330
2
100
AcDbEntity
  8
GAIKEI
  6
Continuous
 62
     1
100
AcDbLine
 10
35.95426530120767
 20
1.959628261071429
 30
0.0
 11
36.00321650120771
 21
1.959628261071429
 31
0.0
  0
LINE
  5
2DD
330
2
100
AcDbEntity
  8
GAIKEI
  6
Continuous
 62
     1
100
AcDbLine
 10
36.00321650120771
 20
2.309628261071452
 30
0.0
 11
35.95426530120767
 21
2.309628261071452
 31
0.0
  0
LINE
  5
2DE
330
2
100
AcDbEntity
  8
GAIKEI
  6
Continuous
 62
     1
100
AcDbLine
 10
35.95426530120767
 20
2.134628261071441
 30
0.0
 11
35.95426530120767
 21
2.309628261071452
 31
0.0
  0
LINE
  5
2DF
330
2
100
AcDbEntity
  8
GAIKEI
  6
Continuous
 62
     1
100
AcDbLine
 10
35.95426530120767
 20
1.959628261071429
 30
0.0
 11
35.95426530120767
 21
2.134628261071441
 31
0.0
  0
LINE
  5
2E0
330
2
100
AcDbEntity
  8
GAIKEI
  6
Continuous
 62
     1
100
AcDbLine
 10
36.00321650120771
 20
1.959628261071429
 30
0.0
 11
36.00321650120771
 21
2.309628261071452
 31
0.0
  0
ARC
  5
2E1
330
2
100
AcDbEntity
  8
GAIKEI
  6
Continuous
 62
     1
100
AcDbCircle
 10
35.59176530120772
 20
1.909628261071418
 30
0.0
 40
0.35
100
AcDbArc
 50
0.0
 51
16.25702799999795
  0
ARC
  5
2E2
330
2
100
AcDbEntity
  8
GAIKEI
  6
Continuous
 62
     1
100
AcDbCircle
 10
35.59176530120772
 20
1.909628261071418
 30
0.0
 40
0.35
100
AcDbArc
 50
343.742972000002
 51
0.0
  0
ARC
  5
2E3
330
2
100
AcDbEntity
  8
GAIKEI
  6
Continuous
 62
     1
100
AcDbCircle
 10
35.87976995120766
 20
1.825644211071448
 30
0.0
 40
0.05
100
AcDbArc
 50
322.1768080000052
 51
343.742972000002
  0
ARC
  5
2E4
330
2
100
AcDbEntity
  8
GAIKEI
  6
Continuous
 62
     1
100
AcDbCircle
 10
35.87976995120766
 20
1.993612311071444
 30
0.0
 40
0.05
100
AcDbArc
 50
16.25702799999795
 51
37.82319199999473
  0
ARC
  5
2E5
330
2
100
AcDbEntity
  8
GAIKEI
  6
Continuous
 62
     1
100
AcDbCircle
 10
35.6053752512077
 20
2.284628261071418
 30
0.0
 40
0.38639005
100
AcDbArc
 50
3.709712000011262
 51
32.35843299999584
  0
LINE
  5
2E6
330
2
100
AcDbEntity
  8
GAIKEI
  6
Continuous
 62
     1
100
AcDbLine
 10
35.93176530120769
 20
2.491429761071458
 30
0.0
 11
35.9192653012077
 21
2.49597936107142
 31
0.0
  0
LINE
  5
2E7
330
2
100
AcDbEntity
  8
GAIKEI
  6
Continuous
 62
     1
100
AcDbLine
 10
35.93176530120769
 20
2.491429761071458
 30
0.0
 11
35.93176530120769
 21
2.229628261071411
 31
0.0
  0
LINE
  5
2E8
330
2
100
AcDbEntity
  8
GAIKEI
  6
Continuous
 62
     1
100
AcDbLine
 10
35.9817653012077
 20
1.679628261071457
 30
0.0
 11
35.95176530120773
 21
1.649628261071427
 31
0.0
  0
LINE
  5
2E9
330
2
100
AcDbEntity
  8
GAIKEI
  6
Continuous
 62
     1
100
AcDbLine
 10
35.9817653012077
 20
1.959628261071429
 30
0.0
 11
35.9817653012077
 21
1.679628261071457
 31
0.0
  0
LINE
  5
2EA
330
2
100
AcDbEntity
  8
GAIKEI
  6
Continuous
 62
     1
100
AcDbLine
 10
35.95176530120773
 20
1.649628261071427
 30
0.0
 11
35.9217653012077
 21
1.619628261071397
 31
0.0
  0
LINE
  5
2EB
330
2
100
AcDbEntity
  8
GAIKEI
  6
Continuous
 62
     1
100
AcDbLine
 10
35.9217653012077
 20
1.619628261071397
 30
0.0
 11
35.9192653012077
 21
1.619628261071397
 31
0.0
  0
ARC
  5
2EC
330
2
100
AcDbEntity
  8
GAIKEI
  6
Continuous
 62
     1
100
AcDbCircle
 10
37.7992653012077
 20
8.4042746110714
 30
0.0
 40
0.3
100
AcDbArc
 50
336.4435359999883
 51
0.0
  0
ARC
  5
2ED
330
2
100
AcDbEntity
  8
GAIKEI
  6
Continuous
 62
     1
100
AcDbCircle
 10
38.0492653012077
 20
8.559628261071452
 30
0.0
 40
0.05
100
AcDbArc
 50
0.0
 51
11.2074969999849
  0
ARC
  5
2EE
330
2
100
AcDbEntity
  8
GAIKEI
  6
Continuous
 62
     1
100
AcDbCircle
 10
38.0492653012077
 20
8.559628261071452
 30
0.0
 40
0.04862125
100
AcDbArc
 50
0.0
 51
6.222905000009303
  0
ARC
  5
2EF
330
2
100
AcDbEntity
  8
GAIKEI
  6
Continuous
 62
     1
100
AcDbCircle
 10
37.7992653012077
 20
8.4042746110714
 30
0.0
 40
0.29862125
100
AcDbArc
 50
337.0578669999897
 51
0.0
  0
LINE
  5
2F0
330
2
100
AcDbEntity
  8
GAIKEI
  6
Continuous
 62
     1
100
AcDbLine
 10
38.09788655120769
 20
8.559628261071452
 30
0.0
 11
38.09926530120771
 21
8.559628261071452
 31
0.0
  0
LINE
  5
2F1
330
2
100
AcDbEntity
  8
GAIKEI
  6
Continuous
 62
     1
100
AcDbLine
 10
38.09788655120769
 20
8.4042746110714
 30
0.0
 11
38.09926530120771
 21
8.4042746110714
 31
0.0
  0
LINE
  5
2F2
330
2
100
AcDbEntity
  8
GAIKEI
  6
Continuous
 62
     1
100
AcDbLine
 10
38.09926530120771
 20
8.559628261071452
 30
0.0
 11
38.09926530120771
 21
8.4042746110714
 31
0.0
  0
LINE
  5
2F3
330
2
100
AcDbEntity
  8
GAIKEI
  6
Continuous
 62
     1
100
AcDbLine
 10
38.09788655120769
 20
8.559628261071452
 30
0.0
 11
38.09788655120769
 21
8.4042746110714
 31
0.0
  0
LINE
  5
2F4
330
2
100
AcDbEntity
  8
GAIKEI
  6
Continuous
 62
     1
100
AcDbLine
 10
38.09672705120772
 20
8.559628261071452
 30
0.0
 11
38.09788655120769
 21
8.559628261071452
 31
0.0
  0
LINE
  5
2F5
330
2
100
AcDbEntity
  8
GAIKEI
  6
Continuous
 62
     1
100
AcDbLine
 10
38.07426530120768
 20
8.4042746110714
 30
0.0
 11
38.09788655120769
 21
8.4042746110714
 31
0.0
  0
ELLIPSE
  5
2F6
330
2
100
AcDbEntity
  8
GAIKEI
  6
Continuous
 62
     1
100
AcDbEllipse
 10
34.25322370120773
 20
1.619172911071416
 30
0.0
 11
-0.3002704522363481
 21
0.4353255228029943
 31
0.0
210
0.0
220
0.0
230
1.0
 40
0.7084260000000002
 41
0.7388798675136195
 42
1.221777013352586
  0
ELLIPSE
  5
2F7
330
2
100
AcDbEntity
  8
GAIKEI
  6
Continuous
 62
     1
100
AcDbEllipse
 10
34.24929850120771
 20
1.619172911071416
 30
0.0
 11
-0.2690783224982649
 21
0.3978566820730179
 31
0.0
210
0.0
220
0.0
230
1.0
 40
0.6240160000000001
 41
0.7448982300329864
 42
1.307714707561869
  0
ELLIPSE
  5
2F8
330
2
100
AcDbEntity
  8
GAIKEI
  6
Continuous
 62
     1
100
AcDbEllipse
 10
32.00053795120766
 20
1.662128261071416
 30
0.0
 11
3.816227337545457
 21
0.0
 31
0.0
210
0.0
220
0.0
230
1.0
 40
0.052408
 41
6.281815779309091
 42
6.283185307179586
  0
ARC
  5
2F9
330
2
100
AcDbEntity
  8
GAIKEI
  6
Continuous
100
AcDbCircle
 10
33.71926530120771
 20
1.85900616107142
 30
0.0
 40
0.05
100
AcDbArc
 50
180.0
 51
212.0859750000037
  0
ARC
  5
2FA
330
2
100
AcDbEntity
  8
GAIKEI
  6
Continuous
100
AcDbCircle
 10
33.88710815120771
 20
1.638360211071415
 30
0.0
 40
0.075
100
AcDbArc
 50
212.0859750000037
 51
266.9999999999943
  0
ARC
  5
2FB
330
2
100
AcDbEntity
  8
GAIKEI
  6
Continuous
100
AcDbCircle
 10
33.88710815120771
 20
31.78089631107145
 30
0.0
 40
0.075
100
AcDbArc
 50
93.00000000000578
 51
147.9140249999963
  0
ARC
  5
2FC
330
2
100
AcDbEntity
  8
GAIKEI
  6
Continuous
100
AcDbCircle
 10
35.86926530120769
 20
1.512128261071438
 30
0.0
 40
0.05
100
AcDbArc
 50
270.0
 51
0.0
  0
ARC
  5
2FD
330
2
100
AcDbEntity
  8
GAIKEI
  6
Continuous
100
AcDbCircle
 10
35.86926530120769
 20
31.90712826107142
 30
0.0
 40
0.05
100
AcDbArc
 50
0.0
 51
90.0
  0
LINE
  5
2FE
330
2
100
AcDbEntity
  8
GAIKEI
  6
Continuous
100
AcDbLine
 10
33.6692653012077
 20
1.85900616107142
 30
0.0
 11
33.6692653012077
 21
31.57462828319263
 31
0.0
  0
LINE
  5
2FF
330
2
100
AcDbEntity
  8
GAIKEI
  6
Continuous
100
AcDbLine
 10
33.88454890120772
 20
31.85586511107147
 30
0.0
 11
33.88318295120769
 21
31.8557935110714
 31
0.0
  0
LINE
  5
300
330
2
100
AcDbEntity
  8
GAIKEI
  6
Continuous
100
AcDbLine
 10
33.8235642512077
 20
1.598520911071432
 30
0.0
 11
33.67690270120772
 21
1.832446561071435
 31
0.0
  0
LINE
  5
301
330
2
100
AcDbEntity
  8
GAIKEI
  6
Continuous
 62
     1
100
AcDbLine
 10
33.6692653012077
 20
2.043824938950137
 30
0.0
 11
33.8235642512077
 21
1.797717611071448
 31
0.0
  0
LINE
  5
302
330
2
100
AcDbEntity
  8
GAIKEI
  6
Continuous
 62
     1
100
AcDbLine
 10
33.8235642512077
 20
31.62153891107141
 30
0.0
 11
33.66926530120764
 21
31.37543158319261
 31
0.0
  0
LINE
  5
303
330
2
100
AcDbEntity
  8
GAIKEI
  6
Continuous
100
AcDbLine
 10
33.6692653012077
 20
31.57462828319263
 30
0.0
 11
33.8235642512077
 21
31.82073561107143
 31
0.0
  0
LINE
  5
304
330
2
100
AcDbEntity
  8
GAIKEI
  6
Continuous
 62
     1
100
AcDbLine
 10
33.8235642512077
 20
1.797717611071448
 30
0.0
 11
33.8235642512077
 21
31.82073564807382
 31
0.0
  0
LINE
  5
305
330
2
100
AcDbEntity
  8
GAIKEI
  6
Continuous
100
AcDbLine
 10
33.88454890120772
 20
31.85586511107147
 30
0.0
 11
35.81676170120772
 21
31.95712806107144
 31
0.0
  0
LINE
  5
306
330
2
100
AcDbEntity
  8
GAIKEI
  6
Continuous
100
AcDbLine
 10
35.81676170120772
 20
1.462128461071415
 30
0.0
 11
33.88318295448949
 21
1.563462995964812
 31
0.0
  0
LINE
  5
307
330
2
100
AcDbEntity
  8
GAIKEI
  6
Continuous
100
AcDbLine
 10
35.9192653012077
 20
31.75712826107144
 30
0.0
 11
35.9192653012077
 21
1.662128261071416
 31
0.0
  0
LINE
  5
308
330
2
100
AcDbEntity
  8
GAIKEI
  6
Continuous
 62
     1
100
AcDbLine
 10
35.9192653012077
 20
1.662128261071416
 30
0.0
 11
35.86926530120769
 21
1.662128261071416
 31
0.0
  0
LINE
  5
309
330
2
100
AcDbEntity
  8
GAIKEI
  6
Continuous
100
AcDbLine
 10
35.9192653012077
 20
1.662128261071416
 30
0.0
 11
35.9192653012077
 21
1.512128261071438
 31
0.0
  0
LINE
  5
30A
330
2
100
AcDbEntity
  8
GAIKEI
  6
Continuous
100
AcDbLine
 10
35.86926530120769
 20
1.462128261071427
 30
0.0
 11
35.81676530120774
 21
1.462128261071427
 31
0.0
  0
LINE
  5
30B
330
2
100
AcDbEntity
  8
GAIKEI
  6
Continuous
 62
     1
100
AcDbLine
 10
35.86926530120769
 20
1.462128261071427
 30
0.0
 11
35.86926530120769
 21
1.662128261071416
 31
0.0
  0
LINE
  5
30C
330
2
100
AcDbEntity
  8
GAIKEI
  6
Continuous
100
AcDbLine
 10
35.81676170120772
 20
1.462128461071415
 30
0.0
 11
35.81676530120774
 21
1.462128261071427
 31
0.0
  0
LINE
  5
30D
330
2
100
AcDbEntity
  8
GAIKEI
  6
Continuous
 62
     1
100
AcDbLine
 10
35.81676170120772
 20
31.75740216107147
 30
0.0
 11
33.8235642512077
 21
31.65294309042486
 31
0.0
  0
LINE
  5
30E
330
2
100
AcDbEntity
  8
GAIKEI
  6
Continuous
 62
     1
100
AcDbLine
 10
33.88318295120769
 20
31.85579352600604
 30
0.0
 11
33.88318295120769
 21
1.797717611071448
 31
0.0
  0
LINE
  5
30F
330
2
100
AcDbEntity
  8
GAIKEI
  6
Continuous
 62
     1
100
AcDbLine
 10
33.88454890120772
 20
1.763117361071408
 30
0.0
 11
35.81676170120772
 21
1.661854361071391
 31
0.0
  0
LINE
  5
310
330
2
100
AcDbEntity
  8
GAIKEI
  6
Continuous
100
AcDbLine
 10
35.9192653012077
 20
31.75712826107144
 30
0.0
 11
35.86926530120769
 21
31.75712826107144
 31
0.0
  0
LINE
  5
311
330
2
100
AcDbEntity
  8
GAIKEI
  6
Continuous
100
AcDbLine
 10
35.9192653012077
 20
31.90712826107142
 30
0.0
 11
35.9192653012077
 21
31.75712826107144
 31
0.0
  0
LINE
  5
312
330
2
100
AcDbEntity
  8
GAIKEI
  6
Continuous
 62
     1
100
AcDbLine
 10
35.81676530120774
 20
1.662128261071416
 30
0.0
 11
35.86926530120769
 21
1.662128261071416
 31
0.0
  0
LINE
  5
313
330
2
100
AcDbEntity
  8
GAIKEI
  6
Continuous
 62
     1
100
AcDbLine
 10
35.81676530120774
 20
31.95712826107149
 30
0.0
 11
35.81676530120768
 21
1.46212826107137
 31
0.0
  0
LINE
  5
314
330
2
100
AcDbEntity
  8
GAIKEI
  6
Continuous
100
AcDbLine
 10
35.86926530120769
 20
31.75712826107144
 30
0.0
 11
35.81676530120774
 21
31.75712826107144
 31
0.0
  0
LINE
  5
315
330
2
100
AcDbEntity
  8
GAIKEI
  6
Continuous
100
AcDbLine
 10
35.81676530120774
 20
31.95712826107143
 30
0.0
 11
35.86926530120769
 21
31.95712826107143
 31
0.0
  0
LINE
  5
316
330
2
100
AcDbEntity
  8
GAIKEI
  6
Continuous
100
AcDbLine
 10
35.81676530120774
 20
31.95712826107143
 30
0.0
 11
35.81676170120772
 21
31.95712806107144
 31
0.0
  0
SPLINE
  5
317
330
2
100
AcDbEntity
  8
GAIKEI
  6
Continuous
100
AcDbSpline
210
0.0
220
0.0
230
1.0
 70
     8
 71
     3
 72
     9
 73
     5
 74
     3
 42
0.0000000001
 43
0.0000000001
 44
0.000001
 12
0.0096603815788914
 22
0.999953337425177
 32
0.0
 13
0.0070116454444045
 23
0.9999754181119463
 33
0.0
 40
0.0
 40
0.0
 40
0.0
 40
0.0
 40
0.0011335976856411
 40
0.0020528754816207
 40
0.0020528754816207
 40
0.0020528754816207
 40
0.0020528754816207
 10
38.07426040706366
 20
7.15493459315985
 30
0.0
 10
38.07426405739239
 20
7.155312441422893
 30
0.0
 10
38.07427016748557
 20
7.155996706262612
 30
0.0
 10
38.07427537132304
 20
7.156680978469182
 30
0.0
 10
38.07427751987302
 20
7.156987396868657
 30
0.0
 11
38.07426040706366
 21
7.15493459315985
 31
0.0
 11
38.07427052903916
 21
7.156068145666154
 31
0.0
 11
38.07427751987302
 21
7.156987396868657
 31
0.0
  0
SPLINE
  5
318
330
2
100
AcDbEntity
  8
GAIKEI
  6
Continuous
100
AcDbSpline
210
0.0
220
0.0
230
1.0
 70
     8
 71
     3
 72
    12
 73
     8
 74
     6
 42
0.0000000001
 43
0.0000000001
 44
0.000001
 12
0.3177217516879759
 22
0.9481839950686387
 32
0.0
 13
0.0004762146561107
 23
0.9999998866097941
 33
0.0
 40
0.0
 40
0.0
 40
0.0
 40
0.0
 40
0.0036401223069825
 40
0.0064206716563187
 40
0.0091006847410956
 40
0.0120770673697925
 40
0.0147756210223913
 40
0.0147756210223913
 40
0.0147756210223913
 40
0.0147756210223913
 10
38.07183231839929
 20
27.79130570518907
 30
0.0
 10
38.07221783374453
 20
27.79245620709293
 30
0.0
 10
38.07282255464335
 20
27.79451181547841
 30
0.0
 10
38.073483414262
 20
27.79747407820997
 30
0.0
 10
38.07393410168149
 20
27.80025173052616
 30
0.0
 10
38.07420419519522
 20
27.80302570247034
 30
0.0
 10
38.07426487285034
 20
27.80491779459811
 30
0.0
 10
38.07426530121393
 20
27.80581731238033
 30
0.0
 11
38.07183231839929
 21
27.79130570518907
 31
0.0
 11
38.07285858081389
 21
27.79479766994325
 31
0.0
 11
38.0734641729386
 21
27.79751130999443
 31
0.0
 11
38.07389225727451
 21
27.80015706167814
 31
0.0
 11
38.07418026127044
 21
27.80311961274811
 31
0.0
 11
38.07426530121393
 21
27.80581731238033
 31
0.0
  0
SPLINE
  5
319
330
2
100
AcDbEntity
  8
GAIKEI
  6
Continuous
 62
     1
100
AcDbSpline
210
0.0
220
0.0
230
1.0
 70
     8
 71
     3
 72
     9
 73
     5
 74
     3
 42
0.0000000001
 43
0.0000000001
 44
0.000001
 12
0.9015622545408136
 22
-0.4326493975348692
 32
0.0
 13
0.9998994763974653
 23
0.0141787552371506
 33
0.0
 40
0.0
 40
0.0
 40
0.0
 40
0.0
 40
0.0021070375643497
 40
0.0037977076619627
 40
0.0037977076619627
 40
0.0037977076619627
 40
0.0037977076619627
 10
36.8390555681317
 20
2.673603241123089
 30
0.0
 10
36.83968877664401
 20
2.673299371612131
 30
0.0
 10
36.8409048590178
 20
2.672891428591071
 30
0.0
 10
36.84217565190372
 20
2.672781967609978
 30
0.0
 10
36.84273915195217
 20
2.672789958142459
 30
0.0
 11
36.8390555681317
 21
2.673603241123089
 31
0.0
 11
36.84105495901019
 21
2.672937585193778
 31
0.0
 11
36.84273915195217
 21
2.672789958142459
 31
0.0
  0
ARC
  5
31A
330
2
100
AcDbEntity
  8
GAIKEI
  6
Continuous
 62
     1
100
AcDbCircle
 10
-38.21901270990986
 20
31.40525036107147
 30
0.0
 40
0.155
100
AcDbArc
 50
90.0
 51
180.0
  0
ARC
  5
31B
330
2
100
AcDbEntity
  8
GAIKEI
  6
Continuous
 62
     1
100
AcDbCircle
 10
11.67223149009015
 20
31.40525036107147
 30
0.0
 40
0.155
100
AcDbArc
 50
0.0
 51
89.99999999999998
  0
ARC
  5
31C
330
2
100
AcDbEntity
  8
GAIKEI
  6
Continuous
 62
     1
100
AcDbCircle
 10
11.6722314900901
 20
2.014006161071392
 30
0.0
 40
0.155
100
AcDbArc
 50
270.0
 51
360.0
  0
ARC
  5
31D
330
2
100
AcDbEntity
  8
GAIKEI
  6
Continuous
 62
     1
100
AcDbCircle
 10
-38.21901270990986
 20
2.014006161071392
 30
0.0
 40
0.155
100
AcDbArc
 50
179.9999999999999
 51
270.0
  0
ARC
  5
31E
330
2
100
AcDbEntity
  8
GAIKEI
  6
Continuous
 62
     1
100
AcDbCircle
 10
-37.17358130990988
 20
3.059372111071411
 30
0.0
 40
0.0985
100
AcDbArc
 50
180.0
 51
270.0
  0
ARC
  5
31F
330
2
100
AcDbEntity
  8
GAIKEI
  6
Continuous
 62
     1
100
AcDbCircle
 10
-37.17358130990988
 20
30.36112826107143
 30
0.0
 40
0.0985
100
AcDbArc
 50
90.0
 51
180.0
  0
ARC
  5
320
330
2
100
AcDbEntity
  8
GAIKEI
  6
Continuous
 62
     1
100
AcDbCircle
 10
10.62810939009011
 20
30.36112826107137
 30
0.0
 40
0.0985
100
AcDbArc
 50
0.0
 51
90.0
  0
ARC
  5
321
330
2
100
AcDbEntity
  8
GAIKEI
  6
Continuous
 62
     1
100
AcDbCircle
 10
10.62810939009011
 20
3.059372111071411
 30
0.0
 40
0.0985
100
AcDbArc
 50
270.0
 51
0.0
  0
ARC
  5
322
330
2
100
AcDbEntity
  8
GAIKEI
  6
Continuous
 62
     1
100
AcDbCircle
 10
-36.23739060990988
 20
3.840628261071401
 30
0.0
 40
0.0985
100
AcDbArc
 50
180.0
 51
270.0
  0
ARC
  5
323
330
2
100
AcDbEntity
  8
GAIKEI
  6
Continuous
 62
     1
100
AcDbCircle
 10
-36.23739060990988
 20
29.57862826107146
 30
0.0
 40
0.0985
100
AcDbArc
 50
90.0
 51
180.0
  0
ARC
  5
324
330
2
100
AcDbEntity
  8
GAIKEI
  6
Continuous
 62
     1
100
AcDbCircle
 10
9.690609390090116
 20
29.57862826107146
 30
0.0
 40
0.0985
100
AcDbArc
 50
0.0
 51
90.0
  0
ARC
  5
325
330
2
100
AcDbEntity
  8
GAIKEI
  6
Continuous
 62
     1
100
AcDbCircle
 10
9.690609390090116
 20
3.840628261071401
 30
0.0
 40
0.0985
100
AcDbArc
 50
270.0
 51
0.0
  0
ARC
  5
326
330
2
100
AcDbEntity
  8
GAIKEI
  6
Continuous
 62
     1
100
AcDbCircle
 10
-38.44649795990989
 20
1.78652091107142
 30
0.0
 40
0.188
100
AcDbArc
 50
180.0
 51
270.0
  0
ARC
  5
327
330
2
100
AcDbEntity
  8
GAIKEI
  6
Continuous
 62
     1
100
AcDbCircle
 10
-38.44649795990995
 20
31.63273561107144
 30
0.0
 40
0.188
100
AcDbArc
 50
90.0
 51
180.0
  0
ARC
  5
328
330
2
100
AcDbEntity
  8
GAIKEI
  6
Continuous
 62
     1
100
AcDbCircle
 10
11.89971674009012
 20
31.63273561107144
 30
0.0
 40
0.188
100
AcDbArc
 50
0.0
 51
90.0
  0
ARC
  5
329
330
2
100
AcDbEntity
  8
GAIKEI
  6
Continuous
 62
     1
100
AcDbCircle
 10
11.89971674009007
 20
1.78652091107142
 30
0.0
 40
0.188
100
AcDbArc
 50
270.0
 51
0.0
  0
ARC
  5
32A
330
2
100
AcDbEntity
  8
GAIKEI
 62
     1
100
AcDbCircle
 10
38.39015278464018
 20
5.343521218865362
 30
0.0
 40
1.720167845632516
100
AcDbArc
 50
145.6090498134464
 51
174.3909501865545
  0
ARC
  5
32B
330
2
100
AcDbEntity
  8
GAIKEI
100
AcDbCircle
 10
38.29525896021232
 20
6.468073737846907
 30
0.0
 40
0.4959956609617684
100
AcDbArc
 50
141.0786585612989
 51
180.1627894387007
  0
ARC
  5
32C
330
2
100
AcDbEntity
  8
GAIKEI
 62
     1
100
AcDbCircle
 10
37.05039177741355
 20
6.809039954789113
 30
0.0
 40
0.6767993243531389
100
AcDbArc
 50
320.5571672063336
 51
2.909351495515366
  0
LINE
  5
32D
330
2
100
AcDbEntity
  8
GAIKEI
  6
Continuous
 62
     1
100
AcDbLine
 10
37.64402595120771
 20
27.14054592674268
 30
0.0
 11
37.36091650120773
 21
25.0819358767427
 31
0.0
  0
ARC
  5
32E
330
2
100
AcDbEntity
  8
GAIKEI
  6
Continuous
 62
     1
100
AcDbCircle
 10
37.21231520120773
 20
25.10237222674266
 30
0.0
 40
0.15
100
AcDbArc
 50
272.0000000000036
 51
352.1695429999987
  0
LINE
  5
32F
330
2
100
AcDbEntity
  8
GAIKEI
  6
Continuous
 62
     1
100
AcDbLine
 10
37.59251080120771
 20
27.14763052674266
 30
0.0
 11
37.31576325120773
 21
25.13528037674269
 31
0.0
  0
ARC
  5
330
330
2
100
AcDbEntity
  8
GAIKEI
  6
Continuous
 62
     1
100
AcDbCircle
 10
36.60926530120764
 20
27.28285092674264
 30
0.0
 40
0.9925
100
AcDbArc
 50
352.1695429999987
 51
0.0
  0
ARC
  5
331
330
2
100
AcDbEntity
  8
GAIKEI
  6
Continuous
 62
     1
100
AcDbCircle
 10
36.60926530120764
 20
27.28285092674264
 30
0.0
 40
1.044499999999999
100
AcDbArc
 50
352.1695429999987
 51
0.0
  0
LINE
  5
332
330
2
100
AcDbEntity
  8
GAIKEI
  6
Continuous
 62
     1
100
AcDbLine
 10
36.16450025120776
 20
24.91561157674266
 30
0.0
 11
37.21755285120764
 21
24.95238497674268
 31
0.0
  0
ARC
  5
333
330
2
100
AcDbEntity
  8
GAIKEI
  6
Continuous
 62
     1
100
AcDbCircle
 10
36.15926535120775
 20
25.06552017674267
 30
0.0
 40
0.15
100
AcDbArc
 50
180.0
 51
272.0000000000036
  0
LINE
  5
334
330
2
100
AcDbEntity
  8
GAIKEI
  6
Continuous
 62
     1
100
AcDbLine
 10
36.10601030120768
 20
24.95681902674267
 30
0.0
 11
36.46375620120773
 21
24.96931182674269
 31
0.0
  0
LINE
  5
335
330
2
100
AcDbEntity
  8
GAIKEI
  6
Continuous
 62
     1
100
AcDbLine
 10
36.46375620120773
 20
24.96931182674269
 30
0.0
 11
36.46344720120771
 21
24.97816142674265
 31
0.0
  0
LINE
  5
336
330
2
100
AcDbEntity
  8
GAIKEI
  6
Continuous
 62
     1
100
AcDbLine
 10
36.45594550120768
 20
24.98078907674267
 30
0.0
 11
37.17239685120774
 21
25.00580807674271
 31
0.0
  0
ARC
  5
337
330
2
100
AcDbEntity
  8
GAIKEI
  6
Continuous
 62
     1
100
AcDbCircle
 10
37.16716190120769
 20
25.15571672674264
 30
0.0
 40
0.15
100
AcDbArc
 50
272.0000000000036
 51
352.1695429999987
  0
ARC
  5
338
330
2
100
AcDbEntity
  8
GAIKEI
  6
Continuous
 62
     1
100
AcDbCircle
 10
36.10426535120769
 20
25.00678857674268
 30
0.0
 40
0.05
100
AcDbArc
 50
180.0
 51
272.0000000000036
  0
LINE
  5
339
330
2
100
AcDbEntity
  8
GAIKEI
  6
Continuous
 62
     1
100
AcDbLine
 10
36.05426535120773
 20
25.00678857674268
 30
0.0
 11
36.05426535120773
 21
30.01359267674275
 31
0.0
  0
LINE
  5
33A
330
2
100
AcDbEntity
  8
GAIKEI
  6
Continuous
 62
     1
100
AcDbLine
 10
37.64402595120771
 20
27.87983532674264
 30
0.0
 11
37.36091650120773
 21
29.93844537674272
 31
0.0
  0
ARC
  5
33B
330
2
100
AcDbEntity
  8
GAIKEI
  6
Continuous
 62
     1
100
AcDbCircle
 10
37.21231520120773
 20
29.91800907674269
 30
0.0
 40
0.15
100
AcDbArc
 50
7.83045700000137
 51
87.9999999999964
  0
LINE
  5
33C
330
2
100
AcDbEntity
  8
GAIKEI
  6
Continuous
 62
     1
100
AcDbLine
 10
37.59251080120771
 20
27.87275072674265
 30
0.0
 11
37.31576325120773
 21
29.88510087674274
 31
0.0
  0
LINE
  5
33D
330
2
100
AcDbEntity
  8
GAIKEI
  6
Continuous
 62
     1
100
AcDbLine
 10
37.65376535120765
 20
27.28285092674264
 30
0.0
 11
37.65376535120765
 21
27.73753037674271
 31
0.0
  0
LINE
  5
33E
330
2
100
AcDbEntity
  8
GAIKEI
  6
Continuous
 62
     1
100
AcDbLine
 10
37.60176535120775
 20
27.28285092674264
 30
0.0
 11
37.60176535120775
 21
27.73753037674271
 31
0.0
  0
ARC
  5
33F
330
2
100
AcDbEntity
  8
GAIKEI
  6
Continuous
 62
     1
100
AcDbCircle
 10
36.60926530120764
 20
27.73753037674271
 30
0.0
 40
0.9925
100
AcDbArc
 50
0.0
 51
7.83045700000137
  0
ARC
  5
340
330
2
100
AcDbEntity
  8
GAIKEI
  6
Continuous
 62
     1
100
AcDbCircle
 10
36.60926530120764
 20
27.73753037674271
 30
0.0
 40
1.044499999999999
100
AcDbArc
 50
0.0
 51
7.83045700000137
  0
LINE
  5
341
330
2
100
AcDbEntity
  8
GAIKEI
  6
Continuous
 62
     1
100
AcDbLine
 10
36.00926535120766
 20
25.06552017674267
 30
0.0
 11
36.00926535120766
 21
29.95486107674265
 31
0.0
  0
LINE
  5
342
330
2
100
AcDbEntity
  8
GAIKEI
  6
Continuous
 62
     1
100
AcDbLine
 10
36.16450025120776
 20
30.10476972674269
 30
0.0
 11
37.21755285120764
 21
30.06799632674268
 31
0.0
  0
ARC
  5
343
330
2
100
AcDbEntity
  8
GAIKEI
  6
Continuous
 62
     1
100
AcDbCircle
 10
36.15926535120775
 20
29.95486107674265
 30
0.0
 40
0.15
100
AcDbArc
 50
87.9999999999964
 51
180.0
  0
LINE
  5
344
330
2
100
AcDbEntity
  8
GAIKEI
  6
Continuous
 62
     1
100
AcDbLine
 10
36.10601030120768
 20
30.06356222674265
 30
0.0
 11
36.46375620120773
 21
30.05106947674267
 31
0.0
  0
LINE
  5
345
330
2
100
AcDbEntity
  8
GAIKEI
  6
Continuous
 62
     1
100
AcDbLine
 10
36.46375620120773
 20
30.05106947674267
 30
0.0
 11
37.17239685120774
 21
30.01457317674272
 31
0.0
  0
ARC
  5
346
330
2
100
AcDbEntity
  8
GAIKEI
  6
Continuous
 62
     1
100
AcDbCircle
 10
37.16716190120769
 20
29.86466457674271
 30
0.0
 40
0.15
100
AcDbArc
 50
7.83045700000137
 51
87.9999999999964
  0
ARC
  5
347
330
2
100
AcDbEntity
  8
GAIKEI
  6
Continuous
 62
     1
100
AcDbCircle
 10
36.10426535120769
 20
30.01359267674275
 30
0.0
 40
0.05
100
AcDbArc
 50
87.9999999999964
 51
180.0
  0
ARC
  5
348
330
2
100
AcDbEntity
  8
GAIKEI
  6
Continuous
 62
     1
100
AcDbCircle
 10
38.22362780120761
 20
24.4613233465505
 30
0.0
 40
0.5
100
AcDbArc
 50
148.4349071797699
 51
180.0000000000024
  0
ARC
  5
349
330
2
100
AcDbEntity
  8
GAIKEI
100
AcDbCircle
 10
37.36989408530201
 20
24.92658196307463
 30
0.0
 40
0.3497651444952813
100
AcDbArc
 50
282.0887752694151
 51
352.1755251408762
  0
ARC
  5
34A
330
2
100
AcDbEntity
  8
GAIKEI
 62
     1
100
AcDbCircle
 10
37.18427186933707
 20
25.23846062871974
 30
0.0
 40
0.7933618211180807
100
AcDbArc
 50
325.5909931086476
 51
3.625618073732946
  0
ARC
  5
34B
330
2
100
AcDbEntity
  8
GAIKEI
 62
     1
100
AcDbCircle
 10
37.36989386217942
 20
30.09240057042871
 30
0.0
 40
0.3497654045621397
100
AcDbArc
 50
7.824500824864304
 51
77.91119993180166
  0
DIMENSION
  5
34C
330
2
100
AcDbEntity
  8
SUNPO
100
AcDbDimension
  2
*D6
 10
12.22410939009012
 20
39.96309490417758
 30
0.0
 11
-13.27339060990988
 21
41.71309490417757
 31
0.0
 70
    33
  1
1020
 71
     5
 42
50.995
  3
STANDARD
100
AcDbAlignedDimension
 13
-38.77089060990988
 23
31.96309490417758
 33
0.0
 14
12.22410939009012
 24
31.96309490417758
 34
0.0
1001
ACAD
1000
DSTYLE
1002
{
1070
    40
1040
1.0
1070
   140
1040
2.5
1070
   147
1040
0.5
1070
   172
1070
     1
1070
   279
1070
     0
1070
   288
1070
     0
1002
}
  0
DIMENSION
  5
359
330
2
100
AcDbEntity
  8
SUNPO
100
AcDbDimension
  2
*D5
 10
20.22410939009012
 20
31.95962826107143
 30
0.0
 11
18.47410939009011
 21
16.70962826107146
 31
0.0
 70
    33
  1
610
 71
     5
 42
30.49999999999994
  3
STANDARD
100
AcDbAlignedDimension
 13
12.22410939009012
 23
1.459628261071486
 33
0.0
 14
12.22410939009012
 24
31.95962826107143
 34
0.0
1001
ACAD
1000
DSTYLE
1002
{
1070
    40
1040
1.0
1070
   140
1040
2.5
1070
   147
1040
0.5
1070
   172
1070
     1
1070
   279
1070
     0
1070
   288
1070
     0
1002
}
  0
TEXT
  5
366
330
2
100
AcDbEntity
  8
MOJI1
100
AcDbText
 10
-57.46312990716709
 20
-39.94703373433509
 30
0.0
 40
3.0
  1
階調数
100
AcDbText
  0
TEXT
  5
367
330
2
100
AcDbEntity
  8
MOJI1
100
AcDbText
 10
-57.46312990716709
 20
-34.94703373433509
 30
0.0
 40
3.0
  1
コントラスト
100
AcDbText
  0
LINE
  5
368
330
2
100
AcDbEntity
  8
WAKU
 62
     1
100
AcDbLine
 10
-59.96312990716709
 20
-40.94703373433509
 30
0.0
 11
65.03687009283272
 21
-40.94703373433509
 31
0.0
  0
LINE
  5
36A
330
2
100
AcDbEntity
  8
WAKU
 62
     1
100
AcDbLine
 10
-59.96312990716709
 20
-35.94703373433509
 30
0.0
 11
65.03687009283272
 21
-35.94703373433509
 31
0.0
  0
TEXT
  5
36B
330
2
100
AcDbEntity
  8
MOJI1
100
AcDbText
 10
-57.46312990716709
 20
-14.94703373433509
 30
0.0
 40
3.0
  1
電  源
100
AcDbText
  0
TEXT
  5
36C
330
2
100
AcDbEntity
  8
MOJI1
100
AcDbText
 10
-57.46312990716709
 20
-19.94703373433509
 30
0.0
 40
3.0
  1
消費電力
100
AcDbText
  0
TEXT
  5
36D
330
2
100
AcDbEntity
  8
MOJI1
100
AcDbText
 10
-57.46312990716709
 20
-24.94703373433509
 30
0.0
 40
3.0
  1
画面サイズ
100
AcDbText
  0
TEXT
  5
36E
330
2
100
AcDbEntity
  8
MOJI1
100
AcDbText
 10
-18.46312990716709
 20
-19.94703373433509
 30
0.0
 40
3.0
  1
２５０Ｗ
100
AcDbText
  0
TEXT
  5
36F
330
2
100
AcDbEntity
  8
MOJI1
100
AcDbText
 10
-18.46312990716709
 20
-24.94703373433509
 30
0.0
 40
3.0
  1
４２型（１６：９）
100
AcDbText
  0
TEXT
  5
370
330
2
100
AcDbEntity
  8
MOJI1
100
AcDbText
 10
-18.46312990716709
 20
-14.94703373433509
 30
0.0
 40
3.0
  1
ＡＣ１００Ｖ±１０％　５０Ｈｚ／６０Ｈｚ
100
AcDbText
  0
TEXT
  5
371
330
2
100
AcDbEntity
  8
MOJI1
100
AcDbText
 10
-57.46312990716709
 20
-49.94703373433509
 30
0.0
 40
3.0
  1
接続端子
100
AcDbText
  0
TEXT
  5
372
330
2
100
AcDbEntity
  8
MOJI1
100
AcDbText
 10
-57.46312990716709
 20
-44.94703373433509
 30
0.0
 40
3.0
  1
音声最大出力
100
AcDbText
  0
TEXT
  5
373
330
2
100
AcDbEntity
  8
MOJI1
100
AcDbText
 10
-18.46312990716709
 20
-44.94703373433509
 30
0.0
 40
3.0
  1
１６Ｗ（８Ｗ＋８Ｗ）
100
AcDbText
  0
TEXT
  5
374
330
2
100
AcDbEntity
  8
MOJI1
100
AcDbText
 10
-18.46312990716709
 20
-29.94703373433509
 30
0.0
 40
3.0
  1
水平１０２４×垂直７６８　画素
100
AcDbText
  0
LINE
  5
375
330
2
100
AcDbEntity
  8
WAKU
 62
     4
100
AcDbLine
 10
-19.96312990716731
 20
-10.94703373433509
 30
0.0
 11
-19.96312990716731
 21
-55.94703373433509
 31
0.0
  0
TEXT
  5
376
330
2
100
AcDbEntity
  8
MOJI1
100
AcDbText
 10
-57.46312990716709
 20
-29.94703373433509
 30
0.0
 40
3.0
  1
画素数
100
AcDbText
  0
LINE
  5
377
330
2
100
AcDbEntity
  8
WAKU
 62
     4
100
AcDbLine
 10
65.03687009283272
 20
-10.94703373433509
 30
0.0
 11
65.03687009283272
 21
-55.94703373433509
 31
0.0
  0
LINE
  5
378
330
2
100
AcDbEntity
  8
WAKU
 62
     4
100
AcDbLine
 10
-59.96312990716731
 20
-10.94703373433509
 30
0.0
 11
-59.96312990716709
 21
-55.94703373433509
 31
0.0
  0
LINE
  5
379
330
2
100
AcDbEntity
  8
WAKU
 62
     4
100
AcDbLine
 10
65.03687009283272
 20
-55.94703373433509
 30
0.0
 11
-59.96312990716709
 21
-55.94703373433509
 31
0.0
  0
LINE
  5
37A
330
2
100
AcDbEntity
  8
WAKU
 62
     1
100
AcDbLine
 10
-59.96312990716709
 20
-50.94703373433509
 30
0.0
 11
65.03687009283272
 21
-50.94703373433509
 31
0.0
  0
LINE
  5
37B
330
2
100
AcDbEntity
  8
WAKU
 62
     1
100
AcDbLine
 10
-59.96312990716709
 20
-45.94703373433509
 30
0.0
 11
65.03687009283272
 21
-45.94703373433509
 31
0.0
  0
LINE
  5
37C
330
2
100
AcDbEntity
  8
WAKU
 62
     1
100
AcDbLine
 10
-59.96312990716709
 20
-25.94703373433509
 30
0.0
 11
65.03687009283272
 21
-25.94703373433509
 31
0.0
  0
LINE
  5
37D
330
2
100
AcDbEntity
  8
WAKU
 62
     1
100
AcDbLine
 10
-59.96312990716709
 20
-15.94703373433509
 30
0.0
 11
65.03687009283272
 21
-15.94703373433509
 31
0.0
  0
LINE
  5
37E
330
2
100
AcDbEntity
  8
WAKU
 62
     4
100
AcDbLine
 10
-59.96312990716709
 20
-10.94703373433509
 30
0.0
 11
65.03687009283272
 21
-10.94703373433509
 31
0.0
  0
LINE
  5
37F
330
2
100
AcDbEntity
  8
WAKU
 62
     1
100
AcDbLine
 10
-59.96312990716709
 20
-30.94703373433509
 30
0.0
 11
65.03687009283272
 21
-30.94703373433509
 31
0.0
  0
LINE
  5
380
330
2
100
AcDbEntity
  8
WAKU
 62
     1
100
AcDbLine
 10
-59.96312990716709
 20
-20.94703373433509
 30
0.0
 11
65.03687009283272
 21
-20.94703373433509
 31
0.0
  0
TEXT
  5
381
330
2
100
AcDbEntity
  8
MOJI1
100
AcDbText
 10
-18.46312990716709
 20
-39.94703373433509
 30
0.0
 40
3.0
  1
５１２０階調（相当）
100
AcDbText
  0
TEXT
  5
382
330
2
100
AcDbEntity
  8
MOJI1
100
AcDbText
 10
-18.46312990716709
 20
-34.94703373433509
 30
0.0
 40
3.0
  1
３００００：１
100
AcDbText
  0
TEXT
  5
383
330
2
100
AcDbEntity
  8
TOUROKU
100
AcDbText
 10
17.83682012576044
 20
47.05296626566496
 30
0.0
 40
2.0
  1
ＴＨ４２ＰＨ１２ＫＲ＋ＴＹＷＫ４２ＰＶ７
 72
     2
 11
65.03682012576041
 21
47.05296626566496
 31
0.0
100
AcDbText
  0
ENDSEC
  0
SECTION
  2
OBJECTS
  0
DICTIONARY
  5
7
330
0
100
AcDbDictionary
281
     1
  3
ACAD_COLOR
350
2D
  3
ACAD_GROUP
350
29
  3
ACAD_LAYOUT
350
B
  3
ACAD_MATERIAL
350
2C
  3
ACAD_MLINESTYLE
350
2A
  3
ACAD_PLOTSETTINGS
350
2B
  3
ACAD_PLOTSTYLENAME
350
6
  3
ACDBHEADERROUNDTRIPXREC
350
3CD
  3
AcDbVariableDictionary
350
3C8
  0
DICTIONARY
  5
11
330
10
100
AcDbDictionary
280
     1
281
     1
  3
ACAD_LAYERSTATES
360
12
  0
DICTIONARY
  5
2D
102
{ACAD_REACTORS
330
7
102
}
330
7
100
AcDbDictionary
281
     1
  0
DICTIONARY
  5
29
102
{ACAD_REACTORS
330
7
102
}
330
7
100
AcDbDictionary
281
     1
  0
DICTIONARY
  5
B
102
{ACAD_REACTORS
330
7
102
}
330
7
100
AcDbDictionary
281
     1
  3
Model
350
A
  3
レイアウト1
350
F
  0
DICTIONARY
  5
2C
102
{ACAD_REACTORS
330
7
102
}
330
7
100
AcDbDictionary
281
     1
  0
DICTIONARY
  5
2A
102
{ACAD_REACTORS
330
7
102
}
330
7
100
AcDbDictionary
281
     1
  3
Standard
350
2F
  0
DICTIONARY
  5
2B
102
{ACAD_REACTORS
330
7
102
}
330
7
100
AcDbDictionary
281
     1
  0
ACDBDICTIONARYWDFLT
  5
6
102
{ACAD_REACTORS
330
7
102
}
330
7
100
AcDbDictionary
281
     1
  3
Normal
350
5
100
AcDbDictionaryWithDefault
340
5
  0
DICTIONARY
  5
3CD
102
{ACAD_REACTORS
330
7
102
}
330
7
100
AcDbDictionary
281
     1
  3
COLORDICT
350
3CF
  3
MATERIALDICT
350
3CE
  0
DICTIONARY
  5
3C8
102
{ACAD_REACTORS
330
7
102
}
330
7
100
AcDbDictionary
281
     1
  3
DIMASSOC
350
3CA
  3
HIDETEXT
350
3C9
  3
PROJECTNAME
350
3CB
  0
DICTIONARY
  5
12
102
{ACAD_REACTORS
330
11
102
}
330
11
100
AcDbDictionary
281
     1
  0
LAYOUT
  5
A
102
{ACAD_XDICTIONARY
360
3D0
102
}
102
{ACAD_REACTORS
330
B
102
}
330
B
100
AcDbPlotSettings
  1

  2
Ａ４－縦3FRIM01.pc3
  4
A4
  6

 40
5.873749732971191
 41
5.873747825622558
 42
5.873748779296875
 43
5.873748779296875
 44
209.9733276367187
 45
296.9259948730469
 46
5.419999999999999
 47
0.0
 48
0.0
 49
0.0
140
0.0
141
0.0
142
1.0
143
1.382452020185948
 70
 11956
 72
     1
 73
     0
 74
     1
  7
tmsacad.ctb
 75
     0
147
0.7233524096304576
148
0.0183484674822694
149
0.0079333943659776
100
AcDbLayout
  1
Model
 70
     1
 71
     0
 10
0.0
 20
0.0
 11
12.0
 21
9.0
 12
0.0
 22
0.0
 32
0.0
 14
0.0
 24
0.0
 34
0.0
 15
0.0
 25
0.0
 35
0.0
146
0.0
 13
0.0
 23
0.0
 33
0.0
 16
1.0
 26
0.0
 36
0.0
 17
0.0
 27
1.0
 37
0.0
 76
     0
330
2
  0
LAYOUT
  5
F
102
{ACAD_XDICTIONARY
360
3D2
102
}
102
{ACAD_REACTORS
330
B
102
}
330
B
100
AcDbPlotSettings
  1

  2
None
  4

  6

 40
0.0
 41
0.0
 42
0.0
 43
0.0
 44
0.0
 45
0.0
 46
0.0
 47
0.0
 48
0.0
 49
0.0
140
0.0
141
0.0
142
1.0
143
1.0
 70
   688
 72
     0
 73
     0
 74
     5
  7
tmsacad.ctb
 75
    16
147
1.0
148
0.0
149
0.0
100
AcDbLayout
  1
レイアウト1
 70
     1
 71
     1
 10
0.0
 20
0.0
 11
12.0
 21
9.0
 12
0.0
 22
0.0
 32
0.0
 14
0.0
 24
0.0
 34
0.0
 15
0.0
 25
0.0
 35
0.0
146
0.0
 13
0.0
 23
0.0
 33
0.0
 16
1.0
 26
0.0
 36
0.0
 17
0.0
 27
1.0
 37
0.0
 76
     0
330
C
  0
MLINESTYLE
  5
2F
102
{ACAD_REACTORS
330
2A
102
}
330
2A
100
AcDbMlineStyle
  2
STANDARD
 70
     0
  3

 62
   256
 51
90.0
 52
90.0
 71
     2
 49
0.5
 62
   256
  6
BYLAYER
 49
-0.5
 62
   256
  6
BYLAYER
  0
ACDBPLACEHOLDER
  5
5
102
{ACAD_REACTORS
330
6
102
}
330
6
  0
XRECORD
  5
3CF
102
{ACAD_REACTORS
330
3CD
102
}
330
3CD
100
AcDbXrecord
280
     1
340
2D
  0
XRECORD
  5
3CE
102
{ACAD_REACTORS
330
3CD
102
}
330
3CD
100
AcDbXrecord
280
     1
340
2C
  0
DICTIONARYVAR
  5
3CA
102
{ACAD_REACTORS
330
3C8
102
}
330
3C8
100
DictionaryVariables
280
     0
  1
1
  0
DICTIONARYVAR
  5
3C9
102
{ACAD_REACTORS
330
3C8
102
}
330
3C8
100
DictionaryVariables
280
     0
  1
1
  0
DICTIONARYVAR
  5
3CB
102
{ACAD_REACTORS
330
3C8
102
}
330
3C8
100
DictionaryVariables
280
     0
  1

  0
DICTIONARY
  5
3D0
330
A
100
AcDbDictionary
280
     1
281
     1
  3
ACAD_XREC_ROUNDTRIP
360
3D1
  0
DICTIONARY
  5
3D2
330
F
100
AcDbDictionary
280
     1
281
     1
  3
ACAD_XREC_ROUNDTRIP
360
3D3
  0
XRECORD
  5
3D1
102
{ACAD_REACTORS
330
3D0
102
}
330
3D0
100
AcDbXrecord
280
     1
102
SHADEPLOT
 70
     0
102
SHADEPLOTRESLEVEL
 70
     2
102
SHADEPLOTCUSTOMDPI
 70
   300
  0
XRECORD
  5
3D3
102
{ACAD_REACTORS
330
3D2
102
}
330
3D2
100
AcDbXrecord
280
     1
102
SHADEPLOT
 70
     0
102
SHADEPLOTRESLEVEL
 70
     2
102
SHADEPLOTCUSTOMDPI
 70
   300
  0
ENDSEC
  0
EOF
