  0
SECTION
  2
HEADER
  9
$ACADVER
  1
AC1015
  9
$ACADMAINTVER
 70
    20
  9
$DWGCODEPAGE
  3
ANSI_932
  9
$INSBASE
 10
0.4999999440410648
 20
372.5008351249344
 30
0.0
  9
$EXTMIN
 10
-62.785948802235
 20
-56.6119988861168
 30
-0.0015258207003583
  9
$EXTMAX
 10
62.24762019031641
 20
56.41259806767641
 30
0.0000000349246037
  9
$LIMMIN
 10
0.0
 20
0.0
  9
$LIMMAX
 10
420.0
 20
297.0
  9
$ORTHOMODE
 70
     0
  9
$REGENMODE
 70
     0
  9
$FILLMODE
 70
     1
  9
$QTEXTMODE
 70
     0
  9
$MIRRTEXT
 70
     0
  9
$LTSCALE
 40
1.0
  9
$ATTMODE
 70
     1
  9
$TEXTSIZE
 40
2.5
  9
$TRACEWID
 40
1.0
  9
$TEXTSTYLE
  7
Standard
  9
$CLAYER
  8
SUNPO
  9
$CELTYPE
  6
ByLayer
  9
$CECOLOR
 62
   256
  9
$CELTSCALE
 40
1.0
  9
$DISPSILH
 70
     0
  9
$DIMSCALE
 40
1.0
  9
$DIMASZ
 40
2.0
  9
$DIMEXO
 40
2.0
  9
$DIMDLI
 40
8.0
  9
$DIMRND
 40
0.0
  9
$DIMDLE
 40
0.0
  9
$DIMEXE
 40
2.0
  9
$DIMTP
 40
0.0
  9
$DIMTM
 40
0.0
  9
$DIMTXT
 40
2.5
  9
$DIMCEN
 40
0.0
  9
$DIMTSZ
 40
0.0
  9
$DIMTOL
 70
     0
  9
$DIMLIM
 70
     0
  9
$DIMTIH
 70
     0
  9
$DIMTOH
 70
     0
  9
$DIMSE1
 70
     0
  9
$DIMSE2
 70
     0
  9
$DIMTAD
 70
     3
  9
$DIMZIN
 70
     0
  9
$DIMBLK
  1

  9
$DIMASO
 70
     1
  9
$DIMSHO
 70
     1
  9
$DIMPOST
  1

  9
$DIMAPOST
  1

  9
$DIMALT
 70
     0
  9
$DIMALTD
 70
     2
  9
$DIMALTF
 40
25.4
  9
$DIMLFAC
 40
1.0
  9
$DIMTOFL
 70
     1
  9
$DIMTVP
 40
0.0
  9
$DIMTIX
 70
     0
  9
$DIMSOXD
 70
     0
  9
$DIMSAH
 70
     1
  9
$DIMBLK1
  1
OPEN30
  9
$DIMBLK2
  1
OPEN30
  9
$DIMSTYLE
  2
STANDARD
  9
$DIMCLRD
 70
     0
  9
$DIMCLRE
 70
     0
  9
$DIMCLRT
 70
     0
  9
$DIMTFAC
 40
1.0
  9
$DIMGAP
 40
0.5
  9
$DIMJUST
 70
     0
  9
$DIMSD1
 70
     0
  9
$DIMSD2
 70
     0
  9
$DIMTOLJ
 70
     1
  9
$DIMTZIN
 70
     0
  9
$DIMALTZ
 70
     0
  9
$DIMALTTZ
 70
     0
  9
$DIMUPT
 70
     0
  9
$DIMDEC
 70
     4
  9
$DIMTDEC
 70
     4
  9
$DIMALTU
 70
     2
  9
$DIMALTTD
 70
     2
  9
$DIMTXSTY
  7
Standard
  9
$DIMAUNIT
 70
     0
  9
$DIMADEC
 70
     0
  9
$DIMALTRND
 40
0.0
  9
$DIMAZIN
 70
     0
  9
$DIMDSEP
 70
    46
  9
$DIMATFIT
 70
     3
  9
$DIMFRAC
 70
     0
  9
$DIMLDRBLK
  1
OPEN30
  9
$DIMLUNIT
 70
     2
  9
$DIMLWD
 70
    -2
  9
$DIMLWE
 70
    -2
  9
$DIMTMOVE
 70
     0
  9
$LUNITS
 70
     2
  9
$LUPREC
 70
     4
  9
$SKETCHINC
 40
1.0
  9
$FILLETRAD
 40
0.0
  9
$AUNITS
 70
     0
  9
$AUPREC
 70
     0
  9
$MENU
  1
.
  9
$ELEVATION
 40
0.0
  9
$PELEVATION
 40
0.0
  9
$THICKNESS
 40
0.0
  9
$LIMCHECK
 70
     0
  9
$CHAMFERA
 40
0.0
  9
$CHAMFERB
 40
0.0
  9
$CHAMFERC
 40
0.0
  9
$CHAMFERD
 40
0.0
  9
$SKPOLY
 70
     0
  9
$TDCREATE
 40
2454349.434269746
  9
$TDUCREATE
 40
2454349.059269746
  9
$TDUPDATE
 40
2455042.676899606
  9
$TDUUPDATE
 40
2455042.301899606
  9
$TDINDWG
 40
0.2974628125
  9
$TDUSRTIMER
 40
0.2974628125
  9
$USRTIMER
 70
     1
  9
$ANGBASE
 50
0.0
  9
$ANGDIR
 70
     0
  9
$PDMODE
 70
     0
  9
$PDSIZE
 40
0.0
  9
$PLINEWID
 40
0.0
  9
$SPLFRAME
 70
     0
  9
$SPLINETYPE
 70
     6
  9
$SPLINESEGS
 70
     8
  9
$HANDSEED
  5
1E4
  9
$SURFTAB1
 70
     6
  9
$SURFTAB2
 70
     6
  9
$SURFTYPE
 70
     6
  9
$SURFU
 70
     6
  9
$SURFV
 70
     6
  9
$UCSBASE
  2

  9
$UCSNAME
  2

  9
$UCSORG
 10
0.0
 20
0.0
 30
0.0
  9
$UCSXDIR
 10
1.0
 20
0.0
 30
0.0
  9
$UCSYDIR
 10
0.0
 20
1.0
 30
0.0
  9
$UCSORTHOREF
  2

  9
$UCSORTHOVIEW
 70
     0
  9
$UCSORGTOP
 10
0.0
 20
0.0
 30
0.0
  9
$UCSORGBOTTOM
 10
0.0
 20
0.0
 30
0.0
  9
$UCSORGLEFT
 10
0.0
 20
0.0
 30
0.0
  9
$UCSORGRIGHT
 10
0.0
 20
0.0
 30
0.0
  9
$UCSORGFRONT
 10
0.0
 20
0.0
 30
0.0
  9
$UCSORGBACK
 10
0.0
 20
0.0
 30
0.0
  9
$PUCSBASE
  2

  9
$PUCSNAME
  2

  9
$PUCSORG
 10
0.0
 20
0.0
 30
0.0
  9
$PUCSXDIR
 10
1.0
 20
0.0
 30
0.0
  9
$PUCSYDIR
 10
0.0
 20
1.0
 30
0.0
  9
$PUCSORTHOREF
  2

  9
$PUCSORTHOVIEW
 70
     0
  9
$PUCSORGTOP
 10
0.0
 20
0.0
 30
0.0
  9
$PUCSORGBOTTOM
 10
0.0
 20
0.0
 30
0.0
  9
$PUCSORGLEFT
 10
0.0
 20
0.0
 30
0.0
  9
$PUCSORGRIGHT
 10
0.0
 20
0.0
 30
0.0
  9
$PUCSORGFRONT
 10
0.0
 20
0.0
 30
0.0
  9
$PUCSORGBACK
 10
0.0
 20
0.0
 30
0.0
  9
$USERI1
 70
     0
  9
$USERI2
 70
     0
  9
$USERI3
 70
     0
  9
$USERI4
 70
     0
  9
$USERI5
 70
     0
  9
$USERR1
 40
0.0
  9
$USERR2
 40
0.0
  9
$USERR3
 40
0.0
  9
$USERR4
 40
0.0
  9
$USERR5
 40
0.0
  9
$WORLDVIEW
 70
     1
  9
$SHADEDGE
 70
     3
  9
$SHADEDIF
 70
    70
  9
$TILEMODE
 70
     1
  9
$MAXACTVP
 70
    64
  9
$PINSBASE
 10
0.0
 20
0.0
 30
0.0
  9
$PLIMCHECK
 70
     0
  9
$PEXTMIN
 10
0.0
 20
0.0
 30
0.0
  9
$PEXTMAX
 10
0.0
 20
0.0
 30
0.0
  9
$PLIMMIN
 10
0.0
 20
0.0
  9
$PLIMMAX
 10
12.0
 20
9.0
  9
$UNITMODE
 70
     0
  9
$VISRETAIN
 70
     1
  9
$PLINEGEN
 70
     0
  9
$PSLTSCALE
 70
     1
  9
$TREEDEPTH
 70
  3020
  9
$CMLSTYLE
  2
Standard
  9
$CMLJUST
 70
     0
  9
$CMLSCALE
 40
20.0
  9
$PROXYGRAPHICS
 70
     1
  9
$MEASUREMENT
 70
     1
  9
$CELWEIGHT
370
    -1
  9
$ENDCAPS
280
     0
  9
$JOINSTYLE
280
     0
  9
$LWDISPLAY
290
     0
  9
$INSUNITS
 70
     4
  9
$HYPERLINKBASE
  1

  9
$STYLESHEET
  1

  9
$XEDIT
290
     1
  9
$CEPSNTYPE
380
     0
  9
$PSTYLEMODE
290
     1
  9
$FINGERPRINTGUID
  2
{FDEAD578-A652-11D2-9A35-0060089B3A3F}
  9
$VERSIONGUID
  2
{63A1CA8A-19CA-4676-9D31-8FAE0BDD9B4B}
  9
$EXTNAMES
290
     1
  9
$PSVPSCALE
 40
0.0
  9
$OLESTARTUP
290
     0
  0
ENDSEC
  0
SECTION
  2
CLASSES
  0
CLASS
  1
ACDBDICTIONARYWDFLT
  2
AcDbDictionaryWithDefault
  3
ObjectDBX Classes
 90
        0
280
     0
281
     0
  0
CLASS
  1
ACDBPLACEHOLDER
  2
AcDbPlaceHolder
  3
ObjectDBX Classes
 90
        0
280
     0
281
     0
  0
CLASS
  1
LAYOUT
  2
AcDbLayout
  3
ObjectDBX Classes
 90
        0
280
     0
281
     0
  0
CLASS
  1
DICTIONARYVAR
  2
AcDbDictionaryVar
  3
ObjectDBX Classes
 90
        0
280
     0
281
     0
  0
CLASS
  1
DIMASSOC
  2
AcDbDimAssoc
  3
"AcDbDimAssoc|Product Desc:     AcDim ARX App For Dimension|Company:          Autodesk, Inc.|WEB Address:      www.autodesk.com"
 90
    32768
280
     0
281
     0
  0
CLASS
  1
SORTENTSTABLE
  2
AcDbSortentsTable
  3
ObjectDBX Classes
 90
    32768
280
     0
281
     0
  0
ENDSEC
  0
SECTION
  2
TABLES
  0
TABLE
  2
VPORT
  5
1B
330
0
100
AcDbSymbolTable
 70
     3
  0
VPORT
  5
1DC
330
1B
100
AcDbSymbolTableRecord
100
AcDbViewportTableRecord
  2
*Active
 70
     0
 10
0.0
 20
0.0
 11
1.0
 21
1.0
 12
-0.2691643059592934
 22
-0.0997004092201905
 13
0.0
 23
0.0
 14
10.0
 24
10.0
 15
10.0
 25
10.0
 16
0.0
 26
0.0
 36
1.0
 17
0.0
 27
0.0
 37
0.0
 40
113.8906858193395
 41
1.39386189258312
 42
50.0
 43
0.0
 44
0.0
 50
0.0
 51
0.0
 71
     0
 72
  1000
 73
     1
 74
     2
 75
     0
 76
     0
 77
     0
 78
     0
281
     0
 65
     1
110
0.0
120
0.0
130
0.0
111
1.0
121
0.0
131
0.0
112
0.0
122
1.0
132
0.0
 79
     0
146
0.0
  0
ENDTAB
  0
TABLE
  2
LTYPE
  5
16
330
0
100
AcDbSymbolTable
 70
     1
  0
LTYPE
  5
17
330
16
100
AcDbSymbolTableRecord
100
AcDbLinetypeTableRecord
  2
ByBlock
 70
     0
  3

 72
    65
 73
     0
 40
0.0
  0
LTYPE
  5
18
330
16
100
AcDbSymbolTableRecord
100
AcDbLinetypeTableRecord
  2
ByLayer
 70
     0
  3

 72
    65
 73
     0
 40
0.0
  0
LTYPE
  5
8
330
16
100
AcDbSymbolTableRecord
100
AcDbLinetypeTableRecord
  2
Continuous
 70
     0
  3
Solid line
 72
    65
 73
     0
 40
0.0
  0
ENDTAB
  0
TABLE
  2
LAYER
  5
10
102
{ACAD_XDICTIONARY
360
11
102
}
330
0
100
AcDbSymbolTable
 70
     7
  0
LAYER
  5
4
330
10
100
AcDbSymbolTableRecord
100
AcDbLayerTableRecord
  2
0
 70
     0
 62
     7
  6
Continuous
370
    -3
390
5
  0
LAYER
  5
38
330
10
100
AcDbSymbolTableRecord
100
AcDbLayerTableRecord
  2
WAKU
 70
     0
 62
     4
  6
Continuous
370
    -3
390
5
  0
LAYER
  5
31
330
10
100
AcDbSymbolTableRecord
100
AcDbLayerTableRecord
  2
MOJI1
 70
     0
 62
     2
  6
Continuous
370
    -3
390
5
  0
LAYER
  5
33
330
10
100
AcDbSymbolTableRecord
100
AcDbLayerTableRecord
  2
TOUROKU
 70
     0
 62
     1
  6
Continuous
370
    -3
390
5
  0
LAYER
  5
7E
330
10
100
AcDbSymbolTableRecord
100
AcDbLayerTableRecord
  2
GAIKEI
 70
     0
 62
     7
  6
Continuous
370
    -3
390
5
  0
LAYER
  5
5F
330
10
100
AcDbSymbolTableRecord
100
AcDbLayerTableRecord
  2
Defpoints
 70
     0
 62
     7
  6
Continuous
290
     0
370
    -3
390
5
  0
LAYER
  5
2E
330
10
100
AcDbSymbolTableRecord
100
AcDbLayerTableRecord
  2
SUNPO
 70
     0
 62
     3
  6
Continuous
370
    -3
390
5
  0
ENDTAB
  0
TABLE
  2
STYLE
  5
13
330
0
100
AcDbSymbolTable
 70
     1
  0
STYLE
  5
14
330
13
100
AcDbSymbolTableRecord
100
AcDbTextStyleTableRecord
  2
Standard
 70
     0
 40
0.0
 41
1.0
 50
0.0
 71
     0
 42
2.5
  3
MONOTXT.shx
  4
BIGFONT.shx
  0
ENDTAB
  0
TABLE
  2
VIEW
  5
19
330
0
100
AcDbSymbolTable
 70
     0
  0
ENDTAB
  0
TABLE
  2
UCS
  5
1A
330
0
100
AcDbSymbolTable
 70
     0
  0
ENDTAB
  0
TABLE
  2
APPID
  5
1D
330
0
100
AcDbSymbolTable
 70
     1
  0
APPID
  5
1E
330
1D
100
AcDbSymbolTableRecord
100
AcDbRegAppTableRecord
  2
ACAD
 70
     0
  0
ENDTAB
  0
TABLE
  2
DIMSTYLE
  5
1F
330
0
100
AcDbSymbolTable
 70
     2
100
AcDbDimStyleTable
 71
     2
340
20
340
27
  0
DIMSTYLE
105
27
330
1F
100
AcDbSymbolTableRecord
100
AcDbDimStyleTableRecord
  2
ISO-25
 70
     0
 41
2.5
 42
0.625
 43
3.75
 44
1.25
 73
     0
 74
     0
 77
     1
 78
     8
140
2.5
141
2.5
143
0.03937007874016
147
0.625
171
     3
172
     1
271
     2
272
     2
274
     3
278
    44
283
     0
284
     8
340
14
  0
DIMSTYLE
105
20
102
{ACAD_REACTORS
330
70
330
63
330
53
102
}
330
1F
100
AcDbSymbolTableRecord
100
AcDbDimStyleTableRecord
  2
STANDARD
 70
     0
 40
0.0
 41
2.0
 42
2.0
 43
8.0
 44
2.0
 73
     0
 74
     0
 77
     3
140
3.0
141
0.0
173
     1
279
     2
288
     1
340
14
341
21
343
21
344
21
  0
ENDTAB
  0
TABLE
  2
BLOCK_RECORD
  5
1
330
0
100
AcDbSymbolTable
 70
     7
  0
BLOCK_RECORD
  5
2
330
1
100
AcDbSymbolTableRecord
100
AcDbBlockTableRecord
  2
*Model_Space
340
A
  0
BLOCK_RECORD
  5
C
330
1
100
AcDbSymbolTableRecord
100
AcDbBlockTableRecord
  2
*Paper_Space
340
F
  0
BLOCK_RECORD
  5
21
330
1
100
AcDbSymbolTableRecord
100
AcDbBlockTableRecord
  2
_OPEN30
340
0
102
{BLKREFS
331
69
331
6A
331
76
331
77
331
5B
331
5C
331
1B6
331
1B7
331
1C2
331
1C3
331
1D0
331
1D1
102
}
  0
BLOCK_RECORD
  5
71
330
1
100
AcDbSymbolTableRecord
100
AcDbBlockTableRecord
  2
*D1
340
0
  0
BLOCK_RECORD
  5
64
330
1
100
AcDbSymbolTableRecord
100
AcDbBlockTableRecord
  2
*D2
340
0
  0
BLOCK_RECORD
  5
54
330
1
100
AcDbSymbolTableRecord
100
AcDbBlockTableRecord
  2
*D3
340
0
  0
BLOCK_RECORD
  5
1B2
330
1
100
AcDbSymbolTableRecord
100
AcDbBlockTableRecord
  2
*D4
340
0
  0
BLOCK_RECORD
  5
1BE
330
1
100
AcDbSymbolTableRecord
100
AcDbBlockTableRecord
  2
*D5
340
0
  0
BLOCK_RECORD
  5
1CA
330
1
100
AcDbSymbolTableRecord
100
AcDbBlockTableRecord
  2
*D6
340
0
  0
ENDTAB
  0
ENDSEC
  0
SECTION
  2
BLOCKS
  0
BLOCK
  5
3
330
2
100
AcDbEntity
  8
0
100
AcDbBlockBegin
  2
*Model_Space
 70
     0
 10
0.0
 20
0.0
 30
0.0
  3
*Model_Space
  1

  0
ENDBLK
  5
9
330
2
100
AcDbEntity
  8
0
100
AcDbBlockEnd
  0
BLOCK
  5
D
330
C
100
AcDbEntity
 67
     1
  8
0
100
AcDbBlockBegin
  2
*Paper_Space
 70
     0
 10
0.0
 20
0.0
 30
0.0
  3
*Paper_Space
  1

  0
ENDBLK
  5
E
330
C
100
AcDbEntity
 67
     1
  8
0
100
AcDbBlockEnd
  0
BLOCK
  5
22
330
21
100
AcDbEntity
  8
0
100
AcDbBlockBegin
  2
_OPEN30
 70
     0
 10
0.0
 20
0.0
 30
0.0
  3
_OPEN30
  1

  0
LINE
  5
23
330
21
100
AcDbEntity
  8
0
  6
ByBlock
 62
     0
100
AcDbLine
 10
-1.0
 20
0.26794919
 30
0.0
 11
0.0
 21
0.0
 31
0.0
  0
LINE
  5
24
330
21
100
AcDbEntity
  8
0
  6
ByBlock
 62
     0
100
AcDbLine
 10
0.0
 20
0.0
 30
0.0
 11
-1.0
 21
-0.26794919
 31
0.0
  0
LINE
  5
25
330
21
100
AcDbEntity
  8
0
  6
ByBlock
 62
     0
100
AcDbLine
 10
0.0
 20
0.0
 30
0.0
 11
-1.0
 21
0.0
 31
0.0
  0
ENDBLK
  5
26
330
21
100
AcDbEntity
  8
0
100
AcDbBlockEnd
  0
BLOCK
  5
72
330
71
100
AcDbEntity
  8
0
100
AcDbBlockBegin
  2
*D1
 70
     1
 10
0.0
 20
0.0
 30
0.0
  3
*D1
  1

  0
LINE
  5
73
330
71
100
AcDbEntity
  8
SUNPO
 62
     0
370
    -2
100
AcDbLine
 10
21.05228104502316
 20
347.4109637634472
 30
0.0
 11
21.05228104502316
 21
355.4109637634472
 31
0.0
  0
LINE
  5
74
330
71
100
AcDbEntity
  8
SUNPO
 62
     0
370
    -2
100
AcDbLine
 10
72.04728104502319
 20
347.4109637634472
 30
0.0
 11
72.04728104502319
 21
355.4109637634472
 31
0.0
  0
LINE
  5
75
330
71
100
AcDbEntity
  8
SUNPO
 62
     0
370
    -2
100
AcDbLine
 10
23.05228104502317
 20
353.4109637634472
 30
0.0
 11
70.04728104502318
 21
353.4109637634472
 31
0.0
  0
INSERT
  5
76
330
71
100
AcDbEntity
  8
SUNPO
 62
     0
370
    -2
100
AcDbBlockReference
  2
_OPEN30
 10
21.05228104502316
 20
353.4109637634472
 30
0.0
 41
2.0
 42
2.0
 43
2.0
 50
180.0
  0
INSERT
  5
77
330
71
100
AcDbEntity
  8
SUNPO
 62
     0
370
    -2
100
AcDbBlockReference
  2
_OPEN30
 10
72.04728104502319
 20
353.4109637634472
 30
0.0
 41
2.0
 42
2.0
 43
2.0
  0
MTEXT
  5
78
330
71
100
AcDbEntity
  8
SUNPO
 62
     0
100
AcDbMText
 10
46.54978104502317
 20
355.1609637634472
 30
0.0
 40
2.5
 41
0.0
 71
     5
 72
     1
  1
\A1;1020
 73
     1
 44
1.0
1001
ACAD
1000
MTEXTBEGIN
1070
    73
1070
     1
1070
    44
1040
1.0
1070
    74
1070
     0
1000
MTEXTEND
  0
POINT
  5
79
330
71
100
AcDbEntity
  8
Defpoints
 62
     0
100
AcDbPoint
 10
21.05228104502316
 20
345.4109637634472
 30
0.0
  0
POINT
  5
7A
330
71
100
AcDbEntity
  8
Defpoints
 62
     0
100
AcDbPoint
 10
72.04728104502319
 20
345.4109637634472
 30
0.0
  0
POINT
  5
7B
330
71
100
AcDbEntity
  8
Defpoints
 62
     0
100
AcDbPoint
 10
72.04728104502319
 20
353.4109637634472
 30
0.0
  0
ENDBLK
  5
7C
330
71
100
AcDbEntity
  8
0
100
AcDbBlockEnd
  0
BLOCK
  5
65
330
64
100
AcDbEntity
  8
0
100
AcDbBlockBegin
  2
*D2
 70
     1
 10
0.0
 20
0.0
 30
0.0
  3
*D2
  1

  0
LINE
  5
66
330
64
100
AcDbEntity
  8
SUNPO
 62
     0
370
    -2
100
AcDbLine
 10
74.04728104502318
 20
314.9074971203412
 30
0.0
 11
82.04728104502319
 21
314.9074971203412
 31
0.0
  0
LINE
  5
67
330
64
100
AcDbEntity
  8
SUNPO
 62
     0
370
    -2
100
AcDbLine
 10
74.04728104502318
 20
345.4074971203411
 30
0.0
 11
82.04728104502319
 21
345.4074971203411
 31
0.0
  0
LINE
  5
68
330
64
100
AcDbEntity
  8
SUNPO
 62
     0
370
    -2
100
AcDbLine
 10
80.04728104502317
 20
316.9074971203411
 30
0.0
 11
80.04728104502317
 21
343.4074971203411
 31
0.0
  0
INSERT
  5
69
330
64
100
AcDbEntity
  8
SUNPO
 62
     0
370
    -2
100
AcDbBlockReference
  2
_OPEN30
 10
80.04728104502317
 20
314.9074971203412
 30
0.0
 41
2.0
 42
2.0
 43
2.0
 50
270.0
  0
INSERT
  5
6A
330
64
100
AcDbEntity
  8
SUNPO
 62
     0
370
    -2
100
AcDbBlockReference
  2
_OPEN30
 10
80.04728104502317
 20
345.4074971203411
 30
0.0
 41
2.0
 42
2.0
 43
2.0
 50
90.0
  0
MTEXT
  5
6B
330
64
100
AcDbEntity
  8
SUNPO
 62
     0
100
AcDbMText
 10
78.29728104502312
 20
330.1574971203411
 30
0.0
 40
2.5
 41
0.0
 71
     5
 72
     1
  1
\A1;610
 11
0.0000000000000001
 21
1.0
 31
0.0
 73
     1
 44
1.0
1001
ACAD
1000
MTEXTBEGIN
1070
    73
1070
     1
1070
    44
1040
1.0
1070
    74
1070
     0
1000
MTEXTEND
  0
POINT
  5
6C
330
64
100
AcDbEntity
  8
Defpoints
 62
     0
100
AcDbPoint
 10
72.04728104502319
 20
314.9074971203412
 30
0.0
  0
POINT
  5
6D
330
64
100
AcDbEntity
  8
Defpoints
 62
     0
100
AcDbPoint
 10
72.04728104502319
 20
345.4074971203411
 30
0.0
  0
POINT
  5
6E
330
64
100
AcDbEntity
  8
Defpoints
 62
     0
100
AcDbPoint
 10
80.04728104502317
 20
345.4074971203411
 30
0.0
  0
ENDBLK
  5
6F
330
64
100
AcDbEntity
  8
0
100
AcDbBlockEnd
  0
BLOCK
  5
55
330
54
100
AcDbEntity
  8
0
100
AcDbBlockBegin
  2
*D3
 70
     1
 10
0.0
 20
0.0
 30
0.0
  3
*D3
  1

  0
LINE
  5
56
330
54
100
AcDbEntity
  8
SUNPO
 62
     0
370
    -2
100
AcDbLine
 10
100.556267206883
 20
347.4109637634472
 30
0.0
 11
100.556267206883
 21
355.4109637634473
 31
0.0
  0
LINE
  5
57
330
54
100
AcDbEntity
  8
SUNPO
 62
     0
370
    -2
100
AcDbLine
 10
105.006267206883
 20
347.4109637634473
 30
0.0
 11
105.006267206883
 21
355.4109637634473
 31
0.0
  0
LINE
  5
58
330
54
100
AcDbEntity
  8
SUNPO
 62
     0
370
    -2
100
AcDbLine
 10
98.55626720688304
 20
353.4109637634473
 30
0.0
 11
96.55626720688303
 21
353.4109637634473
 31
0.0
  0
LINE
  5
59
330
54
100
AcDbEntity
  8
SUNPO
 62
     0
370
    -2
100
AcDbLine
 10
107.006267206883
 20
353.4109637634473
 30
0.0
 11
114.1729338735497
 21
353.4109637634473
 31
0.0
  0
LINE
  5
5A
330
54
100
AcDbEntity
  8
SUNPO
 62
     0
370
    -2
100
AcDbLine
 10
100.556267206883
 20
353.4109637634473
 30
0.0
 11
105.006267206883
 21
353.4109637634473
 31
0.0
  0
INSERT
  5
5B
330
54
100
AcDbEntity
  8
SUNPO
 62
     0
370
    -2
100
AcDbBlockReference
  2
_OPEN30
 10
100.556267206883
 20
353.4109637634473
 30
0.0
 41
2.0
 42
2.0
 43
2.0
  0
INSERT
  5
5C
330
54
100
AcDbEntity
  8
SUNPO
 62
     0
370
    -2
100
AcDbBlockReference
  2
_OPEN30
 10
105.006267206883
 20
353.4109637634473
 30
0.0
 41
2.0
 42
2.0
 43
2.0
 50
180.0
  0
MTEXT
  5
5D
330
54
100
AcDbEntity
  8
SUNPO
 62
     0
100
AcDbMText
 10
111.5896005402164
 20
355.1609637634473
 30
0.0
 40
2.5
 41
0.0
 71
     5
 72
     1
  1
\A1;89
 73
     1
 44
1.0
1001
ACAD
1000
MTEXTBEGIN
1070
    73
1070
     1
1070
    44
1040
1.0
1070
    74
1070
     0
1000
MTEXTEND
  0
POINT
  5
5E
330
54
100
AcDbEntity
  8
Defpoints
 62
     0
100
AcDbPoint
 10
100.556267206883
 20
345.4109637634472
 30
0.0
  0
POINT
  5
60
330
54
100
AcDbEntity
  8
Defpoints
 62
     0
100
AcDbPoint
 10
105.006267206883
 20
345.4109637634473
 30
0.0
  0
POINT
  5
61
330
54
100
AcDbEntity
  8
Defpoints
 62
     0
100
AcDbPoint
 10
105.006267206883
 20
353.4109637634473
 30
0.0
  0
ENDBLK
  5
62
330
54
100
AcDbEntity
  8
0
100
AcDbBlockEnd
  0
BLOCK
  5
1BC
330
1B2
100
AcDbEntity
  8
0
100
AcDbBlockBegin
  2
*D4
 70
     1
 10
0.0
 20
0.0
 30
0.0
  3
*D4
  1

  0
LINE
  5
1B3
330
1B2
100
AcDbEntity
  8
SUNPO
 62
     0
370
    -2
100
AcDbLine
 10
-44.21178688624604
 20
33.31513585190777
 30
0.0
 11
-44.21178688624604
 21
41.31513585190776
 31
0.0
  0
LINE
  5
1B4
330
1B2
100
AcDbEntity
  8
SUNPO
 62
     0
370
    -2
100
AcDbLine
 10
6.783213113753973
 20
33.31513585190777
 30
0.0
 11
6.783213113753974
 21
41.31513585190776
 31
0.0
  0
LINE
  5
1B5
330
1B2
100
AcDbEntity
  8
SUNPO
 62
     0
370
    -2
100
AcDbLine
 10
-42.21178688624604
 20
39.31513585190777
 30
0.0
 11
4.783213113753974
 21
39.31513585190777
 31
0.0
  0
INSERT
  5
1B6
330
1B2
100
AcDbEntity
  8
SUNPO
 62
     0
370
    -2
100
AcDbBlockReference
  2
_OPEN30
 10
-44.21178688624604
 20
39.31513585190777
 30
0.0
 41
2.0
 42
2.0
 43
2.0
 50
180.0
  0
INSERT
  5
1B7
330
1B2
100
AcDbEntity
  8
SUNPO
 62
     0
370
    -2
100
AcDbBlockReference
  2
_OPEN30
 10
6.783213113753974
 20
39.31513585190777
 30
0.0
 41
2.0
 42
2.0
 43
2.0
  0
MTEXT
  5
1B8
330
1B2
100
AcDbEntity
  8
SUNPO
 62
     0
100
AcDbMText
 10
-18.71428688624603
 20
41.06513585190777
 30
0.0
 40
2.5
 41
0.0
 71
     5
 72
     1
  1
\A1;1020
 73
     1
 44
1.0
1001
ACAD
1000
MTEXTBEGIN
1070
    73
1070
     1
1070
    44
1040
1.0
1070
    74
1070
     0
1000
MTEXTEND
  0
POINT
  5
1B9
330
1B2
100
AcDbEntity
  8
Defpoints
 62
     0
100
AcDbPoint
 10
-44.21178688624604
 20
31.31513585190777
 30
0.0
  0
POINT
  5
1BA
330
1B2
100
AcDbEntity
  8
Defpoints
 62
     0
100
AcDbPoint
 10
6.783213113753973
 20
31.31513585190777
 30
0.0
  0
POINT
  5
1BB
330
1B2
100
AcDbEntity
  8
Defpoints
 62
     0
100
AcDbPoint
 10
6.783213113753974
 20
39.31513585190777
 30
0.0
  0
ENDBLK
  5
1BD
330
1B2
100
AcDbEntity
  8
0
100
AcDbBlockEnd
  0
BLOCK
  5
1C8
330
1BE
100
AcDbEntity
  8
0
100
AcDbBlockBegin
  2
*D5
 70
     1
 10
0.0
 20
0.0
 30
0.0
  3
*D5
  1

  0
LINE
  5
1BF
330
1BE
100
AcDbEntity
  8
SUNPO
 62
     0
370
    -2
100
AcDbLine
 10
8.783213113753973
 20
0.8116692088016742
 30
0.0
 11
16.78321311375396
 21
0.8116692088016719
 31
0.0
  0
LINE
  5
1C0
330
1BE
100
AcDbEntity
  8
SUNPO
 62
     0
370
    -2
100
AcDbLine
 10
8.783213113753973
 20
31.31166920880162
 30
0.0
 11
16.78321311375397
 21
31.31166920880162
 31
0.0
  0
LINE
  5
1C1
330
1BE
100
AcDbEntity
  8
SUNPO
 62
     0
370
    -2
100
AcDbLine
 10
14.78321311375396
 20
2.811669208801672
 30
0.0
 11
14.78321311375397
 21
29.31166920880162
 31
0.0
  0
INSERT
  5
1C2
330
1BE
100
AcDbEntity
  8
SUNPO
 62
     0
370
    -2
100
AcDbBlockReference
  2
_OPEN30
 10
14.78321311375396
 20
0.8116692088016726
 30
0.0
 41
2.0
 42
2.0
 43
2.0
 50
270.0
  0
INSERT
  5
1C3
330
1BE
100
AcDbEntity
  8
SUNPO
 62
     0
370
    -2
100
AcDbBlockReference
  2
_OPEN30
 10
14.78321311375397
 20
31.31166920880162
 30
0.0
 41
2.0
 42
2.0
 43
2.0
 50
90.0
  0
MTEXT
  5
1C4
330
1BE
100
AcDbEntity
  8
SUNPO
 62
     0
100
AcDbMText
 10
13.03321311375397
 20
16.06166920880164
 30
0.0
 40
2.5
 41
0.0
 71
     5
 72
     1
  1
\A1;610
 11
0.0000000000000001
 21
1.0
 31
0.0
 73
     1
 44
1.0
1001
ACAD
1000
MTEXTBEGIN
1070
    73
1070
     1
1070
    44
1040
1.0
1070
    74
1070
     0
1000
MTEXTEND
  0
POINT
  5
1C5
330
1BE
100
AcDbEntity
  8
Defpoints
 62
     0
100
AcDbPoint
 10
6.783213113753973
 20
0.8116692088016748
 30
0.0
  0
POINT
  5
1C6
330
1BE
100
AcDbEntity
  8
Defpoints
 62
     0
100
AcDbPoint
 10
6.783213113753973
 20
31.31166920880162
 30
0.0
  0
POINT
  5
1C7
330
1BE
100
AcDbEntity
  8
Defpoints
 62
     0
100
AcDbPoint
 10
14.78321311375397
 20
31.31166920880162
 30
0.0
  0
ENDBLK
  5
1C9
330
1BE
100
AcDbEntity
  8
0
100
AcDbBlockEnd
  0
BLOCK
  5
1D6
330
1CA
100
AcDbEntity
  8
0
100
AcDbBlockBegin
  2
*D6
 70
     1
 10
0.0
 20
0.0
 30
0.0
  3
*D6
  1

  0
LINE
  5
1CB
330
1CA
100
AcDbEntity
  8
SUNPO
 62
     0
370
    -2
100
AcDbLine
 10
35.29219927561383
 20
33.31513585190777
 30
0.0
 11
35.29219927561383
 21
41.31513585190782
 31
0.0
  0
LINE
  5
1CC
330
1CA
100
AcDbEntity
  8
SUNPO
 62
     0
370
    -2
100
AcDbLine
 10
39.74219927561384
 20
33.31513585190783
 30
0.0
 11
39.74219927561384
 21
41.31513585190782
 31
0.0
  0
LINE
  5
1CD
330
1CA
100
AcDbEntity
  8
SUNPO
 62
     0
370
    -2
100
AcDbLine
 10
33.29219927561382
 20
39.31513585190783
 30
0.0
 11
31.29219927561383
 21
39.31513585190783
 31
0.0
  0
LINE
  5
1CE
330
1CA
100
AcDbEntity
  8
SUNPO
 62
     0
370
    -2
100
AcDbLine
 10
41.74219927561384
 20
39.31513585190783
 30
0.0
 11
48.9088659422805
 21
39.31513585190783
 31
0.0
  0
LINE
  5
1CF
330
1CA
100
AcDbEntity
  8
SUNPO
 62
     0
370
    -2
100
AcDbLine
 10
35.29219927561383
 20
39.31513585190783
 30
0.0
 11
39.74219927561384
 21
39.31513585190783
 31
0.0
  0
INSERT
  5
1D0
330
1CA
100
AcDbEntity
  8
SUNPO
 62
     0
370
    -2
100
AcDbBlockReference
  2
_OPEN30
 10
35.29219927561383
 20
39.31513585190783
 30
0.0
 41
2.0
 42
2.0
 43
2.0
  0
INSERT
  5
1D1
330
1CA
100
AcDbEntity
  8
SUNPO
 62
     0
370
    -2
100
AcDbBlockReference
  2
_OPEN30
 10
39.74219927561384
 20
39.31513585190783
 30
0.0
 41
2.0
 42
2.0
 43
2.0
 50
180.0
  0
MTEXT
  5
1D2
330
1CA
100
AcDbEntity
  8
SUNPO
 62
     0
100
AcDbMText
 10
46.32553260894717
 20
41.06513585190782
 30
0.0
 40
2.5
 41
0.0
 71
     5
 72
     1
  1
\A1;89
 73
     1
 44
1.0
1001
ACAD
1000
MTEXTBEGIN
1070
    73
1070
     1
1070
    44
1040
1.0
1070
    74
1070
     0
1000
MTEXTEND
  0
POINT
  5
1D3
330
1CA
100
AcDbEntity
  8
Defpoints
 62
     0
100
AcDbPoint
 10
35.29219927561383
 20
31.31513585190777
 30
0.0
  0
POINT
  5
1D4
330
1CA
100
AcDbEntity
  8
Defpoints
 62
     0
100
AcDbPoint
 10
39.74219927561384
 20
31.31513585190783
 30
0.0
  0
POINT
  5
1D5
330
1CA
100
AcDbEntity
  8
Defpoints
 62
     0
100
AcDbPoint
 10
39.74219927561384
 20
39.31513585190783
 30
0.0
  0
ENDBLK
  5
1D7
330
1CA
100
AcDbEntity
  8
0
100
AcDbBlockEnd
  0
ENDSEC
  0
SECTION
  2
ENTITIES
  0
TEXT
  5
30
330
2
100
AcDbEntity
  8
MOJI1
100
AcDbText
 10
-35.76406798722843
 20
52.40500721339515
 30
0.0
 40
4.0
  1
ハイビジョンプラズマディスプレイ
100
AcDbText
  0
TEXT
  5
32
330
2
100
AcDbEntity
  8
TOUROKU
100
AcDbText
 10
38.90254871236598
 20
46.40500721339492
 30
0.0
 40
2.0
  1
ＴＨ４２ＰＨ１２ＫＲ
 72
     2
 11
62.23588204569932
 21
46.40500721339492
 31
0.0
100
AcDbText
  0
TEXT
  5
34
330
2
100
AcDbEntity
  8
MOJI1
100
AcDbText
 10
-21.26406798722817
 20
-55.5949927866049
 30
0.0
 40
3.0
  1
シリアル／ＰＣ／拡張スロット２、３
100
AcDbText
  0
TEXT
  5
35
330
2
100
AcDbEntity
  8
MOJI1
100
AcDbText
 10
-21.26406798722817
 20
-35.59499278660491
 30
0.0
 40
3.0
  1
３００００：１
100
AcDbText
  0
TEXT
  5
36
330
2
100
AcDbEntity
  8
MOJI1
100
AcDbText
 10
-21.26406798722817
 20
-40.5949927866049
 30
0.0
 40
3.0
  1
５１２０階調（相当）
100
AcDbText
  0
LINE
  5
37
330
2
100
AcDbEntity
  8
WAKU
 62
     1
100
AcDbLine
 10
-62.76406798722817
 20
-21.5949927866049
 30
0.0
 11
62.2359320127716
 21
-21.5949927866049
 31
0.0
  0
LINE
  5
39
330
2
100
AcDbEntity
  8
WAKU
 62
     1
100
AcDbLine
 10
-62.76406798722817
 20
-31.5949927866049
 30
0.0
 11
62.2359320127716
 21
-31.5949927866049
 31
0.0
  0
LINE
  5
3A
330
2
100
AcDbEntity
  8
WAKU
 62
     4
100
AcDbLine
 10
-62.76406798722817
 20
-11.5949927866049
 30
0.0
 11
62.2359320127716
 21
-11.5949927866049
 31
0.0
  0
LINE
  5
3B
330
2
100
AcDbEntity
  8
WAKU
 62
     1
100
AcDbLine
 10
-62.76406798722817
 20
-16.5949927866049
 30
0.0
 11
62.2359320127716
 21
-16.5949927866049
 31
0.0
  0
LINE
  5
3C
330
2
100
AcDbEntity
  8
WAKU
 62
     1
100
AcDbLine
 10
-62.76406798722817
 20
-26.5949927866049
 30
0.0
 11
62.2359320127716
 21
-26.5949927866049
 31
0.0
  0
LINE
  5
3D
330
2
100
AcDbEntity
  8
WAKU
 62
     1
100
AcDbLine
 10
-62.76406798722817
 20
-46.5949927866049
 30
0.0
 11
62.2359320127716
 21
-46.5949927866049
 31
0.0
  0
LINE
  5
3E
330
2
100
AcDbEntity
  8
WAKU
 62
     1
100
AcDbLine
 10
-62.76406798722817
 20
-51.5949927866049
 30
0.0
 11
62.2359320127716
 21
-51.5949927866049
 31
0.0
  0
LINE
  5
3F
330
2
100
AcDbEntity
  8
WAKU
 62
     4
100
AcDbLine
 10
62.2359320127716
 20
-56.5949927866049
 30
0.0
 11
-62.76406798722817
 21
-56.5949927866049
 31
0.0
  0
LINE
  5
40
330
2
100
AcDbEntity
  8
WAKU
 62
     4
100
AcDbLine
 10
-62.7640679872284
 20
-11.5949927866049
 30
0.0
 11
-62.76406798722817
 21
-56.5949927866049
 31
0.0
  0
LINE
  5
41
330
2
100
AcDbEntity
  8
WAKU
 62
     4
100
AcDbLine
 10
62.2359320127716
 20
-11.5949927866049
 30
0.0
 11
62.2359320127716
 21
-56.5949927866049
 31
0.0
  0
TEXT
  5
42
330
2
100
AcDbEntity
  8
MOJI1
100
AcDbText
 10
-60.26406798722817
 20
-30.59499278660491
 30
0.0
 40
3.0
  1
画素数
100
AcDbText
  0
LINE
  5
43
330
2
100
AcDbEntity
  8
WAKU
 62
     4
100
AcDbLine
 10
-22.7640679872284
 20
-11.5949927866049
 30
0.0
 11
-22.7640679872284
 21
-56.5949927866049
 31
0.0
  0
TEXT
  5
44
330
2
100
AcDbEntity
  8
MOJI1
100
AcDbText
 10
-21.26406798722817
 20
-30.59499278660491
 30
0.0
 40
3.0
  1
水平１０２４×垂直７６８　画素
100
AcDbText
  0
TEXT
  5
45
330
2
100
AcDbEntity
  8
MOJI1
100
AcDbText
 10
-21.26406798722817
 20
-50.5949927866049
 30
0.0
 40
3.0
  1
ビデオ・音声／Ｓ映像・音声／外部スピーカ
100
AcDbText
  0
TEXT
  5
46
330
2
100
AcDbEntity
  8
MOJI1
100
AcDbText
 10
-21.26406798722817
 20
-45.5949927866049
 30
0.0
 40
3.0
  1
１６Ｗ（８Ｗ＋８Ｗ）
100
AcDbText
  0
TEXT
  5
47
330
2
100
AcDbEntity
  8
MOJI1
100
AcDbText
 10
-60.26406798722817
 20
-45.5949927866049
 30
0.0
 40
3.0
  1
音声最大出力
100
AcDbText
  0
TEXT
  5
48
330
2
100
AcDbEntity
  8
MOJI1
100
AcDbText
 10
-60.26406798722817
 20
-50.5949927866049
 30
0.0
 40
3.0
  1
接続端子
100
AcDbText
  0
TEXT
  5
49
330
2
100
AcDbEntity
  8
MOJI1
100
AcDbText
 10
-21.26406798722817
 20
-15.5949927866049
 30
0.0
 40
3.0
  1
ＡＣ１００Ｖ±１０％　５０Ｈｚ／６０Ｈｚ
100
AcDbText
  0
TEXT
  5
4A
330
2
100
AcDbEntity
  8
MOJI1
100
AcDbText
 10
-21.26406798722817
 20
-25.59499278660491
 30
0.0
 40
3.0
  1
４２型（１６：９）
100
AcDbText
  0
TEXT
  5
4B
330
2
100
AcDbEntity
  8
MOJI1
100
AcDbText
 10
-21.26406798722817
 20
-20.5949927866049
 30
0.0
 40
3.0
  1
２５０Ｗ
100
AcDbText
  0
TEXT
  5
4C
330
2
100
AcDbEntity
  8
MOJI1
100
AcDbText
 10
-60.26406798722817
 20
-25.59499278660491
 30
0.0
 40
3.0
  1
画面サイズ
100
AcDbText
  0
TEXT
  5
4D
330
2
100
AcDbEntity
  8
MOJI1
100
AcDbText
 10
-60.26406798722817
 20
-20.5949927866049
 30
0.0
 40
3.0
  1
消費電力
100
AcDbText
  0
TEXT
  5
4E
330
2
100
AcDbEntity
  8
MOJI1
100
AcDbText
 10
-60.26406798722817
 20
-15.5949927866049
 30
0.0
 40
3.0
  1
電  源
100
AcDbText
  0
LINE
  5
4F
330
2
100
AcDbEntity
  8
WAKU
 62
     1
100
AcDbLine
 10
-62.76406798722817
 20
-36.5949927866049
 30
0.0
 11
62.2359320127716
 21
-36.5949927866049
 31
0.0
  0
LINE
  5
50
330
2
100
AcDbEntity
  8
WAKU
 62
     1
100
AcDbLine
 10
-62.76406798722817
 20
-41.5949927866049
 30
0.0
 11
62.2359320127716
 21
-41.5949927866049
 31
0.0
  0
TEXT
  5
51
330
2
100
AcDbEntity
  8
MOJI1
100
AcDbText
 10
-60.26406798722817
 20
-35.59499278660491
 30
0.0
 40
3.0
  1
コントラスト
100
AcDbText
  0
TEXT
  5
52
330
2
100
AcDbEntity
  8
MOJI1
100
AcDbText
 10
-60.26406798722817
 20
-40.5949927866049
 30
0.0
 40
3.0
  1
階調数
100
AcDbText
  0
DIMENSION
  5
53
330
2
100
AcDbEntity
  8
SUNPO
100
AcDbDimension
  2
*D6
 10
39.74219927561384
 20
39.31513585190783
 30
0.0
 11
46.32553260894717
 21
41.06513585190782
 31
0.0
 70
    33
  1
89
 71
     5
 42
4.450000000000017
  3
STANDARD
100
AcDbAlignedDimension
 13
35.29219927561383
 23
31.31513585190777
 33
0.0
 14
39.74219927561384
 24
31.31513585190783
 34
0.0
1001
ACAD
1000
DSTYLE
1002
{
1070
    40
1040
1.0
1070
   140
1040
2.5
1070
   147
1040
0.5
1070
   172
1070
     1
1070
   279
1070
     0
1070
   288
1070
     0
1002
}
  0
DIMENSION
  5
63
330
2
100
AcDbEntity
  8
SUNPO
100
AcDbDimension
  2
*D5
 10
14.78321311375397
 20
31.31166920880162
 30
0.0
 11
13.03321311375397
 21
16.06166920880164
 31
0.0
 70
    33
  1
610
 71
     5
 42
30.49999999999994
  3
STANDARD
100
AcDbAlignedDimension
 13
6.783213113753973
 23
0.8116692088016748
 33
0.0
 14
6.783213113753973
 24
31.31166920880162
 34
0.0
1001
ACAD
1000
DSTYLE
1002
{
1070
    40
1040
1.0
1070
   140
1040
2.5
1070
   147
1040
0.5
1070
   172
1070
     1
1070
   279
1070
     0
1070
   288
1070
     0
1002
}
  0
DIMENSION
  5
70
330
2
100
AcDbEntity
  8
SUNPO
100
AcDbDimension
  2
*D4
 10
6.783213113753974
 20
39.31513585190777
 30
0.0
 11
-18.71428688624603
 21
41.06513585190777
 31
0.0
 70
    33
  1
1020
 71
     5
 42
50.99500000000002
  3
STANDARD
100
AcDbAlignedDimension
 13
-44.21178688624604
 23
31.31513585190777
 33
0.0
 14
6.783213113753973
 24
31.31513585190777
 34
0.0
1001
ACAD
1000
DSTYLE
1002
{
1070
    40
1040
1.0
1070
   140
1040
2.5
1070
   147
1040
0.5
1070
   172
1070
     1
1070
   279
1070
     0
1070
   288
1070
     0
1002
}
  0
ARC
  5
7D
330
2
100
AcDbEntity
  8
GAIKEI
 62
     1
100
AcDbCircle
 10
38.99282783658555
 20
29.4444415181589
 30
0.0
 40
0.3497654045621397
100
AcDbArc
 50
7.824500824864304
 51
77.91119993180166
  0
ARC
  5
7F
330
2
100
AcDbEntity
  8
GAIKEI
 62
     1
100
AcDbCircle
 10
38.80720584374319
 20
24.59050157644993
 30
0.0
 40
0.7933618211180807
100
AcDbArc
 50
325.5909931086476
 51
3.625618073732946
  0
ARC
  5
80
330
2
100
AcDbEntity
  8
GAIKEI
100
AcDbCircle
 10
38.99282805970813
 20
24.27862291080482
 30
0.0
 40
0.3497651444952813
100
AcDbArc
 50
282.0887752694151
 51
352.1755251408762
  0
ARC
  5
81
330
2
100
AcDbEntity
  8
GAIKEI
  6
Continuous
 62
     1
100
AcDbCircle
 10
39.84656177561374
 20
23.81336429428069
 30
0.0
 40
0.5
100
AcDbArc
 50
148.4349071797699
 51
180.0000000000024
  0
ARC
  5
82
330
2
100
AcDbEntity
  8
GAIKEI
  6
Continuous
 62
     1
100
AcDbCircle
 10
37.72719932561381
 20
29.36563362447293
 30
0.0
 40
0.05
100
AcDbArc
 50
87.9999999999964
 51
180.0
  0
ARC
  5
83
330
2
100
AcDbEntity
  8
GAIKEI
  6
Continuous
 62
     1
100
AcDbCircle
 10
38.79009587561382
 20
29.2167055244729
 30
0.0
 40
0.15
100
AcDbArc
 50
7.83045700000137
 51
87.9999999999964
  0
LINE
  5
84
330
2
100
AcDbEntity
  8
GAIKEI
  6
Continuous
 62
     1
100
AcDbLine
 10
38.08669017561385
 20
29.40311042447286
 30
0.0
 11
38.79533082561386
 21
29.36661412447291
 31
0.0
  0
LINE
  5
85
330
2
100
AcDbEntity
  8
GAIKEI
  6
Continuous
 62
     1
100
AcDbLine
 10
37.7289442756138
 20
29.41560317447283
 30
0.0
 11
38.08669017561385
 21
29.40311042447286
 31
0.0
  0
ARC
  5
86
330
2
100
AcDbEntity
  8
GAIKEI
  6
Continuous
 62
     1
100
AcDbCircle
 10
37.78219932561388
 20
29.30690202447284
 30
0.0
 40
0.15
100
AcDbArc
 50
87.9999999999964
 51
180.0
  0
LINE
  5
87
330
2
100
AcDbEntity
  8
GAIKEI
  6
Continuous
 62
     1
100
AcDbLine
 10
37.78743422561388
 20
29.45681067447288
 30
0.0
 11
38.84048682561377
 21
29.42003727447286
 31
0.0
  0
LINE
  5
88
330
2
100
AcDbEntity
  8
GAIKEI
  6
Continuous
 62
     1
100
AcDbLine
 10
37.63219932561379
 20
24.41756112447285
 30
0.0
 11
37.63219932561379
 21
29.30690202447284
 31
0.0
  0
ARC
  5
89
330
2
100
AcDbEntity
  8
GAIKEI
  6
Continuous
 62
     1
100
AcDbCircle
 10
38.23219927561377
 20
27.0895713244729
 30
0.0
 40
1.044499999999999
100
AcDbArc
 50
0.0
 51
7.83045700000137
  0
ARC
  5
8A
330
2
100
AcDbEntity
  8
GAIKEI
  6
Continuous
 62
     1
100
AcDbCircle
 10
38.23219927561377
 20
27.0895713244729
 30
0.0
 40
0.9925
100
AcDbArc
 50
0.0
 51
7.83045700000137
  0
LINE
  5
8B
330
2
100
AcDbEntity
  8
GAIKEI
  6
Continuous
 62
     1
100
AcDbLine
 10
39.22469932561387
 20
26.63489187447283
 30
0.0
 11
39.22469932561387
 21
27.0895713244729
 31
0.0
  0
LINE
  5
8C
330
2
100
AcDbEntity
  8
GAIKEI
  6
Continuous
 62
     1
100
AcDbLine
 10
39.27669932561378
 20
26.63489187447283
 30
0.0
 11
39.27669932561378
 21
27.0895713244729
 31
0.0
  0
LINE
  5
8D
330
2
100
AcDbEntity
  8
GAIKEI
  6
Continuous
 62
     1
100
AcDbLine
 10
39.21544477561383
 20
27.22479167447284
 30
0.0
 11
38.93869722561385
 21
29.23714182447293
 31
0.0
  0
ARC
  5
8E
330
2
100
AcDbEntity
  8
GAIKEI
  6
Continuous
 62
     1
100
AcDbCircle
 10
38.83524917561386
 20
29.27005002447288
 30
0.0
 40
0.15
100
AcDbArc
 50
7.83045700000137
 51
87.9999999999964
  0
LINE
  5
8F
330
2
100
AcDbEntity
  8
GAIKEI
  6
Continuous
 62
     1
100
AcDbLine
 10
39.26695992561383
 20
27.23187627447283
 30
0.0
 11
38.98385047561385
 21
29.29048632447291
 31
0.0
  0
LINE
  5
90
330
2
100
AcDbEntity
  8
GAIKEI
  6
Continuous
 62
     1
100
AcDbLine
 10
37.67719932561386
 20
24.35882952447287
 30
0.0
 11
37.67719932561386
 21
29.36563362447293
 31
0.0
  0
ARC
  5
91
330
2
100
AcDbEntity
  8
GAIKEI
  6
Continuous
 62
     1
100
AcDbCircle
 10
37.72719932561381
 20
24.35882952447287
 30
0.0
 40
0.05
100
AcDbArc
 50
180.0
 51
272.0000000000036
  0
ARC
  5
92
330
2
100
AcDbEntity
  8
GAIKEI
  6
Continuous
 62
     1
100
AcDbCircle
 10
38.79009587561382
 20
24.50775767447283
 30
0.0
 40
0.15
100
AcDbArc
 50
272.0000000000036
 51
352.1695429999987
  0
LINE
  5
93
330
2
100
AcDbEntity
  8
GAIKEI
  6
Continuous
 62
     1
100
AcDbLine
 10
38.07887947561381
 20
24.33283002447286
 30
0.0
 11
38.79533082561386
 21
24.3578490244729
 31
0.0
  0
LINE
  5
94
330
2
100
AcDbEntity
  8
GAIKEI
  6
Continuous
 62
     1
100
AcDbLine
 10
38.08669017561385
 20
24.32135277447287
 30
0.0
 11
38.08638117561384
 21
24.33020237447284
 31
0.0
  0
LINE
  5
95
330
2
100
AcDbEntity
  8
GAIKEI
  6
Continuous
 62
     1
100
AcDbLine
 10
37.7289442756138
 20
24.30885997447286
 30
0.0
 11
38.08669017561385
 21
24.32135277447287
 31
0.0
  0
ARC
  5
96
330
2
100
AcDbEntity
  8
GAIKEI
  6
Continuous
 62
     1
100
AcDbCircle
 10
37.78219932561388
 20
24.41756112447285
 30
0.0
 40
0.15
100
AcDbArc
 50
180.0
 51
272.0000000000036
  0
LINE
  5
97
330
2
100
AcDbEntity
  8
GAIKEI
  6
Continuous
 62
     1
100
AcDbLine
 10
37.78743422561388
 20
24.26765252447285
 30
0.0
 11
38.84048682561377
 21
24.30442592447287
 31
0.0
  0
ARC
  5
98
330
2
100
AcDbEntity
  8
GAIKEI
  6
Continuous
 62
     1
100
AcDbCircle
 10
38.23219927561377
 20
26.63489187447283
 30
0.0
 40
1.044499999999999
100
AcDbArc
 50
352.1695429999987
 51
0.0
  0
ARC
  5
99
330
2
100
AcDbEntity
  8
GAIKEI
  6
Continuous
 62
     1
100
AcDbCircle
 10
38.23219927561377
 20
26.63489187447283
 30
0.0
 40
0.9925
100
AcDbArc
 50
352.1695429999987
 51
0.0
  0
LINE
  5
9A
330
2
100
AcDbEntity
  8
GAIKEI
  6
Continuous
 62
     1
100
AcDbLine
 10
39.21544477561383
 20
26.49967147447285
 30
0.0
 11
38.93869722561385
 21
24.48732132447287
 31
0.0
  0
ARC
  5
9B
330
2
100
AcDbEntity
  8
GAIKEI
  6
Continuous
 62
     1
100
AcDbCircle
 10
38.83524917561386
 20
24.45441317447285
 30
0.0
 40
0.15
100
AcDbArc
 50
272.0000000000036
 51
352.1695429999987
  0
LINE
  5
9C
330
2
100
AcDbEntity
  8
GAIKEI
  6
Continuous
 62
     1
100
AcDbLine
 10
39.26695992561383
 20
26.49258687447286
 30
0.0
 11
38.98385047561385
 21
24.43397682447289
 31
0.0
  0
ARC
  5
9D
330
2
100
AcDbEntity
  8
GAIKEI
 62
     1
100
AcDbCircle
 10
38.67332575181968
 20
6.161080902519302
 30
0.0
 40
0.6767993243531389
100
AcDbArc
 50
320.5571672063336
 51
2.909351495515366
  0
ARC
  5
9E
330
2
100
AcDbEntity
  8
GAIKEI
100
AcDbCircle
 10
39.91819293461844
 20
5.820114685577095
 30
0.0
 40
0.4959956609617684
100
AcDbArc
 50
141.0786585612989
 51
180.1627894387007
  0
ARC
  5
9F
330
2
100
AcDbEntity
  8
GAIKEI
 62
     1
100
AcDbCircle
 10
40.0130867590463
 20
4.69556216659555
 30
0.0
 40
1.720167845632516
100
AcDbArc
 50
145.6090498134464
 51
174.3909501865545
  0
ARC
  5
A0
330
2
100
AcDbEntity
  8
GAIKEI
  6
Continuous
 62
     1
100
AcDbCircle
 10
6.458820463753909
 20
1.138561858801608
 30
0.0
 40
0.188
100
AcDbArc
 50
270.0
 51
0.0
  0
ARC
  5
A1
330
2
100
AcDbEntity
  8
GAIKEI
  6
Continuous
 62
     1
100
AcDbCircle
 10
6.458820463753966
 20
30.98477655880163
 30
0.0
 40
0.188
100
AcDbArc
 50
0.0
 51
90.0
  0
ARC
  5
A2
330
2
100
AcDbEntity
  8
GAIKEI
  6
Continuous
 62
     1
100
AcDbCircle
 10
-43.88739423624611
 20
30.98477655880163
 30
0.0
 40
0.188
100
AcDbArc
 50
90.0
 51
180.0
  0
ARC
  5
A3
330
2
100
AcDbEntity
  8
GAIKEI
  6
Continuous
 62
     1
100
AcDbCircle
 10
-43.88739423624605
 20
1.138561858801608
 30
0.0
 40
0.188
100
AcDbArc
 50
180.0
 51
270.0
  0
ARC
  5
A4
330
2
100
AcDbEntity
  8
GAIKEI
  6
Continuous
 62
     1
100
AcDbCircle
 10
4.249713113753955
 20
3.192669208801589
 30
0.0
 40
0.0985
100
AcDbArc
 50
270.0
 51
0.0
  0
ARC
  5
A5
330
2
100
AcDbEntity
  8
GAIKEI
  6
Continuous
 62
     1
100
AcDbCircle
 10
4.249713113753955
 20
28.93066920880165
 30
0.0
 40
0.0985
100
AcDbArc
 50
0.0
 51
90.0
  0
ARC
  5
A6
330
2
100
AcDbEntity
  8
GAIKEI
  6
Continuous
 62
     1
100
AcDbCircle
 10
-41.67828688624604
 20
28.93066920880165
 30
0.0
 40
0.0985
100
AcDbArc
 50
90.0
 51
180.0
  0
ARC
  5
A7
330
2
100
AcDbEntity
  8
GAIKEI
  6
Continuous
 62
     1
100
AcDbCircle
 10
-41.67828688624604
 20
3.192669208801589
 30
0.0
 40
0.0985
100
AcDbArc
 50
180.0
 51
270.0
  0
ARC
  5
A8
330
2
100
AcDbEntity
  8
GAIKEI
  6
Continuous
 62
     1
100
AcDbCircle
 10
5.187213113753955
 20
2.411413058801599
 30
0.0
 40
0.0985
100
AcDbArc
 50
270.0
 51
0.0
  0
ARC
  5
A9
330
2
100
AcDbEntity
  8
GAIKEI
  6
Continuous
 62
     1
100
AcDbCircle
 10
5.187213113753955
 20
29.71316920880156
 30
0.0
 40
0.0985
100
AcDbArc
 50
0.0
 51
90.0
  0
ARC
  5
AA
330
2
100
AcDbEntity
  8
GAIKEI
  6
Continuous
 62
     1
100
AcDbCircle
 10
-42.61447758624604
 20
29.71316920880162
 30
0.0
 40
0.0985
100
AcDbArc
 50
90.0
 51
180.0
  0
ARC
  5
AB
330
2
100
AcDbEntity
  8
GAIKEI
  6
Continuous
 62
     1
100
AcDbCircle
 10
-42.61447758624604
 20
2.411413058801599
 30
0.0
 40
0.0985
100
AcDbArc
 50
180.0
 51
270.0
  0
ARC
  5
AC
330
2
100
AcDbEntity
  8
GAIKEI
  6
Continuous
 62
     1
100
AcDbCircle
 10
-43.65990898624602
 20
1.366047108801581
 30
0.0
 40
0.155
100
AcDbArc
 50
179.9999999999999
 51
270.0
  0
ARC
  5
AD
330
2
100
AcDbEntity
  8
GAIKEI
  6
Continuous
 62
     1
100
AcDbCircle
 10
6.231335213753936
 20
1.366047108801581
 30
0.0
 40
0.155
100
AcDbArc
 50
270.0
 51
360.0
  0
ARC
  5
AE
330
2
100
AcDbEntity
  8
GAIKEI
  6
Continuous
 62
     1
100
AcDbCircle
 10
6.231335213753993
 20
30.75729130880166
 30
0.0
 40
0.155
100
AcDbArc
 50
0.0
 51
89.99999999999998
  0
ARC
  5
AF
330
2
100
AcDbEntity
  8
GAIKEI
  6
Continuous
 62
     1
100
AcDbCircle
 10
-43.65990898624602
 20
30.75729130880166
 30
0.0
 40
0.155
100
AcDbArc
 50
90.0
 51
180.0
  0
SPLINE
  5
B0
330
2
100
AcDbEntity
  8
GAIKEI
  6
Continuous
 62
     1
100
AcDbSpline
210
0.0
220
0.0
230
1.0
 70
     8
 71
     3
 72
     9
 73
     5
 74
     3
 42
0.0000000001
 43
0.0000000001
 44
0.000001
 12
0.9015622545408136
 22
-0.4326493975348692
 32
0.0
 13
0.999899476397465
 23
0.0141787552371506
 33
0.0
 40
0.0
 40
0.0
 40
0.0
 40
0.0
 40
0.0021070375643632
 40
0.003797707661962
 40
0.003797707661962
 40
0.003797707661962
 40
0.003797707661962
 10
38.46198954253782
 20
2.025644188853277
 30
0.0
 10
38.46262275105014
 20
2.025340319342319
 30
0.0
 10
38.46383883342389
 20
2.024932376321203
 30
0.0
 10
38.46510962630985
 20
2.024822915340166
 30
0.0
 10
38.4656731263583
 20
2.024830905872647
 30
0.0
 11
38.46198954253782
 21
2.025644188853277
 31
0.0
 11
38.46398893341632
 21
2.024978532923967
 31
0.0
 11
38.4656731263583
 21
2.024830905872647
 31
0.0
  0
SPLINE
  5
B1
330
2
100
AcDbEntity
  8
GAIKEI
  6
Continuous
100
AcDbSpline
210
0.0
220
0.0
230
1.0
 70
     8
 71
     3
 72
    12
 73
     8
 74
     6
 42
0.0000000001
 43
0.0000000001
 44
0.000001
 12
0.3177217516879759
 22
0.9481839950686387
 32
0.0
 13
0.0004762146561107
 23
0.9999998866097941
 33
0.0
 40
0.0
 40
0.0
 40
0.0
 40
0.0
 40
0.0036401223069905
 40
0.0064206716563236
 40
0.0091006847411005
 40
0.0120770673697961
 40
0.0147756210223948
 40
0.0147756210223948
 40
0.0147756210223948
 40
0.0147756210223948
 10
39.69476629280541
 20
27.14334665291926
 30
0.0
 10
39.69515180815065
 20
27.14449715482312
 30
0.0
 10
39.6957565290495
 20
27.14655276320855
 30
0.0
 10
39.69641738866808
 20
27.1495150259401
 30
0.0
 10
39.69686807608761
 20
27.15229267825634
 30
0.0
 10
39.69713816960136
 20
27.15506665020053
 30
0.0
 10
39.69719884725645
 20
27.1569587423283
 30
0.0
 10
39.69719927562005
 20
27.15785826011052
 30
0.0
 11
39.69476629280541
 21
27.14334665291926
 31
0.0
 11
39.69579255522001
 21
27.14683861767344
 31
0.0
 11
39.69639814734473
 21
27.14955225772462
 31
0.0
 11
39.69682623168063
 21
27.15219800940833
 31
0.0
 11
39.69711423567657
 21
27.15516056047829
 31
0.0
 11
39.69719927562005
 21
27.15785826011052
 31
0.0
  0
SPLINE
  5
B2
330
2
100
AcDbEntity
  8
GAIKEI
  6
Continuous
100
AcDbSpline
210
0.0
220
0.0
230
1.0
 70
     8
 71
     3
 72
     9
 73
     5
 74
     3
 42
0.0000000001
 43
0.0000000001
 44
0.000001
 12
0.0096603815788914
 22
0.9999533374251774
 32
0.0
 13
0.0070116454444045
 23
0.9999754181119463
 33
0.0
 40
0.0
 40
0.0
 40
0.0
 40
0.0
 40
0.0011335976856412
 40
0.0020528754816208
 40
0.0020528754816208
 40
0.0020528754816208
 40
0.0020528754816208
 10
39.69719438146979
 20
6.506975540890039
 30
0.0
 10
39.69719803179852
 20
6.507353389153081
 30
0.0
 10
39.69720414189175
 20
6.508037653992801
 30
0.0
 10
39.69720934572915
 20
6.50872192619937
 30
0.0
 10
39.69721149427915
 20
6.509028344598846
 30
0.0
 11
39.69719438146979
 21
6.506975540890039
 31
0.0
 11
39.69720450344528
 21
6.508109093396342
 31
0.0
 11
39.69721149427915
 21
6.509028344598846
 31
0.0
  0
LINE
  5
B3
330
2
100
AcDbEntity
  8
GAIKEI
  6
Continuous
100
AcDbLine
 10
37.43969927561386
 20
31.30916920880162
 30
0.0
 11
37.43969567561385
 21
31.30916900880163
 31
0.0
  0
LINE
  5
B4
330
2
100
AcDbEntity
  8
GAIKEI
  6
Continuous
100
AcDbLine
 10
37.43969927561386
 20
31.30916920880162
 30
0.0
 11
37.49219927561382
 21
31.30916920880162
 31
0.0
  0
LINE
  5
B5
330
2
100
AcDbEntity
  8
GAIKEI
  6
Continuous
100
AcDbLine
 10
37.49219927561382
 20
31.10916920880163
 30
0.0
 11
37.43969927561386
 21
31.10916920880163
 31
0.0
  0
LINE
  5
B6
330
2
100
AcDbEntity
  8
GAIKEI
  6
Continuous
 62
     1
100
AcDbLine
 10
37.43969927561386
 20
31.30916920880168
 30
0.0
 11
37.4396992756138
 21
0.8141692088015588
 31
0.0
  0
LINE
  5
B7
330
2
100
AcDbEntity
  8
GAIKEI
  6
Continuous
 62
     1
100
AcDbLine
 10
37.43969927561386
 20
1.014169208801604
 30
0.0
 11
37.49219927561382
 21
1.014169208801604
 31
0.0
  0
LINE
  5
B8
330
2
100
AcDbEntity
  8
GAIKEI
  6
Continuous
100
AcDbLine
 10
37.54219927561383
 20
31.25916920880161
 30
0.0
 11
37.54219927561383
 21
31.10916920880163
 31
0.0
  0
LINE
  5
B9
330
2
100
AcDbEntity
  8
GAIKEI
  6
Continuous
100
AcDbLine
 10
37.54219927561383
 20
31.10916920880163
 30
0.0
 11
37.49219927561382
 21
31.10916920880163
 31
0.0
  0
LINE
  5
BA
330
2
100
AcDbEntity
  8
GAIKEI
  6
Continuous
 62
     1
100
AcDbLine
 10
35.50748287561385
 20
1.115158308801596
 30
0.0
 11
37.43969567561385
 21
1.013895308801579
 31
0.0
  0
LINE
  5
BB
330
2
100
AcDbEntity
  8
GAIKEI
  6
Continuous
 62
     1
100
AcDbLine
 10
35.50611692561381
 20
31.20783447373623
 30
0.0
 11
35.50611692561381
 21
1.149758558801636
 31
0.0
  0
LINE
  5
BC
330
2
100
AcDbEntity
  8
GAIKEI
  6
Continuous
 62
     1
100
AcDbLine
 10
37.43969567561385
 20
31.10944310880166
 30
0.0
 11
35.44649822561382
 21
31.00498403815505
 31
0.0
  0
LINE
  5
BD
330
2
100
AcDbEntity
  8
GAIKEI
  6
Continuous
100
AcDbLine
 10
37.43969567561385
 20
0.8141694088016038
 30
0.0
 11
37.43969927561386
 21
0.8141692088016156
 31
0.0
  0
LINE
  5
BE
330
2
100
AcDbEntity
  8
GAIKEI
  6
Continuous
 62
     1
100
AcDbLine
 10
37.49219927561382
 20
0.8141692088016156
 30
0.0
 11
37.49219927561382
 21
1.014169208801604
 31
0.0
  0
LINE
  5
BF
330
2
100
AcDbEntity
  8
GAIKEI
  6
Continuous
100
AcDbLine
 10
37.49219927561382
 20
0.8141692088016156
 30
0.0
 11
37.43969927561386
 21
0.8141692088016156
 31
0.0
  0
LINE
  5
C0
330
2
100
AcDbEntity
  8
GAIKEI
  6
Continuous
100
AcDbLine
 10
37.54219927561383
 20
1.014169208801604
 30
0.0
 11
37.54219927561383
 21
0.864169208801627
 31
0.0
  0
LINE
  5
C1
330
2
100
AcDbEntity
  8
GAIKEI
  6
Continuous
 62
     1
100
AcDbLine
 10
37.54219927561383
 20
1.014169208801604
 30
0.0
 11
37.49219927561382
 21
1.014169208801604
 31
0.0
  0
LINE
  5
C2
330
2
100
AcDbEntity
  8
GAIKEI
  6
Continuous
100
AcDbLine
 10
37.54219927561383
 20
31.10916920880163
 30
0.0
 11
37.54219927561383
 21
1.014169208801604
 31
0.0
  0
LINE
  5
C3
330
2
100
AcDbEntity
  8
GAIKEI
  6
Continuous
100
AcDbLine
 10
37.43969567561385
 20
0.8141694088016038
 30
0.0
 11
35.50611692889561
 21
0.9155039436950005
 31
0.0
  0
LINE
  5
C4
330
2
100
AcDbEntity
  8
GAIKEI
  6
Continuous
100
AcDbLine
 10
35.50748287561385
 20
31.20790605880165
 30
0.0
 11
37.43969567561385
 21
31.30916900880163
 31
0.0
  0
LINE
  5
C5
330
2
100
AcDbEntity
  8
GAIKEI
  6
Continuous
 62
     1
100
AcDbLine
 10
35.44649822561382
 20
1.149758558801636
 30
0.0
 11
35.44649822561382
 21
31.17277659580401
 31
0.0
  0
LINE
  5
C6
330
2
100
AcDbEntity
  8
GAIKEI
  6
Continuous
100
AcDbLine
 10
35.29219927561383
 20
30.92666923092281
 30
0.0
 11
35.44649822561382
 21
31.17277655880162
 31
0.0
  0
LINE
  5
C7
330
2
100
AcDbEntity
  8
GAIKEI
  6
Continuous
 62
     1
100
AcDbLine
 10
35.44649822561382
 20
30.9735798588016
 30
0.0
 11
35.29219927561377
 21
30.7274725309228
 31
0.0
  0
LINE
  5
C8
330
2
100
AcDbEntity
  8
GAIKEI
  6
Continuous
 62
     1
100
AcDbLine
 10
35.29219927561383
 20
1.395865886680326
 30
0.0
 11
35.44649822561382
 21
1.149758558801636
 31
0.0
  0
LINE
  5
C9
330
2
100
AcDbEntity
  8
GAIKEI
  6
Continuous
100
AcDbLine
 10
35.44649822561382
 20
0.9505618588016204
 30
0.0
 11
35.29983667561385
 21
1.184487508801623
 31
0.0
  0
LINE
  5
CA
330
2
100
AcDbEntity
  8
GAIKEI
  6
Continuous
100
AcDbLine
 10
35.50748287561385
 20
31.20790605880165
 30
0.0
 11
35.50611692561381
 21
31.20783445880159
 31
0.0
  0
LINE
  5
CB
330
2
100
AcDbEntity
  8
GAIKEI
  6
Continuous
100
AcDbLine
 10
35.29219927561383
 20
1.211047108801608
 30
0.0
 11
35.29219927561383
 21
30.92666923092281
 31
0.0
  0
ARC
  5
CC
330
2
100
AcDbEntity
  8
GAIKEI
  6
Continuous
100
AcDbCircle
 10
37.49219927561382
 20
31.25916920880161
 30
0.0
 40
0.05
100
AcDbArc
 50
0.0
 51
90.0
  0
ARC
  5
CD
330
2
100
AcDbEntity
  8
GAIKEI
  6
Continuous
100
AcDbCircle
 10
37.49219927561382
 20
0.864169208801627
 30
0.0
 40
0.05
100
AcDbArc
 50
270.0
 51
0.0
  0
ARC
  5
CE
330
2
100
AcDbEntity
  8
GAIKEI
  6
Continuous
100
AcDbCircle
 10
35.51004212561384
 20
31.13293725880164
 30
0.0
 40
0.075
100
AcDbArc
 50
93.00000000000578
 51
147.9140249999963
  0
ARC
  5
CF
330
2
100
AcDbEntity
  8
GAIKEI
  6
Continuous
100
AcDbCircle
 10
35.51004212561384
 20
0.9904011588016032
 30
0.0
 40
0.075
100
AcDbArc
 50
212.0859750000037
 51
266.9999999999943
  0
ARC
  5
D0
330
2
100
AcDbEntity
  8
GAIKEI
  6
Continuous
100
AcDbCircle
 10
35.34219927561384
 20
1.211047108801608
 30
0.0
 40
0.05
100
AcDbArc
 50
180.0
 51
212.0859750000037
  0
ELLIPSE
  5
D1
330
2
100
AcDbEntity
  8
GAIKEI
  6
Continuous
 62
     1
100
AcDbEllipse
 10
33.62347192561379
 20
1.014169208801604
 30
0.0
 11
3.816227337545457
 21
0.0
 31
0.0
210
0.0
220
0.0
230
1.0
 40
0.052408
 41
6.281815779309091
 42
6.283185307179586
  0
ELLIPSE
  5
D2
330
2
100
AcDbEntity
  8
GAIKEI
  6
Continuous
 62
     1
100
AcDbEllipse
 10
35.87223247561383
 20
0.9712138588016046
 30
0.0
 11
-0.2690783224982649
 21
0.3978566820730179
 31
0.0
210
0.0
220
0.0
230
1.0
 40
0.6240160000000001
 41
0.7448982300329864
 42
1.307714707561869
  0
ELLIPSE
  5
D3
330
2
100
AcDbEntity
  8
GAIKEI
  6
Continuous
 62
     1
100
AcDbEllipse
 10
35.87615767561386
 20
0.9712138588016046
 30
0.0
 11
-0.3002704522363481
 21
0.4353255228029943
 31
0.0
210
0.0
220
0.0
230
1.0
 40
0.7084260000000002
 41
0.7388798675136195
 42
1.221777013352586
  0
LINE
  5
D4
330
2
100
AcDbEntity
  8
GAIKEI
  6
Continuous
 62
     1
100
AcDbLine
 10
39.6971992756138
 20
7.756315558801588
 30
0.0
 11
39.72082052561382
 21
7.756315558801588
 31
0.0
  0
LINE
  5
D5
330
2
100
AcDbEntity
  8
GAIKEI
  6
Continuous
 62
     1
100
AcDbLine
 10
39.71966102561385
 20
7.91166920880164
 30
0.0
 11
39.72082052561382
 21
7.91166920880164
 31
0.0
  0
LINE
  5
D6
330
2
100
AcDbEntity
  8
GAIKEI
  6
Continuous
 62
     1
100
AcDbLine
 10
39.72082052561382
 20
7.91166920880164
 30
0.0
 11
39.72082052561382
 21
7.756315558801588
 31
0.0
  0
LINE
  5
D7
330
2
100
AcDbEntity
  8
GAIKEI
  6
Continuous
 62
     1
100
AcDbLine
 10
39.72219927561383
 20
7.91166920880164
 30
0.0
 11
39.72219927561383
 21
7.756315558801588
 31
0.0
  0
LINE
  5
D8
330
2
100
AcDbEntity
  8
GAIKEI
  6
Continuous
 62
     1
100
AcDbLine
 10
39.72082052561382
 20
7.756315558801588
 30
0.0
 11
39.72219927561383
 21
7.756315558801588
 31
0.0
  0
LINE
  5
D9
330
2
100
AcDbEntity
  8
GAIKEI
  6
Continuous
 62
     1
100
AcDbLine
 10
39.72082052561382
 20
7.91166920880164
 30
0.0
 11
39.72219927561383
 21
7.91166920880164
 31
0.0
  0
ARC
  5
DA
330
2
100
AcDbEntity
  8
GAIKEI
  6
Continuous
 62
     1
100
AcDbCircle
 10
39.42219927561382
 20
7.756315558801588
 30
0.0
 40
0.29862125
100
AcDbArc
 50
337.0578669999897
 51
0.0
  0
ARC
  5
DB
330
2
100
AcDbEntity
  8
GAIKEI
  6
Continuous
 62
     1
100
AcDbCircle
 10
39.67219927561382
 20
7.91166920880164
 30
0.0
 40
0.04862125
100
AcDbArc
 50
0.0
 51
6.222905000009303
  0
ARC
  5
DC
330
2
100
AcDbEntity
  8
GAIKEI
  6
Continuous
 62
     1
100
AcDbCircle
 10
39.67219927561382
 20
7.91166920880164
 30
0.0
 40
0.05
100
AcDbArc
 50
0.0
 51
11.2074969999849
  0
ARC
  5
DD
330
2
100
AcDbEntity
  8
GAIKEI
  6
Continuous
 62
     1
100
AcDbCircle
 10
39.42219927561382
 20
7.756315558801588
 30
0.0
 40
0.3
100
AcDbArc
 50
336.4435359999883
 51
0.0
  0
LINE
  5
DE
330
2
100
AcDbEntity
  8
GAIKEI
  6
Continuous
 62
     1
100
AcDbLine
 10
37.54469927561383
 20
0.9716692088015861
 30
0.0
 11
37.54219927561383
 21
0.9716692088015861
 31
0.0
  0
LINE
  5
DF
330
2
100
AcDbEntity
  8
GAIKEI
  6
Continuous
 62
     1
100
AcDbLine
 10
37.57469927561385
 20
1.001669208801615
 30
0.0
 11
37.54469927561383
 21
0.9716692088015861
 31
0.0
  0
LINE
  5
E0
330
2
100
AcDbEntity
  8
GAIKEI
  6
Continuous
 62
     1
100
AcDbLine
 10
37.60469927561383
 20
1.311669208801617
 30
0.0
 11
37.60469927561383
 21
1.031669208801645
 31
0.0
  0
LINE
  5
E1
330
2
100
AcDbEntity
  8
GAIKEI
  6
Continuous
 62
     1
100
AcDbLine
 10
37.60469927561383
 20
1.031669208801645
 30
0.0
 11
37.57469927561385
 21
1.001669208801615
 31
0.0
  0
LINE
  5
E2
330
2
100
AcDbEntity
  8
GAIKEI
  6
Continuous
 62
     1
100
AcDbLine
 10
37.55469927561382
 20
1.843470708801646
 30
0.0
 11
37.55469927561382
 21
1.581669208801599
 31
0.0
  0
LINE
  5
E3
330
2
100
AcDbEntity
  8
GAIKEI
  6
Continuous
 62
     1
100
AcDbLine
 10
37.55469927561382
 20
1.843470708801646
 30
0.0
 11
37.54219927561383
 21
1.848020308801608
 31
0.0
  0
ARC
  5
E4
330
2
100
AcDbEntity
  8
GAIKEI
  6
Continuous
 62
     1
100
AcDbCircle
 10
37.22830922561383
 20
1.636669208801606
 30
0.0
 40
0.38639005
100
AcDbArc
 50
3.709712000011262
 51
32.35843299999584
  0
ARC
  5
E5
330
2
100
AcDbEntity
  8
GAIKEI
  6
Continuous
 62
     1
100
AcDbCircle
 10
37.50270392561379
 20
1.345653258801633
 30
0.0
 40
0.05
100
AcDbArc
 50
16.25702799999795
 51
37.82319199999473
  0
ARC
  5
E6
330
2
100
AcDbEntity
  8
GAIKEI
  6
Continuous
 62
     1
100
AcDbCircle
 10
37.50270392561379
 20
1.177685158801637
 30
0.0
 40
0.05
100
AcDbArc
 50
322.1768080000052
 51
343.742972000002
  0
ARC
  5
E7
330
2
100
AcDbEntity
  8
GAIKEI
  6
Continuous
 62
     1
100
AcDbCircle
 10
37.21469927561384
 20
1.261669208801606
 30
0.0
 40
0.35
100
AcDbArc
 50
343.742972000002
 51
0.0
  0
ARC
  5
E8
330
2
100
AcDbEntity
  8
GAIKEI
  6
Continuous
 62
     1
100
AcDbCircle
 10
37.21469927561384
 20
1.261669208801606
 30
0.0
 40
0.35
100
AcDbArc
 50
0.0
 51
16.25702799999795
  0
LINE
  5
E9
330
2
100
AcDbEntity
  8
GAIKEI
  6
Continuous
 62
     1
100
AcDbLine
 10
37.62615047561383
 20
1.311669208801617
 30
0.0
 11
37.62615047561383
 21
1.66166920880164
 31
0.0
  0
LINE
  5
EA
330
2
100
AcDbEntity
  8
GAIKEI
  6
Continuous
 62
     1
100
AcDbLine
 10
37.57719927561379
 20
1.311669208801617
 30
0.0
 11
37.57719927561379
 21
1.486669208801629
 31
0.0
  0
LINE
  5
EB
330
2
100
AcDbEntity
  8
GAIKEI
  6
Continuous
 62
     1
100
AcDbLine
 10
37.57719927561379
 20
1.486669208801629
 30
0.0
 11
37.57719927561379
 21
1.66166920880164
 31
0.0
  0
LINE
  5
EC
330
2
100
AcDbEntity
  8
GAIKEI
  6
Continuous
 62
     1
100
AcDbLine
 10
37.62615047561383
 20
1.66166920880164
 30
0.0
 11
37.57719927561379
 21
1.66166920880164
 31
0.0
  0
LINE
  5
ED
330
2
100
AcDbEntity
  8
GAIKEI
  6
Continuous
 62
     1
100
AcDbLine
 10
37.57719927561379
 20
1.311669208801617
 30
0.0
 11
37.62615047561383
 21
1.311669208801617
 31
0.0
  0
LINE
  5
EE
330
2
100
AcDbEntity
  8
GAIKEI
  6
Continuous
 62
     1
100
AcDbLine
 10
37.68844097561384
 20
1.358097758801591
 30
0.0
 11
37.68844097561384
 21
1.61524065880161
 31
0.0
  0
LINE
  5
EF
330
2
100
AcDbEntity
  8
GAIKEI
  6
Continuous
 62
     1
100
AcDbLine
 10
37.57719927561379
 20
1.581669208801599
 30
0.0
 11
37.54318962561382
 21
1.581669208801599
 31
0.0
  0
ARC
  5
F0
330
2
100
AcDbEntity
  8
GAIKEI
  6
Continuous
 62
     1
100
AcDbCircle
 10
37.62615047561383
 20
1.596669208801586
 30
0.0
 40
0.065
100
AcDbArc
 50
16.60155000000317
 51
90.0
  0
ARC
  5
F1
330
2
100
AcDbEntity
  8
GAIKEI
  6
Continuous
 62
     1
100
AcDbCircle
 10
37.62615047561383
 20
1.376669208801615
 30
0.0
 40
0.065
100
AcDbArc
 50
270.0
 51
343.3984499999969
  0
ARC
  5
F2
330
2
100
AcDbEntity
  8
GAIKEI
  6
Continuous
 62
     1
100
AcDbCircle
 10
37.25719927561386
 20
1.486669208801629
 30
0.0
 40
0.45
100
AcDbArc
 50
343.3984499999969
 51
0.0
  0
ARC
  5
F3
330
2
100
AcDbEntity
  8
GAIKEI
  6
Continuous
 62
     1
100
AcDbCircle
 10
37.25719927561386
 20
1.486669208801629
 30
0.0
 40
0.45
100
AcDbArc
 50
0.0
 51
16.60155000000317
  0
LINE
  5
F4
330
2
100
AcDbEntity
  8
GAIKEI
  6
Continuous
 62
     1
100
AcDbLine
 10
37.54219927561383
 20
1.486669208801629
 30
0.0
 11
37.57719927561379
 21
1.486669208801629
 31
0.0
  0
LINE
  5
F5
330
2
100
AcDbEntity
  8
GAIKEI
  6
Continuous
 62
     1
100
AcDbLine
 10
37.63844097561384
 20
2.9730977588016
 30
0.0
 11
37.63844097561384
 21
3.230240658801619
 31
0.0
  0
LINE
  5
F6
330
2
100
AcDbEntity
  8
GAIKEI
  6
Continuous
 62
     1
100
AcDbLine
 10
37.57615047561382
 20
2.926669208801627
 30
0.0
 11
37.57615047561382
 21
3.276669208801649
 31
0.0
  0
LINE
  5
F7
330
2
100
AcDbEntity
  8
GAIKEI
  6
Continuous
 62
     1
100
AcDbLine
 10
37.57615047561382
 20
3.276669208801649
 30
0.0
 11
37.54219927561383
 21
3.276669208801649
 31
0.0
  0
LINE
  5
F8
330
2
100
AcDbEntity
  8
GAIKEI
  6
Continuous
 62
     1
100
AcDbLine
 10
37.54219927561383
 20
2.926669208801627
 30
0.0
 11
37.57615047561382
 21
2.926669208801627
 31
0.0
  0
ARC
  5
F9
330
2
100
AcDbEntity
  8
GAIKEI
  6
Continuous
 62
     1
100
AcDbCircle
 10
37.57615047561382
 20
3.211669208801595
 30
0.0
 40
0.065
100
AcDbArc
 50
16.60155000000317
 51
90.0
  0
ARC
  5
FA
330
2
100
AcDbEntity
  8
GAIKEI
  6
Continuous
 62
     1
100
AcDbCircle
 10
37.57615047561382
 20
2.991669208801624
 30
0.0
 40
0.065
100
AcDbArc
 50
270.0
 51
343.3984499999969
  0
ARC
  5
FB
330
2
100
AcDbEntity
  8
GAIKEI
  6
Continuous
 62
     1
100
AcDbCircle
 10
37.20719927561379
 20
3.101669208801581
 30
0.0
 40
0.45
100
AcDbArc
 50
343.3984499999969
 51
0.0
  0
ARC
  5
FC
330
2
100
AcDbEntity
  8
GAIKEI
  6
Continuous
 62
     1
100
AcDbCircle
 10
37.20719927561379
 20
3.101669208801581
 30
0.0
 40
0.45
100
AcDbArc
 50
0.0
 51
16.60155000000317
  0
LINE
  5
FD
330
2
100
AcDbEntity
  8
GAIKEI
  6
Continuous
 62
     1
100
AcDbLine
 10
37.63844097561384
 20
15.93309775880164
 30
0.0
 11
37.63844097561384
 21
16.1902406588016
 31
0.0
  0
LINE
  5
FE
330
2
100
AcDbEntity
  8
GAIKEI
  6
Continuous
 62
     1
100
AcDbLine
 10
37.57615047561382
 20
15.8866692088016
 30
0.0
 11
37.57615047561382
 21
16.23666920880163
 31
0.0
  0
LINE
  5
FF
330
2
100
AcDbEntity
  8
GAIKEI
  6
Continuous
 62
     1
100
AcDbLine
 10
37.57615047561382
 20
16.23666920880163
 30
0.0
 11
37.54219927561383
 21
16.23666920880163
 31
0.0
  0
LINE
  5
100
330
2
100
AcDbEntity
  8
GAIKEI
  6
Continuous
 62
     1
100
AcDbLine
 10
37.54219927561383
 20
15.8866692088016
 30
0.0
 11
37.57615047561382
 21
15.8866692088016
 31
0.0
  0
ARC
  5
101
330
2
100
AcDbEntity
  8
GAIKEI
  6
Continuous
 62
     1
100
AcDbCircle
 10
37.57615047561382
 20
16.17166920880163
 30
0.0
 40
0.065
100
AcDbArc
 50
16.60155000000317
 51
90.0
  0
ARC
  5
102
330
2
100
AcDbEntity
  8
GAIKEI
  6
Continuous
 62
     1
100
AcDbCircle
 10
37.57615047561382
 20
15.9516692088016
 30
0.0
 40
0.065
100
AcDbArc
 50
270.0
 51
343.3984499999969
  0
ARC
  5
103
330
2
100
AcDbEntity
  8
GAIKEI
  6
Continuous
 62
     1
100
AcDbCircle
 10
37.20719927561379
 20
16.06166920880162
 30
0.0
 40
0.45
100
AcDbArc
 50
343.3984499999969
 51
0.0
  0
ARC
  5
104
330
2
100
AcDbEntity
  8
GAIKEI
  6
Continuous
 62
     1
100
AcDbCircle
 10
37.20719927561379
 20
16.06166920880162
 30
0.0
 40
0.45
100
AcDbArc
 50
0.0
 51
16.60155000000317
  0
LINE
  5
105
330
2
100
AcDbEntity
  8
GAIKEI
  6
Continuous
 62
     1
100
AcDbLine
 10
39.74706172561383
 20
8.695462958801613
 30
0.0
 11
39.74706172561383
 21
8.427875458801622
 31
0.0
  0
LINE
  5
106
330
2
100
AcDbEntity
  8
GAIKEI
  6
Continuous
 62
     1
100
AcDbLine
 10
39.70469927561385
 20
8.699169208801606
 30
0.0
 11
39.70469927561385
 21
8.424169208801629
 31
0.0
  0
LINE
  5
107
330
2
100
AcDbEntity
  8
GAIKEI
  6
Continuous
 62
     1
100
AcDbLine
 10
39.70469927561385
 20
8.424169208801629
 30
0.0
 11
39.74706172561383
 21
8.427875458801622
 31
0.0
  0
LINE
  5
108
330
2
100
AcDbEntity
  8
GAIKEI
  6
Continuous
 62
     1
100
AcDbLine
 10
39.74706172561383
 20
8.695462958801613
 30
0.0
 11
39.70469927561385
 21
8.699169208801606
 31
0.0
  0
LINE
  5
109
330
2
100
AcDbEntity
  8
GAIKEI
  6
Continuous
 62
     1
100
AcDbLine
 10
39.6971992756138
 20
8.426669208801627
 30
0.0
 11
39.70469927561385
 21
8.426669208801627
 31
0.0
  0
LINE
  5
10A
330
2
100
AcDbEntity
  8
GAIKEI
  6
Continuous
 62
     1
100
AcDbLine
 10
39.70469927561385
 20
8.696669208801608
 30
0.0
 11
39.6971992756138
 21
8.696669208801608
 31
0.0
  0
LINE
  5
10B
330
2
100
AcDbEntity
  8
GAIKEI
  6
Continuous
 62
     1
100
AcDbLine
 10
39.79070472561387
 20
8.659650558801615
 30
0.0
 11
39.79070472561387
 21
8.46368785880162
 31
0.0
  0
ARC
  5
10C
330
2
100
AcDbEntity
  8
GAIKEI
  6
Continuous
 62
     1
100
AcDbCircle
 10
39.74270392561379
 20
8.645653258801644
 30
0.0
 40
0.05
100
AcDbArc
 50
16.25702799999795
 51
84.99999899999744
  0
ARC
  5
10D
330
2
100
AcDbEntity
  8
GAIKEI
  6
Continuous
 62
     1
100
AcDbCircle
 10
39.74270392561379
 20
8.477685158801591
 30
0.0
 40
0.05
100
AcDbArc
 50
275.0000010000026
 51
343.742972000002
  0
ARC
  5
10E
330
2
100
AcDbEntity
  8
GAIKEI
  6
Continuous
 62
     1
100
AcDbCircle
 10
39.45469927561385
 20
8.561669208801617
 30
0.0
 40
0.35
100
AcDbArc
 50
343.742972000002
 51
0.0
  0
ARC
  5
10F
330
2
100
AcDbEntity
  8
GAIKEI
  6
Continuous
 62
     1
100
AcDbCircle
 10
39.45469927561385
 20
8.561669208801617
 30
0.0
 40
0.35
100
AcDbArc
 50
0.0
 51
16.25702799999795
  0
ARC
  5
110
330
2
100
AcDbEntity
  8
GAIKEI
  6
Continuous
 62
     1
100
AcDbCircle
 10
39.57281052561382
 20
8.272075358801657
 30
0.0
 40
0.13
100
AcDbArc
 50
15.88084999999635
 51
16.89550900000867
  0
ARC
  5
111
330
2
100
AcDbEntity
  8
GAIKEI
  6
Continuous
 62
     1
100
AcDbCircle
 10
39.57281052561382
 20
7.850673208801595
 30
0.0
 40
0.13
100
AcDbArc
 50
343.1044909999914
 51
344.1191500000036
  0
ARC
  5
112
330
2
100
AcDbEntity
  8
GAIKEI
  6
Continuous
 62
     1
100
AcDbCircle
 10
38.83219927561379
 20
8.061374308801646
 30
0.0
 40
0.9
100
AcDbArc
 50
344.1191500000036
 51
0.0
  0
ARC
  5
113
330
2
100
AcDbEntity
  8
GAIKEI
  6
Continuous
 62
     1
100
AcDbCircle
 10
38.83219927561379
 20
8.061374308801646
 30
0.0
 40
0.9
100
AcDbArc
 50
0.0
 51
15.88084999999635
  0
LINE
  5
114
330
2
100
AcDbEntity
  8
GAIKEI
  6
Continuous
 62
     1
100
AcDbLine
 10
39.64175392561378
 20
27.29305385880162
 30
0.0
 11
39.33933682561383
 21
29.49205830880163
 31
0.0
  0
LINE
  5
115
330
2
100
AcDbEntity
  8
GAIKEI
  6
Continuous
100
AcDbLine
 10
39.33933682561383
 20
24.23100630880163
 30
0.0
 11
39.64175392561378
 21
26.43001075880159
 31
0.0
  0
LINE
  5
116
330
2
100
AcDbEntity
  8
GAIKEI
  6
Continuous
100
AcDbLine
 10
37.55732067561382
 20
23.6133088088016
 30
0.0
 11
39.06607832561383
 21
23.93661405880164
 31
0.0
  0
LINE
  5
117
330
2
100
AcDbEntity
  8
GAIKEI
  6
Continuous
 62
     1
100
AcDbLine
 10
39.06607832561383
 20
29.7864506088016
 30
0.0
 11
37.54219927561383
 21
30.11299610869424
 31
0.0
  0
LINE
  5
118
330
2
100
AcDbEntity
  8
GAIKEI
  6
Continuous
100
AcDbLine
 10
39.65573237561386
 20
26.63425375880161
 30
0.0
 11
39.65573237561386
 21
27.08881090880164
 31
0.0
  0
ARC
  5
119
330
2
100
AcDbEntity
  8
GAIKEI
  6
Continuous
100
AcDbCircle
 10
38.15597822561381
 20
27.08876725880163
 30
0.0
 40
1.49975415
100
AcDbArc
 50
0.0016670000142817
 51
7.828790999992842
  0
ARC
  5
11A
330
2
100
AcDbEntity
  8
GAIKEI
  6
Continuous
100
AcDbCircle
 10
38.15597822561381
 20
26.63429735880163
 30
0.0
 40
1.49975415
100
AcDbArc
 50
352.1712090000072
 51
359.9983329999857
  0
LINE
  5
11B
330
2
100
AcDbEntity
  8
GAIKEI
  6
Continuous
 62
     1
100
AcDbLine
 10
37.67772137561383
 20
10.1391692088016
 30
0.0
 11
37.54219927561383
 21
10.1391692088016
 31
0.0
  0
LINE
  5
11C
330
2
100
AcDbEntity
  8
GAIKEI
  6
Continuous
 62
     1
100
AcDbLine
 10
37.54219927561383
 20
8.884169208801608
 30
0.0
 11
37.67772137561383
 21
8.884169208801608
 31
0.0
  0
LINE
  5
11D
330
2
100
AcDbEntity
  8
GAIKEI
  6
Continuous
 62
     1
100
AcDbLine
 10
37.67772137561383
 20
8.884169208801608
 30
0.0
 11
37.67772137561383
 21
10.1391692088016
 31
0.0
  0
LINE
  5
11E
330
2
100
AcDbEntity
  8
GAIKEI
  6
Continuous
 62
     1
100
AcDbLine
 10
38.86979437561382
 20
23.89455320880165
 30
0.0
 11
39.15097267561384
 21
23.76343760880161
 31
0.0
  0
LINE
  5
11F
330
2
100
AcDbEntity
  8
GAIKEI
  6
Continuous
 62
     1
100
AcDbLine
 10
39.15097267561384
 20
23.76343760880161
 30
0.0
 11
39.15097267561384
 21
23.11416920880163
 31
0.0
  0
LINE
  5
120
330
2
100
AcDbEntity
  8
GAIKEI
  6
Continuous
 62
     1
100
AcDbLine
 10
39.18424767561385
 20
23.11416920880163
 30
0.0
 11
39.18424767561385
 21
22.50916920880161
 31
0.0
  0
LINE
  5
121
330
2
100
AcDbEntity
  8
GAIKEI
  6
Continuous
 62
     1
100
AcDbLine
 10
39.15097267561384
 20
22.50916920880161
 30
0.0
 11
39.15097267561384
 21
9.704169208801658
 31
0.0
  0
LINE
  5
122
330
2
100
AcDbEntity
  8
GAIKEI
  6
Continuous
 62
     1
100
AcDbLine
 10
39.18424767561385
 20
9.704169208801658
 30
0.0
 11
39.18424767561385
 21
9.09916920880164
 31
0.0
  0
LINE
  5
123
330
2
100
AcDbEntity
  8
GAIKEI
  6
Continuous
 62
     1
100
AcDbLine
 10
39.15097267561379
 20
9.09916920880164
 30
0.0
 11
39.15097267561384
 21
6.331427458801613
 31
0.0
  0
LINE
  5
124
330
2
100
AcDbEntity
  8
GAIKEI
  6
Continuous
 62
     1
100
AcDbLine
 10
39.15097267561384
 20
6.331427458801613
 30
0.0
 11
38.59359957561384
 21
5.667176058801601
 31
0.0
  0
LINE
  5
125
330
2
100
AcDbEntity
  8
GAIKEI
  6
Continuous
 62
     1
100
AcDbLine
 10
38.30115512561383
 20
4.863691508801593
 30
0.0
 11
38.30115512561383
 21
3.006626608801639
 31
0.0
  0
LINE
  5
126
330
2
100
AcDbEntity
  8
GAIKEI
  6
Continuous
 62
     1
100
AcDbLine
 10
38.30115512561383
 20
3.006626608801639
 30
0.0
 11
37.63755127561382
 21
2.971848608801622
 31
0.0
  0
LINE
  5
127
330
2
100
AcDbEntity
  8
GAIKEI
  6
Continuous
100
AcDbLine
 10
37.75615512561382
 20
30.16196495880161
 30
0.0
 11
37.54219927561383
 21
30.20744267814695
 31
0.0
  0
LINE
  5
128
330
2
100
AcDbEntity
  8
GAIKEI
  6
Continuous
100
AcDbLine
 10
37.54219927561383
 20
1.976375289669817
 30
0.0
 11
38.46028327561385
 21
2.024490008801649
 31
0.0
  0
LINE
  5
129
330
2
100
AcDbEntity
  8
GAIKEI
  6
Continuous
 62
     1
100
AcDbLine
 10
38.6971992756138
 20
3.006626608801639
 30
0.0
 11
38.6971992756138
 21
4.863691508801593
 31
0.0
  0
LINE
  5
12A
330
2
100
AcDbEntity
  8
GAIKEI
  6
Continuous
 62
     1
100
AcDbLine
 10
38.6971992756138
 20
3.006626608801639
 30
0.0
 11
38.30115512561383
 21
3.006626608801639
 31
0.0
  0
LINE
  5
12B
330
2
100
AcDbEntity
  8
GAIKEI
  6
Continuous
 62
     1
100
AcDbLine
 10
38.46181627561384
 20
2.025435658801598
 30
0.0
 11
38.46028327561385
 21
2.024490008801649
 31
0.0
  0
LINE
  5
12C
330
2
100
AcDbEntity
  8
GAIKEI
  6
Continuous
 62
     1
100
AcDbLine
 10
38.6971992756138
 20
2.274147408801582
 30
0.0
 11
38.6971992756138
 21
3.006626608801639
 31
0.0
  0
LINE
  5
12D
330
2
100
AcDbEntity
  8
GAIKEI
  6
Continuous
 62
     1
100
AcDbLine
 10
38.87266592561383
 20
5.345782258801591
 30
0.0
 11
39.19599002561381
 21
5.731104858801586
 31
0.0
  0
LINE
  5
12E
330
2
100
AcDbEntity
  8
GAIKEI
  6
Continuous
 62
     1
100
AcDbLine
 10
39.34656177561385
 20
23.76343760880161
 30
0.0
 11
39.15097267561384
 21
23.76343760880161
 31
0.0
  0
LINE
  5
12F
330
2
100
AcDbEntity
  8
GAIKEI
  6
Continuous
 62
     1
100
AcDbLine
 10
39.34656177561385
 20
23.11416920880163
 30
0.0
 11
39.34656177561374
 21
23.81336429428063
 31
0.0
  0
LINE
  5
130
330
2
100
AcDbEntity
  8
GAIKEI
  6
Continuous
 62
     1
100
AcDbLine
 10
39.34656177561385
 20
9.704169208801658
 30
0.0
 11
39.34656177561385
 21
22.50916920880161
 31
0.0
  0
LINE
  5
131
330
2
100
AcDbEntity
  8
GAIKEI
  6
Continuous
 62
     1
100
AcDbLine
 10
39.34925274030979
 20
6.195432491646215
 30
0.0
 11
39.34654076147598
 21
9.09916920880164
 31
0.0
  0
LINE
  5
132
330
2
100
AcDbEntity
  8
GAIKEI
  6
Continuous
 62
     1
100
AcDbLine
 10
39.37983677561386
 20
22.50916920880161
 30
0.0
 11
39.15097267561384
 21
22.50916920880161
 31
0.0
  0
LINE
  5
133
330
2
100
AcDbEntity
  8
GAIKEI
  6
Continuous
 62
     1
100
AcDbLine
 10
39.37983677561386
 20
9.09916920880164
 30
0.0
 11
39.15097267561379
 21
9.09916920880164
 31
0.0
  0
LINE
  5
134
330
2
100
AcDbEntity
  8
GAIKEI
  6
Continuous
 62
     1
100
AcDbLine
 10
39.15097267561384
 20
9.704169208801658
 30
0.0
 11
39.42719927561382
 21
9.704169208801658
 31
0.0
  0
LINE
  5
135
330
2
100
AcDbEntity
  8
GAIKEI
  6
Continuous
 62
     1
100
AcDbLine
 10
39.15097267561384
 20
23.11416920880163
 30
0.0
 11
39.37983677561386
 21
23.11416920880163
 31
0.0
  0
LINE
  5
136
330
2
100
AcDbEntity
  8
GAIKEI
  6
Continuous
 62
     1
100
AcDbLine
 10
39.37983677561386
 20
9.09916920880164
 30
0.0
 11
39.37983677561386
 21
9.704169208801658
 31
0.0
  0
LINE
  5
137
330
2
100
AcDbEntity
  8
GAIKEI
  6
Continuous
 62
     1
100
AcDbLine
 10
39.37983677561386
 20
22.50916920880161
 30
0.0
 11
39.37983677561386
 21
23.11416920880163
 31
0.0
  0
LINE
  5
138
330
2
100
AcDbEntity
  8
GAIKEI
  6
Continuous
100
AcDbLine
 10
39.36582762561386
 20
24.42363225880161
 30
0.0
 11
39.36860747561383
 21
24.42255000880164
 31
0.0
  0
LINE
  5
139
330
2
100
AcDbEntity
  8
GAIKEI
  6
Continuous
100
AcDbLine
 10
39.36860747561383
 20
24.42255000880164
 30
0.0
 11
39.36483412561381
 21
24.41640810880165
 31
0.0
  0
LINE
  5
13A
330
2
100
AcDbEntity
  8
GAIKEI
  6
Continuous
 62
     1
100
AcDbLine
 10
39.42053876963388
 20
24.075097743377
 30
0.0
 11
39.50295907561383
 21
24.20925310880159
 31
0.0
  0
LINE
  5
13B
330
2
100
AcDbEntity
  8
GAIKEI
  6
Continuous
 62
     1
100
AcDbLine
 10
39.5989797938496
 20
24.6406712001342
 30
0.0
 11
39.61710977561381
 21
26.25081240880161
 31
0.0
  0
LINE
  5
13C
330
2
100
AcDbEntity
  8
GAIKEI
  6
Continuous
100
AcDbLine
 10
39.6947662756138
 20
27.14334665880165
 30
0.0
 11
39.6947662756138
 21
13.15266175880163
 31
0.0
  0
LINE
  5
13D
330
2
100
AcDbEntity
  8
GAIKEI
  6
Continuous
 62
     1
100
AcDbLine
 10
39.42719927561382
 20
9.09916920880164
 30
0.0
 11
39.37983677561386
 21
9.09916920880164
 31
0.0
  0
LINE
  5
13E
330
2
100
AcDbEntity
  8
GAIKEI
  6
Continuous
 62
     1
100
AcDbLine
 10
39.19599002561381
 20
5.731104858801586
 30
0.0
 11
39.5905119444335
 21
6.201692595695931
 31
0.0
  0
LINE
  5
13F
330
2
100
AcDbEntity
  8
GAIKEI
  6
Continuous
100
AcDbLine
 10
38.22618357561385
 20
30.06205730880163
 30
0.0
 11
37.75615512561382
 21
30.16196495880161
 31
0.0
  0
LINE
  5
140
330
2
100
AcDbEntity
  8
GAIKEI
  6
Continuous
100
AcDbLine
 10
39.15097267561384
 20
29.8654873588016
 30
0.0
 11
38.22618357561385
 21
30.06205730880163
 31
0.0
  0
LINE
  5
141
330
2
100
AcDbEntity
  8
GAIKEI
  6
Continuous
100
AcDbLine
 10
39.38430262561383
 20
29.38720375880161
 30
0.0
 11
39.34656177561385
 21
29.65574370880165
 31
0.0
  0
LINE
  5
142
330
2
100
AcDbEntity
  8
GAIKEI
  6
Continuous
100
AcDbLine
 10
39.6971992756138
 20
27.15785825880164
 30
0.0
 11
39.6971992756138
 21
27.16082835880161
 31
0.0
  0
LINE
  5
143
330
2
100
AcDbEntity
  8
GAIKEI
  6
Continuous
100
AcDbLine
 10
39.6971992756138
 20
27.16082835880161
 30
0.0
 11
39.62234257561386
 21
27.69346155880163
 31
0.0
  0
LINE
  5
144
330
2
100
AcDbEntity
  8
GAIKEI
  6
Continuous
100
AcDbLine
 10
39.6971992756138
 20
6.510407908801653
 30
0.0
 11
39.6971992756138
 21
6.607199508801613
 31
0.0
  0
LINE
  5
145
330
2
100
AcDbEntity
  8
GAIKEI
  6
Continuous
100
AcDbLine
 10
39.6971992756138
 20
6.607199508801613
 30
0.0
 11
39.6971992756138
 21
13.15266175880163
 31
0.0
  0
LINE
  5
146
330
2
100
AcDbEntity
  8
GAIKEI
  6
Continuous
100
AcDbLine
 10
39.6971992756138
 20
13.15266175880163
 30
0.0
 11
39.6971992756138
 21
14.22067665880161
 31
0.0
  0
LINE
  5
147
330
2
100
AcDbEntity
  8
GAIKEI
  6
Continuous
 62
     7
100
AcDbLine
 10
38.46548912561383
 20
2.024762858801636
 30
0.0
 11
38.7527277256138
 21
2.039816408801584
 31
0.0
  0
LINE
  5
148
330
2
100
AcDbEntity
  8
GAIKEI
  6
Continuous
 62
     1
100
AcDbLine
 10
38.46548912561383
 20
2.024762858801636
 30
0.0
 11
38.46441082561381
 21
2.024706358801608
 31
0.0
  0
LINE
  5
149
330
2
100
AcDbEntity
  8
GAIKEI
  6
Continuous
 62
     1
100
AcDbLine
 10
38.46028327561385
 20
2.024490008801649
 30
0.0
 11
38.46441082561381
 21
2.024706358801608
 31
0.0
  0
LINE
  5
14A
330
2
100
AcDbEntity
  8
GAIKEI
  6
Continuous
 62
     7
100
AcDbLine
 10
38.7527277256138
 20
2.039816408801584
 30
0.0
 11
38.83138947561383
 21
2.043938858801652
 31
0.0
  0
LINE
  5
14B
330
2
100
AcDbEntity
  8
GAIKEI
  6
Continuous
100
AcDbLine
 10
39.42219927561382
 20
2.549384208801598
 30
0.0
 11
39.42219927561382
 21
5.818705458801616
 31
0.0
  0
LINE
  5
14C
330
2
100
AcDbEntity
  8
GAIKEI
  6
Continuous
100
AcDbLine
 10
38.83138947561383
 20
2.043938858801652
 30
0.0
 11
38.94836727561381
 21
2.050069408801618
 31
0.0
  0
LINE
  5
14D
330
2
100
AcDbEntity
  8
GAIKEI
  6
Continuous
100
AcDbLine
 10
39.37054282561383
 20
29.48510960880162
 30
0.0
 11
39.6971992756138
 21
27.16082835880161
 31
0.0
  0
ARC
  5
14E
330
2
100
AcDbEntity
  8
GAIKEI
  6
Continuous
 62
     1
100
AcDbCircle
 10
39.4471992756138
 20
4.863691508801593
 30
0.0
 40
0.75
100
AcDbArc
 50
140.0000000000024
 51
180.0
  0
ARC
  5
14F
330
2
100
AcDbEntity
  8
GAIKEI
  6
Continuous
 62
     1
100
AcDbCircle
 10
38.4471992756138
 20
2.274147408801582
 30
0.0
 40
0.25
100
AcDbArc
 50
274.2367919999947
 51
0.0
  0
ARC
  5
150
330
2
100
AcDbEntity
  8
GAIKEI
  6
Continuous
100
AcDbCircle
 10
39.09899477561385
 20
29.62095045880165
 30
0.0
 40
0.25
100
AcDbArc
 50
8.000000000005512
 51
77.99999999998565
  0
ARC
  5
151
330
2
100
AcDbEntity
  8
GAIKEI
  6
Continuous
100
AcDbCircle
 10
39.1971992756138
 20
6.510407908801653
 30
0.0
 40
0.5
100
AcDbArc
 50
321.8712529999933
 51
359.6917960000155
  0
ARC
  5
152
330
2
100
AcDbEntity
  8
GAIKEI
  6
Continuous
100
AcDbCircle
 10
39.92219927561382
 20
5.818705458801616
 30
0.0
 40
0.5
100
AcDbArc
 50
179.3354799999874
 51
180.0
  0
ARC
  5
153
330
2
100
AcDbEntity
  8
GAIKEI
  6
Continuous
100
AcDbCircle
 10
38.92219927561382
 20
2.549384208801598
 30
0.0
 40
0.5
100
AcDbArc
 50
273.0000000000057
 51
0.0
  0
ARC
  5
154
330
2
100
AcDbEntity
  8
GAIKEI
  6
Continuous
100
AcDbCircle
 10
39.1971992756138
 20
6.510407908801653
 30
0.0
 40
0.5
100
AcDbArc
 50
359.670535000016
 51
0.0
  0
ARC
  5
155
330
2
100
AcDbEntity
  8
GAIKEI
  6
Continuous
100
AcDbCircle
 10
39.1971992756138
 20
6.510407908801653
 30
0.0
 40
0.5
100
AcDbArc
 50
355.2257539999894
 51
359.670535000016
  0
ELLIPSE
  5
156
330
2
100
AcDbEntity
  8
GAIKEI
  6
Continuous
100
AcDbEllipse
 10
39.4471992756138
 20
6.510407908801653
 30
0.0
 11
-0.25
 21
-0.0000000000000001
 31
0.0
210
0.0
220
0.0
230
1.0
 40
0.9073409999999999
 41
3.135287578111884
 42
3.141592653589792
  0
LINE
  5
157
330
2
100
AcDbEntity
  8
GAIKEI
  6
Continuous
 62
     1
100
AcDbLine
 10
38.6971992756138
 20
4.806669208801622
 30
0.0
 11
38.77915792561385
 21
4.795150658801617
 31
0.0
  0
LINE
  5
158
330
2
100
AcDbEntity
  8
GAIKEI
  6
Continuous
 62
     1
100
AcDbLine
 10
38.77064277561385
 20
4.79634740880158
 30
0.0
 11
38.70446557561383
 21
4.805648008801654
 31
0.0
  0
ARC
  5
159
330
2
100
AcDbEntity
  8
GAIKEI
  6
Continuous
 62
     1
100
AcDbCircle
 10
38.53219927561383
 20
4.24666920880162
 30
0.0
 40
0.4400000000000001
100
AcDbArc
 50
0.0
 51
43.76174299999948
  0
ARC
  5
15A
330
2
100
AcDbEntity
  8
GAIKEI
  6
Continuous
 62
     1
100
AcDbCircle
 10
38.77219927561384
 20
4.745637258801593
 30
0.0
 40
0.05
100
AcDbArc
 50
0.0
 51
81.99999999999448
  0
ARC
  5
15B
330
2
100
AcDbEntity
  8
GAIKEI
  6
Continuous
 62
     1
100
AcDbCircle
 10
38.92219927561382
 20
4.620166208801606
 30
0.0
 40
0.1
100
AcDbArc
 50
180.0
 51
223.7617429999995
  0
LINE
  5
15C
330
2
100
AcDbEntity
  8
GAIKEI
  6
Continuous
 62
     1
100
AcDbLine
 10
38.8221992756138
 20
4.696123858801627
 30
0.0
 11
38.8221992756138
 21
4.620166208801606
 31
0.0
  0
LINE
  5
15D
330
2
100
AcDbEntity
  8
GAIKEI
  6
Continuous
 62
     1
100
AcDbLine
 10
38.8221992756138
 20
4.745637258801593
 30
0.0
 11
38.8221992756138
 21
4.696123858801627
 31
0.0
  0
ARC
  5
15E
330
2
100
AcDbEntity
  8
GAIKEI
  6
Continuous
 62
     1
100
AcDbCircle
 10
38.53219927561383
 20
4.136669208801606
 30
0.0
 40
0.4400000000000001
100
AcDbArc
 50
316.2382570000005
 51
0.0
  0
LINE
  5
15F
330
2
100
AcDbEntity
  8
GAIKEI
  6
Continuous
 62
     1
100
AcDbLine
 10
38.97219927561383
 20
4.24666920880162
 30
0.0
 11
38.97219927561383
 21
4.136669208801606
 31
0.0
  0
LINE
  5
160
330
2
100
AcDbEntity
  8
GAIKEI
  6
Continuous
 62
     1
100
AcDbLine
 10
38.77915792561385
 20
3.588187758801609
 30
0.0
 11
38.6971992756138
 21
3.576669208801604
 31
0.0
  0
LINE
  5
161
330
2
100
AcDbEntity
  8
GAIKEI
  6
Continuous
 62
     1
100
AcDbLine
 10
38.70446557561383
 20
3.577690408801629
 30
0.0
 11
38.77064277561385
 21
3.586991008801646
 31
0.0
  0
ARC
  5
162
330
2
100
AcDbEntity
  8
GAIKEI
  6
Continuous
 62
     1
100
AcDbCircle
 10
38.92219927561382
 20
3.76317220880162
 30
0.0
 40
0.1
100
AcDbArc
 50
136.2382570000005
 51
180.0
  0
ARC
  5
163
330
2
100
AcDbEntity
  8
GAIKEI
  6
Continuous
 62
     1
100
AcDbCircle
 10
38.77219927561384
 20
3.637701158801633
 30
0.0
 40
0.05
100
AcDbArc
 50
278.0000000000055
 51
0.0
  0
LINE
  5
164
330
2
100
AcDbEntity
  8
GAIKEI
  6
Continuous
 62
     1
100
AcDbLine
 10
38.8221992756138
 20
3.687214558801656
 30
0.0
 11
38.8221992756138
 21
3.637701158801633
 31
0.0
  0
LINE
  5
165
330
2
100
AcDbEntity
  8
GAIKEI
  6
Continuous
 62
     1
100
AcDbLine
 10
38.8221992756138
 20
3.76317220880162
 30
0.0
 11
38.8221992756138
 21
3.687214558801656
 31
0.0
  0
LINE
  5
166
330
2
100
AcDbEntity
  8
GAIKEI
  6
Continuous
 62
     1
100
AcDbLine
 10
6.231335213753936
 20
1.211047108801608
 30
0.0
 11
-43.65990898624602
 21
1.211047108801608
 31
0.0
  0
LINE
  5
167
330
2
100
AcDbEntity
  8
GAIKEI
  6
Continuous
 62
     1
100
AcDbLine
 10
-43.65990898624602
 20
30.91229130880163
 30
0.0
 11
6.231335213753993
 21
30.91229130880163
 31
0.0
  0
LINE
  5
168
330
2
100
AcDbEntity
  8
GAIKEI
  6
Continuous
 62
     1
100
AcDbLine
 10
-43.81490898624605
 20
1.366047108801581
 30
0.0
 11
-43.81490898624599
 21
30.75729130880166
 31
0.0
  0
LINE
  5
169
330
2
100
AcDbEntity
  8
GAIKEI
  6
Continuous
 62
     1
100
AcDbLine
 10
6.386335213753966
 20
1.366047108801581
 30
0.0
 11
6.386335213754023
 21
30.75729130880166
 31
0.0
  0
LINE
  5
16A
330
2
100
AcDbEntity
  8
GAIKEI
  6
Continuous
 62
     1
100
AcDbLine
 10
5.385713113753922
 20
29.7116692088016
 30
0.0
 11
5.385713113753922
 21
2.41166920880164
 31
0.0
  0
LINE
  5
16B
330
2
100
AcDbEntity
  8
GAIKEI
  6
Continuous
 62
     1
100
AcDbLine
 10
-41.59928688624603
 20
1.66166920880164
 30
0.0
 11
-41.29928688624602
 21
1.66166920880164
 31
0.0
  0
LINE
  5
16C
330
2
100
AcDbEntity
  8
GAIKEI
  6
Continuous
 62
     1
100
AcDbLine
 10
-41.27428688624604
 20
1.636669208801606
 30
0.0
 11
-41.27428688624604
 21
1.336669208801595
 31
0.0
  0
LINE
  5
16D
330
2
100
AcDbEntity
  8
GAIKEI
  6
Continuous
 62
     1
100
AcDbLine
 10
-43.22053688624601
 20
1.430419208801595
 30
0.0
 11
-43.22053688624601
 21
1.542919208801606
 31
0.0
  0
LINE
  5
16E
330
2
100
AcDbEntity
  8
GAIKEI
  6
Continuous
 62
     1
100
AcDbLine
 10
-41.62428688624607
 20
1.336669208801595
 30
0.0
 11
-41.62428688624607
 21
1.636669208801606
 31
0.0
  0
LINE
  5
16F
330
2
100
AcDbEntity
  8
GAIKEI
  6
Continuous
 62
     1
100
AcDbLine
 10
-43.10803688624605
 20
1.542919208801606
 30
0.0
 11
-43.10803688624605
 21
1.430419208801595
 31
0.0
  0
LINE
  5
170
330
2
100
AcDbEntity
  8
GAIKEI
  6
Continuous
 62
     1
100
AcDbLine
 10
-43.22053688624601
 20
1.542919208801606
 30
0.0
 11
-43.10803688624605
 21
1.542919208801606
 31
0.0
  0
LINE
  5
171
330
2
100
AcDbEntity
  8
GAIKEI
  6
Continuous
 62
     1
100
AcDbLine
 10
-43.10803688624605
 20
1.430419208801595
 30
0.0
 11
-43.22053688624601
 21
1.430419208801595
 31
0.0
  0
LINE
  5
172
330
2
100
AcDbEntity
  8
GAIKEI
  6
Continuous
 62
     1
100
AcDbLine
 10
-41.29928688624602
 20
1.311669208801617
 30
0.0
 11
-41.59928688624603
 21
1.311669208801617
 31
0.0
  0
LINE
  5
173
330
2
100
AcDbEntity
  8
GAIKEI
  6
Continuous
 62
     1
100
AcDbLine
 10
5.18571311375399
 20
29.91166920880164
 30
0.0
 11
-42.61428688624607
 21
29.91166920880164
 31
0.0
  0
LINE
  5
174
330
2
100
AcDbEntity
  8
GAIKEI
  6
Continuous
 62
     1
100
AcDbLine
 10
-42.814286886246
 20
29.7116692088016
 30
0.0
 11
-42.814286886246
 21
2.41166920880164
 31
0.0
  0
LINE
  5
175
330
2
100
AcDbEntity
  8
GAIKEI
  6
Continuous
 62
     1
100
AcDbLine
 10
-42.61428688624607
 20
2.211669208801595
 30
0.0
 11
5.18571311375399
 21
2.211669208801595
 31
0.0
  0
LINE
  5
176
330
2
100
AcDbEntity
  8
GAIKEI
  6
Continuous
 62
     1
100
AcDbLine
 10
6.458820463753909
 20
0.9505618588016204
 30
0.0
 11
-43.88739423624605
 21
0.9505618588016204
 31
0.0
  0
LINE
  5
177
330
2
100
AcDbEntity
  8
GAIKEI
  6
Continuous
 62
     1
100
AcDbLine
 10
-43.88739423624611
 20
31.17277655880162
 30
0.0
 11
6.458820463753966
 21
31.17277655880162
 31
0.0
  0
LINE
  5
178
330
2
100
AcDbEntity
  8
GAIKEI
  6
Continuous
 62
     1
100
AcDbLine
 10
6.646820463753897
 20
1.138561858801608
 30
0.0
 11
6.646820463753954
 21
30.98477655880163
 31
0.0
  0
LINE
  5
179
330
2
100
AcDbEntity
  8
GAIKEI
  6
Continuous
 62
     1
100
AcDbLine
 10
-44.07539423624604
 20
1.138561858801608
 30
0.0
 11
-44.07539423624609
 21
30.98477655880163
 31
0.0
  0
LINE
  5
17A
330
2
100
AcDbEntity
  8
GAIKEI
  6
Continuous
 62
     1
100
AcDbLine
 10
4.34794989468645
 20
28.93786537945152
 30
0.0
 11
5.276364313753958
 21
29.75071370880164
 31
0.0
  0
LINE
  5
17B
330
2
100
AcDbEntity
  8
GAIKEI
  6
Continuous
 62
     1
100
AcDbLine
 10
5.132205463753962
 20
29.81042535880158
 30
0.0
 11
4.239874797590857
 21
29.02916920880159
 31
0.0
  0
LINE
  5
17C
330
2
100
AcDbEntity
  8
GAIKEI
  6
Continuous
 62
     1
100
AcDbLine
 10
-42.56077923624604
 20
29.81042535880158
 30
0.0
 11
-41.66844857008294
 21
29.02916920880159
 31
0.0
  0
LINE
  5
17D
330
2
100
AcDbEntity
  8
GAIKEI
  6
Continuous
 62
     1
100
AcDbLine
 10
-41.77652366717853
 20
28.93786537945152
 30
0.0
 11
-42.70493808624604
 21
29.75071370880164
 31
0.0
  0
LINE
  5
17E
330
2
100
AcDbEntity
  8
GAIKEI
  6
Continuous
 62
     1
100
AcDbLine
 10
4.239874797590857
 20
3.094169208801645
 30
0.0
 11
5.132205463753962
 21
2.312913058801655
 31
0.0
  0
LINE
  5
17F
330
2
100
AcDbEntity
  8
GAIKEI
  6
Continuous
 62
     1
100
AcDbLine
 10
5.276364313753958
 20
2.372624708801595
 30
0.0
 11
4.347949894686507
 21
3.185473038151712
 31
0.0
  0
LINE
  5
180
330
2
100
AcDbEntity
  8
GAIKEI
  6
Continuous
 62
     1
100
AcDbLine
 10
-41.66844857008294
 20
3.094169208801645
 30
0.0
 11
-42.56077923624604
 21
2.312913058801655
 31
0.0
  0
LINE
  5
181
330
2
100
AcDbEntity
  8
GAIKEI
  6
Continuous
 62
     1
100
AcDbLine
 10
-42.70493808624604
 20
2.372624708801595
 30
0.0
 11
-41.77647556989836
 21
3.185515148434603
 31
0.0
  0
LINE
  5
182
330
2
100
AcDbEntity
  8
GAIKEI
  6
Continuous
 62
     1
100
AcDbLine
 10
5.285713113753899
 20
2.411413058801599
 30
0.0
 11
5.285713113753956
 21
29.71316920880156
 31
0.0
  0
LINE
  5
183
330
2
100
AcDbEntity
  8
GAIKEI
  6
Continuous
 62
     1
100
AcDbLine
 10
-42.71297758624609
 20
29.71316920880162
 30
0.0
 11
-42.71297758624604
 21
2.411413058801599
 31
0.0
  0
LINE
  5
184
330
2
100
AcDbEntity
  8
GAIKEI
  6
Continuous
 62
     1
100
AcDbLine
 10
5.187213113753955
 20
2.312913058801655
 30
0.0
 11
-42.61447758624604
 21
2.312913058801655
 31
0.0
  0
LINE
  5
185
330
2
100
AcDbEntity
  8
GAIKEI
  6
Continuous
 62
     1
100
AcDbLine
 10
-42.61447758624604
 20
29.81166920880162
 30
0.0
 11
5.187213113753955
 21
29.81166920880162
 31
0.0
  0
LINE
  5
186
330
2
100
AcDbEntity
  8
GAIKEI
  6
Continuous
 62
     1
100
AcDbLine
 10
-41.67828688624604
 20
3.094169208801645
 30
0.0
 11
4.249713113753955
 21
3.094169208801645
 31
0.0
  0
LINE
  5
187
330
2
100
AcDbEntity
  8
GAIKEI
  6
Continuous
 62
     1
100
AcDbLine
 10
-41.67828688624604
 20
29.02916920880159
 30
0.0
 11
4.249713113753955
 21
29.02916920880165
 31
0.0
  0
LINE
  5
188
330
2
100
AcDbEntity
  8
GAIKEI
  6
Continuous
 62
     1
100
AcDbLine
 10
4.348213113753956
 20
28.93066920880165
 30
0.0
 11
4.348213113754013
 21
3.192669208801589
 31
0.0
  0
LINE
  5
189
330
2
100
AcDbEntity
  8
GAIKEI
  6
Continuous
 62
     1
100
AcDbLine
 10
-41.77678688624604
 20
28.93066920880165
 30
0.0
 11
-41.77678688624604
 21
3.192669208801589
 31
0.0
  0
LINE
  5
18A
330
2
100
AcDbEntity
  8
GAIKEI
  6
Continuous
100
AcDbLine
 10
-44.01178688624606
 20
0.8141692088016156
 30
0.0
 11
6.58321311375397
 21
0.8141692088016156
 31
0.0
  0
LINE
  5
18B
330
2
100
AcDbEntity
  8
GAIKEI
  6
Continuous
100
AcDbLine
 10
-44.01178688624606
 20
31.30916920880162
 30
0.0
 11
6.58321311375397
 21
31.30916920880162
 31
0.0
  0
LINE
  5
18C
330
2
100
AcDbEntity
  8
GAIKEI
  6
Continuous
100
AcDbLine
 10
6.783213113753959
 20
31.10916920880163
 30
0.0
 11
6.783213113753959
 21
1.014169208801604
 31
0.0
  0
LINE
  5
18D
330
2
100
AcDbEntity
  8
GAIKEI
  6
Continuous
100
AcDbLine
 10
-44.21178688624604
 20
31.10916920880163
 30
0.0
 11
-44.21178688624604
 21
1.014169208801604
 31
0.0
  0
ARC
  5
18E
330
2
100
AcDbEntity
  8
GAIKEI
  6
Continuous
 62
     1
100
AcDbCircle
 10
5.18571311375399
 20
29.7116692088016
 30
0.0
 40
0.2
100
AcDbArc
 50
0.0
 51
90.0
  0
ARC
  5
18F
330
2
100
AcDbEntity
  8
GAIKEI
  6
Continuous
 62
     1
100
AcDbCircle
 10
-42.61428688624607
 20
2.41166920880164
 30
0.0
 40
0.2
100
AcDbArc
 50
180.0
 51
270.0
  0
ARC
  5
190
330
2
100
AcDbEntity
  8
GAIKEI
  6
Continuous
 62
     1
100
AcDbCircle
 10
-42.61428688624607
 20
29.7116692088016
 30
0.0
 40
0.2
100
AcDbArc
 50
90.0
 51
180.0
  0
ARC
  5
191
330
2
100
AcDbEntity
  8
GAIKEI
  6
Continuous
 62
     1
100
AcDbCircle
 10
-41.59928688624603
 20
1.336669208801595
 30
0.0
 40
0.025
100
AcDbArc
 50
180.0
 51
270.0
  0
ARC
  5
192
330
2
100
AcDbEntity
  8
GAIKEI
  6
Continuous
 62
     1
100
AcDbCircle
 10
-41.29928688624602
 20
1.336669208801595
 30
0.0
 40
0.025
100
AcDbArc
 50
270.0
 51
0.0
  0
ARC
  5
193
330
2
100
AcDbEntity
  8
GAIKEI
  6
Continuous
 62
     1
100
AcDbCircle
 10
-41.29928688624602
 20
1.636669208801606
 30
0.0
 40
0.025
100
AcDbArc
 50
0.0
 51
90.0
  0
ARC
  5
194
330
2
100
AcDbEntity
  8
GAIKEI
  6
Continuous
 62
     1
100
AcDbCircle
 10
-41.59928688624603
 20
1.636669208801606
 30
0.0
 40
0.025
100
AcDbArc
 50
90.0
 51
180.0
  0
ARC
  5
195
330
2
100
AcDbEntity
  8
GAIKEI
  6
Continuous
 62
     1
100
AcDbCircle
 10
5.18571311375399
 20
2.41166920880164
 30
0.0
 40
0.2
100
AcDbArc
 50
270.0
 51
0.0
  0
ARC
  5
196
330
2
100
AcDbEntity
  8
GAIKEI
  6
Continuous
100
AcDbCircle
 10
6.58321311375397
 20
1.014169208801604
 30
0.0
 40
0.2
100
AcDbArc
 50
270.0784679999916
 51
359.9215320000084
  0
ARC
  5
197
330
2
100
AcDbEntity
  8
GAIKEI
  6
Continuous
100
AcDbCircle
 10
-44.01178688624606
 20
1.014169208801604
 30
0.0
 40
0.2
100
AcDbArc
 50
180.0784679999916
 51
269.9215320000084
  0
ARC
  5
198
330
2
100
AcDbEntity
  8
GAIKEI
  6
Continuous
100
AcDbCircle
 10
6.58321311375397
 20
31.10916920880163
 30
0.0
 40
0.2
100
AcDbArc
 50
0.0784679999916189
 51
89.92153200000839
  0
ARC
  5
199
330
2
100
AcDbEntity
  8
GAIKEI
  6
Continuous
100
AcDbCircle
 10
-44.01178688624606
 20
31.10916920880163
 30
0.0
 40
0.2
100
AcDbArc
 50
90.0784679999916
 51
179.9215320000083
  0
ARC
  5
19A
330
2
100
AcDbEntity
  8
GAIKEI
  6
Continuous
100
AcDbCircle
 10
-44.01178688624606
 20
1.014169208801604
 30
0.0
 40
0.2
100
AcDbArc
 50
269.9215320000084
 51
270.0
  0
ARC
  5
19B
330
2
100
AcDbEntity
  8
GAIKEI
  6
Continuous
100
AcDbCircle
 10
-44.01178688624606
 20
31.10916920880163
 30
0.0
 40
0.2
100
AcDbArc
 50
90.0
 51
90.0784679999916
  0
ARC
  5
19C
330
2
100
AcDbEntity
  8
GAIKEI
  6
Continuous
100
AcDbCircle
 10
6.58321311375397
 20
1.014169208801604
 30
0.0
 40
0.2
100
AcDbArc
 50
359.9215320000084
 51
0.0
  0
ARC
  5
19D
330
2
100
AcDbEntity
  8
GAIKEI
  6
Continuous
100
AcDbCircle
 10
-44.01178688624606
 20
1.014169208801604
 30
0.0
 40
0.2
100
AcDbArc
 50
180.0
 51
180.0784679999916
  0
ARC
  5
19E
330
2
100
AcDbEntity
  8
GAIKEI
  6
Continuous
100
AcDbCircle
 10
-44.01178688624606
 20
31.10916920880163
 30
0.0
 40
0.2
100
AcDbArc
 50
179.9215320000083
 51
180.0
  0
ENDSEC
  0
SECTION
  2
OBJECTS
  0
DICTIONARY
  5
7
330
0
100
AcDbDictionary
281
     1
  3
ACAD_COLOR
350
2D
  3
ACAD_GROUP
350
29
  3
ACAD_LAYOUT
350
B
  3
ACAD_MATERIAL
350
2C
  3
ACAD_MLINESTYLE
350
2A
  3
ACAD_PLOTSETTINGS
350
2B
  3
ACAD_PLOTSTYLENAME
350
6
  3
ACDBHEADERROUNDTRIPXREC
350
1DD
  3
AcDbVariableDictionary
350
1D8
  0
DICTIONARY
  5
11
330
10
100
AcDbDictionary
280
     1
281
     1
  3
ACAD_LAYERSTATES
360
12
  0
DICTIONARY
  5
2D
102
{ACAD_REACTORS
330
7
102
}
330
7
100
AcDbDictionary
281
     1
  0
DICTIONARY
  5
29
102
{ACAD_REACTORS
330
7
102
}
330
7
100
AcDbDictionary
281
     1
  0
DICTIONARY
  5
B
102
{ACAD_REACTORS
330
7
102
}
330
7
100
AcDbDictionary
281
     1
  3
Model
350
A
  3
レイアウト1
350
F
  0
DICTIONARY
  5
2C
102
{ACAD_REACTORS
330
7
102
}
330
7
100
AcDbDictionary
281
     1
  0
DICTIONARY
  5
2A
102
{ACAD_REACTORS
330
7
102
}
330
7
100
AcDbDictionary
281
     1
  3
Standard
350
2F
  0
DICTIONARY
  5
2B
102
{ACAD_REACTORS
330
7
102
}
330
7
100
AcDbDictionary
281
     1
  0
ACDBDICTIONARYWDFLT
  5
6
102
{ACAD_REACTORS
330
7
102
}
330
7
100
AcDbDictionary
281
     1
  3
Normal
350
5
100
AcDbDictionaryWithDefault
340
5
  0
DICTIONARY
  5
1DD
102
{ACAD_REACTORS
330
7
102
}
330
7
100
AcDbDictionary
281
     1
  3
COLORDICT
350
1DF
  3
MATERIALDICT
350
1DE
  0
DICTIONARY
  5
1D8
102
{ACAD_REACTORS
330
7
102
}
330
7
100
AcDbDictionary
281
     1
  3
DIMASSOC
350
1DA
  3
HIDETEXT
350
1D9
  3
PROJECTNAME
350
1DB
  0
DICTIONARY
  5
12
102
{ACAD_REACTORS
330
11
102
}
330
11
100
AcDbDictionary
281
     1
  0
LAYOUT
  5
A
102
{ACAD_XDICTIONARY
360
1E0
102
}
102
{ACAD_REACTORS
330
B
102
}
330
B
100
AcDbPlotSettings
  1

  2
Ａ４－縦3FRIM01.pc3
  4
A4
  6

 40
5.873749732971191
 41
5.873747825622558
 42
5.873748779296875
 43
5.873748779296875
 44
209.9733276367187
 45
296.9259948730469
 46
5.419999999999999
 47
0.0
 48
0.0
 49
0.0
140
0.0
141
0.0
142
1.0
143
1.382452020185948
 70
 11956
 72
     1
 73
     0
 74
     1
  7
tmsacad.ctb
 75
     0
147
0.7233524096304576
148
0.0183484674822694
149
0.0079333943659776
100
AcDbLayout
  1
Model
 70
     1
 71
     0
 10
0.0
 20
0.0
 11
12.0
 21
9.0
 12
0.0
 22
0.0
 32
0.0
 14
0.0
 24
0.0
 34
0.0
 15
0.0
 25
0.0
 35
0.0
146
0.0
 13
0.0
 23
0.0
 33
0.0
 16
1.0
 26
0.0
 36
0.0
 17
0.0
 27
1.0
 37
0.0
 76
     0
330
2
  0
LAYOUT
  5
F
102
{ACAD_XDICTIONARY
360
1E2
102
}
102
{ACAD_REACTORS
330
B
102
}
330
B
100
AcDbPlotSettings
  1

  2
None
  4

  6

 40
0.0
 41
0.0
 42
0.0
 43
0.0
 44
0.0
 45
0.0
 46
0.0
 47
0.0
 48
0.0
 49
0.0
140
0.0
141
0.0
142
1.0
143
1.0
 70
   688
 72
     0
 73
     0
 74
     5
  7
tmsacad.ctb
 75
    16
147
1.0
148
0.0
149
0.0
100
AcDbLayout
  1
レイアウト1
 70
     1
 71
     1
 10
0.0
 20
0.0
 11
12.0
 21
9.0
 12
0.0
 22
0.0
 32
0.0
 14
0.0
 24
0.0
 34
0.0
 15
0.0
 25
0.0
 35
0.0
146
0.0
 13
0.0
 23
0.0
 33
0.0
 16
1.0
 26
0.0
 36
0.0
 17
0.0
 27
1.0
 37
0.0
 76
     0
330
C
  0
MLINESTYLE
  5
2F
102
{ACAD_REACTORS
330
2A
102
}
330
2A
100
AcDbMlineStyle
  2
STANDARD
 70
     0
  3

 62
   256
 51
90.0
 52
90.0
 71
     2
 49
0.5
 62
   256
  6
BYLAYER
 49
-0.5
 62
   256
  6
BYLAYER
  0
ACDBPLACEHOLDER
  5
5
102
{ACAD_REACTORS
330
6
102
}
330
6
  0
XRECORD
  5
1DF
102
{ACAD_REACTORS
330
1DD
102
}
330
1DD
100
AcDbXrecord
280
     1
340
2D
  0
XRECORD
  5
1DE
102
{ACAD_REACTORS
330
1DD
102
}
330
1DD
100
AcDbXrecord
280
     1
340
2C
  0
DICTIONARYVAR
  5
1DA
102
{ACAD_REACTORS
330
1D8
102
}
330
1D8
100
DictionaryVariables
280
     0
  1
1
  0
DICTIONARYVAR
  5
1D9
102
{ACAD_REACTORS
330
1D8
102
}
330
1D8
100
DictionaryVariables
280
     0
  1
1
  0
DICTIONARYVAR
  5
1DB
102
{ACAD_REACTORS
330
1D8
102
}
330
1D8
100
DictionaryVariables
280
     0
  1

  0
DICTIONARY
  5
1E0
330
A
100
AcDbDictionary
280
     1
281
     1
  3
ACAD_XREC_ROUNDTRIP
360
1E1
  0
DICTIONARY
  5
1E2
330
F
100
AcDbDictionary
280
     1
281
     1
  3
ACAD_XREC_ROUNDTRIP
360
1E3
  0
XRECORD
  5
1E1
102
{ACAD_REACTORS
330
1E0
102
}
330
1E0
100
AcDbXrecord
280
     1
102
SHADEPLOT
 70
     0
102
SHADEPLOTRESLEVEL
 70
     2
102
SHADEPLOTCUSTOMDPI
 70
   300
  0
XRECORD
  5
1E3
102
{ACAD_REACTORS
330
1E2
102
}
330
1E2
100
AcDbXrecord
280
     1
102
SHADEPLOT
 70
     0
102
SHADEPLOTRESLEVEL
 70
     2
102
SHADEPLOTCUSTOMDPI
 70
   300
  0
ENDSEC
  0
EOF
