  0
SECTION
  2
HEADER
  9
$ACADVER
  1
AC1015
  9
$ACADMAINTVER
 70
    20
  9
$DWGCODEPAGE
  3
ANSI_932
  9
$INSBASE
 10
0.0
 20
246.4992141396417
 30
0.0
  9
$EXTMIN
 10
1.985236180732044
 20
131.4917909329499
 30
-0.0015258207003583
  9
$EXTMAX
 10
127.0064747906481
 20
244.5062986699194
 30
0.0000000349246037
  9
$LIMMIN
 10
-139.8287979831839
 20
-0.3363807147279658
  9
$LIMMAX
 10
398.8557467307846
 20
394.4673933017348
  9
$ORTHOMODE
 70
     1
  9
$REGENMODE
 70
     1
  9
$FILLMODE
 70
     1
  9
$QTEXTMODE
 70
     0
  9
$MIRRTEXT
 70
     1
  9
$LTSCALE
 40
1.0
  9
$ATTMODE
 70
     1
  9
$TEXTSIZE
 40
3.0
  9
$TRACEWID
 40
0.5
  9
$TEXTSTYLE
  7
STANDARD
  9
$CLAYER
  8
0
  9
$CELTYPE
  6
BYLAYER
  9
$CECOLOR
 62
   256
  9
$CELTSCALE
 40
1.0
  9
$DISPSILH
 70
     0
  9
$DIMSCALE
 40
1.0
  9
$DIMASZ
 40
2.0
  9
$DIMEXO
 40
2.0
  9
$DIMDLI
 40
8.0
  9
$DIMRND
 40
0.0
  9
$DIMDLE
 40
0.0
  9
$DIMEXE
 40
2.0
  9
$DIMTP
 40
0.0
  9
$DIMTM
 40
0.0
  9
$DIMTXT
 40
2.5
  9
$DIMCEN
 40
0.0
  9
$DIMTSZ
 40
0.0
  9
$DIMTOL
 70
     0
  9
$DIMLIM
 70
     0
  9
$DIMTIH
 70
     0
  9
$DIMTOH
 70
     0
  9
$DIMSE1
 70
     0
  9
$DIMSE2
 70
     0
  9
$DIMTAD
 70
     3
  9
$DIMZIN
 70
     0
  9
$DIMBLK
  1

  9
$DIMASO
 70
     1
  9
$DIMSHO
 70
     1
  9
$DIMPOST
  1

  9
$DIMAPOST
  1

  9
$DIMALT
 70
     0
  9
$DIMALTD
 70
     2
  9
$DIMALTF
 40
25.4
  9
$DIMLFAC
 40
1.0
  9
$DIMTOFL
 70
     1
  9
$DIMTVP
 40
0.0
  9
$DIMTIX
 70
     0
  9
$DIMSOXD
 70
     0
  9
$DIMSAH
 70
     1
  9
$DIMBLK1
  1
OPEN30
  9
$DIMBLK2
  1
OPEN30
  9
$DIMSTYLE
  2
STANDARD
  9
$DIMCLRD
 70
     0
  9
$DIMCLRE
 70
     0
  9
$DIMCLRT
 70
     0
  9
$DIMTFAC
 40
1.0
  9
$DIMGAP
 40
0.5
  9
$DIMJUST
 70
     0
  9
$DIMSD1
 70
     0
  9
$DIMSD2
 70
     0
  9
$DIMTOLJ
 70
     1
  9
$DIMTZIN
 70
     0
  9
$DIMALTZ
 70
     0
  9
$DIMALTTZ
 70
     0
  9
$DIMUPT
 70
     0
  9
$DIMDEC
 70
     4
  9
$DIMTDEC
 70
     4
  9
$DIMALTU
 70
     2
  9
$DIMALTTD
 70
     2
  9
$DIMTXSTY
  7
STANDARD
  9
$DIMAUNIT
 70
     0
  9
$DIMADEC
 70
     0
  9
$DIMALTRND
 40
0.0
  9
$DIMAZIN
 70
     0
  9
$DIMDSEP
 70
    46
  9
$DIMATFIT
 70
     3
  9
$DIMFRAC
 70
     0
  9
$DIMLDRBLK
  1
OPEN30
  9
$DIMLUNIT
 70
     2
  9
$DIMLWD
 70
    -2
  9
$DIMLWE
 70
    -2
  9
$DIMTMOVE
 70
     0
  9
$LUNITS
 70
     2
  9
$LUPREC
 70
     4
  9
$SKETCHINC
 40
0.1
  9
$FILLETRAD
 40
0.0
  9
$AUNITS
 70
     0
  9
$AUPREC
 70
     0
  9
$MENU
  1
ACAD
  9
$ELEVATION
 40
0.0
  9
$PELEVATION
 40
0.0
  9
$THICKNESS
 40
0.0
  9
$LIMCHECK
 70
     0
  9
$CHAMFERA
 40
0.0
  9
$CHAMFERB
 40
0.0
  9
$CHAMFERC
 40
0.0
  9
$CHAMFERD
 40
0.0
  9
$SKPOLY
 70
     0
  9
$TDCREATE
 40
2451815.565532581
  9
$TDUCREATE
 40
2451815.190532581
  9
$TDUPDATE
 40
2453731.603221563
  9
$TDUUPDATE
 40
2453731.228221563
  9
$TDINDWG
 40
0.7886822454
  9
$TDUSRTIMER
 40
0.7886822454
  9
$USRTIMER
 70
     1
  9
$ANGBASE
 50
0.0
  9
$ANGDIR
 70
     0
  9
$PDMODE
 70
     0
  9
$PDSIZE
 40
0.0
  9
$PLINEWID
 40
0.0
  9
$SPLFRAME
 70
     0
  9
$SPLINETYPE
 70
     6
  9
$SPLINESEGS
 70
     8
  9
$HANDSEED
  5
25E
  9
$SURFTAB1
 70
     6
  9
$SURFTAB2
 70
     6
  9
$SURFTYPE
 70
     6
  9
$SURFU
 70
     6
  9
$SURFV
 70
     6
  9
$UCSBASE
  2

  9
$UCSNAME
  2

  9
$UCSORG
 10
0.0
 20
0.0
 30
0.0
  9
$UCSXDIR
 10
1.0
 20
0.0
 30
0.0
  9
$UCSYDIR
 10
0.0
 20
1.0
 30
0.0
  9
$UCSORTHOREF
  2

  9
$UCSORTHOVIEW
 70
     0
  9
$UCSORGTOP
 10
0.0
 20
0.0
 30
0.0
  9
$UCSORGBOTTOM
 10
0.0
 20
0.0
 30
0.0
  9
$UCSORGLEFT
 10
0.0
 20
0.0
 30
0.0
  9
$UCSORGRIGHT
 10
0.0
 20
0.0
 30
0.0
  9
$UCSORGFRONT
 10
0.0
 20
0.0
 30
0.0
  9
$UCSORGBACK
 10
0.0
 20
0.0
 30
0.0
  9
$PUCSBASE
  2

  9
$PUCSNAME
  2

  9
$PUCSORG
 10
0.0
 20
0.0
 30
0.0
  9
$PUCSXDIR
 10
1.0
 20
0.0
 30
0.0
  9
$PUCSYDIR
 10
0.0
 20
1.0
 30
0.0
  9
$PUCSORTHOREF
  2

  9
$PUCSORTHOVIEW
 70
     0
  9
$PUCSORGTOP
 10
0.0
 20
0.0
 30
0.0
  9
$PUCSORGBOTTOM
 10
0.0
 20
0.0
 30
0.0
  9
$PUCSORGLEFT
 10
0.0
 20
0.0
 30
0.0
  9
$PUCSORGRIGHT
 10
0.0
 20
0.0
 30
0.0
  9
$PUCSORGFRONT
 10
0.0
 20
0.0
 30
0.0
  9
$PUCSORGBACK
 10
0.0
 20
0.0
 30
0.0
  9
$USERI1
 70
     0
  9
$USERI2
 70
     0
  9
$USERI3
 70
     0
  9
$USERI4
 70
     0
  9
$USERI5
 70
     0
  9
$USERR1
 40
0.0
  9
$USERR2
 40
0.0
  9
$USERR3
 40
0.0
  9
$USERR4
 40
0.0
  9
$USERR5
 40
0.0
  9
$WORLDVIEW
 70
     1
  9
$SHADEDGE
 70
     3
  9
$SHADEDIF
 70
    70
  9
$TILEMODE
 70
     1
  9
$MAXACTVP
 70
    48
  9
$PINSBASE
 10
0.0
 20
0.0
 30
0.0
  9
$PLIMCHECK
 70
     0
  9
$PEXTMIN
 10
1.000000000000000E+20
 20
1.000000000000000E+20
 30
1.000000000000000E+20
  9
$PEXTMAX
 10
-1.000000000000000E+20
 20
-1.000000000000000E+20
 30
-1.000000000000000E+20
  9
$PLIMMIN
 10
0.0
 20
0.0
  9
$PLIMMAX
 10
12.0
 20
9.0
  9
$UNITMODE
 70
     0
  9
$VISRETAIN
 70
     1
  9
$PLINEGEN
 70
     0
  9
$PSLTSCALE
 70
     1
  9
$TREEDEPTH
 70
  3020
  9
$CMLSTYLE
  2
STANDARD
  9
$CMLJUST
 70
     0
  9
$CMLSCALE
 40
1.0
  9
$PROXYGRAPHICS
 70
     1
  9
$MEASUREMENT
 70
     0
  9
$CELWEIGHT
370
     0
  9
$ENDCAPS
280
     0
  9
$JOINSTYLE
280
     0
  9
$LWDISPLAY
290
     0
  9
$INSUNITS
 70
     1
  9
$HYPERLINKBASE
  1

  9
$STYLESHEET
  1

  9
$XEDIT
290
     1
  9
$CEPSNTYPE
380
     0
  9
$PSTYLEMODE
290
     0
  9
$FINGERPRINTGUID
  2
{FAEB1C30-E019-11D5-929B-00C0DF256EC4}
  9
$VERSIONGUID
  2
{9C272107-7D1B-4CEF-A59B-895A7020A045}
  9
$EXTNAMES
290
     1
  9
$PSVPSCALE
 40
0.0
  9
$OLESTARTUP
290
     0
  0
ENDSEC
  0
SECTION
  2
CLASSES
  0
CLASS
  1
ACDBDICTIONARYWDFLT
  2
AcDbDictionaryWithDefault
  3
ObjectDBX Classes
 90
        0
280
     0
281
     0
  0
CLASS
  1
ACDBPLACEHOLDER
  2
AcDbPlaceHolder
  3
ObjectDBX Classes
 90
        0
280
     0
281
     0
  0
CLASS
  1
LAYOUT
  2
AcDbLayout
  3
ObjectDBX Classes
 90
        0
280
     0
281
     0
  0
CLASS
  1
DICTIONARYVAR
  2
AcDbDictionaryVar
  3
ObjectDBX Classes
 90
        0
280
     0
281
     0
  0
ENDSEC
  0
SECTION
  2
TABLES
  0
TABLE
  2
VPORT
  5
19
330
0
100
AcDbSymbolTable
 70
     2
  0
VPORT
  5
256
330
19
100
AcDbSymbolTableRecord
100
AcDbViewportTableRecord
  2
*Active
 70
     0
 10
0.0
 20
0.0
 11
1.0
 21
1.0
 12
64.49585548569007
 22
187.9990448014346
 13
0.0
 23
0.0
 14
1.0
 24
1.0
 15
0.0
 25
0.0
 16
0.0
 26
0.0
 36
1.0
 17
0.0
 27
0.0
 37
0.0
 40
113.983203517572
 41
1.589413447782546
 42
50.0
 43
0.0
 44
0.0
 50
0.0
 51
0.0
 71
     0
 72
  1000
 73
     1
 74
     0
 75
     0
 76
     0
 77
     0
 78
     0
281
     0
 65
     1
110
0.0
120
0.0
130
0.0
111
1.0
121
0.0
131
0.0
112
0.0
122
1.0
132
0.0
 79
     0
146
0.0
  0
ENDTAB
  0
TABLE
  2
LTYPE
  5
14
330
0
100
AcDbSymbolTable
 70
     3
  0
LTYPE
  5
15
330
14
100
AcDbSymbolTableRecord
100
AcDbLinetypeTableRecord
  2
BYBLOCK
 70
     0
  3

 72
    65
 73
     0
 40
0.0
  0
LTYPE
  5
16
330
14
100
AcDbSymbolTableRecord
100
AcDbLinetypeTableRecord
  2
BYLAYER
 70
     0
  3

 72
    65
 73
     0
 40
0.0
  0
LTYPE
  5
7
330
14
100
AcDbSymbolTableRecord
100
AcDbLinetypeTableRecord
  2
CONTINUOUS
 70
     0
  3
Solid line
 72
    65
 73
     0
 40
0.0
  0
LTYPE
  5
16D
330
14
100
AcDbSymbolTableRecord
100
AcDbLinetypeTableRecord
  2
PHANTOM
 70
     0
  3
Phantom ______  __  __  ______  __  __  ______
 72
    65
 73
     6
 40
63.5
 49
31.75
 74
     0
 49
-6.349999999999999
 74
     0
 49
6.349999999999999
 74
     0
 49
-6.349999999999999
 74
     0
 49
6.349999999999999
 74
     0
 49
-6.349999999999999
 74
     0
  0
LTYPE
  5
104
330
14
100
AcDbSymbolTableRecord
100
AcDbLinetypeTableRecord
  2
HIDDEN2
 70
     0
  3
Hidden (.5x) _ _ _ _ _ _ _ _ _ _ _ _ _ _ _ _ _
 72
    65
 73
     2
 40
1.399999999999999
 49
0.7
 74
     0
 49
-0.7
 74
     0
  0
ENDTAB
  0
TABLE
  2
LAYER
  5
E
102
{ACAD_XDICTIONARY
360
F
102
}
330
0
100
AcDbSymbolTable
 70
     7
  0
LAYER
  5
6
330
E
100
AcDbSymbolTableRecord
100
AcDbLayerTableRecord
  2
0
 70
     0
 62
     7
  6
CONTINUOUS
370
    -3
390
1D8
  0
LAYER
  5
97
330
E
100
AcDbSymbolTableRecord
100
AcDbLayerTableRecord
  2
DEFPOINTS
 70
     0
 62
     7
  6
CONTINUOUS
290
     0
370
    -3
390
1D8
  0
LAYER
  5
1B9
330
E
100
AcDbSymbolTableRecord
100
AcDbLayerTableRecord
  2
WAKU
 70
     0
 62
     4
  6
CONTINUOUS
370
    -3
390
1D8
  0
LAYER
  5
2A
330
E
100
AcDbSymbolTableRecord
100
AcDbLayerTableRecord
  2
MOJI1
 70
     0
 62
     2
  6
CONTINUOUS
370
    -3
390
1D8
  0
LAYER
  5
30
330
E
100
AcDbSymbolTableRecord
100
AcDbLayerTableRecord
  2
GAIKEI
 70
     0
 62
     7
  6
CONTINUOUS
370
    -3
390
1D8
  0
LAYER
  5
24
330
E
100
AcDbSymbolTableRecord
100
AcDbLayerTableRecord
  2
SUNPO
 70
     0
 62
     3
  6
CONTINUOUS
370
    -3
390
1D8
  0
LAYER
  5
2C
330
E
100
AcDbSymbolTableRecord
100
AcDbLayerTableRecord
  2
TOUROKU
 70
     0
 62
     1
  6
CONTINUOUS
370
    -3
390
1D8
  0
ENDTAB
  0
TABLE
  2
STYLE
  5
12
330
0
100
AcDbSymbolTable
 70
     1
  0
STYLE
  5
13
330
12
100
AcDbSymbolTableRecord
100
AcDbTextStyleTableRecord
  2
STANDARD
 70
     0
 40
0.0
 41
1.0
 50
0.0
 71
     0
 42
3.0
  3
MONOTXT.shx
  4
BIGFONT.shx
  0
ENDTAB
  0
TABLE
  2
VIEW
  5
17
330
0
100
AcDbSymbolTable
 70
     0
  0
ENDTAB
  0
TABLE
  2
UCS
  5
18
330
0
100
AcDbSymbolTable
 70
     0
  0
ENDTAB
  0
TABLE
  2
APPID
  5
1B
330
0
100
AcDbSymbolTable
 70
     2
  0
APPID
  5
1C
330
1B
100
AcDbSymbolTableRecord
100
AcDbRegAppTableRecord
  2
ACAD
 70
     0
  0
APPID
  5
87
330
1B
100
AcDbSymbolTableRecord
100
AcDbRegAppTableRecord
  2
CONTENTBLOCKICON
 70
     0
  0
ENDTAB
  0
TABLE
  2
DIMSTYLE
  5
1D
330
0
100
AcDbSymbolTable
 70
     1
100
AcDbDimStyleTable
 71
     1
340
26
  0
DIMSTYLE
105
26
102
{ACAD_REACTORS
330
193
330
186
330
154
330
147
330
88
330
1A2
102
}
330
1D
100
AcDbSymbolTableRecord
100
AcDbDimStyleTableRecord
  2
STANDARD
 70
     0
 40
0.0
 41
2.0
 42
2.0
 43
8.0
 44
2.0
 73
     0
 74
     0
 77
     3
140
3.0
141
0.0
173
     1
288
     1
340
13
341
8E
343
8E
344
8E
  0
ENDTAB
  0
TABLE
  2
BLOCK_RECORD
  5
1
330
0
100
AcDbSymbolTable
 70
    17
  0
BLOCK_RECORD
  5
2
102
{ACAD_XDICTIONARY
360
3
102
}
330
1
100
AcDbSymbolTableRecord
100
AcDbBlockTableRecord
  2
*MODEL_SPACE
340
1FD
  0
BLOCK_RECORD
  5
9
102
{ACAD_XDICTIONARY
360
A
102
}
330
1
100
AcDbSymbolTableRecord
100
AcDbBlockTableRecord
  2
*PAPER_SPACE
340
1FE
  0
BLOCK_RECORD
  5
8E
330
1
100
AcDbSymbolTableRecord
100
AcDbBlockTableRecord
  2
_OPEN30
340
0
102
{BLKREFS
331
19A
331
19B
331
1A9
331
1AA
331
159
331
15A
331
14C
331
14D
331
18B
331
18C
331
8D
331
94
331
206
331
207
331
212
331
213
331
21E
331
21F
331
22A
331
22B
331
236
331
237
331
244
331
245
102
}
  0
BLOCK_RECORD
  5
F8
330
1
100
AcDbSymbolTableRecord
100
AcDbBlockTableRecord
  2
３４０５
340
0
310
2800000020000000200000000100080000000000000400000000000000000000000000000000000000000000000080000080000000808000800000008000800080800000C0C0C000C0DCC000F0CAA6000020400000206000002080000020A0000020C0000020E00000400000004020000040400000406000004080000040A0
310
000040C0000040E00000600000006020000060400000606000006080000060A0000060C0000060E00000800000008020000080400000806000008080000080A0000080C0000080E00000A0000000A0200000A0400000A0600000A0800000A0A00000A0C00000A0E00000C0000000C0200000C0400000C0600000C0800000C0
310
A00000C0C00000C0E00000E0000000E0200000E0400000E0600000E0800000E0A00000E0C00000E0E00040000000400020004000400040006000400080004000A0004000C0004000E00040200000402020004020400040206000402080004020A0004020C0004020E000404000004040200040404000404060004040800040
310
40A0004040C0004040E00040600000406020004060400040606000406080004060A0004060C0004060E00040800000408020004080400040806000408080004080A0004080C0004080E00040A0000040A0200040A0400040A0600040A0800040A0A00040A0C00040A0E00040C0000040C0200040C0400040C0600040C08000
310
40C0A00040C0C00040C0E00040E0000040E0200040E0400040E0600040E0800040E0A00040E0C00040E0E00080000000800020008000400080006000800080008000A0008000C0008000E00080200000802020008020400080206000802080008020A0008020C0008020E00080400000804020008040400080406000804080
310
008040A0008040C0008040E00080600000806020008060400080606000806080008060A0008060C0008060E00080800000808020008080400080806000808080008080A0008080C0008080E00080A0000080A0200080A0400080A0600080A0800080A0A00080A0C00080A0E00080C0000080C0200080C0400080C0600080C0
310
800080C0A00080C0C00080C0E00080E0000080E0200080E0400080E0600080E0800080E0A00080E0C00080E0E000C0000000C0002000C0004000C0006000C0008000C000A000C000C000C000E000C0200000C0202000C0204000C0206000C0208000C020A000C020C000C020E000C0400000C0402000C0404000C0406000C0
310
408000C040A000C040C000C040E000C0600000C0602000C0604000C0606000C0608000C060A000C060C000C060E000C0800000C0802000C0804000C0806000C0808000C080A000C080C000C080E000C0A00000C0A02000C0A04000C0A06000C0A08000C0A0A000C0A0C000C0A0E000C0C00000C0C02000C0C04000C0C06000
310
C0C08000C0C0A000F0FBFF00A4A0A000808080000000FF0000FF000000FFFF00FF000000FF00FF00FFFF0000FFFFFF0000000000000000000000000000000000000000000000000000000000000000000000000000000000000000000000000000000000000000000000000000000000000000000000000000000000000000
310
00000000000000000000000000000000000000000000000000000000000000000000000000000000000000000000000000000000000000000000000000000000000000000000000000000000000000000000000000000000000000000000000000000000000000000000000000000000000000000000000000000000000000
310
00000000000000000000000000000000000000000000000000000000000000000000000000000000000000000000000000000000000000000000000000000000000000000000000000000000000000000000000000000000000000000000000000000000000000000000000000000000000000000000000000000000000000
310
00000000000000000000000000000000000000000000000000000000000000000000000000000000000000000000000000000000FFF9F9F9F9F9F9F9F9F9F9F9F9F9F9F9F9F9F9F9F9F9F9F9F9F9F9F9F9FF0000F9F9F9F9F9F9F9F9F9F9F9F9F9F9F9F9F9F9F9F9F9F9F9F9F9F9F9FFF9F900000000FFF9F9FFFFFFFFFFFF
310
FFFFFFFFFFFFFFFFFFFFFFFFFFFFF9F9FF000000000000F9F9F9F9F9F9F9F9F9F9F9F9F9F9F9F9F9F9F9F9F9F9F9F9F9F9000000000000F9F900000000000000000000000000000000000000000000F9F9000000000000F9F900000000000000000000000000000000000000000000F9F9000000000000F9F9000000000000
310
00000000000000000000000000000000F9F9000000000000F9F900000000000000000000000000000000000000000000F9F90000000000000000000000000000000000000000000000000000000000000000000000000000000000000000000000000000000000000000000000000000000000000000000000000000000000
310
00000000000000000000000000000000000000000000000000000000000000000000000000000000000000000000000000000000000000000000000000000000000000000000000000000000000000000000000000000000000000000000000000000000000000000000000000000000000000000000000000000000000000
310
00000000000000000000000000000000000000000000000000000000000000000000000000000000000000000000000000000000000000000000000000000000000000000000000000000000000000000000000000000000000000000000000000000000000000000000000000000000000000000000000000000000000000
310
0000000000000000000000000000000000000000000000000000000000000000000000000000000000000000000000000000000000000000
102
{BLKREFS
331
F7
102
}
  0
BLOCK_RECORD
  5
162
330
1
100
AcDbSymbolTableRecord
100
AcDbBlockTableRecord
  2
３４０５９
340
0
310
2800000020000000200000000100080000000000000400000000000000000000000000000000000000000000000080000080000000808000800000008000800080800000C0C0C000C0DCC000F0CAA6000020400000206000002080000020A0000020C0000020E00000400000004020000040400000406000004080000040A0
310
000040C0000040E00000600000006020000060400000606000006080000060A0000060C0000060E00000800000008020000080400000806000008080000080A0000080C0000080E00000A0000000A0200000A0400000A0600000A0800000A0A00000A0C00000A0E00000C0000000C0200000C0400000C0600000C0800000C0
310
A00000C0C00000C0E00000E0000000E0200000E0400000E0600000E0800000E0A00000E0C00000E0E00040000000400020004000400040006000400080004000A0004000C0004000E00040200000402020004020400040206000402080004020A0004020C0004020E000404000004040200040404000404060004040800040
310
40A0004040C0004040E00040600000406020004060400040606000406080004060A0004060C0004060E00040800000408020004080400040806000408080004080A0004080C0004080E00040A0000040A0200040A0400040A0600040A0800040A0A00040A0C00040A0E00040C0000040C0200040C0400040C0600040C08000
310
40C0A00040C0C00040C0E00040E0000040E0200040E0400040E0600040E0800040E0A00040E0C00040E0E00080000000800020008000400080006000800080008000A0008000C0008000E00080200000802020008020400080206000802080008020A0008020C0008020E00080400000804020008040400080406000804080
310
008040A0008040C0008040E00080600000806020008060400080606000806080008060A0008060C0008060E00080800000808020008080400080806000808080008080A0008080C0008080E00080A0000080A0200080A0400080A0600080A0800080A0A00080A0C00080A0E00080C0000080C0200080C0400080C0600080C0
310
800080C0A00080C0C00080C0E00080E0000080E0200080E0400080E0600080E0800080E0A00080E0C00080E0E000C0000000C0002000C0004000C0006000C0008000C000A000C000C000C000E000C0200000C0202000C0204000C0206000C0208000C020A000C020C000C020E000C0400000C0402000C0404000C0406000C0
310
408000C040A000C040C000C040E000C0600000C0602000C0604000C0606000C0608000C060A000C060C000C060E000C0800000C0802000C0804000C0806000C0808000C080A000C080C000C080E000C0A00000C0A02000C0A04000C0A06000C0A08000C0A0A000C0A0C000C0A0E000C0C00000C0C02000C0C04000C0C06000
310
C0C08000C0C0A000F0FBFF00A4A0A000808080000000FF0000FF000000FFFF00FF000000FF00FF00FFFF0000FFFFFF0000000000000000000000000000000000000000000000000000000000000000000000000000000000000000000000000000000000000000000000000000000000000000000000000000000000000000
310
00000000000000000000000000000000000000000000000000000000000000000000000000000000000000000000000000000000000000000000000000000000000000000000000000000000000000000000000000000000000000000000000000000000000000000000000000000000000000000000000000000000000000
310
00000000000000000000000000000000000000FFF9F9F9F9F9F9F9F9F9F9F9F9F9F9F9F9F9F9F9F9F9F9F9F9F9F9F9F9FF0000FFFFFFFFFFFFFFFFFF0000000000000000000000000000000000000000FF0000000000000000000000FFFFFFFFFFFFFFFFFFFFFFFFFFFFFFFFFFFFFFFF000000000000000000000000000000
310
0000FF0000000000FF00000000000000000000000000000000000000000000000000FF0000000000FF00000000000000000000000000000000000000000000000000FF0000000000FF00000000000000000000000000000000000000000000000000FFFFFFFFFFFFFF00000000000000000000000000000000000000000000
310
000000000000F9F9000000000000000000000000000000000000000000000000000000000000F9F9000000000000000000000000000000000000000000000000000000000000F9F9000000000000000000000000000000000000000000000000000000000000F9F90000000000000000000000000000000000000000000000
310
00000000000000F9F9000000000000000000000000000000000000000000000000000000000000F9F9000000000000000000000000000000000000000000000000000000000000F9F9000000000000000000000000000000000000000000000000000000000000F9F900000000000000000000000000000000000000000000
310
0000000000000000F9F9000000000000000000000000000000000000000000000000000000000000F9F9000000000000000000000000000000000000000000000000000000000000F9F90000000000000000000000000000000000000000000000000000000000000000000000000000000000000000000000000000000000
310
00000000000000000000000000000000000000000000000000000000000000000000000000000000000000000000000000000000000000000000000000000000000000000000000000000000000000000000000000000000000000000000000000000000000000000000000000000000000000000000000000000000000000
310
0000000000000000000000000000000000000000000000000000000000000000000000000000000000000000000000000000000000000000
102
{BLKREFS
331
161
102
}
  0
BLOCK_RECORD
  5
9F
330
1
100
AcDbSymbolTableRecord
100
AcDbBlockTableRecord
  2
４２
340
0
310
2800000020000000200000000100080000000000000400000000000000000000000000000000000000000000000080000080000000808000800000008000800080800000C0C0C000C0DCC000F0CAA6000020400000206000002080000020A0000020C0000020E00000400000004020000040400000406000004080000040A0
310
000040C0000040E00000600000006020000060400000606000006080000060A0000060C0000060E00000800000008020000080400000806000008080000080A0000080C0000080E00000A0000000A0200000A0400000A0600000A0800000A0A00000A0C00000A0E00000C0000000C0200000C0400000C0600000C0800000C0
310
A00000C0C00000C0E00000E0000000E0200000E0400000E0600000E0800000E0A00000E0C00000E0E00040000000400020004000400040006000400080004000A0004000C0004000E00040200000402020004020400040206000402080004020A0004020C0004020E000404000004040200040404000404060004040800040
310
40A0004040C0004040E00040600000406020004060400040606000406080004060A0004060C0004060E00040800000408020004080400040806000408080004080A0004080C0004080E00040A0000040A0200040A0400040A0600040A0800040A0A00040A0C00040A0E00040C0000040C0200040C0400040C0600040C08000
310
40C0A00040C0C00040C0E00040E0000040E0200040E0400040E0600040E0800040E0A00040E0C00040E0E00080000000800020008000400080006000800080008000A0008000C0008000E00080200000802020008020400080206000802080008020A0008020C0008020E00080400000804020008040400080406000804080
310
008040A0008040C0008040E00080600000806020008060400080606000806080008060A0008060C0008060E00080800000808020008080400080806000808080008080A0008080C0008080E00080A0000080A0200080A0400080A0600080A0800080A0A00080A0C00080A0E00080C0000080C0200080C0400080C0600080C0
310
800080C0A00080C0C00080C0E00080E0000080E0200080E0400080E0600080E0800080E0A00080E0C00080E0E000C0000000C0002000C0004000C0006000C0008000C000A000C000C000C000E000C0200000C0202000C0204000C0206000C0208000C020A000C020C000C020E000C0400000C0402000C0404000C0406000C0
310
408000C040A000C040C000C040E000C0600000C0602000C0604000C0606000C0608000C060A000C060C000C060E000C0800000C0802000C0804000C0806000C0808000C080A000C080C000C080E000C0A00000C0A02000C0A04000C0A06000C0A08000C0A0A000C0A0C000C0A0E000C0C00000C0C02000C0C04000C0C06000
310
C0C08000C0C0A000F0FBFF00A4A0A000808080000000FF0000FF000000FFFF00FF000000FF00FF00FFFF0000FFFFFF0000000000000000000000000000000000000000000000000000000000000000000000000000000000000000000000000000000000000000000000000000000000000000000000000000000000000000
310
00000000000000000000000000000000000000000000000000000000000000000000000000000000000000000000000000000000000000000000000000000000000000000000000000000000000000000000000000000000000000000000000000000000000000000000000000000000000000000000000000000000000000
310
00000000000000000000000000000000000000F9F9F9F9F9F9F9F9F9F9F9F9F9F9F9F9F9F9F9F9F9F9F9F9F9F9F9F9F9F90000F9FFF9FFFFFFFFFFFFFFFFFFFFFFFFFFFFFFFFFFFFFFFFFFFFFFFFF9FFF90000F9F9F9000000000000000000000000000000000000000000000000F9FFF90000F9F9F9000000000000000000
310
000000000000000000000000000000F9FFF90000F9F9F9000000000000000000000000000000000000000000000000F9FFF90000F9F9F9000000000000000000000000000000000000000000000000F9FFF90000F9F9F9000000000000000000000000000000000000000000000000F9FFF90000F9F9F90000000000000000
310
00000000000000000000000000000000F9FFF90000F9F9F9000000000000000000000000000000000000000000000000F9FFF90000F9F9F9000000000000000000000000000000000000000000000000F9FFF90000F9F9F9000000000000000000000000000000000000000000000000F9FFF90000F9F9F900000000000000
310
0000000000000000000000000000000000F9FFF90000F9F9F9000000000000000000000000000000000000000000000000F9FFF90000F9F9F9000000000000000000000000000000000000000000000000F9FFF90000F9F9F9000000000000000000000000000000000000000000000000F9FFF90000F9F9F9000000000000
310
000000000000000000000000000000000000F9FFF90000F9FFF9FFFFFFFFFFFFFFFFFFFFFFFFFFFFFFFFFFFFFFFFFFFFFFFFF9FFF90000F9F9F9F9F9F9F9F9F9F9F9F9F9F9F9F9F9F9F9F9F9F9F9F9F9F9F9F9F9F9000000000000000000000000000000000000000000000000000000000000000000000000000000000000
310
00000000000000000000000000000000000000000000000000000000000000000000000000000000000000000000000000000000000000000000000000000000000000000000000000000000000000000000000000000000000000000000000000000000000000000000000000000000000000000000000000000000000000
310
0000000000000000000000000000000000000000000000000000000000000000000000000000000000000000000000000000000000000000
102
{BLKREFS
331
9E
102
}
  0
BLOCK_RECORD
  5
2E
330
1
100
AcDbSymbolTableRecord
100
AcDbBlockTableRecord
  2
４２９
340
0
310
2800000020000000200000000100080000000000000400000000000000000000000000000000000000000000000080000080000000808000800000008000800080800000C0C0C000C0DCC000F0CAA6000020400000206000002080000020A0000020C0000020E00000400000004020000040400000406000004080000040A0
310
000040C0000040E00000600000006020000060400000606000006080000060A0000060C0000060E00000800000008020000080400000806000008080000080A0000080C0000080E00000A0000000A0200000A0400000A0600000A0800000A0A00000A0C00000A0E00000C0000000C0200000C0400000C0600000C0800000C0
310
A00000C0C00000C0E00000E0000000E0200000E0400000E0600000E0800000E0A00000E0C00000E0E00040000000400020004000400040006000400080004000A0004000C0004000E00040200000402020004020400040206000402080004020A0004020C0004020E000404000004040200040404000404060004040800040
310
40A0004040C0004040E00040600000406020004060400040606000406080004060A0004060C0004060E00040800000408020004080400040806000408080004080A0004080C0004080E00040A0000040A0200040A0400040A0600040A0800040A0A00040A0C00040A0E00040C0000040C0200040C0400040C0600040C08000
310
40C0A00040C0C00040C0E00040E0000040E0200040E0400040E0600040E0800040E0A00040E0C00040E0E00080000000800020008000400080006000800080008000A0008000C0008000E00080200000802020008020400080206000802080008020A0008020C0008020E00080400000804020008040400080406000804080
310
008040A0008040C0008040E00080600000806020008060400080606000806080008060A0008060C0008060E00080800000808020008080400080806000808080008080A0008080C0008080E00080A0000080A0200080A0400080A0600080A0800080A0A00080A0C00080A0E00080C0000080C0200080C0400080C0600080C0
310
800080C0A00080C0C00080C0E00080E0000080E0200080E0400080E0600080E0800080E0A00080E0C00080E0E000C0000000C0002000C0004000C0006000C0008000C000A000C000C000C000E000C0200000C0202000C0204000C0206000C0208000C020A000C020C000C020E000C0400000C0402000C0404000C0406000C0
310
408000C040A000C040C000C040E000C0600000C0602000C0604000C0606000C0608000C060A000C060C000C060E000C0800000C0802000C0804000C0806000C0808000C080A000C080C000C080E000C0A00000C0A02000C0A04000C0A06000C0A08000C0A0A000C0A0C000C0A0E000C0C00000C0C02000C0C04000C0C06000
310
C0C08000C0C0A000F0FBFF00A4A0A000808080000000FF0000FF000000FFFF00FF000000FF00FF00FFFF0000FFFFFF000000000000000000000000000000000000000000000000000000000000000000000000000000000000000000000000FF0000000000000000000000000000000000000000000000000000000000FFFF
310
FF0000000000000000000000000000000000000000000000000000000000FF00FFFFFF000000000000000000000000000000000000000000000000000000FF00FF00FF000000000000000000000000000000000000000000000000000000FF00FF00FF000000000000000000000000000000000000000000000000000000FF
310
00FF00FFFF0000000000000000000000000000000000000000000000000000FF00FF00F9FF0000000000000000000000000000000000000000000000000000FF00FF00F9FF0000000000000000000000000000000000000000000000000000FF00FF00F9FF0000000000000000000000000000000000000000000000000000
310
FF00FF00F9FF0000000000000000000000000000000000000000000000000000FF00FF00F9FF0000000000000000000000000000000000000000000000000000FF00FF00F9FF0000000000000000000000000000000000000000000000000000FF00FF00F9FF00000000000000000000000000000000000000000000000000
310
00FF00FF00F9FF0000000000000000000000000000000000000000000000000000FF00FF00F9FF0000000000000000000000000000000000000000000000000000FF00FF00F9FF0000000000000000000000000000000000000000000000000000FF00FF00F9FF000000000000000000000000000000000000000000000000
310
0000FF00FF00F9FF0000000000000000000000000000000000000000000000000000FF00FF00F9FF0000000000000000000000000000000000000000000000000000FF00FF00F9FF0000000000000000000000000000000000000000000000000000FF00FF00F9FF0000000000000000000000000000000000000000000000
310
000000FF00F9F9F9FF0000000000000000000000000000000000000000000000000000FF00FFF9F9FF0000000000000000000000000000000000000000000000000000FF00FFF9F9FF0000000000000000000000000000000000000000000000000000FF00FFF9F9F900000000000000000000000000000000000000000000
310
00000000FF00FFF9F9F90000000000000000000000000000000000000000000000000000FF00FFF9F9FF0000000000000000000000000000000000000000000000000000FF00FFF9FF000000000000000000000000000000000000000000000000000000FF00FF000000000000000000000000000000000000000000000000
310
000000000000FFFF000000000000000000000000000000000000000000000000000000000000000000000000000000000000000000000000
102
{BLKREFS
331
2D
102
}
  0
BLOCK_RECORD
  5
200
330
1
100
AcDbSymbolTableRecord
100
AcDbBlockTableRecord
  2
*D11
340
0
  0
BLOCK_RECORD
  5
20E
330
1
100
AcDbSymbolTableRecord
100
AcDbBlockTableRecord
  2
*D12
340
0
  0
BLOCK_RECORD
  5
21A
330
1
100
AcDbSymbolTableRecord
100
AcDbBlockTableRecord
  2
*D13
340
0
  0
BLOCK_RECORD
  5
226
330
1
100
AcDbSymbolTableRecord
100
AcDbBlockTableRecord
  2
*D14
340
0
  0
BLOCK_RECORD
  5
232
330
1
100
AcDbSymbolTableRecord
100
AcDbBlockTableRecord
  2
*D15
340
0
  0
BLOCK_RECORD
  5
23E
330
1
100
AcDbSymbolTableRecord
100
AcDbBlockTableRecord
  2
*D16
340
0
  0
ENDTAB
  0
ENDSEC
  0
SECTION
  2
BLOCKS
  0
BLOCK
  5
5
330
2
100
AcDbEntity
  8
0
100
AcDbBlockBegin
  2
*MODEL_SPACE
 70
     0
 10
0.0
 20
0.0
 30
0.0
  3
*MODEL_SPACE
  1

  0
ENDBLK
  5
8
330
2
100
AcDbEntity
  8
0
100
AcDbBlockEnd
  0
BLOCK
  5
C
330
9
100
AcDbEntity
 67
     1
  8
0
100
AcDbBlockBegin
  2
*PAPER_SPACE
 70
     0
 10
0.0
 20
0.0
 30
0.0
  3
*PAPER_SPACE
  1

  0
ENDBLK
  5
D
330
9
100
AcDbEntity
 67
     1
  8
0
100
AcDbBlockEnd
  0
BLOCK
  5
92
330
8E
100
AcDbEntity
  8
0
100
AcDbBlockBegin
  2
_OPEN30
 70
     0
 10
0.0
 20
0.0
 30
0.0
  3
_OPEN30
  1

  0
LINE
  5
8F
330
8E
100
AcDbEntity
  8
0
  6
ByBlock
 62
     0
100
AcDbLine
 10
-1.0
 20
0.26794919
 30
0.0
 11
0.0
 21
0.0
 31
0.0
  0
LINE
  5
90
330
8E
100
AcDbEntity
  8
0
  6
ByBlock
 62
     0
100
AcDbLine
 10
0.0
 20
0.0
 30
0.0
 11
-1.0
 21
-0.26794919
 31
0.0
  0
LINE
  5
91
330
8E
100
AcDbEntity
  8
0
  6
ByBlock
 62
     0
100
AcDbLine
 10
0.0
 20
0.0
 30
0.0
 11
-1.0
 21
0.0
 31
0.0
  0
ENDBLK
  5
93
330
8E
100
AcDbEntity
  8
0
100
AcDbBlockEnd
  0
BLOCK
  5
145
330
F8
100
AcDbEntity
  8
0
100
AcDbBlockBegin
  2
３４０５
 70
     0
 10
0.0
 20
0.0
 30
0.0
  3
３４０５
  1

  0
LINE
  5
F9
330
F8
100
AcDbEntity
  8
GAIKEI
  6
Continuous
100
AcDbLine
 10
26.28246974515105
 20
302.602927475582
 30
0.0
 11
62.42054474515089
 21
302.602927475582
 31
0.0
  0
LINE
  5
FA
330
F8
100
AcDbEntity
  8
GAIKEI
  6
Continuous
100
AcDbLine
 10
26.03201974515105
 20
304.8022559755818
 30
0.0
 11
62.69559474515063
 21
304.8022559755818
 31
0.0
  0
LINE
  5
FB
330
F8
100
AcDbEntity
  8
GAIKEI
  6
Continuous
 62
     1
100
AcDbLine
 10
26.27219474515096
 20
305.0578224755818
 30
0.0
 11
62.45531974515096
 21
305.0578224755818
 31
0.0
  0
LINE
  5
FC
330
F8
100
AcDbEntity
  8
GAIKEI
  6
Continuous
100
AcDbLine
 10
24.27092728385446
 20
301.6828224755818
 30
0.0
 11
64.45663688732385
 21
301.682822475582
 31
0.0
  0
LINE
  5
FD
330
F8
100
AcDbEntity
  8
GAIKEI
  6
Continuous
 62
     1
100
AcDbLine
 10
24.27354694103474
 20
301.732822475582
 30
0.0
 11
64.45401747936307
 21
301.732822475582
 31
0.0
  0
LWPOLYLINE
  5
FE
330
F8
100
AcDbEntity
  8
GAIKEI
  6
Continuous
 62
     1
100
AcDbPolyline
 90
       11
 70
     0
 43
0.0
 10
57.06151974515069
 20
302.4064002255818
 10
55.79219474515094
 20
302.4064002255818
 10
54.52289474515101
 20
302.4064002255818
 10
53.25356974515079
 20
302.4064002255818
 10
51.98424474515104
 20
302.4064002255818
 10
50.71494474515065
 20
302.4064002255818
 10
49.44561974515091
 20
302.4064002255818
 10
48.1762947451507
 20
302.4064002255818
 10
46.90699474515077
 20
302.4064002255818
 10
45.63766974515102
 20
302.4064002255818
 10
44.36834474515081
 20
302.4064002255818
  0
LWPOLYLINE
  5
FF
330
F8
100
AcDbEntity
  8
GAIKEI
  6
Continuous
 62
     1
100
AcDbPolyline
 90
       11
 70
     0
 43
0.0
 10
57.06151974515069
 20
302.4064002255818
 10
55.79219474515094
 20
302.4064002255818
 10
54.52289474515101
 20
302.4064002255818
 10
53.25356974515079
 20
302.4064002255818
 10
51.98424474515104
 20
302.4064002255818
 10
50.71494474515065
 20
302.4064002255818
 10
49.44561974515091
 20
302.4064002255818
 10
48.1762947451507
 20
302.4064002255818
 10
46.90699474515077
 20
302.4064002255818
 10
45.63766974515102
 20
302.4064002255818
 10
44.36834474515081
 20
302.4064002255818
  0
LWPOLYLINE
  5
100
330
F8
100
AcDbEntity
  8
GAIKEI
  6
Continuous
 62
     1
100
AcDbPolyline
 90
       51
 70
     0
 43
0.0
 10
29.54416974515107
 20
302.367185225582
 10
29.5829947451507
 20
302.3698002255819
 10
29.62184474515107
 20
302.3722872255819
 10
29.66069474515098
 20
302.374634975582
 10
29.69951974515107
 20
302.3768322255819
 10
29.7383947451508
 20
302.3788679755819
 10
29.77724474515071
 20
302.3807309755819
 10
29.8161197451509
 20
302.3824104755818
 10
29.85496974515081
 20
302.383894725582
 10
29.893844745151
 20
302.3851732255819
 10
29.93274474515101
 20
302.386234225582
 10
29.95611974515077
 20
302.3867662255818
 10
29.97951974515081
 20
302.3872302255818
 10
30.00291974515085
 20
302.3876412255818
 10
30.02631974515089
 20
302.388013975582
 10
30.04969474515065
 20
302.3883629755819
 10
30.07309474515068
 20
302.388702975582
 10
30.09649474515072
 20
302.3890489755818
 10
30.11989474515076
 20
302.3894154755819
 10
30.1432947451508
 20
302.3898169755819
 10
30.16666974515101
 20
302.3902687255818
 10
30.19491974515086
 20
302.3908947255818
 10
30.22314474515088
 20
302.391600475582
 10
30.25139474515072
 20
302.3923712255819
 10
30.27961974515074
 20
302.3931917255818
 10
30.30784474515076
 20
302.3940477255819
 10
30.33609474515106
 20
302.3949239755818
 10
30.36431974515063
 20
302.3958059755819
 10
30.39254474515064
 20
302.3966787255818
 10
30.42079474515094
 20
302.3975274755819
 10
30.44901974515096
 20
302.3983374755819
 10
30.50829474515103
 20
302.399872475582
 10
30.56756974515065
 20
302.4011917255819
 10
30.626869745151
 20
302.4023154755819
 10
30.68614474515107
 20
302.4032639755819
 10
30.74544474515096
 20
302.4040569755819
 10
30.80474474515086
 20
302.4047152255818
 10
30.86404474515076
 20
302.405258225582
 10
30.92334474515065
 20
302.4057067255819
 10
30.982644745151
 20
302.4060807255819
 10
31.04194474515089
 20
302.4064002255818
 10
31.10486974515106
 20
302.4066969755818
 10
31.16776974515096
 20
302.406947475582
 10
31.23069474515069
 20
302.4071444755819
 10
31.29361974515087
 20
302.407280475582
 10
31.35654474515104
 20
302.4073479755819
 10
31.41946974515076
 20
302.4073394755819
 10
31.48236974515067
 20
302.4072479755819
 10
31.54529474515084
 20
302.4070659755819
 10
31.60821974515102
 20
302.4067857255818
 10
31.67114474515074
 20
302.4064002255818
  0
LINE
  5
101
330
F8
100
AcDbEntity
  8
GAIKEI
  6
Continuous
 62
     1
100
AcDbLine
 10
29.96346974515063
 20
305.0578224755818
 30
0.0
 11
29.96346974515063
 21
304.907822475582
 31
0.0
  0
LINE
  5
102
330
F8
100
AcDbEntity
  8
GAIKEI
  6
Continuous
 62
     1
100
AcDbLine
 10
29.96346974515063
 20
304.907822475582
 30
0.0
 11
29.96346974515063
 21
304.8022559755818
 31
0.0
  0
LINE
  5
103
330
F8
100
AcDbEntity
  8
GAIKEI
  6
HIDDEN2
 62
     1
100
AcDbLine
 10
26.7888955786741
 20
304.8073288922467
 30
0.0
 11
26.89271057863266
 21
310.7548734732008
 31
0.0
  0
LINE
  5
105
330
F8
100
AcDbEntity
  8
GAIKEI
  6
HIDDEN2
 62
     1
100
AcDbLine
 10
27.73871849496094
 20
304.8073288922467
 30
0.0
 11
27.6349039116692
 21
310.7548734732008
 31
0.0
  0
LINE
  5
106
330
F8
100
AcDbEntity
  8
GAIKEI
  6
Continuous
 62
     1
100
AcDbLine
 10
26.20461974515093
 20
304.8589474755818
 30
0.0
 11
26.20234474515064
 21
304.8022559755818
 31
0.0
  0
LINE
  5
107
330
F8
100
AcDbEntity
  8
GAIKEI
  6
Continuous
 62
     1
100
AcDbLine
 10
26.24924474515093
 20
305.056416475582
 30
0.0
 11
26.26636974515077
 21
305.0578224755818
 31
0.0
  0
LINE
  5
108
330
F8
100
AcDbEntity
  8
GAIKEI
  6
Continuous
 62
     1
100
AcDbLine
 10
26.22414474515063
 20
305.041610225582
 30
0.0
 11
26.23129474515099
 21
305.048038475582
 31
0.0
  0
LINE
  5
109
330
F8
100
AcDbEntity
  8
GAIKEI
  6
Continuous
 62
     1
100
AcDbLine
 10
26.21116974515099
 20
305.0126219755819
 30
0.0
 11
26.21566974515099
 21
305.0289087255819
 31
0.0
  0
ARC
  5
10A
330
F8
100
AcDbEntity
  8
GAIKEI
  6
Continuous
100
AcDbCircle
 10
26.03201974515105
 20
304.7522559755819
 30
0.0
 40
0.05
100
AcDbArc
 50
90.000000199999
 51
177.5541859999955
  0
LWPOLYLINE
  5
10B
330
F8
100
AcDbEntity
  8
GAIKEI
  6
Continuous
 62
     1
100
AcDbPolyline
 90
       18
 70
     0
 43
0.0
 10
26.32116974515066
 20
305.0095674755819
 10
26.32081974515086
 20
305.0140687255819
 10
26.3200697451507
 20
305.0185192255819
 10
26.31891974515065
 20
305.022882225582
 10
26.31739474515098
 20
305.027122475582
 10
26.31551974515105
 20
305.031205225582
 10
26.31326974515105
 20
305.035097475582
 10
26.31069474515107
 20
305.0387669755819
 10
26.30779474515066
 20
305.0421842255819
 10
26.30461974515083
 20
305.0453212255821
 10
26.30116974515067
 20
305.0481522255818
 10
26.29746974515092
 20
305.050654475582
 10
26.29359474515104
 20
305.0528069755819
 10
26.28951974515076
 20
305.054592975582
 10
26.2853197451509
 20
305.0559972255819
 10
26.28099474515102
 20
305.0570084755818
 10
26.27661974515104
 20
305.0576184755819
 10
26.27219474515096
 20
305.0578224755818
  0
LWPOLYLINE
  5
10C
330
F8
100
AcDbEntity
  8
GAIKEI
  6
Continuous
 62
     1
100
AcDbPolyline
 90
       18
 70
     0
 43
0.0
 10
26.32556974515092
 20
304.856077475582
 10
26.32591974515071
 20
304.851576225582
 10
26.32666974515087
 20
304.8471257255819
 10
26.32781974515092
 20
304.8427627255819
 10
26.32934474515105
 20
304.8385224755818
 10
26.33121974515098
 20
304.8344394755818
 10
26.33346974515098
 20
304.8305474755819
 10
26.33604474515096
 20
304.826877975582
 10
26.33894474515091
 20
304.8234607255818
 10
26.34211974515074
 20
304.8203237255818
 10
26.3455697451509
 20
304.8174927255818
 10
26.34926974515065
 20
304.8149904755819
 10
26.35314474515099
 20
304.8128379755819
 10
26.35721974515082
 20
304.8110519755819
 10
26.36141974515067
 20
304.809647725582
 10
26.36574474515101
 20
304.8086364755818
 10
26.37011974515099
 20
304.8080264755818
 10
26.37454474515107
 20
304.8078224755818
  0
LINE
  5
10D
330
F8
100
AcDbEntity
  8
GAIKEI
  6
Continuous
 62
     1
100
AcDbLine
 10
26.32556974515092
 20
304.8560744755819
 30
0.0
 11
26.32409474515089
 21
304.907822475582
 31
0.0
  0
ARC
  5
10E
330
F8
100
AcDbEntity
  8
GAIKEI
  6
Continuous
 62
     1
100
AcDbCircle
 10
26.26101974515086
 20
305.0078224755819
 30
0.0
 40
0.05
100
AcDbArc
 50
103.6201440000136
 51
126.4551060000429
  0
ARC
  5
10F
330
F8
100
AcDbEntity
  8
GAIKEI
  6
Continuous
 62
     1
100
AcDbCircle
 10
26.26101974515086
 20
305.0078224755819
 30
0.0
 40
0.05
100
AcDbArc
 50
137.4871729999963
 51
155.0563319999854
  0
LINE
  5
110
330
F8
100
AcDbEntity
  8
GAIKEI
  6
Continuous
 62
     1
100
AcDbLine
 10
26.20461974515093
 20
304.8589474755818
 30
0.0
 11
26.2066947451508
 21
304.907822475582
 31
0.0
  0
LINE
  5
111
330
F8
100
AcDbEntity
  8
GAIKEI
  6
Continuous
 62
     1
100
AcDbLine
 10
26.32409474515089
 20
304.907822475582
 30
0.0
 11
26.32116974515066
 21
305.0095642255819
 31
0.0
  0
LINE
  5
112
330
F8
100
AcDbEntity
  8
GAIKEI
  6
Continuous
 62
     1
100
AcDbLine
 10
26.2066947451508
 20
304.907822475582
 30
0.0
 11
26.21116974515099
 21
305.0126219755819
 31
0.0
  0
LWPOLYLINE
  5
113
330
F8
100
AcDbEntity
  8
GAIKEI
  6
Continuous
 62
     1
100
AcDbPolyline
 90
       11
 70
     0
 43
0.0
 10
24.85869474515084
 20
302.0232277255818
 10
24.96356974515084
 20
302.0220982255819
 10
25.068419745151
 20
302.0211302255818
 10
25.173294745151
 20
302.0203234755818
 10
25.27816974515099
 20
302.019677975582
 10
25.38304474515098
 20
302.0191937255818
 10
25.4878947451507
 20
302.0188709755819
 10
25.59276974515069
 20
302.018709475582
 10
25.69764474515068
 20
302.018709475582
 10
25.80251974515068
 20
302.018870725582
 10
25.90739474515067
 20
302.0191932255818
  0
LINE
  5
114
330
F8
100
AcDbEntity
  8
GAIKEI
  6
Continuous
100
AcDbLine
 10
24.85869474515084
 20
302.0232277255818
 30
0.0
 11
24.83851974515073
 21
302.0232277255818
 31
0.0
  0
LWPOLYLINE
  5
115
330
F8
100
AcDbEntity
  8
GAIKEI
  6
Continuous
100
AcDbPolyline
 90
       51
 70
     0
 43
0.0
 10
25.88721974515102
 20
302.534417725582
 10
25.89336974515072
 20
302.5376364755819
 10
25.89956974515098
 20
302.5407689755819
 10
25.90581974515089
 20
302.5438079755819
 10
25.9121197451509
 20
302.5467457255818
 10
25.91846974515102
 20
302.5495752255821
 10
25.92486974515078
 20
302.5522889755819
 10
25.93131974515063
 20
302.554879975582
 10
25.93779474515077
 20
302.557340725582
 10
25.94431974515101
 20
302.5596639755818
 10
25.95091974515071
 20
302.5618422255818
 10
25.95994474515101
 20
302.5645759755819
 10
25.96906974515106
 20
302.567055975582
 10
25.97824474515073
 20
302.5693122255818
 10
25.98746974515098
 20
302.5713742255819
 10
25.99674474515087
 20
302.5732717255819
 10
26.00606974515085
 20
302.575034475582
 10
26.01539474515084
 20
302.5766924755819
 10
26.02476974515093
 20
302.5782752255818
 10
26.03411974515075
 20
302.579812475582
 10
26.04349474515084
 20
302.5813339755819
 10
26.05371974515083
 20
302.583003975582
 10
26.06394474515082
 20
302.584673725582
 10
26.07416974515081
 20
302.5863257255819
 10
26.0843947451508
 20
302.5879429755819
 10
26.09459474515097
 20
302.5895079755819
 10
26.10481974515096
 20
302.5910039755818
 10
26.11506974515078
 20
302.592413725582
 10
26.12529474515077
 20
302.593719975582
 10
26.13556974515086
 20
302.5949052255819
 10
26.14581974515068
 20
302.5959529755819
 10
26.15456974515064
 20
302.596725725582
 10
26.16331974515106
 20
302.597399975582
 10
26.17206974515102
 20
302.5979887255819
 10
26.18084474515081
 20
302.5985049755818
 10
26.18961974515106
 20
302.598962225582
 10
26.19839474515084
 20
302.5993737255819
 10
26.2071947451509
 20
302.5997527255818
 10
26.21596974515069
 20
302.600111975582
 10
26.22476974515075
 20
302.600465475582
 10
26.23354474515099
 20
302.6008257255819
 10
26.2384447451509
 20
302.6010339755819
 10
26.24331974515098
 20
302.6012469755819
 10
26.24821974515089
 20
302.6014632255819
 10
26.2531197451508
 20
302.6016807255819
 10
26.25801974515071
 20
302.6018982255819
 10
26.26289474515079
 20
302.6021139755819
 10
26.2677947451507
 20
302.6023262255819
 10
26.27269474515106
 20
302.6025337255819
 10
26.27756974515069
 20
302.602734725582
 10
26.28246974515105
 20
302.602927475582
  0
LWPOLYLINE
  5
116
330
F8
100
AcDbEntity
  8
GAIKEI
  6
Continuous
 62
     1
100
AcDbPolyline
 90
       11
 70
     0
 43
0.0
 10
25.91141974515085
 20
302.0191932255818
 10
25.98796974515108
 20
302.0187804755819
 10
26.06444474515092
 20
302.019445475582
 10
26.14084474515084
 20
302.0211879755818
 10
26.21716974515084
 20
302.024007975582
 10
26.29344474515074
 20
302.0279057255818
 10
26.36961974515089
 20
302.0328812255818
 10
26.44576974515076
 20
302.0389342255819
 10
26.52181974515088
 20
302.046065225582
 10
26.5978197451509
 20
302.0542734755818
 10
26.673744745151
 20
302.0635597255819
  0
LINE
  5
117
330
F8
100
AcDbEntity
  8
GAIKEI
  6
Continuous
100
AcDbLine
 10
25.88721974515102
 20
302.534417725582
 30
0.0
 11
25.98204474515069
 21
304.7543897255819
 31
0.0
  0
LWPOLYLINE
  5
118
330
F8
100
AcDbEntity
  8
GAIKEI
  6
Continuous
100
AcDbPolyline
 90
       41
 70
     0
 43
0.0
 10
25.88721974515102
 20
302.534417725582
 10
25.87834474515104
 20
302.5334619755818
 10
25.86944474515076
 20
302.5324742255818
 10
25.86054474515095
 20
302.5314539755818
 10
25.85166974515096
 20
302.5304009755819
 10
25.84279474515097
 20
302.529314725582
 10
25.83391974515099
 20
302.5281947255819
 10
25.82506974515081
 20
302.527040475582
 10
25.81619474515082
 20
302.5258514755819
 10
25.80734474515066
 20
302.5246277255819
 10
25.79849474515095
 20
302.5233682255819
 10
25.74471974515063
 20
302.5149714755819
 10
25.6911197451509
 20
302.505503725582
 10
25.63759474515065
 20
302.4952259755819
 10
25.58414474515075
 20
302.4843992255819
 10
25.53071974515069
 20
302.4732847255819
 10
25.47724474515098
 20
302.4621437255819
 10
25.42366974515107
 20
302.4512374755818
 10
25.36999474515096
 20
302.4408269755818
 10
25.3161197451509
 20
302.431173475582
 10
25.26204474515089
 20
302.4225379755819
 10
25.22094474515097
 20
302.4167757255818
 10
25.17976974515068
 20
302.4114799755819
 10
25.13854474515074
 20
302.4063844755819
 10
25.0973697451509
 20
302.4012232255818
 10
25.05631974515063
 20
302.3957299755819
 10
25.01539474515084
 20
302.3896382255819
 10
24.97471974515065
 20
302.3826822255819
 10
24.93431974515079
 20
302.374595225582
 10
24.894294745151
 20
302.3651117255818
 10
24.85466974515067
 20
302.3539649755819
 10
24.846519745151
 20
302.3514282255819
 10
24.83841974515099
 20
302.3488142255819
 10
24.83031974515097
 20
302.3461282255819
 10
24.82221974515097
 20
302.3433752255819
 10
24.81414474515077
 20
302.3405602255818
 10
24.80609474515086
 20
302.3376887255818
 10
24.79806974515077
 20
302.334765225582
 10
24.79001974515086
 20
302.3317954755819
 10
24.78201974515105
 20
302.3287839755819
 10
24.77399474515096
 20
302.325736225582
  0
LWPOLYLINE
  5
119
330
F8
100
AcDbEntity
  8
GAIKEI
  6
Continuous
100
AcDbPolyline
 90
       13
 70
     0
 43
0.0
 10
24.85466974515067
 20
302.3539649755819
 10
24.79936974515067
 20
302.3351004755818
 10
24.74489474515076
 20
302.314422475582
 10
24.69124474515093
 20
302.2919317255819
 10
24.63839474515089
 20
302.2676274755818
 10
24.58636974515093
 20
302.2415102255818
 10
24.53514474515077
 20
302.2135794755818
 10
24.48471974515087
 20
302.1838359755818
 10
24.43514474515087
 20
302.1522789755818
 10
24.38634474515084
 20
302.1189089755819
 10
24.32829857864886
 20
302.0763176765709
 42
0.2250458044939507
 10
24.28759369018303
 20
302.0009252879218
 10
24.27092728385446
 20
301.6828224755818
  0
LWPOLYLINE
  5
11A
330
F8
100
AcDbEntity
  8
GAIKEI
  6
Continuous
 62
     1
100
AcDbPolyline
 90
       61
 70
     0
 43
0.0
 10
24.3343447451507
 20
302.0837257255819
 10
24.33581974515073
 20
302.0815709755818
 10
24.33731974515104
 20
302.079449725582
 10
24.33884474515071
 20
302.077360975582
 10
24.34039474515066
 20
302.0753037255818
 10
24.34199474515071
 20
302.0732767255818
 10
24.34364474515087
 20
302.0712789755819
 10
24.34529474515102
 20
302.0693094755821
 10
24.34699474515082
 20
302.0673672255819
 10
24.3487197451509
 20
302.0654509755818
 10
24.35049474515063
 20
302.0635597255819
 10
24.35089474515098
 20
302.0631452255818
 10
24.35126974515106
 20
302.0627322255819
 10
24.35166974515096
 20
302.0623209755818
 10
24.35206974515086
 20
302.0619122255819
 10
24.35246974515076
 20
302.0615057255818
 10
24.35286974515066
 20
302.061102475582
 10
24.35329474515083
 20
302.060702225582
 10
24.35369474515073
 20
302.0603057255819
 10
24.35411974515091
 20
302.0599134755819
 10
24.35451974515081
 20
302.0595252255819
 10
24.3624947451508
 20
302.0533259755819
 10
24.37131974515069
 20
302.0485172255819
 10
24.3808697451509
 20
302.0449259755819
 10
24.39096974515087
 20
302.0423797255819
 10
24.40149474515101
 20
302.0407049755818
 10
24.41229474515103
 20
302.0397294755819
 10
24.42321974515107
 20
302.0392799755819
 10
24.43414474515066
 20
302.039183725582
 10
24.44489474515104
 20
302.0392679755819
 10
24.45536974515107
 20
302.0393592255819
 10
24.47269474515088
 20
302.0390812255819
 10
24.49004474515095
 20
302.038215225582
 10
24.50736974515075
 20
302.0369044755819
 10
24.52469474515101
 20
302.0352912255819
 10
24.54201974515081
 20
302.0335187255819
 10
24.55936974515089
 20
302.0317294755819
 10
24.57669474515069
 20
302.0300662255818
 10
24.59404474515077
 20
302.0286722255819
 10
24.61141974515067
 20
302.0276899755818
 10
24.62879474515104
 20
302.027262225582
 10
24.62959474515083
 20
302.0272582255818
 10
24.6304197451509
 20
302.027255475582
 10
24.6312197451507
 20
302.027253975582
 10
24.63201974515096
 20
302.0272534755818
 10
24.63281974515076
 20
302.0272537255819
 10
24.63364474515083
 20
302.0272547255818
 10
24.63444474515063
 20
302.0272562255818
 10
24.63524474515089
 20
302.027257975582
 10
24.63604474515068
 20
302.0272602255818
 10
24.63686974515076
 20
302.027262225582
 10
24.65701974515106
 20
302.0272602255818
 10
24.6771947451507
 20
302.0271589755818
 10
24.69736974515081
 20
302.0269617255819
 10
24.71754474515093
 20
302.026672475582
 10
24.73769474515075
 20
302.026295475582
 10
24.75786974515087
 20
302.0258344755819
 10
24.77804474515096
 20
302.0252932255819
 10
24.7981947451508
 20
302.0246757255818
 10
24.8183697451509
 20
302.023985975582
 10
24.83851974515073
 20
302.0232277255818
  0
CIRCLE
  5
11B
330
F8
100
AcDbEntity
  8
GAIKEI
  6
HIDDEN2
 62
     1
100
AcDbCircle
 10
27.2638072451507
 20
306.9772559747118
 30
0.0
 40
0.04999999998
  0
CIRCLE
  5
11C
330
F8
100
AcDbEntity
  8
GAIKEI
  6
HIDDEN2
 62
     1
100
AcDbCircle
 10
27.2638072451507
 20
309.2272559738118
 30
0.0
 40
0.04999999998
  0
LINE
  5
11D
330
F8
100
AcDbEntity
  8
GAIKEI
  6
HIDDEN2
 62
     1
100
AcDbLine
 10
27.04268766190603
 20
310.9022559731418
 30
0.0
 11
27.48492682839583
 21
310.9022559731418
 31
0.0
  0
ARC
  5
11E
330
F8
100
AcDbEntity
  8
GAIKEI
  6
HIDDEN2
 62
     1
100
AcDbCircle
 10
27.04268766190603
 20
310.752255973202
 30
0.0
 40
0.14999999994
100
AcDbArc
 50
90.000000199999
 51
178.9999989999944
  0
ARC
  5
11F
330
F8
100
AcDbEntity
  8
GAIKEI
  6
HIDDEN2
 62
     1
100
AcDbCircle
 10
27.48492682839583
 20
310.752255973202
 30
0.0
 40
0.14999999994
100
AcDbArc
 50
1.000000359994849
 51
90.000000199999
  0
LWPOLYLINE
  5
120
330
F8
100
AcDbEntity
  8
GAIKEI
  6
Continuous
 62
     1
100
AcDbPolyline
 90
       11
 70
     0
 43
0.0
 10
26.67776974515073
 20
302.0635597255819
 10
26.96096974515103
 20
302.1046552255818
 10
27.24444474515076
 20
302.1433407255818
 10
27.52814474515071
 20
302.1796162255819
 10
27.81211974515099
 20
302.2134822255819
 10
28.09634474515087
 20
302.2449379755819
 10
28.3808197451508
 20
302.2739839755818
 10
28.66556974515106
 20
302.300620225582
 10
28.95056974515092
 20
302.324846225582
 10
29.23581974515082
 20
302.3466622255819
 10
29.52131974515078
 20
302.3660682255818
  0
LWPOLYLINE
  5
121
330
F8
100
AcDbEntity
  8
GAIKEI
  6
Continuous
 62
     1
100
AcDbPolyline
 90
       11
 70
     0
 43
0.0
 10
31.67114474515074
 20
302.4064002255818
 10
32.94086974515085
 20
302.4064002255818
 10
34.21059474515097
 20
302.4064002255818
 10
35.48029474515079
 20
302.4064002255818
 10
36.75001974515089
 20
302.4064002255818
 10
38.019744745151
 20
302.4064002255818
 10
39.28946974515065
 20
302.4064002255818
 10
40.55919474515075
 20
302.4064002255818
 10
41.82891974515086
 20
302.4064002255818
 10
43.09864474515097
 20
302.4064002255818
 10
44.36834474515081
 20
302.4064002255818
  0
LINE
  5
122
330
F8
100
AcDbEntity
  8
GAIKEI
  6
HIDDEN2
 62
     1
100
AcDbLine
 10
61.93871891162758
 20
304.8073288922467
 30
0.0
 11
61.83490391166946
 21
310.7548734732008
 31
0.0
  0
LINE
  5
123
330
F8
100
AcDbEntity
  8
GAIKEI
  6
HIDDEN2
 62
     1
100
AcDbLine
 10
60.98889599534118
 20
304.8073288922467
 30
0.0
 11
61.09271057863292
 21
310.7548734732008
 31
0.0
  0
LWPOLYLINE
  5
124
330
F8
100
AcDbEntity
  8
GAIKEI
  6
Continuous
 62
     1
100
AcDbPolyline
 90
       11
 70
     0
 43
0.0
 10
62.05484474515106
 20
302.0635597255819
 10
61.77204474515065
 20
302.104731475582
 10
61.48899474515065
 20
302.1434762255819
 10
61.20569474515104
 20
302.179794475582
 10
60.92211974515067
 20
302.2136857255819
 10
60.63829474515069
 20
302.2451499755819
 10
60.35419474515084
 20
302.274187475582
 10
60.06986974515075
 20
302.300798225582
 10
59.78526974515079
 20
302.3249817255819
 10
59.50039474515096
 20
302.3467384755818
 10
59.2152947451509
 20
302.3660682255818
  0
LINE
  5
125
330
F8
100
AcDbEntity
  8
GAIKEI
  6
Continuous
 62
     1
100
AcDbLine
 10
58.76949474515096
 20
305.0578224755818
 30
0.0
 11
58.76949474515096
 21
304.907822475582
 31
0.0
  0
LINE
  5
126
330
F8
100
AcDbEntity
  8
GAIKEI
  6
Continuous
 62
     1
100
AcDbLine
 10
58.76949474515096
 20
304.907822475582
 30
0.0
 11
58.76949474515096
 21
304.8022559755818
 31
0.0
  0
LWPOLYLINE
  5
127
330
F8
100
AcDbEntity
  8
GAIKEI
  6
Continuous
 62
     1
100
AcDbPolyline
 90
       51
 70
     0
 43
0.0
 10
59.2152947451509
 20
302.3660682255818
 10
59.17416974515072
 20
302.368852725582
 10
59.13304474515097
 20
302.3714979755819
 10
59.09191974515078
 20
302.3739922255818
 10
59.05079474515105
 20
302.3763237255819
 10
59.00966974515085
 20
302.378480725582
 10
58.96854474515067
 20
302.380451225582
 10
58.92739474515065
 20
302.3822237255818
 10
58.88626974515091
 20
302.3837862255819
 10
58.8451197451509
 20
302.3851269755819
 10
58.80394474515107
 20
302.386234225582
 10
58.78056974515084
 20
302.3867577255819
 10
58.75716974515079
 20
302.3872164755819
 10
58.73376974515077
 20
302.387624475582
 10
58.71036974515073
 20
302.387996475582
 10
58.68696974515069
 20
302.3883464755818
 10
58.66356974515065
 20
302.3886889755818
 10
58.64016974515107
 20
302.3890379755819
 10
58.61676974515103
 20
302.389408225582
 10
58.59336974515099
 20
302.3898137255819
 10
58.56996974515095
 20
302.3902687255818
 10
58.54174474515094
 20
302.390897975582
 10
58.51349474515064
 20
302.3916054755819
 10
58.48526974515107
 20
302.3923772255819
 10
58.45704474515104
 20
302.393198225582
 10
58.42879474515075
 20
302.3940537255819
 10
58.40056974515072
 20
302.394929225582
 10
58.37234474515071
 20
302.395810225582
 10
58.34411974515069
 20
302.3966814755818
 10
58.31586974515085
 20
302.397528975582
 10
58.28764474515082
 20
302.3983374755819
 10
58.22836974515076
 20
302.3998702255819
 10
58.16909474515068
 20
302.4011877255819
 10
58.10981974515107
 20
302.402310475582
 10
58.05051974515071
 20
302.4032584755819
 10
57.99124474515065
 20
302.4040519755818
 10
57.93194474515075
 20
302.4047104755819
 10
57.87264474515087
 20
302.4052547255819
 10
57.81336974515078
 20
302.4057042255818
 10
57.7540697451509
 20
302.4060794755819
 10
57.694769745151
 20
302.4064002255818
 10
57.63144474515093
 20
302.406700225582
 10
57.56811974515085
 20
302.4069532255819
 10
57.50479474515078
 20
302.407152225582
 10
57.4414697451507
 20
302.4072894755818
 10
57.37814474515108
 20
302.4073574755819
 10
57.314819745151
 20
302.407348975582
 10
57.25149474515092
 20
302.407256475582
 10
57.18816974515084
 20
302.407072475582
 10
57.12484474515077
 20
302.406789475582
 10
57.06151974515069
 20
302.4064002255818
  0
LINE
  5
128
330
F8
100
AcDbEntity
  8
GAIKEI
  6
Continuous
 62
     1
100
AcDbLine
 10
62.45531974515096
 20
305.0578224755818
 30
0.0
 11
62.458144745151
 21
305.0578224755818
 31
0.0
  0
LINE
  5
129
330
F8
100
AcDbEntity
  8
GAIKEI
  6
Continuous
 62
     1
100
AcDbLine
 10
62.51594474515105
 20
305.0155912255818
 30
0.0
 11
62.51636974515077
 21
305.0122312255819
 31
0.0
  0
LINE
  5
12A
330
F8
100
AcDbEntity
  8
GAIKEI
  6
Continuous
 62
     1
100
AcDbLine
 10
62.47026974515074
 20
305.0578224755818
 30
0.0
 11
62.48334474515104
 21
305.054921475582
 31
0.0
  0
LINE
  5
12B
330
F8
100
AcDbEntity
  8
GAIKEI
  6
Continuous
 62
     1
100
AcDbLine
 10
62.52289474515101
 20
304.8590687255819
 30
0.0
 11
62.52521974515094
 21
304.8022559755818
 31
0.0
  0
ARC
  5
12C
330
F8
100
AcDbEntity
  8
GAIKEI
  6
Continuous
100
AcDbCircle
 10
62.69559474515063
 20
304.7522559755819
 30
0.0
 40
0.05
100
AcDbArc
 50
2.44581412999458
 51
90.000000199999
  0
LWPOLYLINE
  5
12D
330
F8
100
AcDbEntity
  8
GAIKEI
  6
Continuous
 62
     1
100
AcDbPolyline
 90
       18
 70
     0
 43
0.0
 10
62.45531974515096
 20
305.0578224755818
 10
62.45089474515089
 20
305.0576184755819
 10
62.44651974515091
 20
305.0570084755818
 10
62.44219474515103
 20
305.0559972255819
 10
62.43799474515071
 20
305.054592975582
 10
62.43391974515088
 20
305.0528069755819
 10
62.430044745151
 20
305.050654475582
 10
62.42634474515079
 20
305.0481522255818
 10
62.42289474515064
 20
305.0453212255821
 10
62.41971974515082
 20
305.0421842255819
 10
62.41681974515086
 20
305.0387669755819
 10
62.41424474515088
 20
305.035097475582
 10
62.41199474515088
 20
305.0312054755818
 10
62.41011974515096
 20
305.027122475582
 10
62.40859474515082
 20
305.022882225582
 10
62.40744474515078
 20
305.0185192255819
 10
62.40669474515107
 20
305.0140687255819
 10
62.40634474515083
 20
305.0095674755819
  0
LWPOLYLINE
  5
12E
330
F8
100
AcDbEntity
  8
GAIKEI
  6
Continuous
 62
     1
100
AcDbPolyline
 90
       18
 70
     0
 43
0.0
 10
62.35296974515086
 20
304.8078224755818
 10
62.35739474515094
 20
304.8080264755818
 10
62.36176974515092
 20
304.8086364755818
 10
62.3660947451508
 20
304.809647725582
 10
62.37029474515065
 20
304.8110519755819
 10
62.37436974515094
 20
304.8128379755819
 10
62.37824474515083
 20
304.8149904755819
 10
62.38194474515103
 20
304.8174927255818
 10
62.38539474515072
 20
304.8203237255818
 10
62.38856974515102
 20
304.8234607255818
 10
62.39146974515096
 20
304.826877975582
 10
62.39404474515096
 20
304.8305474755819
 10
62.39629474515096
 20
304.8344394755818
 10
62.39816974515088
 20
304.8385224755818
 10
62.399694745151
 20
304.8427627255819
 10
62.40084474515106
 20
304.8471257255819
 10
62.40159474515076
 20
304.851576225582
 10
62.401944745151
 20
304.856077475582
  0
LINE
  5
12F
330
F8
100
AcDbEntity
  8
GAIKEI
  6
Continuous
 62
     1
100
AcDbLine
 10
62.40201974515094
 20
304.8560784755819
 30
0.0
 11
62.40349474515096
 21
304.907822475582
 31
0.0
  0
ARC
  5
130
330
F8
100
AcDbEntity
  8
GAIKEI
  6
Continuous
 62
     1
100
AcDbCircle
 10
62.46654474515071
 20
305.0078224755819
 30
0.0
 40
0.05
100
AcDbArc
 50
8.938702700005904
 51
70.38701199996933
  0
LINE
  5
131
330
F8
100
AcDbEntity
  8
GAIKEI
  6
Continuous
 62
     1
100
AcDbLine
 10
62.51636974515077
 20
305.0122312255819
 30
0.0
 11
62.52081974515068
 21
304.907822475582
 31
0.0
  0
LINE
  5
132
330
F8
100
AcDbEntity
  8
GAIKEI
  6
Continuous
 62
     1
100
AcDbLine
 10
62.47026974515074
 20
305.0578224755818
 30
0.0
 11
62.458144745151
 21
305.0578224755818
 31
0.0
  0
LINE
  5
133
330
F8
100
AcDbEntity
  8
GAIKEI
  6
Continuous
 62
     1
100
AcDbLine
 10
62.40349474515096
 20
304.907822475582
 30
0.0
 11
62.40639474515091
 21
305.0095682255819
 31
0.0
  0
LINE
  5
134
330
F8
100
AcDbEntity
  8
GAIKEI
  6
Continuous
 62
     1
100
AcDbLine
 10
62.52081974515068
 20
304.907822475582
 30
0.0
 11
62.52289474515101
 21
304.8590687255819
 31
0.0
  0
LWPOLYLINE
  5
135
330
F8
100
AcDbEntity
  8
GAIKEI
  6
Continuous
100
AcDbPolyline
 90
       51
 70
     0
 43
0.0
 10
62.42054474515089
 20
302.602927475582
 10
62.43171974515099
 20
302.6035217255819
 10
62.44289474515063
 20
302.6040149755818
 10
62.45406974515072
 20
302.6044002255819
 10
62.46524474515081
 20
302.6046702255819
 10
62.47644474515073
 20
302.6048182255818
 10
62.48761974515082
 20
302.6048372255818
 10
62.49881974515074
 20
302.6047202255818
 10
62.50999474515083
 20
302.6044599755819
 10
62.52114474515065
 20
302.6040499755818
 10
62.53231974515074
 20
302.6034827255819
 10
62.54051974515096
 20
302.6029627255819
 10
62.548744745151
 20
302.6023662255818
 10
62.55694474515076
 20
302.601705725582
 10
62.56514474515096
 20
302.6009939755819
 10
62.57334474515073
 20
302.6002434755819
 10
62.58154474515095
 20
302.5994667255818
 10
62.58974474515071
 20
302.5986764755819
 10
62.59794474515093
 20
302.597884975582
 10
62.60614474515069
 20
302.5971049755819
 10
62.6143447451509
 20
302.5963492255819
 10
62.62541974515078
 20
302.5953807255819
 10
62.63649474515069
 20
302.5944544755819
 10
62.64756974515103
 20
302.5935464755819
 10
62.65866974515074
 20
302.592631975582
 10
62.66971974515082
 20
302.5916867255819
 10
62.6807947451507
 20
302.5906864755818
 10
62.69184474515078
 20
302.5896069755818
 10
62.70289474515085
 20
302.5884237255819
 10
62.71391974515063
 20
302.5871127255819
 10
62.72491974515106
 20
302.585648975582
 10
62.73536974515082
 20
302.584098725582
 10
62.74576974515094
 20
302.5823964755819
 10
62.75616974515106
 20
302.580549975582
 10
62.7665447451509
 20
302.578567225582
 10
62.77691974515073
 20
302.5764562255818
 10
62.78724474515093
 20
302.574224475582
 10
62.79754474515084
 20
302.5718802255819
 10
62.80784474515076
 20
302.5694307255819
 10
62.81811974515085
 20
302.5668844755819
 10
62.82834474515084
 20
302.5642487255818
 10
62.8388197451509
 20
302.5614599755818
 10
62.84926974515065
 20
302.5585834755818
 10
62.85969474515105
 20
302.5556169755819
 10
62.87009474515071
 20
302.5525584755819
 10
62.880469745151
 20
302.549405225582
 10
62.89079474515073
 20
302.5461557255819
 10
62.90109474515065
 20
302.5428074755819
 10
62.91136974515075
 20
302.539358225582
 10
62.92159474515074
 20
302.535805975582
 10
62.93179474515091
 20
302.532148225582
  0
LWPOLYLINE
  5
136
330
F8
100
AcDbEntity
  8
GAIKEI
  6
Continuous
 62
     1
100
AcDbPolyline
 90
       11
 70
     0
 43
0.0
 10
62.06294474515107
 20
302.0635597255819
 10
62.06211974515099
 20
302.0635597255819
 10
62.06131974515074
 20
302.0635597255819
 10
62.06051974515094
 20
302.0635597255819
 10
62.05969474515086
 20
302.0635597255819
 10
62.05889474515107
 20
302.0635597255819
 10
62.05806974515099
 20
302.0635597255819
 10
62.05726974515073
 20
302.0635597255819
 10
62.05644474515064
 20
302.0635597255819
 10
62.05564474515086
 20
302.0635597255819
 10
62.05484474515106
 20
302.0635597255819
  0
LWPOLYLINE
  5
137
330
F8
100
AcDbEntity
  8
GAIKEI
  6
Continuous
 62
     1
100
AcDbPolyline
 90
       11
 70
     0
 43
0.0
 10
62.82124474515104
 20
302.0191932255818
 10
62.745119745151
 20
302.0188239755819
 10
62.66904474515104
 20
302.019522725582
 10
62.59304474515102
 20
302.0212892255818
 10
62.51711974515092
 20
302.0241237255818
 10
62.44124474515093
 20
302.028026475582
 10
62.36544474515085
 20
302.0329969755819
 10
62.28971974515071
 20
302.0390354755818
 10
62.21404474515065
 20
302.0461422255819
 10
62.13846974515082
 20
302.054316975582
 10
62.06294474515107
 20
302.0635597255819
  0
LWPOLYLINE
  5
138
330
F8
100
AcDbEntity
  8
GAIKEI
  6
Continuous
 62
     1
100
AcDbPolyline
 90
       11
 70
     0
 43
0.0
 10
63.87396974515104
 20
302.0232277255818
 10
63.76951974515077
 20
302.0220954755819
 10
63.66504474515068
 20
302.021125225582
 10
63.56056974515104
 20
302.0203169755819
 10
63.45609474515096
 20
302.019670475582
 10
63.35161974515086
 20
302.0191859755819
 10
63.24714474515076
 20
302.0188634755819
 10
63.14266974515067
 20
302.0187029755819
 10
63.03819474515103
 20
302.0187044755819
 10
62.93371974515094
 20
302.0188677255819
 10
62.82924474515085
 20
302.0191932255818
  0
LWPOLYLINE
  5
139
330
F8
100
AcDbEntity
  8
GAIKEI
  6
Continuous
100
AcDbPolyline
 90
       11
 70
     0
 43
0.0
 10
63.88199474515068
 20
302.3539649755819
 10
63.78731974515085
 20
302.3692869755819
 10
63.69269474515068
 20
302.3849684755819
 10
63.59816974515069
 20
302.4010097255819
 10
63.50366974515099
 20
302.4174104755819
 10
63.40926974515104
 20
302.4341709755818
 10
63.31489474515091
 20
302.4512912255818
 10
63.220619745151
 20
302.468770975582
 10
63.12639474515072
 20
302.4866102255819
 10
63.032219745151
 20
302.5048094755819
 10
62.93814474515102
 20
302.5233682255819
  0
LWPOLYLINE
  5
13A
330
F8
100
AcDbEntity
  8
GAIKEI
  6
Continuous
100
AcDbPolyline
 90
       11
 70
     0
 43
0.0
 10
63.88199474515068
 20
302.3539649755819
 10
63.78731974515085
 20
302.3692869755819
 10
63.69269474515068
 20
302.3849684755819
 10
63.59816974515069
 20
302.4010097255819
 10
63.50366974515099
 20
302.4174104755819
 10
63.40926974515104
 20
302.4341709755818
 10
63.31489474515091
 20
302.4512912255818
 10
63.220619745151
 20
302.468770975582
 10
63.12639474515072
 20
302.4866102255819
 10
63.032219745151
 20
302.5048094755819
 10
62.93814474515102
 20
302.5233682255819
  0
LWPOLYLINE
  5
13B
330
F8
100
AcDbEntity
  8
GAIKEI
  6
Continuous
100
AcDbPolyline
 90
       11
 70
     0
 43
0.0
 10
63.88199474515068
 20
302.3539649755819
 10
63.78731974515085
 20
302.3692869755819
 10
63.69269474515068
 20
302.3849684755819
 10
63.59816974515069
 20
302.4010097255819
 10
63.50366974515099
 20
302.4174104755819
 10
63.40926974515104
 20
302.4341709755818
 10
63.31489474515091
 20
302.4512912255818
 10
63.220619745151
 20
302.468770975582
 10
63.12639474515072
 20
302.4866102255819
 10
63.032219745151
 20
302.5048094755819
 10
62.93814474515102
 20
302.5233682255819
  0
LWPOLYLINE
  5
13C
330
F8
100
AcDbEntity
  8
GAIKEI
  6
Continuous
100
AcDbPolyline
 90
       11
 70
     0
 43
0.0
 10
63.88199474515068
 20
302.3539649755819
 10
63.78731974515085
 20
302.3692869755819
 10
63.69269474515068
 20
302.3849684755819
 10
63.59816974515069
 20
302.4010097255819
 10
63.50366974515099
 20
302.4174104755819
 10
63.40926974515104
 20
302.4341709755818
 10
63.31489474515091
 20
302.4512912255818
 10
63.220619745151
 20
302.468770975582
 10
63.12639474515072
 20
302.4866102255819
 10
63.032219745151
 20
302.5048094755819
 10
62.93814474515102
 20
302.5233682255819
  0
LWPOLYLINE
  5
13D
330
F8
100
AcDbEntity
  8
GAIKEI
  6
Continuous
100
AcDbPolyline
 90
       13
 70
     0
 43
0.0
 10
63.88199474515068
 20
302.3539649755819
 10
63.93689474515078
 20
302.3341112255819
 10
63.99106974515097
 20
302.3126639755819
 10
64.04449474515104
 20
302.289623475582
 10
64.09721974515104
 20
302.2649897255819
 10
64.14921974515073
 20
302.2387622255819
 10
64.20049474515099
 20
302.210941725582
 10
64.25104474515092
 20
302.1815277255819
 10
64.30084474515069
 20
302.150520475582
 10
64.34994474515088
 20
302.1179197255819
 10
64.3982947451509
 20
302.0837257255819
 42
-0.2296390098952132
 10
64.43960749737335
 20
302.0078842873545
 10
64.45663688732385
 20
301.682822475582
  0
LWPOLYLINE
  5
13E
330
F8
100
AcDbEntity
  8
GAIKEI
  6
Continuous
 62
     1
100
AcDbPolyline
 90
       67
 70
     0
 43
0.0
 10
64.40229474515081
 20
302.0837257255819
 10
64.40114474515076
 20
302.081130225582
 10
64.39989474515096
 20
302.078655975582
 10
64.39856974515078
 20
302.076305725582
 10
64.39711974515103
 20
302.0740822255818
 10
64.39556974515061
 20
302.071988475582
 10
64.39389474515064
 20
302.070027225582
 10
64.39214474515075
 20
302.0682007255819
 10
64.39026974515082
 20
302.0665122255819
 10
64.38826974515087
 20
302.064964475582
 10
64.3861697451507
 20
302.0635597255819
 10
64.38541974515101
 20
302.0631012255819
 10
64.38464474515105
 20
302.0626589755818
 10
64.38384474515078
 20
302.0622312255819
 10
64.38304474515098
 20
302.0618169755819
 10
64.38221974515091
 20
302.0614144755819
 10
64.38141974515065
 20
302.0610222255819
 10
64.38059474515103
 20
302.0606387255818
 10
64.37974474515067
 20
302.0602622255819
 10
64.37891974515103
 20
302.059891725582
 10
64.37806974515069
 20
302.0595252255819
 10
64.36884474515091
 20
302.055738225582
 10
64.35946974515082
 20
302.0523427255819
 10
64.34999474515098
 20
302.0493392255819
 10
64.34039474515064
 20
302.0467287255819
 10
64.33069474515105
 20
302.0445119755818
 10
64.32091974515106
 20
302.0426894755819
 10
64.31106974515069
 20
302.0412624755818
 10
64.30116974515067
 20
302.0402309755819
 10
64.29124474515082
 20
302.0395964755819
 10
64.28129474515071
 20
302.0393592255819
 10
64.28069474515087
 20
302.0393577255818
 10
64.28009474515102
 20
302.0393572255819
 10
64.27949474515071
 20
302.0393574755819
 10
64.27889474515087
 20
302.039358225582
 10
64.27829474515103
 20
302.0393589755818
 10
64.27769474515071
 20
302.0393594755819
 10
64.26879474515089
 20
302.0392699755819
 10
64.25184474515072
 20
302.0386339755819
 10
64.23486974515071
 20
302.0375042255819
 10
64.21791974515099
 20
302.0360187255819
 10
64.20094474515099
 20
302.034316225582
 10
64.18401974515063
 20
302.0325349755819
 10
64.16706974515091
 20
302.0308139755819
 10
64.15014474515101
 20
302.0292914755819
 10
64.13321974515065
 20
302.028105725582
 10
64.11631974515103
 20
302.0273957255818
 10
64.10746974515086
 20
302.027259975582
 10
64.10664474515079
 20
302.0272564755819
 10
64.10584474515099
 20
302.0272544755819
 10
64.10501974515091
 20
302.0272532255819
 10
64.10421974515066
 20
302.0272532255819
 10
64.10341974515086
 20
302.027253975582
 10
64.10259474515078
 20
302.0272552255819
 10
64.10179474515098
 20
302.0272569755819
 10
64.10096974515091
 20
302.0272589755819
 10
64.10016974515065
 20
302.0272612255819
 10
64.08966974515078
 20
302.0272744755819
 10
64.06949474515068
 20
302.0272229755819
 10
64.04931974515102
 20
302.0270734755818
 10
64.02916974515074
 20
302.0268299755819
 10
64.00899474515063
 20
302.0264962255819
 10
63.98881974515098
 20
302.0260764755819
 10
63.96866974515069
 20
302.0255744755818
 10
63.94849474515105
 20
302.0249942255819
 10
63.92834474515074
 20
302.0243399755818
 10
63.87396974515104
 20
302.0232277255818
  0
LINE
  5
13F
330
F8
100
AcDbEntity
  8
GAIKEI
  6
Continuous
100
AcDbLine
 10
62.83894474515091
 20
302.5678072255819
 30
0.0
 11
62.7455447451507
 21
304.7543897255819
 31
0.0
  0
CIRCLE
  5
140
330
F8
100
AcDbEntity
  8
GAIKEI
  6
HIDDEN2
 62
     1
100
AcDbCircle
 10
61.46380724515097
 20
306.9772559747118
 30
0.0
 40
0.04999999998
  0
CIRCLE
  5
141
330
F8
100
AcDbEntity
  8
GAIKEI
  6
HIDDEN2
 62
     1
100
AcDbCircle
 10
61.46380724515097
 20
309.2272559738118
 30
0.0
 40
0.04999999998
  0
LINE
  5
142
330
F8
100
AcDbEntity
  8
GAIKEI
  6
HIDDEN2
 62
     1
100
AcDbLine
 10
61.6849268283961
 20
310.9022559731418
 30
0.0
 11
61.2426876619063
 21
310.9022559731418
 31
0.0
  0
ARC
  5
143
330
F8
100
AcDbEntity
  8
GAIKEI
  6
HIDDEN2
 62
     1
100
AcDbCircle
 10
61.6849268283961
 20
310.752255973202
 30
0.0
 40
0.14999999994
100
AcDbArc
 50
1.000001000005675
 51
89.99999980000101
  0
ARC
  5
144
330
F8
100
AcDbEntity
  8
GAIKEI
  6
HIDDEN2
 62
     1
100
AcDbCircle
 10
61.2426876619063
 20
310.752255973202
 30
0.0
 40
0.14999999994
100
AcDbArc
 50
89.99999980000101
 51
178.9999996400051
  0
ENDBLK
  5
146
330
F8
100
AcDbEntity
  8
0
100
AcDbBlockEnd
  0
BLOCK
  5
184
330
162
100
AcDbEntity
  8
0
100
AcDbBlockBegin
  2
３４０５９
 70
     0
 10
0.0
 20
0.0
 30
0.0
  3
３４０５９
  1

  0
ARC
  5
163
330
162
100
AcDbEntity
  8
GAIKEI
100
AcDbCircle
 10
106.0987200780539
 20
261.8328224505819
 30
0.0
 40
40.725
100
AcDbArc
 50
84.67905569997764
 51
90.000000199999
  0
LINE
  5
164
330
162
100
AcDbEntity
  8
GAIKEI
100
AcDbLine
 10
110.8129950780542
 20
301.6828224755818
 30
0.0
 11
94.81934507805426
 21
301.6828224755818
 31
0.0
  0
LINE
  5
165
330
162
100
AcDbEntity
  8
GAIKEI
 62
     1
100
AcDbLine
 10
110.8129950780542
 20
301.732822475582
 30
0.0
 11
94.81934507805426
 21
301.732822475582
 31
0.0
  0
ARC
  5
166
330
162
100
AcDbEntity
  8
GAIKEI
100
AcDbCircle
 10
103.2984700780541
 20
217.5578224505819
 30
0.0
 40
85.0
100
AcDbArc
 50
90.000000199999
 51
95.10351000002749
  0
ARC
  5
167
330
162
100
AcDbEntity
  8
GAIKEI
100
AcDbCircle
 10
96.04862007805396
 20
298.7347252255818
 30
0.0
 40
3.5
100
AcDbArc
 50
95.10351000002749
 51
110.1337730000348
  0
LINE
  5
168
330
162
100
AcDbEntity
  8
GAIKEI
100
AcDbLine
 10
94.81934507805426
 20
301.732822475582
 30
0.0
 11
94.81934507805426
 21
301.6828224755818
 31
0.0
  0
LINE
  5
169
330
162
100
AcDbEntity
  8
GAIKEI
100
AcDbLine
 10
94.80884507805395
 20
301.9328224755818
 30
0.0
 11
94.81934507805426
 21
301.732822475582
 31
0.0
  0
LINE
  5
16A
330
162
100
AcDbEntity
  8
GAIKEI
100
AcDbLine
 10
94.80884507805395
 20
301.9328224755818
 30
0.0
 11
94.81114507805406
 21
301.976517725582
 31
0.0
  0
ARC
  5
16B
330
162
100
AcDbEntity
  8
GAIKEI
100
AcDbCircle
 10
94.86107007805385
 20
301.973900975582
 30
0.0
 40
0.05
100
AcDbArc
 50
110.1337730000348
 51
177.0000000000074
  0
ARC
  5
16C
330
162
100
AcDbEntity
  8
GAIKEI
  6
PHANTOM
100
AcDbCircle
 10
96.04862007805396
 20
298.7347252255818
 30
0.0
 40
3.5
100
AcDbArc
 50
110.1337730000348
 51
110.7454179999724
  0
LINE
  5
16E
330
162
100
AcDbEntity
  8
GAIKEI
  6
HIDDEN2
 62
     1
100
AcDbLine
 10
105.0191063263673
 20
305.0578224755818
 30
0.0
 11
104.9195669529058
 21
310.7604403923074
 31
0.0
  0
ARC
  5
16F
330
162
100
AcDbEntity
  8
GAIKEI
100
AcDbCircle
 10
105.990095078054
 20
305.0078224755819
 30
0.0
 40
0.05
100
AcDbArc
 50
2.000000000003669
 51
90.000000199999
  0
ARC
  5
170
330
162
100
AcDbEntity
  8
GAIKEI
100
AcDbCircle
 10
106.2463950780541
 20
302.6825554755819
 30
0.0
 40
0.125
100
AcDbArc
 50
182.0000000000037
 51
269.7928719999572
  0
LINE
  5
171
330
162
100
AcDbEntity
  8
GAIKEI
100
AcDbLine
 10
106.0400700780539
 20
305.0095674755819
 30
0.0
 11
106.1214950780543
 21
302.6781929755819
 31
0.0
  0
LINE
  5
172
330
162
100
AcDbEntity
  8
GAIKEI
  6
HIDDEN2
 62
     1
100
AcDbLine
 10
104.0735586199107
 20
304.8128953946864
 30
0.0
 11
104.1773736198692
 21
310.7604403923074
 31
0.0
  0
ARC
  5
173
330
162
100
AcDbEntity
  8
GAIKEI
100
AcDbCircle
 10
104.069895078054
 20
304.857822475582
 30
0.0
 40
0.05
100
AcDbArc
 50
270.0
 51
0.0
  0
ARC
  5
174
330
162
100
AcDbEntity
  8
GAIKEI
100
AcDbCircle
 10
104.1698950780539
 20
305.0078224755819
 30
0.0
 40
0.05
100
AcDbArc
 50
90.000000199999
 51
180.0
  0
LINE
  5
175
330
162
100
AcDbEntity
  8
GAIKEI
100
AcDbLine
 10
104.1198950780542
 20
305.0078224755819
 30
0.0
 11
104.1198950780542
 21
304.857822475582
 31
0.0
  0
LINE
  5
176
330
162
100
AcDbEntity
  8
GAIKEI
100
AcDbLine
 10
102.7480950780539
 20
304.8078224755818
 30
0.0
 11
104.069895078054
 21
304.8078224755818
 31
0.0
  0
ARC
  5
177
330
162
100
AcDbEntity
  8
GAIKEI
100
AcDbCircle
 10
102.7480950780539
 20
304.7578224755819
 30
0.0
 40
0.05
100
AcDbArc
 50
90.000000199999
 51
177.9999999999963
  0
ARC
  5
178
330
162
100
AcDbEntity
  8
GAIKEI
100
AcDbCircle
 10
102.500395078054
 20
302.6790814755818
 30
0.0
 40
0.125
100
AcDbArc
 50
270.5371649999805
 51
357.9999999999964
  0
LINE
  5
179
330
162
100
AcDbEntity
  8
GAIKEI
100
AcDbLine
 10
102.6981450780542
 20
304.7595674755819
 30
0.0
 11
102.625320078054
 21
302.674718975582
 31
0.0
  0
ARC
  5
17A
330
162
100
AcDbEntity
  8
GAIKEI
  6
HIDDEN2
 62
     1
100
AcDbCircle
 10
104.3273507031426
 20
310.7578224756417
 30
0.0
 40
0.14999999994
100
AcDbArc
 50
90.0
 51
178.9999999999982
  0
LINE
  5
17B
330
162
100
AcDbEntity
  8
GAIKEI
  6
HIDDEN2
 62
     1
100
AcDbLine
 10
104.3273507031426
 20
310.9078224755817
 30
0.0
 11
104.7695894529656
 21
310.9078224755817
 31
0.0
  0
LINE
  5
17C
330
162
100
AcDbEntity
  8
GAIKEI
100
AcDbLine
 10
104.1698950780539
 20
305.0578224755818
 30
0.0
 11
105.990095078054
 21
305.0578224755818
 31
0.0
  0
LINE
  5
17D
330
162
100
AcDbEntity
  8
GAIKEI
100
AcDbLine
 10
106.0987200780539
 20
302.5578224755818
 30
0.0
 11
103.2984700780541
 21
302.5578224755818
 31
0.0
  0
ARC
  5
17E
330
162
100
AcDbEntity
  8
GAIKEI
  6
HIDDEN2
 62
     1
100
AcDbCircle
 10
104.7695894529656
 20
310.7578224756417
 30
0.0
 40
0.14999999994
100
AcDbArc
 50
1.000000599998905
 51
90.0
  0
ARC
  5
17F
330
162
100
AcDbEntity
  8
GAIKEI
100
AcDbCircle
 10
110.7631950780539
 20
302.1273559755819
 30
0.0
 40
0.05
100
AcDbArc
 50
2.999999999992585
 51
69.42530180001558
  0
LINE
  5
180
330
162
100
AcDbEntity
  8
GAIKEI
100
AcDbLine
 10
110.8129950780542
 20
301.732822475582
 30
0.0
 11
110.8129950780542
 21
301.6828224755818
 31
0.0
  0
LINE
  5
181
330
162
100
AcDbEntity
  8
GAIKEI
100
AcDbLine
 10
110.8234700780542
 20
301.9328224755818
 30
0.0
 11
110.8129950780542
 21
301.732822475582
 31
0.0
  0
LINE
  5
182
330
162
100
AcDbEntity
  8
GAIKEI
100
AcDbLine
 10
110.8234700780542
 20
301.9328224755818
 30
0.0
 11
110.813145078054
 21
302.1299727255819
 31
0.0
  0
ARC
  5
183
330
162
100
AcDbEntity
  8
GAIKEI
100
AcDbCircle
 10
109.5507700780542
 20
298.8974149755818
 30
0.0
 40
3.5
100
AcDbArc
 50
69.42530180001558
 51
84.67905569997764
  0
ENDBLK
  5
185
330
162
100
AcDbEntity
  8
0
100
AcDbBlockEnd
  0
BLOCK
  5
F5
330
9F
100
AcDbEntity
  8
0
100
AcDbBlockBegin
  2
４２
 70
     0
 10
0.0
 20
0.0
 30
0.0
  3
４２
  1

  0
LINE
  5
A0
330
9F
100
AcDbEntity
  8
GAIKEI
  6
Continuous
 62
     1
100
AcDbLine
 10
174.1204051536454
 20
189.8855134935916
 30
0.0
 11
129.0204051536454
 21
189.8855134935916
 31
0.0
  0
LINE
  5
A1
330
9F
100
AcDbEntity
  8
GAIKEI
100
AcDbLine
 10
126.7204051536452
 20
187.5855134935916
 30
0.0
 11
176.4204051536456
 21
187.5855134935916
 31
0.0
  0
LINE
  5
A2
330
9F
100
AcDbEntity
  8
GAIKEI
 62
     1
100
AcDbLine
 10
176.3051076536451
 20
187.7008106185917
 30
0.0
 11
128.206912653645
 21
187.7008106185917
 31
0.0
  0
LINE
  5
A3
330
9F
100
AcDbEntity
  8
GAIKEI
 62
     1
100
AcDbLine
 10
174.9756476536452
 20
189.0802727185917
 30
0.0
 11
128.1651651536456
 21
189.0802727185917
 31
0.0
  0
LINE
  5
A4
330
9F
100
AcDbEntity
  8
GAIKEI
100
AcDbLine
 10
174.9808876536456
 20
188.9750319435916
 30
0.0
 11
128.1599251536451
 21
188.9750319435916
 31
0.0
  0
LINE
  5
A5
330
9F
100
AcDbEntity
  8
GAIKEI
  6
Continuous
 62
     1
100
AcDbLine
 10
174.1204051536454
 20
215.7855134935917
 30
0.0
 11
129.0204051536454
 21
215.7855134935917
 31
0.0
  0
LINE
  5
A6
330
9F
100
AcDbEntity
  8
GAIKEI
100
AcDbLine
 10
126.7204051536452
 20
218.0855134935916
 30
0.0
 11
176.4204051536456
 21
218.0855134935916
 31
0.0
  0
LINE
  5
A7
330
9F
100
AcDbEntity
  8
GAIKEI
 62
     1
100
AcDbLine
 10
176.3051076536451
 20
217.9702163935917
 30
0.0
 11
126.8357026536457
 21
217.9702163935917
 31
0.0
  0
LINE
  5
A8
330
9F
100
AcDbEntity
  8
GAIKEI
 62
     1
100
AcDbLine
 10
174.9756476536452
 20
216.5907542685918
 30
0.0
 11
128.1651651536456
 21
216.5907542685918
 31
0.0
  0
LINE
  5
A9
330
9F
100
AcDbEntity
  8
GAIKEI
100
AcDbLine
 10
174.9808876536456
 20
216.6959950685919
 30
0.0
 11
128.1599251536451
 21
216.6959950685919
 31
0.0
  0
LINE
  5
AA
330
9F
100
AcDbEntity
  8
GAIKEI
100
AcDbLine
 10
126.5204051536454
 20
187.7855134935917
 30
0.0
 11
126.5204051536454
 21
217.8855134935916
 31
0.0
  0
LINE
  5
AB
330
9F
100
AcDbEntity
  8
GAIKEI
 62
     1
100
AcDbLine
 10
126.635702653645
 20
187.9008106185918
 30
0.0
 11
126.635702653645
 21
217.7702163935917
 31
0.0
  0
LINE
  5
AC
330
9F
100
AcDbEntity
  8
GAIKEI
 62
     1
100
AcDbLine
 10
133.6142845293144
 20
188.4005134935916
 30
0.0
 11
133.9142845293144
 21
188.4005134935916
 31
0.0
  0
LINE
  5
AD
330
9F
100
AcDbEntity
  8
GAIKEI
 62
     1
100
AcDbLine
 10
133.9142845293144
 20
188.4005134935916
 30
0.0
 11
133.9142845293144
 21
188.1005134935916
 31
0.0
  0
LINE
  5
AE
330
9F
100
AcDbEntity
  8
GAIKEI
 62
     1
100
AcDbLine
 10
133.9142845293144
 20
188.1005134935916
 30
0.0
 11
133.6142845293144
 21
188.1005134935916
 31
0.0
  0
LINE
  5
AF
330
9F
100
AcDbEntity
  8
GAIKEI
 62
     1
100
AcDbLine
 10
133.6142845293144
 20
188.1005134935916
 30
0.0
 11
133.6142845293144
 21
188.4005134935916
 31
0.0
  0
LINE
  5
B0
330
9F
100
AcDbEntity
  8
GAIKEI
 62
     1
100
AcDbLine
 10
134.0648372307274
 20
188.1005134935916
 30
0.0
 11
134.0648372307274
 21
188.4005134935916
 31
0.0
  0
LINE
  5
B1
330
9F
100
AcDbEntity
  8
GAIKEI
 62
     1
100
AcDbLine
 10
134.3648372307274
 20
188.1005134935916
 30
0.0
 11
134.0648372307274
 21
188.1005134935916
 31
0.0
  0
LINE
  5
B2
330
9F
100
AcDbEntity
  8
GAIKEI
 62
     1
100
AcDbLine
 10
134.3648372307274
 20
188.4005134935916
 30
0.0
 11
134.3648372307274
 21
188.1005134935916
 31
0.0
  0
LINE
  5
B3
330
9F
100
AcDbEntity
  8
GAIKEI
 62
     1
100
AcDbLine
 10
134.0648372307274
 20
188.4005134935916
 30
0.0
 11
134.3648372307274
 21
188.4005134935916
 31
0.0
  0
LINE
  5
B4
330
9F
100
AcDbEntity
  8
GAIKEI
  6
Continuous
 62
     1
100
AcDbLine
 10
129.0204051536454
 20
189.8855134935916
 30
0.0
 11
129.0204051536454
 21
215.7855134935917
 31
0.0
  0
LINE
  5
B5
330
9F
100
AcDbEntity
  8
GAIKEI
100
AcDbLine
 10
127.9099251536451
 20
189.2250319435915
 30
0.0
 11
127.9099251536451
 21
216.4459950685919
 31
0.0
  0
LINE
  5
B6
330
9F
100
AcDbEntity
  8
GAIKEI
 62
     1
100
AcDbLine
 10
128.0151651536459
 20
189.2302727185918
 30
0.0
 11
128.0151651536459
 21
216.4407542685917
 31
0.0
  0
CIRCLE
  5
B7
330
9F
100
AcDbEntity
  8
GAIKEI
 62
     1
100
AcDbCircle
 10
129.045405153646
 20
188.2755134935917
 30
0.0
 40
0.074999998
  0
ARC
  5
B8
330
9F
100
AcDbEntity
  8
GAIKEI
100
AcDbCircle
 10
126.7204051536452
 20
187.7855134935917
 30
0.0
 40
0.2
100
AcDbArc
 50
180.0
 51
270.0
  0
ARC
  5
B9
330
9F
100
AcDbEntity
  8
GAIKEI
 62
     1
100
AcDbCircle
 10
126.8357026536457
 20
187.9008106185918
 30
0.0
 40
0.2
100
AcDbArc
 50
180.0
 51
270.0
  0
ARC
  5
BA
330
9F
100
AcDbEntity
  8
GAIKEI
 62
     1
100
AcDbCircle
 10
128.1877076536454
 20
187.6917455685916
 30
0.0
 40
0.025
100
AcDbArc
 50
180.0
 51
270.0
  0
ARC
  5
BB
330
9F
100
AcDbEntity
  8
GAIKEI
 62
     1
100
AcDbCircle
 10
126.9531051536457
 20
187.6917455685916
 30
0.0
 40
0.025
100
AcDbArc
 50
270.0
 51
0.0
  0
LINE
  5
BC
330
9F
100
AcDbEntity
  8
GAIKEI
 62
     1
100
AcDbLine
 10
126.9531051536457
 20
187.6667455685918
 30
0.0
 11
128.1877076536454
 21
187.6667455685918
 31
0.0
  0
LINE
  5
BD
330
9F
100
AcDbEntity
  8
GAIKEI
 62
     1
100
AcDbLine
 10
128.1819126536454
 20
187.7258106185918
 30
0.0
 11
128.1819126536454
 21
188.3555134935918
 31
0.0
  0
LINE
  5
BE
330
9F
100
AcDbEntity
  8
GAIKEI
 62
     1
100
AcDbLine
 10
126.9588976536458
 20
187.7258106185918
 30
0.0
 11
126.9588976536458
 21
188.3555134935918
 31
0.0
  0
LINE
  5
BF
330
9F
100
AcDbEntity
  8
GAIKEI
 62
     1
100
AcDbLine
 10
128.1627076536449
 20
187.7668827935918
 30
0.0
 11
128.1819126536454
 21
187.7957070685916
 31
0.0
  0
LINE
  5
C0
330
9F
100
AcDbEntity
  8
GAIKEI
 62
     1
100
AcDbLine
 10
126.9781051536453
 20
187.7668827935918
 30
0.0
 11
126.9588976536458
 21
187.7957070685916
 31
0.0
  0
LINE
  5
C1
330
9F
100
AcDbEntity
  8
GAIKEI
 62
     1
100
AcDbLine
 10
126.9781051536453
 20
187.6917455685916
 30
0.0
 11
126.9781051536453
 21
187.7668827935918
 31
0.0
  0
LINE
  5
C2
330
9F
100
AcDbEntity
  8
GAIKEI
 62
     1
100
AcDbLine
 10
128.1627076536449
 20
187.6917455685916
 30
0.0
 11
128.1627076536449
 21
187.7668827935918
 31
0.0
  0
LINE
  5
C3
330
9F
100
AcDbEntity
  8
GAIKEI
 62
     1
100
AcDbLine
 10
126.9781051536453
 20
187.7668827935918
 30
0.0
 11
128.1627076536449
 21
187.7668827935918
 31
0.0
  0
ARC
  5
C4
330
9F
100
AcDbEntity
  8
GAIKEI
 62
     1
100
AcDbCircle
 10
128.1019126536454
 20
188.3555134935918
 30
0.0
 40
0.08
100
AcDbArc
 50
0.0
 51
90.00000019999893
  0
ARC
  5
C5
330
9F
100
AcDbEntity
  8
GAIKEI
 62
     1
100
AcDbCircle
 10
127.0388976536457
 20
188.3555134935918
 30
0.0
 40
0.08
100
AcDbArc
 50
90.00000019999893
 51
180.0
  0
LINE
  5
C6
330
9F
100
AcDbEntity
  8
GAIKEI
 62
     1
100
AcDbLine
 10
127.0388976536457
 20
188.4355134935918
 30
0.0
 11
128.1019126536454
 21
188.4355134935918
 31
0.0
  0
LINE
  5
C7
330
9F
100
AcDbEntity
  8
GAIKEI
 62
     1
100
AcDbLine
 10
126.9338976536453
 20
187.7008106185917
 30
0.0
 11
126.8357026536457
 21
187.7008106185917
 31
0.0
  0
ARC
  5
C8
330
9F
100
AcDbEntity
  8
GAIKEI
 62
     1
100
AcDbCircle
 10
126.9338976536453
 20
187.7258106185918
 30
0.0
 40
0.025
100
AcDbArc
 50
270.0
 51
0.0
  0
ARC
  5
C9
330
9F
100
AcDbEntity
  8
GAIKEI
 62
     1
100
AcDbCircle
 10
128.206912653645
 20
187.7258106185918
 30
0.0
 40
0.025
100
AcDbArc
 50
180.0
 51
270.0
  0
ARC
  5
CA
330
9F
100
AcDbEntity
  8
GAIKEI
 62
     1
100
AcDbCircle
 10
128.1651651536456
 20
189.2302727185918
 30
0.0
 40
0.15
100
AcDbArc
 50
180.0
 51
270.0
  0
ARC
  5
CB
330
9F
100
AcDbEntity
  8
GAIKEI
100
AcDbCircle
 10
128.1599251536451
 20
189.2250319435915
 30
0.0
 40
0.25
100
AcDbArc
 50
180.0
 51
270.0
  0
LINE
  5
CC
330
9F
100
AcDbEntity
  8
GAIKEI
 62
     1
100
AcDbLine
 10
133.1637318279014
 20
188.4005134935916
 30
0.0
 11
133.4637318279014
 21
188.4005134935916
 31
0.0
  0
LINE
  5
CD
330
9F
100
AcDbEntity
  8
GAIKEI
 62
     1
100
AcDbLine
 10
133.4637318279014
 20
188.4005134935916
 30
0.0
 11
133.4637318279014
 21
188.1005134935916
 31
0.0
  0
LINE
  5
CE
330
9F
100
AcDbEntity
  8
GAIKEI
 62
     1
100
AcDbLine
 10
133.4637318279014
 20
188.1005134935916
 30
0.0
 11
133.1637318279014
 21
188.1005134935916
 31
0.0
  0
LINE
  5
CF
330
9F
100
AcDbEntity
  8
GAIKEI
 62
     1
100
AcDbLine
 10
133.1637318279014
 20
188.1005134935916
 30
0.0
 11
133.1637318279014
 21
188.4005134935916
 31
0.0
  0
LINE
  5
D0
330
9F
100
AcDbEntity
  8
GAIKEI
 62
     1
100
AcDbLine
 10
133.0131791264884
 20
188.4005134935916
 30
0.0
 11
133.0131791264884
 21
188.1005134935916
 31
0.0
  0
LINE
  5
D1
330
9F
100
AcDbEntity
  8
GAIKEI
 62
     1
100
AcDbLine
 10
132.7131791264883
 20
188.1005134935916
 30
0.0
 11
132.7131791264883
 21
188.4005134935916
 31
0.0
  0
LINE
  5
D2
330
9F
100
AcDbEntity
  8
GAIKEI
 62
     1
100
AcDbLine
 10
132.2626264250753
 20
188.4005134935916
 30
0.0
 11
132.5626264250753
 21
188.4005134935916
 31
0.0
  0
LINE
  5
D3
330
9F
100
AcDbEntity
  8
GAIKEI
 62
     1
100
AcDbLine
 10
132.5626264250753
 20
188.4005134935916
 30
0.0
 11
132.5626264250753
 21
188.1005134935916
 31
0.0
  0
LINE
  5
D4
330
9F
100
AcDbEntity
  8
GAIKEI
 62
     1
100
AcDbLine
 10
132.5626264250753
 20
188.1005134935916
 30
0.0
 11
132.2626264250753
 21
188.1005134935916
 31
0.0
  0
LINE
  5
D5
330
9F
100
AcDbEntity
  8
GAIKEI
 62
     1
100
AcDbLine
 10
132.2626264250753
 20
188.1005134935916
 30
0.0
 11
132.2626264250753
 21
188.4005134935916
 31
0.0
  0
LINE
  5
D6
330
9F
100
AcDbEntity
  8
GAIKEI
 62
     1
100
AcDbLine
 10
133.0131791264884
 20
188.1005134935916
 30
0.0
 11
132.7131791264883
 21
188.1005134935916
 31
0.0
  0
LINE
  5
D7
330
9F
100
AcDbEntity
  8
GAIKEI
 62
     1
100
AcDbLine
 10
132.7131791264883
 20
188.4005134935916
 30
0.0
 11
133.0131791264884
 21
188.4005134935916
 31
0.0
  0
LINE
  5
D8
330
9F
100
AcDbEntity
  8
GAIKEI
 62
     1
100
AcDbLine
 10
131.0679051536451
 20
188.4880134935918
 30
0.0
 11
130.272905153645
 21
188.4880134935918
 31
0.0
  0
LINE
  5
D9
330
9F
100
AcDbEntity
  8
GAIKEI
 62
     1
100
AcDbLine
 10
131.0679051536451
 20
188.0130134935916
 30
0.0
 11
130.272905153645
 21
188.0130134935916
 31
0.0
  0
ARC
  5
DA
330
9F
100
AcDbEntity
  8
GAIKEI
 62
     1
100
AcDbCircle
 10
130.272905153645
 20
188.4630134935917
 30
0.0
 40
0.025
100
AcDbArc
 50
90.00000019999893
 51
180.0
  0
LINE
  5
DB
330
9F
100
AcDbEntity
  8
GAIKEI
 62
     1
100
AcDbLine
 10
130.2479051536454
 20
188.0380134935917
 30
0.0
 11
130.2479051536454
 21
188.4630134935917
 31
0.0
  0
ARC
  5
DC
330
9F
100
AcDbEntity
  8
GAIKEI
 62
     1
100
AcDbCircle
 10
130.272905153645
 20
188.0380134935917
 30
0.0
 40
0.025
100
AcDbArc
 50
180.0
 51
270.0
  0
ARC
  5
DD
330
9F
100
AcDbEntity
  8
GAIKEI
 62
     1
100
AcDbCircle
 10
131.0679051536451
 20
188.0380134935917
 30
0.0
 40
0.025
100
AcDbArc
 50
270.0
 51
0.0
  0
LINE
  5
DE
330
9F
100
AcDbEntity
  8
GAIKEI
 62
     1
100
AcDbLine
 10
131.0929051536456
 20
188.0380134935917
 30
0.0
 11
131.0929051536456
 21
188.4630134935917
 31
0.0
  0
ARC
  5
DF
330
9F
100
AcDbEntity
  8
GAIKEI
 62
     1
100
AcDbCircle
 10
131.0679051536451
 20
188.4630134935917
 30
0.0
 40
0.025
100
AcDbArc
 50
0.0
 51
90.00000019999893
  0
LINE
  5
E0
330
9F
100
AcDbEntity
  8
GAIKEI
 62
     1
100
AcDbLine
 10
131.2618432182047
 20
188.1665134935916
 30
0.0
 11
131.2618432182047
 21
188.3345134935917
 31
0.0
  0
LINE
  5
E1
330
9F
100
AcDbEntity
  8
GAIKEI
 62
     1
100
AcDbLine
 10
131.4298432182046
 20
188.1665134935916
 30
0.0
 11
131.2618432182047
 21
188.1665134935916
 31
0.0
  0
LINE
  5
E2
330
9F
100
AcDbEntity
  8
GAIKEI
 62
     1
100
AcDbLine
 10
131.4298432182046
 20
188.3345134935917
 30
0.0
 11
131.4298432182046
 21
188.1665134935916
 31
0.0
  0
LINE
  5
E3
330
9F
100
AcDbEntity
  8
GAIKEI
 62
     1
100
AcDbLine
 10
131.2618432182047
 20
188.3345134935917
 30
0.0
 11
131.4298432182046
 21
188.3345134935917
 31
0.0
  0
ARC
  5
E4
330
9F
100
AcDbEntity
  8
GAIKEI
 62
     1
100
AcDbCircle
 10
128.1651651536456
 20
216.4407542685917
 30
0.0
 40
0.15
100
AcDbArc
 50
90.00000019999893
 51
180.0
  0
ARC
  5
E5
330
9F
100
AcDbEntity
  8
GAIKEI
100
AcDbCircle
 10
128.1599251536451
 20
216.4459950685919
 30
0.0
 40
0.25
100
AcDbArc
 50
90.00000019999893
 51
180.0
  0
ARC
  5
E6
330
9F
100
AcDbEntity
  8
GAIKEI
100
AcDbCircle
 10
126.7204051536452
 20
217.8855134935916
 30
0.0
 40
0.2
100
AcDbArc
 50
90.00000019999893
 51
180.0
  0
ARC
  5
E7
330
9F
100
AcDbEntity
  8
GAIKEI
 62
     1
100
AcDbCircle
 10
126.8357026536457
 20
217.7702163935917
 30
0.0
 40
0.2
100
AcDbArc
 50
90.00000019999893
 51
180.0
  0
LINE
  5
E8
330
9F
100
AcDbEntity
  8
GAIKEI
100
AcDbLine
 10
176.6204051536454
 20
187.7855134935917
 30
0.0
 11
176.6204051536454
 21
217.8855134935916
 31
0.0
  0
LINE
  5
E9
330
9F
100
AcDbEntity
  8
GAIKEI
 62
     1
100
AcDbLine
 10
176.5051076536458
 20
187.9008106185918
 30
0.0
 11
176.5051076536458
 21
217.7702163935917
 31
0.0
  0
LINE
  5
EA
330
9F
100
AcDbEntity
  8
GAIKEI
 62
     1
100
AcDbLine
 10
175.1256476536457
 20
189.2302727185918
 30
0.0
 11
175.1256476536457
 21
216.4407542685917
 31
0.0
  0
LINE
  5
EB
330
9F
100
AcDbEntity
  8
GAIKEI
100
AcDbLine
 10
175.2308876536456
 20
189.2250319435915
 30
0.0
 11
175.2308876536456
 21
216.4459950685919
 31
0.0
  0
LINE
  5
EC
330
9F
100
AcDbEntity
  8
GAIKEI
  6
Continuous
 62
     1
100
AcDbLine
 10
174.1204051536454
 20
189.8855134935916
 30
0.0
 11
174.1204051536454
 21
215.7855134935917
 31
0.0
  0
ARC
  5
ED
330
9F
100
AcDbEntity
  8
GAIKEI
 62
     1
100
AcDbCircle
 10
174.9756476536452
 20
189.2302727185918
 30
0.0
 40
0.15
100
AcDbArc
 50
270.0
 51
0.0
  0
ARC
  5
EE
330
9F
100
AcDbEntity
  8
GAIKEI
100
AcDbCircle
 10
174.9808876536456
 20
189.2250319435915
 30
0.0
 40
0.25
100
AcDbArc
 50
270.0
 51
0.0
  0
ARC
  5
EF
330
9F
100
AcDbEntity
  8
GAIKEI
 62
     1
100
AcDbCircle
 10
174.9756476536452
 20
216.4407542685917
 30
0.0
 40
0.15
100
AcDbArc
 50
0.0
 51
90.00000019999893
  0
ARC
  5
F0
330
9F
100
AcDbEntity
  8
GAIKEI
100
AcDbCircle
 10
174.9808876536456
 20
216.4459950685919
 30
0.0
 40
0.25
100
AcDbArc
 50
0.0
 51
90.00000019999893
  0
ARC
  5
F1
330
9F
100
AcDbEntity
  8
GAIKEI
100
AcDbCircle
 10
176.4204051536456
 20
187.7855134935917
 30
0.0
 40
0.2
100
AcDbArc
 50
270.0
 51
0.0
  0
ARC
  5
F2
330
9F
100
AcDbEntity
  8
GAIKEI
 62
     1
100
AcDbCircle
 10
176.3051076536451
 20
187.9008106185918
 30
0.0
 40
0.2
100
AcDbArc
 50
270.0
 51
0.0
  0
ARC
  5
F3
330
9F
100
AcDbEntity
  8
GAIKEI
100
AcDbCircle
 10
176.4204051536456
 20
217.8855134935916
 30
0.0
 40
0.2
100
AcDbArc
 50
0.0
 51
90.00000019999893
  0
ARC
  5
F4
330
9F
100
AcDbEntity
  8
GAIKEI
 62
     1
100
AcDbCircle
 10
176.3051076536451
 20
217.7702163935917
 30
0.0
 40
0.2
100
AcDbArc
 50
0.0
 51
90.00000019999893
  0
ENDBLK
  5
F6
330
9F
100
AcDbEntity
  8
0
100
AcDbBlockEnd
  0
BLOCK
  5
85
330
2E
100
AcDbEntity
  8
0
100
AcDbBlockBegin
  2
４２９
 70
     0
 10
0.0
 20
0.0
 30
0.0
  3
４２９
  1

  0
LINE
  5
2F
330
2E
100
AcDbEntity
  8
GAIKEI
100
AcDbLine
 10
208.6941162052528
 20
187.7505147597416
 30
0.0
 11
208.6941162052528
 21
217.9250243287254
 31
0.0
  0
LINE
  5
31
330
2E
100
AcDbEntity
  8
GAIKEI
100
AcDbLine
 10
210.8941162043727
 20
187.5877697598068
 30
0.0
 11
210.8941162043727
 21
218.0877697453268
 31
0.0
  0
LINE
  5
32
330
2E
100
AcDbEntity
  8
GAIKEI
100
AcDbLine
 10
213.1441162052528
 20
192.6118264738671
 30
0.0
 11
213.1441162052528
 21
213.6944902944529
 31
0.0
  0
LINE
  5
33
330
2E
100
AcDbEntity
  8
GAIKEI
 62
     1
100
AcDbLine
 10
212.7443207869662
 20
192.4253989245385
 30
0.0
 11
212.7443207869662
 21
210.4757984983717
 31
0.0
  0
LINE
  5
34
330
2E
100
AcDbEntity
  8
GAIKEI
100
AcDbLine
 10
210.8941162043727
 20
187.5877697598068
 30
0.0
 11
208.7414995385672
 21
187.7005835097618
 31
0.0
  0
LINE
  5
35
330
2E
100
AcDbEntity
  8
GAIKEI
100
AcDbLine
 10
208.7088128719135
 20
187.7151080930893
 30
0.0
 11
208.691161205254
 21
187.6974043430964
 31
0.0
  0
ARC
  5
36
330
2E
100
AcDbEntity
  8
GAIKEI
100
AcDbCircle
 10
208.7441162052327
 20
187.7505147597416
 30
0.0
 40
0.04999999998
100
AcDbArc
 50
180.0
 51
266.9999999999946
  0
LINE
  5
37
330
2E
100
AcDbEntity
  8
GAIKEI
100
AcDbLine
 10
212.9997707853977
 20
192.3852495339671
 30
0.0
 11
212.4078070371008
 21
192.1092122579984
 31
0.0
  0
ARC
  5
38
330
2E
100
AcDbEntity
  8
GAIKEI
100
AcDbCircle
 10
212.8941162052528
 20
192.6118264738671
 30
0.0
 40
0.25
100
AcDbArc
 50
295.0000037197305
 51
0.0
  0
LINE
  5
39
330
2E
100
AcDbEntity
  8
GAIKEI
100
AcDbLine
 10
212.9897070564442
 20
189.1363805296511
 30
0.0
 11
212.9866694312989
 21
192.3791402711832
 31
0.0
  0
LINE
  5
3A
330
2E
100
AcDbEntity
  8
GAIKEI
100
AcDbLine
 10
212.7527911529269
 20
188.8864889607626
 30
0.0
 11
211.1060324542879
 21
188.800186009322
 31
0.0
  0
ARC
  5
3B
330
2E
100
AcDbEntity
  8
GAIKEI
100
AcDbCircle
 10
212.7397071661295
 20
189.13614634457
 30
0.0
 40
0.25
100
AcDbArc
 50
272.9999994805758
 51
0.053671274941735
  0
LINE
  5
3C
330
2E
100
AcDbEntity
  8
GAIKEI
 62
     1
100
AcDbLine
 10
212.7147009231855
 20
192.2490626746089
 30
0.0
 11
212.7147009231855
 21
189.1285160091906
 31
0.0
  0
ARC
  5
3D
330
2E
100
AcDbEntity
  8
GAIKEI
 62
     1
100
AcDbCircle
 10
212.8897009231154
 20
189.8447380922375
 30
0.0
 40
0.09999999996
100
AcDbArc
 50
294.9999990000018
 51
0.0
  0
ARC
  5
3E
330
2E
100
AcDbEntity
  8
GAIKEI
 62
     1
100
AcDbCircle
 10
212.5397009232556
 20
189.1324468425223
 30
0.0
 40
0.2499999999
100
AcDbArc
 50
273.0000010000034
 51
0.0
  0
LINE
  5
3F
330
2E
100
AcDbEntity
  8
GAIKEI
 62
     1
100
AcDbLine
 10
212.8474392564658
 20
189.714693508956
 30
0.0
 11
212.9319630064319
 21
189.7541072589403
 31
0.0
  0
ARC
  5
40
330
2E
100
AcDbEntity
  8
GAIKEI
 62
     1
100
AcDbCircle
 10
212.8897009231154
 20
189.6240626756589
 30
0.0
 40
0.09999999996
100
AcDbArc
 50
114.9999980000099
 51
180.0
  0
LINE
  5
41
330
2E
100
AcDbEntity
  8
GAIKEI
 62
     1
100
AcDbLine
 10
212.7897009231555
 20
189.6240626756589
 30
0.0
 11
212.7897009231555
 21
189.1337568425219
 31
0.0
  0
ARC
  5
42
330
2E
100
AcDbEntity
  8
GAIKEI
 62
     1
100
AcDbCircle
 10
212.4647009232853
 20
189.1285160091906
 30
0.0
 40
0.2499999999
100
AcDbArc
 50
273.0000000000054
 51
0.0
  0
ARC
  5
43
330
2E
100
AcDbEntity
  8
GAIKEI
 62
     1
100
AcDbCircle
 10
212.494320787066
 20
192.4253989245385
 30
0.0
 40
0.2499999999
100
AcDbArc
 50
294.9999999999935
 51
0.0
  0
ARC
  5
44
330
2E
100
AcDbEntity
  8
GAIKEI
100
AcDbCircle
 10
212.6191162036827
 20
191.6560585081797
 30
0.0
 40
0.4999999998
100
AcDbArc
 50
114.9999999999935
 51
180.0
  0
LINE
  5
45
330
2E
100
AcDbEntity
  8
GAIKEI
100
AcDbLine
 10
212.1191162038829
 20
189.0904176758726
 30
0.0
 11
212.1191162038829
 21
191.6560585081797
 31
0.0
  0
ARC
  5
46
330
2E
100
AcDbEntity
  8
GAIKEI
100
AcDbCircle
 10
211.1191162042828
 20
188.5505285094218
 30
0.0
 40
0.2499999999
100
AcDbArc
 50
92.99999979999324
 51
154.158071000007
  0
ARC
  5
47
330
2E
100
AcDbEntity
  8
GAIKEI
100
AcDbCircle
 10
211.8691162039829
 20
189.0904176758726
 30
0.0
 40
0.2499999999
100
AcDbArc
 50
272.9999990000082
 51
0.0
  0
LINE
  5
48
330
2E
100
AcDbEntity
  8
GAIKEI
100
AcDbLine
 10
213.1441162052528
 20
213.6944902944529
 30
0.0
 11
212.7686832869562
 21
216.3658343293489
 31
0.0
  0
LINE
  5
49
330
2E
100
AcDbEntity
  8
GAIKEI
 62
     1
100
AcDbLine
 10
211.4657966208108
 20
211.128368081444
 30
0.0
 11
212.1822478705241
 21
211.1533872481007
 31
0.0
  0
LINE
  5
4A
330
2E
100
AcDbEntity
  8
GAIKEI
 62
     1
100
AcDbLine
 10
211.1743512042607
 20
211.0631905814701
 30
0.0
 11
212.2274037038393
 21
211.0999639147888
 31
0.0
  0
LINE
  5
4B
330
2E
100
AcDbEntity
  8
GAIKEI
 62
     1
100
AcDbLine
 10
212.5291507870522
 20
210.7313484982694
 30
0.0
 11
211.0191162043226
 21
210.4077697483988
 31
0.0
  0
LINE
  5
4C
330
2E
100
AcDbEntity
  8
GAIKEI
 62
     1
100
AcDbLine
 10
211.6741162040609
 20
211.3823564146758
 30
0.0
 11
212.494320787066
 21
210.9088109981983
 31
0.0
  0
LINE
  5
4D
330
2E
100
AcDbEntity
  8
GAIKEI
 62
     1
100
AcDbLine
 10
211.6741162040609
 20
211.7423564145317
 30
0.0
 11
212.6855849536561
 21
211.1583847480986
 31
0.0
  0
LINE
  5
4E
330
2E
100
AcDbEntity
  8
GAIKEI
 62
     1
100
AcDbLine
 10
211.4657966208108
 20
216.1871709960872
 30
0.0
 11
212.1822478705241
 21
216.1621522460971
 31
0.0
  0
LINE
  5
4F
330
2E
100
AcDbEntity
  8
GAIKEI
 62
     1
100
AcDbLine
 10
211.1743512042607
 20
216.2523484960609
 30
0.0
 11
212.2274037038393
 21
216.2155751627424
 31
0.0
  0
LINE
  5
50
330
2E
100
AcDbEntity
  8
GAIKEI
100
AcDbLine
 10
212.5730945370344
 20
216.5755780792651
 30
0.0
 11
211.0671382876369
 21
216.8956789124704
 31
0.0
  0
LINE
  5
51
330
2E
100
AcDbEntity
  8
GAIKEI
 62
     1
100
AcDbLine
 10
211.0191162043226
 20
213.6577697470989
 30
0.0
 11
211.0191162043226
 21
211.2130993314102
 31
0.0
  0
LINE
  5
52
330
2E
100
AcDbEntity
  8
GAIKEI
 62
     1
100
AcDbLine
 10
211.3691162041829
 20
213.6577697470989
 30
0.0
 11
211.3691162041829
 21
211.2685714147212
 31
0.0
  0
LINE
  5
53
330
2E
100
AcDbEntity
  8
GAIKEI
 62
     1
100
AcDbLine
 10
211.0641162043048
 20
213.6577697470989
 30
0.0
 11
211.0641162043048
 21
211.1543676647668
 31
0.0
  0
ARC
  5
54
330
2E
100
AcDbEntity
  8
GAIKEI
 62
     1
100
AcDbCircle
 10
211.7991162040109
 20
211.9588626644452
 30
0.0
 40
0.2499999999
100
AcDbArc
 50
180.0
 51
240.0000000000027
  0
LINE
  5
55
330
2E
100
AcDbEntity
  8
GAIKEI
 62
     1
100
AcDbLine
 10
211.5491162041109
 20
211.5988626645892
 30
0.0
 11
211.5491162041109
 21
216.3883389126734
 31
0.0
  0
ARC
  5
56
330
2E
100
AcDbEntity
  8
GAIKEI
 62
     1
100
AcDbCircle
 10
211.1141162042847
 20
211.1543676647668
 30
0.0
 40
0.04999999998
100
AcDbArc
 50
180.0
 51
272.0000000000034
  0
LINE
  5
57
330
2E
100
AcDbEntity
  8
GAIKEI
 62
     1
100
AcDbLine
 10
211.4736070374744
 20
211.1168905814486
 30
0.0
 11
211.4732982874745
 21
211.1257405814451
 31
0.0
  0
ARC
  5
58
330
2E
100
AcDbEntity
  8
GAIKEI
 62
     1
100
AcDbCircle
 10
211.5191162041228
 20
211.2685714147212
 30
0.0
 40
0.14999999994
100
AcDbArc
 50
180.0
 51
252.2145040000033
  0
LINE
  5
59
330
2E
100
AcDbEntity
  8
GAIKEI
 62
     1
100
AcDbLine
 10
211.115861204284
 20
211.1043980814536
 30
0.0
 11
211.4736070374744
 21
211.1168905814486
 31
0.0
  0
ARC
  5
5A
330
2E
100
AcDbEntity
  8
GAIKEI
 62
     1
100
AcDbCircle
 10
211.1691162042627
 20
211.2130993314102
 30
0.0
 40
0.14999999994
100
AcDbArc
 50
180.0
 51
272.0000000000034
  0
LINE
  5
5B
330
2E
100
AcDbEntity
  8
GAIKEI
 62
     1
100
AcDbLine
 10
210.8941162043727
 20
210.4077697483988
 30
0.0
 11
211.0191162043226
 21
210.4077697483988
 31
0.0
  0
ARC
  5
5C
330
2E
100
AcDbEntity
  8
GAIKEI
 62
     1
100
AcDbCircle
 10
211.7991162040109
 20
211.5988626645892
 30
0.0
 40
0.2499999999
100
AcDbArc
 50
180.0
 51
240.0000000000027
  0
ARC
  5
5D
330
2E
100
AcDbEntity
  8
GAIKEI
100
AcDbCircle
 10
211.1191162042828
 20
217.1402155790393
 30
0.0
 40
0.2499999999
100
AcDbArc
 50
205.8419330000041
 51
257.999999999997
  0
ARC
  5
5E
330
2E
100
AcDbEntity
  8
GAIKEI
 62
     1
100
AcDbCircle
 10
211.1141162042847
 20
216.1611718294309
 30
0.0
 40
0.04999999998
100
AcDbArc
 50
87.99999990000122
 51
180.0
  0
LINE
  5
5F
330
2E
100
AcDbEntity
  8
GAIKEI
 62
     1
100
AcDbLine
 10
211.4736070374744
 20
216.1986484960826
 30
0.0
 11
211.4732982874745
 21
216.1897989127526
 31
0.0
  0
ARC
  5
60
330
2E
100
AcDbEntity
  8
GAIKEI
 62
     1
100
AcDbCircle
 10
211.5191162041228
 20
216.04696766281
 30
0.0
 40
0.14999999994
100
AcDbArc
 50
107.7854970000005
 51
180.0
  0
LINE
  5
61
330
2E
100
AcDbEntity
  8
GAIKEI
 62
     1
100
AcDbLine
 10
211.115861204284
 20
216.2111409960776
 30
0.0
 11
211.4736070374744
 21
216.1986484960826
 31
0.0
  0
ARC
  5
62
330
2E
100
AcDbEntity
  8
GAIKEI
 62
     1
100
AcDbCircle
 10
211.1691162042627
 20
216.1024401627876
 30
0.0
 40
0.14999999994
100
AcDbArc
 50
87.99999990000122
 51
180.0
  0
LINE
  5
63
330
2E
100
AcDbEntity
  8
GAIKEI
 62
     1
100
AcDbLine
 10
211.0191162043226
 20
213.6577697470989
 30
0.0
 11
211.0191162043226
 21
216.1024401627876
 31
0.0
  0
LINE
  5
64
330
2E
100
AcDbEntity
  8
GAIKEI
 62
     1
100
AcDbLine
 10
211.3691162041829
 20
213.6577697470989
 30
0.0
 11
211.3691162041829
 21
216.04696766281
 31
0.0
  0
LINE
  5
65
330
2E
100
AcDbEntity
  8
GAIKEI
 62
     1
100
AcDbLine
 10
211.0641162043048
 20
213.6577697470989
 30
0.0
 11
211.0641162043048
 21
216.1611718294309
 31
0.0
  0
ARC
  5
66
330
2E
100
AcDbEntity
  8
GAIKEI
 62
     1
100
AcDbCircle
 10
211.0491162043108
 20
216.3883389126734
 30
0.0
 40
0.4999999998
100
AcDbArc
 50
0.0
 51
78.00000360000041
  0
LINE
  5
67
330
2E
100
AcDbEntity
  8
GAIKEI
 62
     1
100
AcDbLine
 10
212.6023620370228
 20
213.2952093305773
 30
0.0
 11
212.3256141204669
 21
211.2828593313823
 31
0.0
  0
LINE
  5
68
330
2E
100
AcDbEntity
  8
GAIKEI
 62
     1
100
AcDbLine
 10
212.9920374535336
 20
212.4037251642671
 30
0.0
 11
212.8153387036043
 21
211.1188730814479
 31
0.0
  0
LINE
  5
69
330
2E
100
AcDbEntity
  8
GAIKEI
 62
     1
100
AcDbLine
 10
212.6538770370023
 20
213.2881247472467
 30
0.0
 11
212.3707674537822
 21
211.2295147480702
 31
0.0
  0
LINE
  5
6A
330
2E
100
AcDbEntity
  8
GAIKEI
 62
     1
100
AcDbLine
 10
212.9355849535561
 20
210.7253718316051
 30
0.0
 11
212.9355849535561
 21
215.178266829824
 31
0.0
  0
ARC
  5
6B
330
2E
100
AcDbEntity
  8
GAIKEI
 62
     1
100
AcDbCircle
 10
212.1770128705263
 20
211.303295581374
 30
0.0
 40
0.14999999994
100
AcDbArc
 50
272.0000000000034
 51
352.1695419999996
  0
ARC
  5
6C
330
2E
100
AcDbEntity
  8
GAIKEI
 62
     1
100
AcDbCircle
 10
212.2221662038416
 20
211.2499509980619
 30
0.0
 40
0.14999999994
100
AcDbArc
 50
272.0000000000034
 51
352.1695419999996
  0
LINE
  5
6D
330
2E
100
AcDbEntity
  8
GAIKEI
 62
     1
100
AcDbLine
 10
212.8153387036043
 20
211.1188730814479
 30
0.0
 11
212.8025520369426
 21
211.025894331485
 31
0.0
  0
ARC
  5
6E
330
2E
100
AcDbEntity
  8
GAIKEI
 62
     1
100
AcDbCircle
 10
212.4558153704149
 20
211.0735793314659
 30
0.0
 40
0.34999999986
100
AcDbArc
 50
282.0947570000076
 51
352.1695419999996
  0
ARC
  5
6F
330
2E
100
AcDbEntity
  8
GAIKEI
 62
     1
100
AcDbCircle
 10
212.244320787166
 20
210.4757984983717
 30
0.0
 40
0.4999999998
100
AcDbArc
 50
0.0
 51
59.99999989999871
  0
ARC
  5
70
330
2E
100
AcDbEntity
  8
GAIKEI
 62
     1
100
AcDbCircle
 10
212.4355849537562
 20
210.7253718316051
 30
0.0
 40
0.4999999998
100
AcDbArc
 50
0.0
 51
59.99999989999871
  0
LINE
  5
71
330
2E
100
AcDbEntity
  8
GAIKEI
 62
     1
100
AcDbLine
 10
212.9355849535561
 20
210.7253718316051
 30
0.0
 11
212.7443207869662
 21
210.4757984983717
 31
0.0
  0
ARC
  5
72
330
2E
100
AcDbEntity
  8
GAIKEI
 62
     1
100
AcDbCircle
 10
212.1770128705263
 20
216.012243496157
 30
0.0
 40
0.14999999994
100
AcDbArc
 50
7.830457309996133
 51
87.99999990000122
  0
LINE
  5
73
330
2E
100
AcDbEntity
  8
GAIKEI
 62
     1
100
AcDbLine
 10
213.1191162034826
 20
213.6577697470989
 30
0.0
 11
213.1191162034826
 21
213.8851093303413
 31
0.0
  0
ARC
  5
74
330
2E
100
AcDbEntity
  8
GAIKEI
 62
     1
100
AcDbCircle
 10
211.6191162040829
 20
213.8851093303413
 30
0.0
 40
1.044499999582199
100
AcDbArc
 50
0.0
 51
7.830457309996133
  0
ARC
  5
75
330
2E
100
AcDbEntity
  8
GAIKEI
 62
     1
100
AcDbCircle
 10
211.6191162040829
 20
213.8851093303413
 30
0.0
 40
0.9924999996029999
100
AcDbArc
 50
0.0
 51
7.830457309996133
  0
LINE
  5
76
330
2E
100
AcDbEntity
  8
GAIKEI
 62
     1
100
AcDbLine
 10
212.6116162036857
 20
213.6577697470989
 30
0.0
 11
212.6116162036857
 21
213.8851093303413
 31
0.0
  0
LINE
  5
77
330
2E
100
AcDbEntity
  8
GAIKEI
 62
     1
100
AcDbLine
 10
212.663616203665
 20
213.6577697470989
 30
0.0
 11
212.663616203665
 21
213.8851093303413
 31
0.0
  0
LINE
  5
78
330
2E
100
AcDbEntity
  8
GAIKEI
 62
     1
100
AcDbLine
 10
212.6023620370228
 20
214.0203297469539
 30
0.0
 11
212.3256141204669
 21
216.0326797461489
 31
0.0
  0
ARC
  5
79
330
2E
100
AcDbEntity
  8
GAIKEI
 62
     1
100
AcDbCircle
 10
212.2221662038416
 20
216.0655880794691
 30
0.0
 40
0.14999999994
100
AcDbArc
 50
7.830457309996133
 51
87.99999990000122
  0
LINE
  5
7A
330
2E
100
AcDbEntity
  8
GAIKEI
 62
     1
100
AcDbLine
 10
212.6538770370023
 20
214.0274143302843
 30
0.0
 11
212.3707674537822
 21
216.086024329461
 31
0.0
  0
LINE
  5
7B
330
2E
100
AcDbEntity
  8
GAIKEI
 62
     1
100
AcDbLine
 10
213.1191162034826
 20
213.6577697470989
 30
0.0
 11
213.1191162034826
 21
213.4304297471897
 31
0.0
  0
ARC
  5
7C
330
2E
100
AcDbEntity
  8
GAIKEI
 62
     1
100
AcDbCircle
 10
211.6191162040829
 20
213.4304297471897
 30
0.0
 40
1.044499999582199
100
AcDbArc
 50
352.1695419999996
 51
0.0
  0
ARC
  5
7D
330
2E
100
AcDbEntity
  8
GAIKEI
 62
     1
100
AcDbCircle
 10
211.6191162040829
 20
213.4304297471897
 30
0.0
 40
0.9924999996029999
100
AcDbArc
 50
352.1695419999996
 51
0.0
  0
LINE
  5
7E
330
2E
100
AcDbEntity
  8
GAIKEI
 62
     1
100
AcDbLine
 10
212.6116162036857
 20
213.6577697470989
 30
0.0
 11
212.6116162036857
 21
213.4304297471897
 31
0.0
  0
LINE
  5
7F
330
2E
100
AcDbEntity
  8
GAIKEI
 62
     1
100
AcDbLine
 10
212.663616203665
 20
213.6577697470989
 30
0.0
 11
212.663616203665
 21
213.4304297471897
 31
0.0
  0
ARC
  5
80
330
2E
100
AcDbEntity
  8
GAIKEI
 62
     1
100
AcDbCircle
 10
211.6191162040829
 20
213.4304297471897
 30
0.0
 40
1.499999999399999
100
AcDbArc
 50
352.1695419999996
 51
0.0
  0
LINE
  5
81
330
2E
100
AcDbEntity
  8
GAIKEI
 62
     1
100
AcDbLine
 10
213.1051295368217
 20
213.2260664139383
 30
0.0
 11
212.9920374535336
 21
212.4037251642671
 31
0.0
  0
ARC
  5
82
330
2E
100
AcDbEntity
  8
GAIKEI
100
AcDbCircle
 10
212.5211166203887
 20
216.3310409960295
 30
0.0
 40
0.2499999999
100
AcDbArc
 50
7.999999990003357
 51
78.00000020000254
  0
LINE
  5
83
330
2E
100
AcDbEntity
  8
GAIKEI
100
AcDbLine
 10
210.8941162043727
 20
218.0877697453268
 30
0.0
 11
208.7414995385672
 21
217.9749555787055
 31
0.0
  0
ARC
  5
84
330
2E
100
AcDbEntity
  8
GAIKEI
100
AcDbCircle
 10
208.7441162052327
 20
217.9250243287254
 30
0.0
 40
0.04999999998
100
AcDbArc
 50
92.99999979999324
 51
180.0
  0
ENDBLK
  5
86
330
2E
100
AcDbEntity
  8
0
100
AcDbBlockEnd
  0
BLOCK
  5
20C
330
200
100
AcDbEntity
  8
0
370
     0
100
AcDbBlockBegin
  2
*D11
 70
     1
 10
0.0
 20
0.0
 30
0.0
  3
*D11
  1

  0
LINE
  5
201
330
200
100
AcDbEntity
  8
SUNPO
 62
     0
370
    -2
100
AcDbLine
 10
97.83087147883316
 20
221.203384032192
 30
0.0
 11
97.83087147883316
 21
229.203384032192
 31
0.0
  0
LINE
  5
202
330
200
100
AcDbEntity
  8
SUNPO
 62
     0
370
    -2
100
AcDbLine
 10
102.2808714788332
 20
221.203384032192
 30
0.0
 11
102.2808714788332
 21
229.203384032192
 31
0.0
  0
LINE
  5
203
330
200
100
AcDbEntity
  8
SUNPO
 62
     0
370
    -2
100
AcDbLine
 10
95.83087147883317
 20
227.203384032192
 30
0.0
 11
93.83087147883315
 21
227.203384032192
 31
0.0
  0
LINE
  5
204
330
200
100
AcDbEntity
  8
SUNPO
 62
     0
370
    -2
100
AcDbLine
 10
104.2808714788332
 20
227.203384032192
 30
0.0
 11
111.4475381454999
 21
227.203384032192
 31
0.0
  0
LINE
  5
205
330
200
100
AcDbEntity
  8
SUNPO
 62
     0
370
    -2
100
AcDbLine
 10
97.83087147883316
 20
227.203384032192
 30
0.0
 11
102.2808714788332
 21
227.203384032192
 31
0.0
  0
INSERT
  5
206
330
200
100
AcDbEntity
  8
SUNPO
 62
     0
370
    -2
100
AcDbBlockReference
  2
_OPEN30
 10
97.83087147883316
 20
227.203384032192
 30
0.0
 41
2.0
 42
2.0
 43
2.0
  0
INSERT
  5
207
330
200
100
AcDbEntity
  8
SUNPO
 62
     0
370
    -2
100
AcDbBlockReference
  2
_OPEN30
 10
102.2808714788332
 20
227.203384032192
 30
0.0
 41
2.0
 42
2.0
 43
2.0
 50
180.0
  0
MTEXT
  5
208
330
200
100
AcDbEntity
  8
SUNPO
 62
     0
100
AcDbMText
 10
108.8642048121665
 20
228.953384032192
 30
0.0
 40
2.5
 41
0.0
 71
     5
 72
     1
  1
\A1;89
 73
     1
 44
1.0
1001
ACAD
1000
MTEXTBEGIN
1070
    73
1070
     1
1070
    44
1040
1.0
1070
    74
1070
     0
1000
MTEXTEND
  0
POINT
  5
209
330
200
100
AcDbEntity
  8
DEFPOINTS
 62
     0
370
     0
100
AcDbPoint
 10
97.83087147883316
 20
219.203384032192
 30
0.0
  0
POINT
  5
20A
330
200
100
AcDbEntity
  8
DEFPOINTS
 62
     0
370
     0
100
AcDbPoint
 10
102.2808714788332
 20
219.203384032192
 30
0.0
  0
POINT
  5
20B
330
200
100
AcDbEntity
  8
DEFPOINTS
 62
     0
370
     0
100
AcDbPoint
 10
102.2808714788332
 20
227.203384032192
 30
0.0
  0
ENDBLK
  5
20D
330
200
100
AcDbEntity
  8
0
370
     0
100
AcDbBlockEnd
  0
BLOCK
  5
218
330
20E
100
AcDbEntity
  8
0
370
     0
100
AcDbBlockBegin
  2
*D12
 70
     1
 10
0.0
 20
0.0
 30
0.0
  3
*D12
  1

  0
LINE
  5
20F
330
20E
100
AcDbEntity
  8
SUNPO
 62
     0
370
    -2
100
AcDbLine
 10
19.91729106625732
 20
221.203384032192
 30
0.0
 11
19.91729106625732
 21
229.203384032192
 31
0.0
  0
LINE
  5
210
330
20E
100
AcDbEntity
  8
SUNPO
 62
     0
370
    -2
100
AcDbLine
 10
70.01729106625728
 20
221.203384032192
 30
0.0
 11
70.01729106625728
 21
229.203384032192
 31
0.0
  0
LINE
  5
211
330
20E
100
AcDbEntity
  8
SUNPO
 62
     0
370
    -2
100
AcDbLine
 10
21.91729106625732
 20
227.203384032192
 30
0.0
 11
68.01729106625728
 21
227.203384032192
 31
0.0
  0
INSERT
  5
212
330
20E
100
AcDbEntity
  8
SUNPO
 62
     0
370
    -2
100
AcDbBlockReference
  2
_OPEN30
 10
19.91729106625732
 20
227.203384032192
 30
0.0
 41
2.0
 42
2.0
 43
2.0
 50
180.0
  0
INSERT
  5
213
330
20E
100
AcDbEntity
  8
SUNPO
 62
     0
370
    -2
100
AcDbBlockReference
  2
_OPEN30
 10
70.01729106625728
 20
227.203384032192
 30
0.0
 41
2.0
 42
2.0
 43
2.0
  0
MTEXT
  5
214
330
20E
100
AcDbEntity
  8
SUNPO
 62
     0
100
AcDbMText
 10
44.9672910662573
 20
228.953384032192
 30
0.0
 40
2.5
 41
0.0
 71
     5
 72
     1
  1
\A1;1020
 73
     1
 44
1.0
1001
ACAD
1000
MTEXTBEGIN
1070
    73
1070
     1
1070
    44
1040
1.0
1070
    74
1070
     0
1000
MTEXTEND
  0
POINT
  5
215
330
20E
100
AcDbEntity
  8
DEFPOINTS
 62
     0
370
     0
100
AcDbPoint
 10
19.91729106625732
 20
219.203384032192
 30
0.0
  0
POINT
  5
216
330
20E
100
AcDbEntity
  8
DEFPOINTS
 62
     0
370
     0
100
AcDbPoint
 10
70.01729106625728
 20
219.203384032192
 30
0.0
  0
POINT
  5
217
330
20E
100
AcDbEntity
  8
DEFPOINTS
 62
     0
370
     0
100
AcDbPoint
 10
70.01729106625728
 20
227.203384032192
 30
0.0
  0
ENDBLK
  5
219
330
20E
100
AcDbEntity
  8
0
370
     0
100
AcDbBlockEnd
  0
BLOCK
  5
224
330
21A
100
AcDbEntity
  8
0
370
     0
100
AcDbBlockBegin
  2
*D13
 70
     1
 10
0.0
 20
0.0
 30
0.0
  3
*D13
  1

  0
LINE
  5
21B
330
21A
100
AcDbEntity
  8
SUNPO
 62
     0
370
    -2
100
AcDbLine
 10
90.46624647883302
 20
183.3212931575647
 30
0.0
 11
90.46624647883302
 21
175.3212931575647
 31
0.0
  0
LINE
  5
21C
330
21A
100
AcDbEntity
  8
SUNPO
 62
     0
370
    -2
100
AcDbLine
 10
106.4808714788333
 20
183.3212931575647
 30
0.0
 11
106.4808714788333
 21
175.3212931575647
 31
0.0
  0
LINE
  5
21D
330
21A
100
AcDbEntity
  8
SUNPO
 62
     0
370
    -2
100
AcDbLine
 10
92.46624647883301
 20
177.3212931575647
 30
0.0
 11
104.4808714788333
 21
177.3212931575647
 31
0.0
  0
INSERT
  5
21E
330
21A
100
AcDbEntity
  8
SUNPO
 62
     0
370
    -2
100
AcDbBlockReference
  2
_OPEN30
 10
90.46624647883302
 20
177.3212931575647
 30
0.0
 41
2.0
 42
2.0
 43
2.0
 50
180.0
  0
INSERT
  5
21F
330
21A
100
AcDbEntity
  8
SUNPO
 62
     0
370
    -2
100
AcDbBlockReference
  2
_OPEN30
 10
106.4808714788333
 20
177.3212931575647
 30
0.0
 41
2.0
 42
2.0
 43
2.0
  0
MTEXT
  5
220
330
21A
100
AcDbEntity
  8
SUNPO
 62
     0
100
AcDbMText
 10
98.47355897883316
 20
179.0712931575647
 30
0.0
 40
2.5
 41
0.0
 71
     5
 72
     1
  1
\A1;320.3
 73
     1
 44
1.0
1001
ACAD
1000
MTEXTBEGIN
1070
    73
1070
     1
1070
    44
1040
1.0
1070
    74
1070
     0
1000
MTEXTEND
  0
POINT
  5
221
330
21A
100
AcDbEntity
  8
DEFPOINTS
 62
     0
370
     0
100
AcDbPoint
 10
90.46624647883302
 20
185.3212931575647
 30
0.0
  0
POINT
  5
222
330
21A
100
AcDbEntity
  8
DEFPOINTS
 62
     0
370
     0
100
AcDbPoint
 10
106.4808714788333
 20
185.3212931575647
 30
0.0
  0
POINT
  5
223
330
21A
100
AcDbEntity
  8
DEFPOINTS
 62
     0
370
     0
100
AcDbPoint
 10
106.4808714788333
 20
177.3212931575647
 30
0.0
  0
ENDBLK
  5
225
330
21A
100
AcDbEntity
  8
0
370
     0
100
AcDbBlockEnd
  0
BLOCK
  5
230
330
226
100
AcDbEntity
  8
0
370
     0
100
AcDbBlockBegin
  2
*D14
 70
     1
 10
0.0
 20
0.0
 30
0.0
  3
*D14
  1

  0
LINE
  5
227
330
226
100
AcDbEntity
  8
SUNPO
 62
     0
370
    -2
100
AcDbLine
 10
24.87707872581893
 20
183.3190368913495
 30
0.0
 11
24.87707872581893
 21
175.3190368913495
 31
0.0
  0
LINE
  5
228
330
226
100
AcDbEntity
  8
SUNPO
 62
     0
370
    -2
100
AcDbLine
 10
65.05752872581922
 20
183.3190368913495
 30
0.0
 11
65.05752872581922
 21
175.3190368913495
 31
0.0
  0
LINE
  5
229
330
226
100
AcDbEntity
  8
SUNPO
 62
     0
370
    -2
100
AcDbLine
 10
26.87707872581893
 20
177.3190368913495
 30
0.0
 11
63.05752872581923
 21
177.3190368913495
 31
0.0
  0
INSERT
  5
22A
330
226
100
AcDbEntity
  8
SUNPO
 62
     0
370
    -2
100
AcDbBlockReference
  2
_OPEN30
 10
24.87707872581893
 20
177.3190368913495
 30
0.0
 41
2.0
 42
2.0
 43
2.0
 50
180.0
  0
INSERT
  5
22B
330
226
100
AcDbEntity
  8
SUNPO
 62
     0
370
    -2
100
AcDbBlockReference
  2
_OPEN30
 10
65.05752872581922
 20
177.3190368913495
 30
0.0
 41
2.0
 42
2.0
 43
2.0
  0
MTEXT
  5
22C
330
226
100
AcDbEntity
  8
SUNPO
 62
     0
100
AcDbMText
 10
44.96730372581907
 20
179.0690368913495
 30
0.0
 40
2.5
 41
0.0
 71
     5
 72
     1
  1
\A1;806
 73
     1
 44
1.0
1001
ACAD
1000
MTEXTBEGIN
1070
    73
1070
     1
1070
    44
1040
1.0
1070
    74
1070
     0
1000
MTEXTEND
  0
POINT
  5
22D
330
226
100
AcDbEntity
  8
DEFPOINTS
 62
     0
370
     0
100
AcDbPoint
 10
24.87707872581893
 20
185.3190368913495
 30
0.0
  0
POINT
  5
22E
330
226
100
AcDbEntity
  8
DEFPOINTS
 62
     0
370
     0
100
AcDbPoint
 10
65.05752872581922
 20
185.3190368913495
 30
0.0
  0
POINT
  5
22F
330
226
100
AcDbEntity
  8
DEFPOINTS
 62
     0
370
     0
100
AcDbPoint
 10
65.05752872581922
 20
177.3190368913495
 30
0.0
  0
ENDBLK
  5
231
330
226
100
AcDbEntity
  8
0
370
     0
100
AcDbBlockEnd
  0
BLOCK
  5
23C
330
232
100
AcDbEntity
  8
0
370
     0
100
AcDbBlockBegin
  2
*D15
 70
     1
 10
0.0
 20
0.0
 30
0.0
  3
*D15
  1

  0
LINE
  5
233
330
232
100
AcDbEntity
  8
SUNPO
 62
     0
370
    -2
100
AcDbLine
 10
72.02762046826731
 20
188.7036704765433
 30
0.0
 11
80.02762046826731
 21
188.7036704765433
 31
0.0
  0
LINE
  5
234
330
232
100
AcDbEntity
  8
SUNPO
 62
     0
370
    -2
100
AcDbLine
 10
72.02762046826731
 20
219.2036704765433
 30
0.0
 11
80.02762046826731
 21
219.2036704765433
 31
0.0
  0
LINE
  5
235
330
232
100
AcDbEntity
  8
SUNPO
 62
     0
370
    -2
100
AcDbLine
 10
78.02762046826732
 20
190.7036704765433
 30
0.0
 11
78.02762046826732
 21
217.2036704765433
 31
0.0
  0
INSERT
  5
236
330
232
100
AcDbEntity
  8
SUNPO
 62
     0
370
    -2
100
AcDbBlockReference
  2
_OPEN30
 10
78.02762046826732
 20
188.7036704765433
 30
0.0
 41
2.0
 42
2.0
 43
2.0
 50
270.0
  0
INSERT
  5
237
330
232
100
AcDbEntity
  8
SUNPO
 62
     0
370
    -2
100
AcDbBlockReference
  2
_OPEN30
 10
78.02762046826732
 20
219.2036704765433
 30
0.0
 41
2.0
 42
2.0
 43
2.0
 50
90.0
  0
MTEXT
  5
238
330
232
100
AcDbEntity
  8
SUNPO
 62
     0
100
AcDbMText
 10
76.27762046826728
 20
203.9536704765434
 30
0.0
 40
2.5
 41
0.0
 71
     5
 72
     1
  1
\A1;610
 11
0.0000000000000001
 21
1.0
 31
0.0
 73
     1
 44
1.0
1001
ACAD
1000
MTEXTBEGIN
1070
    73
1070
     1
1070
    44
1040
1.0
1070
    74
1070
     0
1000
MTEXTEND
  0
POINT
  5
239
330
232
100
AcDbEntity
  8
DEFPOINTS
 62
     0
370
     0
100
AcDbPoint
 10
70.02762046826731
 20
188.7036704765433
 30
0.0
  0
POINT
  5
23A
330
232
100
AcDbEntity
  8
DEFPOINTS
 62
     0
370
     0
100
AcDbPoint
 10
70.02762046826731
 20
219.2036704765433
 30
0.0
  0
POINT
  5
23B
330
232
100
AcDbEntity
  8
DEFPOINTS
 62
     0
370
     0
100
AcDbPoint
 10
78.02762046826732
 20
219.2036704765433
 30
0.0
  0
ENDBLK
  5
23D
330
232
100
AcDbEntity
  8
0
370
     0
100
AcDbBlockEnd
  0
BLOCK
  5
24A
330
23E
100
AcDbEntity
  8
0
370
     0
100
AcDbBlockBegin
  2
*D16
 70
     1
 10
0.0
 20
0.0
 30
0.0
  3
*D16
  1

  0
LINE
  5
23F
330
23E
100
AcDbEntity
  8
SUNPO
 62
     0
370
    -2
100
AcDbLine
 10
72.02762046826734
 20
188.7036704765433
 30
0.0
 11
80.02762046826735
 21
188.7036704765433
 31
0.0
  0
LINE
  5
240
330
23E
100
AcDbEntity
  8
SUNPO
 62
     0
370
    -2
100
AcDbLine
 10
72.02762046826731
 20
185.3286704765435
 30
0.0
 11
80.02762046826735
 21
185.3286704765435
 31
0.0
  0
LINE
  5
241
330
23E
100
AcDbEntity
  8
SUNPO
 62
     0
370
    -2
100
AcDbLine
 10
78.02762046826734
 20
190.7036704765433
 30
0.0
 11
78.02762046826734
 21
192.7036704765433
 31
0.0
  0
LINE
  5
242
330
23E
100
AcDbEntity
  8
SUNPO
 62
     0
370
    -2
100
AcDbLine
 10
78.02762046826734
 20
183.3286704765436
 30
0.0
 11
78.02762046826734
 21
171.1620038098769
 31
0.0
  0
LINE
  5
243
330
23E
100
AcDbEntity
  8
SUNPO
 62
     0
370
    -2
100
AcDbLine
 10
78.02762046826734
 20
188.7036704765433
 30
0.0
 11
78.02762046826734
 21
185.3286704765435
 31
0.0
  0
INSERT
  5
244
330
23E
100
AcDbEntity
  8
SUNPO
 62
     0
370
    -2
100
AcDbBlockReference
  2
_OPEN30
 10
78.02762046826734
 20
188.7036704765433
 30
0.0
 41
2.0
 42
2.0
 43
2.0
 50
270.0
  0
INSERT
  5
245
330
23E
100
AcDbEntity
  8
SUNPO
 62
     0
370
    -2
100
AcDbBlockReference
  2
_OPEN30
 10
78.02762046826734
 20
185.3286704765435
 30
0.0
 41
2.0
 42
2.0
 43
2.0
 50
90.0
  0
MTEXT
  5
246
330
23E
100
AcDbEntity
  8
SUNPO
 62
     0
100
AcDbMText
 10
76.27762046826731
 20
176.2453371432102
 30
0.0
 40
2.5
 41
0.0
 71
     5
 72
     1
  1
\A1;67.5
 11
0.0000000000000001
 21
1.0
 31
0.0
 73
     1
 44
1.0
1001
ACAD
1000
MTEXTBEGIN
1070
    73
1070
     1
1070
    44
1040
1.0
1070
    74
1070
     0
1000
MTEXTEND
  0
POINT
  5
247
330
23E
100
AcDbEntity
  8
DEFPOINTS
 62
     0
370
     0
100
AcDbPoint
 10
70.02762046826735
 20
188.7036704765433
 30
0.0
  0
POINT
  5
248
330
23E
100
AcDbEntity
  8
DEFPOINTS
 62
     0
370
     0
100
AcDbPoint
 10
70.02762046826731
 20
185.3286704765435
 30
0.0
  0
POINT
  5
249
330
23E
100
AcDbEntity
  8
DEFPOINTS
 62
     0
370
     0
100
AcDbPoint
 10
78.02762046826734
 20
185.3286704765435
 30
0.0
  0
ENDBLK
  5
24B
330
23E
100
AcDbEntity
  8
0
370
     0
100
AcDbBlockEnd
  0
ENDSEC
  0
SECTION
  2
ENTITIES
  0
TEXT
  5
29
330
2
100
AcDbEntity
  8
MOJI1
100
AcDbText
 10
28.99999999999977
 20
240.499214139642
 30
0.0
 40
4.0
  1
ハイビジョンプラズマディスプレイ据置きスタンド付
 41
0.85
100
AcDbText
  0
TEXT
  5
2B
330
2
100
AcDbEntity
  8
TOUROKU
100
AcDbText
 10
89.3999500329275
 20
234.499214139642
 30
0.0
 40
2.0
  1
ＴＨ４２ＰＨＤ７＋ＴＹＳＴ０７Ｋ
 72
     2
 11
126.9999500329275
 21
234.499214139642
 31
0.0
100
AcDbText
  0
INSERT
  5
2D
330
2
100
AcDbEntity
  8
MOJI1
100
AcDbBlockReference
  2
４２９
 10
-110.8632447264196
 20
1.118156982951745
 30
0.0
  0
DIMENSION
  5
88
330
2
100
AcDbEntity
  8
SUNPO
100
AcDbDimension
  2
*D15
 10
78.02762046826732
 20
219.2036704765433
 30
0.0
 11
76.27762046826728
 21
203.9536704765434
 31
0.0
 70
    33
  1
610
 71
     5
 42
30.5
  3
STANDARD
100
AcDbAlignedDimension
 13
70.02762046826731
 23
188.7036704765433
 33
0.0
 14
70.02762046826731
 24
219.2036704765433
 34
0.0
1001
ACAD
1000
DSTYLE
1002
{
1070
    40
1040
1.0
1070
   140
1040
2.5
1070
   147
1040
0.5
1070
   172
1070
     1
1070
   288
1070
     0
1002
}
  0
INSERT
  5
9E
330
2
100
AcDbEntity
  8
MOJI1
100
AcDbBlockReference
  2
４２
 10
-106.6031140873881
 20
1.118156982951688
 30
0.0
  0
INSERT
  5
F7
330
2
100
AcDbEntity
  8
MOJI1
100
AcDbBlockReference
  2
３４０５
 10
0.6035089806681527
 20
-116.3541519990385
 30
0.0
  0
DIMENSION
  5
147
330
2
100
AcDbEntity
  8
SUNPO
100
AcDbDimension
  2
*D14
 10
65.05752872581922
 20
177.3190368913495
 30
0.0
 11
44.96730372581907
 21
179.0690368913495
 31
0.0
 70
    33
  1
806
 71
     5
 42
40.18045000000029
  3
STANDARD
100
AcDbAlignedDimension
 13
24.87707872581893
 23
185.3190368913495
 33
0.0
 14
65.05752872581922
 24
185.3190368913495
 34
0.0
1001
ACAD
1000
DSTYLE
1002
{
1070
    40
1040
1.0
1070
   140
1040
2.5
1070
   147
1040
0.5
1070
   172
1070
     1
1070
   288
1070
     0
1002
}
  0
DIMENSION
  5
154
330
2
100
AcDbEntity
  8
SUNPO
100
AcDbDimension
  2
*D13
 10
106.4808714788333
 20
177.3212931575647
 30
0.0
 11
98.47355897883316
 21
179.0712931575647
 31
0.0
 70
    33
  1
320.3
 71
     5
 42
16.01462500000028
  3
STANDARD
100
AcDbAlignedDimension
 13
90.46624647883302
 23
185.3212931575647
 33
0.0
 14
106.4808714788333
 24
185.3212931575647
 34
0.0
1001
ACAD
1000
DSTYLE
1002
{
1070
    40
1040
1.0
1070
   140
1040
2.5
1070
   147
1040
0.5
1070
   172
1070
     1
1070
   288
1070
     0
1002
}
  0
INSERT
  5
161
330
2
100
AcDbEntity
  8
MOJI1
100
AcDbBlockReference
  2
３４０５９
 10
-4.342598599220906
 20
-116.3518957328233
 30
0.0
  0
DIMENSION
  5
186
330
2
100
AcDbEntity
  8
SUNPO
100
AcDbDimension
  2
*D12
 10
70.01729106625728
 20
227.203384032192
 30
0.0
 11
44.9672910662573
 21
228.953384032192
 31
0.0
 70
    33
  1
1020
 71
     5
 42
50.09999999999997
  3
STANDARD
100
AcDbAlignedDimension
 13
19.91729106625732
 23
219.203384032192
 33
0.0
 14
70.01729106625728
 24
219.203384032192
 34
0.0
1001
ACAD
1000
DSTYLE
1002
{
1070
    40
1040
1.0
1070
   140
1040
2.5
1070
   147
1040
0.5
1070
   172
1070
     1
1070
   288
1070
     0
1002
}
  0
DIMENSION
  5
193
330
2
100
AcDbEntity
  8
SUNPO
100
AcDbDimension
  2
*D11
 10
102.2808714788332
 20
227.203384032192
 30
0.0
 11
108.8642048121665
 21
228.953384032192
 31
0.0
 70
    33
  1
89
 71
     5
 42
4.450000000000045
  3
STANDARD
100
AcDbAlignedDimension
 13
97.83087147883316
 23
219.203384032192
 33
0.0
 14
102.2808714788332
 24
219.203384032192
 34
0.0
1001
ACAD
1000
DSTYLE
1002
{
1070
    40
1040
1.0
1070
   140
1040
2.5
1070
   147
1040
0.5
1070
   172
1070
     1
1070
   288
1070
     0
1002
}
  0
DIMENSION
  5
1A2
330
2
100
AcDbEntity
  8
SUNPO
100
AcDbDimension
  2
*D16
 10
78.02762046826734
 20
185.3286704765435
 30
0.0
 11
76.27762046826731
 21
176.2453371432102
 31
0.0
 70
    33
  1
67.5
 71
     5
 42
3.374999999999744
  3
STANDARD
100
AcDbAlignedDimension
 13
70.02762046826735
 23
188.7036704765433
 33
0.0
 14
70.02762046826731
 24
185.3286704765435
 34
0.0
1001
ACAD
1000
DSTYLE
1002
{
1070
    40
1040
1.0
1070
   140
1040
2.5
1070
   147
1040
0.5
1070
   172
1070
     1
1070
   288
1070
     0
1002
}
  0
LINE
  5
1B8
330
2
100
AcDbEntity
  8
WAKU
 62
     1
100
AcDbLine
 10
1.999999999999858
 20
156.4992141396423
 30
0.0
 11
126.9999999999996
 21
156.4992141396423
 31
0.0
  0
LINE
  5
1BA
330
2
100
AcDbEntity
  8
WAKU
 62
     1
100
AcDbLine
 10
1.999999999999858
 20
146.4992141396423
 30
0.0
 11
126.9999999999996
 21
146.4992141396423
 31
0.0
  0
LINE
  5
1BB
330
2
100
AcDbEntity
  8
WAKU
 62
     4
100
AcDbLine
 10
1.999999999999858
 20
166.4992141396423
 30
0.0
 11
126.9999999999996
 21
166.4992141396423
 31
0.0
  0
LINE
  5
1BC
330
2
100
AcDbEntity
  8
WAKU
 62
     1
100
AcDbLine
 10
1.999999999999858
 20
161.4992141396423
 30
0.0
 11
126.9999999999996
 21
161.4992141396423
 31
0.0
  0
LINE
  5
1BD
330
2
100
AcDbEntity
  8
WAKU
 62
     1
100
AcDbLine
 10
1.999999999999858
 20
151.4992141396423
 30
0.0
 11
126.9999999999996
 21
151.4992141396423
 31
0.0
  0
LINE
  5
1BE
330
2
100
AcDbEntity
  8
WAKU
 62
     1
100
AcDbLine
 10
1.999999999999858
 20
141.4992141396423
 30
0.0
 11
126.9999999999996
 21
141.4992141396423
 31
0.0
  0
LINE
  5
1BF
330
2
100
AcDbEntity
  8
WAKU
 62
     1
100
AcDbLine
 10
1.999999999999858
 20
136.4992141396423
 30
0.0
 11
126.9999999999996
 21
136.4992141396423
 31
0.0
  0
LINE
  5
1C0
330
2
100
AcDbEntity
  8
WAKU
 62
     4
100
AcDbLine
 10
126.9999999999996
 20
131.4992141396423
 30
0.0
 11
1.999999999999858
 21
131.4992141396423
 31
0.0
  0
LINE
  5
1C1
330
2
100
AcDbEntity
  8
WAKU
 62
     4
100
AcDbLine
 10
1.99999999999963
 20
166.4992141396423
 30
0.0
 11
1.999999999999858
 21
131.4992141396423
 31
0.0
  0
LINE
  5
1C2
330
2
100
AcDbEntity
  8
WAKU
 62
     4
100
AcDbLine
 10
41.99999999999962
 20
166.4992141396423
 30
0.0
 11
41.99999999999962
 21
131.4992141396423
 31
0.0
  0
TEXT
  5
1C3
330
2
100
AcDbEntity
  8
MOJI1
100
AcDbText
 10
4.499999999999857
 20
152.4992141396423
 30
0.0
 40
3.0
  1
パネルサイズ
100
AcDbText
  0
TEXT
  5
1C4
330
2
100
AcDbEntity
  8
MOJI1
100
AcDbText
 10
4.499999999999857
 20
142.4992141396423
 30
0.0
 40
3.0
  1
音声最大出力
100
AcDbText
  0
TEXT
  5
1C5
330
2
100
AcDbEntity
  8
MOJI1
100
AcDbText
 10
4.499999999999857
 20
147.4992141396423
 30
0.0
 40
3.0
  1
画素数
100
AcDbText
  0
TEXT
  5
1C6
330
2
100
AcDbEntity
  8
MOJI1
100
AcDbText
 10
4.499999999999857
 20
137.4992141396423
 30
0.0
 40
3.0
  1
接続端子
100
AcDbText
  0
TEXT
  5
1C7
330
2
100
AcDbEntity
  8
MOJI1
100
AcDbText
 10
4.499999999999857
 20
162.4992141396423
 30
0.0
 40
3.0
  1
電  源
100
AcDbText
  0
TEXT
  5
1C8
330
2
100
AcDbEntity
  8
MOJI1
100
AcDbText
 10
4.499999999999857
 20
157.4992141396423
 30
0.0
 40
3.0
  1
消費電力
100
AcDbText
  0
LINE
  5
1C9
330
2
100
AcDbEntity
  8
WAKU
 62
     4
100
AcDbLine
 10
126.9999999999996
 20
166.4992141396423
 30
0.0
 11
126.9999999999996
 21
131.4992141396423
 31
0.0
  0
TEXT
  5
24C
330
2
100
AcDbEntity
  8
MOJI1
370
     0
100
AcDbText
 10
44.49999999999962
 20
132.4992141396423
 30
0.0
 40
3.0
  1
コンポーネントビデオ、シリアル
100
AcDbText
  0
TEXT
  5
24D
330
2
100
AcDbEntity
  8
MOJI1
370
     0
100
AcDbText
 10
44.49999999999962
 20
137.4992141396423
 30
0.0
 40
3.0
  1
ビデオ／Ｓビデオ／ＰＣ／外部スピーカ
100
AcDbText
  0
TEXT
  5
24E
330
2
100
AcDbEntity
  8
MOJI1
370
     0
100
AcDbText
 10
44.49999999999962
 20
142.4992141396423
 30
0.0
 40
3.0
  1
１６Ｗ（８Ｗ＋８Ｗ）
100
AcDbText
  0
TEXT
  5
24F
330
2
100
AcDbEntity
  8
MOJI1
370
     0
100
AcDbText
 10
44.49999999999962
 20
147.4992141396423
 30
0.0
 40
3.0
  1
７８６４３２画素（水平１０２４×垂直７６８）
100
AcDbText
  0
TEXT
  5
250
330
2
100
AcDbEntity
  8
MOJI1
370
     0
100
AcDbText
 10
44.49999999999962
 20
152.4992141396422
 30
0.0
 40
3.0
  1
４２Ｖ型（１６：９）
100
AcDbText
  0
TEXT
  5
251
330
2
100
AcDbEntity
  8
MOJI1
370
     0
100
AcDbText
 10
44.49999999999962
 20
157.4992141396423
 30
0.0
 40
3.0
  1
３１５Ｗ
100
AcDbText
  0
TEXT
  5
252
330
2
100
AcDbEntity
  8
MOJI1
370
     0
100
AcDbText
 10
44.49999999999962
 20
162.4992141396423
 30
0.0
 40
3.0
  1
ＡＣ１００Ｖ　５０Ｈｚ／６０Ｈｚ
100
AcDbText
  0
ENDSEC
  0
SECTION
  2
OBJECTS
  0
DICTIONARY
  5
21
330
0
100
AcDbDictionary
281
     1
  3
ACAD_COLOR
350
1F3
  3
ACAD_GROUP
350
1F
  3
ACAD_LAYOUT
350
1CA
  3
ACAD_MATERIAL
350
1F5
  3
ACAD_MLINESTYLE
350
20
  3
ACAD_PLOTSETTINGS
350
1D5
  3
ACAD_PLOTSTYLENAME
350
1D7
  3
ACDBHEADERROUNDTRIPXREC
350
257
  3
AcDbVariableDictionary
350
253
  0
DICTIONARY
  5
F
330
E
100
AcDbDictionary
280
     1
281
     1
  3
ACAD_LAYERFILTERS
360
10
  0
DICTIONARY
  5
3
330
2
100
AcDbDictionary
280
     1
281
     1
  3
ACAD_LAYOUTSELFREF
360
4
  0
DICTIONARY
  5
A
330
9
100
AcDbDictionary
280
     1
281
     1
  3
ACAD_LAYOUTSELFREF
360
B
  0
DICTIONARY
  5
1F3
102
{ACAD_REACTORS
330
21
102
}
330
21
100
AcDbDictionary
281
     1
  0
DICTIONARY
  5
1F
102
{ACAD_REACTORS
330
21
102
}
330
21
100
AcDbDictionary
281
     1
  0
DICTIONARY
  5
1CA
102
{ACAD_REACTORS
330
21
102
}
330
21
100
AcDbDictionary
281
     1
  3
Model
350
1FD
  3
レイアウト1
350
1FE
  0
DICTIONARY
  5
1F5
102
{ACAD_REACTORS
330
21
102
}
330
21
100
AcDbDictionary
281
     1
  0
DICTIONARY
  5
20
102
{ACAD_REACTORS
330
21
102
}
330
21
100
AcDbDictionary
281
     1
  3
STANDARD
350
25
  0
DICTIONARY
  5
1D5
102
{ACAD_REACTORS
330
21
102
}
330
21
100
AcDbDictionary
281
     1
  0
ACDBDICTIONARYWDFLT
  5
1D7
102
{ACAD_REACTORS
330
21
102
}
330
21
100
AcDbDictionary
281
     1
  3
NORMAL
350
1D8
100
AcDbDictionaryWithDefault
340
1D8
  0
DICTIONARY
  5
257
102
{ACAD_REACTORS
330
21
102
}
330
21
100
AcDbDictionary
281
     1
  3
COLORDICT
350
259
  3
MATERIALDICT
350
258
  0
DICTIONARY
  5
253
102
{ACAD_REACTORS
330
21
102
}
330
21
100
AcDbDictionary
281
     1
  3
DIMASSOC
350
254
  3
PROJECTNAME
350
255
  0
DICTIONARY
  5
10
102
{ACAD_REACTORS
330
F
102
}
330
F
100
AcDbDictionary
280
     1
281
     1
  3
ロック画層
360
11
  0
XRECORD
  5
4
102
{ACAD_REACTORS
330
3
102
}
330
3
100
AcDbXrecord
280
     1
340
2
  0
XRECORD
  5
B
102
{ACAD_REACTORS
330
A
102
}
330
A
100
AcDbXrecord
280
     1
340
9
  0
LAYOUT
  5
1FD
102
{ACAD_XDICTIONARY
360
25A
102
}
102
{ACAD_REACTORS
330
1CA
102
}
330
1CA
100
AcDbPlotSettings
  1

  2
\\Uranus\BFACN02M
  4

  6

 40
0.0
 41
0.0
 42
0.0
 43
0.0
 44
0.0
 45
0.0
 46
0.0
 47
0.0
 48
0.0
 49
0.0
140
0.0
141
0.0
142
1.0
143
1.0
 70
  1712
 72
     0
 73
     0
 74
     0
  7
SSC.ctb
 75
     0
147
1.0
148
0.0
149
0.0
100
AcDbLayout
  1
Model
 70
     1
 71
     0
 10
0.0
 20
0.0
 11
12.0
 21
9.0
 12
0.0
 22
0.0
 32
0.0
 14
0.0
 24
0.0
 34
0.0
 15
0.0
 25
0.0
 35
0.0
146
0.0
 13
0.0
 23
0.0
 33
0.0
 16
1.0
 26
0.0
 36
0.0
 17
0.0
 27
1.0
 37
0.0
 76
     0
330
2
  0
LAYOUT
  5
1FE
102
{ACAD_XDICTIONARY
360
25C
102
}
102
{ACAD_REACTORS
330
1CA
102
}
330
1CA
100
AcDbPlotSettings
  1

  2
\\Uranus\BFACN02M
  4

  6

 40
0.0
 41
0.0
 42
0.0
 43
0.0
 44
0.0
 45
0.0
 46
0.0
 47
0.0
 48
0.0
 49
0.0
140
0.0
141
0.0
142
1.0
143
1.0
 70
   688
 72
     0
 73
     0
 74
     5
  7
SSC.ctb
 75
    16
147
1.0
148
0.0
149
0.0
100
AcDbLayout
  1
レイアウト1
 70
     1
 71
     1
 10
0.0
 20
0.0
 11
12.0
 21
9.0
 12
0.0
 22
0.0
 32
0.0
 14
1.000000000000000E+20
 24
1.000000000000000E+20
 34
1.000000000000000E+20
 15
-1.000000000000000E+20
 25
-1.000000000000000E+20
 35
-1.000000000000000E+20
146
0.0
 13
0.0
 23
0.0
 33
0.0
 16
1.0
 26
0.0
 36
0.0
 17
0.0
 27
1.0
 37
0.0
 76
     0
330
9
  0
MLINESTYLE
  5
25
102
{ACAD_REACTORS
330
20
102
}
330
20
100
AcDbMlineStyle
  2
STANDARD
 70
     0
  3

 62
   256
 51
90.0
 52
90.0
 71
     2
 49
0.5
 62
   256
  6
BYLAYER
 49
-0.5
 62
   256
  6
BYLAYER
  0
ACDBPLACEHOLDER
  5
1D8
102
{ACAD_REACTORS
330
1D7
102
}
330
1D7
  0
XRECORD
  5
259
102
{ACAD_REACTORS
330
257
102
}
330
257
100
AcDbXrecord
280
     1
340
1F3
  0
XRECORD
  5
258
102
{ACAD_REACTORS
330
257
102
}
330
257
100
AcDbXrecord
280
     1
340
1F5
  0
DICTIONARYVAR
  5
254
102
{ACAD_REACTORS
330
253
102
}
330
253
100
DictionaryVariables
280
     0
  1
1
  0
DICTIONARYVAR
  5
255
102
{ACAD_REACTORS
330
253
102
}
330
253
100
DictionaryVariables
280
     0
  1

  0
XRECORD
  5
11
102
{ACAD_REACTORS
330
10
102
}
330
10
100
AcDbXrecord
280
     1
  1
ロック画層
  1
*
  1
*
  1
*
 70
   256
  1
*
  1
*
  0
DICTIONARY
  5
25A
330
1FD
100
AcDbDictionary
280
     1
281
     1
  3
ACAD_XREC_ROUNDTRIP
360
25B
  0
DICTIONARY
  5
25C
330
1FE
100
AcDbDictionary
280
     1
281
     1
  3
ACAD_XREC_ROUNDTRIP
360
25D
  0
XRECORD
  5
25B
102
{ACAD_REACTORS
330
25A
102
}
330
25A
100
AcDbXrecord
280
     1
102
SHADEPLOT
 70
     0
102
SHADEPLOTRESLEVEL
 70
     2
102
SHADEPLOTCUSTOMDPI
 70
   300
  0
XRECORD
  5
25D
102
{ACAD_REACTORS
330
25C
102
}
330
25C
100
AcDbXrecord
280
     1
102
SHADEPLOT
 70
     0
102
SHADEPLOTRESLEVEL
 70
     2
102
SHADEPLOTCUSTOMDPI
 70
   300
  0
ENDSEC
  0
EOF
