  0
SECTION
  2
HEADER
  9
$ACADVER
  1
AC1015
  9
$ACADMAINTVER
 70
    20
  9
$DWGCODEPAGE
  3
ANSI_932
  9
$INSBASE
 10
129.0
 20
246.4992141396418
 30
0.0
  9
$EXTMIN
 10
130.9930172343247
 20
131.4917909329499
 30
-0.0015258207003583
  9
$EXTMAX
 10
256.0142558442408
 20
244.5062986699194
 30
0.0000000349246037
  9
$LIMMIN
 10
-139.8287979831839
 20
-0.3363807147279658
  9
$LIMMAX
 10
398.8557467307846
 20
394.4673933017348
  9
$ORTHOMODE
 70
     1
  9
$REGENMODE
 70
     1
  9
$FILLMODE
 70
     1
  9
$QTEXTMODE
 70
     0
  9
$MIRRTEXT
 70
     1
  9
$LTSCALE
 40
1.0
  9
$ATTMODE
 70
     1
  9
$TEXTSIZE
 40
3.0
  9
$TRACEWID
 40
0.5
  9
$TEXTSTYLE
  7
STANDARD
  9
$CLAYER
  8
0
  9
$CELTYPE
  6
BYLAYER
  9
$CECOLOR
 62
   256
  9
$CELTSCALE
 40
1.0
  9
$DISPSILH
 70
     0
  9
$DIMSCALE
 40
1.0
  9
$DIMASZ
 40
2.0
  9
$DIMEXO
 40
2.0
  9
$DIMDLI
 40
8.0
  9
$DIMRND
 40
0.0
  9
$DIMDLE
 40
0.0
  9
$DIMEXE
 40
2.0
  9
$DIMTP
 40
0.0
  9
$DIMTM
 40
0.0
  9
$DIMTXT
 40
2.5
  9
$DIMCEN
 40
0.0
  9
$DIMTSZ
 40
0.0
  9
$DIMTOL
 70
     0
  9
$DIMLIM
 70
     0
  9
$DIMTIH
 70
     0
  9
$DIMTOH
 70
     0
  9
$DIMSE1
 70
     0
  9
$DIMSE2
 70
     0
  9
$DIMTAD
 70
     3
  9
$DIMZIN
 70
     0
  9
$DIMBLK
  1

  9
$DIMASO
 70
     1
  9
$DIMSHO
 70
     1
  9
$DIMPOST
  1

  9
$DIMAPOST
  1

  9
$DIMALT
 70
     0
  9
$DIMALTD
 70
     2
  9
$DIMALTF
 40
25.4
  9
$DIMLFAC
 40
1.0
  9
$DIMTOFL
 70
     1
  9
$DIMTVP
 40
0.0
  9
$DIMTIX
 70
     0
  9
$DIMSOXD
 70
     0
  9
$DIMSAH
 70
     1
  9
$DIMBLK1
  1
OPEN30
  9
$DIMBLK2
  1
OPEN30
  9
$DIMSTYLE
  2
STANDARD
  9
$DIMCLRD
 70
     0
  9
$DIMCLRE
 70
     0
  9
$DIMCLRT
 70
     0
  9
$DIMTFAC
 40
1.0
  9
$DIMGAP
 40
0.5
  9
$DIMJUST
 70
     0
  9
$DIMSD1
 70
     0
  9
$DIMSD2
 70
     0
  9
$DIMTOLJ
 70
     1
  9
$DIMTZIN
 70
     0
  9
$DIMALTZ
 70
     0
  9
$DIMALTTZ
 70
     0
  9
$DIMUPT
 70
     0
  9
$DIMDEC
 70
     4
  9
$DIMTDEC
 70
     4
  9
$DIMALTU
 70
     2
  9
$DIMALTTD
 70
     2
  9
$DIMTXSTY
  7
STANDARD
  9
$DIMAUNIT
 70
     0
  9
$DIMADEC
 70
     0
  9
$DIMALTRND
 40
0.0
  9
$DIMAZIN
 70
     0
  9
$DIMDSEP
 70
    46
  9
$DIMATFIT
 70
     3
  9
$DIMFRAC
 70
     0
  9
$DIMLDRBLK
  1
OPEN30
  9
$DIMLUNIT
 70
     2
  9
$DIMLWD
 70
    -2
  9
$DIMLWE
 70
    -2
  9
$DIMTMOVE
 70
     0
  9
$LUNITS
 70
     2
  9
$LUPREC
 70
     4
  9
$SKETCHINC
 40
0.1
  9
$FILLETRAD
 40
0.0
  9
$AUNITS
 70
     0
  9
$AUPREC
 70
     0
  9
$MENU
  1
ACAD
  9
$ELEVATION
 40
0.0
  9
$PELEVATION
 40
0.0
  9
$THICKNESS
 40
0.0
  9
$LIMCHECK
 70
     0
  9
$CHAMFERA
 40
0.0
  9
$CHAMFERB
 40
0.0
  9
$CHAMFERC
 40
0.0
  9
$CHAMFERD
 40
0.0
  9
$SKPOLY
 70
     0
  9
$TDCREATE
 40
2451815.565532581
  9
$TDUCREATE
 40
2451815.190532581
  9
$TDUPDATE
 40
2453731.604017280
  9
$TDUUPDATE
 40
2453731.229017280
  9
$TDINDWG
 40
0.7885945370
  9
$TDUSRTIMER
 40
0.7885945370
  9
$USRTIMER
 70
     1
  9
$ANGBASE
 50
0.0
  9
$ANGDIR
 70
     0
  9
$PDMODE
 70
     0
  9
$PDSIZE
 40
0.0
  9
$PLINEWID
 40
0.0
  9
$SPLFRAME
 70
     0
  9
$SPLINETYPE
 70
     6
  9
$SPLINESEGS
 70
     8
  9
$HANDSEED
  5
47D
  9
$SURFTAB1
 70
     6
  9
$SURFTAB2
 70
     6
  9
$SURFTYPE
 70
     6
  9
$SURFU
 70
     6
  9
$SURFV
 70
     6
  9
$UCSBASE
  2

  9
$UCSNAME
  2

  9
$UCSORG
 10
0.0
 20
0.0
 30
0.0
  9
$UCSXDIR
 10
1.0
 20
0.0
 30
0.0
  9
$UCSYDIR
 10
0.0
 20
1.0
 30
0.0
  9
$UCSORTHOREF
  2

  9
$UCSORTHOVIEW
 70
     0
  9
$UCSORGTOP
 10
0.0
 20
0.0
 30
0.0
  9
$UCSORGBOTTOM
 10
0.0
 20
0.0
 30
0.0
  9
$UCSORGLEFT
 10
0.0
 20
0.0
 30
0.0
  9
$UCSORGRIGHT
 10
0.0
 20
0.0
 30
0.0
  9
$UCSORGFRONT
 10
0.0
 20
0.0
 30
0.0
  9
$UCSORGBACK
 10
0.0
 20
0.0
 30
0.0
  9
$PUCSBASE
  2

  9
$PUCSNAME
  2

  9
$PUCSORG
 10
0.0
 20
0.0
 30
0.0
  9
$PUCSXDIR
 10
1.0
 20
0.0
 30
0.0
  9
$PUCSYDIR
 10
0.0
 20
1.0
 30
0.0
  9
$PUCSORTHOREF
  2

  9
$PUCSORTHOVIEW
 70
     0
  9
$PUCSORGTOP
 10
0.0
 20
0.0
 30
0.0
  9
$PUCSORGBOTTOM
 10
0.0
 20
0.0
 30
0.0
  9
$PUCSORGLEFT
 10
0.0
 20
0.0
 30
0.0
  9
$PUCSORGRIGHT
 10
0.0
 20
0.0
 30
0.0
  9
$PUCSORGFRONT
 10
0.0
 20
0.0
 30
0.0
  9
$PUCSORGBACK
 10
0.0
 20
0.0
 30
0.0
  9
$USERI1
 70
     0
  9
$USERI2
 70
     0
  9
$USERI3
 70
     0
  9
$USERI4
 70
     0
  9
$USERI5
 70
     0
  9
$USERR1
 40
0.0
  9
$USERR2
 40
0.0
  9
$USERR3
 40
0.0
  9
$USERR4
 40
0.0
  9
$USERR5
 40
0.0
  9
$WORLDVIEW
 70
     1
  9
$SHADEDGE
 70
     3
  9
$SHADEDIF
 70
    70
  9
$TILEMODE
 70
     1
  9
$MAXACTVP
 70
    48
  9
$PINSBASE
 10
0.0
 20
0.0
 30
0.0
  9
$PLIMCHECK
 70
     0
  9
$PEXTMIN
 10
1.000000000000000E+20
 20
1.000000000000000E+20
 30
1.000000000000000E+20
  9
$PEXTMAX
 10
-1.000000000000000E+20
 20
-1.000000000000000E+20
 30
-1.000000000000000E+20
  9
$PLIMMIN
 10
0.0
 20
0.0
  9
$PLIMMAX
 10
12.0
 20
9.0
  9
$UNITMODE
 70
     0
  9
$VISRETAIN
 70
     1
  9
$PLINEGEN
 70
     0
  9
$PSLTSCALE
 70
     1
  9
$TREEDEPTH
 70
  3020
  9
$CMLSTYLE
  2
STANDARD
  9
$CMLJUST
 70
     0
  9
$CMLSCALE
 40
1.0
  9
$PROXYGRAPHICS
 70
     1
  9
$MEASUREMENT
 70
     0
  9
$CELWEIGHT
370
     0
  9
$ENDCAPS
280
     0
  9
$JOINSTYLE
280
     0
  9
$LWDISPLAY
290
     0
  9
$INSUNITS
 70
     1
  9
$HYPERLINKBASE
  1

  9
$STYLESHEET
  1

  9
$XEDIT
290
     1
  9
$CEPSNTYPE
380
     0
  9
$PSTYLEMODE
290
     0
  9
$FINGERPRINTGUID
  2
{FAEB1C30-E019-11D5-929B-00C0DF256EC4}
  9
$VERSIONGUID
  2
{1CD562DD-9F28-43F7-B694-DD665250832D}
  9
$EXTNAMES
290
     1
  9
$PSVPSCALE
 40
0.0
  9
$OLESTARTUP
290
     0
  0
ENDSEC
  0
SECTION
  2
CLASSES
  0
CLASS
  1
ACDBDICTIONARYWDFLT
  2
AcDbDictionaryWithDefault
  3
ObjectDBX Classes
 90
        0
280
     0
281
     0
  0
CLASS
  1
ACDBPLACEHOLDER
  2
AcDbPlaceHolder
  3
ObjectDBX Classes
 90
        0
280
     0
281
     0
  0
CLASS
  1
LAYOUT
  2
AcDbLayout
  3
ObjectDBX Classes
 90
        0
280
     0
281
     0
  0
CLASS
  1
DICTIONARYVAR
  2
AcDbDictionaryVar
  3
ObjectDBX Classes
 90
        0
280
     0
281
     0
  0
ENDSEC
  0
SECTION
  2
TABLES
  0
TABLE
  2
VPORT
  5
19
330
0
100
AcDbSymbolTable
 70
     2
  0
VPORT
  5
475
330
19
100
AcDbSymbolTableRecord
100
AcDbViewportTableRecord
  2
*Active
 70
     0
 10
0.0
 20
0.0
 11
1.0
 21
1.0
 12
193.5036365392828
 22
187.9990448014346
 13
0.0
 23
0.0
 14
1.0
 24
1.0
 15
0.0
 25
0.0
 16
0.0
 26
0.0
 36
1.0
 17
0.0
 27
0.0
 37
0.0
 40
113.983203517572
 41
1.589413447782546
 42
50.0
 43
0.0
 44
0.0
 50
0.0
 51
0.0
 71
     0
 72
  1000
 73
     1
 74
     0
 75
     0
 76
     0
 77
     0
 78
     0
281
     0
 65
     1
110
0.0
120
0.0
130
0.0
111
1.0
121
0.0
131
0.0
112
0.0
122
1.0
132
0.0
 79
     0
146
0.0
  0
ENDTAB
  0
TABLE
  2
LTYPE
  5
14
330
0
100
AcDbSymbolTable
 70
     2
  0
LTYPE
  5
15
330
14
100
AcDbSymbolTableRecord
100
AcDbLinetypeTableRecord
  2
BYBLOCK
 70
     0
  3

 72
    65
 73
     0
 40
0.0
  0
LTYPE
  5
16
330
14
100
AcDbSymbolTableRecord
100
AcDbLinetypeTableRecord
  2
BYLAYER
 70
     0
  3

 72
    65
 73
     0
 40
0.0
  0
LTYPE
  5
7
330
14
100
AcDbSymbolTableRecord
100
AcDbLinetypeTableRecord
  2
CONTINUOUS
 70
     0
  3
Solid line
 72
    65
 73
     0
 40
0.0
  0
LTYPE
  5
31
330
14
100
AcDbSymbolTableRecord
100
AcDbLinetypeTableRecord
  2
HIDDEN2
 70
     0
  3
Hidden (.5x) _ _ _ _ _ _ _ _ _ _ _ _ _ _ _ _ _
 72
    65
 73
     2
 40
1.399999999999999
 49
0.7
 74
     0
 49
-0.7
 74
     0
  0
ENDTAB
  0
TABLE
  2
LAYER
  5
E
102
{ACAD_XDICTIONARY
360
F
102
}
330
0
100
AcDbSymbolTable
 70
     7
  0
LAYER
  5
6
330
E
100
AcDbSymbolTableRecord
100
AcDbLayerTableRecord
  2
0
 70
     0
 62
     7
  6
CONTINUOUS
370
    -3
390
412
  0
LAYER
  5
B8
330
E
100
AcDbSymbolTableRecord
100
AcDbLayerTableRecord
  2
DEFPOINTS
 70
     0
 62
     7
  6
CONTINUOUS
290
     0
370
    -3
390
412
  0
LAYER
  5
3E9
330
E
100
AcDbSymbolTableRecord
100
AcDbLayerTableRecord
  2
WAKU
 70
     0
 62
     4
  6
CONTINUOUS
370
    -3
390
412
  0
LAYER
  5
2A
330
E
100
AcDbSymbolTableRecord
100
AcDbLayerTableRecord
  2
MOJI1
 70
     0
 62
     2
  6
CONTINUOUS
370
    -3
390
412
  0
LAYER
  5
30
330
E
100
AcDbSymbolTableRecord
100
AcDbLayerTableRecord
  2
GAIKEI
 70
     0
 62
     7
  6
CONTINUOUS
370
    -3
390
412
  0
LAYER
  5
24
330
E
100
AcDbSymbolTableRecord
100
AcDbLayerTableRecord
  2
SUNPO
 70
     0
 62
     3
  6
CONTINUOUS
370
    -3
390
412
  0
LAYER
  5
2C
330
E
100
AcDbSymbolTableRecord
100
AcDbLayerTableRecord
  2
TOUROKU
 70
     0
 62
     1
  6
CONTINUOUS
370
    -3
390
412
  0
ENDTAB
  0
TABLE
  2
STYLE
  5
12
330
0
100
AcDbSymbolTable
 70
     1
  0
STYLE
  5
13
330
12
100
AcDbSymbolTableRecord
100
AcDbTextStyleTableRecord
  2
STANDARD
 70
     0
 40
0.0
 41
1.0
 50
0.0
 71
     0
 42
3.0
  3
MONOTXT.shx
  4
BIGFONT.shx
  0
ENDTAB
  0
TABLE
  2
VIEW
  5
17
330
0
100
AcDbSymbolTable
 70
     0
  0
ENDTAB
  0
TABLE
  2
UCS
  5
18
330
0
100
AcDbSymbolTable
 70
     0
  0
ENDTAB
  0
TABLE
  2
APPID
  5
1B
330
0
100
AcDbSymbolTable
 70
     2
  0
APPID
  5
1C
330
1B
100
AcDbSymbolTableRecord
100
AcDbRegAppTableRecord
  2
ACAD
 70
     0
  0
APPID
  5
9D
330
1B
100
AcDbSymbolTableRecord
100
AcDbRegAppTableRecord
  2
CONTENTBLOCKICON
 70
     0
  0
ENDTAB
  0
TABLE
  2
DIMSTYLE
  5
1D
330
0
100
AcDbSymbolTable
 70
     1
100
AcDbDimStyleTable
 71
     1
340
26
  0
DIMSTYLE
105
26
102
{ACAD_REACTORS
330
249
330
E2
330
CD
330
A9
102
}
330
1D
100
AcDbSymbolTableRecord
100
AcDbDimStyleTableRecord
  2
STANDARD
 70
     0
 40
0.0
 41
2.0
 42
2.0
 43
8.0
 44
2.0
 73
     0
 74
     0
 77
     3
140
3.0
141
0.0
173
     1
288
     1
340
13
341
AF
343
AF
344
AF
  0
ENDTAB
  0
TABLE
  2
BLOCK_RECORD
  5
1
330
0
100
AcDbSymbolTable
 70
    11
  0
BLOCK_RECORD
  5
2
102
{ACAD_XDICTIONARY
360
3
102
}
330
1
100
AcDbSymbolTableRecord
100
AcDbBlockTableRecord
  2
*MODEL_SPACE
340
437
  0
BLOCK_RECORD
  5
9
102
{ACAD_XDICTIONARY
360
A
102
}
330
1
100
AcDbSymbolTableRecord
100
AcDbBlockTableRecord
  2
*PAPER_SPACE
340
438
  0
BLOCK_RECORD
  5
AF
330
1
100
AcDbSymbolTableRecord
100
AcDbBlockTableRecord
  2
_OPEN30
340
0
102
{BLKREFS
331
D2
331
D3
331
24E
331
24F
331
E7
331
E8
331
AE
331
B5
331
385
331
38A
331
446
331
447
331
452
331
453
331
45E
331
45F
331
46A
331
46B
102
}
  0
BLOCK_RECORD
  5
2E
330
1
100
AcDbSymbolTableRecord
100
AcDbBlockTableRecord
  2
42
340
0
310
2800000020000000200000000100080000000000000400000000000000000000000000000000000000000000000080000080000000808000800000008000800080800000C0C0C000C0DCC000F0CAA6000020400000206000002080000020A0000020C0000020E00000400000004020000040400000406000004080000040A0
310
000040C0000040E00000600000006020000060400000606000006080000060A0000060C0000060E00000800000008020000080400000806000008080000080A0000080C0000080E00000A0000000A0200000A0400000A0600000A0800000A0A00000A0C00000A0E00000C0000000C0200000C0400000C0600000C0800000C0
310
A00000C0C00000C0E00000E0000000E0200000E0400000E0600000E0800000E0A00000E0C00000E0E00040000000400020004000400040006000400080004000A0004000C0004000E00040200000402020004020400040206000402080004020A0004020C0004020E000404000004040200040404000404060004040800040
310
40A0004040C0004040E00040600000406020004060400040606000406080004060A0004060C0004060E00040800000408020004080400040806000408080004080A0004080C0004080E00040A0000040A0200040A0400040A0600040A0800040A0A00040A0C00040A0E00040C0000040C0200040C0400040C0600040C08000
310
40C0A00040C0C00040C0E00040E0000040E0200040E0400040E0600040E0800040E0A00040E0C00040E0E00080000000800020008000400080006000800080008000A0008000C0008000E00080200000802020008020400080206000802080008020A0008020C0008020E00080400000804020008040400080406000804080
310
008040A0008040C0008040E00080600000806020008060400080606000806080008060A0008060C0008060E00080800000808020008080400080806000808080008080A0008080C0008080E00080A0000080A0200080A0400080A0600080A0800080A0A00080A0C00080A0E00080C0000080C0200080C0400080C0600080C0
310
800080C0A00080C0C00080C0E00080E0000080E0200080E0400080E0600080E0800080E0A00080E0C00080E0E000C0000000C0002000C0004000C0006000C0008000C000A000C000C000C000E000C0200000C0202000C0204000C0206000C0208000C020A000C020C000C020E000C0400000C0402000C0404000C0406000C0
310
408000C040A000C040C000C040E000C0600000C0602000C0604000C0606000C0608000C060A000C060C000C060E000C0800000C0802000C0804000C0806000C0808000C080A000C080C000C080E000C0A00000C0A02000C0A04000C0A06000C0A08000C0A0A000C0A0C000C0A0E000C0C00000C0C02000C0C04000C0C06000
310
C0C08000C0C0A000F0FBFF00A4A0A000808080000000FF0000FF000000FFFF00FF000000FF00FF00FFFF0000FFFFFF00000000000000000000000000000000000000000000000000000000000000000000000000000000000000000000000000000000F9000000000000000000000000000000000000000000000000000000
310
00000000F9F9F900000000000000000000000000000000000000000000000000000000F900F9F900000000000000000000000000000000000000000000000000000000F900F9F9F9000000000000000000000000000000000000000000000000000000F900F9F9F90000000000000000000000000000000000000000000000
310
000000F90000F9F9000000000000000000000000000000000000000000000000000000F900F9F9F9000000000000000000000000000000000000000000000000000000F900F900F90000000000000000000000000000000000000000000000000000F90000F9F900F900000000000000000000000000000000000000000000
310
000000F900F900F900F9000000000000000000000000000000000000000000000000F90000F9F9F9F900000000000000000000000000000000000000000000000000F900F900F900F900000000000000000000000000000000000000000000000000F900F900F900F900000000000000000000000000000000000000000000
310
0000F90000F9F900F9F9000000000000000000000000000000000000000000000000F900F900F900F9F9000000000000000000000000000000000000000000000000F900F900F9F900F90000000000000000000000000000000000000000000000F90000F9F9F9F900F9000000000000000000000000000000000000000000
310
0000F900F900F900F900F90000000000000000000000000000000000000000000000F900F900F9F90000F900000000000000000000000000000000000000000000F90000F9F9F9F90000F900000000000000000000000000000000000000000000F900F900F9F9F9F9F9F90000000000000000000000000000000000000000
310
0000F900F9F9F9F900F9F9F9F90000000000000000000000000000000000000000F900F9F9F9F9F9000000F9F90000000000000000000000000000000000000000F900F9F9F9F900000000F90000000000000000000000000000000000000000F900F9F9F9F9F900000000F900000000000000000000000000000000000000
310
00F900F9F9F900F900000000F90000000000000000000000000000000000000000F900F9F9F90000000000000000000000000000000000000000000000000000F900F9F9F9000000000000000000000000000000000000000000000000000000F900F9F9F90000000000000000000000000000000000000000000000000000
310
0000F9F900000000000000000000000000000000000000000000000000000000000000000000000000000000000000000000000000000000
102
{BLKREFS
331
2D
102
}
  0
BLOCK_RECORD
  5
375
330
1
100
AcDbSymbolTableRecord
100
AcDbBlockTableRecord
  2
SUNPO
340
0
310
2800000020000000200000000100080000000000000400000000000000000000000000000000000000000000000080000080000000808000800000008000800080800000C0C0C000C0DCC000F0CAA6000020400000206000002080000020A0000020C0000020E00000400000004020000040400000406000004080000040A0
310
000040C0000040E00000600000006020000060400000606000006080000060A0000060C0000060E00000800000008020000080400000806000008080000080A0000080C0000080E00000A0000000A0200000A0400000A0600000A0800000A0A00000A0C00000A0E00000C0000000C0200000C0400000C0600000C0800000C0
310
A00000C0C00000C0E00000E0000000E0200000E0400000E0600000E0800000E0A00000E0C00000E0E00040000000400020004000400040006000400080004000A0004000C0004000E00040200000402020004020400040206000402080004020A0004020C0004020E000404000004040200040404000404060004040800040
310
40A0004040C0004040E00040600000406020004060400040606000406080004060A0004060C0004060E00040800000408020004080400040806000408080004080A0004080C0004080E00040A0000040A0200040A0400040A0600040A0800040A0A00040A0C00040A0E00040C0000040C0200040C0400040C0600040C08000
310
40C0A00040C0C00040C0E00040E0000040E0200040E0400040E0600040E0800040E0A00040E0C00040E0E00080000000800020008000400080006000800080008000A0008000C0008000E00080200000802020008020400080206000802080008020A0008020C0008020E00080400000804020008040400080406000804080
310
008040A0008040C0008040E00080600000806020008060400080606000806080008060A0008060C0008060E00080800000808020008080400080806000808080008080A0008080C0008080E00080A0000080A0200080A0400080A0600080A0800080A0A00080A0C00080A0E00080C0000080C0200080C0400080C0600080C0
310
800080C0A00080C0C00080C0E00080E0000080E0200080E0400080E0600080E0800080E0A00080E0C00080E0E000C0000000C0002000C0004000C0006000C0008000C000A000C000C000C000E000C0200000C0202000C0204000C0206000C0208000C020A000C020C000C020E000C0400000C0402000C0404000C0406000C0
310
408000C040A000C040C000C040E000C0600000C0602000C0604000C0606000C0608000C060A000C060C000C060E000C0800000C0802000C0804000C0806000C0808000C080A000C080C000C080E000C0A00000C0A02000C0A04000C0A06000C0A08000C0A0A000C0A0C000C0A0E000C0C00000C0C02000C0C04000C0C06000
310
C0C08000C0C0A000F0FBFF00A4A0A000808080000000FF0000FF000000FFFF00FF000000FF00FF00FFFF0000FFFFFF0000000000000000000000000000000000000000000000000000000000000000000000000000000000000000000000000000000000000000000000000000000000000000000000000000000000000000
310
00000000000000000000000000000000000000000000000000000000000000000000000000000000000000000000000000000000000000000000000000000000000000000000000000000000000000000000000000000000000000000000000000000000000000000000000000000000000000000000000000000000000000
310
0000000000000000000000000000000000000000000000000000000000000000000000000000000000000000000000000000000000000000000000000000000000000000000000000000000000000000000000000000000000000000000000000000000000000000000000000000000000000000000000000000000000FA00
310
000000FA000000FA00000000000000000000000000000000000000000000FA00000000FA000000FA00000000000000000000000000000000000000000000FA00000000FA000000FA00000000000000000000000000000000000000000000FA00000000FA000000FA00000000000000000000000000000000000000000000FA
310
00000000FA000000FA00000000000000000000000000000000000000000000FA00000000FA000000FA00000000000000000000000000000000000000000000FA00000000FA000000FA000000000000000000000000FAFAFAFAFAFAFAFAFAFAFAFAFAFAFAFAFAFAFAFAFAFAFAFAFAFAFAFAFAFA000000FAFA0000FA00FAFA00
310
FA00000000FAFA0000FA00FAFAFAFA00FAFA0000000000FA00FA0000FA000000FA00000000FA000000FA000000FA00FAFA00FA00000000FAFAFAFAFAFA000000FA00000000FA000000FA000000FAFA00FA00FA00000000FAFAFAFAFAFA0000000000000000000000000000000000FA00FAFAFA000000000000000000000000
310
00000000000000000000000000000000000000000000000000000000000000000000000000000000000000000000000000000000000000000000000000000000000000000000000000000000000000000000000000000000000000000000000000000000000000000000000000000000000000000000000000000000000000
310
00000000000000000000000000000000000000000000000000000000000000000000000000000000000000000000000000000000000000000000000000000000000000000000000000000000000000000000000000000000000000000000000000000000000000000000000000000000000000000000000000000000000000
310
0000000000000000000000000000000000000000000000000000000000000000000000000000000000000000000000000000000000000000
102
{BLKREFS
331
374
102
}
  0
BLOCK_RECORD
  5
442
330
1
100
AcDbSymbolTableRecord
100
AcDbBlockTableRecord
  2
*D7
340
0
  0
BLOCK_RECORD
  5
44E
330
1
100
AcDbSymbolTableRecord
100
AcDbBlockTableRecord
  2
*D8
340
0
  0
BLOCK_RECORD
  5
45A
330
1
100
AcDbSymbolTableRecord
100
AcDbBlockTableRecord
  2
*D9
340
0
  0
BLOCK_RECORD
  5
466
330
1
100
AcDbSymbolTableRecord
100
AcDbBlockTableRecord
  2
*D10
340
0
  0
ENDTAB
  0
ENDSEC
  0
SECTION
  2
BLOCKS
  0
BLOCK
  5
5
330
2
100
AcDbEntity
  8
0
100
AcDbBlockBegin
  2
*MODEL_SPACE
 70
     0
 10
0.0
 20
0.0
 30
0.0
  3
*MODEL_SPACE
  1

  0
ENDBLK
  5
8
330
2
100
AcDbEntity
  8
0
100
AcDbBlockEnd
  0
BLOCK
  5
C
330
9
100
AcDbEntity
 67
     1
  8
0
100
AcDbBlockBegin
  2
*PAPER_SPACE
 70
     0
 10
0.0
 20
0.0
 30
0.0
  3
*PAPER_SPACE
  1

  0
ENDBLK
  5
D
330
9
100
AcDbEntity
 67
     1
  8
0
100
AcDbBlockEnd
  0
BLOCK
  5
B3
330
AF
100
AcDbEntity
  8
0
100
AcDbBlockBegin
  2
_OPEN30
 70
     0
 10
0.0
 20
0.0
 30
0.0
  3
_OPEN30
  1

  0
LINE
  5
B0
330
AF
100
AcDbEntity
  8
0
  6
ByBlock
 62
     0
100
AcDbLine
 10
-1.0
 20
0.26794919
 30
0.0
 11
0.0
 21
0.0
 31
0.0
  0
LINE
  5
B1
330
AF
100
AcDbEntity
  8
0
  6
ByBlock
 62
     0
100
AcDbLine
 10
0.0
 20
0.0
 30
0.0
 11
-1.0
 21
-0.26794919
 31
0.0
  0
LINE
  5
B2
330
AF
100
AcDbEntity
  8
0
  6
ByBlock
 62
     0
100
AcDbLine
 10
0.0
 20
0.0
 30
0.0
 11
-1.0
 21
0.0
 31
0.0
  0
ENDBLK
  5
B4
330
AF
100
AcDbEntity
  8
0
100
AcDbBlockEnd
  0
BLOCK
  5
9B
330
2E
100
AcDbEntity
  8
0
100
AcDbBlockBegin
  2
42
 70
     0
 10
0.0
 20
0.0
 30
0.0
  3
42
  1

  0
LINE
  5
2F
330
2E
100
AcDbEntity
  8
GAIKEI
  6
HIDDEN2
 62
     1
100
AcDbLine
 10
486.8951677673632
 20
138.5925922166566
 30
0.0
 11
499.3447009469021
 21
104.3877808209086
 31
0.0
  0
ARC
  5
32
330
2E
100
AcDbEntity
  8
GAIKEI
  6
HIDDEN2
 62
     1
100
AcDbCircle
 10
498.874854877543
 20
104.216771198305
 30
0.0
 40
0.5
100
AcDbArc
 50
289.9999999999997
 51
19.99999999999974
  0
CIRCLE
  5
33
330
2E
100
AcDbEntity
  8
GAIKEI
  6
HIDDEN2
 62
     1
100
AcDbCircle
 10
498.7727201465073
 20
131.7957109059469
 30
0.0
 40
0.6226725000000001
  0
CIRCLE
  5
34
330
2E
100
AcDbEntity
  8
GAIKEI
  6
HIDDEN2
 62
     1
100
AcDbCircle
 10
498.7727201465073
 20
131.7957109059469
 30
0.0
 40
0.85
  0
ARC
  5
35
330
2E
100
AcDbEntity
  8
GAIKEI
  6
HIDDEN2
 62
     1
100
AcDbCircle
 10
498.7727201465073
 20
131.7957109059469
 30
0.0
 40
0.9
100
AcDbArc
 50
290.298102546675
 51
110.2981025466722
  0
ARC
  5
36
330
2E
100
AcDbEntity
  8
GAIKEI
  6
HIDDEN2
 62
     1
100
AcDbCircle
 10
483.1463600072453
 20
134.6028237612516
 30
0.0
 40
0.9999999995999999
100
AcDbArc
 50
20.0
 51
79.99999989999841
  0
ARC
  5
37
330
2E
100
AcDbEntity
  8
GAIKEI
  6
HIDDEN2
 62
     1
100
AcDbCircle
 10
481.3526871124707
 20
135.8090792753897
 30
0.0
 40
0.4999999998
100
AcDbArc
 50
200.0
 51
260.0000000000017
  0
ARC
  5
38
330
2E
100
AcDbEntity
  8
GAIKEI
  6
HIDDEN2
 62
     1
100
AcDbCircle
 10
482.3864306749868
 20
135.4427230818581
 30
0.0
 40
0.29999999988
100
AcDbArc
 50
292.0000000000037
 51
12.16954199999884
  0
ARC
  5
39
330
2E
100
AcDbEntity
  8
GAIKEI
  6
HIDDEN2
 62
     1
100
AcDbCircle
 10
482.2650803226862
 20
135.5120914053883
 30
0.0
 40
0.29999999988
100
AcDbArc
 50
292.0000000000037
 51
12.16954199999884
  0
ARC
  5
3A
330
2E
100
AcDbEntity
  8
GAIKEI
  6
HIDDEN2
 62
     1
100
AcDbCircle
 10
482.9461927957257
 20
135.2710782175048
 30
0.0
 40
0.69999999972
100
AcDbArc
 50
302.0947570000068
 51
12.16954199999884
  0
LINE
  5
3B
330
2E
100
AcDbEntity
  8
GAIKEI
  6
HIDDEN2
 62
     1
100
AcDbLine
 10
478.5629635695592
 20
139.1757892495384
 30
0.0
 11
480.275391447561
 21
134.4709323222834
 31
0.0
  0
LINE
  5
3C
330
2E
100
AcDbEntity
  8
GAIKEI
  6
HIDDEN2
 62
     1
100
AcDbLine
 10
478.4783912337221
 20
139.1450074366513
 30
0.0
 11
480.1506442856378
 21
134.5505299368985
 31
0.0
  0
LINE
  5
3D
330
2E
100
AcDbEntity
  8
GAIKEI
  6
HIDDEN2
 62
     1
100
AcDbLine
 10
479.1361760680096
 20
139.3844215368836
 30
0.0
 11
480.7704839801561
 21
134.894197451825
 31
0.0
  0
LINE
  5
3E
330
2E
100
AcDbEntity
  8
GAIKEI
  6
HIDDEN2
 62
     1
100
AcDbLine
 10
484.0860526276554
 20
134.9448439044403
 30
0.0
 11
481.0400930566452
 21
143.3135490463619
 31
0.0
  0
LINE
  5
3F
330
2E
100
AcDbEntity
  8
GAIKEI
  6
HIDDEN2
 62
     1
100
AcDbLine
 10
491.8304266767168
 20
88.86490109794612
 30
0.0
 11
471.1898465015858
 21
145.5744290535617
 31
0.0
  0
LINE
  5
40
330
2E
100
AcDbEntity
  8
GAIKEI
  6
HIDDEN2
 62
     1
100
AcDbLine
 10
496.0763983429273
 20
90.0639291769599
 30
0.0
 11
475.2131696099662
 21
147.3851790176868
 31
0.0
  0
LINE
  5
41
330
2E
100
AcDbEntity
  8
GAIKEI
  6
HIDDEN2
 62
     1
100
AcDbLine
 10
496.8683579432797
 20
101.0451578637522
 30
0.0
 11
482.4469665400723
 21
140.6676051011812
 31
0.0
  0
LINE
  5
42
330
2E
100
AcDbEntity
  8
GAIKEI
  6
HIDDEN2
 62
     1
100
AcDbLine
 10
483.5022179623674
 20
137.6447746936849
 30
0.0
 11
495.8265919045546
 21
103.7838355786106
 31
0.0
  0
LINE
  5
43
330
2E
100
AcDbEntity
  8
GAIKEI
  6
HIDDEN2
 62
     1
100
AcDbLine
 10
497.0727201465073
 20
140.3957109059469
 30
0.0
 11
497.0727201465074
 21
110.629996786081
 31
0.0
  0
LINE
  5
44
330
2E
100
AcDbEntity
  8
GAIKEI
  6
HIDDEN2
 62
     1
100
AcDbLine
 10
496.2445122887861
 20
100.4213125063948
 30
0.0
 11
483.89731179013
 21
134.3449670699312
 31
0.0
  0
LINE
  5
45
330
2E
100
AcDbEntity
  8
GAIKEI
  6
HIDDEN2
 62
     1
100
AcDbLine
 10
496.3094662528881
 20
100.069647580612
 30
0.0
 11
498.4440458884098
 21
94.20493823198878
 31
0.0
  0
LINE
  5
46
330
2E
100
AcDbEntity
  8
GAIKEI
  6
HIDDEN2
 62
     1
100
AcDbLine
 10
497.3507735516904
 20
93.72593284450548
 30
0.0
 11
495.5957718613147
 21
98.54776035991738
 31
0.0
  0
LINE
  5
47
330
2E
100
AcDbEntity
  8
GAIKEI
  6
HIDDEN2
 62
     1
100
AcDbLine
 10
498.9555087077678
 20
94.40783396989937
 30
0.0
 11
496.7316215367613
 21
100.5001509121229
 31
0.0
  0
ARC
  5
48
330
2E
100
AcDbEntity
  8
GAIKEI
  6
HIDDEN2
 62
     1
100
AcDbCircle
 10
496.8809272414856
 20
93.55492277291107
 30
0.0
 40
0.4999999998
100
AcDbArc
 50
292.9999990000082
 51
20.0
  0
LINE
  5
49
330
2E
100
AcDbEntity
  8
GAIKEI
  6
HIDDEN2
 62
     1
100
AcDbLine
 10
498.6811883556178
 20
93.7761314207831
 30
0.0
 11
495.6453290566082
 21
92.48748563527868
 31
0.0
  0
ARC
  5
4A
330
2E
100
AcDbEntity
  8
GAIKEI
  6
HIDDEN2
 62
     1
100
AcDbCircle
 10
498.4339644217732
 20
95.25596837357536
 30
0.0
 40
0.19999999992
100
AcDbArc
 50
134.9999980000101
 51
200.0
  0
ARC
  5
4B
330
2E
100
AcDbEntity
  8
GAIKEI
  6
HIDDEN2
 62
     1
100
AcDbCircle
 10
498.1124646229074
 20
94.09261873202323
 30
0.0
 40
0.4999999998
100
AcDbArc
 50
293.0000010000031
 51
20.0
  0
ARC
  5
4C
330
2E
100
AcDbEntity
  8
GAIKEI
  6
HIDDEN2
 62
     1
100
AcDbCircle
 10
498.4858227955458
 20
94.23638384928043
 30
0.0
 40
0.5
100
AcDbArc
 50
292.9999994805756
 51
20.0536712749415
  0
ARC
  5
4D
330
2E
100
AcDbEntity
  8
GAIKEI
  6
HIDDEN2
 62
     1
100
AcDbCircle
 10
497.9741995782046
 20
94.03392816039415
 30
0.0
 40
0.4999999998
100
AcDbArc
 50
293.0000000000056
 51
20.0
  0
LINE
  5
4E
330
2E
100
AcDbEntity
  8
GAIKEI
  6
HIDDEN2
 62
     1
100
AcDbLine
 10
498.2460258976912
 20
95.18756434493765
 30
0.0
 11
498.581414840337
 21
94.26609079828343
 31
0.0
  0
LINE
  5
4F
330
2E
100
AcDbEntity
  8
GAIKEI
  6
HIDDEN2
 62
     1
100
AcDbLine
 10
498.2925433279993
 20
95.39738994153594
 30
0.0
 11
498.4244354234109
 21
95.52928121172717
 31
0.0
  0
ARC
  5
50
330
2E
100
AcDbEntity
  8
GAIKEI
  6
HIDDEN2
 62
     1
100
AcDbCircle
 10
498.2830135465596
 20
95.67070249467091
 30
0.0
 40
0.19999999992
100
AcDbArc
 50
314.9999990000019
 51
20.0
  0
ARC
  5
51
330
2E
100
AcDbEntity
  8
GAIKEI
  6
HIDDEN2
 62
     1
100
AcDbCircle
 10
495.8406942510493
 20
92.02723282661549
 30
0.0
 40
0.4999999998
100
AcDbArc
 50
112.9999997999931
 51
174.1580710000059
  0
ARC
  5
52
330
2E
100
AcDbEntity
  8
GAIKEI
  6
HIDDEN2
 62
     1
100
AcDbCircle
 10
495.7746659785806
 20
100.2503024348003
 30
0.0
 40
0.4999999998
100
AcDbArc
 50
314.9999999999942
 51
20.0
  0
ARC
  5
53
330
2E
100
AcDbEntity
  8
GAIKEI
  6
HIDDEN2
 62
     1
100
AcDbCircle
 10
496.3985116328869
 20
100.8741477920894
 30
0.0
 40
0.5
100
AcDbArc
 50
315.0000037197303
 51
20.0
  0
LINE
  5
54
330
2E
100
AcDbEntity
  8
GAIKEI
  6
HIDDEN2
 62
     1
100
AcDbLine
 10
496.7520650464331
 20
100.5205944244492
 30
0.0
 11
495.8283577317185
 21
99.59688698979766
 31
0.0
  0
ARC
  5
55
330
2E
100
AcDbEntity
  8
GAIKEI
  6
HIDDEN2
 62
     1
100
AcDbCircle
 10
496.5354644817247
 20
98.88978050310621
 30
0.0
 40
0.9999999995999999
100
AcDbArc
 50
134.9999999999942
 51
200.0
  0
LINE
  5
56
330
2E
100
AcDbEntity
  8
GAIKEI
  6
HIDDEN2
 62
     1
100
AcDbLine
 10
496.4147254201164
 20
102.7892683616773
 30
0.0
 11
499.0458646295561
 21
103.746924645983
 31
0.0
  0
POINT
  5
57
330
2E
100
AcDbEntity
  8
GAIKEI
  6
HIDDEN2
 62
     1
100
AcDbPoint
 10
496.2267867991876
 20
102.7208644608721
 30
0.0
  0
ARC
  5
58
330
2E
100
AcDbEntity
  8
GAIKEI
  6
HIDDEN2
 62
     1
100
AcDbCircle
 10
496.3463215193112
 20
102.9772069826061
 30
0.0
 40
0.2
100
AcDbArc
 50
199.9999999999997
 51
289.9999999999997
  0
ARC
  5
59
330
2E
100
AcDbEntity
  8
GAIKEI
 62
     1
100
AcDbCircle
 10
492.8642790321588
 20
111.7765330848718
 30
0.0
 40
0.05
100
AcDbArc
 50
20.00000000000019
 51
110.0000001999989
  0
LINE
  5
5A
330
2E
100
AcDbEntity
  8
GAIKEI
  6
HIDDEN2
 62
     1
100
AcDbLine
 10
481.2658629546208
 20
135.3166755887972
 30
0.0
 11
483.1312674854197
 21
134.987754299927
 31
0.0
  0
LINE
  5
5B
330
2E
100
AcDbEntity
  8
GAIKEI
  6
HIDDEN2
 62
     1
100
AcDbLine
 10
483.3181179726789
 20
134.6780590198028
 30
0.0
 11
480.7015221644498
 21
133.0370054039859
 31
0.0
  0
ARC
  5
5C
330
2E
100
AcDbEntity
  8
GAIKEI
  6
HIDDEN2
 62
     1
100
AcDbCircle
 10
480.432552071761
 20
134.6531359798553
 30
0.0
 40
0.29999999988
100
AcDbArc
 50
200.0
 51
292.0000000000037
  0
LINE
  5
5D
330
2E
100
AcDbEntity
  8
GAIKEI
  6
HIDDEN2
 62
     1
100
AcDbLine
 10
480.4068214449408
 20
134.4124158894956
 30
0.0
 11
481.0706183107951
 21
134.6806066719005
 31
0.0
  0
ARC
  5
5E
330
2E
100
AcDbEntity
  8
GAIKEI
  6
HIDDEN2
 62
     1
100
AcDbCircle
 10
480.3693607096021
 20
134.5051343366022
 30
0.0
 40
0.09999999996
100
AcDbArc
 50
200.0
 51
292.0000000000037
  0
LINE
  5
5F
330
2E
100
AcDbEntity
  8
GAIKEI
  6
HIDDEN2
 62
     1
100
AcDbLine
 10
480.5449342777773
 20
134.3749806385347
 30
0.0
 11
482.4988711626213
 21
135.164422232128
 31
0.0
  0
LINE
  5
60
330
2E
100
AcDbEntity
  8
GAIKEI
  6
HIDDEN2
 62
     1
100
AcDbLine
 10
481.0480884565999
 20
134.6968346763484
 30
0.0
 11
482.3774622436854
 21
135.233936847145
 31
0.0
  0
ARC
  5
61
330
2E
100
AcDbEntity
  8
GAIKEI
  6
HIDDEN2
 62
     1
100
AcDbCircle
 10
481.052391766279
 20
134.9968034947817
 30
0.0
 40
0.29999999988
100
AcDbArc
 50
200.0
 51
272.2145040000034
  0
LINE
  5
62
330
2E
100
AcDbEntity
  8
GAIKEI
  6
HIDDEN2
 62
     1
100
AcDbLine
 10
481.0706183107951
 20
134.6806066719005
 30
0.0
 11
481.0639842940673
 21
134.6970280338434
 31
0.0
  0
LINE
  5
63
330
2E
100
AcDbEntity
  8
GAIKEI
  6
HIDDEN2
 62
     1
100
AcDbLine
 10
480.4665990093472
 20
132.9515003681887
 30
0.0
 11
480.7015221644498
 21
133.0370054039859
 31
0.0
  0
LINE
  5
64
330
2E
100
AcDbEntity
  8
GAIKEI
  6
HIDDEN2
 62
     1
100
AcDbLine
 10
484.0860526276554
 20
134.9448439044403
 30
0.0
 11
483.89731179013
 21
134.3449670699312
 31
0.0
  0
ARC
  5
65
330
2E
100
AcDbEntity
  8
GAIKEI
  6
HIDDEN2
 62
     1
100
AcDbCircle
 10
482.9576191697198
 20
134.0029469267423
 30
0.0
 40
0.9999999995999999
100
AcDbArc
 50
20.0
 51
79.99999989999841
  0
ARC
  5
66
330
2E
100
AcDbEntity
  8
GAIKEI
  6
HIDDEN2
 62
     1
100
AcDbCircle
 10
487.0157345812899
 20
127.8452769003108
 30
0.0
 40
0.05
100
AcDbArc
 50
289.9999999999998
 51
20.00000000000019
  0
CIRCLE
  5
67
330
2E
100
AcDbEntity
  8
GAIKEI
  6
HIDDEN2
 62
     1
100
AcDbCircle
 10
489.6406558458168
 20
128.4180015496366
 30
0.0
 40
0.85
  0
ARC
  5
68
330
2E
100
AcDbEntity
  8
GAIKEI
  6
HIDDEN2
 62
     1
100
AcDbCircle
 10
489.6406558458168
 20
128.4180015496366
 30
0.0
 40
0.9
100
AcDbArc
 50
110.2981025466734
 51
290.298102546675
  0
LINE
  5
69
330
2E
100
AcDbEntity
  8
GAIKEI
  6
HIDDEN2
 62
     1
100
AcDbLine
 10
489.9528699781625
 20
127.5738911684876
 30
0.0
 11
499.0849342788531
 21
130.9516005247979
 31
0.0
  0
LINE
  5
6A
330
2E
100
AcDbEntity
  8
GAIKEI
  6
HIDDEN2
 62
     1
100
AcDbLine
 10
489.3284417134711
 20
129.2621119307856
 30
0.0
 11
498.4605060141617
 21
132.6398212870959
 31
0.0
  0
CIRCLE
  5
6B
330
2E
100
AcDbEntity
  8
GAIKEI
  6
HIDDEN2
 62
     1
100
AcDbCircle
 10
489.6406558458168
 20
128.4180015496366
 30
0.0
 40
0.6226725000000001
  0
ARC
  5
6C
330
2E
100
AcDbEntity
  8
GAIKEI
  6
HIDDEN2
 62
     1
100
AcDbCircle
 10
476.6669534762062
 20
144.2973200361145
 30
0.0
 40
0.9999999995999999
100
AcDbArc
 50
20.0
 51
98.00000360000012
  0
LINE
  5
6D
330
2E
100
AcDbEntity
  8
GAIKEI
  6
HIDDEN2
 62
     1
100
AcDbLine
 10
478.5629635695592
 20
139.1757892495384
 30
0.0
 11
476.8505356915571
 21
143.8806461767934
 31
0.0
  0
LINE
  5
6E
330
2E
100
AcDbEntity
  8
GAIKEI
  6
HIDDEN2
 62
     1
100
AcDbLine
 10
478.4783912337221
 20
139.1450074366513
 30
0.0
 11
476.8061381818061
 21
143.7394849364039
 31
0.0
  0
LINE
  5
6F
330
2E
100
AcDbEntity
  8
GAIKEI
  6
HIDDEN2
 62
     1
100
AcDbLine
 10
476.9136035577666
 20
144.0099531557414
 30
0.0
 11
477.5944911701762
 21
144.2311874979042
 31
0.0
  0
LINE
  5
70
330
2E
100
AcDbEntity
  8
GAIKEI
  6
HIDDEN2
 62
     1
100
AcDbLine
 10
476.9953412104018
 20
144.1274074394024
 30
0.0
 11
478.9995869781742
 21
144.7786265131508
 31
0.0
  0
LINE
  5
71
330
2E
100
AcDbEntity
  8
GAIKEI
  6
HIDDEN2
 62
     1
100
AcDbLine
 10
479.4030167300141
 20
145.6916771380179
 30
0.0
 11
476.3537829147406
 21
145.2631351752365
 31
0.0
  0
LINE
  5
72
330
2E
100
AcDbEntity
  8
GAIKEI
  6
HIDDEN2
 62
     1
100
AcDbLine
 10
475.2131696099662
 20
147.3851790176868
 30
0.0
 11
471.2447430523639
 21
145.7006812167704
 31
0.0
  0
ARC
  5
73
330
2E
100
AcDbEntity
  8
GAIKEI
  6
HIDDEN2
 62
     1
100
AcDbCircle
 10
471.2838157636267
 20
145.6086310678806
 30
0.0
 40
0.09999999996
100
AcDbArc
 50
112.9999997999931
 51
200.0
  0
ARC
  5
74
330
2E
100
AcDbEntity
  8
GAIKEI
  6
HIDDEN2
 62
     1
100
AcDbCircle
 10
476.2841965126761
 20
145.7582687664112
 30
0.0
 40
0.4999999998
100
AcDbArc
 50
225.8419330000041
 51
277.999999999997
  0
ARC
  5
75
330
2E
100
AcDbEntity
  8
GAIKEI
  6
HIDDEN2
 62
     1
100
AcDbCircle
 10
476.9445049535981
 20
143.9148481911121
 30
0.0
 40
0.09999999996
100
AcDbArc
 50
107.9999999000011
 51
200.0
  0
ARC
  5
76
330
2E
100
AcDbEntity
  8
GAIKEI
  6
HIDDEN2
 62
     1
100
AcDbCircle
 10
477.0880459679296
 20
143.8420909793607
 30
0.0
 40
0.29999999988
100
AcDbArc
 50
107.9999999000011
 51
200.0
  0
LINE
  5
77
330
2E
100
AcDbEntity
  8
GAIKEI
  6
HIDDEN2
 62
     1
100
AcDbLine
 10
481.2059144392498
 20
140.9094012828027
 30
0.0
 11
479.3092700189466
 21
144.5020754479959
 31
0.0
  0
LINE
  5
78
330
2E
100
AcDbEntity
  8
GAIKEI
  6
HIDDEN2
 62
     1
100
AcDbLine
 10
482.4469665400723
 20
140.6676051011812
 30
0.0
 11
479.9140765148508
 21
145.4312784144757
 31
0.0
  0
LINE
  5
79
330
2E
100
AcDbEntity
  8
GAIKEI
  6
HIDDEN2
 62
     1
100
AcDbLine
 10
481.2978848295185
 20
140.9579542795094
 30
0.0
 11
479.3576406831271
 21
144.6332171696547
 31
0.0
  0
LINE
  5
7A
330
2E
100
AcDbEntity
  8
GAIKEI
  6
HIDDEN2
 62
     1
100
AcDbLine
 10
479.1361760680096
 20
139.3844215368836
 30
0.0
 11
477.5018684408798
 21
143.8746448388652
 31
0.0
  0
LINE
  5
7B
330
2E
100
AcDbEntity
  8
GAIKEI
  6
HIDDEN2
 62
     1
100
AcDbLine
 10
480.8828408022655
 20
135.6380692037953
 30
0.0
 11
477.6066460966164
 21
144.6393401793034
 31
0.0
  0
LINE
  5
7C
330
2E
100
AcDbEntity
  8
GAIKEI
  6
HIDDEN2
 62
     1
100
AcDbLine
 10
482.4251002394441
 20
140.5814920380445
 30
0.0
 11
482.5806099581493
 21
140.1542325973962
 31
0.0
  0
LINE
  5
7D
330
2E
100
AcDbEntity
  8
GAIKEI
  6
HIDDEN2
 62
     1
100
AcDbLine
 10
481.0196084515246
 20
135.9932542754923
 30
0.0
 11
483.3200080379284
 21
135.5876319175137
 31
0.0
  0
LINE
  5
7E
330
2E
100
AcDbEntity
  8
GAIKEI
  6
HIDDEN2
 62
     1
100
AcDbLine
 10
481.8035886878178
 20
139.5685443479007
 30
0.0
 11
482.6796888893066
 21
135.5059647368367
 31
0.0
  0
LINE
  5
7F
330
2E
100
AcDbEntity
  8
GAIKEI
  6
HIDDEN2
 62
     1
100
AcDbLine
 10
481.7019260167247
 20
139.5466206739023
 30
0.0
 11
482.5583385370061
 21
135.575333060367
 31
0.0
  0
ARC
  5
80
330
2E
100
AcDbEntity
  8
GAIKEI
  6
HIDDEN2
 62
     1
100
AcDbCircle
 10
479.7615320969198
 20
139.1281721678298
 30
0.0
 40
1.984999999205999
100
AcDbArc
 50
12.16954199999884
 51
20.0
  0
ARC
  5
81
330
2E
100
AcDbEntity
  8
GAIKEI
  6
HIDDEN2
 62
     1
100
AcDbCircle
 10
479.7615320969198
 20
139.1281721678298
 30
0.0
 40
2.088999999164399
100
AcDbArc
 50
12.16954199999884
 51
20.0
  0
LINE
  5
82
330
2E
100
AcDbEntity
  8
GAIKEI
  6
HIDDEN2
 62
     1
100
AcDbLine
 10
481.5690402622509
 20
140.2699116875995
 30
0.0
 11
481.7245499809559
 21
139.8426522469512
 31
0.0
  0
LINE
  5
83
330
2E
100
AcDbEntity
  8
GAIKEI
  6
HIDDEN2
 62
     1
100
AcDbLine
 10
481.4713122297283
 20
140.2343415927079
 30
0.0
 11
481.6268219484332
 21
139.8070821520596
 31
0.0
  0
LINE
  5
84
330
2E
100
AcDbEntity
  8
GAIKEI
  6
HIDDEN2
 62
     1
100
AcDbLine
 10
481.5690402622509
 20
140.2699116875995
 30
0.0
 11
481.4135308285623
 21
140.6971703451703
 31
0.0
  0
LINE
  5
85
330
2E
100
AcDbEntity
  8
GAIKEI
  6
HIDDEN2
 62
     1
100
AcDbLine
 10
481.4713122297283
 20
140.2343415927079
 30
0.0
 11
481.3158027960398
 21
140.6616002502787
 31
0.0
  0
ARC
  5
86
330
2E
100
AcDbEntity
  8
GAIKEI
  6
HIDDEN2
 62
     1
100
AcDbCircle
 10
479.4505129445264
 20
139.9826902660489
 30
0.0
 40
1.984999999205999
100
AcDbArc
 50
20.0
 51
27.83045730999701
  0
ARC
  5
87
330
2E
100
AcDbEntity
  8
GAIKEI
  6
HIDDEN2
 62
     1
100
AcDbCircle
 10
479.4505129445264
 20
139.9826902660489
 30
0.0
 40
2.088999999164399
100
AcDbArc
 50
20.0
 51
27.83045730999701
  0
LINE
  5
88
330
2E
100
AcDbEntity
  8
GAIKEI
  6
HIDDEN2
 62
     1
100
AcDbLine
 10
482.4251002394441
 20
140.5814920380445
 30
0.0
 11
482.2695908057558
 21
141.0087506956153
 31
0.0
  0
ARC
  5
89
330
2E
100
AcDbEntity
  8
GAIKEI
  6
HIDDEN2
 62
     1
100
AcDbCircle
 10
481.1064326093748
 20
136.4856579620849
 30
0.0
 40
0.4999999998
100
AcDbArc
 50
200.0
 51
260.0000000000017
  0
ARC
  5
8A
330
2E
100
AcDbEntity
  8
GAIKEI
  6
HIDDEN2
 62
     1
100
AcDbCircle
 10
479.7615320969198
 20
139.1281721678298
 30
0.0
 40
2.999999998799999
100
AcDbArc
 50
12.16954199999884
 51
20.0
  0
LINE
  5
8B
330
2E
100
AcDbEntity
  8
GAIKEI
  6
HIDDEN2
 62
     1
100
AcDbLine
 10
482.6941163763063
 20
139.7605877214931
 30
0.0
 11
483.0440873281863
 21
138.137732172255
 31
0.0
  0
LINE
  5
8C
330
2E
100
AcDbEntity
  8
GAIKEI
  6
HIDDEN2
 62
     1
100
AcDbLine
 10
483.5908928924011
 20
135.6021310666491
 30
0.0
 11
483.6304630305656
 21
135.4186415810605
 31
0.0
  0
LINE
  5
8D
330
2E
100
AcDbEntity
  8
GAIKEI
  6
HIDDEN2
 62
     1
100
AcDbLine
 10
483.0440873281863
 20
138.137732172255
 30
0.0
 11
483.5908928924011
 21
135.6021310666491
 31
0.0
  0
ARC
  5
8E
330
2E
100
AcDbEntity
  8
GAIKEI
  6
HIDDEN2
 62
     1
100
AcDbCircle
 10
486.4253216980041
 20
138.4215825940531
 30
0.0
 40
0.5
100
AcDbArc
 50
19.99999999999974
 51
109.9999999999997
  0
ARC
  5
8F
330
2E
100
AcDbEntity
  8
GAIKEI
  6
HIDDEN2
 62
     1
100
AcDbCircle
 10
483.6915762838031
 20
137.7458336287681
 30
0.0
 40
0.2
100
AcDbArc
 50
109.9999999999997
 51
199.9999999999997
  0
LINE
  5
90
330
2E
100
AcDbEntity
  8
GAIKEI
  6
HIDDEN2
 62
     1
100
AcDbLine
 10
483.6231723829979
 20
137.9337722496969
 30
0.0
 11
486.2543115924376
 21
138.8914285340027
 31
0.0
  0
ARC
  5
91
330
2E
100
AcDbEntity
  8
GAIKEI
  6
HIDDEN2
 62
     1
100
AcDbCircle
 10
479.472603417096
 20
145.1965427637661
 30
0.0
 40
0.4999999998
100
AcDbArc
 50
27.99999999000251
 51
98.00000020000247
  0
ARC
  5
92
330
2E
100
AcDbEntity
  8
GAIKEI
  6
HIDDEN2
 62
     1
100
AcDbCircle
 10
479.0923409054122
 20
144.4931603414208
 30
0.0
 40
0.29999999988
100
AcDbArc
 50
27.83045730999701
 51
107.9999999000011
  0
ARC
  5
93
330
2E
100
AcDbEntity
  8
GAIKEI
  6
HIDDEN2
 62
     1
100
AcDbCircle
 10
479.0439702412318
 20
144.362018619762
 30
0.0
 40
0.29999999988
100
AcDbArc
 50
27.83045730999701
 51
107.9999999000011
  0
ARC
  5
94
330
2E
100
AcDbEntity
  8
GAIKEI
  6
HIDDEN2
 62
     1
100
AcDbCircle
 10
477.7837762270027
 20
143.9772508818218
 30
0.0
 40
0.29999999988
100
AcDbArc
 50
127.7854969999999
 51
200.0
  0
LINE
  5
95
330
2E
100
AcDbEntity
  8
GAIKEI
  6
HIDDEN2
 62
     1
100
AcDbLine
 10
477.5944911701762
 20
144.2311874979042
 30
0.0
 11
477.5999643815006
 21
144.2143445241615
 31
0.0
  0
LINE
  5
96
330
2E
100
AcDbEntity
  8
GAIKEI
  6
HIDDEN2
 62
     1
100
AcDbLine
 10
477.5876634607548
 20
144.2042742141493
 30
0.0
 11
478.9512651986866
 21
144.6473358628809
 31
0.0
  0
ARC
  5
97
330
2E
100
AcDbEntity
  8
GAIKEI
  6
HIDDEN2
 62
     1
100
AcDbCircle
 10
497.5727201465073
 20
140.3957109059469
 30
0.0
 40
0.5
100
AcDbArc
 50
90.0
 51
180.0
  0
LINE
  5
98
330
2E
100
AcDbEntity
  8
GAIKEI
  6
HIDDEN2
 62
     1
100
AcDbLine
 10
496.0763983429273
 20
90.0639291769599
 30
0.0
 11
491.9536332005936
 21
88.80347315254361
 31
0.0
  0
LINE
  5
99
330
2E
100
AcDbEntity
  8
GAIKEI
  6
HIDDEN2
 62
     1
100
AcDbLine
 10
491.8822669615455
 20
88.80841144326193
 30
0.0
 11
491.8612027579563
 21
88.76306482568304
 31
0.0
  0
ARC
  5
9A
330
2E
100
AcDbEntity
  8
GAIKEI
  6
HIDDEN2
 62
     1
100
AcDbCircle
 10
491.9243959387578
 20
88.89910311226499
 30
0.0
 40
0.09999999996
100
AcDbArc
 50
200.0
 51
286.9999999999944
  0
ENDBLK
  5
9C
330
2E
100
AcDbEntity
  8
0
100
AcDbBlockEnd
  0
BLOCK
  5
38C
330
375
100
AcDbEntity
  8
0
100
AcDbBlockBegin
  2
SUNPO
 70
     0
 10
0.0
 20
0.0
 30
0.0
  3
SUNPO
  1

  0
LINE
  5
376
330
375
100
AcDbEntity
  8
SUNPO
  6
Continuous
100
AcDbLine
 10
232.85223538754
 20
350.3373963567266
 30
0.0
 11
233.070180334717
 21
350.3373963567266
 31
0.0
  0
LINE
  5
377
330
375
100
AcDbEntity
  8
SUNPO
  6
Continuous
100
AcDbLine
 10
232.7227230607743
 20
350.0373963567266
 30
0.0
 11
233.1996926614827
 21
350.0373963567266
 31
0.0
  0
LINE
  5
378
330
375
100
AcDbEntity
  8
SUNPO
  6
Continuous
100
AcDbLine
 10
232.7447015101824
 20
349.9873963567267
 30
0.0
 11
233.1777142120747
 21
349.9873963567266
 31
0.0
  0
LINE
  5
379
330
375
100
AcDbEntity
  8
SUNPO
  6
Continuous
100
AcDbLine
 10
232.7826721504149
 20
349.9373963567267
 30
0.0
 11
233.1397435718421
 21
349.9373963567267
 31
0.0
  0
LINE
  5
37A
330
375
100
AcDbEntity
  8
SUNPO
  6
Continuous
100
AcDbLine
 10
232.8522353875399
 20
349.8873963567266
 30
0.0
 11
233.0701803347171
 21
349.8873963567266
 31
0.0
  0
LINE
  5
37B
330
375
100
AcDbEntity
  8
SUNPO
  6
Continuous
100
AcDbLine
 10
232.7227230607743
 20
350.1873963567266
 30
0.0
 11
233.1996926614827
 21
350.1873963567266
 31
0.0
  0
LINE
  5
37C
330
375
100
AcDbEntity
  8
SUNPO
  6
Continuous
100
AcDbLine
 10
232.7447015101824
 20
350.2373963567266
 30
0.0
 11
233.1777142120746
 21
350.2373963567266
 31
0.0
  0
LINE
  5
37D
330
375
100
AcDbEntity
  8
SUNPO
  6
Continuous
100
AcDbLine
 10
232.782672150415
 20
350.2873963567266
 30
0.0
 11
233.1397435718421
 21
350.2873963567266
 31
0.0
  0
CIRCLE
  5
37E
330
375
100
AcDbEntity
  8
SUNPO
  6
Continuous
100
AcDbCircle
 10
232.9612078611285
 20
350.1123963567266
 30
0.0
 40
0.25
  0
LINE
  5
37F
330
375
100
AcDbEntity
  8
SUNPO
  6
Continuous
100
AcDbLine
 10
232.7124610018519
 20
350.0873963567266
 30
0.0
 11
233.2099547204052
 21
350.0873963567266
 31
0.0
  0
LINE
  5
380
330
375
100
AcDbEntity
  8
SUNPO
  6
Continuous
100
AcDbLine
 10
232.7124610018519
 20
350.1373963567266
 30
0.0
 11
233.2099547204052
 21
350.1373963567266
 31
0.0
  0
LINE
  5
381
330
375
100
AcDbEntity
  8
SUNPO
100
AcDbLine
 10
232.9612078611285
 20
350.1123963567266
 30
0.0
 11
228.5362078611292
 21
350.1123963567266
 31
0.0
  0
MTEXT
  5
382
330
375
100
AcDbEntity
  8
SUNPO
100
AcDbMText
 10
223.6454073795193
 20
351.8623963567266
 30
0.0
 40
2.5
 41
0.0
 71
     5
 72
     1
  1
\A1;89
 73
     1
 44
1.0
1001
ACAD
1000
MTEXTBEGIN
1070
    73
1070
     1
1070
    44
1040
1.0
1070
    74
1070
     0
1000
MTEXTEND
  0
LINE
  5
383
330
375
100
AcDbEntity
  8
SUNPO
100
AcDbLine
 10
228.5362078611292
 20
344.1123963567266
 30
0.0
 11
228.5362078611292
 21
352.1123963567266
 31
0.0
  0
LINE
  5
384
330
375
100
AcDbEntity
  8
SUNPO
100
AcDbLine
 10
226.5362078611292
 20
350.1123963567266
 30
0.0
 11
221.1686424060193
 21
350.1123963567266
 31
0.0
  0
INSERT
  5
385
330
375
100
AcDbEntity
  8
SUNPO
100
AcDbBlockReference
  2
_OPEN30
 10
228.5362078611292
 20
350.1123963567266
 30
0.0
 41
2.0
 42
2.0
 43
2.0
  0
MTEXT
  5
386
330
375
100
AcDbEntity
  8
SUNPO
100
AcDbMText
 10
240.9032971772917
 20
351.8623963567266
 30
0.0
 40
2.5
 41
0.0
 71
     5
 72
     1
  1
\A1;60
 73
     1
 44
1.0
1001
ACAD
1000
MTEXTBEGIN
1070
    73
1070
     1
1070
    44
1040
1.0
1070
    74
1070
     0
1000
MTEXTEND
  0
LINE
  5
387
330
375
100
AcDbEntity
  8
SUNPO
100
AcDbLine
 10
235.9612078611278
 20
344.1123963567266
 30
0.0
 11
235.9612078611278
 21
352.1123963567266
 31
0.0
  0
LINE
  5
388
330
375
100
AcDbEntity
  8
SUNPO
100
AcDbLine
 10
232.9612078611285
 20
344.1123963567266
 30
0.0
 11
232.9612078611285
 21
352.1123963567266
 31
0.0
  0
LINE
  5
389
330
375
100
AcDbEntity
  8
SUNPO
100
AcDbLine
 10
237.9612078611278
 20
350.1123963567266
 30
0.0
 11
243.5386681734423
 21
350.1123963567266
 31
0.0
  0
INSERT
  5
38A
330
375
100
AcDbEntity
  8
SUNPO
100
AcDbBlockReference
  2
_OPEN30
 10
235.9612078611278
 20
350.1123963567266
 30
0.0
 41
2.0
 42
2.0
 43
2.0
 50
180.0
  0
LINE
  5
38B
330
375
100
AcDbEntity
  8
SUNPO
100
AcDbLine
 10
232.9612078611285
 20
350.1123963567266
 30
0.0
 11
235.9612078611278
 21
350.1123963567266
 31
0.0
  0
ENDBLK
  5
38D
330
375
100
AcDbEntity
  8
0
100
AcDbBlockEnd
  0
BLOCK
  5
44C
330
442
100
AcDbEntity
  8
0
370
     0
100
AcDbBlockBegin
  2
*D7
 70
     1
 10
0.0
 20
0.0
 30
0.0
  3
*D7
  1

  0
LINE
  5
443
330
442
100
AcDbEntity
  8
SUNPO
 62
     0
370
    -2
100
AcDbLine
 10
148.7707939541901
 20
217.9110583938023
 30
0.0
 11
148.7707939541901
 21
225.9110583938023
 31
0.0
  0
LINE
  5
444
330
442
100
AcDbEntity
  8
SUNPO
 62
     0
370
    -2
100
AcDbLine
 10
198.8707939541901
 20
217.9110583938023
 30
0.0
 11
198.8707939541901
 21
225.9110583938023
 31
0.0
  0
LINE
  5
445
330
442
100
AcDbEntity
  8
SUNPO
 62
     0
370
    -2
100
AcDbLine
 10
150.7707939541901
 20
223.9110583938023
 30
0.0
 11
196.8707939541901
 21
223.9110583938023
 31
0.0
  0
INSERT
  5
446
330
442
100
AcDbEntity
  8
SUNPO
 62
     0
370
    -2
100
AcDbBlockReference
  2
_OPEN30
 10
148.7707939541901
 20
223.9110583938023
 30
0.0
 41
2.0
 42
2.0
 43
2.0
 50
180.0
  0
INSERT
  5
447
330
442
100
AcDbEntity
  8
SUNPO
 62
     0
370
    -2
100
AcDbBlockReference
  2
_OPEN30
 10
198.8707939541901
 20
223.9110583938023
 30
0.0
 41
2.0
 42
2.0
 43
2.0
  0
MTEXT
  5
448
330
442
100
AcDbEntity
  8
SUNPO
 62
     0
100
AcDbMText
 10
173.8207939541901
 20
225.6610583938023
 30
0.0
 40
2.5
 41
0.0
 71
     5
 72
     1
  1
\A1;1020
 73
     1
 44
1.0
1001
ACAD
1000
MTEXTBEGIN
1070
    73
1070
     1
1070
    44
1040
1.0
1070
    74
1070
     0
1000
MTEXTEND
  0
POINT
  5
449
330
442
100
AcDbEntity
  8
DEFPOINTS
 62
     0
370
     0
100
AcDbPoint
 10
148.7707939541901
 20
215.9110583938023
 30
0.0
  0
POINT
  5
44A
330
442
100
AcDbEntity
  8
DEFPOINTS
 62
     0
370
     0
100
AcDbPoint
 10
198.8707939541901
 20
215.9110583938023
 30
0.0
  0
POINT
  5
44B
330
442
100
AcDbEntity
  8
DEFPOINTS
 62
     0
370
     0
100
AcDbPoint
 10
198.8707939541901
 20
223.9110583938023
 30
0.0
  0
ENDBLK
  5
44D
330
442
100
AcDbEntity
  8
0
370
     0
100
AcDbBlockEnd
  0
BLOCK
  5
458
330
44E
100
AcDbEntity
  8
0
370
     0
100
AcDbBlockBegin
  2
*D8
 70
     1
 10
0.0
 20
0.0
 30
0.0
  3
*D8
  1

  0
LINE
  5
44F
330
44E
100
AcDbEntity
  8
SUNPO
 62
     0
370
    -2
100
AcDbLine
 10
154.4457939541901
 20
183.4427877750247
 30
0.0
 11
154.4457939541901
 21
175.4427877750246
 31
0.0
  0
LINE
  5
450
330
44E
100
AcDbEntity
  8
SUNPO
 62
     0
370
    -2
100
AcDbLine
 10
193.1957939541901
 20
183.4427877750247
 30
0.0
 11
193.1957939541901
 21
175.4427877750246
 31
0.0
  0
LINE
  5
451
330
44E
100
AcDbEntity
  8
SUNPO
 62
     0
370
    -2
100
AcDbLine
 10
156.4457939541901
 20
177.4427877750246
 30
0.0
 11
191.1957939541901
 21
177.4427877750246
 31
0.0
  0
INSERT
  5
452
330
44E
100
AcDbEntity
  8
SUNPO
 62
     0
370
    -2
100
AcDbBlockReference
  2
_OPEN30
 10
154.4457939541901
 20
177.4427877750246
 30
0.0
 41
2.0
 42
2.0
 43
2.0
 50
180.0
  0
INSERT
  5
453
330
44E
100
AcDbEntity
  8
SUNPO
 62
     0
370
    -2
100
AcDbBlockReference
  2
_OPEN30
 10
193.1957939541901
 20
177.4427877750246
 30
0.0
 41
2.0
 42
2.0
 43
2.0
  0
MTEXT
  5
454
330
44E
100
AcDbEntity
  8
SUNPO
 62
     0
100
AcDbMText
 10
173.8207939541901
 20
179.1927877750246
 30
0.0
 40
2.5
 41
0.0
 71
     5
 72
     1
  1
\A1;775
 73
     1
 44
1.0
1001
ACAD
1000
MTEXTBEGIN
1070
    73
1070
     1
1070
    44
1040
1.0
1070
    74
1070
     0
1000
MTEXTEND
  0
POINT
  5
455
330
44E
100
AcDbEntity
  8
DEFPOINTS
 62
     0
370
     0
100
AcDbPoint
 10
154.4457939541901
 20
185.4427877750246
 30
0.0
  0
POINT
  5
456
330
44E
100
AcDbEntity
  8
DEFPOINTS
 62
     0
370
     0
100
AcDbPoint
 10
193.1957939541901
 20
185.4427877750246
 30
0.0
  0
POINT
  5
457
330
44E
100
AcDbEntity
  8
DEFPOINTS
 62
     0
370
     0
100
AcDbPoint
 10
193.1957939541901
 20
177.4427877750246
 30
0.0
  0
ENDBLK
  5
459
330
44E
100
AcDbEntity
  8
0
370
     0
100
AcDbBlockEnd
  0
BLOCK
  5
464
330
45A
100
AcDbEntity
  8
0
370
     0
100
AcDbBlockBegin
  2
*D9
 70
     1
 10
0.0
 20
0.0
 30
0.0
  3
*D9
  1

  0
LINE
  5
45B
330
45A
100
AcDbEntity
  8
SUNPO
 62
     0
370
    -2
100
AcDbLine
 10
200.8811233562001
 20
185.4113448381536
 30
0.0
 11
208.8811233562001
 21
185.4113448381536
 31
0.0
  0
LINE
  5
45C
330
45A
100
AcDbEntity
  8
SUNPO
 62
     0
370
    -2
100
AcDbLine
 10
200.8811233562001
 20
215.9113448381536
 30
0.0
 11
208.8811233562001
 21
215.9113448381536
 31
0.0
  0
LINE
  5
45D
330
45A
100
AcDbEntity
  8
SUNPO
 62
     0
370
    -2
100
AcDbLine
 10
206.8811233562001
 20
187.4113448381536
 30
0.0
 11
206.8811233562001
 21
213.9113448381536
 31
0.0
  0
INSERT
  5
45E
330
45A
100
AcDbEntity
  8
SUNPO
 62
     0
370
    -2
100
AcDbBlockReference
  2
_OPEN30
 10
206.8811233562001
 20
185.4113448381536
 30
0.0
 41
2.0
 42
2.0
 43
2.0
 50
270.0
  0
INSERT
  5
45F
330
45A
100
AcDbEntity
  8
SUNPO
 62
     0
370
    -2
100
AcDbBlockReference
  2
_OPEN30
 10
206.8811233562001
 20
215.9113448381536
 30
0.0
 41
2.0
 42
2.0
 43
2.0
 50
90.0
  0
MTEXT
  5
460
330
45A
100
AcDbEntity
  8
SUNPO
 62
     0
100
AcDbMText
 10
205.1311233562
 20
200.6613448381536
 30
0.0
 40
2.5
 41
0.0
 71
     5
 72
     1
  1
\A1;610
 11
0.0000000000000001
 21
1.0
 31
0.0
 73
     1
 44
1.0
1001
ACAD
1000
MTEXTBEGIN
1070
    73
1070
     1
1070
    44
1040
1.0
1070
    74
1070
     0
1000
MTEXTEND
  0
POINT
  5
461
330
45A
100
AcDbEntity
  8
DEFPOINTS
 62
     0
370
     0
100
AcDbPoint
 10
198.8811233562001
 20
185.4113448381536
 30
0.0
  0
POINT
  5
462
330
45A
100
AcDbEntity
  8
DEFPOINTS
 62
     0
370
     0
100
AcDbPoint
 10
198.8811233562001
 20
215.9113448381536
 30
0.0
  0
POINT
  5
463
330
45A
100
AcDbEntity
  8
DEFPOINTS
 62
     0
370
     0
100
AcDbPoint
 10
206.8811233562001
 20
215.9113448381536
 30
0.0
  0
ENDBLK
  5
465
330
45A
100
AcDbEntity
  8
0
370
     0
100
AcDbBlockEnd
  0
BLOCK
  5
470
330
466
100
AcDbEntity
  8
0
370
     0
100
AcDbBlockBegin
  2
*D10
 70
     1
 10
0.0
 20
0.0
 30
0.0
  3
*D10
  1

  0
LINE
  5
467
330
466
100
AcDbEntity
  8
SUNPO
 62
     0
370
    -2
100
AcDbLine
 10
146.7795497368464
 20
212.8113448381536
 30
0.0
 11
138.7795497368464
 21
212.8113448381536
 31
0.0
  0
LINE
  5
468
330
466
100
AcDbEntity
  8
SUNPO
 62
     0
370
    -2
100
AcDbLine
 10
146.7795497368464
 20
188.5113448381537
 30
0.0
 11
138.7795497368464
 21
188.5113448381537
 31
0.0
  0
LINE
  5
469
330
466
100
AcDbEntity
  8
SUNPO
 62
     0
370
    -2
100
AcDbLine
 10
140.7795497368464
 20
210.8113448381536
 30
0.0
 11
140.7795497368464
 21
190.5113448381537
 31
0.0
  0
INSERT
  5
46A
330
466
100
AcDbEntity
  8
SUNPO
 62
     0
370
    -2
100
AcDbBlockReference
  2
_OPEN30
 10
140.7795497368464
 20
212.8113448381536
 30
0.0
 41
2.0
 42
2.0
 43
2.0
 50
90.0
  0
INSERT
  5
46B
330
466
100
AcDbEntity
  8
SUNPO
 62
     0
370
    -2
100
AcDbBlockReference
  2
_OPEN30
 10
140.7795497368464
 20
188.5113448381537
 30
0.0
 41
2.0
 42
2.0
 43
2.0
 50
270.0
  0
MTEXT
  5
46C
330
466
100
AcDbEntity
  8
SUNPO
 62
     0
100
AcDbMText
 10
139.0295497368464
 20
200.6613448381537
 30
0.0
 40
2.5
 41
0.0
 71
     5
 72
     1
  1
\A1;486
 11
0.0000000000000001
 21
1.0
 31
0.0
 73
     1
 44
1.0
1001
ACAD
1000
MTEXTBEGIN
1070
    73
1070
     1
1070
    44
1040
1.0
1070
    74
1070
     0
1000
MTEXTEND
  0
POINT
  5
46D
330
466
100
AcDbEntity
  8
DEFPOINTS
 62
     0
370
     0
100
AcDbPoint
 10
148.7795497368464
 20
212.8113448381536
 30
0.0
  0
POINT
  5
46E
330
466
100
AcDbEntity
  8
DEFPOINTS
 62
     0
370
     0
100
AcDbPoint
 10
148.7795497368464
 20
188.5113448381537
 30
0.0
  0
POINT
  5
46F
330
466
100
AcDbEntity
  8
DEFPOINTS
 62
     0
370
     0
100
AcDbPoint
 10
140.7795497368464
 20
188.5113448381537
 30
0.0
  0
ENDBLK
  5
471
330
466
100
AcDbEntity
  8
0
370
     0
100
AcDbBlockEnd
  0
ENDSEC
  0
SECTION
  2
ENTITIES
  0
TEXT
  5
29
330
2
100
AcDbEntity
  8
MOJI1
100
AcDbText
 10
157.9999999999997
 20
240.4992141396424
 30
0.0
 40
4.0
  1
ハイビジョンプラズマディスプレイ壁掛け金具付（角度付）
 41
0.75
100
AcDbText
  0
TEXT
  5
2B
330
2
100
AcDbEntity
  8
TOUROKU
100
AcDbText
 10
213.5999500329272
 20
234.4992141396424
 30
0.0
 40
2.0
  1
ＴＨ４２ＰＨＤ７＋ＴＹＷＫ４２ＰＲ７
 72
     2
 11
255.9999500329272
 21
234.4992141396424
 31
0.0
100
AcDbText
  0
INSERT
  5
2D
330
2
100
AcDbEntity
  8
SUNPO
100
AcDbBlockReference
  2
42
 10
-14.8501523110024
 20
139.5884893851802
 30
0.0
 41
0.5
 42
0.5
 43
0.5
  0
LINE
  5
9E
330
2
100
AcDbEntity
  8
GAIKEI
  6
Continuous
 62
     1
100
AcDbLine
 10
234.6862077689409
 20
209.7613447947122
 30
0.0
 11
234.6862077514614
 21
191.5613448015313
 31
0.0
  0
LINE
  5
9F
330
2
100
AcDbEntity
  8
GAIKEI
  6
Continuous
 62
     1
100
AcDbLine
 10
232.9362078599855
 20
209.9113448822047
 30
0.0
 11
232.9362078616844
 21
191.4113447964275
 31
0.0
  0
LINE
  5
A0
330
2
100
AcDbEntity
  8
GAIKEI
  6
Continuous
 62
     1
100
AcDbLine
 10
235.9362077622513
 20
188.6113448381536
 30
0.0
 11
235.9362077622513
 21
212.7113448381537
 31
0.0
  0
LINE
  5
A1
330
2
100
AcDbEntity
  8
GAIKEI
  6
HIDDEN2
 62
     1
100
AcDbLine
 10
192.0582939541901
 20
209.9863448381536
 30
0.0
 11
192.0582939541901
 21
191.2863448381536
 31
0.0
  0
LINE
  5
A2
330
2
100
AcDbEntity
  8
GAIKEI
  6
HIDDEN2
 62
     1
100
AcDbLine
 10
188.5832939541901
 20
209.9863448381536
 30
0.0
 11
188.5832939541901
 21
191.2863448381536
 31
0.0
  0
LINE
  5
A3
330
2
100
AcDbEntity
  8
GAIKEI
  6
HIDDEN2
 62
     1
100
AcDbLine
 10
191.5707939541901
 20
205.5363448381536
 30
0.0
 11
191.5707939541901
 21
195.7363448381536
 31
0.0
  0
LINE
  5
A4
330
2
100
AcDbEntity
  8
GAIKEI
  6
HIDDEN2
 62
     1
100
AcDbLine
 10
189.0707939541901
 20
205.5363448381536
 30
0.0
 11
189.0707939541901
 21
195.7363448381536
 31
0.0
  0
LINE
  5
A5
330
2
100
AcDbEntity
  8
GAIKEI
  6
HIDDEN2
 62
     1
100
AcDbLine
 10
155.5832939541901
 20
209.9863448381536
 30
0.0
 11
155.5832939541901
 21
191.2863448381536
 31
0.0
  0
LINE
  5
A6
330
2
100
AcDbEntity
  8
GAIKEI
  6
HIDDEN2
 62
     1
100
AcDbLine
 10
159.0582939541901
 20
209.9863448381536
 30
0.0
 11
159.0582939541901
 21
191.2863448381536
 31
0.0
  0
LINE
  5
A7
330
2
100
AcDbEntity
  8
GAIKEI
  6
HIDDEN2
 62
     1
100
AcDbLine
 10
156.0707939541901
 20
205.5363448381536
 30
0.0
 11
156.0707939541901
 21
195.7363448381536
 31
0.0
  0
LINE
  5
A8
330
2
100
AcDbEntity
  8
GAIKEI
  6
HIDDEN2
 62
     1
100
AcDbLine
 10
158.5707939541901
 20
205.5363448381536
 30
0.0
 11
158.5707939541901
 21
195.7363448381536
 31
0.0
  0
DIMENSION
  5
A9
330
2
100
AcDbEntity
  8
SUNPO
100
AcDbDimension
  2
*D10
 10
140.7795497368464
 20
188.5113448381537
 30
0.0
 11
139.0295497368464
 21
200.6613448381537
 31
0.0
 70
    33
  1
486
 71
     5
 42
24.29999999999993
  3
STANDARD
100
AcDbAlignedDimension
 13
148.7795497368464
 23
212.8113448381536
 33
0.0
 14
148.7795497368464
 24
188.5113448381537
 34
0.0
1001
ACAD
1000
DSTYLE
1002
{
1070
    40
1040
1.0
1070
   140
1040
2.5
1070
   147
1040
0.5
1070
   172
1070
     1
1070
   288
1070
     0
1002
}
  0
LINE
  5
BF
330
2
100
AcDbEntity
  8
GAIKEI
 62
     1
100
AcDbLine
 10
232.5364123439647
 20
190.2512302691005
 30
0.0
 11
232.5364123439647
 21
208.3016298429337
 31
0.0
  0
LINE
  5
C0
330
2
100
AcDbEntity
  8
GAIKEI
100
AcDbLine
 10
228.4862077622514
 20
185.5763461043036
 30
0.0
 11
228.4862077622514
 21
215.7508556732874
 31
0.0
  0
LINE
  5
C1
330
2
100
AcDbEntity
  8
GAIKEI
100
AcDbLine
 10
230.6862077613712
 20
185.4136011043688
 30
0.0
 11
230.6862077613712
 21
215.9136010898888
 31
0.0
  0
LINE
  5
C2
330
2
100
AcDbEntity
  8
GAIKEI
100
AcDbLine
 10
232.9362077622514
 20
190.4376578184291
 30
0.0
 11
232.9362077622513
 21
211.5203216390149
 31
0.0
  0
LINE
  5
C3
330
2
100
AcDbEntity
  8
GAIKEI
 62
     1
100
AcDbLine
 10
198.7554964541906
 20
185.7266419631538
 30
0.0
 11
198.7554964541906
 21
215.5960477381537
 31
0.0
  0
LINE
  5
C4
330
2
100
AcDbEntity
  8
GAIKEI
100
AcDbLine
 10
198.8707939541901
 20
185.6113448381537
 30
0.0
 11
198.8707939541901
 21
215.7113448381536
 31
0.0
  0
LINE
  5
C5
330
2
100
AcDbEntity
  8
GAIKEI
  6
Continuous
 62
     1
100
AcDbLine
 10
196.3707939541901
 20
187.7113448381536
 30
0.0
 11
196.3707939541901
 21
213.6113448381537
 31
0.0
  0
LINE
  5
C6
330
2
100
AcDbEntity
  8
GAIKEI
 62
     1
100
AcDbLine
 10
197.4812764541903
 20
187.0508632881536
 30
0.0
 11
197.4812764541903
 21
214.2718264131539
 31
0.0
  0
LINE
  5
C7
330
2
100
AcDbEntity
  8
GAIKEI
 62
     1
100
AcDbLine
 10
197.3760364541904
 20
187.0561040631538
 30
0.0
 11
197.3760364541904
 21
214.2665856131537
 31
0.0
  0
LINE
  5
C8
330
2
100
AcDbEntity
  8
GAIKEI
100
AcDbLine
 10
148.7707939541901
 20
185.6113448381537
 30
0.0
 11
148.7707939541901
 21
215.7113448381536
 31
0.0
  0
LINE
  5
C9
330
2
100
AcDbEntity
  8
GAIKEI
 62
     1
100
AcDbLine
 10
148.8860914541896
 20
185.7266419631538
 30
0.0
 11
148.8860914541896
 21
215.5960477381537
 31
0.0
  0
LINE
  5
CA
330
2
100
AcDbEntity
  8
GAIKEI
  6
Continuous
 62
     1
100
AcDbLine
 10
151.2707939541901
 20
187.7113448381536
 30
0.0
 11
151.2707939541901
 21
213.6113448381537
 31
0.0
  0
LINE
  5
CB
330
2
100
AcDbEntity
  8
GAIKEI
 62
     1
100
AcDbLine
 10
150.1603139541898
 20
187.0508632881536
 30
0.0
 11
150.1603139541898
 21
214.2718264131539
 31
0.0
  0
LINE
  5
CC
330
2
100
AcDbEntity
  8
GAIKEI
 62
     1
100
AcDbLine
 10
150.2655539541906
 20
187.0561040631538
 30
0.0
 11
150.2655539541906
 21
214.2665856131537
 31
0.0
  0
DIMENSION
  5
CD
330
2
100
AcDbEntity
  8
SUNPO
100
AcDbDimension
  2
*D9
 10
206.8811233562001
 20
215.9113448381536
 30
0.0
 11
205.1311233562
 21
200.6613448381536
 31
0.0
 70
    33
  1
610
 71
     5
 42
30.5
  3
STANDARD
100
AcDbAlignedDimension
 13
198.8811233562001
 23
185.4113448381536
 33
0.0
 14
198.8811233562001
 24
215.9113448381536
 34
0.0
1001
ACAD
1000
DSTYLE
1002
{
1070
    40
1040
1.0
1070
   140
1040
2.5
1070
   147
1040
0.5
1070
   172
1070
     1
1070
   288
1070
     0
1002
}
  0
LINE
  5
DA
330
2
100
AcDbEntity
  8
GAIKEI
  6
HIDDEN2
 62
     1
100
AcDbLine
 10
173.0707939541901
 20
189.5863448381536
 30
0.0
 11
171.3207939541901
 21
189.5863448381536
 31
0.0
  0
LINE
  5
DB
330
2
100
AcDbEntity
  8
GAIKEI
  6
HIDDEN2
 62
     1
100
AcDbLine
 10
173.0707939541901
 20
189.2363448381536
 30
0.0
 11
171.3207939541901
 21
189.2363448381536
 31
0.0
  0
LINE
  5
DC
330
2
100
AcDbEntity
  8
GAIKEI
  6
HIDDEN2
 62
     1
100
AcDbLine
 10
172.8207939541901
 20
189.9113448381536
 30
0.0
 11
159.4832939541901
 21
189.9113448381536
 31
0.0
  0
LINE
  5
DD
330
2
100
AcDbEntity
  8
GAIKEI
  6
HIDDEN2
 62
     1
100
AcDbLine
 10
193.1957939541901
 20
188.5113448381537
 30
0.0
 11
154.4457939541901
 21
188.5113448381537
 31
0.0
  0
LINE
  5
DE
330
2
100
AcDbEntity
  8
GAIKEI
  6
HIDDEN2
 62
     1
100
AcDbLine
 10
193.1957939541901
 20
188.6113448381536
 30
0.0
 11
154.4457939541901
 21
188.6113448381536
 31
0.0
  0
LINE
  5
DF
330
2
100
AcDbEntity
  8
GAIKEI
  6
HIDDEN2
 62
     1
100
AcDbLine
 10
192.4457939541901
 20
188.9113448381536
 30
0.0
 11
155.1957939541901
 21
188.9113448381536
 31
0.0
  0
LINE
  5
E0
330
2
100
AcDbEntity
  8
GAIKEI
  6
HIDDEN2
 62
     1
100
AcDbLine
 10
189.3207939541901
 20
191.1613448381536
 30
0.0
 11
158.3207939541901
 21
191.1613448381536
 31
0.0
  0
LINE
  5
E1
330
2
100
AcDbEntity
  8
GAIKEI
  6
HIDDEN2
 62
     1
100
AcDbLine
 10
189.3207939541901
 20
191.2613448381537
 30
0.0
 11
158.3207939541901
 21
191.2613448381537
 31
0.0
  0
DIMENSION
  5
E2
330
2
100
AcDbEntity
  8
SUNPO
100
AcDbDimension
  2
*D8
 10
193.1957939541901
 20
177.4427877750246
 30
0.0
 11
173.8207939541901
 21
179.1927877750246
 31
0.0
 70
    33
  1
775
 71
     5
 42
38.75
  3
STANDARD
100
AcDbAlignedDimension
 13
154.4457939541901
 23
185.4427877750246
 33
0.0
 14
193.1957939541901
 24
185.4427877750246
 34
0.0
1001
ACAD
1000
DSTYLE
1002
{
1070
    40
1040
1.0
1070
   140
1040
2.5
1070
   147
1040
0.5
1070
   172
1070
     1
1070
   288
1070
     0
1002
}
  0
LINE
  5
EF
330
2
100
AcDbEntity
  8
GAIKEI
 62
     1
100
AcDbLine
 10
197.2312764541903
 20
186.8008632881536
 30
0.0
 11
150.4103139541898
 21
186.8008632881536
 31
0.0
  0
LINE
  5
F0
330
2
100
AcDbEntity
  8
GAIKEI
 62
     1
100
AcDbLine
 10
197.2260364541899
 20
186.9061040631537
 30
0.0
 11
150.4155539541902
 21
186.9061040631537
 31
0.0
  0
LINE
  5
F1
330
2
100
AcDbEntity
  8
GAIKEI
 62
     1
100
AcDbLine
 10
198.5554964541898
 20
185.5266419631537
 30
0.0
 11
150.4573014541897
 21
185.5266419631537
 31
0.0
  0
LINE
  5
F2
330
2
100
AcDbEntity
  8
GAIKEI
100
AcDbLine
 10
148.9707939541899
 20
185.4113448381536
 30
0.0
 11
198.6707939541903
 21
185.4113448381536
 31
0.0
  0
LINE
  5
F3
330
2
100
AcDbEntity
  8
GAIKEI
  6
Continuous
 62
     1
100
AcDbLine
 10
196.3707939541901
 20
187.7113448381536
 30
0.0
 11
151.2707939541901
 21
187.7113448381536
 31
0.0
  0
ARC
  5
F4
330
2
100
AcDbEntity
  8
GAIKEI
 62
     1
100
AcDbCircle
 10
150.4380964541901
 20
185.5175769131536
 30
0.0
 40
0.025
100
AcDbArc
 50
180.0
 51
270.0
  0
LINE
  5
F5
330
2
100
AcDbEntity
  8
GAIKEI
 62
     1
100
AcDbLine
 10
150.4323014541901
 20
185.5516419631538
 30
0.0
 11
150.4323014541901
 21
186.1813448381539
 31
0.0
  0
LINE
  5
F6
330
2
100
AcDbEntity
  8
GAIKEI
 62
     1
100
AcDbLine
 10
150.4130964541895
 20
185.5927141381538
 30
0.0
 11
150.4323014541901
 21
185.6215384131536
 31
0.0
  0
LINE
  5
F7
330
2
100
AcDbEntity
  8
GAIKEI
 62
     1
100
AcDbLine
 10
150.4130964541895
 20
185.5175769131536
 30
0.0
 11
150.4130964541895
 21
185.5927141381538
 31
0.0
  0
ARC
  5
F8
330
2
100
AcDbEntity
  8
GAIKEI
 62
     1
100
AcDbCircle
 10
150.3523014541901
 20
186.1813448381539
 30
0.0
 40
0.08
100
AcDbArc
 50
0.0
 51
90.000000199999
  0
ARC
  5
F9
330
2
100
AcDbEntity
  8
GAIKEI
 62
     1
100
AcDbCircle
 10
150.4573014541897
 20
185.5516419631538
 30
0.0
 40
0.025
100
AcDbArc
 50
180.0
 51
270.0
  0
ARC
  5
FA
330
2
100
AcDbEntity
  8
GAIKEI
 62
     1
100
AcDbCircle
 10
150.4155539541902
 20
187.0561040631538
 30
0.0
 40
0.15
100
AcDbArc
 50
180.0
 51
270.0
  0
ARC
  5
FB
330
2
100
AcDbEntity
  8
GAIKEI
 62
     1
100
AcDbCircle
 10
150.4103139541898
 20
187.0508632881536
 30
0.0
 40
0.25
100
AcDbArc
 50
180.0
 51
270.0
  0
ARC
  5
FC
330
2
100
AcDbEntity
  8
GAIKEI
100
AcDbCircle
 10
148.9707939541899
 20
185.6113448381537
 30
0.0
 40
0.2
100
AcDbArc
 50
180.0
 51
270.0
  0
ARC
  5
FD
330
2
100
AcDbEntity
  8
GAIKEI
 62
     1
100
AcDbCircle
 10
149.0860914541904
 20
185.7266419631538
 30
0.0
 40
0.2
100
AcDbArc
 50
180.0
 51
270.0
  0
ARC
  5
FE
330
2
100
AcDbEntity
  8
GAIKEI
 62
     1
100
AcDbCircle
 10
149.2034939541904
 20
185.5175769131536
 30
0.0
 40
0.025
100
AcDbArc
 50
270.0
 51
0.0
  0
LINE
  5
FF
330
2
100
AcDbEntity
  8
GAIKEI
 62
     1
100
AcDbLine
 10
149.2092864541905
 20
185.5516419631538
 30
0.0
 11
149.2092864541905
 21
186.1813448381539
 31
0.0
  0
LINE
  5
100
330
2
100
AcDbEntity
  8
GAIKEI
 62
     1
100
AcDbLine
 10
149.22849395419
 20
185.5927141381538
 30
0.0
 11
149.2092864541905
 21
185.6215384131536
 31
0.0
  0
LINE
  5
101
330
2
100
AcDbEntity
  8
GAIKEI
 62
     1
100
AcDbLine
 10
149.22849395419
 20
185.5175769131536
 30
0.0
 11
149.22849395419
 21
185.5927141381538
 31
0.0
  0
ARC
  5
102
330
2
100
AcDbEntity
  8
GAIKEI
 62
     1
100
AcDbCircle
 10
149.2892864541904
 20
186.1813448381539
 30
0.0
 40
0.08
100
AcDbArc
 50
90.000000199999
 51
180.0
  0
LINE
  5
103
330
2
100
AcDbEntity
  8
GAIKEI
 62
     1
100
AcDbLine
 10
149.1842864541899
 20
185.5266419631537
 30
0.0
 11
149.0860914541904
 21
185.5266419631537
 31
0.0
  0
ARC
  5
104
330
2
100
AcDbEntity
  8
GAIKEI
 62
     1
100
AcDbCircle
 10
149.1842864541899
 20
185.5516419631538
 30
0.0
 40
0.025
100
AcDbArc
 50
270.0
 51
0.0
  0
LINE
  5
105
330
2
100
AcDbEntity
  8
GAIKEI
 62
     1
100
AcDbLine
 10
149.2034939541904
 20
185.4925769131538
 30
0.0
 11
150.4380964541901
 21
185.4925769131538
 31
0.0
  0
LINE
  5
106
330
2
100
AcDbEntity
  8
GAIKEI
 62
     1
100
AcDbLine
 10
149.22849395419
 20
185.5927141381538
 30
0.0
 11
150.4130964541895
 21
185.5927141381538
 31
0.0
  0
LINE
  5
107
330
2
100
AcDbEntity
  8
GAIKEI
 62
     1
100
AcDbLine
 10
149.2892864541904
 20
186.2613448381538
 30
0.0
 11
150.3523014541901
 21
186.2613448381538
 31
0.0
  0
ARC
  5
108
330
2
100
AcDbEntity
  8
GAIKEI
  6
HIDDEN2
 62
     1
100
AcDbCircle
 10
155.1957939541901
 20
189.4113448381536
 30
0.0
 40
0.5
100
AcDbArc
 50
90.0
 51
270.0
  0
ARC
  5
109
330
2
100
AcDbEntity
  8
GAIKEI
  6
HIDDEN2
 62
     1
100
AcDbCircle
 10
157.3207939541901
 20
189.4113448381536
 30
0.0
 40
0.175
100
AcDbArc
 50
270.0
 51
90.0
  0
LINE
  5
10A
330
2
100
AcDbEntity
  8
GAIKEI
  6
HIDDEN2
 62
     1
100
AcDbLine
 10
154.4457939541901
 20
191.2613448381537
 30
0.0
 11
154.4457939541901
 21
188.5113448381537
 31
0.0
  0
ARC
  5
10B
330
2
100
AcDbEntity
  8
GAIKEI
  6
HIDDEN2
 62
     1
100
AcDbCircle
 10
155.1957939541901
 20
189.4113448381536
 30
0.0
 40
0.175
100
AcDbArc
 50
90.0
 51
270.0
  0
LINE
  5
10C
330
2
100
AcDbEntity
  8
GAIKEI
  6
HIDDEN2
 62
     1
100
AcDbLine
 10
155.1957939541901
 20
189.2363448381536
 30
0.0
 11
157.3207939541901
 21
189.2363448381536
 31
0.0
  0
LINE
  5
10D
330
2
100
AcDbEntity
  8
GAIKEI
 62
     1
100
AcDbLine
 10
155.714120628446
 20
186.2263448381537
 30
0.0
 11
155.714120628446
 21
185.9263448381537
 31
0.0
  0
LINE
  5
10E
330
2
100
AcDbEntity
  8
GAIKEI
 62
     1
100
AcDbLine
 10
154.51301522562
 20
186.2263448381537
 30
0.0
 11
154.81301522562
 21
186.2263448381537
 31
0.0
  0
LINE
  5
10F
330
2
100
AcDbEntity
  8
GAIKEI
 62
     1
100
AcDbLine
 10
154.81301522562
 20
185.9263448381537
 30
0.0
 11
154.51301522562
 21
185.9263448381537
 31
0.0
  0
LINE
  5
110
330
2
100
AcDbEntity
  8
GAIKEI
 62
     1
100
AcDbLine
 10
154.51301522562
 20
185.9263448381537
 30
0.0
 11
154.51301522562
 21
186.2263448381537
 31
0.0
  0
LINE
  5
111
330
2
100
AcDbEntity
  8
GAIKEI
 62
     1
100
AcDbLine
 10
153.3182939541898
 20
186.3138448381538
 30
0.0
 11
152.5232939541897
 21
186.3138448381538
 31
0.0
  0
LINE
  5
112
330
2
100
AcDbEntity
  8
GAIKEI
 62
     1
100
AcDbLine
 10
153.3182939541898
 20
185.8388448381536
 30
0.0
 11
152.5232939541897
 21
185.8388448381536
 31
0.0
  0
CIRCLE
  5
113
330
2
100
AcDbEntity
  8
GAIKEI
 62
     1
100
AcDbCircle
 10
151.2957939541906
 20
186.1013448381537
 30
0.0
 40
0.074999998
  0
ARC
  5
114
330
2
100
AcDbEntity
  8
GAIKEI
 62
     1
100
AcDbCircle
 10
152.5232939541897
 20
186.2888448381537
 30
0.0
 40
0.025
100
AcDbArc
 50
90.000000199999
 51
180.0
  0
LINE
  5
115
330
2
100
AcDbEntity
  8
GAIKEI
 62
     1
100
AcDbLine
 10
152.4982939541901
 20
185.8638448381537
 30
0.0
 11
152.4982939541901
 21
186.2888448381537
 31
0.0
  0
ARC
  5
116
330
2
100
AcDbEntity
  8
GAIKEI
 62
     1
100
AcDbCircle
 10
152.5232939541897
 20
185.8638448381537
 30
0.0
 40
0.025
100
AcDbArc
 50
180.0
 51
270.0
  0
ARC
  5
117
330
2
100
AcDbEntity
  8
GAIKEI
 62
     1
100
AcDbCircle
 10
153.3182939541898
 20
185.8638448381537
 30
0.0
 40
0.025
100
AcDbArc
 50
270.0
 51
0.0
  0
LINE
  5
118
330
2
100
AcDbEntity
  8
GAIKEI
 62
     1
100
AcDbLine
 10
153.3432939541903
 20
185.8638448381537
 30
0.0
 11
153.3432939541903
 21
186.2888448381537
 31
0.0
  0
ARC
  5
119
330
2
100
AcDbEntity
  8
GAIKEI
 62
     1
100
AcDbCircle
 10
153.3182939541898
 20
186.2888448381537
 30
0.0
 40
0.025
100
AcDbArc
 50
0.0
 51
90.000000199999
  0
LINE
  5
11A
330
2
100
AcDbEntity
  8
GAIKEI
 62
     1
100
AcDbLine
 10
153.5122320187493
 20
185.9923448381536
 30
0.0
 11
153.5122320187493
 21
186.1603448381537
 31
0.0
  0
LINE
  5
11B
330
2
100
AcDbEntity
  8
GAIKEI
 62
     1
100
AcDbLine
 10
153.6802320187493
 20
185.9923448381536
 30
0.0
 11
153.5122320187493
 21
185.9923448381536
 31
0.0
  0
LINE
  5
11C
330
2
100
AcDbEntity
  8
GAIKEI
 62
     1
100
AcDbLine
 10
153.6802320187493
 20
186.1603448381537
 30
0.0
 11
153.6802320187493
 21
185.9923448381536
 31
0.0
  0
LINE
  5
11D
330
2
100
AcDbEntity
  8
GAIKEI
 62
     1
100
AcDbLine
 10
153.5122320187493
 20
186.1603448381537
 30
0.0
 11
153.6802320187493
 21
186.1603448381537
 31
0.0
  0
LINE
  5
11E
330
2
100
AcDbEntity
  8
GAIKEI
 62
     1
100
AcDbLine
 10
155.414120628446
 20
185.9263448381537
 30
0.0
 11
155.414120628446
 21
186.2263448381537
 31
0.0
  0
LINE
  5
11F
330
2
100
AcDbEntity
  8
GAIKEI
 62
     1
100
AcDbLine
 10
155.263567927033
 20
186.2263448381537
 30
0.0
 11
155.263567927033
 21
185.9263448381537
 31
0.0
  0
LINE
  5
120
330
2
100
AcDbEntity
  8
GAIKEI
 62
     1
100
AcDbLine
 10
154.963567927033
 20
185.9263448381537
 30
0.0
 11
154.963567927033
 21
186.2263448381537
 31
0.0
  0
LINE
  5
121
330
2
100
AcDbEntity
  8
GAIKEI
 62
     1
100
AcDbLine
 10
154.81301522562
 20
186.2263448381537
 30
0.0
 11
154.81301522562
 21
185.9263448381537
 31
0.0
  0
LINE
  5
122
330
2
100
AcDbEntity
  8
GAIKEI
 62
     1
100
AcDbLine
 10
155.263567927033
 20
185.9263448381537
 30
0.0
 11
154.963567927033
 21
185.9263448381537
 31
0.0
  0
LINE
  5
123
330
2
100
AcDbEntity
  8
GAIKEI
 62
     1
100
AcDbLine
 10
154.963567927033
 20
186.2263448381537
 30
0.0
 11
155.263567927033
 21
186.2263448381537
 31
0.0
  0
LINE
  5
124
330
2
100
AcDbEntity
  8
GAIKEI
 62
     1
100
AcDbLine
 10
155.414120628446
 20
186.2263448381537
 30
0.0
 11
155.714120628446
 21
186.2263448381537
 31
0.0
  0
LINE
  5
125
330
2
100
AcDbEntity
  8
GAIKEI
 62
     1
100
AcDbLine
 10
155.714120628446
 20
185.9263448381537
 30
0.0
 11
155.414120628446
 21
185.9263448381537
 31
0.0
  0
LINE
  5
126
330
2
100
AcDbEntity
  8
GAIKEI
 62
     1
100
AcDbLine
 10
155.864673329859
 20
186.2263448381537
 30
0.0
 11
156.1646733298591
 21
186.2263448381537
 31
0.0
  0
LINE
  5
127
330
2
100
AcDbEntity
  8
GAIKEI
 62
     1
100
AcDbLine
 10
156.1646733298591
 20
186.2263448381537
 30
0.0
 11
156.1646733298591
 21
185.9263448381537
 31
0.0
  0
LINE
  5
128
330
2
100
AcDbEntity
  8
GAIKEI
 62
     1
100
AcDbLine
 10
156.1646733298591
 20
185.9263448381537
 30
0.0
 11
155.864673329859
 21
185.9263448381537
 31
0.0
  0
LINE
  5
129
330
2
100
AcDbEntity
  8
GAIKEI
 62
     1
100
AcDbLine
 10
155.864673329859
 20
185.9263448381537
 30
0.0
 11
155.864673329859
 21
186.2263448381537
 31
0.0
  0
LINE
  5
12A
330
2
100
AcDbEntity
  8
GAIKEI
 62
     1
100
AcDbLine
 10
156.3152260312721
 20
185.9263448381537
 30
0.0
 11
156.3152260312721
 21
186.2263448381537
 31
0.0
  0
LINE
  5
12B
330
2
100
AcDbEntity
  8
GAIKEI
 62
     1
100
AcDbLine
 10
156.6152260312721
 20
185.9263448381537
 30
0.0
 11
156.3152260312721
 21
185.9263448381537
 31
0.0
  0
LINE
  5
12C
330
2
100
AcDbEntity
  8
GAIKEI
 62
     1
100
AcDbLine
 10
156.6152260312721
 20
186.2263448381537
 30
0.0
 11
156.6152260312721
 21
185.9263448381537
 31
0.0
  0
LINE
  5
12D
330
2
100
AcDbEntity
  8
GAIKEI
 62
     1
100
AcDbLine
 10
156.3152260312721
 20
186.2263448381537
 30
0.0
 11
156.6152260312721
 21
186.2263448381537
 31
0.0
  0
ARC
  5
12E
330
2
100
AcDbEntity
  8
GAIKEI
  6
HIDDEN2
 62
     1
100
AcDbCircle
 10
155.7332939541901
 20
191.3863448381537
 30
0.0
 40
0.1
100
AcDbArc
 50
0.0
 51
90.0
  0
LINE
  5
12F
330
2
100
AcDbEntity
  8
GAIKEI
  6
HIDDEN2
 62
     1
100
AcDbLine
 10
156.3207939541901
 20
191.2613448381537
 30
0.0
 11
154.4457939541901
 21
191.2613448381537
 31
0.0
  0
LINE
  5
130
330
2
100
AcDbEntity
  8
GAIKEI
  6
HIDDEN2
 62
     1
100
AcDbLine
 10
156.3207939541901
 20
191.1613448381536
 30
0.0
 11
154.4457939541901
 21
191.1613448381536
 31
0.0
  0
LINE
  5
131
330
2
100
AcDbEntity
  8
GAIKEI
  6
HIDDEN2
 62
     1
100
AcDbLine
 10
155.8157939541901
 20
190.3963448381537
 30
0.0
 11
156.5757939541901
 21
190.3963448381537
 31
0.0
  0
LINE
  5
132
330
2
100
AcDbEntity
  8
GAIKEI
  6
HIDDEN2
 62
     1
100
AcDbLine
 10
155.8157939541901
 20
190.2463448381537
 30
0.0
 11
156.5757939541901
 21
190.2463448381537
 31
0.0
  0
LINE
  5
133
330
2
100
AcDbEntity
  8
GAIKEI
  6
HIDDEN2
 62
     1
100
AcDbLine
 10
155.1957939541901
 20
189.5863448381536
 30
0.0
 11
157.3207939541901
 21
189.5863448381536
 31
0.0
  0
LINE
  5
134
330
2
100
AcDbEntity
  8
GAIKEI
  6
HIDDEN2
 62
     1
100
AcDbLine
 10
158.9457939541901
 20
191.2863448381536
 30
0.0
 11
155.6957939541901
 21
191.2863448381536
 31
0.0
  0
LINE
  5
135
330
2
100
AcDbEntity
  8
GAIKEI
  6
HIDDEN2
 62
     1
100
AcDbLine
 10
155.5832939541901
 20
191.4863448381536
 30
0.0
 11
155.7332939541901
 21
191.4863448381536
 31
0.0
  0
LINE
  5
136
330
2
100
AcDbEntity
  8
GAIKEI
  6
HIDDEN2
 62
     1
100
AcDbLine
 10
155.2573217041901
 20
191.7110673381536
 30
0.0
 11
155.2282939541901
 21
191.7613448381537
 31
0.0
  0
LINE
  5
137
330
2
100
AcDbEntity
  8
GAIKEI
  6
HIDDEN2
 62
     1
100
AcDbLine
 10
155.2282939541901
 20
191.7613448381537
 30
0.0
 11
155.2282939541901
 21
192.4113448381536
 31
0.0
  0
LINE
  5
138
330
2
100
AcDbEntity
  8
GAIKEI
  6
HIDDEN2
 62
     1
100
AcDbLine
 10
155.2282939541901
 20
192.4113448381536
 30
0.0
 11
155.2573217041901
 21
192.4616225881537
 31
0.0
  0
LINE
  5
139
330
2
100
AcDbEntity
  8
GAIKEI
  6
HIDDEN2
 62
     1
100
AcDbLine
 10
155.2573217041901
 20
191.7110673381536
 30
0.0
 11
155.5032939541901
 21
191.7110673381536
 31
0.0
  0
LINE
  5
13A
330
2
100
AcDbEntity
  8
GAIKEI
  6
HIDDEN2
 62
     1
100
AcDbLine
 10
155.2573217041901
 20
192.4616225881537
 30
0.0
 11
155.5032939541901
 21
192.4616225881537
 31
0.0
  0
LINE
  5
13B
330
2
100
AcDbEntity
  8
GAIKEI
  6
HIDDEN2
 62
     1
100
AcDbLine
 10
155.5032939541901
 20
192.4863448381536
 30
0.0
 11
155.5032939541901
 21
191.6863448381536
 31
0.0
  0
LINE
  5
13C
330
2
100
AcDbEntity
  8
GAIKEI
  6
HIDDEN2
 62
     1
100
AcDbLine
 10
155.2573217041901
 20
191.8987060881536
 30
0.0
 11
155.5032939541901
 21
191.8987060881536
 31
0.0
  0
LINE
  5
13D
330
2
100
AcDbEntity
  8
GAIKEI
  6
HIDDEN2
 62
     1
100
AcDbLine
 10
155.2573217041901
 20
192.2739838381536
 30
0.0
 11
155.5032939541901
 21
192.2739838381536
 31
0.0
  0
ARC
  5
13E
330
2
100
AcDbEntity
  8
GAIKEI
  6
HIDDEN2
 62
     1
100
AcDbCircle
 10
155.3944224541901
 20
191.8048865881536
 30
0.0
 40
0.1661285
100
AcDbArc
 50
145.615752999999
 51
214.384247000001
  0
ARC
  5
13F
330
2
100
AcDbEntity
  8
GAIKEI
  6
HIDDEN2
 62
     1
100
AcDbCircle
 10
155.8492659541901
 20
192.0863448381536
 30
0.0
 40
0.62097225
100
AcDbArc
 50
162.4120459999996
 51
197.5879540000004
  0
ARC
  5
140
330
2
100
AcDbEntity
  8
GAIKEI
  6
HIDDEN2
 62
     1
100
AcDbCircle
 10
155.3944224541901
 20
192.3678030881536
 30
0.0
 40
0.1661285
100
AcDbArc
 50
145.615752999999
 51
214.384247000001
  0
LINE
  5
141
330
2
100
AcDbEntity
  8
GAIKEI
  6
HIDDEN2
 62
     1
100
AcDbLine
 10
155.5032939541901
 20
191.6863448381536
 30
0.0
 11
155.5832939541901
 21
191.6863448381536
 31
0.0
  0
LINE
  5
142
330
2
100
AcDbEntity
  8
GAIKEI
  6
HIDDEN2
 62
     1
100
AcDbLine
 10
155.5832939541901
 20
191.6863448381536
 30
0.0
 11
155.5832939541901
 21
192.4863448381536
 31
0.0
  0
LINE
  5
143
330
2
100
AcDbEntity
  8
GAIKEI
  6
HIDDEN2
 62
     1
100
AcDbLine
 10
155.5832939541901
 20
192.4863448381536
 30
0.0
 11
155.5032939541901
 21
192.4863448381536
 31
0.0
  0
LINE
  5
144
330
2
100
AcDbEntity
  8
GAIKEI
  6
HIDDEN2
 62
     1
100
AcDbLine
 10
155.6582939541901
 20
191.1613448381536
 30
0.0
 11
155.6582939541901
 21
190.4102623381536
 31
0.0
  0
LINE
  5
145
330
2
100
AcDbEntity
  8
GAIKEI
  6
HIDDEN2
 62
     1
100
AcDbLine
 10
155.6832939541901
 20
191.2863448381536
 30
0.0
 11
155.5832939541901
 21
191.2863448381536
 31
0.0
  0
LINE
  5
146
330
2
100
AcDbEntity
  8
GAIKEI
  6
HIDDEN2
 62
     1
100
AcDbLine
 10
155.6957939541901
 20
191.2863448381536
 30
0.0
 11
155.6957939541901
 21
191.4863448381536
 31
0.0
  0
LINE
  5
147
330
2
100
AcDbEntity
  8
GAIKEI
  6
HIDDEN2
 62
     1
100
AcDbLine
 10
155.6832939541901
 20
191.2863448381536
 30
0.0
 11
155.6832939541901
 21
191.4863448381536
 31
0.0
  0
LINE
  5
148
330
2
100
AcDbEntity
  8
GAIKEI
  6
HIDDEN2
 62
     1
100
AcDbLine
 10
155.7957939541901
 20
191.4644073381537
 30
0.0
 11
155.7957939541901
 21
191.2863448381536
 31
0.0
  0
LINE
  5
149
330
2
100
AcDbEntity
  8
GAIKEI
  6
HIDDEN2
 62
     1
100
AcDbLine
 10
155.8157939541901
 20
190.2463448381537
 30
0.0
 11
155.8157939541901
 21
190.3963448381537
 31
0.0
  0
ARC
  5
14A
330
2
100
AcDbEntity
  8
GAIKEI
  6
HIDDEN2
 62
     1
100
AcDbCircle
 10
155.1582939541901
 20
190.4102623381536
 30
0.0
 40
0.5
100
AcDbArc
 50
274.3012219999994
 51
0.0
  0
ARC
  5
14B
330
2
100
AcDbEntity
  8
GAIKEI
  6
HIDDEN2
 62
     1
100
AcDbCircle
 10
158.1455357041901
 20
193.5363448381536
 30
0.0
 40
0.10025825
100
AcDbArc
 50
270.1475399999991
 51
93.33963399999895
  0
ARC
  5
14C
330
2
100
AcDbEntity
  8
GAIKEI
  6
HIDDEN2
 62
     1
100
AcDbCircle
 10
158.4707939541901
 20
195.7363448381536
 30
0.0
 40
0.1
100
AcDbArc
 50
270.0
 51
0.0
  0
LINE
  5
14D
330
2
100
AcDbEntity
  8
GAIKEI
  6
HIDDEN2
 62
     1
100
AcDbLine
 10
158.0657939541901
 20
190.2463448381537
 30
0.0
 11
158.0657939541901
 21
190.3963448381537
 31
0.0
  0
LINE
  5
14E
330
2
100
AcDbEntity
  8
GAIKEI
  6
HIDDEN2
 62
     1
100
AcDbLine
 10
158.8257939541901
 20
190.2463448381537
 30
0.0
 11
158.8257939541901
 21
190.3963448381537
 31
0.0
  0
LINE
  5
14F
330
2
100
AcDbEntity
  8
GAIKEI
  6
HIDDEN2
 62
     1
100
AcDbLine
 10
158.8207939541901
 20
190.2863448381536
 30
0.0
 11
158.8207939541901
 21
190.3963448381537
 31
0.0
  0
LINE
  5
150
330
2
100
AcDbEntity
  8
GAIKEI
  6
HIDDEN2
 62
     1
100
AcDbLine
 10
158.0707939541901
 20
190.2863448381536
 30
0.0
 11
158.0707939541901
 21
190.3963448381537
 31
0.0
  0
ARC
  5
151
330
2
100
AcDbEntity
  8
GAIKEI
  6
HIDDEN2
 62
     1
100
AcDbCircle
 10
159.4832939541901
 20
190.4113448381536
 30
0.0
 40
0.5
100
AcDbArc
 50
180.0
 51
270.0
  0
LINE
  5
152
330
2
100
AcDbEntity
  8
GAIKEI
  6
HIDDEN2
 62
     1
100
AcDbLine
 10
158.8257939541901
 20
190.2463448381537
 30
0.0
 11
158.0657939541901
 21
190.2463448381537
 31
0.0
  0
LINE
  5
153
330
2
100
AcDbEntity
  8
GAIKEI
  6
HIDDEN2
 62
     1
100
AcDbLine
 10
158.8207939541901
 20
190.2863448381536
 30
0.0
 11
158.0707939541901
 21
190.2863448381536
 31
0.0
  0
LINE
  5
154
330
2
100
AcDbEntity
  8
GAIKEI
  6
HIDDEN2
 62
     1
100
AcDbLine
 10
158.8207939541901
 20
190.3863448381537
 30
0.0
 11
158.0707939541901
 21
190.3863448381537
 31
0.0
  0
ARC
  5
155
330
2
100
AcDbEntity
  8
GAIKEI
  6
HIDDEN2
 62
     1
100
AcDbCircle
 10
157.2832939541901
 20
192.0863448381536
 30
0.0
 40
0.325
100
AcDbArc
 50
180.0
 51
270.0
  0
LINE
  5
156
330
2
100
AcDbEntity
  8
GAIKEI
  6
HIDDEN2
 62
     1
100
AcDbLine
 10
156.9582939541901
 20
192.0863448381536
 30
0.0
 11
156.9582939541901
 21
192.3029035881536
 31
0.0
  0
ARC
  5
157
330
2
100
AcDbEntity
  8
GAIKEI
  6
HIDDEN2
 62
     1
100
AcDbCircle
 10
156.7082939541901
 20
192.3029035881536
 30
0.0
 40
0.25
100
AcDbArc
 50
0.0
 51
55.26599000000046
  0
LINE
  5
158
330
2
100
AcDbEntity
  8
GAIKEI
  6
HIDDEN2
 62
     1
100
AcDbLine
 10
159.4832939541901
 20
191.9263448381537
 30
0.0
 11
159.5032939541901
 21
191.9463448381536
 31
0.0
  0
LINE
  5
159
330
2
100
AcDbEntity
  8
GAIKEI
  6
HIDDEN2
 62
     1
100
AcDbLine
 10
159.4832939541901
 20
192.2463448381536
 30
0.0
 11
159.5032939541901
 21
192.2263448381536
 31
0.0
  0
LINE
  5
15A
330
2
100
AcDbEntity
  8
GAIKEI
  6
HIDDEN2
 62
     1
100
AcDbLine
 10
159.5032939541901
 20
191.9463448381536
 30
0.0
 11
159.5032939541901
 21
192.2263448381536
 31
0.0
  0
LINE
  5
15B
330
2
100
AcDbEntity
  8
GAIKEI
  6
HIDDEN2
 62
     1
100
AcDbLine
 10
159.3832939541901
 20
192.3863448381537
 30
0.0
 11
159.3832939541901
 21
191.7863448381536
 31
0.0
  0
LINE
  5
15C
330
2
100
AcDbEntity
  8
GAIKEI
  6
HIDDEN2
 62
     1
100
AcDbLine
 10
159.3832939541901
 20
192.3863448381537
 30
0.0
 11
159.0582939541901
 21
192.3863448381537
 31
0.0
  0
LINE
  5
15D
330
2
100
AcDbEntity
  8
GAIKEI
  6
HIDDEN2
 62
     1
100
AcDbLine
 10
159.3832939541901
 20
191.7863448381536
 30
0.0
 11
159.0582939541901
 21
191.7863448381536
 31
0.0
  0
ARC
  5
15E
330
2
100
AcDbEntity
  8
GAIKEI
  6
HIDDEN2
 62
     1
100
AcDbCircle
 10
158.9582939541901
 20
192.0863448381536
 30
0.0
 40
0.425
100
AcDbArc
 50
314.9405469999989
 51
44.90087200000178
  0
LINE
  5
15F
330
2
100
AcDbEntity
  8
GAIKEI
  6
HIDDEN2
 62
     1
100
AcDbLine
 10
159.4832939541901
 20
191.9263448381537
 30
0.0
 11
159.3832939541901
 21
191.9263448381537
 31
0.0
  0
LINE
  5
160
330
2
100
AcDbEntity
  8
GAIKEI
  6
HIDDEN2
 62
     1
100
AcDbLine
 10
159.4832939541901
 20
192.2463448381536
 30
0.0
 11
159.3832939541901
 21
192.2463448381536
 31
0.0
  0
LINE
  5
161
330
2
100
AcDbEntity
  8
GAIKEI
  6
HIDDEN2
 62
     1
100
AcDbLine
 10
159.4332939541901
 20
191.9263448381537
 30
0.0
 11
159.4332939541901
 21
192.2463448381536
 31
0.0
  0
ARC
  5
162
330
2
100
AcDbEntity
  8
GAIKEI
  6
HIDDEN2
 62
     1
100
AcDbCircle
 10
158.9082939541901
 20
191.3863448381537
 30
0.0
 40
0.1
100
AcDbArc
 50
90.0
 51
180.0
  0
LINE
  5
163
330
2
100
AcDbEntity
  8
GAIKEI
  6
HIDDEN2
 62
     1
100
AcDbLine
 10
159.0582939541901
 20
191.4863448381536
 30
0.0
 11
158.9082939541901
 21
191.4863448381536
 31
0.0
  0
LINE
  5
164
330
2
100
AcDbEntity
  8
GAIKEI
  6
HIDDEN2
 62
     1
100
AcDbLine
 10
158.9832939541901
 20
191.1613448381536
 30
0.0
 11
158.9832939541901
 21
190.4113448381536
 31
0.0
  0
LINE
  5
165
330
2
100
AcDbEntity
  8
GAIKEI
  6
HIDDEN2
 62
     1
100
AcDbLine
 10
158.8257939541901
 20
190.3963448381537
 30
0.0
 11
158.0657939541901
 21
190.3963448381537
 31
0.0
  0
LINE
  5
166
330
2
100
AcDbEntity
  8
GAIKEI
  6
HIDDEN2
 62
     1
100
AcDbLine
 10
158.3207939541901
 20
191.2613448381537
 30
0.0
 11
158.3207939541901
 21
191.1363448381537
 31
0.0
  0
LINE
  5
167
330
2
100
AcDbEntity
  8
GAIKEI
  6
HIDDEN2
 62
     1
100
AcDbLine
 10
158.8207939541901
 20
191.2613448381537
 30
0.0
 11
158.8207939541901
 21
191.2863448381536
 31
0.0
  0
LINE
  5
168
330
2
100
AcDbEntity
  8
GAIKEI
  6
HIDDEN2
 62
     1
100
AcDbLine
 10
158.9582939541901
 20
191.2863448381536
 30
0.0
 11
159.0582939541901
 21
191.2863448381536
 31
0.0
  0
LINE
  5
169
330
2
100
AcDbEntity
  8
GAIKEI
  6
HIDDEN2
 62
     1
100
AcDbLine
 10
158.9457939541901
 20
191.2863448381536
 30
0.0
 11
158.9457939541901
 21
191.4863448381536
 31
0.0
  0
LINE
  5
16A
330
2
100
AcDbEntity
  8
GAIKEI
  6
HIDDEN2
 62
     1
100
AcDbLine
 10
158.9582939541901
 20
191.2863448381536
 30
0.0
 11
158.9582939541901
 21
191.4863448381536
 31
0.0
  0
LINE
  5
16B
330
2
100
AcDbEntity
  8
GAIKEI
  6
HIDDEN2
 62
     1
100
AcDbLine
 10
158.8082939541901
 20
191.2863448381536
 30
0.0
 11
158.8082939541901
 21
191.3863448381537
 31
0.0
  0
LINE
  5
16C
330
2
100
AcDbEntity
  8
GAIKEI
  6
HIDDEN2
 62
     1
100
AcDbLine
 10
158.8457939541901
 20
191.4644073381537
 30
0.0
 11
158.8457939541901
 21
191.2863448381536
 31
0.0
  0
LINE
  5
16D
330
2
100
AcDbEntity
  8
GAIKEI
  6
HIDDEN2
 62
     1
100
AcDbLine
 10
157.2832939541901
 20
191.7613448381537
 30
0.0
 11
157.3582939541901
 21
191.7613448381537
 31
0.0
  0
ARC
  5
16E
330
2
100
AcDbEntity
  8
GAIKEI
  6
HIDDEN2
 62
     1
100
AcDbCircle
 10
157.3582939541901
 20
192.0863448381536
 30
0.0
 40
0.325
100
AcDbArc
 50
270.0
 51
0.0
  0
LINE
  5
16F
330
2
100
AcDbEntity
  8
GAIKEI
  6
HIDDEN2
 62
     1
100
AcDbLine
 10
157.6832939541901
 20
192.0863448381536
 30
0.0
 11
157.6832939541901
 21
192.3029035881536
 31
0.0
  0
ARC
  5
170
330
2
100
AcDbEntity
  8
GAIKEI
  6
HIDDEN2
 62
     1
100
AcDbCircle
 10
157.9332939541901
 20
192.3029035881536
 30
0.0
 40
0.25
100
AcDbArc
 50
124.7340099999995
 51
180.0
  0
CIRCLE
  5
171
330
2
100
AcDbEntity
  8
GAIKEI
  6
HIDDEN2
 62
     1
100
AcDbCircle
 10
157.3207939541901
 20
192.5738448381537
 30
0.0
 40
0.3625
  0
ARC
  5
172
330
2
100
AcDbEntity
  8
GAIKEI
  6
HIDDEN2
 62
     1
100
AcDbCircle
 10
157.3207939541901
 20
193.1863448381536
 30
0.0
 40
0.825
100
AcDbArc
 50
304.7340099999996
 51
0.0
  0
LINE
  5
173
330
2
100
AcDbEntity
  8
GAIKEI
  6
HIDDEN2
 62
     1
100
AcDbLine
 10
158.1457939541901
 20
193.1863448381536
 30
0.0
 11
158.1457939541901
 21
193.4362568381536
 31
0.0
  0
ARC
  5
174
330
2
100
AcDbEntity
  8
GAIKEI
  6
HIDDEN2
 62
     1
100
AcDbCircle
 10
156.4960519541901
 20
193.5363448381536
 30
0.0
 40
0.10025825
100
AcDbArc
 50
86.66036600000101
 51
269.8524600000009
  0
ARC
  5
175
330
2
100
AcDbEntity
  8
GAIKEI
  6
HIDDEN2
 62
     1
100
AcDbCircle
 10
156.1707939541901
 20
195.7363448381536
 30
0.0
 40
0.1
100
AcDbArc
 50
180.0
 51
270.0
  0
LINE
  5
176
330
2
100
AcDbEntity
  8
GAIKEI
  6
HIDDEN2
 62
     1
100
AcDbLine
 10
156.3207939541901
 20
191.2613448381537
 30
0.0
 11
156.3207939541901
 21
191.1363448381537
 31
0.0
  0
LINE
  5
177
330
2
100
AcDbEntity
  8
GAIKEI
  6
HIDDEN2
 62
     1
100
AcDbLine
 10
155.8207939541901
 20
191.2613448381537
 30
0.0
 11
155.8207939541901
 21
191.2863448381536
 31
0.0
  0
LINE
  5
178
330
2
100
AcDbEntity
  8
GAIKEI
  6
HIDDEN2
 62
     1
100
AcDbLine
 10
155.8332939541901
 20
191.2863448381536
 30
0.0
 11
155.8332939541901
 21
191.3863448381537
 31
0.0
  0
LINE
  5
179
330
2
100
AcDbEntity
  8
GAIKEI
  6
HIDDEN2
 62
     1
100
AcDbLine
 10
156.5757939541901
 20
190.2463448381537
 30
0.0
 11
156.5757939541901
 21
190.3963448381537
 31
0.0
  0
LINE
  5
17A
330
2
100
AcDbEntity
  8
GAIKEI
  6
HIDDEN2
 62
     1
100
AcDbLine
 10
156.5707939541901
 20
190.2863448381536
 30
0.0
 11
156.5707939541901
 21
190.3963448381537
 31
0.0
  0
LINE
  5
17B
330
2
100
AcDbEntity
  8
GAIKEI
  6
HIDDEN2
 62
     1
100
AcDbLine
 10
155.8207939541901
 20
190.2863448381536
 30
0.0
 11
155.8207939541901
 21
190.3963448381537
 31
0.0
  0
LINE
  5
17C
330
2
100
AcDbEntity
  8
GAIKEI
  6
HIDDEN2
 62
     1
100
AcDbLine
 10
155.8207939541901
 20
190.2863448381536
 30
0.0
 11
156.5707939541901
 21
190.2863448381536
 31
0.0
  0
LINE
  5
17D
330
2
100
AcDbEntity
  8
GAIKEI
  6
HIDDEN2
 62
     1
100
AcDbLine
 10
155.8207939541901
 20
190.3863448381537
 30
0.0
 11
156.5707939541901
 21
190.3863448381537
 31
0.0
  0
LINE
  5
17E
330
2
100
AcDbEntity
  8
GAIKEI
  6
HIDDEN2
 62
     1
100
AcDbLine
 10
156.4957939541901
 20
193.1863448381536
 30
0.0
 11
156.4957939541901
 21
193.4360870881536
 31
0.0
  0
LINE
  5
17F
330
2
100
AcDbEntity
  8
GAIKEI
  6
HIDDEN2
 62
     1
100
AcDbLine
 10
158.4707939541901
 20
195.6363448381537
 30
0.0
 11
156.1707939541901
 21
195.6363448381537
 31
0.0
  0
ARC
  5
180
330
2
100
AcDbEntity
  8
GAIKEI
  6
HIDDEN2
 62
     1
100
AcDbCircle
 10
157.3207939541901
 20
193.5363448381536
 30
0.0
 40
0.825
100
AcDbArc
 50
6.973575999999504
 51
173.031745
  0
LINE
  5
181
330
2
100
AcDbEntity
  8
GAIKEI
  6
HIDDEN2
 62
     1
100
AcDbLine
 10
158.3207939541901
 20
191.1363448381537
 30
0.0
 11
156.3207939541901
 21
191.1363448381537
 31
0.0
  0
ARC
  5
182
330
2
100
AcDbEntity
  8
GAIKEI
  6
HIDDEN2
 62
     1
100
AcDbCircle
 10
157.3207939541901
 20
193.1863448381536
 30
0.0
 40
0.825
100
AcDbArc
 50
180.0
 51
235.2659900000004
  0
ARC
  5
183
330
2
100
AcDbEntity
  8
GAIKEI
  6
HIDDEN2
 62
     1
100
AcDbCircle
 10
166.3207939541901
 20
189.4113448381536
 30
0.0
 40
0.175
100
AcDbArc
 50
270.0
 51
90.0
  0
ARC
  5
184
330
2
100
AcDbEntity
  8
GAIKEI
  6
HIDDEN2
 62
     1
100
AcDbCircle
 10
171.3207939541901
 20
189.4113448381536
 30
0.0
 40
0.175
100
AcDbArc
 50
90.0
 51
270.0
  0
ARC
  5
185
330
2
100
AcDbEntity
  8
GAIKEI
  6
HIDDEN2
 62
     1
100
AcDbCircle
 10
161.3207939541901
 20
189.4113448381536
 30
0.0
 40
0.175
100
AcDbArc
 50
90.0
 51
270.0
  0
LINE
  5
186
330
2
100
AcDbEntity
  8
GAIKEI
  6
HIDDEN2
 62
     1
100
AcDbLine
 10
161.3207939541901
 20
189.2363448381536
 30
0.0
 11
166.3207939541901
 21
189.2363448381536
 31
0.0
  0
LINE
  5
187
330
2
100
AcDbEntity
  8
GAIKEI
  6
HIDDEN2
 62
     1
100
AcDbLine
 10
164.8957939541901
 20
190.8113448381536
 30
0.0
 11
164.8957939541901
 21
190.2113448381536
 31
0.0
  0
ARC
  5
188
330
2
100
AcDbEntity
  8
GAIKEI
  6
HIDDEN2
 62
     1
100
AcDbCircle
 10
164.7457939541901
 20
190.2113448381536
 30
0.0
 40
0.15
100
AcDbArc
 50
270.0
 51
0.0
  0
ARC
  5
189
330
2
100
AcDbEntity
  8
GAIKEI
  6
HIDDEN2
 62
     1
100
AcDbCircle
 10
164.7457939541901
 20
190.8113448381536
 30
0.0
 40
0.15
100
AcDbArc
 50
0.0
 51
90.0
  0
LINE
  5
18A
330
2
100
AcDbEntity
  8
GAIKEI
  6
HIDDEN2
 62
     1
100
AcDbLine
 10
161.1457939541901
 20
190.8113448381536
 30
0.0
 11
161.1457939541901
 21
190.2113448381536
 31
0.0
  0
ARC
  5
18B
330
2
100
AcDbEntity
  8
GAIKEI
  6
HIDDEN2
 62
     1
100
AcDbCircle
 10
161.2957939541901
 20
190.2113448381536
 30
0.0
 40
0.15
100
AcDbArc
 50
180.0
 51
270.0
  0
ARC
  5
18C
330
2
100
AcDbEntity
  8
GAIKEI
  6
HIDDEN2
 62
     1
100
AcDbCircle
 10
161.2957939541901
 20
190.8113448381536
 30
0.0
 40
0.15
100
AcDbArc
 50
90.0
 51
180.0
  0
LINE
  5
18D
330
2
100
AcDbEntity
  8
GAIKEI
  6
HIDDEN2
 62
     1
100
AcDbLine
 10
161.3207939541901
 20
189.5863448381536
 30
0.0
 11
166.3207939541901
 21
189.5863448381536
 31
0.0
  0
LINE
  5
18E
330
2
100
AcDbEntity
  8
GAIKEI
  6
HIDDEN2
 62
     1
100
AcDbLine
 10
161.2957939541901
 20
190.0613448381536
 30
0.0
 11
164.7457939541901
 21
190.0613448381536
 31
0.0
  0
LINE
  5
18F
330
2
100
AcDbEntity
  8
GAIKEI
  6
HIDDEN2
 62
     1
100
AcDbLine
 10
164.7457939541901
 20
190.9613448381536
 30
0.0
 11
161.2957939541901
 21
190.9613448381536
 31
0.0
  0
LINE
  5
190
330
2
100
AcDbEntity
  8
GAIKEI
  6
HIDDEN2
 62
     1
100
AcDbLine
 10
191.3207939541901
 20
191.2613448381537
 30
0.0
 11
193.1957939541901
 21
191.2613448381537
 31
0.0
  0
LINE
  5
191
330
2
100
AcDbEntity
  8
GAIKEI
  6
HIDDEN2
 62
     1
100
AcDbLine
 10
191.3207939541901
 20
191.1613448381536
 30
0.0
 11
193.1957939541901
 21
191.1613448381536
 31
0.0
  0
ARC
  5
192
330
2
100
AcDbEntity
  8
GAIKEI
  6
HIDDEN2
 62
     1
100
AcDbCircle
 10
192.4457939541901
 20
189.4113448381536
 30
0.0
 40
0.5
100
AcDbArc
 50
270.0
 51
90.0
  0
LINE
  5
193
330
2
100
AcDbEntity
  8
GAIKEI
  6
HIDDEN2
 62
     1
100
AcDbLine
 10
186.3207939541901
 20
189.5863448381536
 30
0.0
 11
181.3207939541901
 21
189.5863448381536
 31
0.0
  0
LINE
  5
194
330
2
100
AcDbEntity
  8
GAIKEI
  6
HIDDEN2
 62
     1
100
AcDbLine
 10
186.3207939541901
 20
189.2363448381536
 30
0.0
 11
181.3207939541901
 21
189.2363448381536
 31
0.0
  0
LINE
  5
195
330
2
100
AcDbEntity
  8
GAIKEI
  6
HIDDEN2
 62
     1
100
AcDbLine
 10
174.8207939541901
 20
189.9113448381536
 30
0.0
 11
188.1582939541901
 21
189.9113448381536
 31
0.0
  0
ARC
  5
196
330
2
100
AcDbEntity
  8
GAIKEI
  6
HIDDEN2
 62
     1
100
AcDbCircle
 10
173.8207939541901
 20
189.4113448381536
 30
0.0
 40
0.175
100
AcDbArc
 50
180.0
 51
0.0
  0
ARC
  5
197
330
2
100
AcDbEntity
  8
GAIKEI
  6
HIDDEN2
 62
     1
100
AcDbCircle
 10
174.5707939541901
 20
189.4113448381536
 30
0.0
 40
0.175
100
AcDbArc
 50
90.0
 51
270.0
  0
ARC
  5
198
330
2
100
AcDbEntity
  8
GAIKEI
  6
HIDDEN2
 62
     1
100
AcDbCircle
 10
176.3207939541901
 20
189.4113448381536
 30
0.0
 40
0.175
100
AcDbArc
 50
270.0
 51
90.0
  0
ARC
  5
199
330
2
100
AcDbEntity
  8
GAIKEI
  6
HIDDEN2
 62
     1
100
AcDbCircle
 10
181.3207939541901
 20
189.4113448381536
 30
0.0
 40
0.175
100
AcDbArc
 50
90.0
 51
270.0
  0
ARC
  5
19A
330
2
100
AcDbEntity
  8
GAIKEI
  6
HIDDEN2
 62
     1
100
AcDbCircle
 10
173.0707939541901
 20
189.4113448381536
 30
0.0
 40
0.175
100
AcDbArc
 50
270.0
 51
90.0
  0
LINE
  5
19B
330
2
100
AcDbEntity
  8
GAIKEI
  6
HIDDEN2
 62
     1
100
AcDbLine
 10
173.8207939541901
 20
189.2363448381536
 30
0.0
 11
173.8207939541901
 21
188.6113448381536
 31
0.0
  0
LINE
  5
19C
330
2
100
AcDbEntity
  8
GAIKEI
  6
HIDDEN2
 62
     1
100
AcDbLine
 10
174.5707939541901
 20
189.2363448381536
 30
0.0
 11
176.3207939541901
 21
189.2363448381536
 31
0.0
  0
LINE
  5
19D
330
2
100
AcDbEntity
  8
GAIKEI
  6
HIDDEN2
 62
     1
100
AcDbLine
 10
173.6457939541901
 20
190.4113448381536
 30
0.0
 11
173.6457939541901
 21
190.2237548381536
 31
0.0
  0
LINE
  5
19E
330
2
100
AcDbEntity
  8
GAIKEI
  6
HIDDEN2
 62
     1
100
AcDbLine
 10
173.9957939541901
 20
190.4113448381536
 30
0.0
 11
173.9957939541901
 21
190.2237548381536
 31
0.0
  0
ARC
  5
19F
330
2
100
AcDbEntity
  8
GAIKEI
  6
HIDDEN2
 62
     1
100
AcDbCircle
 10
174.8207939541901
 20
190.4113448381536
 30
0.0
 40
0.5
100
AcDbArc
 50
180.0
 51
270.0
  0
ARC
  5
1A0
330
2
100
AcDbEntity
  8
GAIKEI
  6
HIDDEN2
 62
     1
100
AcDbCircle
 10
173.5957939541901
 20
190.2237548381536
 30
0.0
 40
0.05
100
AcDbArc
 50
305.7617140000009
 51
0.0
  0
LINE
  5
1A1
330
2
100
AcDbEntity
  8
GAIKEI
  6
HIDDEN2
 62
     1
100
AcDbLine
 10
173.6457939541901
 20
189.5989348381536
 30
0.0
 11
173.6457939541901
 21
189.4113448381536
 31
0.0
  0
ARC
  5
1A2
330
2
100
AcDbEntity
  8
GAIKEI
  6
HIDDEN2
 62
     1
100
AcDbCircle
 10
173.5957939541901
 20
189.5989348381536
 30
0.0
 40
0.05
100
AcDbArc
 50
0.0
 51
54.23828599999911
  0
ARC
  5
1A3
330
2
100
AcDbEntity
  8
GAIKEI
  6
HIDDEN2
 62
     1
100
AcDbCircle
 10
173.8207939541901
 20
189.9113448381536
 30
0.0
 40
0.335
100
AcDbArc
 50
125.7617140000009
 51
234.238285999999
  0
ARC
  5
1A4
330
2
100
AcDbEntity
  8
GAIKEI
  6
HIDDEN2
 62
     1
100
AcDbCircle
 10
174.0457939541901
 20
190.2237548381536
 30
0.0
 40
0.05
100
AcDbArc
 50
180.0
 51
234.238285999999
  0
LINE
  5
1A5
330
2
100
AcDbEntity
  8
GAIKEI
  6
HIDDEN2
 62
     1
100
AcDbLine
 10
173.9957939541901
 20
189.5989348381536
 30
0.0
 11
173.9957939541901
 21
189.4113448381536
 31
0.0
  0
ARC
  5
1A6
330
2
100
AcDbEntity
  8
GAIKEI
  6
HIDDEN2
 62
     1
100
AcDbCircle
 10
174.0457939541901
 20
189.5989348381536
 30
0.0
 40
0.05
100
AcDbArc
 50
125.7617140000009
 51
180.0
  0
ARC
  5
1A7
330
2
100
AcDbEntity
  8
GAIKEI
  6
HIDDEN2
 62
     1
100
AcDbCircle
 10
173.8207939541901
 20
189.9113448381536
 30
0.0
 40
0.335
100
AcDbArc
 50
305.7617140000009
 51
54.23828599999911
  0
ARC
  5
1A8
330
2
100
AcDbEntity
  8
GAIKEI
  6
HIDDEN2
 62
     1
100
AcDbCircle
 10
173.8207939541901
 20
190.4113448381536
 30
0.0
 40
0.175
100
AcDbArc
 50
0.0
 51
180.0
  0
LINE
  5
1A9
330
2
100
AcDbEntity
  8
GAIKEI
  6
HIDDEN2
 62
     1
100
AcDbLine
 10
173.8207939541901
 20
191.1613448381536
 30
0.0
 11
173.8207939541901
 21
190.5863448381537
 31
0.0
  0
LINE
  5
1AA
330
2
100
AcDbEntity
  8
GAIKEI
  6
HIDDEN2
 62
     1
100
AcDbLine
 10
174.5707939541901
 20
189.5863448381536
 30
0.0
 11
176.3207939541901
 21
189.5863448381536
 31
0.0
  0
ARC
  5
1AB
330
2
100
AcDbEntity
  8
GAIKEI
  6
HIDDEN2
 62
     1
100
AcDbCircle
 10
173.8207939541901
 20
190.4113448381536
 30
0.0
 40
0.5
100
AcDbArc
 50
0.0
 51
180.0
  0
ARC
  5
1AC
330
2
100
AcDbEntity
  8
GAIKEI
  6
HIDDEN2
 62
     1
100
AcDbCircle
 10
172.8207939541901
 20
190.4113448381536
 30
0.0
 40
0.5
100
AcDbArc
 50
270.0
 51
0.0
  0
ARC
  5
1AD
330
2
100
AcDbEntity
  8
GAIKEI
  6
HIDDEN2
 62
     1
100
AcDbCircle
 10
186.3207939541901
 20
189.4113448381536
 30
0.0
 40
0.175
100
AcDbArc
 50
270.0
 51
90.0
  0
ARC
  5
1AE
330
2
100
AcDbEntity
  8
GAIKEI
  6
HIDDEN2
 62
     1
100
AcDbCircle
 10
190.3207939541901
 20
189.4113448381536
 30
0.0
 40
0.175
100
AcDbArc
 50
90.0
 51
270.0
  0
ARC
  5
1AF
330
2
100
AcDbEntity
  8
GAIKEI
  6
HIDDEN2
 62
     1
100
AcDbCircle
 10
192.4457939541901
 20
189.4113448381536
 30
0.0
 40
0.175
100
AcDbArc
 50
270.0
 51
90.0
  0
LINE
  5
1B0
330
2
100
AcDbEntity
  8
GAIKEI
  6
HIDDEN2
 62
     1
100
AcDbLine
 10
192.4457939541901
 20
189.2363448381536
 30
0.0
 11
190.3207939541901
 21
189.2363448381536
 31
0.0
  0
ARC
  5
1B1
330
2
100
AcDbEntity
  8
GAIKEI
  6
HIDDEN2
 62
     1
100
AcDbCircle
 10
191.1455357041901
 20
193.5363448381536
 30
0.0
 40
0.10025825
100
AcDbArc
 50
270.1475399999991
 51
93.33963399999895
  0
ARC
  5
1B2
330
2
100
AcDbEntity
  8
GAIKEI
  6
HIDDEN2
 62
     1
100
AcDbCircle
 10
191.4707939541901
 20
195.7363448381536
 30
0.0
 40
0.1
100
AcDbArc
 50
270.0
 51
0.0
  0
LINE
  5
1B3
330
2
100
AcDbEntity
  8
GAIKEI
  6
HIDDEN2
 62
     1
100
AcDbLine
 10
191.8257939541901
 20
190.2463448381537
 30
0.0
 11
191.8257939541901
 21
190.3963448381537
 31
0.0
  0
LINE
  5
1B4
330
2
100
AcDbEntity
  8
GAIKEI
  6
HIDDEN2
 62
     1
100
AcDbLine
 10
191.8207939541901
 20
190.2863448381536
 30
0.0
 11
191.8207939541901
 21
190.3963448381537
 31
0.0
  0
LINE
  5
1B5
330
2
100
AcDbEntity
  8
GAIKEI
  6
HIDDEN2
 62
     1
100
AcDbLine
 10
191.0657939541901
 20
190.2463448381537
 30
0.0
 11
191.0657939541901
 21
190.3963448381537
 31
0.0
  0
LINE
  5
1B6
330
2
100
AcDbEntity
  8
GAIKEI
  6
HIDDEN2
 62
     1
100
AcDbLine
 10
191.0707939541901
 20
190.2863448381536
 30
0.0
 11
191.0707939541901
 21
190.3963448381537
 31
0.0
  0
ARC
  5
1B7
330
2
100
AcDbEntity
  8
GAIKEI
  6
HIDDEN2
 62
     1
100
AcDbCircle
 10
192.48329395419
 20
190.4102623381536
 30
0.0
 40
0.5
100
AcDbArc
 50
180.0
 51
265.6987780000006
  0
LINE
  5
1B8
330
2
100
AcDbEntity
  8
GAIKEI
  6
HIDDEN2
 62
     1
100
AcDbLine
 10
192.4457939541901
 20
189.5863448381536
 30
0.0
 11
190.3207939541901
 21
189.5863448381536
 31
0.0
  0
LINE
  5
1B9
330
2
100
AcDbEntity
  8
GAIKEI
  6
HIDDEN2
 62
     1
100
AcDbLine
 10
191.8257939541901
 20
190.2463448381537
 30
0.0
 11
191.0657939541901
 21
190.2463448381537
 31
0.0
  0
LINE
  5
1BA
330
2
100
AcDbEntity
  8
GAIKEI
  6
HIDDEN2
 62
     1
100
AcDbLine
 10
191.8207939541901
 20
190.2863448381536
 30
0.0
 11
191.0707939541901
 21
190.2863448381536
 31
0.0
  0
LINE
  5
1BB
330
2
100
AcDbEntity
  8
GAIKEI
  6
HIDDEN2
 62
     1
100
AcDbLine
 10
191.8207939541901
 20
190.3863448381537
 30
0.0
 11
191.0707939541901
 21
190.3863448381537
 31
0.0
  0
ARC
  5
1BC
330
2
100
AcDbEntity
  8
GAIKEI
  6
HIDDEN2
 62
     1
100
AcDbCircle
 10
190.3582939541901
 20
192.0863448381536
 30
0.0
 40
0.325
100
AcDbArc
 50
270.0
 51
0.0
  0
LINE
  5
1BD
330
2
100
AcDbEntity
  8
GAIKEI
  6
HIDDEN2
 62
     1
100
AcDbLine
 10
190.3582939541901
 20
191.7613448381537
 30
0.0
 11
190.2832939541901
 21
191.7613448381537
 31
0.0
  0
LINE
  5
1BE
330
2
100
AcDbEntity
  8
GAIKEI
  6
HIDDEN2
 62
     1
100
AcDbLine
 10
192.0582939541901
 20
191.4863448381536
 30
0.0
 11
191.9082939541901
 21
191.4863448381536
 31
0.0
  0
ARC
  5
1BF
330
2
100
AcDbEntity
  8
GAIKEI
  6
HIDDEN2
 62
     1
100
AcDbCircle
 10
191.9082939541901
 20
191.3863448381537
 30
0.0
 40
0.1
100
AcDbArc
 50
90.0
 51
180.0
  0
LINE
  5
1C0
330
2
100
AcDbEntity
  8
GAIKEI
  6
HIDDEN2
 62
     1
100
AcDbLine
 10
192.3842659541901
 20
191.7110673381536
 30
0.0
 11
192.4132939541901
 21
191.7613448381537
 31
0.0
  0
LINE
  5
1C1
330
2
100
AcDbEntity
  8
GAIKEI
  6
HIDDEN2
 62
     1
100
AcDbLine
 10
192.4132939541901
 20
191.7613448381537
 30
0.0
 11
192.4132939541901
 21
192.4113448381536
 31
0.0
  0
LINE
  5
1C2
330
2
100
AcDbEntity
  8
GAIKEI
  6
HIDDEN2
 62
     1
100
AcDbLine
 10
192.4132939541901
 20
192.4113448381536
 30
0.0
 11
192.3842659541901
 21
192.4616225881537
 31
0.0
  0
LINE
  5
1C3
330
2
100
AcDbEntity
  8
GAIKEI
  6
HIDDEN2
 62
     1
100
AcDbLine
 10
192.3842659541901
 20
191.7110673381536
 30
0.0
 11
192.1382939541901
 21
191.7110673381536
 31
0.0
  0
LINE
  5
1C4
330
2
100
AcDbEntity
  8
GAIKEI
  6
HIDDEN2
 62
     1
100
AcDbLine
 10
192.3842659541901
 20
192.4616225881537
 30
0.0
 11
192.1382939541901
 21
192.4616225881537
 31
0.0
  0
LINE
  5
1C5
330
2
100
AcDbEntity
  8
GAIKEI
  6
HIDDEN2
 62
     1
100
AcDbLine
 10
192.1382939541901
 20
192.4863448381536
 30
0.0
 11
192.1382939541901
 21
191.6863448381536
 31
0.0
  0
LINE
  5
1C6
330
2
100
AcDbEntity
  8
GAIKEI
  6
HIDDEN2
 62
     1
100
AcDbLine
 10
192.3842659541901
 20
191.8987060881536
 30
0.0
 11
192.1382939541901
 21
191.8987060881536
 31
0.0
  0
LINE
  5
1C7
330
2
100
AcDbEntity
  8
GAIKEI
  6
HIDDEN2
 62
     1
100
AcDbLine
 10
192.3842659541901
 20
192.2739838381536
 30
0.0
 11
192.1382939541901
 21
192.2739838381536
 31
0.0
  0
ARC
  5
1C8
330
2
100
AcDbEntity
  8
GAIKEI
  6
HIDDEN2
 62
     1
100
AcDbCircle
 10
192.2471654541901
 20
191.8048865881536
 30
0.0
 40
0.1661285
100
AcDbArc
 50
325.615752999999
 51
34.38424700000105
  0
ARC
  5
1C9
330
2
100
AcDbEntity
  8
GAIKEI
  6
HIDDEN2
 62
     1
100
AcDbCircle
 10
191.7923217041901
 20
192.0863448381536
 30
0.0
 40
0.62097225
100
AcDbArc
 50
342.4120459999997
 51
17.58795400000037
  0
ARC
  5
1CA
330
2
100
AcDbEntity
  8
GAIKEI
  6
HIDDEN2
 62
     1
100
AcDbCircle
 10
192.2471654541901
 20
192.3678030881536
 30
0.0
 40
0.1661285
100
AcDbArc
 50
325.615752999999
 51
34.38424700000105
  0
LINE
  5
1CB
330
2
100
AcDbEntity
  8
GAIKEI
  6
HIDDEN2
 62
     1
100
AcDbLine
 10
192.1382939541901
 20
191.6863448381536
 30
0.0
 11
192.0582939541901
 21
191.6863448381536
 31
0.0
  0
LINE
  5
1CC
330
2
100
AcDbEntity
  8
GAIKEI
  6
HIDDEN2
 62
     1
100
AcDbLine
 10
192.0582939541901
 20
191.6863448381536
 30
0.0
 11
192.0582939541901
 21
192.4863448381536
 31
0.0
  0
LINE
  5
1CD
330
2
100
AcDbEntity
  8
GAIKEI
  6
HIDDEN2
 62
     1
100
AcDbLine
 10
192.0582939541901
 20
192.4863448381536
 30
0.0
 11
192.1382939541901
 21
192.4863448381536
 31
0.0
  0
LINE
  5
1CE
330
2
100
AcDbEntity
  8
GAIKEI
  6
HIDDEN2
 62
     1
100
AcDbLine
 10
191.9832939541901
 20
191.1613448381536
 30
0.0
 11
191.9832939541901
 21
190.4102623381536
 31
0.0
  0
LINE
  5
1CF
330
2
100
AcDbEntity
  8
GAIKEI
  6
HIDDEN2
 62
     1
100
AcDbLine
 10
191.8207939541901
 20
191.2613448381537
 30
0.0
 11
191.8207939541901
 21
191.2863448381536
 31
0.0
  0
LINE
  5
1D0
330
2
100
AcDbEntity
  8
GAIKEI
  6
HIDDEN2
 62
     1
100
AcDbLine
 10
191.9582939541901
 20
191.2863448381536
 30
0.0
 11
192.0582939541901
 21
191.2863448381536
 31
0.0
  0
LINE
  5
1D1
330
2
100
AcDbEntity
  8
GAIKEI
  6
HIDDEN2
 62
     1
100
AcDbLine
 10
191.3207939541901
 20
191.2613448381537
 30
0.0
 11
191.3207939541901
 21
191.1363448381537
 31
0.0
  0
LINE
  5
1D2
330
2
100
AcDbEntity
  8
GAIKEI
  6
HIDDEN2
 62
     1
100
AcDbLine
 10
191.8257939541901
 20
190.3963448381537
 30
0.0
 11
191.0657939541901
 21
190.3963448381537
 31
0.0
  0
LINE
  5
1D3
330
2
100
AcDbEntity
  8
GAIKEI
  6
HIDDEN2
 62
     1
100
AcDbLine
 10
191.9457939541901
 20
191.2863448381536
 30
0.0
 11
191.9457939541901
 21
191.4863448381536
 31
0.0
  0
LINE
  5
1D4
330
2
100
AcDbEntity
  8
GAIKEI
  6
HIDDEN2
 62
     1
100
AcDbLine
 10
191.9582939541901
 20
191.2863448381536
 30
0.0
 11
191.9582939541901
 21
191.4863448381536
 31
0.0
  0
LINE
  5
1D5
330
2
100
AcDbEntity
  8
GAIKEI
  6
HIDDEN2
 62
     1
100
AcDbLine
 10
191.8082939541901
 20
191.2863448381536
 30
0.0
 11
191.8082939541901
 21
191.3863448381537
 31
0.0
  0
LINE
  5
1D6
330
2
100
AcDbEntity
  8
GAIKEI
  6
HIDDEN2
 62
     1
100
AcDbLine
 10
191.8457939541901
 20
191.4644073381537
 30
0.0
 11
191.8457939541901
 21
191.2863448381536
 31
0.0
  0
LINE
  5
1D7
330
2
100
AcDbEntity
  8
GAIKEI
  6
HIDDEN2
 62
     1
100
AcDbLine
 10
190.6832939541901
 20
192.0863448381536
 30
0.0
 11
190.6832939541901
 21
192.3029035881536
 31
0.0
  0
ARC
  5
1D8
330
2
100
AcDbEntity
  8
GAIKEI
  6
HIDDEN2
 62
     1
100
AcDbCircle
 10
190.9332939541901
 20
192.3029035881536
 30
0.0
 40
0.25
100
AcDbArc
 50
124.7340099999995
 51
180.0
  0
ARC
  5
1D9
330
2
100
AcDbEntity
  8
GAIKEI
  6
HIDDEN2
 62
     1
100
AcDbCircle
 10
190.3207939541901
 20
193.1863448381536
 30
0.0
 40
0.825
100
AcDbArc
 50
304.7340099999996
 51
0.0
  0
LINE
  5
1DA
330
2
100
AcDbEntity
  8
GAIKEI
  6
HIDDEN2
 62
     1
100
AcDbLine
 10
191.1457939541901
 20
193.1863448381536
 30
0.0
 11
191.1457939541901
 21
193.4360870881536
 31
0.0
  0
ARC
  5
1DB
330
2
100
AcDbEntity
  8
GAIKEI
  6
HIDDEN2
 62
     1
100
AcDbCircle
 10
189.4960519541901
 20
193.5363448381536
 30
0.0
 40
0.10025825
100
AcDbArc
 50
86.66036600000101
 51
269.8524600000009
  0
ARC
  5
1DC
330
2
100
AcDbEntity
  8
GAIKEI
  6
HIDDEN2
 62
     1
100
AcDbCircle
 10
189.1707939541901
 20
195.7363448381536
 30
0.0
 40
0.1
100
AcDbArc
 50
180.0
 51
270.0
  0
LINE
  5
1DD
330
2
100
AcDbEntity
  8
GAIKEI
  6
HIDDEN2
 62
     1
100
AcDbLine
 10
189.5757939541901
 20
190.2463448381537
 30
0.0
 11
189.5757939541901
 21
190.3963448381537
 31
0.0
  0
LINE
  5
1DE
330
2
100
AcDbEntity
  8
GAIKEI
  6
HIDDEN2
 62
     1
100
AcDbLine
 10
188.8157939541901
 20
190.2463448381537
 30
0.0
 11
188.8157939541901
 21
190.3963448381537
 31
0.0
  0
LINE
  5
1DF
330
2
100
AcDbEntity
  8
GAIKEI
  6
HIDDEN2
 62
     1
100
AcDbLine
 10
188.8207939541901
 20
190.2863448381536
 30
0.0
 11
188.8207939541901
 21
190.3963448381537
 31
0.0
  0
LINE
  5
1E0
330
2
100
AcDbEntity
  8
GAIKEI
  6
HIDDEN2
 62
     1
100
AcDbLine
 10
189.5707939541901
 20
190.2863448381536
 30
0.0
 11
189.5707939541901
 21
190.3963448381537
 31
0.0
  0
ARC
  5
1E1
330
2
100
AcDbEntity
  8
GAIKEI
  6
HIDDEN2
 62
     1
100
AcDbCircle
 10
188.1582939541901
 20
190.4113448381536
 30
0.0
 40
0.5
100
AcDbArc
 50
270.0
 51
0.0
  0
LINE
  5
1E2
330
2
100
AcDbEntity
  8
GAIKEI
  6
HIDDEN2
 62
     1
100
AcDbLine
 10
188.8157939541901
 20
190.2463448381537
 30
0.0
 11
189.5757939541901
 21
190.2463448381537
 31
0.0
  0
LINE
  5
1E3
330
2
100
AcDbEntity
  8
GAIKEI
  6
HIDDEN2
 62
     1
100
AcDbLine
 10
188.8207939541901
 20
190.2863448381536
 30
0.0
 11
189.5707939541901
 21
190.2863448381536
 31
0.0
  0
LINE
  5
1E4
330
2
100
AcDbEntity
  8
GAIKEI
  6
HIDDEN2
 62
     1
100
AcDbLine
 10
188.8207939541901
 20
190.3863448381537
 30
0.0
 11
189.5707939541901
 21
190.3863448381537
 31
0.0
  0
LINE
  5
1E5
330
2
100
AcDbEntity
  8
GAIKEI
  6
HIDDEN2
 62
     1
100
AcDbLine
 10
189.9582939541901
 20
192.0863448381536
 30
0.0
 11
189.9582939541901
 21
192.3029035881536
 31
0.0
  0
ARC
  5
1E6
330
2
100
AcDbEntity
  8
GAIKEI
  6
HIDDEN2
 62
     1
100
AcDbCircle
 10
189.7082939541901
 20
192.3029035881536
 30
0.0
 40
0.25
100
AcDbArc
 50
0.0
 51
55.26599000000046
  0
ARC
  5
1E7
330
2
100
AcDbEntity
  8
GAIKEI
  6
HIDDEN2
 62
     1
100
AcDbCircle
 10
188.7332939541901
 20
191.3863448381537
 30
0.0
 40
0.1
100
AcDbArc
 50
0.0
 51
90.0
  0
LINE
  5
1E8
330
2
100
AcDbEntity
  8
GAIKEI
  6
HIDDEN2
 62
     1
100
AcDbLine
 10
188.8157939541901
 20
190.3963448381537
 30
0.0
 11
189.5757939541901
 21
190.3963448381537
 31
0.0
  0
LINE
  5
1E9
330
2
100
AcDbEntity
  8
GAIKEI
  6
HIDDEN2
 62
     1
100
AcDbLine
 10
189.3207939541901
 20
191.2613448381537
 30
0.0
 11
189.3207939541901
 21
191.1363448381537
 31
0.0
  0
LINE
  5
1EA
330
2
100
AcDbEntity
  8
GAIKEI
  6
HIDDEN2
 62
     1
100
AcDbLine
 10
188.8207939541901
 20
191.2613448381537
 30
0.0
 11
188.8207939541901
 21
191.2863448381536
 31
0.0
  0
LINE
  5
1EB
330
2
100
AcDbEntity
  8
GAIKEI
  6
HIDDEN2
 62
     1
100
AcDbLine
 10
188.8332939541901
 20
191.2863448381536
 30
0.0
 11
188.8332939541901
 21
191.3863448381537
 31
0.0
  0
LINE
  5
1EC
330
2
100
AcDbEntity
  8
GAIKEI
  6
HIDDEN2
 62
     1
100
AcDbLine
 10
188.7957939541901
 20
191.4644073381537
 30
0.0
 11
188.7957939541901
 21
191.2863448381536
 31
0.0
  0
LINE
  5
1ED
330
2
100
AcDbEntity
  8
GAIKEI
  6
HIDDEN2
 62
     1
100
AcDbLine
 10
188.1582939541901
 20
191.9263448381537
 30
0.0
 11
188.13829395419
 21
191.9463448381536
 31
0.0
  0
LINE
  5
1EE
330
2
100
AcDbEntity
  8
GAIKEI
  6
HIDDEN2
 62
     1
100
AcDbLine
 10
188.1582939541901
 20
192.2463448381536
 30
0.0
 11
188.13829395419
 21
192.2263448381536
 31
0.0
  0
LINE
  5
1EF
330
2
100
AcDbEntity
  8
GAIKEI
  6
HIDDEN2
 62
     1
100
AcDbLine
 10
188.13829395419
 20
191.9463448381536
 30
0.0
 11
188.13829395419
 21
192.2263448381536
 31
0.0
  0
LINE
  5
1F0
330
2
100
AcDbEntity
  8
GAIKEI
  6
HIDDEN2
 62
     1
100
AcDbLine
 10
188.2582939541901
 20
192.3863448381537
 30
0.0
 11
188.2582939541901
 21
191.7863448381536
 31
0.0
  0
LINE
  5
1F1
330
2
100
AcDbEntity
  8
GAIKEI
  6
HIDDEN2
 62
     1
100
AcDbLine
 10
188.2582939541901
 20
192.3863448381537
 30
0.0
 11
188.5832939541901
 21
192.3863448381537
 31
0.0
  0
LINE
  5
1F2
330
2
100
AcDbEntity
  8
GAIKEI
  6
HIDDEN2
 62
     1
100
AcDbLine
 10
188.2582939541901
 20
191.7863448381536
 30
0.0
 11
188.5832939541901
 21
191.7863448381536
 31
0.0
  0
ARC
  5
1F3
330
2
100
AcDbEntity
  8
GAIKEI
  6
HIDDEN2
 62
     1
100
AcDbCircle
 10
188.6832939541901
 20
192.0863448381536
 30
0.0
 40
0.425
100
AcDbArc
 50
135.0991279999982
 51
225.0594530000011
  0
LINE
  5
1F4
330
2
100
AcDbEntity
  8
GAIKEI
  6
HIDDEN2
 62
     1
100
AcDbLine
 10
188.1582939541901
 20
191.9263448381537
 30
0.0
 11
188.2582939541901
 21
191.9263448381537
 31
0.0
  0
LINE
  5
1F5
330
2
100
AcDbEntity
  8
GAIKEI
  6
HIDDEN2
 62
     1
100
AcDbLine
 10
188.1582939541901
 20
192.2463448381536
 30
0.0
 11
188.2582939541901
 21
192.2463448381536
 31
0.0
  0
LINE
  5
1F6
330
2
100
AcDbEntity
  8
GAIKEI
  6
HIDDEN2
 62
     1
100
AcDbLine
 10
188.2082939541901
 20
191.9263448381537
 30
0.0
 11
188.2082939541901
 21
192.2463448381536
 31
0.0
  0
LINE
  5
1F7
330
2
100
AcDbEntity
  8
GAIKEI
  6
HIDDEN2
 62
     1
100
AcDbLine
 10
188.6582939541901
 20
191.1613448381536
 30
0.0
 11
188.6582939541901
 21
190.4113448381536
 31
0.0
  0
LINE
  5
1F8
330
2
100
AcDbEntity
  8
GAIKEI
  6
HIDDEN2
 62
     1
100
AcDbLine
 10
188.6832939541901
 20
191.2863448381536
 30
0.0
 11
188.5832939541901
 21
191.2863448381536
 31
0.0
  0
LINE
  5
1F9
330
2
100
AcDbEntity
  8
GAIKEI
  6
HIDDEN2
 62
     1
100
AcDbLine
 10
188.6957939541901
 20
191.2863448381536
 30
0.0
 11
188.6957939541901
 21
191.4863448381536
 31
0.0
  0
LINE
  5
1FA
330
2
100
AcDbEntity
  8
GAIKEI
  6
HIDDEN2
 62
     1
100
AcDbLine
 10
188.6832939541901
 20
191.2863448381536
 30
0.0
 11
188.6832939541901
 21
191.4863448381536
 31
0.0
  0
LINE
  5
1FB
330
2
100
AcDbEntity
  8
GAIKEI
  6
HIDDEN2
 62
     1
100
AcDbLine
 10
188.5832939541901
 20
191.4863448381536
 30
0.0
 11
188.7332939541901
 21
191.4863448381536
 31
0.0
  0
ARC
  5
1FC
330
2
100
AcDbEntity
  8
GAIKEI
  6
HIDDEN2
 62
     1
100
AcDbCircle
 10
190.3207939541901
 20
193.1863448381536
 30
0.0
 40
0.825
100
AcDbArc
 50
180.0
 51
235.2659900000004
  0
LINE
  5
1FD
330
2
100
AcDbEntity
  8
GAIKEI
  6
HIDDEN2
 62
     1
100
AcDbLine
 10
189.4957939541901
 20
193.1863448381536
 30
0.0
 11
189.4957939541901
 21
193.4362568381536
 31
0.0
  0
ARC
  5
1FE
330
2
100
AcDbEntity
  8
GAIKEI
  6
HIDDEN2
 62
     1
100
AcDbCircle
 10
190.3207939541901
 20
193.5363448381536
 30
0.0
 40
0.825
100
AcDbArc
 50
6.968255000000018
 51
173.0264240000005
  0
LINE
  5
1FF
330
2
100
AcDbEntity
  8
GAIKEI
  6
HIDDEN2
 62
     1
100
AcDbLine
 10
189.3207939541901
 20
191.1363448381537
 30
0.0
 11
191.3207939541901
 21
191.1363448381537
 31
0.0
  0
LINE
  5
200
330
2
100
AcDbEntity
  8
GAIKEI
  6
HIDDEN2
 62
     1
100
AcDbLine
 10
188.6957939541901
 20
191.2863448381536
 30
0.0
 11
191.9457939541901
 21
191.2863448381536
 31
0.0
  0
ARC
  5
201
330
2
100
AcDbEntity
  8
GAIKEI
  6
HIDDEN2
 62
     1
100
AcDbCircle
 10
190.2832939541901
 20
192.0863448381536
 30
0.0
 40
0.325
100
AcDbArc
 50
180.0
 51
270.0
  0
CIRCLE
  5
202
330
2
100
AcDbEntity
  8
GAIKEI
  6
HIDDEN2
 62
     1
100
AcDbCircle
 10
190.3207939541901
 20
192.5738448381537
 30
0.0
 40
0.3625
  0
LINE
  5
203
330
2
100
AcDbEntity
  8
GAIKEI
  6
HIDDEN2
 62
     1
100
AcDbLine
 10
189.1707939541901
 20
195.6363448381537
 30
0.0
 11
191.4707939541901
 21
195.6363448381537
 31
0.0
  0
LINE
  5
204
330
2
100
AcDbEntity
  8
GAIKEI
  6
HIDDEN2
 62
     1
100
AcDbLine
 10
193.1957939541901
 20
191.2613448381537
 30
0.0
 11
193.1957939541901
 21
188.5113448381537
 31
0.0
  0
ARC
  5
205
330
2
100
AcDbEntity
  8
GAIKEI
 62
     1
100
AcDbCircle
 10
197.2312764541903
 20
187.0508632881536
 30
0.0
 40
0.25
100
AcDbArc
 50
270.0
 51
0.0
  0
ARC
  5
206
330
2
100
AcDbEntity
  8
GAIKEI
 62
     1
100
AcDbCircle
 10
197.2260364541899
 20
187.0561040631538
 30
0.0
 40
0.15
100
AcDbArc
 50
270.0
 51
0.0
  0
ARC
  5
207
330
2
100
AcDbEntity
  8
GAIKEI
 62
     1
100
AcDbCircle
 10
198.5554964541898
 20
185.7266419631538
 30
0.0
 40
0.2
100
AcDbArc
 50
270.0
 51
0.0
  0
ARC
  5
208
330
2
100
AcDbEntity
  8
GAIKEI
100
AcDbCircle
 10
198.6707939541903
 20
185.6113448381537
 30
0.0
 40
0.2
100
AcDbArc
 50
270.0
 51
0.0
  0
LINE
  5
209
330
2
100
AcDbEntity
  8
GAIKEI
  6
Continuous
 62
     1
100
AcDbLine
 10
233.9353852622513
 20
191.2863448381536
 30
0.0
 11
235.9362077622513
 21
191.2863448381536
 31
0.0
  0
ARC
  5
20A
330
2
100
AcDbEntity
  8
GAIKEI
  6
Continuous
 62
     1
100
AcDbCircle
 10
234.4362079415039
 20
191.561344971301
 30
0.0
 40
0.25
100
AcDbArc
 50
269.9999999999998
 51
359.9999999999997
  0
LINE
  5
20B
330
2
100
AcDbEntity
  8
GAIKEI
 62
     1
100
AcDbLine
 10
232.5067924801841
 20
190.0748940191709
 30
0.0
 11
232.5067924801841
 21
186.9543473537525
 31
0.0
  0
LINE
  5
20C
330
2
100
AcDbEntity
  8
GAIKEI
100
AcDbLine
 10
231.9112077608814
 20
186.9162490204346
 30
0.0
 11
231.9112077608814
 21
189.4818898527416
 31
0.0
  0
LINE
  5
20D
330
2
100
AcDbEntity
  8
GAIKEI
100
AcDbLine
 10
232.7817986134428
 20
186.9622118742131
 30
0.0
 11
232.7787609882975
 21
190.2049716157452
 31
0.0
  0
LINE
  5
20E
330
2
100
AcDbEntity
  8
GAIKEI
100
AcDbLine
 10
230.6862077613712
 20
185.4136011043688
 30
0.0
 11
228.5335910955658
 21
185.5264148543238
 31
0.0
  0
LINE
  5
20F
330
2
100
AcDbEntity
  8
GAIKEI
100
AcDbLine
 10
228.5009044289121
 20
185.5409394376513
 30
0.0
 11
228.4832527622526
 21
185.5232356876584
 31
0.0
  0
ARC
  5
210
330
2
100
AcDbEntity
  8
GAIKEI
100
AcDbCircle
 10
228.5362077622313
 20
185.5763461043036
 30
0.0
 40
0.04999999998
100
AcDbArc
 50
180.0
 51
266.9999999999944
  0
ARC
  5
211
330
2
100
AcDbEntity
  8
GAIKEI
 62
     1
100
AcDbCircle
 10
232.681792480114
 20
187.4498940202209
 30
0.0
 40
0.09999999996
100
AcDbArc
 50
114.9999980000101
 51
180.0
  0
ARC
  5
212
330
2
100
AcDbEntity
  8
GAIKEI
 62
     1
100
AcDbCircle
 10
232.3317924802541
 20
186.9582781870843
 30
0.0
 40
0.2499999999
100
AcDbArc
 50
273.0000010000031
 51
0.0
  0
ARC
  5
213
330
2
100
AcDbEntity
  8
GAIKEI
100
AcDbCircle
 10
232.5317987231281
 20
186.961977689132
 30
0.0
 40
0.25
100
AcDbArc
 50
272.9999994805756
 51
0.0536712749414972
  0
ARC
  5
214
330
2
100
AcDbEntity
  8
GAIKEI
 62
     1
100
AcDbCircle
 10
232.2567924802839
 20
186.9543473537525
 30
0.0
 40
0.2499999999
100
AcDbArc
 50
273.0000000000056
 51
0.0
  0
ARC
  5
215
330
2
100
AcDbEntity
  8
GAIKEI
100
AcDbCircle
 10
230.9112077612813
 20
186.3763598539838
 30
0.0
 40
0.2499999999
100
AcDbArc
 50
92.99999979999306
 51
154.158071000006
  0
ARC
  5
216
330
2
100
AcDbEntity
  8
GAIKEI
100
AcDbCircle
 10
231.6612077609814
 20
186.9162490204346
 30
0.0
 40
0.2499999999
100
AcDbArc
 50
272.9999990000082
 51
0.0
  0
LINE
  5
217
330
2
100
AcDbEntity
  8
GAIKEI
100
AcDbLine
 10
232.5448827099255
 20
186.7123203053246
 30
0.0
 11
230.8981240112865
 21
186.626017353884
 31
0.0
  0
LINE
  5
218
330
2
100
AcDbEntity
  8
GAIKEI
 62
     1
100
AcDbLine
 10
232.581792480154
 20
187.4498940202209
 30
0.0
 11
232.581792480154
 21
186.9595881870839
 31
0.0
  0
LINE
  5
219
330
2
100
AcDbEntity
  8
GAIKEI
 62
     1
100
AcDbLine
 10
232.6395308134643
 20
187.5405248535179
 30
0.0
 11
232.7240545634305
 21
187.5799386035023
 31
0.0
  0
ARC
  5
21A
330
2
100
AcDbEntity
  8
GAIKEI
 62
     1
100
AcDbCircle
 10
232.681792480114
 20
187.6705694367995
 30
0.0
 40
0.09999999996
100
AcDbArc
 50
294.9999990000018
 51
0.0
  0
CIRCLE
  5
21B
330
2
100
AcDbEntity
  8
GAIKEI
  6
Continuous
 62
     1
100
AcDbCircle
 10
234.1862077622513
 20
192.1113448381536
 30
0.0
 40
0.31133625
  0
CIRCLE
  5
21C
330
2
100
AcDbEntity
  8
GAIKEI
  6
Continuous
 62
     1
100
AcDbCircle
 10
234.1862077622513
 20
192.1113448381536
 30
0.0
 40
0.425
  0
LINE
  5
21D
330
2
100
AcDbEntity
  8
GAIKEI
  6
Continuous
 62
     1
100
AcDbLine
 10
232.9362079383078
 20
191.51134482003
 30
0.0
 11
233.0362079836992
 21
191.5113449924552
 31
0.0
  0
ARC
  5
21E
330
2
100
AcDbEntity
  8
GAIKEI
  6
Continuous
 62
     1
100
AcDbCircle
 10
233.0362079070758
 20
191.4113449688528
 30
0.0
 40
0.1
100
AcDbArc
 50
359.9999999999997
 51
89.99999999999973
  0
LINE
  5
21F
330
2
100
AcDbEntity
  8
GAIKEI
  6
Continuous
 62
     1
100
AcDbLine
 10
233.0362079070758
 20
191.4113449688528
 30
0.0
 11
233.1362079306782
 21
191.4113448922293
 31
0.0
  0
LINE
  5
220
330
2
100
AcDbEntity
  8
GAIKEI
  6
Continuous
 62
     1
100
AcDbLine
 10
233.0362079836992
 20
191.5113449924552
 30
0.0
 11
233.0362079070758
 21
191.4113449688528
 31
0.0
  0
ARC
  5
221
330
2
100
AcDbEntity
  8
GAIKEI
  6
Continuous
 62
     1
100
AcDbCircle
 10
233.0362079070758
 20
191.4113449688528
 30
0.0
 40
0.1
100
AcDbArc
 50
179.9999999999997
 51
269.9999999999998
  0
POINT
  5
222
330
2
100
AcDbEntity
  8
GAIKEI
  6
Continuous
 62
     1
100
AcDbPoint
 10
232.9362078068498
 20
191.3113450218737
 30
0.0
  0
ARC
  5
223
330
2
100
AcDbEntity
  8
GAIKEI
  6
Continuous
 62
     1
100
AcDbCircle
 10
233.2362079542808
 20
191.4113448156059
 30
0.0
 40
0.1
100
AcDbArc
 50
179.9999999999997
 51
269.9999999999998
  0
CIRCLE
  5
224
330
2
100
AcDbEntity
  8
GAIKEI
  6
Continuous
 62
     1
100
AcDbCircle
 10
233.3362079163646
 20
192.8363447997948
 30
0.0
 40
0.1025
  0
LINE
  5
225
330
2
100
AcDbEntity
  8
GAIKEI
  6
Continuous
 62
     1
100
AcDbLine
 10
233.0362078304523
 20
191.3113449452503
 30
0.0
 11
234.4362077499453
 21
191.3113449122948
 31
0.0
  0
LINE
  5
226
330
2
100
AcDbEntity
  8
GAIKEI
100
AcDbLine
 10
232.7918623423963
 20
190.2110808785292
 30
0.0
 11
232.1998985940994
 21
189.9350436025604
 31
0.0
  0
ARC
  5
227
330
2
100
AcDbEntity
  8
GAIKEI
 62
     1
100
AcDbCircle
 10
232.2864123440646
 20
190.2512302691005
 30
0.0
 40
0.2499999999
100
AcDbArc
 50
294.9999999999942
 51
0.0
  0
ARC
  5
228
330
2
100
AcDbEntity
  8
GAIKEI
100
AcDbCircle
 10
232.4112077606813
 20
189.4818898527416
 30
0.0
 40
0.4999999998
100
AcDbArc
 50
114.9999999999942
 51
180.0
  0
ARC
  5
229
330
2
100
AcDbEntity
  8
GAIKEI
100
AcDbCircle
 10
232.6862077622514
 20
190.4376578184291
 30
0.0
 40
0.25
100
AcDbArc
 50
295.0000037197304
 51
0.0
  0
LINE
  5
22A
330
2
100
AcDbEntity
  8
GAIKEI
  6
Continuous
 62
     1
100
AcDbLine
 10
235.7362077622514
 20
188.6113448381536
 30
0.0
 11
235.7362077622514
 21
191.1613448381536
 31
0.0
  0
LINE
  5
22B
330
2
100
AcDbEntity
  8
GAIKEI
  6
Continuous
 62
     1
100
AcDbLine
 10
235.8362077622513
 20
188.6113448381536
 30
0.0
 11
235.8362077622513
 21
191.1613448381536
 31
0.0
  0
ARC
  5
22C
330
2
100
AcDbEntity
  8
GAIKEI
  6
Continuous
 62
     1
100
AcDbCircle
 10
235.8362077622513
 20
188.6113448381536
 30
0.0
 40
0.1
100
AcDbArc
 50
270.0
 51
0.0
  0
LINE
  5
22D
330
2
100
AcDbEntity
  8
GAIKEI
  6
Continuous
 62
     1
100
AcDbLine
 10
235.5362077622514
 20
188.6113448381536
 30
0.0
 11
235.5362077622514
 21
188.5113448381537
 31
0.0
  0
LINE
  5
22E
330
2
100
AcDbEntity
  8
GAIKEI
  6
Continuous
 62
     1
100
AcDbLine
 10
235.5362077622514
 20
188.6113448381536
 30
0.0
 11
235.8362077622513
 21
188.6113448381536
 31
0.0
  0
LINE
  5
22F
330
2
100
AcDbEntity
  8
GAIKEI
  6
Continuous
 62
     1
100
AcDbLine
 10
235.5362077622514
 20
188.5113448381537
 30
0.0
 11
235.8362077622513
 21
188.5113448381537
 31
0.0
  0
LINE
  5
230
330
2
100
AcDbEntity
  8
GAIKEI
  6
Continuous
 62
     1
100
AcDbLine
 10
235.8362077622513
 20
188.9113448381536
 30
0.0
 11
235.7616722622514
 21
188.9946783381537
 31
0.0
  0
ARC
  5
231
330
2
100
AcDbEntity
  8
GAIKEI
  6
Continuous
 62
     1
100
AcDbCircle
 10
235.8362077622513
 20
189.0613448381536
 30
0.0
 40
0.1
100
AcDbArc
 50
180.0
 51
221.8103150000018
  0
LINE
  5
232
330
2
100
AcDbEntity
  8
GAIKEI
  6
Continuous
 62
     1
100
AcDbLine
 10
235.8362077622513
 20
189.9113448381536
 30
0.0
 11
235.7616722622514
 21
189.8280115881537
 31
0.0
  0
ARC
  5
233
330
2
100
AcDbEntity
  8
GAIKEI
  6
Continuous
 62
     1
100
AcDbCircle
 10
235.8362077622513
 20
189.7613448381537
 30
0.0
 40
0.1
100
AcDbArc
 50
138.1896849999983
 51
180.0
  0
LINE
  5
234
330
2
100
AcDbEntity
  8
GAIKEI
  6
Continuous
 62
     1
100
AcDbLine
 10
235.5862077622513
 20
190.3863448381537
 30
0.0
 11
235.5862077622513
 21
190.2863448381536
 31
0.0
  0
LINE
  5
235
330
2
100
AcDbEntity
  8
GAIKEI
  6
Continuous
 62
     1
100
AcDbLine
 10
235.7362077622514
 20
190.3863448381537
 30
0.0
 11
235.5862077622513
 21
190.3863448381537
 31
0.0
  0
LINE
  5
236
330
2
100
AcDbEntity
  8
GAIKEI
  6
Continuous
 62
     1
100
AcDbLine
 10
235.7362077622514
 20
190.2863448381536
 30
0.0
 11
235.5862077622513
 21
190.2863448381536
 31
0.0
  0
LINE
  5
237
330
2
100
AcDbEntity
  8
GAIKEI
  6
Continuous
 62
     1
100
AcDbLine
 10
235.8362077622513
 20
191.2613448381537
 30
0.0
 11
235.8362077622513
 21
191.2863448381536
 31
0.0
  0
ARC
  5
238
330
2
100
AcDbEntity
  8
GAIKEI
  6
Continuous
 62
     1
100
AcDbCircle
 10
235.8362077622513
 20
191.1613448381536
 30
0.0
 40
0.1
100
AcDbArc
 50
0.0
 51
90.0
  0
LINE
  5
239
330
2
100
AcDbEntity
  8
GAIKEI
  6
Continuous
 62
     1
100
AcDbLine
 10
235.5362077622514
 20
191.1613448381536
 30
0.0
 11
235.5362077622514
 21
191.2613448381537
 31
0.0
  0
LINE
  5
23A
330
2
100
AcDbEntity
  8
GAIKEI
  6
Continuous
 62
     1
100
AcDbLine
 10
235.5362077622514
 20
191.2613448381537
 30
0.0
 11
235.8362077622513
 21
191.2613448381537
 31
0.0
  0
LINE
  5
23B
330
2
100
AcDbEntity
  8
GAIKEI
  6
Continuous
 62
     1
100
AcDbLine
 10
235.5362077622514
 20
191.1613448381536
 30
0.0
 11
235.8362077622513
 21
191.1613448381536
 31
0.0
  0
LINE
  5
23C
330
2
100
AcDbEntity
  8
GAIKEI
  6
HIDDEN2
 62
     1
100
AcDbLine
 10
173.0707939541901
 20
211.7363448381536
 30
0.0
 11
171.3207939541901
 21
211.7363448381536
 31
0.0
  0
LINE
  5
23D
330
2
100
AcDbEntity
  8
GAIKEI
  6
HIDDEN2
 62
     1
100
AcDbLine
 10
173.0707939541901
 20
212.0863448381537
 30
0.0
 11
171.3207939541901
 21
212.0863448381537
 31
0.0
  0
LINE
  5
23E
330
2
100
AcDbEntity
  8
GAIKEI
  6
HIDDEN2
 62
     1
100
AcDbLine
 10
172.8207939541901
 20
211.4113448381536
 30
0.0
 11
159.4832939541901
 21
211.4113448381536
 31
0.0
  0
LINE
  5
23F
330
2
100
AcDbEntity
  8
GAIKEI
  6
HIDDEN2
 62
     1
100
AcDbLine
 10
193.1957939541901
 20
212.8113448381536
 30
0.0
 11
154.4457939541901
 21
212.8113448381536
 31
0.0
  0
LINE
  5
240
330
2
100
AcDbEntity
  8
GAIKEI
  6
HIDDEN2
 62
     1
100
AcDbLine
 10
193.1957939541901
 20
212.7113448381537
 30
0.0
 11
154.4457939541901
 21
212.7113448381537
 31
0.0
  0
LINE
  5
241
330
2
100
AcDbEntity
  8
GAIKEI
  6
HIDDEN2
 62
     1
100
AcDbLine
 10
192.4457939541901
 20
212.4113448381536
 30
0.0
 11
155.1957939541901
 21
212.4113448381536
 31
0.0
  0
LINE
  5
242
330
2
100
AcDbEntity
  8
GAIKEI
  6
HIDDEN2
 62
     1
100
AcDbLine
 10
189.3207939541901
 20
210.1613448381536
 30
0.0
 11
158.3207939541901
 21
210.1613448381536
 31
0.0
  0
LINE
  5
243
330
2
100
AcDbEntity
  8
GAIKEI
  6
HIDDEN2
 62
     1
100
AcDbLine
 10
189.3207939541901
 20
210.0613448381536
 30
0.0
 11
158.3207939541901
 21
210.0613448381536
 31
0.0
  0
LINE
  5
244
330
2
100
AcDbEntity
  8
GAIKEI
  6
Continuous
 62
     1
100
AcDbLine
 10
196.3707939541901
 20
213.6113448381537
 30
0.0
 11
151.2707939541901
 21
213.6113448381537
 31
0.0
  0
LINE
  5
245
330
2
100
AcDbEntity
  8
GAIKEI
100
AcDbLine
 10
148.9707939541899
 20
215.9113448381536
 30
0.0
 11
198.6707939541903
 21
215.9113448381536
 31
0.0
  0
LINE
  5
246
330
2
100
AcDbEntity
  8
GAIKEI
 62
     1
100
AcDbLine
 10
198.5554964541898
 20
215.7960477381537
 30
0.0
 11
149.0860914541904
 21
215.7960477381537
 31
0.0
  0
LINE
  5
247
330
2
100
AcDbEntity
  8
GAIKEI
 62
     1
100
AcDbLine
 10
197.2260364541899
 20
214.4165856131538
 30
0.0
 11
150.4155539541902
 21
214.4165856131538
 31
0.0
  0
LINE
  5
248
330
2
100
AcDbEntity
  8
GAIKEI
 62
     1
100
AcDbLine
 10
197.2312764541903
 20
214.5218264131539
 30
0.0
 11
150.4103139541898
 21
214.5218264131539
 31
0.0
  0
DIMENSION
  5
249
330
2
100
AcDbEntity
  8
SUNPO
100
AcDbDimension
  2
*D7
 10
198.8707939541901
 20
223.9110583938023
 30
0.0
 11
173.8207939541901
 21
225.6610583938023
 31
0.0
 70
    33
  1
1020
 71
     5
 42
50.09999999999999
  3
STANDARD
100
AcDbAlignedDimension
 13
148.7707939541901
 23
215.9110583938023
 33
0.0
 14
198.8707939541901
 24
215.9110583938023
 34
0.0
1001
ACAD
1000
DSTYLE
1002
{
1070
    40
1040
1.0
1070
   140
1040
2.5
1070
   147
1040
0.5
1070
   172
1070
     1
1070
   288
1070
     0
1002
}
  0
ARC
  5
256
330
2
100
AcDbEntity
  8
GAIKEI
 62
     1
100
AcDbCircle
 10
150.4103139541898
 20
214.2718264131539
 30
0.0
 40
0.25
100
AcDbArc
 50
90.000000199999
 51
180.0
  0
ARC
  5
257
330
2
100
AcDbEntity
  8
GAIKEI
 62
     1
100
AcDbCircle
 10
150.4155539541902
 20
214.2665856131537
 30
0.0
 40
0.15
100
AcDbArc
 50
90.000000199999
 51
180.0
  0
ARC
  5
258
330
2
100
AcDbEntity
  8
GAIKEI
100
AcDbCircle
 10
148.9707939541899
 20
215.7113448381536
 30
0.0
 40
0.2
100
AcDbArc
 50
90.000000199999
 51
180.0
  0
ARC
  5
259
330
2
100
AcDbEntity
  8
GAIKEI
 62
     1
100
AcDbCircle
 10
149.0860914541904
 20
215.5960477381537
 30
0.0
 40
0.2
100
AcDbArc
 50
90.000000199999
 51
180.0
  0
LINE
  5
25A
330
2
100
AcDbEntity
  8
GAIKEI
  6
HIDDEN2
 62
     1
100
AcDbLine
 10
154.4457939541901
 20
210.0613448381536
 30
0.0
 11
154.4457939541901
 21
212.8113448381536
 31
0.0
  0
ARC
  5
25B
330
2
100
AcDbEntity
  8
GAIKEI
  6
HIDDEN2
 62
     1
100
AcDbCircle
 10
155.3944224541901
 20
204.7678030881536
 30
0.0
 40
0.1661285
100
AcDbArc
 50
145.615752999999
 51
214.384247000001
  0
LINE
  5
25C
330
2
100
AcDbEntity
  8
GAIKEI
  6
HIDDEN2
 62
     1
100
AcDbLine
 10
155.2282939541901
 20
204.1613448381536
 30
0.0
 11
155.2282939541901
 21
204.8113448381536
 31
0.0
  0
LINE
  5
25D
330
2
100
AcDbEntity
  8
GAIKEI
  6
HIDDEN2
 62
     1
100
AcDbLine
 10
155.5032939541901
 20
204.8863448381537
 30
0.0
 11
155.5032939541901
 21
204.0863448381537
 31
0.0
  0
LINE
  5
25E
330
2
100
AcDbEntity
  8
GAIKEI
  6
HIDDEN2
 62
     1
100
AcDbLine
 10
155.5832939541901
 20
204.0863448381537
 30
0.0
 11
155.5832939541901
 21
204.8863448381537
 31
0.0
  0
LINE
  5
25F
330
2
100
AcDbEntity
  8
GAIKEI
  6
HIDDEN2
 62
     1
100
AcDbLine
 10
159.3832939541901
 20
204.7863448381536
 30
0.0
 11
159.3832939541901
 21
204.1863448381536
 31
0.0
  0
ARC
  5
260
330
2
100
AcDbEntity
  8
GAIKEI
  6
HIDDEN2
 62
     1
100
AcDbCircle
 10
158.9582939541901
 20
204.4863448381536
 30
0.0
 40
0.425
100
AcDbArc
 50
314.9405469999989
 51
44.90087200000178
  0
LINE
  5
261
330
2
100
AcDbEntity
  8
GAIKEI
  6
HIDDEN2
 62
     1
100
AcDbLine
 10
155.2573217041901
 20
204.6739838381537
 30
0.0
 11
155.5032939541901
 21
204.6739838381537
 31
0.0
  0
LINE
  5
262
330
2
100
AcDbEntity
  8
GAIKEI
  6
HIDDEN2
 62
     1
100
AcDbLine
 10
155.2573217041901
 20
204.1110673381537
 30
0.0
 11
155.2282939541901
 21
204.1613448381536
 31
0.0
  0
LINE
  5
263
330
2
100
AcDbEntity
  8
GAIKEI
  6
HIDDEN2
 62
     1
100
AcDbLine
 10
155.2573217041901
 20
204.1110673381537
 30
0.0
 11
155.5032939541901
 21
204.1110673381537
 31
0.0
  0
LINE
  5
264
330
2
100
AcDbEntity
  8
GAIKEI
  6
HIDDEN2
 62
     1
100
AcDbLine
 10
155.2573217041901
 20
204.2987060881537
 30
0.0
 11
155.5032939541901
 21
204.2987060881537
 31
0.0
  0
ARC
  5
265
330
2
100
AcDbEntity
  8
GAIKEI
  6
HIDDEN2
 62
     1
100
AcDbCircle
 10
155.3944224541901
 20
204.2048865881536
 30
0.0
 40
0.1661285
100
AcDbArc
 50
145.615752999999
 51
214.384247000001
  0
LINE
  5
266
330
2
100
AcDbEntity
  8
GAIKEI
  6
HIDDEN2
 62
     1
100
AcDbLine
 10
155.5032939541901
 20
204.0863448381537
 30
0.0
 11
155.5832939541901
 21
204.0863448381537
 31
0.0
  0
ARC
  5
267
330
2
100
AcDbEntity
  8
GAIKEI
  6
HIDDEN2
 62
     1
100
AcDbCircle
 10
155.8492659541901
 20
204.4863448381536
 30
0.0
 40
0.62097225
100
AcDbArc
 50
162.4120459999996
 51
197.5879540000004
  0
LINE
  5
268
330
2
100
AcDbEntity
  8
GAIKEI
  6
HIDDEN2
 62
     1
100
AcDbLine
 10
159.4832939541901
 20
204.6463448381537
 30
0.0
 11
159.5032939541901
 21
204.6263448381536
 31
0.0
  0
LINE
  5
269
330
2
100
AcDbEntity
  8
GAIKEI
  6
HIDDEN2
 62
     1
100
AcDbLine
 10
159.4832939541901
 20
204.6463448381537
 30
0.0
 11
159.3832939541901
 21
204.6463448381537
 31
0.0
  0
LINE
  5
26A
330
2
100
AcDbEntity
  8
GAIKEI
  6
HIDDEN2
 62
     1
100
AcDbLine
 10
159.4832939541901
 20
204.3263448381537
 30
0.0
 11
159.5032939541901
 21
204.3463448381536
 31
0.0
  0
LINE
  5
26B
330
2
100
AcDbEntity
  8
GAIKEI
  6
HIDDEN2
 62
     1
100
AcDbLine
 10
159.3832939541901
 20
204.1863448381536
 30
0.0
 11
159.0582939541901
 21
204.1863448381536
 31
0.0
  0
LINE
  5
26C
330
2
100
AcDbEntity
  8
GAIKEI
  6
HIDDEN2
 62
     1
100
AcDbLine
 10
159.4832939541901
 20
204.3263448381537
 30
0.0
 11
159.3832939541901
 21
204.3263448381537
 31
0.0
  0
LINE
  5
26D
330
2
100
AcDbEntity
  8
GAIKEI
  6
HIDDEN2
 62
     1
100
AcDbLine
 10
159.5032939541901
 20
204.3463448381536
 30
0.0
 11
159.5032939541901
 21
204.6263448381536
 31
0.0
  0
LINE
  5
26E
330
2
100
AcDbEntity
  8
GAIKEI
  6
HIDDEN2
 62
     1
100
AcDbLine
 10
159.4332939541901
 20
204.3263448381537
 30
0.0
 11
159.4332939541901
 21
204.6463448381537
 31
0.0
  0
LINE
  5
26F
330
2
100
AcDbEntity
  8
GAIKEI
  6
HIDDEN2
 62
     1
100
AcDbLine
 10
156.3207939541901
 20
210.1613448381536
 30
0.0
 11
154.4457939541901
 21
210.1613448381536
 31
0.0
  0
LINE
  5
270
330
2
100
AcDbEntity
  8
GAIKEI
  6
HIDDEN2
 62
     1
100
AcDbLine
 10
155.8157939541901
 20
211.0763448381537
 30
0.0
 11
156.5757939541901
 21
211.0763448381537
 31
0.0
  0
LINE
  5
271
330
2
100
AcDbEntity
  8
GAIKEI
  6
HIDDEN2
 62
     1
100
AcDbLine
 10
155.8157939541901
 20
210.9263448381537
 30
0.0
 11
156.5757939541901
 21
210.9263448381537
 31
0.0
  0
LINE
  5
272
330
2
100
AcDbEntity
  8
GAIKEI
  6
HIDDEN2
 62
     1
100
AcDbLine
 10
155.6957939541901
 20
210.0363448381536
 30
0.0
 11
155.8207939541901
 21
210.0363448381536
 31
0.0
  0
LINE
  5
273
330
2
100
AcDbEntity
  8
GAIKEI
  6
HIDDEN2
 62
     1
100
AcDbLine
 10
155.8332939541901
 20
209.8863448381537
 30
0.0
 11
155.6957939541901
 21
209.8863448381537
 31
0.0
  0
ARC
  5
274
330
2
100
AcDbEntity
  8
GAIKEI
  6
HIDDEN2
 62
     1
100
AcDbCircle
 10
155.7332939541901
 20
209.8863448381537
 30
0.0
 40
0.1
100
AcDbArc
 50
270.0
 51
0.0
  0
LINE
  5
275
330
2
100
AcDbEntity
  8
GAIKEI
  6
HIDDEN2
 62
     1
100
AcDbLine
 10
156.3207939541901
 20
210.0613448381536
 30
0.0
 11
154.4457939541901
 21
210.0613448381536
 31
0.0
  0
LINE
  5
276
330
2
100
AcDbEntity
  8
GAIKEI
  6
HIDDEN2
 62
     1
100
AcDbLine
 10
155.1957939541901
 20
211.7363448381536
 30
0.0
 11
157.3207939541901
 21
211.7363448381536
 31
0.0
  0
LINE
  5
277
330
2
100
AcDbEntity
  8
GAIKEI
  6
HIDDEN2
 62
     1
100
AcDbLine
 10
155.1957939541901
 20
212.0863448381537
 30
0.0
 11
157.3207939541901
 21
212.0863448381537
 31
0.0
  0
LINE
  5
278
330
2
100
AcDbEntity
  8
GAIKEI
  6
HIDDEN2
 62
     1
100
AcDbLine
 10
158.9457939541901
 20
209.9863448381536
 30
0.0
 11
155.6957939541901
 21
209.9863448381536
 31
0.0
  0
LINE
  5
279
330
2
100
AcDbEntity
  8
GAIKEI
  6
HIDDEN2
 62
     1
100
AcDbLine
 10
155.2573217041901
 20
208.8110673381536
 30
0.0
 11
155.2282939541901
 21
208.8613448381536
 31
0.0
  0
LINE
  5
27A
330
2
100
AcDbEntity
  8
GAIKEI
  6
HIDDEN2
 62
     1
100
AcDbLine
 10
155.2282939541901
 20
208.8613448381536
 30
0.0
 11
155.2282939541901
 21
209.5113448381537
 31
0.0
  0
LINE
  5
27B
330
2
100
AcDbEntity
  8
GAIKEI
  6
HIDDEN2
 62
     1
100
AcDbLine
 10
155.2282939541901
 20
209.5113448381537
 30
0.0
 11
155.2573217041901
 21
209.5616225881536
 31
0.0
  0
LINE
  5
27C
330
2
100
AcDbEntity
  8
GAIKEI
  6
HIDDEN2
 62
     1
100
AcDbLine
 10
155.2573217041901
 20
208.8110673381536
 30
0.0
 11
155.5032939541901
 21
208.8110673381536
 31
0.0
  0
LINE
  5
27D
330
2
100
AcDbEntity
  8
GAIKEI
  6
HIDDEN2
 62
     1
100
AcDbLine
 10
155.2573217041901
 20
209.5616225881536
 30
0.0
 11
155.5032939541901
 21
209.5616225881536
 31
0.0
  0
LINE
  5
27E
330
2
100
AcDbEntity
  8
GAIKEI
  6
HIDDEN2
 62
     1
100
AcDbLine
 10
155.5032939541901
 20
209.5863448381537
 30
0.0
 11
155.5032939541901
 21
208.7863448381536
 31
0.0
  0
LINE
  5
27F
330
2
100
AcDbEntity
  8
GAIKEI
  6
HIDDEN2
 62
     1
100
AcDbLine
 10
155.2573217041901
 20
208.9987060881537
 30
0.0
 11
155.5032939541901
 21
208.9987060881537
 31
0.0
  0
LINE
  5
280
330
2
100
AcDbEntity
  8
GAIKEI
  6
HIDDEN2
 62
     1
100
AcDbLine
 10
155.2573217041901
 20
209.3739838381537
 30
0.0
 11
155.5032939541901
 21
209.3739838381537
 31
0.0
  0
ARC
  5
281
330
2
100
AcDbEntity
  8
GAIKEI
  6
HIDDEN2
 62
     1
100
AcDbCircle
 10
155.3944224541901
 20
208.9048865881537
 30
0.0
 40
0.1661285
100
AcDbArc
 50
145.615752999999
 51
214.384247000001
  0
ARC
  5
282
330
2
100
AcDbEntity
  8
GAIKEI
  6
HIDDEN2
 62
     1
100
AcDbCircle
 10
155.8492659541901
 20
209.1863448381536
 30
0.0
 40
0.62097225
100
AcDbArc
 50
162.4120459999996
 51
197.5879540000004
  0
ARC
  5
283
330
2
100
AcDbEntity
  8
GAIKEI
  6
HIDDEN2
 62
     1
100
AcDbCircle
 10
155.3944224541901
 20
209.4678030881536
 30
0.0
 40
0.1661285
100
AcDbArc
 50
145.615752999999
 51
214.384247000001
  0
LINE
  5
284
330
2
100
AcDbEntity
  8
GAIKEI
  6
HIDDEN2
 62
     1
100
AcDbLine
 10
155.5032939541901
 20
208.7863448381536
 30
0.0
 11
155.5832939541901
 21
208.7863448381536
 31
0.0
  0
LINE
  5
285
330
2
100
AcDbEntity
  8
GAIKEI
  6
HIDDEN2
 62
     1
100
AcDbLine
 10
155.5832939541901
 20
208.7863448381536
 30
0.0
 11
155.5832939541901
 21
209.5863448381537
 31
0.0
  0
LINE
  5
286
330
2
100
AcDbEntity
  8
GAIKEI
  6
HIDDEN2
 62
     1
100
AcDbLine
 10
155.5832939541901
 20
209.5863448381537
 30
0.0
 11
155.5032939541901
 21
209.5863448381537
 31
0.0
  0
ARC
  5
287
330
2
100
AcDbEntity
  8
GAIKEI
  6
HIDDEN2
 62
     1
100
AcDbCircle
 10
155.1957939541901
 20
211.9113448381536
 30
0.0
 40
0.175
100
AcDbArc
 50
90.0
 51
270.0
  0
LINE
  5
288
330
2
100
AcDbEntity
  8
GAIKEI
  6
HIDDEN2
 62
     1
100
AcDbLine
 10
155.6582939541901
 20
210.1613448381536
 30
0.0
 11
155.6582939541901
 21
210.9124275881537
 31
0.0
  0
ARC
  5
289
330
2
100
AcDbEntity
  8
GAIKEI
  6
HIDDEN2
 62
     1
100
AcDbCircle
 10
155.1582939541901
 20
210.9124275881537
 30
0.0
 40
0.5
100
AcDbArc
 50
0.0
 51
85.69877800000062
  0
LINE
  5
28A
330
2
100
AcDbEntity
  8
GAIKEI
  6
HIDDEN2
 62
     1
100
AcDbLine
 10
155.8157939541901
 20
211.0763448381537
 30
0.0
 11
155.8157939541901
 21
210.9263448381537
 31
0.0
  0
LINE
  5
28B
330
2
100
AcDbEntity
  8
GAIKEI
  6
HIDDEN2
 62
     1
100
AcDbLine
 10
155.7957939541901
 20
210.0363448381536
 30
0.0
 11
155.7957939541901
 21
209.9863448381536
 31
0.0
  0
LINE
  5
28C
330
2
100
AcDbEntity
  8
GAIKEI
  6
HIDDEN2
 62
     1
100
AcDbLine
 10
155.6957939541901
 20
209.7863448381536
 30
0.0
 11
155.6957939541901
 21
210.0363448381536
 31
0.0
  0
LINE
  5
28D
330
2
100
AcDbEntity
  8
GAIKEI
  6
HIDDEN2
 62
     1
100
AcDbLine
 10
155.6832939541901
 20
209.9863448381536
 30
0.0
 11
155.6832939541901
 21
209.7863448381536
 31
0.0
  0
LINE
  5
28E
330
2
100
AcDbEntity
  8
GAIKEI
  6
HIDDEN2
 62
     1
100
AcDbLine
 10
155.6832939541901
 20
209.9863448381536
 30
0.0
 11
155.5832939541901
 21
209.9863448381536
 31
0.0
  0
LINE
  5
28F
330
2
100
AcDbEntity
  8
GAIKEI
  6
HIDDEN2
 62
     1
100
AcDbLine
 10
155.5832939541901
 20
209.7863448381536
 30
0.0
 11
155.7332939541901
 21
209.7863448381536
 31
0.0
  0
ARC
  5
290
330
2
100
AcDbEntity
  8
GAIKEI
  6
HIDDEN2
 62
     1
100
AcDbCircle
 10
155.1957939541901
 20
211.9113448381536
 30
0.0
 40
0.5
100
AcDbArc
 50
90.0
 51
270.0
  0
LINE
  5
291
330
2
100
AcDbEntity
  8
GAIKEI
  6
HIDDEN2
 62
     1
100
AcDbLine
 10
155.2282939541901
 20
204.8113448381536
 30
0.0
 11
155.2573217041901
 21
204.8616225881536
 31
0.0
  0
LINE
  5
292
330
2
100
AcDbEntity
  8
GAIKEI
  6
HIDDEN2
 62
     1
100
AcDbLine
 10
155.2573217041901
 20
204.8616225881536
 30
0.0
 11
155.5032939541901
 21
204.8616225881536
 31
0.0
  0
LINE
  5
293
330
2
100
AcDbEntity
  8
GAIKEI
  6
HIDDEN2
 62
     1
100
AcDbLine
 10
155.5832939541901
 20
204.8863448381537
 30
0.0
 11
155.5032939541901
 21
204.8863448381537
 31
0.0
  0
ARC
  5
294
330
2
100
AcDbEntity
  8
GAIKEI
  6
HIDDEN2
 62
     1
100
AcDbCircle
 10
158.0457939541901
 20
209.8263285881536
 30
0.0
 40
0.25
100
AcDbArc
 50
310.6012949999991
 51
0.0
  0
POINT
  5
295
330
2
100
AcDbEntity
  8
GAIKEI
  6
HIDDEN2
 62
     1
100
AcDbPoint
 10
156.9582939541901
 20
209.1863448381536
 30
0.0
  0
ARC
  5
296
330
2
100
AcDbEntity
  8
GAIKEI
  6
HIDDEN2
 62
     1
100
AcDbCircle
 10
156.4582939541901
 20
208.9563773381537
 30
0.0
 40
0.5
100
AcDbArc
 50
0.0
 51
49.39870500000086
  0
LINE
  5
297
330
2
100
AcDbEntity
  8
GAIKEI
  6
HIDDEN2
 62
     1
100
AcDbLine
 10
159.4832939541901
 20
209.0263448381537
 30
0.0
 11
159.5032939541901
 21
209.0463448381536
 31
0.0
  0
LINE
  5
298
330
2
100
AcDbEntity
  8
GAIKEI
  6
HIDDEN2
 62
     1
100
AcDbLine
 10
159.4832939541901
 20
209.3463448381536
 30
0.0
 11
159.5032939541901
 21
209.3263448381537
 31
0.0
  0
LINE
  5
299
330
2
100
AcDbEntity
  8
GAIKEI
  6
HIDDEN2
 62
     1
100
AcDbLine
 10
159.5032939541901
 20
209.0463448381536
 30
0.0
 11
159.5032939541901
 21
209.3263448381537
 31
0.0
  0
LINE
  5
29A
330
2
100
AcDbEntity
  8
GAIKEI
  6
HIDDEN2
 62
     1
100
AcDbLine
 10
159.3832939541901
 20
209.4863448381536
 30
0.0
 11
159.3832939541901
 21
208.8863448381537
 31
0.0
  0
LINE
  5
29B
330
2
100
AcDbEntity
  8
GAIKEI
  6
HIDDEN2
 62
     1
100
AcDbLine
 10
159.3832939541901
 20
209.4863448381536
 30
0.0
 11
159.0582939541901
 21
209.4863448381536
 31
0.0
  0
LINE
  5
29C
330
2
100
AcDbEntity
  8
GAIKEI
  6
HIDDEN2
 62
     1
100
AcDbLine
 10
159.3832939541901
 20
208.8863448381537
 30
0.0
 11
159.0582939541901
 21
208.8863448381537
 31
0.0
  0
ARC
  5
29D
330
2
100
AcDbEntity
  8
GAIKEI
  6
HIDDEN2
 62
     1
100
AcDbCircle
 10
158.9582939541901
 20
209.1863448381536
 30
0.0
 40
0.425
100
AcDbArc
 50
314.9405469999989
 51
44.90087200000178
  0
LINE
  5
29E
330
2
100
AcDbEntity
  8
GAIKEI
  6
HIDDEN2
 62
     1
100
AcDbLine
 10
159.4832939541901
 20
209.0263448381537
 30
0.0
 11
159.3832939541901
 21
209.0263448381537
 31
0.0
  0
LINE
  5
29F
330
2
100
AcDbEntity
  8
GAIKEI
  6
HIDDEN2
 62
     1
100
AcDbLine
 10
159.4832939541901
 20
209.3463448381536
 30
0.0
 11
159.3832939541901
 21
209.3463448381536
 31
0.0
  0
LINE
  5
2A0
330
2
100
AcDbEntity
  8
GAIKEI
  6
HIDDEN2
 62
     1
100
AcDbLine
 10
159.4332939541901
 20
209.0263448381537
 30
0.0
 11
159.4332939541901
 21
209.3463448381536
 31
0.0
  0
POINT
  5
2A1
330
2
100
AcDbEntity
  8
GAIKEI
  6
HIDDEN2
 62
     1
100
AcDbPoint
 10
157.6832939541901
 20
209.1863448381536
 30
0.0
  0
ARC
  5
2A2
330
2
100
AcDbEntity
  8
GAIKEI
  6
HIDDEN2
 62
     1
100
AcDbCircle
 10
158.1832939541901
 20
208.9563773381537
 30
0.0
 40
0.5
100
AcDbArc
 50
130.6012949999991
 51
180.0
  0
LINE
  5
2A3
330
2
100
AcDbEntity
  8
GAIKEI
  6
HIDDEN2
 62
     1
100
AcDbLine
 10
158.2084917041901
 20
209.6365145881537
 30
0.0
 11
157.8578982041901
 21
209.3360058381537
 31
0.0
  0
LINE
  5
2A4
330
2
100
AcDbEntity
  8
GAIKEI
  6
HIDDEN2
 62
     1
100
AcDbLine
 10
158.9832939541901
 20
210.1613448381536
 30
0.0
 11
158.9832939541901
 21
210.9113448381536
 31
0.0
  0
LINE
  5
2A5
330
2
100
AcDbEntity
  8
GAIKEI
  6
HIDDEN2
 62
     1
100
AcDbLine
 10
158.8257939541901
 20
211.0763448381537
 30
0.0
 11
158.0657939541901
 21
211.0763448381537
 31
0.0
  0
LINE
  5
2A6
330
2
100
AcDbEntity
  8
GAIKEI
  6
HIDDEN2
 62
     1
100
AcDbLine
 10
158.0657939541901
 20
211.0763448381537
 30
0.0
 11
158.0657939541901
 21
210.9263448381537
 31
0.0
  0
LINE
  5
2A7
330
2
100
AcDbEntity
  8
GAIKEI
  6
HIDDEN2
 62
     1
100
AcDbLine
 10
158.8257939541901
 20
211.0763448381537
 30
0.0
 11
158.8257939541901
 21
210.9263448381537
 31
0.0
  0
LINE
  5
2A8
330
2
100
AcDbEntity
  8
GAIKEI
  6
HIDDEN2
 62
     1
100
AcDbLine
 10
158.8257939541901
 20
210.9263448381537
 30
0.0
 11
158.0657939541901
 21
210.9263448381537
 31
0.0
  0
LINE
  5
2A9
330
2
100
AcDbEntity
  8
GAIKEI
  6
HIDDEN2
 62
     1
100
AcDbLine
 10
158.8207939541901
 20
211.0363448381536
 30
0.0
 11
158.0707939541901
 21
211.0363448381536
 31
0.0
  0
LINE
  5
2AA
330
2
100
AcDbEntity
  8
GAIKEI
  6
HIDDEN2
 62
     1
100
AcDbLine
 10
158.8207939541901
 20
211.0363448381536
 30
0.0
 11
158.8207939541901
 21
210.9263448381537
 31
0.0
  0
LINE
  5
2AB
330
2
100
AcDbEntity
  8
GAIKEI
  6
HIDDEN2
 62
     1
100
AcDbLine
 10
158.8207939541901
 20
210.9363448381536
 30
0.0
 11
158.0707939541901
 21
210.9363448381536
 31
0.0
  0
LINE
  5
2AC
330
2
100
AcDbEntity
  8
GAIKEI
  6
HIDDEN2
 62
     1
100
AcDbLine
 10
158.0707939541901
 20
211.0363448381536
 30
0.0
 11
158.0707939541901
 21
210.9263448381537
 31
0.0
  0
ARC
  5
2AD
330
2
100
AcDbEntity
  8
GAIKEI
  6
HIDDEN2
 62
     1
100
AcDbCircle
 10
159.4832939541901
 20
210.9113448381536
 30
0.0
 40
0.5
100
AcDbArc
 50
90.0
 51
180.0
  0
ARC
  5
2AE
330
2
100
AcDbEntity
  8
GAIKEI
  6
HIDDEN2
 62
     1
100
AcDbCircle
 10
157.3207939541901
 20
211.9113448381536
 30
0.0
 40
0.175
100
AcDbArc
 50
270.0
 51
90.0
  0
LINE
  5
2AF
330
2
100
AcDbEntity
  8
GAIKEI
  6
HIDDEN2
 62
     1
100
AcDbLine
 10
158.8457939541901
 20
210.0363448381536
 30
0.0
 11
158.8457939541901
 21
209.9863448381536
 31
0.0
  0
LINE
  5
2B0
330
2
100
AcDbEntity
  8
GAIKEI
  6
HIDDEN2
 62
     1
100
AcDbLine
 10
158.9457939541901
 20
210.0363448381536
 30
0.0
 11
158.8207939541901
 21
210.0363448381536
 31
0.0
  0
LINE
  5
2B1
330
2
100
AcDbEntity
  8
GAIKEI
  6
HIDDEN2
 62
     1
100
AcDbLine
 10
158.8207939541901
 20
210.0613448381536
 30
0.0
 11
158.8207939541901
 21
210.0363448381536
 31
0.0
  0
LINE
  5
2B2
330
2
100
AcDbEntity
  8
GAIKEI
  6
HIDDEN2
 62
     1
100
AcDbLine
 10
158.9582939541901
 20
209.9863448381536
 30
0.0
 11
158.9582939541901
 21
209.7863448381536
 31
0.0
  0
LINE
  5
2B3
330
2
100
AcDbEntity
  8
GAIKEI
  6
HIDDEN2
 62
     1
100
AcDbLine
 10
158.8082939541901
 20
209.8863448381537
 30
0.0
 11
158.9457939541901
 21
209.8863448381537
 31
0.0
  0
LINE
  5
2B4
330
2
100
AcDbEntity
  8
GAIKEI
  6
HIDDEN2
 62
     1
100
AcDbLine
 10
158.9457939541901
 20
209.7863448381536
 30
0.0
 11
158.9457939541901
 21
210.0363448381536
 31
0.0
  0
ARC
  5
2B5
330
2
100
AcDbEntity
  8
GAIKEI
  6
HIDDEN2
 62
     1
100
AcDbCircle
 10
158.9082939541901
 20
209.8863448381537
 30
0.0
 40
0.1
100
AcDbArc
 50
180.0
 51
270.0
  0
LINE
  5
2B6
330
2
100
AcDbEntity
  8
GAIKEI
  6
HIDDEN2
 62
     1
100
AcDbLine
 10
158.8082939541901
 20
209.8863448381537
 30
0.0
 11
158.8082939541901
 21
209.9863448381536
 31
0.0
  0
LINE
  5
2B7
330
2
100
AcDbEntity
  8
GAIKEI
  6
HIDDEN2
 62
     1
100
AcDbLine
 10
158.2957939541901
 20
209.9863448381536
 30
0.0
 11
158.2957939541901
 21
209.8263285881536
 31
0.0
  0
POINT
  5
2B8
330
2
100
AcDbEntity
  8
GAIKEI
  6
HIDDEN2
 62
     1
100
AcDbPoint
 10
158.2957939541901
 20
209.7113448381537
 30
0.0
  0
LINE
  5
2B9
330
2
100
AcDbEntity
  8
GAIKEI
  6
HIDDEN2
 62
     1
100
AcDbLine
 10
158.9582939541901
 20
209.9863448381536
 30
0.0
 11
159.0582939541901
 21
209.9863448381536
 31
0.0
  0
LINE
  5
2BA
330
2
100
AcDbEntity
  8
GAIKEI
  6
HIDDEN2
 62
     1
100
AcDbLine
 10
159.0582939541901
 20
209.7863448381536
 30
0.0
 11
158.9082939541901
 21
209.7863448381536
 31
0.0
  0
LINE
  5
2BB
330
2
100
AcDbEntity
  8
GAIKEI
  6
HIDDEN2
 62
     1
100
AcDbLine
 10
158.3207939541901
 20
210.0613448381536
 30
0.0
 11
158.3207939541901
 21
210.1863448381536
 31
0.0
  0
ARC
  5
2BC
330
2
100
AcDbEntity
  8
GAIKEI
  6
HIDDEN2
 62
     1
100
AcDbCircle
 10
158.4707939541901
 20
205.5363448381536
 30
0.0
 40
0.1
100
AcDbArc
 50
0.0
 51
90.0
  0
LINE
  5
2BD
330
2
100
AcDbEntity
  8
GAIKEI
  6
HIDDEN2
 62
     1
100
AcDbLine
 10
159.3832939541901
 20
204.7863448381536
 30
0.0
 11
159.0582939541901
 21
204.7863448381536
 31
0.0
  0
ARC
  5
2BE
330
2
100
AcDbEntity
  8
GAIKEI
  6
HIDDEN2
 62
     1
100
AcDbCircle
 10
157.2832939541901
 20
208.0863448381537
 30
0.0
 40
0.325
100
AcDbArc
 50
180.0
 51
270.0
  0
LINE
  5
2BF
330
2
100
AcDbEntity
  8
GAIKEI
  6
HIDDEN2
 62
     1
100
AcDbLine
 10
157.2832939541901
 20
207.7613448381537
 30
0.0
 11
157.3582939541901
 21
207.7613448381537
 31
0.0
  0
ARC
  5
2C0
330
2
100
AcDbEntity
  8
GAIKEI
  6
HIDDEN2
 62
     1
100
AcDbCircle
 10
157.3582939541901
 20
208.0863448381537
 30
0.0
 40
0.325
100
AcDbArc
 50
270.0
 51
0.0
  0
LINE
  5
2C1
330
2
100
AcDbEntity
  8
GAIKEI
  6
HIDDEN2
 62
     1
100
AcDbLine
 10
157.6832939541901
 20
208.0863448381537
 30
0.0
 11
157.6832939541901
 21
208.9577193381537
 31
0.0
  0
LINE
  5
2C2
330
2
100
AcDbEntity
  8
GAIKEI
  6
HIDDEN2
 62
     1
100
AcDbLine
 10
156.9582939541901
 20
208.0863448381537
 30
0.0
 11
156.9582939541901
 21
208.9577193381537
 31
0.0
  0
CIRCLE
  5
2C3
330
2
100
AcDbEntity
  8
GAIKEI
  6
HIDDEN2
 62
     1
100
AcDbCircle
 10
157.3207939541901
 20
208.5738448381537
 30
0.0
 40
0.3625
  0
ARC
  5
2C4
330
2
100
AcDbEntity
  8
GAIKEI
  6
HIDDEN2
 62
     1
100
AcDbCircle
 10
156.5957939541901
 20
209.8263285881536
 30
0.0
 40
0.25
100
AcDbArc
 50
180.0
 51
229.3987050000008
  0
POINT
  5
2C5
330
2
100
AcDbEntity
  8
GAIKEI
  6
HIDDEN2
 62
     1
100
AcDbPoint
 10
156.4957939541901
 20
209.5863448381537
 30
0.0
  0
LINE
  5
2C6
330
2
100
AcDbEntity
  8
GAIKEI
  6
HIDDEN2
 62
     1
100
AcDbLine
 10
156.5757939541901
 20
211.0763448381537
 30
0.0
 11
156.5757939541901
 21
210.9263448381537
 31
0.0
  0
LINE
  5
2C7
330
2
100
AcDbEntity
  8
GAIKEI
  6
HIDDEN2
 62
     1
100
AcDbLine
 10
156.5707939541901
 20
211.0363448381536
 30
0.0
 11
156.5707939541901
 21
210.9263448381537
 31
0.0
  0
LINE
  5
2C8
330
2
100
AcDbEntity
  8
GAIKEI
  6
HIDDEN2
 62
     1
100
AcDbLine
 10
155.8207939541901
 20
211.0363448381536
 30
0.0
 11
155.8207939541901
 21
210.9263448381537
 31
0.0
  0
LINE
  5
2C9
330
2
100
AcDbEntity
  8
GAIKEI
  6
HIDDEN2
 62
     1
100
AcDbLine
 10
155.8207939541901
 20
211.0363448381536
 30
0.0
 11
156.5707939541901
 21
211.0363448381536
 31
0.0
  0
LINE
  5
2CA
330
2
100
AcDbEntity
  8
GAIKEI
  6
HIDDEN2
 62
     1
100
AcDbLine
 10
155.8207939541901
 20
210.9363448381536
 30
0.0
 11
156.5707939541901
 21
210.9363448381536
 31
0.0
  0
LINE
  5
2CB
330
2
100
AcDbEntity
  8
GAIKEI
  6
HIDDEN2
 62
     1
100
AcDbLine
 10
156.3457939541901
 20
209.9863448381536
 30
0.0
 11
156.3457939541901
 21
209.8263285881536
 31
0.0
  0
POINT
  5
2CC
330
2
100
AcDbEntity
  8
GAIKEI
  6
HIDDEN2
 62
     1
100
AcDbPoint
 10
156.3457939541901
 20
209.7113448381537
 30
0.0
  0
LINE
  5
2CD
330
2
100
AcDbEntity
  8
GAIKEI
  6
HIDDEN2
 62
     1
100
AcDbLine
 10
155.8207939541901
 20
210.0613448381536
 30
0.0
 11
155.8207939541901
 21
210.0363448381536
 31
0.0
  0
LINE
  5
2CE
330
2
100
AcDbEntity
  8
GAIKEI
  6
HIDDEN2
 62
     1
100
AcDbLine
 10
155.8332939541901
 20
209.8863448381537
 30
0.0
 11
155.8332939541901
 21
209.9863448381536
 31
0.0
  0
LINE
  5
2CF
330
2
100
AcDbEntity
  8
GAIKEI
  6
HIDDEN2
 62
     1
100
AcDbLine
 10
156.3207939541901
 20
210.0613448381536
 30
0.0
 11
156.3207939541901
 21
210.1863448381536
 31
0.0
  0
ARC
  5
2D0
330
2
100
AcDbEntity
  8
GAIKEI
  6
HIDDEN2
 62
     1
100
AcDbCircle
 10
156.1707939541901
 20
205.5363448381536
 30
0.0
 40
0.1
100
AcDbArc
 50
90.0
 51
180.0
  0
LINE
  5
2D1
330
2
100
AcDbEntity
  8
GAIKEI
  6
HIDDEN2
 62
     1
100
AcDbLine
 10
156.4330959541901
 20
209.6365145881537
 30
0.0
 11
156.7836894541901
 21
209.3360058381537
 31
0.0
  0
LINE
  5
2D2
330
2
100
AcDbEntity
  8
GAIKEI
  6
HIDDEN2
 62
     1
100
AcDbLine
 10
158.4707939541901
 20
205.6363448381537
 30
0.0
 11
156.1707939541901
 21
205.6363448381537
 31
0.0
  0
LINE
  5
2D3
330
2
100
AcDbEntity
  8
GAIKEI
  6
HIDDEN2
 62
     1
100
AcDbLine
 10
158.3207939541901
 20
210.1863448381536
 30
0.0
 11
156.3207939541901
 21
210.1863448381536
 31
0.0
  0
LINE
  5
2D4
330
2
100
AcDbEntity
  8
GAIKEI
  6
HIDDEN2
 62
     1
100
AcDbLine
 10
158.2957939541901
 20
209.8863448381537
 30
0.0
 11
156.3457939541901
 21
209.8863448381537
 31
0.0
  0
ARC
  5
2D5
330
2
100
AcDbEntity
  8
GAIKEI
  6
HIDDEN2
 62
     1
100
AcDbCircle
 10
166.3207939541901
 20
211.9113448381536
 30
0.0
 40
0.175
100
AcDbArc
 50
270.0
 51
90.0
  0
ARC
  5
2D6
330
2
100
AcDbEntity
  8
GAIKEI
  6
HIDDEN2
 62
     1
100
AcDbCircle
 10
161.3207939541901
 20
211.9113448381536
 30
0.0
 40
0.175
100
AcDbArc
 50
90.0
 51
270.0
  0
LINE
  5
2D7
330
2
100
AcDbEntity
  8
GAIKEI
  6
HIDDEN2
 62
     1
100
AcDbLine
 10
161.3207939541901
 20
211.7363448381536
 30
0.0
 11
166.3207939541901
 21
211.7363448381536
 31
0.0
  0
LINE
  5
2D8
330
2
100
AcDbEntity
  8
GAIKEI
  6
HIDDEN2
 62
     1
100
AcDbLine
 10
161.3207939541901
 20
212.0863448381537
 30
0.0
 11
166.3207939541901
 21
212.0863448381537
 31
0.0
  0
ARC
  5
2D9
330
2
100
AcDbEntity
  8
GAIKEI
  6
HIDDEN2
 62
     1
100
AcDbCircle
 10
171.3207939541901
 20
211.9113448381536
 30
0.0
 40
0.175
100
AcDbArc
 50
90.0
 51
270.0
  0
LINE
  5
2DA
330
2
100
AcDbEntity
  8
GAIKEI
  6
HIDDEN2
 62
     1
100
AcDbLine
 10
191.3207939541901
 20
210.1613448381536
 30
0.0
 11
193.1957939541901
 21
210.1613448381536
 31
0.0
  0
LINE
  5
2DB
330
2
100
AcDbEntity
  8
GAIKEI
  6
HIDDEN2
 62
     1
100
AcDbLine
 10
191.3207939541901
 20
210.0613448381536
 30
0.0
 11
193.1957939541901
 21
210.0613448381536
 31
0.0
  0
ARC
  5
2DC
330
2
100
AcDbEntity
  8
GAIKEI
  6
HIDDEN2
 62
     1
100
AcDbCircle
 10
192.4457939541901
 20
211.9113448381536
 30
0.0
 40
0.5
100
AcDbArc
 50
270.0
 51
90.0
  0
LINE
  5
2DD
330
2
100
AcDbEntity
  8
GAIKEI
  6
HIDDEN2
 62
     1
100
AcDbLine
 10
173.8207939541901
 20
212.0863448381537
 30
0.0
 11
173.8207939541901
 21
212.7113448381537
 31
0.0
  0
LINE
  5
2DE
330
2
100
AcDbEntity
  8
GAIKEI
  6
HIDDEN2
 62
     1
100
AcDbLine
 10
186.3207939541901
 20
211.7363448381536
 30
0.0
 11
181.3207939541901
 21
211.7363448381536
 31
0.0
  0
LINE
  5
2DF
330
2
100
AcDbEntity
  8
GAIKEI
  6
HIDDEN2
 62
     1
100
AcDbLine
 10
186.3207939541901
 20
212.0863448381537
 30
0.0
 11
181.3207939541901
 21
212.0863448381537
 31
0.0
  0
LINE
  5
2E0
330
2
100
AcDbEntity
  8
GAIKEI
  6
HIDDEN2
 62
     1
100
AcDbLine
 10
174.8207939541901
 20
211.4113448381536
 30
0.0
 11
188.1582939541901
 21
211.4113448381536
 31
0.0
  0
ARC
  5
2E1
330
2
100
AcDbEntity
  8
GAIKEI
  6
HIDDEN2
 62
     1
100
AcDbCircle
 10
176.3207939541901
 20
211.9113448381536
 30
0.0
 40
0.175
100
AcDbArc
 50
270.0
 51
90.0
  0
ARC
  5
2E2
330
2
100
AcDbEntity
  8
GAIKEI
  6
HIDDEN2
 62
     1
100
AcDbCircle
 10
173.8207939541901
 20
211.9113448381536
 30
0.0
 40
0.175
100
AcDbArc
 50
0.0
 51
180.0
  0
ARC
  5
2E3
330
2
100
AcDbEntity
  8
GAIKEI
  6
HIDDEN2
 62
     1
100
AcDbCircle
 10
173.8207939541901
 20
210.9113448381536
 30
0.0
 40
0.175
100
AcDbArc
 50
180.0
 51
0.0
  0
LINE
  5
2E4
330
2
100
AcDbEntity
  8
GAIKEI
  6
HIDDEN2
 62
     1
100
AcDbLine
 10
173.6457939541901
 20
211.7237548381536
 30
0.0
 11
173.6457939541901
 21
211.9113448381536
 31
0.0
  0
ARC
  5
2E5
330
2
100
AcDbEntity
  8
GAIKEI
  6
HIDDEN2
 62
     1
100
AcDbCircle
 10
173.5957939541901
 20
211.7237548381536
 30
0.0
 40
0.05
100
AcDbArc
 50
305.7617140000009
 51
0.0
  0
LINE
  5
2E6
330
2
100
AcDbEntity
  8
GAIKEI
  6
HIDDEN2
 62
     1
100
AcDbLine
 10
173.6457939541901
 20
210.9113448381536
 30
0.0
 11
173.6457939541901
 21
211.0989348381536
 31
0.0
  0
ARC
  5
2E7
330
2
100
AcDbEntity
  8
GAIKEI
  6
HIDDEN2
 62
     1
100
AcDbCircle
 10
173.5957939541901
 20
211.0989348381536
 30
0.0
 40
0.05
100
AcDbArc
 50
0.0
 51
54.23828599999911
  0
LINE
  5
2E8
330
2
100
AcDbEntity
  8
GAIKEI
  6
HIDDEN2
 62
     1
100
AcDbLine
 10
173.8207939541901
 20
210.1613448381536
 30
0.0
 11
173.8207939541901
 21
210.7363448381536
 31
0.0
  0
ARC
  5
2E9
330
2
100
AcDbEntity
  8
GAIKEI
  6
HIDDEN2
 62
     1
100
AcDbCircle
 10
173.8207939541901
 20
211.4113448381536
 30
0.0
 40
0.335
100
AcDbArc
 50
125.7617140000009
 51
234.238285999999
  0
ARC
  5
2EA
330
2
100
AcDbEntity
  8
GAIKEI
  6
HIDDEN2
 62
     1
100
AcDbCircle
 10
174.5707939541901
 20
211.9113448381536
 30
0.0
 40
0.175
100
AcDbArc
 50
90.0
 51
270.0
  0
LINE
  5
2EB
330
2
100
AcDbEntity
  8
GAIKEI
  6
HIDDEN2
 62
     1
100
AcDbLine
 10
173.9957939541901
 20
211.7237548381536
 30
0.0
 11
173.9957939541901
 21
211.9113448381536
 31
0.0
  0
ARC
  5
2EC
330
2
100
AcDbEntity
  8
GAIKEI
  6
HIDDEN2
 62
     1
100
AcDbCircle
 10
174.0457939541901
 20
211.7237548381536
 30
0.0
 40
0.05
100
AcDbArc
 50
180.0
 51
234.238285999999
  0
LINE
  5
2ED
330
2
100
AcDbEntity
  8
GAIKEI
  6
HIDDEN2
 62
     1
100
AcDbLine
 10
173.9957939541901
 20
210.9113448381536
 30
0.0
 11
173.9957939541901
 21
211.0989348381536
 31
0.0
  0
ARC
  5
2EE
330
2
100
AcDbEntity
  8
GAIKEI
  6
HIDDEN2
 62
     1
100
AcDbCircle
 10
174.0457939541901
 20
211.0989348381536
 30
0.0
 40
0.05
100
AcDbArc
 50
125.7617140000009
 51
180.0
  0
ARC
  5
2EF
330
2
100
AcDbEntity
  8
GAIKEI
  6
HIDDEN2
 62
     1
100
AcDbCircle
 10
173.8207939541901
 20
211.4113448381536
 30
0.0
 40
0.335
100
AcDbArc
 50
305.7617140000009
 51
54.23828599999911
  0
ARC
  5
2F0
330
2
100
AcDbEntity
  8
GAIKEI
  6
HIDDEN2
 62
     1
100
AcDbCircle
 10
174.8207939541901
 20
210.9113448381536
 30
0.0
 40
0.5
100
AcDbArc
 50
90.0
 51
180.0
  0
LINE
  5
2F1
330
2
100
AcDbEntity
  8
GAIKEI
  6
HIDDEN2
 62
     1
100
AcDbLine
 10
174.5707939541901
 20
211.7363448381536
 30
0.0
 11
176.3207939541901
 21
211.7363448381536
 31
0.0
  0
LINE
  5
2F2
330
2
100
AcDbEntity
  8
GAIKEI
  6
HIDDEN2
 62
     1
100
AcDbLine
 10
174.5707939541901
 20
212.0863448381537
 30
0.0
 11
176.3207939541901
 21
212.0863448381537
 31
0.0
  0
ARC
  5
2F3
330
2
100
AcDbEntity
  8
GAIKEI
  6
HIDDEN2
 62
     1
100
AcDbCircle
 10
173.0707939541901
 20
211.9113448381536
 30
0.0
 40
0.175
100
AcDbArc
 50
270.0
 51
90.0
  0
ARC
  5
2F4
330
2
100
AcDbEntity
  8
GAIKEI
  6
HIDDEN2
 62
     1
100
AcDbCircle
 10
173.8207939541901
 20
210.9113448381536
 30
0.0
 40
0.5
100
AcDbArc
 50
180.0
 51
0.0
  0
ARC
  5
2F5
330
2
100
AcDbEntity
  8
GAIKEI
  6
HIDDEN2
 62
     1
100
AcDbCircle
 10
172.8207939541901
 20
210.9113448381536
 30
0.0
 40
0.5
100
AcDbArc
 50
0.0
 51
90.0
  0
ARC
  5
2F6
330
2
100
AcDbEntity
  8
GAIKEI
  6
HIDDEN2
 62
     1
100
AcDbCircle
 10
181.3207939541901
 20
211.9113448381536
 30
0.0
 40
0.175
100
AcDbArc
 50
90.0
 51
270.0
  0
LINE
  5
2F7
330
2
100
AcDbEntity
  8
GAIKEI
  6
HIDDEN2
 62
     1
100
AcDbLine
 10
188.2582939541901
 20
204.7863448381536
 30
0.0
 11
188.2582939541901
 21
204.1863448381536
 31
0.0
  0
ARC
  5
2F8
330
2
100
AcDbEntity
  8
GAIKEI
  6
HIDDEN2
 62
     1
100
AcDbCircle
 10
188.6832939541901
 20
204.4863448381536
 30
0.0
 40
0.425
100
AcDbArc
 50
135.0991279999982
 51
225.0594530000011
  0
ARC
  5
2F9
330
2
100
AcDbEntity
  8
GAIKEI
  6
HIDDEN2
 62
     1
100
AcDbCircle
 10
192.2471654541901
 20
204.7678030881536
 30
0.0
 40
0.1661285
100
AcDbArc
 50
325.615752999999
 51
34.38424700000105
  0
LINE
  5
2FA
330
2
100
AcDbEntity
  8
GAIKEI
  6
HIDDEN2
 62
     1
100
AcDbLine
 10
192.4132939541901
 20
204.1613448381536
 30
0.0
 11
192.4132939541901
 21
204.8113448381536
 31
0.0
  0
LINE
  5
2FB
330
2
100
AcDbEntity
  8
GAIKEI
  6
HIDDEN2
 62
     1
100
AcDbLine
 10
192.1382939541901
 20
204.8863448381537
 30
0.0
 11
192.1382939541901
 21
204.0863448381537
 31
0.0
  0
LINE
  5
2FC
330
2
100
AcDbEntity
  8
GAIKEI
  6
HIDDEN2
 62
     1
100
AcDbLine
 10
192.0582939541901
 20
204.0863448381537
 30
0.0
 11
192.0582939541901
 21
204.8863448381537
 31
0.0
  0
LINE
  5
2FD
330
2
100
AcDbEntity
  8
GAIKEI
  6
HIDDEN2
 62
     1
100
AcDbLine
 10
192.3842659541901
 20
204.6739838381537
 30
0.0
 11
192.1382939541901
 21
204.6739838381537
 31
0.0
  0
LINE
  5
2FE
330
2
100
AcDbEntity
  8
GAIKEI
  6
HIDDEN2
 62
     1
100
AcDbLine
 10
192.3842659541901
 20
204.1110673381537
 30
0.0
 11
192.4132939541901
 21
204.1613448381536
 31
0.0
  0
LINE
  5
2FF
330
2
100
AcDbEntity
  8
GAIKEI
  6
HIDDEN2
 62
     1
100
AcDbLine
 10
192.3842659541901
 20
204.1110673381537
 30
0.0
 11
192.1382939541901
 21
204.1110673381537
 31
0.0
  0
LINE
  5
300
330
2
100
AcDbEntity
  8
GAIKEI
  6
HIDDEN2
 62
     1
100
AcDbLine
 10
192.3842659541901
 20
204.2987060881537
 30
0.0
 11
192.1382939541901
 21
204.2987060881537
 31
0.0
  0
ARC
  5
301
330
2
100
AcDbEntity
  8
GAIKEI
  6
HIDDEN2
 62
     1
100
AcDbCircle
 10
192.2471654541901
 20
204.2048865881536
 30
0.0
 40
0.1661285
100
AcDbArc
 50
325.615752999999
 51
34.38424700000105
  0
LINE
  5
302
330
2
100
AcDbEntity
  8
GAIKEI
  6
HIDDEN2
 62
     1
100
AcDbLine
 10
192.1382939541901
 20
204.0863448381537
 30
0.0
 11
192.0582939541901
 21
204.0863448381537
 31
0.0
  0
ARC
  5
303
330
2
100
AcDbEntity
  8
GAIKEI
  6
HIDDEN2
 62
     1
100
AcDbCircle
 10
191.7923217041901
 20
204.4863448381536
 30
0.0
 40
0.62097225
100
AcDbArc
 50
342.4120459999997
 51
17.58795400000037
  0
LINE
  5
304
330
2
100
AcDbEntity
  8
GAIKEI
  6
HIDDEN2
 62
     1
100
AcDbLine
 10
188.1582939541901
 20
204.6463448381537
 30
0.0
 11
188.13829395419
 21
204.6263448381536
 31
0.0
  0
LINE
  5
305
330
2
100
AcDbEntity
  8
GAIKEI
  6
HIDDEN2
 62
     1
100
AcDbLine
 10
188.1582939541901
 20
204.6463448381537
 30
0.0
 11
188.2582939541901
 21
204.6463448381537
 31
0.0
  0
LINE
  5
306
330
2
100
AcDbEntity
  8
GAIKEI
  6
HIDDEN2
 62
     1
100
AcDbLine
 10
188.1582939541901
 20
204.3263448381537
 30
0.0
 11
188.13829395419
 21
204.3463448381536
 31
0.0
  0
LINE
  5
307
330
2
100
AcDbEntity
  8
GAIKEI
  6
HIDDEN2
 62
     1
100
AcDbLine
 10
188.2582939541901
 20
204.1863448381536
 30
0.0
 11
188.5832939541901
 21
204.1863448381536
 31
0.0
  0
LINE
  5
308
330
2
100
AcDbEntity
  8
GAIKEI
  6
HIDDEN2
 62
     1
100
AcDbLine
 10
188.1582939541901
 20
204.3263448381537
 30
0.0
 11
188.2582939541901
 21
204.3263448381537
 31
0.0
  0
LINE
  5
309
330
2
100
AcDbEntity
  8
GAIKEI
  6
HIDDEN2
 62
     1
100
AcDbLine
 10
188.13829395419
 20
204.3463448381536
 30
0.0
 11
188.13829395419
 21
204.6263448381536
 31
0.0
  0
LINE
  5
30A
330
2
100
AcDbEntity
  8
GAIKEI
  6
HIDDEN2
 62
     1
100
AcDbLine
 10
188.2082939541901
 20
204.3263448381537
 30
0.0
 11
188.2082939541901
 21
204.6463448381537
 31
0.0
  0
ARC
  5
30B
330
2
100
AcDbEntity
  8
GAIKEI
  6
HIDDEN2
 62
     1
100
AcDbCircle
 10
186.3207939541901
 20
211.9113448381536
 30
0.0
 40
0.175
100
AcDbArc
 50
270.0
 51
90.0
  0
LINE
  5
30C
330
2
100
AcDbEntity
  8
GAIKEI
  6
HIDDEN2
 62
     1
100
AcDbLine
 10
192.4457939541901
 20
211.7363448381536
 30
0.0
 11
190.3207939541901
 21
211.7363448381536
 31
0.0
  0
LINE
  5
30D
330
2
100
AcDbEntity
  8
GAIKEI
  6
HIDDEN2
 62
     1
100
AcDbLine
 10
192.4457939541901
 20
212.0863448381537
 30
0.0
 11
190.3207939541901
 21
212.0863448381537
 31
0.0
  0
ARC
  5
30E
330
2
100
AcDbEntity
  8
GAIKEI
  6
HIDDEN2
 62
     1
100
AcDbCircle
 10
190.3207939541901
 20
211.9113448381536
 30
0.0
 40
0.175
100
AcDbArc
 50
90.0
 51
270.0
  0
ARC
  5
30F
330
2
100
AcDbEntity
  8
GAIKEI
  6
HIDDEN2
 62
     1
100
AcDbCircle
 10
192.4457939541901
 20
211.9113448381536
 30
0.0
 40
0.175
100
AcDbArc
 50
270.0
 51
90.0
  0
LINE
  5
310
330
2
100
AcDbEntity
  8
GAIKEI
  6
HIDDEN2
 62
     1
100
AcDbLine
 10
191.9832939541901
 20
210.1613448381536
 30
0.0
 11
191.9832939541901
 21
210.9124275881537
 31
0.0
  0
ARC
  5
311
330
2
100
AcDbEntity
  8
GAIKEI
  6
HIDDEN2
 62
     1
100
AcDbCircle
 10
192.48329395419
 20
210.9124275881537
 30
0.0
 40
0.5
100
AcDbArc
 50
94.3012219999994
 51
180.0
  0
LINE
  5
312
330
2
100
AcDbEntity
  8
GAIKEI
  6
HIDDEN2
 62
     1
100
AcDbLine
 10
191.8257939541901
 20
211.0763448381537
 30
0.0
 11
191.8257939541901
 21
210.9263448381537
 31
0.0
  0
LINE
  5
313
330
2
100
AcDbEntity
  8
GAIKEI
  6
HIDDEN2
 62
     1
100
AcDbLine
 10
191.8207939541901
 20
211.0363448381536
 30
0.0
 11
191.8207939541901
 21
210.9263448381537
 31
0.0
  0
LINE
  5
314
330
2
100
AcDbEntity
  8
GAIKEI
  6
HIDDEN2
 62
     1
100
AcDbLine
 10
191.0657939541901
 20
211.0763448381537
 30
0.0
 11
191.0657939541901
 21
210.9263448381537
 31
0.0
  0
LINE
  5
315
330
2
100
AcDbEntity
  8
GAIKEI
  6
HIDDEN2
 62
     1
100
AcDbLine
 10
191.0707939541901
 20
211.0363448381536
 30
0.0
 11
191.0707939541901
 21
210.9263448381537
 31
0.0
  0
LINE
  5
316
330
2
100
AcDbEntity
  8
GAIKEI
  6
HIDDEN2
 62
     1
100
AcDbLine
 10
191.8257939541901
 20
211.0763448381537
 30
0.0
 11
191.0657939541901
 21
211.0763448381537
 31
0.0
  0
LINE
  5
317
330
2
100
AcDbEntity
  8
GAIKEI
  6
HIDDEN2
 62
     1
100
AcDbLine
 10
191.8257939541901
 20
210.9263448381537
 30
0.0
 11
191.0657939541901
 21
210.9263448381537
 31
0.0
  0
LINE
  5
318
330
2
100
AcDbEntity
  8
GAIKEI
  6
HIDDEN2
 62
     1
100
AcDbLine
 10
191.8207939541901
 20
211.0363448381536
 30
0.0
 11
191.0707939541901
 21
211.0363448381536
 31
0.0
  0
LINE
  5
319
330
2
100
AcDbEntity
  8
GAIKEI
  6
HIDDEN2
 62
     1
100
AcDbLine
 10
191.8207939541901
 20
210.9363448381536
 30
0.0
 11
191.0707939541901
 21
210.9363448381536
 31
0.0
  0
LINE
  5
31A
330
2
100
AcDbEntity
  8
GAIKEI
  6
HIDDEN2
 62
     1
100
AcDbLine
 10
191.8457939541901
 20
210.0363448381536
 30
0.0
 11
191.8457939541901
 21
209.9863448381536
 31
0.0
  0
LINE
  5
31B
330
2
100
AcDbEntity
  8
GAIKEI
  6
HIDDEN2
 62
     1
100
AcDbLine
 10
191.9457939541901
 20
210.0363448381536
 30
0.0
 11
191.8207939541901
 21
210.0363448381536
 31
0.0
  0
LINE
  5
31C
330
2
100
AcDbEntity
  8
GAIKEI
  6
HIDDEN2
 62
     1
100
AcDbLine
 10
191.8207939541901
 20
210.0613448381536
 30
0.0
 11
191.8207939541901
 21
210.0363448381536
 31
0.0
  0
LINE
  5
31D
330
2
100
AcDbEntity
  8
GAIKEI
  6
HIDDEN2
 62
     1
100
AcDbLine
 10
191.9457939541901
 20
209.7863448381536
 30
0.0
 11
191.9457939541901
 21
210.0363448381536
 31
0.0
  0
LINE
  5
31E
330
2
100
AcDbEntity
  8
GAIKEI
  6
HIDDEN2
 62
     1
100
AcDbLine
 10
191.9582939541901
 20
209.9863448381536
 30
0.0
 11
191.9582939541901
 21
209.7863448381536
 31
0.0
  0
LINE
  5
31F
330
2
100
AcDbEntity
  8
GAIKEI
  6
HIDDEN2
 62
     1
100
AcDbLine
 10
191.9582939541901
 20
209.9863448381536
 30
0.0
 11
192.0582939541901
 21
209.9863448381536
 31
0.0
  0
LINE
  5
320
330
2
100
AcDbEntity
  8
GAIKEI
  6
HIDDEN2
 62
     1
100
AcDbLine
 10
191.8082939541901
 20
209.8863448381537
 30
0.0
 11
191.9457939541901
 21
209.8863448381537
 31
0.0
  0
LINE
  5
321
330
2
100
AcDbEntity
  8
GAIKEI
  6
HIDDEN2
 62
     1
100
AcDbLine
 10
192.0582939541901
 20
209.7863448381536
 30
0.0
 11
191.9082939541901
 21
209.7863448381536
 31
0.0
  0
ARC
  5
322
330
2
100
AcDbEntity
  8
GAIKEI
  6
HIDDEN2
 62
     1
100
AcDbCircle
 10
191.9082939541901
 20
209.8863448381537
 30
0.0
 40
0.1
100
AcDbArc
 50
180.0
 51
270.0
  0
LINE
  5
323
330
2
100
AcDbEntity
  8
GAIKEI
  6
HIDDEN2
 62
     1
100
AcDbLine
 10
191.8082939541901
 20
209.8863448381537
 30
0.0
 11
191.8082939541901
 21
209.9863448381536
 31
0.0
  0
LINE
  5
324
330
2
100
AcDbEntity
  8
GAIKEI
  6
HIDDEN2
 62
     1
100
AcDbLine
 10
191.2957939541901
 20
209.9863448381536
 30
0.0
 11
191.2957939541901
 21
209.8263285881536
 31
0.0
  0
POINT
  5
325
330
2
100
AcDbEntity
  8
GAIKEI
  6
HIDDEN2
 62
     1
100
AcDbPoint
 10
191.2957939541901
 20
209.7113448381537
 30
0.0
  0
LINE
  5
326
330
2
100
AcDbEntity
  8
GAIKEI
  6
HIDDEN2
 62
     1
100
AcDbLine
 10
191.3207939541901
 20
210.0613448381536
 30
0.0
 11
191.3207939541901
 21
210.1863448381536
 31
0.0
  0
ARC
  5
327
330
2
100
AcDbEntity
  8
GAIKEI
  6
HIDDEN2
 62
     1
100
AcDbCircle
 10
191.0457939541901
 20
209.8263285881536
 30
0.0
 40
0.25
100
AcDbArc
 50
310.6012949999991
 51
0.0
  0
LINE
  5
328
330
2
100
AcDbEntity
  8
GAIKEI
  6
HIDDEN2
 62
     1
100
AcDbLine
 10
192.3842659541901
 20
208.8110673381536
 30
0.0
 11
192.4132939541901
 21
208.8613448381536
 31
0.0
  0
LINE
  5
329
330
2
100
AcDbEntity
  8
GAIKEI
  6
HIDDEN2
 62
     1
100
AcDbLine
 10
192.4132939541901
 20
208.8613448381536
 30
0.0
 11
192.4132939541901
 21
209.5113448381537
 31
0.0
  0
LINE
  5
32A
330
2
100
AcDbEntity
  8
GAIKEI
  6
HIDDEN2
 62
     1
100
AcDbLine
 10
192.4132939541901
 20
209.5113448381537
 30
0.0
 11
192.3842659541901
 21
209.5616225881536
 31
0.0
  0
LINE
  5
32B
330
2
100
AcDbEntity
  8
GAIKEI
  6
HIDDEN2
 62
     1
100
AcDbLine
 10
192.3842659541901
 20
208.8110673381536
 30
0.0
 11
192.1382939541901
 21
208.8110673381536
 31
0.0
  0
LINE
  5
32C
330
2
100
AcDbEntity
  8
GAIKEI
  6
HIDDEN2
 62
     1
100
AcDbLine
 10
192.3842659541901
 20
209.5616225881536
 30
0.0
 11
192.1382939541901
 21
209.5616225881536
 31
0.0
  0
LINE
  5
32D
330
2
100
AcDbEntity
  8
GAIKEI
  6
HIDDEN2
 62
     1
100
AcDbLine
 10
192.1382939541901
 20
209.5863448381537
 30
0.0
 11
192.1382939541901
 21
208.7863448381536
 31
0.0
  0
LINE
  5
32E
330
2
100
AcDbEntity
  8
GAIKEI
  6
HIDDEN2
 62
     1
100
AcDbLine
 10
192.3842659541901
 20
208.9987060881537
 30
0.0
 11
192.1382939541901
 21
208.9987060881537
 31
0.0
  0
LINE
  5
32F
330
2
100
AcDbEntity
  8
GAIKEI
  6
HIDDEN2
 62
     1
100
AcDbLine
 10
192.3842659541901
 20
209.3739838381537
 30
0.0
 11
192.1382939541901
 21
209.3739838381537
 31
0.0
  0
ARC
  5
330
330
2
100
AcDbEntity
  8
GAIKEI
  6
HIDDEN2
 62
     1
100
AcDbCircle
 10
192.2471654541901
 20
208.9048865881537
 30
0.0
 40
0.1661285
100
AcDbArc
 50
325.615752999999
 51
34.38424700000105
  0
ARC
  5
331
330
2
100
AcDbEntity
  8
GAIKEI
  6
HIDDEN2
 62
     1
100
AcDbCircle
 10
191.7923217041901
 20
209.1863448381536
 30
0.0
 40
0.62097225
100
AcDbArc
 50
342.4120459999997
 51
17.58795400000037
  0
ARC
  5
332
330
2
100
AcDbEntity
  8
GAIKEI
  6
HIDDEN2
 62
     1
100
AcDbCircle
 10
192.2471654541901
 20
209.4678030881536
 30
0.0
 40
0.1661285
100
AcDbArc
 50
325.615752999999
 51
34.38424700000105
  0
LINE
  5
333
330
2
100
AcDbEntity
  8
GAIKEI
  6
HIDDEN2
 62
     1
100
AcDbLine
 10
192.1382939541901
 20
208.7863448381536
 30
0.0
 11
192.0582939541901
 21
208.7863448381536
 31
0.0
  0
LINE
  5
334
330
2
100
AcDbEntity
  8
GAIKEI
  6
HIDDEN2
 62
     1
100
AcDbLine
 10
192.0582939541901
 20
208.7863448381536
 30
0.0
 11
192.0582939541901
 21
209.5863448381537
 31
0.0
  0
LINE
  5
335
330
2
100
AcDbEntity
  8
GAIKEI
  6
HIDDEN2
 62
     1
100
AcDbLine
 10
192.0582939541901
 20
209.5863448381537
 30
0.0
 11
192.1382939541901
 21
209.5863448381537
 31
0.0
  0
POINT
  5
336
330
2
100
AcDbEntity
  8
GAIKEI
  6
HIDDEN2
 62
     1
100
AcDbPoint
 10
191.1457939541901
 20
209.5863448381537
 30
0.0
  0
LINE
  5
337
330
2
100
AcDbEntity
  8
GAIKEI
  6
HIDDEN2
 62
     1
100
AcDbLine
 10
191.2084917041901
 20
209.6365145881537
 30
0.0
 11
190.8578982041901
 21
209.3360058381537
 31
0.0
  0
POINT
  5
338
330
2
100
AcDbEntity
  8
GAIKEI
  6
HIDDEN2
 62
     1
100
AcDbPoint
 10
190.6832939541901
 20
209.1863448381536
 30
0.0
  0
ARC
  5
339
330
2
100
AcDbEntity
  8
GAIKEI
  6
HIDDEN2
 62
     1
100
AcDbCircle
 10
191.1832939541901
 20
208.9563773381537
 30
0.0
 40
0.5
100
AcDbArc
 50
130.6012949999991
 51
180.0
  0
ARC
  5
33A
330
2
100
AcDbEntity
  8
GAIKEI
  6
HIDDEN2
 62
     1
100
AcDbCircle
 10
191.4707939541901
 20
205.5363448381536
 30
0.0
 40
0.1
100
AcDbArc
 50
0.0
 51
90.0
  0
LINE
  5
33B
330
2
100
AcDbEntity
  8
GAIKEI
  6
HIDDEN2
 62
     1
100
AcDbLine
 10
192.4132939541901
 20
204.8113448381536
 30
0.0
 11
192.3842659541901
 21
204.8616225881536
 31
0.0
  0
LINE
  5
33C
330
2
100
AcDbEntity
  8
GAIKEI
  6
HIDDEN2
 62
     1
100
AcDbLine
 10
192.3842659541901
 20
204.8616225881536
 30
0.0
 11
192.1382939541901
 21
204.8616225881536
 31
0.0
  0
LINE
  5
33D
330
2
100
AcDbEntity
  8
GAIKEI
  6
HIDDEN2
 62
     1
100
AcDbLine
 10
192.0582939541901
 20
204.8863448381537
 30
0.0
 11
192.1382939541901
 21
204.8863448381537
 31
0.0
  0
ARC
  5
33E
330
2
100
AcDbEntity
  8
GAIKEI
  6
HIDDEN2
 62
     1
100
AcDbCircle
 10
190.3582939541901
 20
208.0863448381537
 30
0.0
 40
0.325
100
AcDbArc
 50
270.0
 51
0.0
  0
LINE
  5
33F
330
2
100
AcDbEntity
  8
GAIKEI
  6
HIDDEN2
 62
     1
100
AcDbLine
 10
190.3582939541901
 20
207.7613448381537
 30
0.0
 11
190.2832939541901
 21
207.7613448381537
 31
0.0
  0
LINE
  5
340
330
2
100
AcDbEntity
  8
GAIKEI
  6
HIDDEN2
 62
     1
100
AcDbLine
 10
190.6832939541901
 20
208.0863448381537
 30
0.0
 11
190.6832939541901
 21
208.9577193381537
 31
0.0
  0
LINE
  5
341
330
2
100
AcDbEntity
  8
GAIKEI
  6
HIDDEN2
 62
     1
100
AcDbLine
 10
188.6582939541901
 20
210.1613448381536
 30
0.0
 11
188.6582939541901
 21
210.9113448381536
 31
0.0
  0
ARC
  5
342
330
2
100
AcDbEntity
  8
GAIKEI
  6
HIDDEN2
 62
     1
100
AcDbCircle
 10
188.1582939541901
 20
210.9113448381536
 30
0.0
 40
0.5
100
AcDbArc
 50
0.0
 51
90.0
  0
LINE
  5
343
330
2
100
AcDbEntity
  8
GAIKEI
  6
HIDDEN2
 62
     1
100
AcDbLine
 10
188.7957939541901
 20
210.0363448381536
 30
0.0
 11
188.7957939541901
 21
209.9863448381536
 31
0.0
  0
LINE
  5
344
330
2
100
AcDbEntity
  8
GAIKEI
  6
HIDDEN2
 62
     1
100
AcDbLine
 10
188.8207939541901
 20
210.0613448381536
 30
0.0
 11
188.8207939541901
 21
210.0363448381536
 31
0.0
  0
ARC
  5
345
330
2
100
AcDbEntity
  8
GAIKEI
  6
HIDDEN2
 62
     1
100
AcDbCircle
 10
188.7332939541901
 20
209.8863448381537
 30
0.0
 40
0.1
100
AcDbArc
 50
270.0
 51
0.0
  0
LINE
  5
346
330
2
100
AcDbEntity
  8
GAIKEI
  6
HIDDEN2
 62
     1
100
AcDbLine
 10
188.8332939541901
 20
209.8863448381537
 30
0.0
 11
188.8332939541901
 21
209.9863448381536
 31
0.0
  0
LINE
  5
347
330
2
100
AcDbEntity
  8
GAIKEI
  6
HIDDEN2
 62
     1
100
AcDbLine
 10
189.3457939541901
 20
209.9863448381536
 30
0.0
 11
189.3457939541901
 21
209.8263285881536
 31
0.0
  0
POINT
  5
348
330
2
100
AcDbEntity
  8
GAIKEI
  6
HIDDEN2
 62
     1
100
AcDbPoint
 10
189.3457939541901
 20
209.7113448381537
 30
0.0
  0
LINE
  5
349
330
2
100
AcDbEntity
  8
GAIKEI
  6
HIDDEN2
 62
     1
100
AcDbLine
 10
188.6832939541901
 20
209.9863448381536
 30
0.0
 11
188.6832939541901
 21
209.7863448381536
 31
0.0
  0
LINE
  5
34A
330
2
100
AcDbEntity
  8
GAIKEI
  6
HIDDEN2
 62
     1
100
AcDbLine
 10
188.6832939541901
 20
209.9863448381536
 30
0.0
 11
188.5832939541901
 21
209.9863448381536
 31
0.0
  0
LINE
  5
34B
330
2
100
AcDbEntity
  8
GAIKEI
  6
HIDDEN2
 62
     1
100
AcDbLine
 10
188.6957939541901
 20
209.7863448381536
 30
0.0
 11
188.6957939541901
 21
210.0363448381536
 31
0.0
  0
LINE
  5
34C
330
2
100
AcDbEntity
  8
GAIKEI
  6
HIDDEN2
 62
     1
100
AcDbLine
 10
188.6957939541901
 20
210.0363448381536
 30
0.0
 11
188.8207939541901
 21
210.0363448381536
 31
0.0
  0
LINE
  5
34D
330
2
100
AcDbEntity
  8
GAIKEI
  6
HIDDEN2
 62
     1
100
AcDbLine
 10
188.8332939541901
 20
209.8863448381537
 30
0.0
 11
188.6957939541901
 21
209.8863448381537
 31
0.0
  0
LINE
  5
34E
330
2
100
AcDbEntity
  8
GAIKEI
  6
HIDDEN2
 62
     1
100
AcDbLine
 10
188.5832939541901
 20
209.7863448381536
 30
0.0
 11
188.7332939541901
 21
209.7863448381536
 31
0.0
  0
LINE
  5
34F
330
2
100
AcDbEntity
  8
GAIKEI
  6
HIDDEN2
 62
     1
100
AcDbLine
 10
189.3207939541901
 20
210.0613448381536
 30
0.0
 11
189.3207939541901
 21
210.1863448381536
 31
0.0
  0
ARC
  5
350
330
2
100
AcDbEntity
  8
GAIKEI
  6
HIDDEN2
 62
     1
100
AcDbCircle
 10
189.5957939541901
 20
209.8263285881536
 30
0.0
 40
0.25
100
AcDbArc
 50
180.0
 51
229.3987050000008
  0
POINT
  5
351
330
2
100
AcDbEntity
  8
GAIKEI
  6
HIDDEN2
 62
     1
100
AcDbPoint
 10
189.9582939541901
 20
209.1863448381536
 30
0.0
  0
ARC
  5
352
330
2
100
AcDbEntity
  8
GAIKEI
  6
HIDDEN2
 62
     1
100
AcDbCircle
 10
189.4582939541901
 20
208.9563773381537
 30
0.0
 40
0.5
100
AcDbArc
 50
0.0
 51
49.39870500000086
  0
LINE
  5
353
330
2
100
AcDbEntity
  8
GAIKEI
  6
HIDDEN2
 62
     1
100
AcDbLine
 10
189.4330959541901
 20
209.6365145881537
 30
0.0
 11
189.7836894541901
 21
209.3360058381537
 31
0.0
  0
LINE
  5
354
330
2
100
AcDbEntity
  8
GAIKEI
  6
HIDDEN2
 62
     1
100
AcDbLine
 10
188.1582939541901
 20
209.0263448381537
 30
0.0
 11
188.13829395419
 21
209.0463448381536
 31
0.0
  0
LINE
  5
355
330
2
100
AcDbEntity
  8
GAIKEI
  6
HIDDEN2
 62
     1
100
AcDbLine
 10
188.1582939541901
 20
209.3463448381536
 30
0.0
 11
188.13829395419
 21
209.3263448381537
 31
0.0
  0
LINE
  5
356
330
2
100
AcDbEntity
  8
GAIKEI
  6
HIDDEN2
 62
     1
100
AcDbLine
 10
188.13829395419
 20
209.0463448381536
 30
0.0
 11
188.13829395419
 21
209.3263448381537
 31
0.0
  0
LINE
  5
357
330
2
100
AcDbEntity
  8
GAIKEI
  6
HIDDEN2
 62
     1
100
AcDbLine
 10
188.2582939541901
 20
209.4863448381536
 30
0.0
 11
188.2582939541901
 21
208.8863448381537
 31
0.0
  0
LINE
  5
358
330
2
100
AcDbEntity
  8
GAIKEI
  6
HIDDEN2
 62
     1
100
AcDbLine
 10
188.2582939541901
 20
209.4863448381536
 30
0.0
 11
188.5832939541901
 21
209.4863448381536
 31
0.0
  0
LINE
  5
359
330
2
100
AcDbEntity
  8
GAIKEI
  6
HIDDEN2
 62
     1
100
AcDbLine
 10
188.2582939541901
 20
208.8863448381537
 30
0.0
 11
188.5832939541901
 21
208.8863448381537
 31
0.0
  0
ARC
  5
35A
330
2
100
AcDbEntity
  8
GAIKEI
  6
HIDDEN2
 62
     1
100
AcDbCircle
 10
188.6832939541901
 20
209.1863448381536
 30
0.0
 40
0.425
100
AcDbArc
 50
135.0991279999982
 51
225.0594530000011
  0
LINE
  5
35B
330
2
100
AcDbEntity
  8
GAIKEI
  6
HIDDEN2
 62
     1
100
AcDbLine
 10
188.1582939541901
 20
209.0263448381537
 30
0.0
 11
188.2582939541901
 21
209.0263448381537
 31
0.0
  0
LINE
  5
35C
330
2
100
AcDbEntity
  8
GAIKEI
  6
HIDDEN2
 62
     1
100
AcDbLine
 10
188.1582939541901
 20
209.3463448381536
 30
0.0
 11
188.2582939541901
 21
209.3463448381536
 31
0.0
  0
LINE
  5
35D
330
2
100
AcDbEntity
  8
GAIKEI
  6
HIDDEN2
 62
     1
100
AcDbLine
 10
188.2082939541901
 20
209.0263448381537
 30
0.0
 11
188.2082939541901
 21
209.3463448381536
 31
0.0
  0
LINE
  5
35E
330
2
100
AcDbEntity
  8
GAIKEI
  6
HIDDEN2
 62
     1
100
AcDbLine
 10
188.8157939541901
 20
211.0763448381537
 30
0.0
 11
189.5757939541901
 21
211.0763448381537
 31
0.0
  0
LINE
  5
35F
330
2
100
AcDbEntity
  8
GAIKEI
  6
HIDDEN2
 62
     1
100
AcDbLine
 10
189.5757939541901
 20
211.0763448381537
 30
0.0
 11
189.5757939541901
 21
210.9263448381537
 31
0.0
  0
LINE
  5
360
330
2
100
AcDbEntity
  8
GAIKEI
  6
HIDDEN2
 62
     1
100
AcDbLine
 10
188.8157939541901
 20
211.0763448381537
 30
0.0
 11
188.8157939541901
 21
210.9263448381537
 31
0.0
  0
LINE
  5
361
330
2
100
AcDbEntity
  8
GAIKEI
  6
HIDDEN2
 62
     1
100
AcDbLine
 10
188.8157939541901
 20
210.9263448381537
 30
0.0
 11
189.5757939541901
 21
210.9263448381537
 31
0.0
  0
LINE
  5
362
330
2
100
AcDbEntity
  8
GAIKEI
  6
HIDDEN2
 62
     1
100
AcDbLine
 10
188.8207939541901
 20
211.0363448381536
 30
0.0
 11
189.5707939541901
 21
211.0363448381536
 31
0.0
  0
LINE
  5
363
330
2
100
AcDbEntity
  8
GAIKEI
  6
HIDDEN2
 62
     1
100
AcDbLine
 10
188.8207939541901
 20
211.0363448381536
 30
0.0
 11
188.8207939541901
 21
210.9263448381537
 31
0.0
  0
LINE
  5
364
330
2
100
AcDbEntity
  8
GAIKEI
  6
HIDDEN2
 62
     1
100
AcDbLine
 10
188.8207939541901
 20
210.9363448381536
 30
0.0
 11
189.5707939541901
 21
210.9363448381536
 31
0.0
  0
LINE
  5
365
330
2
100
AcDbEntity
  8
GAIKEI
  6
HIDDEN2
 62
     1
100
AcDbLine
 10
189.5707939541901
 20
211.0363448381536
 30
0.0
 11
189.5707939541901
 21
210.9263448381537
 31
0.0
  0
ARC
  5
366
330
2
100
AcDbEntity
  8
GAIKEI
  6
HIDDEN2
 62
     1
100
AcDbCircle
 10
189.1707939541901
 20
205.5363448381536
 30
0.0
 40
0.1
100
AcDbArc
 50
90.0
 51
180.0
  0
LINE
  5
367
330
2
100
AcDbEntity
  8
GAIKEI
  6
HIDDEN2
 62
     1
100
AcDbLine
 10
188.2582939541901
 20
204.7863448381536
 30
0.0
 11
188.5832939541901
 21
204.7863448381536
 31
0.0
  0
LINE
  5
368
330
2
100
AcDbEntity
  8
GAIKEI
  6
HIDDEN2
 62
     1
100
AcDbLine
 10
189.9582939541901
 20
208.0863448381537
 30
0.0
 11
189.9582939541901
 21
208.9577193381537
 31
0.0
  0
LINE
  5
369
330
2
100
AcDbEntity
  8
GAIKEI
  6
HIDDEN2
 62
     1
100
AcDbLine
 10
189.1707939541901
 20
205.6363448381537
 30
0.0
 11
191.4707939541901
 21
205.6363448381537
 31
0.0
  0
ARC
  5
36A
330
2
100
AcDbEntity
  8
GAIKEI
  6
HIDDEN2
 62
     1
100
AcDbCircle
 10
190.2832939541901
 20
208.0863448381537
 30
0.0
 40
0.325
100
AcDbArc
 50
180.0
 51
270.0
  0
CIRCLE
  5
36B
330
2
100
AcDbEntity
  8
GAIKEI
  6
HIDDEN2
 62
     1
100
AcDbCircle
 10
190.3207939541901
 20
208.5738448381537
 30
0.0
 40
0.3625
  0
LINE
  5
36C
330
2
100
AcDbEntity
  8
GAIKEI
  6
HIDDEN2
 62
     1
100
AcDbLine
 10
189.3207939541901
 20
210.1863448381536
 30
0.0
 11
191.3207939541901
 21
210.1863448381536
 31
0.0
  0
LINE
  5
36D
330
2
100
AcDbEntity
  8
GAIKEI
  6
HIDDEN2
 62
     1
100
AcDbLine
 10
188.6957939541901
 20
209.9863448381536
 30
0.0
 11
191.9457939541901
 21
209.9863448381536
 31
0.0
  0
LINE
  5
36E
330
2
100
AcDbEntity
  8
GAIKEI
  6
HIDDEN2
 62
     1
100
AcDbLine
 10
189.3457939541901
 20
209.8863448381537
 30
0.0
 11
191.2957939541901
 21
209.8863448381537
 31
0.0
  0
LINE
  5
36F
330
2
100
AcDbEntity
  8
GAIKEI
  6
HIDDEN2
 62
     1
100
AcDbLine
 10
193.1957939541901
 20
210.0613448381536
 30
0.0
 11
193.1957939541901
 21
212.8113448381536
 31
0.0
  0
ARC
  5
370
330
2
100
AcDbEntity
  8
GAIKEI
 62
     1
100
AcDbCircle
 10
197.2260364541899
 20
214.2665856131537
 30
0.0
 40
0.15
100
AcDbArc
 50
0.0
 51
90.000000199999
  0
ARC
  5
371
330
2
100
AcDbEntity
  8
GAIKEI
 62
     1
100
AcDbCircle
 10
197.2312764541903
 20
214.2718264131539
 30
0.0
 40
0.25
100
AcDbArc
 50
0.0
 51
90.000000199999
  0
ARC
  5
372
330
2
100
AcDbEntity
  8
GAIKEI
100
AcDbCircle
 10
198.6707939541903
 20
215.7113448381536
 30
0.0
 40
0.2
100
AcDbArc
 50
0.0
 51
90.000000199999
  0
ARC
  5
373
330
2
100
AcDbEntity
  8
GAIKEI
 62
     1
100
AcDbCircle
 10
198.5554964541898
 20
215.5960477381537
 30
0.0
 40
0.2
100
AcDbArc
 50
0.0
 51
90.000000199999
  0
INSERT
  5
374
330
2
100
AcDbEntity
  8
SUNPO
100
AcDbBlockReference
  2
SUNPO
 10
-0.0500000988778879
 20
-126.2013379629243
 30
0.0
  0
LINE
  5
38E
330
2
100
AcDbEntity
  8
GAIKEI
  6
Continuous
 62
     1
100
AcDbLine
 10
233.9362077622513
 20
210.0363448381536
 30
0.0
 11
235.9362077622513
 21
210.0363448381536
 31
0.0
  0
ARC
  5
38F
330
2
100
AcDbEntity
  8
GAIKEI
  6
Continuous
 62
     1
100
AcDbCircle
 10
234.4362079589835
 20
209.7613449644818
 30
0.0
 40
0.25
100
AcDbArc
 50
359.9999999999997
 51
89.99999999999973
  0
LINE
  5
390
330
2
100
AcDbEntity
  8
GAIKEI
 62
     1
100
AcDbLine
 10
232.7276765105547
 20
208.5512031761671
 30
0.0
 11
232.7276765105547
 21
213.004098174386
 31
0.0
  0
LINE
  5
391
330
2
100
AcDbEntity
  8
GAIKEI
100
AcDbLine
 10
232.9362077622513
 20
211.5203216390149
 30
0.0
 11
232.5607748439548
 21
214.1916656739109
 31
0.0
  0
LINE
  5
392
330
2
100
AcDbEntity
  8
GAIKEI
 62
     1
100
AcDbLine
 10
232.4459685940008
 20
211.8532456748463
 30
0.0
 11
232.1628590107808
 21
213.911855674023
 31
0.0
  0
LINE
  5
393
330
2
100
AcDbEntity
  8
GAIKEI
 62
     1
100
AcDbLine
 10
232.3944535940214
 20
211.8461610915159
 30
0.0
 11
232.1177056774655
 21
213.8585110907109
 31
0.0
  0
LINE
  5
394
330
2
100
AcDbEntity
  8
GAIKEI
 62
     1
100
AcDbLine
 10
230.8562077613033
 20
211.4836010916609
 30
0.0
 11
230.8562077613033
 21
213.987003173993
 31
0.0
  0
LINE
  5
395
330
2
100
AcDbEntity
  8
GAIKEI
 62
     1
100
AcDbLine
 10
231.1612077611815
 20
211.4836010916609
 30
0.0
 11
231.1612077611815
 21
213.872799007372
 31
0.0
  0
LINE
  5
396
330
2
100
AcDbEntity
  8
GAIKEI
 62
     1
100
AcDbLine
 10
230.8112077613212
 20
211.4836010916609
 30
0.0
 11
230.8112077613212
 21
213.9282715073496
 31
0.0
  0
LINE
  5
397
330
2
100
AcDbEntity
  8
GAIKEI
 62
     1
100
AcDbLine
 10
231.3412077611095
 20
209.4246940091512
 30
0.0
 11
231.3412077611095
 21
214.2141702572354
 31
0.0
  0
CIRCLE
  5
398
330
2
100
AcDbEntity
  8
GAIKEI
  6
Continuous
 62
     1
100
AcDbCircle
 10
234.2362077337231
 20
204.5113447970084
 30
0.0
 40
0.31133625
  0
CIRCLE
  5
399
330
2
100
AcDbEntity
  8
GAIKEI
  6
Continuous
 62
     1
100
AcDbCircle
 10
234.2362077337231
 20
204.5113447970084
 30
0.0
 40
0.425
  0
LINE
  5
39A
330
2
100
AcDbEntity
  8
GAIKEI
  6
Continuous
 62
     1
100
AcDbLine
 10
232.9362077833621
 20
209.8113448586022
 30
0.0
 11
233.0362078069646
 21
209.8113447819788
 31
0.0
  0
ARC
  5
39B
330
2
100
AcDbEntity
  8
GAIKEI
  6
Continuous
 62
     1
100
AcDbCircle
 10
233.036207883588
 20
209.9113448055813
 30
0.0
 40
0.1
100
AcDbArc
 50
269.9999999999998
 51
359.9999999999997
  0
ARC
  5
39C
330
2
100
AcDbEntity
  8
GAIKEI
  6
Continuous
 62
     1
100
AcDbCircle
 10
233.2362079525819
 20
209.911344901383
 30
0.0
 40
0.1
100
AcDbArc
 50
89.99999999999973
 51
179.9999999999997
  0
LINE
  5
39D
330
2
100
AcDbEntity
  8
GAIKEI
  6
Continuous
 62
     1
100
AcDbLine
 10
233.036207883588
 20
209.9113448055813
 30
0.0
 11
233.0362078069646
 21
209.8113447819788
 31
0.0
  0
ARC
  5
39E
330
2
100
AcDbEntity
  8
GAIKEI
  6
Continuous
 62
     1
100
AcDbCircle
 10
233.036207883588
 20
209.9113448055813
 30
0.0
 40
0.1
100
AcDbArc
 50
89.99999999999973
 51
179.9999999999997
  0
LINE
  5
39F
330
2
100
AcDbEntity
  8
GAIKEI
  6
Continuous
 62
     1
100
AcDbLine
 10
233.036207883588
 20
209.9113448055813
 30
0.0
 11
233.1362079289794
 21
209.9113449780065
 31
0.0
  0
LINE
  5
3A0
330
2
100
AcDbEntity
  8
GAIKEI
  6
Continuous
 62
     1
100
AcDbLine
 10
233.0362079602114
 20
210.0113448291837
 30
0.0
 11
234.4362078797044
 21
210.0113447962282
 31
0.0
  0
LINE
  5
3A1
330
2
100
AcDbEntity
  8
GAIKEI
 62
     1
100
AcDbLine
 10
232.7276765105547
 20
208.5512031761671
 30
0.0
 11
232.5364123439647
 21
208.3016298429337
 31
0.0
  0
ARC
  5
3A2
330
2
100
AcDbEntity
  8
GAIKEI
 62
     1
100
AcDbCircle
 10
232.2276765107548
 20
208.5512031761671
 30
0.0
 40
0.4999999998
100
AcDbArc
 50
0.0
 51
59.99999989999841
  0
ARC
  5
3A3
330
2
100
AcDbEntity
  8
GAIKEI
 62
     1
100
AcDbCircle
 10
232.0364123441646
 20
208.3016298429337
 30
0.0
 40
0.4999999998
100
AcDbArc
 50
0.0
 51
59.99999989999841
  0
ARC
  5
3A4
330
2
100
AcDbEntity
  8
GAIKEI
 62
     1
100
AcDbCircle
 10
232.2479069274135
 20
208.8994106760279
 30
0.0
 40
0.34999999986
100
AcDbArc
 50
282.0947570000068
 51
352.1695419999988
  0
LINE
  5
3A5
330
2
100
AcDbEntity
  8
GAIKEI
 62
     1
100
AcDbLine
 10
232.4557077606635
 20
211.4836010916609
 30
0.0
 11
232.4557077606635
 21
211.2562610917517
 31
0.0
  0
LINE
  5
3A6
330
2
100
AcDbEntity
  8
GAIKEI
 62
     1
100
AcDbLine
 10
232.4037077606843
 20
211.4836010916609
 30
0.0
 11
232.4037077606843
 21
211.2562610917517
 31
0.0
  0
ARC
  5
3A7
330
2
100
AcDbEntity
  8
GAIKEI
 62
     1
100
AcDbCircle
 10
231.4112077610815
 20
211.2562610917517
 30
0.0
 40
0.9924999996029999
100
AcDbArc
 50
352.1695419999988
 51
0.0
  0
ARC
  5
3A8
330
2
100
AcDbEntity
  8
GAIKEI
 62
     1
100
AcDbCircle
 10
231.4112077610815
 20
211.2562610917517
 30
0.0
 40
1.044499999582199
100
AcDbArc
 50
352.1695419999988
 51
0.0
  0
LINE
  5
3A9
330
2
100
AcDbEntity
  8
GAIKEI
 62
     1
100
AcDbLine
 10
232.4557077606635
 20
211.4836010916609
 30
0.0
 11
232.4557077606635
 21
211.7109406749033
 31
0.0
  0
LINE
  5
3AA
330
2
100
AcDbEntity
  8
GAIKEI
 62
     1
100
AcDbLine
 10
232.4037077606843
 20
211.4836010916609
 30
0.0
 11
232.4037077606843
 21
211.7109406749033
 31
0.0
  0
ARC
  5
3AB
330
2
100
AcDbEntity
  8
GAIKEI
 62
     1
100
AcDbCircle
 10
231.4112077610815
 20
211.7109406749033
 30
0.0
 40
0.9924999996029999
100
AcDbArc
 50
0.0
 51
7.830457309997017
  0
ARC
  5
3AC
330
2
100
AcDbEntity
  8
GAIKEI
 62
     1
100
AcDbCircle
 10
231.4112077610815
 20
211.7109406749033
 30
0.0
 40
1.044499999582199
100
AcDbArc
 50
0.0
 51
7.830457309997017
  0
ARC
  5
3AD
330
2
100
AcDbEntity
  8
GAIKEI
 62
     1
100
AcDbCircle
 10
232.0142577608402
 20
209.0757823426239
 30
0.0
 40
0.14999999994
100
AcDbArc
 50
272.0000000000036
 51
352.1695419999988
  0
ARC
  5
3AE
330
2
100
AcDbEntity
  8
GAIKEI
 62
     1
100
AcDbCircle
 10
231.9691044275249
 20
209.129126925936
 30
0.0
 40
0.14999999994
100
AcDbArc
 50
272.0000000000036
 51
352.1695419999988
  0
LINE
  5
3AF
330
2
100
AcDbEntity
  8
GAIKEI
 62
     1
100
AcDbLine
 10
232.4459685940008
 20
211.1139560918087
 30
0.0
 11
232.1628590107808
 21
209.0553460926322
 31
0.0
  0
LINE
  5
3B0
330
2
100
AcDbEntity
  8
GAIKEI
 62
     1
100
AcDbLine
 10
232.3944535940214
 20
211.1210406751393
 30
0.0
 11
232.1177056774655
 21
209.1086906759443
 31
0.0
  0
ARC
  5
3B1
330
2
100
AcDbEntity
  8
GAIKEI
 62
     1
100
AcDbCircle
 10
231.5912077610095
 20
209.4246940091512
 30
0.0
 40
0.2499999999
100
AcDbArc
 50
180.0
 51
240.0000000000016
  0
LINE
  5
3B2
330
2
100
AcDbEntity
  8
GAIKEI
 62
     1
100
AcDbLine
 10
230.6862077613712
 20
208.2336010929608
 30
0.0
 11
230.8112077613212
 21
208.2336010929608
 31
0.0
  0
ARC
  5
3B3
330
2
100
AcDbEntity
  8
GAIKEI
 62
     1
100
AcDbCircle
 10
230.9612077612613
 20
209.0389306759722
 30
0.0
 40
0.14999999994
100
AcDbArc
 50
180.0
 51
272.0000000000036
  0
LINE
  5
3B4
330
2
100
AcDbEntity
  8
GAIKEI
 62
     1
100
AcDbLine
 10
230.9079527612826
 20
208.9302294260156
 30
0.0
 11
231.265698594473
 21
208.9427219260106
 31
0.0
  0
ARC
  5
3B5
330
2
100
AcDbEntity
  8
GAIKEI
 62
     1
100
AcDbCircle
 10
231.3112077611214
 20
209.0944027592832
 30
0.0
 40
0.14999999994
100
AcDbArc
 50
180.0
 51
252.2145040000034
  0
LINE
  5
3B6
330
2
100
AcDbEntity
  8
GAIKEI
 62
     1
100
AcDbLine
 10
231.265698594473
 20
208.9427219260106
 30
0.0
 11
231.2653898444731
 21
208.9515719260072
 31
0.0
  0
ARC
  5
3B7
330
2
100
AcDbEntity
  8
GAIKEI
 62
     1
100
AcDbCircle
 10
230.9062077612833
 20
208.9801990093288
 30
0.0
 40
0.04999999998
100
AcDbArc
 50
180.0
 51
272.0000000000036
  0
ARC
  5
3B8
330
2
100
AcDbEntity
  8
GAIKEI
 62
     1
100
AcDbCircle
 10
231.5912077610095
 20
209.7846940090072
 30
0.0
 40
0.2499999999
100
AcDbArc
 50
180.0
 51
240.0000000000016
  0
LINE
  5
3B9
330
2
100
AcDbEntity
  8
GAIKEI
 62
     1
100
AcDbLine
 10
230.8562077613033
 20
211.4836010916609
 30
0.0
 11
230.8562077613033
 21
208.9801990093288
 31
0.0
  0
LINE
  5
3BA
330
2
100
AcDbEntity
  8
GAIKEI
 62
     1
100
AcDbLine
 10
231.1612077611815
 20
211.4836010916609
 30
0.0
 11
231.1612077611815
 21
209.0944027592832
 31
0.0
  0
LINE
  5
3BB
330
2
100
AcDbEntity
  8
GAIKEI
 62
     1
100
AcDbLine
 10
230.8112077613212
 20
211.4836010916609
 30
0.0
 11
230.8112077613212
 21
209.0389306759722
 31
0.0
  0
LINE
  5
3BC
330
2
100
AcDbEntity
  8
GAIKEI
 62
     1
100
AcDbLine
 10
231.4662077610595
 20
209.5681877590938
 30
0.0
 11
232.4776765106547
 21
208.9842160926606
 31
0.0
  0
LINE
  5
3BD
330
2
100
AcDbEntity
  8
GAIKEI
 62
     1
100
AcDbLine
 10
231.4662077610595
 20
209.2081877592378
 30
0.0
 11
232.2864123440646
 21
208.7346423427603
 31
0.0
  0
LINE
  5
3BE
330
2
100
AcDbEntity
  8
GAIKEI
 62
     1
100
AcDbLine
 10
232.3212423440508
 20
208.5571798428314
 30
0.0
 11
230.8112077613212
 21
208.2336010929608
 31
0.0
  0
LINE
  5
3BF
330
2
100
AcDbEntity
  8
GAIKEI
 62
     1
100
AcDbLine
 10
230.9664427612593
 20
208.8890219260321
 30
0.0
 11
232.0194952608379
 21
208.9257952593508
 31
0.0
  0
LINE
  5
3C0
330
2
100
AcDbEntity
  8
GAIKEI
 62
     1
100
AcDbLine
 10
231.2578881778093
 20
208.954199426006
 30
0.0
 11
231.9743394275227
 21
208.9792185926627
 31
0.0
  0
LINE
  5
3C1
330
2
100
AcDbEntity
  8
GAIKEI
 62
     1
100
AcDbLine
 10
232.8972210938203
 20
211.0518977585003
 30
0.0
 11
232.7841290105321
 21
210.2295565088292
 31
0.0
  0
ARC
  5
3C2
330
2
100
AcDbEntity
  8
GAIKEI
 62
     1
100
AcDbCircle
 10
231.4112077610815
 20
211.2562610917517
 30
0.0
 40
1.499999999399999
100
AcDbArc
 50
352.1695419999988
 51
0.0
  0
LINE
  5
3C3
330
2
100
AcDbEntity
  8
GAIKEI
 62
     1
100
AcDbLine
 10
232.9112077604812
 20
211.4836010916609
 30
0.0
 11
232.9112077604812
 21
211.2562610917517
 31
0.0
  0
LINE
  5
3C4
330
2
100
AcDbEntity
  8
GAIKEI
 62
     1
100
AcDbLine
 10
232.9112077604812
 20
211.4836010916609
 30
0.0
 11
232.9112077604812
 21
211.7109406749033
 31
0.0
  0
LINE
  5
3C5
330
2
100
AcDbEntity
  8
GAIKEI
 62
     1
100
AcDbLine
 10
232.6074302606028
 20
208.9447044260099
 30
0.0
 11
232.5946435939412
 21
208.851725676047
 31
0.0
  0
LINE
  5
3C6
330
2
100
AcDbEntity
  8
GAIKEI
 62
     1
100
AcDbLine
 10
232.7841290105321
 20
210.2295565088292
 30
0.0
 11
232.6074302606028
 21
208.9447044260099
 31
0.0
  0
LINE
  5
3C7
330
2
100
AcDbEntity
  8
GAIKEI
100
AcDbLine
 10
230.6862077613712
 20
215.9136010898888
 30
0.0
 11
228.5335910955658
 21
215.8007869232675
 31
0.0
  0
ARC
  5
3C8
330
2
100
AcDbEntity
  8
GAIKEI
100
AcDbCircle
 10
228.5362077622313
 20
215.7508556732874
 30
0.0
 40
0.04999999998
100
AcDbArc
 50
92.99999979999306
 51
180.0
  0
ARC
  5
3C9
330
2
100
AcDbEntity
  8
GAIKEI
100
AcDbCircle
 10
232.3132081773873
 20
214.1568723405915
 30
0.0
 40
0.2499999999
100
AcDbArc
 50
7.999999990002516
 51
78.00000020000249
  0
ARC
  5
3CA
330
2
100
AcDbEntity
  8
GAIKEI
 62
     1
100
AcDbCircle
 10
232.0142577608402
 20
213.8914194240311
 30
0.0
 40
0.14999999994
100
AcDbArc
 50
7.830457309997017
 51
87.99999990000108
  0
ARC
  5
3CB
330
2
100
AcDbEntity
  8
GAIKEI
 62
     1
100
AcDbCircle
 10
231.9691044275249
 20
213.838074840719
 30
0.0
 40
0.14999999994
100
AcDbArc
 50
7.830457309997017
 51
87.99999990000108
  0
ARC
  5
3CC
330
2
100
AcDbEntity
  8
GAIKEI
 62
     1
100
AcDbCircle
 10
230.8412077613094
 20
214.2141702572354
 30
0.0
 40
0.4999999998
100
AcDbArc
 50
0.0
 51
78.00000360000012
  0
ARC
  5
3CD
330
2
100
AcDbEntity
  8
GAIKEI
 62
     1
100
AcDbCircle
 10
230.9612077612613
 20
213.9282715073496
 30
0.0
 40
0.14999999994
100
AcDbArc
 50
87.99999990000108
 51
180.0
  0
LINE
  5
3CE
330
2
100
AcDbEntity
  8
GAIKEI
 62
     1
100
AcDbLine
 10
230.9079527612826
 20
214.0369723406396
 30
0.0
 11
231.265698594473
 21
214.0244798406446
 31
0.0
  0
ARC
  5
3CF
330
2
100
AcDbEntity
  8
GAIKEI
 62
     1
100
AcDbCircle
 10
231.3112077611214
 20
213.872799007372
 30
0.0
 40
0.14999999994
100
AcDbArc
 50
107.7854969999999
 51
180.0
  0
LINE
  5
3D0
330
2
100
AcDbEntity
  8
GAIKEI
 62
     1
100
AcDbLine
 10
231.265698594473
 20
214.0244798406446
 30
0.0
 11
231.2653898444731
 21
214.0156302573146
 31
0.0
  0
ARC
  5
3D1
330
2
100
AcDbEntity
  8
GAIKEI
 62
     1
100
AcDbCircle
 10
230.9062077612833
 20
213.987003173993
 30
0.0
 40
0.04999999998
100
AcDbArc
 50
87.99999990000108
 51
180.0
  0
ARC
  5
3D2
330
2
100
AcDbEntity
  8
GAIKEI
100
AcDbCircle
 10
230.9112077612813
 20
214.9660469236013
 30
0.0
 40
0.2499999999
100
AcDbArc
 50
205.8419330000041
 51
257.999999999997
  0
LINE
  5
3D3
330
2
100
AcDbEntity
  8
GAIKEI
100
AcDbLine
 10
232.3651860940329
 20
214.4014094238272
 30
0.0
 11
230.8592298446354
 21
214.7215102570324
 31
0.0
  0
LINE
  5
3D4
330
2
100
AcDbEntity
  8
GAIKEI
 62
     1
100
AcDbLine
 10
230.9664427612593
 20
214.0781798406229
 30
0.0
 11
232.0194952608379
 21
214.0414065073044
 31
0.0
  0
LINE
  5
3D5
330
2
100
AcDbEntity
  8
GAIKEI
 62
     1
100
AcDbLine
 10
231.2578881778093
 20
214.0130023406492
 30
0.0
 11
231.9743394275227
 21
213.9879835906591
 31
0.0
  0
LINE
  5
3D6
330
2
100
AcDbEntity
  8
GAIKEI
  6
Continuous
 62
     1
100
AcDbLine
 10
235.7362077622514
 20
212.7113448381537
 30
0.0
 11
235.7362077622514
 21
210.1613448381536
 31
0.0
  0
LINE
  5
3D7
330
2
100
AcDbEntity
  8
GAIKEI
  6
Continuous
 62
     1
100
AcDbLine
 10
235.8362077622513
 20
212.7113448381537
 30
0.0
 11
235.8362077622513
 21
210.1613448381536
 31
0.0
  0
LINE
  5
3D8
330
2
100
AcDbEntity
  8
GAIKEI
  6
Continuous
 62
     1
100
AcDbLine
 10
235.8362077622513
 20
212.4113448381536
 30
0.0
 11
235.7616722622514
 21
212.3280115881536
 31
0.0
  0
ARC
  5
3D9
330
2
100
AcDbEntity
  8
GAIKEI
  6
Continuous
 62
     1
100
AcDbCircle
 10
235.8362077622513
 20
212.2613448381537
 30
0.0
 40
0.1
100
AcDbArc
 50
138.1896849999983
 51
180.0
  0
ARC
  5
3DA
330
2
100
AcDbEntity
  8
GAIKEI
  6
Continuous
 62
     1
100
AcDbCircle
 10
235.8362077622513
 20
210.1613448381536
 30
0.0
 40
0.1
100
AcDbArc
 50
270.0
 51
0.0
  0
LINE
  5
3DB
330
2
100
AcDbEntity
  8
GAIKEI
  6
Continuous
 62
     1
100
AcDbLine
 10
235.5362077622514
 20
210.1613448381536
 30
0.0
 11
235.5362077622514
 21
210.0613448381536
 31
0.0
  0
LINE
  5
3DC
330
2
100
AcDbEntity
  8
GAIKEI
  6
Continuous
 62
     1
100
AcDbLine
 10
235.8362077622513
 20
210.0613448381536
 30
0.0
 11
235.8362077622513
 21
210.0363448381536
 31
0.0
  0
LINE
  5
3DD
330
2
100
AcDbEntity
  8
GAIKEI
  6
Continuous
 62
     1
100
AcDbLine
 10
235.5362077622514
 20
210.0613448381536
 30
0.0
 11
235.8362077622513
 21
210.0613448381536
 31
0.0
  0
LINE
  5
3DE
330
2
100
AcDbEntity
  8
GAIKEI
  6
Continuous
 62
     1
100
AcDbLine
 10
235.5862077622513
 20
210.9363448381536
 30
0.0
 11
235.5862077622513
 21
211.0363448381536
 31
0.0
  0
LINE
  5
3DF
330
2
100
AcDbEntity
  8
GAIKEI
  6
Continuous
 62
     1
100
AcDbLine
 10
235.7362077622514
 20
210.9363448381536
 30
0.0
 11
235.5862077622513
 21
210.9363448381536
 31
0.0
  0
LINE
  5
3E0
330
2
100
AcDbEntity
  8
GAIKEI
  6
Continuous
 62
     1
100
AcDbLine
 10
235.7362077622514
 20
211.0363448381536
 30
0.0
 11
235.5862077622513
 21
211.0363448381536
 31
0.0
  0
LINE
  5
3E1
330
2
100
AcDbEntity
  8
GAIKEI
  6
Continuous
 62
     1
100
AcDbLine
 10
235.8362077622513
 20
211.4113448381536
 30
0.0
 11
235.7616722622514
 21
211.4946783381537
 31
0.0
  0
ARC
  5
3E2
330
2
100
AcDbEntity
  8
GAIKEI
  6
Continuous
 62
     1
100
AcDbCircle
 10
235.8362077622513
 20
211.5613448381536
 30
0.0
 40
0.1
100
AcDbArc
 50
180.0
 51
221.8103150000018
  0
LINE
  5
3E3
330
2
100
AcDbEntity
  8
GAIKEI
  6
Continuous
 62
     1
100
AcDbLine
 10
235.5362077622514
 20
210.1613448381536
 30
0.0
 11
235.8362077622513
 21
210.1613448381536
 31
0.0
  0
ARC
  5
3E4
330
2
100
AcDbEntity
  8
GAIKEI
  6
Continuous
 62
     1
100
AcDbCircle
 10
235.8362077622513
 20
212.7113448381537
 30
0.0
 40
0.1
100
AcDbArc
 50
0.0
 51
90.0
  0
LINE
  5
3E5
330
2
100
AcDbEntity
  8
GAIKEI
  6
Continuous
 62
     1
100
AcDbLine
 10
235.5362077622514
 20
212.7113448381537
 30
0.0
 11
235.5362077622514
 21
212.8113448381536
 31
0.0
  0
LINE
  5
3E6
330
2
100
AcDbEntity
  8
GAIKEI
  6
Continuous
 62
     1
100
AcDbLine
 10
235.5362077622514
 20
212.7113448381537
 30
0.0
 11
235.8362077622513
 21
212.7113448381537
 31
0.0
  0
LINE
  5
3E7
330
2
100
AcDbEntity
  8
GAIKEI
  6
Continuous
 62
     1
100
AcDbLine
 10
235.5362077622514
 20
212.8113448381536
 30
0.0
 11
235.8362077622513
 21
212.8113448381536
 31
0.0
  0
LINE
  5
3E8
330
2
100
AcDbEntity
  8
WAKU
 62
     1
100
AcDbLine
 10
130.9999999999999
 20
136.4992141396424
 30
0.0
 11
255.9999999999997
 21
136.4992141396424
 31
0.0
  0
LINE
  5
3EF
330
2
100
AcDbEntity
  8
WAKU
 62
     1
100
AcDbLine
 10
131.0
 20
161.4992141396424
 30
0.0
 11
255.9999999999997
 21
161.4992141396424
 31
0.0
  0
LINE
  5
3F0
330
2
100
AcDbEntity
  8
WAKU
 62
     1
100
AcDbLine
 10
131.0
 20
151.4992141396424
 30
0.0
 11
255.9999999999997
 21
151.4992141396424
 31
0.0
  0
LINE
  5
3F1
330
2
100
AcDbEntity
  8
WAKU
 62
     4
100
AcDbLine
 10
131.0
 20
171.4992141396424
 30
0.0
 11
255.9999999999997
 21
171.4992141396424
 31
0.0
  0
LINE
  5
3F2
330
2
100
AcDbEntity
  8
WAKU
 62
     1
100
AcDbLine
 10
131.0
 20
166.4992141396424
 30
0.0
 11
255.9999999999997
 21
166.4992141396424
 31
0.0
  0
LINE
  5
3F3
330
2
100
AcDbEntity
  8
WAKU
 62
     1
100
AcDbLine
 10
131.0
 20
156.4992141396424
 30
0.0
 11
255.9999999999997
 21
156.4992141396424
 31
0.0
  0
LINE
  5
3F4
330
2
100
AcDbEntity
  8
WAKU
 62
     1
100
AcDbLine
 10
131.0
 20
146.4992141396424
 30
0.0
 11
255.9999999999997
 21
146.4992141396424
 31
0.0
  0
LINE
  5
3F5
330
2
100
AcDbEntity
  8
WAKU
 62
     1
100
AcDbLine
 10
131.0
 20
141.4992141396424
 30
0.0
 11
255.9999999999997
 21
141.4992141396424
 31
0.0
  0
LINE
  5
3F6
330
2
100
AcDbEntity
  8
WAKU
 62
     4
100
AcDbLine
 10
255.9999999999997
 20
131.4992141396424
 30
0.0
 11
131.0
 21
131.4992141396424
 31
0.0
  0
TEXT
  5
3F7
330
2
100
AcDbEntity
  8
MOJI1
100
AcDbText
 10
133.4999999999999
 20
132.4992141396424
 30
0.0
 40
3.0
  1
角度調整
100
AcDbText
  0
LINE
  5
3F8
330
2
100
AcDbEntity
  8
WAKU
 62
     4
100
AcDbLine
 10
130.9999999999997
 20
171.4992141396424
 30
0.0
 11
131.0
 21
131.4992141396424
 31
0.0
  0
LINE
  5
3F9
330
2
100
AcDbEntity
  8
WAKU
 62
     4
100
AcDbLine
 10
170.9999999999997
 20
171.4992141396424
 30
0.0
 11
170.9999999999997
 21
131.4992141396424
 31
0.0
  0
TEXT
  5
3FA
330
2
100
AcDbEntity
  8
MOJI1
100
AcDbText
 10
133.5
 20
157.4992141396424
 30
0.0
 40
3.0
  1
パネルサイズ
100
AcDbText
  0
TEXT
  5
3FB
330
2
100
AcDbEntity
  8
MOJI1
100
AcDbText
 10
133.5
 20
147.4992141396424
 30
0.0
 40
3.0
  1
音声最大出力
100
AcDbText
  0
TEXT
  5
3FC
330
2
100
AcDbEntity
  8
MOJI1
100
AcDbText
 10
133.5
 20
142.4992141396424
 30
0.0
 40
3.0
  1
接続端子
100
AcDbText
  0
TEXT
  5
3FD
330
2
100
AcDbEntity
  8
MOJI1
100
AcDbText
 10
133.5
 20
152.4992141396424
 30
0.0
 40
3.0
  1
画素数
100
AcDbText
  0
TEXT
  5
3FE
330
2
100
AcDbEntity
  8
MOJI1
100
AcDbText
 10
133.5
 20
162.4992141396424
 30
0.0
 40
3.0
  1
消費電力
100
AcDbText
  0
TEXT
  5
3FF
330
2
100
AcDbEntity
  8
MOJI1
100
AcDbText
 10
133.5
 20
167.4992141396424
 30
0.0
 40
3.0
  1
電  源
100
AcDbText
  0
LINE
  5
403
330
2
100
AcDbEntity
  8
WAKU
 62
     4
100
AcDbLine
 10
255.9999999999997
 20
171.4992141396424
 30
0.0
 11
255.9999999999997
 21
131.4992141396424
 31
0.0
  0
TEXT
  5
43A
330
2
100
AcDbEntity
  8
MOJI1
370
     0
100
AcDbText
 10
173.4999999999997
 20
132.4992141396424
 30
0.0
 40
3.0
  1
５段階（０度、５度、１０度、１５度、２０度）
100
AcDbText
  0
TEXT
  5
43B
330
2
100
AcDbEntity
  8
MOJI1
370
     0
100
AcDbText
 10
173.4999999999997
 20
137.4992141396424
 30
0.0
 40
3.0
  1
コンポーネントビデオ、シリアル
100
AcDbText
  0
TEXT
  5
43C
330
2
100
AcDbEntity
  8
MOJI1
370
     0
100
AcDbText
 10
173.4999999999997
 20
142.4992141396424
 30
0.0
 40
3.0
  1
ビデオ／Ｓビデオ／ＰＣ／外部スピーカ
100
AcDbText
  0
TEXT
  5
43D
330
2
100
AcDbEntity
  8
MOJI1
370
     0
100
AcDbText
 10
173.4999999999997
 20
147.4992141396424
 30
0.0
 40
3.0
  1
１６Ｗ（８Ｗ＋８Ｗ）
100
AcDbText
  0
TEXT
  5
43E
330
2
100
AcDbEntity
  8
MOJI1
370
     0
100
AcDbText
 10
173.4999999999997
 20
152.4992141396424
 30
0.0
 40
3.0
  1
７８６４３２画素（水平１０２４×垂直７６８）
100
AcDbText
  0
TEXT
  5
43F
330
2
100
AcDbEntity
  8
MOJI1
370
     0
100
AcDbText
 10
173.4999999999997
 20
157.4992141396424
 30
0.0
 40
3.0
  1
４２Ｖ型（１６：９）
100
AcDbText
  0
TEXT
  5
440
330
2
100
AcDbEntity
  8
MOJI1
370
     0
100
AcDbText
 10
173.4999999999997
 20
162.4992141396424
 30
0.0
 40
3.0
  1
３１５Ｗ
100
AcDbText
  0
TEXT
  5
441
330
2
100
AcDbEntity
  8
MOJI1
370
     0
100
AcDbText
 10
173.4999999999997
 20
167.4992141396424
 30
0.0
 40
3.0
  1
ＡＣ１００Ｖ　５０Ｈｚ／６０Ｈｚ
100
AcDbText
  0
ENDSEC
  0
SECTION
  2
OBJECTS
  0
DICTIONARY
  5
21
330
0
100
AcDbDictionary
281
     1
  3
ACAD_COLOR
350
42D
  3
ACAD_GROUP
350
1F
  3
ACAD_LAYOUT
350
404
  3
ACAD_MATERIAL
350
42F
  3
ACAD_MLINESTYLE
350
20
  3
ACAD_PLOTSETTINGS
350
40F
  3
ACAD_PLOTSTYLENAME
350
411
  3
ACDBHEADERROUNDTRIPXREC
350
476
  3
AcDbVariableDictionary
350
472
  0
DICTIONARY
  5
F
330
E
100
AcDbDictionary
280
     1
281
     1
  3
ACAD_LAYERFILTERS
360
10
  0
DICTIONARY
  5
3
330
2
100
AcDbDictionary
280
     1
281
     1
  3
ACAD_LAYOUTSELFREF
360
4
  0
DICTIONARY
  5
A
330
9
100
AcDbDictionary
280
     1
281
     1
  3
ACAD_LAYOUTSELFREF
360
B
  0
DICTIONARY
  5
42D
102
{ACAD_REACTORS
330
21
102
}
330
21
100
AcDbDictionary
281
     1
  0
DICTIONARY
  5
1F
102
{ACAD_REACTORS
330
21
102
}
330
21
100
AcDbDictionary
281
     1
  0
DICTIONARY
  5
404
102
{ACAD_REACTORS
330
21
102
}
330
21
100
AcDbDictionary
281
     1
  3
Model
350
437
  3
レイアウト1
350
438
  0
DICTIONARY
  5
42F
102
{ACAD_REACTORS
330
21
102
}
330
21
100
AcDbDictionary
281
     1
  0
DICTIONARY
  5
20
102
{ACAD_REACTORS
330
21
102
}
330
21
100
AcDbDictionary
281
     1
  3
STANDARD
350
25
  0
DICTIONARY
  5
40F
102
{ACAD_REACTORS
330
21
102
}
330
21
100
AcDbDictionary
281
     1
  0
ACDBDICTIONARYWDFLT
  5
411
102
{ACAD_REACTORS
330
21
102
}
330
21
100
AcDbDictionary
281
     1
  3
NORMAL
350
412
100
AcDbDictionaryWithDefault
340
412
  0
DICTIONARY
  5
476
102
{ACAD_REACTORS
330
21
102
}
330
21
100
AcDbDictionary
281
     1
  3
COLORDICT
350
478
  3
MATERIALDICT
350
477
  0
DICTIONARY
  5
472
102
{ACAD_REACTORS
330
21
102
}
330
21
100
AcDbDictionary
281
     1
  3
DIMASSOC
350
473
  3
PROJECTNAME
350
474
  0
DICTIONARY
  5
10
102
{ACAD_REACTORS
330
F
102
}
330
F
100
AcDbDictionary
280
     1
281
     1
  3
ロック画層
360
11
  0
XRECORD
  5
4
102
{ACAD_REACTORS
330
3
102
}
330
3
100
AcDbXrecord
280
     1
340
2
  0
XRECORD
  5
B
102
{ACAD_REACTORS
330
A
102
}
330
A
100
AcDbXrecord
280
     1
340
9
  0
LAYOUT
  5
437
102
{ACAD_XDICTIONARY
360
479
102
}
102
{ACAD_REACTORS
330
404
102
}
330
404
100
AcDbPlotSettings
  1

  2
\\Uranus\BFACN02M
  4

  6

 40
0.0
 41
0.0
 42
0.0
 43
0.0
 44
0.0
 45
0.0
 46
0.0
 47
0.0
 48
0.0
 49
0.0
140
0.0
141
0.0
142
1.0
143
1.0
 70
  1712
 72
     0
 73
     0
 74
     0
  7
SSC.ctb
 75
     0
147
1.0
148
0.0
149
0.0
100
AcDbLayout
  1
Model
 70
     1
 71
     0
 10
0.0
 20
0.0
 11
12.0
 21
9.0
 12
0.0
 22
0.0
 32
0.0
 14
0.0
 24
0.0
 34
0.0
 15
0.0
 25
0.0
 35
0.0
146
0.0
 13
0.0
 23
0.0
 33
0.0
 16
1.0
 26
0.0
 36
0.0
 17
0.0
 27
1.0
 37
0.0
 76
     0
330
2
  0
LAYOUT
  5
438
102
{ACAD_XDICTIONARY
360
47B
102
}
102
{ACAD_REACTORS
330
404
102
}
330
404
100
AcDbPlotSettings
  1

  2
\\Uranus\BFACN02M
  4

  6

 40
0.0
 41
0.0
 42
0.0
 43
0.0
 44
0.0
 45
0.0
 46
0.0
 47
0.0
 48
0.0
 49
0.0
140
0.0
141
0.0
142
1.0
143
1.0
 70
   688
 72
     0
 73
     0
 74
     5
  7
SSC.ctb
 75
    16
147
1.0
148
0.0
149
0.0
100
AcDbLayout
  1
レイアウト1
 70
     1
 71
     1
 10
0.0
 20
0.0
 11
12.0
 21
9.0
 12
0.0
 22
0.0
 32
0.0
 14
1.000000000000000E+20
 24
1.000000000000000E+20
 34
1.000000000000000E+20
 15
-1.000000000000000E+20
 25
-1.000000000000000E+20
 35
-1.000000000000000E+20
146
0.0
 13
0.0
 23
0.0
 33
0.0
 16
1.0
 26
0.0
 36
0.0
 17
0.0
 27
1.0
 37
0.0
 76
     0
330
9
  0
MLINESTYLE
  5
25
102
{ACAD_REACTORS
330
20
102
}
330
20
100
AcDbMlineStyle
  2
STANDARD
 70
     0
  3

 62
   256
 51
90.0
 52
90.0
 71
     2
 49
0.5
 62
   256
  6
BYLAYER
 49
-0.5
 62
   256
  6
BYLAYER
  0
ACDBPLACEHOLDER
  5
412
102
{ACAD_REACTORS
330
411
102
}
330
411
  0
XRECORD
  5
478
102
{ACAD_REACTORS
330
476
102
}
330
476
100
AcDbXrecord
280
     1
340
42D
  0
XRECORD
  5
477
102
{ACAD_REACTORS
330
476
102
}
330
476
100
AcDbXrecord
280
     1
340
42F
  0
DICTIONARYVAR
  5
473
102
{ACAD_REACTORS
330
472
102
}
330
472
100
DictionaryVariables
280
     0
  1
1
  0
DICTIONARYVAR
  5
474
102
{ACAD_REACTORS
330
472
102
}
330
472
100
DictionaryVariables
280
     0
  1

  0
XRECORD
  5
11
102
{ACAD_REACTORS
330
10
102
}
330
10
100
AcDbXrecord
280
     1
  1
ロック画層
  1
*
  1
*
  1
*
 70
   256
  1
*
  1
*
  0
DICTIONARY
  5
479
330
437
100
AcDbDictionary
280
     1
281
     1
  3
ACAD_XREC_ROUNDTRIP
360
47A
  0
DICTIONARY
  5
47B
330
438
100
AcDbDictionary
280
     1
281
     1
  3
ACAD_XREC_ROUNDTRIP
360
47C
  0
XRECORD
  5
47A
102
{ACAD_REACTORS
330
479
102
}
330
479
100
AcDbXrecord
280
     1
102
SHADEPLOT
 70
     0
102
SHADEPLOTRESLEVEL
 70
     2
102
SHADEPLOTCUSTOMDPI
 70
   300
  0
XRECORD
  5
47C
102
{ACAD_REACTORS
330
47B
102
}
330
47B
100
AcDbXrecord
280
     1
102
SHADEPLOT
 70
     0
102
SHADEPLOTRESLEVEL
 70
     2
102
SHADEPLOTCUSTOMDPI
 70
   300
  0
ENDSEC
  0
EOF
